  0
SECTION
  2
HEADER
  9
$ACADVER
  1
AC1015
  9
$ACADMAINTVER
 70
    20
  9
$DWGCODEPAGE
  3
ANSI_932
  9
$INSBASE
 10
0.0
 20
0.0
 30
0.0
  9
$EXTMIN
 10
124.0
 20
4.0
 30
0.0
  9
$EXTMAX
 10
2784.000000000001
 20
2024.000000000001
 30
0.0
  9
$LIMMIN
 10
0.0
 20
0.0
  9
$LIMMAX
 10
29700.0
 20
21000.0
  9
$ORTHOMODE
 70
     0
  9
$REGENMODE
 70
     1
  9
$FILLMODE
 70
     1
  9
$QTEXTMODE
 70
     0
  9
$MIRRTEXT
 70
     1
  9
$LTSCALE
 40
4.0
  9
$ATTMODE
 70
     1
  9
$TEXTSIZE
 40
30.0
  9
$TRACEWID
 40
1.0
  9
$TEXTSTYLE
  7
Standard
  9
$CLAYER
  8
実形
  9
$CELTYPE
  6
ByLayer
  9
$CECOLOR
 62
     3
  9
$CELTSCALE
 40
1.0
  9
$DISPSILH
 70
     0
  9
$DIMSCALE
 40
1.0
  9
$DIMASZ
 40
10.0
  9
$DIMEXO
 40
65.0
  9
$DIMDLI
 40
3.75
  9
$DIMRND
 40
0.0
  9
$DIMDLE
 40
0.0
  9
$DIMEXE
 40
0.0
  9
$DIMTP
 40
0.0
  9
$DIMTM
 40
0.0
  9
$DIMTXT
 40
30.0
  9
$DIMCEN
 40
2.5
  9
$DIMTSZ
 40
0.0
  9
$DIMTOL
 70
     0
  9
$DIMLIM
 70
     0
  9
$DIMTIH
 70
     0
  9
$DIMTOH
 70
     0
  9
$DIMSE1
 70
     0
  9
$DIMSE2
 70
     0
  9
$DIMTAD
 70
     1
  9
$DIMZIN
 70
     8
  9
$DIMBLK
  1
Dot
  9
$DIMASO
 70
     1
  9
$DIMSHO
 70
     1
  9
$DIMPOST
  1

  9
$DIMAPOST
  1

  9
$DIMALT
 70
     0
  9
$DIMALTD
 70
     3
  9
$DIMALTF
 40
0.03937007874016
  9
$DIMLFAC
 40
1.0
  9
$DIMTOFL
 70
     1
  9
$DIMTVP
 40
0.0
  9
$DIMTIX
 70
     0
  9
$DIMSOXD
 70
     0
  9
$DIMSAH
 70
     0
  9
$DIMBLK1
  1

  9
$DIMBLK2
  1

  9
$DIMSTYLE
  2
ISO-25
  9
$DIMCLRD
 70
     0
  9
$DIMCLRE
 70
     0
  9
$DIMCLRT
 70
     0
  9
$DIMTFAC
 40
1.0
  9
$DIMGAP
 40
6.599999999999998
  9
$DIMJUST
 70
     0
  9
$DIMSD1
 70
     0
  9
$DIMSD2
 70
     0
  9
$DIMTOLJ
 70
     0
  9
$DIMTZIN
 70
     8
  9
$DIMALTZ
 70
     0
  9
$DIMALTTZ
 70
     0
  9
$DIMUPT
 70
     0
  9
$DIMDEC
 70
     2
  9
$DIMTDEC
 70
     2
  9
$DIMALTU
 70
     2
  9
$DIMALTTD
 70
     3
  9
$DIMTXSTY
  7
Standard
  9
$DIMAUNIT
 70
     0
  9
$DIMADEC
 70
     0
  9
$DIMALTRND
 40
0.0
  9
$DIMAZIN
 70
     0
  9
$DIMDSEP
 70
    46
  9
$DIMATFIT
 70
     3
  9
$DIMFRAC
 70
     0
  9
$DIMLDRBLK
  1
Open30
  9
$DIMLUNIT
 70
     2
  9
$DIMLWD
 70
    18
  9
$DIMLWE
 70
    18
  9
$DIMTMOVE
 70
     2
  9
$LUNITS
 70
     2
  9
$LUPREC
 70
     2
  9
$SKETCHINC
 40
1.0
  9
$FILLETRAD
 40
190.0
  9
$AUNITS
 70
     0
  9
$AUPREC
 70
     0
  9
$MENU
  1
.
  9
$ELEVATION
 40
0.0
  9
$PELEVATION
 40
0.0
  9
$THICKNESS
 40
0.0
  9
$LIMCHECK
 70
     1
  9
$CHAMFERA
 40
10.0
  9
$CHAMFERB
 40
10.0
  9
$CHAMFERC
 40
20.0
  9
$CHAMFERD
 40
0.0
  9
$SKPOLY
 70
     0
  9
$TDCREATE
 40
2451673.575802199
  9
$TDUCREATE
 40
2451673.200802199
  9
$TDUPDATE
 40
2458813.802694537
  9
$TDUUPDATE
 40
2458813.427694537
  9
$TDINDWG
 40
2.6294261458
  9
$TDUSRTIMER
 40
2.6294254514
  9
$USRTIMER
 70
     1
  9
$ANGBASE
 50
0.0
  9
$ANGDIR
 70
     0
  9
$PDMODE
 70
     0
  9
$PDSIZE
 40
0.0
  9
$PLINEWID
 40
0.0
  9
$SPLFRAME
 70
     0
  9
$SPLINETYPE
 70
     6
  9
$SPLINESEGS
 70
     8
  9
$HANDSEED
  5
9D0F
  9
$SURFTAB1
 70
     6
  9
$SURFTAB2
 70
     6
  9
$SURFTYPE
 70
     6
  9
$SURFU
 70
     6
  9
$SURFV
 70
     6
  9
$UCSBASE
  2

  9
$UCSNAME
  2

  9
$UCSORG
 10
0.0
 20
0.0
 30
0.0
  9
$UCSXDIR
 10
1.0
 20
0.0
 30
0.0
  9
$UCSYDIR
 10
0.0
 20
1.0
 30
0.0
  9
$UCSORTHOREF
  2

  9
$UCSORTHOVIEW
 70
     0
  9
$UCSORGTOP
 10
0.0
 20
0.0
 30
0.0
  9
$UCSORGBOTTOM
 10
0.0
 20
0.0
 30
0.0
  9
$UCSORGLEFT
 10
0.0
 20
0.0
 30
0.0
  9
$UCSORGRIGHT
 10
0.0
 20
0.0
 30
0.0
  9
$UCSORGFRONT
 10
0.0
 20
0.0
 30
0.0
  9
$UCSORGBACK
 10
0.0
 20
0.0
 30
0.0
  9
$PUCSBASE
  2

  9
$PUCSNAME
  2

  9
$PUCSORG
 10
0.0
 20
0.0
 30
0.0
  9
$PUCSXDIR
 10
1.0
 20
0.0
 30
0.0
  9
$PUCSYDIR
 10
0.0
 20
1.0
 30
0.0
  9
$PUCSORTHOREF
  2

  9
$PUCSORTHOVIEW
 70
     0
  9
$PUCSORGTOP
 10
0.0
 20
0.0
 30
0.0
  9
$PUCSORGBOTTOM
 10
0.0
 20
0.0
 30
0.0
  9
$PUCSORGLEFT
 10
0.0
 20
0.0
 30
0.0
  9
$PUCSORGRIGHT
 10
0.0
 20
0.0
 30
0.0
  9
$PUCSORGFRONT
 10
0.0
 20
0.0
 30
0.0
  9
$PUCSORGBACK
 10
0.0
 20
0.0
 30
0.0
  9
$USERI1
 70
     0
  9
$USERI2
 70
     0
  9
$USERI3
 70
     0
  9
$USERI4
 70
     0
  9
$USERI5
 70
     0
  9
$USERR1
 40
0.0
  9
$USERR2
 40
0.0
  9
$USERR3
 40
0.0
  9
$USERR4
 40
0.0
  9
$USERR5
 40
0.0
  9
$WORLDVIEW
 70
     1
  9
$SHADEDGE
 70
     3
  9
$SHADEDIF
 70
    70
  9
$TILEMODE
 70
     1
  9
$MAXACTVP
 70
    64
  9
$PINSBASE
 10
0.0
 20
0.0
 30
0.0
  9
$PLIMCHECK
 70
     0
  9
$PEXTMIN
 10
27.8447512626648
 20
20.24591643810271
 30
0.0
  9
$PEXTMAX
 10
250.6027613639831
 20
182.2132479429245
 30
0.0
  9
$PLIMMIN
 10
-3.757080078125
 20
-3.757083177566528
  9
$PLIMMAX
 10
293.2112426757813
 20
206.2162444591522
  9
$UNITMODE
 70
     0
  9
$VISRETAIN
 70
     1
  9
$PLINEGEN
 70
     0
  9
$PSLTSCALE
 70
     1
  9
$TREEDEPTH
 70
  3020
  9
$CMLSTYLE
  2
Standard
  9
$CMLJUST
 70
     0
  9
$CMLSCALE
 40
20.0
  9
$PROXYGRAPHICS
 70
     1
  9
$MEASUREMENT
 70
     1
  9
$CELWEIGHT
370
    -1
  9
$ENDCAPS
280
     0
  9
$JOINSTYLE
280
     0
  9
$LWDISPLAY
290
     0
  9
$INSUNITS
 70
     4
  9
$HYPERLINKBASE
  1

  9
$STYLESHEET
  1

  9
$XEDIT
290
     1
  9
$CEPSNTYPE
380
     0
  9
$PSTYLEMODE
290
     1
  9
$FINGERPRINTGUID
  2
{C8EA1F16-24C9-11D4-9416-CE0A3B32152F}
  9
$VERSIONGUID
  2
{015CFC33-09CC-467D-8C10-046B4535E1A1}
  9
$EXTNAMES
290
     1
  9
$PSVPSCALE
 40
0.0
  9
$OLESTARTUP
290
     0
  0
ENDSEC
  0
SECTION
  2
CLASSES
  0
CLASS
  1
ACDBDICTIONARYWDFLT
  2
AcDbDictionaryWithDefault
  3
ObjectDBX Classes
 90
        0
280
     0
281
     0
  0
CLASS
  1
ACDBPLACEHOLDER
  2
AcDbPlaceHolder
  3
ObjectDBX Classes
 90
        0
280
     0
281
     0
  0
CLASS
  1
LAYOUT
  2
AcDbLayout
  3
ObjectDBX Classes
 90
        0
280
     0
281
     0
  0
CLASS
  1
DICTIONARYVAR
  2
AcDbDictionaryVar
  3
ObjectDBX Classes
 90
        0
280
     0
281
     0
  0
CLASS
  1
TABLESTYLE
  2
AcDbTableStyle
  3
ObjectDBX Classes
 90
     2047
280
     0
281
     0
  0
CLASS
  1
SORTENTSTABLE
  2
AcDbSortentsTable
  3
ObjectDBX Classes
 90
        0
280
     0
281
     0
  0
ENDSEC
  0
SECTION
  2
TABLES
  0
TABLE
  2
VPORT
  5
8
330
0
100
AcDbSymbolTable
 70
     2
  0
VPORT
  5
9D03
330
8
100
AcDbSymbolTableRecord
100
AcDbViewportTableRecord
  2
*Active
 70
     0
 10
0.0
 20
0.0
 11
1.0
 21
1.0
 12
1614.12223527972
 22
1034.334772905273
 13
0.0
 23
0.0
 14
10.0
 24
10.0
 15
10.0
 25
10.0
 16
0.0
 26
0.0
 36
1.0
 17
0.0
 27
0.0
 37
0.0
 40
2642.472152032303
 41
1.29038112522686
 42
50.0
 43
0.0
 44
0.0
 50
0.0
 51
0.0
 71
     0
 72
   100
 73
     1
 74
     3
 75
     0
 76
     0
 77
     0
 78
     0
281
     0
 65
     1
110
0.0
120
0.0
130
0.0
111
1.0
121
0.0
131
0.0
112
0.0
122
1.0
132
0.0
 79
     0
146
0.0
  0
ENDTAB
  0
TABLE
  2
LTYPE
  5
5
330
0
100
AcDbSymbolTable
 70
    46
  0
LTYPE
  5
14
330
5
100
AcDbSymbolTableRecord
100
AcDbLinetypeTableRecord
  2
ByBlock
 70
     0
  3

 72
    65
 73
     0
 40
0.0
  0
LTYPE
  5
15
330
5
100
AcDbSymbolTableRecord
100
AcDbLinetypeTableRecord
  2
ByLayer
 70
     0
  3

 72
    65
 73
     0
 40
0.0
  0
LTYPE
  5
16
330
5
100
AcDbSymbolTableRecord
100
AcDbLinetypeTableRecord
  2
Continuous
 70
     0
  3
Solid line
 72
    65
 73
     0
 40
0.0
  0
LTYPE
  5
34
330
5
100
AcDbSymbolTableRecord
100
AcDbLinetypeTableRecord
  2
ACAD_ISO02W100
 70
     0
  3
ISO dash __ __ __ __ __ __ __ __ __ __ __ __ __
 72
    65
 73
     2
 40
15.0
 49
12.0
 74
     0
 49
-3.0
 74
     0
  0
LTYPE
  5
35
330
5
100
AcDbSymbolTableRecord
100
AcDbLinetypeTableRecord
  2
ACAD_ISO03W100
 70
     0
  3
ISO dash space __    __    __    __    __    __
 72
    65
 73
     2
 40
30.0
 49
12.0
 74
     0
 49
-18.0
 74
     0
  0
LTYPE
  5
36
330
5
100
AcDbSymbolTableRecord
100
AcDbLinetypeTableRecord
  2
ACAD_ISO04W100
 70
     0
  3
ISO long-dash dot ____ . ____ . ____ . ____ . _
 72
    65
 73
     4
 40
30.0
 49
24.0
 74
     0
 49
-3.0
 74
     0
 49
0.0
 74
     0
 49
-3.0
 74
     0
  0
LTYPE
  5
37
330
5
100
AcDbSymbolTableRecord
100
AcDbLinetypeTableRecord
  2
ACAD_ISO05W100
 70
     0
  3
ISO long-dash double-dot ____ .. ____ .. ____ .
 72
    65
 73
     6
 40
34.0
 49
24.0
 74
     0
 49
-3.0
 74
     0
 49
0.5
 74
     0
 49
-3.0
 74
     0
 49
0.5
 74
     0
 49
-3.0
 74
     0
  0
LTYPE
  5
38
330
5
100
AcDbSymbolTableRecord
100
AcDbLinetypeTableRecord
  2
ACAD_ISO06W100
 70
     0
  3
ISO long-dash triple-dot ____ ... ____ ... ____
 72
    65
 73
     8
 40
37.5
 49
24.0
 74
     0
 49
-3.0
 74
     0
 49
0.5
 74
     0
 49
-3.0
 74
     0
 49
0.5
 74
     0
 49
-3.0
 74
     0
 49
0.5
 74
     0
 49
-3.0
 74
     0
  0
LTYPE
  5
39
330
5
100
AcDbSymbolTableRecord
100
AcDbLinetypeTableRecord
  2
ACAD_ISO07W100
 70
     0
  3
ISO dot . . . . . . . . . . . . . . . . . . . .
 72
    65
 73
     2
 40
3.0
 49
0.0
 74
     0
 49
-3.0
 74
     0
  0
LTYPE
  5
3A
330
5
100
AcDbSymbolTableRecord
100
AcDbLinetypeTableRecord
  2
ACAD_ISO08W100
 70
     0
  3
ISO long-dash short-dash ____ __ ____ __ ____ _
 72
    65
 73
     4
 40
36.0
 49
24.0
 74
     0
 49
-3.0
 74
     0
 49
6.0
 74
     0
 49
-3.0
 74
     0
  0
LTYPE
  5
3B
330
5
100
AcDbSymbolTableRecord
100
AcDbLinetypeTableRecord
  2
ACAD_ISO09W100
 70
     0
  3
ISO long-dash double-short-dash ____ __ __ ____
 72
    65
 73
     6
 40
45.0
 49
24.0
 74
     0
 49
-3.0
 74
     0
 49
6.0
 74
     0
 49
-3.0
 74
     0
 49
6.0
 74
     0
 49
-3.0
 74
     0
  0
LTYPE
  5
3C
330
5
100
AcDbSymbolTableRecord
100
AcDbLinetypeTableRecord
  2
ACAD_ISO10W100
 70
     0
  3
ISO dash dot __ . __ . __ . __ . __ . __ . __ .
 72
    65
 73
     4
 40
18.0
 49
12.0
 74
     0
 49
-3.0
 74
     0
 49
0.0
 74
     0
 49
-3.0
 74
     0
  0
LTYPE
  5
3D
330
5
100
AcDbSymbolTableRecord
100
AcDbLinetypeTableRecord
  2
ACAD_ISO11W100
 70
     0
  3
ISO double-dash dot __ __ . __ __ . __ __ . __ 
 72
    65
 73
     6
 40
33.0
 49
12.0
 74
     0
 49
-3.0
 74
     0
 49
12.0
 74
     0
 49
-3.0
 74
     0
 49
0.0
 74
     0
 49
-3.0
 74
     0
  0
LTYPE
  5
3E
330
5
100
AcDbSymbolTableRecord
100
AcDbLinetypeTableRecord
  2
ACAD_ISO12W100
 70
     0
  3
ISO dash double-dot __ . . __ . . __ . . __ . .
 72
    65
 73
     6
 40
21.0
 49
12.0
 74
     0
 49
-3.0
 74
     0
 49
0.0
 74
     0
 49
-3.0
 74
     0
 49
0.0
 74
     0
 49
-3.0
 74
     0
  0
LTYPE
  5
3F
330
5
100
AcDbSymbolTableRecord
100
AcDbLinetypeTableRecord
  2
ACAD_ISO13W100
 70
     0
  3
ISO double-dash double-dot __ __ . . __ __ . . 
 72
    65
 73
     8
 40
36.0
 49
12.0
 74
     0
 49
-3.0
 74
     0
 49
12.0
 74
     0
 49
-3.0
 74
     0
 49
0.0
 74
     0
 49
-3.0
 74
     0
 49
0.0
 74
     0
 49
-3.0
 74
     0
  0
LTYPE
  5
40
330
5
100
AcDbSymbolTableRecord
100
AcDbLinetypeTableRecord
  2
ACAD_ISO14W100
 70
     0
  3
ISO dash triple-dot __ . . . __ . . . __ . . . 
 72
    65
 73
     8
 40
24.0
 49
12.0
 74
     0
 49
-3.0
 74
     0
 49
0.0
 74
     0
 49
-3.0
 74
     0
 49
0.0
 74
     0
 49
-3.0
 74
     0
 49
0.0
 74
     0
 49
-3.0
 74
     0
  0
LTYPE
  5
41
330
5
100
AcDbSymbolTableRecord
100
AcDbLinetypeTableRecord
  2
ACAD_ISO15W100
 70
     0
  3
ISO double-dash triple-dot __ __ . . . __ __ . 
 72
    65
 73
    10
 40
39.0
 49
12.0
 74
     0
 49
-3.0
 74
     0
 49
12.0
 74
     0
 49
-3.0
 74
     0
 49
0.0
 74
     0
 49
-3.0
 74
     0
 49
0.0
 74
     0
 49
-3.0
 74
     0
 49
0.0
 74
     0
 49
-3.0
 74
     0
  0
LTYPE
  5
42
330
5
100
AcDbSymbolTableRecord
100
AcDbLinetypeTableRecord
  2
BATTING
 70
     0
  3
Batting SSSSSSSSSSSSSSSSSSSSSSSSSSSSSSSSSSSSSSS
 72
    65
 73
     4
 40
10.16254
 49
0.00254
 74
     0
 49
-2.54
 74
     4
 75
   134
340
33
 46
2.54
 50
0.0
 44
-2.54
 45
0.0
 49
-5.08
 74
     4
 75
   134
340
33
 46
2.54
 50
180.0
 44
2.54
 45
0.0
 49
-2.54
 74
     0
  0
LTYPE
  5
43
330
5
100
AcDbSymbolTableRecord
100
AcDbLinetypeTableRecord
  2
BORDER
 70
     0
  3
Border __ __ . __ __ . __ __ . __ __ . __ __ .
 72
    65
 73
     6
 40
44.45
 49
12.7
 74
     0
 49
-6.349999999999999
 74
     0
 49
12.7
 74
     0
 49
-6.349999999999999
 74
     0
 49
0.0
 74
     0
 49
-6.349999999999999
 74
     0
  0
LTYPE
  5
44
330
5
100
AcDbSymbolTableRecord
100
AcDbLinetypeTableRecord
  2
BORDER2
 70
     0
  3
Border (.5x) __.__.__.__.__.__.__.__.__.__.__.
 72
    65
 73
     6
 40
22.225
 49
6.349999999999999
 74
     0
 49
-3.174999999999999
 74
     0
 49
6.349999999999999
 74
     0
 49
-3.174999999999999
 74
     0
 49
0.0
 74
     0
 49
-3.174999999999999
 74
     0
  0
LTYPE
  5
45
330
5
100
AcDbSymbolTableRecord
100
AcDbLinetypeTableRecord
  2
BORDERX2
 70
     0
  3
Border (2x) ____  ____  .  ____  ____  .  ___
 72
    65
 73
     6
 40
88.9
 49
25.4
 74
     0
 49
-12.7
 74
     0
 49
25.4
 74
     0
 49
-12.7
 74
     0
 49
0.0
 74
     0
 49
-12.7
 74
     0
  0
LTYPE
  5
46
330
5
100
AcDbSymbolTableRecord
100
AcDbLinetypeTableRecord
  2
CENTER
 70
     0
  3
Center ____ _ ____ _ ____ _ ____ _ ____ _ ____
 72
    65
 73
     4
 40
50.8
 49
31.75
 74
     0
 49
-6.349999999999999
 74
     0
 49
6.349999999999999
 74
     0
 49
-6.349999999999999
 74
     0
  0
LTYPE
  5
47
330
5
100
AcDbSymbolTableRecord
100
AcDbLinetypeTableRecord
  2
CENTER2
 70
     0
  3
Center (.5x) ___ _ ___ _ ___ _ ___ _ ___ _ ___
 72
    65
 73
     4
 40
28.575
 49
19.05
 74
     0
 49
-3.174999999999999
 74
     0
 49
3.174999999999999
 74
     0
 49
-3.174999999999999
 74
     0
  0
LTYPE
  5
48
330
5
100
AcDbSymbolTableRecord
100
AcDbLinetypeTableRecord
  2
CENTERX2
 70
     0
  3
Center (2x) ________  __  ________  __  _____
 72
    65
 73
     4
 40
101.6
 49
63.5
 74
     0
 49
-12.7
 74
     0
 49
12.7
 74
     0
 49
-12.7
 74
     0
  0
LTYPE
  5
49
330
5
100
AcDbSymbolTableRecord
100
AcDbLinetypeTableRecord
  2
DASHDOT
 70
     0
  3
Dash dot __ . __ . __ . __ . __ . __ . __ . __
 72
    65
 73
     4
 40
25.4
 49
12.7
 74
     0
 49
-6.349999999999999
 74
     0
 49
0.0
 74
     0
 49
-6.349999999999999
 74
     0
  0
LTYPE
  5
4A
330
5
100
AcDbSymbolTableRecord
100
AcDbLinetypeTableRecord
  2
DASHDOT2
 70
     0
  3
Dash dot (.5x) _._._._._._._._._._._._._._._.
 72
    65
 73
     4
 40
12.7
 49
6.349999999999999
 74
     0
 49
-3.174999999999999
 74
     0
 49
0.0
 74
     0
 49
-3.174999999999999
 74
     0
  0
LTYPE
  5
4B
330
5
100
AcDbSymbolTableRecord
100
AcDbLinetypeTableRecord
  2
DASHDOTX2
 70
     0
  3
Dash dot (2x) ____  .  ____  .  ____  .  ___
 72
    65
 73
     4
 40
50.8
 49
25.4
 74
     0
 49
-12.7
 74
     0
 49
0.0
 74
     0
 49
-12.7
 74
     0
  0
LTYPE
  5
4C
330
5
100
AcDbSymbolTableRecord
100
AcDbLinetypeTableRecord
  2
DASHED
 70
     0
  3
Dashed __ __ __ __ __ __ __ __ __ __ __ __ __ _
 72
    65
 73
     2
 40
19.05
 49
12.7
 74
     0
 49
-6.349999999999999
 74
     0
  0
LTYPE
  5
4D
330
5
100
AcDbSymbolTableRecord
100
AcDbLinetypeTableRecord
  2
DASHED2
 70
     0
  3
Dashed (.5x) _ _ _ _ _ _ _ _ _ _ _ _ _ _ _ _ _
 72
    65
 73
     2
 40
9.524999999999998
 49
6.349999999999999
 74
     0
 49
-3.174999999999999
 74
     0
  0
LTYPE
  5
4E
330
5
100
AcDbSymbolTableRecord
100
AcDbLinetypeTableRecord
  2
DASHEDX2
 70
     0
  3
Dashed (2x) ____  ____  ____  ____  ____  ___
 72
    65
 73
     2
 40
38.1
 49
25.4
 74
     0
 49
-12.7
 74
     0
  0
LTYPE
  5
4F
330
5
100
AcDbSymbolTableRecord
100
AcDbLinetypeTableRecord
  2
DIVIDE
 70
     0
  3
Divide ____ . . ____ . . ____ . . ____ . . ____
 72
    65
 73
     6
 40
31.75
 49
12.7
 74
     0
 49
-6.349999999999999
 74
     0
 49
0.0
 74
     0
 49
-6.349999999999999
 74
     0
 49
0.0
 74
     0
 49
-6.349999999999999
 74
     0
  0
LTYPE
  5
50
330
5
100
AcDbSymbolTableRecord
100
AcDbLinetypeTableRecord
  2
DIVIDE2
 70
     0
  3
Divide (.5x) __..__..__..__..__..__..__..__.._
 72
    65
 73
     6
 40
15.875
 49
6.349999999999999
 74
     0
 49
-3.174999999999999
 74
     0
 49
0.0
 74
     0
 49
-3.174999999999999
 74
     0
 49
0.0
 74
     0
 49
-3.174999999999999
 74
     0
  0
LTYPE
  5
51
330
5
100
AcDbSymbolTableRecord
100
AcDbLinetypeTableRecord
  2
DIVIDEX2
 70
     0
  3
Divide (2x) ________  .  .  ________  .  .  _
 72
    65
 73
     6
 40
63.49999999999999
 49
25.4
 74
     0
 49
-12.7
 74
     0
 49
0.0
 74
     0
 49
-12.7
 74
     0
 49
0.0
 74
     0
 49
-12.7
 74
     0
  0
LTYPE
  5
52
330
5
100
AcDbSymbolTableRecord
100
AcDbLinetypeTableRecord
  2
DOT
 70
     0
  3
Dot . . . . . . . . . . . . . . . . . . . . . .
 72
    65
 73
     2
 40
6.349999999999999
 49
0.0
 74
     0
 49
-6.349999999999999
 74
     0
  0
LTYPE
  5
53
330
5
100
AcDbSymbolTableRecord
100
AcDbLinetypeTableRecord
  2
DOT2
 70
     0
  3
Dot (.5x) .....................................
 72
    65
 73
     2
 40
3.174999999999999
 49
0.0
 74
     0
 49
-3.174999999999999
 74
     0
  0
LTYPE
  5
54
330
5
100
AcDbSymbolTableRecord
100
AcDbLinetypeTableRecord
  2
DOTX2
 70
     0
  3
Dot (2x) .  .  .  .  .  .  .  .  .  .  .  .  . 
 72
    65
 73
     2
 40
12.7
 49
0.0
 74
     0
 49
-12.7
 74
     0
  0
LTYPE
  5
55
330
5
100
AcDbSymbolTableRecord
100
AcDbLinetypeTableRecord
  2
FENCELINE1
 70
     0
  3
Fenceline circle ----0-----0----0-----0----0---
 72
    65
 73
     4
 40
36.83
 49
6.349999999999999
 74
     0
 49
-2.54
 74
     4
 75
   133
340
33
 46
2.54
 50
0.0
 44
-2.54
 45
0.0
 49
-2.54
 74
     0
 49
25.4
 74
     0
  0
LTYPE
  5
56
330
5
100
AcDbSymbolTableRecord
100
AcDbLinetypeTableRecord
  2
FENCELINE2
 70
     0
  3
Fenceline square ----[]-----[]----[]-----[]----
 72
    65
 73
     4
 40
36.83
 49
6.349999999999999
 74
     0
 49
-2.54
 74
     4
 75
   132
340
33
 46
2.54
 50
0.0
 44
-2.54
 45
0.0
 49
-2.54
 74
     0
 49
25.4
 74
     0
  0
LTYPE
  5
57
330
5
100
AcDbSymbolTableRecord
100
AcDbLinetypeTableRecord
  2
GAS_LINE
 70
     0
  3
Gas line ----GAS----GAS----GAS----GAS----GAS---
 72
    65
 73
     3
 40
24.13
 49
12.7
 74
     0
 49
-5.08
 74
     2
 75
     0
340
11
 46
2.54
 50
0.0
 44
-2.54
 45
-1.27
  9
GAS
 49
-6.349999999999999
 74
     0
  0
LTYPE
  5
58
330
5
100
AcDbSymbolTableRecord
100
AcDbLinetypeTableRecord
  2
HIDDEN
 70
     0
  3
Hidden __ __ __ __ __ __ __ __ __ __ __ __ __ _
 72
    65
 73
     2
 40
9.524999999999998
 49
6.349999999999999
 74
     0
 49
-3.174999999999999
 74
     0
  0
LTYPE
  5
59
330
5
100
AcDbSymbolTableRecord
100
AcDbLinetypeTableRecord
  2
HIDDEN2
 70
     0
  3
Hidden (.5x) _ _ _ _ _ _ _ _ _ _ _ _ _ _ _ _ _
 72
    65
 73
     2
 40
4.762499999999999
 49
3.174999999999999
 74
     0
 49
-1.587499999999999
 74
     0
  0
LTYPE
  5
5A
330
5
100
AcDbSymbolTableRecord
100
AcDbLinetypeTableRecord
  2
HIDDENX2
 70
     0
  3
Hidden (2x) ____ ____ ____ ____ ____ ____ ____
 72
    65
 73
     2
 40
19.05
 49
12.7
 74
     0
 49
-6.349999999999999
 74
     0
  0
LTYPE
  5
5B
330
5
100
AcDbSymbolTableRecord
100
AcDbLinetypeTableRecord
  2
HOT_WATER_SUPPLY
 70
     0
  3
Hot water supply ---- HW ---- HW ---- HW ----
 72
    65
 73
     3
 40
22.86
 49
12.7
 74
     0
 49
-5.08
 74
     2
 75
     0
340
11
 46
2.54
 50
0.0
 44
-2.54
 45
-1.27
  9
HW
 49
-5.08
 74
     0
  0
LTYPE
  5
5C
330
5
100
AcDbSymbolTableRecord
100
AcDbLinetypeTableRecord
  2
PHANTOM
 70
     0
  3
Phantom ______  __  __  ______  __  __  ______
 72
    65
 73
     6
 40
63.5
 49
31.75
 74
     0
 49
-6.349999999999999
 74
     0
 49
6.349999999999999
 74
     0
 49
-6.349999999999999
 74
     0
 49
6.349999999999999
 74
     0
 49
-6.349999999999999
 74
     0
  0
LTYPE
  5
5D
330
5
100
AcDbSymbolTableRecord
100
AcDbLinetypeTableRecord
  2
PHANTOM2
 70
     0
  3
Phantom (.5x) ___ _ _ ___ _ _ ___ _ _ ___ _ _
 72
    65
 73
     6
 40
31.75
 49
15.875
 74
     0
 49
-3.174999999999999
 74
     0
 49
3.174999999999999
 74
     0
 49
-3.174999999999999
 74
     0
 49
3.174999999999999
 74
     0
 49
-3.174999999999999
 74
     0
  0
LTYPE
  5
5E
330
5
100
AcDbSymbolTableRecord
100
AcDbLinetypeTableRecord
  2
PHANTOMX2
 70
     0
  3
Phantom (2x) ____________    ____    ____   _
 72
    65
 73
     6
 40
127.0
 49
63.5
 74
     0
 49
-12.7
 74
     0
 49
12.7
 74
     0
 49
-12.7
 74
     0
 49
12.7
 74
     0
 49
-12.7
 74
     0
  0
LTYPE
  5
5F
330
5
100
AcDbSymbolTableRecord
100
AcDbLinetypeTableRecord
  2
TRACKS
 70
     0
  3
Tracks -|-|-|-|-|-|-|-|-|-|-|-|-|-|-|-|-|-|-|-|
 72
    65
 73
     2
 40
7.62
 49
3.81
 74
     4
 75
   130
340
33
 46
6.349999999999999
 50
0.0
 44
0.0
 45
0.0
 49
3.81
 74
     0
  0
LTYPE
  5
60
330
5
100
AcDbSymbolTableRecord
100
AcDbLinetypeTableRecord
  2
ZIGZAG
 70
     0
  3
Zig zag /\/\/\/\/\/\/\/\/\/\/\/\/\/\/\/\/\/\/\/
 72
    65
 73
     4
 40
20.32254
 49
0.00254
 74
     0
 49
-5.08
 74
     4
 75
   131
340
33
 46
5.08
 50
0.0
 44
-5.08
 45
0.0
 49
-10.16
 74
     4
 75
   131
340
33
 46
5.08
 50
180.0
 44
5.08
 45
0.0
 49
-5.08
 74
     0
  0
ENDTAB
  0
TABLE
  2
LAYER
  5
2
102
{ACAD_XDICTIONARY
360
24C4
102
}
330
0
100
AcDbSymbolTable
 70
     9
  0
LAYER
  5
10
330
2
100
AcDbSymbolTableRecord
100
AcDbLayerTableRecord
  2
0
 70
     0
 62
     7
  6
Continuous
290
     0
370
    -3
390
F
  0
LAYER
  5
C3
330
2
100
AcDbSymbolTableRecord
100
AcDbLayerTableRecord
  2
Defpoints
 70
     0
 62
     7
  6
Continuous
290
     0
370
    -3
390
F
  0
LAYER
  5
256
330
2
100
AcDbSymbolTableRecord
100
AcDbLayerTableRecord
  2
センター
 70
     0
 62
     7
  6
CENTER2
370
    18
390
F
  0
LAYER
  5
268
330
2
100
AcDbSymbolTableRecord
100
AcDbLayerTableRecord
  2
実形
 70
     0
 62
     7
  6
Continuous
370
    -3
390
F
  0
LAYER
  5
269
330
2
100
AcDbSymbolTableRecord
100
AcDbLayerTableRecord
  2
補助
 70
     0
 62
     4
  6
Continuous
290
     0
370
    -3
390
F
  0
LAYER
  5
26A
330
2
100
AcDbSymbolTableRecord
100
AcDbLayerTableRecord
  2
寸法
 70
     0
 62
     7
  6
Continuous
370
    18
390
F
  0
LAYER
  5
26B
330
2
100
AcDbSymbolTableRecord
100
AcDbLayerTableRecord
  2
ハッチング
 70
     0
 62
     7
  6
Continuous
370
    18
390
F
  0
LAYER
  5
26D
330
2
100
AcDbSymbolTableRecord
100
AcDbLayerTableRecord
  2
枠
 70
     0
 62
     7
  6
Continuous
370
    -3
390
F
  0
LAYER
  5
1B3D
330
2
100
AcDbSymbolTableRecord
100
AcDbLayerTableRecord
  2
Cen
 70
     0
 62
     7
  6
CENTER2
290
     0
370
    15
390
F
  0
ENDTAB
  0
TABLE
  2
STYLE
  5
3
330
0
100
AcDbSymbolTable
 70
     3
  0
STYLE
  5
11
330
3
100
AcDbSymbolTableRecord
100
AcDbTextStyleTableRecord
  2
Standard
 70
     0
 40
0.0
 41
1.0
 50
0.0
 71
     0
 42
30.0
  3
txt.shx
  4
bigfont.shx
  0
STYLE
  5
33
330
3
100
AcDbSymbolTableRecord
100
AcDbTextStyleTableRecord
  2

 70
     1
 40
0.0
 41
1.0
 50
0.0
 71
     0
 42
2.5
  3
ltypeshp.shx
  4

  0
STYLE
  5
35E2
330
3
100
AcDbSymbolTableRecord
100
AcDbTextStyleTableRecord
  2
ms明朝
 70
     0
 40
0.0
 41
1.0
 50
0.0
 71
     0
 42
25.0
  3
MS Mincho.ttf
  4

1001
ACAD
1000
MS Mincho
1071
    32785
  0
ENDTAB
  0
TABLE
  2
VIEW
  5
6
330
0
100
AcDbSymbolTable
 70
     0
  0
ENDTAB
  0
TABLE
  2
UCS
  5
7
330
0
100
AcDbSymbolTable
 70
     0
  0
ENDTAB
  0
TABLE
  2
APPID
  5
9
330
0
100
AcDbSymbolTable
 70
     2
  0
APPID
  5
12
330
9
100
AcDbSymbolTableRecord
100
AcDbRegAppTableRecord
  2
ACAD
 70
     0
  0
APPID
  5
24C3
330
9
100
AcDbSymbolTableRecord
100
AcDbRegAppTableRecord
  2
ACAD_PSEXT
 70
     0
  0
ENDTAB
  0
TABLE
  2
DIMSTYLE
  5
A
330
0
100
AcDbSymbolTable
 70
     1
100
AcDbDimStyleTable
 71
     1
340
27
  0
DIMSTYLE
105
27
102
{ACAD_REACTORS
330
9486
330
9493
330
94CD
330
94E3
330
94F9
330
9506
330
9537
330
9657
330
9665
330
969F
330
96B5
330
992C
330
994B
330
996B
330
9B30
330
9BC4
102
}
330
A
100
AcDbSymbolTableRecord
100
AcDbDimStyleTableRecord
  2
ISO-25
 70
     0
 41
35.0
 42
65.0
 43
3.75
 44
0.0
 73
     0
 74
     0
 77
     1
 78
     8
140
25.0
141
2.5
143
0.03937007874016
147
6.25
171
     3
172
     1
271
     2
272
     2
274
     3
283
     0
284
     8
340
11
341
DA
342
D0
371
    15
372
    15
  0
ENDTAB
  0
TABLE
  2
BLOCK_RECORD
  5
1
330
0
100
AcDbSymbolTable
 70
    56
  0
BLOCK_RECORD
  5
1F
102
{ACAD_XDICTIONARY
360
2396
102
}
330
1
100
AcDbSymbolTableRecord
100
AcDbBlockTableRecord
  2
*Model_Space
340
22
  0
BLOCK_RECORD
  5
1B
330
1
100
AcDbSymbolTableRecord
100
AcDbBlockTableRecord
  2
*Paper_Space
340
1E
  0
BLOCK_RECORD
  5
23
330
1
100
AcDbSymbolTableRecord
100
AcDbBlockTableRecord
  2
*Paper_Space0
340
26
  0
BLOCK_RECORD
  5
D0
330
1
100
AcDbSymbolTableRecord
100
AcDbBlockTableRecord
  2
_DotSmall
340
0
  0
BLOCK_RECORD
  5
D4
330
1
100
AcDbSymbolTableRecord
100
AcDbBlockTableRecord
  2
_Origin2
340
0
  0
BLOCK_RECORD
  5
DA
330
1
100
AcDbSymbolTableRecord
100
AcDbBlockTableRecord
  2
_Open30
340
0
  0
BLOCK_RECORD
  5
2D6
330
1
100
AcDbSymbolTableRecord
100
AcDbBlockTableRecord
  2
A$C6CAC4411
340
0
  0
BLOCK_RECORD
  5
30D
330
1
100
AcDbSymbolTableRecord
100
AcDbBlockTableRecord
  2
_Dot
340
0
102
{BLKREFS
331
9131
331
9132
331
913E
331
913F
331
914A
331
914B
331
9155
331
9156
331
919D
331
919E
331
91A9
331
91AA
331
9125
331
9126
331
9191
331
9192
331
91B5
331
91B6
331
91CF
331
91D0
331
91DB
331
91DC
331
91E7
331
91E8
331
91F3
331
91F4
331
91FF
331
9200
331
920B
331
920C
331
9220
331
9221
331
9161
331
9162
331
916E
331
916F
331
917A
331
917B
331
9185
331
9186
331
97B3
331
97B4
331
97C0
331
97C1
331
97CC
331
97CD
331
97D7
331
97D8
331
9A7B
331
9A7C
331
9A85
331
9A86
331
9A8D
331
9A8E
331
9AED
331
9AEE
331
9AF5
331
9AF6
331
9AFE
331
9AFF
331
9B9B
331
9B9C
331
9BD4
331
9BD5
331
9C02
331
9C03
331
9C0B
331
9C0C
331
9C13
331
9C14
331
9C1C
331
9C1D
331
9C6D
331
9C6E
331
9C76
331
9C77
331
9C7E
331
9C7F
331
9C87
331
9C88
102
}
  0
BLOCK_RECORD
  5
313C
102
{ACAD_XDICTIONARY
360
313E
102
}
330
1
100
AcDbSymbolTableRecord
100
AcDbBlockTableRecord
  2
A$C6850087C
340
0
  0
BLOCK_RECORD
  5
3846
102
{ACAD_XDICTIONARY
360
3848
102
}
330
1
100
AcDbSymbolTableRecord
100
AcDbBlockTableRecord
  2
A$C71387EE1
340
0
  0
BLOCK_RECORD
  5
6DBC
102
{ACAD_XDICTIONARY
360
6DBE
102
}
330
1
100
AcDbSymbolTableRecord
100
AcDbBlockTableRecord
  2
A$C23106B24
340
0
  0
BLOCK_RECORD
  5
8DDF
330
1
100
AcDbSymbolTableRecord
100
AcDbBlockTableRecord
  2
*D9
340
0
  0
BLOCK_RECORD
  5
8DE6
102
{ACAD_XDICTIONARY
360
8DE9
102
}
330
1
100
AcDbSymbolTableRecord
100
AcDbBlockTableRecord
  2
A$C10DB60D7
340
0
  0
BLOCK_RECORD
  5
9120
330
1
100
AcDbSymbolTableRecord
100
AcDbBlockTableRecord
  2
*D11
340
0
  0
BLOCK_RECORD
  5
912C
330
1
100
AcDbSymbolTableRecord
100
AcDbBlockTableRecord
  2
*D12
340
0
  0
BLOCK_RECORD
  5
9138
330
1
100
AcDbSymbolTableRecord
100
AcDbBlockTableRecord
  2
*D13
340
0
  0
BLOCK_RECORD
  5
9144
330
1
100
AcDbSymbolTableRecord
100
AcDbBlockTableRecord
  2
*D14
340
0
  0
BLOCK_RECORD
  5
9150
330
1
100
AcDbSymbolTableRecord
100
AcDbBlockTableRecord
  2
*D15
340
0
  0
BLOCK_RECORD
  5
915C
330
1
100
AcDbSymbolTableRecord
100
AcDbBlockTableRecord
  2
*D16
340
0
  0
BLOCK_RECORD
  5
9168
330
1
100
AcDbSymbolTableRecord
100
AcDbBlockTableRecord
  2
*D17
340
0
  0
BLOCK_RECORD
  5
9174
330
1
100
AcDbSymbolTableRecord
100
AcDbBlockTableRecord
  2
*D18
340
0
  0
BLOCK_RECORD
  5
9180
330
1
100
AcDbSymbolTableRecord
100
AcDbBlockTableRecord
  2
*D19
340
0
  0
BLOCK_RECORD
  5
918C
330
1
100
AcDbSymbolTableRecord
100
AcDbBlockTableRecord
  2
*D20
340
0
  0
BLOCK_RECORD
  5
9198
330
1
100
AcDbSymbolTableRecord
100
AcDbBlockTableRecord
  2
*D21
340
0
  0
BLOCK_RECORD
  5
91A4
330
1
100
AcDbSymbolTableRecord
100
AcDbBlockTableRecord
  2
*D22
340
0
  0
BLOCK_RECORD
  5
91B0
330
1
100
AcDbSymbolTableRecord
100
AcDbBlockTableRecord
  2
*D23
340
0
  0
BLOCK_RECORD
  5
91BC
330
1
100
AcDbSymbolTableRecord
100
AcDbBlockTableRecord
  2
*D24
340
0
  0
BLOCK_RECORD
  5
91CA
330
1
100
AcDbSymbolTableRecord
100
AcDbBlockTableRecord
  2
*D25
340
0
  0
BLOCK_RECORD
  5
91D6
330
1
100
AcDbSymbolTableRecord
100
AcDbBlockTableRecord
  2
*D26
340
0
  0
BLOCK_RECORD
  5
91E2
330
1
100
AcDbSymbolTableRecord
100
AcDbBlockTableRecord
  2
*D27
340
0
  0
BLOCK_RECORD
  5
91EE
330
1
100
AcDbSymbolTableRecord
100
AcDbBlockTableRecord
  2
*D28
340
0
  0
BLOCK_RECORD
  5
91FA
330
1
100
AcDbSymbolTableRecord
100
AcDbBlockTableRecord
  2
*D29
340
0
  0
BLOCK_RECORD
  5
9206
330
1
100
AcDbSymbolTableRecord
100
AcDbBlockTableRecord
  2
*D30
340
0
  0
BLOCK_RECORD
  5
9212
330
1
100
AcDbSymbolTableRecord
100
AcDbBlockTableRecord
  2
*D31
340
0
  0
BLOCK_RECORD
  5
921B
330
1
100
AcDbSymbolTableRecord
100
AcDbBlockTableRecord
  2
*D32
340
0
  0
BLOCK_RECORD
  5
9227
102
{ACAD_XDICTIONARY
360
9329
102
}
330
1
100
AcDbSymbolTableRecord
100
AcDbBlockTableRecord
  2
PRS320-15MN ｻﾝﾌﾟﾙ2
340
0
  0
BLOCK_RECORD
  5
9487
330
1
100
AcDbSymbolTableRecord
100
AcDbBlockTableRecord
  2
*D34
340
0
  0
BLOCK_RECORD
  5
9494
330
1
100
AcDbSymbolTableRecord
100
AcDbBlockTableRecord
  2
*D35
340
0
  0
BLOCK_RECORD
  5
94CE
330
1
100
AcDbSymbolTableRecord
100
AcDbBlockTableRecord
  2
*D36
340
0
  0
BLOCK_RECORD
  5
94E4
330
1
100
AcDbSymbolTableRecord
100
AcDbBlockTableRecord
  2
*D37
340
0
  0
BLOCK_RECORD
  5
94FA
330
1
100
AcDbSymbolTableRecord
100
AcDbBlockTableRecord
  2
*D38
340
0
  0
BLOCK_RECORD
  5
9507
330
1
100
AcDbSymbolTableRecord
100
AcDbBlockTableRecord
  2
*D39
340
0
  0
BLOCK_RECORD
  5
9538
330
1
100
AcDbSymbolTableRecord
100
AcDbBlockTableRecord
  2
*D40
340
0
  0
BLOCK_RECORD
  5
9658
330
1
100
AcDbSymbolTableRecord
100
AcDbBlockTableRecord
  2
*D41
340
0
  0
BLOCK_RECORD
  5
9666
330
1
100
AcDbSymbolTableRecord
100
AcDbBlockTableRecord
  2
*D42
340
0
  0
BLOCK_RECORD
  5
96A0
330
1
100
AcDbSymbolTableRecord
100
AcDbBlockTableRecord
  2
*D43
340
0
  0
BLOCK_RECORD
  5
96B6
330
1
100
AcDbSymbolTableRecord
100
AcDbBlockTableRecord
  2
*D44
340
0
  0
BLOCK_RECORD
  5
96F1
102
{ACAD_XDICTIONARY
360
96F8
102
}
330
1
100
AcDbSymbolTableRecord
100
AcDbBlockTableRecord
  2
A$C36B273B5
340
0
  0
BLOCK_RECORD
  5
97AE
330
1
100
AcDbSymbolTableRecord
100
AcDbBlockTableRecord
  2
*D46
340
0
  0
BLOCK_RECORD
  5
97BA
330
1
100
AcDbSymbolTableRecord
100
AcDbBlockTableRecord
  2
*D47
340
0
  0
BLOCK_RECORD
  5
97C6
330
1
100
AcDbSymbolTableRecord
100
AcDbBlockTableRecord
  2
*D48
340
0
  0
BLOCK_RECORD
  5
97D2
330
1
100
AcDbSymbolTableRecord
100
AcDbBlockTableRecord
  2
*D49
340
0
  0
BLOCK_RECORD
  5
97DE
102
{ACAD_XDICTIONARY
360
9809
102
}
330
1
100
AcDbSymbolTableRecord
100
AcDbBlockTableRecord
  2
A$C708B09EF
340
0
  0
BLOCK_RECORD
  5
992D
330
1
100
AcDbSymbolTableRecord
100
AcDbBlockTableRecord
  2
*D51
340
0
  0
BLOCK_RECORD
  5
994C
330
1
100
AcDbSymbolTableRecord
100
AcDbBlockTableRecord
  2
*D52
340
0
  0
BLOCK_RECORD
  5
996C
330
1
100
AcDbSymbolTableRecord
100
AcDbBlockTableRecord
  2
*D53
340
0
  0
BLOCK_RECORD
  5
9B31
330
1
100
AcDbSymbolTableRecord
100
AcDbBlockTableRecord
  2
*D54
340
0
  0
BLOCK_RECORD
  5
9BC5
330
1
100
AcDbSymbolTableRecord
100
AcDbBlockTableRecord
  2
*D55
340
0
  0
ENDTAB
  0
ENDSEC
  0
SECTION
  2
BLOCKS
  0
BLOCK
  5
20
330
1F
100
AcDbEntity
  8
0
100
AcDbBlockBegin
  2
*Model_Space
 70
     0
 10
0.0
 20
0.0
 30
0.0
  3
*Model_Space
  1

  0
ENDBLK
  5
21
330
1F
100
AcDbEntity
  8
0
100
AcDbBlockEnd
  0
BLOCK
  5
1C
330
1B
100
AcDbEntity
 67
     1
  8
0
100
AcDbBlockBegin
  2
*Paper_Space
 70
     0
 10
0.0
 20
0.0
 30
0.0
  3
*Paper_Space
  1

  0
ENDBLK
  5
1D
330
1B
100
AcDbEntity
 67
     1
  8
0
100
AcDbBlockEnd
  0
BLOCK
  5
24
330
23
100
AcDbEntity
  8
0
100
AcDbBlockBegin
  2
*Paper_Space0
 70
     0
 10
0.0
 20
0.0
 30
0.0
  3
*Paper_Space0
  1

  0
ENDBLK
  5
25
330
23
100
AcDbEntity
  8
0
100
AcDbBlockEnd
  0
BLOCK
  5
D2
330
D0
100
AcDbEntity
  8
0
100
AcDbBlockBegin
  2
_DotSmall
 70
     0
 10
0.0
 20
0.0
 30
0.0
  3
_DotSmall
  1

  0
LWPOLYLINE
  5
D1
330
D0
100
AcDbEntity
  8
0
 62
     0
100
AcDbPolyline
 90
        2
 70
     1
 43
0.5
 10
-0.0625
 20
0.0
 42
1.0
 10
0.0625
 20
0.0
 42
1.0
  0
ENDBLK
  5
D3
330
D0
100
AcDbEntity
  8
0
100
AcDbBlockEnd
  0
BLOCK
  5
D8
330
D4
100
AcDbEntity
  8
0
100
AcDbBlockBegin
  2
_Origin2
 70
     0
 10
0.0
 20
0.0
 30
0.0
  3
_Origin2
  1

  0
CIRCLE
  5
D5
330
D4
100
AcDbEntity
  8
0
 62
     0
370
    -2
100
AcDbCircle
 10
0.0
 20
0.0
 30
0.0
 40
0.5
  0
CIRCLE
  5
D6
330
D4
100
AcDbEntity
  8
0
 62
     0
370
    -2
100
AcDbCircle
 10
0.0
 20
0.0
 30
0.0
 40
0.25
  0
LINE
  5
D7
330
D4
100
AcDbEntity
  8
0
 62
     0
370
    -2
100
AcDbLine
 10
-0.5
 20
0.0
 30
0.0
 11
-1.0
 21
0.0
 31
0.0
  0
ENDBLK
  5
D9
330
D4
100
AcDbEntity
  8
0
100
AcDbBlockEnd
  0
BLOCK
  5
DE
330
DA
100
AcDbEntity
  8
0
100
AcDbBlockBegin
  2
_Open30
 70
     0
 10
0.0
 20
0.0
 30
0.0
  3
_Open30
  1

  0
LINE
  5
DB
330
DA
100
AcDbEntity
  8
0
 62
     0
370
    -2
100
AcDbLine
 10
-1.0
 20
0.26794919
 30
0.0
 11
0.0
 21
0.0
 31
0.0
  0
LINE
  5
DC
330
DA
100
AcDbEntity
  8
0
 62
     0
370
    -2
100
AcDbLine
 10
0.0
 20
0.0
 30
0.0
 11
-1.0
 21
-0.26794919
 31
0.0
  0
LINE
  5
DD
330
DA
100
AcDbEntity
  8
0
 62
     0
370
    -2
100
AcDbLine
 10
0.0
 20
0.0
 30
0.0
 11
-1.0
 21
0.0
 31
0.0
  0
ENDBLK
  5
DF
330
DA
100
AcDbEntity
  8
0
100
AcDbBlockEnd
  0
BLOCK
  5
2E7
330
2D6
100
AcDbEntity
  8
0
100
AcDbBlockBegin
  2
A$C6CAC4411
 70
     0
 10
0.0
 20
0.0
 30
0.0
  3
A$C6CAC4411
  1

  0
TEXT
  5
2D7
330
2D6
100
AcDbEntity
  8
0
100
AcDbText
 10
176.2557717918098
 20
0.0000022116982912
 30
0.0
 40
40.0
  1
中外交易株式会社
 72
     4
 11
364.2557717918098
 21
20.0000022116983
 31
0.0
100
AcDbText
  0
LINE
  5
2D8
330
2D6
100
AcDbEntity
  8
0
100
AcDbLine
 10
-0.0000028735375963
 20
52.5000022116983
 30
0.0
 11
599.9999971264624
 21
52.5000022116983
 31
0.0
  0
HATCH
  5
2D9
330
2D6
100
AcDbEntity
  8
実形
100
AcDbHatch
 10
0.0
 20
0.0
 30
0.0
210
0.0
220
0.0
230
1.0
  2
SOLID
 70
     1
 71
     1
 91
        3
 92
        1
 93
        4
 72
     2
 10
133.1661954404576
 20
20.0000022116983
 40
20.0
 50
11.64772366707622
 51
342.6561058784662
 73
     1
 72
     1
 10
152.2568494677857
 20
14.03787769028346
 11
128.1661954404576
 21
14.03787769028349
 72
     1
 10
128.1661954404576
 20
14.03787769028349
 11
128.1661954404576
 21
24.0378776902835
 72
     1
 10
128.1661954404576
 20
24.0378776902835
 11
152.7543439394721
 21
24.0378776902835
 97
        4
330
2DF
330
2DC
330
2E0
330
2DD
 92
        1
 93
        4
 72
     2
 10
64.25577179180982
 20
20.0000022116983
 40
20.0
 50
11.64772366707622
 51
342.6561058784662
 73
     1
 72
     1
 10
83.34642581913795
 20
14.03787769028346
 11
59.25577179180982
 21
14.03787769028349
 72
     1
 10
59.25577179180982
 20
14.03787769028349
 11
59.25577179180982
 21
24.0378776902835
 72
     1
 10
59.25577179180982
 20
24.0378776902835
 11
83.84392029082437
 21
24.0378776902835
 97
        4
330
2DE
330
2DB
330
2E1
330
2DA
 92
        1
 93
        5
 72
     1
 10
121.6418911694018
 20
40.0000022116983
 11
86.64189116940178
 21
40.0000022116983
 72
     1
 10
86.64189116940178
 20
40.0000022116983
 11
86.64189116940178
 21
0.0000022116983018
 72
     1
 10
86.64189116940178
 20
0.0000022116983018
 11
121.6418911694018
 21
0.0000022116983018
 72
     1
 10
121.6418911694018
 20
0.0000022116983018
 11
86.64189116940178
 21
20.0000022116983
 72
     1
 10
86.64189116940178
 20
20.0000022116983
 11
121.6418911694018
 21
40.0000022116983
 97
        5
330
2E2
330
2E3
330
2E5
330
2E6
330
2E4
 75
     0
 76
     1
 98
        1
 10
-2184.000002873538
 20
-16.4999977883017
  0
LINE
  5
2DA
102
{ACAD_REACTORS
330
2D9
102
}
330
2D6
100
AcDbEntity
  8
実形
370
     5
100
AcDbLine
 10
83.84392029082437
 20
24.0378776902835
 30
0.0
 11
59.25577179180982
 21
24.0378776902835
 31
0.0
  0
LINE
  5
2DB
102
{ACAD_REACTORS
330
2D9
102
}
330
2D6
100
AcDbEntity
  8
実形
370
     5
100
AcDbLine
 10
59.25577179180982
 20
14.03787769028349
 30
0.0
 11
83.34642581913795
 21
14.03787769028346
 31
0.0
  0
LINE
  5
2DC
102
{ACAD_REACTORS
330
2D9
102
}
330
2D6
100
AcDbEntity
  8
実形
370
     5
100
AcDbLine
 10
128.1661954404576
 20
14.03787769028349
 30
0.0
 11
152.2568494677857
 21
14.03787769028346
 31
0.0
  0
LINE
  5
2DD
102
{ACAD_REACTORS
330
2D9
102
}
330
2D6
100
AcDbEntity
  8
実形
370
     5
100
AcDbLine
 10
152.7543439394721
 20
24.0378776902835
 30
0.0
 11
128.1661954404576
 21
24.0378776902835
 31
0.0
  0
ARC
  5
2DE
102
{ACAD_REACTORS
330
2D9
102
}
330
2D6
100
AcDbEntity
  8
実形
370
     5
100
AcDbCircle
 10
64.25577179180982
 20
20.0000022116983
 30
0.0
 40
20.0
100
AcDbArc
 50
11.6477236670758
 51
342.6561058784691
  0
ARC
  5
2DF
102
{ACAD_REACTORS
330
2D9
102
}
330
2D6
100
AcDbEntity
  8
実形
370
     5
100
AcDbCircle
 10
133.1661954404576
 20
20.0000022116983
 30
0.0
 40
20.0
100
AcDbArc
 50
11.6477236670758
 51
342.6561058784691
  0
LINE
  5
2E0
102
{ACAD_REACTORS
330
2D9
102
}
330
2D6
100
AcDbEntity
  8
実形
370
     5
100
AcDbLine
 10
128.1661954404576
 20
24.0378776902835
 30
0.0
 11
128.1661954404576
 21
14.03787769028349
 31
0.0
  0
LINE
  5
2E1
102
{ACAD_REACTORS
330
2D9
102
}
330
2D6
100
AcDbEntity
  8
実形
370
     5
100
AcDbLine
 10
59.25577179180982
 20
24.0378776902835
 30
0.0
 11
59.25577179180982
 21
14.03787769028349
 31
0.0
  0
LINE
  5
2E2
102
{ACAD_REACTORS
330
2D9
102
}
330
2D6
100
AcDbEntity
  8
実形
370
     5
100
AcDbLine
 10
121.6418911694018
 20
40.0000022116983
 30
0.0
 11
86.64189116940178
 21
40.0000022116983
 31
0.0
  0
LINE
  5
2E3
102
{ACAD_REACTORS
330
2D9
102
}
330
2D6
100
AcDbEntity
  8
実形
370
     5
100
AcDbLine
 10
86.64189116940178
 20
40.0000022116983
 30
0.0
 11
86.64189116940178
 21
0.0000022116983018
 31
0.0
  0
LINE
  5
2E4
102
{ACAD_REACTORS
330
2D9
102
}
330
2D6
100
AcDbEntity
  8
実形
370
     5
100
AcDbLine
 10
86.64189116940178
 20
20.0000022116983
 30
0.0
 11
121.6418911694018
 21
40.0000022116983
 31
0.0
  0
LINE
  5
2E5
102
{ACAD_REACTORS
330
2D9
102
}
330
2D6
100
AcDbEntity
  8
実形
370
     5
100
AcDbLine
 10
86.64189116940178
 20
0.0000022116983018
 30
0.0
 11
121.6418911694018
 21
0.0000022116983018
 31
0.0
  0
LINE
  5
2E6
102
{ACAD_REACTORS
330
2D9
102
}
330
2D6
100
AcDbEntity
  8
実形
370
     5
100
AcDbLine
 10
121.6418911694018
 20
0.0000022116983018
 30
0.0
 11
86.64189116940178
 21
20.0000022116983
 31
0.0
  0
ENDBLK
  5
2E8
330
2D6
100
AcDbEntity
  8
0
100
AcDbBlockEnd
  0
BLOCK
  5
310
330
30D
100
AcDbEntity
  8
0
100
AcDbBlockBegin
  2
_Dot
 70
     0
 10
0.0
 20
0.0
 30
0.0
  3
_Dot
  1

  0
LWPOLYLINE
  5
30E
330
30D
100
AcDbEntity
  8
0
 62
     0
100
AcDbPolyline
 90
        2
 70
     1
 43
0.5
 10
-0.25
 20
0.0
 42
1.0
 10
0.25
 20
0.0
 42
1.0
  0
LINE
  5
30F
330
30D
100
AcDbEntity
  8
0
 62
     0
370
    -2
100
AcDbLine
 10
-0.5
 20
0.0
 30
0.0
 11
-1.0
 21
0.0
 31
0.0
  0
ENDBLK
  5
311
330
30D
100
AcDbEntity
  8
0
100
AcDbBlockEnd
  0
BLOCK
  5
3140
330
313C
100
AcDbEntity
  8
0
100
AcDbBlockBegin
  2
A$C6850087C
 70
     0
 10
0.0
 20
0.0
 30
0.0
  3
A$C6850087C
  1

  0
TEXT
  5
313D
330
313C
100
AcDbEntity
  8
実形
 62
     0
 48
20.0
100
AcDbText
 10
0.0
 20
0.0
 30
0.0
 40
40.0
  1
平面図
100
AcDbText
  0
ENDBLK
  5
3141
330
313C
100
AcDbEntity
  8
0
100
AcDbBlockEnd
  0
BLOCK
  5
384A
330
3846
100
AcDbEntity
  8
0
 62
     1
100
AcDbBlockBegin
  2
A$C71387EE1
 70
     0
 10
0.0
 20
0.0
 30
0.0
  3
A$C71387EE1
  1

  0
HATCH
  5
3847
330
3846
100
AcDbEntity
  8
実形
 62
     0
100
AcDbHatch
 10
0.0
 20
0.0
 30
0.0
210
0.0
220
0.0
230
1.0
  2
SOLID
 70
     1
 71
     0
 91
        1
 92
        7
 72
     1
 73
     1
 93
        2
 10
4.552685078746208
 20
-0.0000011660104065
 42
-1.0
 10
4.54872920619573
 20
9.101406589272301
 42
-1.0
 97
        0
 75
     0
 76
     1
 47
0.1166526434546944
 98
        1
 10
6.65106624868099
 20
3.151407247997667
  0
ENDBLK
  5
384B
330
3846
100
AcDbEntity
  8
0
 62
     1
100
AcDbBlockEnd
  0
BLOCK
  5
6DC0
330
6DBC
100
AcDbEntity
  8
0
 62
     3
100
AcDbBlockBegin
  2
A$C23106B24
 70
     0
 10
0.0
 20
0.0
 30
0.0
  3
A$C23106B24
  1

  0
TEXT
  5
6DBD
330
6DBC
100
AcDbEntity
  8
0
100
AcDbText
 10
-0.3333276496476476
 20
-0.3333326617048451
 30
0.0
 40
5.0
  1
●
 72
     4
 11
2.000005683685685
 21
2.166667338295155
 31
0.0
100
AcDbText
  0
ENDBLK
  5
6DC1
330
6DBC
100
AcDbEntity
  8
0
 62
     3
100
AcDbBlockEnd
  0
BLOCK
  5
8DE0
330
8DDF
100
AcDbEntity
  8
0
100
AcDbBlockBegin
  2
*D9
 70
     1
 10
0.0
 20
0.0
 30
0.0
  3
*D9
  1

  0
MTEXT
  5
8DE1
330
8DDF
100
AcDbEntity
  8
実形
 62
     0
100
AcDbMText
 10
2163.743057511845
 20
1572.50817979203
 30
0.0
 40
25.0
 41
0.0
 71
     5
 72
     1
  1
40
 73
     1
 44
1.0
1001
ACAD
1000
MTEXTBEGIN
1070
    73
1070
     1
1070
    44
1040
1.0
1070
    74
1070
     0
1000
MTEXTEND
  0
POINT
  5
8DE2
330
8DDF
100
AcDbEntity
  8
Defpoints
 62
     0
100
AcDbPoint
 10
2137.756977120949
 20
1470.358071531854
 30
0.0
  0
POINT
  5
8DE3
330
8DDF
100
AcDbEntity
  8
Defpoints
 62
     0
100
AcDbPoint
 10
2177.756977120949
 20
1470.358071531854
 30
0.0
  0
POINT
  5
8DE4
330
8DDF
100
AcDbEntity
  8
Defpoints
 62
     0
100
AcDbPoint
 10
2177.756977120949
 20
1550.569449279112
 30
0.0
  0
ENDBLK
  5
8DE5
330
8DDF
100
AcDbEntity
  8
0
100
AcDbBlockEnd
  0
BLOCK
  5
8DEB
330
8DE6
100
AcDbEntity
  8
0
 62
     3
100
AcDbBlockBegin
  2
A$C10DB60D7
 70
     0
 10
0.0
 20
0.0
 30
0.0
  3
A$C10DB60D7
  1

  0
DIMENSION
  5
8DE7
330
8DE6
100
AcDbEntity
  8
実形
 62
     1
100
AcDbDimension
  2
*D9
 10
39.99999701019033
 20
80.21137695898506
 30
0.0
 11
25.98607740108673
 21
102.1501074719035
 31
0.0
 12
-2137.756980110758
 22
-1470.358072320127
 32
0.0
 70
   128
 71
     5
 42
39.99999999999955
  3
ISO-25
100
AcDbAlignedDimension
 13
-0.000002989809218
 23
-0.0000007882727004
 33
0.0
 14
39.99999701019033
 24
-0.0000007882729278
 34
0.0
100
AcDbRotatedDimension
1001
ACAD
1000
DSTYLE
1002
{
1070
   282
1070
     1
1070
   281
1070
     1
1070
    76
1070
     1
1070
    75
1070
     1
1070
   172
1070
     1
1070
   279
1070
     2
1070
   289
1070
     0
1070
   371
1070
    18
1070
   372
1070
    18
1002
}
  0
TEXT
  5
8DE8
330
8DE6
100
AcDbEntity
  8
実形
 62
     1
370
    18
100
AcDbText
 10
34.85628418731176
 20
75.97986865104576
 30
0.0
 40
10.0
  1
●
100
AcDbText
  0
ENDBLK
  5
8DEC
330
8DE6
100
AcDbEntity
  8
0
 62
     3
100
AcDbBlockEnd
  0
BLOCK
  5
9121
330
9120
100
AcDbEntity
  8
0
 62
     3
100
AcDbBlockBegin
  2
*D11
 70
     1
 10
0.0
 20
0.0
 30
0.0
  3
*D11
  1

  0
LINE
  5
9122
330
9120
100
AcDbEntity
  8
実形
 62
     0
370
    18
100
AcDbLine
 10
729.923650745033
 20
1640.799240604186
 30
0.0
 11
658.4129559397108
 21
1640.799240604186
 31
0.0
  0
LINE
  5
9123
330
9120
100
AcDbEntity
  8
実形
 62
     0
370
    18
100
AcDbLine
 10
729.5981936046912
 20
770.7992406041864
 30
0.0
 11
658.4129559397107
 21
770.7992406041864
 31
0.0
  0
LINE
  5
9124
330
9120
100
AcDbEntity
  8
実形
 62
     0
370
    18
100
AcDbLine
 10
658.4129559397108
 20
1630.799240604186
 30
0.0
 11
658.4129559397107
 21
780.7992406041863
 31
0.0
  0
INSERT
  5
9125
330
9120
100
AcDbEntity
  8
実形
 62
     0
370
    18
100
AcDbBlockReference
  2
_Dot
 10
658.4129559397108
 20
1640.799240604186
 30
0.0
 41
10.0
 42
10.0
 43
10.0
 50
90.0
  0
INSERT
  5
9126
330
9120
100
AcDbEntity
  8
実形
 62
     0
370
    18
100
AcDbBlockReference
  2
_Dot
 10
658.4129559397107
 20
770.7992406041864
 30
0.0
 41
10.0
 42
10.0
 43
10.0
 50
270.0
  0
MTEXT
  5
9127
330
9120
100
AcDbEntity
  8
実形
 62
     0
100
AcDbMText
 10
636.8129559397106
 20
1205.799240604186
 30
0.0
 40
30.0
 41
0.0
 71
     5
 72
     1
  1
435
 11
0.0000000000000001
 21
1.0
 31
0.0
 73
     1
 44
1.0
1001
ACAD
1000
MTEXTBEGIN
1070
    73
1070
     1
1070
    44
1040
1.0
1070
    74
1070
     0
1000
MTEXTEND
  0
POINT
  5
9128
330
9120
100
AcDbEntity
  8
Defpoints
 62
     0
100
AcDbPoint
 10
794.923650745033
 20
1640.799240604186
 30
0.0
  0
POINT
  5
9129
330
9120
100
AcDbEntity
  8
Defpoints
 62
     0
100
AcDbPoint
 10
794.5981936046912
 20
770.7992406041862
 30
0.0
  0
POINT
  5
912A
330
9120
100
AcDbEntity
  8
Defpoints
 62
     0
100
AcDbPoint
 10
658.4129559397107
 20
770.7992406041864
 30
0.0
  0
ENDBLK
  5
912B
330
9120
100
AcDbEntity
  8
0
 62
     3
100
AcDbBlockEnd
  0
BLOCK
  5
912D
330
912C
100
AcDbEntity
  8
0
 62
     3
100
AcDbBlockBegin
  2
*D12
 70
     1
 10
0.0
 20
0.0
 30
0.0
  3
*D12
  1

  0
LINE
  5
912E
330
912C
100
AcDbEntity
  8
実形
 62
     0
370
    18
100
AcDbLine
 10
500.217276938877
 20
-229.9213445726659
 30
0.0
 11
500.217276938877
 21
-261.8005497604358
 31
0.0
  0
LINE
  5
912F
330
912C
100
AcDbEntity
  8
実形
 62
     0
370
    18
100
AcDbLine
 10
908.2172769388771
 20
-255.8280095757568
 30
0.0
 11
908.2172769388771
 21
-261.8005497604358
 31
0.0
  0
LINE
  5
9130
330
912C
100
AcDbEntity
  8
実形
 62
     0
370
    18
100
AcDbLine
 10
510.217276938877
 20
-261.8005497604358
 30
0.0
 11
898.2172769388769
 21
-261.8005497604358
 31
0.0
  0
INSERT
  5
9131
330
912C
100
AcDbEntity
  8
実形
 62
     0
370
    18
100
AcDbBlockReference
  2
_Dot
 10
500.217276938877
 20
-261.8005497604358
 30
0.0
 41
10.0
 42
10.0
 43
10.0
 50
180.0
  0
INSERT
  5
9132
330
912C
100
AcDbEntity
  8
実形
 62
     0
370
    18
100
AcDbBlockReference
  2
_Dot
 10
908.2172769388771
 20
-261.8005497604358
 30
0.0
 41
10.0
 42
10.0
 43
10.0
  0
MTEXT
  5
9133
330
912C
100
AcDbEntity
  8
実形
 62
     0
100
AcDbMText
 10
704.217276938877
 20
-240.2005497604358
 30
0.0
 40
30.0
 41
0.0
 71
     5
 72
     1
  1
204
 73
     1
 44
1.0
1001
ACAD
1000
MTEXTBEGIN
1070
    73
1070
     1
1070
    44
1040
1.0
1070
    74
1070
     0
1000
MTEXTEND
  0
POINT
  5
9134
330
912C
100
AcDbEntity
  8
Defpoints
 62
     0
100
AcDbPoint
 10
500.217276938877
 20
-164.9213445726659
 30
0.0
  0
POINT
  5
9135
330
912C
100
AcDbEntity
  8
Defpoints
 62
     0
100
AcDbPoint
 10
908.2172769388771
 20
-190.8280095757568
 30
0.0
  0
POINT
  5
9136
330
912C
100
AcDbEntity
  8
Defpoints
 62
     0
100
AcDbPoint
 10
908.2172769388771
 20
-261.8005497604358
 30
0.0
  0
ENDBLK
  5
9137
330
912C
100
AcDbEntity
  8
0
 62
     3
100
AcDbBlockEnd
  0
BLOCK
  5
9139
330
9138
100
AcDbEntity
  8
0
 62
     3
100
AcDbBlockBegin
  2
*D13
 70
     1
 10
0.0
 20
0.0
 30
0.0
  3
*D13
  1

  0
LINE
  5
913A
330
9138
100
AcDbEntity
  8
実形
 62
     0
370
    18
100
AcDbLine
 10
454.217276938877
 20
-230.6137757920592
 30
0.0
 11
454.217276938877
 21
-261.8005497604358
 31
0.0
  0
LINE
  5
913B
330
9138
100
AcDbEntity
  8
実形
 62
     0
370
    18
100
AcDbLine
 10
500.217276938877
 20
-232.7349141691215
 30
0.0
 11
500.217276938877
 21
-261.8005497604358
 31
0.0
  0
LINE
  5
913C
330
9138
100
AcDbEntity
  8
実形
 62
     0
370
    18
100
AcDbLine
 10
464.217276938877
 20
-261.8005497604358
 30
0.0
 11
490.217276938877
 21
-261.8005497604358
 31
0.0
  0
MTEXT
  5
913D
330
9138
100
AcDbEntity
  8
実形
 62
     0
100
AcDbMText
 10
478.3386213545353
 20
-204.1637222881859
 30
0.0
 40
30.0
 41
0.0
 71
     5
 72
     1
  1
23
 73
     1
 44
1.0
1001
ACAD
1000
MTEXTBEGIN
1070
    73
1070
     1
1070
    44
1040
1.0
1070
    74
1070
     0
1000
MTEXTEND
  0
INSERT
  5
913E
330
9138
100
AcDbEntity
  8
実形
 62
     0
370
    18
100
AcDbBlockReference
  2
_Dot
 10
454.217276938877
 20
-261.8005497604358
 30
0.0
 41
10.0
 42
10.0
 43
10.0
 50
180.0
  0
INSERT
  5
913F
330
9138
100
AcDbEntity
  8
実形
 62
     0
370
    18
100
AcDbBlockReference
  2
_Dot
 10
500.217276938877
 20
-261.8005497604358
 30
0.0
 41
10.0
 42
10.0
 43
10.0
  0
POINT
  5
9140
330
9138
100
AcDbEntity
  8
Defpoints
 62
     0
100
AcDbPoint
 10
454.217276938877
 20
-165.6137757920592
 30
0.0
  0
POINT
  5
9141
330
9138
100
AcDbEntity
  8
Defpoints
 62
     0
100
AcDbPoint
 10
500.217276938877
 20
-167.7349141691215
 30
0.0
  0
POINT
  5
9142
330
9138
100
AcDbEntity
  8
Defpoints
 62
     0
100
AcDbPoint
 10
500.217276938877
 20
-261.8005497604358
 30
0.0
  0
ENDBLK
  5
9143
330
9138
100
AcDbEntity
  8
0
 62
     3
100
AcDbBlockEnd
  0
BLOCK
  5
9145
330
9144
100
AcDbEntity
  8
0
 62
     3
100
AcDbBlockBegin
  2
*D14
 70
     1
 10
0.0
 20
0.0
 30
0.0
  3
*D14
  1

  0
LINE
  5
9146
330
9144
100
AcDbEntity
  8
実形
 62
     0
370
    18
100
AcDbLine
 10
908.2172769388771
 20
-231.0785021901998
 30
0.0
 11
908.2172769388771
 21
-261.8005497604358
 31
0.0
  0
LINE
  5
9147
330
9144
100
AcDbEntity
  8
実形
 62
     0
370
    18
100
AcDbLine
 10
954.2172769388772
 20
-230.6137757920592
 30
0.0
 11
954.2172769388772
 21
-261.8005497604358
 31
0.0
  0
LINE
  5
9148
330
9144
100
AcDbEntity
  8
実形
 62
     0
370
    18
100
AcDbLine
 10
918.217276938877
 20
-261.8005497604358
 30
0.0
 11
944.2172769388772
 21
-261.8005497604358
 31
0.0
  0
MTEXT
  5
9149
330
9144
100
AcDbEntity
  8
実形
 62
     0
100
AcDbMText
 10
931.9697314527138
 20
-201.1403276367441
 30
0.0
 40
30.0
 41
0.0
 71
     5
 72
     1
  1
23
 73
     1
 44
1.0
1001
ACAD
1000
MTEXTBEGIN
1070
    73
1070
     1
1070
    44
1040
1.0
1070
    74
1070
     0
1000
MTEXTEND
  0
INSERT
  5
914A
330
9144
100
AcDbEntity
  8
実形
 62
     0
370
    18
100
AcDbBlockReference
  2
_Dot
 10
908.2172769388771
 20
-261.8005497604358
 30
0.0
 41
10.0
 42
10.0
 43
10.0
 50
180.0
  0
INSERT
  5
914B
330
9144
100
AcDbEntity
  8
実形
 62
     0
370
    18
100
AcDbBlockReference
  2
_Dot
 10
954.2172769388772
 20
-261.8005497604358
 30
0.0
 41
10.0
 42
10.0
 43
10.0
  0
POINT
  5
914C
330
9144
100
AcDbEntity
  8
Defpoints
 62
     0
100
AcDbPoint
 10
908.2172769388771
 20
-166.0785021901997
 30
0.0
  0
POINT
  5
914D
330
9144
100
AcDbEntity
  8
Defpoints
 62
     0
100
AcDbPoint
 10
954.2172769388772
 20
-165.6137757920592
 30
0.0
  0
POINT
  5
914E
330
9144
100
AcDbEntity
  8
Defpoints
 62
     0
100
AcDbPoint
 10
954.2172769388772
 20
-261.8005497604358
 30
0.0
  0
ENDBLK
  5
914F
330
9144
100
AcDbEntity
  8
0
 62
     3
100
AcDbBlockEnd
  0
BLOCK
  5
9151
330
9150
100
AcDbEntity
  8
0
 62
     3
100
AcDbBlockBegin
  2
*D15
 70
     1
 10
0.0
 20
0.0
 30
0.0
  3
*D15
  1

  0
LINE
  5
9152
330
9150
100
AcDbEntity
  8
実形
 62
     0
370
    18
100
AcDbLine
 10
454.217276938877
 20
-230.6137757920592
 30
0.0
 11
454.217276938877
 21
-325.0365267347102
 31
0.0
  0
LINE
  5
9153
330
9150
100
AcDbEntity
  8
実形
 62
     0
370
    18
100
AcDbLine
 10
954.2172769388772
 20
-230.6137757920605
 30
0.0
 11
954.2172769388772
 21
-325.0365267347102
 31
0.0
  0
LINE
  5
9154
330
9150
100
AcDbEntity
  8
実形
 62
     0
370
    18
100
AcDbLine
 10
464.217276938877
 20
-325.0365267347102
 30
0.0
 11
944.2172769388772
 21
-325.0365267347102
 31
0.0
  0
INSERT
  5
9155
330
9150
100
AcDbEntity
  8
実形
 62
     0
370
    18
100
AcDbBlockReference
  2
_Dot
 10
454.217276938877
 20
-325.0365267347102
 30
0.0
 41
10.0
 42
10.0
 43
10.0
 50
180.0
  0
INSERT
  5
9156
330
9150
100
AcDbEntity
  8
実形
 62
     0
370
    18
100
AcDbBlockReference
  2
_Dot
 10
954.2172769388772
 20
-325.0365267347102
 30
0.0
 41
10.0
 42
10.0
 43
10.0
  0
MTEXT
  5
9157
330
9150
100
AcDbEntity
  8
実形
 62
     0
100
AcDbMText
 10
704.2172769388771
 20
-303.4365267347101
 30
0.0
 40
30.0
 41
0.0
 71
     5
 72
     1
  1
250
 73
     1
 44
1.0
1001
ACAD
1000
MTEXTBEGIN
1070
    73
1070
     1
1070
    44
1040
1.0
1070
    74
1070
     0
1000
MTEXTEND
  0
POINT
  5
9158
330
9150
100
AcDbEntity
  8
Defpoints
 62
     0
100
AcDbPoint
 10
454.217276938877
 20
-165.6137757920592
 30
0.0
  0
POINT
  5
9159
330
9150
100
AcDbEntity
  8
Defpoints
 62
     0
100
AcDbPoint
 10
954.2172769388772
 20
-165.6137757920605
 30
0.0
  0
POINT
  5
915A
330
9150
100
AcDbEntity
  8
Defpoints
 62
     0
100
AcDbPoint
 10
954.2172769388772
 20
-325.0365267347102
 30
0.0
  0
ENDBLK
  5
915B
330
9150
100
AcDbEntity
  8
0
 62
     3
100
AcDbBlockEnd
  0
BLOCK
  5
915D
330
915C
100
AcDbEntity
  8
0
 62
     3
100
AcDbBlockBegin
  2
*D16
 70
     1
 10
0.0
 20
0.0
 30
0.0
  3
*D16
  1

  0
LINE
  5
915E
330
915C
100
AcDbEntity
  8
実形
 62
     0
370
    18
100
AcDbLine
 10
3092.910866195792
 20
1649.797576518012
 30
0.0
 11
3156.916357785818
 21
1649.797576518012
 31
0.0
  0
LINE
  5
915F
330
915C
100
AcDbEntity
  8
実形
 62
     0
370
    18
100
AcDbLine
 10
3059.887259582081
 20
761.7975765180119
 30
0.0
 11
3156.916357785817
 21
761.7975765180119
 31
0.0
  0
LINE
  5
9160
330
915C
100
AcDbEntity
  8
実形
 62
     0
370
    18
100
AcDbLine
 10
3156.916357785818
 20
1639.797576518012
 30
0.0
 11
3156.916357785817
 21
771.797576518012
 31
0.0
  0
INSERT
  5
9161
330
915C
100
AcDbEntity
  8
実形
 62
     0
370
    18
100
AcDbBlockReference
  2
_Dot
 10
3156.916357785818
 20
1649.797576518012
 30
0.0
 41
10.0
 42
10.0
 43
10.0
 50
90.0
  0
INSERT
  5
9162
330
915C
100
AcDbEntity
  8
実形
 62
     0
370
    18
100
AcDbBlockReference
  2
_Dot
 10
3156.916357785817
 20
761.7975765180119
 30
0.0
 41
10.0
 42
10.0
 43
10.0
 50
270.0
  0
MTEXT
  5
9163
330
915C
100
AcDbEntity
  8
実形
 62
     0
100
AcDbMText
 10
3135.316357785817
 20
1205.797576518012
 30
0.0
 40
30.0
 41
0.0
 71
     5
 72
     1
  1
444
 11
0.0000000000000001
 21
1.0
 31
0.0
 73
     1
 44
1.0
1001
ACAD
1000
MTEXTBEGIN
1070
    73
1070
     1
1070
    44
1040
1.0
1070
    74
1070
     0
1000
MTEXTEND
  0
POINT
  5
9164
330
915C
100
AcDbEntity
  8
Defpoints
 62
     0
100
AcDbPoint
 10
3027.910866195792
 20
1649.797576518012
 30
0.0
  0
POINT
  5
9165
330
915C
100
AcDbEntity
  8
Defpoints
 62
     0
100
AcDbPoint
 10
2994.887259582081
 20
761.7975765180119
 30
0.0
  0
POINT
  5
9166
330
915C
100
AcDbEntity
  8
Defpoints
 62
     0
100
AcDbPoint
 10
3156.916357785817
 20
761.7975765180119
 30
0.0
  0
ENDBLK
  5
9167
330
915C
100
AcDbEntity
  8
0
 62
     3
100
AcDbBlockEnd
  0
BLOCK
  5
9169
330
9168
100
AcDbEntity
  8
0
 62
     3
100
AcDbBlockBegin
  2
*D17
 70
     1
 10
0.0
 20
0.0
 30
0.0
  3
*D17
  1

  0
LINE
  5
916A
330
9168
100
AcDbEntity
  8
実形
 62
     0
370
    18
100
AcDbLine
 10
3071.011470903759
 20
1649.797576518012
 30
0.0
 11
3096.191173447259
 21
1649.797576518012
 31
0.0
  0
LINE
  5
916B
330
9168
100
AcDbEntity
  8
実形
 62
     0
370
    18
100
AcDbLine
 10
3071.011470903758
 20
1603.797576518012
 30
0.0
 11
3096.191173447259
 21
1603.797576518012
 31
0.0
  0
LINE
  5
916C
330
9168
100
AcDbEntity
  8
実形
 62
     0
370
    18
100
AcDbLine
 10
3096.191173447259
 20
1639.797576518012
 30
0.0
 11
3096.191173447259
 21
1613.797576518012
 31
0.0
  0
MTEXT
  5
916D
330
9168
100
AcDbEntity
  8
実形
 62
     0
100
AcDbMText
 10
3081.275872138358
 20
1686.953613616257
 30
0.0
 40
30.0
 41
0.0
 71
     5
 72
     1
  1
23
 11
0.0000000000000001
 21
1.0
 31
0.0
 73
     1
 44
1.0
1001
ACAD
1000
MTEXTBEGIN
1070
    73
1070
     1
1070
    44
1040
1.0
1070
    74
1070
     0
1000
MTEXTEND
  0
INSERT
  5
916E
330
9168
100
AcDbEntity
  8
実形
 62
     0
370
    18
100
AcDbBlockReference
  2
_Dot
 10
3096.191173447259
 20
1649.797576518012
 30
0.0
 41
10.0
 42
10.0
 43
10.0
 50
90.0
  0
INSERT
  5
916F
330
9168
100
AcDbEntity
  8
実形
 62
     0
370
    18
100
AcDbBlockReference
  2
_Dot
 10
3096.191173447259
 20
1603.797576518012
 30
0.0
 41
10.0
 42
10.0
 43
10.0
 50
270.0
  0
POINT
  5
9170
330
9168
100
AcDbEntity
  8
Defpoints
 62
     0
100
AcDbPoint
 10
3006.011470903759
 20
1649.797576518012
 30
0.0
  0
POINT
  5
9171
330
9168
100
AcDbEntity
  8
Defpoints
 62
     0
100
AcDbPoint
 10
3006.011470903758
 20
1603.797576518012
 30
0.0
  0
POINT
  5
9172
330
9168
100
AcDbEntity
  8
Defpoints
 62
     0
100
AcDbPoint
 10
3096.191173447259
 20
1603.797576518012
 30
0.0
  0
ENDBLK
  5
9173
330
9168
100
AcDbEntity
  8
0
 62
     3
100
AcDbBlockEnd
  0
BLOCK
  5
9175
330
9174
100
AcDbEntity
  8
0
 62
     3
100
AcDbBlockBegin
  2
*D18
 70
     1
 10
0.0
 20
0.0
 30
0.0
  3
*D18
  1

  0
LINE
  5
9176
330
9174
100
AcDbEntity
  8
実形
 62
     0
370
    18
100
AcDbLine
 10
3060.592891989911
 20
807.797576518012
 30
0.0
 11
3096.191173447283
 21
807.797576518012
 31
0.0
  0
LINE
  5
9177
330
9174
100
AcDbEntity
  8
実形
 62
     0
370
    18
100
AcDbLine
 10
3059.887259582081
 20
761.7975765180119
 30
0.0
 11
3096.191173447283
 21
761.7975765180119
 31
0.0
  0
LINE
  5
9178
330
9174
100
AcDbEntity
  8
実形
 62
     0
370
    18
100
AcDbLine
 10
3096.191173447283
 20
797.7975765180119
 30
0.0
 11
3096.191173447283
 21
771.797576518012
 31
0.0
  0
MTEXT
  5
9179
330
9174
100
AcDbEntity
  8
実形
 62
     0
100
AcDbMText
 10
3077.497929208364
 20
730.5370566251679
 30
0.0
 40
30.0
 41
0.0
 71
     5
 72
     1
  1
23
 11
0.0000000000000001
 21
1.0
 31
0.0
 73
     1
 44
1.0
1001
ACAD
1000
MTEXTBEGIN
1070
    73
1070
     1
1070
    44
1040
1.0
1070
    74
1070
     0
1000
MTEXTEND
  0
INSERT
  5
917A
330
9174
100
AcDbEntity
  8
実形
 62
     0
370
    18
100
AcDbBlockReference
  2
_Dot
 10
3096.191173447283
 20
807.797576518012
 30
0.0
 41
10.0
 42
10.0
 43
10.0
 50
90.0
  0
INSERT
  5
917B
330
9174
100
AcDbEntity
  8
実形
 62
     0
370
    18
100
AcDbBlockReference
  2
_Dot
 10
3096.191173447283
 20
761.7975765180119
 30
0.0
 41
10.0
 42
10.0
 43
10.0
 50
270.0
  0
POINT
  5
917C
330
9174
100
AcDbEntity
  8
Defpoints
 62
     0
100
AcDbPoint
 10
2995.592891989911
 20
807.797576518012
 30
0.0
  0
POINT
  5
917D
330
9174
100
AcDbEntity
  8
Defpoints
 62
     0
100
AcDbPoint
 10
2994.887259582081
 20
761.7975765180119
 30
0.0
  0
POINT
  5
917E
330
9174
100
AcDbEntity
  8
Defpoints
 62
     0
100
AcDbPoint
 10
3096.191173447283
 20
761.7975765180119
 30
0.0
  0
ENDBLK
  5
917F
330
9174
100
AcDbEntity
  8
0
 62
     3
100
AcDbBlockEnd
  0
BLOCK
  5
9181
330
9180
100
AcDbEntity
  8
0
 62
     3
100
AcDbBlockBegin
  2
*D19
 70
     1
 10
0.0
 20
0.0
 30
0.0
  3
*D19
  1

  0
LINE
  5
9182
330
9180
100
AcDbEntity
  8
実形
 62
     0
370
    18
100
AcDbLine
 10
3070.887259582081
 20
1603.797576518012
 30
0.0
 11
3096.191173447284
 21
1603.797576518012
 31
0.0
  0
LINE
  5
9183
330
9180
100
AcDbEntity
  8
実形
 62
     0
370
    18
100
AcDbLine
 10
3070.887259582081
 20
807.797576518012
 30
0.0
 11
3096.191173447283
 21
807.797576518012
 31
0.0
  0
LINE
  5
9184
330
9180
100
AcDbEntity
  8
実形
 62
     0
370
    18
100
AcDbLine
 10
3096.191173447284
 20
1593.797576518012
 30
0.0
 11
3096.191173447283
 21
817.797576518012
 31
0.0
  0
INSERT
  5
9185
330
9180
100
AcDbEntity
  8
実形
 62
     0
370
    18
100
AcDbBlockReference
  2
_Dot
 10
3096.191173447284
 20
1603.797576518012
 30
0.0
 41
10.0
 42
10.0
 43
10.0
 50
90.0
  0
INSERT
  5
9186
330
9180
100
AcDbEntity
  8
実形
 62
     0
370
    18
100
AcDbBlockReference
  2
_Dot
 10
3096.191173447283
 20
807.797576518012
 30
0.0
 41
10.0
 42
10.0
 43
10.0
 50
270.0
  0
MTEXT
  5
9187
330
9180
100
AcDbEntity
  8
実形
 62
     0
100
AcDbMText
 10
3074.591173447283
 20
1205.797576518012
 30
0.0
 40
30.0
 41
0.0
 71
     5
 72
     1
  1
398
 11
0.0000000000000001
 21
1.0
 31
0.0
 73
     1
 44
1.0
1001
ACAD
1000
MTEXTBEGIN
1070
    73
1070
     1
1070
    44
1040
1.0
1070
    74
1070
     0
1000
MTEXTEND
  0
POINT
  5
9188
330
9180
100
AcDbEntity
  8
Defpoints
 62
     0
100
AcDbPoint
 10
3005.887259582081
 20
1603.797576518012
 30
0.0
  0
POINT
  5
9189
330
9180
100
AcDbEntity
  8
Defpoints
 62
     0
100
AcDbPoint
 10
3005.887259582081
 20
807.797576518012
 30
0.0
  0
POINT
  5
918A
330
9180
100
AcDbEntity
  8
Defpoints
 62
     0
100
AcDbPoint
 10
3096.191173447283
 20
807.797576518012
 30
0.0
  0
ENDBLK
  5
918B
330
9180
100
AcDbEntity
  8
0
 62
     3
100
AcDbBlockEnd
  0
BLOCK
  5
918D
330
918C
100
AcDbEntity
  8
0
 62
     3
100
AcDbBlockBegin
  2
*D20
 70
     1
 10
0.0
 20
0.0
 30
0.0
  3
*D20
  1

  0
LINE
  5
918E
330
918C
100
AcDbEntity
  8
実形
 62
     0
370
    18
100
AcDbLine
 10
845.6399956468473
 20
1763.227257722778
 30
0.0
 11
845.6399956468473
 21
1829.901471782032
 31
0.0
  0
LINE
  5
918F
330
918C
100
AcDbEntity
  8
実形
 62
     0
370
    18
100
AcDbLine
 10
1487.089062997982
 20
1763.775313226214
 30
0.0
 11
1487.089062997982
 21
1829.901471782032
 31
0.0
  0
LINE
  5
9190
330
918C
100
AcDbEntity
  8
実形
 62
     0
370
    18
100
AcDbLine
 10
855.6399956468474
 20
1829.901471782032
 30
0.0
 11
1477.089062997982
 21
1829.901471782032
 31
0.0
  0
INSERT
  5
9191
330
918C
100
AcDbEntity
  8
実形
 62
     0
370
    18
100
AcDbBlockReference
  2
_Dot
 10
845.6399956468473
 20
1829.901471782032
 30
0.0
 41
10.0
 42
10.0
 43
10.0
 50
180.0
  0
INSERT
  5
9192
330
918C
100
AcDbEntity
  8
実形
 62
     0
370
    18
100
AcDbBlockReference
  2
_Dot
 10
1487.089062997982
 20
1829.901471782032
 30
0.0
 41
10.0
 42
10.0
 43
10.0
  0
MTEXT
  5
9193
330
918C
100
AcDbEntity
  8
実形
 62
     0
100
AcDbMText
 10
1166.364529322414
 20
1851.501471782032
 30
0.0
 40
30.0
 41
0.0
 71
     5
 72
     1
  1
320
 73
     1
 44
1.0
1001
ACAD
1000
MTEXTBEGIN
1070
    73
1070
     1
1070
    44
1040
1.0
1070
    74
1070
     0
1000
MTEXTEND
  0
POINT
  5
9194
330
918C
100
AcDbEntity
  8
Defpoints
 62
     0
100
AcDbPoint
 10
845.6399956468473
 20
1698.227257722778
 30
0.0
  0
POINT
  5
9195
330
918C
100
AcDbEntity
  8
Defpoints
 62
     0
100
AcDbPoint
 10
1487.089062997982
 20
1698.775313226214
 30
0.0
  0
POINT
  5
9196
330
918C
100
AcDbEntity
  8
Defpoints
 62
     0
100
AcDbPoint
 10
1487.089062997982
 20
1829.901471782032
 30
0.0
  0
ENDBLK
  5
9197
330
918C
100
AcDbEntity
  8
0
 62
     3
100
AcDbBlockEnd
  0
BLOCK
  5
9199
330
9198
100
AcDbEntity
  8
0
 62
     3
100
AcDbBlockBegin
  2
*D21
 70
     1
 10
0.0
 20
0.0
 30
0.0
  3
*D21
  1

  0
LINE
  5
919A
330
9198
100
AcDbEntity
  8
実形
 62
     0
370
    18
100
AcDbLine
 10
3736.91591825227
 20
1695.301619100948
 30
0.0
 11
3736.91591825227
 21
1761.975833160202
 31
0.0
  0
LINE
  5
919B
330
9198
100
AcDbEntity
  8
実形
 62
     0
370
    18
100
AcDbLine
 10
3095.466850901136
 20
1695.849674604385
 30
0.0
 11
3095.466850901136
 21
1761.975833160202
 31
0.0
  0
LINE
  5
919C
330
9198
100
AcDbEntity
  8
実形
 62
     0
370
    18
100
AcDbLine
 10
3726.91591825227
 20
1761.975833160202
 30
0.0
 11
3105.466850901136
 21
1761.975833160202
 31
0.0
  0
INSERT
  5
919D
330
9198
100
AcDbEntity
  8
実形
 62
     0
370
    18
100
AcDbBlockReference
  2
_Dot
 10
3736.91591825227
 20
1761.975833160202
 30
0.0
 41
10.0
 42
10.0
 43
10.0
  0
INSERT
  5
919E
330
9198
100
AcDbEntity
  8
実形
 62
     0
370
    18
100
AcDbBlockReference
  2
_Dot
 10
3095.466850901136
 20
1761.975833160202
 30
0.0
 41
10.0
 42
10.0
 43
10.0
 50
180.0
  0
MTEXT
  5
919F
330
9198
100
AcDbEntity
  8
実形
 62
     0
100
AcDbMText
 10
3416.191384576702
 20
1783.575833160202
 30
0.0
 40
30.0
 41
0.0
 71
     5
 72
     1
  1
320
 73
     1
 44
1.0
1001
ACAD
1000
MTEXTBEGIN
1070
    73
1070
     1
1070
    44
1040
1.0
1070
    74
1070
     0
1000
MTEXTEND
  0
POINT
  5
91A0
330
9198
100
AcDbEntity
  8
Defpoints
 62
     0
100
AcDbPoint
 10
3736.91591825227
 20
1630.301619100948
 30
0.0
  0
POINT
  5
91A1
330
9198
100
AcDbEntity
  8
Defpoints
 62
     0
100
AcDbPoint
 10
3095.466850901136
 20
1630.849674604385
 30
0.0
  0
POINT
  5
91A2
330
9198
100
AcDbEntity
  8
Defpoints
 62
     0
100
AcDbPoint
 10
3095.466850901136
 20
1761.975833160202
 30
0.0
  0
ENDBLK
  5
91A3
330
9198
100
AcDbEntity
  8
0
 62
     3
100
AcDbBlockEnd
  0
BLOCK
  5
91A5
330
91A4
100
AcDbEntity
  8
0
 62
     3
100
AcDbBlockBegin
  2
*D22
 70
     1
 10
0.0
 20
0.0
 30
0.0
  3
*D22
  1

  0
LINE
  5
91A6
330
91A4
100
AcDbEntity
  8
実形
 62
     0
370
    18
100
AcDbLine
 10
3772.555910921173
 20
1640.624493200142
 30
0.0
 11
3856.226881106767
 21
1640.624493200142
 31
0.0
  0
LINE
  5
91A7
330
91A4
100
AcDbEntity
  8
実形
 62
     0
370
    18
100
AcDbLine
 10
3772.117268144192
 20
770.6246037791654
 30
0.0
 11
3856.226881106767
 21
770.6246037791653
 31
0.0
  0
LINE
  5
91A8
330
91A4
100
AcDbEntity
  8
実形
 62
     0
370
    18
100
AcDbLine
 10
3856.226881106767
 20
1630.624493200143
 30
0.0
 11
3856.226881106767
 21
780.6246037791653
 31
0.0
  0
INSERT
  5
91A9
330
91A4
100
AcDbEntity
  8
実形
 62
     0
370
    18
100
AcDbBlockReference
  2
_Dot
 10
3856.226881106767
 20
1640.624493200142
 30
0.0
 41
10.0
 42
10.0
 43
10.0
 50
90.0
  0
INSERT
  5
91AA
330
91A4
100
AcDbEntity
  8
実形
 62
     0
370
    18
100
AcDbBlockReference
  2
_Dot
 10
3856.226881106767
 20
770.6246037791653
 30
0.0
 41
10.0
 42
10.0
 43
10.0
 50
270.0
  0
MTEXT
  5
91AB
330
91A4
100
AcDbEntity
  8
実形
 62
     0
100
AcDbMText
 10
3834.626881106768
 20
1205.624548489655
 30
0.0
 40
30.0
 41
0.0
 71
     5
 72
     1
  1
435
 11
0.0000000000000001
 21
1.0
 31
0.0
 73
     1
 44
1.0
1001
ACAD
1000
MTEXTBEGIN
1070
    73
1070
     1
1070
    44
1040
1.0
1070
    74
1070
     0
1000
MTEXTEND
  0
POINT
  5
91AC
330
91A4
100
AcDbEntity
  8
Defpoints
 62
     0
100
AcDbPoint
 10
3707.555910921173
 20
1640.624493200142
 30
0.0
  0
POINT
  5
91AD
330
91A4
100
AcDbEntity
  8
Defpoints
 62
     0
100
AcDbPoint
 10
3707.117268144192
 20
770.6246037791654
 30
0.0
  0
POINT
  5
91AE
330
91A4
100
AcDbEntity
  8
Defpoints
 62
     0
100
AcDbPoint
 10
3856.226881106767
 20
770.6246037791653
 30
0.0
  0
ENDBLK
  5
91AF
330
91A4
100
AcDbEntity
  8
0
 62
     3
100
AcDbBlockEnd
  0
BLOCK
  5
91B1
330
91B0
100
AcDbEntity
  8
0
 62
     3
100
AcDbBlockBegin
  2
*D23
 70
     1
 10
0.0
 20
0.0
 30
0.0
  3
*D23
  1

  0
LINE
  5
91B2
330
91B0
100
AcDbEntity
  8
実形
 62
     0
370
    18
100
AcDbLine
 10
847.0997782217265
 20
360.0524690998181
 30
0.0
 11
847.0997782217265
 21
319.9231922543777
 31
0.0
  0
LINE
  5
91B3
330
91B0
100
AcDbEntity
  8
実形
 62
     0
370
    18
100
AcDbLine
 10
1487.099778221726
 20
360.0524690998085
 30
0.0
 11
1487.099778221726
 21
319.9231922543777
 31
0.0
  0
LINE
  5
91B4
330
91B0
100
AcDbEntity
  8
実形
 62
     0
370
    18
100
AcDbLine
 10
857.0997782217267
 20
319.9231922543777
 30
0.0
 11
1477.099778221726
 21
319.9231922543777
 31
0.0
  0
INSERT
  5
91B5
330
91B0
100
AcDbEntity
  8
実形
 62
     0
370
    18
100
AcDbBlockReference
  2
_Dot
 10
847.0997782217265
 20
319.9231922543777
 30
0.0
 41
10.0
 42
10.0
 43
10.0
 50
180.0
  0
INSERT
  5
91B6
330
91B0
100
AcDbEntity
  8
実形
 62
     0
370
    18
100
AcDbBlockReference
  2
_Dot
 10
1487.099778221726
 20
319.9231922543777
 30
0.0
 41
10.0
 42
10.0
 43
10.0
  0
MTEXT
  5
91B7
330
91B0
100
AcDbEntity
  8
実形
 62
     0
100
AcDbMText
 10
1167.099778221726
 20
341.5231922543777
 30
0.0
 40
30.0
 41
0.0
 71
     5
 72
     1
  1
320
 73
     1
 44
1.0
1001
ACAD
1000
MTEXTBEGIN
1070
    73
1070
     1
1070
    44
1040
1.0
1070
    74
1070
     0
1000
MTEXTEND
  0
POINT
  5
91B8
330
91B0
100
AcDbEntity
  8
Defpoints
 62
     0
100
AcDbPoint
 10
847.0997782217265
 20
425.0524690998181
 30
0.0
  0
POINT
  5
91B9
330
91B0
100
AcDbEntity
  8
Defpoints
 62
     0
100
AcDbPoint
 10
1487.099778221726
 20
425.0524690998084
 30
0.0
  0
POINT
  5
91BA
330
91B0
100
AcDbEntity
  8
Defpoints
 62
     0
100
AcDbPoint
 10
1487.099778221726
 20
319.9231922543777
 30
0.0
  0
ENDBLK
  5
91BB
330
91B0
100
AcDbEntity
  8
0
 62
     3
100
AcDbBlockEnd
  0
BLOCK
  5
91BD
330
91BC
100
AcDbEntity
  8
0
 62
     3
100
AcDbBlockBegin
  2
*D24
 70
     1
 10
0.0
 20
0.0
 30
0.0
  3
*D24
  1

  0
MTEXT
  5
91BE
330
91BC
100
AcDbEntity
  8
実形
 62
     0
100
AcDbMText
 10
747.4926577691522
 20
422.9031643487632
 30
0.0
 40
30.0
 41
0.0
 71
     5
 72
     1
  1
15
 11
0.0000000000000001
 21
1.0
 31
0.0
 73
     1
 44
1.0
1001
ACAD
1000
MTEXTBEGIN
1070
    73
1070
     1
1070
    44
1040
1.0
1070
    74
1070
     0
1000
MTEXTEND
  0
POINT
  5
91BF
330
91BC
100
AcDbEntity
  8
Defpoints
 62
     0
100
AcDbPoint
 10
849.6427660293283
 20
407.8042354107711
 30
0.0
  0
POINT
  5
91C0
330
91BC
100
AcDbEntity
  8
Defpoints
 62
     0
100
AcDbPoint
 10
849.6427660293287
 20
440.052469099818
 30
0.0
  0
POINT
  5
91C1
330
91BC
100
AcDbEntity
  8
Defpoints
 62
     0
100
AcDbPoint
 10
769.4313882820706
 20
440.052469099818
 30
0.0
  0
ENDBLK
  5
91C2
330
91BC
100
AcDbEntity
  8
0
 62
     3
100
AcDbBlockEnd
  0
BLOCK
  5
91CB
330
91CA
100
AcDbEntity
  8
0
 62
     3
100
AcDbBlockBegin
  2
*D25
 70
     1
 10
0.0
 20
0.0
 30
0.0
  3
*D25
  1

  0
LINE
  5
91CC
330
91CA
100
AcDbEntity
  8
実形
 62
     0
370
    18
100
AcDbLine
 10
845.6399956468473
 20
1706.013380782927
 30
0.0
 11
845.6399956468473
 21
1761.606813075069
 31
0.0
  0
LINE
  5
91CD
330
91CA
100
AcDbEntity
  8
実形
 62
     0
370
    18
100
AcDbLine
 10
1015.63954699979
 20
1706.403944219941
 30
0.0
 11
1015.63954699979
 21
1761.606813075069
 31
0.0
  0
LINE
  5
91CE
330
91CA
100
AcDbEntity
  8
実形
 62
     0
370
    18
100
AcDbLine
 10
855.6399956468474
 20
1761.606813075069
 30
0.0
 11
1005.63954699979
 21
1761.606813075069
 31
0.0
  0
INSERT
  5
91CF
330
91CA
100
AcDbEntity
  8
実形
 62
     0
370
    18
100
AcDbBlockReference
  2
_Dot
 10
845.6399956468473
 20
1761.606813075069
 30
0.0
 41
10.0
 42
10.0
 43
10.0
 50
180.0
  0
INSERT
  5
91D0
330
91CA
100
AcDbEntity
  8
実形
 62
     0
370
    18
100
AcDbBlockReference
  2
_Dot
 10
1015.63954699979
 20
1761.606813075069
 30
0.0
 41
10.0
 42
10.0
 43
10.0
  0
MTEXT
  5
91D1
330
91CA
100
AcDbEntity
  8
実形
 62
     0
100
AcDbMText
 10
930.6397713233186
 20
1783.206813075069
 30
0.0
 40
30.0
 41
0.0
 71
     5
 72
     1
  1
85
 73
     1
 44
1.0
1001
ACAD
1000
MTEXTBEGIN
1070
    73
1070
     1
1070
    44
1040
1.0
1070
    74
1070
     0
1000
MTEXTEND
  0
POINT
  5
91D2
330
91CA
100
AcDbEntity
  8
Defpoints
 62
     0
100
AcDbPoint
 10
845.6399956468473
 20
1641.013380782927
 30
0.0
  0
POINT
  5
91D3
330
91CA
100
AcDbEntity
  8
Defpoints
 62
     0
100
AcDbPoint
 10
1015.63954699979
 20
1641.403944219941
 30
0.0
  0
POINT
  5
91D4
330
91CA
100
AcDbEntity
  8
Defpoints
 62
     0
100
AcDbPoint
 10
1015.63954699979
 20
1761.606813075069
 30
0.0
  0
ENDBLK
  5
91D5
330
91CA
100
AcDbEntity
  8
0
 62
     3
100
AcDbBlockEnd
  0
BLOCK
  5
91D7
330
91D6
100
AcDbEntity
  8
0
 62
     3
100
AcDbBlockBegin
  2
*D26
 70
     1
 10
0.0
 20
0.0
 30
0.0
  3
*D26
  1

  0
LINE
  5
91D8
330
91D6
100
AcDbEntity
  8
実形
 62
     0
370
    18
100
AcDbLine
 10
1015.639546999789
 20
1706.403944219941
 30
0.0
 11
1015.639546999789
 21
1761.606813075069
 31
0.0
  0
LINE
  5
91D9
330
91D6
100
AcDbEntity
  8
実形
 62
     0
370
    18
100
AcDbLine
 10
1317.08951164504
 20
1706.951999723376
 30
0.0
 11
1317.08951164504
 21
1761.606813075069
 31
0.0
  0
LINE
  5
91DA
330
91D6
100
AcDbEntity
  8
実形
 62
     0
370
    18
100
AcDbLine
 10
1025.639546999789
 20
1761.606813075069
 30
0.0
 11
1307.08951164504
 21
1761.606813075069
 31
0.0
  0
INSERT
  5
91DB
330
91D6
100
AcDbEntity
  8
実形
 62
     0
370
    18
100
AcDbBlockReference
  2
_Dot
 10
1015.639546999789
 20
1761.606813075069
 30
0.0
 41
10.0
 42
10.0
 43
10.0
 50
180.0
  0
INSERT
  5
91DC
330
91D6
100
AcDbEntity
  8
実形
 62
     0
370
    18
100
AcDbBlockReference
  2
_Dot
 10
1317.08951164504
 20
1761.606813075069
 30
0.0
 41
10.0
 42
10.0
 43
10.0
  0
MTEXT
  5
91DD
330
91D6
100
AcDbEntity
  8
実形
 62
     0
100
AcDbMText
 10
1166.364529322414
 20
1783.206813075069
 30
0.0
 40
30.0
 41
0.0
 71
     5
 72
     1
  1
150
 73
     1
 44
1.0
1001
ACAD
1000
MTEXTBEGIN
1070
    73
1070
     1
1070
    44
1040
1.0
1070
    74
1070
     0
1000
MTEXTEND
  0
POINT
  5
91DE
330
91D6
100
AcDbEntity
  8
Defpoints
 62
     0
100
AcDbPoint
 10
1015.639546999789
 20
1641.403944219941
 30
0.0
  0
POINT
  5
91DF
330
91D6
100
AcDbEntity
  8
Defpoints
 62
     0
100
AcDbPoint
 10
1317.08951164504
 20
1641.951999723376
 30
0.0
  0
POINT
  5
91E0
330
91D6
100
AcDbEntity
  8
Defpoints
 62
     0
100
AcDbPoint
 10
1317.08951164504
 20
1761.606813075069
 30
0.0
  0
ENDBLK
  5
91E1
330
91D6
100
AcDbEntity
  8
0
 62
     3
100
AcDbBlockEnd
  0
BLOCK
  5
91E3
330
91E2
100
AcDbEntity
  8
0
 62
     3
100
AcDbBlockBegin
  2
*D27
 70
     1
 10
0.0
 20
0.0
 30
0.0
  3
*D27
  1

  0
LINE
  5
91E4
330
91E2
100
AcDbEntity
  8
実形
 62
     0
370
    18
100
AcDbLine
 10
1317.08951164504
 20
1706.951999723376
 30
0.0
 11
1317.08951164504
 21
1761.606813075069
 31
0.0
  0
LINE
  5
91E5
330
91E2
100
AcDbEntity
  8
実形
 62
     0
370
    18
100
AcDbLine
 10
1487.088701169716
 20
1706.403944219941
 30
0.0
 11
1487.088701169716
 21
1761.606813075069
 31
0.0
  0
LINE
  5
91E6
330
91E2
100
AcDbEntity
  8
実形
 62
     0
370
    18
100
AcDbLine
 10
1327.08951164504
 20
1761.606813075069
 30
0.0
 11
1477.088701169716
 21
1761.606813075069
 31
0.0
  0
INSERT
  5
91E7
330
91E2
100
AcDbEntity
  8
実形
 62
     0
370
    18
100
AcDbBlockReference
  2
_Dot
 10
1317.08951164504
 20
1761.606813075069
 30
0.0
 41
10.0
 42
10.0
 43
10.0
 50
180.0
  0
INSERT
  5
91E8
330
91E2
100
AcDbEntity
  8
実形
 62
     0
370
    18
100
AcDbBlockReference
  2
_Dot
 10
1487.088701169716
 20
1761.606813075069
 30
0.0
 41
10.0
 42
10.0
 43
10.0
  0
MTEXT
  5
91E9
330
91E2
100
AcDbEntity
  8
実形
 62
     0
100
AcDbMText
 10
1402.089106407378
 20
1783.206813075069
 30
0.0
 40
30.0
 41
0.0
 71
     5
 72
     1
  1
85
 73
     1
 44
1.0
1001
ACAD
1000
MTEXTBEGIN
1070
    73
1070
     1
1070
    44
1040
1.0
1070
    74
1070
     0
1000
MTEXTEND
  0
POINT
  5
91EA
330
91E2
100
AcDbEntity
  8
Defpoints
 62
     0
100
AcDbPoint
 10
1317.08951164504
 20
1641.951999723376
 30
0.0
  0
POINT
  5
91EB
330
91E2
100
AcDbEntity
  8
Defpoints
 62
     0
100
AcDbPoint
 10
1487.088701169716
 20
1641.403944219941
 30
0.0
  0
POINT
  5
91EC
330
91E2
100
AcDbEntity
  8
Defpoints
 62
     0
100
AcDbPoint
 10
1487.088701169716
 20
1761.606813075069
 30
0.0
  0
ENDBLK
  5
91ED
330
91E2
100
AcDbEntity
  8
0
 62
     3
100
AcDbBlockEnd
  0
BLOCK
  5
91EF
330
91EE
100
AcDbEntity
  8
0
 62
     3
100
AcDbBlockBegin
  2
*D28
 70
     1
 10
0.0
 20
0.0
 30
0.0
  3
*D28
  1

  0
LINE
  5
91F0
330
91EE
100
AcDbEntity
  8
実形
 62
     0
370
    18
100
AcDbLine
 10
780.6399956468473
 20
1641.403944219941
 30
0.0
 11
718.3277549555413
 21
1641.403944219941
 31
0.0
  0
LINE
  5
91F1
330
91EE
100
AcDbEntity
  8
実形
 62
     0
370
    18
100
AcDbLine
 10
780.7777572506445
 20
1581.403944219941
 30
0.0
 11
718.3277549555413
 21
1581.403944219941
 31
0.0
  0
LINE
  5
91F2
330
91EE
100
AcDbEntity
  8
実形
 62
     0
370
    18
100
AcDbLine
 10
718.3277549555413
 20
1631.403944219941
 30
0.0
 11
718.3277549555413
 21
1591.403944219941
 31
0.0
  0
INSERT
  5
91F3
330
91EE
100
AcDbEntity
  8
実形
 62
     0
370
    18
100
AcDbBlockReference
  2
_Dot
 10
718.3277549555413
 20
1641.403944219941
 30
0.0
 41
10.0
 42
10.0
 43
10.0
 50
90.0
  0
INSERT
  5
91F4
330
91EE
100
AcDbEntity
  8
実形
 62
     0
370
    18
100
AcDbBlockReference
  2
_Dot
 10
718.3277549555413
 20
1581.403944219941
 30
0.0
 41
10.0
 42
10.0
 43
10.0
 50
270.0
  0
MTEXT
  5
91F5
330
91EE
100
AcDbEntity
  8
実形
 62
     0
100
AcDbMText
 10
696.7277549555412
 20
1611.403944219941
 30
0.0
 40
30.0
 41
0.0
 71
     5
 72
     1
  1
30
 11
0.0000000000000001
 21
1.0
 31
0.0
 73
     1
 44
1.0
1001
ACAD
1000
MTEXTBEGIN
1070
    73
1070
     1
1070
    44
1040
1.0
1070
    74
1070
     0
1000
MTEXTEND
  0
POINT
  5
91F6
330
91EE
100
AcDbEntity
  8
Defpoints
 62
     0
100
AcDbPoint
 10
845.6399956468473
 20
1641.403944219941
 30
0.0
  0
POINT
  5
91F7
330
91EE
100
AcDbEntity
  8
Defpoints
 62
     0
100
AcDbPoint
 10
845.7777572506445
 20
1581.403944219941
 30
0.0
  0
POINT
  5
91F8
330
91EE
100
AcDbEntity
  8
Defpoints
 62
     0
100
AcDbPoint
 10
718.3277549555413
 20
1581.403944219941
 30
0.0
  0
ENDBLK
  5
91F9
330
91EE
100
AcDbEntity
  8
0
 62
     3
100
AcDbBlockEnd
  0
BLOCK
  5
91FB
330
91FA
100
AcDbEntity
  8
0
 62
     3
100
AcDbBlockBegin
  2
*D29
 70
     1
 10
0.0
 20
0.0
 30
0.0
  3
*D29
  1

  0
LINE
  5
91FC
330
91FA
100
AcDbEntity
  8
実形
 62
     0
370
    18
100
AcDbLine
 10
780.7769446342838
 20
831.4039442199407
 30
0.0
 11
718.3277549555412
 21
831.4039442199408
 31
0.0
  0
LINE
  5
91FD
330
91FA
100
AcDbEntity
  8
実形
 62
     0
370
    18
100
AcDbLine
 10
780.6399956468469
 20
771.4039442199407
 30
0.0
 11
718.3277549555412
 21
771.4039442199408
 31
0.0
  0
LINE
  5
91FE
330
91FA
100
AcDbEntity
  8
実形
 62
     0
370
    18
100
AcDbLine
 10
718.3277549555412
 20
821.4039442199409
 30
0.0
 11
718.3277549555412
 21
781.4039442199408
 31
0.0
  0
INSERT
  5
91FF
330
91FA
100
AcDbEntity
  8
実形
 62
     0
370
    18
100
AcDbBlockReference
  2
_Dot
 10
718.3277549555412
 20
831.4039442199408
 30
0.0
 41
10.0
 42
10.0
 43
10.0
 50
90.0
  0
INSERT
  5
9200
330
91FA
100
AcDbEntity
  8
実形
 62
     0
370
    18
100
AcDbBlockReference
  2
_Dot
 10
718.3277549555412
 20
771.4039442199408
 30
0.0
 41
10.0
 42
10.0
 43
10.0
 50
270.0
  0
MTEXT
  5
9201
330
91FA
100
AcDbEntity
  8
実形
 62
     0
100
AcDbMText
 10
696.7277549555409
 20
801.4039442199409
 30
0.0
 40
30.0
 41
0.0
 71
     5
 72
     1
  1
30
 11
0.0000000000000001
 21
1.0
 31
0.0
 73
     1
 44
1.0
1001
ACAD
1000
MTEXTBEGIN
1070
    73
1070
     1
1070
    44
1040
1.0
1070
    74
1070
     0
1000
MTEXTEND
  0
POINT
  5
9202
330
91FA
100
AcDbEntity
  8
Defpoints
 62
     0
100
AcDbPoint
 10
845.7769446342839
 20
831.4039442199407
 30
0.0
  0
POINT
  5
9203
330
91FA
100
AcDbEntity
  8
Defpoints
 62
     0
100
AcDbPoint
 10
845.6399956468469
 20
771.4039442199407
 30
0.0
  0
POINT
  5
9204
330
91FA
100
AcDbEntity
  8
Defpoints
 62
     0
100
AcDbPoint
 10
718.3277549555412
 20
771.4039442199408
 30
0.0
  0
ENDBLK
  5
9205
330
91FA
100
AcDbEntity
  8
0
 62
     3
100
AcDbBlockEnd
  0
BLOCK
  5
9207
330
9206
100
AcDbEntity
  8
0
 62
     3
100
AcDbBlockBegin
  2
*D30
 70
     1
 10
0.0
 20
0.0
 30
0.0
  3
*D30
  1

  0
LINE
  5
9208
330
9206
100
AcDbEntity
  8
実形
 62
     0
370
    18
100
AcDbLine
 10
780.776944634284
 20
1581.403944219941
 30
0.0
 11
718.3277549555413
 21
1581.403944219941
 31
0.0
  0
LINE
  5
9209
330
9206
100
AcDbEntity
  8
実形
 62
     0
370
    18
100
AcDbLine
 10
780.7769446342837
 20
831.4039442199407
 30
0.0
 11
718.3277549555412
 21
831.4039442199408
 31
0.0
  0
LINE
  5
920A
330
9206
100
AcDbEntity
  8
実形
 62
     0
370
    18
100
AcDbLine
 10
718.3277549555413
 20
1571.403944219941
 30
0.0
 11
718.3277549555412
 21
841.4039442199408
 31
0.0
  0
INSERT
  5
920B
330
9206
100
AcDbEntity
  8
実形
 62
     0
370
    18
100
AcDbBlockReference
  2
_Dot
 10
718.3277549555413
 20
1581.403944219941
 30
0.0
 41
10.0
 42
10.0
 43
10.0
 50
90.0
  0
INSERT
  5
920C
330
9206
100
AcDbEntity
  8
実形
 62
     0
370
    18
100
AcDbBlockReference
  2
_Dot
 10
718.3277549555412
 20
831.4039442199408
 30
0.0
 41
10.0
 42
10.0
 43
10.0
 50
270.0
  0
MTEXT
  5
920D
330
9206
100
AcDbEntity
  8
実形
 62
     0
100
AcDbMText
 10
696.7277549555411
 20
1206.403944219941
 30
0.0
 40
30.0
 41
0.0
 71
     5
 72
     1
  1
375
 11
0.0000000000000001
 21
1.0
 31
0.0
 73
     1
 44
1.0
1001
ACAD
1000
MTEXTBEGIN
1070
    73
1070
     1
1070
    44
1040
1.0
1070
    74
1070
     0
1000
MTEXTEND
  0
POINT
  5
920E
330
9206
100
AcDbEntity
  8
Defpoints
 62
     0
100
AcDbPoint
 10
845.776944634284
 20
1581.403944219941
 30
0.0
  0
POINT
  5
920F
330
9206
100
AcDbEntity
  8
Defpoints
 62
     0
100
AcDbPoint
 10
845.7769446342837
 20
831.4039442199407
 30
0.0
  0
POINT
  5
9210
330
9206
100
AcDbEntity
  8
Defpoints
 62
     0
100
AcDbPoint
 10
718.3277549555412
 20
831.4039442199408
 30
0.0
  0
ENDBLK
  5
9211
330
9206
100
AcDbEntity
  8
0
 62
     3
100
AcDbBlockEnd
  0
BLOCK
  5
9213
330
9212
100
AcDbEntity
  8
0
 62
     3
100
AcDbBlockBegin
  2
*D31
 70
     1
 10
0.0
 20
0.0
 30
0.0
  3
*D31
  1

  0
LINE
  5
9214
330
9212
100
AcDbEntity
  8
実形
 62
     0
370
    18
100
AcDbLine
 10
1912.576467019779
 20
1677.163643198911
 30
0.0
 11
1912.576467019779
 21
1725.012318240818
 31
0.0
  0
LINE
  5
9215
330
9212
100
AcDbEntity
  8
実形
 62
     0
370
    18
100
AcDbLine
 10
1942.576467019779
 20
1677.163643198911
 30
0.0
 11
1942.576467019779
 21
1725.012318240818
 31
0.0
  0
MTEXT
  5
9216
330
9212
100
AcDbEntity
  8
実形
 62
     0
100
AcDbMText
 10
1927.576467019779
 20
1749.912318240818
 30
0.0
 40
30.0
 41
0.0
 71
     5
 72
     1
  1
15
 73
     1
 44
1.0
1001
ACAD
1000
MTEXTBEGIN
1070
    73
1070
     1
1070
    44
1040
1.0
1070
    74
1070
     0
1000
MTEXTEND
  0
POINT
  5
9217
330
9212
100
AcDbEntity
  8
Defpoints
 62
     0
100
AcDbPoint
 10
1912.576467019779
 20
1612.16364319891
 30
0.0
  0
POINT
  5
9218
330
9212
100
AcDbEntity
  8
Defpoints
 62
     0
100
AcDbPoint
 10
1942.576467019779
 20
1612.16364319891
 30
0.0
  0
POINT
  5
9219
330
9212
100
AcDbEntity
  8
Defpoints
 62
     0
100
AcDbPoint
 10
1942.576467019779
 20
1725.012318240818
 30
0.0
  0
ENDBLK
  5
921A
330
9212
100
AcDbEntity
  8
0
 62
     3
100
AcDbBlockEnd
  0
BLOCK
  5
921C
330
921B
100
AcDbEntity
  8
0
 62
     3
100
AcDbBlockBegin
  2
*D32
 70
     1
 10
0.0
 20
0.0
 30
0.0
  3
*D32
  1

  0
LINE
  5
921D
330
921B
100
AcDbEntity
  8
実形
 62
     0
370
    18
100
AcDbLine
 10
2007.576467019779
 20
771.4039442199403
 30
0.0
 11
2070.350299772138
 21
771.4039442199403
 31
0.0
  0
LINE
  5
921E
330
921B
100
AcDbEntity
  8
実形
 62
     0
370
    18
100
AcDbLine
 10
2007.57646701978
 20
1641.403944219941
 30
0.0
 11
2070.350299772138
 21
1641.403944219941
 31
0.0
  0
LINE
  5
921F
330
921B
100
AcDbEntity
  8
実形
 62
     0
370
    18
100
AcDbLine
 10
2070.350299772138
 20
781.4039442199404
 30
0.0
 11
2070.350299772138
 21
1631.403944219941
 31
0.0
  0
INSERT
  5
9220
330
921B
100
AcDbEntity
  8
実形
 62
     0
370
    18
100
AcDbBlockReference
  2
_Dot
 10
2070.350299772138
 20
771.4039442199403
 30
0.0
 41
10.0
 42
10.0
 43
10.0
 50
270.0
  0
INSERT
  5
9221
330
921B
100
AcDbEntity
  8
実形
 62
     0
370
    18
100
AcDbBlockReference
  2
_Dot
 10
2070.350299772138
 20
1641.403944219941
 30
0.0
 41
10.0
 42
10.0
 43
10.0
 50
90.0
  0
MTEXT
  5
9222
330
921B
100
AcDbEntity
  8
実形
 62
     0
100
AcDbMText
 10
2048.750299772137
 20
1206.403944219941
 30
0.0
 40
30.0
 41
0.0
 71
     5
 72
     1
  1
435
 11
0.0000000000000001
 21
1.0
 31
0.0
 73
     1
 44
1.0
1001
ACAD
1000
MTEXTBEGIN
1070
    73
1070
     1
1070
    44
1040
1.0
1070
    74
1070
     0
1000
MTEXTEND
  0
POINT
  5
9223
330
921B
100
AcDbEntity
  8
Defpoints
 62
     0
100
AcDbPoint
 10
1942.57646701978
 20
771.4039442199403
 30
0.0
  0
POINT
  5
9224
330
921B
100
AcDbEntity
  8
Defpoints
 62
     0
100
AcDbPoint
 10
1942.57646701978
 20
1641.403944219941
 30
0.0
  0
POINT
  5
9225
330
921B
100
AcDbEntity
  8
Defpoints
 62
     0
100
AcDbPoint
 10
2070.350299772138
 20
1641.403944219941
 30
0.0
  0
ENDBLK
  5
9226
330
921B
100
AcDbEntity
  8
0
 62
     3
100
AcDbBlockEnd
  0
BLOCK
  5
932F
330
9227
100
AcDbEntity
  8
0
 62
     3
100
AcDbBlockBegin
  2
PRS320-15MN ｻﾝﾌﾟﾙ2
 70
     0
 10
0.0
 20
0.0
 30
0.0
  3
PRS320-15MN ｻﾝﾌﾟﾙ2
  1

  0
LINE
  5
9228
330
9227
100
AcDbEntity
  8
枠
 62
     0
100
AcDbLine
 10
124.0
 20
4.0
 30
0.0
 11
2784.0
 21
4.0
 31
0.0
  0
LINE
  5
9229
330
9227
100
AcDbEntity
  8
枠
 62
     0
100
AcDbLine
 10
2784.0
 20
2024.0
 30
0.0
 11
124.0
 21
2024.0
 31
0.0
  0
LINE
  5
922A
330
9227
100
AcDbEntity
  8
枠
 62
     0
100
AcDbLine
 10
2784.0
 20
4.0
 30
0.0
 11
2784.0
 21
2024.0
 31
0.0
  0
LINE
  5
922B
330
9227
100
AcDbEntity
  8
枠
 62
     0
100
AcDbLine
 10
2184.0
 20
134.0
 30
0.0
 11
2184.0
 21
199.0
 31
0.0
  0
LINE
  5
922C
330
9227
100
AcDbEntity
  8
枠
 62
     0
100
AcDbLine
 10
1894.0
 20
2024.0
 30
0.0
 11
2784.0
 21
2024.0
 31
0.0
  0
LINE
  5
922D
330
9227
100
AcDbEntity
  8
枠
 62
     0
100
AcDbLine
 10
2784.0
 20
1829.0
 30
0.0
 11
2784.0
 21
2024.0
 31
0.0
  0
LINE
  5
922E
330
9227
100
AcDbEntity
  8
枠
 62
     0
100
AcDbLine
 10
2784.0
 20
2024.0
 30
0.0
 11
2784.000000000001
 21
1829.0
 31
0.0
  0
LINE
  5
922F
330
9227
100
AcDbEntity
  8
枠
 62
     0
100
AcDbLine
 10
2064.0
 20
69.0
 30
0.0
 11
2784.0
 21
69.0
 31
0.0
  0
LINE
  5
9230
330
9227
100
AcDbEntity
  8
枠
 62
     0
100
AcDbLine
 10
2064.0
 20
199.0
 30
0.0
 11
2784.0
 21
199.0
 31
0.0
  0
LINE
  5
9231
330
9227
100
AcDbEntity
  8
枠
 62
     0
100
AcDbLine
 10
2064.0
 20
134.0
 30
0.0
 11
2784.0
 21
134.0
 31
0.0
  0
LINE
  5
9232
330
9227
100
AcDbEntity
  8
枠
 62
     0
100
AcDbLine
 10
2064.0
 20
4.0
 30
0.0
 11
2064.0
 21
199.0
 31
0.0
  0
TEXT
  5
9233
330
9227
100
AcDbEntity
  8
枠
 62
     0
100
AcDbText
 10
2300.255774665348
 20
16.49999999999999
 30
0.0
 40
40.0
  1
中外交易株式会社
 72
     4
 11
2488.255774665347
 21
36.5
 31
0.0
100
AcDbText
  0
LINE
  5
9234
330
9227
100
AcDbEntity
  8
枠
 62
     0
100
AcDbLine
 10
2184.0
 20
69.0
 30
0.0
 11
2784.0
 21
69.0
 31
0.0
  0
LINE
  5
9235
102
{ACAD_REACTORS
330
9242
102
}
330
9227
100
AcDbEntity
  8
枠
 62
     0
370
     5
100
AcDbLine
 10
2207.843923164362
 20
40.53787547858519
 30
0.0
 11
2183.255774665347
 21
40.53787547858519
 31
0.0
  0
LINE
  5
9236
102
{ACAD_REACTORS
330
9242
102
}
330
9227
100
AcDbEntity
  8
枠
 62
     0
370
     5
100
AcDbLine
 10
2183.255774665347
 20
40.53787547858519
 30
0.0
 11
2183.255774665347
 21
30.53787547858519
 31
0.0
  0
LINE
  5
9237
102
{ACAD_REACTORS
330
9242
102
}
330
9227
100
AcDbEntity
  8
枠
 62
     0
370
     5
100
AcDbLine
 10
2183.255774665347
 20
30.53787547858519
 30
0.0
 11
2207.346428692676
 21
30.53787547858519
 31
0.0
  0
LINE
  5
9238
102
{ACAD_REACTORS
330
9242
102
}
330
9227
100
AcDbEntity
  8
枠
 62
     0
370
     5
100
AcDbLine
 10
2210.641894042939
 20
56.5
 30
0.0
 11
2210.641894042939
 21
16.5
 31
0.0
  0
LINE
  5
9239
102
{ACAD_REACTORS
330
9242
102
}
330
9227
100
AcDbEntity
  8
枠
 62
     0
370
     5
100
AcDbLine
 10
2210.641894042939
 20
16.5
 30
0.0
 11
2245.64189404294
 21
16.5
 31
0.0
  0
LINE
  5
923A
102
{ACAD_REACTORS
330
9242
102
}
330
9227
100
AcDbEntity
  8
枠
 62
     0
370
     5
100
AcDbLine
 10
2245.64189404294
 20
16.5
 30
0.0
 11
2210.641894042939
 21
36.5
 31
0.0
  0
LINE
  5
923B
102
{ACAD_REACTORS
330
9242
102
}
330
9227
100
AcDbEntity
  8
枠
 62
     0
370
     5
100
AcDbLine
 10
2210.641894042939
 20
36.5
 30
0.0
 11
2245.64189404294
 21
56.5
 31
0.0
  0
LINE
  5
923C
102
{ACAD_REACTORS
330
9242
102
}
330
9227
100
AcDbEntity
  8
枠
 62
     0
370
     5
100
AcDbLine
 10
2245.64189404294
 20
56.5
 30
0.0
 11
2210.641894042939
 21
56.5
 31
0.0
  0
LINE
  5
923D
102
{ACAD_REACTORS
330
9242
102
}
330
9227
100
AcDbEntity
  8
枠
 62
     0
370
     5
100
AcDbLine
 10
2276.75434681301
 20
40.53787547858519
 30
0.0
 11
2252.166198313995
 21
40.53787547858519
 31
0.0
  0
LINE
  5
923E
102
{ACAD_REACTORS
330
9242
102
}
330
9227
100
AcDbEntity
  8
枠
 62
     0
370
     5
100
AcDbLine
 10
2252.166198313995
 20
40.53787547858519
 30
0.0
 11
2252.166198313995
 21
30.53787547858519
 31
0.0
  0
LINE
  5
923F
102
{ACAD_REACTORS
330
9242
102
}
330
9227
100
AcDbEntity
  8
枠
 62
     0
370
     5
100
AcDbLine
 10
2252.166198313995
 20
30.53787547858519
 30
0.0
 11
2276.256852341323
 21
30.53787547858519
 31
0.0
  0
ARC
  5
9240
102
{ACAD_REACTORS
330
9242
102
}
330
9227
100
AcDbEntity
  8
枠
 62
     0
370
     5
100
AcDbCircle
 10
2188.255774665348
 20
36.5
 30
0.0
 40
20.0
100
AcDbArc
 50
11.64772366708617
 51
342.6561058784773
  0
ARC
  5
9241
102
{ACAD_REACTORS
330
9242
102
}
330
9227
100
AcDbEntity
  8
枠
 62
     0
370
     5
100
AcDbCircle
 10
2257.166198313996
 20
36.5
 30
0.0
 40
20.0
100
AcDbArc
 50
11.64772366708617
 51
342.6561058784773
  0
HATCH
  5
9242
330
9227
100
AcDbEntity
  8
枠
 62
     0
100
AcDbHatch
 10
0.0
 20
0.0
 30
0.0
210
0.0
220
0.0
230
1.0
  2
SOLID
 70
     1
 71
     1
 91
        3
 92
        1
 93
        4
 72
     2
 10
2257.166198313996
 20
36.5
 40
20.0
 50
11.64772366708617
 51
342.6561058784773
 73
     1
 72
     1
 10
2276.256852341323
 20
30.53787547858519
 11
2252.166198313995
 21
30.53787547858519
 72
     1
 10
2252.166198313995
 20
30.53787547858519
 11
2252.166198313995
 21
40.53787547858519
 72
     1
 10
2252.166198313995
 20
40.53787547858519
 11
2276.75434681301
 21
40.53787547858519
 97
        4
330
9241
330
923F
330
923E
330
923D
 92
        1
 93
        4
 72
     2
 10
2188.255774665348
 20
36.5
 40
20.0
 50
11.64772366708617
 51
342.6561058784773
 73
     1
 72
     1
 10
2207.346428692676
 20
30.53787547858519
 11
2183.255774665347
 21
30.53787547858519
 72
     1
 10
2183.255774665347
 20
30.53787547858519
 11
2183.255774665347
 21
40.53787547858519
 72
     1
 10
2183.255774665347
 20
40.53787547858519
 11
2207.843923164362
 21
40.53787547858519
 97
        4
330
9240
330
9237
330
9236
330
9235
 92
        1
 93
        5
 72
     1
 10
2245.64189404294
 20
56.5
 11
2210.641894042939
 21
56.5
 72
     1
 10
2210.641894042939
 20
56.5
 11
2210.641894042939
 21
16.5
 72
     1
 10
2210.641894042939
 20
16.5
 11
2245.64189404294
 21
16.5
 72
     1
 10
2245.64189404294
 20
16.5
 11
2210.641894042939
 21
36.5
 72
     1
 10
2210.641894042939
 20
36.5
 11
2245.64189404294
 21
56.5
 97
        5
330
923C
330
9238
330
9239
330
923A
330
923B
 75
     0
 76
     1
 98
        1
 10
-60.0
 20
0.0
  0
LINE
  5
9243
330
9227
100
AcDbEntity
  8
枠
 62
     0
100
AcDbLine
 10
2184.0
 20
69.0
 30
0.0
 11
2184.0
 21
199.0
 31
0.0
  0
LINE
  5
9244
330
9227
100
AcDbEntity
  8
枠
 62
     0
100
AcDbLine
 10
2784.0
 20
69.0
 30
0.0
 11
2784.0
 21
134.0
 31
0.0
  0
LINE
  5
9245
330
9227
100
AcDbEntity
  8
枠
 62
     0
100
AcDbLine
 10
2784.0
 20
134.0
 30
0.0
 11
2784.0
 21
199.0
 31
0.0
  0
LINE
  5
9246
330
9227
100
AcDbEntity
  8
枠
 62
     0
100
AcDbLine
 10
2784.0
 20
4.0
 30
0.0
 11
2784.0
 21
69.0
 31
0.0
  0
LINE
  5
9247
330
9227
100
AcDbEntity
  8
枠
 62
     0
100
AcDbLine
 10
2784.0
 20
1829.0
 30
0.0
 11
2784.0
 21
2024.000000000001
 31
0.0
  0
TEXT
  5
9248
330
9227
100
AcDbEntity
  8
実形
100
AcDbText
 10
1524.404975076462
 20
1405.515461360212
 30
0.0
 40
30.0
  1
A
 72
     4
 11
1534.404975076461
 21
1420.515461360212
 31
0.0
100
AcDbText
  0
TEXT
  5
9249
330
9227
100
AcDbEntity
  8
実形
100
AcDbText
 10
1537.756420265033
 20
1403.740007572533
 30
0.0
 40
30.0
  1
´
 72
     4
 11
1551.756420265033
 21
1431.740007572533
 31
0.0
100
AcDbText
  0
TEXT
  5
924A
330
9227
100
AcDbEntity
  8
実形
100
AcDbText
 10
221.4746615155927
 20
60.08511374856789
 30
0.0
 40
30.0
  1
※実寸には製造上の誤差が多少生ずる場合があります。シンクの穴あけ加工は現物合わせにてお願いします。
 72
     4
 11
1091.474661515593
 21
75.08511374856789
 31
0.0
100
AcDbText
  0
TEXT
  5
924B
330
9227
100
AcDbEntity
  8
実形
100
AcDbText
 10
1534.652518422231
 20
721.1658540770977
 30
0.0
 40
30.0
  1
60R
 72
     2
 11
1609.652518422231
 21
717.1658540770977
 31
0.0
100
AcDbText
 73
     1
  0
LEADER
  5
924C
330
9227
100
AcDbEntity
  8
実形
100
AcDbLeader
  3
ISO-25
 76
     2
 10
1449.613443764215
 20
787.4027241905796
 30
0.0
 10
1516.528413105315
 20
736.7334913212689
 30
0.0
1001
ACAD
1000
DSTYLE
1002
{
1070
    77
1070
     0
1070
    41
1040
10.0
1070
   140
1040
30.0
1070
   147
1040
6.599999999999998
1070
   279
1070
     2
1070
   342
1005
30D
1070
   371
1070
    18
1070
   372
1070
    18
1002
}
  0
TEXT
  5
924D
330
9227
100
AcDbEntity
  8
枠
 62
     0
100
AcDbText
 10
2086.666666666667
 20
84.0
 30
0.0
 40
35.0
  1
品番
 72
     4
 11
2124.0
 21
101.5
 31
0.0
100
AcDbText
  0
TEXT
  5
924E
330
9227
100
AcDbEntity
  8
枠
 62
     0
100
AcDbText
 10
2086.666666666667
 20
149.0
 30
0.0
 40
35.0
  1
名称
 72
     4
 11
2124.0
 21
166.5
 31
0.0
100
AcDbText
  0
TEXT
  5
924F
330
9227
100
AcDbEntity
  8
実形
100
AcDbText
 10
1142.988029109828
 20
695.416964034865
 30
0.0
 40
30.0
  1
B
 72
     4
 11
1152.988029109828
 21
710.416964034865
 31
0.0
100
AcDbText
  0
TEXT
  5
9250
330
9227
100
AcDbEntity
  8
実形
100
AcDbText
 10
1159.322087433052
 20
698.063690340422
 30
0.0
 40
30.0
  1
´
 72
     4
 11
1173.322087433052
 21
726.0636903404219
 31
0.0
100
AcDbText
  0
TEXT
  5
9251
330
9227
100
AcDbEntity
  8
実形
100
AcDbText
 10
2255.608802850728
 20
146.6405006610517
 30
0.0
 40
35.0
  1
ｶｯﾃｨﾝｸﾞﾎﾞｰﾄﾞ
  7
ms明朝
 72
     4
 11
2409.208802850728
 21
163.9405006610517
 31
0.0
100
AcDbText
  0
DIMENSION
  5
9252
330
9227
100
AcDbEntity
  8
実形
100
AcDbDimension
  2
*D11
 10
658.4129559397107
 20
770.7992406041864
 30
0.0
 11
636.8129559397106
 21
1205.799240604186
 31
0.0
 70
    32
  1
435
 71
     5
 42
869.9999999999995
  3
ISO-25
100
AcDbAlignedDimension
 13
794.923650745033
 23
1640.799240604186
 33
0.0
 14
794.5981936046912
 24
770.7992406041862
 34
0.0
 50
90.0
100
AcDbRotatedDimension
1001
ACAD
1000
DSTYLE
1002
{
1070
    41
1040
10.0
1070
   140
1040
30.0
1070
   147
1040
6.599999999999998
1070
   279
1070
     2
1070
   342
1005
30D
1070
   371
1070
    18
1070
   372
1070
    18
1002
}
  0
TEXT
  5
9253
330
9227
100
AcDbEntity
  8
実形
100
AcDbText
 10
898.3114755251861
 20
1910.912951578658
 30
0.0
 40
40.0
  1
平面（上方向より）
 72
     4
 11
1098.311475525186
 21
1930.912951578658
 31
0.0
100
AcDbText
  0
TEXT
  5
9254
330
9227
100
AcDbEntity
  8
実形
100
AcDbText
 10
3071.289004329698
 20
1910.912951578658
 30
0.0
 40
40.0
  1
平面（下方向より）
 72
     4
 11
3271.289004329699
 21
1930.912951578658
 31
0.0
100
AcDbText
  0
LINE
  5
9255
330
9227
100
AcDbEntity
  8
実形
  6
ACAD_ISO08W100
100
AcDbLine
 10
1167.404639195289
 20
752.7992406041858
 30
0.0
 11
1165.314372275453
 21
1662.624392946444
 31
0.0
  0
LINE
  5
9256
330
9227
100
AcDbEntity
  8
実形
  6
ACAD_ISO08W100
100
AcDbLine
 10
829.1844531025891
 20
1413.966954431699
 30
0.0
 11
1507.120590887251
 21
1413.966954431699
 31
0.0
  0
TEXT
  5
9257
330
9227
100
AcDbEntity
  8
実形
100
AcDbText
 10
794.9028598342484
 20
1402.48309107579
 30
0.0
 40
30.0
  1
A
 72
     4
 11
804.9028598342484
 21
1417.48309107579
 31
0.0
100
AcDbText
  0
TEXT
  5
9258
330
9227
100
AcDbEntity
  8
実形
100
AcDbText
 10
1153.280921192653
 20
1672.706663761592
 30
0.0
 40
30.0
  1
B
 72
     4
 11
1163.280921192653
 21
1687.706663761592
 31
0.0
100
AcDbText
  0
LINE
  5
9259
330
9227
100
AcDbEntity
  8
枠
 62
     0
100
AcDbLine
 10
124.0
 20
2024.0
 30
0.0
 11
124.0
 21
4.0
 31
0.0
  0
TEXT
  5
925A
330
9227
100
AcDbEntity
  8
実形
100
AcDbText
 10
768.0512924228033
 20
571.9741414101063
 30
0.0
 40
40.0
  1
A-A´断面
 72
     4
 11
894.7179590894698
 21
591.9741414101062
 31
0.0
100
AcDbText
  0
LINE
  5
925B
330
9227
100
AcDbEntity
  8
実形
 62
     1
100
AcDbLine
 10
458.2172769388771
 20
-135.6137757920592
 30
0.0
 11
950.2172769388774
 21
-135.6137757920592
 31
0.0
  0
LINE
  5
925C
330
9227
100
AcDbEntity
  8
実形
 62
     1
100
AcDbLine
 10
458.2172769388771
 20
-157.6137757920592
 30
0.0
 11
496.2172769388771
 21
-157.6137757920592
 31
0.0
  0
LINE
  5
925D
330
9227
100
AcDbEntity
  8
実形
 62
     1
100
AcDbLine
 10
912.2172769388779
 20
-157.6137757920592
 30
0.0
 11
950.2172769388776
 21
-157.6137757920592
 31
0.0
  0
ARC
  5
925E
330
9227
100
AcDbEntity
  8
実形
 62
     1
100
AcDbCircle
 10
912.2172769388779
 20
-161.6137757920592
 30
0.0
 40
4.0
100
AcDbArc
 50
90.0
 51
180.0
  0
LINE
  5
925F
330
9227
100
AcDbEntity
  8
実形
 62
     1
100
AcDbLine
 10
504.2172769388771
 20
-165.6137757920592
 30
0.0
 11
904.2172769388779
 21
-165.6137757920592
 31
0.0
  0
ARC
  5
9260
330
9227
100
AcDbEntity
  8
実形
 62
     1
100
AcDbCircle
 10
904.2172769388779
 20
-161.6137757920592
 30
0.0
 40
4.0
100
AcDbArc
 50
270.0
 51
359.9999999999935
  0
LINE
  5
9261
330
9227
100
AcDbEntity
  8
実形
 62
     1
100
AcDbLine
 10
454.2172769388771
 20
-139.6137757920592
 30
0.0
 11
454.2172769388771
 21
-153.6137757920592
 31
0.0
  0
ARC
  5
9262
330
9227
100
AcDbEntity
  8
実形
 62
     1
100
AcDbCircle
 10
458.2172769388771
 20
-153.6137757920592
 30
0.0
 40
4.0
100
AcDbArc
 50
180.0
 51
270.0
  0
ARC
  5
9263
330
9227
100
AcDbEntity
  8
実形
 62
     1
100
AcDbCircle
 10
458.2172769388771
 20
-139.6137757920592
 30
0.0
 40
4.0
100
AcDbArc
 50
90.0
 51
180.0
  0
LINE
  5
9264
330
9227
100
AcDbEntity
  8
実形
 62
     1
100
AcDbLine
 10
500.2172769388771
 20
-161.6137757920592
 30
0.0
 11
500.2172769388771
 21
-161.6137757920592
 31
0.0
  0
ARC
  5
9265
330
9227
100
AcDbEntity
  8
実形
 62
     1
100
AcDbCircle
 10
504.2172769388771
 20
-161.6137757920592
 30
0.0
 40
4.0
100
AcDbArc
 50
180.0
 51
270.0
  0
ARC
  5
9266
330
9227
100
AcDbEntity
  8
実形
 62
     1
100
AcDbCircle
 10
496.2172769388771
 20
-161.6137757920592
 30
0.0
 40
4.0
100
AcDbArc
 50
0.0
 51
90.0
  0
LINE
  5
9267
330
9227
100
AcDbEntity
  8
実形
 62
     1
100
AcDbLine
 10
954.2172769388773
 20
-139.6137757920592
 30
0.0
 11
954.2172769388775
 21
-153.6137757920592
 31
0.0
  0
ARC
  5
9268
330
9227
100
AcDbEntity
  8
実形
 62
     1
100
AcDbCircle
 10
950.2172769388776
 20
-153.6137757920592
 30
0.0
 40
4.0
100
AcDbArc
 50
270.0
 51
0.0
  0
ARC
  5
9269
330
9227
100
AcDbEntity
  8
実形
 62
     1
100
AcDbCircle
 10
950.2172769388774
 20
-139.6137757920592
 30
0.0
 40
4.0
100
AcDbArc
 50
0.0
 51
90.0
  0
LINE
  5
926A
330
9227
100
AcDbEntity
  8
実形
 62
     1
100
AcDbLine
 10
908.2172769388778
 20
-161.6137757920592
 30
0.0
 11
908.217276938878
 21
-161.6137757920596
 31
0.0
  0
DIMENSION
  5
926B
330
9227
100
AcDbEntity
  8
実形
 62
     1
100
AcDbDimension
  2
*D12
 10
908.2172769388771
 20
-261.8005497604358
 30
0.0
 11
704.217276938877
 21
-240.2005497604358
 31
0.0
 70
    32
  1
204
 71
     5
 42
408.0
  3
ISO-25
100
AcDbAlignedDimension
 13
500.217276938877
 23
-164.9213445726659
 33
0.0
 14
908.2172769388771
 24
-190.8280095757568
 34
0.0
100
AcDbRotatedDimension
1001
ACAD
1000
DSTYLE
1002
{
1070
    41
1040
10.0
1070
   140
1040
30.0
1070
   147
1040
6.599999999999998
1070
   279
1070
     2
1070
   342
1005
30D
1070
   371
1070
    18
1070
   372
1070
    18
1002
}
  0
DIMENSION
  5
926C
330
9227
100
AcDbEntity
  8
実形
 62
     1
100
AcDbDimension
  2
*D13
 10
500.217276938877
 20
-261.8005497604358
 30
0.0
 11
478.3386213545353
 21
-204.1637222881859
 31
0.0
 70
   160
  1
23
 71
     5
 42
46.0
  3
ISO-25
100
AcDbAlignedDimension
 13
454.217276938877
 23
-165.6137757920592
 33
0.0
 14
500.217276938877
 24
-167.7349141691215
 34
0.0
100
AcDbRotatedDimension
1001
ACAD
1000
DSTYLE
1002
{
1070
    41
1040
10.0
1070
   140
1040
30.0
1070
   147
1040
6.599999999999998
1070
   279
1070
     2
1070
   342
1005
30D
1070
   371
1070
    18
1070
   372
1070
    18
1002
}
  0
DIMENSION
  5
926D
330
9227
100
AcDbEntity
  8
実形
 62
     1
100
AcDbDimension
  2
*D14
 10
954.2172769388772
 20
-261.8005497604358
 30
0.0
 11
931.9697314527138
 21
-201.1403276367441
 31
0.0
 70
   160
  1
23
 71
     5
 42
46.00000000000011
  3
ISO-25
100
AcDbAlignedDimension
 13
908.2172769388771
 23
-166.0785021901997
 33
0.0
 14
954.2172769388772
 24
-165.6137757920592
 34
0.0
100
AcDbRotatedDimension
1001
ACAD
1000
DSTYLE
1002
{
1070
    41
1040
10.0
1070
   140
1040
30.0
1070
   147
1040
6.599999999999998
1070
   279
1070
     2
1070
   342
1005
30D
1070
   371
1070
    18
1070
   372
1070
    18
1002
}
  0
DIMENSION
  5
926E
330
9227
100
AcDbEntity
  8
実形
 62
     1
100
AcDbDimension
  2
*D15
 10
954.2172769388772
 20
-325.0365267347102
 30
0.0
 11
704.2172769388771
 21
-303.4365267347101
 31
0.0
 70
    32
  1
250
 71
     5
 42
500.0
  3
ISO-25
100
AcDbAlignedDimension
 13
454.217276938877
 23
-165.6137757920592
 33
0.0
 14
954.2172769388772
 24
-165.6137757920605
 34
0.0
100
AcDbRotatedDimension
1001
ACAD
1000
DSTYLE
1002
{
1070
    41
1040
10.0
1070
   140
1040
30.0
1070
   147
1040
6.599999999999998
1070
   279
1070
     2
1070
   342
1005
30D
1070
   371
1070
    18
1070
   372
1070
    18
1002
}
  0
LINE
  5
926F
330
9227
100
AcDbEntity
  8
実形
 62
     1
100
AcDbLine
 10
424.7469083945588
 20
-165.6137757920592
 30
0.0
 11
353.7990476383758
 21
-165.6137757920592
 31
0.0
  0
LINE
  5
9270
330
9227
100
AcDbEntity
  8
実形
 62
     1
100
AcDbLine
 10
424.7469083945588
 20
-157.6137757920592
 30
0.0
 11
395.2381061767002
 21
-157.6137757920592
 31
0.0
  0
LINE
  5
9271
330
9227
100
AcDbEntity
  8
実形
 62
     1
100
AcDbLine
 10
424.7469083945588
 20
-135.6137757920592
 30
0.0
 11
353.7990476383758
 21
-135.6137757920592
 31
0.0
  0
LINE
  5
9272
330
9227
100
AcDbEntity
  8
実形
 62
     1
100
AcDbLine
 10
353.7990476383758
 20
-135.6137757920592
 30
0.0
 11
353.7990476383757
 21
-165.6137757920592
 31
0.0
  0
LINE
  5
9273
330
9227
100
AcDbEntity
  8
実形
 62
     1
100
AcDbLine
 10
395.2381061767002
 20
-135.6137757920592
 30
0.0
 11
395.2381061767001
 21
-165.6137757920592
 31
0.0
  0
TEXT
  5
9274
330
9227
100
AcDbEntity
  8
実形
 62
     1
100
AcDbText
 10
390.0203741936387
 20
-170.1395751497848
 30
0.0
 40
10.0
  1
●
 72
     4
 11
394.6870408603054
 21
-165.1395751497848
 31
0.0
100
AcDbText
  0
TEXT
  5
9275
330
9227
100
AcDbEntity
  8
実形
 62
     1
100
AcDbText
 10
389.7389536627091
 20
-161.9806102028587
 30
0.0
 40
10.0
  1
●
 72
     4
 11
394.4056203293758
 21
-156.9806102028588
 31
0.0
100
AcDbText
  0
TEXT
  5
9276
330
9227
100
AcDbEntity
  8
実形
 62
     1
100
AcDbText
 10
390.0203741936387
 20
-140.8798353049478
 30
0.0
 40
10.0
  1
●
 72
     4
 11
394.6870408603054
 21
-135.8798353049478
 31
0.0
100
AcDbText
  0
TEXT
  5
9277
330
9227
100
AcDbEntity
  8
実形
 62
     1
100
AcDbText
 10
349.2487286808922
 20
-170.8717721980679
 30
0.0
 40
10.0
  1
●
 72
     4
 11
353.9153953475588
 21
-165.8717721980679
 31
0.0
100
AcDbText
  0
TEXT
  5
9278
330
9227
100
AcDbEntity
  8
実形
 62
     1
100
AcDbText
 10
349.1224947499853
 20
-140.8460497484902
 30
0.0
 40
10.0
  1
●
 72
     4
 11
353.7891614166519
 21
-135.8460497484902
 31
0.0
100
AcDbText
  0
TEXT
  5
9279
330
9227
100
AcDbEntity
  8
実形
 62
     1
100
AcDbText
 10
391.5182106747752
 20
-121.5260461941948
 30
0.0
 40
30.0
  1
11
 50
90.0
 72
     2
 11
395.5182106747752
 21
-91.52604619419481
 31
0.0
100
AcDbText
 73
     1
  0
TEXT
  5
927A
330
9227
100
AcDbEntity
  8
実形
 62
     1
100
AcDbText
 10
395.0990630234019
 20
-193.7215038337867
 30
0.0
 40
30.0
  1
4
 50
90.0
 72
     2
 11
399.0990630234019
 21
-173.7215038337867
 31
0.0
100
AcDbText
 73
     1
  0
TEXT
  5
927B
330
9227
100
AcDbEntity
  8
実形
 62
     1
100
AcDbText
 10
334.8004313265146
 20
-171.6779838199532
 30
0.0
 40
30.0
  1
15
 50
90.0
 72
     2
 11
338.8004313265146
 21
-131.6779838199531
 31
0.0
100
AcDbText
 73
     1
  0
TEXT
  5
927C
330
9227
100
AcDbEntity
  8
実形
 62
     1
100
AcDbText
 10
1028.253921249517
 20
-105.9596027839911
 30
0.0
 40
30.0
  1
2R
 72
     2
 11
1078.253921249517
 21
-109.9596027839911
 31
0.0
100
AcDbText
 73
     1
  0
LEADER
  5
927D
330
9227
100
AcDbEntity
  8
実形
 62
     1
100
AcDbLeader
  3
ISO-25
 76
     2
 10
965.8168875395485
 20
-132.6439580327983
 30
0.0
 10
1022.496617790749
 20
-106.9651194594939
 30
0.0
1001
ACAD
1000
DSTYLE
1002
{
1070
    77
1070
     0
1070
    41
1040
10.0
1070
   140
1040
30.0
1070
   147
1040
6.599999999999998
1070
   279
1070
     2
1070
   342
1005
30D
1070
   371
1070
    13
1070
   372
1070
    18
1002
}
  0
TEXT
  5
927E
330
9227
100
AcDbEntity
  8
実形
 62
     1
100
AcDbText
 10
1031.538357159266
 20
-187.3595376843682
 30
0.0
 40
30.0
  1
2R
 72
     2
 11
1081.538357159266
 21
-191.3595376843682
 31
0.0
100
AcDbText
 73
     1
  0
LEADER
  5
927F
330
9227
100
AcDbEntity
  8
実形
 62
     1
100
AcDbLeader
  3
ISO-25
 76
     2
 10
966.4160558270713
 20
-156.6045736527026
 30
0.0
 10
1023.501253899704
 20
-109.9782712960773
 30
0.0
1001
ACAD
1000
DSTYLE
1002
{
1070
    77
1070
     0
1070
    41
1040
10.0
1070
   140
1040
30.0
1070
   147
1040
6.599999999999998
1070
   279
1070
     2
1070
   342
1005
30D
1070
   371
1070
    13
1070
   372
1070
    18
1002
}
  0
LEADER
  5
9280
330
9227
100
AcDbEntity
  8
実形
 62
     1
100
AcDbLeader
  3
ISO-25
 76
     2
 10
928.724711713593
 20
-163.2286697493041
 30
0.0
 10
1020.487345572837
 20
-173.2981873329122
 30
0.0
1001
ACAD
1000
DSTYLE
1002
{
1070
    77
1070
     0
1070
    41
1040
10.0
1070
   140
1040
30.0
1070
   147
1040
6.599999999999998
1070
   279
1070
     2
1070
   342
1005
30D
1070
   371
1070
    13
1070
   372
1070
    18
1002
}
  0
LEADER
  5
9281
330
9227
100
AcDbEntity
  8
実形
 62
     1
100
AcDbLeader
  3
ISO-25
 76
     2
 10
925.8210337929476
 20
-169.4313106718596
 30
0.0
 10
1019.482695075966
 20
-175.3069427809992
 30
0.0
1001
ACAD
1000
DSTYLE
1002
{
1070
    77
1070
     0
1070
    41
1040
10.0
1070
   140
1040
30.0
1070
   147
1040
6.599999999999998
1070
   279
1070
     2
1070
   342
1005
30D
1070
   371
1070
    13
1070
   372
1070
    18
1002
}
  0
DIMENSION
  5
9282
330
9227
100
AcDbEntity
  8
実形
 62
     1
100
AcDbDimension
  2
*D16
 10
3156.916357785817
 20
761.7975765180119
 30
0.0
 11
3135.316357785817
 21
1205.797576518012
 31
0.0
 70
    32
  1
444
 71
     5
 42
888.0000000000002
  3
ISO-25
100
AcDbAlignedDimension
 13
3027.910866195792
 23
1649.797576518012
 33
0.0
 14
2994.887259582081
 24
761.7975765180119
 34
0.0
 50
90.0
100
AcDbRotatedDimension
1001
ACAD
1000
DSTYLE
1002
{
1070
    41
1040
10.0
1070
   140
1040
30.0
1070
   147
1040
6.599999999999998
1070
   279
1070
     2
1070
   342
1005
30D
1070
   371
1070
    18
1070
   372
1070
    18
1002
}
  0
TEXT
  5
9283
330
9227
100
AcDbEntity
  8
実形
100
AcDbText
 10
1834.097120841273
 20
1833.156526190623
 30
0.0
 40
40.0
  1
B-B\U+00b4断面
 72
     4
 11
1960.763787507939
 21
1853.156526190623
 31
0.0
100
AcDbText
  0
DIMENSION
  5
9284
330
9227
100
AcDbEntity
  8
実形
 62
     1
100
AcDbDimension
  2
*D17
 10
3096.191173447259
 20
1603.797576518012
 30
0.0
 11
3081.275872138358
 21
1686.953613616257
 31
0.0
 70
   160
  1
23
 71
     5
 42
46.00000000000022
  3
ISO-25
100
AcDbAlignedDimension
 13
3006.011470903759
 23
1649.797576518012
 33
0.0
 14
3006.011470903758
 24
1603.797576518012
 34
0.0
 50
90.0
100
AcDbRotatedDimension
1001
ACAD
1000
DSTYLE
1002
{
1070
    41
1040
10.0
1070
   140
1040
30.0
1070
   147
1040
6.599999999999998
1070
   279
1070
     2
1070
   342
1005
30D
1070
   371
1070
    18
1070
   372
1070
    18
1002
}
  0
DIMENSION
  5
9285
330
9227
100
AcDbEntity
  8
実形
 62
     1
100
AcDbDimension
  2
*D18
 10
3096.191173447283
 20
761.7975765180119
 30
0.0
 11
3077.497929208364
 21
730.5370566251679
 31
0.0
 70
   160
  1
23
 71
     5
 42
46.0
  3
ISO-25
100
AcDbAlignedDimension
 13
2995.592891989911
 23
807.797576518012
 33
0.0
 14
2994.887259582081
 24
761.7975765180119
 34
0.0
 50
90.0
100
AcDbRotatedDimension
1001
ACAD
1000
DSTYLE
1002
{
1070
    41
1040
10.0
1070
   140
1040
30.0
1070
   147
1040
6.599999999999998
1070
   279
1070
     2
1070
   342
1005
30D
1070
   371
1070
    18
1070
   372
1070
    18
1002
}
  0
LINE
  5
9286
330
9227
100
AcDbEntity
  8
実形
 62
     1
100
AcDbLine
 10
3008.887259582081
 20
1603.797576518012
 30
0.0
 11
3008.887259582081
 21
1603.797576518011
 31
0.0
  0
LINE
  5
9287
330
9227
100
AcDbEntity
  8
実形
 62
     1
100
AcDbLine
 10
2986.887259582081
 20
761.797576518012
 30
0.0
 11
3000.887259582081
 21
761.7975765180117
 31
0.0
  0
LINE
  5
9288
330
9227
100
AcDbEntity
  8
実形
 62
     1
100
AcDbLine
 10
3008.887259582081
 20
807.797576518012
 30
0.0
 11
3008.88725958208
 21
807.7975765180118
 31
0.0
  0
ARC
  5
9289
330
9227
100
AcDbEntity
  8
実形
 62
     1
100
AcDbCircle
 10
3008.887259582081
 20
803.7975765180119
 30
0.0
 40
4.0
100
AcDbArc
 50
90.0
 51
180.0
  0
LINE
  5
928A
330
9227
100
AcDbEntity
  8
実形
 62
     1
100
AcDbLine
 10
3012.88725958208
 20
811.7975765180117
 30
0.0
 11
3012.887259582081
 21
1599.797576518011
 31
0.0
  0
ARC
  5
928B
330
9227
100
AcDbEntity
  8
実形
 62
     1
100
AcDbCircle
 10
3008.88725958208
 20
811.7975765180117
 30
0.0
 40
4.0
100
AcDbArc
 50
270.0
 51
0.0
  0
ARC
  5
928C
330
9227
100
AcDbEntity
  8
実形
 62
     1
100
AcDbCircle
 10
3008.887259582081
 20
1599.797576518011
 30
0.0
 40
4.0
100
AcDbArc
 50
0.0
 51
90.0
  0
LINE
  5
928D
330
9227
100
AcDbEntity
  8
実形
 62
     1
100
AcDbLine
 10
3004.88725958208
 20
765.7975765180117
 30
0.0
 11
3004.887259582081
 21
803.7975765180119
 31
0.0
  0
ARC
  5
928E
330
9227
100
AcDbEntity
  8
実形
 62
     1
100
AcDbCircle
 10
3000.887259582081
 20
765.7975765180117
 30
0.0
 40
4.0
100
AcDbArc
 50
270.0
 51
0.0
  0
LINE
  5
928F
330
9227
100
AcDbEntity
  8
実形
 62
     1
100
AcDbLine
 10
3004.887259582081
 20
1607.797576518011
 30
0.0
 11
3004.887259582082
 21
1645.797576518011
 31
0.0
  0
ARC
  5
9290
330
9227
100
AcDbEntity
  8
実形
 62
     1
100
AcDbCircle
 10
3008.887259582081
 20
1607.797576518011
 30
0.0
 40
4.0
100
AcDbArc
 50
180.0
 51
270.0
  0
ARC
  5
9291
330
9227
100
AcDbEntity
  8
実形
 62
     1
100
AcDbCircle
 10
3000.887259582081
 20
1645.797576518011
 30
0.0
 40
4.0
100
AcDbArc
 50
0.0
 51
90.0
  0
LINE
  5
9292
330
9227
100
AcDbEntity
  8
実形
 62
     1
100
AcDbLine
 10
2982.887259582081
 20
765.797576518012
 30
0.0
 11
2982.887259582081
 21
1645.797576518012
 31
0.0
  0
ARC
  5
9293
330
9227
100
AcDbEntity
  8
実形
 62
     1
100
AcDbCircle
 10
2986.887259582081
 20
765.797576518012
 30
0.0
 40
4.0
100
AcDbArc
 50
180.0
 51
270.0
  0
LINE
  5
9294
330
9227
100
AcDbEntity
  8
実形
 62
     1
100
AcDbLine
 10
2986.887259582081
 20
1649.797576518012
 30
0.0
 11
3000.887259582081
 21
1649.797576518012
 31
0.0
  0
ARC
  5
9295
330
9227
100
AcDbEntity
  8
実形
 62
     1
100
AcDbCircle
 10
2986.887259582081
 20
1645.797576518012
 30
0.0
 40
4.0
100
AcDbArc
 50
90.0
 51
180.0
  0
LINE
  5
9296
330
9227
100
AcDbEntity
  8
実形
 62
     1
100
AcDbLine
 10
3012.887259582081
 20
1691.76151756506
 30
0.0
 11
3012.887259582081
 21
1721.270319782919
 31
0.0
  0
LINE
  5
9297
330
9227
100
AcDbEntity
  8
実形
 62
     1
100
AcDbLine
 10
3012.887259582081
 20
1721.270319782919
 30
0.0
 11
2982.887259582081
 21
1721.270319782919
 31
0.0
  0
LINE
  5
9298
330
9227
100
AcDbEntity
  8
実形
 62
     1
100
AcDbLine
 10
2982.887259582081
 20
1721.270319782919
 30
0.0
 11
2982.887259582081
 21
1691.76151756506
 31
0.0
  0
LINE
  5
9299
330
9227
100
AcDbEntity
  8
実形
 62
     1
100
AcDbLine
 10
3004.887259582082
 20
1720.978300006769
 30
0.0
 11
3004.887259582082
 21
1691.46949778891
 31
0.0
  0
TEXT
  5
929A
330
9227
100
AcDbEntity
  8
実形
 62
     1
100
AcDbText
 10
3007.668828537604
 20
1725.612385104876
 30
0.0
 40
10.0
  1
●
 50
270.0
 72
     4
 11
3012.668828537603
 21
1720.945718438209
 31
0.0
100
AcDbText
  0
TEXT
  5
929B
330
9227
100
AcDbEntity
  8
実形
 62
     1
100
AcDbText
 10
3000.16987085263
 20
1725.880932758077
 30
0.0
 40
10.0
  1
●
 50
270.0
 72
     4
 11
3005.169870852631
 21
1721.21426609141
 31
0.0
100
AcDbText
  0
TEXT
  5
929C
330
9227
100
AcDbEntity
  8
実形
 62
     1
100
AcDbText
 10
2978.719882754568
 20
1725.892668819551
 30
0.0
 40
10.0
  1
●
 50
270.0
 72
     4
 11
2983.719882754568
 21
1721.226002152885
 31
0.0
100
AcDbText
  0
TEXT
  5
929D
330
9227
100
AcDbEntity
  8
実形
 62
     1
100
AcDbText
 10
2939.505203997585
 20
1720.014627784731
 30
0.0
 40
30.0
  1
11
 72
     2
 11
2969.505203997585
 21
1716.014627784731
 31
0.0
100
AcDbText
 73
     1
  0
TEXT
  5
929E
330
9227
100
AcDbEntity
  8
実形
 62
     1
100
AcDbText
 10
3031.53493099463
 20
1718.250995889247
 30
0.0
 40
30.0
  1
4
 72
     2
 11
3051.53493099463
 21
1714.250995889247
 31
0.0
100
AcDbText
 73
     1
  0
TEXT
  5
929F
330
9227
100
AcDbEntity
  8
実形
 62
     1
100
AcDbText
 10
2904.685490892523
 20
669.3887772978171
 30
0.0
 40
30.0
  1
2R
 72
     2
 11
2954.685490892523
 21
665.3887772978171
 31
0.0
100
AcDbText
 73
     1
  0
TEXT
  5
92A0
330
9227
100
AcDbEntity
  8
実形
 62
     1
100
AcDbText
 10
3023.606582497093
 20
644.3071269002659
 30
0.0
 40
30.0
  1
2R
 72
     2
 11
3073.606582497093
 21
640.3071269002659
 31
0.0
100
AcDbText
 73
     1
  0
LEADER
  5
92A1
330
9227
100
AcDbEntity
  8
実形
 62
     1
100
AcDbLeader
  3
ISO-25
 76
     2
 10
2980.398229768223
 20
757.2293113524652
 30
0.0
 10
2938.599712823048
 20
706.0835900075792
 30
0.0
1001
ACAD
1000
DSTYLE
1002
{
1070
    77
1070
     0
1070
    41
1040
10.0
1070
   140
1040
30.0
1070
   147
1040
6.599999999999998
1070
   279
1070
     2
1070
   342
1005
30D
1070
   371
1070
    13
1070
   372
1070
    18
1002
}
  0
LEADER
  5
92A2
330
9227
100
AcDbEntity
  8
実形
 62
     1
100
AcDbLeader
  3
ISO-25
 76
     2
 10
3000.265005115368
 20
756.197533009114
 30
0.0
 10
2940.675137455735
 20
706.4985677179058
 30
0.0
1001
ACAD
1000
DSTYLE
1002
{
1070
    77
1070
     0
1070
    41
1040
10.0
1070
   140
1040
30.0
1070
   147
1040
6.599999999999998
1070
   279
1070
     2
1070
   342
1005
30D
1070
   371
1070
    13
1070
   372
1070
    18
1002
}
  0
LEADER
  5
92A3
330
9227
100
AcDbEntity
  8
実形
 62
     1
100
AcDbLeader
  3
ISO-25
 76
     2
 10
3011.249301875203
 20
795.3906080834017
 30
0.0
 10
3039.464757520502
 20
676.4606611096353
 30
0.0
1001
ACAD
1000
DSTYLE
1002
{
1070
    77
1070
     0
1070
    41
1040
10.0
1070
   140
1040
30.0
1070
   147
1040
6.599999999999998
1070
   279
1070
     2
1070
   342
1005
30D
1070
   371
1070
    13
1070
   372
1070
    18
1002
}
  0
LEADER
  5
92A4
330
9227
100
AcDbEntity
  8
実形
 62
     1
100
AcDbLeader
  3
ISO-25
 76
     2
 10
3017.395189706676
 20
801.289162161181
 30
0.0
 10
3039.464757520502
 20
676.4606611096353
 30
0.0
1001
ACAD
1000
DSTYLE
1002
{
1070
    77
1070
     0
1070
    41
1040
10.0
1070
   140
1040
30.0
1070
   147
1040
6.599999999999998
1070
   279
1070
     2
1070
   342
1005
30D
1070
   371
1070
    13
1070
   372
1070
    18
1002
}
  0
DIMENSION
  5
92A5
330
9227
100
AcDbEntity
  8
実形
 62
     1
100
AcDbDimension
  2
*D19
 10
3096.191173447283
 20
807.797576518012
 30
0.0
 11
3074.591173447283
 21
1205.797576518012
 31
0.0
 70
    32
  1
398
 71
     5
 42
795.9999999999998
  3
ISO-25
100
AcDbAlignedDimension
 13
3005.887259582081
 23
1603.797576518012
 33
0.0
 14
3005.887259582081
 24
807.797576518012
 34
0.0
 50
90.0
100
AcDbRotatedDimension
1001
ACAD
1000
DSTYLE
1002
{
1070
    41
1040
10.0
1070
   140
1040
30.0
1070
   147
1040
6.599999999999998
1070
   279
1070
     2
1070
   342
1005
30D
1070
   371
1070
    18
1070
   372
1070
    18
1002
}
  0
LINE
  5
92A6
330
9227
100
AcDbEntity
  8
実形
 62
     1
100
AcDbLine
 10
2982.887259582081
 20
1691.76151756506
 30
0.0
 11
2982.887259582081
 21
1762.709378321243
 31
0.0
  0
LINE
  5
92A7
330
9227
100
AcDbEntity
  8
実形
 62
     1
100
AcDbLine
 10
2982.887259582081
 20
1762.709378321243
 30
0.0
 11
3012.887259582081
 21
1762.709378321243
 31
0.0
  0
LINE
  5
92A8
330
9227
100
AcDbEntity
  8
実形
 62
     1
100
AcDbLine
 10
3012.887259582081
 20
1762.709378321243
 30
0.0
 11
3012.887259582081
 21
1691.76151756506
 31
0.0
  0
TEXT
  5
92A9
330
9227
100
AcDbEntity
  8
実形
 62
     1
100
AcDbText
 10
2977.220544794234
 20
1773.659879536085
 30
0.0
 40
30.0
  1
15
 72
     2
 11
3017.220544794234
 21
1769.659879536085
 31
0.0
100
AcDbText
 73
     1
  0
TEXT
  5
92AA
330
9227
100
AcDbEntity
  8
実形
 62
     1
100
AcDbText
 10
2977.772841991583
 20
1767.390575635605
 30
0.0
 40
10.0
  1
●
 50
270.0
 72
     4
 11
2982.772841991583
 21
1762.723908968938
 31
0.0
100
AcDbText
  0
TEXT
  5
92AB
330
9227
100
AcDbEntity
  8
実形
 62
     1
100
AcDbText
 10
3007.949459895423
 20
1767.149221237087
 30
0.0
 40
10.0
  1
●
 50
270.0
 72
     4
 11
3012.949459895424
 21
1762.48255457042
 31
0.0
100
AcDbText
  0
TEXT
  5
92AC
330
9227
100
AcDbEntity
  8
実形
100
AcDbText
 10
2255.598825447652
 20
83.14946542694997
 30
0.0
 40
35.0
  1
PRS320-15MN
  7
ms明朝
 72
     4
 11
2396.398825447652
 21
100.2494654269499
 31
0.0
100
AcDbText
  0
LINE
  5
92AD
330
9227
100
AcDbEntity
  8
実形
100
AcDbLine
 10
847.0997782217265
 20
885.1277096168063
 30
0.0
 11
845.6399956468473
 21
1520.523548766294
 31
0.0
  0
LINE
  5
92AE
330
9227
100
AcDbEntity
  8
実形
100
AcDbLine
 10
1075.443341618748
 20
1580.799240604186
 30
0.0
 11
1255.51242727322
 21
1580.799240604186
 31
0.0
  0
LINE
  5
92AF
330
9227
100
AcDbEntity
  8
実形
100
AcDbLine
 10
1332.972094197369
 20
1640.799240604186
 30
0.0
 11
1365.640734597728
 21
1640.799240604185
 31
0.0
  0
ARC
  5
92B0
330
9227
100
AcDbEntity
  8
実形
100
AcDbCircle
 10
1255.51242727322
 20
1640.799240604185
 30
0.0
 40
60.0
100
AcDbArc
 50
270.0
 51
345.5224878140701
  0
ARC
  5
92B1
330
9227
100
AcDbEntity
  8
実形
100
AcDbCircle
 10
1332.972094197369
 20
1620.799240604186
 30
0.0
 40
20.0
100
AcDbArc
 50
90.0
 51
165.5224878140701
  0
ARC
  5
92B2
330
9227
100
AcDbEntity
  8
実形
100
AcDbCircle
 10
1364.60018391707
 20
1518.283042367955
 30
0.0
 40
122.5206169425307
100
AcDbArc
 50
1.304161121640761
 51
89.51338900675608
  0
LINE
  5
92B3
330
9227
100
AcDbEntity
  8
実形
100
AcDbLine
 10
1255.185402932158
 20
1580.799240604186
 30
0.0
 11
1075.116317277685
 21
1580.799240604186
 31
0.0
  0
LINE
  5
92B4
330
9227
100
AcDbEntity
  8
実形
100
AcDbLine
 10
965.6396789548068
 20
1640.799240604186
 30
0.0
 11
997.9046097669893
 21
1640.799240604186
 31
0.0
  0
ARC
  5
92B5
330
9227
100
AcDbEntity
  8
実形
100
AcDbCircle
 10
1075.364276691137
 20
1640.799240604186
 30
0.0
 40
60.0
100
AcDbArc
 50
194.4775121859301
 51
269.9999999999999
  0
ARC
  5
92B6
330
9227
100
AcDbEntity
  8
実形
100
AcDbCircle
 10
997.9046097669893
 20
1620.799240604186
 30
0.0
 40
20.0
100
AcDbArc
 50
14.47751218593057
 51
90.0
  0
ARC
  5
92B7
330
9227
100
AcDbEntity
  8
実形
100
AcDbCircle
 10
965.6396789548066
 20
1520.799240604186
 30
0.0
 40
120.0
100
AcDbArc
 50
89.99999999999991
 51
180.1316332721095
  0
LINE
  5
92B8
330
9227
100
AcDbEntity
  8
実形
100
AcDbLine
 10
1075.443341618748
 20
830.7992406041867
 30
0.0
 11
1255.51242727322
 21
830.7992406041865
 31
0.0
  0
LINE
  5
92B9
330
9227
100
AcDbEntity
  8
実形
100
AcDbLine
 10
1487.089062997982
 20
1521.071604269729
 30
0.0
 11
1485.640417905687
 21
890.5235487662944
 31
0.0
  0
ARC
  5
92BA
330
9227
100
AcDbEntity
  8
実形
100
AcDbCircle
 10
1255.51242727322
 20
770.7992406041864
 30
0.0
 40
60.0
100
AcDbArc
 50
14.47751218592986
 51
89.99999999999992
  0
ARC
  5
92BB
330
9227
100
AcDbEntity
  8
実形
100
AcDbCircle
 10
1332.972094197368
 20
790.7992406041865
 30
0.0
 40
20.0
100
AcDbArc
 50
194.4775121859299
 51
269.9999999999999
  0
LINE
  5
92BC
330
9227
100
AcDbEntity
  8
実形
100
AcDbLine
 10
1015.364435037157
 20
770.9370865231321
 30
0.0
 11
1015.363221049399
 21
770.408677167173
 31
0.0
  0
ARC
  5
92BD
330
9227
100
AcDbEntity
  8
実形
100
AcDbCircle
 10
1075.364276691137
 20
770.799240604186
 30
0.0
 40
60.0
100
AcDbArc
 50
89.99999999999998
 51
165.5224878140698
  0
ARC
  5
92BE
330
9227
100
AcDbEntity
  8
実形
100
AcDbCircle
 10
997.904609766989
 20
790.7992406041866
 30
0.0
 40
20.0
100
AcDbArc
 50
269.9999999999999
 51
345.5224878140693
  0
LINE
  5
92BF
330
9227
100
AcDbEntity
  8
実形
100
AcDbLine
 10
1332.972094197368
 20
770.7992406041862
 30
0.0
 11
1365.640734597727
 21
770.7992406041864
 31
0.0
  0
ARC
  5
92C0
330
9227
100
AcDbEntity
  8
実形
100
AcDbCircle
 10
1365.640734597727
 20
890.7992406041865
 30
0.0
 40
120.0
100
AcDbArc
 50
270.0
 51
359.8683667278903
  0
LINE
  5
92C1
330
9227
100
AcDbEntity
  8
実形
100
AcDbLine
 10
1255.185402932157
 20
830.7992406041865
 30
0.0
 11
1075.116317277685
 21
830.7992406041867
 31
0.0
  0
LINE
  5
92C2
330
9227
100
AcDbEntity
  8
実形
100
AcDbLine
 10
965.6396789548063
 20
770.7992406041864
 30
0.0
 11
997.9046097669888
 21
770.7992406041867
 31
0.0
  0
ARC
  5
92C3
330
9227
100
AcDbEntity
  8
実形
100
AcDbCircle
 10
964.6330738758678
 20
888.3730233745168
 30
0.0
 40
117.5780917038109
100
AcDbArc
 50
178.6816249601801
 51
270.4905244367491
  0
TEXT
  5
92C4
330
9227
100
AcDbEntity
  8
実形
100
AcDbText
 10
1238.858349364454
 20
672.1229751380497
 30
0.0
 40
30.0
  1
10R
 72
     2
 11
1303.858349364454
 21
668.1229751380497
 31
0.0
100
AcDbText
 73
     1
  0
TEXT
  5
92C5
330
9227
100
AcDbEntity
  8
実形
100
AcDbText
 10
1329.8559711184
 20
908.5894079127065
 30
0.0
 40
30.0
  1
30R
 72
     2
 11
1404.8559711184
 21
904.5894079127064
 31
0.0
100
AcDbText
 73
     1
  0
LEADER
  5
92C6
330
9227
100
AcDbEntity
  8
実形
100
AcDbLeader
  3
ISO-25
 76
     2
 10
1316.494405030889
 20
769.3620009834121
 30
0.0
 10
1278.902207864213
 20
718.6927681141014
 30
0.0
1001
ACAD
1000
DSTYLE
1002
{
1070
    77
1070
     0
1070
    41
1040
10.0
1070
   140
1040
30.0
1070
   147
1040
6.599999999999998
1070
   279
1070
     2
1070
   342
1005
30D
1070
   371
1070
    18
1070
   372
1070
    18
1002
}
  0
LEADER
  5
92C7
330
9227
100
AcDbEntity
  8
実形
100
AcDbLeader
  3
ISO-25
 76
     2
 10
1302.274362005913
 20
836.0920734827287
 30
0.0
 10
1357.437582414177
 20
895.7212606050861
 30
0.0
1001
ACAD
1000
DSTYLE
1002
{
1070
    77
1070
     0
1070
    41
1040
10.0
1070
   140
1040
30.0
1070
   147
1040
6.599999999999998
1070
   279
1070
     2
1070
   342
1005
30D
1070
   371
1070
    18
1070
   372
1070
    18
1002
}
  0
LEADER
  5
92C8
330
9227
100
AcDbEntity
  8
実形
100
AcDbLeader
  3
ISO-25
 76
     2
 10
1449.615622927729
 20
1624.192620254807
 30
0.0
 10
1516.530856172981
 20
1674.861504604261
 30
0.0
211
0.9999999999864364
221
-0.0000052083886878
231
0.0
1001
ACAD
1000
DSTYLE
1002
{
1070
    77
1070
     0
1070
    41
1040
10.0
1070
   140
1040
30.0
1070
   147
1040
6.599999999999998
1070
   279
1070
     2
1070
   342
1005
30D
1070
   371
1070
    18
1070
   372
1070
    18
1002
}
  0
TEXT
  5
92C9
330
9227
100
AcDbEntity
  8
実形
100
AcDbText
 10
1544.059964207427
 20
1667.005630568492
 30
0.0
 40
30.0
  1
60R
 72
     2
 11
1619.059964207427
 21
1663.005630568492
 31
0.0
100
AcDbText
 73
     1
  0
TEXT
  5
92CA
330
9227
100
AcDbEntity
  8
実形
100
AcDbText
 10
1306.559601990629
 20
1480.475592513117
 30
0.0
 40
30.0
  1
30R
 72
     2
 11
1381.559601990629
 21
1476.475592513117
 31
0.0
100
AcDbText
 73
     1
  0
TEXT
  5
92CB
330
9227
100
AcDbEntity
  8
実形
100
AcDbText
 10
1232.38985593157
 20
1706.194671161713
 30
0.0
 40
30.0
  1
10R
 72
     2
 11
1297.38985593157
 21
1702.194671161713
 31
0.0
100
AcDbText
 73
     1
  0
LEADER
  5
92CC
330
9227
100
AcDbEntity
  8
実形
100
AcDbLeader
  3
ISO-25
 76
     2
 10
1305.268432250078
 20
1589.40810353997
 30
0.0
 10
1335.873940308622
 20
1531.045385489169
 30
0.0
1001
ACAD
1000
DSTYLE
1002
{
1070
    77
1070
     0
1070
    41
1040
10.0
1070
   140
1040
30.0
1070
   147
1040
6.599999999999998
1070
   279
1070
     2
1070
   342
1005
30D
1070
   371
1070
    18
1070
   372
1070
    18
1002
}
  0
LEADER
  5
92CD
330
9227
100
AcDbEntity
  8
実形
100
AcDbLeader
  3
ISO-25
 76
     2
 10
1314.975614632087
 20
1648.444690857796
 30
0.0
 10
1273.983577949571
 20
1696.743955459734
 30
0.0
1001
ACAD
1000
DSTYLE
1002
{
1070
    77
1070
     0
1070
    41
1040
10.0
1070
   140
1040
30.0
1070
   147
1040
6.599999999999998
1070
   279
1070
     2
1070
   342
1005
30D
1070
   371
1070
    18
1070
   372
1070
    18
1002
}
  0
DIMENSION
  5
92CE
330
9227
100
AcDbEntity
  8
実形
100
AcDbDimension
  2
*D20
 10
1487.089062997982
 20
1829.901471782032
 30
0.0
 11
1166.364529322414
 21
1851.501471782032
 31
0.0
 70
    32
  1
320
 71
     5
 42
641.4490673511345
  3
ISO-25
100
AcDbAlignedDimension
 13
845.6399956468473
 23
1698.227257722778
 33
0.0
 14
1487.089062997982
 24
1698.775313226214
 34
0.0
100
AcDbRotatedDimension
1001
ACAD
1000
DSTYLE
1002
{
1070
    41
1040
10.0
1070
   140
1040
30.0
1070
   147
1040
6.599999999999998
1070
   279
1070
     2
1070
   342
1005
30D
1070
   371
1070
    18
1070
   372
1070
    18
1002
}
  0
LINE
  5
92CF
330
9227
100
AcDbEntity
  8
実形
100
AcDbLine
 10
3507.112572280369
 20
1580.799240604186
 30
0.0
 11
3327.043486625897
 21
1580.799240604186
 31
0.0
  0
ARC
  5
92D0
330
9227
100
AcDbEntity
  8
実形
100
AcDbCircle
 10
3327.043486625897
 20
1640.799240604185
 30
0.0
 40
60.0
100
AcDbArc
 50
194.4775121859299
 51
270.0
  0
ARC
  5
92D1
330
9227
100
AcDbEntity
  8
実形
100
AcDbCircle
 10
3249.583819701749
 20
1620.799240604186
 30
0.0
 40
20.0
100
AcDbArc
 50
14.47751218592993
 51
90.0
  0
LINE
  5
92D2
330
9227
100
AcDbEntity
  8
実形
100
AcDbLine
 10
3735.456135677392
 20
885.1277096168063
 30
0.0
 11
3736.91591825227
 21
1520.523548766294
 31
0.0
  0
LINE
  5
92D3
330
9227
100
AcDbEntity
  8
実形
100
AcDbLine
 10
3567.19147886196
 20
1640.66139468524
 30
0.0
 11
3567.192692849718
 21
1641.189804041199
 31
0.0
  0
ARC
  5
92D4
330
9227
100
AcDbEntity
  8
実形
100
AcDbCircle
 10
3507.19163720798
 20
1640.799240604186
 30
0.0
 40
60.0
100
AcDbArc
 50
270.0000000000001
 51
345.5224878140699
  0
ARC
  5
92D5
330
9227
100
AcDbEntity
  8
実形
100
AcDbCircle
 10
3584.651304132128
 20
1620.799240604186
 30
0.0
 40
20.0
100
AcDbArc
 50
90.0
 51
165.5224878140694
  0
ARC
  5
92D6
330
9227
100
AcDbEntity
  8
実形
100
AcDbCircle
 10
3217.955729982048
 20
1518.283042367955
 30
0.0
 40
122.5206169425307
100
AcDbArc
 50
90.48661099324391
 51
178.6958388783592
  0
LINE
  5
92D7
330
9227
100
AcDbEntity
  8
実形
100
AcDbLine
 10
3327.37051096696
 20
1580.799240604186
 30
0.0
 11
3507.439596621432
 21
1580.799240604186
 31
0.0
  0
LINE
  5
92D8
330
9227
100
AcDbEntity
  8
実形
100
AcDbLine
 10
3616.916234944311
 20
1640.799240604186
 30
0.0
 11
3584.651304132128
 21
1640.799240604186
 31
0.0
  0
ARC
  5
92D9
330
9227
100
AcDbEntity
  8
実形
100
AcDbCircle
 10
3616.916234944311
 20
1520.799240604186
 30
0.0
 40
120.0
100
AcDbArc
 50
359.8683667278905
 51
90.00000000000007
  0
LINE
  5
92DA
330
9227
100
AcDbEntity
  8
実形
100
AcDbLine
 10
3507.11257228037
 20
830.7992406041867
 30
0.0
 11
3327.043486625897
 21
830.7992406041865
 31
0.0
  0
LINE
  5
92DB
330
9227
100
AcDbEntity
  8
実形
100
AcDbLine
 10
3095.466850901136
 20
1521.071604269729
 30
0.0
 11
3096.91549599343
 21
890.5235487662944
 31
0.0
  0
ARC
  5
92DC
330
9227
100
AcDbEntity
  8
実形
100
AcDbCircle
 10
3327.043486625897
 20
770.7992406041864
 30
0.0
 40
60.0
100
AcDbArc
 50
90.00000000000005
 51
165.5224878140701
  0
ARC
  5
92DD
330
9227
100
AcDbEntity
  8
実形
100
AcDbCircle
 10
3249.583819701749
 20
790.7992406041865
 30
0.0
 40
20.0
100
AcDbArc
 50
270.0000000000001
 51
345.5224878140702
  0
LINE
  5
92DE
330
9227
100
AcDbEntity
  8
実形
100
AcDbLine
 10
3567.19147886196
 20
770.9370865231321
 30
0.0
 11
3567.192692849718
 21
770.408677167173
 31
0.0
  0
ARC
  5
92DF
330
9227
100
AcDbEntity
  8
実形
100
AcDbCircle
 10
3507.191637207981
 20
770.799240604186
 30
0.0
 40
60.0
100
AcDbArc
 50
14.47751218593021
 51
90.00000000000003
  0
ARC
  5
92E0
330
9227
100
AcDbEntity
  8
実形
100
AcDbCircle
 10
3584.651304132129
 20
790.7992406041866
 30
0.0
 40
20.0
100
AcDbArc
 50
194.4775121859306
 51
270.0000000000001
  0
LINE
  5
92E1
330
9227
100
AcDbEntity
  8
実形
100
AcDbLine
 10
3249.583819701749
 20
770.7992406041862
 30
0.0
 11
3216.91517930139
 21
770.7992406041864
 31
0.0
  0
ARC
  5
92E2
330
9227
100
AcDbEntity
  8
実形
100
AcDbCircle
 10
3216.91517930139
 20
890.7992406041865
 30
0.0
 40
120.0
100
AcDbArc
 50
180.1316332721097
 51
270.0
  0
LINE
  5
92E3
330
9227
100
AcDbEntity
  8
実形
100
AcDbLine
 10
3327.37051096696
 20
830.7992406041865
 30
0.0
 11
3507.439596621433
 21
830.7992406041867
 31
0.0
  0
LINE
  5
92E4
330
9227
100
AcDbEntity
  8
実形
100
AcDbLine
 10
3616.916234944311
 20
770.7992406041864
 30
0.0
 11
3584.651304132129
 21
770.7992406041867
 31
0.0
  0
ARC
  5
92E5
330
9227
100
AcDbEntity
  8
実形
100
AcDbCircle
 10
3617.92284002325
 20
888.3730233745168
 30
0.0
 40
117.5780917038109
100
AcDbArc
 50
269.5094755632509
 51
1.318375039819845
  0
DIMENSION
  5
92E6
330
9227
100
AcDbEntity
  8
実形
100
AcDbDimension
  2
*D21
 10
3095.466850901136
 20
1761.975833160202
 30
0.0
 11
3416.191384576702
 21
1783.575833160202
 31
0.0
 70
    32
  1
320
 71
     5
 42
641.4490673511345
  3
ISO-25
100
AcDbAlignedDimension
 13
3736.91591825227
 23
1630.301619100948
 33
0.0
 14
3095.466850901136
 24
1630.849674604385
 34
0.0
 50
180.0
100
AcDbRotatedDimension
1001
ACAD
1000
DSTYLE
1002
{
1070
    41
1040
10.0
1070
   140
1040
30.0
1070
   147
1040
6.599999999999998
1070
   279
1070
     2
1070
   342
1005
30D
1070
   371
1070
    18
1070
   372
1070
    18
1002
}
  0
ARC
  5
92E7
330
9227
100
AcDbEntity
  8
実形
100
AcDbCircle
 10
3616.916234944311
 20
1520.799240604186
 30
0.0
 40
74.0
100
AcDbArc
 50
359.8683667278905
 51
92.57589489717535
  0
ARC
  5
92E8
330
9227
100
AcDbEntity
  8
実形
100
AcDbCircle
 10
3507.19163720798
 20
1640.799240604186
 30
0.0
 40
106.0
100
AcDbArc
 50
270.0000000000001
 51
328.3827327877455
  0
LINE
  5
92E9
330
9227
100
AcDbEntity
  8
実形
100
AcDbLine
 10
3327.37051096696
 20
1534.799240604185
 30
0.0
 11
3507.439596621432
 21
1534.799240604185
 31
0.0
  0
LINE
  5
92EA
330
9227
100
AcDbEntity
  8
実形
100
AcDbLine
 10
3689.456257076006
 20
885.2333914879983
 30
0.0
 11
3690.916039650886
 21
1520.629230637486
 31
0.0
  0
ARC
  5
92EB
330
9227
100
AcDbEntity
  8
実形
100
AcDbCircle
 10
3617.92284002325
 20
888.3730233745168
 30
0.0
 40
71.57809170381094
100
AcDbArc
 50
269.5094755632509
 51
1.318375039819845
  0
ARC
  5
92EC
330
9227
100
AcDbEntity
  8
実形
100
AcDbCircle
 10
3507.191637207981
 20
770.799240604186
 30
0.0
 40
106.0
100
AcDbArc
 50
31.58723560259496
 51
90.00000000000003
  0
LINE
  5
92ED
330
9227
100
AcDbEntity
  8
実形
100
AcDbLine
 10
3327.37051096696
 20
876.7992406041864
 30
0.0
 11
3507.439596621433
 21
876.7992406041868
 31
0.0
  0
ARC
  5
92EE
330
9227
100
AcDbEntity
  8
実形
100
AcDbCircle
 10
3327.043486625897
 20
770.7992406041864
 30
0.0
 40
106.0
100
AcDbArc
 50
90.00000000000005
 51
149.342349366956
  0
ARC
  5
92EF
330
9227
100
AcDbEntity
  8
実形
100
AcDbCircle
 10
3219.917734285693
 20
892.0490052189505
 30
0.0
 40
77.01544752726938
100
AcDbArc
 50
181.0563036674486
 51
268.730533791592
  0
LINE
  5
92F0
330
9227
100
AcDbEntity
  8
実形
100
AcDbLine
 10
3141.46672950252
 20
1521.177286140921
 30
0.0
 11
3142.915374594815
 21
890.6292306374863
 31
0.0
  0
ARC
  5
92F1
330
9227
100
AcDbEntity
  8
実形
100
AcDbCircle
 10
3217.955729982048
 20
1518.283042367955
 30
0.0
 40
76.5206169425307
100
AcDbArc
 50
88.30616693431828
 51
178.6958388783592
  0
ARC
  5
92F2
330
9227
100
AcDbEntity
  8
実形
100
AcDbCircle
 10
3327.198735550482
 20
1641.253186536229
 30
0.0
 40
106.4540591369396
100
AcDbArc
 50
211.7139541760924
 51
269.9164417836404
  0
DIMENSION
  5
92F3
330
9227
100
AcDbEntity
  8
実形
100
AcDbDimension
  2
*D22
 10
3856.226881106767
 20
770.6246037791653
 30
0.0
 11
3834.626881106768
 21
1205.624548489655
 31
0.0
 70
    32
  1
435
 71
     5
 42
869.9998894209773
  3
ISO-25
100
AcDbAlignedDimension
 13
3707.555910921173
 23
1640.624493200142
 33
0.0
 14
3707.117268144192
 24
770.6246037791654
 34
0.0
 50
90.0
100
AcDbRotatedDimension
1001
ACAD
1000
DSTYLE
1002
{
1070
    41
1040
10.0
1070
   140
1040
30.0
1070
   147
1040
6.599999999999998
1070
   279
1070
     2
1070
   342
1005
30D
1070
   371
1070
    18
1070
   372
1070
    18
1002
}
  0
LINE
  5
92F4
330
9227
100
AcDbEntity
  8
実形
100
AcDbLine
 10
3617.310048391699
 20
816.7975548229561
 30
0.0
 11
3614.523936728119
 21
816.7975548229561
 31
0.0
  0
ARC
  5
92F5
330
9227
100
AcDbEntity
  8
実形
100
AcDbCircle
 10
3614.523936728118
 20
836.7975548229562
 30
0.0
 40
20.0
100
AcDbArc
 50
211.587235602595
 51
270.0000000000007
  0
LINE
  5
92F6
330
9227
100
AcDbEntity
  8
実形
100
AcDbLine
 10
847.0997782217265
 20
436.0524690998181
 30
0.0
 11
847.0997782217267
 21
414.0524690998182
 31
0.0
  0
LINE
  5
92F7
330
9227
100
AcDbEntity
  8
実形
100
AcDbLine
 10
1487.099778221726
 20
436.052469099818
 30
0.0
 11
1487.099778221726
 21
414.052469099818
 31
0.0
  0
LINE
  5
92F8
330
9227
100
AcDbEntity
  8
実形
100
AcDbLine
 10
851.0997782217266
 20
440.0524690998181
 30
0.0
 11
1483.099778221727
 21
440.0524690998181
 31
0.0
  0
TEXT
  5
92F9
330
9227
100
AcDbEntity
  8
実形
100
AcDbText
 10
1566.558585979853
 20
424.1651730825597
 30
0.0
 40
30.0
  1
2R
 72
     2
 11
1616.558585979853
 21
420.1651730825597
 31
0.0
100
AcDbText
 73
     1
  0
LEADER
  5
92FA
330
9227
100
AcDbEntity
  8
実形
100
AcDbLeader
  3
ISO-25
 76
     2
 10
1504.121552269885
 20
439.1236217177993
 30
0.0
 10
1560.801282521086
 20
435.6660933554258
 30
0.0
1001
ACAD
1000
DSTYLE
1002
{
1070
    77
1070
     0
1070
    41
1040
10.0
1070
   140
1040
30.0
1070
   147
1040
6.599999999999998
1070
   279
1070
     2
1070
   342
1005
30D
1070
   371
1070
    13
1070
   372
1070
    18
1002
}
  0
LEADER
  5
92FB
330
9227
100
AcDbEntity
  8
実形
100
AcDbLeader
  3
ISO-25
 76
     2
 10
1504.720720557408
 20
411.6056561392515
 30
0.0
 10
1561.805918630041
 20
429.9156366734459
 30
0.0
1001
ACAD
1000
DSTYLE
1002
{
1070
    77
1070
     0
1070
    41
1040
10.0
1070
   140
1040
30.0
1070
   147
1040
6.599999999999998
1070
   279
1070
     2
1070
   342
1005
30D
1070
   371
1070
    13
1070
   372
1070
    18
1002
}
  0
DIMENSION
  5
92FC
330
9227
100
AcDbEntity
  8
実形
100
AcDbDimension
  2
*D23
 10
1487.099778221726
 20
319.9231922543777
 30
0.0
 11
1167.099778221726
 21
341.5231922543777
 31
0.0
 70
    32
  1
320
 71
     5
 42
639.9999999999997
  3
ISO-25
100
AcDbAlignedDimension
 13
847.0997782217265
 23
425.0524690998181
 33
0.0
 14
1487.099778221726
 24
425.0524690998084
 34
0.0
100
AcDbRotatedDimension
1001
ACAD
1000
DSTYLE
1002
{
1070
    41
1040
10.0
1070
   140
1040
30.0
1070
   147
1040
6.599999999999998
1070
   279
1070
     2
1070
   342
1005
30D
1070
   371
1070
    18
1070
   372
1070
    18
1002
}
  0
LINE
  5
92FD
330
9227
100
AcDbEntity
  8
実形
100
AcDbLine
 10
821.7564208102967
 20
410.0524690998181
 30
0.0
 11
777.0293478068325
 21
410.0524690998181
 31
0.0
  0
LINE
  5
92FE
330
9227
100
AcDbEntity
  8
実形
100
AcDbLine
 10
777.0293478068325
 20
440.0524690998181
 30
0.0
 11
821.7564208102967
 21
440.0524690998181
 31
0.0
  0
DIMENSION
  5
92FF
330
9227
100
AcDbEntity
  8
実形
100
AcDbDimension
  2
*D24
 10
769.4313882820706
 20
440.052469099818
 30
0.0
 11
747.4926577691522
 21
422.9031643487632
 31
0.0
 70
   160
  1
15
 71
     5
 42
32.24823368904697
  3
ISO-25
100
AcDbAlignedDimension
 13
849.6427660293283
 23
407.8042354107711
 33
0.0
 14
849.6427660293287
 24
440.052469099818
 34
0.0
 50
90.0
100
AcDbRotatedDimension
1001
ACAD
1000
DSTYLE
1002
{
1070
   140
1040
30.0
1070
   282
1070
     1
1070
   281
1070
     1
1070
    76
1070
     1
1070
    75
1070
     1
1070
   172
1070
     1
1070
   279
1070
     2
1070
   289
1070
     0
1070
   371
1070
    18
1070
   372
1070
    18
1002
}
  0
TEXT
  5
9300
330
9227
100
AcDbEntity
  8
実形
370
    18
100
AcDbText
 10
772.7023846627498
 20
435.5683323101002
 30
0.0
 40
10.0
  1
●
100
AcDbText
  0
TEXT
  5
9301
330
9227
100
AcDbEntity
  8
実形
370
    18
100
AcDbText
 10
772.7364889833034
 20
405.5394888133184
 30
0.0
 40
10.0
  1
●
100
AcDbText
  0
LINE
  5
9302
330
9227
100
AcDbEntity
  8
実形
100
AcDbLine
 10
851.0997782217268
 20
410.0524690998182
 30
0.0
 11
1483.099778221726
 21
410.0524690998181
 31
0.0
  0
LINE
  5
9303
330
9227
100
AcDbEntity
  8
実形
100
AcDbLine
 10
777.0293478068325
 20
440.0524690998181
 30
0.0
 11
777.0293478068325
 21
410.0524690998181
 31
0.0
  0
ARC
  5
9304
330
9227
100
AcDbEntity
  8
実形
100
AcDbCircle
 10
3218.654582568839
 20
835.0475516894571
 30
0.0
 40
20.0
100
AcDbArc
 50
268.7305337915918
 51
329.3423493669564
  0
ARC
  5
9305
330
9227
100
AcDbEntity
  8
実形
100
AcDbCircle
 10
3614.4893289385
 20
1574.744677178923
 30
0.0
 40
20.0
100
AcDbArc
 50
92.57589489717545
 51
148.3827327877456
  0
ARC
  5
9306
330
9227
100
AcDbEntity
  8
実形
100
AcDbCircle
 10
3219.62640356699
 20
1574.778962480268
 30
0.0
 40
20.0
100
AcDbArc
 50
31.71395417609245
 51
88.30616693431847
  0
LINE
  5
9307
330
9227
100
AcDbEntity
  8
実形
 62
     3
100
AcDbLine
 10
1017.099329574669
 20
1006.008105070453
 30
0.0
 11
1015.639546999789
 21
1641.403944219941
 31
0.0
  0
LINE
  5
9308
330
9227
100
AcDbEntity
  8
実形
 62
     3
100
AcDbLine
 10
1317.08951164504
 20
1641.951999723376
 30
0.0
 11
1315.640866552744
 21
1011.403944219941
 31
0.0
  0
LINE
  5
9309
330
9227
100
AcDbEntity
  8
実形
 62
     3
100
AcDbLine
 10
845.6399956468473
 20
1641.403944219941
 30
0.0
 11
1864.764366587621
 21
1641.403944219941
 31
0.0
  0
LINE
  5
930A
330
9227
100
AcDbEntity
  8
実形
 62
     3
100
AcDbLine
 10
847.0997782217265
 20
1005.617541633439
 30
0.0
 11
845.6399956468473
 21
1641.403944219941
 31
0.0
  0
LINE
  5
930B
330
9227
100
AcDbEntity
  8
実形
 62
     3
100
AcDbLine
 10
1487.089062997982
 20
1641.561436286362
 30
0.0
 11
1485.640417905687
 21
1011.013380782927
 31
0.0
  0
DIMENSION
  5
930C
330
9227
100
AcDbEntity
  8
実形
100
AcDbDimension
  2
*D25
 10
1015.63954699979
 20
1761.606813075069
 30
0.0
 11
930.6397713233186
 21
1783.206813075069
 31
0.0
 70
    32
  1
85
 71
     5
 42
169.9995513529423
  3
ISO-25
100
AcDbAlignedDimension
 13
845.6399956468473
 23
1641.013380782927
 33
0.0
 14
1015.63954699979
 24
1641.403944219941
 34
0.0
100
AcDbRotatedDimension
1001
ACAD
1000
DSTYLE
1002
{
1070
    41
1040
10.0
1070
   140
1040
30.0
1070
   147
1040
6.599999999999998
1070
   279
1070
     2
1070
   342
1005
30D
1070
   371
1070
    18
1070
   372
1070
    18
1002
}
  0
DIMENSION
  5
930D
330
9227
100
AcDbEntity
  8
実形
100
AcDbDimension
  2
*D26
 10
1317.08951164504
 20
1761.606813075069
 30
0.0
 11
1166.364529322414
 21
1783.206813075069
 31
0.0
 70
    32
  1
150
 71
     5
 42
301.44996464525
  3
ISO-25
100
AcDbAlignedDimension
 13
1015.639546999789
 23
1641.403944219941
 33
0.0
 14
1317.08951164504
 24
1641.951999723376
 34
0.0
100
AcDbRotatedDimension
1001
ACAD
1000
DSTYLE
1002
{
1070
    41
1040
10.0
1070
   140
1040
30.0
1070
   147
1040
6.599999999999998
1070
   279
1070
     2
1070
   342
1005
30D
1070
   371
1070
    18
1070
   372
1070
    18
1002
}
  0
DIMENSION
  5
930E
330
9227
100
AcDbEntity
  8
実形
100
AcDbDimension
  2
*D27
 10
1487.088701169716
 20
1761.606813075069
 30
0.0
 11
1402.089106407378
 21
1783.206813075069
 31
0.0
 70
    32
  1
85
 71
     5
 42
169.9991895246769
  3
ISO-25
100
AcDbAlignedDimension
 13
1317.08951164504
 23
1641.951999723376
 33
0.0
 14
1487.088701169716
 24
1641.403944219941
 34
0.0
100
AcDbRotatedDimension
1001
ACAD
1000
DSTYLE
1002
{
1070
    41
1040
10.0
1070
   140
1040
30.0
1070
   147
1040
6.599999999999998
1070
   279
1070
     2
1070
   342
1005
30D
1070
   371
1070
    18
1070
   372
1070
    18
1002
}
  0
LINE
  5
930F
330
9227
100
AcDbEntity
  8
実形
 62
     3
100
AcDbLine
 10
845.776944634284
 20
1581.403944219941
 30
0.0
 11
1757.191007209582
 21
1581.403944219941
 31
0.0
  0
DIMENSION
  5
9310
330
9227
100
AcDbEntity
  8
実形
100
AcDbDimension
  2
*D28
 10
718.3277549555413
 20
1581.403944219941
 30
0.0
 11
696.7277549555412
 21
1611.403944219941
 31
0.0
 70
    32
  1
30
 71
     5
 42
60.0
  3
ISO-25
100
AcDbAlignedDimension
 13
845.6399956468473
 23
1641.403944219941
 33
0.0
 14
845.7777572506445
 24
1581.403944219941
 34
0.0
 50
90.0
100
AcDbRotatedDimension
1001
ACAD
1000
DSTYLE
1002
{
1070
    41
1040
10.0
1070
   140
1040
30.0
1070
   147
1040
6.599999999999998
1070
   279
1070
     2
1070
   342
1005
30D
1070
   371
1070
    18
1070
   372
1070
    18
1002
}
  0
LINE
  5
9311
330
9227
100
AcDbEntity
  8
実形
 62
     3
100
AcDbLine
 10
845.6399956468471
 20
1206.403944219941
 30
0.0
 11
1757.191007209582
 21
1206.403944219941
 31
0.0
  0
LINE
  5
9312
330
9227
100
AcDbEntity
  8
実形
 62
     3
100
AcDbLine
 10
845.6399956468469
 20
771.4039442199407
 30
0.0
 11
1864.764366587621
 21
771.4039442199402
 31
0.0
  0
LINE
  5
9313
330
9227
100
AcDbEntity
  8
実形
 62
     3
100
AcDbLine
 10
845.7769446342839
 20
831.4039442199407
 30
0.0
 11
1757.191007209582
 21
831.4039442199403
 31
0.0
  0
DIMENSION
  5
9314
330
9227
100
AcDbEntity
  8
実形
100
AcDbDimension
  2
*D29
 10
718.3277549555412
 20
771.4039442199408
 30
0.0
 11
696.7277549555409
 21
801.4039442199409
 31
0.0
 70
    32
  1
30
 71
     5
 42
60.0
  3
ISO-25
100
AcDbAlignedDimension
 13
845.7769446342839
 23
831.4039442199407
 33
0.0
 14
845.6399956468469
 24
771.4039442199407
 34
0.0
 50
90.0
100
AcDbRotatedDimension
1001
ACAD
1000
DSTYLE
1002
{
1070
    41
1040
10.0
1070
   140
1040
30.0
1070
   147
1040
6.599999999999998
1070
   279
1070
     2
1070
   342
1005
30D
1070
   371
1070
    18
1070
   372
1070
    18
1002
}
  0
DIMENSION
  5
9315
330
9227
100
AcDbEntity
  8
実形
100
AcDbDimension
  2
*D30
 10
718.3277549555412
 20
831.4039442199408
 30
0.0
 11
696.7277549555411
 21
1206.403944219941
 31
0.0
 70
    32
  1
375
 71
     5
 42
750.0000000000002
  3
ISO-25
100
AcDbAlignedDimension
 13
845.776944634284
 23
1581.403944219941
 33
0.0
 14
845.7769446342837
 24
831.4039442199407
 34
0.0
 50
90.0
100
AcDbRotatedDimension
1001
ACAD
1000
DSTYLE
1002
{
1070
    41
1040
10.0
1070
   140
1040
30.0
1070
   147
1040
6.599999999999998
1070
   279
1070
     2
1070
   342
1005
30D
1070
   371
1070
    18
1070
   372
1070
    18
1002
}
  0
LINE
  5
9316
330
9227
100
AcDbEntity
  8
実形
100
AcDbLine
 10
851.0997782217268
 20
410.0524690998182
 30
0.0
 11
1483.099778221726
 21
410.0524690998181
 31
0.0
  0
ARC
  5
9317
330
9227
100
AcDbEntity
  8
実形
100
AcDbCircle
 10
1483.099778221727
 20
436.0524690998182
 30
0.0
 40
4.0
100
AcDbArc
 50
359.9999999999983
 51
90.0
  0
ARC
  5
9318
330
9227
100
AcDbEntity
  8
実形
100
AcDbCircle
 10
1483.099778221726
 20
414.0524690998181
 30
0.0
 40
4.0
100
AcDbArc
 50
270.0
 51
359.9999999999984
  0
ARC
  5
9319
330
9227
100
AcDbEntity
  8
実形
100
AcDbCircle
 10
851.0997782217268
 20
414.0524690998182
 30
0.0
 40
4.0
100
AcDbArc
 50
180.0000000000002
 51
270.0
  0
ARC
  5
931A
330
9227
100
AcDbEntity
  8
実形
100
AcDbCircle
 10
851.0997782217266
 20
436.0524690998182
 30
0.0
 40
4.0
100
AcDbArc
 50
90.0
 51
180.0000000000005
  0
LINE
  5
931B
330
9227
100
AcDbEntity
  8
実形
100
AcDbLine
 10
1912.576467019779
 20
1641.403944219941
 30
0.0
 11
1912.576467019779
 21
771.4039442199402
 31
0.0
  0
LINE
  5
931C
330
9227
100
AcDbEntity
  8
実形
100
AcDbLine
 10
1912.57646701978
 20
1641.403944219941
 30
0.0
 11
1942.576467019779
 21
1641.403944219941
 31
0.0
  0
LINE
  5
931D
330
9227
100
AcDbEntity
  8
実形
100
AcDbLine
 10
1912.576467019779
 20
771.4039442199402
 30
0.0
 11
1942.57646701978
 21
771.4039442199403
 31
0.0
  0
LINE
  5
931E
330
9227
100
AcDbEntity
  8
実形
100
AcDbLine
 10
1942.57646701978
 20
1641.403944219941
 30
0.0
 11
1942.57646701978
 21
771.4039442199403
 31
0.0
  0
DIMENSION
  5
931F
330
9227
100
AcDbEntity
  8
実形
100
AcDbDimension
  2
*D31
 10
1942.576467019779
 20
1725.012318240818
 30
0.0
 11
1927.576467019779
 21
1749.912318240818
 31
0.0
 70
    32
  1
15
 71
     5
 42
29.99999999999977
  3
ISO-25
100
AcDbAlignedDimension
 13
1912.576467019779
 23
1612.16364319891
 33
0.0
 14
1942.576467019779
 24
1612.16364319891
 34
0.0
100
AcDbRotatedDimension
1001
ACAD
1000
DSTYLE
1002
{
1070
   282
1070
     1
1070
   281
1070
     1
1070
    41
1040
10.0
1070
   140
1040
30.0
1070
   147
1040
6.599999999999998
1070
   279
1070
     2
1070
   342
1005
30D
1070
   371
1070
    18
1070
   372
1070
    18
1002
}
  0
LINE
  5
9320
330
9227
100
AcDbEntity
  8
実形
100
AcDbLine
 10
1912.576467019779
 20
1677.163643198911
 30
0.0
 11
1912.576467019779
 21
1725.012318240818
 31
0.0
  0
LINE
  5
9321
330
9227
100
AcDbEntity
  8
実形
100
AcDbLine
 10
1912.576467019779
 20
1725.012318240818
 30
0.0
 11
1942.576467019779
 21
1725.012318240818
 31
0.0
  0
LINE
  5
9322
330
9227
100
AcDbEntity
  8
実形
100
AcDbLine
 10
1942.576467019779
 20
1725.012318240818
 30
0.0
 11
1942.576467019779
 21
1677.163643198911
 31
0.0
  0
TEXT
  5
9323
330
9227
100
AcDbEntity
  8
実形
370
    18
100
AcDbText
 10
1937.391582320064
 20
1720.28010329884
 30
0.0
 40
10.0
  1
●
100
AcDbText
  0
TEXT
  5
9324
330
9227
100
AcDbEntity
  8
実形
370
    18
100
AcDbText
 10
1906.845710886711
 20
1719.907685532961
 30
0.0
 40
10.0
  1
●
100
AcDbText
  0
TEXT
  5
9325
330
9227
100
AcDbEntity
  8
実形
100
AcDbText
 10
1855.870763345665
 20
644.4923121993067
 30
0.0
 40
30.0
  1
2R
 72
     2
 11
1905.870763345665
 21
640.4923121993067
 31
0.0
100
AcDbText
 73
     1
  0
LEADER
  5
9326
330
9227
100
AcDbEntity
  8
実形
100
AcDbLeader
  3
ISO-25
 76
     2
 10
1913.055541251445
 20
760.7978917649725
 30
0.0
 10
1889.78498527619
 20
681.1871249090688
 30
0.0
1001
ACAD
1000
DSTYLE
1002
{
1070
    77
1070
     0
1070
    41
1040
10.0
1070
   140
1040
30.0
1070
   147
1040
6.599999999999998
1070
   279
1070
     2
1070
   342
1005
30D
1070
   371
1070
    13
1070
   372
1070
    18
1002
}
  0
LEADER
  5
9327
330
9227
100
AcDbEntity
  8
実形
100
AcDbLeader
  3
ISO-25
 76
     2
 10
1942.019032926214
 20
759.0250660243109
 30
0.0
 10
1891.860409908877
 20
681.6021026193955
 30
0.0
1001
ACAD
1000
DSTYLE
1002
{
1070
    77
1070
     0
1070
    41
1040
10.0
1070
   140
1040
30.0
1070
   147
1040
6.599999999999998
1070
   279
1070
     2
1070
   342
1005
30D
1070
   371
1070
    13
1070
   372
1070
    18
1002
}
  0
DIMENSION
  5
9328
330
9227
100
AcDbEntity
  8
実形
100
AcDbDimension
  2
*D32
 10
2070.350299772138
 20
1641.403944219941
 30
0.0
 11
2048.750299772137
 21
1206.403944219941
 31
0.0
 70
    32
  1
435
 71
     5
 42
870.0000000000002
  3
ISO-25
100
AcDbAlignedDimension
 13
1942.57646701978
 23
771.4039442199403
 33
0.0
 14
1942.57646701978
 24
1641.403944219941
 34
0.0
 50
90.0
100
AcDbRotatedDimension
1001
ACAD
1000
DSTYLE
1002
{
1070
    41
1040
10.0
1070
   140
1040
30.0
1070
   147
1040
6.599999999999998
1070
   279
1070
     2
1070
   342
1005
30D
1070
   371
1070
    18
1070
   372
1070
    18
1002
}
  0
ENDBLK
  5
9330
330
9227
100
AcDbEntity
  8
0
 62
     3
100
AcDbBlockEnd
  0
BLOCK
  5
9491
330
9487
100
AcDbEntity
  8
0
 62
     3
100
AcDbBlockBegin
  2
*D34
 70
     1
 10
0.0
 20
0.0
 30
0.0
  3
*D34
  1

  0
LINE
  5
9BFE
330
9487
100
AcDbEntity
  8
実形
 62
     0
370
    18
100
AcDbLine
 10
533.7186656742415
 20
1556.095777512273
 30
0.0
 11
533.7186656742415
 21
1601.995634219122
 31
0.0
  0
LINE
  5
9BFF
330
9487
100
AcDbEntity
  8
実形
 62
     0
370
    18
100
AcDbLine
 10
1403.718665674241
 20
1556.095777512274
 30
0.0
 11
1403.718665674241
 21
1601.995634219122
 31
0.0
  0
LINE
  5
9C00
330
9487
100
AcDbEntity
  8
実形
 62
     0
370
    18
100
AcDbLine
 10
543.7186656742414
 20
1601.995634219122
 30
0.0
 11
1393.718665674241
 21
1601.995634219122
 31
0.0
  0
MTEXT
  5
9C01
330
9487
100
AcDbEntity
  8
実形
 62
     0
100
AcDbMText
 10
565.6039158638268
 20
1623.595634219122
 30
0.0
 40
30.0
 41
0.0
 71
     5
 72
     1
  1
15
 73
     1
 44
1.0
1001
ACAD
1000
MTEXTBEGIN
1070
    73
1070
     1
1070
    44
1040
1.0
1070
    74
1070
     0
1000
MTEXTEND
  0
INSERT
  5
9C02
330
9487
100
AcDbEntity
  8
実形
 62
     0
370
    18
100
AcDbBlockReference
  2
_Dot
 10
533.7186656742415
 20
1601.995634219122
 30
0.0
 41
10.0
 42
10.0
 43
10.0
 50
180.0
  0
INSERT
  5
9C03
330
9487
100
AcDbEntity
  8
実形
 62
     0
370
    18
100
AcDbBlockReference
  2
_Dot
 10
1403.718665674241
 20
1601.995634219122
 30
0.0
 41
10.0
 42
10.0
 43
10.0
  0
POINT
  5
9C04
330
9487
100
AcDbEntity
  8
Defpoints
 62
     0
100
AcDbPoint
 10
533.7186656742415
 20
1491.095777512273
 30
0.0
  0
POINT
  5
9C05
330
9487
100
AcDbEntity
  8
Defpoints
 62
     0
100
AcDbPoint
 10
1403.718665674241
 20
1491.095777512274
 30
0.0
  0
POINT
  5
9C06
330
9487
100
AcDbEntity
  8
Defpoints
 62
     0
100
AcDbPoint
 10
1403.718665674241
 20
1601.995634219122
 30
0.0
  0
ENDBLK
  5
9492
330
9487
100
AcDbEntity
  8
0
 62
     3
100
AcDbBlockEnd
  0
BLOCK
  5
949E
330
9494
100
AcDbEntity
  8
0
 62
     3
100
AcDbBlockBegin
  2
*D35
 70
     1
 10
0.0
 20
0.0
 30
0.0
  3
*D35
  1

  0
LINE
  5
9C07
330
9494
100
AcDbEntity
  8
実形
 62
     0
370
    18
100
AcDbLine
 10
1433.718665674241
 20
1556.095777512273
 30
0.0
 11
1433.718665674241
 21
1601.995634219122
 31
0.0
  0
LINE
  5
9C08
330
9494
100
AcDbEntity
  8
実形
 62
     0
370
    18
100
AcDbLine
 10
563.7186656742414
 20
1556.095777512273
 30
0.0
 11
563.7186656742414
 21
1601.995634219122
 31
0.0
  0
LINE
  5
9C09
330
9494
100
AcDbEntity
  8
実形
 62
     0
370
    18
100
AcDbLine
 10
1423.718665674241
 20
1601.995634219122
 30
0.0
 11
573.7186656742415
 21
1601.995634219122
 31
0.0
  0
MTEXT
  5
9C0A
330
9494
100
AcDbEntity
  8
実形
 62
     0
100
AcDbMText
 10
1405.354223618091
 20
1623.595634219122
 30
0.0
 40
30.0
 41
0.0
 71
     5
 72
     1
  1
15
 73
     1
 44
1.0
1001
ACAD
1000
MTEXTBEGIN
1070
    73
1070
     1
1070
    44
1040
1.0
1070
    74
1070
     0
1000
MTEXTEND
  0
INSERT
  5
9C0B
330
9494
100
AcDbEntity
  8
実形
 62
     0
370
    18
100
AcDbBlockReference
  2
_Dot
 10
1433.718665674241
 20
1601.995634219122
 30
0.0
 41
10.0
 42
10.0
 43
10.0
  0
INSERT
  5
9C0C
330
9494
100
AcDbEntity
  8
実形
 62
     0
370
    18
100
AcDbBlockReference
  2
_Dot
 10
563.7186656742414
 20
1601.995634219122
 30
0.0
 41
10.0
 42
10.0
 43
10.0
 50
180.0
  0
POINT
  5
9C0D
330
9494
100
AcDbEntity
  8
Defpoints
 62
     0
100
AcDbPoint
 10
1433.718665674241
 20
1491.095777512273
 30
0.0
  0
POINT
  5
9C0E
330
9494
100
AcDbEntity
  8
Defpoints
 62
     0
100
AcDbPoint
 10
563.7186656742414
 20
1491.095777512273
 30
0.0
  0
POINT
  5
9C0F
330
9494
100
AcDbEntity
  8
Defpoints
 62
     0
100
AcDbPoint
 10
563.7186656742414
 20
1601.995634219122
 30
0.0
  0
ENDBLK
  5
949F
330
9494
100
AcDbEntity
  8
0
 62
     3
100
AcDbBlockEnd
  0
BLOCK
  5
94D8
330
94CE
100
AcDbEntity
  8
0
 62
     3
100
AcDbBlockBegin
  2
*D36
 70
     1
 10
0.0
 20
0.0
 30
0.0
  3
*D36
  1

  0
LINE
  5
9C10
330
94CE
100
AcDbEntity
  8
実形
 62
     0
370
    18
100
AcDbLine
 10
563.7186656742414
 20
1556.095777512273
 30
0.0
 11
563.7186656742414
 21
1601.995634219122
 31
0.0
  0
LINE
  5
9C11
330
94CE
100
AcDbEntity
  8
実形
 62
     0
370
    18
100
AcDbLine
 10
1403.718665674241
 20
1556.095777512273
 30
0.0
 11
1403.718665674241
 21
1601.995634219122
 31
0.0
  0
LINE
  5
9C12
330
94CE
100
AcDbEntity
  8
実形
 62
     0
370
    18
100
AcDbLine
 10
573.7186656742415
 20
1601.995634219122
 30
0.0
 11
1393.718665674241
 21
1601.995634219122
 31
0.0
  0
INSERT
  5
9C13
330
94CE
100
AcDbEntity
  8
実形
 62
     0
370
    18
100
AcDbBlockReference
  2
_Dot
 10
563.7186656742414
 20
1601.995634219122
 30
0.0
 41
10.0
 42
10.0
 43
10.0
 50
180.0
  0
INSERT
  5
9C14
330
94CE
100
AcDbEntity
  8
実形
 62
     0
370
    18
100
AcDbBlockReference
  2
_Dot
 10
1403.718665674241
 20
1601.995634219122
 30
0.0
 41
10.0
 42
10.0
 43
10.0
  0
MTEXT
  5
9C15
330
94CE
100
AcDbEntity
  8
実形
 62
     0
100
AcDbMText
 10
983.7186656742415
 20
1623.595634219122
 30
0.0
 40
30.0
 41
0.0
 71
     5
 72
     1
  1
420
 73
     1
 44
1.0
1001
ACAD
1000
MTEXTBEGIN
1070
    73
1070
     1
1070
    44
1040
1.0
1070
    74
1070
     0
1000
MTEXTEND
  0
POINT
  5
9C16
330
94CE
100
AcDbEntity
  8
Defpoints
 62
     0
100
AcDbPoint
 10
563.7186656742414
 20
1491.095777512273
 30
0.0
  0
POINT
  5
9C17
330
94CE
100
AcDbEntity
  8
Defpoints
 62
     0
100
AcDbPoint
 10
1403.718665674241
 20
1491.095777512273
 30
0.0
  0
POINT
  5
9C18
330
94CE
100
AcDbEntity
  8
Defpoints
 62
     0
100
AcDbPoint
 10
1403.718665674241
 20
1601.995634219122
 30
0.0
  0
ENDBLK
  5
94D9
330
94CE
100
AcDbEntity
  8
0
 62
     3
100
AcDbBlockEnd
  0
BLOCK
  5
94EE
330
94E4
100
AcDbEntity
  8
0
 62
     3
100
AcDbBlockBegin
  2
*D37
 70
     1
 10
0.0
 20
0.0
 30
0.0
  3
*D37
  1

  0
LINE
  5
9C19
330
94E4
100
AcDbEntity
  8
実形
 62
     0
370
    18
100
AcDbLine
 10
533.7186656742415
 20
1556.095777512273
 30
0.0
 11
533.7186656742415
 21
1674.364643608453
 31
0.0
  0
LINE
  5
9C1A
330
94E4
100
AcDbEntity
  8
実形
 62
     0
370
    18
100
AcDbLine
 10
1433.718665674241
 20
1556.095777512273
 30
0.0
 11
1433.718665674241
 21
1674.364643608453
 31
0.0
  0
LINE
  5
9C1B
330
94E4
100
AcDbEntity
  8
実形
 62
     0
370
    18
100
AcDbLine
 10
543.7186656742414
 20
1674.364643608453
 30
0.0
 11
1423.718665674241
 21
1674.364643608453
 31
0.0
  0
INSERT
  5
9C1C
330
94E4
100
AcDbEntity
  8
実形
 62
     0
370
    18
100
AcDbBlockReference
  2
_Dot
 10
533.7186656742415
 20
1674.364643608453
 30
0.0
 41
10.0
 42
10.0
 43
10.0
 50
180.0
  0
INSERT
  5
9C1D
330
94E4
100
AcDbEntity
  8
実形
 62
     0
370
    18
100
AcDbBlockReference
  2
_Dot
 10
1433.718665674241
 20
1674.364643608453
 30
0.0
 41
10.0
 42
10.0
 43
10.0
  0
MTEXT
  5
9C1E
330
94E4
100
AcDbEntity
  8
実形
 62
     0
100
AcDbMText
 10
983.7186656742415
 20
1695.964643608452
 30
0.0
 40
30.0
 41
0.0
 71
     5
 72
     1
  1
450
 73
     1
 44
1.0
1001
ACAD
1000
MTEXTBEGIN
1070
    73
1070
     1
1070
    44
1040
1.0
1070
    74
1070
     0
1000
MTEXTEND
  0
POINT
  5
9C1F
330
94E4
100
AcDbEntity
  8
Defpoints
 62
     0
100
AcDbPoint
 10
533.7186656742415
 20
1491.095777512273
 30
0.0
  0
POINT
  5
9C20
330
94E4
100
AcDbEntity
  8
Defpoints
 62
     0
100
AcDbPoint
 10
1433.718665674241
 20
1491.095777512273
 30
0.0
  0
POINT
  5
9C21
330
94E4
100
AcDbEntity
  8
Defpoints
 62
     0
100
AcDbPoint
 10
1433.718665674241
 20
1674.364643608453
 30
0.0
  0
ENDBLK
  5
94EF
330
94E4
100
AcDbEntity
  8
0
 62
     3
100
AcDbBlockEnd
  0
BLOCK
  5
9504
330
94FA
100
AcDbEntity
  8
0
 62
     3
100
AcDbBlockBegin
  2
*D38
 70
     1
 10
0.0
 20
0.0
 30
0.0
  3
*D38
  1

  0
LINE
  5
9A8A
330
94FA
100
AcDbEntity
  8
実形
 62
     0
370
    18
100
AcDbLine
 10
468.7186656742414
 20
970.42649625579
 30
0.0
 11
420.5407684776417
 21
970.42649625579
 31
0.0
  0
LINE
  5
9A8B
330
94FA
100
AcDbEntity
  8
実形
 62
     0
370
    18
100
AcDbLine
 10
468.7186656742413
 20
1470.42649625579
 30
0.0
 11
420.5407684776418
 21
1470.42649625579
 31
0.0
  0
LINE
  5
9A8C
330
94FA
100
AcDbEntity
  8
実形
 62
     0
370
    18
100
AcDbLine
 10
420.5407684776417
 20
980.4264962557899
 30
0.0
 11
420.5407684776418
 21
1460.42649625579
 31
0.0
  0
INSERT
  5
9A8D
330
94FA
100
AcDbEntity
  8
実形
 62
     0
370
    18
100
AcDbBlockReference
  2
_Dot
 10
420.5407684776417
 20
970.42649625579
 30
0.0
 41
10.0
 42
10.0
 43
10.0
 50
270.0
  0
INSERT
  5
9A8E
330
94FA
100
AcDbEntity
  8
実形
 62
     0
370
    18
100
AcDbBlockReference
  2
_Dot
 10
420.5407684776418
 20
1470.42649625579
 30
0.0
 41
10.0
 42
10.0
 43
10.0
 50
90.0
  0
MTEXT
  5
9A8F
330
94FA
100
AcDbEntity
  8
実形
 62
     0
100
AcDbMText
 10
398.9407684776416
 20
1220.42649625579
 30
0.0
 40
30.0
 41
0.0
 71
     5
 72
     1
  1
235
 11
0.0000000000000001
 21
1.0
 31
0.0
 73
     1
 44
1.0
1001
ACAD
1000
MTEXTBEGIN
1070
    73
1070
     1
1070
    44
1040
1.0
1070
    74
1070
     0
1000
MTEXTEND
  0
POINT
  5
9A90
330
94FA
100
AcDbEntity
  8
Defpoints
 62
     0
100
AcDbPoint
 10
533.7186656742415
 20
970.42649625579
 30
0.0
  0
POINT
  5
9A91
330
94FA
100
AcDbEntity
  8
Defpoints
 62
     0
100
AcDbPoint
 10
533.7186656742414
 20
1470.42649625579
 30
0.0
  0
POINT
  5
9A92
330
94FA
100
AcDbEntity
  8
Defpoints
 62
     0
100
AcDbPoint
 10
420.5407684776418
 20
1470.42649625579
 30
0.0
  0
ENDBLK
  5
9505
330
94FA
100
AcDbEntity
  8
0
 62
     3
100
AcDbBlockEnd
  0
BLOCK
  5
9511
330
9507
100
AcDbEntity
  8
0
 62
     3
100
AcDbBlockBegin
  2
*D39
 70
     1
 10
0.0
 20
0.0
 30
0.0
  3
*D39
  1

  0
LINE
  5
9A81
330
9507
100
AcDbEntity
  8
実形
 62
     0
370
    18
100
AcDbLine
 10
468.7186656742414
 20
1000.42649625579
 30
0.0
 11
420.5407684776417
 21
1000.42649625579
 31
0.0
  0
LINE
  5
9A82
330
9507
100
AcDbEntity
  8
実形
 62
     0
370
    18
100
AcDbLine
 10
468.7186656742414
 20
1470.42649625579
 30
0.0
 11
420.5407684776418
 21
1470.42649625579
 31
0.0
  0
LINE
  5
9A83
330
9507
100
AcDbEntity
  8
実形
 62
     0
370
    18
100
AcDbLine
 10
420.5407684776417
 20
1010.42649625579
 30
0.0
 11
420.5407684776418
 21
1460.42649625579
 31
0.0
  0
MTEXT
  5
9A84
330
9507
100
AcDbEntity
  8
実形
 62
     0
100
AcDbMText
 10
398.9407684776416
 20
998.7411334854469
 30
0.0
 40
30.0
 41
0.0
 71
     5
 72
     1
  1
15
 11
0.0000000000000001
 21
1.0
 31
0.0
 73
     1
 44
1.0
1001
ACAD
1000
MTEXTBEGIN
1070
    73
1070
     1
1070
    44
1040
1.0
1070
    74
1070
     0
1000
MTEXTEND
  0
INSERT
  5
9A85
330
9507
100
AcDbEntity
  8
実形
 62
     0
370
    18
100
AcDbBlockReference
  2
_Dot
 10
420.5407684776417
 20
1000.42649625579
 30
0.0
 41
10.0
 42
10.0
 43
10.0
 50
270.0
  0
INSERT
  5
9A86
330
9507
100
AcDbEntity
  8
実形
 62
     0
370
    18
100
AcDbBlockReference
  2
_Dot
 10
420.5407684776418
 20
1470.42649625579
 30
0.0
 41
10.0
 42
10.0
 43
10.0
 50
90.0
  0
POINT
  5
9A87
330
9507
100
AcDbEntity
  8
Defpoints
 62
     0
100
AcDbPoint
 10
533.7186656742415
 20
1000.42649625579
 30
0.0
  0
POINT
  5
9A88
330
9507
100
AcDbEntity
  8
Defpoints
 62
     0
100
AcDbPoint
 10
533.7186656742415
 20
1470.42649625579
 30
0.0
  0
POINT
  5
9A89
330
9507
100
AcDbEntity
  8
Defpoints
 62
     0
100
AcDbPoint
 10
420.5407684776418
 20
1470.42649625579
 30
0.0
  0
ENDBLK
  5
9512
330
9507
100
AcDbEntity
  8
0
 62
     3
100
AcDbBlockEnd
  0
BLOCK
  5
9542
330
9538
100
AcDbEntity
  8
0
 62
     3
100
AcDbBlockBegin
  2
*D40
 70
     1
 10
0.0
 20
0.0
 30
0.0
  3
*D40
  1

  0
LINE
  5
9A78
330
9538
100
AcDbEntity
  8
実形
 62
     0
370
    18
100
AcDbLine
 10
468.7186656742414
 20
1470.42649625579
 30
0.0
 11
357.7137767616515
 21
1470.42649625579
 31
0.0
  0
LINE
  5
9A79
330
9538
100
AcDbEntity
  8
実形
 62
     0
370
    18
100
AcDbLine
 10
468.7186656742414
 20
970.42649625579
 30
0.0
 11
357.7137767616514
 21
970.42649625579
 31
0.0
  0
LINE
  5
9A7A
330
9538
100
AcDbEntity
  8
実形
 62
     0
370
    18
100
AcDbLine
 10
357.7137767616515
 20
1460.42649625579
 30
0.0
 11
357.7137767616514
 21
980.4264962557899
 31
0.0
  0
INSERT
  5
9A7B
330
9538
100
AcDbEntity
  8
実形
 62
     0
370
    18
100
AcDbBlockReference
  2
_Dot
 10
357.7137767616515
 20
1470.42649625579
 30
0.0
 41
10.0
 42
10.0
 43
10.0
 50
90.0
  0
INSERT
  5
9A7C
330
9538
100
AcDbEntity
  8
実形
 62
     0
370
    18
100
AcDbBlockReference
  2
_Dot
 10
357.7137767616514
 20
970.42649625579
 30
0.0
 41
10.0
 42
10.0
 43
10.0
 50
270.0
  0
MTEXT
  5
9A7D
330
9538
100
AcDbEntity
  8
実形
 62
     0
100
AcDbMText
 10
336.1137767616512
 20
1220.42649625579
 30
0.0
 40
30.0
 41
0.0
 71
     5
 72
     1
  1
250
 11
0.0000000000000001
 21
1.0
 31
0.0
 73
     1
 44
1.0
1001
ACAD
1000
MTEXTBEGIN
1070
    73
1070
     1
1070
    44
1040
1.0
1070
    74
1070
     0
1000
MTEXTEND
  0
POINT
  5
9A7E
330
9538
100
AcDbEntity
  8
Defpoints
 62
     0
100
AcDbPoint
 10
533.7186656742415
 20
1470.42649625579
 30
0.0
  0
POINT
  5
9A7F
330
9538
100
AcDbEntity
  8
Defpoints
 62
     0
100
AcDbPoint
 10
533.7186656742415
 20
970.42649625579
 30
0.0
  0
POINT
  5
9A80
330
9538
100
AcDbEntity
  8
Defpoints
 62
     0
100
AcDbPoint
 10
357.7137767616514
 20
970.42649625579
 30
0.0
  0
ENDBLK
  5
9543
330
9538
100
AcDbEntity
  8
0
 62
     3
100
AcDbBlockEnd
  0
BLOCK
  5
9662
330
9658
100
AcDbEntity
  8
0
 62
     3
100
AcDbBlockBegin
  2
*D41
 70
     1
 10
0.0
 20
0.0
 30
0.0
  3
*D41
  1

  0
LINE
  5
9C69
330
9658
100
AcDbEntity
  8
実形
 62
     0
370
    18
100
AcDbLine
 10
533.7186656742416
 20
429.9499061021996
 30
0.0
 11
533.7186656742416
 21
376.0477905690286
 31
0.0
  0
LINE
  5
9C6A
330
9658
100
AcDbEntity
  8
実形
 62
     0
370
    18
100
AcDbLine
 10
1403.718665674241
 20
429.9499061021996
 30
0.0
 11
1403.718665674241
 21
376.0477905690286
 31
0.0
  0
LINE
  5
9C6B
330
9658
100
AcDbEntity
  8
実形
 62
     0
370
    18
100
AcDbLine
 10
543.7186656742417
 20
376.0477905690286
 30
0.0
 11
1393.718665674241
 21
376.0477905690286
 31
0.0
  0
MTEXT
  5
9C6C
330
9658
100
AcDbEntity
  8
実形
 62
     0
100
AcDbMText
 10
548.21610589378
 20
458.8258408816436
 30
0.0
 40
30.0
 41
0.0
 71
     5
 72
     1
  1
15
 73
     1
 44
1.0
1001
ACAD
1000
MTEXTBEGIN
1070
    73
1070
     1
1070
    44
1040
1.0
1070
    74
1070
     0
1000
MTEXTEND
  0
INSERT
  5
9C6D
330
9658
100
AcDbEntity
  8
実形
 62
     0
370
    18
100
AcDbBlockReference
  2
_Dot
 10
533.7186656742416
 20
376.0477905690286
 30
0.0
 41
10.0
 42
10.0
 43
10.0
 50
180.0
  0
INSERT
  5
9C6E
330
9658
100
AcDbEntity
  8
実形
 62
     0
370
    18
100
AcDbBlockReference
  2
_Dot
 10
1403.718665674241
 20
376.0477905690286
 30
0.0
 41
10.0
 42
10.0
 43
10.0
  0
POINT
  5
9C6F
330
9658
100
AcDbEntity
  8
Defpoints
 62
     0
100
AcDbPoint
 10
533.7186656742416
 20
494.9499061021996
 30
0.0
  0
POINT
  5
9C70
330
9658
100
AcDbEntity
  8
Defpoints
 62
     0
100
AcDbPoint
 10
1403.718665674241
 20
494.9499061021996
 30
0.0
  0
POINT
  5
9C71
330
9658
100
AcDbEntity
  8
Defpoints
 62
     0
100
AcDbPoint
 10
1403.718665674241
 20
376.0477905690286
 30
0.0
  0
ENDBLK
  5
9663
330
9658
100
AcDbEntity
  8
0
 62
     3
100
AcDbBlockEnd
  0
BLOCK
  5
9670
330
9666
100
AcDbEntity
  8
0
 62
     3
100
AcDbBlockBegin
  2
*D42
 70
     1
 10
0.0
 20
0.0
 30
0.0
  3
*D42
  1

  0
LINE
  5
9C72
330
9666
100
AcDbEntity
  8
実形
 62
     0
370
    18
100
AcDbLine
 10
563.7186656742415
 20
429.9499061021996
 30
0.0
 11
563.7186656742415
 21
376.0477905690286
 31
0.0
  0
LINE
  5
9C73
330
9666
100
AcDbEntity
  8
実形
 62
     0
370
    18
100
AcDbLine
 10
1433.718665674241
 20
429.9499061021996
 30
0.0
 11
1433.718665674241
 21
376.0477905690286
 31
0.0
  0
LINE
  5
9C74
330
9666
100
AcDbEntity
  8
実形
 62
     0
370
    18
100
AcDbLine
 10
573.7186656742416
 20
376.0477905690286
 30
0.0
 11
1423.718665674241
 21
376.0477905690286
 31
0.0
  0
MTEXT
  5
9C75
330
9666
100
AcDbEntity
  8
実形
 62
     0
100
AcDbMText
 10
1419.142235213279
 20
453.5916575847977
 30
0.0
 40
30.0
 41
0.0
 71
     5
 72
     1
  1
15
 73
     1
 44
1.0
1001
ACAD
1000
MTEXTBEGIN
1070
    73
1070
     1
1070
    44
1040
1.0
1070
    74
1070
     0
1000
MTEXTEND
  0
INSERT
  5
9C76
330
9666
100
AcDbEntity
  8
実形
 62
     0
370
    18
100
AcDbBlockReference
  2
_Dot
 10
563.7186656742415
 20
376.0477905690286
 30
0.0
 41
10.0
 42
10.0
 43
10.0
 50
180.0
  0
INSERT
  5
9C77
330
9666
100
AcDbEntity
  8
実形
 62
     0
370
    18
100
AcDbBlockReference
  2
_Dot
 10
1433.718665674241
 20
376.0477905690286
 30
0.0
 41
10.0
 42
10.0
 43
10.0
  0
POINT
  5
9C78
330
9666
100
AcDbEntity
  8
Defpoints
 62
     0
100
AcDbPoint
 10
563.7186656742415
 20
494.9499061021996
 30
0.0
  0
POINT
  5
9C79
330
9666
100
AcDbEntity
  8
Defpoints
 62
     0
100
AcDbPoint
 10
1433.718665674241
 20
494.9499061021996
 30
0.0
  0
POINT
  5
9C7A
330
9666
100
AcDbEntity
  8
Defpoints
 62
     0
100
AcDbPoint
 10
1433.718665674241
 20
376.0477905690286
 30
0.0
  0
ENDBLK
  5
9671
330
9666
100
AcDbEntity
  8
0
 62
     3
100
AcDbBlockEnd
  0
BLOCK
  5
96AA
330
96A0
100
AcDbEntity
  8
0
 62
     3
100
AcDbBlockBegin
  2
*D43
 70
     1
 10
0.0
 20
0.0
 30
0.0
  3
*D43
  1

  0
LINE
  5
9C7B
330
96A0
100
AcDbEntity
  8
実形
 62
     0
370
    18
100
AcDbLine
 10
563.7186656742415
 20
429.9499061021996
 30
0.0
 11
563.7186656742415
 21
376.0477905690286
 31
0.0
  0
LINE
  5
9C7C
330
96A0
100
AcDbEntity
  8
実形
 62
     0
370
    18
100
AcDbLine
 10
1403.718665674241
 20
429.9499061021996
 30
0.0
 11
1403.718665674241
 21
376.0477905690286
 31
0.0
  0
LINE
  5
9C7D
330
96A0
100
AcDbEntity
  8
実形
 62
     0
370
    18
100
AcDbLine
 10
573.7186656742416
 20
376.0477905690286
 30
0.0
 11
1393.718665674241
 21
376.0477905690286
 31
0.0
  0
INSERT
  5
9C7E
330
96A0
100
AcDbEntity
  8
実形
 62
     0
370
    18
100
AcDbBlockReference
  2
_Dot
 10
563.7186656742415
 20
376.0477905690286
 30
0.0
 41
10.0
 42
10.0
 43
10.0
 50
180.0
  0
INSERT
  5
9C7F
330
96A0
100
AcDbEntity
  8
実形
 62
     0
370
    18
100
AcDbBlockReference
  2
_Dot
 10
1403.718665674241
 20
376.0477905690286
 30
0.0
 41
10.0
 42
10.0
 43
10.0
  0
MTEXT
  5
9C80
330
96A0
100
AcDbEntity
  8
実形
 62
     0
100
AcDbMText
 10
983.7186656742417
 20
397.6477905690286
 30
0.0
 40
30.0
 41
0.0
 71
     5
 72
     1
  1
420
 73
     1
 44
1.0
1001
ACAD
1000
MTEXTBEGIN
1070
    73
1070
     1
1070
    44
1040
1.0
1070
    74
1070
     0
1000
MTEXTEND
  0
POINT
  5
9C81
330
96A0
100
AcDbEntity
  8
Defpoints
 62
     0
100
AcDbPoint
 10
563.7186656742415
 20
494.9499061021996
 30
0.0
  0
POINT
  5
9C82
330
96A0
100
AcDbEntity
  8
Defpoints
 62
     0
100
AcDbPoint
 10
1403.718665674241
 20
494.9499061021996
 30
0.0
  0
POINT
  5
9C83
330
96A0
100
AcDbEntity
  8
Defpoints
 62
     0
100
AcDbPoint
 10
1403.718665674241
 20
376.0477905690286
 30
0.0
  0
ENDBLK
  5
96AB
330
96A0
100
AcDbEntity
  8
0
 62
     3
100
AcDbBlockEnd
  0
BLOCK
  5
96C0
330
96B6
100
AcDbEntity
  8
0
 62
     3
100
AcDbBlockBegin
  2
*D44
 70
     1
 10
0.0
 20
0.0
 30
0.0
  3
*D44
  1

  0
LINE
  5
9C84
330
96B6
100
AcDbEntity
  8
実形
 62
     0
370
    18
100
AcDbLine
 10
533.7186656742416
 20
429.9499061021996
 30
0.0
 11
533.7186656742416
 21
307.6735643340971
 31
0.0
  0
LINE
  5
9C85
330
96B6
100
AcDbEntity
  8
実形
 62
     0
370
    18
100
AcDbLine
 10
1433.718665674241
 20
429.9499061021927
 30
0.0
 11
1433.718665674241
 21
307.6735643340971
 31
0.0
  0
LINE
  5
9C86
330
96B6
100
AcDbEntity
  8
実形
 62
     0
370
    18
100
AcDbLine
 10
543.7186656742417
 20
307.6735643340971
 30
0.0
 11
1423.718665674241
 21
307.6735643340971
 31
0.0
  0
INSERT
  5
9C87
330
96B6
100
AcDbEntity
  8
実形
 62
     0
370
    18
100
AcDbBlockReference
  2
_Dot
 10
533.7186656742416
 20
307.6735643340971
 30
0.0
 41
10.0
 42
10.0
 43
10.0
 50
180.0
  0
INSERT
  5
9C88
330
96B6
100
AcDbEntity
  8
実形
 62
     0
370
    18
100
AcDbBlockReference
  2
_Dot
 10
1433.718665674241
 20
307.6735643340971
 30
0.0
 41
10.0
 42
10.0
 43
10.0
  0
MTEXT
  5
9C89
330
96B6
100
AcDbEntity
  8
実形
 62
     0
100
AcDbMText
 10
983.7186656742415
 20
329.2735643340972
 30
0.0
 40
30.0
 41
0.0
 71
     5
 72
     1
  1
450
 73
     1
 44
1.0
1001
ACAD
1000
MTEXTBEGIN
1070
    73
1070
     1
1070
    44
1040
1.0
1070
    74
1070
     0
1000
MTEXTEND
  0
POINT
  5
9C8A
330
96B6
100
AcDbEntity
  8
Defpoints
 62
     0
100
AcDbPoint
 10
533.7186656742416
 20
494.9499061021996
 30
0.0
  0
POINT
  5
9C8B
330
96B6
100
AcDbEntity
  8
Defpoints
 62
     0
100
AcDbPoint
 10
1433.718665674241
 20
494.9499061021928
 30
0.0
  0
POINT
  5
9C8C
330
96B6
100
AcDbEntity
  8
Defpoints
 62
     0
100
AcDbPoint
 10
1433.718665674241
 20
307.6735643340971
 30
0.0
  0
ENDBLK
  5
96C1
330
96B6
100
AcDbEntity
  8
0
 62
     3
100
AcDbBlockEnd
  0
BLOCK
  5
96FA
330
96F1
100
AcDbEntity
  8
0
 62
     3
100
AcDbBlockBegin
  2
A$C36B273B5
 70
     0
 10
0.0
 20
0.0
 30
0.0
  3
A$C36B273B5
  1

  0
TEXT
  5
96F2
330
96F1
100
AcDbEntity
  8
実形
 62
     1
100
AcDbText
 10
-465.3457898218355
 20
-948.7858017460299
 30
0.0
 40
30.0
  1
2R
 72
     2
 11
-415.3457898218355
 21
-952.7858017460298
 31
0.0
100
AcDbText
 73
     1
  0
LEADER
  5
96F3
330
96F1
100
AcDbEntity
  8
実形
 62
     1
100
AcDbLeader
  3
ISO-25
 76
     2
 10
-527.7828235318038
 20
-975.470156994837
 30
0.0
 10
-471.1030932806031
 20
-949.7913184215326
 30
0.0
1001
ACAD
1000
DSTYLE
1002
{
1070
    77
1070
     0
1070
    41
1040
10.0
1070
   140
1040
30.0
1070
   147
1040
6.599999999999998
1070
   279
1070
     2
1070
   342
1005
30D
1070
   371
1070
    13
1070
   372
1070
    18
1002
}
  0
TEXT
  5
96F4
330
96F1
100
AcDbEntity
  8
実形
 62
     1
100
AcDbText
 10
-462.0613539120865
 20
-1030.185736646407
 30
0.0
 40
30.0
  1
2R
 72
     2
 11
-412.0613539120865
 21
-1034.185736646407
 31
0.0
100
AcDbText
 73
     1
  0
LEADER
  5
96F5
330
96F1
100
AcDbEntity
  8
実形
 62
     1
100
AcDbLeader
  3
ISO-25
 76
     2
 10
-527.183655244281
 20
-999.4307726147413
 30
0.0
 10
-470.0984571716478
 20
-952.804470258116
 30
0.0
1001
ACAD
1000
DSTYLE
1002
{
1070
    77
1070
     0
1070
    41
1040
10.0
1070
   140
1040
30.0
1070
   147
1040
6.599999999999998
1070
   279
1070
     2
1070
   342
1005
30D
1070
   371
1070
    13
1070
   372
1070
    18
1002
}
  0
LEADER
  5
96F6
330
96F1
100
AcDbEntity
  8
実形
 62
     1
100
AcDbLeader
  3
ISO-25
 76
     2
 10
-564.8749993577593
 20
-1006.054868711343
 30
0.0
 10
-473.1123654985156
 20
-1016.124386294951
 30
0.0
1001
ACAD
1000
DSTYLE
1002
{
1070
    77
1070
     0
1070
    41
1040
10.0
1070
   140
1040
30.0
1070
   147
1040
6.599999999999998
1070
   279
1070
     2
1070
   342
1005
30D
1070
   371
1070
    13
1070
   372
1070
    18
1002
}
  0
LEADER
  5
96F7
330
96F1
100
AcDbEntity
  8
実形
 62
     1
100
AcDbLeader
  3
ISO-25
 76
     2
 10
-567.7786772784047
 20
-1012.257509633898
 30
0.0
 10
-474.117015995386
 20
-1018.133141743038
 30
0.0
1001
ACAD
1000
DSTYLE
1002
{
1070
    77
1070
     0
1070
    41
1040
10.0
1070
   140
1040
30.0
1070
   147
1040
6.599999999999998
1070
   279
1070
     2
1070
   342
1005
30D
1070
   371
1070
    13
1070
   372
1070
    18
1002
}
  0
ENDBLK
  5
96FB
330
96F1
100
AcDbEntity
  8
0
 62
     3
100
AcDbBlockEnd
  0
BLOCK
  5
97AF
330
97AE
100
AcDbEntity
  8
0
 62
     3
100
AcDbBlockBegin
  2
*D46
 70
     1
 10
0.0
 20
0.0
 30
0.0
  3
*D46
  1

  0
LINE
  5
97B0
330
97AE
100
AcDbEntity
  8
実形
 62
     0
370
    18
100
AcDbLine
 10
2500.248400307262
 20
1594.861233796198
 30
0.0
 11
2564.253891897287
 21
1594.861233796197
 31
0.0
  0
LINE
  5
97B1
330
97AE
100
AcDbEntity
  8
実形
 62
     0
370
    18
100
AcDbLine
 10
2467.224793693551
 20
846.8612337961975
 30
0.0
 11
2564.253891897287
 21
846.8612337961975
 31
0.0
  0
LINE
  5
97B2
330
97AE
100
AcDbEntity
  8
実形
 62
     0
370
    18
100
AcDbLine
 10
2564.253891897287
 20
1584.861233796197
 30
0.0
 11
2564.253891897287
 21
856.8612337961974
 31
0.0
  0
INSERT
  5
97B3
330
97AE
100
AcDbEntity
  8
実形
 62
     0
370
    18
100
AcDbBlockReference
  2
_Dot
 10
2564.253891897287
 20
1594.861233796197
 30
0.0
 41
10.0
 42
10.0
 43
10.0
 50
90.0
  0
INSERT
  5
97B4
330
97AE
100
AcDbEntity
  8
実形
 62
     0
370
    18
100
AcDbBlockReference
  2
_Dot
 10
2564.253891897287
 20
846.8612337961975
 30
0.0
 41
10.0
 42
10.0
 43
10.0
 50
270.0
  0
MTEXT
  5
97B5
330
97AE
100
AcDbEntity
  8
実形
 62
     0
100
AcDbMText
 10
2542.653891897287
 20
1220.861233796198
 30
0.0
 40
30.0
 41
0.0
 71
     5
 72
     1
  1
374
 11
0.0000000000000001
 21
1.0
 31
0.0
 73
     1
 44
1.0
1001
ACAD
1000
MTEXTBEGIN
1070
    73
1070
     1
1070
    44
1040
1.0
1070
    74
1070
     0
1000
MTEXTEND
  0
POINT
  5
97B6
330
97AE
100
AcDbEntity
  8
Defpoints
 62
     0
100
AcDbPoint
 10
2435.248400307262
 20
1594.861233796198
 30
0.0
  0
POINT
  5
97B7
330
97AE
100
AcDbEntity
  8
Defpoints
 62
     0
100
AcDbPoint
 10
2402.224793693551
 20
846.8612337961975
 30
0.0
  0
POINT
  5
97B8
330
97AE
100
AcDbEntity
  8
Defpoints
 62
     0
100
AcDbPoint
 10
2564.253891897287
 20
846.8612337961975
 30
0.0
  0
ENDBLK
  5
97B9
330
97AE
100
AcDbEntity
  8
0
 62
     3
100
AcDbBlockEnd
  0
BLOCK
  5
97BB
330
97BA
100
AcDbEntity
  8
0
 62
     3
100
AcDbBlockBegin
  2
*D47
 70
     1
 10
0.0
 20
0.0
 30
0.0
  3
*D47
  1

  0
LINE
  5
97BC
330
97BA
100
AcDbEntity
  8
実形
 62
     0
370
    18
100
AcDbLine
 10
2478.349005015229
 20
1594.861233796197
 30
0.0
 11
2503.52870755873
 21
1594.861233796197
 31
0.0
  0
LINE
  5
97BD
330
97BA
100
AcDbEntity
  8
実形
 62
     0
370
    18
100
AcDbLine
 10
2478.349005015228
 20
1548.861233796197
 30
0.0
 11
2503.52870755873
 21
1548.861233796197
 31
0.0
  0
LINE
  5
97BE
330
97BA
100
AcDbEntity
  8
実形
 62
     0
370
    18
100
AcDbLine
 10
2503.52870755873
 20
1584.861233796197
 30
0.0
 11
2503.52870755873
 21
1558.861233796197
 31
0.0
  0
MTEXT
  5
97BF
330
97BA
100
AcDbEntity
  8
実形
 62
     0
100
AcDbMText
 10
2488.613406249828
 20
1632.017270894442
 30
0.0
 40
30.0
 41
0.0
 71
     5
 72
     1
  1
23
 11
0.0000000000000001
 21
1.0
 31
0.0
 73
     1
 44
1.0
1001
ACAD
1000
MTEXTBEGIN
1070
    73
1070
     1
1070
    44
1040
1.0
1070
    74
1070
     0
1000
MTEXTEND
  0
INSERT
  5
97C0
330
97BA
100
AcDbEntity
  8
実形
 62
     0
370
    18
100
AcDbBlockReference
  2
_Dot
 10
2503.52870755873
 20
1594.861233796197
 30
0.0
 41
10.0
 42
10.0
 43
10.0
 50
90.0
  0
INSERT
  5
97C1
330
97BA
100
AcDbEntity
  8
実形
 62
     0
370
    18
100
AcDbBlockReference
  2
_Dot
 10
2503.52870755873
 20
1548.861233796197
 30
0.0
 41
10.0
 42
10.0
 43
10.0
 50
270.0
  0
POINT
  5
97C2
330
97BA
100
AcDbEntity
  8
Defpoints
 62
     0
100
AcDbPoint
 10
2413.349005015229
 20
1594.861233796197
 30
0.0
  0
POINT
  5
97C3
330
97BA
100
AcDbEntity
  8
Defpoints
 62
     0
100
AcDbPoint
 10
2413.349005015228
 20
1548.861233796197
 30
0.0
  0
POINT
  5
97C4
330
97BA
100
AcDbEntity
  8
Defpoints
 62
     0
100
AcDbPoint
 10
2503.52870755873
 20
1548.861233796197
 30
0.0
  0
ENDBLK
  5
97C5
330
97BA
100
AcDbEntity
  8
0
 62
     3
100
AcDbBlockEnd
  0
BLOCK
  5
97C7
330
97C6
100
AcDbEntity
  8
0
 62
     3
100
AcDbBlockBegin
  2
*D48
 70
     1
 10
0.0
 20
0.0
 30
0.0
  3
*D48
  1

  0
LINE
  5
97C8
330
97C6
100
AcDbEntity
  8
実形
 62
     0
370
    18
100
AcDbLine
 10
2467.930426101381
 20
892.8612337961974
 30
0.0
 11
2503.528707558753
 21
892.8612337961974
 31
0.0
  0
LINE
  5
97C9
330
97C6
100
AcDbEntity
  8
実形
 62
     0
370
    18
100
AcDbLine
 10
2467.224793693551
 20
846.8612337961975
 30
0.0
 11
2503.528707558753
 21
846.8612337961975
 31
0.0
  0
LINE
  5
97CA
330
97C6
100
AcDbEntity
  8
実形
 62
     0
370
    18
100
AcDbLine
 10
2503.528707558753
 20
882.8612337961974
 30
0.0
 11
2503.528707558753
 21
856.8612337961974
 31
0.0
  0
MTEXT
  5
97CB
330
97C6
100
AcDbEntity
  8
実形
 62
     0
100
AcDbMText
 10
2484.835463319834
 20
815.6007139033533
 30
0.0
 40
30.0
 41
0.0
 71
     5
 72
     1
  1
23
 11
0.0000000000000001
 21
1.0
 31
0.0
 73
     1
 44
1.0
1001
ACAD
1000
MTEXTBEGIN
1070
    73
1070
     1
1070
    44
1040
1.0
1070
    74
1070
     0
1000
MTEXTEND
  0
INSERT
  5
97CC
330
97C6
100
AcDbEntity
  8
実形
 62
     0
370
    18
100
AcDbBlockReference
  2
_Dot
 10
2503.528707558753
 20
892.8612337961974
 30
0.0
 41
10.0
 42
10.0
 43
10.0
 50
90.0
  0
INSERT
  5
97CD
330
97C6
100
AcDbEntity
  8
実形
 62
     0
370
    18
100
AcDbBlockReference
  2
_Dot
 10
2503.528707558753
 20
846.8612337961975
 30
0.0
 41
10.0
 42
10.0
 43
10.0
 50
270.0
  0
POINT
  5
97CE
330
97C6
100
AcDbEntity
  8
Defpoints
 62
     0
100
AcDbPoint
 10
2402.930426101381
 20
892.8612337961974
 30
0.0
  0
POINT
  5
97CF
330
97C6
100
AcDbEntity
  8
Defpoints
 62
     0
100
AcDbPoint
 10
2402.224793693551
 20
846.8612337961975
 30
0.0
  0
POINT
  5
97D0
330
97C6
100
AcDbEntity
  8
Defpoints
 62
     0
100
AcDbPoint
 10
2503.528707558753
 20
846.8612337961975
 30
0.0
  0
ENDBLK
  5
97D1
330
97C6
100
AcDbEntity
  8
0
 62
     3
100
AcDbBlockEnd
  0
BLOCK
  5
97D3
330
97D2
100
AcDbEntity
  8
0
 62
     3
100
AcDbBlockBegin
  2
*D49
 70
     1
 10
0.0
 20
0.0
 30
0.0
  3
*D49
  1

  0
LINE
  5
97D4
330
97D2
100
AcDbEntity
  8
実形
 62
     0
370
    18
100
AcDbLine
 10
2478.224793693551
 20
1548.861233796197
 30
0.0
 11
2503.528707558754
 21
1548.861233796197
 31
0.0
  0
LINE
  5
97D5
330
97D2
100
AcDbEntity
  8
実形
 62
     0
370
    18
100
AcDbLine
 10
2478.224793693551
 20
892.8612337961974
 30
0.0
 11
2503.528707558753
 21
892.8612337961974
 31
0.0
  0
LINE
  5
97D6
330
97D2
100
AcDbEntity
  8
実形
 62
     0
370
    18
100
AcDbLine
 10
2503.528707558754
 20
1538.861233796197
 30
0.0
 11
2503.528707558753
 21
902.8612337961973
 31
0.0
  0
INSERT
  5
97D7
330
97D2
100
AcDbEntity
  8
実形
 62
     0
370
    18
100
AcDbBlockReference
  2
_Dot
 10
2503.528707558754
 20
1548.861233796197
 30
0.0
 41
10.0
 42
10.0
 43
10.0
 50
90.0
  0
INSERT
  5
97D8
330
97D2
100
AcDbEntity
  8
実形
 62
     0
370
    18
100
AcDbBlockReference
  2
_Dot
 10
2503.528707558753
 20
892.8612337961974
 30
0.0
 41
10.0
 42
10.0
 43
10.0
 50
270.0
  0
MTEXT
  5
97D9
330
97D2
100
AcDbEntity
  8
実形
 62
     0
100
AcDbMText
 10
2481.928707558753
 20
1220.861233796197
 30
0.0
 40
30.0
 41
0.0
 71
     5
 72
     1
  1
328
 11
0.0000000000000001
 21
1.0
 31
0.0
 73
     1
 44
1.0
1001
ACAD
1000
MTEXTBEGIN
1070
    73
1070
     1
1070
    44
1040
1.0
1070
    74
1070
     0
1000
MTEXTEND
  0
POINT
  5
97DA
330
97D2
100
AcDbEntity
  8
Defpoints
 62
     0
100
AcDbPoint
 10
2413.224793693551
 20
1548.861233796197
 30
0.0
  0
POINT
  5
97DB
330
97D2
100
AcDbEntity
  8
Defpoints
 62
     0
100
AcDbPoint
 10
2413.224793693551
 20
892.8612337961974
 30
0.0
  0
POINT
  5
97DC
330
97D2
100
AcDbEntity
  8
Defpoints
 62
     0
100
AcDbPoint
 10
2503.528707558753
 20
892.8612337961974
 30
0.0
  0
ENDBLK
  5
97DD
330
97D2
100
AcDbEntity
  8
0
 62
     3
100
AcDbBlockEnd
  0
BLOCK
  5
980B
330
97DE
100
AcDbEntity
  8
0
 62
     3
100
AcDbBlockBegin
  2
A$C708B09EF
 70
     0
 10
0.0
 20
0.0
 30
0.0
  3
A$C708B09EF
  1

  0
TEXT
  5
97DF
330
97DE
100
AcDbEntity
  8
実形
100
AcDbText
 10
-0.0000001381959164
 20
-0.0000030925102621
 30
0.0
 40
40.0
  1
A-A´断面
 72
     4
 11
126.6666665284707
 21
19.99999690748973
 31
0.0
100
AcDbText
  0
DIMENSION
  5
97E0
330
97DE
100
AcDbEntity
  8
実形
100
AcDbDimension
  2
*D46
 10
2143.894309952299
 20
274.8870892935808
 30
0.0
 11
2122.2943099523
 21
648.8870892935813
 31
0.0
 12
-420.3595819449874
 22
-571.9741445026166
 32
0.0
  1
374
 71
     5
 42
748.0000000000001
  3
ISO-25
100
AcDbAlignedDimension
 13
2014.888818362275
 23
1022.887089293581
 33
0.0
 14
1981.865211748564
 24
274.8870892935808
 34
0.0
 50
90.0
100
AcDbRotatedDimension
1001
ACAD
1000
DSTYLE
1002
{
1070
    41
1040
10.0
1070
   140
1040
30.0
1070
   147
1040
6.599999999999998
1070
   279
1070
     2
1070
   342
1005
30D
1070
   371
1070
    18
1070
   372
1070
    18
1002
}
  0
DIMENSION
  5
97E1
330
97DE
100
AcDbEntity
  8
実形
100
AcDbDimension
  2
*D47
 10
2083.169125613742
 20
976.8870892935806
 30
0.0
 11
2068.25382430484
 21
1060.043126391826
 31
0.0
 12
-420.3595819449874
 22
-571.9741445026166
 32
0.0
 70
   128
  1
23
 71
     5
 42
46.00000000000022
  3
ISO-25
100
AcDbAlignedDimension
 13
1992.989423070241
 23
1022.887089293581
 33
0.0
 14
1992.989423070241
 24
976.8870892935806
 34
0.0
 50
90.0
100
AcDbRotatedDimension
1001
ACAD
1000
DSTYLE
1002
{
1070
    41
1040
10.0
1070
   140
1040
30.0
1070
   147
1040
6.599999999999998
1070
   279
1070
     2
1070
   342
1005
30D
1070
   371
1070
    18
1070
   372
1070
    18
1002
}
  0
DIMENSION
  5
97E2
330
97DE
100
AcDbEntity
  8
実形
100
AcDbDimension
  2
*D48
 10
2083.169125613766
 20
274.8870892935808
 30
0.0
 11
2064.475881374847
 21
243.6265694007368
 31
0.0
 12
-420.3595819449874
 22
-571.9741445026166
 32
0.0
 70
   128
  1
23
 71
     5
 42
46.0
  3
ISO-25
100
AcDbAlignedDimension
 13
1982.570844156394
 23
320.8870892935808
 33
0.0
 14
1981.865211748564
 24
274.8870892935808
 34
0.0
 50
90.0
100
AcDbRotatedDimension
1001
ACAD
1000
DSTYLE
1002
{
1070
    41
1040
10.0
1070
   140
1040
30.0
1070
   147
1040
6.599999999999998
1070
   279
1070
     2
1070
   342
1005
30D
1070
   371
1070
    18
1070
   372
1070
    18
1002
}
  0
LINE
  5
97E3
330
97DE
100
AcDbEntity
  8
実形
100
AcDbLine
 10
1995.865211748563
 20
976.8870892935806
 30
0.0
 11
1995.865211748563
 21
976.8870892935805
 31
0.0
  0
LINE
  5
97E4
330
97DE
100
AcDbEntity
  8
実形
100
AcDbLine
 10
1973.865211748563
 20
274.887089293581
 30
0.0
 11
1987.865211748563
 21
274.8870892935806
 31
0.0
  0
LINE
  5
97E5
330
97DE
100
AcDbEntity
  8
実形
100
AcDbLine
 10
1995.865211748563
 20
320.8870892935808
 30
0.0
 11
1995.865211748563
 21
320.8870892935808
 31
0.0
  0
ARC
  5
97E6
330
97DE
100
AcDbEntity
  8
実形
100
AcDbCircle
 10
1995.865211748563
 20
316.8870892935808
 30
0.0
 40
4.0
100
AcDbArc
 50
90.0
 51
180.0
  0
LINE
  5
97E7
330
97DE
100
AcDbEntity
  8
実形
100
AcDbLine
 10
1999.865211748562
 20
324.8870892935808
 30
0.0
 11
1999.865211748564
 21
972.8870892935804
 31
0.0
  0
ARC
  5
97E8
330
97DE
100
AcDbEntity
  8
実形
100
AcDbCircle
 10
1995.865211748563
 20
324.8870892935808
 30
0.0
 40
4.0
100
AcDbArc
 50
270.0
 51
0.0
  0
ARC
  5
97E9
330
97DE
100
AcDbEntity
  8
実形
100
AcDbCircle
 10
1995.865211748563
 20
972.8870892935804
 30
0.0
 40
4.0
100
AcDbArc
 50
0.0
 51
90.0
  0
LINE
  5
97EA
330
97DE
100
AcDbEntity
  8
実形
100
AcDbLine
 10
1991.865211748563
 20
278.8870892935806
 30
0.0
 11
1991.865211748563
 21
316.8870892935808
 31
0.0
  0
ARC
  5
97EB
330
97DE
100
AcDbEntity
  8
実形
100
AcDbCircle
 10
1987.865211748563
 20
278.8870892935806
 30
0.0
 40
4.0
100
AcDbArc
 50
270.0
 51
0.0
  0
LINE
  5
97EC
330
97DE
100
AcDbEntity
  8
実形
100
AcDbLine
 10
1991.865211748563
 20
980.8870892935805
 30
0.0
 11
1991.865211748564
 21
1018.88708929358
 31
0.0
  0
ARC
  5
97ED
330
97DE
100
AcDbEntity
  8
実形
100
AcDbCircle
 10
1995.865211748563
 20
980.8870892935805
 30
0.0
 40
4.0
100
AcDbArc
 50
180.0
 51
270.0
  0
ARC
  5
97EE
330
97DE
100
AcDbEntity
  8
実形
100
AcDbCircle
 10
1987.865211748564
 20
1018.88708929358
 30
0.0
 40
4.0
100
AcDbArc
 50
0.0
 51
90.0
  0
LINE
  5
97EF
330
97DE
100
AcDbEntity
  8
実形
100
AcDbLine
 10
1969.865211748563
 20
278.887089293581
 30
0.0
 11
1969.865211748564
 21
1018.887089293581
 31
0.0
  0
ARC
  5
97F0
330
97DE
100
AcDbEntity
  8
実形
100
AcDbCircle
 10
1973.865211748563
 20
278.887089293581
 30
0.0
 40
4.0
100
AcDbArc
 50
180.0
 51
270.0
  0
LINE
  5
97F1
330
97DE
100
AcDbEntity
  8
実形
100
AcDbLine
 10
1973.865211748564
 20
1022.887089293581
 30
0.0
 11
1987.865211748564
 21
1022.88708929358
 31
0.0
  0
ARC
  5
97F2
330
97DE
100
AcDbEntity
  8
実形
100
AcDbCircle
 10
1973.865211748564
 20
1018.887089293581
 30
0.0
 40
4.0
100
AcDbArc
 50
90.0
 51
180.0
  0
LINE
  5
97F3
330
97DE
100
AcDbEntity
  8
実形
100
AcDbLine
 10
1999.865211748564
 20
1064.851030340629
 30
0.0
 11
1999.865211748564
 21
1094.359832558488
 31
0.0
  0
LINE
  5
97F4
330
97DE
100
AcDbEntity
  8
実形
100
AcDbLine
 10
1999.865211748564
 20
1094.359832558488
 30
0.0
 11
1969.865211748563
 21
1094.359832558488
 31
0.0
  0
LINE
  5
97F5
330
97DE
100
AcDbEntity
  8
実形
100
AcDbLine
 10
1969.865211748563
 20
1094.359832558488
 30
0.0
 11
1969.865211748563
 21
1064.851030340629
 31
0.0
  0
LINE
  5
97F6
330
97DE
100
AcDbEntity
  8
実形
100
AcDbLine
 10
1991.865211748564
 20
1094.067812782337
 30
0.0
 11
1991.865211748564
 21
1064.559010564479
 31
0.0
  0
TEXT
  5
97F7
330
97DE
100
AcDbEntity
  8
実形
100
AcDbText
 10
1994.646780704085
 20
1098.701897880445
 30
0.0
 40
10.0
  1
●
 50
270.0
 72
     4
 11
1999.646780704086
 21
1094.035231213778
 31
0.0
100
AcDbText
  0
TEXT
  5
97F8
330
97DE
100
AcDbEntity
  8
実形
100
AcDbText
 10
1987.147823019113
 20
1098.970445533645
 30
0.0
 40
10.0
  1
●
 50
270.0
 72
     4
 11
1992.147823019113
 21
1094.303778866979
 31
0.0
100
AcDbText
  0
TEXT
  5
97F9
330
97DE
100
AcDbEntity
  8
実形
100
AcDbText
 10
1965.697834921051
 20
1098.98218159512
 30
0.0
 40
10.0
  1
●
 50
270.0
 72
     4
 11
1970.697834921051
 21
1094.315514928454
 31
0.0
100
AcDbText
  0
TEXT
  5
97FA
330
97DE
100
AcDbEntity
  8
実形
100
AcDbText
 10
1926.483156164067
 20
1093.1041405603
 30
0.0
 40
30.0
  1
11
 72
     2
 11
1956.483156164068
 21
1089.1041405603
 31
0.0
100
AcDbText
 73
     1
  0
TEXT
  5
97FB
330
97DE
100
AcDbEntity
  8
実形
100
AcDbText
 10
2018.512883161113
 20
1091.340508664816
 30
0.0
 40
30.0
  1
4
 72
     2
 11
2038.512883161113
 21
1087.340508664816
 31
0.0
100
AcDbText
 73
     1
  0
TEXT
  5
97FC
330
97DE
100
AcDbEntity
  8
実形
100
AcDbText
 10
1891.663443059005
 20
182.478290073386
 30
0.0
 40
30.0
  1
2R
 72
     2
 11
1941.663443059006
 21
178.478290073386
 31
0.0
100
AcDbText
 73
     1
  0
TEXT
  5
97FD
330
97DE
100
AcDbEntity
  8
実形
100
AcDbText
 10
2010.584534663576
 20
157.3966396758349
 30
0.0
 40
30.0
  1
2R
 72
     2
 11
2060.584534663576
 21
153.3966396758349
 31
0.0
100
AcDbText
 73
     1
  0
LEADER
  5
97FE
330
97DE
100
AcDbEntity
  8
実形
100
AcDbLeader
  3
ISO-25
 76
     2
 10
1967.376181934706
 20
270.318824128034
 30
0.0
 10
1925.57766498953
 20
219.1731027831481
 30
0.0
1001
ACAD
1000
DSTYLE
1002
{
1070
    77
1070
     0
1070
    41
1040
10.0
1070
   140
1040
30.0
1070
   147
1040
6.599999999999998
1070
   279
1070
     2
1070
   342
1005
30D
1070
   371
1070
    13
1070
   372
1070
    18
1002
}
  0
LEADER
  5
97FF
330
97DE
100
AcDbEntity
  8
実形
100
AcDbLeader
  3
ISO-25
 76
     2
 10
1987.242957281851
 20
269.2870457846829
 30
0.0
 10
1927.653089622218
 20
219.5880804934748
 30
0.0
1001
ACAD
1000
DSTYLE
1002
{
1070
    77
1070
     0
1070
    41
1040
10.0
1070
   140
1040
30.0
1070
   147
1040
6.599999999999998
1070
   279
1070
     2
1070
   342
1005
30D
1070
   371
1070
    13
1070
   372
1070
    18
1002
}
  0
LEADER
  5
9800
330
97DE
100
AcDbEntity
  8
実形
100
AcDbLeader
  3
ISO-25
 76
     2
 10
1998.227254041685
 20
308.4801208589706
 30
0.0
 10
2026.442709686984
 20
189.5501738852042
 30
0.0
1001
ACAD
1000
DSTYLE
1002
{
1070
    77
1070
     0
1070
    41
1040
10.0
1070
   140
1040
30.0
1070
   147
1040
6.599999999999998
1070
   279
1070
     2
1070
   342
1005
30D
1070
   371
1070
    13
1070
   372
1070
    18
1002
}
  0
LEADER
  5
9801
330
97DE
100
AcDbEntity
  8
実形
100
AcDbLeader
  3
ISO-25
 76
     2
 10
2004.373141873159
 20
314.37867493675
 30
0.0
 10
2026.442709686984
 20
189.5501738852042
 30
0.0
1001
ACAD
1000
DSTYLE
1002
{
1070
    77
1070
     0
1070
    41
1040
10.0
1070
   140
1040
30.0
1070
   147
1040
6.599999999999998
1070
   279
1070
     2
1070
   342
1005
30D
1070
   371
1070
    13
1070
   372
1070
    18
1002
}
  0
DIMENSION
  5
9802
330
97DE
100
AcDbEntity
  8
実形
100
AcDbDimension
  2
*D49
 10
2083.169125613766
 20
320.8870892935808
 30
0.0
 11
2061.569125613766
 21
648.887089293581
 31
0.0
 12
-420.3595819449874
 22
-571.9741445026166
 32
0.0
  1
328
 71
     5
 42
655.9999999999996
  3
ISO-25
100
AcDbAlignedDimension
 13
1992.865211748563
 23
976.8870892935806
 33
0.0
 14
1992.865211748563
 24
320.8870892935808
 34
0.0
 50
90.0
100
AcDbRotatedDimension
1001
ACAD
1000
DSTYLE
1002
{
1070
    41
1040
10.0
1070
   140
1040
30.0
1070
   147
1040
6.599999999999998
1070
   279
1070
     2
1070
   342
1005
30D
1070
   371
1070
    18
1070
   372
1070
    18
1002
}
  0
LINE
  5
9803
330
97DE
100
AcDbEntity
  8
実形
100
AcDbLine
 10
1969.865211748563
 20
1064.851030340629
 30
0.0
 11
1969.865211748563
 21
1135.798891096812
 31
0.0
  0
LINE
  5
9804
330
97DE
100
AcDbEntity
  8
実形
100
AcDbLine
 10
1969.865211748563
 20
1135.798891096812
 30
0.0
 11
1999.865211748564
 21
1135.798891096812
 31
0.0
  0
LINE
  5
9805
330
97DE
100
AcDbEntity
  8
実形
100
AcDbLine
 10
1999.865211748564
 20
1135.798891096812
 30
0.0
 11
1999.865211748564
 21
1064.851030340629
 31
0.0
  0
TEXT
  5
9806
330
97DE
100
AcDbEntity
  8
実形
100
AcDbText
 10
1964.198496960716
 20
1146.749392311654
 30
0.0
 40
30.0
  1
15
 72
     2
 11
2004.198496960717
 21
1142.749392311654
 31
0.0
100
AcDbText
 73
     1
  0
TEXT
  5
9807
330
97DE
100
AcDbEntity
  8
実形
100
AcDbText
 10
1964.750794158065
 20
1140.480088411174
 30
0.0
 40
10.0
  1
●
 50
270.0
 72
     4
 11
1969.750794158066
 21
1135.813421744507
 31
0.0
100
AcDbText
  0
TEXT
  5
9808
330
97DE
100
AcDbEntity
  8
実形
100
AcDbText
 10
1994.927412061906
 20
1140.238734012656
 30
0.0
 40
10.0
  1
●
 50
270.0
 72
     4
 11
1999.927412061906
 21
1135.572067345989
 31
0.0
100
AcDbText
  0
ENDBLK
  5
980C
330
97DE
100
AcDbEntity
  8
0
 62
     3
100
AcDbBlockEnd
  0
BLOCK
  5
9937
330
992D
100
AcDbEntity
  8
0
 62
     3
100
AcDbBlockBegin
  2
*D51
 70
     1
 10
0.0
 20
0.0
 30
0.0
  3
*D51
  1

  0
LINE
  5
9AE9
330
992D
100
AcDbEntity
  8
実形
 62
     0
370
    18
100
AcDbLine
 10
2096.487070440771
 20
970.42649625579
 30
0.0
 11
2135.232399761445
 21
970.42649625579
 31
0.0
  0
LINE
  5
9AEA
330
992D
100
AcDbEntity
  8
実形
 62
     0
370
    18
100
AcDbLine
 10
2096.487070440772
 20
1470.42649625579
 30
0.0
 11
2135.232399761446
 21
1470.42649625579
 31
0.0
  0
LINE
  5
9AEB
330
992D
100
AcDbEntity
  8
実形
 62
     0
370
    18
100
AcDbLine
 10
2135.232399761445
 20
980.4264962557901
 30
0.0
 11
2135.232399761446
 21
1460.42649625579
 31
0.0
  0
MTEXT
  5
9AEC
330
992D
100
AcDbEntity
  8
実形
 62
     0
100
AcDbMText
 10
2113.028142131632
 20
912.5755183133652
 30
0.0
 40
30.0
 41
0.0
 71
     5
 72
     1
  1
15
 11
0.0000000000000001
 21
1.0
 31
0.0
 73
     1
 44
1.0
1001
ACAD
1000
MTEXTBEGIN
1070
    73
1070
     1
1070
    44
1040
1.0
1070
    74
1070
     0
1000
MTEXTEND
  0
INSERT
  5
9AED
330
992D
100
AcDbEntity
  8
実形
 62
     0
370
    18
100
AcDbBlockReference
  2
_Dot
 10
2135.232399761445
 20
970.42649625579
 30
0.0
 41
10.0
 42
10.0
 43
10.0
 50
270.0
  0
INSERT
  5
9AEE
330
992D
100
AcDbEntity
  8
実形
 62
     0
370
    18
100
AcDbBlockReference
  2
_Dot
 10
2135.232399761446
 20
1470.42649625579
 30
0.0
 41
10.0
 42
10.0
 43
10.0
 50
90.0
  0
POINT
  5
9AEF
330
992D
100
AcDbEntity
  8
Defpoints
 62
     0
100
AcDbPoint
 10
2031.487070440772
 20
970.42649625579
 30
0.0
  0
POINT
  5
9AF0
330
992D
100
AcDbEntity
  8
Defpoints
 62
     0
100
AcDbPoint
 10
2031.487070440772
 20
1470.42649625579
 30
0.0
  0
POINT
  5
9AF1
330
992D
100
AcDbEntity
  8
Defpoints
 62
     0
100
AcDbPoint
 10
2135.232399761446
 20
1470.42649625579
 30
0.0
  0
ENDBLK
  5
9938
330
992D
100
AcDbEntity
  8
0
 62
     3
100
AcDbBlockEnd
  0
BLOCK
  5
9956
330
994C
100
AcDbEntity
  8
0
 62
     3
100
AcDbBlockBegin
  2
*D52
 70
     1
 10
0.0
 20
0.0
 30
0.0
  3
*D52
  1

  0
LINE
  5
9AF2
330
994C
100
AcDbEntity
  8
実形
 62
     0
370
    18
100
AcDbLine
 10
2092.487070440771
 20
1000.42649625579
 30
0.0
 11
2135.232399761445
 21
1000.42649625579
 31
0.0
  0
LINE
  5
9AF3
330
994C
100
AcDbEntity
  8
実形
 62
     0
370
    18
100
AcDbLine
 10
2096.487070440772
 20
1470.42649625579
 30
0.0
 11
2135.232399761446
 21
1470.42649625579
 31
0.0
  0
LINE
  5
9AF4
330
994C
100
AcDbEntity
  8
実形
 62
     0
370
    18
100
AcDbLine
 10
2135.232399761445
 20
1010.42649625579
 30
0.0
 11
2135.232399761446
 21
1460.42649625579
 31
0.0
  0
INSERT
  5
9AF5
330
994C
100
AcDbEntity
  8
実形
 62
     0
370
    18
100
AcDbBlockReference
  2
_Dot
 10
2135.232399761445
 20
1000.42649625579
 30
0.0
 41
10.0
 42
10.0
 43
10.0
 50
270.0
  0
INSERT
  5
9AF6
330
994C
100
AcDbEntity
  8
実形
 62
     0
370
    18
100
AcDbBlockReference
  2
_Dot
 10
2135.232399761446
 20
1470.42649625579
 30
0.0
 41
10.0
 42
10.0
 43
10.0
 50
90.0
  0
MTEXT
  5
9AF7
330
994C
100
AcDbEntity
  8
実形
 62
     0
100
AcDbMText
 10
2113.632399761446
 20
1235.42649625579
 30
0.0
 40
30.0
 41
0.0
 71
     5
 72
     1
  1
235
 11
0.0000000000000001
 21
1.0
 31
0.0
 73
     1
 44
1.0
1001
ACAD
1000
MTEXTBEGIN
1070
    73
1070
     1
1070
    44
1040
1.0
1070
    74
1070
     0
1000
MTEXTEND
  0
POINT
  5
9AF8
330
994C
100
AcDbEntity
  8
Defpoints
 62
     0
100
AcDbPoint
 10
2027.487070440772
 20
1000.42649625579
 30
0.0
  0
POINT
  5
9AF9
330
994C
100
AcDbEntity
  8
Defpoints
 62
     0
100
AcDbPoint
 10
2031.487070440772
 20
1470.42649625579
 30
0.0
  0
POINT
  5
9AFA
330
994C
100
AcDbEntity
  8
Defpoints
 62
     0
100
AcDbPoint
 10
2135.232399761446
 20
1470.42649625579
 30
0.0
  0
ENDBLK
  5
9957
330
994C
100
AcDbEntity
  8
0
 62
     3
100
AcDbBlockEnd
  0
BLOCK
  5
9976
330
996C
100
AcDbEntity
  8
0
 62
     3
100
AcDbBlockBegin
  2
*D53
 70
     1
 10
0.0
 20
0.0
 30
0.0
  3
*D53
  1

  0
LINE
  5
9AFB
330
996C
100
AcDbEntity
  8
実形
 62
     0
370
    18
100
AcDbLine
 10
2161.487070440772
 20
970.42649625579
 30
0.0
 11
2203.531603396148
 21
970.42649625579
 31
0.0
  0
LINE
  5
9AFC
330
996C
100
AcDbEntity
  8
実形
 62
     0
370
    18
100
AcDbLine
 10
2161.487070440772
 20
1470.42649625579
 30
0.0
 11
2203.531603396148
 21
1470.42649625579
 31
0.0
  0
LINE
  5
9AFD
330
996C
100
AcDbEntity
  8
実形
 62
     0
370
    18
100
AcDbLine
 10
2203.531603396148
 20
980.4264962557901
 30
0.0
 11
2203.531603396148
 21
1460.42649625579
 31
0.0
  0
INSERT
  5
9AFE
330
996C
100
AcDbEntity
  8
実形
 62
     0
370
    18
100
AcDbBlockReference
  2
_Dot
 10
2203.531603396148
 20
970.42649625579
 30
0.0
 41
10.0
 42
10.0
 43
10.0
 50
270.0
  0
INSERT
  5
9AFF
330
996C
100
AcDbEntity
  8
実形
 62
     0
370
    18
100
AcDbBlockReference
  2
_Dot
 10
2203.531603396148
 20
1470.42649625579
 30
0.0
 41
10.0
 42
10.0
 43
10.0
 50
90.0
  0
MTEXT
  5
9B00
330
996C
100
AcDbEntity
  8
実形
 62
     0
100
AcDbMText
 10
2181.931603396148
 20
1220.42649625579
 30
0.0
 40
30.0
 41
0.0
 71
     5
 72
     1
  1
250
 11
0.0000000000000001
 21
1.0
 31
0.0
 73
     1
 44
1.0
1001
ACAD
1000
MTEXTBEGIN
1070
    73
1070
     1
1070
    44
1040
1.0
1070
    74
1070
     0
1000
MTEXTEND
  0
POINT
  5
9B01
330
996C
100
AcDbEntity
  8
Defpoints
 62
     0
100
AcDbPoint
 10
2096.487070440771
 20
970.42649625579
 30
0.0
  0
POINT
  5
9B02
330
996C
100
AcDbEntity
  8
Defpoints
 62
     0
100
AcDbPoint
 10
2096.487070440771
 20
1470.42649625579
 30
0.0
  0
POINT
  5
9B03
330
996C
100
AcDbEntity
  8
Defpoints
 62
     0
100
AcDbPoint
 10
2203.531603396148
 20
1470.42649625579
 30
0.0
  0
ENDBLK
  5
9977
330
996C
100
AcDbEntity
  8
0
 62
     3
100
AcDbBlockEnd
  0
BLOCK
  5
9B3B
330
9B31
100
AcDbEntity
  8
0
 62
     3
100
AcDbBlockBegin
  2
*D54
 70
     1
 10
0.0
 20
0.0
 30
0.0
  3
*D54
  1

  0
LINE
  5
9B98
330
9B31
100
AcDbEntity
  8
実形
 62
     0
370
    18
100
AcDbLine
 10
533.7186656742415
 20
1482.442075825364
 30
0.0
 11
533.7186656742415
 21
1508.520393958963
 31
0.0
  0
LINE
  5
9B99
330
9B31
100
AcDbEntity
  8
実形
 62
     0
370
    18
100
AcDbLine
 10
593.7186656742414
 20
1482.442075825364
 30
0.0
 11
593.7186656742414
 21
1508.520393958963
 31
0.0
  0
LINE
  5
9B9A
330
9B31
100
AcDbEntity
  8
実形
 62
     0
370
    18
100
AcDbLine
 10
543.7186656742414
 20
1508.520393958963
 30
0.0
 11
583.7186656742415
 21
1508.520393958963
 31
0.0
  0
INSERT
  5
9B9B
330
9B31
100
AcDbEntity
  8
実形
 62
     0
370
    18
100
AcDbBlockReference
  2
_Dot
 10
533.7186656742415
 20
1508.520393958963
 30
0.0
 41
10.0
 42
10.0
 43
10.0
 50
180.0
  0
INSERT
  5
9B9C
330
9B31
100
AcDbEntity
  8
実形
 62
     0
370
    18
100
AcDbBlockReference
  2
_Dot
 10
593.7186656742414
 20
1508.520393958963
 30
0.0
 41
10.0
 42
10.0
 43
10.0
  0
MTEXT
  5
9B9D
330
9B31
100
AcDbEntity
  8
実形
 62
     0
100
AcDbMText
 10
563.7186656742414
 20
1530.120393958962
 30
0.0
 40
30.0
 41
0.0
 71
     5
 72
     1
  1
30
 73
     1
 44
1.0
1001
ACAD
1000
MTEXTBEGIN
1070
    73
1070
     1
1070
    44
1040
1.0
1070
    74
1070
     0
1000
MTEXTEND
  0
POINT
  5
9B9E
330
9B31
100
AcDbEntity
  8
Defpoints
 62
     0
100
AcDbPoint
 10
533.7186656742415
 20
1417.442075825364
 30
0.0
  0
POINT
  5
9B9F
330
9B31
100
AcDbEntity
  8
Defpoints
 62
     0
100
AcDbPoint
 10
593.7186656742414
 20
1417.442075825364
 30
0.0
  0
POINT
  5
9BA0
330
9B31
100
AcDbEntity
  8
Defpoints
 62
     0
100
AcDbPoint
 10
593.7186656742414
 20
1508.520393958963
 30
0.0
  0
ENDBLK
  5
9B3C
330
9B31
100
AcDbEntity
  8
0
 62
     3
100
AcDbBlockEnd
  0
BLOCK
  5
9BCF
330
9BC5
100
AcDbEntity
  8
0
 62
     3
100
AcDbBlockBegin
  2
*D55
 70
     1
 10
0.0
 20
0.0
 30
0.0
  3
*D55
  1

  0
LINE
  5
9BD1
330
9BC5
100
AcDbEntity
  8
実形
 62
     0
370
    18
100
AcDbLine
 10
1373.718665674241
 20
1482.442075825365
 30
0.0
 11
1373.718665674241
 21
1508.520393958965
 31
0.0
  0
LINE
  5
9BD2
330
9BC5
100
AcDbEntity
  8
実形
 62
     0
370
    18
100
AcDbLine
 10
1433.718665674241
 20
1482.442075825365
 30
0.0
 11
1433.718665674241
 21
1508.520393958965
 31
0.0
  0
LINE
  5
9BD3
330
9BC5
100
AcDbEntity
  8
実形
 62
     0
370
    18
100
AcDbLine
 10
1383.718665674241
 20
1508.520393958965
 30
0.0
 11
1423.718665674241
 21
1508.520393958965
 31
0.0
  0
INSERT
  5
9BD4
330
9BC5
100
AcDbEntity
  8
実形
 62
     0
370
    18
100
AcDbBlockReference
  2
_Dot
 10
1373.718665674241
 20
1508.520393958965
 30
0.0
 41
10.0
 42
10.0
 43
10.0
 50
180.0
  0
INSERT
  5
9BD5
330
9BC5
100
AcDbEntity
  8
実形
 62
     0
370
    18
100
AcDbBlockReference
  2
_Dot
 10
1433.718665674241
 20
1508.520393958965
 30
0.0
 41
10.0
 42
10.0
 43
10.0
  0
MTEXT
  5
9BD6
330
9BC5
100
AcDbEntity
  8
実形
 62
     0
100
AcDbMText
 10
1403.718665674241
 20
1530.120393958964
 30
0.0
 40
30.0
 41
0.0
 71
     5
 72
     1
  1
30
 73
     1
 44
1.0
1001
ACAD
1000
MTEXTBEGIN
1070
    73
1070
     1
1070
    44
1040
1.0
1070
    74
1070
     0
1000
MTEXTEND
  0
POINT
  5
9BD7
330
9BC5
100
AcDbEntity
  8
Defpoints
 62
     0
100
AcDbPoint
 10
1373.718665674241
 20
1417.442075825365
 30
0.0
  0
POINT
  5
9BD8
330
9BC5
100
AcDbEntity
  8
Defpoints
 62
     0
100
AcDbPoint
 10
1433.718665674241
 20
1417.442075825365
 30
0.0
  0
POINT
  5
9BD9
330
9BC5
100
AcDbEntity
  8
Defpoints
 62
     0
100
AcDbPoint
 10
1433.718665674241
 20
1508.520393958965
 30
0.0
  0
ENDBLK
  5
9BD0
330
9BC5
100
AcDbEntity
  8
0
 62
     3
100
AcDbBlockEnd
  0
ENDSEC
  0
SECTION
  2
ENTITIES
  0
LINE
  5
9C
330
1F
100
AcDbEntity
  8
枠
 62
     0
100
AcDbLine
 10
124.0
 20
4.0
 30
0.0
 11
2784.0
 21
4.0
 31
0.0
  0
LINE
  5
A0
330
1F
100
AcDbEntity
  8
枠
 62
     0
100
AcDbLine
 10
2784.0
 20
2024.0
 30
0.0
 11
124.0
 21
2024.0
 31
0.0
  0
LINE
  5
A5
330
1F
100
AcDbEntity
  8
枠
 62
     0
100
AcDbLine
 10
2784.0
 20
4.0
 30
0.0
 11
2784.0
 21
2024.0
 31
0.0
  0
LINE
  5
272
330
1F
100
AcDbEntity
  8
枠
 62
     0
100
AcDbLine
 10
2184.0
 20
134.0
 30
0.0
 11
2184.0
 21
199.0
 31
0.0
  0
LINE
  5
1B73
330
1F
100
AcDbEntity
  8
枠
 62
     0
100
AcDbLine
 10
1894.0
 20
2024.0
 30
0.0
 11
2784.0
 21
2024.0
 31
0.0
  0
LINE
  5
1B80
330
1F
100
AcDbEntity
  8
枠
 62
     0
100
AcDbLine
 10
2784.0
 20
1829.0
 30
0.0
 11
2784.0
 21
2024.0
 31
0.0
  0
LINE
  5
1B81
330
1F
100
AcDbEntity
  8
枠
 62
     0
100
AcDbLine
 10
2784.0
 20
2024.0
 30
0.0
 11
2784.000000000001
 21
1829.0
 31
0.0
  0
LINE
  5
1B84
330
1F
100
AcDbEntity
  8
枠
 62
     0
100
AcDbLine
 10
2064.0
 20
69.0
 30
0.0
 11
2784.0
 21
69.0
 31
0.0
  0
LINE
  5
1B85
330
1F
100
AcDbEntity
  8
枠
 62
     0
100
AcDbLine
 10
2064.0
 20
199.0
 30
0.0
 11
2784.0
 21
199.0
 31
0.0
  0
LINE
  5
1B86
330
1F
100
AcDbEntity
  8
枠
 62
     0
100
AcDbLine
 10
2064.0
 20
134.0
 30
0.0
 11
2784.0
 21
134.0
 31
0.0
  0
LINE
  5
1B87
330
1F
100
AcDbEntity
  8
枠
 62
     0
100
AcDbLine
 10
2064.0
 20
4.0
 30
0.0
 11
2064.0
 21
199.0
 31
0.0
  0
TEXT
  5
1B88
330
1F
100
AcDbEntity
  8
枠
 62
     0
100
AcDbText
 10
2300.255774665348
 20
16.49999999999999
 30
0.0
 40
40.0
  1
中外交易株式会社
 72
     4
 11
2488.255774665347
 21
36.5
 31
0.0
100
AcDbText
  0
LINE
  5
1B8A
330
1F
100
AcDbEntity
  8
枠
 62
     0
100
AcDbLine
 10
2184.0
 20
69.0
 30
0.0
 11
2784.0
 21
69.0
 31
0.0
  0
LINE
  5
1B8B
102
{ACAD_REACTORS
330
1B98
102
}
330
1F
100
AcDbEntity
  8
枠
 62
     0
370
     5
100
AcDbLine
 10
2207.843923164362
 20
40.53787547858519
 30
0.0
 11
2183.255774665347
 21
40.53787547858519
 31
0.0
  0
LINE
  5
1B8C
102
{ACAD_REACTORS
330
1B98
102
}
330
1F
100
AcDbEntity
  8
枠
 62
     0
370
     5
100
AcDbLine
 10
2183.255774665347
 20
40.53787547858519
 30
0.0
 11
2183.255774665347
 21
30.53787547858519
 31
0.0
  0
LINE
  5
1B8D
102
{ACAD_REACTORS
330
1B98
102
}
330
1F
100
AcDbEntity
  8
枠
 62
     0
370
     5
100
AcDbLine
 10
2183.255774665347
 20
30.53787547858519
 30
0.0
 11
2207.346428692676
 21
30.53787547858519
 31
0.0
  0
LINE
  5
1B8E
102
{ACAD_REACTORS
330
1B98
102
}
330
1F
100
AcDbEntity
  8
枠
 62
     0
370
     5
100
AcDbLine
 10
2210.641894042939
 20
56.5
 30
0.0
 11
2210.641894042939
 21
16.5
 31
0.0
  0
LINE
  5
1B8F
102
{ACAD_REACTORS
330
1B98
102
}
330
1F
100
AcDbEntity
  8
枠
 62
     0
370
     5
100
AcDbLine
 10
2210.641894042939
 20
16.5
 30
0.0
 11
2245.64189404294
 21
16.5
 31
0.0
  0
LINE
  5
1B90
102
{ACAD_REACTORS
330
1B98
102
}
330
1F
100
AcDbEntity
  8
枠
 62
     0
370
     5
100
AcDbLine
 10
2245.64189404294
 20
16.5
 30
0.0
 11
2210.641894042939
 21
36.5
 31
0.0
  0
LINE
  5
1B91
102
{ACAD_REACTORS
330
1B98
102
}
330
1F
100
AcDbEntity
  8
枠
 62
     0
370
     5
100
AcDbLine
 10
2210.641894042939
 20
36.5
 30
0.0
 11
2245.64189404294
 21
56.5
 31
0.0
  0
LINE
  5
1B92
102
{ACAD_REACTORS
330
1B98
102
}
330
1F
100
AcDbEntity
  8
枠
 62
     0
370
     5
100
AcDbLine
 10
2245.64189404294
 20
56.5
 30
0.0
 11
2210.641894042939
 21
56.5
 31
0.0
  0
LINE
  5
1B93
102
{ACAD_REACTORS
330
1B98
102
}
330
1F
100
AcDbEntity
  8
枠
 62
     0
370
     5
100
AcDbLine
 10
2276.75434681301
 20
40.53787547858519
 30
0.0
 11
2252.166198313995
 21
40.53787547858519
 31
0.0
  0
LINE
  5
1B94
102
{ACAD_REACTORS
330
1B98
102
}
330
1F
100
AcDbEntity
  8
枠
 62
     0
370
     5
100
AcDbLine
 10
2252.166198313995
 20
40.53787547858519
 30
0.0
 11
2252.166198313995
 21
30.53787547858519
 31
0.0
  0
LINE
  5
1B95
102
{ACAD_REACTORS
330
1B98
102
}
330
1F
100
AcDbEntity
  8
枠
 62
     0
370
     5
100
AcDbLine
 10
2252.166198313995
 20
30.53787547858519
 30
0.0
 11
2276.256852341323
 21
30.53787547858519
 31
0.0
  0
ARC
  5
1B96
102
{ACAD_REACTORS
330
1B98
102
}
330
1F
100
AcDbEntity
  8
枠
 62
     0
370
     5
100
AcDbCircle
 10
2188.255774665348
 20
36.5
 30
0.0
 40
20.0
100
AcDbArc
 50
11.64772366708617
 51
342.6561058784773
  0
ARC
  5
1B97
102
{ACAD_REACTORS
330
1B98
102
}
330
1F
100
AcDbEntity
  8
枠
 62
     0
370
     5
100
AcDbCircle
 10
2257.166198313996
 20
36.5
 30
0.0
 40
20.0
100
AcDbArc
 50
11.64772366708617
 51
342.6561058784773
  0
HATCH
  5
1B98
330
1F
100
AcDbEntity
  8
枠
 62
     0
100
AcDbHatch
 10
0.0
 20
0.0
 30
0.0
210
0.0
220
0.0
230
1.0
  2
SOLID
 70
     1
 71
     1
 91
        3
 92
        1
 93
        4
 72
     2
 10
2257.166198313996
 20
36.5
 40
20.0
 50
11.64772366708617
 51
342.6561058784773
 73
     1
 72
     1
 10
2276.256852341323
 20
30.53787547858519
 11
2252.166198313995
 21
30.53787547858519
 72
     1
 10
2252.166198313995
 20
30.53787547858519
 11
2252.166198313995
 21
40.53787547858519
 72
     1
 10
2252.166198313995
 20
40.53787547858519
 11
2276.75434681301
 21
40.53787547858519
 97
        4
330
1B97
330
1B95
330
1B94
330
1B93
 92
        1
 93
        4
 72
     2
 10
2188.255774665348
 20
36.5
 40
20.0
 50
11.64772366708617
 51
342.6561058784773
 73
     1
 72
     1
 10
2207.346428692676
 20
30.53787547858519
 11
2183.255774665347
 21
30.53787547858519
 72
     1
 10
2183.255774665347
 20
30.53787547858519
 11
2183.255774665347
 21
40.53787547858519
 72
     1
 10
2183.255774665347
 20
40.53787547858519
 11
2207.843923164362
 21
40.53787547858519
 97
        4
330
1B96
330
1B8D
330
1B8C
330
1B8B
 92
        1
 93
        5
 72
     1
 10
2245.64189404294
 20
56.5
 11
2210.641894042939
 21
56.5
 72
     1
 10
2210.641894042939
 20
56.5
 11
2210.641894042939
 21
16.5
 72
     1
 10
2210.641894042939
 20
16.5
 11
2245.64189404294
 21
16.5
 72
     1
 10
2245.64189404294
 20
16.5
 11
2210.641894042939
 21
36.5
 72
     1
 10
2210.641894042939
 20
36.5
 11
2245.64189404294
 21
56.5
 97
        5
330
1B92
330
1B8E
330
1B8F
330
1B90
330
1B91
 75
     0
 76
     1
 98
        1
 10
-60.0
 20
0.0
  0
LINE
  5
1B99
330
1F
100
AcDbEntity
  8
枠
 62
     0
100
AcDbLine
 10
2184.0
 20
69.0
 30
0.0
 11
2184.0
 21
199.0
 31
0.0
  0
LINE
  5
1B9B
330
1F
100
AcDbEntity
  8
枠
 62
     0
100
AcDbLine
 10
2784.0
 20
69.0
 30
0.0
 11
2784.0
 21
134.0
 31
0.0
  0
LINE
  5
1B9C
330
1F
100
AcDbEntity
  8
枠
 62
     0
100
AcDbLine
 10
2784.0
 20
134.0
 30
0.0
 11
2784.0
 21
199.0
 31
0.0
  0
LINE
  5
1B9D
330
1F
100
AcDbEntity
  8
枠
 62
     0
100
AcDbLine
 10
2784.0
 20
4.0
 30
0.0
 11
2784.0
 21
69.0
 31
0.0
  0
LINE
  5
1BA1
330
1F
100
AcDbEntity
  8
枠
 62
     0
100
AcDbLine
 10
2784.0
 20
1829.0
 30
0.0
 11
2784.0
 21
2024.000000000001
 31
0.0
  0
TEXT
  5
5E5F
330
1F
100
AcDbEntity
  8
枠
 62
     0
100
AcDbText
 10
2086.666666666667
 20
84.0
 30
0.0
 40
35.0
  1
品番
 72
     4
 11
2124.0
 21
101.5
 31
0.0
100
AcDbText
  0
TEXT
  5
5E68
330
1F
100
AcDbEntity
  8
枠
 62
     0
100
AcDbText
 10
2086.666666666667
 20
149.0
 30
0.0
 40
35.0
  1
名称
 72
     4
 11
2124.0
 21
166.5
 31
0.0
100
AcDbText
  0
TEXT
  5
68D6
330
1F
100
AcDbEntity
  8
実形
100
AcDbText
 10
2255.608802850728
 20
146.6405006610517
 30
0.0
 40
35.0
  1
ｶｯﾃｨﾝｸﾞﾎﾞｰﾄﾞ
  7
ms明朝
 72
     4
 11
2409.208802850728
 21
163.9405006610517
 31
0.0
100
AcDbText
  0
LINE
  5
7FC1
330
1F
100
AcDbEntity
  8
枠
 62
     0
100
AcDbLine
 10
124.0
 20
2024.0
 30
0.0
 11
124.0
 21
4.0
 31
0.0
  0
TEXT
  5
8858
330
1F
100
AcDbEntity
  8
実形
100
AcDbText
 10
1834.097120841273
 20
1669.190298857569
 30
0.0
 40
40.0
  1
B-B\U+00b4断面
 72
     4
 11
1960.763787507939
 21
1689.190298857569
 31
0.0
100
AcDbText
  0
TEXT
  5
8939
330
1F
100
AcDbEntity
  8
実形
100
AcDbText
 10
2255.598825447652
 20
83.14946542694997
 30
0.0
 40
35.0
  1
PRS250-15MN
  7
ms明朝
 72
     4
 11
2396.398825447652
 21
100.2494654269499
 31
0.0
100
AcDbText
  0
LINE
  5
9342
330
1F
100
AcDbEntity
  8
枠
100
AcDbLine
 10
2784.0
 20
1959.0
 30
0.0
 11
2064.0
 21
1959.0
 31
0.0
  0
LINE
  5
9343
330
1F
100
AcDbEntity
  8
枠
100
AcDbLine
 10
2784.0
 20
1893.999999999999
 30
0.0
 11
2064.0
 21
1893.999999999999
 31
0.0
  0
LINE
  5
9344
330
1F
100
AcDbEntity
  8
枠
100
AcDbLine
 10
2064.0
 20
1893.999999999999
 30
0.0
 11
2064.0
 21
2024.0
 31
0.0
  0
TEXT
  5
9345
330
1F
100
AcDbEntity
  8
枠
100
AcDbText
 10
2610.032183533279
 20
1976.5
 30
0.0
 40
30.0
  1
梱包
 72
     4
 11
2642.032183533279
 21
1991.5
 31
0.0
100
AcDbText
  0
LINE
  5
9346
330
1F
100
AcDbEntity
  8
枠
100
AcDbLine
 10
2512.351089910522
 20
1893.999999999999
 30
0.0
 11
2512.351089910522
 21
2024.0
 31
0.0
  0
LINE
  5
9347
330
1F
100
AcDbEntity
  8
枠
100
AcDbLine
 10
2317.81684247519
 20
1893.999999999999
 30
0.0
 11
2317.81684247519
 21
2024.0
 31
0.0
  0
TEXT
  5
9349
330
1F
100
AcDbEntity
  8
枠
100
AcDbText
 10
2144.5
 20
1976.5
 30
0.0
 40
30.0
  1
材質
 72
     4
 11
2176.5
 21
1991.5
 31
0.0
100
AcDbText
  0
TEXT
  5
934B
330
1F
100
AcDbEntity
  8
枠
100
AcDbText
 10
2376.771452399255
 20
1976.499999999999
 30
0.0
 40
30.0
  1
カラー
 72
     4
 11
2426.771452399254
 21
1991.5
 31
0.0
100
AcDbText
  0
TEXT
  5
93B9
330
1F
100
AcDbEntity
  8
枠
100
AcDbText
 10
2523.445286297019
 20
1911.147384958693
 30
0.0
 40
30.0
  1
シュリンク梱包
 72
     4
 11
2647.445286297019
 21
1926.147384958692
 31
0.0
100
AcDbText
  0
TEXT
  5
93C2
330
1F
100
AcDbEntity
  8
枠
100
AcDbText
 10
2377.530334516651
 20
1911.147384958693
 30
0.0
 40
30.0
  1
白系
 72
     4
 11
2411.530334516652
 21
1926.147384958692
 31
0.0
100
AcDbText
  0
TEXT
  5
93CB
330
1F
100
AcDbEntity
  8
枠
100
AcDbText
 10
2079.198598973639
 20
1911.147384958693
 30
0.0
 40
30.0
  1
ポリエチレン
 72
     4
 11
2183.198598973639
 21
1926.147384958692
 31
0.0
100
AcDbText
  0
LINE
  5
9477
330
1F
100
AcDbEntity
  8
実形
100
AcDbLine
 10
593.7186656742414
 20
1470.42649625579
 30
0.0
 11
1373.718665674241
 21
1470.42649625579
 31
0.0
  0
LINE
  5
9478
330
1F
100
AcDbEntity
  8
実形
100
AcDbLine
 10
533.7186656742415
 20
1410.42649625579
 30
0.0
 11
533.7186656742415
 21
1190.426496255789
 31
0.0
  0
LINE
  5
9479
330
1F
100
AcDbEntity
  8
実形
100
AcDbLine
 10
753.7186656742415
 20
970.4264962557898
 30
0.0
 11
1213.718665674241
 21
970.42649625579
 31
0.0
  0
LINE
  5
947A
330
1F
100
AcDbEntity
  8
実形
100
AcDbLine
 10
1433.718665674241
 20
1410.426496255789
 30
0.0
 11
1433.718665674241
 21
1190.42649625579
 31
0.0
  0
LINE
  5
947B
330
1F
100
AcDbEntity
  8
実形
100
AcDbLine
 10
1403.718665674241
 20
1410.42649625579
 30
0.0
 11
1403.718665674242
 21
1190.42649625579
 31
0.0
  0
LINE
  5
947C
330
1F
100
AcDbEntity
  8
実形
100
AcDbLine
 10
753.7186656742415
 20
1000.42649625579
 30
0.0
 11
1213.718665674242
 21
1000.42649625579
 31
0.0
  0
LINE
  5
947D
330
1F
100
AcDbEntity
  8
実形
100
AcDbLine
 10
563.7186656742414
 20
1410.426496255789
 30
0.0
 11
563.7186656742414
 21
1190.42649625579
 31
0.0
  0
LINE
  5
947F
330
1F
100
AcDbEntity
  8
実形
100
AcDbLine
 10
537.7186656742416
 20
556.8402422394554
 30
0.0
 11
1429.718665674242
 21
556.8402422394556
 31
0.0
  0
LINE
  5
9480
330
1F
100
AcDbEntity
  8
実形
100
AcDbLine
 10
567.7186656742415
 20
526.8402422394558
 30
0.0
 11
1399.718665674242
 21
526.8402422394554
 31
0.0
  0
LINE
  5
9481
330
1F
100
AcDbEntity
  8
実形
100
AcDbLine
 10
1407.718665674242
 20
536.8402422394556
 30
0.0
 11
1429.718665674241
 21
536.8402422394555
 31
0.0
  0
LINE
  5
9482
330
1F
100
AcDbEntity
  8
実形
100
AcDbLine
 10
1433.718665674242
 20
552.8402422394556
 30
0.0
 11
1433.718665674241
 21
540.8402422394555
 31
0.0
  0
LINE
  5
9483
330
1F
100
AcDbEntity
  8
実形
100
AcDbLine
 10
1403.718665674242
 20
532.8402422394556
 30
0.0
 11
1403.718665674242
 21
530.8402422394554
 31
0.0
  0
LINE
  5
9484
330
1F
100
AcDbEntity
  8
実形
100
AcDbLine
 10
563.7186656742415
 20
532.8402422394557
 30
0.0
 11
563.7186656742415
 21
530.8402422394558
 31
0.0
  0
LINE
  5
9485
330
1F
100
AcDbEntity
  8
実形
100
AcDbLine
 10
533.7186656742415
 20
552.8402422394555
 30
0.0
 11
533.7186656742415
 21
540.8402422394556
 31
0.0
  0
DIMENSION
  5
9486
330
1F
100
AcDbEntity
  8
実形
100
AcDbDimension
  2
*D34
 10
1403.718665674241
 20
1601.995634219122
 30
0.0
 11
565.6039158638268
 21
1623.595634219122
 31
0.0
 70
   160
  1
15
 71
     5
 42
870.0
  3
ISO-25
100
AcDbAlignedDimension
 13
533.7186656742415
 23
1491.095777512273
 33
0.0
 14
1403.718665674241
 24
1491.095777512274
 34
0.0
100
AcDbRotatedDimension
1001
ACAD
1000
DSTYLE
1002
{
1070
    41
1040
10.0
1070
   140
1040
30.0
1070
   147
1040
6.599999999999998
1070
   279
1070
     2
1070
   342
1005
30D
1070
   371
1070
    18
1070
   372
1070
    18
1002
}
  0
DIMENSION
  5
9493
330
1F
100
AcDbEntity
  8
実形
100
AcDbDimension
  2
*D35
 10
563.7186656742414
 20
1601.995634219122
 30
0.0
 11
1405.354223618091
 21
1623.595634219122
 31
0.0
 70
   160
  1
15
 71
     5
 42
870.0
  3
ISO-25
100
AcDbAlignedDimension
 13
1433.718665674241
 23
1491.095777512273
 33
0.0
 14
563.7186656742414
 24
1491.095777512273
 34
0.0
100
AcDbRotatedDimension
1001
ACAD
1000
DSTYLE
1002
{
1070
    41
1040
10.0
1070
   140
1040
30.0
1070
   147
1040
6.599999999999998
1070
   279
1070
     2
1070
   342
1005
30D
1070
   371
1070
    18
1070
   372
1070
    18
1002
}
  0
DIMENSION
  5
94CD
330
1F
100
AcDbEntity
  8
実形
100
AcDbDimension
  2
*D36
 10
1403.718665674241
 20
1601.995634219122
 30
0.0
 11
983.7186656742415
 21
1623.595634219122
 31
0.0
 70
    32
  1
420
 71
     5
 42
840.0
  3
ISO-25
100
AcDbAlignedDimension
 13
563.7186656742414
 23
1491.095777512273
 33
0.0
 14
1403.718665674241
 24
1491.095777512273
 34
0.0
100
AcDbRotatedDimension
1001
ACAD
1000
DSTYLE
1002
{
1070
    41
1040
10.0
1070
   140
1040
30.0
1070
   147
1040
6.599999999999998
1070
   279
1070
     2
1070
   342
1005
30D
1070
   371
1070
    18
1070
   372
1070
    18
1002
}
  0
DIMENSION
  5
94E3
330
1F
100
AcDbEntity
  8
実形
100
AcDbDimension
  2
*D37
 10
1433.718665674241
 20
1674.364643608453
 30
0.0
 11
983.7186656742415
 21
1695.964643608452
 31
0.0
 70
    32
  1
450
 71
     5
 42
900.0
  3
ISO-25
100
AcDbAlignedDimension
 13
533.7186656742415
 23
1491.095777512273
 33
0.0
 14
1433.718665674241
 24
1491.095777512273
 34
0.0
100
AcDbRotatedDimension
1001
ACAD
1000
DSTYLE
1002
{
1070
    41
1040
10.0
1070
   140
1040
30.0
1070
   147
1040
6.599999999999998
1070
   279
1070
     2
1070
   342
1005
30D
1070
   371
1070
    18
1070
   372
1070
    18
1002
}
  0
DIMENSION
  5
94F9
330
1F
100
AcDbEntity
  8
実形
100
AcDbDimension
  2
*D38
 10
420.5407684776418
 20
1470.42649625579
 30
0.0
 11
398.9407684776416
 21
1220.42649625579
 31
0.0
 70
    32
  1
235
 71
     5
 42
500.0
  3
ISO-25
100
AcDbAlignedDimension
 13
533.7186656742415
 23
970.42649625579
 33
0.0
 14
533.7186656742414
 24
1470.42649625579
 34
0.0
 50
90.0
100
AcDbRotatedDimension
1001
ACAD
1000
DSTYLE
1002
{
1070
    41
1040
10.0
1070
   140
1040
30.0
1070
   147
1040
6.599999999999998
1070
   279
1070
     2
1070
   342
1005
30D
1070
   371
1070
    18
1070
   372
1070
    18
1002
}
  0
DIMENSION
  5
9506
330
1F
100
AcDbEntity
  8
実形
100
AcDbDimension
  2
*D39
 10
420.5407684776418
 20
1470.42649625579
 30
0.0
 11
398.9407684776416
 21
998.7411334854469
 31
0.0
 70
   160
  1
15
 71
     5
 42
470.0000000000001
  3
ISO-25
100
AcDbAlignedDimension
 13
533.7186656742415
 23
1000.42649625579
 33
0.0
 14
533.7186656742415
 24
1470.42649625579
 34
0.0
 50
90.0
100
AcDbRotatedDimension
1001
ACAD
1000
DSTYLE
1002
{
1070
    41
1040
10.0
1070
   140
1040
30.0
1070
   147
1040
6.599999999999998
1070
   279
1070
     2
1070
   342
1005
30D
1070
   371
1070
    18
1070
   372
1070
    18
1002
}
  0
DIMENSION
  5
9537
330
1F
100
AcDbEntity
  8
実形
100
AcDbDimension
  2
*D40
 10
357.7137767616514
 20
970.42649625579
 30
0.0
 11
336.1137767616512
 21
1220.42649625579
 31
0.0
 70
    32
  1
250
 71
     5
 42
500.0
  3
ISO-25
100
AcDbAlignedDimension
 13
533.7186656742415
 23
1470.42649625579
 33
0.0
 14
533.7186656742415
 24
970.42649625579
 34
0.0
 50
90.0
100
AcDbRotatedDimension
1001
ACAD
1000
DSTYLE
1002
{
1070
    41
1040
10.0
1070
   140
1040
30.0
1070
   147
1040
6.599999999999998
1070
   279
1070
     2
1070
   342
1005
30D
1070
   371
1070
    18
1070
   372
1070
    18
1002
}
  0
TEXT
  5
95E7
330
1F
100
AcDbEntity
  8
実形
100
AcDbText
 10
1510.057135586021
 20
1311.706811798404
 30
0.0
 40
30.0
  1
A
 72
     4
 11
1520.057135586021
 21
1326.706811798404
 31
0.0
100
AcDbText
  0
TEXT
  5
95E8
330
1F
100
AcDbEntity
  8
実形
100
AcDbText
 10
1523.408580774592
 20
1309.931358010725
 30
0.0
 40
30.0
  1
´
 72
     4
 11
1537.408580774592
 21
1337.931358010725
 31
0.0
100
AcDbText
  0
TEXT
  5
95EA
330
1F
100
AcDbEntity
  8
実形
100
AcDbText
 10
974.9988262236984
 20
881.6593087007159
 30
0.0
 40
30.0
  1
B
 72
     4
 11
984.9988262236983
 21
896.6593087007158
 31
0.0
100
AcDbText
  0
TEXT
  5
95EC
330
1F
100
AcDbEntity
  8
実形
100
AcDbText
 10
478.7492086969469
 20
1315.747123713941
 30
0.0
 40
30.0
  1
A
 72
     4
 11
488.7492086969468
 21
1330.747123713941
 31
0.0
100
AcDbText
  0
TEXT
  5
95ED
330
1F
100
AcDbEntity
  8
実形
100
AcDbText
 10
974.5615517854494
 20
1506.991680867906
 30
0.0
 40
30.0
  1
B
 72
     4
 11
984.5615517854493
 21
1521.991680867906
 31
0.0
100
AcDbText
  0
LINE
  5
95EE
330
1F
100
AcDbEntity
  8
実形
  6
ACAD_ISO08W100
100
AcDbLine
 10
510.2547751108286
 20
1327.014587781154
 30
0.0
 11
1483.852854091838
 21
1327.014587781153
 31
0.0
  0
LINE
  5
95EF
330
1F
100
AcDbEntity
  8
実形
  6
ACAD_ISO08W100
100
AcDbLine
 10
983.7186656742415
 20
1496.814878935342
 30
0.0
 11
983.7186656742415
 21
937.699911212484
 31
0.0
  0
TEXT
  5
95F8
330
1F
100
AcDbEntity
  8
実形
100
AcDbText
 10
987.0949177809142
 20
885.3335675993347
 30
0.0
 40
30.0
  1
´
 72
     4
 11
1001.094917780914
 21
913.3335675993349
 31
0.0
100
AcDbText
  0
LINE
  5
9649
330
1F
100
AcDbEntity
  8
実形
100
AcDbLine
 10
500.2482971299233
 20
526.8402422394556
 30
0.0
 11
429.3004363737401
 21
526.8402422394557
 31
0.0
  0
LINE
  5
964A
330
1F
100
AcDbEntity
  8
実形
100
AcDbLine
 10
500.2482971299233
 20
536.8402422394557
 30
0.0
 11
470.7394949120645
 21
536.8402422394557
 31
0.0
  0
LINE
  5
964B
330
1F
100
AcDbEntity
  8
実形
100
AcDbLine
 10
500.2482971299233
 20
556.8402422394556
 30
0.0
 11
429.3004363737401
 21
556.8402422394556
 31
0.0
  0
LINE
  5
964C
330
1F
100
AcDbEntity
  8
実形
100
AcDbLine
 10
429.3004363737401
 20
556.8402422394556
 30
0.0
 11
429.3004363737401
 21
526.8402422394556
 31
0.0
  0
LINE
  5
964D
330
1F
100
AcDbEntity
  8
実形
100
AcDbLine
 10
470.7394949120645
 20
556.8402422394556
 30
0.0
 11
470.7394949120645
 21
526.8402422394556
 31
0.0
  0
TEXT
  5
964E
330
1F
100
AcDbEntity
  8
実形
100
AcDbText
 10
465.5217629290032
 20
522.3144428817299
 30
0.0
 40
10.0
  1
●
 72
     4
 11
470.1884295956698
 21
527.31444288173
 31
0.0
100
AcDbText
  0
TEXT
  5
964F
330
1F
100
AcDbEntity
  8
実形
100
AcDbText
 10
465.2403423980735
 20
532.4734078286561
 30
0.0
 40
10.0
  1
●
 72
     4
 11
469.9070090647402
 21
537.4734078286561
 31
0.0
100
AcDbText
  0
TEXT
  5
9650
330
1F
100
AcDbEntity
  8
実形
100
AcDbText
 10
465.5217629290032
 20
551.5741827265669
 30
0.0
 40
10.0
  1
●
 72
     4
 11
470.1884295956698
 21
556.5741827265669
 31
0.0
100
AcDbText
  0
TEXT
  5
9651
330
1F
100
AcDbEntity
  8
実形
100
AcDbText
 10
424.7501174162565
 20
521.5822458334469
 30
0.0
 40
10.0
  1
●
 72
     4
 11
429.4167840829232
 21
526.5822458334469
 31
0.0
100
AcDbText
  0
TEXT
  5
9652
330
1F
100
AcDbEntity
  8
実形
100
AcDbText
 10
424.6238834853497
 20
551.6079682830245
 30
0.0
 40
10.0
  1
●
 72
     4
 11
429.2905501520164
 21
556.6079682830245
 31
0.0
100
AcDbText
  0
TEXT
  5
9653
330
1F
100
AcDbEntity
  8
実形
100
AcDbText
 10
467.0195994101397
 20
570.92797183732
 30
0.0
 40
30.0
  1
11
 50
90.0
 72
     2
 11
471.0195994101396
 21
600.92797183732
 31
0.0
100
AcDbText
 73
     1
  0
TEXT
  5
9654
330
1F
100
AcDbEntity
  8
実形
100
AcDbText
 10
470.6004517587663
 20
498.732514197728
 30
0.0
 40
30.0
  1
4
 50
90.0
 72
     2
 11
474.6004517587663
 21
518.7325141977281
 31
0.0
100
AcDbText
 73
     1
  0
TEXT
  5
9655
330
1F
100
AcDbEntity
  8
実形
100
AcDbText
 10
410.301820061879
 20
520.7760342115616
 30
0.0
 40
30.0
  1
15
 50
90.0
 72
     2
 11
414.301820061879
 21
560.7760342115616
 31
0.0
100
AcDbText
 73
     1
  0
DIMENSION
  5
9657
330
1F
100
AcDbEntity
  8
実形
100
AcDbDimension
  2
*D41
 10
1403.718665674241
 20
376.0477905690286
 30
0.0
 11
548.21610589378
 21
458.8258408816436
 31
0.0
 70
   160
  1
15
 71
     5
 42
870.0
  3
ISO-25
100
AcDbAlignedDimension
 13
533.7186656742416
 23
494.9499061021996
 33
0.0
 14
1403.718665674241
 24
494.9499061021996
 34
0.0
100
AcDbRotatedDimension
1001
ACAD
1000
DSTYLE
1002
{
1070
    41
1040
10.0
1070
   140
1040
30.0
1070
   147
1040
6.599999999999998
1070
   279
1070
     2
1070
   342
1005
30D
1070
   371
1070
    18
1070
   372
1070
    18
1002
}
  0
DIMENSION
  5
9665
330
1F
100
AcDbEntity
  8
実形
100
AcDbDimension
  2
*D42
 10
1433.718665674241
 20
376.0477905690286
 30
0.0
 11
1419.142235213279
 21
453.5916575847977
 31
0.0
 70
   160
  1
15
 71
     5
 42
869.9999999999999
  3
ISO-25
100
AcDbAlignedDimension
 13
563.7186656742415
 23
494.9499061021996
 33
0.0
 14
1433.718665674241
 24
494.9499061021996
 34
0.0
100
AcDbRotatedDimension
1001
ACAD
1000
DSTYLE
1002
{
1070
    41
1040
10.0
1070
   140
1040
30.0
1070
   147
1040
6.599999999999998
1070
   279
1070
     2
1070
   342
1005
30D
1070
   371
1070
    18
1070
   372
1070
    18
1002
}
  0
DIMENSION
  5
969F
330
1F
100
AcDbEntity
  8
実形
100
AcDbDimension
  2
*D43
 10
1403.718665674241
 20
376.0477905690286
 30
0.0
 11
983.7186656742417
 21
397.6477905690286
 31
0.0
 70
    32
  1
420
 71
     5
 42
840.0000000000002
  3
ISO-25
100
AcDbAlignedDimension
 13
563.7186656742415
 23
494.9499061021996
 33
0.0
 14
1403.718665674241
 24
494.9499061021996
 34
0.0
100
AcDbRotatedDimension
1001
ACAD
1000
DSTYLE
1002
{
1070
    41
1040
10.0
1070
   140
1040
30.0
1070
   147
1040
6.599999999999998
1070
   279
1070
     2
1070
   342
1005
30D
1070
   371
1070
    18
1070
   372
1070
    18
1002
}
  0
DIMENSION
  5
96B5
330
1F
100
AcDbEntity
  8
実形
100
AcDbDimension
  2
*D44
 10
1433.718665674241
 20
307.6735643340971
 30
0.0
 11
983.7186656742415
 21
329.2735643340972
 31
0.0
 70
    32
  1
450
 71
     5
 42
899.9999999999996
  3
ISO-25
100
AcDbAlignedDimension
 13
533.7186656742416
 23
494.9499061021996
 33
0.0
 14
1433.718665674241
 24
494.9499061021928
 34
0.0
100
AcDbRotatedDimension
1001
ACAD
1000
DSTYLE
1002
{
1070
    41
1040
10.0
1070
   140
1040
30.0
1070
   147
1040
6.599999999999998
1070
   279
1070
     2
1070
   342
1005
30D
1070
   371
1070
    18
1070
   372
1070
    18
1002
}
  0
TEXT
  5
9734
330
1F
100
AcDbEntity
  8
実形
100
AcDbText
 10
1528.244055705581
 20
577.2771846972436
 30
0.0
 40
30.0
  1
2R(全周)
 72
     2
 11
1690.244055705581
 21
573.2771846972436
 31
0.0
100
AcDbText
 73
     1
  0
LEADER
  5
9735
330
1F
100
AcDbEntity
  8
実形
100
AcDbLeader
  3
ISO-25
 76
     2
 10
1440.43048561794
 20
560.5100447092354
 30
0.0
 10
1505.998006526113
 20
585.4888985720207
 30
0.0
1001
ACAD
1000
DSTYLE
1002
{
1070
    77
1070
     0
1070
    41
1040
10.0
1070
   140
1040
30.0
1070
   147
1040
6.599999999999998
1070
   279
1070
     2
1070
   342
1005
30D
1070
   371
1070
    13
1070
   372
1070
    18
1002
}
  0
LEADER
  5
9737
330
1F
100
AcDbEntity
  8
実形
100
AcDbLeader
  3
ISO-25
 76
     2
 10
1442.768781427392
 20
534.4457866887442
 30
0.0
 10
1505.543885552673
 20
521.6707461427431
 30
0.0
1001
ACAD
1000
DSTYLE
1002
{
1070
    77
1070
     0
1070
    41
1040
10.0
1070
   140
1040
30.0
1070
   147
1040
6.599999999999998
1070
   279
1070
     2
1070
   342
1005
30D
1070
   371
1070
    13
1070
   372
1070
    18
1002
}
  0
LEADER
  5
9738
330
1F
100
AcDbEntity
  8
実形
100
AcDbLeader
  3
ISO-25
 76
     2
 10
1417.888974833744
 20
528.9504735003247
 30
0.0
 10
1498.321183467144
 20
462.190991886875
 30
0.0
1001
ACAD
1000
DSTYLE
1002
{
1070
    77
1070
     0
1070
    41
1040
10.0
1070
   140
1040
30.0
1070
   147
1040
6.599999999999998
1070
   279
1070
     2
1070
   342
1005
30D
1070
   371
1070
    13
1070
   372
1070
    18
1002
}
  0
LEADER
  5
9739
330
1F
100
AcDbEntity
  8
実形
100
AcDbLeader
  3
ISO-25
 76
     2
 10
1397.05937455156
 20
518.2490988590707
 30
0.0
 10
1264.794122432622
 20
456.6937184335747
 30
0.0
1001
ACAD
1000
DSTYLE
1002
{
1070
    77
1070
     0
1070
    41
1040
10.0
1070
   140
1040
30.0
1070
   147
1040
6.599999999999998
1070
   279
1070
     2
1070
   342
1005
30D
1070
   371
1070
    13
1070
   372
1070
    18
1002
}
  0
TEXT
  5
9742
330
1F
100
AcDbEntity
  8
実形
100
AcDbText
 10
1505.971149628805
 20
505.238449636261
 30
0.0
 40
30.0
  1
糸面（全周)
 72
     2
 11
1693.971149628805
 21
501.238449636261
 31
0.0
100
AcDbText
 73
     1
  0
ARC
  5
9743
330
1F
100
AcDbEntity
  8
実形
100
AcDbCircle
 10
1399.718665674242
 20
530.8402422394554
 30
0.0
 40
4.0
100
AcDbArc
 50
270.0
 51
0.0
  0
ARC
  5
9744
330
1F
100
AcDbEntity
  8
実形
100
AcDbCircle
 10
1407.718665674242
 20
532.8402422394556
 30
0.0
 40
4.0
100
AcDbArc
 50
89.99999999999998
 51
180.0000000000005
  0
ARC
  5
9745
330
1F
100
AcDbEntity
  8
実形
100
AcDbCircle
 10
1429.718665674241
 20
540.8402422394555
 30
0.0
 40
4.0
100
AcDbArc
 50
269.9999999999998
 51
359.9999999999996
  0
ARC
  5
9746
330
1F
100
AcDbEntity
  8
実形
100
AcDbCircle
 10
1429.718665674242
 20
552.8402422394556
 30
0.0
 40
4.0
100
AcDbArc
 50
359.9999999999992
 51
90.0
  0
LINE
  5
9747
330
1F
100
AcDbEntity
  8
実形
100
AcDbLine
 10
537.7186656742416
 20
536.8402422394556
 30
0.0
 11
559.7186656742415
 21
536.8402422394557
 31
0.0
  0
ARC
  5
9748
330
1F
100
AcDbEntity
  8
実形
100
AcDbCircle
 10
567.7186656742415
 20
530.8402422394558
 30
0.0
 40
4.0
100
AcDbArc
 50
179.9999999999998
 51
270.0
  0
ARC
  5
9749
330
1F
100
AcDbEntity
  8
実形
100
AcDbCircle
 10
559.7186656742415
 20
532.8402422394557
 30
0.0
 40
4.0
100
AcDbArc
 50
359.9999999999997
 51
89.99999999999998
  0
ARC
  5
974A
330
1F
100
AcDbEntity
  8
実形
100
AcDbCircle
 10
537.7186656742416
 20
540.8402422394556
 30
0.0
 40
4.0
100
AcDbArc
 50
180.0000000000002
 51
270.0
  0
ARC
  5
974B
330
1F
100
AcDbEntity
  8
実形
100
AcDbCircle
 10
537.7186656742416
 20
552.8402422394555
 30
0.0
 40
4.0
100
AcDbArc
 50
90.0
 51
180.0
  0
TEXT
  5
97AD
330
1F
100
AcDbEntity
  8
実形
100
AcDbText
 10
428.8095932713895
 20
662.7909432189099
 30
0.0
 40
40.0
  1
A-A´断面
 72
     4
 11
555.4762599380561
 21
682.7909432189098
 31
0.0
100
AcDbText
  0
LINE
  5
990F
330
1F
100
AcDbEntity
  8
実形
100
AcDbLine
 10
1981.381013672739
 20
1466.42649625579
 30
0.0
 11
1981.381013672739
 21
974.4264962557902
 31
0.0
  0
LINE
  5
9911
330
1F
100
AcDbEntity
  8
実形
100
AcDbLine
 10
2011.381013672739
 20
1466.42649625579
 30
0.0
 11
2011.381013672739
 21
1004.42649625579
 31
0.0
  0
LINE
  5
9912
330
1F
100
AcDbEntity
  8
実形
100
AcDbLine
 10
2001.381013672739
 20
996.4264962557901
 30
0.0
 11
2001.381013672739
 21
974.4264962557902
 31
0.0
  0
LINE
  5
9913
330
1F
100
AcDbEntity
  8
実形
100
AcDbLine
 10
1985.381013672738
 20
970.4264962557902
 30
0.0
 11
1997.381013672739
 21
970.4264962557902
 31
0.0
  0
LINE
  5
9914
330
1F
100
AcDbEntity
  8
実形
100
AcDbLine
 10
2005.381013672739
 20
1000.42649625579
 30
0.0
 11
2007.381013672739
 21
1000.42649625579
 31
0.0
  0
LINE
  5
9915
330
1F
100
AcDbEntity
  8
実形
100
AcDbLine
 10
1985.381013672738
 20
1470.42649625579
 30
0.0
 11
2007.381013672739
 21
1470.42649625579
 31
0.0
  0
TEXT
  5
9925
330
1F
100
AcDbEntity
  8
実形
100
AcDbText
 10
1917.304402468306
 20
1577.597040125793
 30
0.0
 40
30.0
  1
2R（全周）
 72
     2
 11
2097.304402468306
 21
1573.597040125793
 31
0.0
100
AcDbText
 73
     1
  0
LEADER
  5
9927
330
1F
100
AcDbEntity
  8
実形
100
AcDbLeader
  3
ISO-25
 76
     2
 10
1985.585491037175
 20
1479.275042264657
 30
0.0
 10
1947.853753289543
 20
1566.143936385946
 30
0.0
1001
ACAD
1000
DSTYLE
1002
{
1070
    77
1070
     0
1070
    41
1040
10.0
1070
   140
1040
30.0
1070
   147
1040
6.599999999999998
1070
   279
1070
     2
1070
   342
1005
30D
1070
   371
1070
    13
1070
   372
1070
    18
1002
}
  0
LEADER
  5
9928
330
1F
100
AcDbEntity
  8
実形
100
AcDbLeader
  3
ISO-25
 76
     2
 10
2011.239266538569
 20
1477.565215893031
 30
0.0
 10
2049.430351394785
 20
1520.331555801269
 30
0.0
1001
ACAD
1000
DSTYLE
1002
{
1070
    77
1070
     0
1070
    41
1040
10.0
1070
   140
1040
30.0
1070
   147
1040
6.599999999999998
1070
   279
1070
     2
1070
   342
1005
30D
1070
   371
1070
    13
1070
   372
1070
    18
1002
}
  0
ARC
  5
992B
330
1F
100
AcDbEntity
  8
実形
100
AcDbCircle
 10
2007.381013672739
 20
1004.42649625579
 30
0.0
 40
4.0
100
AcDbArc
 50
270.0000000000002
 51
0.0
  0
DIMENSION
  5
992C
330
1F
100
AcDbEntity
  8
実形
100
AcDbDimension
  2
*D51
 10
2135.232399761446
 20
1470.42649625579
 30
0.0
 11
2113.028142131632
 21
912.5755183133652
 31
0.0
 70
   160
  1
15
 71
     5
 42
500.0000000000003
  3
ISO-25
100
AcDbAlignedDimension
 13
2031.487070440772
 23
970.42649625579
 33
0.0
 14
2031.487070440772
 24
1470.42649625579
 34
0.0
 50
90.0
100
AcDbRotatedDimension
1001
ACAD
1000
DSTYLE
1002
{
1070
    41
1040
10.0
1070
   140
1040
30.0
1070
   147
1040
6.599999999999998
1070
   279
1070
     2
1070
   342
1005
30D
1070
   371
1070
    18
1070
   372
1070
    18
1002
}
  0
DIMENSION
  5
994B
330
1F
100
AcDbEntity
  8
実形
100
AcDbDimension
  2
*D52
 10
2135.232399761446
 20
1470.42649625579
 30
0.0
 11
2113.632399761446
 21
1235.42649625579
 31
0.0
 70
    32
  1
235
 71
     5
 42
470.0000000000003
  3
ISO-25
100
AcDbAlignedDimension
 13
2027.487070440772
 23
1000.42649625579
 33
0.0
 14
2031.487070440772
 24
1470.42649625579
 34
0.0
 50
90.0
100
AcDbRotatedDimension
1001
ACAD
1000
DSTYLE
1002
{
1070
    41
1040
10.0
1070
   140
1040
30.0
1070
   147
1040
6.599999999999998
1070
   279
1070
     2
1070
   342
1005
30D
1070
   371
1070
    18
1070
   372
1070
    18
1002
}
  0
DIMENSION
  5
996B
330
1F
100
AcDbEntity
  8
実形
100
AcDbDimension
  2
*D53
 10
2203.531603396148
 20
1470.42649625579
 30
0.0
 11
2181.931603396148
 21
1220.42649625579
 31
0.0
 70
    32
  1
250
 71
     5
 42
500.0000000000003
  3
ISO-25
100
AcDbAlignedDimension
 13
2096.487070440771
 23
970.42649625579
 33
0.0
 14
2096.487070440771
 24
1470.42649625579
 34
0.0
 50
90.0
100
AcDbRotatedDimension
1001
ACAD
1000
DSTYLE
1002
{
1070
    41
1040
10.0
1070
   140
1040
30.0
1070
   147
1040
6.599999999999998
1070
   279
1070
     2
1070
   342
1005
30D
1070
   371
1070
    18
1070
   372
1070
    18
1002
}
  0
LINE
  5
99C4
330
1F
100
AcDbEntity
  8
実形
100
AcDbLine
 10
2011.381013672739
 20
924.4625552087418
 30
0.0
 11
2011.381013672739
 21
894.9537529908832
 31
0.0
  0
LINE
  5
99C5
330
1F
100
AcDbEntity
  8
実形
100
AcDbLine
 10
2011.381013672739
 20
894.9537529908832
 30
0.0
 11
1981.381013672738
 21
894.9537529908832
 31
0.0
  0
LINE
  5
99C6
330
1F
100
AcDbEntity
  8
実形
100
AcDbLine
 10
1981.381013672738
 20
894.9537529908832
 30
0.0
 11
1981.381013672738
 21
924.4625552087418
 31
0.0
  0
LINE
  5
99C7
330
1F
100
AcDbEntity
  8
実形
100
AcDbLine
 10
2001.381013672739
 20
895.2457727670337
 30
0.0
 11
2001.381013672739
 21
924.7545749848923
 31
0.0
  0
TEXT
  5
99C8
330
1F
100
AcDbEntity
  8
実形
100
AcDbText
 10
2006.162582628261
 20
890.6116876689262
 30
0.0
 40
10.0
  1
●
 50
270.0
 71
     2
 72
     4
 11
2011.162582628261
 21
895.2783543355929
 31
0.0
100
AcDbText
  0
TEXT
  5
99C9
330
1F
100
AcDbEntity
  8
実形
100
AcDbText
 10
1996.663624943288
 20
890.3431400157257
 30
0.0
 40
10.0
  1
●
 50
270.0
 71
     2
 72
     4
 11
2001.663624943288
 21
895.0098066823922
 31
0.0
100
AcDbText
  0
TEXT
  5
99CA
330
1F
100
AcDbEntity
  8
実形
100
AcDbText
 10
1977.213636845226
 20
890.3314039542507
 30
0.0
 40
10.0
  1
●
 50
270.0
 71
     2
 72
     4
 11
1982.213636845225
 21
894.9980706209172
 31
0.0
100
AcDbText
  0
TEXT
  5
99CB
330
1F
100
AcDbEntity
  8
実形
100
AcDbText
 10
1937.998958088243
 20
895.48831889746
 30
0.0
 40
30.0
  1
11
 72
     2
 11
1967.998958088242
 21
891.4883188974599
 31
0.0
100
AcDbText
 73
     1
  0
TEXT
  5
99CC
330
1F
100
AcDbEntity
  8
実形
100
AcDbText
 10
2030.028685085288
 20
895.5059647556991
 30
0.0
 40
30.0
  1
4
 72
     2
 11
2050.028685085288
 21
891.505964755699
 31
0.0
100
AcDbText
 73
     1
  0
LINE
  5
99CD
330
1F
100
AcDbEntity
  8
実形
100
AcDbLine
 10
1981.381013672738
 20
924.4625552087418
 30
0.0
 11
1981.381013672738
 21
853.5146944525589
 31
0.0
  0
LINE
  5
99CE
330
1F
100
AcDbEntity
  8
実形
100
AcDbLine
 10
1981.381013672738
 20
853.5146944525589
 30
0.0
 11
2011.381013672739
 21
853.5146944525589
 31
0.0
  0
LINE
  5
99CF
330
1F
100
AcDbEntity
  8
実形
100
AcDbLine
 10
2011.381013672739
 20
853.5146944525589
 30
0.0
 11
2011.381013672739
 21
924.4625552087418
 31
0.0
  0
TEXT
  5
99D0
330
1F
100
AcDbEntity
  8
実形
100
AcDbText
 10
1975.714298884891
 20
810.0531643744689
 30
0.0
 40
30.0
  1
15
 72
     2
 11
2015.714298884891
 21
806.0531643744688
 31
0.0
100
AcDbText
 73
     1
  0
TEXT
  5
99D1
330
1F
100
AcDbEntity
  8
実形
100
AcDbText
 10
1976.266596082241
 20
848.833497138197
 30
0.0
 40
10.0
  1
●
 50
270.0
 71
     2
 72
     4
 11
1981.266596082241
 21
853.5001638048637
 31
0.0
100
AcDbText
  0
TEXT
  5
99D2
330
1F
100
AcDbEntity
  8
実形
100
AcDbText
 10
2006.443213986081
 20
849.0748515367155
 30
0.0
 40
10.0
  1
●
 50
270.0
 71
     2
 72
     4
 11
2011.443213986081
 21
853.7415182033821
 31
0.0
100
AcDbText
  0
ARC
  5
99D4
330
1F
100
AcDbEntity
  8
実形
100
AcDbCircle
 10
2005.381013672739
 20
996.4264962557901
 30
0.0
 40
4.0
100
AcDbArc
 50
90.0
 51
180.0
  0
ARC
  5
99D5
330
1F
100
AcDbEntity
  8
実形
100
AcDbCircle
 10
1997.381013672739
 20
974.4264962557902
 30
0.0
 40
4.0
100
AcDbArc
 50
269.9999999999998
 51
0.0
  0
ARC
  5
99D6
330
1F
100
AcDbEntity
  8
実形
100
AcDbCircle
 10
1985.381013672738
 20
974.4264962557902
 30
0.0
 40
4.0
100
AcDbArc
 50
180.0
 51
270.0
  0
ARC
  5
99D7
330
1F
100
AcDbEntity
  8
実形
100
AcDbCircle
 10
1985.381013672738
 20
1466.42649625579
 30
0.0
 40
4.0
100
AcDbArc
 50
90.00000000000044
 51
180.0
  0
ARC
  5
99D8
330
1F
100
AcDbEntity
  8
実形
100
AcDbCircle
 10
2007.381013672739
 20
1466.42649625579
 30
0.0
 40
4.0
100
AcDbArc
 50
0.0
 51
90.00000000000049
  0
ARC
  5
99F5
330
1F
100
AcDbEntity
  8
実形
100
AcDbCircle
 10
1373.718665674241
 20
1410.426496255789
 30
0.0
 40
60.0
100
AcDbArc
 50
0.0
 51
90.0
  0
ARC
  5
99F6
330
1F
100
AcDbEntity
  8
実形
100
AcDbCircle
 10
1343.718665674242
 20
1410.42649625579
 30
0.0
 40
60.0
100
AcDbArc
 50
0.0
 51
89.99999999999998
  0
TEXT
  5
99FF
330
1F
100
AcDbEntity
  8
実形
100
AcDbText
 10
1203.585960666405
 20
1414.157482624782
 30
0.0
 40
30.0
  1
30R
 72
     2
 11
1278.585960666405
 21
1410.157482624782
 31
0.0
100
AcDbText
 73
     1
  0
LEADER
  5
9A10
330
1F
100
AcDbEntity
  8
実形
100
AcDbLeader
  3
ISO-25
 76
     2
 10
1366.713891408382
 20
1453.526643592604
 30
0.0
 10
1295.466486056681
 20
1429.467016584895
 30
0.0
1001
ACAD
1000
DSTYLE
1002
{
1070
    77
1070
     0
1070
    41
1040
10.0
1070
   140
1040
30.0
1070
   147
1040
6.599999999999998
1070
   279
1070
     2
1070
   342
1005
30D
1070
   371
1070
    13
1070
   372
1070
    18
1002
}
  0
TEXT
  5
9A19
330
1F
100
AcDbEntity
  8
実形
100
AcDbText
 10
1313.135827020394
 20
1343.498105841629
 30
0.0
 40
30.0
  1
30R
 72
     2
 11
1388.135827020394
 21
1339.498105841629
 31
0.0
100
AcDbText
 73
     1
  0
LEADER
  5
9A22
330
1F
100
AcDbEntity
  8
実形
100
AcDbLeader
  3
ISO-25
 76
     2
 10
1415.010074168854
 20
1439.394763165944
 30
0.0
 10
1355.542229459628
 20
1381.183107637649
 30
0.0
1001
ACAD
1000
DSTYLE
1002
{
1070
    77
1070
     0
1070
    41
1040
10.0
1070
   140
1040
30.0
1070
   147
1040
6.599999999999998
1070
   279
1070
     2
1070
   342
1005
30D
1070
   371
1070
    13
1070
   372
1070
    18
1002
}
  0
ARC
  5
9A23
330
1F
100
AcDbEntity
  8
実形
100
AcDbCircle
 10
593.7186656742414
 20
1410.42649625579
 30
0.0
 40
60.0
100
AcDbArc
 50
90.0
 51
180.0
  0
ARC
  5
9A24
330
1F
100
AcDbEntity
  8
実形
100
AcDbCircle
 10
623.7186656742415
 20
1410.426496255789
 30
0.0
 40
60.0
100
AcDbArc
 50
90.0
 51
180.0
  0
LEADER
  5
9A25
330
1F
100
AcDbEntity
  8
実形
100
AcDbLeader
  3
ISO-25
 76
     2
 10
600.7234399401006
 20
1453.526643592603
 30
0.0
 10
671.9708452918019
 20
1429.467016584895
 30
0.0
211
-1.0
221
-0.0000000000000016
231
0.0
1001
ACAD
1000
DSTYLE
1002
{
1070
    77
1070
     0
1070
    41
1040
10.0
1070
   140
1040
30.0
1070
   147
1040
6.599999999999998
1070
   279
1070
     2
1070
   342
1005
30D
1070
   371
1070
    13
1070
   372
1070
    18
1002
}
  0
LEADER
  5
9A26
330
1F
100
AcDbEntity
  8
実形
100
AcDbLeader
  3
ISO-25
 76
     2
 10
552.4272571796284
 20
1439.394763165944
 30
0.0
 10
611.8951018888544
 20
1381.183107637649
 30
0.0
211
-1.0
221
-0.0000000000000016
231
0.0
1001
ACAD
1000
DSTYLE
1002
{
1070
    77
1070
     0
1070
    41
1040
10.0
1070
   140
1040
30.0
1070
   147
1040
6.599999999999998
1070
   279
1070
     2
1070
   342
1005
30D
1070
   371
1070
    13
1070
   372
1070
    18
1002
}
  0
TEXT
  5
9A30
330
1F
100
AcDbEntity
  8
実形
100
AcDbText
 10
702.1220816977838
 20
1410.879214903642
 30
0.0
 40
30.0
  1
30R
 72
     2
 11
777.1220816977838
 21
1406.879214903641
 31
0.0
100
AcDbText
 73
     1
  0
TEXT
  5
9A31
330
1F
100
AcDbEntity
  8
実形
100
AcDbText
 10
635.5992331865418
 20
1350.860788482642
 30
0.0
 40
30.0
  1
30R
 72
     2
 11
710.5992331865418
 21
1346.860788482641
 31
0.0
100
AcDbText
 73
     1
  0
ARC
  5
9A32
330
1F
100
AcDbEntity
  8
実形
100
AcDbCircle
 10
1213.718665674242
 20
1190.42649625579
 30
0.0
 40
190.0
100
AcDbArc
 50
270.0
 51
0.0
  0
ARC
  5
9A33
330
1F
100
AcDbEntity
  8
実形
100
AcDbCircle
 10
1213.718665674241
 20
1190.42649625579
 30
0.0
 40
220.0
100
AcDbArc
 50
270.0
 51
0.0000000000000254
  0
TEXT
  5
9A3F
330
1F
100
AcDbEntity
  8
実形
100
AcDbText
 10
1172.141173814054
 20
1139.605207637642
 30
0.0
 40
30.0
  1
95R
 72
     2
 11
1252.141173814054
 21
1135.605207637642
 31
0.0
100
AcDbText
 73
     1
  0
LEADER
  5
9A40
330
1F
100
AcDbEntity
  8
実形
100
AcDbLeader
  3
ISO-25
 76
     2
 10
1340.440780694931
 20
1056.6173550898
 30
0.0
 10
1246.746241880344
 20
1130.28194968689
 30
0.0
1001
ACAD
1000
DSTYLE
1002
{
1070
    77
1070
     0
1070
    41
1040
10.0
1070
   140
1040
30.0
1070
   147
1040
6.599999999999998
1070
   279
1070
     2
1070
   342
1005
30D
1070
   371
1070
    13
1070
   372
1070
    18
1002
}
  0
TEXT
  5
9A41
330
1F
100
AcDbEntity
  8
実形
100
AcDbText
 10
1277.352851710651
 20
1183.850226336191
 30
0.0
 40
30.0
  1
110R
 72
     2
 11
1362.352851710652
 21
1179.850226336191
 31
0.0
100
AcDbText
 73
     1
  0
LEADER
  5
9A42
330
1F
100
AcDbEntity
  8
実形
100
AcDbLeader
  3
ISO-25
 76
     2
 10
1384.082008852008
 20
1062.023564803596
 30
0.0
 10
1311.48560145193
 20
1170.230694613237
 30
0.0
1001
ACAD
1000
DSTYLE
1002
{
1070
    77
1070
     0
1070
    41
1040
10.0
1070
   140
1040
30.0
1070
   147
1040
6.599999999999998
1070
   279
1070
     2
1070
   342
1005
30D
1070
   371
1070
    13
1070
   372
1070
    18
1002
}
  0
ARC
  5
9A43
330
1F
100
AcDbEntity
  8
実形
100
AcDbCircle
 10
753.7186656742415
 20
1190.426496255789
 30
0.0
 40
220.0
100
AcDbArc
 50
180.0
 51
270.0
  0
ARC
  5
9A45
330
1F
100
AcDbEntity
  8
実形
100
AcDbCircle
 10
753.7186656742415
 20
1190.42649625579
 30
0.0
 40
190.0
100
AcDbArc
 50
180.0
 51
270.0
  0
DIMENSION
  5
9B30
330
1F
100
AcDbEntity
  8
実形
100
AcDbDimension
  2
*D54
 10
593.7186656742414
 20
1508.520393958963
 30
0.0
 11
563.7186656742414
 21
1530.120393958962
 31
0.0
 70
    32
  1
30
 71
     5
 42
60.0
  3
ISO-25
100
AcDbAlignedDimension
 13
533.7186656742415
 23
1417.442075825364
 33
0.0
 14
593.7186656742414
 24
1417.442075825364
 34
0.0
100
AcDbRotatedDimension
1001
ACAD
1000
DSTYLE
1002
{
1070
    41
1040
10.0
1070
   140
1040
30.0
1070
   147
1040
6.599999999999998
1070
   279
1070
     2
1070
   342
1005
30D
1070
   371
1070
    18
1070
   372
1070
    18
1002
}
  0
LEADER
  5
9B53
330
1F
100
AcDbEntity
  8
実形
100
AcDbLeader
  3
ISO-25
 76
     2
 10
626.9965506535518
 20
1056.6173550898
 30
0.0
 10
720.6910894681386
 20
1130.28194968689
 30
0.0
211
-1.0
221
0.0
231
0.0
1001
ACAD
1000
DSTYLE
1002
{
1070
    77
1070
     0
1070
    41
1040
10.0
1070
   140
1040
30.0
1070
   147
1040
6.599999999999998
1070
   279
1070
     2
1070
   342
1005
30D
1070
   371
1070
    13
1070
   372
1070
    18
1002
}
  0
LEADER
  5
9B54
330
1F
100
AcDbEntity
  8
実形
100
AcDbLeader
  3
ISO-25
 76
     2
 10
583.3553224964743
 20
1062.023564803596
 30
0.0
 10
655.9517298965529
 20
1170.230694613237
 30
0.0
211
-1.0
221
0.0
231
0.0
1001
ACAD
1000
DSTYLE
1002
{
1070
    77
1070
     0
1070
    41
1040
10.0
1070
   140
1040
30.0
1070
   147
1040
6.599999999999998
1070
   279
1070
     2
1070
   342
1005
30D
1070
   371
1070
    13
1070
   372
1070
    18
1002
}
  0
TEXT
  5
9B5D
330
1F
100
AcDbEntity
  8
実形
100
AcDbText
 10
727.9886642948131
 20
1129.896490809511
 30
0.0
 40
30.0
  1
95R
 72
     2
 11
807.9886642948132
 21
1125.896490809511
 31
0.0
100
AcDbText
 73
     1
  0
TEXT
  5
9B66
330
1F
100
AcDbEntity
  8
実形
100
AcDbText
 10
634.1958017499564
 20
1176.781009066852
 30
0.0
 40
30.0
  1
110R
 72
     2
 11
719.1958017499564
 21
1172.781009066852
 31
0.0
100
AcDbText
 73
     1
  0
DIMENSION
  5
9BC4
330
1F
100
AcDbEntity
  8
実形
100
AcDbDimension
  2
*D55
 10
1433.718665674241
 20
1508.520393958965
 30
0.0
 11
1403.718665674241
 21
1530.120393958964
 31
0.0
 70
    32
  1
30
 71
     5
 42
60.0
  3
ISO-25
100
AcDbAlignedDimension
 13
1373.718665674241
 23
1417.442075825365
 33
0.0
 14
1433.718665674241
 24
1417.442075825365
 34
0.0
100
AcDbRotatedDimension
1001
ACAD
1000
DSTYLE
1002
{
1070
    41
1040
10.0
1070
   140
1040
30.0
1070
   147
1040
6.599999999999998
1070
   279
1070
     2
1070
   342
1005
30D
1070
   371
1070
    18
1070
   372
1070
    18
1002
}
  0
TEXT
  5
9C47
330
1F
100
AcDbEntity
  8
実形
100
AcDbText
 10
2018.117260178387
 20
1525.676330671587
 30
0.0
 40
30.0
  1
糸面（全周)
 72
     2
 11
2206.117260178388
 21
1521.676330671587
 31
0.0
100
AcDbText
 73
     1
  0
TEXT
  5
9C58
330
1F
100
AcDbEntity
  8
実形
100
AcDbText
 10
1488.739000003988
 20
424.6088910873186
 30
0.0
 40
30.0
  1
糸面（全周)
 72
     2
 11
1676.739000003988
 21
420.6088910873186
 31
0.0
100
AcDbText
 73
     1
  0
TEXT
  5
9C60
330
1F
100
AcDbEntity
  8
実形
100
AcDbText
 10
1178.736924212917
 20
418.9796022883365
 30
0.0
 40
30.0
  1
糸面（全周)
 72
     2
 11
1366.736924212917
 21
414.9796022883365
 31
0.0
100
AcDbText
 73
     1
  0
VIEWPORT
  5
2E
102
{ACAD_XDICTIONARY
360
9D0B
102
}
330
1B
100
AcDbEntity
 67
     1
  8
0
100
AcDbViewport
 10
144.7270812988281
 20
101.2295806407928
 30
0.0
 40
411.6736216682419
 41
222.1517806396485
 68
     1
 69
     1
 12
144.7270812988281
 22
101.2295806407928
 13
0.0
 23
0.0
 14
10.0
 24
10.0
 15
10.0
 25
10.0
 16
0.0
 26
0.0
 36
1.0
 17
0.0
 27
0.0
 37
0.0
 42
50.0
 43
0.0
 44
0.0
 45
222.1517806396485
 50
0.0
 51
0.0
 72
   100
 90
    32800
  1

281
     0
 71
     1
 74
     0
110
0.0
120
0.0
130
0.0
111
1.0
121
0.0
131
0.0
112
0.0
122
1.0
132
0.0
 79
     0
146
0.0
  0
VIEWPORT
  5
30
102
{ACAD_XDICTIONARY
360
9D0D
102
}
330
1B
100
AcDbEntity
 67
     1
  8
0
100
AcDbViewport
 10
139.2237563133239
 20
101.2295821905136
 30
0.0
 40
222.7580101013184
 41
161.9673315048218
 68
     2
 69
     2
 12
210.0
 22
148.5
 13
0.0
 23
0.0
 14
10.0
 24
10.0
 15
10.0
 25
10.0
 16
0.0
 26
0.0
 36
1.0
 17
0.0
 27
0.0
 37
0.0
 42
50.0
 43
0.0
 44
0.0
 45
309.0686705647124
 50
0.0
 51
0.0
 72
   100
 90
    32864
  1

281
     0
 71
     1
 74
     0
110
0.0
120
0.0
130
0.0
111
1.0
121
0.0
131
0.0
112
0.0
122
1.0
132
0.0
 79
     0
146
0.0
  0
ENDSEC
  0
SECTION
  2
OBJECTS
  0
DICTIONARY
  5
C
330
0
100
AcDbDictionary
281
     1
  3
ACAD_COLOR
350
22AD
  3
ACAD_GROUP
350
D
  3
ACAD_LAYOUT
350
1A
  3
ACAD_MATERIAL
350
22AC
  3
ACAD_MLINESTYLE
350
17
  3
ACAD_PLOTSETTINGS
350
19
  3
ACAD_PLOTSTYLENAME
350
E
  3
ACAD_TABLESTYLE
350
22AE
  3
AcadDim
350
124
  3
ACDBHEADERROUNDTRIPXREC
350
9D04
  3
AcDbVariableDictionary
350
1589
  0
DICTIONARY
  5
24C4
330
2
100
AcDbDictionary
280
     1
281
     1
  3
ACAD_LAYERFILTERS
360
7E84
  3
ACAD_LAYERSTATES
360
24C5
  3
ACLYDICTIONARY
360
7E83
  0
DICTIONARY
  5
2396
330
1F
100
AcDbDictionary
280
     1
281
     1
  3
ACAD_SORTENTS
360
2397
  0
DICTIONARY
  5
313E
330
313C
100
AcDbDictionary
280
     1
281
     1
  3
ACAD_SORTENTS
360
932A
  0
DICTIONARY
  5
3848
330
3846
100
AcDbDictionary
280
     1
281
     1
  3
ACAD_SORTENTS
360
932B
  0
DICTIONARY
  5
6DBE
330
6DBC
100
AcDbDictionary
280
     1
281
     1
  3
ACAD_SORTENTS
360
932C
  0
DICTIONARY
  5
8DE9
330
8DE6
100
AcDbDictionary
280
     1
281
     1
  3
ACAD_SORTENTS
360
932D
  0
DICTIONARY
  5
9329
330
9227
100
AcDbDictionary
280
     1
281
     1
  3
ACAD_SORTENTS
360
932E
  0
DICTIONARY
  5
96F8
330
96F1
100
AcDbDictionary
280
     1
281
     1
  3
ACAD_SORTENTS
360
96F9
  0
DICTIONARY
  5
9809
330
97DE
100
AcDbDictionary
280
     1
281
     1
  3
ACAD_SORTENTS
360
980A
  0
DICTIONARY
  5
9D0B
330
2E
100
AcDbDictionary
280
     1
281
     1
  3
ACAD_XREC_ROUNDTRIP
360
9D0C
  0
DICTIONARY
  5
9D0D
330
30
100
AcDbDictionary
280
     1
281
     1
  3
ACAD_XREC_ROUNDTRIP
360
9D0E
  0
DICTIONARY
  5
22AD
102
{ACAD_REACTORS
330
C
102
}
330
C
100
AcDbDictionary
281
     1
  0
DICTIONARY
  5
D
102
{ACAD_REACTORS
330
C
102
}
330
C
100
AcDbDictionary
281
     1
  0
DICTIONARY
  5
1A
102
{ACAD_REACTORS
330
C
102
}
330
C
100
AcDbDictionary
281
     1
  3
Model
350
22
  3
ﾚｲｱｳﾄ1
350
1E
  3
ﾚｲｱｳﾄ2
350
26
  0
DICTIONARY
  5
22AC
102
{ACAD_REACTORS
330
C
102
}
330
C
100
AcDbDictionary
281
     1
  0
DICTIONARY
  5
17
102
{ACAD_REACTORS
330
C
102
}
330
C
100
AcDbDictionary
281
     1
  3
Standard
350
18
  0
DICTIONARY
  5
19
102
{ACAD_REACTORS
330
C
102
}
330
C
100
AcDbDictionary
281
     1
  0
ACDBDICTIONARYWDFLT
  5
E
102
{ACAD_REACTORS
330
C
102
}
330
C
100
AcDbDictionary
281
     1
  3
Normal
350
F
100
AcDbDictionaryWithDefault
340
F
  0
DICTIONARY
  5
22AE
102
{ACAD_REACTORS
330
C
102
}
330
C
100
AcDbDictionary
281
     1
  3
Standard
350
22AF
  0
XRECORD
  5
124
102
{ACAD_REACTORS
330
C
102
}
330
C
100
AcDbXrecord
280
     1
 90
   990106
  3

 60
     0
 61
     0
 62
     1
 63
     3
 64
     0
 65
     0
 66
     0
 67
     3
 68
     1
 69
     0
 70
     0
 71
     0
 72
     0
 40
30.0
170
     0
  0
DICTIONARY
  5
9D04
102
{ACAD_REACTORS
330
C
102
}
330
C
100
AcDbDictionary
281
     1
  0
DICTIONARY
  5
1589
102
{ACAD_REACTORS
330
C
102
}
330
C
100
AcDbDictionary
281
     1
  3
CTABLESTYLE
350
22B5
  3
DIMASSOC
350
9D01
  3
PROJECTNAME
350
9D02
  3
SORTENTS
350
158A
  0
DICTIONARY
  5
7E84
102
{ACAD_REACTORS
330
24C4
102
}
330
24C4
100
AcDbDictionary
281
     1
  0
DICTIONARY
  5
24C5
102
{ACAD_REACTORS
330
24C4
102
}
330
24C4
100
AcDbDictionary
281
     1
  0
DICTIONARY
  5
7E83
102
{ACAD_REACTORS
330
24C4
102
}
330
24C4
100
AcDbDictionary
281
     1
1001
ACAD
1000
<All
  0
SORTENTSTABLE
  5
2397
102
{ACAD_REACTORS
330
2396
102
}
330
2396
100
AcDbSortentsTable
330
1F
331
9655
  5
9870
331
99C8
  5
99D5
331
9B5D
  5
9B5D
331
1B85
  5
1B8B
331
99D0
  5
9A22
331
9665
  5
9913
331
1B8D
  5
1B92
331
99D8
  5
947B
331
9734
  5
9925
331
9478
  5
9483
331
1B95
  5
1B9B
331
95EE
  5
9738
331
9480
  5
964D
331
9A3F
  5
9A41
331
9744
  5
964C
331
1B9D
  5
5A6A
331
9A10
  5
9A26
331
9912
  5
996B
331
964E
  5
9748
331
9349
  5
9349
331
96B5
  5
9915
331
93B9
  5
93B9
331
9537
  5
9657
331
99C9
  5
99D7
331
1B86
  5
1B8C
331
99D1
  5
9A23
331
1B8E
  5
1B93
331
9A30
  5
9A3F
331
9735
  5
9926
331
95E7
  5
969F
331
9479
  5
947D
331
1B96
  5
1B9C
331
9B66
  5
9B66
331
95EF
  5
9739
331
9481
  5
964B
331
9A40
  5
9A42
331
9745
  5
95E9
331
9342
  5
9342
331
9913
  5
947F
331
964F
  5
9749
331
9A19
  5
9A30
331
97AD
  5
992B
331
9657
  5
9871
331
992B
  5
99AA
331
93C2
  5
93C2
331
99CA
  5
99D8
331
1B87
  5
1B8D
331
99D2
  5
9A24
331
1B8F
  5
1B94
331
9A31
  5
9A40
331
95E8
  5
96B5
331
947A
  5
9506
331
1B97
  5
1B9D
331
994B
  5
99CF
331
95F8
  5
9742
331
94F9
  5
9654
331
9482
  5
95E8
331
969F
  5
9914
331
9A41
  5
9A43
331
9746
  5
964A
331
9B30
  5
9B30
331
9343
  5
9343
331
996B
  5
99D0
331
9650
  5
974A
331
934B
  5
934B
331
9914
  5
9481
331
9A22
  5
9A31
331
992C
  5
99CE
331
99CB
  5
99F5
331
9C
  5
9C
331
1B80
  5
1B87
331
93CB
  5
93CB
331
1B88
  5
1B8E
331
68D6
  5
70FA
331
1B90
  5
1B95
331
9A32
  5
95EC
331
9737
  5
9927
331
947B
  5
95EA
331
9483
  5
95EE
331
9A42
  5
9A45
331
9747
  5
964E
331
1B98
  5
1BA1
331
9649
  5
9743
331
9493
  5
9651
331
9344
  5
9344
331
272
  5
1B85
331
9651
  5
974B
331
9915
  5
947A
331
9925
  5
99C8
331
9A23
  5
9479
331
99C4
  5
99D1
331
99CC
  5
99F6
331
A5
  5
1B84
331
1B81
  5
1B88
331
5E5F
  5
6F4D
331
94E3
  5
9653
331
1B91
  5
1B96
331
99D4
  5
9482
331
9A33
  5
9537
331
95EA
  5
9734
331
947C
  5
9480
331
9738
  5
9928
331
9484
  5
94E3
331
9A43
  5
9484
331
1B99
  5
5164
331
1BA1
  5
5A6B
331
9748
  5
94F9
331
964A
  5
9744
331
9345
  5
9345
331
9652
  5
97AD
331
9A24
  5
9478
331
99C5
  5
99D2
331
99CD
  5
99FF
331
5E68
  5
6F52
331
1B8A
  5
1B8F
331
99D5
  5
99A8
331
1B92
  5
1B97
331
9739
  5
9929
331
947D
  5
9493
331
99F5
  5
95E7
331
9485
  5
9485
331
990F
  5
992C
331
9749
  5
964F
331
964B
  5
9745
331
9346
  5
9346
331
9653
  5
986D
331
8858
  5
8876
331
9927
  5
99CA
331
94CD
  5
9652
331
9B53
  5
9B53
331
9A25
  5
9A32
331
99C6
  5
99D3
331
99CE
  5
9A10
331
1B73
  5
1B86
331
1B8B
  5
1B90
331
99D6
  5
994B
331
1B93
  5
1B98
331
95EC
  5
9735
331
99F6
  5
95ED
331
9742
  5
992A
331
9486
  5
9650
331
9A45
  5
94CD
331
1B9B
  5
5178
331
974A
  5
9486
331
964C
  5
9746
331
9347
  5
9347
331
7FC1
  5
1B80
331
9654
  5
986F
331
9928
  5
99CB
331
9B54
  5
9B54
331
9A26
  5
9A33
331
99C7
  5
99D4
331
99CF
  5
9A19
331
A0
  5
1B81
331
8939
  5
8BB2
331
1B84
  5
1B8A
331
1B8C
  5
1B91
331
99D7
  5
947C
331
9477
  5
9477
331
1B94
  5
1B99
331
95ED
  5
9737
331
947F
  5
95F8
331
9743
  5
95EF
331
99FF
  5
9A25
331
1B9C
  5
5179
331
9911
  5
99A9
331
974B
  5
9649
331
964D
  5
9747
331
9506
  5
9655
  0
SORTENTSTABLE
  5
932A
102
{ACAD_REACTORS
330
313E
102
}
330
313E
100
AcDbSortentsTable
330
313C
  0
SORTENTSTABLE
  5
932B
102
{ACAD_REACTORS
330
3848
102
}
330
3848
100
AcDbSortentsTable
330
3846
  0
SORTENTSTABLE
  5
932C
102
{ACAD_REACTORS
330
6DBE
102
}
330
6DBE
100
AcDbSortentsTable
330
6DBC
  0
SORTENTSTABLE
  5
932D
102
{ACAD_REACTORS
330
8DE9
102
}
330
8DE9
100
AcDbSortentsTable
330
8DE6
  0
SORTENTSTABLE
  5
932E
102
{ACAD_REACTORS
330
9329
102
}
330
9329
100
AcDbSortentsTable
330
9227
331
929B
  5
92A3
331
925C
  5
9264
331
92D2
  5
92D7
331
9264
  5
926C
331
92DA
  5
92E6
331
926C
  5
9274
331
922D
  5
922E
331
92A3
  5
92AB
331
92E2
  5
92F2
331
9319
  5
92FE
331
9274
  5
927C
331
9235
  5
9236
331
92AB
  5
92B3
331
92EA
  5
92D8
331
927C
  5
9284
331
923D
  5
923E
331
92B3
  5
92B7
331
92F2
  5
92D5
331
9245
  5
9246
331
9284
  5
928C
331
92BB
  5
92BF
331
92FA
  5
9307
331
924D
  5
924F
331
928C
  5
9294
331
92C3
  5
92C7
331
9302
  5
9305
331
9294
  5
929C
331
9255
  5
9257
331
92CB
  5
92CF
331
930A
  5
925C
331
929C
  5
92A4
331
925D
  5
9265
331
92D3
  5
92D9
331
9312
  5
9317
331
9265
  5
926D
331
92DB
  5
92E7
331
926D
  5
9275
331
922E
  5
922F
331
92A4
  5
92AC
331
92E3
  5
92F5
331
931A
  5
9303
331
9275
  5
927D
331
9236
  5
9237
331
92AC
  5
92B4
331
92EB
  5
92F9
331
927D
  5
9285
331
923E
  5
923F
331
92B4
  5
92B8
331
92F3
  5
92FB
331
9246
  5
9247
331
9285
  5
928D
331
92BC
  5
92C0
331
92FB
  5
9308
331
924E
  5
9250
331
928D
  5
9295
331
92C4
  5
92C8
331
9303
  5
930F
331
9295
  5
929D
331
9256
  5
925F
331
92CC
  5
92D0
331
930B
  5
92BD
331
929D
  5
92A5
331
925E
  5
9266
331
92D4
  5
92DA
331
9313
  5
9318
331
9266
  5
926E
331
92DC
  5
92E9
331
926E
  5
9276
331
922F
  5
9230
331
92A5
  5
92AD
331
92E4
  5
92F7
331
9276
  5
927E
331
9237
  5
9238
331
92AD
  5
925A
331
92EC
  5
92EE
331
927E
  5
9286
331
923F
  5
9240
331
92B5
  5
925D
331
92F4
  5
92FC
331
9247
  5
9248
331
9286
  5
928E
331
92BD
  5
92C1
331
92FC
  5
9309
331
924F
  5
9251
331
928E
  5
9296
331
92C5
  5
92C9
331
9304
  5
92F4
331
9296
  5
929E
331
9257
  5
9260
331
92CD
  5
92D1
331
930C
  5
9313
331
929E
  5
92A6
331
925F
  5
9267
331
92D5
  5
92DD
331
9314
  5
9319
331
9267
  5
926F
331
92DD
  5
92EB
331
926F
  5
9277
331
9230
  5
9231
331
92A6
  5
92AE
331
92E5
  5
92F8
331
931C
  5
931D
331
9277
  5
927F
331
9238
  5
9239
331
92AE
  5
9249
331
92ED
  5
92F6
331
9240
  5
9241
331
927F
  5
9287
331
92B6
  5
925E
331
92F5
  5
92EF
331
9287
  5
928F
331
92BE
  5
92C2
331
92FD
  5
930A
331
9248
  5
924A
331
928F
  5
9297
331
9250
  5
9252
331
92C6
  5
92CA
331
9305
  5
92DC
331
930D
  5
9314
331
9297
  5
929F
331
9258
  5
9261
331
92CE
  5
92D2
331
9315
  5
931A
331
929F
  5
92A7
331
9260
  5
9268
331
92D6
  5
92DE
331
92DE
  5
92EC
331
9268
  5
9270
331
9229
  5
922A
331
92E6
  5
92FA
331
9270
  5
9278
331
9231
  5
9232
331
92A7
  5
92AF
331
931D
  5
931E
331
92EE
  5
92EA
331
9278
  5
9280
331
9239
  5
923A
331
92AF
  5
92B5
331
92F6
  5
92FD
331
9241
  5
9242
331
9280
  5
9288
331
92B7
  5
92B9
331
92BF
  5
92C3
331
92FE
  5
930B
331
9249
  5
924B
331
9288
  5
9290
331
92C7
  5
92CB
331
9290
  5
9298
331
9251
  5
9253
331
9306
  5
92E0
331
92CF
  5
92D3
331
9298
  5
92A0
331
9259
  5
9229
331
930E
  5
9315
331
92D7
  5
92E1
331
9261
  5
9269
331
9316
  5
9304
331
92DF
  5
92ED
331
9269
  5
9271
331
922A
  5
922B
331
92A0
  5
92A8
331
92E7
  5
92E5
331
9271
  5
9279
331
9232
  5
9233
331
92A8
  5
92B0
331
931E
  5
931C
331
92EF
  5
92F3
331
9279
  5
9281
331
923A
  5
923B
331
92B0
  5
9258
331
92B8
  5
92BA
331
9242
  5
9243
331
9281
  5
9289
331
92F7
  5
92FF
331
92FF
  5
930C
331
92C0
  5
92C4
331
924A
  5
924C
331
9289
  5
9291
331
9307
  5
925B
331
92C8
  5
92CC
331
9291
  5
9299
331
9252
  5
9254
331
92D0
  5
92D4
331
9299
  5
92A1
331
925A
  5
9262
331
930F
  5
9312
331
92D8
  5
92E3
331
9262
  5
926A
331
9317
  5
9301
331
926A
  5
9272
331
922B
  5
922C
331
92A1
  5
92A9
331
92E0
  5
92F0
331
9272
  5
927A
331
9233
  5
9234
331
92A9
  5
92B1
331
92E8
  5
92DB
331
927A
  5
9282
331
923B
  5
923C
331
92B1
  5
9259
331
92F0
  5
92E8
331
9243
  5
9244
331
9282
  5
928A
331
92B9
  5
92BB
331
92F8
  5
9302
331
924B
  5
924D
331
928A
  5
9292
331
92C1
  5
92C5
331
9300
  5
930D
331
9292
  5
929A
331
9253
  5
9255
331
92C9
  5
92CD
331
9308
  5
92BC
331
929A
  5
92A2
331
925B
  5
9263
331
92D1
  5
92D6
331
9310
  5
9316
331
9263
  5
926B
331
92D9
  5
92E4
331
926B
  5
9273
331
922C
  5
922D
331
92A2
  5
92AA
331
92E1
  5
92F1
331
9318
  5
9300
331
9273
  5
927B
331
9234
  5
9235
331
92AA
  5
92B2
331
92E9
  5
92E2
331
927B
  5
9283
331
923C
  5
923D
331
92B2
  5
92B6
331
92F1
  5
92DF
331
9244
  5
9245
331
9283
  5
928B
331
92BA
  5
92BE
331
92F9
  5
9306
331
924C
  5
924E
331
928B
  5
9293
331
92C2
  5
92C6
331
9301
  5
930E
331
9293
  5
929B
331
9254
  5
9256
331
92CA
  5
92CE
331
9309
  5
9310
  0
SORTENTSTABLE
  5
96F9
102
{ACAD_REACTORS
330
96F8
102
}
330
96F8
100
AcDbSortentsTable
330
96F1
  0
SORTENTSTABLE
  5
980A
102
{ACAD_REACTORS
330
9809
102
}
330
9809
100
AcDbSortentsTable
330
97DE
  0
XRECORD
  5
9D0C
102
{ACAD_REACTORS
330
9D0B
102
}
330
9D0B
100
AcDbXrecord
280
     1
102
SHADEPLOT
 70
     0
  0
XRECORD
  5
9D0E
102
{ACAD_REACTORS
330
9D0D
102
}
330
9D0D
100
AcDbXrecord
280
     1
102
SHADEPLOT
 70
     0
  0
LAYOUT
  5
22
102
{ACAD_XDICTIONARY
360
9D07
102
}
102
{ACAD_REACTORS
330
1A
102
}
330
1A
100
AcDbPlotSettings
  1

  2
EPSON PM-800C
  4
A4
  6

 40
3.757083177566528
 41
14.7637300491333
 42
3.757080078125
 43
3.757080078125
 44
209.9733276367187
 45
296.9683227539062
 46
0.0
 47
0.0
 48
0.0
 49
0.0
140
0.0
141
0.0
142
1.0
143
10.0
 70
 11952
 72
     1
 73
     1
 74
     2
  7

 75
    20
147
0.1
148
0.0
149
0.0
100
AcDbLayout
  1
Model
 70
     1
 71
     0
 10
0.0
 20
0.0
 11
12.0
 21
9.0
 12
0.0
 22
0.0
 32
0.0
 14
0.0
 24
0.0
 34
0.0
 15
0.0
 25
0.0
 35
0.0
146
0.0
 13
0.0
 23
0.0
 33
0.0
 16
1.0
 26
0.0
 36
0.0
 17
0.0
 27
1.0
 37
0.0
 76
     0
330
1F
  0
LAYOUT
  5
1E
102
{ACAD_XDICTIONARY
360
9D05
102
}
102
{ACAD_REACTORS
330
1A
102
}
330
1A
100
AcDbPlotSettings
  1

  2
EPSON PM-800C
  4
A4
  6

 40
3.757083177566528
 41
14.7637300491333
 42
3.757080078125
 43
3.757080078125
 44
209.9733276367187
 45
296.9683227539062
 46
0.0
 47
0.0
 48
0.0
 49
0.0
140
0.0
141
0.0
142
1.0
143
1.0
 70
   688
 72
     1
 73
     1
 74
     5
  7

 75
    16
147
1.0
148
0.0
149
0.0
100
AcDbLayout
  1
ﾚｲｱｳﾄ1
 70
     1
 71
     1
 10
-3.757080078125
 20
-3.757083177566528
 11
293.2112426757813
 21
206.2162444591522
 12
0.0
 22
0.0
 32
0.0
 14
27.8447512626648
 24
20.24591643810271
 34
0.0
 15
250.6027613639831
 25
182.2132479429245
 35
0.0
146
0.0
 13
0.0
 23
0.0
 33
0.0
 16
1.0
 26
0.0
 36
0.0
 17
0.0
 27
1.0
 37
0.0
 76
     0
330
1B
331
2E
  0
LAYOUT
  5
26
102
{ACAD_XDICTIONARY
360
9D09
102
}
102
{ACAD_REACTORS
330
1A
102
}
330
1A
100
AcDbPlotSettings
  1

  2
EPSON PM-800C
  4

  6

 40
0.0
 41
0.0
 42
0.0
 43
0.0
 44
0.0
 45
0.0
 46
0.0
 47
0.0
 48
0.0
 49
0.0
140
0.0
141
0.0
142
1.0
143
1.0
 70
   688
 72
     0
 73
     0
 74
     5
  7

 75
    16
147
1.0
148
0.0
149
0.0
100
AcDbLayout
  1
ﾚｲｱｳﾄ2
 70
     1
 71
     2
 10
0.0
 20
0.0
 11
12.0
 21
9.0
 12
0.0
 22
0.0
 32
0.0
 14
0.0
 24
0.0
 34
0.0
 15
0.0
 25
0.0
 35
0.0
146
0.0
 13
0.0
 23
0.0
 33
0.0
 16
1.0
 26
0.0
 36
0.0
 17
0.0
 27
1.0
 37
0.0
 76
     0
330
23
  0
MLINESTYLE
  5
18
102
{ACAD_REACTORS
330
17
102
}
330
17
100
AcDbMlineStyle
  2
STANDARD
 70
     0
  3

 62
   256
 51
90.0
 52
90.0
 71
     2
 49
0.5
 62
   256
  6
BYLAYER
 49
-0.5
 62
   256
  6
BYLAYER
  0
ACDBPLACEHOLDER
  5
F
102
{ACAD_REACTORS
330
E
102
}
330
E
  0
TABLESTYLE
  5
22AF
102
{ACAD_REACTORS
330
22AE
102
}
330
22AE
100
AcDbTableStyle
  3
Standard
 70
     0
 71
     0
 40
1.5
 41
1.5
280
     0
281
     0
  7
Standard
140
4.5
170
     2
 62
     0
 63
     7
283
     0
274
    -2
284
     1
 64
     0
275
    -2
285
     1
 65
     0
276
    -2
286
     1
 66
     0
277
    -2
287
     1
 67
     0
278
    -2
288
     1
 68
     0
279
    -2
289
     1
 69
     0
  7
Standard
140
6.0
170
     5
 62
     0
 63
     7
283
     0
274
    -2
284
     1
 64
     0
275
    -2
285
     1
 65
     0
276
    -2
286
     1
 66
     0
277
    -2
287
     1
 67
     0
278
    -2
288
     1
 68
     0
279
    -2
289
     1
 69
     0
  7
Standard
140
4.5
170
     5
 62
     0
 63
     7
283
     0
274
    -2
284
     1
 64
     0
275
    -2
285
     1
 65
     0
276
    -2
286
     1
 66
     0
277
    -2
287
     1
 67
     0
278
    -2
288
     1
 68
     0
279
    -2
289
     1
 69
     0
  0
DICTIONARYVAR
  5
22B5
102
{ACAD_REACTORS
330
1589
102
}
330
1589
100
DictionaryVariables
280
     0
  1
STANDARD
  0
DICTIONARYVAR
  5
9D01
102
{ACAD_REACTORS
330
1589
102
}
330
1589
100
DictionaryVariables
280
     0
  1
1
  0
DICTIONARYVAR
  5
9D02
102
{ACAD_REACTORS
330
1589
102
}
330
1589
100
DictionaryVariables
280
     0
  1

  0
DICTIONARYVAR
  5
158A
102
{ACAD_REACTORS
330
1589
102
}
330
1589
100
DictionaryVariables
280
     0
  1
96
  0
DICTIONARY
  5
9D07
330
22
100
AcDbDictionary
280
     1
281
     1
  3
ACAD_XREC_ROUNDTRIP
360
9D08
  0
DICTIONARY
  5
9D05
330
1E
100
AcDbDictionary
280
     1
281
     1
  3
ACAD_XREC_ROUNDTRIP
360
9D06
  0
DICTIONARY
  5
9D09
330
26
100
AcDbDictionary
280
     1
281
     1
  3
ACAD_XREC_ROUNDTRIP
360
9D0A
  0
XRECORD
  5
9D08
102
{ACAD_REACTORS
330
9D07
102
}
330
9D07
100
AcDbXrecord
280
     1
102
SHADEPLOT
 70
     0
102
SHADEPLOTRESLEVEL
 70
     2
102
SHADEPLOTCUSTOMDPI
 70
   300
  0
XRECORD
  5
9D06
102
{ACAD_REACTORS
330
9D05
102
}
330
9D05
100
AcDbXrecord
280
     1
102
SHADEPLOT
 70
     0
102
SHADEPLOTRESLEVEL
 70
     2
102
SHADEPLOTCUSTOMDPI
 70
   300
  0
XRECORD
  5
9D0A
102
{ACAD_REACTORS
330
9D09
102
}
330
9D09
100
AcDbXrecord
280
     1
102
SHADEPLOT
 70
     0
102
SHADEPLOTRESLEVEL
 70
     2
102
SHADEPLOTCUSTOMDPI
 70
   300
  0
ENDSEC
  0
EOF
