  0
SECTION
  2
HEADER
  9
$ACADVER
  1
AC1015
  9
$ACADMAINTVER
 70
    20
  9
$DWGCODEPAGE
  3
ANSI_932
  9
$INSBASE
 10
0.0
 20
0.0
 30
0.0
  9
$EXTMIN
 10
0.0
 20
0.0
 30
0.0
  9
$EXTMAX
 10
7326.817005522613
 20
5369.623692175701
 30
0.0
  9
$LIMMIN
 10
0.0
 20
0.0
  9
$LIMMAX
 10
59400.0
 20
42000.0
  9
$ORTHOMODE
 70
     0
  9
$REGENMODE
 70
     1
  9
$FILLMODE
 70
     1
  9
$QTEXTMODE
 70
     0
  9
$MIRRTEXT
 70
     1
  9
$LTSCALE
 40
12.0
  9
$ATTMODE
 70
     1
  9
$TEXTSIZE
 40
60.0
  9
$TRACEWID
 40
1.0
  9
$TEXTSTYLE
  7
Standard
  9
$CLAYER
  8
実形
  9
$CELTYPE
  6
PHANTOM
  9
$CECOLOR
 62
     1
  9
$CELTSCALE
 40
20.0
  9
$DISPSILH
 70
     0
  9
$DIMSCALE
 40
1.0
  9
$DIMASZ
 40
25.0
  9
$DIMEXO
 40
130.0
  9
$DIMDLI
 40
3.75
  9
$DIMRND
 40
0.0
  9
$DIMDLE
 40
0.0
  9
$DIMEXE
 40
0.0
  9
$DIMTP
 40
0.0
  9
$DIMTM
 40
0.0
  9
$DIMTXT
 40
60.0
  9
$DIMCEN
 40
2.5
  9
$DIMTSZ
 40
0.0
  9
$DIMTOL
 70
     0
  9
$DIMLIM
 70
     0
  9
$DIMTIH
 70
     0
  9
$DIMTOH
 70
     0
  9
$DIMSE1
 70
     0
  9
$DIMSE2
 70
     0
  9
$DIMTAD
 70
     1
  9
$DIMZIN
 70
     8
  9
$DIMBLK
  1
Dot
  9
$DIMASO
 70
     1
  9
$DIMSHO
 70
     1
  9
$DIMPOST
  1

  9
$DIMAPOST
  1

  9
$DIMALT
 70
     0
  9
$DIMALTD
 70
     3
  9
$DIMALTF
 40
0.03937007874016
  9
$DIMLFAC
 40
1.0
  9
$DIMTOFL
 70
     1
  9
$DIMTVP
 40
0.0
  9
$DIMTIX
 70
     0
  9
$DIMSOXD
 70
     0
  9
$DIMSAH
 70
     0
  9
$DIMBLK1
  1

  9
$DIMBLK2
  1

  9
$DIMSTYLE
  2
ISO-25
  9
$DIMCLRD
 70
     0
  9
$DIMCLRE
 70
     0
  9
$DIMCLRT
 70
     0
  9
$DIMTFAC
 40
1.0
  9
$DIMGAP
 40
20.0
  9
$DIMJUST
 70
     0
  9
$DIMSD1
 70
     0
  9
$DIMSD2
 70
     0
  9
$DIMTOLJ
 70
     0
  9
$DIMTZIN
 70
     8
  9
$DIMALTZ
 70
     0
  9
$DIMALTTZ
 70
     0
  9
$DIMUPT
 70
     0
  9
$DIMDEC
 70
     2
  9
$DIMTDEC
 70
     2
  9
$DIMALTU
 70
     2
  9
$DIMALTTD
 70
     3
  9
$DIMTXSTY
  7
Standard
  9
$DIMAUNIT
 70
     0
  9
$DIMADEC
 70
     0
  9
$DIMALTRND
 40
0.0
  9
$DIMAZIN
 70
     0
  9
$DIMDSEP
 70
    44
  9
$DIMATFIT
 70
     3
  9
$DIMFRAC
 70
     0
  9
$DIMLDRBLK
  1
Open30
  9
$DIMLUNIT
 70
     2
  9
$DIMLWD
 70
    13
  9
$DIMLWE
 70
    13
  9
$DIMTMOVE
 70
     2
  9
$LUNITS
 70
     2
  9
$LUPREC
 70
     4
  9
$SKETCHINC
 40
1.0
  9
$FILLETRAD
 40
80.0
  9
$AUNITS
 70
     0
  9
$AUPREC
 70
     0
  9
$MENU
  1
.
  9
$ELEVATION
 40
0.0
  9
$PELEVATION
 40
0.0
  9
$THICKNESS
 40
0.0
  9
$LIMCHECK
 70
     0
  9
$CHAMFERA
 40
10.0
  9
$CHAMFERB
 40
10.0
  9
$CHAMFERC
 40
20.0
  9
$CHAMFERD
 40
0.0
  9
$SKPOLY
 70
     0
  9
$TDCREATE
 40
2451684.562972223
  9
$TDUCREATE
 40
2451684.187972222
  9
$TDUPDATE
 40
2458817.690637986
  9
$TDUUPDATE
 40
2458817.315637986
  9
$TDINDWG
 40
4.6154709028
  9
$TDUSRTIMER
 40
4.6154680093
  9
$USRTIMER
 70
     1
  9
$ANGBASE
 50
0.0
  9
$ANGDIR
 70
     0
  9
$PDMODE
 70
     0
  9
$PDSIZE
 40
0.0
  9
$PLINEWID
 40
0.0
  9
$SPLFRAME
 70
     0
  9
$SPLINETYPE
 70
     6
  9
$SPLINESEGS
 70
     8
  9
$HANDSEED
  5
FF9A
  9
$SURFTAB1
 70
     6
  9
$SURFTAB2
 70
     6
  9
$SURFTYPE
 70
     6
  9
$SURFU
 70
     6
  9
$SURFV
 70
     6
  9
$UCSBASE
  2

  9
$UCSNAME
  2

  9
$UCSORG
 10
0.0
 20
0.0
 30
0.0
  9
$UCSXDIR
 10
1.0
 20
0.0
 30
0.0
  9
$UCSYDIR
 10
0.0
 20
1.0
 30
0.0
  9
$UCSORTHOREF
  2

  9
$UCSORTHOVIEW
 70
     0
  9
$UCSORGTOP
 10
0.0
 20
0.0
 30
0.0
  9
$UCSORGBOTTOM
 10
0.0
 20
0.0
 30
0.0
  9
$UCSORGLEFT
 10
0.0
 20
0.0
 30
0.0
  9
$UCSORGRIGHT
 10
0.0
 20
0.0
 30
0.0
  9
$UCSORGFRONT
 10
0.0
 20
0.0
 30
0.0
  9
$UCSORGBACK
 10
0.0
 20
0.0
 30
0.0
  9
$PUCSBASE
  2

  9
$PUCSNAME
  2

  9
$PUCSORG
 10
0.0
 20
0.0
 30
0.0
  9
$PUCSXDIR
 10
1.0
 20
0.0
 30
0.0
  9
$PUCSYDIR
 10
0.0
 20
1.0
 30
0.0
  9
$PUCSORTHOREF
  2

  9
$PUCSORTHOVIEW
 70
     0
  9
$PUCSORGTOP
 10
0.0
 20
0.0
 30
0.0
  9
$PUCSORGBOTTOM
 10
0.0
 20
0.0
 30
0.0
  9
$PUCSORGLEFT
 10
0.0
 20
0.0
 30
0.0
  9
$PUCSORGRIGHT
 10
0.0
 20
0.0
 30
0.0
  9
$PUCSORGFRONT
 10
0.0
 20
0.0
 30
0.0
  9
$PUCSORGBACK
 10
0.0
 20
0.0
 30
0.0
  9
$USERI1
 70
     0
  9
$USERI2
 70
     0
  9
$USERI3
 70
     0
  9
$USERI4
 70
     0
  9
$USERI5
 70
     0
  9
$USERR1
 40
0.0
  9
$USERR2
 40
0.0
  9
$USERR3
 40
0.0
  9
$USERR4
 40
0.0
  9
$USERR5
 40
0.0
  9
$WORLDVIEW
 70
     1
  9
$SHADEDGE
 70
     3
  9
$SHADEDIF
 70
    70
  9
$TILEMODE
 70
     1
  9
$MAXACTVP
 70
    64
  9
$PINSBASE
 10
0.0
 20
0.0
 30
0.0
  9
$PLIMCHECK
 70
     0
  9
$PEXTMIN
 10
1.000000000000000E+20
 20
1.000000000000000E+20
 30
1.000000000000000E+20
  9
$PEXTMAX
 10
-1.000000000000000E+20
 20
-1.000000000000000E+20
 30
-1.000000000000000E+20
  9
$PLIMMIN
 10
0.0
 20
0.0
  9
$PLIMMAX
 10
420.0
 20
297.0
  9
$UNITMODE
 70
     0
  9
$VISRETAIN
 70
     1
  9
$PLINEGEN
 70
     0
  9
$PSLTSCALE
 70
     1
  9
$TREEDEPTH
 70
  3020
  9
$CMLSTYLE
  2
Standard
  9
$CMLJUST
 70
     0
  9
$CMLSCALE
 40
20.0
  9
$PROXYGRAPHICS
 70
     1
  9
$MEASUREMENT
 70
     1
  9
$CELWEIGHT
370
    -1
  9
$ENDCAPS
280
     0
  9
$JOINSTYLE
280
     0
  9
$LWDISPLAY
290
     0
  9
$INSUNITS
 70
     4
  9
$HYPERLINKBASE
  1

  9
$STYLESHEET
  1

  9
$XEDIT
290
     1
  9
$CEPSNTYPE
380
     0
  9
$PSTYLEMODE
290
     1
  9
$FINGERPRINTGUID
  2
{FDEAD578-A652-11D2-9A35-0060089B3A3F}
  9
$VERSIONGUID
  2
{5968D860-6D24-4C72-B7FC-FED525C8DA66}
  9
$EXTNAMES
290
     1
  9
$PSVPSCALE
 40
0.0
  9
$OLESTARTUP
290
     0
  0
ENDSEC
  0
SECTION
  2
CLASSES
  0
CLASS
  1
ACDBDICTIONARYWDFLT
  2
AcDbDictionaryWithDefault
  3
ObjectDBX Classes
 90
        0
280
     0
281
     0
  0
CLASS
  1
ACDBPLACEHOLDER
  2
AcDbPlaceHolder
  3
ObjectDBX Classes
 90
        0
280
     0
281
     0
  0
CLASS
  1
LAYOUT
  2
AcDbLayout
  3
ObjectDBX Classes
 90
        0
280
     0
281
     0
  0
CLASS
  1
DICTIONARYVAR
  2
AcDbDictionaryVar
  3
ObjectDBX Classes
 90
        0
280
     0
281
     0
  0
CLASS
  1
TABLESTYLE
  2
AcDbTableStyle
  3
ObjectDBX Classes
 90
     2047
280
     0
281
     0
  0
CLASS
  1
SORTENTSTABLE
  2
AcDbSortentsTable
  3
ObjectDBX Classes
 90
        0
280
     0
281
     0
  0
CLASS
  1
MATERIAL
  2
AcDbMaterial
  3
ObjectDBX Classes
 90
        0
280
     0
281
     0
  0
CLASS
  1
VISUALSTYLE
  2
AcDbVisualStyle
  3
ObjectDBX Classes
 90
     4095
280
     0
281
     0
  0
CLASS
  1
SCALE
  2
AcDbScale
  3
ObjectDBX Classes
 90
     1153
280
     0
281
     0
  0
CLASS
  1
MLEADERSTYLE
  2
AcDbMLeaderStyle
  3
ACDB_MLEADERSTYLE_CLASS
 90
     4095
280
     0
281
     0
  0
CLASS
  1
ACDBSECTIONVIEWSTYLE
  2
AcDbSectionViewStyle
  3
ObjectDBX Classes
 90
     1025
280
     0
281
     0
  0
CLASS
  1
ACDBDETAILVIEWSTYLE
  2
AcDbDetailViewStyle
  3
ObjectDBX Classes
 90
     1025
280
     0
281
     0
  0
CLASS
  1
CELLSTYLEMAP
  2
AcDbCellStyleMap
  3
ObjectDBX Classes
 90
     1152
280
     0
281
     0
  0
ENDSEC
  0
SECTION
  2
TABLES
  0
TABLE
  2
VPORT
  5
8
330
0
100
AcDbSymbolTable
 70
     2
  0
VPORT
  5
FF91
330
8
100
AcDbSymbolTableRecord
100
AcDbViewportTableRecord
  2
*Active
 70
     0
 10
0.0
 20
0.0
 11
1.0
 21
1.0
 12
5982.100035407292
 22
265.7681966990676
 13
0.0
 23
0.0
 14
10.0
 24
10.0
 15
10.0
 25
10.0
 16
0.0
 26
0.0
 36
1.0
 17
0.0
 27
0.0
 37
0.0
 40
2488.788258652628
 41
1.29038112522686
 42
50.0
 43
0.0
 44
0.0
 50
0.0
 51
0.0
 71
     0
 72
   100
 73
     1
 74
     3
 75
     0
 76
     0
 77
     0
 78
     0
281
     0
 65
     1
110
0.0
120
0.0
130
0.0
111
1.0
121
0.0
131
0.0
112
0.0
122
1.0
132
0.0
 79
     0
146
0.0
  0
ENDTAB
  0
TABLE
  2
LTYPE
  5
5
330
0
100
AcDbSymbolTable
 70
    46
  0
LTYPE
  5
14
330
5
100
AcDbSymbolTableRecord
100
AcDbLinetypeTableRecord
  2
ByBlock
 70
     0
  3

 72
    65
 73
     0
 40
0.0
  0
LTYPE
  5
15
330
5
100
AcDbSymbolTableRecord
100
AcDbLinetypeTableRecord
  2
ByLayer
 70
     0
  3

 72
    65
 73
     0
 40
0.0
  0
LTYPE
  5
16
330
5
100
AcDbSymbolTableRecord
100
AcDbLinetypeTableRecord
  2
Continuous
 70
     0
  3
Solid line
 72
    65
 73
     0
 40
0.0
  0
LTYPE
  5
163
330
5
100
AcDbSymbolTableRecord
100
AcDbLinetypeTableRecord
  2
ACAD_ISO02W100
 70
     0
  3
ISO dash __ __ __ __ __ __ __ __ __ __ __ __ __
 72
    65
 73
     2
 40
15.0
 49
12.0
 74
     0
 49
-3.0
 74
     0
  0
LTYPE
  5
164
330
5
100
AcDbSymbolTableRecord
100
AcDbLinetypeTableRecord
  2
ACAD_ISO03W100
 70
     0
  3
ISO dash space __    __    __    __    __    __
 72
    65
 73
     2
 40
30.0
 49
12.0
 74
     0
 49
-18.0
 74
     0
  0
LTYPE
  5
165
330
5
100
AcDbSymbolTableRecord
100
AcDbLinetypeTableRecord
  2
ACAD_ISO04W100
 70
     0
  3
ISO long-dash dot ____ . ____ . ____ . ____ . _
 72
    65
 73
     4
 40
30.0
 49
24.0
 74
     0
 49
-3.0
 74
     0
 49
0.0
 74
     0
 49
-3.0
 74
     0
  0
LTYPE
  5
166
330
5
100
AcDbSymbolTableRecord
100
AcDbLinetypeTableRecord
  2
ACAD_ISO05W100
 70
     0
  3
ISO long-dash double-dot ____ .. ____ .. ____ .
 72
    65
 73
     6
 40
34.0
 49
24.0
 74
     0
 49
-3.0
 74
     0
 49
0.5
 74
     0
 49
-3.0
 74
     0
 49
0.5
 74
     0
 49
-3.0
 74
     0
  0
LTYPE
  5
167
330
5
100
AcDbSymbolTableRecord
100
AcDbLinetypeTableRecord
  2
ACAD_ISO06W100
 70
     0
  3
ISO long-dash triple-dot ____ ... ____ ... ____
 72
    65
 73
     8
 40
37.5
 49
24.0
 74
     0
 49
-3.0
 74
     0
 49
0.5
 74
     0
 49
-3.0
 74
     0
 49
0.5
 74
     0
 49
-3.0
 74
     0
 49
0.5
 74
     0
 49
-3.0
 74
     0
  0
LTYPE
  5
168
330
5
100
AcDbSymbolTableRecord
100
AcDbLinetypeTableRecord
  2
ACAD_ISO07W100
 70
     0
  3
ISO dot . . . . . . . . . . . . . . . . . . . .
 72
    65
 73
     2
 40
3.0
 49
0.0
 74
     0
 49
-3.0
 74
     0
  0
LTYPE
  5
169
330
5
100
AcDbSymbolTableRecord
100
AcDbLinetypeTableRecord
  2
ACAD_ISO08W100
 70
     0
  3
ISO long-dash short-dash ____ __ ____ __ ____ _
 72
    65
 73
     4
 40
36.0
 49
24.0
 74
     0
 49
-3.0
 74
     0
 49
6.0
 74
     0
 49
-3.0
 74
     0
  0
LTYPE
  5
16A
330
5
100
AcDbSymbolTableRecord
100
AcDbLinetypeTableRecord
  2
ACAD_ISO09W100
 70
     0
  3
ISO long-dash double-short-dash ____ __ __ ____
 72
    65
 73
     6
 40
45.0
 49
24.0
 74
     0
 49
-3.0
 74
     0
 49
6.0
 74
     0
 49
-3.0
 74
     0
 49
6.0
 74
     0
 49
-3.0
 74
     0
  0
LTYPE
  5
16B
330
5
100
AcDbSymbolTableRecord
100
AcDbLinetypeTableRecord
  2
ACAD_ISO10W100
 70
     0
  3
ISO dash dot __ . __ . __ . __ . __ . __ . __ .
 72
    65
 73
     4
 40
18.0
 49
12.0
 74
     0
 49
-3.0
 74
     0
 49
0.0
 74
     0
 49
-3.0
 74
     0
  0
LTYPE
  5
16C
330
5
100
AcDbSymbolTableRecord
100
AcDbLinetypeTableRecord
  2
ACAD_ISO11W100
 70
     0
  3
ISO double-dash dot __ __ . __ __ . __ __ . __ 
 72
    65
 73
     6
 40
33.0
 49
12.0
 74
     0
 49
-3.0
 74
     0
 49
12.0
 74
     0
 49
-3.0
 74
     0
 49
0.0
 74
     0
 49
-3.0
 74
     0
  0
LTYPE
  5
16D
330
5
100
AcDbSymbolTableRecord
100
AcDbLinetypeTableRecord
  2
ACAD_ISO12W100
 70
     0
  3
ISO dash double-dot __ . . __ . . __ . . __ . .
 72
    65
 73
     6
 40
21.0
 49
12.0
 74
     0
 49
-3.0
 74
     0
 49
0.0
 74
     0
 49
-3.0
 74
     0
 49
0.0
 74
     0
 49
-3.0
 74
     0
  0
LTYPE
  5
16E
330
5
100
AcDbSymbolTableRecord
100
AcDbLinetypeTableRecord
  2
ACAD_ISO13W100
 70
     0
  3
ISO double-dash double-dot __ __ . . __ __ . . 
 72
    65
 73
     8
 40
36.0
 49
12.0
 74
     0
 49
-3.0
 74
     0
 49
12.0
 74
     0
 49
-3.0
 74
     0
 49
0.0
 74
     0
 49
-3.0
 74
     0
 49
0.0
 74
     0
 49
-3.0
 74
     0
  0
LTYPE
  5
16F
330
5
100
AcDbSymbolTableRecord
100
AcDbLinetypeTableRecord
  2
ACAD_ISO14W100
 70
     0
  3
ISO dash triple-dot __ . . . __ . . . __ . . . 
 72
    65
 73
     8
 40
24.0
 49
12.0
 74
     0
 49
-3.0
 74
     0
 49
0.0
 74
     0
 49
-3.0
 74
     0
 49
0.0
 74
     0
 49
-3.0
 74
     0
 49
0.0
 74
     0
 49
-3.0
 74
     0
  0
LTYPE
  5
170
330
5
100
AcDbSymbolTableRecord
100
AcDbLinetypeTableRecord
  2
ACAD_ISO15W100
 70
     0
  3
ISO double-dash triple-dot __ __ . . . __ __ . 
 72
    65
 73
    10
 40
39.0
 49
12.0
 74
     0
 49
-3.0
 74
     0
 49
12.0
 74
     0
 49
-3.0
 74
     0
 49
0.0
 74
     0
 49
-3.0
 74
     0
 49
0.0
 74
     0
 49
-3.0
 74
     0
 49
0.0
 74
     0
 49
-3.0
 74
     0
  0
LTYPE
  5
171
330
5
100
AcDbSymbolTableRecord
100
AcDbLinetypeTableRecord
  2
BATTING
 70
     0
  3
Batting SSSSSSSSSSSSSSSSSSSSSSSSSSSSSSSSSSSSSSS
 72
    65
 73
     4
 40
10.16254
 49
0.00254
 74
     0
 49
-2.54
 74
     4
 75
   134
340
162
 46
2.54
 50
0.0
 44
-2.54
 45
0.0
 49
-5.08
 74
     4
 75
   134
340
162
 46
2.54
 50
180.0
 44
2.54
 45
0.0
 49
-2.54
 74
     0
  0
LTYPE
  5
172
330
5
100
AcDbSymbolTableRecord
100
AcDbLinetypeTableRecord
  2
BORDER
 70
     0
  3
Border __ __ . __ __ . __ __ . __ __ . __ __ .
 72
    65
 73
     6
 40
44.45
 49
12.7
 74
     0
 49
-6.349999999999998
 74
     0
 49
12.7
 74
     0
 49
-6.349999999999998
 74
     0
 49
0.0
 74
     0
 49
-6.349999999999998
 74
     0
  0
LTYPE
  5
173
330
5
100
AcDbSymbolTableRecord
100
AcDbLinetypeTableRecord
  2
BORDER2
 70
     0
  3
Border (.5x) __.__.__.__.__.__.__.__.__.__.__.
 72
    65
 73
     6
 40
22.225
 49
6.349999999999998
 74
     0
 49
-3.174999999999998
 74
     0
 49
6.349999999999998
 74
     0
 49
-3.174999999999998
 74
     0
 49
0.0
 74
     0
 49
-3.174999999999998
 74
     0
  0
LTYPE
  5
174
330
5
100
AcDbSymbolTableRecord
100
AcDbLinetypeTableRecord
  2
BORDERX2
 70
     0
  3
Border (2x) ____  ____  .  ____  ____  .  ___
 72
    65
 73
     6
 40
88.9
 49
25.4
 74
     0
 49
-12.7
 74
     0
 49
25.4
 74
     0
 49
-12.7
 74
     0
 49
0.0
 74
     0
 49
-12.7
 74
     0
  0
LTYPE
  5
175
330
5
100
AcDbSymbolTableRecord
100
AcDbLinetypeTableRecord
  2
CENTER
 70
     0
  3
Center ____ _ ____ _ ____ _ ____ _ ____ _ ____
 72
    65
 73
     4
 40
50.8
 49
31.75
 74
     0
 49
-6.349999999999998
 74
     0
 49
6.349999999999998
 74
     0
 49
-6.349999999999998
 74
     0
  0
LTYPE
  5
176
330
5
100
AcDbSymbolTableRecord
100
AcDbLinetypeTableRecord
  2
CENTER2
 70
     0
  3
Center (.5x) ___ _ ___ _ ___ _ ___ _ ___ _ ___
 72
    65
 73
     4
 40
28.575
 49
19.05
 74
     0
 49
-3.174999999999998
 74
     0
 49
3.174999999999998
 74
     0
 49
-3.174999999999998
 74
     0
  0
LTYPE
  5
177
330
5
100
AcDbSymbolTableRecord
100
AcDbLinetypeTableRecord
  2
CENTERX2
 70
     0
  3
Center (2x) ________  __  ________  __  _____
 72
    65
 73
     4
 40
101.6
 49
63.5
 74
     0
 49
-12.7
 74
     0
 49
12.7
 74
     0
 49
-12.7
 74
     0
  0
LTYPE
  5
178
330
5
100
AcDbSymbolTableRecord
100
AcDbLinetypeTableRecord
  2
DASHDOT
 70
     0
  3
Dash dot __ . __ . __ . __ . __ . __ . __ . __
 72
    65
 73
     4
 40
25.4
 49
12.7
 74
     0
 49
-6.349999999999998
 74
     0
 49
0.0
 74
     0
 49
-6.349999999999998
 74
     0
  0
LTYPE
  5
179
330
5
100
AcDbSymbolTableRecord
100
AcDbLinetypeTableRecord
  2
DASHDOT2
 70
     0
  3
Dash dot (.5x) _._._._._._._._._._._._._._._.
 72
    65
 73
     4
 40
12.7
 49
6.349999999999998
 74
     0
 49
-3.174999999999998
 74
     0
 49
0.0
 74
     0
 49
-3.174999999999998
 74
     0
  0
LTYPE
  5
17A
330
5
100
AcDbSymbolTableRecord
100
AcDbLinetypeTableRecord
  2
DASHDOTX2
 70
     0
  3
Dash dot (2x) ____  .  ____  .  ____  .  ___
 72
    65
 73
     4
 40
50.8
 49
25.4
 74
     0
 49
-12.7
 74
     0
 49
0.0
 74
     0
 49
-12.7
 74
     0
  0
LTYPE
  5
17B
330
5
100
AcDbSymbolTableRecord
100
AcDbLinetypeTableRecord
  2
DASHED
 70
     0
  3
Dashed __ __ __ __ __ __ __ __ __ __ __ __ __ _
 72
    65
 73
     2
 40
19.05
 49
12.7
 74
     0
 49
-6.349999999999998
 74
     0
  0
LTYPE
  5
17C
330
5
100
AcDbSymbolTableRecord
100
AcDbLinetypeTableRecord
  2
DASHED2
 70
     0
  3
Dashed (.5x) _ _ _ _ _ _ _ _ _ _ _ _ _ _ _ _ _
 72
    65
 73
     2
 40
9.524999999999996
 49
6.349999999999998
 74
     0
 49
-3.174999999999998
 74
     0
  0
LTYPE
  5
17D
330
5
100
AcDbSymbolTableRecord
100
AcDbLinetypeTableRecord
  2
DASHEDX2
 70
     0
  3
Dashed (2x) ____  ____  ____  ____  ____  ___
 72
    65
 73
     2
 40
38.1
 49
25.4
 74
     0
 49
-12.7
 74
     0
  0
LTYPE
  5
17E
330
5
100
AcDbSymbolTableRecord
100
AcDbLinetypeTableRecord
  2
DIVIDE
 70
     0
  3
Divide ____ . . ____ . . ____ . . ____ . . ____
 72
    65
 73
     6
 40
31.75
 49
12.7
 74
     0
 49
-6.349999999999998
 74
     0
 49
0.0
 74
     0
 49
-6.349999999999998
 74
     0
 49
0.0
 74
     0
 49
-6.349999999999998
 74
     0
  0
LTYPE
  5
17F
330
5
100
AcDbSymbolTableRecord
100
AcDbLinetypeTableRecord
  2
DIVIDE2
 70
     0
  3
Divide (.5x) __..__..__..__..__..__..__..__.._
 72
    65
 73
     6
 40
15.875
 49
6.349999999999998
 74
     0
 49
-3.174999999999998
 74
     0
 49
0.0
 74
     0
 49
-3.174999999999998
 74
     0
 49
0.0
 74
     0
 49
-3.174999999999998
 74
     0
  0
LTYPE
  5
180
330
5
100
AcDbSymbolTableRecord
100
AcDbLinetypeTableRecord
  2
DIVIDEX2
 70
     0
  3
Divide (2x) ________  .  .  ________  .  .  _
 72
    65
 73
     6
 40
63.49999999999999
 49
25.4
 74
     0
 49
-12.7
 74
     0
 49
0.0
 74
     0
 49
-12.7
 74
     0
 49
0.0
 74
     0
 49
-12.7
 74
     0
  0
LTYPE
  5
181
330
5
100
AcDbSymbolTableRecord
100
AcDbLinetypeTableRecord
  2
DOT
 70
     0
  3
Dot . . . . . . . . . . . . . . . . . . . . . .
 72
    65
 73
     2
 40
6.349999999999998
 49
0.0
 74
     0
 49
-6.349999999999998
 74
     0
  0
LTYPE
  5
182
330
5
100
AcDbSymbolTableRecord
100
AcDbLinetypeTableRecord
  2
DOT2
 70
     0
  3
Dot (.5x) .....................................
 72
    65
 73
     2
 40
3.174999999999998
 49
0.0
 74
     0
 49
-3.174999999999998
 74
     0
  0
LTYPE
  5
183
330
5
100
AcDbSymbolTableRecord
100
AcDbLinetypeTableRecord
  2
DOTX2
 70
     0
  3
Dot (2x) .  .  .  .  .  .  .  .  .  .  .  .  . 
 72
    65
 73
     2
 40
12.7
 49
0.0
 74
     0
 49
-12.7
 74
     0
  0
LTYPE
  5
184
330
5
100
AcDbSymbolTableRecord
100
AcDbLinetypeTableRecord
  2
FENCELINE1
 70
     0
  3
Fenceline circle ----0-----0----0-----0----0---
 72
    65
 73
     4
 40
36.83
 49
6.349999999999998
 74
     0
 49
-2.54
 74
     4
 75
   133
340
162
 46
2.54
 50
0.0
 44
-2.54
 45
0.0
 49
-2.54
 74
     0
 49
25.4
 74
     0
  0
LTYPE
  5
185
330
5
100
AcDbSymbolTableRecord
100
AcDbLinetypeTableRecord
  2
FENCELINE2
 70
     0
  3
Fenceline square ----[]-----[]----[]-----[]----
 72
    65
 73
     4
 40
36.83
 49
6.349999999999998
 74
     0
 49
-2.54
 74
     4
 75
   132
340
162
 46
2.54
 50
0.0
 44
-2.54
 45
0.0
 49
-2.54
 74
     0
 49
25.4
 74
     0
  0
LTYPE
  5
186
330
5
100
AcDbSymbolTableRecord
100
AcDbLinetypeTableRecord
  2
GAS_LINE
 70
     0
  3
Gas line ----GAS----GAS----GAS----GAS----GAS---
 72
    65
 73
     3
 40
24.13
 49
12.7
 74
     0
 49
-5.08
 74
     2
 75
     0
340
11
 46
2.54
 50
0.0
 44
-2.54
 45
-1.27
  9
GAS
 49
-6.349999999999998
 74
     0
  0
LTYPE
  5
187
330
5
100
AcDbSymbolTableRecord
100
AcDbLinetypeTableRecord
  2
HIDDEN
 70
     0
  3
Hidden __ __ __ __ __ __ __ __ __ __ __ __ __ _
 72
    65
 73
     2
 40
9.524999999999996
 49
6.349999999999998
 74
     0
 49
-3.174999999999998
 74
     0
  0
LTYPE
  5
188
330
5
100
AcDbSymbolTableRecord
100
AcDbLinetypeTableRecord
  2
HIDDEN2
 70
     0
  3
Hidden (.5x) _ _ _ _ _ _ _ _ _ _ _ _ _ _ _ _ _
 72
    65
 73
     2
 40
4.762499999999998
 49
3.174999999999998
 74
     0
 49
-1.587499999999999
 74
     0
  0
LTYPE
  5
189
330
5
100
AcDbSymbolTableRecord
100
AcDbLinetypeTableRecord
  2
HIDDENX2
 70
     0
  3
Hidden (2x) ____ ____ ____ ____ ____ ____ ____
 72
    65
 73
     2
 40
19.05
 49
12.7
 74
     0
 49
-6.349999999999998
 74
     0
  0
LTYPE
  5
18A
330
5
100
AcDbSymbolTableRecord
100
AcDbLinetypeTableRecord
  2
HOT_WATER_SUPPLY
 70
     0
  3
Hot water supply ---- HW ---- HW ---- HW ----
 72
    65
 73
     3
 40
22.86
 49
12.7
 74
     0
 49
-5.08
 74
     2
 75
     0
340
11
 46
2.54
 50
0.0
 44
-2.54
 45
-1.27
  9
HW
 49
-5.08
 74
     0
  0
LTYPE
  5
18B
330
5
100
AcDbSymbolTableRecord
100
AcDbLinetypeTableRecord
  2
PHANTOM
 70
     0
  3
Phantom ______  __  __  ______  __  __  ______
 72
    65
 73
     6
 40
63.5
 49
31.75
 74
     0
 49
-6.349999999999998
 74
     0
 49
6.349999999999998
 74
     0
 49
-6.349999999999998
 74
     0
 49
6.349999999999998
 74
     0
 49
-6.349999999999998
 74
     0
  0
LTYPE
  5
18C
330
5
100
AcDbSymbolTableRecord
100
AcDbLinetypeTableRecord
  2
PHANTOM2
 70
     0
  3
Phantom (.5x) ___ _ _ ___ _ _ ___ _ _ ___ _ _
 72
    65
 73
     6
 40
31.75
 49
15.875
 74
     0
 49
-3.174999999999998
 74
     0
 49
3.174999999999998
 74
     0
 49
-3.174999999999998
 74
     0
 49
3.174999999999998
 74
     0
 49
-3.174999999999998
 74
     0
  0
LTYPE
  5
18D
330
5
100
AcDbSymbolTableRecord
100
AcDbLinetypeTableRecord
  2
PHANTOMX2
 70
     0
  3
Phantom (2x) ____________    ____    ____   _
 72
    65
 73
     6
 40
127.0
 49
63.5
 74
     0
 49
-12.7
 74
     0
 49
12.7
 74
     0
 49
-12.7
 74
     0
 49
12.7
 74
     0
 49
-12.7
 74
     0
  0
LTYPE
  5
18E
330
5
100
AcDbSymbolTableRecord
100
AcDbLinetypeTableRecord
  2
TRACKS
 70
     0
  3
Tracks -|-|-|-|-|-|-|-|-|-|-|-|-|-|-|-|-|-|-|-|
 72
    65
 73
     2
 40
7.62
 49
3.81
 74
     4
 75
   130
340
162
 46
6.349999999999998
 50
0.0
 44
0.0
 45
0.0
 49
3.81
 74
     0
  0
LTYPE
  5
18F
330
5
100
AcDbSymbolTableRecord
100
AcDbLinetypeTableRecord
  2
ZIGZAG
 70
     0
  3
Zig zag /\/\/\/\/\/\/\/\/\/\/\/\/\/\/\/\/\/\/\/
 72
    65
 73
     4
 40
20.32254
 49
0.00254
 74
     0
 49
-5.08
 74
     4
 75
   131
340
162
 46
5.08
 50
0.0
 44
-5.08
 45
0.0
 49
-10.16
 74
     4
 75
   131
340
162
 46
5.08
 50
180.0
 44
5.08
 45
0.0
 49
-5.08
 74
     0
  0
ENDTAB
  0
TABLE
  2
LAYER
  5
2
102
{ACAD_XDICTIONARY
360
2D4A
102
}
330
0
100
AcDbSymbolTable
 70
    11
  0
LAYER
  5
10
102
{ACAD_XDICTIONARY
360
FF27
102
}
330
2
100
AcDbSymbolTableRecord
100
AcDbLayerTableRecord
  2
0
 70
     0
 62
     7
  6
Continuous
290
     0
370
    -3
390
F
  0
LAYER
  5
46
330
2
100
AcDbSymbolTableRecord
100
AcDbLayerTableRecord
  2
Defpoints
 70
     0
 62
     7
  6
Continuous
290
     0
370
    -3
390
F
  0
LAYER
  5
B1
102
{ACAD_XDICTIONARY
360
FF29
102
}
330
2
100
AcDbSymbolTableRecord
100
AcDbLayerTableRecord
  2
範囲
 70
     0
 62
    -5
  6
Continuous
290
     0
370
    -3
390
F
  0
LAYER
  5
190
102
{ACAD_XDICTIONARY
360
FF2B
102
}
330
2
100
AcDbSymbolTableRecord
100
AcDbLayerTableRecord
  2
中心
 70
     0
 62
     7
  6
CENTER2
370
    -3
390
F
  0
LAYER
  5
19B
102
{ACAD_XDICTIONARY
360
FF2D
102
}
330
2
100
AcDbSymbolTableRecord
100
AcDbLayerTableRecord
  2
実形
 70
     0
 62
     7
  6
Continuous
370
    13
390
F
  0
LAYER
  5
19C
102
{ACAD_XDICTIONARY
360
FF2F
102
}
330
2
100
AcDbSymbolTableRecord
100
AcDbLayerTableRecord
  2
補助
 70
     0
 62
     4
  6
Continuous
370
    -3
390
F
  0
LAYER
  5
19D
102
{ACAD_XDICTIONARY
360
FF31
102
}
330
2
100
AcDbSymbolTableRecord
100
AcDbLayerTableRecord
  2
文字
 70
     0
 62
     7
  6
Continuous
370
    -3
390
F
  0
LAYER
  5
19E
102
{ACAD_XDICTIONARY
360
FF33
102
}
330
2
100
AcDbSymbolTableRecord
100
AcDbLayerTableRecord
  2
寸法
 70
     0
 62
     7
  6
Continuous
370
    -3
390
F
  0
LAYER
  5
5B6
102
{ACAD_XDICTIONARY
360
FF35
102
}
330
2
100
AcDbSymbolTableRecord
100
AcDbLayerTableRecord
  2
センター
 70
     0
 62
     7
  6
CENTER2
370
    15
390
F
  0
LAYER
  5
CE5
102
{ACAD_XDICTIONARY
360
FF37
102
}
330
2
100
AcDbSymbolTableRecord
100
AcDbLayerTableRecord
  2
範囲(文字)
 70
     0
 62
     3
  6
Continuous
370
    -3
390
F
  0
LAYER
  5
75BE
102
{ACAD_XDICTIONARY
360
FF39
102
}
330
2
100
AcDbSymbolTableRecord
100
AcDbLayerTableRecord
  2
Cen
 70
     0
 62
     7
  6
CENTER2
290
     0
370
    15
390
F
  0
ENDTAB
  0
TABLE
  2
STYLE
  5
3
330
0
100
AcDbSymbolTable
 70
     4
  0
STYLE
  5
11
330
3
100
AcDbSymbolTableRecord
100
AcDbTextStyleTableRecord
  2
Standard
 70
     0
 40
0.0
 41
1.0
 50
0.0
 71
     0
 42
60.0
  3
txt.shx
  4
bigfont.shx
  0
STYLE
  5
162
330
3
100
AcDbSymbolTableRecord
100
AcDbTextStyleTableRecord
  2

 70
     1
 40
0.0
 41
1.0
 50
0.0
 71
     0
 42
2.5
  3
ltypeshp.shx
  4

  0
STYLE
  5
4854
330
3
100
AcDbSymbolTableRecord
100
AcDbTextStyleTableRecord
  2
MS明朝
 70
     0
 40
0.0
 41
1.0
 50
0.0
 71
     0
 42
65.0
  3
MS Mincho.ttf
  4

1001
ACAD
1000
MS Mincho
1071
    32785
  0
STYLE
  5
653F
330
3
100
AcDbSymbolTableRecord
100
AcDbTextStyleTableRecord
  2
ｍｓ明朝
 70
     0
 40
0.0
 41
1.0
 50
0.0
 71
     0
 42
35.0
  3
MS Mincho.ttf
  4

1001
ACAD
1000
MS Mincho
1071
    32785
  0
ENDTAB
  0
TABLE
  2
VIEW
  5
6
330
0
100
AcDbSymbolTable
 70
     0
  0
ENDTAB
  0
TABLE
  2
UCS
  5
7
330
0
100
AcDbSymbolTable
 70
     0
  0
ENDTAB
  0
TABLE
  2
APPID
  5
9
330
0
100
AcDbSymbolTable
 70
     5
  0
APPID
  5
12
330
9
100
AcDbSymbolTableRecord
100
AcDbRegAppTableRecord
  2
ACAD
 70
     0
  0
APPID
  5
32FF
330
9
100
AcDbSymbolTableRecord
100
AcDbRegAppTableRecord
  2
ACAD_DSTYLE_DIMTEXT_FILL
 70
     0
  0
APPID
  5
4855
330
9
100
AcDbSymbolTableRecord
100
AcDbRegAppTableRecord
  2
ACAD_PSEXT
 70
     0
  0
APPID
  5
FF42
330
9
100
AcDbSymbolTableRecord
100
AcDbRegAppTableRecord
  2
ACAD_NAV_VCDISPLAY
 70
     0
  0
APPID
  5
FF82
330
9
100
AcDbSymbolTableRecord
100
AcDbRegAppTableRecord
  2
ACAD_MLEADERVER
 70
     0
  0
ENDTAB
  0
TABLE
  2
DIMSTYLE
  5
A
330
0
100
AcDbSymbolTable
 70
     1
100
AcDbDimStyleTable
 71
     1
340
27
  0
DIMSTYLE
105
27
102
{ACAD_REACTORS
330
EEE4
330
EEFA
330
EF19
330
EF2F
330
EF45
330
EF5B
330
EF72
330
EF88
330
EF9E
330
EFB4
330
EFCA
330
EFE3
330
EFF9
330
EFFA
330
EFFB
330
EFFC
330
EFFD
330
EFFE
330
F0B3
330
FAB9
330
FABA
330
3AA2
330
3AA3
330
6962
330
69A3
330
69A4
330
69A6
330
8BAF
330
8BB1
330
FC7D
102
}
330
A
100
AcDbSymbolTableRecord
100
AcDbDimStyleTableRecord
  2
ISO-25
 70
     0
 41
3.0
 42
0.625
 43
3.75
 44
0.0
 73
     0
 74
     0
 77
     1
 78
     8
140
2.5
141
2.5
143
0.03937007874016
147
0.625
171
     3
172
     1
271
     2
272
     2
274
     3
278
    44
283
     0
284
     8
340
11
341
72
342
6E
  0
ENDTAB
  0
TABLE
  2
BLOCK_RECORD
  5
1
330
0
100
AcDbSymbolTable
 70
    57
  0
BLOCK_RECORD
  5
1F
102
{ACAD_XDICTIONARY
360
129E
102
}
330
1
100
AcDbSymbolTableRecord
100
AcDbBlockTableRecord
  2
*Model_Space
340
22
  0
BLOCK_RECORD
  5
1B
330
1
100
AcDbSymbolTableRecord
100
AcDbBlockTableRecord
  2
*Paper_Space
340
1E
  0
BLOCK_RECORD
  5
23
330
1
100
AcDbSymbolTableRecord
100
AcDbBlockTableRecord
  2
*Paper_Space0
340
26
  0
BLOCK_RECORD
  5
6E
330
1
100
AcDbSymbolTableRecord
100
AcDbBlockTableRecord
  2
_DotSmall
340
0
102
{BLKREFS
331
3A6D
331
3A6E
331
3A79
331
3A7A
102
}
  0
BLOCK_RECORD
  5
72
330
1
100
AcDbSymbolTableRecord
100
AcDbBlockTableRecord
  2
_Open30
340
0
  0
BLOCK_RECORD
  5
E3
330
1
100
AcDbSymbolTableRecord
100
AcDbBlockTableRecord
  2
_Dot
340
0
102
{BLKREFS
331
8B95
331
8B96
331
8BA1
331
8BA2
331
6988
331
6989
331
6994
331
6995
331
FDF8
331
FE00
331
FE01
331
FE09
331
FE0A
331
FE12
331
FE13
331
FE1B
331
FE1C
331
FE24
331
FE25
331
FE46
331
FE47
331
FE51
331
FE52
331
FE59
331
FE5A
331
FE62
331
FE63
331
FE6B
331
FE6C
331
FE74
331
FE75
331
FE7D
331
FE7E
331
FC76
331
FC77
331
FDEE
331
FDEF
331
FDF7
331
FE86
331
FE87
331
FE8F
331
FE90
331
FE98
331
FE99
331
FEA1
331
FEA2
331
FEAA
331
FEAB
331
FEB3
331
FEB4
331
FEBC
331
FEBD
102
}
  0
BLOCK_RECORD
  5
2E16
102
{ACAD_XDICTIONARY
360
2E18
102
}
330
1
100
AcDbSymbolTableRecord
100
AcDbBlockTableRecord
  2
A$C15F87D20
340
0
  0
BLOCK_RECORD
  5
3077
102
{ACAD_XDICTIONARY
360
3079
102
}
330
1
100
AcDbSymbolTableRecord
100
AcDbBlockTableRecord
  2
A$C5F0A47DA
340
0
  0
BLOCK_RECORD
  5
3A68
330
1
100
AcDbSymbolTableRecord
100
AcDbBlockTableRecord
  2
*D6
340
0
  0
BLOCK_RECORD
  5
3A74
330
1
100
AcDbSymbolTableRecord
100
AcDbBlockTableRecord
  2
*D7
340
0
  0
BLOCK_RECORD
  5
3A80
330
1
100
AcDbSymbolTableRecord
100
AcDbBlockTableRecord
  2
A$C71203D21
340
0
  0
BLOCK_RECORD
  5
3D20
102
{ACAD_XDICTIONARY
360
3D22
102
}
330
1
100
AcDbSymbolTableRecord
100
AcDbBlockTableRecord
  2
A$C3396472D
340
0
  0
BLOCK_RECORD
  5
4D59
102
{ACAD_XDICTIONARY
360
4D5C
102
}
330
1
100
AcDbSymbolTableRecord
100
AcDbBlockTableRecord
  2
A$C35766A87
340
0
  0
BLOCK_RECORD
  5
4D60
102
{ACAD_XDICTIONARY
360
4D63
102
}
330
1
100
AcDbSymbolTableRecord
100
AcDbBlockTableRecord
  2
A$C7DBA1B1F
340
0
  0
BLOCK_RECORD
  5
4DA2
102
{ACAD_XDICTIONARY
360
4DA5
102
}
330
1
100
AcDbSymbolTableRecord
100
AcDbBlockTableRecord
  2
A$C70C3733A
340
0
  0
BLOCK_RECORD
  5
5005
102
{ACAD_XDICTIONARY
360
5007
102
}
330
1
100
AcDbSymbolTableRecord
100
AcDbBlockTableRecord
  2
A$C4FCE4A28
340
0
  0
BLOCK_RECORD
  5
5FE4
102
{ACAD_XDICTIONARY
360
5FE6
102
}
330
1
100
AcDbSymbolTableRecord
100
AcDbBlockTableRecord
  2
A$C373C4C5A
340
0
  0
BLOCK_RECORD
  5
6957
330
1
100
AcDbSymbolTableRecord
100
AcDbBlockTableRecord
  2
*D15
340
0
  0
BLOCK_RECORD
  5
6960
102
{ACAD_XDICTIONARY
360
6963
102
}
330
1
100
AcDbSymbolTableRecord
100
AcDbBlockTableRecord
  2
A$C0F021946
340
0
  0
BLOCK_RECORD
  5
697A
330
1
100
AcDbSymbolTableRecord
100
AcDbBlockTableRecord
  2
*D17
340
0
  0
BLOCK_RECORD
  5
6983
330
1
100
AcDbSymbolTableRecord
100
AcDbBlockTableRecord
  2
*D18
340
0
  0
BLOCK_RECORD
  5
698F
330
1
100
AcDbSymbolTableRecord
100
AcDbBlockTableRecord
  2
*D19
340
0
  0
BLOCK_RECORD
  5
699B
102
{ACAD_XDICTIONARY
360
69B1
102
}
330
1
100
AcDbSymbolTableRecord
100
AcDbBlockTableRecord
  2
A$C28E06192
340
0
  0
BLOCK_RECORD
  5
6AFA
102
{ACAD_XDICTIONARY
360
6AFD
102
}
330
1
100
AcDbSymbolTableRecord
100
AcDbBlockTableRecord
  2
A$C30BF74B5
340
0
  0
BLOCK_RECORD
  5
6F5D
102
{ACAD_XDICTIONARY
360
6F5F
102
}
330
1
100
AcDbSymbolTableRecord
100
AcDbBlockTableRecord
  2
A$C799E3471
340
0
  0
BLOCK_RECORD
  5
8B90
330
1
100
AcDbSymbolTableRecord
100
AcDbBlockTableRecord
  2
*D23
340
0
  0
BLOCK_RECORD
  5
8B9C
330
1
100
AcDbSymbolTableRecord
100
AcDbBlockTableRecord
  2
*D24
340
0
  0
BLOCK_RECORD
  5
8BA8
102
{ACAD_XDICTIONARY
360
8BB7
102
}
330
1
100
AcDbSymbolTableRecord
100
AcDbBlockTableRecord
  2
A$C3EBE49C3
340
0
  0
BLOCK_RECORD
  5
94C7
102
{ACAD_XDICTIONARY
360
94CA
102
}
330
1
100
AcDbSymbolTableRecord
100
AcDbBlockTableRecord
  2
A$C391041D1
340
0
  0
BLOCK_RECORD
  5
D427
102
{ACAD_XDICTIONARY
360
D429
102
}
330
1
100
AcDbSymbolTableRecord
100
AcDbBlockTableRecord
  2
A$C0C2E55CC
340
0
  0
BLOCK_RECORD
  5
D42E
102
{ACAD_XDICTIONARY
360
D430
102
}
330
1
100
AcDbSymbolTableRecord
100
AcDbBlockTableRecord
  2
A$C0B812968
340
0
  0
BLOCK_RECORD
  5
DA9F
102
{ACAD_XDICTIONARY
360
DAA1
102
}
330
1
100
AcDbSymbolTableRecord
100
AcDbBlockTableRecord
  2
A$C2FD720CD
340
0
  0
BLOCK_RECORD
  5
DD17
102
{ACAD_XDICTIONARY
360
DD19
102
}
330
1
100
AcDbSymbolTableRecord
100
AcDbBlockTableRecord
  2
A$C3E527385
340
0
  0
BLOCK_RECORD
  5
DE12
102
{ACAD_XDICTIONARY
360
DE14
102
}
330
1
100
AcDbSymbolTableRecord
100
AcDbBlockTableRecord
  2
A$C74C8594D
340
0
  0
BLOCK_RECORD
  5
E330
102
{ACAD_XDICTIONARY
360
E332
102
}
330
1
100
AcDbSymbolTableRecord
100
AcDbBlockTableRecord
  2
A$C7FD120C1
340
0
  0
BLOCK_RECORD
  5
EB79
102
{ACAD_XDICTIONARY
360
EB7B
102
}
330
1
100
AcDbSymbolTableRecord
100
AcDbBlockTableRecord
  2
A$C3EC07742
340
0
  0
BLOCK_RECORD
  5
EEE5
330
1
100
AcDbSymbolTableRecord
100
AcDbBlockTableRecord
  2
*D34
340
0
  0
BLOCK_RECORD
  5
EEFB
330
1
100
AcDbSymbolTableRecord
100
AcDbBlockTableRecord
  2
*D35
340
0
  0
BLOCK_RECORD
  5
EF1A
330
1
100
AcDbSymbolTableRecord
100
AcDbBlockTableRecord
  2
*D36
340
0
  0
BLOCK_RECORD
  5
EF30
330
1
100
AcDbSymbolTableRecord
100
AcDbBlockTableRecord
  2
*D37
340
0
  0
BLOCK_RECORD
  5
EF46
330
1
100
AcDbSymbolTableRecord
100
AcDbBlockTableRecord
  2
*D38
340
0
  0
BLOCK_RECORD
  5
EF5C
330
1
100
AcDbSymbolTableRecord
100
AcDbBlockTableRecord
  2
*D39
340
0
  0
BLOCK_RECORD
  5
EF73
330
1
100
AcDbSymbolTableRecord
100
AcDbBlockTableRecord
  2
*D40
340
0
  0
BLOCK_RECORD
  5
EF89
330
1
100
AcDbSymbolTableRecord
100
AcDbBlockTableRecord
  2
*D41
340
0
  0
BLOCK_RECORD
  5
EF9F
330
1
100
AcDbSymbolTableRecord
100
AcDbBlockTableRecord
  2
*D42
340
0
  0
BLOCK_RECORD
  5
EFB5
330
1
100
AcDbSymbolTableRecord
100
AcDbBlockTableRecord
  2
*D43
340
0
  0
BLOCK_RECORD
  5
EFCB
330
1
100
AcDbSymbolTableRecord
100
AcDbBlockTableRecord
  2
*D44
340
0
  0
BLOCK_RECORD
  5
EFE4
330
1
100
AcDbSymbolTableRecord
100
AcDbBlockTableRecord
  2
*D45
340
0
  0
BLOCK_RECORD
  5
EFFF
330
1
100
AcDbSymbolTableRecord
100
AcDbBlockTableRecord
  2
*D46
340
0
  0
BLOCK_RECORD
  5
F00B
330
1
100
AcDbSymbolTableRecord
100
AcDbBlockTableRecord
  2
*D47
340
0
  0
BLOCK_RECORD
  5
F017
330
1
100
AcDbSymbolTableRecord
100
AcDbBlockTableRecord
  2
*D48
340
0
  0
BLOCK_RECORD
  5
F023
330
1
100
AcDbSymbolTableRecord
100
AcDbBlockTableRecord
  2
*D49
340
0
  0
BLOCK_RECORD
  5
F02F
330
1
100
AcDbSymbolTableRecord
100
AcDbBlockTableRecord
  2
*D50
340
0
  0
BLOCK_RECORD
  5
F03B
330
1
100
AcDbSymbolTableRecord
100
AcDbBlockTableRecord
  2
*D51
340
0
  0
BLOCK_RECORD
  5
F0B4
330
1
100
AcDbSymbolTableRecord
100
AcDbBlockTableRecord
  2
*D52
340
0
  0
BLOCK_RECORD
  5
FABB
330
1
100
AcDbSymbolTableRecord
100
AcDbBlockTableRecord
  2
*D53
340
0
  0
BLOCK_RECORD
  5
FAC9
330
1
100
AcDbSymbolTableRecord
100
AcDbBlockTableRecord
  2
*D54
340
0
  0
BLOCK_RECORD
  5
FC6E
330
1
100
AcDbSymbolTableRecord
100
AcDbBlockTableRecord
  2
*D55
340
0
  0
BLOCK_RECORD
  5
FC7C
102
{ACAD_XDICTIONARY
360
FC7E
102
}
330
1
100
AcDbSymbolTableRecord
100
AcDbBlockTableRecord
  2
A$C6CD8155D
340
0
  0
ENDTAB
  0
ENDSEC
  0
SECTION
  2
BLOCKS
  0
BLOCK
  5
20
330
1F
100
AcDbEntity
  8
0
100
AcDbBlockBegin
  2
*Model_Space
 70
     0
 10
0.0
 20
0.0
 30
0.0
  3
*Model_Space
  1

  0
ENDBLK
  5
21
330
1F
100
AcDbEntity
  8
0
100
AcDbBlockEnd
  0
BLOCK
  5
1C
330
1B
100
AcDbEntity
 67
     1
  8
0
100
AcDbBlockBegin
  2
*Paper_Space
 70
     0
 10
0.0
 20
0.0
 30
0.0
  3
*Paper_Space
  1

  0
ENDBLK
  5
1D
330
1B
100
AcDbEntity
 67
     1
  8
0
100
AcDbBlockEnd
  0
BLOCK
  5
24
330
23
100
AcDbEntity
  8
0
100
AcDbBlockBegin
  2
*Paper_Space0
 70
     0
 10
0.0
 20
0.0
 30
0.0
  3
*Paper_Space0
  1

  0
ENDBLK
  5
25
330
23
100
AcDbEntity
  8
0
100
AcDbBlockEnd
  0
BLOCK
  5
70
330
6E
100
AcDbEntity
  8
0
100
AcDbBlockBegin
  2
_DotSmall
 70
     0
 10
0.0
 20
0.0
 30
0.0
  3
_DotSmall
  1

  0
LWPOLYLINE
  5
6F
330
6E
100
AcDbEntity
  8
0
 62
     0
100
AcDbPolyline
 90
        2
 70
     1
 43
0.5
 10
-0.0625
 20
0.0
 42
1.0
 10
0.0625
 20
0.0
 42
1.0
  0
ENDBLK
  5
71
330
6E
100
AcDbEntity
  8
0
100
AcDbBlockEnd
  0
BLOCK
  5
76
330
72
100
AcDbEntity
  8
0
100
AcDbBlockBegin
  2
_Open30
 70
     0
 10
0.0
 20
0.0
 30
0.0
  3
_Open30
  1

  0
LINE
  5
73
330
72
100
AcDbEntity
  8
0
 62
     0
370
    -2
100
AcDbLine
 10
-1.0
 20
0.26794919
 30
0.0
 11
0.0
 21
0.0
 31
0.0
  0
LINE
  5
74
330
72
100
AcDbEntity
  8
0
 62
     0
370
    -2
100
AcDbLine
 10
0.0
 20
0.0
 30
0.0
 11
-1.0
 21
-0.26794919
 31
0.0
  0
LINE
  5
75
330
72
100
AcDbEntity
  8
0
 62
     0
370
    -2
100
AcDbLine
 10
0.0
 20
0.0
 30
0.0
 11
-1.0
 21
0.0
 31
0.0
  0
ENDBLK
  5
77
330
72
100
AcDbEntity
  8
0
100
AcDbBlockEnd
  0
BLOCK
  5
E6
330
E3
100
AcDbEntity
  8
0
100
AcDbBlockBegin
  2
_Dot
 70
     0
 10
0.0
 20
0.0
 30
0.0
  3
_Dot
  1

  0
LWPOLYLINE
  5
E4
330
E3
100
AcDbEntity
  8
0
 62
     0
100
AcDbPolyline
 90
        2
 70
     1
 43
0.5
 10
-0.25
 20
0.0
 42
1.0
 10
0.25
 20
0.0
 42
1.0
  0
LINE
  5
E5
330
E3
100
AcDbEntity
  8
0
 62
     0
370
    -2
100
AcDbLine
 10
-0.5
 20
0.0
 30
0.0
 11
-1.0
 21
0.0
 31
0.0
  0
ENDBLK
  5
E7
330
E3
100
AcDbEntity
  8
0
100
AcDbBlockEnd
  0
BLOCK
  5
2E1A
330
2E16
100
AcDbEntity
  8
0
 48
20.0
100
AcDbBlockBegin
  2
A$C15F87D20
 70
     0
 10
0.0
 20
0.0
 30
0.0
  3
A$C15F87D20
  1

  0
TEXT
  5
2E17
330
2E16
100
AcDbEntity
  8
文字
100
AcDbText
 10
0.0000044432890696
 20
0.0000005813435635
 30
0.0
 40
70.0
  1
NO.
 72
     4
 11
70.00000444328907
 21
35.00000058134356
 31
0.0
100
AcDbText
  0
ENDBLK
  5
2E1B
330
2E16
100
AcDbEntity
  8
0
 48
20.0
100
AcDbBlockEnd
  0
BLOCK
  5
307B
330
3077
100
AcDbEntity
  8
0
 48
20.0
100
AcDbBlockBegin
  2
A$C5F0A47DA
 70
     0
 10
0.0
 20
0.0
 30
0.0
  3
A$C5F0A47DA
  1

  0
TEXT
  5
3078
330
3077
100
AcDbEntity
  8
文字
 62
     0
100
AcDbText
 10
-0.533329768079057
 20
-0.666673555278976
 30
0.0
 40
10.0
  1
●
 41
0.8
 11
-0.5333297680790566
 21
4.333326444721024
 31
0.0
100
AcDbText
 73
     2
  0
ENDBLK
  5
307C
330
3077
100
AcDbEntity
  8
0
 48
20.0
100
AcDbBlockEnd
  0
BLOCK
  5
3A69
330
3A68
100
AcDbEntity
  8
0
100
AcDbBlockBegin
  2
*D6
 70
     1
 10
0.0
 20
0.0
 30
0.0
  3
*D6
  1

  0
LINE
  5
3A6A
330
3A68
100
AcDbEntity
  8
寸法
 62
     0
370
    15
100
AcDbLine
 10
1272.996834872258
 20
1357.0779087747
 30
0.0
 11
1303.369755257244
 21
1357.0779087747
 31
0.0
  0
LINE
  5
3A6B
330
3A68
100
AcDbEntity
  8
寸法
 62
     0
370
    15
100
AcDbLine
 10
1238.496834872259
 20
1487.0779087747
 30
0.0
 11
1303.369755257244
 21
1487.0779087747
 31
0.0
  0
LINE
  5
3A6C
330
3A68
100
AcDbEntity
  8
寸法
 62
     0
370
    15
100
AcDbLine
 10
1303.369755257244
 20
1357.0779087747
 30
0.0
 11
1303.369755257244
 21
1487.0779087747
 31
0.0
  0
INSERT
  5
3A6D
330
3A68
100
AcDbEntity
  8
寸法
 62
     0
370
    15
100
AcDbBlockReference
  2
_DotSmall
 10
1303.369755257244
 20
1357.0779087747
 30
0.0
 41
35.0
 42
35.0
 43
35.0
 50
270.0
  0
INSERT
  5
3A6E
330
3A68
100
AcDbEntity
  8
寸法
 62
     0
370
    15
100
AcDbBlockReference
  2
_DotSmall
 10
1303.369755257244
 20
1487.0779087747
 30
0.0
 41
35.0
 42
35.0
 43
35.0
 50
90.0
  0
MTEXT
  5
3A6F
330
3A68
100
AcDbEntity
  8
寸法
 62
     0
100
AcDbMText
 10
1284.619755257244
 20
1422.077908774701
 30
0.0
 40
25.0
 41
0.0
 71
     5
 72
     1
  1
130
 11
0.0000000000000001
 21
1.0
 31
0.0
 73
     1
 44
1.0
1001
ACAD
1000
MTEXTBEGIN
1070
    73
1070
     1
1070
    44
1040
1.0
1070
    74
1070
     0
1000
MTEXTEND
  0
POINT
  5
3A70
330
3A68
100
AcDbEntity
  8
Defpoints
 62
     0
100
AcDbPoint
 10
1207.996834872259
 20
1357.0779087747
 30
0.0
  0
POINT
  5
3A71
330
3A68
100
AcDbEntity
  8
Defpoints
 62
     0
100
AcDbPoint
 10
1303.496834872258
 20
1487.0779087747
 30
0.0
  0
POINT
  5
3A72
330
3A68
100
AcDbEntity
  8
Defpoints
 62
     0
100
AcDbPoint
 10
1303.369755257244
 20
1487.0779087747
 30
0.0
  0
ENDBLK
  5
3A73
330
3A68
100
AcDbEntity
  8
0
100
AcDbBlockEnd
  0
BLOCK
  5
3A75
330
3A74
100
AcDbEntity
  8
0
100
AcDbBlockBegin
  2
*D7
 70
     1
 10
0.0
 20
0.0
 30
0.0
  3
*D7
  1

  0
LINE
  5
3A76
330
3A74
100
AcDbEntity
  8
寸法
 62
     0
370
    15
100
AcDbLine
 10
1128.496834872258
 20
1212.5779087747
 30
0.0
 11
1128.496834872258
 21
1204.485142503699
 31
0.0
  0
LINE
  5
3A77
330
3A74
100
AcDbEntity
  8
寸法
 62
     0
370
    15
100
AcDbLine
 10
978.4968348722586
 20
1201.5779087747
 30
0.0
 11
978.4968348722586
 21
1204.485142503699
 31
0.0
  0
LINE
  5
3A78
330
3A74
100
AcDbEntity
  8
寸法
 62
     0
370
    15
100
AcDbLine
 10
1128.496834872258
 20
1204.485142503699
 30
0.0
 11
978.4968348722586
 21
1204.485142503699
 31
0.0
  0
INSERT
  5
3A79
330
3A74
100
AcDbEntity
  8
寸法
 62
     0
370
    15
100
AcDbBlockReference
  2
_DotSmall
 10
1128.496834872258
 20
1204.485142503699
 30
0.0
 41
35.0
 42
35.0
 43
35.0
  0
INSERT
  5
3A7A
330
3A74
100
AcDbEntity
  8
寸法
 62
     0
370
    15
100
AcDbBlockReference
  2
_DotSmall
 10
978.4968348722586
 20
1204.485142503699
 30
0.0
 41
35.0
 42
35.0
 43
35.0
 50
180.0
  0
MTEXT
  5
3A7B
330
3A74
100
AcDbEntity
  8
寸法
 62
     0
100
AcDbMText
 10
1053.496834872258
 20
1223.235142503699
 30
0.0
 40
25.0
 41
0.0
 71
     5
 72
     1
  1
150
 73
     1
 44
1.0
1001
ACAD
1000
MTEXTBEGIN
1070
    73
1070
     1
1070
    44
1040
1.0
1070
    74
1070
     0
1000
MTEXTEND
  0
POINT
  5
3A7C
330
3A74
100
AcDbEntity
  8
Defpoints
 62
     0
100
AcDbPoint
 10
1128.496834872258
 20
1277.577908774701
 30
0.0
  0
POINT
  5
3A7D
330
3A74
100
AcDbEntity
  8
Defpoints
 62
     0
100
AcDbPoint
 10
978.4968348722586
 20
1266.5779087747
 30
0.0
  0
POINT
  5
3A7E
330
3A74
100
AcDbEntity
  8
Defpoints
 62
     0
100
AcDbPoint
 10
978.4968348722586
 20
1204.485142503699
 30
0.0
  0
ENDBLK
  5
3A7F
330
3A74
100
AcDbEntity
  8
0
100
AcDbBlockEnd
  0
BLOCK
  5
3AB0
330
3A80
100
AcDbEntity
  8
0
 48
20.0
100
AcDbBlockBegin
  2
A$C71203D21
 70
     0
 10
0.0
 20
0.0
 30
0.0
  3
A$C71203D21
  1

  0
LINE
  5
3A81
330
3A80
100
AcDbEntity
  8
実形
100
AcDbLine
 10
0.0000005885285645
 20
474.9999998591328
 30
0.0
 11
0.0000005885285645
 21
74.99999985913291
 31
0.0
  0
LINE
  5
3A82
330
3A80
100
AcDbEntity
  8
実形
100
AcDbLine
 10
75.00000058852856
 20
-0.0000001408670869
 30
0.0
 11
605.0000005885285
 21
-0.0000001408670869
 31
0.0
  0
LINE
  5
3A83
330
3A80
100
AcDbEntity
  8
実形
100
AcDbLine
 10
680.0000005885285
 20
74.99999985913291
 30
0.0
 11
680.0000005885285
 21
474.9999998591328
 31
0.0
  0
LINE
  5
3A84
330
3A80
100
AcDbEntity
  8
実形
100
AcDbLine
 10
605.0000005885285
 20
549.9999998591327
 30
0.0
 11
75.00000058852856
 21
549.9999998591327
 31
0.0
  0
LINE
  5
3A85
330
3A80
100
AcDbEntity
  8
実形
100
AcDbLine
 10
75.00000058852856
 20
14.99999985913291
 30
0.0
 11
605.0000005885285
 21
14.99999985913291
 31
0.0
  0
LINE
  5
3A86
330
3A80
100
AcDbEntity
  8
実形
100
AcDbLine
 10
75.00000058852856
 20
534.9999998591328
 30
0.0
 11
605.0000005885282
 21
534.9999998591328
 31
0.0
  0
CIRCLE
  5
3A87
330
3A80
100
AcDbEntity
  8
実形
100
AcDbCircle
 10
165.0000005885285
 20
309.9999998591329
 30
0.0
 40
90.5
  0
CIRCLE
  5
3A88
330
3A80
100
AcDbEntity
  8
実形
100
AcDbCircle
 10
165.0000005885285
 20
309.9999998591329
 30
0.0
 40
79.5
  0
LINE
  5
3A89
330
3A80
100
AcDbEntity
  8
実形
100
AcDbLine
 10
15.00000058852856
 20
333.0584676853082
 30
0.0
 11
15.00000058852856
 21
136.9415320329576
 31
0.0
  0
LINE
  5
3A8A
330
3A80
100
AcDbEntity
  8
実形
100
AcDbLine
 10
665.0000005885285
 20
333.0584676853082
 30
0.0
 11
665.0000005885285
 21
136.9415320329576
 31
0.0
  0
ARC
  5
3A8B
330
3A80
100
AcDbEntity
  8
実形
100
AcDbCircle
 10
340.0000005885285
 20
3779.999999859133
 30
0.0
 40
3750.0
100
AcDbArc
 50
266.4658276845693
 51
273.5341723154307
  0
ARC
  5
3A8C
330
3A80
100
AcDbEntity
  8
実形
100
AcDbCircle
 10
340.0000005885285
 20
-3310.000000140867
 30
0.0
 40
3750.0
100
AcDbArc
 50
86.46582768456934
 51
93.53417231543064
  0
ARC
  5
3A8D
330
3A80
100
AcDbEntity
  8
実形
100
AcDbCircle
 10
115.0000005885285
 20
333.0584676853082
 30
0.0
 40
100.0
100
AcDbArc
 50
93.53417231543064
 51
180.0
  0
ARC
  5
3A8E
330
3A80
100
AcDbEntity
  8
実形
100
AcDbCircle
 10
115.0000005885285
 20
136.9415320329576
 30
0.0
 40
100.0
100
AcDbArc
 50
180.0
 51
266.4658276845693
  0
ARC
  5
3A8F
330
3A80
100
AcDbEntity
  8
実形
100
AcDbCircle
 10
565.0000005885285
 20
136.9415320329576
 30
0.0
 40
100.0
100
AcDbArc
 50
273.5341723154307
 51
0.0
  0
ARC
  5
3A90
330
3A80
100
AcDbEntity
  8
実形
100
AcDbCircle
 10
565.0000005885285
 20
333.0584676853082
 30
0.0
 40
100.0
100
AcDbArc
 50
0.0
 51
86.46582768456934
  0
LINE
  5
3A91
330
3A80
100
AcDbEntity
  8
実形
100
AcDbLine
 10
15.00000058852856
 20
394.9999998591329
 30
0.0
 11
15.00000058852856
 21
74.99999985913291
 31
0.0
  0
LINE
  5
3A92
330
3A80
100
AcDbEntity
  8
実形
100
AcDbLine
 10
75.00000058852856
 20
454.9999998591328
 30
0.0
 11
605.0000005885287
 21
454.9999998591328
 31
0.0
  0
LINE
  5
3A93
330
3A80
100
AcDbEntity
  8
実形
100
AcDbLine
 10
665.0000005885288
 20
394.9999998591329
 30
0.0
 11
665.0000005885285
 21
74.99999985913291
 31
0.0
  0
ARC
  5
3A94
330
3A80
100
AcDbEntity
  8
実形
100
AcDbCircle
 10
75.00000058852856
 20
394.9999998591329
 30
0.0
 40
60.0
100
AcDbArc
 50
90.0
 51
180.0
  0
ARC
  5
3A95
330
3A80
100
AcDbEntity
  8
実形
100
AcDbCircle
 10
75.00000058852856
 20
74.99999985913291
 30
0.0
 40
60.0
100
AcDbArc
 50
180.0
 51
270.0
  0
ARC
  5
3A96
330
3A80
100
AcDbEntity
  8
実形
100
AcDbCircle
 10
605.0000005885285
 20
74.99999985913291
 30
0.0
 40
60.0
100
AcDbArc
 50
270.0
 51
0.0
  0
ARC
  5
3A97
330
3A80
100
AcDbEntity
  8
実形
100
AcDbCircle
 10
605.0000005885287
 20
394.9999998591329
 30
0.0
 40
60.0
100
AcDbArc
 50
0.0
 51
90.0
  0
LINE
  5
3A98
330
3A80
100
AcDbEntity
  8
実形
100
AcDbLine
 10
15.00000058852868
 20
474.9999998591328
 30
0.0
 11
15.00000058852856
 21
136.9415320329576
 31
0.0
  0
LINE
  5
3A99
330
3A80
100
AcDbEntity
  8
実形
100
AcDbLine
 10
665.0000005885281
 20
474.9999998591328
 30
0.0
 11
665.0000005885285
 21
136.9415320329576
 31
0.0
  0
ARC
  5
3A9A
330
3A80
100
AcDbEntity
  8
実形
100
AcDbCircle
 10
75.00000058852856
 20
474.9999998591328
 30
0.0
 40
60.0
100
AcDbArc
 50
90.0
 51
180.0
  0
ARC
  5
3A9B
330
3A80
100
AcDbEntity
  8
実形
100
AcDbCircle
 10
605.0000005885282
 20
474.9999998591328
 30
0.0
 40
60.0
100
AcDbArc
 50
0.0
 51
90.0
  0
ARC
  5
3A9C
330
3A80
100
AcDbEntity
  8
実形
100
AcDbCircle
 10
75.00000058852856
 20
474.9999998591328
 30
0.0
 40
75.0
100
AcDbArc
 50
90.0
 51
180.0
  0
ARC
  5
3A9D
330
3A80
100
AcDbEntity
  8
実形
100
AcDbCircle
 10
75.00000058852856
 20
74.99999985913291
 30
0.0
 40
75.0
100
AcDbArc
 50
180.0
 51
270.0
  0
ARC
  5
3A9E
330
3A80
100
AcDbEntity
  8
実形
100
AcDbCircle
 10
605.0000005885285
 20
74.99999985913291
 30
0.0
 40
75.0
100
AcDbArc
 50
270.0
 51
0.0
  0
ARC
  5
3A9F
330
3A80
100
AcDbEntity
  8
実形
100
AcDbCircle
 10
605.0000005885285
 20
474.9999998591328
 30
0.0
 40
75.0
100
AcDbArc
 50
0.0
 51
90.0
  0
LINE
  5
3AA0
330
3A80
100
AcDbEntity
  8
センター
100
AcDbLine
 10
165.0000005885285
 20
444.1281231724715
 30
0.0
 11
165.0000005885285
 21
155.2799304081827
 31
0.0
  0
LINE
  5
3AA1
330
3A80
100
AcDbEntity
  8
センター
100
AcDbLine
 10
28.43168655823411
 20
309.9999998591329
 30
0.0
 11
301.6065584762409
 21
309.9999998591329
 31
0.0
  0
DIMENSION
  5
3AA2
330
3A80
100
AcDbEntity
  8
寸法
100
AcDbDimension
  2
*D6
 10
339.8729209735138
 20
439.9999998591328
 30
0.0
 11
321.1229209735137
 21
374.9999998591331
 31
0.0
 12
-963.49683428373
 22
-1047.077908915567
 32
0.0
 71
     5
 42
130.0
  3
ISO-25
100
AcDbAlignedDimension
 13
244.5000005885286
 23
309.9999998591329
 33
0.0
 14
340.0000005885285
 24
439.9999998591328
 34
0.0
 50
90.0
100
AcDbRotatedDimension
  0
DIMENSION
  5
3AA3
330
3A80
100
AcDbEntity
  8
寸法
100
AcDbDimension
  2
*D7
 10
15.00000058852856
 20
157.4072335881319
 30
0.0
 11
90.00000058852855
 21
176.1572335881319
 31
0.0
 12
-963.49683428373
 22
-1047.077908915567
 32
0.0
 71
     5
 42
150.0
  3
ISO-25
100
AcDbAlignedDimension
 13
165.0000005885285
 23
230.4999998591329
 33
0.0
 14
15.00000058852856
 24
219.4999998591329
 34
0.0
100
AcDbRotatedDimension
  0
MTEXT
  5
3AA4
330
3A80
100
AcDbEntity
  8
寸法
100
AcDbMText
 10
542.7533889003569
 20
499.1544613669484
 30
0.0
 40
25.0
 41
32.83443361350693
 71
     9
 72
     1
  1
75R
 73
     1
 44
1.0
1001
ACAD
1000
MTEXTBEGIN
1070
    73
1070
     1
1070
    44
1040
1.0
1070
    74
1070
     0
1000
MTEXTEND
  0
LEADER
  5
3AA5
330
3A80
100
AcDbEntity
  8
寸法
100
AcDbLeader
  3
ISO-25
 76
     2
 10
632.0726837194306
 20
537.7314678358989
 30
0.0
 10
555.3641905020939
 20
513.7074968968609
 30
0.0
213
0.0
223
12.5
233
0.0
1001
ACAD
1000
DSTYLE
1002
{
1070
   147
1040
6.25
1070
    77
1070
     0
1070
    41
1040
20.0
1070
   342
1005
72
1002
}
  0
LEADER
  5
3AA6
330
3A80
100
AcDbEntity
  8
寸法
100
AcDbLeader
  3
ISO-25
 76
     2
 10
221.5283120638742
 20
38.60832485061019
 30
0.0
 10
249.6721099229089
 20
78.44721157747244
 30
0.0
213
0.0
223
-12.5
233
0.0
1001
ACAD
1000
DSTYLE
1002
{
1070
   147
1040
6.25
1070
    77
1070
     0
1070
    41
1040
20.0
1070
   342
1005
72
1002
}
  0
TEXT
  5
3AA7
330
3A80
100
AcDbEntity
  8
寸法
100
AcDbText
 10
260.2260362035231
 20
78.26534916313296
 30
0.0
 40
25.0
  1
3750R
 11
260.2260362035231
 21
74.93201582979962
 31
0.0
100
AcDbText
 73
     1
  0
LEADER
  5
3AA8
330
3A80
100
AcDbEntity
  8
実形
100
AcDbLeader
  3
ISO-25
 76
     2
 10
644.9420692807628
 20
510.7342609300665
 30
0.0
 10
599.4351447647788
 20
485.3362812862159
 30
0.0
213
0.0
223
12.5
233
0.0
1001
ACAD
1000
DSTYLE
1002
{
1070
   147
1040
6.25
1070
    77
1070
     0
1070
    41
1040
20.0
1070
   342
1005
72
1002
}
  0
LEADER
  5
3AA9
330
3A80
100
AcDbEntity
  8
実形
100
AcDbLeader
  3
ISO-25
 76
     2
 10
637.3732710337852
 20
437.4234241166573
 30
0.0
 10
569.1030251081847
 20
407.3156160759698
 30
0.0
213
0.0
223
12.5
233
0.0
1001
ACAD
1000
DSTYLE
1002
{
1070
   147
1040
6.25
1070
    77
1070
     0
1070
    41
1040
20.0
1070
   342
1005
72
1002
}
  0
LEADER
  5
3AAA
330
3A80
100
AcDbEntity
  8
実形
100
AcDbLeader
  3
ISO-25
 76
     2
 10
634.1138318283924
 20
396.1622303843154
 30
0.0
 10
596.5919513521166
 20
354.6524715939213
 30
0.0
213
0.0
223
12.5
233
0.0
1001
ACAD
1000
DSTYLE
1002
{
1070
   147
1040
6.25
1070
    77
1070
     0
1070
    41
1040
20.0
1070
   342
1005
72
1002
}
  0
LEADER
  5
3AAB
330
3A80
100
AcDbEntity
  8
実形
100
AcDbLeader
  3
ISO-25
 76
     2
 10
658.1305832854848
 20
235.0940829514566
 30
0.0
 10
598.8436378598199
 20
235.0940829514566
 30
0.0
213
0.0
223
12.5
233
0.0
1001
ACAD
1000
DSTYLE
1002
{
1070
   147
1040
6.25
1070
    77
1070
     0
1070
    41
1040
20.0
1070
   342
1005
72
1002
}
  0
TEXT
  5
3AAC
330
3A80
100
AcDbEntity
  8
実形
100
AcDbText
 10
496.9299233476776
 20
389.5508472008835
 30
0.0
 40
25.0
  1
60R
 72
     2
 11
559.4299233476776
 21
386.2175138675502
 31
0.0
100
AcDbText
 73
     1
  0
TEXT
  5
3AAD
330
3A80
100
AcDbEntity
  8
実形
100
AcDbText
 10
517.3271528992227
 20
325.3148560739704
 30
0.0
 40
25.0
  1
100R
 72
     2
 11
592.3271528992227
 21
321.9815227406371
 31
0.0
100
AcDbText
 73
     1
  0
TEXT
  5
3AAE
330
3A80
100
AcDbEntity
  8
実形
100
AcDbText
 10
527.7636858686637
 20
461.5027562504747
 30
0.0
 40
25.0
  1
60R
 72
     2
 11
590.2636858686637
 21
486.5027562504747
 31
0.0
100
AcDbText
 73
     3
  0
TEXT
  5
3AAF
330
3A80
100
AcDbEntity
  8
実形
100
AcDbText
 10
483.3041808747051
 20
222.5940829514566
 30
0.0
 40
25.0
  1
2000R
 72
     2
 11
587.4708475413718
 21
235.0940829514566
 31
0.0
100
AcDbText
 73
     2
  0
ENDBLK
  5
3AB1
330
3A80
100
AcDbEntity
  8
0
 48
20.0
100
AcDbBlockEnd
  0
BLOCK
  5
3D24
330
3D20
100
AcDbEntity
  8
0
 48
20.0
100
AcDbBlockBegin
  2
A$C3396472D
 70
     0
 10
0.0
 20
0.0
 30
0.0
  3
A$C3396472D
  1

  0
MTEXT
  5
3D21
330
3D20
100
AcDbEntity
  8
寸法
100
AcDbMText
 10
0.0000063370807766
 20
65.00000684828319
 30
0.0
 40
65.00000000000003
 41
359.5149274916391
 71
     1
 72
     1
  1
6R
 73
     1
 44
1.0
1001
ACAD
1000
MTEXTBEGIN
1070
    73
1070
     1
1070
    44
1040
1.0
1070
    74
1070
     0
1000
MTEXTEND
  0
ENDBLK
  5
3D25
330
3D20
100
AcDbEntity
  8
0
 48
20.0
100
AcDbBlockEnd
  0
BLOCK
  5
4D5E
330
4D59
100
AcDbEntity
  8
0
 48
20.0
100
AcDbBlockBegin
  2
A$C35766A87
 70
     0
 10
0.0
 20
0.0
 30
0.0
  3
A$C35766A87
  1

  0
TEXT
  5
4D5A
330
4D59
100
AcDbEntity
  8
実形
 62
     0
100
AcDbText
 10
11.241884241823
 20
-1.333336874318774
 30
0.0
 40
20.0
  1
●
 72
     1
 11
20.57521757515633
 21
-1.333336874318774
 31
0.0
100
AcDbText
  0
TEXT
  5
4D5B
330
4D59
100
AcDbEntity
  8
実形
 62
     0
100
AcDbText
 10
0.0000024542800929
 20
134.3738261283597
 30
0.0
 40
20.0
  1
20
 72
     1
 11
15.00000245428009
 21
134.3738261283597
 31
0.0
100
AcDbText
  0
ENDBLK
  5
4D5F
330
4D59
100
AcDbEntity
  8
0
 48
20.0
100
AcDbBlockEnd
  0
BLOCK
  5
4D65
330
4D60
100
AcDbEntity
  8
0
 48
20.0
100
AcDbBlockBegin
  2
A$C7DBA1B1F
 70
     0
 10
0.0
 20
0.0
 30
0.0
  3
A$C7DBA1B1F
  1

  0
TEXT
  5
4D61
330
4D60
100
AcDbEntity
  8
実形
 62
     0
100
AcDbText
 10
11.241884241823
 20
-1.333336874318774
 30
0.0
 40
20.0
  1
●
 72
     1
 11
20.57521757515633
 21
-1.333336874318774
 31
0.0
100
AcDbText
  0
TEXT
  5
4D62
330
4D60
100
AcDbEntity
  8
実形
 62
     0
100
AcDbText
 10
0.0000024542800929
 20
134.3738261283597
 30
0.0
 40
20.0
  1
20
 72
     1
 11
15.00000245428009
 21
134.3738261283597
 31
0.0
100
AcDbText
  0
ENDBLK
  5
4D66
330
4D60
100
AcDbEntity
  8
0
 48
20.0
100
AcDbBlockEnd
  0
BLOCK
  5
4DA7
330
4DA2
100
AcDbEntity
  8
0
 48
20.0
100
AcDbBlockBegin
  2
A$C70C3733A
 70
     0
 10
0.0
 20
0.0
 30
0.0
  3
A$C70C3733A
  1

  0
TEXT
  5
4DA3
330
4DA2
100
AcDbEntity
  8
実形
 62
     0
100
AcDbText
 10
14.07521289257739
 20
-1.999992241198924
 30
0.0
 40
30.0
  1
●
 72
     1
 11
28.07521289257739
 21
-1.999992241198924
 31
0.0
100
AcDbText
  0
TEXT
  5
4DA4
330
4DA2
100
AcDbEntity
  8
実形
 62
     0
100
AcDbText
 10
-0.0000022282988503
 20
133.7071707614795
 30
0.0
 40
30.0
  1
30
 72
     1
 11
22.49999777170115
 21
133.7071707614795
 31
0.0
100
AcDbText
  0
ENDBLK
  5
4DA8
330
4DA2
100
AcDbEntity
  8
0
 48
20.0
100
AcDbBlockEnd
  0
BLOCK
  5
5009
330
5005
100
AcDbEntity
  8
0
 48
20.0
100
AcDbBlockBegin
  2
A$C4FCE4A28
 70
     0
 10
0.0
 20
0.0
 30
0.0
  3
A$C4FCE4A28
  1

  0
TEXT
  5
5006
330
5005
100
AcDbEntity
  8
0
100
AcDbText
 10
0.8045703606166354
 20
12.28814472877872
 30
0.0
 40
55.0
  1
0
  7
MS明朝
 72
     4
 11
20.91885607490235
 21
39.15957330020729
 31
0.0
100
AcDbText
  0
ENDBLK
  5
500A
330
5005
100
AcDbEntity
  8
0
 48
20.0
100
AcDbBlockEnd
  0
BLOCK
  5
5FE8
330
5FE4
100
AcDbEntity
  8
0
 48
20.0
100
AcDbBlockBegin
  2
A$C373C4C5A
 70
     0
 10
0.0
 20
0.0
 30
0.0
  3
A$C373C4C5A
  1

  0
TEXT
  5
5FE5
330
5FE4
100
AcDbEntity
  8
実形
 62
     0
100
AcDbText
 10
-643.9440901916518
 20
2519.63850510615
 30
0.0
 40
25.0
  1
●
 72
     1
 11
-632.2774235249852
 21
2519.63850510615
 31
0.0
100
AcDbText
  0
ENDBLK
  5
5FE9
330
5FE4
100
AcDbEntity
  8
0
 48
20.0
100
AcDbBlockEnd
  0
BLOCK
  5
6958
330
6957
100
AcDbEntity
  8
0
 48
20.0
100
AcDbBlockBegin
  2
*D15
 70
     1
 10
0.0
 20
0.0
 30
0.0
  3
*D15
  1

  0
LINE
  5
6959
330
6957
100
AcDbEntity
  8
実形
 62
     0
 48
20.0
370
    13
100
AcDbLine
 10
2500.639936191016
 20
2580.407307691225
 30
0.0
 11
2517.093434220351
 21
2580.407307691225
 31
0.0
  0
LINE
  5
695A
330
6957
100
AcDbEntity
  8
実形
 62
     0
 48
20.0
370
    13
100
AcDbLine
 10
3260.639936191016
 20
2510.407307691225
 30
0.0
 11
2517.093434220351
 21
2510.407307691225
 31
0.0
  0
MTEXT
  5
695B
330
6957
100
AcDbEntity
  8
実形
 62
     0
 48
20.0
100
AcDbMText
 10
2457.093434220351
 20
2437.092623942939
 30
0.0
 40
60.0
 41
0.0
 71
     5
 72
     1
  1
70
 11
0.0000000000000001
 21
1.0
 31
0.0
 73
     1
 44
1.0
1001
ACAD
1000
MTEXTBEGIN
1070
    73
1070
     1
1070
    44
1040
1.0
1070
    74
1070
     0
1000
MTEXTEND
  0
POINT
  5
695C
330
6957
100
AcDbEntity
  8
Defpoints
 62
     0
 48
20.0
100
AcDbPoint
 10
2630.639936191016
 20
2580.407307691225
 30
0.0
  0
POINT
  5
695D
330
6957
100
AcDbEntity
  8
Defpoints
 62
     0
 48
20.0
100
AcDbPoint
 10
3390.639936191016
 20
2510.407307691225
 30
0.0
  0
POINT
  5
695E
330
6957
100
AcDbEntity
  8
Defpoints
 62
     0
 48
20.0
100
AcDbPoint
 10
2517.093434220351
 20
2510.407307691225
 30
0.0
  0
ENDBLK
  5
695F
330
6957
100
AcDbEntity
  8
0
 48
20.0
100
AcDbBlockEnd
  0
BLOCK
  5
6965
330
6960
100
AcDbEntity
  8
0
 48
20.0
100
AcDbBlockBegin
  2
A$C0F021946
 70
     0
 10
0.0
 20
0.0
 30
0.0
  3
A$C0F021946
  1

  0
TEXT
  5
6961
330
6960
100
AcDbEntity
  8
実形
100
AcDbText
 10
60.0000005846814
 20
2719.836532225243
 30
0.0
 40
60.0
  1
70
 50
90.0
 11
68.0000005846814
 21
2719.836532225243
 31
0.0
100
AcDbText
 73
     1
  0
DIMENSION
  5
6962
330
6960
100
AcDbEntity
  8
実形
 48
20.0
100
AcDbDimension
  2
*D15
 10
802.3422352347877
 20
118.3146911167973
 30
0.0
 11
742.3422352347874
 21
45.00000736851142
 31
0.0
 12
-1714.751198985563
 22
-2392.092616574428
 32
0.0
 70
   128
 71
     5
 42
69.99999999999954
  3
ISO-25
100
AcDbAlignedDimension
 13
915.8887372054527
 23
188.3146911167969
 33
0.0
 14
1675.888737205452
 24
118.3146911167969
 34
0.0
 50
90.0
100
AcDbRotatedDimension
1001
ACAD
1000
DSTYLE
1002
{
1070
   281
1070
     1
1070
   282
1070
     1
1070
    76
1070
     0
1070
    75
1070
     0
1070
    41
1040
25.0
1070
    42
1040
130.0
1070
   140
1040
60.0
1070
   147
1040
20.0
1070
   279
1070
     2
1070
   342
1005
E3
1070
   371
1070
    13
1070
   372
1070
    13
1002
}
  0
ENDBLK
  5
6966
330
6960
100
AcDbEntity
  8
0
 48
20.0
100
AcDbBlockEnd
  0
BLOCK
  5
697B
330
697A
100
AcDbEntity
  8
0
 48
20.0
100
AcDbBlockBegin
  2
*D17
 70
     1
 10
0.0
 20
0.0
 30
0.0
  3
*D17
  1

  0
LINE
  5
697C
330
697A
100
AcDbEntity
  8
寸法
 62
     0
 48
20.0
370
    18
100
AcDbLine
 10
1292.142217636979
 20
2789.82975472255
 30
0.0
 11
1389.433216199477
 21
2789.82975472255
 31
0.0
  0
LINE
  5
697D
330
697A
100
AcDbEntity
  8
寸法
 62
     0
 48
20.0
370
    18
100
AcDbLine
 10
581.1422176369794
 20
2719.82975472255
 30
0.0
 11
1389.433216199477
 21
2719.82975472255
 31
0.0
  0
MTEXT
  5
697E
330
697A
100
AcDbEntity
  8
寸法
 62
     0
 48
20.0
100
AcDbMText
 10
1422.659420185357
 20
2630.931687017863
 30
0.0
 40
60.0
 41
0.0
 71
     5
 72
     1
  1
70
 11
0.0000000000000001
 21
1.0
 31
0.0
 73
     1
 44
1.0
1001
ACAD
1000
MTEXTBEGIN
1070
    73
1070
     1
1070
    44
1040
1.0
1070
    74
1070
     0
1000
MTEXTEND
  0
POINT
  5
697F
330
697A
100
AcDbEntity
  8
Defpoints
 62
     0
 48
20.0
100
AcDbPoint
 10
1162.14221763698
 20
2789.82975472255
 30
0.0
  0
POINT
  5
6980
330
697A
100
AcDbEntity
  8
Defpoints
 62
     0
 48
20.0
100
AcDbPoint
 10
451.1422176369797
 20
2719.82975472255
 30
0.0
  0
POINT
  5
6981
330
697A
100
AcDbEntity
  8
Defpoints
 62
     0
 48
20.0
100
AcDbPoint
 10
1389.433216199477
 20
2719.82975472255
 30
0.0
  0
ENDBLK
  5
6982
330
697A
100
AcDbEntity
  8
0
 48
20.0
100
AcDbBlockEnd
  0
BLOCK
  5
6984
330
6983
100
AcDbEntity
  8
0
 48
20.0
100
AcDbBlockBegin
  2
*D18
 70
     1
 10
0.0
 20
0.0
 30
0.0
  3
*D18
  1

  0
LINE
  5
6985
330
6983
100
AcDbEntity
  8
寸法
 62
     0
 48
20.0
100
AcDbLine
 10
664.1633843862764
 20
2659.82975472255
 30
0.0
 11
664.1633843862764
 21
2572.408337721609
 31
0.0
  0
LINE
  5
6986
330
6983
100
AcDbEntity
  8
寸法
 62
     0
 48
20.0
100
AcDbLine
 10
1224.163384386276
 20
2659.82975472255
 30
0.0
 11
1224.163384386276
 21
2572.408337721609
 31
0.0
  0
LINE
  5
6987
330
6983
100
AcDbEntity
  8
寸法
 62
     0
 48
20.0
100
AcDbLine
 10
689.1633843862764
 20
2572.408337721609
 30
0.0
 11
1199.163384386276
 21
2572.408337721609
 31
0.0
  0
INSERT
  5
6988
330
6983
100
AcDbEntity
  8
寸法
 62
     0
 48
20.0
100
AcDbBlockReference
  2
_Dot
 10
664.1633843862764
 20
2572.408337721609
 30
0.0
 41
25.0
 42
25.0
 43
25.0
 50
180.0
  0
INSERT
  5
6989
330
6983
100
AcDbEntity
  8
寸法
 62
     0
 48
20.0
100
AcDbBlockReference
  2
_Dot
 10
1224.163384386276
 20
2572.408337721609
 30
0.0
 41
25.0
 42
25.0
 43
25.0
  0
MTEXT
  5
698A
330
6983
100
AcDbEntity
  8
寸法
 62
     0
 48
20.0
100
AcDbMText
 10
944.1633843862764
 20
2622.408337721609
 30
0.0
 40
60.0
 41
0.0
 71
     5
 72
     1
  1
560
 73
     1
 44
1.0
1001
ACAD
1000
MTEXTBEGIN
1070
    73
1070
     1
1070
    44
1040
1.0
1070
    74
1070
     0
1000
MTEXTEND
  0
POINT
  5
698B
330
6983
100
AcDbEntity
  8
Defpoints
 62
     0
 48
20.0
100
AcDbPoint
 10
664.1633843862764
 20
2789.82975472255
 30
0.0
  0
POINT
  5
698C
330
6983
100
AcDbEntity
  8
Defpoints
 62
     0
 48
20.0
100
AcDbPoint
 10
1224.163384386276
 20
2789.82975472255
 30
0.0
  0
POINT
  5
698D
330
6983
100
AcDbEntity
  8
Defpoints
 62
     0
 48
20.0
100
AcDbPoint
 10
1224.163384386276
 20
2572.408337721609
 30
0.0
  0
ENDBLK
  5
698E
330
6983
100
AcDbEntity
  8
0
 48
20.0
100
AcDbBlockEnd
  0
BLOCK
  5
6990
330
698F
100
AcDbEntity
  8
0
 48
20.0
100
AcDbBlockBegin
  2
*D19
 70
     1
 10
0.0
 20
0.0
 30
0.0
  3
*D19
  1

  0
LINE
  5
6991
330
698F
100
AcDbEntity
  8
寸法
 62
     0
 48
20.0
100
AcDbLine
 10
1292.142217636979
 20
2789.82975472255
 30
0.0
 11
1389.433216199477
 21
2789.82975472255
 31
0.0
  0
LINE
  5
6992
330
698F
100
AcDbEntity
  8
寸法
 62
     0
 48
20.0
100
AcDbLine
 10
1292.142217636979
 20
3249.829754722551
 30
0.0
 11
1389.433216199477
 21
3249.829754722551
 31
0.0
  0
LINE
  5
6993
330
698F
100
AcDbEntity
  8
寸法
 62
     0
 48
20.0
100
AcDbLine
 10
1389.433216199477
 20
2814.829754722551
 30
0.0
 11
1389.433216199477
 21
3224.829754722551
 31
0.0
  0
INSERT
  5
6994
330
698F
100
AcDbEntity
  8
寸法
 62
     0
 48
20.0
100
AcDbBlockReference
  2
_Dot
 10
1389.433216199477
 20
2789.82975472255
 30
0.0
 41
25.0
 42
25.0
 43
25.0
 50
270.0
  0
INSERT
  5
6995
330
698F
100
AcDbEntity
  8
寸法
 62
     0
 48
20.0
100
AcDbBlockReference
  2
_Dot
 10
1389.433216199477
 20
3249.829754722551
 30
0.0
 41
25.0
 42
25.0
 43
25.0
 50
90.0
  0
MTEXT
  5
6996
330
698F
100
AcDbEntity
  8
寸法
 62
     0
 48
20.0
100
AcDbMText
 10
1339.433216199476
 20
3019.829754722551
 30
0.0
 40
60.0
 41
0.0
 71
     5
 72
     1
  1
460
 11
0.0000000000000001
 21
1.0
 31
0.0
 73
     1
 44
1.0
1001
ACAD
1000
MTEXTBEGIN
1070
    73
1070
     1
1070
    44
1040
1.0
1070
    74
1070
     0
1000
MTEXTEND
  0
POINT
  5
6997
330
698F
100
AcDbEntity
  8
Defpoints
 62
     0
 48
20.0
100
AcDbPoint
 10
1162.14221763698
 20
2789.82975472255
 30
0.0
  0
POINT
  5
6998
330
698F
100
AcDbEntity
  8
Defpoints
 62
     0
 48
20.0
100
AcDbPoint
 10
1162.14221763698
 20
3249.829754722551
 30
0.0
  0
POINT
  5
6999
330
698F
100
AcDbEntity
  8
Defpoints
 62
     0
 48
20.0
100
AcDbPoint
 10
1389.433216199477
 20
3249.829754722551
 30
0.0
  0
ENDBLK
  5
699A
330
698F
100
AcDbEntity
  8
0
 48
20.0
100
AcDbBlockEnd
  0
BLOCK
  5
69B3
330
699B
100
AcDbEntity
  8
0
 48
20.0
100
AcDbBlockBegin
  2
A$C28E06192
 70
     0
 10
0.0
 20
0.0
 30
0.0
  3
A$C28E06192
  1

  0
MTEXT
  5
699C
102
{ACAD_REACTORS
330
69A1
102
}
330
699B
100
AcDbEntity
  8
寸法
100
AcDbMText
 10
-1512.761367352165
 20
-288.601238689068
 30
0.0
 40
65.00000000000003
 41
425.9193737079951
 71
     3
 72
     1
  1
４×２０R
 73
     1
 44
1.0
1001
ACAD
1000
MTEXTBEGIN
1070
    73
1070
     1
1070
    44
1040
1.0
1070
    74
1070
     0
1000
MTEXTEND
  0
TEXT
  5
699D
330
699B
100
AcDbEntity
  8
0
100
AcDbText
 10
-1894.979537072704
 20
-174.7638417369971
 30
0.0
 40
70.0
  1
ガスレンジ穴
 72
     1
 11
-1649.979537072704
 21
-174.7638417369971
 31
0.0
100
AcDbText
  0
LINE
  5
699E
330
699B
100
AcDbEntity
  8
0
100
AcDbLine
 10
-1930.0
 20
-460.0
 30
0.0
 11
-1370.0
 21
-460.0
 31
0.0
  0
LINE
  5
699F
330
699B
100
AcDbEntity
  8
中心
 48
0.7
100
AcDbLine
 10
-1650.0
 20
350.0
 30
0.0
 11
-1650.0
 21
-475.0
 31
0.0
  0
LINE
  5
69A0
330
699B
100
AcDbEntity
  8
0
100
AcDbLine
 10
-1960.0
 20
0.0
 30
0.0
 11
-1960.0
 21
-460.0
 31
0.0
  0
LEADER
  5
69A1
330
699B
100
AcDbEntity
  8
寸法
100
AcDbLeader
  3
ISO-25
 73
     0
 75
     1
 40
65.00000000000004
 41
346.6666666666668
 76
     3
 10
-1402.288683451637
 20
-437.9549310161936
 30
0.0
 10
-1462.761367352165
 20
-316.1012386890679
 30
0.0
 10
-1492.761367352165
 20
-316.1012386890679
 30
0.0
340
699C
213
0.0
223
-27.5
233
0.0
1001
ACAD
1000
DSTYLE
1002
{
1070
    77
1070
     0
1070
    41
1040
30.0
1070
    42
1040
130.0
1070
   140
1040
55.0
1070
   147
1040
20.0
1070
   342
1005
E3
1070
   371
1070
    -1
1070
   372
1070
    13
1002
}
  0
LINE
  5
69A2
330
699B
100
AcDbEntity
  8
0
100
AcDbLine
 10
-1340.0
 20
0.0
 30
0.0
 11
-1340.0
 21
-460.0
 31
0.0
  0
DIMENSION
  5
69A3
330
699B
100
AcDbEntity
  8
寸法
 48
20.0
100
AcDbDimension
  2
*D17
 10
-1204.730168186799
 20
-530.0000000000003
 30
0.0
 11
-1171.503964200919
 21
-618.8980677046875
 31
0.0
 12
-2594.163384386277
 22
-3249.829754722551
 32
0.0
 70
   128
 71
     5
 42
70.00000000000046
  3
ISO-25
100
AcDbAlignedDimension
 13
-1432.021166749296
 23
-460.0
 33
0.0
 14
-2143.021166749297
 24
-530.0
 34
0.0
 50
90.0
100
AcDbRotatedDimension
1001
ACAD
1000
DSTYLE
1002
{
1070
   282
1070
     1
1070
   281
1070
     1
1070
   279
1070
     2
1070
    41
1040
15.0
1070
    42
1040
130.0
1070
   140
1040
60.0
1070
   147
1040
20.0
1070
   342
1005
E3
1070
   371
1070
    18
1070
   372
1070
    18
1002
}
  0
DIMENSION
  5
69A4
330
699B
100
AcDbEntity
  8
寸法
 48
20.0
100
AcDbDimension
  2
*D18
 10
-1370.0
 20
-677.4214170009417
 30
0.0
 11
-1650.0
 21
-627.4214170009417
 31
0.0
 12
-2594.163384386277
 22
-3249.829754722551
 32
0.0
 71
     5
 42
560.0
  3
ISO-25
100
AcDbAlignedDimension
 13
-1930.0
 23
-460.0
 33
0.0
 14
-1370.0
 24
-460.0
 34
0.0
100
AcDbRotatedDimension
1001
ACAD
1000
DSTYLE
1002
{
1070
    41
1040
25.0
1070
    42
1040
130.0
1070
   140
1040
60.0
1070
   147
1040
20.0
1070
   342
1005
E3
1070
   371
1070
    -1
1070
   372
1070
    -1
1002
}
  0
LINE
  5
69A5
330
699B
100
AcDbEntity
  8
0
100
AcDbLine
 10
-1930.0
 20
0.0
 30
0.0
 11
-1370.0
 21
0.0
 31
0.0
  0
DIMENSION
  5
69A6
330
699B
100
AcDbEntity
  8
寸法
 48
20.0
100
AcDbDimension
  2
*D19
 10
-1204.730168186799
 20
0.0
 30
0.0
 11
-1254.7301681868
 21
-229.9999999999995
 31
0.0
 12
-2594.163384386277
 22
-3249.829754722551
 32
0.0
 71
     5
 42
460.0
  3
ISO-25
100
AcDbAlignedDimension
 13
-1432.021166749296
 23
-460.0
 33
0.0
 14
-1432.021166749296
 24
0.0
 34
0.0
 50
90.0
100
AcDbRotatedDimension
1001
ACAD
1000
DSTYLE
1002
{
1070
    41
1040
25.0
1070
    42
1040
130.0
1070
   140
1040
60.0
1070
   147
1040
20.0
1070
   342
1005
E3
1070
   371
1070
    -1
1070
   372
1070
    -1
1002
}
  0
CIRCLE
  5
69A7
330
699B
100
AcDbEntity
  8
0
100
AcDbCircle
 10
0.0
 20
-150.0
 30
0.0
 40
90.5
  0
LWPOLYLINE
  5
69A8
330
699B
100
AcDbEntity
  8
実形
 48
20.0
100
AcDbPolyline
 90
        3
 70
     1
 43
0.0
 10
-1393.387036386076
 20
-254.2792229761176
 10
-1441.891749940466
 20
-282.9180170363466
 10
-1442.44131635318
 20
-226.5923058648436
  0
LWPOLYLINE
  5
69A9
330
699B
100
AcDbEntity
  8
実形
 48
20.0
100
AcDbPolyline
 90
        3
 70
     1
 43
0.0
 10
-1902.097166398157
 20
-255.9836187537303
 10
-1853.042886431053
 20
-283.6705358650047
 10
-1853.592452843768
 20
-227.3448246935018
  0
LWPOLYLINE
  5
69AA
330
699B
100
AcDbEntity
  8
実形
 48
20.0
100
AcDbPolyline
 90
        3
 70
     1
 43
0.0
 10
-1595.263245872944
 20
-13.36923921422385
 10
-1567.099049797884
 20
-62.15105777055851
 10
-1623.427441948003
 20
-62.15105777055851
  0
LWPOLYLINE
  5
69AB
330
699B
100
AcDbEntity
  8
実形
 48
20.0
100
AcDbPolyline
 90
        3
 70
     1
 43
0.0
 10
-1599.935530392433
 20
-450.7144388752857
 10
-1571.771334317373
 20
-401.9326203189511
 10
-1628.099726467493
 20
-401.9326203189511
  0
LINE
  5
69AC
330
699B
100
AcDbEntity
  8
実形
 48
20.0
100
AcDbLine
 10
-1370.0
 20
0.0
 30
0.0
 11
-1340.0
 21
0.0
 31
0.0
  0
LINE
  5
69AD
330
699B
100
AcDbEntity
  8
実形
 48
20.0
100
AcDbLine
 10
-1370.0
 20
-460.0
 30
0.0
 11
-1340.0
 21
-460.0
 31
0.0
  0
LINE
  5
69AE
330
699B
100
AcDbEntity
  8
実形
 48
20.0
100
AcDbLine
 10
-1930.0
 20
0.0
 30
0.0
 11
-1959.999999999999
 21
0.0
 31
0.0
  0
LINE
  5
69AF
330
699B
100
AcDbEntity
  8
実形
 48
20.0
100
AcDbLine
 10
-1930.0
 20
-460.0
 30
0.0
 11
-1959.999999999999
 21
-460.0
 31
0.0
  0
LINE
  5
69B0
330
699B
100
AcDbEntity
  8
実形
 48
20.0
100
AcDbLine
 10
-1204.665523111609
 20
-466.2496656721982
 30
0.0
 11
-1204.665523111609
 21
-530.0000000000003
 31
0.0
  0
ENDBLK
  5
69B4
330
699B
100
AcDbEntity
  8
0
 48
20.0
100
AcDbBlockEnd
  0
BLOCK
  5
6AFF
330
6AFA
100
AcDbEntity
  8
0
 48
20.0
100
AcDbBlockBegin
  2
A$C30BF74B5
 70
     0
 10
0.0
 20
0.0
 30
0.0
  3
A$C30BF74B5
  1

  0
LINE
  5
6AFB
330
6AFA
100
AcDbEntity
  8
実形
  6
ACAD_ISO08W100
 48
0.1
370
    13
100
AcDbLine
 10
40.00001102087479
 20
79.99999186790408
 30
0.0
 11
40.00001102087479
 21
-0.0000081320958998
 31
0.0
  0
LINE
  5
6AFC
330
6AFA
100
AcDbEntity
  8
実形
  6
ACAD_ISO08W100
 48
0.1
370
    13
100
AcDbLine
 10
80.00001102087479
 20
39.9999918679041
 30
0.0
 11
0.0000110208748083
 21
39.9999918679041
 31
0.0
  0
ENDBLK
  5
6B00
330
6AFA
100
AcDbEntity
  8
0
 48
20.0
100
AcDbBlockEnd
  0
BLOCK
  5
6F61
330
6F5D
100
AcDbEntity
  8
0
 48
20.0
100
AcDbBlockBegin
  2
A$C799E3471
 70
     0
 10
0.0
 20
0.0
 30
0.0
  3
A$C799E3471
  1

  0
TEXT
  5
6F5E
330
6F5D
100
AcDbEntity
  8
実形
100
AcDbText
 10
17.70054846703118
 20
21.3427145860237
 30
0.0
 40
55.0
  1
しゅんかん・シーム不要
  7
MS明朝
 72
     4
 11
460.2148341813169
 21
48.99985744316655
 31
0.0
100
AcDbText
  0
ENDBLK
  5
6F62
330
6F5D
100
AcDbEntity
  8
0
 48
20.0
100
AcDbBlockEnd
  0
BLOCK
  5
8B91
330
8B90
100
AcDbEntity
  8
0
 48
20.0
100
AcDbBlockBegin
  2
*D23
 70
     1
 10
0.0
 20
0.0
 30
0.0
  3
*D23
  1

  0
LINE
  5
8B92
330
8B90
100
AcDbEntity
  8
実形
 62
     0
 48
20.0
100
AcDbLine
 10
990.4305743002987
 20
5191.873319186044
 30
0.0
 11
990.4305743002987
 21
5104.451902185103
 31
0.0
  0
LINE
  5
8B93
330
8B90
100
AcDbEntity
  8
実形
 62
     0
 48
20.0
100
AcDbLine
 10
1550.430574300299
 20
5191.873319186044
 30
0.0
 11
1550.430574300299
 21
5104.451902185103
 31
0.0
  0
LINE
  5
8B94
330
8B90
100
AcDbEntity
  8
実形
 62
     0
 48
20.0
100
AcDbLine
 10
1015.430574300299
 20
5104.451902185103
 30
0.0
 11
1525.430574300299
 21
5104.451902185103
 31
0.0
  0
INSERT
  5
8B95
330
8B90
100
AcDbEntity
  8
実形
 62
     0
 48
20.0
100
AcDbBlockReference
  2
_Dot
 10
990.4305743002987
 20
5104.451902185103
 30
0.0
 41
25.0
 42
25.0
 43
25.0
 50
180.0
  0
INSERT
  5
8B96
330
8B90
100
AcDbEntity
  8
実形
 62
     0
 48
20.0
100
AcDbBlockReference
  2
_Dot
 10
1550.430574300299
 20
5104.451902185103
 30
0.0
 41
25.0
 42
25.0
 43
25.0
  0
MTEXT
  5
8B97
330
8B90
100
AcDbEntity
  8
実形
 62
     0
 48
20.0
100
AcDbMText
 10
1270.430574300299
 20
5154.451902185103
 30
0.0
 40
60.0
 41
0.0
 71
     5
 72
     1
  1
560
 73
     1
 44
1.0
1001
ACAD
1000
MTEXTBEGIN
1070
    73
1070
     1
1070
    44
1040
1.0
1070
    74
1070
     0
1000
MTEXTEND
  0
POINT
  5
8B98
330
8B90
100
AcDbEntity
  8
Defpoints
 62
     0
 48
20.0
100
AcDbPoint
 10
990.4305743002987
 20
5321.873319186045
 30
0.0
  0
POINT
  5
8B99
330
8B90
100
AcDbEntity
  8
Defpoints
 62
     0
 48
20.0
100
AcDbPoint
 10
1550.430574300299
 20
5321.873319186045
 30
0.0
  0
POINT
  5
8B9A
330
8B90
100
AcDbEntity
  8
Defpoints
 62
     0
 48
20.0
100
AcDbPoint
 10
1550.430574300299
 20
5104.451902185103
 30
0.0
  0
ENDBLK
  5
8B9B
330
8B90
100
AcDbEntity
  8
0
 48
20.0
100
AcDbBlockEnd
  0
BLOCK
  5
8B9D
330
8B9C
100
AcDbEntity
  8
0
 48
20.0
100
AcDbBlockBegin
  2
*D24
 70
     1
 10
0.0
 20
0.0
 30
0.0
  3
*D24
  1

  0
LINE
  5
8B9E
330
8B9C
100
AcDbEntity
  8
実形
 62
     0
 48
20.0
100
AcDbLine
 10
1680.430574300299
 20
5321.873319186045
 30
0.0
 11
1777.721572862796
 21
5321.873319186045
 31
0.0
  0
LINE
  5
8B9F
330
8B9C
100
AcDbEntity
  8
実形
 62
     0
 48
20.0
100
AcDbLine
 10
1680.430574300299
 20
5781.873319186043
 30
0.0
 11
1777.721572862796
 21
5781.873319186043
 31
0.0
  0
LINE
  5
8BA0
330
8B9C
100
AcDbEntity
  8
実形
 62
     0
 48
20.0
100
AcDbLine
 10
1777.721572862796
 20
5361.873319186045
 30
0.0
 11
1777.721572862796
 21
5741.873319186044
 31
0.0
  0
INSERT
  5
8BA1
330
8B9C
100
AcDbEntity
  8
実形
 62
     0
 48
20.0
100
AcDbBlockReference
  2
_Dot
 10
1777.721572862796
 20
5321.873319186045
 30
0.0
 41
40.0
 42
40.0
 43
40.0
 50
270.0
  0
INSERT
  5
8BA2
330
8B9C
100
AcDbEntity
  8
実形
 62
     0
 48
20.0
100
AcDbBlockReference
  2
_Dot
 10
1777.721572862796
 20
5781.873319186043
 30
0.0
 41
40.0
 42
40.0
 43
40.0
 50
90.0
  0
MTEXT
  5
8BA3
330
8B9C
100
AcDbEntity
  8
実形
 62
     0
 48
20.0
100
AcDbMText
 10
1727.721572862795
 20
5551.873319186045
 30
0.0
 40
60.0
 41
0.0
 71
     5
 72
     1
  1
460
 11
0.0000000000000001
 21
1.0
 31
0.0
 73
     1
 44
1.0
1001
ACAD
1000
MTEXTBEGIN
1070
    73
1070
     1
1070
    44
1040
1.0
1070
    74
1070
     0
1000
MTEXTEND
  0
POINT
  5
8BA4
330
8B9C
100
AcDbEntity
  8
Defpoints
 62
     0
 48
20.0
100
AcDbPoint
 10
1550.430574300299
 20
5321.873319186045
 30
0.0
  0
POINT
  5
8BA5
330
8B9C
100
AcDbEntity
  8
Defpoints
 62
     0
 48
20.0
100
AcDbPoint
 10
1550.430574300299
 20
5781.873319186043
 30
0.0
  0
POINT
  5
8BA6
330
8B9C
100
AcDbEntity
  8
Defpoints
 62
     0
 48
20.0
100
AcDbPoint
 10
1777.721572862796
 20
5781.873319186043
 30
0.0
  0
ENDBLK
  5
8BA7
330
8B9C
100
AcDbEntity
  8
0
 48
20.0
100
AcDbBlockEnd
  0
BLOCK
  5
8BB9
330
8BA8
100
AcDbEntity
  8
0
 48
20.0
100
AcDbBlockBegin
  2
A$C3EBE49C3
 70
     0
 10
0.0
 20
0.0
 30
0.0
  3
A$C3EBE49C3
  1

  0
MTEXT
  5
8BA9
102
{ACAD_REACTORS
330
8BAD
102
}
330
8BA8
100
AcDbEntity
  8
実形
100
AcDbMText
 10
-146.9193737079949
 20
209.5868163843816
 30
0.0
 40
65.0
 41
425.9193737079948
 71
     1
 72
     1
  1
４×２０R
 73
     1
 44
1.0
1001
ACAD
1000
MTEXTBEGIN
1070
    73
1070
     1
1070
    44
1040
1.0
1070
    74
1070
     0
1000
MTEXTEND
  0
TEXT
  5
8BAA
330
8BA8
100
AcDbEntity
  8
実形
100
AcDbText
 10
-245.9795370727043
 20
355.2361582630028
 30
0.0
 40
70.0
  1
ガスレンジ穴
 72
     1
 11
-0.9795370727042607
 21
355.2361582630028
 31
0.0
100
AcDbText
  0
LINE
  5
8BAB
330
8BA8
100
AcDbEntity
  8
実形
100
AcDbLine
 10
-281.0
 20
70.0
 30
0.0
 11
279.0
 21
70.0
 31
0.0
  0
LINE
  5
8BAC
330
8BA8
100
AcDbEntity
  8
実形
100
AcDbLine
 10
-281.0
 20
530.0
 30
0.0
 11
-281.0
 21
70.0
 31
0.0
  0
LEADER
  5
8BAD
330
8BA8
100
AcDbEntity
  8
実形
100
AcDbLeader
  3
ISO-25
 73
     0
 74
     0
 75
     1
 40
65.0
 41
346.6666666666668
 76
     3
 10
-248.7113165483624
 20
92.04506898380623
 30
0.0
 10
-196.9193737079949
 20
182.0868163843815
 30
0.0
 10
-166.9193737079949
 20
182.0868163843815
 30
0.0
340
8BA9
213
0.0
223
-27.5
233
0.0
1001
ACAD
1000
DSTYLE
1002
{
1070
    77
1070
     0
1070
    41
1040
30.0
1070
    42
1040
130.0
1070
   140
1040
55.0
1070
   147
1040
20.0
1070
   342
1005
E3
1070
   371
1070
    -1
1070
   372
1070
    13
1002
}
  0
LINE
  5
8BAE
330
8BA8
100
AcDbEntity
  8
実形
100
AcDbLine
 10
279.0
 20
530.0
 30
0.0
 11
279.0
 21
70.0
 31
0.0
  0
DIMENSION
  5
8BAF
330
8BA8
100
AcDbEntity
  8
実形
 48
20.0
100
AcDbDimension
  2
*D23
 10
279.0
 20
-147.4214170009418
 30
0.0
 11
-1.0
 21
-97.4214170009418
 31
0.0
 12
-1271.430574300299
 22
-5251.873319186045
 32
0.0
 71
     5
 42
560.0
  3
ISO-25
100
AcDbAlignedDimension
 13
-281.0
 23
70.0
 33
0.0
 14
279.0
 24
70.0
 34
0.0
100
AcDbRotatedDimension
1001
ACAD
1000
DSTYLE
1002
{
1070
    41
1040
25.0
1070
    42
1040
130.0
1070
   140
1040
60.0
1070
   147
1040
20.0
1070
   342
1005
E3
1070
   371
1070
    -1
1070
   372
1070
    -1
1002
}
  0
LINE
  5
8BB0
330
8BA8
100
AcDbEntity
  8
実形
100
AcDbLine
 10
-281.0
 20
530.0
 30
0.0
 11
279.0
 21
530.0
 31
0.0
  0
DIMENSION
  5
8BB1
330
8BA8
100
AcDbEntity
  8
実形
 48
20.0
100
AcDbDimension
  2
*D24
 10
506.2909985624973
 20
530.0
 30
0.0
 11
456.2909985624962
 21
300.0
 31
0.0
 12
-1271.430574300299
 22
-5251.873319186045
 32
0.0
 71
     5
 42
460.0
  3
ISO-25
100
AcDbAlignedDimension
 13
279.0
 23
70.0
 33
0.0
 14
279.0
 24
530.0
 34
0.0
 50
90.0
100
AcDbRotatedDimension
1001
ACAD
1000
DSTYLE
1002
{
1070
    41
1040
40.0
1070
    42
1040
130.0
1070
   140
1040
60.0
1070
   147
1040
20.0
1070
   342
1005
E3
1070
   371
1070
    -1
1070
   372
1070
    -1
1002
}
  0
HATCH
  5
8BB2
330
8BA8
100
AcDbEntity
  8
実形
 48
20.0
100
AcDbHatch
 10
0.0
 20
0.0
 30
0.0
210
0.0
220
0.0
230
1.0
  2
SOLID
 70
     1
 71
     0
 91
        1
 92
        7
 72
     1
 73
     1
 93
        2
 10
493.1627425596635
 20
-0.0506441220459237
 42
1.0
 10
518.1627425596635
 20
-0.0506441220459237
 42
1.0
 97
        0
 75
     0
 76
     1
 47
1.335081454550554
 98
        1
 10
502.9904766775471
 20
1.284434671673807
  0
LINE
  5
8BB3
330
8BA8
100
AcDbEntity
  8
実形
  6
CENTER
 48
0.3
100
AcDbLine
 10
0.0
 20
0.0
 30
0.0
 11
0.0000000000004547
 21
1162.0
 31
0.0
  0
LINE
  5
8BB4
330
8BA8
100
AcDbEntity
  8
実形
100
AcDbLine
 10
-281.0
 20
70.0
 30
0.0
 11
-281.0
 21
530.0
 31
0.0
  0
LINE
  5
8BB5
330
8BA8
100
AcDbEntity
  8
実形
 48
20.0
100
AcDbLine
 10
505.4235054015443
 20
70.04979738240763
 30
0.0
 11
505.4235054015443
 21
-2.374425463345687
 31
0.0
  0
TEXT
  5
8BB6
330
8BA8
100
AcDbEntity
  8
実形
100
AcDbText
 10
503.3206252699455
 20
-139.944170386374
 30
0.0
 40
60.0
  1
70
 50
90.0
 11
511.3206252699455
 21
-139.944170386374
 31
0.0
100
AcDbText
 73
     1
  0
ENDBLK
  5
8BBA
330
8BA8
100
AcDbEntity
  8
0
 48
20.0
100
AcDbBlockEnd
  0
BLOCK
  5
94CC
330
94C7
100
AcDbEntity
  8
0
 48
20.0
100
AcDbBlockBegin
  2
A$C391041D1
 70
     0
 10
0.0
 20
0.0
 30
0.0
  3
A$C391041D1
  1

  0
HATCH
  5
94C8
330
94C7
100
AcDbEntity
  8
実形
 48
20.0
100
AcDbHatch
 10
0.0
 20
0.0
 30
0.0
210
0.0
220
0.0
230
1.0
  2
SOLID
 70
     1
 71
     1
 91
        1
 92
        7
 72
     0
 73
     1
 93
        3
 10
28.16421300487355
 20
48.78180324930872
 10
0.0000169298141372
 20
-0.000015307025933
 10
56.32840907993296
 20
-0.000015307025933
 97
        1
330
94C9
 75
     0
 76
     1
 47
2.78552957507322
 98
        1
 10
29.81885421058541
 20
20.83385724198888
  0
LWPOLYLINE
  5
94C9
102
{ACAD_REACTORS
330
94C8
102
}
330
94C7
100
AcDbEntity
  8
実形
 48
20.0
100
AcDbPolyline
 90
        3
 70
     1
 43
0.0
 10
28.16421300487355
 20
48.78180324930872
 10
0.0000169298141373
 20
-0.000015307025933
 10
56.32840907993295
 20
-0.000015307025933
  0
ENDBLK
  5
94CD
330
94C7
100
AcDbEntity
  8
0
 48
20.0
100
AcDbBlockEnd
  0
BLOCK
  5
D42B
330
D427
100
AcDbEntity
  8
0
 48
20.0
100
AcDbBlockBegin
  2
A$C0C2E55CC
 70
     0
 10
0.0
 20
0.0
 30
0.0
  3
A$C0C2E55CC
  1

  0
TEXT
  5
D428
330
D427
100
AcDbEntity
  8
実形
370
    13
100
AcDbText
 10
49.99999297906454
 20
0.0000089014356498
 30
0.0
 40
50.0
  1
4φ
 50
90.0
 11
56.6666596457312
 21
0.000008901435649
 31
0.0
100
AcDbText
 73
     1
  0
ENDBLK
  5
D42C
330
D427
100
AcDbEntity
  8
0
 48
20.0
100
AcDbBlockEnd
  0
BLOCK
  5
D432
330
D42E
100
AcDbEntity
  8
0
 48
20.0
100
AcDbBlockBegin
  2
A$C0B812968
 70
     0
 10
0.0
 20
0.0
 30
0.0
  3
A$C0B812968
  1

  0
TEXT
  5
D42F
330
D42E
100
AcDbEntity
  8
実形
370
    13
100
AcDbText
 10
2.853146981643326
 20
27.70988431516844
 30
0.0
 40
50.0
  1
4φ
 50
90.0
 11
9.519813648309993
 21
27.70988431516844
 31
0.0
100
AcDbText
 73
     1
  0
ENDBLK
  5
D433
330
D42E
100
AcDbEntity
  8
0
 48
20.0
100
AcDbBlockEnd
  0
BLOCK
  5
DAA3
330
DA9F
100
AcDbEntity
  8
0
 48
20.0
100
AcDbBlockBegin
  2
A$C2FD720CD
 70
     0
 10
0.0
 20
0.0
 30
0.0
  3
A$C2FD720CD
  1

  0
TEXT
  5
DAA0
330
DA9F
100
AcDbEntity
  8
実形
370
    13
100
AcDbText
 10
0.0000000000000004
 20
0.0000063543508695
 30
0.0
 40
50.0
  1
3R
 11
0.0
 21
-6.666660312315797
 31
0.0
100
AcDbText
 73
     1
  0
ENDBLK
  5
DAA4
330
DA9F
100
AcDbEntity
  8
0
 48
20.0
100
AcDbBlockEnd
  0
BLOCK
  5
DD1B
330
DD17
100
AcDbEntity
  8
0
 48
20.0
100
AcDbBlockBegin
  2
A$C3E527385
 70
     0
 10
0.0
 20
0.0
 30
0.0
  3
A$C3E527385
  1

  0
TEXT
  5
DD18
330
DD17
100
AcDbEntity
  8
実形
370
    13
100
AcDbText
 10
-16.66668188360927
 20
-0.000019656373599
 30
0.0
 40
50.0
  1
１R
 11
-16.66668188360927
 21
-6.666686323040265
 31
0.0
100
AcDbText
 73
     1
  0
ENDBLK
  5
DD1C
330
DD17
100
AcDbEntity
  8
0
 48
20.0
100
AcDbBlockEnd
  0
BLOCK
  5
DE16
330
DE12
100
AcDbEntity
  8
0
 48
20.0
100
AcDbBlockBegin
  2
A$C74C8594D
 70
     0
 10
0.0
 20
0.0
 30
0.0
  3
A$C74C8594D
  1

  0
TEXT
  5
DE13
330
DE12
100
AcDbEntity
  8
実形
 62
     0
100
AcDbText
 10
-0.0000000000000018
 20
0.0000092332052191
 30
0.0
 40
60.0
  1
背面
 72
     4
 11
64.0
 21
30.00000923320522
 31
0.0
100
AcDbText
  0
ENDBLK
  5
DE17
330
DE12
100
AcDbEntity
  8
0
 48
20.0
100
AcDbBlockEnd
  0
BLOCK
  5
E334
330
E330
100
AcDbEntity
  8
0
 62
     1
 48
20.0
100
AcDbBlockBegin
  2
A$C7FD120C1
 70
     0
 10
0.0
 20
0.0
 30
0.0
  3
A$C7FD120C1
  1

  0
TEXT
  5
E331
330
E330
100
AcDbEntity
  8
実形
 62
     0
100
AcDbText
 10
-7.042568800156004
 20
-7.41680951424496
 30
0.0
 40
15.0
  1
●
 72
     1
 11
-0.0425688001560047
 21
-7.41680951424496
 31
0.0
100
AcDbText
  0
ENDBLK
  5
E335
330
E330
100
AcDbEntity
  8
0
 62
     1
 48
20.0
100
AcDbBlockEnd
  0
BLOCK
  5
EB7D
330
EB79
100
AcDbEntity
  8
0
 62
     1
 48
20.0
100
AcDbBlockBegin
  2
A$C3EC07742
 70
     0
 10
0.0
 20
0.0
 30
0.0
  3
A$C3EC07742
  1

  0
LINE
  5
EB7A
330
EB79
100
AcDbEntity
  8
実形
  6
CENTER
 48
0.5
100
AcDbLine
 10
-0.0000033196847653
 20
-0.0000121462871903
 30
0.0
 11
2857.291849382396
 21
-0.0000121462871903
 31
0.0
  0
ENDBLK
  5
EB7E
330
EB79
100
AcDbEntity
  8
0
 62
     1
 48
20.0
100
AcDbBlockEnd
  0
BLOCK
  5
EEEF
330
EEE5
100
AcDbEntity
  8
0
 62
     1
 48
20.0
100
AcDbBlockBegin
  2
*D34
 70
     1
 10
0.0
 20
0.0
 30
0.0
  3
*D34
  1

  0
LINE
  5
FE68
330
EEE5
100
AcDbEntity
  8
実形
  6
PHANTOM
 62
     0
 48
20.0
370
    13
100
AcDbLine
 10
1073.280885715721
 20
1540.934563329865
 30
0.0
 11
1073.280885715721
 21
1434.506481092865
 31
0.0
  0
LINE
  5
FE69
330
EEE5
100
AcDbEntity
  8
実形
  6
PHANTOM
 62
     0
 48
20.0
370
    13
100
AcDbLine
 10
1453.280885715721
 20
1540.934563329865
 30
0.0
 11
1453.280885715721
 21
1434.506481092865
 31
0.0
  0
LINE
  5
FE6A
330
EEE5
100
AcDbEntity
  8
実形
  6
PHANTOM
 62
     0
 48
20.0
370
    13
100
AcDbLine
 10
1098.280885715721
 20
1434.506481092865
 30
0.0
 11
1428.280885715721
 21
1434.506481092865
 31
0.0
  0
INSERT
  5
FE6B
330
EEE5
100
AcDbEntity
  8
実形
  6
PHANTOM
 62
     0
 48
20.0
370
    13
100
AcDbBlockReference
  2
_Dot
 10
1073.280885715721
 20
1434.506481092865
 30
0.0
 41
25.0
 42
25.0
 43
25.0
 50
180.0
  0
INSERT
  5
FE6C
330
EEE5
100
AcDbEntity
  8
実形
  6
PHANTOM
 62
     0
 48
20.0
370
    13
100
AcDbBlockReference
  2
_Dot
 10
1453.280885715721
 20
1434.506481092865
 30
0.0
 41
25.0
 42
25.0
 43
25.0
  0
MTEXT
  5
FE6D
330
EEE5
100
AcDbEntity
  8
実形
  6
PHANTOM
 62
     0
 48
20.0
100
AcDbMText
 10
1263.280885715721
 20
1514.506481092865
 30
0.0
 40
120.0
 41
0.0
 71
     5
 72
     1
  1
38
 73
     1
 44
1.0
1001
ACAD
1000
MTEXTBEGIN
1070
    73
1070
     1
1070
    44
1040
1.0
1070
    74
1070
     0
1000
MTEXTEND
  0
POINT
  5
FE6E
330
EEE5
100
AcDbEntity
  8
Defpoints
  6
PHANTOM
 62
     0
 48
20.0
100
AcDbPoint
 10
1073.280885715721
 20
1670.934563329865
 30
0.0
  0
POINT
  5
FE6F
330
EEE5
100
AcDbEntity
  8
Defpoints
  6
PHANTOM
 62
     0
 48
20.0
100
AcDbPoint
 10
1453.280885715721
 20
1670.934563329865
 30
0.0
  0
POINT
  5
FE70
330
EEE5
100
AcDbEntity
  8
Defpoints
  6
PHANTOM
 62
     0
 48
20.0
100
AcDbPoint
 10
1453.280885715721
 20
1434.506481092865
 30
0.0
  0
ENDBLK
  5
EEF0
330
EEE5
100
AcDbEntity
  8
0
 62
     1
 48
20.0
100
AcDbBlockEnd
  0
BLOCK
  5
EF05
330
EEFB
100
AcDbEntity
  8
0
 62
     1
 48
20.0
100
AcDbBlockBegin
  2
*D35
 70
     1
 10
0.0
 20
0.0
 30
0.0
  3
*D35
  1

  0
LINE
  5
FE71
330
EEFB
100
AcDbEntity
  8
実形
  6
PHANTOM
 62
     0
 48
20.0
370
    13
100
AcDbLine
 10
1453.280885715721
 20
1540.934563329865
 30
0.0
 11
1453.280885715721
 21
1434.506481092865
 31
0.0
  0
LINE
  5
FE72
330
EEFB
100
AcDbEntity
  8
実形
  6
PHANTOM
 62
     0
 48
20.0
370
    13
100
AcDbLine
 10
1813.280885715722
 20
1540.934563329865
 30
0.0
 11
1813.280885715722
 21
1434.506481092865
 31
0.0
  0
LINE
  5
FE73
330
EEFB
100
AcDbEntity
  8
実形
  6
PHANTOM
 62
     0
 48
20.0
370
    13
100
AcDbLine
 10
1478.280885715721
 20
1434.506481092865
 30
0.0
 11
1788.280885715722
 21
1434.506481092865
 31
0.0
  0
INSERT
  5
FE74
330
EEFB
100
AcDbEntity
  8
実形
  6
PHANTOM
 62
     0
 48
20.0
370
    13
100
AcDbBlockReference
  2
_Dot
 10
1453.280885715721
 20
1434.506481092865
 30
0.0
 41
25.0
 42
25.0
 43
25.0
 50
180.0
  0
INSERT
  5
FE75
330
EEFB
100
AcDbEntity
  8
実形
  6
PHANTOM
 62
     0
 48
20.0
370
    13
100
AcDbBlockReference
  2
_Dot
 10
1813.280885715722
 20
1434.506481092865
 30
0.0
 41
25.0
 42
25.0
 43
25.0
  0
MTEXT
  5
FE76
330
EEFB
100
AcDbEntity
  8
実形
  6
PHANTOM
 62
     0
 48
20.0
100
AcDbMText
 10
1633.280885715721
 20
1514.506481092865
 30
0.0
 40
120.0
 41
0.0
 71
     5
 72
     1
  1
36
 73
     1
 44
1.0
1001
ACAD
1000
MTEXTBEGIN
1070
    73
1070
     1
1070
    44
1040
1.0
1070
    74
1070
     0
1000
MTEXTEND
  0
POINT
  5
FE77
330
EEFB
100
AcDbEntity
  8
Defpoints
  6
PHANTOM
 62
     0
 48
20.0
100
AcDbPoint
 10
1453.280885715721
 20
1670.934563329865
 30
0.0
  0
POINT
  5
FE78
330
EEFB
100
AcDbEntity
  8
Defpoints
  6
PHANTOM
 62
     0
 48
20.0
100
AcDbPoint
 10
1813.280885715722
 20
1670.934563329865
 30
0.0
  0
POINT
  5
FE79
330
EEFB
100
AcDbEntity
  8
Defpoints
  6
PHANTOM
 62
     0
 48
20.0
100
AcDbPoint
 10
1813.280885715722
 20
1434.506481092865
 30
0.0
  0
ENDBLK
  5
EF06
330
EEFB
100
AcDbEntity
  8
0
 62
     1
 48
20.0
100
AcDbBlockEnd
  0
BLOCK
  5
EF24
330
EF1A
100
AcDbEntity
  8
0
 62
     1
 48
20.0
100
AcDbBlockBegin
  2
*D36
 70
     1
 10
0.0
 20
0.0
 30
0.0
  3
*D36
  1

  0
LINE
  5
FE5F
330
EF1A
100
AcDbEntity
  8
実形
  6
PHANTOM
 62
     0
 48
20.0
370
    13
100
AcDbLine
 10
1813.280885715721
 20
1540.934563329865
 30
0.0
 11
1813.280885715721
 21
1434.506481092865
 31
0.0
  0
LINE
  5
FE60
330
EF1A
100
AcDbEntity
  8
実形
  6
PHANTOM
 62
     0
 48
20.0
370
    13
100
AcDbLine
 10
2173.280885715722
 20
1540.934563329865
 30
0.0
 11
2173.280885715722
 21
1434.506481092865
 31
0.0
  0
LINE
  5
FE61
330
EF1A
100
AcDbEntity
  8
実形
  6
PHANTOM
 62
     0
 48
20.0
370
    13
100
AcDbLine
 10
1838.280885715721
 20
1434.506481092865
 30
0.0
 11
2148.280885715722
 21
1434.506481092865
 31
0.0
  0
INSERT
  5
FE62
330
EF1A
100
AcDbEntity
  8
実形
  6
PHANTOM
 62
     0
 48
20.0
370
    13
100
AcDbBlockReference
  2
_Dot
 10
1813.280885715721
 20
1434.506481092865
 30
0.0
 41
25.0
 42
25.0
 43
25.0
 50
180.0
  0
INSERT
  5
FE63
330
EF1A
100
AcDbEntity
  8
実形
  6
PHANTOM
 62
     0
 48
20.0
370
    13
100
AcDbBlockReference
  2
_Dot
 10
2173.280885715722
 20
1434.506481092865
 30
0.0
 41
25.0
 42
25.0
 43
25.0
  0
MTEXT
  5
FE64
330
EF1A
100
AcDbEntity
  8
実形
  6
PHANTOM
 62
     0
 48
20.0
100
AcDbMText
 10
1993.280885715721
 20
1514.506481092865
 30
0.0
 40
120.0
 41
0.0
 71
     5
 72
     1
  1
36
 73
     1
 44
1.0
1001
ACAD
1000
MTEXTBEGIN
1070
    73
1070
     1
1070
    44
1040
1.0
1070
    74
1070
     0
1000
MTEXTEND
  0
POINT
  5
FE65
330
EF1A
100
AcDbEntity
  8
Defpoints
  6
PHANTOM
 62
     0
 48
20.0
100
AcDbPoint
 10
1813.280885715721
 20
1670.934563329865
 30
0.0
  0
POINT
  5
FE66
330
EF1A
100
AcDbEntity
  8
Defpoints
  6
PHANTOM
 62
     0
 48
20.0
100
AcDbPoint
 10
2173.280885715722
 20
1670.934563329865
 30
0.0
  0
POINT
  5
FE67
330
EF1A
100
AcDbEntity
  8
Defpoints
  6
PHANTOM
 62
     0
 48
20.0
100
AcDbPoint
 10
2173.280885715722
 20
1434.506481092865
 30
0.0
  0
ENDBLK
  5
EF25
330
EF1A
100
AcDbEntity
  8
0
 62
     1
 48
20.0
100
AcDbBlockEnd
  0
BLOCK
  5
EF3A
330
EF30
100
AcDbEntity
  8
0
 62
     1
 48
20.0
100
AcDbBlockBegin
  2
*D37
 70
     1
 10
0.0
 20
0.0
 30
0.0
  3
*D37
  1

  0
LINE
  5
FE8C
330
EF30
100
AcDbEntity
  8
実形
  6
PHANTOM
 62
     0
 48
20.0
370
    13
100
AcDbLine
 10
2173.280885715722
 20
1540.934563329865
 30
0.0
 11
2173.280885715722
 21
1434.506481092865
 31
0.0
  0
LINE
  5
FE8D
330
EF30
100
AcDbEntity
  8
実形
  6
PHANTOM
 62
     0
 48
20.0
370
    13
100
AcDbLine
 10
2533.280885715722
 20
1540.934563329865
 30
0.0
 11
2533.280885715722
 21
1434.506481092865
 31
0.0
  0
LINE
  5
FE8E
330
EF30
100
AcDbEntity
  8
実形
  6
PHANTOM
 62
     0
 48
20.0
370
    13
100
AcDbLine
 10
2198.280885715722
 20
1434.506481092865
 30
0.0
 11
2508.280885715722
 21
1434.506481092865
 31
0.0
  0
INSERT
  5
FE8F
330
EF30
100
AcDbEntity
  8
実形
  6
PHANTOM
 62
     0
 48
20.0
370
    13
100
AcDbBlockReference
  2
_Dot
 10
2173.280885715722
 20
1434.506481092865
 30
0.0
 41
25.0
 42
25.0
 43
25.0
 50
180.0
  0
INSERT
  5
FE90
330
EF30
100
AcDbEntity
  8
実形
  6
PHANTOM
 62
     0
 48
20.0
370
    13
100
AcDbBlockReference
  2
_Dot
 10
2533.280885715722
 20
1434.506481092865
 30
0.0
 41
25.0
 42
25.0
 43
25.0
  0
MTEXT
  5
FE91
330
EF30
100
AcDbEntity
  8
実形
  6
PHANTOM
 62
     0
 48
20.0
100
AcDbMText
 10
2353.280885715722
 20
1514.506481092865
 30
0.0
 40
120.0
 41
0.0
 71
     5
 72
     1
  1
36
 73
     1
 44
1.0
1001
ACAD
1000
MTEXTBEGIN
1070
    73
1070
     1
1070
    44
1040
1.0
1070
    74
1070
     0
1000
MTEXTEND
  0
POINT
  5
FE92
330
EF30
100
AcDbEntity
  8
Defpoints
  6
PHANTOM
 62
     0
 48
20.0
100
AcDbPoint
 10
2173.280885715722
 20
1670.934563329865
 30
0.0
  0
POINT
  5
FE93
330
EF30
100
AcDbEntity
  8
Defpoints
  6
PHANTOM
 62
     0
 48
20.0
100
AcDbPoint
 10
2533.280885715722
 20
1670.934563329865
 30
0.0
  0
POINT
  5
FE94
330
EF30
100
AcDbEntity
  8
Defpoints
  6
PHANTOM
 62
     0
 48
20.0
100
AcDbPoint
 10
2533.280885715722
 20
1434.506481092865
 30
0.0
  0
ENDBLK
  5
EF3B
330
EF30
100
AcDbEntity
  8
0
 62
     1
 48
20.0
100
AcDbBlockEnd
  0
BLOCK
  5
EF50
330
EF46
100
AcDbEntity
  8
0
 62
     1
 48
20.0
100
AcDbBlockBegin
  2
*D38
 70
     1
 10
0.0
 20
0.0
 30
0.0
  3
*D38
  1

  0
LINE
  5
FE95
330
EF46
100
AcDbEntity
  8
実形
  6
PHANTOM
 62
     0
 48
20.0
370
    13
100
AcDbLine
 10
2533.280885715722
 20
1540.934563329865
 30
0.0
 11
2533.280885715722
 21
1434.506481092865
 31
0.0
  0
LINE
  5
FE96
330
EF46
100
AcDbEntity
  8
実形
  6
PHANTOM
 62
     0
 48
20.0
370
    13
100
AcDbLine
 10
2893.280885715722
 20
1540.934563329865
 30
0.0
 11
2893.280885715722
 21
1434.506481092865
 31
0.0
  0
LINE
  5
FE97
330
EF46
100
AcDbEntity
  8
実形
  6
PHANTOM
 62
     0
 48
20.0
370
    13
100
AcDbLine
 10
2558.280885715721
 20
1434.506481092865
 30
0.0
 11
2868.280885715721
 21
1434.506481092865
 31
0.0
  0
INSERT
  5
FE98
330
EF46
100
AcDbEntity
  8
実形
  6
PHANTOM
 62
     0
 48
20.0
370
    13
100
AcDbBlockReference
  2
_Dot
 10
2533.280885715722
 20
1434.506481092865
 30
0.0
 41
25.0
 42
25.0
 43
25.0
 50
180.0
  0
INSERT
  5
FE99
330
EF46
100
AcDbEntity
  8
実形
  6
PHANTOM
 62
     0
 48
20.0
370
    13
100
AcDbBlockReference
  2
_Dot
 10
2893.280885715722
 20
1434.506481092865
 30
0.0
 41
25.0
 42
25.0
 43
25.0
  0
MTEXT
  5
FE9A
330
EF46
100
AcDbEntity
  8
実形
  6
PHANTOM
 62
     0
 48
20.0
100
AcDbMText
 10
2713.280885715722
 20
1514.506481092865
 30
0.0
 40
120.0
 41
0.0
 71
     5
 72
     1
  1
36
 73
     1
 44
1.0
1001
ACAD
1000
MTEXTBEGIN
1070
    73
1070
     1
1070
    44
1040
1.0
1070
    74
1070
     0
1000
MTEXTEND
  0
POINT
  5
FE9B
330
EF46
100
AcDbEntity
  8
Defpoints
  6
PHANTOM
 62
     0
 48
20.0
100
AcDbPoint
 10
2533.280885715722
 20
1670.934563329865
 30
0.0
  0
POINT
  5
FE9C
330
EF46
100
AcDbEntity
  8
Defpoints
  6
PHANTOM
 62
     0
 48
20.0
100
AcDbPoint
 10
2893.280885715722
 20
1670.934563329865
 30
0.0
  0
POINT
  5
FE9D
330
EF46
100
AcDbEntity
  8
Defpoints
  6
PHANTOM
 62
     0
 48
20.0
100
AcDbPoint
 10
2893.280885715722
 20
1434.506481092865
 30
0.0
  0
ENDBLK
  5
EF51
330
EF46
100
AcDbEntity
  8
0
 62
     1
 48
20.0
100
AcDbBlockEnd
  0
BLOCK
  5
EF66
330
EF5C
100
AcDbEntity
  8
0
 62
     1
 48
20.0
100
AcDbBlockBegin
  2
*D39
 70
     1
 10
0.0
 20
0.0
 30
0.0
  3
*D39
  1

  0
LINE
  5
FE83
330
EF5C
100
AcDbEntity
  8
実形
  6
PHANTOM
 62
     0
 48
20.0
370
    13
100
AcDbLine
 10
2893.280885715722
 20
1540.934563329865
 30
0.0
 11
2893.280885715722
 21
1434.506481092865
 31
0.0
  0
LINE
  5
FE84
330
EF5C
100
AcDbEntity
  8
実形
  6
PHANTOM
 62
     0
 48
20.0
370
    13
100
AcDbLine
 10
3253.280885715721
 20
1540.934563329865
 30
0.0
 11
3253.280885715721
 21
1434.506481092865
 31
0.0
  0
LINE
  5
FE85
330
EF5C
100
AcDbEntity
  8
実形
  6
PHANTOM
 62
     0
 48
20.0
370
    13
100
AcDbLine
 10
2918.280885715722
 20
1434.506481092865
 30
0.0
 11
3228.280885715721
 21
1434.506481092865
 31
0.0
  0
INSERT
  5
FE86
330
EF5C
100
AcDbEntity
  8
実形
  6
PHANTOM
 62
     0
 48
20.0
370
    13
100
AcDbBlockReference
  2
_Dot
 10
2893.280885715722
 20
1434.506481092865
 30
0.0
 41
25.0
 42
25.0
 43
25.0
 50
180.0
  0
INSERT
  5
FE87
330
EF5C
100
AcDbEntity
  8
実形
  6
PHANTOM
 62
     0
 48
20.0
370
    13
100
AcDbBlockReference
  2
_Dot
 10
3253.280885715721
 20
1434.506481092865
 30
0.0
 41
25.0
 42
25.0
 43
25.0
  0
MTEXT
  5
FE88
330
EF5C
100
AcDbEntity
  8
実形
  6
PHANTOM
 62
     0
 48
20.0
100
AcDbMText
 10
3073.280885715722
 20
1514.506481092865
 30
0.0
 40
120.0
 41
0.0
 71
     5
 72
     1
  1
36
 73
     1
 44
1.0
1001
ACAD
1000
MTEXTBEGIN
1070
    73
1070
     1
1070
    44
1040
1.0
1070
    74
1070
     0
1000
MTEXTEND
  0
POINT
  5
FE89
330
EF5C
100
AcDbEntity
  8
Defpoints
  6
PHANTOM
 62
     0
 48
20.0
100
AcDbPoint
 10
2893.280885715722
 20
1670.934563329865
 30
0.0
  0
POINT
  5
FE8A
330
EF5C
100
AcDbEntity
  8
Defpoints
  6
PHANTOM
 62
     0
 48
20.0
100
AcDbPoint
 10
3253.280885715721
 20
1670.934563329865
 30
0.0
  0
POINT
  5
FE8B
330
EF5C
100
AcDbEntity
  8
Defpoints
  6
PHANTOM
 62
     0
 48
20.0
100
AcDbPoint
 10
3253.280885715721
 20
1434.506481092865
 30
0.0
  0
ENDBLK
  5
EF67
330
EF5C
100
AcDbEntity
  8
0
 62
     1
 48
20.0
100
AcDbBlockEnd
  0
BLOCK
  5
EF7D
330
EF73
100
AcDbEntity
  8
0
 62
     1
 48
20.0
100
AcDbBlockBegin
  2
*D40
 70
     1
 10
0.0
 20
0.0
 30
0.0
  3
*D40
  1

  0
LINE
  5
FE9E
330
EF73
100
AcDbEntity
  8
実形
  6
PHANTOM
 62
     0
 48
20.0
370
    13
100
AcDbLine
 10
3253.280885715721
 20
1540.934563329865
 30
0.0
 11
3253.280885715721
 21
1434.506481092865
 31
0.0
  0
LINE
  5
FE9F
330
EF73
100
AcDbEntity
  8
実形
  6
PHANTOM
 62
     0
 48
20.0
370
    13
100
AcDbLine
 10
3613.280885715723
 20
1540.934563329865
 30
0.0
 11
3613.280885715723
 21
1434.506481092865
 31
0.0
  0
LINE
  5
FEA0
330
EF73
100
AcDbEntity
  8
実形
  6
PHANTOM
 62
     0
 48
20.0
370
    13
100
AcDbLine
 10
3278.280885715722
 20
1434.506481092865
 30
0.0
 11
3588.280885715722
 21
1434.506481092865
 31
0.0
  0
INSERT
  5
FEA1
330
EF73
100
AcDbEntity
  8
実形
  6
PHANTOM
 62
     0
 48
20.0
370
    13
100
AcDbBlockReference
  2
_Dot
 10
3253.280885715721
 20
1434.506481092865
 30
0.0
 41
25.0
 42
25.0
 43
25.0
 50
180.0
  0
INSERT
  5
FEA2
330
EF73
100
AcDbEntity
  8
実形
  6
PHANTOM
 62
     0
 48
20.0
370
    13
100
AcDbBlockReference
  2
_Dot
 10
3613.280885715723
 20
1434.506481092865
 30
0.0
 41
25.0
 42
25.0
 43
25.0
  0
MTEXT
  5
FEA3
330
EF73
100
AcDbEntity
  8
実形
  6
PHANTOM
 62
     0
 48
20.0
100
AcDbMText
 10
3433.280885715722
 20
1514.506481092865
 30
0.0
 40
120.0
 41
0.0
 71
     5
 72
     1
  1
36
 73
     1
 44
1.0
1001
ACAD
1000
MTEXTBEGIN
1070
    73
1070
     1
1070
    44
1040
1.0
1070
    74
1070
     0
1000
MTEXTEND
  0
POINT
  5
FEA4
330
EF73
100
AcDbEntity
  8
Defpoints
  6
PHANTOM
 62
     0
 48
20.0
100
AcDbPoint
 10
3253.280885715721
 20
1670.934563329865
 30
0.0
  0
POINT
  5
FEA5
330
EF73
100
AcDbEntity
  8
Defpoints
  6
PHANTOM
 62
     0
 48
20.0
100
AcDbPoint
 10
3613.280885715723
 20
1670.934563329865
 30
0.0
  0
POINT
  5
FEA6
330
EF73
100
AcDbEntity
  8
Defpoints
  6
PHANTOM
 62
     0
 48
20.0
100
AcDbPoint
 10
3613.280885715723
 20
1434.506481092865
 30
0.0
  0
ENDBLK
  5
EF7E
330
EF73
100
AcDbEntity
  8
0
 62
     1
 48
20.0
100
AcDbBlockEnd
  0
BLOCK
  5
EF93
330
EF89
100
AcDbEntity
  8
0
 62
     1
 48
20.0
100
AcDbBlockBegin
  2
*D41
 70
     1
 10
0.0
 20
0.0
 30
0.0
  3
*D41
  1

  0
LINE
  5
FEA7
330
EF89
100
AcDbEntity
  8
実形
  6
PHANTOM
 62
     0
 48
20.0
370
    13
100
AcDbLine
 10
3613.280885715723
 20
1540.934563329865
 30
0.0
 11
3613.280885715723
 21
1434.506481092865
 31
0.0
  0
LINE
  5
FEA8
330
EF89
100
AcDbEntity
  8
実形
  6
PHANTOM
 62
     0
 48
20.0
370
    13
100
AcDbLine
 10
3973.280885715722
 20
1540.934563329865
 30
0.0
 11
3973.280885715722
 21
1434.506481092865
 31
0.0
  0
LINE
  5
FEA9
330
EF89
100
AcDbEntity
  8
実形
  6
PHANTOM
 62
     0
 48
20.0
370
    13
100
AcDbLine
 10
3638.280885715722
 20
1434.506481092865
 30
0.0
 11
3948.280885715723
 21
1434.506481092865
 31
0.0
  0
INSERT
  5
FEAA
330
EF89
100
AcDbEntity
  8
実形
  6
PHANTOM
 62
     0
 48
20.0
370
    13
100
AcDbBlockReference
  2
_Dot
 10
3613.280885715723
 20
1434.506481092865
 30
0.0
 41
25.0
 42
25.0
 43
25.0
 50
180.0
  0
INSERT
  5
FEAB
330
EF89
100
AcDbEntity
  8
実形
  6
PHANTOM
 62
     0
 48
20.0
370
    13
100
AcDbBlockReference
  2
_Dot
 10
3973.280885715722
 20
1434.506481092865
 30
0.0
 41
25.0
 42
25.0
 43
25.0
  0
MTEXT
  5
FEAC
330
EF89
100
AcDbEntity
  8
実形
  6
PHANTOM
 62
     0
 48
20.0
100
AcDbMText
 10
3793.280885715722
 20
1514.506481092865
 30
0.0
 40
120.0
 41
0.0
 71
     5
 72
     1
  1
36
 73
     1
 44
1.0
1001
ACAD
1000
MTEXTBEGIN
1070
    73
1070
     1
1070
    44
1040
1.0
1070
    74
1070
     0
1000
MTEXTEND
  0
POINT
  5
FEAD
330
EF89
100
AcDbEntity
  8
Defpoints
  6
PHANTOM
 62
     0
 48
20.0
100
AcDbPoint
 10
3613.280885715723
 20
1670.934563329865
 30
0.0
  0
POINT
  5
FEAE
330
EF89
100
AcDbEntity
  8
Defpoints
  6
PHANTOM
 62
     0
 48
20.0
100
AcDbPoint
 10
3973.280885715722
 20
1670.934563329865
 30
0.0
  0
POINT
  5
FEAF
330
EF89
100
AcDbEntity
  8
Defpoints
  6
PHANTOM
 62
     0
 48
20.0
100
AcDbPoint
 10
3973.280885715722
 20
1434.506481092865
 30
0.0
  0
ENDBLK
  5
EF94
330
EF89
100
AcDbEntity
  8
0
 62
     1
 48
20.0
100
AcDbBlockEnd
  0
BLOCK
  5
EFA9
330
EF9F
100
AcDbEntity
  8
0
 62
     1
 48
20.0
100
AcDbBlockBegin
  2
*D42
 70
     1
 10
0.0
 20
0.0
 30
0.0
  3
*D42
  1

  0
LINE
  5
FE7A
330
EF9F
100
AcDbEntity
  8
実形
  6
PHANTOM
 62
     0
 48
20.0
370
    13
100
AcDbLine
 10
3973.280885715722
 20
1540.934563329865
 30
0.0
 11
3973.280885715722
 21
1434.506481092865
 31
0.0
  0
LINE
  5
FE7B
330
EF9F
100
AcDbEntity
  8
実形
  6
PHANTOM
 62
     0
 48
20.0
370
    13
100
AcDbLine
 10
4333.280885715722
 20
1540.934563329865
 30
0.0
 11
4333.280885715722
 21
1434.506481092865
 31
0.0
  0
LINE
  5
FE7C
330
EF9F
100
AcDbEntity
  8
実形
  6
PHANTOM
 62
     0
 48
20.0
370
    13
100
AcDbLine
 10
3998.280885715722
 20
1434.506481092865
 30
0.0
 11
4308.28088571572
 21
1434.506481092865
 31
0.0
  0
INSERT
  5
FE7D
330
EF9F
100
AcDbEntity
  8
実形
  6
PHANTOM
 62
     0
 48
20.0
370
    13
100
AcDbBlockReference
  2
_Dot
 10
3973.280885715722
 20
1434.506481092865
 30
0.0
 41
25.0
 42
25.0
 43
25.0
 50
180.0
  0
INSERT
  5
FE7E
330
EF9F
100
AcDbEntity
  8
実形
  6
PHANTOM
 62
     0
 48
20.0
370
    13
100
AcDbBlockReference
  2
_Dot
 10
4333.280885715722
 20
1434.506481092865
 30
0.0
 41
25.0
 42
25.0
 43
25.0
  0
MTEXT
  5
FE7F
330
EF9F
100
AcDbEntity
  8
実形
  6
PHANTOM
 62
     0
 48
20.0
100
AcDbMText
 10
4153.28088571572
 20
1514.506481092865
 30
0.0
 40
120.0
 41
0.0
 71
     5
 72
     1
  1
36
 73
     1
 44
1.0
1001
ACAD
1000
MTEXTBEGIN
1070
    73
1070
     1
1070
    44
1040
1.0
1070
    74
1070
     0
1000
MTEXTEND
  0
POINT
  5
FE80
330
EF9F
100
AcDbEntity
  8
Defpoints
  6
PHANTOM
 62
     0
 48
20.0
100
AcDbPoint
 10
3973.280885715722
 20
1670.934563329865
 30
0.0
  0
POINT
  5
FE81
330
EF9F
100
AcDbEntity
  8
Defpoints
  6
PHANTOM
 62
     0
 48
20.0
100
AcDbPoint
 10
4333.280885715722
 20
1670.934563329865
 30
0.0
  0
POINT
  5
FE82
330
EF9F
100
AcDbEntity
  8
Defpoints
  6
PHANTOM
 62
     0
 48
20.0
100
AcDbPoint
 10
4333.280885715722
 20
1434.506481092865
 30
0.0
  0
ENDBLK
  5
EFAA
330
EF9F
100
AcDbEntity
  8
0
 62
     1
 48
20.0
100
AcDbBlockEnd
  0
BLOCK
  5
EFBF
330
EFB5
100
AcDbEntity
  8
0
 62
     1
 48
20.0
100
AcDbBlockBegin
  2
*D43
 70
     1
 10
0.0
 20
0.0
 30
0.0
  3
*D43
  1

  0
LINE
  5
FEB9
330
EFB5
100
AcDbEntity
  8
実形
  6
PHANTOM
 62
     0
 48
20.0
370
    13
100
AcDbLine
 10
4333.280885715722
 20
1540.934563329865
 30
0.0
 11
4333.280885715722
 21
1434.506481092865
 31
0.0
  0
LINE
  5
FEBA
330
EFB5
100
AcDbEntity
  8
実形
  6
PHANTOM
 62
     0
 48
20.0
370
    13
100
AcDbLine
 10
4693.28088571572
 20
1540.934563329865
 30
0.0
 11
4693.28088571572
 21
1434.506481092865
 31
0.0
  0
LINE
  5
FEBB
330
EFB5
100
AcDbEntity
  8
実形
  6
PHANTOM
 62
     0
 48
20.0
370
    13
100
AcDbLine
 10
4358.28088571572
 20
1434.506481092865
 30
0.0
 11
4668.280885715723
 21
1434.506481092865
 31
0.0
  0
INSERT
  5
FEBC
330
EFB5
100
AcDbEntity
  8
実形
  6
PHANTOM
 62
     0
 48
20.0
370
    13
100
AcDbBlockReference
  2
_Dot
 10
4333.280885715722
 20
1434.506481092865
 30
0.0
 41
25.0
 42
25.0
 43
25.0
 50
180.0
  0
INSERT
  5
FEBD
330
EFB5
100
AcDbEntity
  8
実形
  6
PHANTOM
 62
     0
 48
20.0
370
    13
100
AcDbBlockReference
  2
_Dot
 10
4693.28088571572
 20
1434.506481092865
 30
0.0
 41
25.0
 42
25.0
 43
25.0
  0
MTEXT
  5
FEBE
330
EFB5
100
AcDbEntity
  8
実形
  6
PHANTOM
 62
     0
 48
20.0
100
AcDbMText
 10
4513.280885715722
 20
1514.506481092865
 30
0.0
 40
120.0
 41
0.0
 71
     5
 72
     1
  1
36
 73
     1
 44
1.0
1001
ACAD
1000
MTEXTBEGIN
1070
    73
1070
     1
1070
    44
1040
1.0
1070
    74
1070
     0
1000
MTEXTEND
  0
POINT
  5
FEBF
330
EFB5
100
AcDbEntity
  8
Defpoints
  6
PHANTOM
 62
     0
 48
20.0
100
AcDbPoint
 10
4333.280885715722
 20
1670.934563329865
 30
0.0
  0
POINT
  5
FEC0
330
EFB5
100
AcDbEntity
  8
Defpoints
  6
PHANTOM
 62
     0
 48
20.0
100
AcDbPoint
 10
4693.28088571572
 20
1670.934563329865
 30
0.0
  0
POINT
  5
FEC1
330
EFB5
100
AcDbEntity
  8
Defpoints
  6
PHANTOM
 62
     0
 48
20.0
100
AcDbPoint
 10
4693.28088571572
 20
1434.506481092865
 30
0.0
  0
ENDBLK
  5
EFC0
330
EFB5
100
AcDbEntity
  8
0
 62
     1
 48
20.0
100
AcDbBlockEnd
  0
BLOCK
  5
EFD5
330
EFCB
100
AcDbEntity
  8
0
 62
     1
 48
20.0
100
AcDbBlockBegin
  2
*D44
 70
     1
 10
0.0
 20
0.0
 30
0.0
  3
*D44
  1

  0
LINE
  5
FEB0
330
EFCB
100
AcDbEntity
  8
実形
  6
PHANTOM
 62
     0
 48
20.0
370
    13
100
AcDbLine
 10
4693.28088571572
 20
1540.934563329865
 30
0.0
 11
4693.28088571572
 21
1434.506481092865
 31
0.0
  0
LINE
  5
FEB1
330
EFCB
100
AcDbEntity
  8
実形
  6
PHANTOM
 62
     0
 48
20.0
370
    13
100
AcDbLine
 10
5073.280885715721
 20
1540.934563329865
 30
0.0
 11
5073.280885715721
 21
1434.506481092865
 31
0.0
  0
LINE
  5
FEB2
330
EFCB
100
AcDbEntity
  8
実形
  6
PHANTOM
 62
     0
 48
20.0
370
    13
100
AcDbLine
 10
4718.280885715723
 20
1434.506481092865
 30
0.0
 11
5048.280885715723
 21
1434.506481092865
 31
0.0
  0
INSERT
  5
FEB3
330
EFCB
100
AcDbEntity
  8
実形
  6
PHANTOM
 62
     0
 48
20.0
370
    13
100
AcDbBlockReference
  2
_Dot
 10
4693.28088571572
 20
1434.506481092865
 30
0.0
 41
25.0
 42
25.0
 43
25.0
 50
180.0
  0
INSERT
  5
FEB4
330
EFCB
100
AcDbEntity
  8
実形
  6
PHANTOM
 62
     0
 48
20.0
370
    13
100
AcDbBlockReference
  2
_Dot
 10
5073.280885715721
 20
1434.506481092865
 30
0.0
 41
25.0
 42
25.0
 43
25.0
  0
MTEXT
  5
FEB5
330
EFCB
100
AcDbEntity
  8
実形
  6
PHANTOM
 62
     0
 48
20.0
100
AcDbMText
 10
4883.280885715723
 20
1514.506481092865
 30
0.0
 40
120.0
 41
0.0
 71
     5
 72
     1
  1
38
 73
     1
 44
1.0
1001
ACAD
1000
MTEXTBEGIN
1070
    73
1070
     1
1070
    44
1040
1.0
1070
    74
1070
     0
1000
MTEXTEND
  0
POINT
  5
FEB6
330
EFCB
100
AcDbEntity
  8
Defpoints
  6
PHANTOM
 62
     0
 48
20.0
100
AcDbPoint
 10
4693.28088571572
 20
1670.934563329865
 30
0.0
  0
POINT
  5
FEB7
330
EFCB
100
AcDbEntity
  8
Defpoints
  6
PHANTOM
 62
     0
 48
20.0
100
AcDbPoint
 10
5073.280885715721
 20
1670.934563329865
 30
0.0
  0
POINT
  5
FEB8
330
EFCB
100
AcDbEntity
  8
Defpoints
  6
PHANTOM
 62
     0
 48
20.0
100
AcDbPoint
 10
5073.280885715721
 20
1434.506481092865
 30
0.0
  0
ENDBLK
  5
EFD6
330
EFCB
100
AcDbEntity
  8
0
 62
     1
 48
20.0
100
AcDbBlockEnd
  0
BLOCK
  5
EFEE
330
EFE4
100
AcDbEntity
  8
0
 62
     1
 48
20.0
100
AcDbBlockBegin
  2
*D45
 70
     1
 10
0.0
 20
0.0
 30
0.0
  3
*D45
  1

  0
LINE
  5
FE56
330
EFE4
100
AcDbEntity
  8
実形
  6
PHANTOM
 62
     0
 48
20.0
370
    13
100
AcDbLine
 10
1073.280885715721
 20
1410.934563329865
 30
0.0
 11
1073.280885715721
 21
1217.768754648578
 31
0.0
  0
LINE
  5
FE57
330
EFE4
100
AcDbEntity
  8
実形
  6
PHANTOM
 62
     0
 48
20.0
370
    13
100
AcDbLine
 10
5073.280885715721
 20
1410.934563329865
 30
0.0
 11
5073.280885715721
 21
1217.768754648578
 31
0.0
  0
LINE
  5
FE58
330
EFE4
100
AcDbEntity
  8
実形
  6
PHANTOM
 62
     0
 48
20.0
370
    13
100
AcDbLine
 10
1098.280885715721
 20
1217.768754648578
 30
0.0
 11
5048.280885715723
 21
1217.768754648578
 31
0.0
  0
INSERT
  5
FE59
330
EFE4
100
AcDbEntity
  8
実形
  6
PHANTOM
 62
     0
 48
20.0
370
    13
100
AcDbBlockReference
  2
_Dot
 10
1073.280885715721
 20
1217.768754648578
 30
0.0
 41
25.0
 42
25.0
 43
25.0
 50
180.0
  0
INSERT
  5
FE5A
330
EFE4
100
AcDbEntity
  8
実形
  6
PHANTOM
 62
     0
 48
20.0
370
    13
100
AcDbBlockReference
  2
_Dot
 10
5073.280885715721
 20
1217.768754648578
 30
0.0
 41
25.0
 42
25.0
 43
25.0
  0
MTEXT
  5
FE5B
330
EFE4
100
AcDbEntity
  8
実形
  6
PHANTOM
 62
     0
 48
20.0
100
AcDbMText
 10
3073.280885715722
 20
1297.768754648578
 30
0.0
 40
120.0
 41
0.0
 71
     5
 72
     1
  1
400
 73
     1
 44
1.0
1001
ACAD
1000
MTEXTBEGIN
1070
    73
1070
     1
1070
    44
1040
1.0
1070
    74
1070
     0
1000
MTEXTEND
  0
POINT
  5
FE5C
330
EFE4
100
AcDbEntity
  8
Defpoints
  6
PHANTOM
 62
     0
 48
20.0
100
AcDbPoint
 10
1073.280885715721
 20
1540.934563329865
 30
0.0
  0
POINT
  5
FE5D
330
EFE4
100
AcDbEntity
  8
Defpoints
  6
PHANTOM
 62
     0
 48
20.0
100
AcDbPoint
 10
5073.280885715721
 20
1540.934563329865
 30
0.0
  0
POINT
  5
FE5E
330
EFE4
100
AcDbEntity
  8
Defpoints
  6
PHANTOM
 62
     0
 48
20.0
100
AcDbPoint
 10
5073.280885715721
 20
1217.768754648578
 30
0.0
  0
ENDBLK
  5
EFEF
330
EFE4
100
AcDbEntity
  8
0
 62
     1
 48
20.0
100
AcDbBlockEnd
  0
BLOCK
  5
F009
330
EFFF
100
AcDbEntity
  8
0
 62
     1
 48
20.0
100
AcDbBlockBegin
  2
*D46
 70
     1
 10
0.0
 20
0.0
 30
0.0
  3
*D46
  1

  0
LINE
  5
FE0F
330
EFFF
100
AcDbEntity
  8
実形
  6
PHANTOM
 62
     0
 48
20.0
370
    13
100
AcDbLine
 10
916.9978257251859
 20
4170.934563329865
 30
0.0
 11
785.1449063165857
 21
4170.934563329865
 31
0.0
  0
LINE
  5
FE10
330
EFFF
100
AcDbEntity
  8
実形
  6
PHANTOM
 62
     0
 48
20.0
370
    13
100
AcDbLine
 10
916.9978257251859
 20
3720.934563329866
 30
0.0
 11
785.1449063165855
 21
3720.934563329866
 31
0.0
  0
LINE
  5
FE11
330
EFFF
100
AcDbEntity
  8
実形
  6
PHANTOM
 62
     0
 48
20.0
370
    13
100
AcDbLine
 10
785.1449063165857
 20
4145.934563329865
 30
0.0
 11
785.1449063165855
 21
3745.934563329866
 31
0.0
  0
INSERT
  5
FE12
330
EFFF
100
AcDbEntity
  8
実形
  6
PHANTOM
 62
     0
 48
20.0
370
    13
100
AcDbBlockReference
  2
_Dot
 10
785.1449063165857
 20
4170.934563329865
 30
0.0
 41
25.0
 42
25.0
 43
25.0
 50
90.0
  0
INSERT
  5
FE13
330
EFFF
100
AcDbEntity
  8
実形
  6
PHANTOM
 62
     0
 48
20.0
370
    13
100
AcDbBlockReference
  2
_Dot
 10
785.1449063165855
 20
3720.934563329866
 30
0.0
 41
25.0
 42
25.0
 43
25.0
 50
270.0
  0
MTEXT
  5
FE14
330
EFFF
100
AcDbEntity
  8
実形
  6
PHANTOM
 62
     0
 48
20.0
100
AcDbMText
 10
705.144906316585
 20
3945.934563329866
 30
0.0
 40
120.0
 41
0.0
 71
     5
 72
     1
  1
45
 11
0.0000000000000001
 21
1.0
 31
0.0
 73
     1
 44
1.0
1001
ACAD
1000
MTEXTBEGIN
1070
    73
1070
     1
1070
    44
1040
1.0
1070
    74
1070
     0
1000
MTEXTEND
  0
POINT
  5
FE15
330
EFFF
100
AcDbEntity
  8
Defpoints
  6
PHANTOM
 62
     0
 48
20.0
100
AcDbPoint
 10
1046.997825725186
 20
4170.934563329865
 30
0.0
  0
POINT
  5
FE16
330
EFFF
100
AcDbEntity
  8
Defpoints
  6
PHANTOM
 62
     0
 48
20.0
100
AcDbPoint
 10
1046.997825725186
 20
3720.934563329866
 30
0.0
  0
POINT
  5
FE17
330
EFFF
100
AcDbEntity
  8
Defpoints
  6
PHANTOM
 62
     0
 48
20.0
100
AcDbPoint
 10
785.1449063165855
 20
3720.934563329866
 30
0.0
  0
ENDBLK
  5
F00A
330
EFFF
100
AcDbEntity
  8
0
 62
     1
 48
20.0
100
AcDbBlockEnd
  0
BLOCK
  5
F015
330
F00B
100
AcDbEntity
  8
0
 62
     1
 48
20.0
100
AcDbBlockBegin
  2
*D47
 70
     1
 10
0.0
 20
0.0
 30
0.0
  3
*D47
  1

  0
LINE
  5
FE18
330
F00B
100
AcDbEntity
  8
実形
  6
PHANTOM
 62
     0
 48
20.0
370
    13
100
AcDbLine
 10
916.9978257251859
 20
3720.934563329866
 30
0.0
 11
785.1449063165857
 21
3720.934563329866
 31
0.0
  0
LINE
  5
FE19
330
F00B
100
AcDbEntity
  8
実形
  6
PHANTOM
 62
     0
 48
20.0
370
    13
100
AcDbLine
 10
916.9978257251859
 20
3320.934563329866
 30
0.0
 11
785.1449063165855
 21
3320.934563329866
 31
0.0
  0
LINE
  5
FE1A
330
F00B
100
AcDbEntity
  8
実形
  6
PHANTOM
 62
     0
 48
20.0
370
    13
100
AcDbLine
 10
785.1449063165857
 20
3695.934563329866
 30
0.0
 11
785.1449063165857
 21
3345.934563329866
 31
0.0
  0
INSERT
  5
FE1B
330
F00B
100
AcDbEntity
  8
実形
  6
PHANTOM
 62
     0
 48
20.0
370
    13
100
AcDbBlockReference
  2
_Dot
 10
785.1449063165857
 20
3720.934563329866
 30
0.0
 41
25.0
 42
25.0
 43
25.0
 50
90.0
  0
INSERT
  5
FE1C
330
F00B
100
AcDbEntity
  8
実形
  6
PHANTOM
 62
     0
 48
20.0
370
    13
100
AcDbBlockReference
  2
_Dot
 10
785.1449063165855
 20
3320.934563329866
 30
0.0
 41
25.0
 42
25.0
 43
25.0
 50
270.0
  0
MTEXT
  5
FE1D
330
F00B
100
AcDbEntity
  8
実形
  6
PHANTOM
 62
     0
 48
20.0
100
AcDbMText
 10
705.1449063165851
 20
3520.934563329866
 30
0.0
 40
120.0
 41
0.0
 71
     5
 72
     1
  1
40
 11
0.0000000000000001
 21
1.0
 31
0.0
 73
     1
 44
1.0
1001
ACAD
1000
MTEXTBEGIN
1070
    73
1070
     1
1070
    44
1040
1.0
1070
    74
1070
     0
1000
MTEXTEND
  0
POINT
  5
FE1E
330
F00B
100
AcDbEntity
  8
Defpoints
  6
PHANTOM
 62
     0
 48
20.0
100
AcDbPoint
 10
1046.997825725186
 20
3720.934563329866
 30
0.0
  0
POINT
  5
FE1F
330
F00B
100
AcDbEntity
  8
Defpoints
  6
PHANTOM
 62
     0
 48
20.0
100
AcDbPoint
 10
1046.997825725186
 20
3320.934563329866
 30
0.0
  0
POINT
  5
FE20
330
F00B
100
AcDbEntity
  8
Defpoints
  6
PHANTOM
 62
     0
 48
20.0
100
AcDbPoint
 10
785.1449063165855
 20
3320.934563329866
 30
0.0
  0
ENDBLK
  5
F016
330
F00B
100
AcDbEntity
  8
0
 62
     1
 48
20.0
100
AcDbBlockEnd
  0
BLOCK
  5
F021
330
F017
100
AcDbEntity
  8
0
 62
     1
 48
20.0
100
AcDbBlockBegin
  2
*D48
 70
     1
 10
0.0
 20
0.0
 30
0.0
  3
*D48
  1

  0
LINE
  5
FDEB
330
F017
100
AcDbEntity
  8
実形
  6
PHANTOM
 62
     0
 48
20.0
370
    13
100
AcDbLine
 10
916.9978257251859
 20
3320.934563329866
 30
0.0
 11
785.1449063165855
 21
3320.934563329866
 31
0.0
  0
LINE
  5
FDEC
330
F017
100
AcDbEntity
  8
実形
  6
PHANTOM
 62
     0
 48
20.0
370
    13
100
AcDbLine
 10
916.9978257251859
 20
2920.934563329866
 30
0.0
 11
785.1449063165855
 21
2920.934563329866
 31
0.0
  0
LINE
  5
FDED
330
F017
100
AcDbEntity
  8
実形
  6
PHANTOM
 62
     0
 48
20.0
370
    13
100
AcDbLine
 10
785.1449063165855
 20
3295.934563329866
 30
0.0
 11
785.1449063165855
 21
2945.934563329866
 31
0.0
  0
INSERT
  5
FDEE
330
F017
100
AcDbEntity
  8
実形
  6
PHANTOM
 62
     0
 48
20.0
370
    13
100
AcDbBlockReference
  2
_Dot
 10
785.1449063165855
 20
3320.934563329866
 30
0.0
 41
25.0
 42
25.0
 43
25.0
 50
90.0
  0
INSERT
  5
FDEF
330
F017
100
AcDbEntity
  8
実形
  6
PHANTOM
 62
     0
 48
20.0
370
    13
100
AcDbBlockReference
  2
_Dot
 10
785.1449063165855
 20
2920.934563329866
 30
0.0
 41
25.0
 42
25.0
 43
25.0
 50
270.0
  0
MTEXT
  5
FDF0
330
F017
100
AcDbEntity
  8
実形
  6
PHANTOM
 62
     0
 48
20.0
100
AcDbMText
 10
705.1449063165851
 20
3120.934563329866
 30
0.0
 40
120.0
 41
0.0
 71
     5
 72
     1
  1
40
 11
0.0000000000000001
 21
1.0
 31
0.0
 73
     1
 44
1.0
1001
ACAD
1000
MTEXTBEGIN
1070
    73
1070
     1
1070
    44
1040
1.0
1070
    74
1070
     0
1000
MTEXTEND
  0
POINT
  5
FDF1
330
F017
100
AcDbEntity
  8
Defpoints
  6
PHANTOM
 62
     0
 48
20.0
100
AcDbPoint
 10
1046.997825725186
 20
3320.934563329866
 30
0.0
  0
POINT
  5
FDF2
330
F017
100
AcDbEntity
  8
Defpoints
  6
PHANTOM
 62
     0
 48
20.0
100
AcDbPoint
 10
1046.997825725186
 20
2920.934563329865
 30
0.0
  0
POINT
  5
FDF3
330
F017
100
AcDbEntity
  8
Defpoints
  6
PHANTOM
 62
     0
 48
20.0
100
AcDbPoint
 10
785.1449063165855
 20
2920.934563329866
 30
0.0
  0
ENDBLK
  5
F022
330
F017
100
AcDbEntity
  8
0
 62
     1
 48
20.0
100
AcDbBlockEnd
  0
BLOCK
  5
F02D
330
F023
100
AcDbEntity
  8
0
 62
     1
 48
20.0
100
AcDbBlockBegin
  2
*D49
 70
     1
 10
0.0
 20
0.0
 30
0.0
  3
*D49
  1

  0
LINE
  5
FE06
330
F023
100
AcDbEntity
  8
実形
  6
PHANTOM
 62
     0
 48
20.0
370
    13
100
AcDbLine
 10
916.9978257251859
 20
2920.934563329866
 30
0.0
 11
785.1449063165865
 21
2920.934563329866
 31
0.0
  0
LINE
  5
FE07
330
F023
100
AcDbEntity
  8
実形
  6
PHANTOM
 62
     0
 48
20.0
370
    13
100
AcDbLine
 10
916.9978257251859
 20
2520.934563329867
 30
0.0
 11
785.1449063165865
 21
2520.934563329867
 31
0.0
  0
LINE
  5
FE08
330
F023
100
AcDbEntity
  8
実形
  6
PHANTOM
 62
     0
 48
20.0
370
    13
100
AcDbLine
 10
785.1449063165865
 20
2895.934563329866
 30
0.0
 11
785.1449063165865
 21
2545.934563329867
 31
0.0
  0
INSERT
  5
FE09
330
F023
100
AcDbEntity
  8
実形
  6
PHANTOM
 62
     0
 48
20.0
370
    13
100
AcDbBlockReference
  2
_Dot
 10
785.1449063165865
 20
2920.934563329866
 30
0.0
 41
25.0
 42
25.0
 43
25.0
 50
90.0
  0
INSERT
  5
FE0A
330
F023
100
AcDbEntity
  8
実形
  6
PHANTOM
 62
     0
 48
20.0
370
    13
100
AcDbBlockReference
  2
_Dot
 10
785.1449063165865
 20
2520.934563329867
 30
0.0
 41
25.0
 42
25.0
 43
25.0
 50
270.0
  0
MTEXT
  5
FE0B
330
F023
100
AcDbEntity
  8
実形
  6
PHANTOM
 62
     0
 48
20.0
100
AcDbMText
 10
705.1449063165859
 20
2720.934563329866
 30
0.0
 40
120.0
 41
0.0
 71
     5
 72
     1
  1
40
 11
0.0000000000000001
 21
1.0
 31
0.0
 73
     1
 44
1.0
1001
ACAD
1000
MTEXTBEGIN
1070
    73
1070
     1
1070
    44
1040
1.0
1070
    74
1070
     0
1000
MTEXTEND
  0
POINT
  5
FE0C
330
F023
100
AcDbEntity
  8
Defpoints
  6
PHANTOM
 62
     0
 48
20.0
100
AcDbPoint
 10
1046.997825725186
 20
2920.934563329865
 30
0.0
  0
POINT
  5
FE0D
330
F023
100
AcDbEntity
  8
Defpoints
  6
PHANTOM
 62
     0
 48
20.0
100
AcDbPoint
 10
1046.997825725186
 20
2520.934563329865
 30
0.0
  0
POINT
  5
FE0E
330
F023
100
AcDbEntity
  8
Defpoints
  6
PHANTOM
 62
     0
 48
20.0
100
AcDbPoint
 10
785.1449063165865
 20
2520.934563329867
 30
0.0
  0
ENDBLK
  5
F02E
330
F023
100
AcDbEntity
  8
0
 62
     1
 48
20.0
100
AcDbBlockEnd
  0
BLOCK
  5
F039
330
F02F
100
AcDbEntity
  8
0
 62
     1
 48
20.0
100
AcDbBlockBegin
  2
*D50
 70
     1
 10
0.0
 20
0.0
 30
0.0
  3
*D50
  1

  0
LINE
  5
FDFD
330
F02F
100
AcDbEntity
  8
実形
  6
PHANTOM
 62
     0
 48
20.0
370
    13
100
AcDbLine
 10
916.9978257251859
 20
2520.934563329867
 30
0.0
 11
785.1449063165865
 21
2520.934563329867
 31
0.0
  0
LINE
  5
FDFE
330
F02F
100
AcDbEntity
  8
実形
  6
PHANTOM
 62
     0
 48
20.0
370
    13
100
AcDbLine
 10
916.9978257251859
 20
2120.934563329866
 30
0.0
 11
785.1449063165865
 21
2120.934563329866
 31
0.0
  0
LINE
  5
FDFF
330
F02F
100
AcDbEntity
  8
実形
  6
PHANTOM
 62
     0
 48
20.0
370
    13
100
AcDbLine
 10
785.1449063165865
 20
2495.934563329866
 30
0.0
 11
785.1449063165865
 21
2145.934563329866
 31
0.0
  0
INSERT
  5
FE00
330
F02F
100
AcDbEntity
  8
実形
  6
PHANTOM
 62
     0
 48
20.0
370
    13
100
AcDbBlockReference
  2
_Dot
 10
785.1449063165865
 20
2520.934563329867
 30
0.0
 41
25.0
 42
25.0
 43
25.0
 50
90.0
  0
INSERT
  5
FE01
330
F02F
100
AcDbEntity
  8
実形
  6
PHANTOM
 62
     0
 48
20.0
370
    13
100
AcDbBlockReference
  2
_Dot
 10
785.1449063165865
 20
2120.934563329866
 30
0.0
 41
25.0
 42
25.0
 43
25.0
 50
270.0
  0
MTEXT
  5
FE02
330
F02F
100
AcDbEntity
  8
実形
  6
PHANTOM
 62
     0
 48
20.0
100
AcDbMText
 10
705.1449063165861
 20
2320.934563329867
 30
0.0
 40
120.0
 41
0.0
 71
     5
 72
     1
  1
40
 11
0.0000000000000001
 21
1.0
 31
0.0
 73
     1
 44
1.0
1001
ACAD
1000
MTEXTBEGIN
1070
    73
1070
     1
1070
    44
1040
1.0
1070
    74
1070
     0
1000
MTEXTEND
  0
POINT
  5
FE03
330
F02F
100
AcDbEntity
  8
Defpoints
  6
PHANTOM
 62
     0
 48
20.0
100
AcDbPoint
 10
1046.997825725186
 20
2520.934563329865
 30
0.0
  0
POINT
  5
FE04
330
F02F
100
AcDbEntity
  8
Defpoints
  6
PHANTOM
 62
     0
 48
20.0
100
AcDbPoint
 10
1046.997825725186
 20
2120.934563329865
 30
0.0
  0
POINT
  5
FE05
330
F02F
100
AcDbEntity
  8
Defpoints
  6
PHANTOM
 62
     0
 48
20.0
100
AcDbPoint
 10
785.1449063165865
 20
2120.934563329866
 30
0.0
  0
ENDBLK
  5
F03A
330
F02F
100
AcDbEntity
  8
0
 62
     1
 48
20.0
100
AcDbBlockEnd
  0
BLOCK
  5
F045
330
F03B
100
AcDbEntity
  8
0
 62
     1
 48
20.0
100
AcDbBlockBegin
  2
*D51
 70
     1
 10
0.0
 20
0.0
 30
0.0
  3
*D51
  1

  0
LINE
  5
FDF4
330
F03B
100
AcDbEntity
  8
実形
  6
PHANTOM
 62
     0
 48
20.0
370
    13
100
AcDbLine
 10
916.9978257251859
 20
2120.934563329866
 30
0.0
 11
785.1449063165865
 21
2120.934563329866
 31
0.0
  0
LINE
  5
FDF5
330
F03B
100
AcDbEntity
  8
実形
  6
PHANTOM
 62
     0
 48
20.0
370
    13
100
AcDbLine
 10
916.9978257251859
 20
1670.934563329865
 30
0.0
 11
785.1449063165865
 21
1670.934563329865
 31
0.0
  0
LINE
  5
FDF6
330
F03B
100
AcDbEntity
  8
実形
  6
PHANTOM
 62
     0
 48
20.0
370
    13
100
AcDbLine
 10
785.1449063165865
 20
2095.934563329866
 30
0.0
 11
785.1449063165865
 21
1695.934563329865
 31
0.0
  0
INSERT
  5
FDF7
330
F03B
100
AcDbEntity
  8
実形
  6
PHANTOM
 62
     0
 48
20.0
370
    13
100
AcDbBlockReference
  2
_Dot
 10
785.1449063165865
 20
2120.934563329866
 30
0.0
 41
25.0
 42
25.0
 43
25.0
 50
90.0
  0
INSERT
  5
FDF8
330
F03B
100
AcDbEntity
  8
実形
  6
PHANTOM
 62
     0
 48
20.0
370
    13
100
AcDbBlockReference
  2
_Dot
 10
785.1449063165865
 20
1670.934563329865
 30
0.0
 41
25.0
 42
25.0
 43
25.0
 50
270.0
  0
MTEXT
  5
FDF9
330
F03B
100
AcDbEntity
  8
実形
  6
PHANTOM
 62
     0
 48
20.0
100
AcDbMText
 10
705.1449063165863
 20
1895.934563329866
 30
0.0
 40
120.0
 41
0.0
 71
     5
 72
     1
  1
45
 11
0.0000000000000001
 21
1.0
 31
0.0
 73
     1
 44
1.0
1001
ACAD
1000
MTEXTBEGIN
1070
    73
1070
     1
1070
    44
1040
1.0
1070
    74
1070
     0
1000
MTEXTEND
  0
POINT
  5
FDFA
330
F03B
100
AcDbEntity
  8
Defpoints
  6
PHANTOM
 62
     0
 48
20.0
100
AcDbPoint
 10
1046.997825725186
 20
2120.934563329865
 30
0.0
  0
POINT
  5
FDFB
330
F03B
100
AcDbEntity
  8
Defpoints
  6
PHANTOM
 62
     0
 48
20.0
100
AcDbPoint
 10
1046.997825725186
 20
1670.934563329865
 30
0.0
  0
POINT
  5
FDFC
330
F03B
100
AcDbEntity
  8
Defpoints
  6
PHANTOM
 62
     0
 48
20.0
100
AcDbPoint
 10
785.1449063165865
 20
1670.934563329865
 30
0.0
  0
ENDBLK
  5
F046
330
F03B
100
AcDbEntity
  8
0
 62
     1
 48
20.0
100
AcDbBlockEnd
  0
BLOCK
  5
F0BE
330
F0B4
100
AcDbEntity
  8
0
 62
     1
 48
20.0
100
AcDbBlockBegin
  2
*D52
 70
     1
 10
0.0
 20
0.0
 30
0.0
  3
*D52
  1

  0
LINE
  5
FE21
330
F0B4
100
AcDbEntity
  8
実形
  6
PHANTOM
 62
     0
 48
20.0
370
    13
100
AcDbLine
 10
886.1620775179108
 20
4170.934563329865
 30
0.0
 11
572.1988024061799
 21
4170.934563329865
 31
0.0
  0
LINE
  5
FE22
330
F0B4
100
AcDbEntity
  8
実形
  6
PHANTOM
 62
     0
 48
20.0
370
    13
100
AcDbLine
 10
886.1620775179108
 20
1670.934563329865
 30
0.0
 11
572.1988024061793
 21
1670.934563329865
 31
0.0
  0
LINE
  5
FE23
330
F0B4
100
AcDbEntity
  8
実形
  6
PHANTOM
 62
     0
 48
20.0
370
    13
100
AcDbLine
 10
572.1988024061799
 20
4145.934563329865
 30
0.0
 11
572.1988024061793
 21
1695.934563329865
 31
0.0
  0
INSERT
  5
FE24
330
F0B4
100
AcDbEntity
  8
実形
  6
PHANTOM
 62
     0
 48
20.0
370
    13
100
AcDbBlockReference
  2
_Dot
 10
572.1988024061799
 20
4170.934563329865
 30
0.0
 41
25.0
 42
25.0
 43
25.0
 50
90.0
  0
INSERT
  5
FE25
330
F0B4
100
AcDbEntity
  8
実形
  6
PHANTOM
 62
     0
 48
20.0
370
    13
100
AcDbBlockReference
  2
_Dot
 10
572.1988024061793
 20
1670.934563329865
 30
0.0
 41
25.0
 42
25.0
 43
25.0
 50
270.0
  0
MTEXT
  5
FE26
330
F0B4
100
AcDbEntity
  8
実形
  6
PHANTOM
 62
     0
 48
20.0
100
AcDbMText
 10
492.1988024061791
 20
2920.934563329865
 30
0.0
 40
120.0
 41
0.0
 71
     5
 72
     1
  1
250
 11
0.0000000000000001
 21
1.0
 31
0.0
 73
     1
 44
1.0
1001
ACAD
1000
MTEXTBEGIN
1070
    73
1070
     1
1070
    44
1040
1.0
1070
    74
1070
     0
1000
MTEXTEND
  0
POINT
  5
FE27
330
F0B4
100
AcDbEntity
  8
Defpoints
  6
PHANTOM
 62
     0
 48
20.0
100
AcDbPoint
 10
1016.16207751791
 20
4170.934563329865
 30
0.0
  0
POINT
  5
FE28
330
F0B4
100
AcDbEntity
  8
Defpoints
  6
PHANTOM
 62
     0
 48
20.0
100
AcDbPoint
 10
1016.16207751791
 20
1670.934563329865
 30
0.0
  0
POINT
  5
FE29
330
F0B4
100
AcDbEntity
  8
Defpoints
  6
PHANTOM
 62
     0
 48
20.0
100
AcDbPoint
 10
572.1988024061793
 20
1670.934563329865
 30
0.0
  0
ENDBLK
  5
F0BF
330
F0B4
100
AcDbEntity
  8
0
 62
     1
 48
20.0
100
AcDbBlockEnd
  0
BLOCK
  5
FAC7
330
FABB
100
AcDbEntity
  8
0
 62
     1
 48
20.0
100
AcDbBlockBegin
  2
*D53
 70
     1
 10
0.0
 20
0.0
 30
0.0
  3
*D53
  1

  0
LINE
  5
FE4B
330
FABB
100
AcDbEntity
  8
実形
  6
PHANTOM
 62
     0
 48
20.0
370
    13
100
AcDbLine
 10
4673.280885715722
 20
4199.01070276953
 30
0.0
 11
4673.280885715722
 21
4258.724080775468
 31
0.0
  0
LINE
  5
FE4C
330
FABB
100
AcDbEntity
  8
実形
  6
PHANTOM
 62
     0
 48
20.0
370
    13
100
AcDbLine
 10
4713.280885715721
 20
4199.01070276953
 30
0.0
 11
4713.280885715721
 21
4258.724080775468
 31
0.0
  0
LINE
  5
FE4D
330
FABB
100
AcDbEntity
  8
実形
  6
PHANTOM
 62
     0
 48
20.0
370
    13
100
AcDbLine
 10
4648.28088571572
 20
4258.724080775468
 30
0.0
 11
4623.280885715721
 21
4258.724080775468
 31
0.0
  0
LINE
  5
FE4E
330
FABB
100
AcDbEntity
  8
実形
  6
PHANTOM
 62
     0
 48
20.0
370
    13
100
AcDbLine
 10
4738.28088571572
 20
4258.724080775468
 30
0.0
 11
4763.280885715721
 21
4258.724080775468
 31
0.0
  0
MTEXT
  5
FE4F
330
FABB
100
AcDbEntity
  8
実形
  6
PHANTOM
 62
     0
 48
20.0
100
AcDbMText
 10
4754.466812027822
 20
4353.531736442532
 30
0.0
 40
120.0
 41
0.0
 71
     5
 72
     1
  1
4Φ
 73
     1
 44
1.0
1001
ACAD
1000
MTEXTBEGIN
1070
    73
1070
     1
1070
    44
1040
1.0
1070
    74
1070
     0
1000
MTEXTEND
  0
LINE
  5
FE50
330
FABB
100
AcDbEntity
  8
実形
  6
PHANTOM
 62
     0
 48
20.0
370
    13
100
AcDbLine
 10
4673.280885715722
 20
4258.724080775468
 30
0.0
 11
4713.280885715721
 21
4258.724080775468
 31
0.0
  0
INSERT
  5
FE51
330
FABB
100
AcDbEntity
  8
実形
  6
PHANTOM
 62
     0
 48
20.0
370
    13
100
AcDbBlockReference
  2
_Dot
 10
4673.280885715722
 20
4258.724080775468
 30
0.0
 41
25.0
 42
25.0
 43
25.0
  0
INSERT
  5
FE52
330
FABB
100
AcDbEntity
  8
実形
  6
PHANTOM
 62
     0
 48
20.0
370
    13
100
AcDbBlockReference
  2
_Dot
 10
4713.280885715721
 20
4258.724080775468
 30
0.0
 41
25.0
 42
25.0
 43
25.0
 50
180.0
  0
POINT
  5
FE53
330
FABB
100
AcDbEntity
  8
Defpoints
  6
PHANTOM
 62
     0
 48
20.0
100
AcDbPoint
 10
4673.280885715722
 20
4069.01070276953
 30
0.0
  0
POINT
  5
FE54
330
FABB
100
AcDbEntity
  8
Defpoints
  6
PHANTOM
 62
     0
 48
20.0
100
AcDbPoint
 10
4713.280885715721
 20
4069.01070276953
 30
0.0
  0
POINT
  5
FE55
330
FABB
100
AcDbEntity
  8
Defpoints
  6
PHANTOM
 62
     0
 48
20.0
100
AcDbPoint
 10
4713.280885715721
 20
4258.724080775468
 30
0.0
  0
ENDBLK
  5
FAC8
330
FABB
100
AcDbEntity
  8
0
 62
     1
 48
20.0
100
AcDbBlockEnd
  0
BLOCK
  5
FAD5
330
FAC9
100
AcDbEntity
  8
0
 62
     1
 48
20.0
100
AcDbBlockBegin
  2
*D54
 70
     1
 10
0.0
 20
0.0
 30
0.0
  3
*D54
  1

  0
LINE
  5
FE40
330
FAC9
100
AcDbEntity
  8
実形
  6
PHANTOM
 62
     0
 48
20.0
370
    13
100
AcDbLine
 10
4320.780885715723
 20
4199.01070276953
 30
0.0
 11
4320.780885715723
 21
4258.724080775468
 31
0.0
  0
LINE
  5
FE41
330
FAC9
100
AcDbEntity
  8
実形
  6
PHANTOM
 62
     0
 48
20.0
370
    13
100
AcDbLine
 10
4345.78088571572
 20
4199.01070276953
 30
0.0
 11
4345.78088571572
 21
4258.724080775468
 31
0.0
  0
LINE
  5
FE42
330
FAC9
100
AcDbEntity
  8
実形
  6
PHANTOM
 62
     0
 48
20.0
370
    13
100
AcDbLine
 10
4295.78088571572
 20
4258.724080775468
 30
0.0
 11
4270.780885715722
 21
4258.724080775468
 31
0.0
  0
LINE
  5
FE43
330
FAC9
100
AcDbEntity
  8
実形
  6
PHANTOM
 62
     0
 48
20.0
370
    13
100
AcDbLine
 10
4370.78088571572
 20
4258.724080775468
 30
0.0
 11
4395.780885715722
 21
4258.724080775468
 31
0.0
  0
MTEXT
  5
FE44
330
FAC9
100
AcDbEntity
  8
実形
  6
PHANTOM
 62
     0
 48
20.0
100
AcDbMText
 10
4303.696054408447
 20
4358.693374234448
 30
0.0
 40
120.0
 41
0.0
 71
     5
 72
     1
  1
2.5Φ
 73
     1
 44
1.0
1001
ACAD
1000
MTEXTBEGIN
1070
    73
1070
     1
1070
    44
1040
1.0
1070
    74
1070
     0
1000
MTEXTEND
  0
LINE
  5
FE45
330
FAC9
100
AcDbEntity
  8
実形
  6
PHANTOM
 62
     0
 48
20.0
370
    13
100
AcDbLine
 10
4320.780885715723
 20
4258.724080775468
 30
0.0
 11
4345.78088571572
 21
4258.724080775468
 31
0.0
  0
INSERT
  5
FE46
330
FAC9
100
AcDbEntity
  8
実形
  6
PHANTOM
 62
     0
 48
20.0
370
    13
100
AcDbBlockReference
  2
_Dot
 10
4320.780885715723
 20
4258.724080775468
 30
0.0
 41
25.0
 42
25.0
 43
25.0
  0
INSERT
  5
FE47
330
FAC9
100
AcDbEntity
  8
実形
  6
PHANTOM
 62
     0
 48
20.0
370
    13
100
AcDbBlockReference
  2
_Dot
 10
4345.78088571572
 20
4258.724080775468
 30
0.0
 41
25.0
 42
25.0
 43
25.0
 50
180.0
  0
POINT
  5
FE48
330
FAC9
100
AcDbEntity
  8
Defpoints
  6
PHANTOM
 62
     0
 48
20.0
100
AcDbPoint
 10
4320.780885715723
 20
4069.010702769531
 30
0.0
  0
POINT
  5
FE49
330
FAC9
100
AcDbEntity
  8
Defpoints
  6
PHANTOM
 62
     0
 48
20.0
100
AcDbPoint
 10
4345.78088571572
 20
4069.010702769531
 30
0.0
  0
POINT
  5
FE4A
330
FAC9
100
AcDbEntity
  8
Defpoints
  6
PHANTOM
 62
     0
 48
20.0
100
AcDbPoint
 10
4345.78088571572
 20
4258.724080775468
 30
0.0
  0
ENDBLK
  5
FAD6
330
FAC9
100
AcDbEntity
  8
0
 62
     1
 48
20.0
100
AcDbBlockEnd
  0
BLOCK
  5
FC6F
330
FC6E
100
AcDbEntity
  8
0
 62
     1
 48
20.0
100
AcDbBlockBegin
  2
*D55
 70
     1
 10
0.0
 20
0.0
 30
0.0
  3
*D55
  1

  0
LINE
  5
FC70
330
FC6E
100
AcDbEntity
  8
実形
  6
PHANTOM
 62
     0
 48
20.0
370
    13
100
AcDbLine
 10
4673.280885715722
 20
5173.80175921223
 30
0.0
 11
4673.280885715722
 21
5233.515137218169
 31
0.0
  0
LINE
  5
FC71
330
FC6E
100
AcDbEntity
  8
実形
  6
PHANTOM
 62
     0
 48
20.0
370
    13
100
AcDbLine
 10
4713.280885715721
 20
5173.80175921223
 30
0.0
 11
4713.280885715721
 21
5233.515137218169
 31
0.0
  0
LINE
  5
FC72
330
FC6E
100
AcDbEntity
  8
実形
  6
PHANTOM
 62
     0
 48
20.0
370
    13
100
AcDbLine
 10
4648.28088571572
 20
5233.515137218169
 30
0.0
 11
4623.280885715721
 21
5233.515137218169
 31
0.0
  0
LINE
  5
FC73
330
FC6E
100
AcDbEntity
  8
実形
  6
PHANTOM
 62
     0
 48
20.0
370
    13
100
AcDbLine
 10
4738.28088571572
 20
5233.515137218169
 30
0.0
 11
4763.280885715721
 21
5233.515137218169
 31
0.0
  0
MTEXT
  5
FC74
330
FC6E
100
AcDbEntity
  8
実形
  6
PHANTOM
 62
     0
 48
20.0
100
AcDbMText
 10
4693.28088571572
 20
5293.51513721817
 30
0.0
 40
60.0
 41
0.0
 71
     5
 72
     1
  1
4Φ
 73
     1
 44
1.0
1001
ACAD
1000
MTEXTBEGIN
1070
    73
1070
     1
1070
    44
1040
1.0
1070
    74
1070
     0
1000
MTEXTEND
  0
LINE
  5
FC75
330
FC6E
100
AcDbEntity
  8
実形
  6
PHANTOM
 62
     0
 48
20.0
370
    13
100
AcDbLine
 10
4673.280885715722
 20
5233.515137218169
 30
0.0
 11
4713.280885715721
 21
5233.515137218169
 31
0.0
  0
INSERT
  5
FC76
330
FC6E
100
AcDbEntity
  8
実形
  6
PHANTOM
 62
     0
 48
20.0
370
    13
100
AcDbBlockReference
  2
_Dot
 10
4673.280885715722
 20
5233.515137218169
 30
0.0
 41
25.0
 42
25.0
 43
25.0
  0
INSERT
  5
FC77
330
FC6E
100
AcDbEntity
  8
実形
  6
PHANTOM
 62
     0
 48
20.0
370
    13
100
AcDbBlockReference
  2
_Dot
 10
4713.280885715721
 20
5233.515137218169
 30
0.0
 41
25.0
 42
25.0
 43
25.0
 50
180.0
  0
POINT
  5
FC78
330
FC6E
100
AcDbEntity
  8
Defpoints
  6
PHANTOM
 62
     0
 48
20.0
100
AcDbPoint
 10
4673.280885715722
 20
5043.80175921223
 30
0.0
  0
POINT
  5
FC79
330
FC6E
100
AcDbEntity
  8
Defpoints
  6
PHANTOM
 62
     0
 48
20.0
100
AcDbPoint
 10
4713.280885715721
 20
5043.80175921223
 30
0.0
  0
POINT
  5
FC7A
330
FC6E
100
AcDbEntity
  8
Defpoints
  6
PHANTOM
 62
     0
 48
20.0
100
AcDbPoint
 10
4713.280885715721
 20
5233.515137218169
 30
0.0
  0
ENDBLK
  5
FC7B
330
FC6E
100
AcDbEntity
  8
0
 62
     1
 48
20.0
100
AcDbBlockEnd
  0
BLOCK
  5
FC80
330
FC7C
100
AcDbEntity
  8
0
 62
     1
 48
20.0
100
AcDbBlockBegin
  2
A$C6CD8155D
 70
     0
 10
0.0
 20
0.0
 30
0.0
  3
A$C6CD8155D
  1

  0
DIMENSION
  5
FC7D
330
FC7C
100
AcDbEntity
  8
実形
  6
PHANTOM
 48
20.0
100
AcDbDimension
  2
*D55
 10
40.0
 20
172.2133780059394
 30
0.0
 11
20.00000000000091
 21
232.2133780059394
 31
0.0
 12
-4673.280885715721
 22
-5061.301759212231
 32
0.0
  1
4Φ
 71
     5
 42
39.99999999999909
  3
ISO-25
100
AcDbAlignedDimension
 13
0.0000000000009095
 23
-17.50000000000091
 33
0.0
 14
40.0
 24
-17.50000000000091
 34
0.0
100
AcDbRotatedDimension
1001
ACAD
1000
DSTYLE
1002
{
1070
    41
1040
25.0
1070
    42
1040
130.0
1070
   140
1040
60.0
1070
   147
1040
20.0
1070
   279
1070
     2
1070
   342
1005
E3
1070
   371
1070
    13
1070
   372
1070
    13
1002
}
  0
ENDBLK
  5
FC81
330
FC7C
100
AcDbEntity
  8
0
 62
     1
 48
20.0
100
AcDbBlockEnd
  0
ENDSEC
  0
SECTION
  2
ENTITIES
  0
LINE
  5
B2
330
1F
100
AcDbEntity
  8
範囲
100
AcDbLine
 10
0.0
 20
0.0
 30
0.0
 11
0.0
 21
4000.0
 31
0.0
  0
LINE
  5
B3
330
1F
100
AcDbEntity
  8
範囲
100
AcDbLine
 10
0.0
 20
4000.0
 30
0.0
 11
5500.0
 21
4000.0
 31
0.0
  0
LINE
  5
B4
330
1F
100
AcDbEntity
  8
範囲
100
AcDbLine
 10
5500.0
 20
4000.0
 30
0.0
 11
5500.0
 21
0.0
 31
0.0
  0
LINE
  5
B5
330
1F
100
AcDbEntity
  8
範囲
100
AcDbLine
 10
5500.0
 20
0.0
 30
0.0
 11
0.0
 21
0.0
 31
0.0
  0
LINE
  5
B6
330
1F
100
AcDbEntity
  8
範囲
100
AcDbLine
 10
0.0
 20
0.0
 30
0.0
 11
0.0
 21
1037.787792444165
 31
0.0
  0
LINE
  5
4806
330
1F
100
AcDbEntity
  8
実形
 48
20.0
100
AcDbLine
 10
314.805845339718
 20
10.3318956774714
 30
0.0
 11
7326.817005522613
 21
10.3318956774714
 31
0.0
  0
TEXT
  5
8E2C
330
1F
100
AcDbEntity
  8
実形
100
AcDbText
 10
1822.36619141451
 20
2277.886400938966
 30
0.0
 40
70.0
  1

 72
     1
 11
1822.36619141451
 21
2277.886400938966
 31
0.0
100
AcDbText
  0
LINE
  5
DA2E
330
1F
100
AcDbEntity
  8
実形
100
AcDbLine
 10
5917.208077376297
 20
160.6979069238515
 30
0.0
 11
5917.208077376297
 21
316.6979069238515
 31
0.0
  0
TEXT
  5
DA2F
330
1F
100
AcDbEntity
  8
実形
100
AcDbText
 10
6037.550862439898
 20
196.6979069238514
 30
0.0
 40
84.0
  1
A1m m250-400AK
 72
     4
 11
6559.750862439898
 21
238.6979069238514
 31
0.0
100
AcDbText
  0
TEXT
  5
DA31
330
1F
100
AcDbEntity
  8
実形
100
AcDbText
 10
5683.608077376297
 20
196.6979069238515
 30
0.0
 40
84.0
  1
品番
 72
     4
 11
5773.208077376297
 21
238.6979069238515
 31
0.0
100
AcDbText
  0
LINE
  5
DA32
330
1F
100
AcDbEntity
  8
実形
100
AcDbLine
 10
5598.81700552261
 20
160.6979069238514
 30
0.0
 11
7326.81700552261
 21
160.6979069238514
 31
0.0
  0
LINE
  5
DA33
330
1F
100
AcDbEntity
  8
実形
100
AcDbLine
 10
5598.81700552261
 20
316.6979069238514
 30
0.0
 11
7326.81700552261
 21
316.6979069238514
 31
0.0
  0
LINE
  5
DA34
330
1F
100
AcDbEntity
  8
実形
100
AcDbLine
 10
5598.81700552261
 20
160.6979069238514
 30
0.0
 11
7326.81700552261
 21
160.6979069238514
 31
0.0
  0
TEXT
  5
DA35
330
1F
100
AcDbEntity
  8
実形
100
AcDbText
 10
6165.830864719444
 20
34.69790692385142
 30
0.0
 40
96.0
  1
中外交易株式会社
 72
     4
 11
6617.030864719443
 21
82.69790692385143
 31
0.0
100
AcDbText
  0
LINE
  5
DA36
330
1F
100
AcDbEntity
  8
実形
100
AcDbLine
 10
5886.81700552261
 20
160.6979069238514
 30
0.0
 11
7326.81700552261
 21
160.6979069238514
 31
0.0
  0
LINE
  5
DA37
330
1F
100
AcDbEntity
  8
実形
370
     5
100
AcDbLine
 10
5864.04242111708
 20
92.38880807245591
 30
0.0
 11
5805.030864719443
 21
92.38880807245591
 31
0.0
  0
LINE
  5
DA38
330
1F
100
AcDbEntity
  8
実形
370
     5
100
AcDbLine
 10
5805.030864719443
 20
92.38880807245591
 30
0.0
 11
5805.030864719443
 21
68.3888080724559
 31
0.0
  0
LINE
  5
DA39
330
1F
100
AcDbEntity
  8
実形
370
     5
100
AcDbLine
 10
5870.757551225665
 20
130.6979069238514
 30
0.0
 11
5870.757551225665
 21
34.69790692385142
 31
0.0
  0
LINE
  5
DA3A
330
1F
100
AcDbEntity
  8
実形
370
     5
100
AcDbLine
 10
5954.757551225664
 20
34.69790692385142
 30
0.0
 11
5870.757551225665
 21
82.69790692385143
 31
0.0
  0
LINE
  5
DA3B
330
1F
100
AcDbEntity
  8
実形
370
     5
100
AcDbLine
 10
5870.757551225665
 20
82.69790692385143
 30
0.0
 11
5954.757551225664
 21
130.6979069238514
 31
0.0
  0
LINE
  5
DA3C
330
1F
100
AcDbEntity
  8
実形
370
     5
100
AcDbLine
 10
5954.757551225664
 20
130.6979069238514
 30
0.0
 11
5870.757551225665
 21
130.6979069238514
 31
0.0
  0
LINE
  5
DA3D
330
1F
100
AcDbEntity
  8
実形
370
     5
100
AcDbLine
 10
6029.427437873833
 20
92.38880807245591
 30
0.0
 11
5970.415881476196
 21
92.38880807245591
 31
0.0
  0
LINE
  5
DA3E
330
1F
100
AcDbEntity
  8
実形
370
     5
100
AcDbLine
 10
5970.415881476196
 20
92.38880807245591
 30
0.0
 11
5970.415881476196
 21
68.3888080724559
 31
0.0
  0
ARC
  5
DA3F
330
1F
100
AcDbEntity
  8
実形
370
     5
100
AcDbCircle
 10
5817.030864719443
 20
82.69790692385143
 30
0.0
 40
48.0
100
AcDbArc
 50
11.64772366710185
 51
342.6561058784811
  0
ARC
  5
DA40
330
1F
100
AcDbEntity
  8
実形
370
     5
100
AcDbCircle
 10
5982.415881476198
 20
82.69790692385143
 30
0.0
 40
48.0
100
AcDbArc
 50
11.64772366710185
 51
342.6561058784811
  0
HATCH
  5
DA41
330
1F
100
AcDbEntity
  8
実形
100
AcDbHatch
 10
0.0
 20
0.0
 30
0.0
210
0.0
220
0.0
230
1.0
  2
SOLID
 70
     1
 71
     0
 91
        3
 92
        1
 93
        4
 72
     2
 10
5982.415881476196
 20
82.69790692385141
 40
48.0
 50
11.64772366708617
 51
342.6561058784773
 73
     1
 72
     1
 10
6028.233451141783
 20
68.38880807245586
 11
5970.415881476196
 21
68.38880807245586
 72
     1
 10
5970.415881476196
 20
68.38880807245586
 11
5970.415881476196
 21
92.38880807245589
 72
     1
 10
5970.415881476196
 20
92.38880807245589
 11
6029.427437873831
 21
92.38880807245589
 97
        0
 92
        1
 93
        4
 72
     2
 10
5817.030864719442
 20
82.69790692385141
 40
48.0
 50
11.64772366708617
 51
342.6561058784773
 73
     1
 72
     1
 10
5862.848434385029
 20
68.38880807245586
 11
5805.030864719443
 21
68.38880807245586
 72
     1
 10
5805.030864719443
 20
68.38880807245586
 11
5805.030864719443
 21
92.38880807245589
 72
     1
 10
5805.030864719443
 20
92.38880807245589
 11
5864.042421117076
 21
92.38880807245589
 97
        0
 92
        1
 93
        5
 72
     1
 10
5954.757551225663
 20
130.6979069238514
 11
5870.757551225661
 21
130.6979069238514
 72
     1
 10
5870.757551225661
 20
130.6979069238514
 11
5870.757551225661
 21
34.69790692385144
 72
     1
 10
5870.757551225661
 20
34.69790692385143
 11
5954.757551225663
 21
34.69790692385143
 72
     1
 10
5954.757551225663
 20
34.69790692385143
 11
5870.757551225661
 21
82.69790692385143
 72
     1
 10
5870.757551225661
 20
82.69790692385141
 11
5954.757551225663
 21
130.6979069238514
 97
        0
 75
     0
 76
     1
 98
        1
 10
421.217005522609
 20
-4.902093076148576
  0
LINE
  5
DA47
330
1F
100
AcDbEntity
  8
実形
  6
PHANTOM
 48
20.0
100
AcDbLine
 10
5598.81700552261
 20
316.6979069238514
 30
0.0
 11
5598.81700552261
 21
10.33189567747141
 31
0.0
  0
LINE
  5
DA6A
330
1F
100
AcDbEntity
  8
実形
100
AcDbLine
 10
7326.817005522612
 20
5213.623692175701
 30
0.0
 11
6117.121197508559
 21
5213.623692175701
 31
0.0
  0
LINE
  5
DA6C
330
1F
100
AcDbEntity
  8
実形
100
AcDbLine
 10
6723.845451040374
 20
5057.623692175701
 30
0.0
 11
6723.845451040377
 21
5369.623692175701
 31
0.0
  0
TEXT
  5
DA6F
330
1F
100
AcDbEntity
  8
実形
100
AcDbText
 10
6306.243253584079
 20
5248.148435259476
 30
0.0
 40
84.0
  1
品名
 72
     4
 11
6393.043253584079
 21
5290.148435259475
 31
0.0
100
AcDbText
  0
TEXT
  5
DA70
330
1F
100
AcDbEntity
  8
実形
100
AcDbText
 10
6191.248943276342
 20
5093.547845684201
 30
0.0
 40
84.0
  1
アミカゴ
 72
     4
 11
6378.848943276342
 21
5138.347845684201
 31
0.0
100
AcDbText
  0
TEXT
  5
DA74
330
1F
100
AcDbEntity
  8
実形
100
AcDbText
 10
6981.558316050885
 20
5249.910295332146
 30
0.0
 40
84.0
  1
材質
 72
     4
 11
7071.158316050885
 21
5291.910295332146
 31
0.0
100
AcDbText
  0
TEXT
  5
DA78
330
1F
100
AcDbEntity
  8
実形
100
AcDbText
 10
6832.511408705555
 20
5091.11475380747
 30
0.0
 40
84.0
  1
SUS304
 72
     4
 11
7063.511408705554
 21
5133.11475380747
 31
0.0
100
AcDbText
  0
LINE
  5
EE35
330
1F
100
AcDbEntity
  8
実形
  6
PHANTOM
 48
20.0
100
AcDbLine
 10
1153.280885715721
 20
1670.934563329866
 30
0.0
 11
4993.280885715723
 21
1670.934563329865
 31
0.0
  0
LINE
  5
EE36
330
1F
100
AcDbEntity
  8
実形
  6
PHANTOM
 48
20.0
100
AcDbLine
 10
5073.280885715722
 20
1750.934563329865
 30
0.0
 11
5073.280885715721
 21
4090.934563329864
 31
0.0
  0
LINE
  5
EE37
330
1F
100
AcDbEntity
  8
実形
  6
PHANTOM
 48
20.0
100
AcDbLine
 10
4993.280885715723
 20
4170.934563329864
 30
0.0
 11
1153.280885715721
 21
4170.934563329865
 31
0.0
  0
LINE
  5
EE38
330
1F
100
AcDbEntity
  8
実形
  6
PHANTOM
 48
20.0
100
AcDbLine
 10
1073.280885715721
 20
4090.934563329864
 30
0.0
 11
1073.280885715721
 21
1750.934563329866
 31
0.0
  0
LINE
  5
EED2
330
1F
100
AcDbEntity
  8
実形
  6
PHANTOM
 48
20.0
100
AcDbLine
 10
1153.280885715721
 20
1710.934563329865
 30
0.0
 11
1433.280885715721
 21
1710.934563329865
 31
0.0
  0
LINE
  5
EED3
330
1F
100
AcDbEntity
  8
実形
  6
PHANTOM
 48
20.0
100
AcDbLine
 10
4993.280885715723
 20
4130.934563329865
 30
0.0
 11
4713.280885715721
 21
4130.934563329865
 31
0.0
  0
LINE
  5
EED4
330
1F
100
AcDbEntity
  8
実形
  6
PHANTOM
 48
20.0
100
AcDbLine
 10
5033.280885715722
 20
1750.934563329865
 30
0.0
 11
5033.280885715722
 21
2108.434563329865
 31
0.0
  0
LINE
  5
EED5
330
1F
100
AcDbEntity
  8
実形
  6
PHANTOM
 48
20.0
100
AcDbLine
 10
1113.280885715721
 20
4090.934563329864
 30
0.0
 11
1113.280885715721
 21
3733.434563329866
 31
0.0
  0
LINE
  5
EEE0
330
1F
100
AcDbEntity
  8
実形
  6
PHANTOM
 48
20.0
100
AcDbLine
 10
1433.280885715721
 20
4155.934563329865
 30
0.0
 11
1433.280885715721
 21
1685.934563329865
 31
0.0
  0
LINE
  5
EEE1
330
1F
100
AcDbEntity
  8
実形
  6
PHANTOM
 48
20.0
100
AcDbLine
 10
1473.280885715721
 20
4155.934563329865
 30
0.0
 11
1473.280885715721
 21
1685.934563329865
 31
0.0
  0
DIMENSION
  5
EEE4
330
1F
100
AcDbEntity
  8
実形
  6
PHANTOM
 48
20.0
100
AcDbDimension
  2
*D34
 10
1453.280885715721
 20
1434.506481092865
 30
0.0
 11
1263.280885715721
 21
1514.506481092865
 31
0.0
 70
    32
  1
38
 71
     5
 42
380.0
  3
ISO-25
100
AcDbAlignedDimension
 13
1073.280885715721
 23
1670.934563329865
 33
0.0
 14
1453.280885715721
 24
1670.934563329865
 34
0.0
100
AcDbRotatedDimension
1001
ACAD
1000
DSTYLE
1002
{
1070
    41
1040
25.0
1070
    42
1040
130.0
1070
   140
1040
120.0
1070
   147
1040
20.0
1070
   279
1070
     2
1070
   342
1005
E3
1070
   371
1070
    13
1070
   372
1070
    13
1002
}
  0
DIMENSION
  5
EEFA
330
1F
100
AcDbEntity
  8
実形
  6
PHANTOM
 48
20.0
100
AcDbDimension
  2
*D35
 10
1813.280885715722
 20
1434.506481092865
 30
0.0
 11
1633.280885715721
 21
1514.506481092865
 31
0.0
 70
    32
  1
36
 71
     5
 42
360.0000000000002
  3
ISO-25
100
AcDbAlignedDimension
 13
1453.280885715721
 23
1670.934563329865
 33
0.0
 14
1813.280885715722
 24
1670.934563329865
 34
0.0
100
AcDbRotatedDimension
1001
ACAD
1000
DSTYLE
1002
{
1070
    41
1040
25.0
1070
    42
1040
130.0
1070
   140
1040
120.0
1070
   147
1040
20.0
1070
   279
1070
     2
1070
   342
1005
E3
1070
   371
1070
    13
1070
   372
1070
    13
1002
}
  0
DIMENSION
  5
EF19
330
1F
100
AcDbEntity
  8
実形
  6
PHANTOM
 48
20.0
100
AcDbDimension
  2
*D36
 10
2173.280885715722
 20
1434.506481092865
 30
0.0
 11
1993.280885715721
 21
1514.506481092865
 31
0.0
 70
    32
  1
36
 71
     5
 42
360.0
  3
ISO-25
100
AcDbAlignedDimension
 13
1813.280885715721
 23
1670.934563329865
 33
0.0
 14
2173.280885715722
 24
1670.934563329865
 34
0.0
100
AcDbRotatedDimension
1001
ACAD
1000
DSTYLE
1002
{
1070
    41
1040
25.0
1070
    42
1040
130.0
1070
   140
1040
120.0
1070
   147
1040
20.0
1070
   279
1070
     2
1070
   342
1005
E3
1070
   371
1070
    13
1070
   372
1070
    13
1002
}
  0
DIMENSION
  5
EF2F
330
1F
100
AcDbEntity
  8
実形
  6
PHANTOM
 48
20.0
100
AcDbDimension
  2
*D37
 10
2533.280885715722
 20
1434.506481092865
 30
0.0
 11
2353.280885715722
 21
1514.506481092865
 31
0.0
 70
    32
  1
36
 71
     5
 42
360.0
  3
ISO-25
100
AcDbAlignedDimension
 13
2173.280885715722
 23
1670.934563329865
 33
0.0
 14
2533.280885715722
 24
1670.934563329865
 34
0.0
100
AcDbRotatedDimension
1001
ACAD
1000
DSTYLE
1002
{
1070
    41
1040
25.0
1070
    42
1040
130.0
1070
   140
1040
120.0
1070
   147
1040
20.0
1070
   279
1070
     2
1070
   342
1005
E3
1070
   371
1070
    13
1070
   372
1070
    13
1002
}
  0
DIMENSION
  5
EF45
330
1F
100
AcDbEntity
  8
実形
  6
PHANTOM
 48
20.0
100
AcDbDimension
  2
*D38
 10
2893.280885715722
 20
1434.506481092865
 30
0.0
 11
2713.280885715722
 21
1514.506481092865
 31
0.0
 70
    32
  1
36
 71
     5
 42
360.0
  3
ISO-25
100
AcDbAlignedDimension
 13
2533.280885715722
 23
1670.934563329865
 33
0.0
 14
2893.280885715722
 24
1670.934563329865
 34
0.0
100
AcDbRotatedDimension
1001
ACAD
1000
DSTYLE
1002
{
1070
    41
1040
25.0
1070
    42
1040
130.0
1070
   140
1040
120.0
1070
   147
1040
20.0
1070
   279
1070
     2
1070
   342
1005
E3
1070
   371
1070
    13
1070
   372
1070
    13
1002
}
  0
DIMENSION
  5
EF5B
330
1F
100
AcDbEntity
  8
実形
  6
PHANTOM
 48
20.0
100
AcDbDimension
  2
*D39
 10
3253.280885715721
 20
1434.506481092865
 30
0.0
 11
3073.280885715722
 21
1514.506481092865
 31
0.0
 70
    32
  1
36
 71
     5
 42
360.0
  3
ISO-25
100
AcDbAlignedDimension
 13
2893.280885715722
 23
1670.934563329865
 33
0.0
 14
3253.280885715721
 24
1670.934563329865
 34
0.0
100
AcDbRotatedDimension
1001
ACAD
1000
DSTYLE
1002
{
1070
    41
1040
25.0
1070
    42
1040
130.0
1070
   140
1040
120.0
1070
   147
1040
20.0
1070
   279
1070
     2
1070
   342
1005
E3
1070
   371
1070
    13
1070
   372
1070
    13
1002
}
  0
DIMENSION
  5
EF72
330
1F
100
AcDbEntity
  8
実形
  6
PHANTOM
 48
20.0
100
AcDbDimension
  2
*D40
 10
3613.280885715723
 20
1434.506481092865
 30
0.0
 11
3433.280885715722
 21
1514.506481092865
 31
0.0
 70
    32
  1
36
 71
     5
 42
360.0
  3
ISO-25
100
AcDbAlignedDimension
 13
3253.280885715721
 23
1670.934563329865
 33
0.0
 14
3613.280885715723
 24
1670.934563329865
 34
0.0
100
AcDbRotatedDimension
1001
ACAD
1000
DSTYLE
1002
{
1070
    41
1040
25.0
1070
    42
1040
130.0
1070
   140
1040
120.0
1070
   147
1040
20.0
1070
   279
1070
     2
1070
   342
1005
E3
1070
   371
1070
    13
1070
   372
1070
    13
1002
}
  0
DIMENSION
  5
EF88
330
1F
100
AcDbEntity
  8
実形
  6
PHANTOM
 48
20.0
100
AcDbDimension
  2
*D41
 10
3973.280885715722
 20
1434.506481092865
 30
0.0
 11
3793.280885715722
 21
1514.506481092865
 31
0.0
 70
    32
  1
36
 71
     5
 42
360.0
  3
ISO-25
100
AcDbAlignedDimension
 13
3613.280885715723
 23
1670.934563329865
 33
0.0
 14
3973.280885715722
 24
1670.934563329865
 34
0.0
100
AcDbRotatedDimension
1001
ACAD
1000
DSTYLE
1002
{
1070
    41
1040
25.0
1070
    42
1040
130.0
1070
   140
1040
120.0
1070
   147
1040
20.0
1070
   279
1070
     2
1070
   342
1005
E3
1070
   371
1070
    13
1070
   372
1070
    13
1002
}
  0
DIMENSION
  5
EF9E
330
1F
100
AcDbEntity
  8
実形
  6
PHANTOM
 48
20.0
100
AcDbDimension
  2
*D42
 10
4333.280885715722
 20
1434.506481092865
 30
0.0
 11
4153.28088571572
 21
1514.506481092865
 31
0.0
 70
    32
  1
36
 71
     5
 42
360.0
  3
ISO-25
100
AcDbAlignedDimension
 13
3973.280885715722
 23
1670.934563329865
 33
0.0
 14
4333.280885715722
 24
1670.934563329865
 34
0.0
100
AcDbRotatedDimension
1001
ACAD
1000
DSTYLE
1002
{
1070
    41
1040
25.0
1070
    42
1040
130.0
1070
   140
1040
120.0
1070
   147
1040
20.0
1070
   279
1070
     2
1070
   342
1005
E3
1070
   371
1070
    13
1070
   372
1070
    13
1002
}
  0
DIMENSION
  5
EFB4
330
1F
100
AcDbEntity
  8
実形
  6
PHANTOM
 48
20.0
100
AcDbDimension
  2
*D43
 10
4693.28088571572
 20
1434.506481092865
 30
0.0
 11
4513.280885715722
 21
1514.506481092865
 31
0.0
 70
    32
  1
36
 71
     5
 42
360.0
  3
ISO-25
100
AcDbAlignedDimension
 13
4333.280885715722
 23
1670.934563329865
 33
0.0
 14
4693.28088571572
 24
1670.934563329865
 34
0.0
100
AcDbRotatedDimension
1001
ACAD
1000
DSTYLE
1002
{
1070
    41
1040
25.0
1070
    42
1040
130.0
1070
   140
1040
120.0
1070
   147
1040
20.0
1070
   279
1070
     2
1070
   342
1005
E3
1070
   371
1070
    13
1070
   372
1070
    13
1002
}
  0
DIMENSION
  5
EFCA
330
1F
100
AcDbEntity
  8
実形
  6
PHANTOM
 48
20.0
100
AcDbDimension
  2
*D44
 10
5073.280885715721
 20
1434.506481092865
 30
0.0
 11
4883.280885715723
 21
1514.506481092865
 31
0.0
 70
    32
  1
38
 71
     5
 42
380.0
  3
ISO-25
100
AcDbAlignedDimension
 13
4693.28088571572
 23
1670.934563329865
 33
0.0
 14
5073.280885715721
 24
1670.934563329865
 34
0.0
100
AcDbRotatedDimension
1001
ACAD
1000
DSTYLE
1002
{
1070
    41
1040
25.0
1070
    42
1040
130.0
1070
   140
1040
120.0
1070
   147
1040
20.0
1070
   279
1070
     2
1070
   342
1005
E3
1070
   371
1070
    13
1070
   372
1070
    13
1002
}
  0
LINE
  5
EFE1
330
1F
100
AcDbEntity
  8
実形
  6
PHANTOM
 48
20.0
100
AcDbLine
 10
1800.780885715721
 20
4163.630511087091
 30
0.0
 11
1800.780885715721
 21
1678.23861557263
 31
0.0
  0
LINE
  5
EFE2
330
1F
100
AcDbEntity
  8
実形
  6
PHANTOM
 48
20.0
100
AcDbLine
 10
1825.780885715721
 20
4163.630511087103
 30
0.0
 11
1825.780885715721
 21
1678.23861557263
 31
0.0
  0
DIMENSION
  5
EFE3
330
1F
100
AcDbEntity
  8
実形
  6
PHANTOM
 48
20.0
100
AcDbDimension
  2
*D45
 10
5073.280885715721
 20
1217.768754648578
 30
0.0
 11
3073.280885715722
 21
1297.768754648578
 31
0.0
 70
    32
  1
400
 71
     5
 42
4000.0
  3
ISO-25
100
AcDbAlignedDimension
 13
1073.280885715721
 23
1540.934563329865
 33
0.0
 14
5073.280885715721
 24
1540.934563329865
 34
0.0
100
AcDbRotatedDimension
1001
ACAD
1000
DSTYLE
1002
{
1070
    41
1040
25.0
1070
    42
1040
130.0
1070
   140
1040
120.0
1070
   147
1040
20.0
1070
   279
1070
     2
1070
   342
1005
E3
1070
   371
1070
    13
1070
   372
1070
    13
1002
}
  0
DIMENSION
  5
EFF9
330
1F
100
AcDbEntity
  8
実形
  6
PHANTOM
 48
20.0
100
AcDbDimension
  2
*D46
 10
785.1449063165855
 20
3720.934563329866
 30
0.0
 11
705.144906316585
 21
3945.934563329866
 31
0.0
 70
    32
  1
45
 71
     5
 42
449.9999999999994
  3
ISO-25
100
AcDbAlignedDimension
 13
1046.997825725186
 23
4170.934563329865
 33
0.0
 14
1046.997825725186
 24
3720.934563329866
 34
0.0
 50
90.0
100
AcDbRotatedDimension
1001
ACAD
1000
DSTYLE
1002
{
1070
    41
1040
25.0
1070
    42
1040
130.0
1070
   140
1040
120.0
1070
   147
1040
20.0
1070
   279
1070
     2
1070
   342
1005
E3
1070
   371
1070
    13
1070
   372
1070
    13
1002
}
  0
DIMENSION
  5
EFFA
330
1F
100
AcDbEntity
  8
実形
  6
PHANTOM
 48
20.0
100
AcDbDimension
  2
*D47
 10
785.1449063165855
 20
3320.934563329866
 30
0.0
 11
705.1449063165851
 21
3520.934563329866
 31
0.0
 70
    32
  1
40
 71
     5
 42
400.0
  3
ISO-25
100
AcDbAlignedDimension
 13
1046.997825725186
 23
3720.934563329866
 33
0.0
 14
1046.997825725186
 24
3320.934563329866
 34
0.0
 50
90.0
100
AcDbRotatedDimension
1001
ACAD
1000
DSTYLE
1002
{
1070
    41
1040
25.0
1070
    42
1040
130.0
1070
   140
1040
120.0
1070
   147
1040
20.0
1070
   279
1070
     2
1070
   342
1005
E3
1070
   371
1070
    13
1070
   372
1070
    13
1002
}
  0
DIMENSION
  5
EFFB
330
1F
100
AcDbEntity
  8
実形
  6
PHANTOM
 48
20.0
100
AcDbDimension
  2
*D48
 10
785.1449063165855
 20
2920.934563329866
 30
0.0
 11
705.1449063165851
 21
3120.934563329866
 31
0.0
 70
    32
  1
40
 71
     5
 42
400.0
  3
ISO-25
100
AcDbAlignedDimension
 13
1046.997825725186
 23
3320.934563329866
 33
0.0
 14
1046.997825725186
 24
2920.934563329865
 34
0.0
 50
90.0
100
AcDbRotatedDimension
1001
ACAD
1000
DSTYLE
1002
{
1070
    41
1040
25.0
1070
    42
1040
130.0
1070
   140
1040
120.0
1070
   147
1040
20.0
1070
   279
1070
     2
1070
   342
1005
E3
1070
   371
1070
    13
1070
   372
1070
    13
1002
}
  0
DIMENSION
  5
EFFC
330
1F
100
AcDbEntity
  8
実形
  6
PHANTOM
 48
20.0
100
AcDbDimension
  2
*D49
 10
785.1449063165865
 20
2520.934563329867
 30
0.0
 11
705.1449063165859
 21
2720.934563329866
 31
0.0
 70
    32
  1
40
 71
     5
 42
400.0
  3
ISO-25
100
AcDbAlignedDimension
 13
1046.997825725186
 23
2920.934563329865
 33
0.0
 14
1046.997825725186
 24
2520.934563329865
 34
0.0
 50
90.0
100
AcDbRotatedDimension
1001
ACAD
1000
DSTYLE
1002
{
1070
    41
1040
25.0
1070
    42
1040
130.0
1070
   140
1040
120.0
1070
   147
1040
20.0
1070
   279
1070
     2
1070
   342
1005
E3
1070
   371
1070
    13
1070
   372
1070
    13
1002
}
  0
DIMENSION
  5
EFFD
330
1F
100
AcDbEntity
  8
実形
  6
PHANTOM
 48
20.0
100
AcDbDimension
  2
*D50
 10
785.1449063165865
 20
2120.934563329866
 30
0.0
 11
705.1449063165861
 21
2320.934563329867
 31
0.0
 70
    32
  1
40
 71
     5
 42
400.0
  3
ISO-25
100
AcDbAlignedDimension
 13
1046.997825725186
 23
2520.934563329865
 33
0.0
 14
1046.997825725186
 24
2120.934563329865
 34
0.0
 50
90.0
100
AcDbRotatedDimension
1001
ACAD
1000
DSTYLE
1002
{
1070
    41
1040
25.0
1070
    42
1040
130.0
1070
   140
1040
120.0
1070
   147
1040
20.0
1070
   279
1070
     2
1070
   342
1005
E3
1070
   371
1070
    13
1070
   372
1070
    13
1002
}
  0
DIMENSION
  5
EFFE
330
1F
100
AcDbEntity
  8
実形
  6
PHANTOM
 48
20.0
100
AcDbDimension
  2
*D51
 10
785.1449063165865
 20
1670.934563329865
 30
0.0
 11
705.1449063165863
 21
1895.934563329866
 31
0.0
 70
    32
  1
45
 71
     5
 42
450.0000000000001
  3
ISO-25
100
AcDbAlignedDimension
 13
1046.997825725186
 23
2120.934563329865
 33
0.0
 14
1046.997825725186
 24
1670.934563329865
 34
0.0
 50
90.0
100
AcDbRotatedDimension
1001
ACAD
1000
DSTYLE
1002
{
1070
    41
1040
25.0
1070
    42
1040
130.0
1070
   140
1040
120.0
1070
   147
1040
20.0
1070
   279
1070
     2
1070
   342
1005
E3
1070
   371
1070
    13
1070
   372
1070
    13
1002
}
  0
DIMENSION
  5
F0B3
330
1F
100
AcDbEntity
  8
実形
  6
PHANTOM
 48
20.0
100
AcDbDimension
  2
*D52
 10
572.1988024061793
 20
1670.934563329865
 30
0.0
 11
492.1988024061791
 21
2920.934563329865
 31
0.0
 70
    32
  1
250
 71
     5
 42
2500.0
  3
ISO-25
100
AcDbAlignedDimension
 13
1016.16207751791
 23
4170.934563329865
 33
0.0
 14
1016.16207751791
 24
1670.934563329865
 34
0.0
 50
90.0
100
AcDbRotatedDimension
1001
ACAD
1000
DSTYLE
1002
{
1070
    41
1040
25.0
1070
    42
1040
130.0
1070
   140
1040
120.0
1070
   147
1040
20.0
1070
   279
1070
     2
1070
   342
1005
E3
1070
   371
1070
    13
1070
   372
1070
    13
1002
}
  0
LINE
  5
F4C9
330
1F
100
AcDbEntity
  8
実形
  6
PHANTOM
 48
20.0
100
AcDbLine
 10
314.8058453397168
 20
5369.623692175701
 30
0.0
 11
7326.817005522612
 21
5369.623692175701
 31
0.0
  0
LINE
  5
F4CB
330
1F
100
AcDbEntity
  8
実形
  6
PHANTOM
 48
20.0
100
AcDbLine
 10
5786.81700552261
 20
10.3318956774714
 30
0.0
 11
7226.817005522612
 21
10.3318956774714
 31
0.0
  0
LINE
  5
F4CC
330
1F
100
AcDbEntity
  8
実形
  6
PHANTOM
 48
20.0
100
AcDbLine
 10
7326.81700552261
 20
395.6369050494546
 30
0.0
 11
7326.81700552261
 21
135.6369050494548
 31
0.0
  0
LINE
  5
F4CD
330
1F
100
AcDbEntity
  8
実形
  6
PHANTOM
 48
20.0
100
AcDbLine
 10
7326.81700552261
 20
135.6369050494548
 30
0.0
 11
7326.81700552261
 21
10.33189567747145
 31
0.0
  0
LINE
  5
F4CF
330
1F
100
AcDbEntity
  8
実形
  6
PHANTOM
 48
20.0
100
AcDbLine
 10
6117.121197508559
 20
5057.623692175702
 30
0.0
 11
6117.121197508559
 21
5369.623692175701
 31
0.0
  0
LINE
  5
F6C2
330
1F
100
AcDbEntity
  8
実形
100
AcDbLine
 10
7326.817005522612
 20
5057.623692175701
 30
0.0
 11
6117.121197508559
 21
5057.623692175702
 31
0.0
  0
ARC
  5
F77D
330
1F
100
AcDbEntity
  8
実形
  6
PHANTOM
 48
20.0
100
AcDbCircle
 10
1453.280885715721
 20
1691.767896663199
 30
0.0
 40
20.83333333333337
100
AcDbArc
 50
196.2602047083123
 51
343.7397952916877
  0
ARC
  5
F77E
330
1F
100
AcDbEntity
  8
実形
  6
PHANTOM
 48
20.0
100
AcDbCircle
 10
1453.280885715721
 20
4150.101229996533
 30
0.0
 40
20.83333333333337
100
AcDbArc
 50
16.26020470831239
 51
163.7397952916876
  0
LINE
  5
F77F
330
1F
100
AcDbEntity
  8
実形
  6
PHANTOM
 48
20.0
100
AcDbLine
 10
1433.280885715721
 20
4130.934563329865
 30
0.0
 11
1153.280885715721
 21
4130.934563329865
 31
0.0
  0
LINE
  5
F780
330
1F
100
AcDbEntity
  8
実形
  6
PHANTOM
 48
20.0
100
AcDbLine
 10
1473.280885715721
 20
1710.934563329865
 30
0.0
 11
1800.780885715721
 21
1710.934563329865
 31
0.0
  0
LINE
  5
F794
330
1F
100
AcDbEntity
  8
実形
  6
PHANTOM
 48
20.0
100
AcDbLine
 10
4713.280885715721
 20
4155.934563329865
 30
0.0
 11
4713.280885715721
 21
1685.934563329865
 31
0.0
  0
LINE
  5
F795
330
1F
100
AcDbEntity
  8
実形
  6
PHANTOM
 48
20.0
100
AcDbLine
 10
4673.280885715722
 20
4155.934563329865
 30
0.0
 11
4673.280885715722
 21
1685.934563329865
 31
0.0
  0
ARC
  5
F796
330
1F
100
AcDbEntity
  8
実形
  6
PHANTOM
 48
20.0
100
AcDbCircle
 10
4693.28088571572
 20
1691.767896663199
 30
0.0
 40
20.83333333333337
100
AcDbArc
 50
196.2602047083223
 51
343.7397952916776
  0
ARC
  5
F797
330
1F
100
AcDbEntity
  8
実形
  6
PHANTOM
 48
20.0
100
AcDbCircle
 10
4693.28088571572
 20
4150.101229996533
 30
0.0
 40
20.83333333333337
100
AcDbArc
 50
16.26020470832238
 51
163.7397952916776
  0
LINE
  5
F798
330
1F
100
AcDbEntity
  8
実形
  6
PHANTOM
 48
20.0
100
AcDbLine
 10
4673.280885715721
 20
4130.934563329865
 30
0.0
 11
4345.780885715722
 21
4130.934563329865
 31
0.0
  0
LINE
  5
F79F
330
1F
100
AcDbEntity
  8
実形
  6
PHANTOM
 48
20.0
100
AcDbLine
 10
4713.280885715721
 20
1710.934563329865
 30
0.0
 11
4993.280885715723
 21
1710.934563329865
 31
0.0
  0
ARC
  5
F7A3
330
1F
100
AcDbEntity
  8
実形
  6
PHANTOM
 48
20.0
100
AcDbCircle
 10
1813.280885715721
 20
1685.288781179214
 30
0.0
 40
14.35112661362327
100
AcDbArc
 50
209.4235741731009
 51
330.576425826904
  0
ARC
  5
F7A4
330
1F
100
AcDbEntity
  8
実形
  6
PHANTOM
 48
20.0
100
AcDbCircle
 10
1813.280885715724
 20
4156.580345480516
 30
0.0
 40
14.35112661362327
100
AcDbArc
 50
29.42357417309589
 51
150.5764258268989
  0
LINE
  5
F7A5
330
1F
100
AcDbEntity
  8
実形
  6
PHANTOM
 48
20.0
100
AcDbLine
 10
1473.280885715721
 20
2108.434563329865
 30
0.0
 11
1800.780885715721
 21
2108.434563329865
 31
0.0
  0
LINE
  5
F7A6
330
1F
100
AcDbEntity
  8
実形
  6
PHANTOM
 48
20.0
100
AcDbLine
 10
1473.280885715721
 20
2133.434563329865
 30
0.0
 11
1800.780885715721
 21
2133.434563329865
 31
0.0
  0
LINE
  5
F7A7
330
1F
100
AcDbEntity
  8
実形
  6
PHANTOM
 48
20.0
100
AcDbLine
 10
1080.426655882735
 20
2108.434563329865
 30
0.0
 11
1433.280885715721
 21
2108.434563329865
 31
0.0
  0
LINE
  5
F7A8
330
1F
100
AcDbEntity
  8
実形
  6
PHANTOM
 48
20.0
100
AcDbLine
 10
1080.426655882731
 20
2133.434563329865
 30
0.0
 11
1433.280885715721
 21
2133.434563329865
 31
0.0
  0
LINE
  5
F7A9
330
1F
100
AcDbEntity
  8
実形
  6
PHANTOM
 48
20.0
100
AcDbLine
 10
1080.426655882735
 20
2508.434563329867
 30
0.0
 11
1433.280885715721
 21
2508.434563329865
 31
0.0
  0
LINE
  5
F7AA
330
1F
100
AcDbEntity
  8
実形
  6
PHANTOM
 48
20.0
100
AcDbLine
 10
1080.426655882731
 20
2533.434563329866
 30
0.0
 11
1433.280885715721
 21
2533.434563329865
 31
0.0
  0
LINE
  5
F7AB
330
1F
100
AcDbEntity
  8
実形
  6
PHANTOM
 48
20.0
100
AcDbLine
 10
1080.426655882735
 20
2908.434563329866
 30
0.0
 11
1433.280885715721
 21
2908.434563329865
 31
0.0
  0
LINE
  5
F7AC
330
1F
100
AcDbEntity
  8
実形
  6
PHANTOM
 48
20.0
100
AcDbLine
 10
1080.426655882733
 20
2933.434563329866
 30
0.0
 11
1433.280885715721
 21
2933.434563329865
 31
0.0
  0
LINE
  5
F7AD
330
1F
100
AcDbEntity
  8
実形
  6
PHANTOM
 48
20.0
100
AcDbLine
 10
1080.426655882736
 20
3308.434563329865
 30
0.0
 11
1433.280885715721
 21
3308.434563329865
 31
0.0
  0
LINE
  5
F7AE
330
1F
100
AcDbEntity
  8
実形
  6
PHANTOM
 48
20.0
100
AcDbLine
 10
1080.426655882733
 20
3333.434563329865
 30
0.0
 11
1433.280885715721
 21
3333.434563329865
 31
0.0
  0
LINE
  5
F7AF
330
1F
100
AcDbEntity
  8
実形
  6
PHANTOM
 48
20.0
100
AcDbLine
 10
1433.280885715721
 20
3708.434563329865
 30
0.0
 11
1080.426655882736
 21
3708.434563329865
 31
0.0
  0
LINE
  5
F7B0
330
1F
100
AcDbEntity
  8
実形
  6
PHANTOM
 48
20.0
100
AcDbLine
 10
1433.280885715721
 20
3733.434563329865
 30
0.0
 11
1080.426655882734
 21
3733.434563329865
 31
0.0
  0
LINE
  5
F7B1
330
1F
100
AcDbEntity
  8
実形
  6
PHANTOM
 48
20.0
100
AcDbLine
 10
1473.280885715721
 20
2508.434563329865
 30
0.0
 11
1800.780885715721
 21
2508.434563329865
 31
0.0
  0
LINE
  5
F7B2
330
1F
100
AcDbEntity
  8
実形
  6
PHANTOM
 48
20.0
100
AcDbLine
 10
1473.280885715721
 20
2533.434563329865
 30
0.0
 11
1800.780885715721
 21
2533.434563329865
 31
0.0
  0
LINE
  5
F7B3
330
1F
100
AcDbEntity
  8
実形
  6
PHANTOM
 48
20.0
100
AcDbLine
 10
1473.280885715721
 20
2908.434563329865
 30
0.0
 11
1800.780885715721
 21
2908.434563329865
 31
0.0
  0
LINE
  5
F7B4
330
1F
100
AcDbEntity
  8
実形
  6
PHANTOM
 48
20.0
100
AcDbLine
 10
1473.280885715721
 20
2933.434563329865
 30
0.0
 11
1800.780885715721
 21
2933.434563329865
 31
0.0
  0
LINE
  5
F7B5
330
1F
100
AcDbEntity
  8
実形
  6
PHANTOM
 48
20.0
100
AcDbLine
 10
1473.280885715721
 20
3308.434563329865
 30
0.0
 11
1800.780885715721
 21
3308.434563329865
 31
0.0
  0
LINE
  5
F7B6
330
1F
100
AcDbEntity
  8
実形
  6
PHANTOM
 48
20.0
100
AcDbLine
 10
1473.280885715721
 20
3333.434563329865
 30
0.0
 11
1800.780885715721
 21
3333.434563329865
 31
0.0
  0
LINE
  5
F7B7
330
1F
100
AcDbEntity
  8
実形
  6
PHANTOM
 48
20.0
100
AcDbLine
 10
1473.280885715721
 20
3708.434563329865
 30
0.0
 11
1800.780885715721
 21
3708.434563329866
 31
0.0
  0
LINE
  5
F7B9
330
1F
100
AcDbEntity
  8
実形
  6
PHANTOM
 48
20.0
100
AcDbLine
 10
1473.280885715721
 20
3733.434563329865
 30
0.0
 11
1800.780885715721
 21
3733.434563329865
 31
0.0
  0
LINE
  5
F7BA
330
1F
100
AcDbEntity
  8
実形
  6
PHANTOM
 48
20.0
100
AcDbLine
 10
1800.780885715721
 20
4130.934563329865
 30
0.0
 11
1473.280885715721
 21
4130.934563329865
 31
0.0
  0
LINE
  5
F7BB
330
1F
100
AcDbEntity
  8
実形
  6
PHANTOM
 48
20.0
100
AcDbLine
 10
1825.780885715721
 20
3708.434563329866
 30
0.0
 11
2160.780885715721
 21
3708.434563329865
 31
0.0
  0
LINE
  5
F7BF
330
1F
100
AcDbEntity
  8
実形
  6
PHANTOM
 48
20.0
100
AcDbLine
 10
1825.780885715721
 20
3733.434563329866
 30
0.0
 11
2160.780885715721
 21
3733.434563329865
 31
0.0
  0
LINE
  5
F7C0
330
1F
100
AcDbEntity
  8
実形
  6
PHANTOM
 48
20.0
100
AcDbLine
 10
1825.780885715721
 20
3308.434563329866
 30
0.0
 11
2160.780885715721
 21
3308.434563329865
 31
0.0
  0
LINE
  5
F7C2
330
1F
100
AcDbEntity
  8
実形
  6
PHANTOM
 48
20.0
100
AcDbLine
 10
1825.780885715721
 20
3333.434563329866
 30
0.0
 11
2160.780885715721
 21
3333.434563329865
 31
0.0
  0
LINE
  5
F7C3
330
1F
100
AcDbEntity
  8
実形
  6
PHANTOM
 48
20.0
100
AcDbLine
 10
1825.780885715721
 20
2908.434563329866
 30
0.0
 11
2160.780885715721
 21
2908.434563329866
 31
0.0
  0
LINE
  5
F7C5
330
1F
100
AcDbEntity
  8
実形
  6
PHANTOM
 48
20.0
100
AcDbLine
 10
1825.780885715721
 20
2933.434563329865
 30
0.0
 11
2160.780885715721
 21
2933.434563329865
 31
0.0
  0
LINE
  5
F7C6
330
1F
100
AcDbEntity
  8
実形
  6
PHANTOM
 48
20.0
100
AcDbLine
 10
1825.780885715721
 20
2508.434563329865
 30
0.0
 11
2160.780885715721
 21
2508.434563329865
 31
0.0
  0
LINE
  5
F7C8
330
1F
100
AcDbEntity
  8
実形
  6
PHANTOM
 48
20.0
100
AcDbLine
 10
1825.780885715721
 20
2533.434563329866
 30
0.0
 11
2160.780885715721
 21
2533.434563329866
 31
0.0
  0
LINE
  5
F7C9
330
1F
100
AcDbEntity
  8
実形
  6
PHANTOM
 48
20.0
100
AcDbLine
 10
1825.780885715721
 20
2108.434563329865
 30
0.0
 11
2160.780885715721
 21
2108.434563329865
 31
0.0
  0
LINE
  5
F7CB
330
1F
100
AcDbEntity
  8
実形
  6
PHANTOM
 48
20.0
100
AcDbLine
 10
1825.780885715721
 20
2133.434563329865
 30
0.0
 11
2160.780885715721
 21
2133.434563329865
 31
0.0
  0
LINE
  5
F7CC
330
1F
100
AcDbEntity
  8
実形
  6
PHANTOM
 48
20.0
100
AcDbLine
 10
1825.780885715721
 20
1710.934563329865
 30
0.0
 11
2160.780885715721
 21
1710.934563329865
 31
0.0
  0
LINE
  5
F7DA
330
1F
100
AcDbEntity
  8
実形
  6
PHANTOM
 48
20.0
100
AcDbLine
 10
2185.780885715722
 20
4163.630511087103
 30
0.0
 11
2185.780885715722
 21
1678.23861557263
 31
0.0
  0
LINE
  5
F7DB
330
1F
100
AcDbEntity
  8
実形
  6
PHANTOM
 48
20.0
100
AcDbLine
 10
2160.780885715722
 20
4163.630511087091
 30
0.0
 11
2160.780885715722
 21
1678.23861557263
 31
0.0
  0
ARC
  5
F7DC
330
1F
100
AcDbEntity
  8
実形
  6
PHANTOM
 48
20.0
100
AcDbCircle
 10
2173.280885715722
 20
1685.288781179214
 30
0.0
 40
14.35112661362327
100
AcDbArc
 50
209.4235741731135
 51
330.5764258268863
  0
ARC
  5
F7DD
330
1F
100
AcDbEntity
  8
実形
  6
PHANTOM
 48
20.0
100
AcDbCircle
 10
2173.280885715724
 20
4156.580345480516
 30
0.0
 40
14.35112661362327
100
AcDbArc
 50
29.4235741731136
 51
150.5764258268864
  0
LINE
  5
F7EA
330
1F
100
AcDbEntity
  8
実形
  6
PHANTOM
 48
20.0
100
AcDbLine
 10
2545.780885715722
 20
4163.630511087103
 30
0.0
 11
2545.780885715722
 21
1678.23861557263
 31
0.0
  0
LINE
  5
F7EB
330
1F
100
AcDbEntity
  8
実形
  6
PHANTOM
 48
20.0
100
AcDbLine
 10
2520.780885715721
 20
4163.630511087091
 30
0.0
 11
2520.780885715721
 21
1678.23861557263
 31
0.0
  0
ARC
  5
F7EC
330
1F
100
AcDbEntity
  8
実形
  6
PHANTOM
 48
20.0
100
AcDbCircle
 10
2533.280885715722
 20
1685.288781179214
 30
0.0
 40
14.35112661362327
100
AcDbArc
 50
209.4235741731135
 51
330.5764258268863
  0
ARC
  5
F7ED
330
1F
100
AcDbEntity
  8
実形
  6
PHANTOM
 48
20.0
100
AcDbCircle
 10
2533.280885715724
 20
4156.580345480516
 30
0.0
 40
14.35112661362327
100
AcDbArc
 50
29.4235741731136
 51
150.5764258268864
  0
LINE
  5
F7FA
330
1F
100
AcDbEntity
  8
実形
  6
PHANTOM
 48
20.0
100
AcDbLine
 10
2905.780885715722
 20
4163.630511087103
 30
0.0
 11
2905.780885715722
 21
1678.23861557263
 31
0.0
  0
LINE
  5
F7FB
330
1F
100
AcDbEntity
  8
実形
  6
PHANTOM
 48
20.0
100
AcDbLine
 10
2880.780885715722
 20
4163.630511087091
 30
0.0
 11
2880.780885715722
 21
1678.23861557263
 31
0.0
  0
ARC
  5
F7FC
330
1F
100
AcDbEntity
  8
実形
  6
PHANTOM
 48
20.0
100
AcDbCircle
 10
2893.280885715722
 20
1685.288781179214
 30
0.0
 40
14.35112661362327
100
AcDbArc
 50
209.4235741731135
 51
330.5764258268863
  0
ARC
  5
F7FD
330
1F
100
AcDbEntity
  8
実形
  6
PHANTOM
 48
20.0
100
AcDbCircle
 10
2893.280885715725
 20
4156.580345480516
 30
0.0
 40
14.35112661362327
100
AcDbArc
 50
29.4235741731136
 51
150.5764258268864
  0
LINE
  5
F80A
330
1F
100
AcDbEntity
  8
実形
  6
PHANTOM
 48
20.0
100
AcDbLine
 10
3265.780885715722
 20
4163.630511087103
 30
0.0
 11
3265.780885715722
 21
1678.23861557263
 31
0.0
  0
LINE
  5
F80B
330
1F
100
AcDbEntity
  8
実形
  6
PHANTOM
 48
20.0
100
AcDbLine
 10
3240.780885715722
 20
4163.630511087091
 30
0.0
 11
3240.780885715722
 21
1678.23861557263
 31
0.0
  0
ARC
  5
F80C
330
1F
100
AcDbEntity
  8
実形
  6
PHANTOM
 48
20.0
100
AcDbCircle
 10
3253.280885715721
 20
1685.288781179214
 30
0.0
 40
14.35112661362327
100
AcDbArc
 50
209.4235741731135
 51
330.5764258268863
  0
ARC
  5
F80D
330
1F
100
AcDbEntity
  8
実形
  6
PHANTOM
 48
20.0
100
AcDbCircle
 10
3253.280885715724
 20
4156.580345480516
 30
0.0
 40
14.35112661362327
100
AcDbArc
 50
29.4235741731136
 51
150.5764258268864
  0
LINE
  5
F81A
330
1F
100
AcDbEntity
  8
実形
  6
PHANTOM
 48
20.0
100
AcDbLine
 10
3625.780885715722
 20
4163.630511087103
 30
0.0
 11
3625.780885715722
 21
1678.23861557263
 31
0.0
  0
LINE
  5
F81B
330
1F
100
AcDbEntity
  8
実形
  6
PHANTOM
 48
20.0
100
AcDbLine
 10
3600.780885715721
 20
4163.630511087091
 30
0.0
 11
3600.780885715721
 21
1678.23861557263
 31
0.0
  0
ARC
  5
F81C
330
1F
100
AcDbEntity
  8
実形
  6
PHANTOM
 48
20.0
100
AcDbCircle
 10
3613.280885715723
 20
1685.288781179214
 30
0.0
 40
14.35112661362327
100
AcDbArc
 50
209.4235741731135
 51
330.5764258268863
  0
ARC
  5
F81D
330
1F
100
AcDbEntity
  8
実形
  6
PHANTOM
 48
20.0
100
AcDbCircle
 10
3613.280885715724
 20
4156.580345480516
 30
0.0
 40
14.35112661362327
100
AcDbArc
 50
29.4235741731136
 51
150.5764258268864
  0
LINE
  5
F82A
330
1F
100
AcDbEntity
  8
実形
  6
PHANTOM
 48
20.0
100
AcDbLine
 10
3985.780885715723
 20
4163.630511087103
 30
0.0
 11
3985.780885715723
 21
1678.23861557263
 31
0.0
  0
LINE
  5
F82B
330
1F
100
AcDbEntity
  8
実形
  6
PHANTOM
 48
20.0
100
AcDbLine
 10
3960.780885715723
 20
4163.630511087091
 30
0.0
 11
3960.780885715723
 21
1678.23861557263
 31
0.0
  0
ARC
  5
F82C
330
1F
100
AcDbEntity
  8
実形
  6
PHANTOM
 48
20.0
100
AcDbCircle
 10
3973.280885715722
 20
1685.288781179214
 30
0.0
 40
14.35112661362327
100
AcDbArc
 50
209.4235741731135
 51
330.5764258268863
  0
ARC
  5
F82D
330
1F
100
AcDbEntity
  8
実形
  6
PHANTOM
 48
20.0
100
AcDbCircle
 10
3973.280885715725
 20
4156.580345480516
 30
0.0
 40
14.35112661362327
100
AcDbArc
 50
29.4235741731136
 51
150.5764258268864
  0
LINE
  5
F83A
330
1F
100
AcDbEntity
  8
実形
  6
PHANTOM
 48
20.0
100
AcDbLine
 10
4345.78088571572
 20
4163.630511087103
 30
0.0
 11
4345.78088571572
 21
1678.23861557263
 31
0.0
  0
LINE
  5
F83B
330
1F
100
AcDbEntity
  8
実形
  6
PHANTOM
 48
20.0
100
AcDbLine
 10
4320.780885715723
 20
4163.630511087091
 30
0.0
 11
4320.780885715723
 21
1678.23861557263
 31
0.0
  0
ARC
  5
F83C
330
1F
100
AcDbEntity
  8
実形
  6
PHANTOM
 48
20.0
100
AcDbCircle
 10
4333.280885715722
 20
1685.288781179214
 30
0.0
 40
14.35112661362327
100
AcDbArc
 50
209.4235741731008
 51
330.5764258268992
  0
ARC
  5
F83D
330
1F
100
AcDbEntity
  8
実形
  6
PHANTOM
 48
20.0
100
AcDbCircle
 10
4333.280885715725
 20
4156.580345480516
 30
0.0
 40
14.35112661362327
100
AcDbArc
 50
29.4235741731008
 51
150.5764258268992
  0
ARC
  5
F83F
330
1F
100
AcDbEntity
  8
実形
  6
PHANTOM
 48
20.0
100
AcDbCircle
 10
1153.280885715721
 20
4090.934563329864
 30
0.0
 40
40.0
100
AcDbArc
 50
90.00000000000019
 51
180.0
  0
ARC
  5
F841
330
1F
100
AcDbEntity
  8
実形
  6
PHANTOM
 48
20.0
100
AcDbCircle
 10
1153.280885715721
 20
4090.934563329864
 30
0.0
 40
80.0
100
AcDbArc
 50
90.00000000000019
 51
180.0
  0
ARC
  5
F845
330
1F
100
AcDbEntity
  8
実形
  6
PHANTOM
 48
20.0
100
AcDbCircle
 10
4993.280885715723
 20
4090.934563329866
 30
0.0
 40
40.0
100
AcDbArc
 50
0.0
 51
90.0
  0
ARC
  5
F846
330
1F
100
AcDbEntity
  8
実形
  6
PHANTOM
 48
20.0
100
AcDbCircle
 10
4993.280885715723
 20
4090.934563329864
 30
0.0
 40
80.0
100
AcDbArc
 50
0.0
 51
89.99999999999998
  0
ARC
  5
F847
330
1F
100
AcDbEntity
  8
実形
  6
PHANTOM
 48
20.0
100
AcDbCircle
 10
4993.280885715723
 20
1750.934563329865
 30
0.0
 40
80.0
100
AcDbArc
 50
270.0
 51
0.0
  0
ARC
  5
F848
330
1F
100
AcDbEntity
  8
実形
  6
PHANTOM
 48
20.0
100
AcDbCircle
 10
1153.280885715721
 20
1750.934563329866
 30
0.0
 40
80.0
100
AcDbArc
 50
180.0
 51
270.0
  0
ARC
  5
F849
330
1F
100
AcDbEntity
  8
実形
  6
PHANTOM
 48
20.0
100
AcDbCircle
 10
1153.280885715721
 20
1750.934563329865
 30
0.0
 40
40.0
100
AcDbArc
 50
180.0
 51
270.0
  0
ARC
  5
F84A
330
1F
100
AcDbEntity
  8
実形
  6
PHANTOM
 48
20.0
100
AcDbCircle
 10
4993.280885715723
 20
1750.934563329865
 30
0.0
 40
40.0
100
AcDbArc
 50
270.0000000000001
 51
0.0
  0
LINE
  5
F84B
330
1F
100
AcDbEntity
  8
実形
  6
PHANTOM
 48
20.0
100
AcDbLine
 10
4713.280885715721
 20
2108.434563329865
 30
0.0
 11
5066.135115548709
 21
2108.434563329865
 31
0.0
  0
LINE
  5
F84C
330
1F
100
AcDbEntity
  8
実形
  6
PHANTOM
 48
20.0
100
AcDbLine
 10
4713.280885715721
 20
2133.434563329865
 30
0.0
 11
5066.135115548711
 21
2133.434563329865
 31
0.0
  0
LINE
  5
F84E
330
1F
100
AcDbEntity
  8
実形
  6
PHANTOM
 48
20.0
100
AcDbLine
 10
4345.780885715722
 20
2108.434563329867
 30
0.0
 11
4673.280885715721
 21
2108.434563329865
 31
0.0
  0
LINE
  5
F850
330
1F
100
AcDbEntity
  8
実形
  6
PHANTOM
 48
20.0
100
AcDbLine
 10
4345.780885715722
 20
2133.434563329865
 30
0.0
 11
4673.280885715721
 21
2133.434563329865
 31
0.0
  0
LINE
  5
F851
330
1F
100
AcDbEntity
  8
実形
  6
PHANTOM
 48
20.0
100
AcDbLine
 10
4713.280885715721
 20
2508.434563329865
 30
0.0
 11
5066.135115548709
 21
2508.434563329867
 31
0.0
  0
LINE
  5
F852
330
1F
100
AcDbEntity
  8
実形
  6
PHANTOM
 48
20.0
100
AcDbLine
 10
4713.280885715721
 20
2533.434563329865
 30
0.0
 11
5066.135115548711
 21
2533.434563329866
 31
0.0
  0
LINE
  5
F853
330
1F
100
AcDbEntity
  8
実形
  6
PHANTOM
 48
20.0
100
AcDbLine
 10
4713.280885715721
 20
2908.434563329865
 30
0.0
 11
5066.135115548709
 21
2908.434563329866
 31
0.0
  0
LINE
  5
F854
330
1F
100
AcDbEntity
  8
実形
  6
PHANTOM
 48
20.0
100
AcDbLine
 10
4713.280885715721
 20
2933.434563329865
 30
0.0
 11
5066.135115548709
 21
2933.434563329866
 31
0.0
  0
LINE
  5
F855
330
1F
100
AcDbEntity
  8
実形
  6
PHANTOM
 48
20.0
100
AcDbLine
 10
4713.280885715721
 20
3308.434563329865
 30
0.0
 11
5066.135115548709
 21
3308.434563329865
 31
0.0
  0
LINE
  5
F856
330
1F
100
AcDbEntity
  8
実形
  6
PHANTOM
 48
20.0
100
AcDbLine
 10
4713.280885715721
 20
3333.434563329865
 30
0.0
 11
5066.135115548709
 21
3333.434563329865
 31
0.0
  0
LINE
  5
F857
330
1F
100
AcDbEntity
  8
実形
  6
PHANTOM
 48
20.0
100
AcDbLine
 10
4713.280885715721
 20
3708.434563329865
 30
0.0
 11
5066.135115548709
 21
3708.434563329865
 31
0.0
  0
LINE
  5
F858
330
1F
100
AcDbEntity
  8
実形
  6
PHANTOM
 48
20.0
100
AcDbLine
 10
4713.280885715721
 20
3733.434563329865
 30
0.0
 11
5066.135115548709
 21
3733.434563329865
 31
0.0
  0
LINE
  5
F859
330
1F
100
AcDbEntity
  8
実形
  6
PHANTOM
 48
20.0
100
AcDbLine
 10
4320.780885715723
 20
4130.934563329865
 30
0.0
 11
3985.780885715721
 21
4130.934563329865
 31
0.0
  0
LINE
  5
F85A
330
1F
100
AcDbEntity
  8
実形
  6
PHANTOM
 48
20.0
100
AcDbLine
 10
4345.780885715722
 20
3708.434563329865
 30
0.0
 11
4673.280885715721
 21
3708.434563329865
 31
0.0
  0
LINE
  5
F85B
330
1F
100
AcDbEntity
  8
実形
  6
PHANTOM
 48
20.0
100
AcDbLine
 10
4345.780885715722
 20
3733.434563329866
 30
0.0
 11
4673.280885715721
 21
3733.434563329865
 31
0.0
  0
LINE
  5
F85C
330
1F
100
AcDbEntity
  8
実形
  6
PHANTOM
 48
20.0
100
AcDbLine
 10
4345.780885715722
 20
3308.434563329865
 30
0.0
 11
4673.280885715721
 21
3308.434563329865
 31
0.0
  0
LINE
  5
F85D
330
1F
100
AcDbEntity
  8
実形
  6
PHANTOM
 48
20.0
100
AcDbLine
 10
4345.780885715722
 20
3333.434563329865
 30
0.0
 11
4673.280885715721
 21
3333.434563329865
 31
0.0
  0
LINE
  5
F85E
330
1F
100
AcDbEntity
  8
実形
  6
PHANTOM
 48
20.0
100
AcDbLine
 10
4345.780885715722
 20
2908.434563329866
 30
0.0
 11
4673.280885715721
 21
2908.434563329865
 31
0.0
  0
LINE
  5
F85F
330
1F
100
AcDbEntity
  8
実形
  6
PHANTOM
 48
20.0
100
AcDbLine
 10
4345.780885715722
 20
2933.434563329866
 30
0.0
 11
4673.280885715721
 21
2933.434563329865
 31
0.0
  0
LINE
  5
F860
330
1F
100
AcDbEntity
  8
実形
  6
PHANTOM
 48
20.0
100
AcDbLine
 10
4345.780885715722
 20
2508.434563329867
 30
0.0
 11
4673.280885715721
 21
2508.434563329865
 31
0.0
  0
LINE
  5
F861
330
1F
100
AcDbEntity
  8
実形
  6
PHANTOM
 48
20.0
100
AcDbLine
 10
4345.780885715722
 20
2533.434563329865
 30
0.0
 11
4673.280885715721
 21
2533.434563329865
 31
0.0
  0
LINE
  5
F862
330
1F
100
AcDbEntity
  8
実形
  6
PHANTOM
 48
20.0
100
AcDbLine
 10
4345.780885715722
 20
1710.934563329865
 30
0.0
 11
4673.280885715721
 21
1710.934563329865
 31
0.0
  0
ARC
  5
F863
330
1F
100
AcDbEntity
  8
実形
  6
PHANTOM
 48
20.0
100
AcDbCircle
 10
5058.77495938207
 20
2120.934563329866
 30
0.0
 40
14.50592633365164
100
AcDbArc
 50
300.4901082381232
 51
59.50989176188386
  0
ARC
  5
F86C
330
1F
100
AcDbEntity
  8
実形
  6
PHANTOM
 48
20.0
100
AcDbCircle
 10
5058.77495938207
 20
2520.934563329867
 30
0.0
 40
14.50592633365164
100
AcDbArc
 50
300.4901082381075
 51
59.50989176189253
  0
ARC
  5
F874
330
1F
100
AcDbEntity
  8
実形
  6
PHANTOM
 48
20.0
100
AcDbCircle
 10
5058.774959382069
 20
2920.934563329865
 30
0.0
 40
14.50592633365164
100
AcDbArc
 50
300.4901082381075
 51
59.50989176189253
  0
ARC
  5
F87C
330
1F
100
AcDbEntity
  8
実形
  6
PHANTOM
 48
20.0
100
AcDbCircle
 10
5058.774959382069
 20
3320.934563329866
 30
0.0
 40
14.50592633365164
100
AcDbArc
 50
300.4901082381075
 51
59.50989176189253
  0
ARC
  5
F884
330
1F
100
AcDbEntity
  8
実形
  6
PHANTOM
 48
20.0
100
AcDbCircle
 10
5058.774959382069
 20
3720.934563329866
 30
0.0
 40
14.50592633365164
100
AcDbArc
 50
300.4901082381075
 51
59.50989176189253
  0
ARC
  5
F886
330
1F
100
AcDbEntity
  8
実形
  6
PHANTOM
 48
20.0
100
AcDbCircle
 10
1087.786812049373
 20
2120.934563329867
 30
0.0
 40
14.50592633365164
100
AcDbArc
 50
120.4901082381161
 51
239.5098917618768
  0
ARC
  5
F887
330
1F
100
AcDbEntity
  8
実形
  6
PHANTOM
 48
20.0
100
AcDbCircle
 10
1087.786812049373
 20
2520.934563329867
 30
0.0
 40
14.50592633365164
100
AcDbArc
 50
120.4901082381074
 51
239.5098917618925
  0
ARC
  5
F888
330
1F
100
AcDbEntity
  8
実形
  6
PHANTOM
 48
20.0
100
AcDbCircle
 10
1087.786812049374
 20
2920.934563329867
 30
0.0
 40
14.50592633365164
100
AcDbArc
 50
120.4901082381074
 51
239.5098917618925
  0
ARC
  5
F889
330
1F
100
AcDbEntity
  8
実形
  6
PHANTOM
 48
20.0
100
AcDbCircle
 10
1087.786812049375
 20
3320.934563329867
 30
0.0
 40
14.50592633365164
100
AcDbArc
 50
120.4901082381074
 51
239.5098917618925
  0
ARC
  5
F88A
330
1F
100
AcDbEntity
  8
実形
  6
PHANTOM
 48
20.0
100
AcDbCircle
 10
1087.786812049375
 20
3720.934563329866
 30
0.0
 40
14.50592633365164
100
AcDbArc
 50
120.4901082381074
 51
239.5098917618925
  0
LINE
  5
F88B
330
1F
100
AcDbEntity
  8
実形
  6
PHANTOM
 48
20.0
100
AcDbLine
 10
5033.28088571572
 20
3733.434563329865
 30
0.0
 11
5033.280885715722
 21
4090.934563329866
 31
0.0
  0
LINE
  5
F88C
330
1F
100
AcDbEntity
  8
実形
  6
PHANTOM
 48
20.0
100
AcDbLine
 10
5033.28088571572
 20
3333.434563329865
 30
0.0
 11
5033.28088571572
 21
3708.434563329865
 31
0.0
  0
LINE
  5
F88D
330
1F
100
AcDbEntity
  8
実形
  6
PHANTOM
 48
20.0
100
AcDbLine
 10
5033.280885715722
 20
2933.434563329866
 30
0.0
 11
5033.28088571572
 21
3308.434563329865
 31
0.0
  0
LINE
  5
F88E
330
1F
100
AcDbEntity
  8
実形
  6
PHANTOM
 48
20.0
100
AcDbLine
 10
5033.280885715722
 20
2533.434563329866
 30
0.0
 11
5033.280885715722
 21
2908.434563329866
 31
0.0
  0
LINE
  5
F88F
330
1F
100
AcDbEntity
  8
実形
  6
PHANTOM
 48
20.0
100
AcDbLine
 10
5033.280885715722
 20
2133.434563329867
 30
0.0
 11
5033.280885715722
 21
2508.434563329865
 31
0.0
  0
LINE
  5
F890
330
1F
100
AcDbEntity
  8
実形
  6
PHANTOM
 48
20.0
100
AcDbLine
 10
1113.280885715721
 20
3708.434563329866
 30
0.0
 11
1113.280885715721
 21
3333.434563329865
 31
0.0
  0
LINE
  5
F891
330
1F
100
AcDbEntity
  8
実形
  6
PHANTOM
 48
20.0
100
AcDbLine
 10
1113.280885715721
 20
3308.434563329865
 30
0.0
 11
1113.280885715721
 21
2933.434563329866
 31
0.0
  0
LINE
  5
F897
330
1F
100
AcDbEntity
  8
実形
  6
PHANTOM
 48
20.0
100
AcDbLine
 10
3985.780885715721
 20
3708.434563329865
 30
0.0
 11
4320.780885715723
 21
3708.434563329865
 31
0.0
  0
LINE
  5
F899
330
1F
100
AcDbEntity
  8
実形
  6
PHANTOM
 48
20.0
100
AcDbLine
 10
3985.780885715721
 20
3733.434563329865
 30
0.0
 11
4320.780885715723
 21
3733.434563329865
 31
0.0
  0
LINE
  5
F89A
330
1F
100
AcDbEntity
  8
実形
  6
PHANTOM
 48
20.0
100
AcDbLine
 10
3960.780885715723
 20
4130.934563329865
 30
0.0
 11
2905.780885715722
 21
4130.934563329865
 31
0.0
  0
LINE
  5
F89B
330
1F
100
AcDbEntity
  8
実形
  6
PHANTOM
 48
20.0
100
AcDbLine
 10
3985.780885715721
 20
3308.434563329865
 30
0.0
 11
4320.780885715723
 21
3308.434563329865
 31
0.0
  0
LINE
  5
F89C
330
1F
100
AcDbEntity
  8
実形
  6
PHANTOM
 48
20.0
100
AcDbLine
 10
3985.780885715721
 20
3333.434563329865
 30
0.0
 11
4320.780885715723
 21
3333.434563329865
 31
0.0
  0
LINE
  5
F89D
330
1F
100
AcDbEntity
  8
実形
  6
PHANTOM
 48
20.0
100
AcDbLine
 10
3985.780885715721
 20
2908.434563329865
 30
0.0
 11
4320.780885715723
 21
2908.434563329865
 31
0.0
  0
LINE
  5
F89E
330
1F
100
AcDbEntity
  8
実形
  6
PHANTOM
 48
20.0
100
AcDbLine
 10
3985.780885715721
 20
2933.434563329864
 30
0.0
 11
4320.780885715723
 21
2933.434563329864
 31
0.0
  0
LINE
  5
F89F
330
1F
100
AcDbEntity
  8
実形
  6
PHANTOM
 48
20.0
100
AcDbLine
 10
3985.780885715721
 20
2508.434563329867
 30
0.0
 11
4320.780885715723
 21
2508.434563329865
 31
0.0
  0
LINE
  5
F8A0
330
1F
100
AcDbEntity
  8
実形
  6
PHANTOM
 48
20.0
100
AcDbLine
 10
3985.780885715721
 20
2533.434563329866
 30
0.0
 11
4320.780885715723
 21
2533.434563329865
 31
0.0
  0
LINE
  5
F8A1
330
1F
100
AcDbEntity
  8
実形
  6
PHANTOM
 48
20.0
100
AcDbLine
 10
3985.780885715721
 20
2108.434563329865
 30
0.0
 11
4320.780885715723
 21
2108.434563329865
 31
0.0
  0
LINE
  5
F8A2
330
1F
100
AcDbEntity
  8
実形
  6
PHANTOM
 48
20.0
100
AcDbLine
 10
3985.780885715721
 20
2133.434563329865
 30
0.0
 11
4320.780885715723
 21
2133.434563329865
 31
0.0
  0
LINE
  5
F8A3
330
1F
100
AcDbEntity
  8
実形
  6
PHANTOM
 48
20.0
100
AcDbLine
 10
3985.780885715721
 20
1710.934563329865
 30
0.0
 11
4320.780885715723
 21
1710.934563329865
 31
0.0
  0
LINE
  5
F8A5
330
1F
100
AcDbEntity
  8
実形
  6
PHANTOM
 48
20.0
100
AcDbLine
 10
1113.280885715721
 20
2908.434563329866
 30
0.0
 11
1113.280885715721
 21
2533.434563329866
 31
0.0
  0
LINE
  5
F8A6
330
1F
100
AcDbEntity
  8
実形
  6
PHANTOM
 48
20.0
100
AcDbLine
 10
1113.280885715721
 20
2508.434563329867
 30
0.0
 11
1113.280885715721
 21
2133.434563329867
 31
0.0
  0
LINE
  5
F8A7
330
1F
100
AcDbEntity
  8
実形
  6
PHANTOM
 48
20.0
100
AcDbLine
 10
1113.280885715721
 20
2108.434563329867
 30
0.0
 11
1113.280885715721
 21
1750.934563329865
 31
0.0
  0
LINE
  5
F8A8
330
1F
100
AcDbEntity
  8
実形
  6
PHANTOM
 48
20.0
100
AcDbLine
 10
2185.780885715721
 20
1710.934563329865
 30
0.0
 11
2520.780885715721
 21
1710.934563329865
 31
0.0
  0
LINE
  5
F8A9
330
1F
100
AcDbEntity
  8
実形
  6
PHANTOM
 48
20.0
100
AcDbLine
 10
2185.780885715721
 20
2108.434563329865
 30
0.0
 11
2520.780885715721
 21
2108.434563329865
 31
0.0
  0
LINE
  5
F8AA
330
1F
100
AcDbEntity
  8
実形
  6
PHANTOM
 48
20.0
100
AcDbLine
 10
2185.780885715721
 20
2133.434563329865
 30
0.0
 11
2520.780885715721
 21
2133.434563329865
 31
0.0
  0
LINE
  5
F8AB
330
1F
100
AcDbEntity
  8
実形
  6
PHANTOM
 48
20.0
100
AcDbLine
 10
2185.780885715721
 20
2508.434563329865
 30
0.0
 11
2520.780885715721
 21
2508.434563329865
 31
0.0
  0
LINE
  5
F8AC
330
1F
100
AcDbEntity
  8
実形
  6
PHANTOM
 48
20.0
100
AcDbLine
 10
2185.780885715721
 20
2533.434563329866
 30
0.0
 11
2520.780885715721
 21
2533.434563329866
 31
0.0
  0
LINE
  5
F8AD
330
1F
100
AcDbEntity
  8
実形
  6
PHANTOM
 48
20.0
100
AcDbLine
 10
2185.780885715721
 20
2908.434563329865
 30
0.0
 11
2520.780885715721
 21
2908.434563329864
 31
0.0
  0
LINE
  5
F8AE
330
1F
100
AcDbEntity
  8
実形
  6
PHANTOM
 48
20.0
100
AcDbLine
 10
2185.780885715721
 20
2933.434563329865
 30
0.0
 11
2520.780885715721
 21
2933.434563329864
 31
0.0
  0
LINE
  5
F8AF
330
1F
100
AcDbEntity
  8
実形
  6
PHANTOM
 48
20.0
100
AcDbLine
 10
2185.780885715721
 20
3308.434563329865
 30
0.0
 11
2520.780885715721
 21
3308.434563329864
 31
0.0
  0
LINE
  5
F8B0
330
1F
100
AcDbEntity
  8
実形
  6
PHANTOM
 48
20.0
100
AcDbLine
 10
2185.780885715721
 20
3333.434563329865
 30
0.0
 11
2520.780885715721
 21
3333.434563329865
 31
0.0
  0
LINE
  5
F8B1
330
1F
100
AcDbEntity
  8
実形
  6
PHANTOM
 48
20.0
100
AcDbLine
 10
2185.780885715721
 20
3708.434563329865
 30
0.0
 11
2520.780885715721
 21
3708.434563329865
 31
0.0
  0
LINE
  5
F8B2
330
1F
100
AcDbEntity
  8
実形
  6
PHANTOM
 48
20.0
100
AcDbLine
 10
2185.780885715721
 20
3733.434563329865
 30
0.0
 11
2520.780885715721
 21
3733.434563329865
 31
0.0
  0
LINE
  5
F8B3
330
1F
100
AcDbEntity
  8
実形
  6
PHANTOM
 48
20.0
100
AcDbLine
 10
2160.780885715721
 20
4130.934563329865
 30
0.0
 11
1825.780885715721
 21
4130.934563329865
 31
0.0
  0
LINE
  5
F8B4
330
1F
100
AcDbEntity
  8
実形
  6
PHANTOM
 48
20.0
100
AcDbLine
 10
2545.780885715722
 20
3308.434563329865
 30
0.0
 11
2880.780885715722
 21
3308.434563329865
 31
0.0
  0
LINE
  5
F8B5
330
1F
100
AcDbEntity
  8
実形
  6
PHANTOM
 48
20.0
100
AcDbLine
 10
2545.780885715722
 20
3333.434563329865
 30
0.0
 11
2880.780885715722
 21
3333.434563329865
 31
0.0
  0
LINE
  5
F8B6
330
1F
100
AcDbEntity
  8
実形
  6
PHANTOM
 48
20.0
100
AcDbLine
 10
2545.780885715722
 20
2908.434563329866
 30
0.0
 11
2880.780885715722
 21
2908.434563329865
 31
0.0
  0
LINE
  5
F8B7
330
1F
100
AcDbEntity
  8
実形
  6
PHANTOM
 48
20.0
100
AcDbLine
 10
2545.780885715722
 20
2933.434563329865
 30
0.0
 11
2880.780885715722
 21
2933.434563329865
 31
0.0
  0
LINE
  5
F8B8
330
1F
100
AcDbEntity
  8
実形
  6
PHANTOM
 48
20.0
100
AcDbLine
 10
2545.780885715722
 20
2508.434563329865
 30
0.0
 11
2880.780885715722
 21
2508.434563329865
 31
0.0
  0
LINE
  5
F8B9
330
1F
100
AcDbEntity
  8
実形
  6
PHANTOM
 48
20.0
100
AcDbLine
 10
2545.780885715722
 20
2533.434563329866
 30
0.0
 11
2880.780885715722
 21
2533.434563329865
 31
0.0
  0
LINE
  5
F8BA
330
1F
100
AcDbEntity
  8
実形
  6
PHANTOM
 48
20.0
100
AcDbLine
 10
2545.780885715722
 20
1710.934563329865
 30
0.0
 11
2880.780885715722
 21
1710.934563329865
 31
0.0
  0
LINE
  5
F8BB
330
1F
100
AcDbEntity
  8
実形
  6
PHANTOM
 48
20.0
100
AcDbLine
 10
2545.780885715722
 20
2108.434563329867
 30
0.0
 11
2880.780885715722
 21
2108.434563329865
 31
0.0
  0
LINE
  5
F8BC
330
1F
100
AcDbEntity
  8
実形
  6
PHANTOM
 48
20.0
100
AcDbLine
 10
2545.780885715722
 20
2133.434563329867
 30
0.0
 11
2880.780885715722
 21
2133.434563329865
 31
0.0
  0
LINE
  5
F8BD
330
1F
100
AcDbEntity
  8
実形
  6
PHANTOM
 48
20.0
100
AcDbLine
 10
2520.780885715721
 20
4130.934563329865
 30
0.0
 11
2185.780885715721
 21
4130.934563329865
 31
0.0
  0
LINE
  5
F8BE
330
1F
100
AcDbEntity
  8
実形
  6
PHANTOM
 48
20.0
100
AcDbLine
 10
2545.780885715722
 20
3708.434563329866
 30
0.0
 11
2880.780885715722
 21
3708.434563329865
 31
0.0
  0
LINE
  5
F8BF
330
1F
100
AcDbEntity
  8
実形
  6
PHANTOM
 48
20.0
100
AcDbLine
 10
2545.780885715722
 20
3733.434563329866
 30
0.0
 11
2880.780885715722
 21
3733.434563329865
 31
0.0
  0
LINE
  5
F8C0
330
1F
100
AcDbEntity
  8
実形
  6
PHANTOM
 48
20.0
100
AcDbLine
 10
2905.780885715722
 20
3708.434563329866
 30
0.0
 11
3960.780885715723
 21
3708.434563329866
 31
0.0
  0
LINE
  5
F8C1
330
1F
100
AcDbEntity
  8
実形
  6
PHANTOM
 48
20.0
100
AcDbLine
 10
2905.780885715722
 20
3733.434563329866
 30
0.0
 11
3960.780885715723
 21
3733.434563329865
 31
0.0
  0
LINE
  5
F8C2
330
1F
100
AcDbEntity
  8
実形
  6
PHANTOM
 48
20.0
100
AcDbLine
 10
2880.780885715722
 20
4130.934563329865
 30
0.0
 11
2545.780885715722
 21
4130.934563329865
 31
0.0
  0
LINE
  5
F8C3
330
1F
100
AcDbEntity
  8
実形
  6
PHANTOM
 48
20.0
100
AcDbLine
 10
2905.780885715722
 20
3333.434563329865
 30
0.0
 11
3960.780885715723
 21
3333.434563329865
 31
0.0
  0
LINE
  5
F8C4
330
1F
100
AcDbEntity
  8
実形
  6
PHANTOM
 48
20.0
100
AcDbLine
 10
2905.780885715722
 20
3308.434563329865
 30
0.0
 11
3960.780885715723
 21
3308.434563329865
 31
0.0
  0
LINE
  5
F8C5
330
1F
100
AcDbEntity
  8
実形
  6
PHANTOM
 48
20.0
100
AcDbLine
 10
2905.780885715722
 20
2908.434563329866
 30
0.0
 11
3960.780885715723
 21
2908.434563329866
 31
0.0
  0
LINE
  5
F8C6
330
1F
100
AcDbEntity
  8
実形
  6
PHANTOM
 48
20.0
100
AcDbLine
 10
2905.780885715722
 20
2933.434563329865
 30
0.0
 11
3960.780885715723
 21
2933.434563329864
 31
0.0
  0
LINE
  5
F8C7
330
1F
100
AcDbEntity
  8
実形
  6
PHANTOM
 48
20.0
100
AcDbLine
 10
2905.780885715722
 20
2508.434563329867
 30
0.0
 11
3960.780885715723
 21
2508.434563329865
 31
0.0
  0
LINE
  5
F8C8
330
1F
100
AcDbEntity
  8
実形
  6
PHANTOM
 48
20.0
100
AcDbLine
 10
2905.780885715722
 20
2533.434563329865
 30
0.0
 11
3960.780885715723
 21
2533.434563329865
 31
0.0
  0
LINE
  5
F8C9
330
1F
100
AcDbEntity
  8
実形
  6
PHANTOM
 48
20.0
100
AcDbLine
 10
2905.780885715722
 20
2108.434563329865
 30
0.0
 11
3960.780885715723
 21
2108.434563329865
 31
0.0
  0
LINE
  5
F8CA
330
1F
100
AcDbEntity
  8
実形
  6
PHANTOM
 48
20.0
100
AcDbLine
 10
2905.780885715722
 20
2133.434563329867
 30
0.0
 11
3960.780885715723
 21
2133.434563329865
 31
0.0
  0
LINE
  5
F8CB
330
1F
100
AcDbEntity
  8
実形
  6
PHANTOM
 48
20.0
100
AcDbLine
 10
2905.780885715722
 20
1710.934563329865
 30
0.0
 11
3960.780885715723
 21
1710.934563329865
 31
0.0
  0
LINE
  5
FA70
330
1F
100
AcDbEntity
  8
実形
  6
ByBlock
100
AcDbLine
 10
314.8058453397168
 20
5369.623692175701
 30
0.0
 11
314.805845339718
 21
10.33189567747021
 31
0.0
  0
LINE
  5
FA71
330
1F
100
AcDbEntity
  8
実形
  6
PHANTOM
 48
20.0
100
AcDbLine
 10
7326.817005522612
 20
5369.623692175701
 30
0.0
 11
7326.817005522613
 21
10.33189567747141
 31
0.0
  0
LINE
  5
FA72
330
1F
100
AcDbEntity
  8
実形
  6
PHANTOM
 48
20.0
100
AcDbLine
 10
7326.817005522612
 20
4979.6236921757
 30
0.0
 11
7326.817005522612
 21
5369.623692175701
 31
0.0
  0
DIMENSION
  5
FAB9
330
1F
100
AcDbEntity
  8
実形
  6
PHANTOM
 48
20.0
100
AcDbDimension
  2
*D53
 10
4713.280885715721
 20
4258.724080775468
 30
0.0
 11
4754.466812027822
 21
4353.531736442532
 31
0.0
 70
   160
  1
4Φ
 71
     5
 42
39.99999999999909
  3
ISO-25
100
AcDbAlignedDimension
 13
4673.280885715722
 23
4069.01070276953
 33
0.0
 14
4713.280885715721
 24
4069.01070276953
 34
0.0
100
AcDbRotatedDimension
1001
ACAD
1000
DSTYLE
1002
{
1070
    41
1040
25.0
1070
    42
1040
130.0
1070
   140
1040
120.0
1070
   147
1040
20.0
1070
   279
1070
     2
1070
   342
1005
E3
1070
   371
1070
    13
1070
   372
1070
    13
1002
}
  0
DIMENSION
  5
FABA
330
1F
100
AcDbEntity
  8
実形
  6
PHANTOM
 48
20.0
100
AcDbDimension
  2
*D54
 10
4345.78088571572
 20
4258.724080775468
 30
0.0
 11
4303.696054408447
 21
4358.693374234448
 31
0.0
 70
   160
  1
2.5Φ
 71
     5
 42
25.0
  3
ISO-25
100
AcDbAlignedDimension
 13
4320.780885715723
 23
4069.010702769531
 33
0.0
 14
4345.78088571572
 24
4069.010702769531
 34
0.0
100
AcDbRotatedDimension
1001
ACAD
1000
DSTYLE
1002
{
1070
    41
1040
25.0
1070
    42
1040
130.0
1070
   140
1040
120.0
1070
   147
1040
20.0
1070
   279
1070
     2
1070
   342
1005
E3
1070
   371
1070
    13
1070
   372
1070
    13
1002
}
  0
LINE
  5
FB03
330
1F
100
AcDbEntity
  8
実形
  6
PHANTOM
 48
20.0
100
AcDbLine
 10
6276.040025755865
 20
252.8841841925314
 30
0.0
 11
6263.328420328587
 21
193.5817865178178
 31
0.0
  0
ENDSEC
  0
SECTION
  2
OBJECTS
  0
DICTIONARY
  5
C
330
0
100
AcDbDictionary
281
     1
  3
ACAD_CIP_PREVIOUS_PRODUCT_INFO
350
FF26
  3
ACAD_COLOR
350
1275
  3
ACAD_DETAILVIEWSTYLE
350
FF1D
  3
ACAD_GROUP
350
D
  3
ACAD_LAYOUT
350
1A
  3
ACAD_MATERIAL
350
1274
  3
ACAD_MLEADERSTYLE
350
FF19
  3
ACAD_MLINESTYLE
350
17
  3
ACAD_PLOTSETTINGS
350
19
  3
ACAD_PLOTSTYLENAME
350
E
  3
ACAD_SCALELIST
350
FF07
  3
ACAD_SECTIONVIEWSTYLE
350
FF1B
  3
ACAD_TABLESTYLE
350
1276
  3
ACAD_VISUALSTYLE
350
FEEE
  3
AcadDim
350
A600
  3
ACDB_RECOMPOSE_DATA
350
FF45
  3
ACDBHEADERROUNDTRIPXREC
350
FF93
  3
AcDbVariableDictionary
350
B81
  3
DWGPROPS
350
FF92
  0
DICTIONARY
  5
2D4A
330
2
100
AcDbDictionary
280
     1
281
     1
  3
ACAD_LAYERFILTERS
360
D10A
  3
ACAD_LAYERSTATES
360
2E1E
  3
ACLYDICTIONARY
360
D109
  0
DICTIONARY
  5
FF27
330
10
100
AcDbDictionary
280
     1
281
     1
  3
ADSK_XREC_LAYER_RECONCILED
360
FF28
  0
DICTIONARY
  5
FF29
330
B1
100
AcDbDictionary
280
     1
281
     1
  3
ADSK_XREC_LAYER_RECONCILED
360
FF2A
  0
DICTIONARY
  5
FF2B
330
190
100
AcDbDictionary
280
     1
281
     1
  3
ADSK_XREC_LAYER_RECONCILED
360
FF2C
  0
DICTIONARY
  5
FF2D
330
19B
100
AcDbDictionary
280
     1
281
     1
  3
ADSK_XREC_LAYER_RECONCILED
360
FF2E
  0
DICTIONARY
  5
FF2F
330
19C
100
AcDbDictionary
280
     1
281
     1
  3
ADSK_XREC_LAYER_RECONCILED
360
FF30
  0
DICTIONARY
  5
FF31
330
19D
100
AcDbDictionary
280
     1
281
     1
  3
ADSK_XREC_LAYER_RECONCILED
360
FF32
  0
DICTIONARY
  5
FF33
330
19E
100
AcDbDictionary
280
     1
281
     1
  3
ADSK_XREC_LAYER_RECONCILED
360
FF34
  0
DICTIONARY
  5
FF35
330
5B6
100
AcDbDictionary
280
     1
281
     1
  3
ADSK_XREC_LAYER_RECONCILED
360
FF36
  0
DICTIONARY
  5
FF37
330
CE5
100
AcDbDictionary
280
     1
281
     1
  3
ADSK_XREC_LAYER_RECONCILED
360
FF38
  0
DICTIONARY
  5
FF39
330
75BE
100
AcDbDictionary
280
     1
281
     1
  3
ADSK_XREC_LAYER_RECONCILED
360
FF3A
  0
DICTIONARY
  5
129E
330
1F
100
AcDbDictionary
280
     1
281
     1
  3
ACAD_SORTENTS
360
129F
  0
DICTIONARY
  5
2E18
330
2E16
100
AcDbDictionary
280
     1
281
     1
  3
ACAD_SORTENTS
360
2E19
  0
DICTIONARY
  5
3079
330
3077
100
AcDbDictionary
280
     1
281
     1
  3
ACAD_SORTENTS
360
307A
  0
DICTIONARY
  5
3D22
330
3D20
100
AcDbDictionary
280
     1
281
     1
  3
ACAD_SORTENTS
360
3D23
  0
DICTIONARY
  5
4D5C
330
4D59
100
AcDbDictionary
280
     1
281
     1
  3
ACAD_SORTENTS
360
4D5D
  0
DICTIONARY
  5
4D63
330
4D60
100
AcDbDictionary
280
     1
281
     1
  3
ACAD_SORTENTS
360
4D64
  0
DICTIONARY
  5
4DA5
330
4DA2
100
AcDbDictionary
280
     1
281
     1
  3
ACAD_SORTENTS
360
4DA6
  0
DICTIONARY
  5
5007
330
5005
100
AcDbDictionary
280
     1
281
     1
  3
ACAD_SORTENTS
360
5008
  0
DICTIONARY
  5
5FE6
330
5FE4
100
AcDbDictionary
280
     1
281
     1
  3
ACAD_SORTENTS
360
5FE7
  0
DICTIONARY
  5
6963
330
6960
100
AcDbDictionary
280
     1
281
     1
  3
ACAD_SORTENTS
360
6964
  0
DICTIONARY
  5
69B1
330
699B
100
AcDbDictionary
280
     1
281
     1
  3
ACAD_SORTENTS
360
69B2
  0
DICTIONARY
  5
6AFD
330
6AFA
100
AcDbDictionary
280
     1
281
     1
  3
ACAD_SORTENTS
360
6AFE
  0
DICTIONARY
  5
6F5F
330
6F5D
100
AcDbDictionary
280
     1
281
     1
  3
ACAD_SORTENTS
360
6F60
  0
DICTIONARY
  5
8BB7
330
8BA8
100
AcDbDictionary
280
     1
281
     1
  3
ACAD_SORTENTS
360
8BB8
  0
DICTIONARY
  5
94CA
330
94C7
100
AcDbDictionary
280
     1
281
     1
  3
ACAD_SORTENTS
360
94CB
  0
DICTIONARY
  5
D429
330
D427
100
AcDbDictionary
280
     1
281
     1
  3
ACAD_SORTENTS
360
D42A
  0
DICTIONARY
  5
D430
330
D42E
100
AcDbDictionary
280
     1
281
     1
  3
ACAD_SORTENTS
360
D431
  0
DICTIONARY
  5
DAA1
330
DA9F
100
AcDbDictionary
280
     1
281
     1
  3
ACAD_SORTENTS
360
DAA2
  0
DICTIONARY
  5
DD19
330
DD17
100
AcDbDictionary
280
     1
281
     1
  3
ACAD_SORTENTS
360
DD1A
  0
DICTIONARY
  5
DE14
330
DE12
100
AcDbDictionary
280
     1
281
     1
  3
ACAD_SORTENTS
360
DE15
  0
DICTIONARY
  5
E332
330
E330
100
AcDbDictionary
280
     1
281
     1
  3
ACAD_SORTENTS
360
E333
  0
DICTIONARY
  5
EB7B
330
EB79
100
AcDbDictionary
280
     1
281
     1
  3
ACAD_SORTENTS
360
EB7C
  0
DICTIONARY
  5
FC7E
330
FC7C
100
AcDbDictionary
280
     1
281
     1
  3
ACAD_SORTENTS
360
FC7F
  0
XRECORD
  5
FF26
102
{ACAD_REACTORS
330
C
102
}
330
C
100
AcDbXrecord
280
     1
300
ACDLT
300
2019
300
ACDLT_F_S
  0
DICTIONARY
  5
1275
102
{ACAD_REACTORS
330
C
102
}
330
C
100
AcDbDictionary
281
     1
  0
DICTIONARY
  5
FF1D
102
{ACAD_REACTORS
330
C
102
}
330
C
100
AcDbDictionary
281
     1
  3
Metric50
350
FF1E
  0
DICTIONARY
  5
D
102
{ACAD_REACTORS
330
C
102
}
330
C
100
AcDbDictionary
281
     1
  0
DICTIONARY
  5
1A
102
{ACAD_REACTORS
330
C
102
}
330
C
100
AcDbDictionary
281
     1
  3
Layout1
350
1E
  3
Layout2
350
26
  3
Model
350
22
  0
DICTIONARY
  5
1274
102
{ACAD_REACTORS
330
C
102
}
330
C
100
AcDbDictionary
281
     1
  3
ByBlock
350
FEE6
  3
ByLayer
350
FEDE
  3
Global
350
67D1
  0
DICTIONARY
  5
FF19
102
{ACAD_REACTORS
330
C
102
}
330
C
100
AcDbDictionary
281
     1
  3
Standard
350
FF1A
  0
DICTIONARY
  5
17
102
{ACAD_REACTORS
330
C
102
}
330
C
100
AcDbDictionary
281
     1
  3
Standard
350
18
  0
DICTIONARY
  5
19
102
{ACAD_REACTORS
330
C
102
}
330
C
100
AcDbDictionary
281
     1
  0
ACDBDICTIONARYWDFLT
  5
E
102
{ACAD_REACTORS
330
C
102
}
330
C
100
AcDbDictionary
281
     1
  3
Normal
350
F
100
AcDbDictionaryWithDefault
340
F
  0
DICTIONARY
  5
FF07
102
{ACAD_REACTORS
330
C
102
}
330
C
100
AcDbDictionary
281
     1
  3
A0
350
FF08
  3
A1
350
FF09
  3
A2
350
FF0A
  3
A3
350
FF0B
  3
A4
350
FF0C
  3
A5
350
FF0D
  3
A6
350
FF0E
  3
A7
350
FF0F
  3
A8
350
FF10
  3
A9
350
FF11
  3
B0
350
FF12
  3
B1
350
FF13
  3
B2
350
FF14
  3
B3
350
FF15
  3
B4
350
FF16
  3
B5
350
FF17
  3
B6
350
FF18
  0
DICTIONARY
  5
FF1B
102
{ACAD_REACTORS
330
C
102
}
330
C
100
AcDbDictionary
281
     1
  3
Metric50
350
FF1C
  0
DICTIONARY
  5
1276
102
{ACAD_REACTORS
330
C
102
}
330
C
100
AcDbDictionary
281
     1
  3
Standard
350
1277
  0
DICTIONARY
  5
FEEE
102
{ACAD_REACTORS
330
C
102
}
330
C
100
AcDbDictionary
281
     1
  3
2dWireframe
350
FEF4
  3
Basic
350
FEF3
  3
Brighten
350
FEFA
  3
ColorChange
350
FEFE
  3
Conceptual
350
FEF7
  3
Dim
350
FEF9
  3
EdgeColorOff
350
FF06
  3
Facepattern
350
FEFD
  3
Flat
350
FEEF
  3
FlatWithEdges
350
FEF0
  3
Gouraud
350
FEF1
  3
GouraudWithEdges
350
FEF2
  3
Hidden
350
FEF6
  3
JitterOff
350
FF04
  3
Linepattern
350
FEFC
  3
OverhangOff
350
FF05
  3
Realistic
350
FEF8
  3
Shaded
350
FF03
  3
Shaded with edges
350
FF02
  3
Shades of Gray
350
FEFF
  3
Sketchy
350
FF00
  3
Thicken
350
FEFB
  3
Wireframe
350
FEF5
  3
X-Ray
350
FF01
  0
XRECORD
  5
A600
102
{ACAD_REACTORS
330
C
102
}
330
C
100
AcDbXrecord
280
     1
 90
   990106
  3

 60
     0
 61
     0
 62
     1
 63
     3
 64
     0
 65
     0
 66
     0
 67
     3
 68
     1
 69
     0
 70
     0
 71
     0
 72
     0
 40
0.0
170
     0
  0
XRECORD
  5
FF45
102
{ACAD_REACTORS
330
C
102
}
330
C
100
AcDbXrecord
280
     1
 90
        1
330
1277
330
6962
330
69A3
330
EEE4
330
EEFA
330
EF19
330
EF2F
330
EF45
330
EF5B
330
EF72
330
EF88
330
EF9E
330
EFB4
330
EFCA
330
EFE3
330
EFF9
330
EFFA
330
EFFB
330
EFFC
330
EFFD
330
EFFE
330
F0B3
330
FAB9
330
FABA
330
FC7D
  0
DICTIONARY
  5
FF93
102
{ACAD_REACTORS
330
C
102
}
330
C
100
AcDbDictionary
281
     1
  0
DICTIONARY
  5
B81
102
{ACAD_REACTORS
330
C
102
}
330
C
100
AcDbDictionary
281
     1
  3
CANNOSCALE
350
FF3E
  3
CMLEADERSTYLE
350
FF3B
  3
CTABLESTYLE
350
127E
  3
CVIEWDETAILSTYLE
350
FF3C
  3
CVIEWSECTIONSTYLE
350
FF3D
  3
DIMASSOC
350
FF41
  3
INDEXCTL
350
FF3F
  3
PROJECTNAME
350
FF90
  3
SORTENTS
350
B82
  3
XCLIPFRAME
350
FF40
  0
XRECORD
  5
FF92
102
{ACAD_REACTORS
330
C
102
}
330
C
100
AcDbXrecord
280
     1
  1
DWGPROPS COOKIE
  2

  3

  4

  6

  7

  8
yanagihori
  9

300
=
301
=
302
=
303
=
304
=
305
=
306
=
307
=
308
=
309
=
 40
4.615470324074074
 41
2451684.562972223
 42
2458817.690637986
  1

 90
        0
  0
DICTIONARY
  5
D10A
102
{ACAD_REACTORS
330
2D4A
102
}
330
2D4A
100
AcDbDictionary
281
     1
  0
DICTIONARY
  5
2E1E
102
{ACAD_REACTORS
330
2D4A
102
}
330
2D4A
100
AcDbDictionary
281
     1
  0
DICTIONARY
  5
D109
102
{ACAD_REACTORS
330
2D4A
102
}
330
2D4A
100
AcDbDictionary
281
     1
1001
ACAD
1000
<All
  0
XRECORD
  5
FF28
102
{ACAD_REACTORS
330
FF27
102
}
330
FF27
100
AcDbXrecord
280
     1
290
     1
  0
XRECORD
  5
FF2A
102
{ACAD_REACTORS
330
FF29
102
}
330
FF29
100
AcDbXrecord
280
     1
290
     1
  0
XRECORD
  5
FF2C
102
{ACAD_REACTORS
330
FF2B
102
}
330
FF2B
100
AcDbXrecord
280
     1
290
     1
  0
XRECORD
  5
FF2E
102
{ACAD_REACTORS
330
FF2D
102
}
330
FF2D
100
AcDbXrecord
280
     1
290
     1
  0
XRECORD
  5
FF30
102
{ACAD_REACTORS
330
FF2F
102
}
330
FF2F
100
AcDbXrecord
280
     1
290
     1
  0
XRECORD
  5
FF32
102
{ACAD_REACTORS
330
FF31
102
}
330
FF31
100
AcDbXrecord
280
     1
290
     1
  0
XRECORD
  5
FF34
102
{ACAD_REACTORS
330
FF33
102
}
330
FF33
100
AcDbXrecord
280
     1
290
     1
  0
XRECORD
  5
FF36
102
{ACAD_REACTORS
330
FF35
102
}
330
FF35
100
AcDbXrecord
280
     1
290
     1
  0
XRECORD
  5
FF38
102
{ACAD_REACTORS
330
FF37
102
}
330
FF37
100
AcDbXrecord
280
     1
290
     1
  0
XRECORD
  5
FF3A
102
{ACAD_REACTORS
330
FF39
102
}
330
FF39
100
AcDbXrecord
280
     1
290
     1
  0
SORTENTSTABLE
  5
129F
102
{ACAD_REACTORS
330
129E
102
}
330
129E
100
AcDbSortentsTable
330
1F
331
EF2F
  5
F7B1
331
EFFE
  5
F7BF
331
F7BF
  5
F740
331
F8AC
  5
F267
331
F8B4
  5
F709
331
F8BC
  5
EEDC
331
F846
  5
F784
331
F8C4
  5
F70B
331
F84E
  5
EFE3
331
EE36
  5
F756
331
DA2F
  5
DD92
331
DA37
  5
DDB8
331
F7AE
  5
F6D4
331
EEFA
  5
F7AF
331
F7B6
  5
F6D7
331
F88D
  5
F77F
331
F856
  5
F70E
331
F85E
  5
F6C3
331
F89D
  5
F6C2
331
F8A5
  5
F7AA
331
F796
  5
F8B0
331
F7A6
  5
EED9
331
DA3F
  5
DDE1
331
DA47
  5
DE21
331
DA6F
  5
E0C2
331
F77E
  5
F8AD
331
F7C0
  5
F706
331
F8AD
  5
F4CC
331
F8B5
  5
F6EC
331
F7C8
  5
F1AE
331
F83F
  5
F79B
331
F8BD
  5
F797
331
F847
  5
F757
331
F886
  5
F93B
331
F8C5
  5
F4CF
331
EE37
  5
F783
331
EF88
  5
F7B5
331
F7AF
  5
F79F
331
F7B7
  5
F722
331
F857
  5
F755
331
F88E
  5
F77E
331
F85F
  5
F4C9
331
F89E
  5
F4C8
331
F8A6
  5
F7AB
331
F797
  5
F8B1
331
F79F
  5
EED4
331
F7A7
  5
EED7
331
DA38
  5
DDB9
331
DA40
  5
DDF3
331
F4CF
  5
F87C
331
F77F
  5
F79A
331
DA70
  5
EE35
331
EF19
  5
F7B0
331
F7B9
  5
F72C
331
F8AE
  5
F4BD
331
F7C9
  5
EF88
331
F8B6
  5
F4CD
331
F8BE
  5
F727
331
F848
  5
F7A1
331
F887
  5
F93C
331
F8C6
  5
F4BF
331
DA78
  5
EE38
331
F780
  5
EE3B
331
EE38
  5
F7A0
331
DA31
  5
DD9B
331
F7A8
  5
EED5
331
EEE4
  5
F7AE
331
F7B0
  5
F79D
331
F850
  5
EF2F
331
F88F
  5
F77D
331
F858
  5
F752
331
F860
  5
F48E
331
F897
  5
F729
331
F89F
  5
F48D
331
F8A7
  5
F7AC
331
F798
  5
F793
331
DA39
  5
DDBA
331
DA41
  5
DE07
331
EFE1
  5
F7A6
331
EFF9
  5
F7BA
331
F7BA
  5
F799
331
F7C2
  5
F6EA
331
F8AF
  5
F708
331
F8B7
  5
F4BE
331
F841
  5
F79C
331
F849
  5
F7AD
331
F7DA
  5
F8B4
331
F8BF
  5
F743
331
F8C7
  5
F489
331
DA32
  5
DDA4
331
FAB9
  5
FC5C
331
EF72
  5
F7B4
331
F7A9
  5
EFFD
331
F7B1
  5
F478
331
F851
  5
F4A5
331
F888
  5
F93D
331
F7EA
  5
F8B8
331
F7FA
  5
F8BC
331
F859
  5
F794
331
F890
  5
F7A8
331
F80A
  5
F8C0
331
F861
  5
F3F0
331
F8A0
  5
F278
331
F81A
  5
F8C4
331
DA3A
  5
DDCC
331
F4C9
  5
F861
331
DA6A
  5
DF2F
331
EFCA
  5
F7B8
331
EFE2
  5
F7A5
331
EFFA
  5
F7BB
331
EF5B
  5
F7B3
331
F8A8
  5
EE3D
331
F7BB
  5
F724
331
F82A
  5
F8C8
331
F83A
  5
F8F7
331
F7C3
  5
F4CB
331
F8B0
  5
F6EB
331
F8B8
  5
F483
331
F7CB
  5
EEDA
331
F8C0
  5
F728
331
F7DB
  5
F8B5
331
F84A
  5
F782
331
DA33
  5
DDA5
331
EED2
  5
EE3A
331
FABA
  5
FC5D
331
F7AA
  5
EFFB
331
F7B2
  5
EFFE
331
F889
  5
F93E
331
F8C8
  5
F274
331
F7EB
  5
F8B9
331
F852
  5
F4A2
331
F85A
  5
F72A
331
F891
  5
F7A9
331
F7FB
  5
F8BD
331
FA70
  5
DD85
331
F862
  5
EEBC
331
F899
  5
F749
331
F80B
  5
F8C1
331
F81B
  5
F8C5
331
F8A1
  5
EFE2
331
DA3B
  5
DDD4
331
F6C2
  5
DF39
331
EFE3
  5
F7B9
331
EFFB
  5
F7BC
331
F0B3
  5
F7C0
331
F8A9
  5
EF9E
331
F82B
  5
F8CA
331
F8B1
  5
F725
331
F83B
  5
F917
331
F7CC
  5
EE3C
331
F8B9
  5
F269
331
F84B
  5
EFFA
331
F7DC
  5
F8B6
331
F8C1
  5
F744
331
8E2C
  5
DD8E
331
DA34
  5
DDA6
331
EED3
  5
F785
331
F7AB
  5
F4B7
331
F7B3
  5
F4CA
331
EFB4
  5
F7B7
331
F8C9
  5
EFE1
331
F853
  5
F6D3
331
F88A
  5
F93F
331
F7EC
  5
F8BA
331
FA71
  5
F862
331
F7FC
  5
F8BE
331
F85B
  5
F74E
331
F89A
  5
F795
331
F80C
  5
F8C2
331
F863
  5
F936
331
F8A2
  5
EEE0
331
F81C
  5
F8C6
331
F7A3
  5
F8B2
331
DA3C
  5
DDD5
331
F4CB
  5
F863
331
DA6C
  5
DF3A
331
DA74
  5
EE37
331
EF45
  5
F7B2
331
EFFC
  5
F7BD
331
F8AA
  5
EEDB
331
F82C
  5
F8CB
331
F83C
  5
F934
331
F7C5
  5
F4B9
331
F8B2
  5
F741
331
F8BA
  5
EE3F
331
F8C2
  5
F796
331
F7DD
  5
F8B7
331
F84C
  5
EFF9
331
DA35
  5
DDA7
331
EED4
  5
F758
331
EEE0
  5
F7A4
331
F7AC
  5
F4A6
331
F7B4
  5
F4B8
331
F88B
  5
F781
331
F8CA
  5
EEDD
331
F7ED
  5
F8BB
331
F854
  5
F6C5
331
F85C
  5
F70D
331
F7FD
  5
F8BF
331
FA72
  5
FB5F
331
F89B
  5
F70C
331
F80D
  5
F8C3
331
F81D
  5
F8C7
331
F8A3
  5
EEA6
331
F794
  5
F8AE
331
F7A4
  5
F8B3
331
F4CC
  5
F86C
331
DA3D
  5
DDD7
331
EFFD
  5
F7BE
331
F8AB
  5
F481
331
F82D
  5
F8E1
331
F86C
  5
F937
331
F874
  5
F938
331
F8B3
  5
F798
331
F7C6
  5
F47C
331
F83D
  5
F935
331
F87C
  5
F939
331
F8BB
  5
EFCA
331
F845
  5
F786
331
F884
  5
F93A
331
F8C3
  5
F6ED
331
4806
  5
487A
331
EE35
  5
EE39
331
DA2E
  5
DD91
331
DA36
  5
DDB0
331
EED5
  5
F7A7
331
EEE1
  5
F7A3
331
F7AD
  5
F6D5
331
EF9E
  5
F7B6
331
F7B5
  5
F6F4
331
F8CB
  5
EE64
331
F855
  5
F710
331
F88C
  5
F780
331
F85D
  5
F6F2
331
F89C
  5
F6F1
331
FB03
  5
FC5E
331
F795
  5
F8AF
331
F7A5
  5
EF5B
331
DA3E
  5
DDE0
331
F4CD
  5
F874
331
F77D
  5
F8AC
  0
SORTENTSTABLE
  5
2E19
102
{ACAD_REACTORS
330
2E18
102
}
330
2E18
100
AcDbSortentsTable
330
2E16
  0
SORTENTSTABLE
  5
307A
102
{ACAD_REACTORS
330
3079
102
}
330
3079
100
AcDbSortentsTable
330
3077
  0
SORTENTSTABLE
  5
3D23
102
{ACAD_REACTORS
330
3D22
102
}
330
3D22
100
AcDbSortentsTable
330
3D20
  0
SORTENTSTABLE
  5
4D5D
102
{ACAD_REACTORS
330
4D5C
102
}
330
4D5C
100
AcDbSortentsTable
330
4D59
  0
SORTENTSTABLE
  5
4D64
102
{ACAD_REACTORS
330
4D63
102
}
330
4D63
100
AcDbSortentsTable
330
4D60
  0
SORTENTSTABLE
  5
4DA6
102
{ACAD_REACTORS
330
4DA5
102
}
330
4DA5
100
AcDbSortentsTable
330
4DA2
  0
SORTENTSTABLE
  5
5008
102
{ACAD_REACTORS
330
5007
102
}
330
5007
100
AcDbSortentsTable
330
5005
  0
SORTENTSTABLE
  5
5FE7
102
{ACAD_REACTORS
330
5FE6
102
}
330
5FE6
100
AcDbSortentsTable
330
5FE4
  0
SORTENTSTABLE
  5
6964
102
{ACAD_REACTORS
330
6963
102
}
330
6963
100
AcDbSortentsTable
330
6960
  0
SORTENTSTABLE
  5
69B2
102
{ACAD_REACTORS
330
69B1
102
}
330
69B1
100
AcDbSortentsTable
330
699B
  0
SORTENTSTABLE
  5
6AFE
102
{ACAD_REACTORS
330
6AFD
102
}
330
6AFD
100
AcDbSortentsTable
330
6AFA
  0
SORTENTSTABLE
  5
6F60
102
{ACAD_REACTORS
330
6F5F
102
}
330
6F5F
100
AcDbSortentsTable
330
6F5D
  0
SORTENTSTABLE
  5
8BB8
102
{ACAD_REACTORS
330
8BB7
102
}
330
8BB7
100
AcDbSortentsTable
330
8BA8
  0
SORTENTSTABLE
  5
94CB
102
{ACAD_REACTORS
330
94CA
102
}
330
94CA
100
AcDbSortentsTable
330
94C7
  0
SORTENTSTABLE
  5
D42A
102
{ACAD_REACTORS
330
D429
102
}
330
D429
100
AcDbSortentsTable
330
D427
  0
SORTENTSTABLE
  5
D431
102
{ACAD_REACTORS
330
D430
102
}
330
D430
100
AcDbSortentsTable
330
D42E
  0
SORTENTSTABLE
  5
DAA2
102
{ACAD_REACTORS
330
DAA1
102
}
330
DAA1
100
AcDbSortentsTable
330
DA9F
  0
SORTENTSTABLE
  5
DD1A
102
{ACAD_REACTORS
330
DD19
102
}
330
DD19
100
AcDbSortentsTable
330
DD17
  0
SORTENTSTABLE
  5
DE15
102
{ACAD_REACTORS
330
DE14
102
}
330
DE14
100
AcDbSortentsTable
330
DE12
  0
SORTENTSTABLE
  5
E333
102
{ACAD_REACTORS
330
E332
102
}
330
E332
100
AcDbSortentsTable
330
E330
  0
SORTENTSTABLE
  5
EB7C
102
{ACAD_REACTORS
330
EB7B
102
}
330
EB7B
100
AcDbSortentsTable
330
EB79
  0
SORTENTSTABLE
  5
FC7F
102
{ACAD_REACTORS
330
FC7E
102
}
330
FC7E
100
AcDbSortentsTable
330
FC7C
  0
ACDBDETAILVIEWSTYLE
  5
FF1E
102
{ACAD_XDICTIONARY
360
FF87
102
}
102
{ACAD_REACTORS
330
FF1D
102
}
330
FF1D
100
AcDbModelDocViewStyle
 70
     0
  3
Metric50
290
     0
100
AcDbDetailViewStyle
 70
     0
 71
     0
 90
        3
 71
     1
340
11
 40
5.0
340
0
 40
5.0
300

 40
0.0
280
     1
 71
     2
340
16
 90
       25
 71
     3
340
11
 40
5.0
 90
        0
 40
15.0
 90
        1
300
%<\AcVar ViewDetailId>% (%<\AcVar ViewScale \f "%sn">%)
 71
     4
340
16
 90
       25
340
16
 90
       25
280
     0
1001
ACAD
1000
AcRTDxfName
1000
ACDBDETAILVIEWSTYLE
  0
LAYOUT
  5
1E
102
{ACAD_XDICTIONARY
360
FF94
102
}
102
{ACAD_REACTORS
330
1A
102
}
330
1A
100
AcDbPlotSettings
  1

  2

  4

  6

 40
0.0
 41
0.0
 42
0.0
 43
0.0
 44
0.0
 45
0.0
 46
0.0
 47
0.0
 48
0.0
 49
0.0
140
0.0
141
0.0
142
1.0
143
1.0
 70
   688
 72
     0
 73
     0
 74
     5
  7

 75
    16
147
1.0
148
0.0
149
0.0
100
AcDbLayout
  1
Layout1
 70
     1
 71
     1
 10
0.0
 20
0.0
 11
420.0
 21
297.0
 12
0.0
 22
0.0
 32
0.0
 14
1.000000000000000E+20
 24
1.000000000000000E+20
 34
1.000000000000000E+20
 15
-1.000000000000000E+20
 25
-1.000000000000000E+20
 35
-1.000000000000000E+20
146
0.0
 13
0.0
 23
0.0
 33
0.0
 16
1.0
 26
0.0
 36
0.0
 17
0.0
 27
1.0
 37
0.0
 76
     0
330
1B
  0
LAYOUT
  5
26
102
{ACAD_XDICTIONARY
360
FF98
102
}
102
{ACAD_REACTORS
330
1A
102
}
330
1A
100
AcDbPlotSettings
  1

  2

  4

  6

 40
0.0
 41
0.0
 42
0.0
 43
0.0
 44
0.0
 45
0.0
 46
0.0
 47
0.0
 48
0.0
 49
0.0
140
0.0
141
0.0
142
1.0
143
1.0
 70
   688
 72
     0
 73
     0
 74
     5
  7

 75
    16
147
1.0
148
0.0
149
0.0
100
AcDbLayout
  1
Layout2
 70
     1
 71
     2
 10
0.0
 20
0.0
 11
12.0
 21
9.0
 12
0.0
 22
0.0
 32
0.0
 14
0.0
 24
0.0
 34
0.0
 15
0.0
 25
0.0
 35
0.0
146
0.0
 13
0.0
 23
0.0
 33
0.0
 16
1.0
 26
0.0
 36
0.0
 17
0.0
 27
1.0
 37
0.0
 76
     0
330
23
  0
LAYOUT
  5
22
102
{ACAD_XDICTIONARY
360
FF96
102
}
102
{ACAD_REACTORS
330
1A
102
}
330
1A
100
AcDbPlotSettings
  1

  2
EPSON PM-800C
  4
A4
  6

 40
3.757083177566528
 41
14.7637300491333
 42
3.757080078125
 43
3.757080078125
 44
209.9733276367186
 45
296.9683227539062
 46
0.0
 47
0.0
 48
0.0
 49
0.0
140
0.0
141
0.0
142
1.0
143
20.0
 70
 11952
 72
     1
 73
     1
 74
     2
  7

 75
    22
147
0.05
148
0.0
149
0.0
100
AcDbLayout
  1
Model
 70
     1
 71
     0
 10
0.0
 20
0.0
 11
12.0
 21
9.0
 12
0.0
 22
0.0
 32
0.0
 14
0.0
 24
0.0
 34
0.0
 15
0.0
 25
0.0
 35
0.0
146
0.0
 13
0.0
 23
0.0
 33
0.0
 16
1.0
 26
0.0
 36
0.0
 17
0.0
 27
1.0
 37
0.0
 76
     0
330
1F
331
FEDC
  0
MATERIAL
  5
FEE6
102
{ACAD_XDICTIONARY
360
FEE7
102
}
102
{ACAD_REACTORS
330
1274
102
}
330
1274
100
AcDbMaterial
  1
ByBlock
 72
     0
 43
0.0008202099737533
 43
0.0
 43
0.0
 43
0.0
 43
0.0
 43
0.0008202099737533
 43
0.0
 43
0.0
 43
0.0
 43
0.0
 43
1.0
 43
0.0
 43
0.0
 43
0.0
 43
0.0
 43
1.0
 77
     0
 47
0.0008202099737533
 47
0.0
 47
0.0
 47
0.0
 47
0.0
 47
0.0008202099737533
 47
0.0
 47
0.0
 47
0.0
 47
0.0
 47
1.0
 47
0.0
 47
0.0
 47
0.0
 47
0.0
 47
1.0
171
     0
 49
0.0008202099737533
 49
0.0
 49
0.0
 49
0.0
 49
0.0
 49
0.0008202099737533
 49
0.0
 49
0.0
 49
0.0
 49
0.0
 49
1.0
 49
0.0
 49
0.0
 49
0.0
 49
0.0
 49
1.0
175
     0
142
0.0008202099737533
142
0.0
142
0.0
142
0.0
142
0.0
142
0.0008202099737533
142
0.0
142
0.0
142
0.0
142
0.0
142
1.0
142
0.0
142
0.0
142
0.0
142
0.0
142
1.0
179
     0
144
0.0008202099737533
144
0.0
144
0.0
144
0.0
144
0.0
144
0.0008202099737533
144
0.0
144
0.0
144
0.0
144
0.0
144
1.0
144
0.0
144
0.0
144
0.0
144
0.0
144
1.0
147
0.0008202099737533
147
0.0
147
0.0
147
0.0
147
0.0
147
0.0008202099737533
147
0.0
147
0.0
147
0.0
147
0.0
147
1.0
147
0.0
147
0.0
147
0.0
147
0.0
147
1.0
  0
MATERIAL
  5
FEDE
102
{ACAD_XDICTIONARY
360
FEDF
102
}
102
{ACAD_REACTORS
330
1274
102
}
330
1274
100
AcDbMaterial
  1
ByLayer
 72
     0
 43
0.0008202099737533
 43
0.0
 43
0.0
 43
0.0
 43
0.0
 43
0.0008202099737533
 43
0.0
 43
0.0
 43
0.0
 43
0.0
 43
1.0
 43
0.0
 43
0.0
 43
0.0
 43
0.0
 43
1.0
 77
     0
 47
0.0008202099737533
 47
0.0
 47
0.0
 47
0.0
 47
0.0
 47
0.0008202099737533
 47
0.0
 47
0.0
 47
0.0
 47
0.0
 47
1.0
 47
0.0
 47
0.0
 47
0.0
 47
0.0
 47
1.0
171
     0
 49
0.0008202099737533
 49
0.0
 49
0.0
 49
0.0
 49
0.0
 49
0.0008202099737533
 49
0.0
 49
0.0
 49
0.0
 49
0.0
 49
1.0
 49
0.0
 49
0.0
 49
0.0
 49
0.0
 49
1.0
175
     0
142
0.0008202099737533
142
0.0
142
0.0
142
0.0
142
0.0
142
0.0008202099737533
142
0.0
142
0.0
142
0.0
142
0.0
142
1.0
142
0.0
142
0.0
142
0.0
142
0.0
142
1.0
179
     0
144
0.0008202099737533
144
0.0
144
0.0
144
0.0
144
0.0
144
0.0008202099737533
144
0.0
144
0.0
144
0.0
144
0.0
144
1.0
144
0.0
144
0.0
144
0.0
144
0.0
144
1.0
147
0.0008202099737533
147
0.0
147
0.0
147
0.0
147
0.0
147
0.0008202099737533
147
0.0
147
0.0
147
0.0
147
0.0
147
1.0
147
0.0
147
0.0
147
0.0
147
0.0
147
1.0
  0
MATERIAL
  5
67D1
102
{ACAD_XDICTIONARY
360
FF4E
102
}
102
{ACAD_REACTORS
330
1274
102
}
330
1274
100
AcDbMaterial
  1
Global
  0
MLEADERSTYLE
  5
FF1A
102
{ACAD_XDICTIONARY
360
FF83
102
}
102
{ACAD_REACTORS
330
FF19
102
}
330
FF19
100
AcDbMLeaderStyle
170
     2
171
     1
172
     0
 90
        2
 40
0.0
 41
0.0
173
     1
 91
-1056964608
340
14
 92
       -2
290
     1
 42
2.0
291
     1
 43
0.36
  3
Standard
 44
4.0
300

342
11
174
     1
178
     6
175
     1
176
     0
 93
-1056964608
 45
4.0
292
     0
297
     0
 46
4.0
 94
-1056964608
 47
1.0
 49
1.0
140
1.0
293
     1
141
0.0
294
     1
177
     0
142
1.0
295
     0
296
     0
143
0.125
1001
ACAD_MLEADERVER
1070
     2
1001
ACAD
1000
AcRTDxfName
1000
MLEADERSTYLE
  0
MLINESTYLE
  5
18
102
{ACAD_REACTORS
330
17
102
}
330
17
100
AcDbMlineStyle
  2
STANDARD
 70
     0
  3

 62
   256
 51
90.0
 52
90.0
 71
     2
 49
0.5
 62
   256
  6
BYLAYER
 49
-0.5
 62
   256
  6
BYLAYER
  0
ACDBPLACEHOLDER
  5
F
102
{ACAD_REACTORS
330
E
102
}
330
E
  0
SCALE
  5
FF08
102
{ACAD_REACTORS
330
FF07
102
}
330
FF07
100
AcDbScale
 70
     0
300
1:1
140
1.0
141
1.0
290
     1
1001
ACAD
1000
AcRTDxfName
1000
SCALE
  0
SCALE
  5
FF09
102
{ACAD_REACTORS
330
FF07
102
}
330
FF07
100
AcDbScale
 70
     0
300
1:2
140
1.0
141
2.0
290
     0
1001
ACAD
1000
AcRTDxfName
1000
SCALE
  0
SCALE
  5
FF0A
102
{ACAD_REACTORS
330
FF07
102
}
330
FF07
100
AcDbScale
 70
     0
300
1:4
140
1.0
141
4.0
290
     0
1001
ACAD
1000
AcRTDxfName
1000
SCALE
  0
SCALE
  5
FF0B
102
{ACAD_REACTORS
330
FF07
102
}
330
FF07
100
AcDbScale
 70
     0
300
1:5
140
1.0
141
5.0
290
     0
1001
ACAD
1000
AcRTDxfName
1000
SCALE
  0
SCALE
  5
FF0C
102
{ACAD_REACTORS
330
FF07
102
}
330
FF07
100
AcDbScale
 70
     0
300
1:8
140
1.0
141
8.0
290
     0
1001
ACAD
1000
AcRTDxfName
1000
SCALE
  0
SCALE
  5
FF0D
102
{ACAD_REACTORS
330
FF07
102
}
330
FF07
100
AcDbScale
 70
     0
300
1:10
140
1.0
141
10.0
290
     0
1001
ACAD
1000
AcRTDxfName
1000
SCALE
  0
SCALE
  5
FF0E
102
{ACAD_REACTORS
330
FF07
102
}
330
FF07
100
AcDbScale
 70
     0
300
1:16
140
1.0
141
16.0
290
     0
1001
ACAD
1000
AcRTDxfName
1000
SCALE
  0
SCALE
  5
FF0F
102
{ACAD_REACTORS
330
FF07
102
}
330
FF07
100
AcDbScale
 70
     0
300
1:20
140
1.0
141
20.0
290
     0
1001
ACAD
1000
AcRTDxfName
1000
SCALE
  0
SCALE
  5
FF10
102
{ACAD_REACTORS
330
FF07
102
}
330
FF07
100
AcDbScale
 70
     0
300
1:30
140
1.0
141
30.0
290
     0
1001
ACAD
1000
AcRTDxfName
1000
SCALE
  0
SCALE
  5
FF11
102
{ACAD_REACTORS
330
FF07
102
}
330
FF07
100
AcDbScale
 70
     0
300
1:40
140
1.0
141
40.0
290
     0
1001
ACAD
1000
AcRTDxfName
1000
SCALE
  0
SCALE
  5
FF12
102
{ACAD_REACTORS
330
FF07
102
}
330
FF07
100
AcDbScale
 70
     0
300
1:50
140
1.0
141
50.0
290
     0
1001
ACAD
1000
AcRTDxfName
1000
SCALE
  0
SCALE
  5
FF13
102
{ACAD_REACTORS
330
FF07
102
}
330
FF07
100
AcDbScale
 70
     0
300
1:100
140
1.0
141
100.0
290
     0
1001
ACAD
1000
AcRTDxfName
1000
SCALE
  0
SCALE
  5
FF14
102
{ACAD_REACTORS
330
FF07
102
}
330
FF07
100
AcDbScale
 70
     0
300
2:1
140
2.0
141
1.0
290
     0
1001
ACAD
1000
AcRTDxfName
1000
SCALE
  0
SCALE
  5
FF15
102
{ACAD_REACTORS
330
FF07
102
}
330
FF07
100
AcDbScale
 70
     0
300
4:1
140
4.0
141
1.0
290
     0
1001
ACAD
1000
AcRTDxfName
1000
SCALE
  0
SCALE
  5
FF16
102
{ACAD_REACTORS
330
FF07
102
}
330
FF07
100
AcDbScale
 70
     0
300
8:1
140
8.0
141
1.0
290
     0
1001
ACAD
1000
AcRTDxfName
1000
SCALE
  0
SCALE
  5
FF17
102
{ACAD_REACTORS
330
FF07
102
}
330
FF07
100
AcDbScale
 70
     0
300
10:1
140
10.0
141
1.0
290
     0
1001
ACAD
1000
AcRTDxfName
1000
SCALE
  0
SCALE
  5
FF18
102
{ACAD_REACTORS
330
FF07
102
}
330
FF07
100
AcDbScale
 70
     0
300
100:1
140
100.0
141
1.0
290
     0
1001
ACAD
1000
AcRTDxfName
1000
SCALE
  0
ACDBSECTIONVIEWSTYLE
  5
FF1C
102
{ACAD_XDICTIONARY
360
FF85
102
}
102
{ACAD_REACTORS
330
FF1B
102
}
330
FF1B
100
AcDbModelDocViewStyle
 70
     0
  3
Metric50
290
     0
100
AcDbSectionViewStyle
 70
     0
 71
     0
 90
      102
 71
     1
340
11
 40
5.0
340
0
340
0
 40
5.0
300
I, O, Q, S, X, Z
 40
10.0
 90
        0
 40
2.5
 90
        0
 71
     2
340
16
 90
       25
340
16
 90
       50
 40
5.0
 40
2.5
 40
5.0
 71
     3
340
11
 40
5.0
 90
        0
 40
15.0
 90
        1
300
%<\AcVar ViewSectionStartId>%-%<\AcVar ViewSectionEndId>% (%<\AcVar ViewScale \f "%sn">%)
 71
     4
300
ANSI31
 40
1.0
 90
        0
290
     0
290
     0
 90
        6
 40
0.0
 40
1.570796326794896
 40
0.2617993877991494
 40
1.308996938995747
 40
-0.2617993877991494
 40
1.832595714594045
1001
ACAD
1000
AcRTDxfName
1000
ACDBSECTIONVIEWSTYLE
  0
TABLESTYLE
  5
1277
102
{ACAD_XDICTIONARY
360
FF43
102
}
102
{ACAD_REACTORS
330
1276
102
}
330
1276
100
AcDbTableStyle
  3
Standard
 70
     0
 71
     0
 40
1.5
 41
1.5
280
     0
281
     0
  7
Standard
140
4.5
170
     2
 62
     0
 63
     7
283
     0
274
    -2
284
     1
 64
     0
275
    -2
285
     1
 65
     0
276
    -2
286
     1
 66
     0
277
    -2
287
     1
 67
     0
278
    -2
288
     1
 68
     0
279
    -2
289
     1
 69
     0
  7
Standard
140
6.0
170
     5
 62
     0
 63
     7
283
     0
274
    -2
284
     1
 64
     0
275
    -2
285
     1
 65
     0
276
    -2
286
     1
 66
     0
277
    -2
287
     1
 67
     0
278
    -2
288
     1
 68
     0
279
    -2
289
     1
 69
     0
  7
Standard
140
4.5
170
     5
 62
     0
 63
     7
283
     0
274
    -2
284
     1
 64
     0
275
    -2
285
     1
 65
     0
276
    -2
286
     1
 66
     0
277
    -2
287
     1
 67
     0
278
    -2
288
     1
 68
     0
279
    -2
289
     1
 69
     0
  0
VISUALSTYLE
  5
FEF4
102
{ACAD_XDICTIONARY
360
FF5C
102
}
102
{ACAD_REACTORS
330
FEEE
102
}
330
FEEE
100
AcDbVisualStyle
  2
2dWireframe
 70
     4
 71
     0
 72
     2
 73
     0
 90
        0
 40
-0.6
 41
-30.0
 62
     5
 63
     7
 74
     1
 91
        4
 64
     7
 65
   257
 75
     1
175
     1
 42
1.0
 92
        0
 66
   257
 43
1.0
 76
     1
 77
     6
 78
     2
 67
     7
 79
     5
170
     0
171
     0
290
     0
174
     0
 93
        1
 44
0.0
173
     0
291
     0
 45
0.0
1001
ACAD
1000
AcDbSavedByObjectVersion
1070
     0
1001
ACAD
1000
AcRTDxfName
1000
VISUALSTYLE
  0
VISUALSTYLE
  5
FEF3
102
{ACAD_XDICTIONARY
360
FF5A
102
}
102
{ACAD_REACTORS
330
FEEE
102
}
330
FEEE
100
AcDbVisualStyle
  2
Basic
 70
     7
 71
     1
 72
     0
 73
     1
 90
        0
 40
-0.6
 41
-30.0
 62
     5
 63
     7
 74
     0
 91
        4
 64
     7
 65
   257
 75
     1
175
     1
 42
1.0
 92
        8
 66
     7
 43
1.0
 76
     1
 77
     6
 78
     2
 67
     7
 79
     5
170
     0
171
     0
290
     0
174
     0
 93
        1
 44
0.0
173
     0
291
     1
 45
0.0
1001
ACAD
1000
AcDbSavedByObjectVersion
1070
     0
1001
ACAD
1000
AcRTDxfName
1000
VISUALSTYLE
  0
VISUALSTYLE
  5
FEFA
102
{ACAD_XDICTIONARY
360
FF68
102
}
102
{ACAD_REACTORS
330
FEEE
102
}
330
FEEE
100
AcDbVisualStyle
  2
Brighten
 70
    12
 71
     2
 72
     2
 73
     0
 90
        0
 40
-0.6
 41
-30.0
 62
     5
 63
     7
 74
     1
 91
        4
 64
     7
 65
   257
 75
     1
175
     1
 42
1.0
 92
        8
 66
     7
 43
1.0
 76
     1
 77
     6
 78
     2
 67
     7
 79
     5
170
     0
171
     0
290
     0
174
     0
 93
        1
 44
50.0
173
     0
291
     1
 45
0.0
1001
ACAD
1000
AcDbSavedByObjectVersion
1070
     0
1001
ACAD
1000
AcRTDxfName
1000
VISUALSTYLE
  0
VISUALSTYLE
  5
FEFE
102
{ACAD_XDICTIONARY
360
FF70
102
}
102
{ACAD_REACTORS
330
FEEE
102
}
330
FEEE
100
AcDbVisualStyle
  2
ColorChange
 70
    16
 71
     2
 72
     2
 73
     3
 90
        0
 40
-0.6
 41
-30.0
 62
     5
 63
     8
 74
     1
 91
        4
 64
     7
 65
   257
 75
     1
175
     1
 42
1.0
 92
        8
 66
     8
 43
1.0
 76
     1
 77
     6
 78
     2
 67
     7
 79
     5
170
     0
171
     0
290
     0
174
     0
 93
        1
 44
0.0
173
     0
291
     1
 45
0.0
1001
ACAD
1000
AcDbSavedByObjectVersion
1070
     0
1001
ACAD
1000
AcRTDxfName
1000
VISUALSTYLE
  0
VISUALSTYLE
  5
FEF7
102
{ACAD_XDICTIONARY
360
FF62
102
}
102
{ACAD_REACTORS
330
FEEE
102
}
330
FEEE
100
AcDbVisualStyle
  2
Conceptual
 70
     9
 71
     3
 72
     2
 73
     0
 90
        0
 40
-0.6
 41
-30.0
 62
     5
 63
     7
 74
     2
 91
        2
 64
     7
 65
   257
 75
     1
175
     1
 42
179.0
 92
        8
 66
     7
 43
1.0
 76
     1
 77
     6
 78
     2
 67
     7
 79
     3
170
     0
171
     0
290
     0
174
     0
 93
        1
 44
0.0
173
     0
291
     0
 45
0.0
1001
ACAD
1000
AcDbSavedByObjectVersion
1070
     0
1001
ACAD
1000
AcRTDxfName
1000
VISUALSTYLE
  0
VISUALSTYLE
  5
FEF9
102
{ACAD_XDICTIONARY
360
FF66
102
}
102
{ACAD_REACTORS
330
FEEE
102
}
330
FEEE
100
AcDbVisualStyle
  2
Dim
 70
    11
 71
     2
 72
     2
 73
     0
 90
        0
 40
-0.6
 41
-30.0
 62
     5
 63
     7
 74
     1
 91
        4
 64
     7
 65
   257
 75
     1
175
     1
 42
1.0
 92
        8
 66
     7
 43
1.0
 76
     1
 77
     6
 78
     2
 67
     7
 79
     5
170
     0
171
     0
290
     0
174
     0
 93
        1
 44
-50.0
173
     0
291
     1
 45
0.0
1001
ACAD
1000
AcDbSavedByObjectVersion
1070
     0
1001
ACAD
1000
AcRTDxfName
1000
VISUALSTYLE
  0
VISUALSTYLE
  5
FF06
102
{ACAD_XDICTIONARY
360
FF80
102
}
102
{ACAD_REACTORS
330
FEEE
102
}
330
FEEE
100
AcDbVisualStyle
  2
EdgeColorOff
 70
    22
 71
     2
 72
     2
 73
     0
 90
        0
 40
-0.6
 41
-30.0
 62
     5
 63
     7
 74
     1
 91
        4
 64
     7
 65
   257
 75
     1
175
     1
 42
1.0
 92
        8
 66
     7
 43
1.0
 76
     1
 77
     6
 78
     2
 67
     7
 79
     5
170
     0
171
     0
290
     0
174
     0
 93
        1
 44
0.0
173
     0
291
     1
 45
0.0
1001
ACAD
1000
AcDbSavedByObjectVersion
1070
     0
1001
ACAD
1000
AcRTDxfName
1000
VISUALSTYLE
  0
VISUALSTYLE
  5
FEFD
102
{ACAD_XDICTIONARY
360
FF6E
102
}
102
{ACAD_REACTORS
330
FEEE
102
}
330
FEEE
100
AcDbVisualStyle
  2
Facepattern
 70
    15
 71
     2
 72
     2
 73
     0
 90
        0
 40
-0.6
 41
-30.0
 62
     5
 63
     7
 74
     1
 91
        4
 64
     7
 65
   257
 75
     1
175
     1
 42
1.0
 92
        8
 66
     7
 43
1.0
 76
     1
 77
     6
 78
     2
 67
     7
 79
     5
170
     0
171
     0
290
     0
174
     0
 93
        1
 44
0.0
173
     0
291
     1
 45
0.0
1001
ACAD
1000
AcDbSavedByObjectVersion
1070
     0
1001
ACAD
1000
AcRTDxfName
1000
VISUALSTYLE
  0
VISUALSTYLE
  5
FEEF
102
{ACAD_XDICTIONARY
360
FF52
102
}
102
{ACAD_REACTORS
330
FEEE
102
}
330
FEEE
100
AcDbVisualStyle
  2
Flat
 70
     0
 71
     2
 72
     1
 73
     1
 90
        2
 40
-0.6
 41
30.0
 62
     5
 63
     7
 74
     0
 91
        0
 64
     7
 65
   257
 75
     1
175
     1
 42
1.0
 92
        8
 66
     7
 43
1.0
 76
     1
 77
     6
 78
     2
 67
     7
 79
     5
170
     0
171
     0
290
     0
174
     0
 93
       13
 44
0.0
173
     0
291
     1
 45
0.0
1001
ACAD
1000
AcDbSavedByObjectVersion
1070
     0
1001
ACAD
1000
AcRTDxfName
1000
VISUALSTYLE
  0
VISUALSTYLE
  5
FEF0
102
{ACAD_XDICTIONARY
360
FF54
102
}
102
{ACAD_REACTORS
330
FEEE
102
}
330
FEEE
100
AcDbVisualStyle
  2
FlatWithEdges
 70
     1
 71
     2
 72
     1
 73
     1
 90
        2
 40
-0.6
 41
30.0
 62
     5
 63
     7
 74
     1
 91
        0
 64
     7
 65
   257
 75
     1
175
     1
 42
1.0
 92
        0
 66
   257
 43
1.0
 76
     1
 77
     6
 78
     2
 67
     7
 79
     5
170
     0
171
     0
290
     0
174
     0
 93
       13
 44
0.0
173
     0
291
     1
 45
0.0
1001
ACAD
1000
AcDbSavedByObjectVersion
1070
     0
1001
ACAD
1000
AcRTDxfName
1000
VISUALSTYLE
  0
VISUALSTYLE
  5
FEF1
102
{ACAD_XDICTIONARY
360
FF56
102
}
102
{ACAD_REACTORS
330
FEEE
102
}
330
FEEE
100
AcDbVisualStyle
  2
Gouraud
 70
     2
 71
     2
 72
     2
 73
     1
 90
        2
 40
-0.6
 41
30.0
 62
     5
 63
     7
 74
     0
 91
        0
 64
     7
 65
   257
 75
     1
175
     1
 42
1.0
 92
        0
 66
     7
 43
1.0
 76
     1
 77
     6
 78
     2
 67
     7
 79
     5
170
     0
171
     0
290
     0
174
     0
 93
       13
 44
0.0
173
     0
291
     1
 45
0.0
1001
ACAD
1000
AcDbSavedByObjectVersion
1070
     0
1001
ACAD
1000
AcRTDxfName
1000
VISUALSTYLE
  0
VISUALSTYLE
  5
FEF2
102
{ACAD_XDICTIONARY
360
FF58
102
}
102
{ACAD_REACTORS
330
FEEE
102
}
330
FEEE
100
AcDbVisualStyle
  2
GouraudWithEdges
 70
     3
 71
     2
 72
     2
 73
     1
 90
        2
 40
-0.6
 41
30.0
 62
     5
 63
     7
 74
     1
 91
        0
 64
     7
 65
   257
 75
     1
175
     1
 42
1.0
 92
        0
 66
   257
 43
1.0
 76
     1
 77
     6
 78
     2
 67
     7
 79
     5
170
     0
171
     0
290
     0
174
     0
 93
       13
 44
0.0
173
     0
291
     1
 45
0.0
1001
ACAD
1000
AcDbSavedByObjectVersion
1070
     0
1001
ACAD
1000
AcRTDxfName
1000
VISUALSTYLE
  0
VISUALSTYLE
  5
FEF6
102
{ACAD_XDICTIONARY
360
FF60
102
}
102
{ACAD_REACTORS
330
FEEE
102
}
330
FEEE
100
AcDbVisualStyle
  2
Hidden
 70
     6
 71
     1
 72
     2
 73
     2
 90
        0
 40
-0.6
 41
-30.0
 62
     5
 63
     7
 74
     2
 91
        2
 64
     7
 65
   257
 75
     2
175
     1
 42
40.0
 92
        0
 66
   257
 43
1.0
 76
     1
 77
     6
 78
     2
 67
     7
 79
     3
170
     0
171
     0
290
     0
174
     0
 93
        1
 44
0.0
173
     0
291
     0
 45
0.0
1001
ACAD
1000
AcDbSavedByObjectVersion
1070
     0
1001
ACAD
1000
AcRTDxfName
1000
VISUALSTYLE
  0
VISUALSTYLE
  5
FF04
102
{ACAD_XDICTIONARY
360
FF7C
102
}
102
{ACAD_REACTORS
330
FEEE
102
}
330
FEEE
100
AcDbVisualStyle
  2
JitterOff
 70
    20
 71
     2
 72
     2
 73
     0
 90
        0
 40
-0.6
 41
-30.0
 62
     5
 63
     7
 74
     1
 91
        4
 64
     7
 65
   257
 75
     1
175
     1
 42
1.0
 92
       10
 66
     7
 43
1.0
 76
     1
 77
     6
 78
     2
 67
     7
 79
     5
170
     0
171
     0
290
     0
174
     0
 93
        1
 44
0.0
173
     0
291
     1
 45
0.0
1001
ACAD
1000
AcDbSavedByObjectVersion
1070
     0
1001
ACAD
1000
AcRTDxfName
1000
VISUALSTYLE
  0
VISUALSTYLE
  5
FEFC
102
{ACAD_XDICTIONARY
360
FF6C
102
}
102
{ACAD_REACTORS
330
FEEE
102
}
330
FEEE
100
AcDbVisualStyle
  2
Linepattern
 70
    14
 71
     2
 72
     2
 73
     0
 90
        0
 40
-0.6
 41
-30.0
 62
     5
 63
     7
 74
     1
 91
        4
 64
     7
 65
   257
 75
     7
175
     7
 42
1.0
 92
        8
 66
     7
 43
1.0
 76
     1
 77
     6
 78
     2
 67
     7
 79
     5
170
     0
171
     0
290
     0
174
     0
 93
        1
 44
0.0
173
     0
291
     1
 45
0.0
1001
ACAD
1000
AcDbSavedByObjectVersion
1070
     0
1001
ACAD
1000
AcRTDxfName
1000
VISUALSTYLE
  0
VISUALSTYLE
  5
FF05
102
{ACAD_XDICTIONARY
360
FF7E
102
}
102
{ACAD_REACTORS
330
FEEE
102
}
330
FEEE
100
AcDbVisualStyle
  2
OverhangOff
 70
    21
 71
     2
 72
     2
 73
     0
 90
        0
 40
-0.6
 41
-30.0
 62
     5
 63
     7
 74
     1
 91
        4
 64
     7
 65
   257
 75
     1
175
     1
 42
1.0
 92
        9
 66
     7
 43
1.0
 76
     1
 77
     6
 78
     2
 67
     7
 79
     5
170
     0
171
     0
290
     0
174
     0
 93
        1
 44
0.0
173
     0
291
     1
 45
0.0
1001
ACAD
1000
AcDbSavedByObjectVersion
1070
     0
1001
ACAD
1000
AcRTDxfName
1000
VISUALSTYLE
  0
VISUALSTYLE
  5
FEF8
102
{ACAD_XDICTIONARY
360
FF64
102
}
102
{ACAD_REACTORS
330
FEEE
102
}
330
FEEE
100
AcDbVisualStyle
  2
Realistic
 70
     8
 71
     2
 72
     3
 73
     0
 90
        2
 40
-0.6
 41
30.0
 62
     5
 63
     7
 74
     0
 91
        0
 64
     7
 65
   257
 75
     1
175
     1
 42
1.0
 92
        8
 66
   257
 43
1.0
 76
     1
 77
     6
 78
     2
 67
     7
 79
     3
170
     0
171
     0
290
     0
174
     0
 93
       13
 44
0.0
173
     0
291
     0
 45
0.0
1001
ACAD
1000
AcDbSavedByObjectVersion
1070
     0
1001
ACAD
1000
AcRTDxfName
1000
VISUALSTYLE
  0
VISUALSTYLE
  5
FF03
102
{ACAD_XDICTIONARY
360
FF7A
102
}
102
{ACAD_REACTORS
330
FEEE
102
}
330
FEEE
100
AcDbVisualStyle
  2
Shaded
 70
    27
 71
     2
 72
     2
 73
     1
 90
        2
 40
-0.6
 41
30.0
 62
     5
 63
     7
 74
     0
 91
        4
 64
     7
 65
   257
 75
     1
175
     1
 42
1.0
 92
        8
 66
   257
 43
1.0
 76
     1
 77
     6
 78
     2
 67
     8
 79
     3
170
     0
171
     0
290
     0
174
     0
 93
        5
 44
0.0
173
     0
291
     0
 45
0.0
1001
ACAD
1000
AcDbSavedByObjectVersion
1070
     0
1001
ACAD
1000
AcRTDxfName
1000
VISUALSTYLE
  0
VISUALSTYLE
  5
FF02
102
{ACAD_XDICTIONARY
360
FF78
102
}
102
{ACAD_REACTORS
330
FEEE
102
}
330
FEEE
100
AcDbVisualStyle
  2
Shaded with edges
 70
    26
 71
     2
 72
     2
 73
     1
 90
        2
 40
-0.6
 41
30.0
 62
     5
 63
     7
 74
     1
 91
        2
 64
     7
 65
   257
 75
     2
175
     1
 42
1.0
 92
        8
 66
   257
 43
1.0
 76
     1
 77
     6
 78
     2
 67
     7
 79
     3
170
     0
171
     0
290
     0
174
     0
 93
        5
 44
0.0
173
     0
291
     0
 45
0.0
1001
ACAD
1000
AcDbSavedByObjectVersion
1070
     0
1001
ACAD
1000
AcRTDxfName
1000
VISUALSTYLE
  0
VISUALSTYLE
  5
FEFF
102
{ACAD_XDICTIONARY
360
FF72
102
}
102
{ACAD_REACTORS
330
FEEE
102
}
330
FEEE
100
AcDbVisualStyle
  2
Shades of Gray
 70
    23
 71
     2
 72
     2
 73
     3
 90
        0
 40
-0.6
 41
-30.0
 62
     5
 63
     7
 74
     2
 91
        2
 64
     7
 65
     7
 75
     1
175
     1
 42
40.0
 92
        8
 66
     7
 43
1.0
 76
     1
 77
     6
 78
     2
 67
     7
 79
     3
170
     0
171
     0
290
     0
174
     0
 93
        1
 44
0.0
173
     0
291
     0
 45
0.0
1001
ACAD
1000
AcDbSavedByObjectVersion
1070
     0
1001
ACAD
1000
AcRTDxfName
1000
VISUALSTYLE
  0
VISUALSTYLE
  5
FF00
102
{ACAD_XDICTIONARY
360
FF74
102
}
102
{ACAD_REACTORS
330
FEEE
102
}
330
FEEE
100
AcDbVisualStyle
  2
Sketchy
 70
    24
 71
     1
 72
     2
 73
     2
 90
        0
 40
-0.6
 41
-30.0
 62
     5
 63
     7
 74
     2
 91
        2
 64
     7
 65
     7
 75
     1
175
     1
 42
40.0
 92
       11
 66
     7
 43
1.0
 76
     1
 77
     6
 78
     2
 67
     7
 79
     6
170
     0
171
     0
290
     0
174
     0
 93
        1
 44
0.0
173
     0
291
     0
 45
0.0
1001
ACAD
1000
AcDbSavedByObjectVersion
1070
     0
1001
ACAD
1000
AcRTDxfName
1000
VISUALSTYLE
  0
VISUALSTYLE
  5
FEFB
102
{ACAD_XDICTIONARY
360
FF6A
102
}
102
{ACAD_REACTORS
330
FEEE
102
}
330
FEEE
100
AcDbVisualStyle
  2
Thicken
 70
    13
 71
     2
 72
     2
 73
     0
 90
        0
 40
-0.6
 41
-30.0
 62
     5
 63
     7
 74
     1
 91
        4
 64
     7
 65
   257
 75
     1
175
     1
 42
1.0
 92
       12
 66
     7
 43
1.0
 76
     1
 77
     6
 78
     2
 67
     7
 79
     5
170
     0
171
     0
290
     0
174
     0
 93
        1
 44
0.0
173
     0
291
     1
 45
0.0
1001
ACAD
1000
AcDbSavedByObjectVersion
1070
     0
1001
ACAD
1000
AcRTDxfName
1000
VISUALSTYLE
  0
VISUALSTYLE
  5
FEF5
102
{ACAD_XDICTIONARY
360
FF5E
102
}
102
{ACAD_REACTORS
330
FEEE
102
}
330
FEEE
100
AcDbVisualStyle
  2
Wireframe
 70
     5
 71
     0
 72
     2
 73
     0
 90
        0
 40
-0.6
 41
-30.0
 62
     5
 63
     7
 74
     1
 91
        4
 64
     7
 65
   257
 75
     1
175
     1
 42
1.0
 92
        0
 66
   257
 43
1.0
 76
     1
 77
     6
 78
     2
 67
     7
 79
     3
170
     0
171
     0
290
     0
174
     0
 93
        1
 44
0.0
173
     0
291
     0
 45
0.0
1001
ACAD
1000
AcDbSavedByObjectVersion
1070
     0
1001
ACAD
1000
AcRTDxfName
1000
VISUALSTYLE
  0
VISUALSTYLE
  5
FF01
102
{ACAD_XDICTIONARY
360
FF76
102
}
102
{ACAD_REACTORS
330
FEEE
102
}
330
FEEE
100
AcDbVisualStyle
  2
X-Ray
 70
    25
 71
     2
 72
     2
 73
     1
 90
        1
 40
0.5
 41
-30.0
 62
     5
 63
     7
 74
     1
 91
        0
 64
     7
 65
   257
 75
     1
175
     1
 42
1.0
 92
        8
 66
     7
 43
1.0
 76
     1
 77
     6
 78
     2
 67
     7
 79
     3
170
     0
171
     0
290
     0
174
     0
 93
       13
 44
0.0
173
     0
291
     0
 45
0.0
1001
ACAD
1000
AcDbSavedByObjectVersion
1070
     0
1001
ACAD
1000
AcRTDxfName
1000
VISUALSTYLE
  0
DICTIONARYVAR
  5
FF3E
102
{ACAD_REACTORS
330
B81
102
}
330
B81
100
DictionaryVariables
280
     0
  1
1:1
  0
DICTIONARYVAR
  5
FF3B
102
{ACAD_REACTORS
330
B81
102
}
330
B81
100
DictionaryVariables
280
     0
  1
STANDARD
  0
DICTIONARYVAR
  5
127E
102
{ACAD_REACTORS
330
B81
102
}
330
B81
100
DictionaryVariables
280
     0
  1
STANDARD
  0
DICTIONARYVAR
  5
FF3C
102
{ACAD_REACTORS
330
B81
102
}
330
B81
100
DictionaryVariables
280
     0
  1
Metric50
  0
DICTIONARYVAR
  5
FF3D
102
{ACAD_REACTORS
330
B81
102
}
330
B81
100
DictionaryVariables
280
     0
  1
Metric50
  0
DICTIONARYVAR
  5
FF41
102
{ACAD_REACTORS
330
B81
102
}
330
B81
100
DictionaryVariables
280
     0
  1
1
  0
DICTIONARYVAR
  5
FF3F
102
{ACAD_REACTORS
330
B81
102
}
330
B81
100
DictionaryVariables
280
     0
  1
0
  0
DICTIONARYVAR
  5
FF90
102
{ACAD_REACTORS
330
B81
102
}
330
B81
100
DictionaryVariables
280
     0
  1

  0
DICTIONARYVAR
  5
B82
102
{ACAD_REACTORS
330
B81
102
}
330
B81
100
DictionaryVariables
280
     0
  1
96
  0
DICTIONARYVAR
  5
FF40
102
{ACAD_REACTORS
330
B81
102
}
330
B81
100
DictionaryVariables
280
     0
  1
0
  0
DICTIONARY
  5
FF87
330
FF1E
100
AcDbDictionary
280
     1
281
     1
  3
ACAD_XREC_ROUNDTRIP
360
FF88
  0
DICTIONARY
  5
FF94
330
1E
100
AcDbDictionary
280
     1
281
     1
  3
ACAD_XREC_ROUNDTRIP
360
FF95
  0
DICTIONARY
  5
FF98
330
26
100
AcDbDictionary
280
     1
281
     1
  3
ACAD_XREC_ROUNDTRIP
360
FF99
  0
DICTIONARY
  5
FF96
330
22
100
AcDbDictionary
280
     1
281
     1
  3
ACAD_XREC_ROUNDTRIP
360
FF97
  0
DICTIONARY
  5
FEE7
330
FEE6
100
AcDbDictionary
280
     1
281
     1
  3
ACAD_XREC_ROUNDTRIP
360
FF51
  3
BUMPTILE
360
FEE9
  3
DIFFUSETILE
360
FEE8
  3
OPACITYTILE
360
FEEC
  3
REFLECTIONTILE
360
FEEB
  3
REFRACTIONTILE
360
FEED
  3
SPECULARTILE
360
FEEA
  0
DICTIONARY
  5
FEDF
330
FEDE
100
AcDbDictionary
280
     1
281
     1
  3
ACAD_XREC_ROUNDTRIP
360
FF50
  3
BUMPTILE
360
FEE1
  3
DIFFUSETILE
360
FEE0
  3
OPACITYTILE
360
FEE4
  3
REFLECTIONTILE
360
FEE3
  3
REFRACTIONTILE
360
FEE5
  3
SPECULARTILE
360
FEE2
  0
DICTIONARY
  5
FF4E
330
67D1
100
AcDbDictionary
280
     1
281
     1
  3
ACAD_XREC_ROUNDTRIP
360
FF4F
  0
DICTIONARY
  5
FF83
330
FF1A
100
AcDbDictionary
280
     1
281
     1
  3
ACAD_XREC_ROUNDTRIP
360
FF84
  0
DICTIONARY
  5
FF85
330
FF1C
100
AcDbDictionary
280
     1
281
     1
  3
ACAD_XREC_ROUNDTRIP
360
FF86
  0
DICTIONARY
  5
FF43
330
1277
100
AcDbDictionary
280
     1
281
     1
  3
ACAD_ROUNDTRIP_2008_TABLESTYLE_CELLSTYLEMAP
360
FF44
  3
ACAD_XREC_ROUNDTRIP
360
FF4D
  0
DICTIONARY
  5
FF5C
330
FEF4
100
AcDbDictionary
280
     1
281
     1
  3
ACAD_XREC_ROUNDTRIP
360
FF5D
  0
DICTIONARY
  5
FF5A
330
FEF3
100
AcDbDictionary
280
     1
281
     1
  3
ACAD_XREC_ROUNDTRIP
360
FF5B
  0
DICTIONARY
  5
FF68
330
FEFA
100
AcDbDictionary
280
     1
281
     1
  3
ACAD_XREC_ROUNDTRIP
360
FF69
  0
DICTIONARY
  5
FF70
330
FEFE
100
AcDbDictionary
280
     1
281
     1
  3
ACAD_XREC_ROUNDTRIP
360
FF71
  0
DICTIONARY
  5
FF62
330
FEF7
100
AcDbDictionary
280
     1
281
     1
  3
ACAD_XREC_ROUNDTRIP
360
FF63
  0
DICTIONARY
  5
FF66
330
FEF9
100
AcDbDictionary
280
     1
281
     1
  3
ACAD_XREC_ROUNDTRIP
360
FF67
  0
DICTIONARY
  5
FF80
330
FF06
100
AcDbDictionary
280
     1
281
     1
  3
ACAD_XREC_ROUNDTRIP
360
FF81
  0
DICTIONARY
  5
FF6E
330
FEFD
100
AcDbDictionary
280
     1
281
     1
  3
ACAD_XREC_ROUNDTRIP
360
FF6F
  0
DICTIONARY
  5
FF52
330
FEEF
100
AcDbDictionary
280
     1
281
     1
  3
ACAD_XREC_ROUNDTRIP
360
FF53
  0
DICTIONARY
  5
FF54
330
FEF0
100
AcDbDictionary
280
     1
281
     1
  3
ACAD_XREC_ROUNDTRIP
360
FF55
  0
DICTIONARY
  5
FF56
330
FEF1
100
AcDbDictionary
280
     1
281
     1
  3
ACAD_XREC_ROUNDTRIP
360
FF57
  0
DICTIONARY
  5
FF58
330
FEF2
100
AcDbDictionary
280
     1
281
     1
  3
ACAD_XREC_ROUNDTRIP
360
FF59
  0
DICTIONARY
  5
FF60
330
FEF6
100
AcDbDictionary
280
     1
281
     1
  3
ACAD_XREC_ROUNDTRIP
360
FF61
  0
DICTIONARY
  5
FF7C
330
FF04
100
AcDbDictionary
280
     1
281
     1
  3
ACAD_XREC_ROUNDTRIP
360
FF7D
  0
DICTIONARY
  5
FF6C
330
FEFC
100
AcDbDictionary
280
     1
281
     1
  3
ACAD_XREC_ROUNDTRIP
360
FF6D
  0
DICTIONARY
  5
FF7E
330
FF05
100
AcDbDictionary
280
     1
281
     1
  3
ACAD_XREC_ROUNDTRIP
360
FF7F
  0
DICTIONARY
  5
FF64
330
FEF8
100
AcDbDictionary
280
     1
281
     1
  3
ACAD_XREC_ROUNDTRIP
360
FF65
  0
DICTIONARY
  5
FF7A
330
FF03
100
AcDbDictionary
280
     1
281
     1
  3
ACAD_XREC_ROUNDTRIP
360
FF7B
  0
DICTIONARY
  5
FF78
330
FF02
100
AcDbDictionary
280
     1
281
     1
  3
ACAD_XREC_ROUNDTRIP
360
FF79
  0
DICTIONARY
  5
FF72
330
FEFF
100
AcDbDictionary
280
     1
281
     1
  3
ACAD_XREC_ROUNDTRIP
360
FF73
  0
DICTIONARY
  5
FF74
330
FF00
100
AcDbDictionary
280
     1
281
     1
  3
ACAD_XREC_ROUNDTRIP
360
FF75
  0
DICTIONARY
  5
FF6A
330
FEFB
100
AcDbDictionary
280
     1
281
     1
  3
ACAD_XREC_ROUNDTRIP
360
FF6B
  0
DICTIONARY
  5
FF5E
330
FEF5
100
AcDbDictionary
280
     1
281
     1
  3
ACAD_XREC_ROUNDTRIP
360
FF5F
  0
DICTIONARY
  5
FF76
330
FF01
100
AcDbDictionary
280
     1
281
     1
  3
ACAD_XREC_ROUNDTRIP
360
FF77
  0
XRECORD
  5
FF88
102
{ACAD_REACTORS
330
FF87
102
}
330
FF87
100
AcDbXrecord
280
     1
102
DISPLAYNAME
  1
Metric50
102
FLAGS
 90
        0
  0
XRECORD
  5
FF95
102
{ACAD_REACTORS
330
FF94
102
}
330
FF94
100
AcDbXrecord
280
     1
102
SHADEPLOT
 70
     0
102
SHADEPLOTRESLEVEL
 70
     2
102
SHADEPLOTCUSTOMDPI
 70
   300
  0
XRECORD
  5
FF99
102
{ACAD_REACTORS
330
FF98
102
}
330
FF98
100
AcDbXrecord
280
     1
102
SHADEPLOT
 70
     0
102
SHADEPLOTRESLEVEL
 70
     2
102
SHADEPLOTCUSTOMDPI
 70
   300
  0
XRECORD
  5
FF97
102
{ACAD_REACTORS
330
FF96
102
}
330
FF96
100
AcDbXrecord
280
     1
102
SHADEPLOT
 70
     0
102
SHADEPLOTRESLEVEL
 70
     2
102
SHADEPLOTCUSTOMDPI
 70
   300
  0
XRECORD
  5
FF51
102
{ACAD_REACTORS
330
FEE7
102
}
330
FEE7
100
AcDbXrecord
280
     1
102
MATERIAL
148
0.0
149
0.0
149
0.0
 93
        0
 94
      127
282
     0
 72
     0
 77
     0
171
     0
175
     0
179
     0
273
     0
  0
XRECORD
  5
FEE9
102
{ACAD_REACTORS
330
FEE7
102
}
330
FEE7
100
AcDbXrecord
280
     1
270
     1
271
     1
  0
XRECORD
  5
FEE8
102
{ACAD_REACTORS
330
FEE7
102
}
330
FEE7
100
AcDbXrecord
280
     1
270
     1
271
     1
  0
XRECORD
  5
FEEC
102
{ACAD_REACTORS
330
FEE7
102
}
330
FEE7
100
AcDbXrecord
280
     1
270
     1
271
     1
  0
XRECORD
  5
FEEB
102
{ACAD_REACTORS
330
FEE7
102
}
330
FEE7
100
AcDbXrecord
280
     1
270
     1
271
     1
  0
XRECORD
  5
FEED
102
{ACAD_REACTORS
330
FEE7
102
}
330
FEE7
100
AcDbXrecord
280
     1
270
     1
271
     1
  0
XRECORD
  5
FEEA
102
{ACAD_REACTORS
330
FEE7
102
}
330
FEE7
100
AcDbXrecord
280
     1
270
     1
271
     1
  0
XRECORD
  5
FF50
102
{ACAD_REACTORS
330
FEDF
102
}
330
FEDF
100
AcDbXrecord
280
     1
102
MATERIAL
148
0.0
149
0.0
149
0.0
 93
        0
 94
      127
282
     0
 72
     0
 77
     0
171
     0
175
     0
179
     0
273
     0
  0
XRECORD
  5
FEE1
102
{ACAD_REACTORS
330
FEDF
102
}
330
FEDF
100
AcDbXrecord
280
     1
270
     1
271
     1
  0
XRECORD
  5
FEE0
102
{ACAD_REACTORS
330
FEDF
102
}
330
FEDF
100
AcDbXrecord
280
     1
270
     1
271
     1
  0
XRECORD
  5
FEE4
102
{ACAD_REACTORS
330
FEDF
102
}
330
FEDF
100
AcDbXrecord
280
     1
270
     1
271
     1
  0
XRECORD
  5
FEE3
102
{ACAD_REACTORS
330
FEDF
102
}
330
FEDF
100
AcDbXrecord
280
     1
270
     1
271
     1
  0
XRECORD
  5
FEE5
102
{ACAD_REACTORS
330
FEDF
102
}
330
FEDF
100
AcDbXrecord
280
     1
270
     1
271
     1
  0
XRECORD
  5
FEE2
102
{ACAD_REACTORS
330
FEDF
102
}
330
FEDF
100
AcDbXrecord
280
     1
270
     1
271
     1
  0
XRECORD
  5
FF4F
102
{ACAD_REACTORS
330
FF4E
102
}
330
FF4E
100
AcDbXrecord
280
     1
102
MATERIAL
148
0.0
149
0.0
149
0.0
 93
        0
 94
       63
282
     0
 72
     1
 77
     1
171
     1
175
     1
179
     1
273
     0
  0
XRECORD
  5
FF84
102
{ACAD_REACTORS
330
FF83
102
}
330
FF83
100
AcDbXrecord
280
     1
102
ACAD_ROUNDTRIP_2012_MLEADER_STYLE
298
     1
  0
XRECORD
  5
FF86
102
{ACAD_REACTORS
330
FF85
102
}
330
FF85
100
AcDbXrecord
280
     1
102
DISPLAYNAME
  1
Metric50
102
FLAGS
 90
        0
  0
CELLSTYLEMAP
  5
FF44
102
{ACAD_REACTORS
330
FF43
102
}
330
FF43
100
AcDbCellStyleMap
 90
        3
300
CELLSTYLE
  1
TABLEFORMAT_BEGIN
 90
        5
170
     1
 91
        0
 92
    32768
 62
   257
 93
        1
300
CONTENTFORMAT
  1
CONTENTFORMAT_BEGIN
 90
        0
 91
        0
 92
        4
 93
        0
300

 40
0.0
140
1.0
 94
        5
 62
     0
340
11
144
6.0
309
CONTENTFORMAT_END
171
     1
301
MARGIN
  1
CELLMARGIN_BEGIN
 40
1.5
 40
1.5
 40
1.5
 40
1.5
 40
0.18
 40
0.18
309
CELLMARGIN_END
 94
        6
 95
        1
302
GRIDFORMAT
  1
GRIDFORMAT_BEGIN
 90
        0
 91
        1
 62
     0
 92
       -2
340
0
 93
        0
 40
0.045
309
GRIDFORMAT_END
 95
        2
302
GRIDFORMAT
  1
GRIDFORMAT_BEGIN
 90
        0
 91
        1
 62
     0
 92
       -2
340
0
 93
        0
 40
0.045
309
GRIDFORMAT_END
 95
        4
302
GRIDFORMAT
  1
GRIDFORMAT_BEGIN
 90
        0
 91
        1
 62
     0
 92
       -2
340
0
 93
        0
 40
0.045
309
GRIDFORMAT_END
 95
        8
302
GRIDFORMAT
  1
GRIDFORMAT_BEGIN
 90
        0
 91
        1
 62
     0
 92
       -2
340
0
 93
        0
 40
0.045
309
GRIDFORMAT_END
 95
       16
302
GRIDFORMAT
  1
GRIDFORMAT_BEGIN
 90
        0
 91
        1
 62
     0
 92
       -2
340
0
 93
        0
 40
0.045
309
GRIDFORMAT_END
 95
       32
302
GRIDFORMAT
  1
GRIDFORMAT_BEGIN
 90
        0
 91
        1
 62
     0
 92
       -2
340
0
 93
        0
 40
0.045
309
GRIDFORMAT_END
309
TABLEFORMAT_END
  1
CELLSTYLE_BEGIN
 90
        1
 91
        1
300
_TITLE
309
CELLSTYLE_END
300
CELLSTYLE
  1
TABLEFORMAT_BEGIN
 90
        5
170
     1
 91
        0
 92
        0
 62
   257
 93
        1
300
CONTENTFORMAT
  1
CONTENTFORMAT_BEGIN
 90
        0
 91
        0
 92
        4
 93
        0
300

 40
0.0
140
1.0
 94
        5
 62
     0
340
11
144
4.5
309
CONTENTFORMAT_END
171
     1
301
MARGIN
  1
CELLMARGIN_BEGIN
 40
1.5
 40
1.5
 40
1.5
 40
1.5
 40
0.18
 40
0.18
309
CELLMARGIN_END
 94
        6
 95
        1
302
GRIDFORMAT
  1
GRIDFORMAT_BEGIN
 90
        0
 91
        1
 62
     0
 92
       -2
340
0
 93
        0
 40
0.045
309
GRIDFORMAT_END
 95
        2
302
GRIDFORMAT
  1
GRIDFORMAT_BEGIN
 90
        0
 91
        1
 62
     0
 92
       -2
340
0
 93
        0
 40
0.045
309
GRIDFORMAT_END
 95
        4
302
GRIDFORMAT
  1
GRIDFORMAT_BEGIN
 90
        0
 91
        1
 62
     0
 92
       -2
340
0
 93
        0
 40
0.045
309
GRIDFORMAT_END
 95
        8
302
GRIDFORMAT
  1
GRIDFORMAT_BEGIN
 90
        0
 91
        1
 62
     0
 92
       -2
340
0
 93
        0
 40
0.045
309
GRIDFORMAT_END
 95
       16
302
GRIDFORMAT
  1
GRIDFORMAT_BEGIN
 90
        0
 91
        1
 62
     0
 92
       -2
340
0
 93
        0
 40
0.045
309
GRIDFORMAT_END
 95
       32
302
GRIDFORMAT
  1
GRIDFORMAT_BEGIN
 90
        0
 91
        1
 62
     0
 92
       -2
340
0
 93
        0
 40
0.045
309
GRIDFORMAT_END
309
TABLEFORMAT_END
  1
CELLSTYLE_BEGIN
 90
        2
 91
        1
300
_HEADER
309
CELLSTYLE_END
300
CELLSTYLE
  1
TABLEFORMAT_BEGIN
 90
        5
170
     1
 91
        0
 92
        0
 62
   257
 93
        1
300
CONTENTFORMAT
  1
CONTENTFORMAT_BEGIN
 90
        0
 91
        0
 92
        4
 93
        0
300

 40
0.0
140
1.0
 94
        2
 62
     0
340
11
144
4.5
309
CONTENTFORMAT_END
171
     1
301
MARGIN
  1
CELLMARGIN_BEGIN
 40
1.5
 40
1.5
 40
1.5
 40
1.5
 40
0.18
 40
0.18
309
CELLMARGIN_END
 94
        6
 95
        1
302
GRIDFORMAT
  1
GRIDFORMAT_BEGIN
 90
        0
 91
        1
 62
     0
 92
       -2
340
0
 93
        0
 40
0.045
309
GRIDFORMAT_END
 95
        2
302
GRIDFORMAT
  1
GRIDFORMAT_BEGIN
 90
        0
 91
        1
 62
     0
 92
       -2
340
0
 93
        0
 40
0.045
309
GRIDFORMAT_END
 95
        4
302
GRIDFORMAT
  1
GRIDFORMAT_BEGIN
 90
        0
 91
        1
 62
     0
 92
       -2
340
0
 93
        0
 40
0.045
309
GRIDFORMAT_END
 95
        8
302
GRIDFORMAT
  1
GRIDFORMAT_BEGIN
 90
        0
 91
        1
 62
     0
 92
       -2
340
0
 93
        0
 40
0.045
309
GRIDFORMAT_END
 95
       16
302
GRIDFORMAT
  1
GRIDFORMAT_BEGIN
 90
        0
 91
        1
 62
     0
 92
       -2
340
0
 93
        0
 40
0.045
309
GRIDFORMAT_END
 95
       32
302
GRIDFORMAT
  1
GRIDFORMAT_BEGIN
 90
        0
 91
        1
 62
     0
 92
       -2
340
0
 93
        0
 40
0.045
309
GRIDFORMAT_END
309
TABLEFORMAT_END
  1
CELLSTYLE_BEGIN
 90
        3
 91
        2
300
_DATA
309
CELLSTYLE_END
1001
ACAD
1000
AcRTDxfName
1000
CELLSTYLEMAP
  0
XRECORD
  5
FF4D
102
{ACAD_REACTORS
330
FF43
102
}
330
FF43
100
AcDbXrecord
280
     1
102
ACAD_ROUNDTRIP_PRE2007_TABLESTYLE
 90
        4
 91
        0
  1

 92
        4
 93
        0
  2

 94
        4
 95
        0
  3

  0
XRECORD
  5
FF5D
102
{ACAD_REACTORS
330
FF5C
102
}
330
FF5C
100
AcDbXrecord
280
     1
102
RTVSPost2010Prop28
280
     1
102
RTVSPost2010PropOp28
 70
     1
102
RTVSPost2010Prop29
280
     1
102
RTVSPost2010PropOp29
 70
     1
102
RTVSPost2010Prop30
280
     0
102
RTVSPost2010PropOp30
 70
     1
102
RTVSPost2010Prop31
280
     0
102
RTVSPost2010PropOp31
 70
     1
102
RTVSPost2010Prop32
280
     0
102
RTVSPost2010PropOp32
 70
     1
102
RTVSPost2010Prop33
280
     0
102
RTVSPost2010PropOp33
 70
     1
102
RTVSPost2010Prop34
280
     0
102
RTVSPost2010PropOp34
 70
     1
102
RTVSPost2010Prop35
280
     0
102
RTVSPost2010PropOp35
 70
     1
102
RTVSPost2010Prop36
280
     0
102
RTVSPost2010PropOp36
 70
     1
102
RTVSPost2010Prop37
 90
       50
102
RTVSPost2010PropOp37
 70
     1
102
RTVSPost2010Prop38
140
0.0
102
RTVSPost2010PropOp38
 70
     1
102
RTVSPost2010Prop39
140
1.0
102
RTVSPost2010PropOp39
 70
     1
102
RTVSPost2010Prop40
 90
        0
102
RTVSPost2010PropOp40
 70
     1
102
RTVSPost2010Prop41ColorIndex
 90
       18
102
RTVSPost2010Prop41ColorRGB
 90
        0
102
RTVSPost2010PropOp41
 70
     1
102
RTVSPost2010Prop42
 90
       50
102
RTVSPost2010PropOp42
 70
     1
102
RTVSPost2010Prop43
 90
        3
102
RTVSPost2010PropOp43
 70
     1
102
RTVSPost2010Prop44ColorIndex
 90
        5
102
RTVSPost2010Prop44ColorRGB
 90
      255
102
RTVSPost2010PropOp44
 70
     1
102
RTVSPost2010Prop45
280
     0
102
RTVSPost2010PropOp45
 70
     1
102
RTVSPost2010Prop46
 90
       50
102
RTVSPost2010PropOp46
 70
     1
102
RTVSPost2010Prop47
 90
       50
102
RTVSPost2010PropOp47
 70
     1
102
RTVSPost2010Prop48
 90
       50
102
RTVSPost2010PropOp48
 70
     1
102
RTVSPost2010Prop49
280
     0
102
RTVSPost2010PropOp49
 70
     1
102
RTVSPost2010Prop50
 90
       50
102
RTVSPost2010PropOp50
 70
     1
102
RTVSPost2010Prop51ColorIndex
 90
      256
102
RTVSPost2010Prop51ColorRGB
 90
-16777216
102
RTVSPost2010PropOp51
 70
     0
102
RTVSPost2010Prop52
140
1.0
102
RTVSPost2010PropOp52
 70
     0
102
RTVSPost2010Prop53
 90
        2
102
RTVSPost2010PropOp53
 70
     1
102
RTVSPost2010Prop54
  1
strokes_ogs.tif
102
RTVSPost2010PropOp54
 70
     1
102
RTVSPost2010Prop55
280
     0
102
RTVSPost2010PropOp55
 70
     1
102
RTVSPost2010Prop56
140
1.0
102
RTVSPost2010PropOp56
 70
     1
102
RTVSPost2010Prop57
140
1.0
102
RTVSPost2010PropOp57
 70
     1
102
RTVSPropertyOp0
 70
     1
102
RTVSPropertyOp1
 70
     1
102
RTVSPropertyOp2
 70
     1
102
RTVSPropertyOp3
 70
     1
102
RTVSPropertyOp4
 70
     1
102
RTVSPropertyOp5
 70
     1
102
RTVSPropertyOp6
 70
     1
102
RTVSPropertyOp7
 70
     1
102
RTVSPropertyOp8
 70
     1
102
RTVSPropertyOp9
 70
     1
102
RTVSPropertyOp10
 70
     1
102
RTVSPropertyOp11
 70
     1
102
RTVSPropertyOp12
 70
     1
102
RTVSPropertyOp13
 70
     1
102
RTVSPropertyOp14
 70
     1
102
RTVSPropertyOp15
 70
     1
102
RTVSPropertyOp16
 70
     1
102
RTVSPropertyOp17
 70
     1
102
RTVSPropertyOp18
 70
     1
102
RTVSPropertyOp19
 70
     1
102
RTVSPropertyOp20
 70
     1
102
RTVSPropertyOp21
 70
     1
102
RTVSPropertyOp22
 70
     1
102
RTVSPropertyOp23
 70
     1
102
RTVSPropertyOp24
 70
     1
102
RTVSPropertyOp25
 70
     1
102
RTVSPropertyOp26
 70
     1
102
RTVSPropertyOp27
 70
     1
102
RTVSPropertyOp28
 70
     1
102
RTVSPropertyOp29
 70
     1
102
RTVSPropertyOp30
 70
     1
102
RTVSPropertyOp31
 70
     1
102
RTVSPropertyOp32
 70
     1
102
RTVSPropertyOp33
 70
     1
102
RTVSPropertyOp34
 70
     1
102
RTVSPropertyOp35
 70
     1
102
RTVSPropertyOp36
 70
     1
102
RTVSPropertyOp37
 70
     1
102
RTVSPropertyOp38
 70
     1
102
RTVSPropertyOp39
 70
     1
102
RTVSPropertyOp40
 70
     1
102
RTVSPropertyOp41
 70
     1
102
RTVSPropertyOp42
 70
     1
102
RTVSPropertyOp43
 70
     1
102
RTVSPropertyOp44
 70
     1
102
RTVSPropertyOp45
 70
     1
102
RTVSPropertyOp46
 70
     1
102
RTVSPropertyOp47
 70
     1
102
RTVSPropertyOp48
 70
     1
102
RTVSPropertyOp49
 70
     1
102
RTVSPropertyOp50
 70
     1
102
RTVSPropertyOp51
 70
     0
102
RTVSPropertyOp52
 70
     0
102
RTVSPropertyOp53
 70
     1
102
RTVSPropertyOp54
 70
     1
102
RTVSPropertyOp55
 70
     1
102
RTVSPropertyOp56
 70
     1
102
RTVSPropertyOp57
 70
     1
102
RTVSPropertyOp58
 70
     1
102
RTVSPropertyOp59
 70
     1
102
RTVSPropertyOp60
 70
     1
102
RTVSPropertyOp61
 70
     1
102
RTVSPropertyOp62
 70
     1
  0
XRECORD
  5
FF5B
102
{ACAD_REACTORS
330
FF5A
102
}
330
FF5A
100
AcDbXrecord
280
     1
102
RTVSPost2010Prop28
280
     0
102
RTVSPost2010PropOp28
 70
     1
102
RTVSPost2010Prop29
280
     1
102
RTVSPost2010PropOp29
 70
     1
102
RTVSPost2010Prop30
280
     1
102
RTVSPost2010PropOp30
 70
     1
102
RTVSPost2010Prop31
280
     0
102
RTVSPost2010PropOp31
 70
     1
102
RTVSPost2010Prop32
280
     0
102
RTVSPost2010PropOp32
 70
     1
102
RTVSPost2010Prop33
280
     0
102
RTVSPost2010PropOp33
 70
     1
102
RTVSPost2010Prop34
280
     0
102
RTVSPost2010PropOp34
 70
     1
102
RTVSPost2010Prop35
280
     0
102
RTVSPost2010PropOp35
 70
     1
102
RTVSPost2010Prop36
280
     0
102
RTVSPost2010PropOp36
 70
     1
102
RTVSPost2010Prop37
 90
       50
102
RTVSPost2010PropOp37
 70
     1
102
RTVSPost2010Prop38
140
0.0
102
RTVSPost2010PropOp38
 70
     1
102
RTVSPost2010Prop39
140
1.0
102
RTVSPost2010PropOp39
 70
     1
102
RTVSPost2010Prop40
 90
        0
102
RTVSPost2010PropOp40
 70
     1
102
RTVSPost2010Prop41ColorIndex
 90
       18
102
RTVSPost2010Prop41ColorRGB
 90
        0
102
RTVSPost2010PropOp41
 70
     1
102
RTVSPost2010Prop42
 90
       50
102
RTVSPost2010PropOp42
 70
     1
102
RTVSPost2010Prop43
 90
        3
102
RTVSPost2010PropOp43
 70
     1
102
RTVSPost2010Prop44ColorIndex
 90
        5
102
RTVSPost2010Prop44ColorRGB
 90
      255
102
RTVSPost2010PropOp44
 70
     1
102
RTVSPost2010Prop45
280
     0
102
RTVSPost2010PropOp45
 70
     1
102
RTVSPost2010Prop46
 90
       50
102
RTVSPost2010PropOp46
 70
     1
102
RTVSPost2010Prop47
 90
       50
102
RTVSPost2010PropOp47
 70
     1
102
RTVSPost2010Prop48
 90
       50
102
RTVSPost2010PropOp48
 70
     1
102
RTVSPost2010Prop49
280
     0
102
RTVSPost2010PropOp49
 70
     1
102
RTVSPost2010Prop50
 90
       50
102
RTVSPost2010PropOp50
 70
     1
102
RTVSPost2010Prop51ColorIndex
 90
      256
102
RTVSPost2010Prop51ColorRGB
 90
-16777216
102
RTVSPost2010PropOp51
 70
     0
102
RTVSPost2010Prop52
140
1.0
102
RTVSPost2010PropOp52
 70
     0
102
RTVSPost2010Prop53
 90
        2
102
RTVSPost2010PropOp53
 70
     1
102
RTVSPost2010Prop54
  1
strokes_ogs.tif
102
RTVSPost2010PropOp54
 70
     1
102
RTVSPost2010Prop55
280
     0
102
RTVSPost2010PropOp55
 70
     1
102
RTVSPost2010Prop56
140
1.0
102
RTVSPost2010PropOp56
 70
     1
102
RTVSPost2010Prop57
140
1.0
102
RTVSPost2010PropOp57
 70
     1
102
RTVSPropertyOp0
 70
     1
102
RTVSPropertyOp1
 70
     1
102
RTVSPropertyOp2
 70
     1
102
RTVSPropertyOp3
 70
     1
102
RTVSPropertyOp4
 70
     1
102
RTVSPropertyOp5
 70
     1
102
RTVSPropertyOp6
 70
     1
102
RTVSPropertyOp7
 70
     1
102
RTVSPropertyOp8
 70
     1
102
RTVSPropertyOp9
 70
     1
102
RTVSPropertyOp10
 70
     1
102
RTVSPropertyOp11
 70
     1
102
RTVSPropertyOp12
 70
     1
102
RTVSPropertyOp13
 70
     1
102
RTVSPropertyOp14
 70
     1
102
RTVSPropertyOp15
 70
     1
102
RTVSPropertyOp16
 70
     1
102
RTVSPropertyOp17
 70
     1
102
RTVSPropertyOp18
 70
     1
102
RTVSPropertyOp19
 70
     1
102
RTVSPropertyOp20
 70
     1
102
RTVSPropertyOp21
 70
     1
102
RTVSPropertyOp22
 70
     1
102
RTVSPropertyOp23
 70
     1
102
RTVSPropertyOp24
 70
     1
102
RTVSPropertyOp25
 70
     1
102
RTVSPropertyOp26
 70
     1
102
RTVSPropertyOp27
 70
     1
102
RTVSPropertyOp28
 70
     1
102
RTVSPropertyOp29
 70
     1
102
RTVSPropertyOp30
 70
     1
102
RTVSPropertyOp31
 70
     1
102
RTVSPropertyOp32
 70
     1
102
RTVSPropertyOp33
 70
     1
102
RTVSPropertyOp34
 70
     1
102
RTVSPropertyOp35
 70
     1
102
RTVSPropertyOp36
 70
     1
102
RTVSPropertyOp37
 70
     1
102
RTVSPropertyOp38
 70
     1
102
RTVSPropertyOp39
 70
     1
102
RTVSPropertyOp40
 70
     1
102
RTVSPropertyOp41
 70
     1
102
RTVSPropertyOp42
 70
     1
102
RTVSPropertyOp43
 70
     1
102
RTVSPropertyOp44
 70
     1
102
RTVSPropertyOp45
 70
     1
102
RTVSPropertyOp46
 70
     1
102
RTVSPropertyOp47
 70
     1
102
RTVSPropertyOp48
 70
     1
102
RTVSPropertyOp49
 70
     1
102
RTVSPropertyOp50
 70
     1
102
RTVSPropertyOp51
 70
     0
102
RTVSPropertyOp52
 70
     0
102
RTVSPropertyOp53
 70
     1
102
RTVSPropertyOp54
 70
     1
102
RTVSPropertyOp55
 70
     1
102
RTVSPropertyOp56
 70
     1
102
RTVSPropertyOp57
 70
     1
102
RTVSPropertyOp58
 70
     1
102
RTVSPropertyOp59
 70
     1
102
RTVSPropertyOp60
 70
     1
102
RTVSPropertyOp61
 70
     1
102
RTVSPropertyOp62
 70
     1
  0
XRECORD
  5
FF69
102
{ACAD_REACTORS
330
FF68
102
}
330
FF68
100
AcDbXrecord
280
     1
102
RTVSPost2010Prop28
280
     0
102
RTVSPost2010PropOp28
 70
     1
102
RTVSPost2010Prop29
280
     1
102
RTVSPost2010PropOp29
 70
     1
102
RTVSPost2010Prop30
280
     1
102
RTVSPost2010PropOp30
 70
     1
102
RTVSPost2010Prop31
280
     0
102
RTVSPost2010PropOp31
 70
     1
102
RTVSPost2010Prop32
280
     0
102
RTVSPost2010PropOp32
 70
     1
102
RTVSPost2010Prop33
280
     0
102
RTVSPost2010PropOp33
 70
     1
102
RTVSPost2010Prop34
280
     0
102
RTVSPost2010PropOp34
 70
     1
102
RTVSPost2010Prop35
280
     0
102
RTVSPost2010PropOp35
 70
     1
102
RTVSPost2010Prop36
280
     0
102
RTVSPost2010PropOp36
 70
     1
102
RTVSPost2010Prop37
 90
       50
102
RTVSPost2010PropOp37
 70
     1
102
RTVSPost2010Prop38
140
0.0
102
RTVSPost2010PropOp38
 70
     1
102
RTVSPost2010Prop39
140
1.0
102
RTVSPost2010PropOp39
 70
     1
102
RTVSPost2010Prop40
 90
        0
102
RTVSPost2010PropOp40
 70
     1
102
RTVSPost2010Prop41ColorIndex
 90
       18
102
RTVSPost2010Prop41ColorRGB
 90
        0
102
RTVSPost2010PropOp41
 70
     1
102
RTVSPost2010Prop42
 90
       50
102
RTVSPost2010PropOp42
 70
     1
102
RTVSPost2010Prop43
 90
        3
102
RTVSPost2010PropOp43
 70
     1
102
RTVSPost2010Prop44ColorIndex
 90
        5
102
RTVSPost2010Prop44ColorRGB
 90
      255
102
RTVSPost2010PropOp44
 70
     1
102
RTVSPost2010Prop45
280
     0
102
RTVSPost2010PropOp45
 70
     1
102
RTVSPost2010Prop46
 90
       50
102
RTVSPost2010PropOp46
 70
     1
102
RTVSPost2010Prop47
 90
       50
102
RTVSPost2010PropOp47
 70
     1
102
RTVSPost2010Prop48
 90
       50
102
RTVSPost2010PropOp48
 70
     1
102
RTVSPost2010Prop49
280
     0
102
RTVSPost2010PropOp49
 70
     1
102
RTVSPost2010Prop50
 90
       50
102
RTVSPost2010PropOp50
 70
     1
102
RTVSPost2010Prop51ColorIndex
 90
      256
102
RTVSPost2010Prop51ColorRGB
 90
-16777216
102
RTVSPost2010PropOp51
 70
     0
102
RTVSPost2010Prop52
140
1.0
102
RTVSPost2010PropOp52
 70
     0
102
RTVSPost2010Prop53
 90
        2
102
RTVSPost2010PropOp53
 70
     1
102
RTVSPost2010Prop54
  1
strokes_ogs.tif
102
RTVSPost2010PropOp54
 70
     1
102
RTVSPost2010Prop55
280
     0
102
RTVSPost2010PropOp55
 70
     1
102
RTVSPost2010Prop56
140
1.0
102
RTVSPost2010PropOp56
 70
     1
102
RTVSPost2010Prop57
140
1.0
102
RTVSPost2010PropOp57
 70
     1
102
RTVSPropertyOp0
 70
     1
102
RTVSPropertyOp1
 70
     1
102
RTVSPropertyOp2
 70
     1
102
RTVSPropertyOp3
 70
     1
102
RTVSPropertyOp4
 70
     1
102
RTVSPropertyOp5
 70
     1
102
RTVSPropertyOp6
 70
     1
102
RTVSPropertyOp7
 70
     1
102
RTVSPropertyOp8
 70
     1
102
RTVSPropertyOp9
 70
     1
102
RTVSPropertyOp10
 70
     1
102
RTVSPropertyOp11
 70
     1
102
RTVSPropertyOp12
 70
     1
102
RTVSPropertyOp13
 70
     1
102
RTVSPropertyOp14
 70
     1
102
RTVSPropertyOp15
 70
     1
102
RTVSPropertyOp16
 70
     1
102
RTVSPropertyOp17
 70
     1
102
RTVSPropertyOp18
 70
     1
102
RTVSPropertyOp19
 70
     1
102
RTVSPropertyOp20
 70
     1
102
RTVSPropertyOp21
 70
     1
102
RTVSPropertyOp22
 70
     1
102
RTVSPropertyOp23
 70
     1
102
RTVSPropertyOp24
 70
     1
102
RTVSPropertyOp25
 70
     1
102
RTVSPropertyOp26
 70
     1
102
RTVSPropertyOp27
 70
     1
102
RTVSPropertyOp28
 70
     1
102
RTVSPropertyOp29
 70
     1
102
RTVSPropertyOp30
 70
     1
102
RTVSPropertyOp31
 70
     1
102
RTVSPropertyOp32
 70
     1
102
RTVSPropertyOp33
 70
     1
102
RTVSPropertyOp34
 70
     1
102
RTVSPropertyOp35
 70
     1
102
RTVSPropertyOp36
 70
     1
102
RTVSPropertyOp37
 70
     1
102
RTVSPropertyOp38
 70
     1
102
RTVSPropertyOp39
 70
     1
102
RTVSPropertyOp40
 70
     1
102
RTVSPropertyOp41
 70
     1
102
RTVSPropertyOp42
 70
     1
102
RTVSPropertyOp43
 70
     1
102
RTVSPropertyOp44
 70
     1
102
RTVSPropertyOp45
 70
     1
102
RTVSPropertyOp46
 70
     1
102
RTVSPropertyOp47
 70
     1
102
RTVSPropertyOp48
 70
     1
102
RTVSPropertyOp49
 70
     1
102
RTVSPropertyOp50
 70
     1
102
RTVSPropertyOp51
 70
     0
102
RTVSPropertyOp52
 70
     0
102
RTVSPropertyOp53
 70
     1
102
RTVSPropertyOp54
 70
     1
102
RTVSPropertyOp55
 70
     1
102
RTVSPropertyOp56
 70
     1
102
RTVSPropertyOp57
 70
     1
102
RTVSPropertyOp58
 70
     1
102
RTVSPropertyOp59
 70
     1
102
RTVSPropertyOp60
 70
     1
102
RTVSPropertyOp61
 70
     1
102
RTVSPropertyOp62
 70
     1
  0
XRECORD
  5
FF71
102
{ACAD_REACTORS
330
FF70
102
}
330
FF70
100
AcDbXrecord
280
     1
102
RTVSPost2010Prop28
280
     0
102
RTVSPost2010PropOp28
 70
     1
102
RTVSPost2010Prop29
280
     1
102
RTVSPost2010PropOp29
 70
     1
102
RTVSPost2010Prop30
280
     1
102
RTVSPost2010PropOp30
 70
     1
102
RTVSPost2010Prop31
280
     0
102
RTVSPost2010PropOp31
 70
     1
102
RTVSPost2010Prop32
280
     0
102
RTVSPost2010PropOp32
 70
     1
102
RTVSPost2010Prop33
280
     0
102
RTVSPost2010PropOp33
 70
     1
102
RTVSPost2010Prop34
280
     0
102
RTVSPost2010PropOp34
 70
     1
102
RTVSPost2010Prop35
280
     0
102
RTVSPost2010PropOp35
 70
     1
102
RTVSPost2010Prop36
280
     0
102
RTVSPost2010PropOp36
 70
     1
102
RTVSPost2010Prop37
 90
       50
102
RTVSPost2010PropOp37
 70
     1
102
RTVSPost2010Prop38
140
0.0
102
RTVSPost2010PropOp38
 70
     1
102
RTVSPost2010Prop39
140
1.0
102
RTVSPost2010PropOp39
 70
     1
102
RTVSPost2010Prop40
 90
        0
102
RTVSPost2010PropOp40
 70
     1
102
RTVSPost2010Prop41ColorIndex
 90
       18
102
RTVSPost2010Prop41ColorRGB
 90
        0
102
RTVSPost2010PropOp41
 70
     1
102
RTVSPost2010Prop42
 90
       50
102
RTVSPost2010PropOp42
 70
     1
102
RTVSPost2010Prop43
 90
        3
102
RTVSPost2010PropOp43
 70
     1
102
RTVSPost2010Prop44ColorIndex
 90
        5
102
RTVSPost2010Prop44ColorRGB
 90
      255
102
RTVSPost2010PropOp44
 70
     1
102
RTVSPost2010Prop45
280
     0
102
RTVSPost2010PropOp45
 70
     1
102
RTVSPost2010Prop46
 90
       50
102
RTVSPost2010PropOp46
 70
     1
102
RTVSPost2010Prop47
 90
       50
102
RTVSPost2010PropOp47
 70
     1
102
RTVSPost2010Prop48
 90
       50
102
RTVSPost2010PropOp48
 70
     1
102
RTVSPost2010Prop49
280
     0
102
RTVSPost2010PropOp49
 70
     1
102
RTVSPost2010Prop50
 90
       50
102
RTVSPost2010PropOp50
 70
     1
102
RTVSPost2010Prop51ColorIndex
 90
      256
102
RTVSPost2010Prop51ColorRGB
 90
-16777216
102
RTVSPost2010PropOp51
 70
     0
102
RTVSPost2010Prop52
140
1.0
102
RTVSPost2010PropOp52
 70
     0
102
RTVSPost2010Prop53
 90
        2
102
RTVSPost2010PropOp53
 70
     1
102
RTVSPost2010Prop54
  1
strokes_ogs.tif
102
RTVSPost2010PropOp54
 70
     1
102
RTVSPost2010Prop55
280
     0
102
RTVSPost2010PropOp55
 70
     1
102
RTVSPost2010Prop56
140
1.0
102
RTVSPost2010PropOp56
 70
     1
102
RTVSPost2010Prop57
140
1.0
102
RTVSPost2010PropOp57
 70
     1
102
RTVSPropertyOp0
 70
     1
102
RTVSPropertyOp1
 70
     1
102
RTVSPropertyOp2
 70
     1
102
RTVSPropertyOp3
 70
     1
102
RTVSPropertyOp4
 70
     1
102
RTVSPropertyOp5
 70
     1
102
RTVSPropertyOp6
 70
     1
102
RTVSPropertyOp7
 70
     1
102
RTVSPropertyOp8
 70
     1
102
RTVSPropertyOp9
 70
     1
102
RTVSPropertyOp10
 70
     1
102
RTVSPropertyOp11
 70
     1
102
RTVSPropertyOp12
 70
     1
102
RTVSPropertyOp13
 70
     1
102
RTVSPropertyOp14
 70
     1
102
RTVSPropertyOp15
 70
     1
102
RTVSPropertyOp16
 70
     1
102
RTVSPropertyOp17
 70
     1
102
RTVSPropertyOp18
 70
     1
102
RTVSPropertyOp19
 70
     1
102
RTVSPropertyOp20
 70
     1
102
RTVSPropertyOp21
 70
     1
102
RTVSPropertyOp22
 70
     1
102
RTVSPropertyOp23
 70
     1
102
RTVSPropertyOp24
 70
     1
102
RTVSPropertyOp25
 70
     1
102
RTVSPropertyOp26
 70
     1
102
RTVSPropertyOp27
 70
     1
102
RTVSPropertyOp28
 70
     1
102
RTVSPropertyOp29
 70
     1
102
RTVSPropertyOp30
 70
     1
102
RTVSPropertyOp31
 70
     1
102
RTVSPropertyOp32
 70
     1
102
RTVSPropertyOp33
 70
     1
102
RTVSPropertyOp34
 70
     1
102
RTVSPropertyOp35
 70
     1
102
RTVSPropertyOp36
 70
     1
102
RTVSPropertyOp37
 70
     1
102
RTVSPropertyOp38
 70
     1
102
RTVSPropertyOp39
 70
     1
102
RTVSPropertyOp40
 70
     1
102
RTVSPropertyOp41
 70
     1
102
RTVSPropertyOp42
 70
     1
102
RTVSPropertyOp43
 70
     1
102
RTVSPropertyOp44
 70
     1
102
RTVSPropertyOp45
 70
     1
102
RTVSPropertyOp46
 70
     1
102
RTVSPropertyOp47
 70
     1
102
RTVSPropertyOp48
 70
     1
102
RTVSPropertyOp49
 70
     1
102
RTVSPropertyOp50
 70
     1
102
RTVSPropertyOp51
 70
     0
102
RTVSPropertyOp52
 70
     0
102
RTVSPropertyOp53
 70
     1
102
RTVSPropertyOp54
 70
     1
102
RTVSPropertyOp55
 70
     1
102
RTVSPropertyOp56
 70
     1
102
RTVSPropertyOp57
 70
     1
102
RTVSPropertyOp58
 70
     1
102
RTVSPropertyOp59
 70
     1
102
RTVSPropertyOp60
 70
     1
102
RTVSPropertyOp61
 70
     1
102
RTVSPropertyOp62
 70
     1
  0
XRECORD
  5
FF63
102
{ACAD_REACTORS
330
FF62
102
}
330
FF62
100
AcDbXrecord
280
     1
102
RTVSPost2010Prop28
280
     0
102
RTVSPost2010PropOp28
 70
     1
102
RTVSPost2010Prop29
280
     1
102
RTVSPost2010PropOp29
 70
     1
102
RTVSPost2010Prop30
280
     1
102
RTVSPost2010PropOp30
 70
     1
102
RTVSPost2010Prop31
280
     0
102
RTVSPost2010PropOp31
 70
     1
102
RTVSPost2010Prop32
280
     0
102
RTVSPost2010PropOp32
 70
     1
102
RTVSPost2010Prop33
280
     0
102
RTVSPost2010PropOp33
 70
     1
102
RTVSPost2010Prop34
280
     0
102
RTVSPost2010PropOp34
 70
     1
102
RTVSPost2010Prop35
280
     0
102
RTVSPost2010PropOp35
 70
     1
102
RTVSPost2010Prop36
280
     0
102
RTVSPost2010PropOp36
 70
     1
102
RTVSPost2010Prop37
 90
       50
102
RTVSPost2010PropOp37
 70
     1
102
RTVSPost2010Prop38
140
0.0
102
RTVSPost2010PropOp38
 70
     1
102
RTVSPost2010Prop39
140
1.0
102
RTVSPost2010PropOp39
 70
     1
102
RTVSPost2010Prop40
 90
        0
102
RTVSPost2010PropOp40
 70
     1
102
RTVSPost2010Prop41ColorIndex
 90
       18
102
RTVSPost2010Prop41ColorRGB
 90
        0
102
RTVSPost2010PropOp41
 70
     1
102
RTVSPost2010Prop42
 90
       50
102
RTVSPost2010PropOp42
 70
     1
102
RTVSPost2010Prop43
 90
        3
102
RTVSPost2010PropOp43
 70
     1
102
RTVSPost2010Prop44ColorIndex
 90
        5
102
RTVSPost2010Prop44ColorRGB
 90
      255
102
RTVSPost2010PropOp44
 70
     1
102
RTVSPost2010Prop45
280
     0
102
RTVSPost2010PropOp45
 70
     1
102
RTVSPost2010Prop46
 90
       50
102
RTVSPost2010PropOp46
 70
     1
102
RTVSPost2010Prop47
 90
       50
102
RTVSPost2010PropOp47
 70
     1
102
RTVSPost2010Prop48
 90
       50
102
RTVSPost2010PropOp48
 70
     1
102
RTVSPost2010Prop49
280
     0
102
RTVSPost2010PropOp49
 70
     1
102
RTVSPost2010Prop50
 90
       50
102
RTVSPost2010PropOp50
 70
     1
102
RTVSPost2010Prop51ColorIndex
 90
      256
102
RTVSPost2010Prop51ColorRGB
 90
-16777216
102
RTVSPost2010PropOp51
 70
     0
102
RTVSPost2010Prop52
140
1.0
102
RTVSPost2010PropOp52
 70
     0
102
RTVSPost2010Prop53
 90
        2
102
RTVSPost2010PropOp53
 70
     1
102
RTVSPost2010Prop54
  1
strokes_ogs.tif
102
RTVSPost2010PropOp54
 70
     1
102
RTVSPost2010Prop55
280
     0
102
RTVSPost2010PropOp55
 70
     1
102
RTVSPost2010Prop56
140
1.0
102
RTVSPost2010PropOp56
 70
     1
102
RTVSPost2010Prop57
140
1.0
102
RTVSPost2010PropOp57
 70
     1
102
RTVSPropertyOp0
 70
     1
102
RTVSPropertyOp1
 70
     1
102
RTVSPropertyOp2
 70
     1
102
RTVSPropertyOp3
 70
     1
102
RTVSPropertyOp4
 70
     1
102
RTVSPropertyOp5
 70
     1
102
RTVSPropertyOp6
 70
     1
102
RTVSPropertyOp7
 70
     1
102
RTVSPropertyOp8
 70
     1
102
RTVSPropertyOp9
 70
     1
102
RTVSPropertyOp10
 70
     1
102
RTVSPropertyOp11
 70
     1
102
RTVSPropertyOp12
 70
     1
102
RTVSPropertyOp13
 70
     1
102
RTVSPropertyOp14
 70
     1
102
RTVSPropertyOp15
 70
     1
102
RTVSPropertyOp16
 70
     1
102
RTVSPropertyOp17
 70
     1
102
RTVSPropertyOp18
 70
     1
102
RTVSPropertyOp19
 70
     1
102
RTVSPropertyOp20
 70
     1
102
RTVSPropertyOp21
 70
     1
102
RTVSPropertyOp22
 70
     1
102
RTVSPropertyOp23
 70
     1
102
RTVSPropertyOp24
 70
     1
102
RTVSPropertyOp25
 70
     1
102
RTVSPropertyOp26
 70
     1
102
RTVSPropertyOp27
 70
     1
102
RTVSPropertyOp28
 70
     1
102
RTVSPropertyOp29
 70
     1
102
RTVSPropertyOp30
 70
     1
102
RTVSPropertyOp31
 70
     1
102
RTVSPropertyOp32
 70
     1
102
RTVSPropertyOp33
 70
     1
102
RTVSPropertyOp34
 70
     1
102
RTVSPropertyOp35
 70
     1
102
RTVSPropertyOp36
 70
     1
102
RTVSPropertyOp37
 70
     1
102
RTVSPropertyOp38
 70
     1
102
RTVSPropertyOp39
 70
     1
102
RTVSPropertyOp40
 70
     1
102
RTVSPropertyOp41
 70
     1
102
RTVSPropertyOp42
 70
     1
102
RTVSPropertyOp43
 70
     1
102
RTVSPropertyOp44
 70
     1
102
RTVSPropertyOp45
 70
     1
102
RTVSPropertyOp46
 70
     1
102
RTVSPropertyOp47
 70
     1
102
RTVSPropertyOp48
 70
     1
102
RTVSPropertyOp49
 70
     1
102
RTVSPropertyOp50
 70
     1
102
RTVSPropertyOp51
 70
     0
102
RTVSPropertyOp52
 70
     0
102
RTVSPropertyOp53
 70
     1
102
RTVSPropertyOp54
 70
     1
102
RTVSPropertyOp55
 70
     1
102
RTVSPropertyOp56
 70
     1
102
RTVSPropertyOp57
 70
     1
102
RTVSPropertyOp58
 70
     1
102
RTVSPropertyOp59
 70
     1
102
RTVSPropertyOp60
 70
     1
102
RTVSPropertyOp61
 70
     1
102
RTVSPropertyOp62
 70
     1
  0
XRECORD
  5
FF67
102
{ACAD_REACTORS
330
FF66
102
}
330
FF66
100
AcDbXrecord
280
     1
102
RTVSPost2010Prop28
280
     0
102
RTVSPost2010PropOp28
 70
     1
102
RTVSPost2010Prop29
280
     1
102
RTVSPost2010PropOp29
 70
     1
102
RTVSPost2010Prop30
280
     1
102
RTVSPost2010PropOp30
 70
     1
102
RTVSPost2010Prop31
280
     0
102
RTVSPost2010PropOp31
 70
     1
102
RTVSPost2010Prop32
280
     0
102
RTVSPost2010PropOp32
 70
     1
102
RTVSPost2010Prop33
280
     0
102
RTVSPost2010PropOp33
 70
     1
102
RTVSPost2010Prop34
280
     0
102
RTVSPost2010PropOp34
 70
     1
102
RTVSPost2010Prop35
280
     0
102
RTVSPost2010PropOp35
 70
     1
102
RTVSPost2010Prop36
280
     0
102
RTVSPost2010PropOp36
 70
     1
102
RTVSPost2010Prop37
 90
       50
102
RTVSPost2010PropOp37
 70
     1
102
RTVSPost2010Prop38
140
0.0
102
RTVSPost2010PropOp38
 70
     1
102
RTVSPost2010Prop39
140
1.0
102
RTVSPost2010PropOp39
 70
     1
102
RTVSPost2010Prop40
 90
        0
102
RTVSPost2010PropOp40
 70
     1
102
RTVSPost2010Prop41ColorIndex
 90
       18
102
RTVSPost2010Prop41ColorRGB
 90
        0
102
RTVSPost2010PropOp41
 70
     1
102
RTVSPost2010Prop42
 90
       50
102
RTVSPost2010PropOp42
 70
     1
102
RTVSPost2010Prop43
 90
        3
102
RTVSPost2010PropOp43
 70
     1
102
RTVSPost2010Prop44ColorIndex
 90
        5
102
RTVSPost2010Prop44ColorRGB
 90
      255
102
RTVSPost2010PropOp44
 70
     1
102
RTVSPost2010Prop45
280
     0
102
RTVSPost2010PropOp45
 70
     1
102
RTVSPost2010Prop46
 90
       50
102
RTVSPost2010PropOp46
 70
     1
102
RTVSPost2010Prop47
 90
       50
102
RTVSPost2010PropOp47
 70
     1
102
RTVSPost2010Prop48
 90
       50
102
RTVSPost2010PropOp48
 70
     1
102
RTVSPost2010Prop49
280
     0
102
RTVSPost2010PropOp49
 70
     1
102
RTVSPost2010Prop50
 90
       50
102
RTVSPost2010PropOp50
 70
     1
102
RTVSPost2010Prop51ColorIndex
 90
      256
102
RTVSPost2010Prop51ColorRGB
 90
-16777216
102
RTVSPost2010PropOp51
 70
     0
102
RTVSPost2010Prop52
140
1.0
102
RTVSPost2010PropOp52
 70
     0
102
RTVSPost2010Prop53
 90
        2
102
RTVSPost2010PropOp53
 70
     1
102
RTVSPost2010Prop54
  1
strokes_ogs.tif
102
RTVSPost2010PropOp54
 70
     1
102
RTVSPost2010Prop55
280
     0
102
RTVSPost2010PropOp55
 70
     1
102
RTVSPost2010Prop56
140
1.0
102
RTVSPost2010PropOp56
 70
     1
102
RTVSPost2010Prop57
140
1.0
102
RTVSPost2010PropOp57
 70
     1
102
RTVSPropertyOp0
 70
     1
102
RTVSPropertyOp1
 70
     1
102
RTVSPropertyOp2
 70
     1
102
RTVSPropertyOp3
 70
     1
102
RTVSPropertyOp4
 70
     1
102
RTVSPropertyOp5
 70
     1
102
RTVSPropertyOp6
 70
     1
102
RTVSPropertyOp7
 70
     1
102
RTVSPropertyOp8
 70
     1
102
RTVSPropertyOp9
 70
     1
102
RTVSPropertyOp10
 70
     1
102
RTVSPropertyOp11
 70
     1
102
RTVSPropertyOp12
 70
     1
102
RTVSPropertyOp13
 70
     1
102
RTVSPropertyOp14
 70
     1
102
RTVSPropertyOp15
 70
     1
102
RTVSPropertyOp16
 70
     1
102
RTVSPropertyOp17
 70
     1
102
RTVSPropertyOp18
 70
     1
102
RTVSPropertyOp19
 70
     1
102
RTVSPropertyOp20
 70
     1
102
RTVSPropertyOp21
 70
     1
102
RTVSPropertyOp22
 70
     1
102
RTVSPropertyOp23
 70
     1
102
RTVSPropertyOp24
 70
     1
102
RTVSPropertyOp25
 70
     1
102
RTVSPropertyOp26
 70
     1
102
RTVSPropertyOp27
 70
     1
102
RTVSPropertyOp28
 70
     1
102
RTVSPropertyOp29
 70
     1
102
RTVSPropertyOp30
 70
     1
102
RTVSPropertyOp31
 70
     1
102
RTVSPropertyOp32
 70
     1
102
RTVSPropertyOp33
 70
     1
102
RTVSPropertyOp34
 70
     1
102
RTVSPropertyOp35
 70
     1
102
RTVSPropertyOp36
 70
     1
102
RTVSPropertyOp37
 70
     1
102
RTVSPropertyOp38
 70
     1
102
RTVSPropertyOp39
 70
     1
102
RTVSPropertyOp40
 70
     1
102
RTVSPropertyOp41
 70
     1
102
RTVSPropertyOp42
 70
     1
102
RTVSPropertyOp43
 70
     1
102
RTVSPropertyOp44
 70
     1
102
RTVSPropertyOp45
 70
     1
102
RTVSPropertyOp46
 70
     1
102
RTVSPropertyOp47
 70
     1
102
RTVSPropertyOp48
 70
     1
102
RTVSPropertyOp49
 70
     1
102
RTVSPropertyOp50
 70
     1
102
RTVSPropertyOp51
 70
     0
102
RTVSPropertyOp52
 70
     0
102
RTVSPropertyOp53
 70
     1
102
RTVSPropertyOp54
 70
     1
102
RTVSPropertyOp55
 70
     1
102
RTVSPropertyOp56
 70
     1
102
RTVSPropertyOp57
 70
     1
102
RTVSPropertyOp58
 70
     1
102
RTVSPropertyOp59
 70
     1
102
RTVSPropertyOp60
 70
     1
102
RTVSPropertyOp61
 70
     1
102
RTVSPropertyOp62
 70
     1
  0
XRECORD
  5
FF81
102
{ACAD_REACTORS
330
FF80
102
}
330
FF80
100
AcDbXrecord
280
     1
102
RTVSPost2010Prop28
280
     0
102
RTVSPost2010PropOp28
 70
     0
102
RTVSPost2010Prop29
280
     1
102
RTVSPost2010PropOp29
 70
     0
102
RTVSPost2010Prop30
280
     1
102
RTVSPost2010PropOp30
 70
     0
102
RTVSPost2010Prop31
280
     0
102
RTVSPost2010PropOp31
 70
     0
102
RTVSPost2010Prop32
280
     0
102
RTVSPost2010PropOp32
 70
     0
102
RTVSPost2010Prop33
280
     0
102
RTVSPost2010PropOp33
 70
     0
102
RTVSPost2010Prop34
280
     0
102
RTVSPost2010PropOp34
 70
     0
102
RTVSPost2010Prop35
280
     0
102
RTVSPost2010PropOp35
 70
     0
102
RTVSPost2010Prop36
280
     0
102
RTVSPost2010PropOp36
 70
     0
102
RTVSPost2010Prop37
 90
       50
102
RTVSPost2010PropOp37
 70
     0
102
RTVSPost2010Prop38
140
0.0
102
RTVSPost2010PropOp38
 70
     0
102
RTVSPost2010Prop39
140
1.0
102
RTVSPost2010PropOp39
 70
     0
102
RTVSPost2010Prop40
 90
        0
102
RTVSPost2010PropOp40
 70
     0
102
RTVSPost2010Prop41ColorIndex
 90
       18
102
RTVSPost2010Prop41ColorRGB
 90
        0
102
RTVSPost2010PropOp41
 70
     0
102
RTVSPost2010Prop42
 90
       50
102
RTVSPost2010PropOp42
 70
     0
102
RTVSPost2010Prop43
 90
        3
102
RTVSPost2010PropOp43
 70
     0
102
RTVSPost2010Prop44ColorIndex
 90
        5
102
RTVSPost2010Prop44ColorRGB
 90
      255
102
RTVSPost2010PropOp44
 70
     0
102
RTVSPost2010Prop45
280
     0
102
RTVSPost2010PropOp45
 70
     0
102
RTVSPost2010Prop46
 90
       50
102
RTVSPost2010PropOp46
 70
     0
102
RTVSPost2010Prop47
 90
       50
102
RTVSPost2010PropOp47
 70
     0
102
RTVSPost2010Prop48
 90
       50
102
RTVSPost2010PropOp48
 70
     0
102
RTVSPost2010Prop49
280
     0
102
RTVSPost2010PropOp49
 70
     0
102
RTVSPost2010Prop50
 90
       50
102
RTVSPost2010PropOp50
 70
     0
102
RTVSPost2010Prop51ColorIndex
 90
      256
102
RTVSPost2010Prop51ColorRGB
 90
-16777216
102
RTVSPost2010PropOp51
 70
     0
102
RTVSPost2010Prop52
140
1.0
102
RTVSPost2010PropOp52
 70
     0
102
RTVSPost2010Prop53
 90
        2
102
RTVSPost2010PropOp53
 70
     0
102
RTVSPost2010Prop54
  1
strokes_ogs.tif
102
RTVSPost2010PropOp54
 70
     0
102
RTVSPost2010Prop55
280
     0
102
RTVSPost2010PropOp55
 70
     0
102
RTVSPost2010Prop56
140
1.0
102
RTVSPost2010PropOp56
 70
     0
102
RTVSPost2010Prop57
140
1.0
102
RTVSPost2010PropOp57
 70
     0
102
RTVSPropertyOp0
 70
     0
102
RTVSPropertyOp1
 70
     0
102
RTVSPropertyOp2
 70
     0
102
RTVSPropertyOp3
 70
     0
102
RTVSPropertyOp4
 70
     0
102
RTVSPropertyOp5
 70
     0
102
RTVSPropertyOp6
 70
     0
102
RTVSPropertyOp7
 70
     0
102
RTVSPropertyOp8
 70
     0
102
RTVSPropertyOp9
 70
     0
102
RTVSPropertyOp10
 70
     0
102
RTVSPropertyOp11
 70
     0
102
RTVSPropertyOp12
 70
     0
102
RTVSPropertyOp13
 70
     0
102
RTVSPropertyOp14
 70
     2
102
RTVSPropertyOp15
 70
     0
102
RTVSPropertyOp16
 70
     0
102
RTVSPropertyOp17
 70
     0
102
RTVSPropertyOp18
 70
     0
102
RTVSPropertyOp19
 70
     0
102
RTVSPropertyOp20
 70
     0
102
RTVSPropertyOp21
 70
     0
102
RTVSPropertyOp22
 70
     0
102
RTVSPropertyOp23
 70
     0
102
RTVSPropertyOp24
 70
     0
102
RTVSPropertyOp25
 70
     0
102
RTVSPropertyOp26
 70
     0
102
RTVSPropertyOp27
 70
     0
102
RTVSPropertyOp28
 70
     0
102
RTVSPropertyOp29
 70
     0
102
RTVSPropertyOp30
 70
     0
102
RTVSPropertyOp31
 70
     0
102
RTVSPropertyOp32
 70
     0
102
RTVSPropertyOp33
 70
     0
102
RTVSPropertyOp34
 70
     0
102
RTVSPropertyOp35
 70
     0
102
RTVSPropertyOp36
 70
     0
102
RTVSPropertyOp37
 70
     0
102
RTVSPropertyOp38
 70
     0
102
RTVSPropertyOp39
 70
     0
102
RTVSPropertyOp40
 70
     0
102
RTVSPropertyOp41
 70
     0
102
RTVSPropertyOp42
 70
     0
102
RTVSPropertyOp43
 70
     0
102
RTVSPropertyOp44
 70
     0
102
RTVSPropertyOp45
 70
     0
102
RTVSPropertyOp46
 70
     0
102
RTVSPropertyOp47
 70
     0
102
RTVSPropertyOp48
 70
     0
102
RTVSPropertyOp49
 70
     0
102
RTVSPropertyOp50
 70
     0
102
RTVSPropertyOp51
 70
     0
102
RTVSPropertyOp52
 70
     0
102
RTVSPropertyOp53
 70
     0
102
RTVSPropertyOp54
 70
     0
102
RTVSPropertyOp55
 70
     0
102
RTVSPropertyOp56
 70
     0
102
RTVSPropertyOp57
 70
     0
102
RTVSPropertyOp58
 70
     0
102
RTVSPropertyOp59
 70
     0
102
RTVSPropertyOp60
 70
     0
102
RTVSPropertyOp61
 70
     0
102
RTVSPropertyOp62
 70
     0
  0
XRECORD
  5
FF6F
102
{ACAD_REACTORS
330
FF6E
102
}
330
FF6E
100
AcDbXrecord
280
     1
102
RTVSPost2010Prop28
280
     0
102
RTVSPost2010PropOp28
 70
     1
102
RTVSPost2010Prop29
280
     1
102
RTVSPost2010PropOp29
 70
     1
102
RTVSPost2010Prop30
280
     1
102
RTVSPost2010PropOp30
 70
     1
102
RTVSPost2010Prop31
280
     0
102
RTVSPost2010PropOp31
 70
     1
102
RTVSPost2010Prop32
280
     0
102
RTVSPost2010PropOp32
 70
     1
102
RTVSPost2010Prop33
280
     0
102
RTVSPost2010PropOp33
 70
     1
102
RTVSPost2010Prop34
280
     0
102
RTVSPost2010PropOp34
 70
     1
102
RTVSPost2010Prop35
280
     0
102
RTVSPost2010PropOp35
 70
     1
102
RTVSPost2010Prop36
280
     0
102
RTVSPost2010PropOp36
 70
     1
102
RTVSPost2010Prop37
 90
       50
102
RTVSPost2010PropOp37
 70
     1
102
RTVSPost2010Prop38
140
0.0
102
RTVSPost2010PropOp38
 70
     1
102
RTVSPost2010Prop39
140
1.0
102
RTVSPost2010PropOp39
 70
     1
102
RTVSPost2010Prop40
 90
        0
102
RTVSPost2010PropOp40
 70
     1
102
RTVSPost2010Prop41ColorIndex
 90
       18
102
RTVSPost2010Prop41ColorRGB
 90
        0
102
RTVSPost2010PropOp41
 70
     1
102
RTVSPost2010Prop42
 90
       50
102
RTVSPost2010PropOp42
 70
     1
102
RTVSPost2010Prop43
 90
        3
102
RTVSPost2010PropOp43
 70
     1
102
RTVSPost2010Prop44ColorIndex
 90
        5
102
RTVSPost2010Prop44ColorRGB
 90
      255
102
RTVSPost2010PropOp44
 70
     1
102
RTVSPost2010Prop45
280
     0
102
RTVSPost2010PropOp45
 70
     1
102
RTVSPost2010Prop46
 90
       50
102
RTVSPost2010PropOp46
 70
     1
102
RTVSPost2010Prop47
 90
       50
102
RTVSPost2010PropOp47
 70
     1
102
RTVSPost2010Prop48
 90
       50
102
RTVSPost2010PropOp48
 70
     1
102
RTVSPost2010Prop49
280
     0
102
RTVSPost2010PropOp49
 70
     1
102
RTVSPost2010Prop50
 90
       50
102
RTVSPost2010PropOp50
 70
     1
102
RTVSPost2010Prop51ColorIndex
 90
      256
102
RTVSPost2010Prop51ColorRGB
 90
-16777216
102
RTVSPost2010PropOp51
 70
     0
102
RTVSPost2010Prop52
140
1.0
102
RTVSPost2010PropOp52
 70
     0
102
RTVSPost2010Prop53
 90
        2
102
RTVSPost2010PropOp53
 70
     1
102
RTVSPost2010Prop54
  1
strokes_ogs.tif
102
RTVSPost2010PropOp54
 70
     1
102
RTVSPost2010Prop55
280
     0
102
RTVSPost2010PropOp55
 70
     1
102
RTVSPost2010Prop56
140
1.0
102
RTVSPost2010PropOp56
 70
     1
102
RTVSPost2010Prop57
140
1.0
102
RTVSPost2010PropOp57
 70
     1
102
RTVSPropertyOp0
 70
     1
102
RTVSPropertyOp1
 70
     1
102
RTVSPropertyOp2
 70
     1
102
RTVSPropertyOp3
 70
     1
102
RTVSPropertyOp4
 70
     1
102
RTVSPropertyOp5
 70
     1
102
RTVSPropertyOp6
 70
     1
102
RTVSPropertyOp7
 70
     1
102
RTVSPropertyOp8
 70
     1
102
RTVSPropertyOp9
 70
     1
102
RTVSPropertyOp10
 70
     1
102
RTVSPropertyOp11
 70
     1
102
RTVSPropertyOp12
 70
     1
102
RTVSPropertyOp13
 70
     1
102
RTVSPropertyOp14
 70
     1
102
RTVSPropertyOp15
 70
     1
102
RTVSPropertyOp16
 70
     1
102
RTVSPropertyOp17
 70
     1
102
RTVSPropertyOp18
 70
     1
102
RTVSPropertyOp19
 70
     1
102
RTVSPropertyOp20
 70
     1
102
RTVSPropertyOp21
 70
     1
102
RTVSPropertyOp22
 70
     1
102
RTVSPropertyOp23
 70
     1
102
RTVSPropertyOp24
 70
     1
102
RTVSPropertyOp25
 70
     1
102
RTVSPropertyOp26
 70
     1
102
RTVSPropertyOp27
 70
     1
102
RTVSPropertyOp28
 70
     1
102
RTVSPropertyOp29
 70
     1
102
RTVSPropertyOp30
 70
     1
102
RTVSPropertyOp31
 70
     1
102
RTVSPropertyOp32
 70
     1
102
RTVSPropertyOp33
 70
     1
102
RTVSPropertyOp34
 70
     1
102
RTVSPropertyOp35
 70
     1
102
RTVSPropertyOp36
 70
     1
102
RTVSPropertyOp37
 70
     1
102
RTVSPropertyOp38
 70
     1
102
RTVSPropertyOp39
 70
     1
102
RTVSPropertyOp40
 70
     1
102
RTVSPropertyOp41
 70
     1
102
RTVSPropertyOp42
 70
     1
102
RTVSPropertyOp43
 70
     1
102
RTVSPropertyOp44
 70
     1
102
RTVSPropertyOp45
 70
     1
102
RTVSPropertyOp46
 70
     1
102
RTVSPropertyOp47
 70
     1
102
RTVSPropertyOp48
 70
     1
102
RTVSPropertyOp49
 70
     1
102
RTVSPropertyOp50
 70
     1
102
RTVSPropertyOp51
 70
     0
102
RTVSPropertyOp52
 70
     0
102
RTVSPropertyOp53
 70
     1
102
RTVSPropertyOp54
 70
     1
102
RTVSPropertyOp55
 70
     1
102
RTVSPropertyOp56
 70
     1
102
RTVSPropertyOp57
 70
     1
102
RTVSPropertyOp58
 70
     1
102
RTVSPropertyOp59
 70
     1
102
RTVSPropertyOp60
 70
     1
102
RTVSPropertyOp61
 70
     1
102
RTVSPropertyOp62
 70
     1
  0
XRECORD
  5
FF53
102
{ACAD_REACTORS
330
FF52
102
}
330
FF52
100
AcDbXrecord
280
     1
102
RTVSPost2010Prop28
280
     0
102
RTVSPost2010PropOp28
 70
     1
102
RTVSPost2010Prop29
280
     1
102
RTVSPost2010PropOp29
 70
     1
102
RTVSPost2010Prop30
280
     1
102
RTVSPost2010PropOp30
 70
     1
102
RTVSPost2010Prop31
280
     0
102
RTVSPost2010PropOp31
 70
     1
102
RTVSPost2010Prop32
280
     0
102
RTVSPost2010PropOp32
 70
     1
102
RTVSPost2010Prop33
280
     0
102
RTVSPost2010PropOp33
 70
     1
102
RTVSPost2010Prop34
280
     0
102
RTVSPost2010PropOp34
 70
     1
102
RTVSPost2010Prop35
280
     0
102
RTVSPost2010PropOp35
 70
     1
102
RTVSPost2010Prop36
280
     0
102
RTVSPost2010PropOp36
 70
     1
102
RTVSPost2010Prop37
 90
       50
102
RTVSPost2010PropOp37
 70
     1
102
RTVSPost2010Prop38
140
0.0
102
RTVSPost2010PropOp38
 70
     1
102
RTVSPost2010Prop39
140
1.0
102
RTVSPost2010PropOp39
 70
     1
102
RTVSPost2010Prop40
 90
        0
102
RTVSPost2010PropOp40
 70
     1
102
RTVSPost2010Prop41ColorIndex
 90
       18
102
RTVSPost2010Prop41ColorRGB
 90
        0
102
RTVSPost2010PropOp41
 70
     1
102
RTVSPost2010Prop42
 90
       50
102
RTVSPost2010PropOp42
 70
     1
102
RTVSPost2010Prop43
 90
        3
102
RTVSPost2010PropOp43
 70
     1
102
RTVSPost2010Prop44ColorIndex
 90
        5
102
RTVSPost2010Prop44ColorRGB
 90
      255
102
RTVSPost2010PropOp44
 70
     1
102
RTVSPost2010Prop45
280
     0
102
RTVSPost2010PropOp45
 70
     1
102
RTVSPost2010Prop46
 90
       50
102
RTVSPost2010PropOp46
 70
     1
102
RTVSPost2010Prop47
 90
       50
102
RTVSPost2010PropOp47
 70
     1
102
RTVSPost2010Prop48
 90
       50
102
RTVSPost2010PropOp48
 70
     1
102
RTVSPost2010Prop49
280
     0
102
RTVSPost2010PropOp49
 70
     1
102
RTVSPost2010Prop50
 90
       50
102
RTVSPost2010PropOp50
 70
     1
102
RTVSPost2010Prop51ColorIndex
 90
      256
102
RTVSPost2010Prop51ColorRGB
 90
-16777216
102
RTVSPost2010PropOp51
 70
     0
102
RTVSPost2010Prop52
140
1.0
102
RTVSPost2010PropOp52
 70
     0
102
RTVSPost2010Prop53
 90
        2
102
RTVSPost2010PropOp53
 70
     1
102
RTVSPost2010Prop54
  1
strokes_ogs.tif
102
RTVSPost2010PropOp54
 70
     1
102
RTVSPost2010Prop55
280
     0
102
RTVSPost2010PropOp55
 70
     1
102
RTVSPost2010Prop56
140
1.0
102
RTVSPost2010PropOp56
 70
     1
102
RTVSPost2010Prop57
140
1.0
102
RTVSPost2010PropOp57
 70
     1
102
RTVSPropertyOp0
 70
     1
102
RTVSPropertyOp1
 70
     1
102
RTVSPropertyOp2
 70
     1
102
RTVSPropertyOp3
 70
     1
102
RTVSPropertyOp4
 70
     1
102
RTVSPropertyOp5
 70
     1
102
RTVSPropertyOp6
 70
     1
102
RTVSPropertyOp7
 70
     1
102
RTVSPropertyOp8
 70
     1
102
RTVSPropertyOp9
 70
     1
102
RTVSPropertyOp10
 70
     1
102
RTVSPropertyOp11
 70
     1
102
RTVSPropertyOp12
 70
     1
102
RTVSPropertyOp13
 70
     1
102
RTVSPropertyOp14
 70
     1
102
RTVSPropertyOp15
 70
     1
102
RTVSPropertyOp16
 70
     1
102
RTVSPropertyOp17
 70
     1
102
RTVSPropertyOp18
 70
     1
102
RTVSPropertyOp19
 70
     1
102
RTVSPropertyOp20
 70
     1
102
RTVSPropertyOp21
 70
     1
102
RTVSPropertyOp22
 70
     1
102
RTVSPropertyOp23
 70
     1
102
RTVSPropertyOp24
 70
     1
102
RTVSPropertyOp25
 70
     1
102
RTVSPropertyOp26
 70
     1
102
RTVSPropertyOp27
 70
     1
102
RTVSPropertyOp28
 70
     1
102
RTVSPropertyOp29
 70
     1
102
RTVSPropertyOp30
 70
     1
102
RTVSPropertyOp31
 70
     1
102
RTVSPropertyOp32
 70
     1
102
RTVSPropertyOp33
 70
     1
102
RTVSPropertyOp34
 70
     1
102
RTVSPropertyOp35
 70
     1
102
RTVSPropertyOp36
 70
     1
102
RTVSPropertyOp37
 70
     1
102
RTVSPropertyOp38
 70
     1
102
RTVSPropertyOp39
 70
     1
102
RTVSPropertyOp40
 70
     1
102
RTVSPropertyOp41
 70
     1
102
RTVSPropertyOp42
 70
     1
102
RTVSPropertyOp43
 70
     1
102
RTVSPropertyOp44
 70
     1
102
RTVSPropertyOp45
 70
     1
102
RTVSPropertyOp46
 70
     1
102
RTVSPropertyOp47
 70
     1
102
RTVSPropertyOp48
 70
     1
102
RTVSPropertyOp49
 70
     1
102
RTVSPropertyOp50
 70
     1
102
RTVSPropertyOp51
 70
     0
102
RTVSPropertyOp52
 70
     0
102
RTVSPropertyOp53
 70
     1
102
RTVSPropertyOp54
 70
     1
102
RTVSPropertyOp55
 70
     1
102
RTVSPropertyOp56
 70
     1
102
RTVSPropertyOp57
 70
     1
102
RTVSPropertyOp58
 70
     1
102
RTVSPropertyOp59
 70
     1
102
RTVSPropertyOp60
 70
     1
102
RTVSPropertyOp61
 70
     1
102
RTVSPropertyOp62
 70
     1
  0
XRECORD
  5
FF55
102
{ACAD_REACTORS
330
FF54
102
}
330
FF54
100
AcDbXrecord
280
     1
102
RTVSPost2010Prop28
280
     0
102
RTVSPost2010PropOp28
 70
     1
102
RTVSPost2010Prop29
280
     1
102
RTVSPost2010PropOp29
 70
     1
102
RTVSPost2010Prop30
280
     1
102
RTVSPost2010PropOp30
 70
     1
102
RTVSPost2010Prop31
280
     0
102
RTVSPost2010PropOp31
 70
     1
102
RTVSPost2010Prop32
280
     0
102
RTVSPost2010PropOp32
 70
     1
102
RTVSPost2010Prop33
280
     0
102
RTVSPost2010PropOp33
 70
     1
102
RTVSPost2010Prop34
280
     0
102
RTVSPost2010PropOp34
 70
     1
102
RTVSPost2010Prop35
280
     0
102
RTVSPost2010PropOp35
 70
     1
102
RTVSPost2010Prop36
280
     0
102
RTVSPost2010PropOp36
 70
     1
102
RTVSPost2010Prop37
 90
       50
102
RTVSPost2010PropOp37
 70
     1
102
RTVSPost2010Prop38
140
0.0
102
RTVSPost2010PropOp38
 70
     1
102
RTVSPost2010Prop39
140
1.0
102
RTVSPost2010PropOp39
 70
     1
102
RTVSPost2010Prop40
 90
        0
102
RTVSPost2010PropOp40
 70
     1
102
RTVSPost2010Prop41ColorIndex
 90
       18
102
RTVSPost2010Prop41ColorRGB
 90
        0
102
RTVSPost2010PropOp41
 70
     1
102
RTVSPost2010Prop42
 90
       50
102
RTVSPost2010PropOp42
 70
     1
102
RTVSPost2010Prop43
 90
        3
102
RTVSPost2010PropOp43
 70
     1
102
RTVSPost2010Prop44ColorIndex
 90
        5
102
RTVSPost2010Prop44ColorRGB
 90
      255
102
RTVSPost2010PropOp44
 70
     1
102
RTVSPost2010Prop45
280
     0
102
RTVSPost2010PropOp45
 70
     1
102
RTVSPost2010Prop46
 90
       50
102
RTVSPost2010PropOp46
 70
     1
102
RTVSPost2010Prop47
 90
       50
102
RTVSPost2010PropOp47
 70
     1
102
RTVSPost2010Prop48
 90
       50
102
RTVSPost2010PropOp48
 70
     1
102
RTVSPost2010Prop49
280
     0
102
RTVSPost2010PropOp49
 70
     1
102
RTVSPost2010Prop50
 90
       50
102
RTVSPost2010PropOp50
 70
     1
102
RTVSPost2010Prop51ColorIndex
 90
      256
102
RTVSPost2010Prop51ColorRGB
 90
-16777216
102
RTVSPost2010PropOp51
 70
     0
102
RTVSPost2010Prop52
140
1.0
102
RTVSPost2010PropOp52
 70
     0
102
RTVSPost2010Prop53
 90
        2
102
RTVSPost2010PropOp53
 70
     1
102
RTVSPost2010Prop54
  1
strokes_ogs.tif
102
RTVSPost2010PropOp54
 70
     1
102
RTVSPost2010Prop55
280
     0
102
RTVSPost2010PropOp55
 70
     1
102
RTVSPost2010Prop56
140
1.0
102
RTVSPost2010PropOp56
 70
     1
102
RTVSPost2010Prop57
140
1.0
102
RTVSPost2010PropOp57
 70
     1
102
RTVSPropertyOp0
 70
     1
102
RTVSPropertyOp1
 70
     1
102
RTVSPropertyOp2
 70
     1
102
RTVSPropertyOp3
 70
     1
102
RTVSPropertyOp4
 70
     1
102
RTVSPropertyOp5
 70
     1
102
RTVSPropertyOp6
 70
     1
102
RTVSPropertyOp7
 70
     1
102
RTVSPropertyOp8
 70
     1
102
RTVSPropertyOp9
 70
     1
102
RTVSPropertyOp10
 70
     1
102
RTVSPropertyOp11
 70
     1
102
RTVSPropertyOp12
 70
     1
102
RTVSPropertyOp13
 70
     1
102
RTVSPropertyOp14
 70
     1
102
RTVSPropertyOp15
 70
     1
102
RTVSPropertyOp16
 70
     1
102
RTVSPropertyOp17
 70
     1
102
RTVSPropertyOp18
 70
     1
102
RTVSPropertyOp19
 70
     1
102
RTVSPropertyOp20
 70
     1
102
RTVSPropertyOp21
 70
     1
102
RTVSPropertyOp22
 70
     1
102
RTVSPropertyOp23
 70
     1
102
RTVSPropertyOp24
 70
     1
102
RTVSPropertyOp25
 70
     1
102
RTVSPropertyOp26
 70
     1
102
RTVSPropertyOp27
 70
     1
102
RTVSPropertyOp28
 70
     1
102
RTVSPropertyOp29
 70
     1
102
RTVSPropertyOp30
 70
     1
102
RTVSPropertyOp31
 70
     1
102
RTVSPropertyOp32
 70
     1
102
RTVSPropertyOp33
 70
     1
102
RTVSPropertyOp34
 70
     1
102
RTVSPropertyOp35
 70
     1
102
RTVSPropertyOp36
 70
     1
102
RTVSPropertyOp37
 70
     1
102
RTVSPropertyOp38
 70
     1
102
RTVSPropertyOp39
 70
     1
102
RTVSPropertyOp40
 70
     1
102
RTVSPropertyOp41
 70
     1
102
RTVSPropertyOp42
 70
     1
102
RTVSPropertyOp43
 70
     1
102
RTVSPropertyOp44
 70
     1
102
RTVSPropertyOp45
 70
     1
102
RTVSPropertyOp46
 70
     1
102
RTVSPropertyOp47
 70
     1
102
RTVSPropertyOp48
 70
     1
102
RTVSPropertyOp49
 70
     1
102
RTVSPropertyOp50
 70
     1
102
RTVSPropertyOp51
 70
     0
102
RTVSPropertyOp52
 70
     0
102
RTVSPropertyOp53
 70
     1
102
RTVSPropertyOp54
 70
     1
102
RTVSPropertyOp55
 70
     1
102
RTVSPropertyOp56
 70
     1
102
RTVSPropertyOp57
 70
     1
102
RTVSPropertyOp58
 70
     1
102
RTVSPropertyOp59
 70
     1
102
RTVSPropertyOp60
 70
     1
102
RTVSPropertyOp61
 70
     1
102
RTVSPropertyOp62
 70
     1
  0
XRECORD
  5
FF57
102
{ACAD_REACTORS
330
FF56
102
}
330
FF56
100
AcDbXrecord
280
     1
102
RTVSPost2010Prop28
280
     0
102
RTVSPost2010PropOp28
 70
     1
102
RTVSPost2010Prop29
280
     1
102
RTVSPost2010PropOp29
 70
     1
102
RTVSPost2010Prop30
280
     1
102
RTVSPost2010PropOp30
 70
     1
102
RTVSPost2010Prop31
280
     0
102
RTVSPost2010PropOp31
 70
     1
102
RTVSPost2010Prop32
280
     0
102
RTVSPost2010PropOp32
 70
     1
102
RTVSPost2010Prop33
280
     0
102
RTVSPost2010PropOp33
 70
     1
102
RTVSPost2010Prop34
280
     0
102
RTVSPost2010PropOp34
 70
     1
102
RTVSPost2010Prop35
280
     0
102
RTVSPost2010PropOp35
 70
     1
102
RTVSPost2010Prop36
280
     0
102
RTVSPost2010PropOp36
 70
     1
102
RTVSPost2010Prop37
 90
       50
102
RTVSPost2010PropOp37
 70
     1
102
RTVSPost2010Prop38
140
0.0
102
RTVSPost2010PropOp38
 70
     1
102
RTVSPost2010Prop39
140
1.0
102
RTVSPost2010PropOp39
 70
     1
102
RTVSPost2010Prop40
 90
        0
102
RTVSPost2010PropOp40
 70
     1
102
RTVSPost2010Prop41ColorIndex
 90
       18
102
RTVSPost2010Prop41ColorRGB
 90
        0
102
RTVSPost2010PropOp41
 70
     1
102
RTVSPost2010Prop42
 90
       50
102
RTVSPost2010PropOp42
 70
     1
102
RTVSPost2010Prop43
 90
        3
102
RTVSPost2010PropOp43
 70
     1
102
RTVSPost2010Prop44ColorIndex
 90
        5
102
RTVSPost2010Prop44ColorRGB
 90
      255
102
RTVSPost2010PropOp44
 70
     1
102
RTVSPost2010Prop45
280
     0
102
RTVSPost2010PropOp45
 70
     1
102
RTVSPost2010Prop46
 90
       50
102
RTVSPost2010PropOp46
 70
     1
102
RTVSPost2010Prop47
 90
       50
102
RTVSPost2010PropOp47
 70
     1
102
RTVSPost2010Prop48
 90
       50
102
RTVSPost2010PropOp48
 70
     1
102
RTVSPost2010Prop49
280
     0
102
RTVSPost2010PropOp49
 70
     1
102
RTVSPost2010Prop50
 90
       50
102
RTVSPost2010PropOp50
 70
     1
102
RTVSPost2010Prop51ColorIndex
 90
      256
102
RTVSPost2010Prop51ColorRGB
 90
-16777216
102
RTVSPost2010PropOp51
 70
     0
102
RTVSPost2010Prop52
140
1.0
102
RTVSPost2010PropOp52
 70
     0
102
RTVSPost2010Prop53
 90
        2
102
RTVSPost2010PropOp53
 70
     1
102
RTVSPost2010Prop54
  1
strokes_ogs.tif
102
RTVSPost2010PropOp54
 70
     1
102
RTVSPost2010Prop55
280
     0
102
RTVSPost2010PropOp55
 70
     1
102
RTVSPost2010Prop56
140
1.0
102
RTVSPost2010PropOp56
 70
     1
102
RTVSPost2010Prop57
140
1.0
102
RTVSPost2010PropOp57
 70
     1
102
RTVSPropertyOp0
 70
     1
102
RTVSPropertyOp1
 70
     1
102
RTVSPropertyOp2
 70
     1
102
RTVSPropertyOp3
 70
     1
102
RTVSPropertyOp4
 70
     1
102
RTVSPropertyOp5
 70
     1
102
RTVSPropertyOp6
 70
     1
102
RTVSPropertyOp7
 70
     1
102
RTVSPropertyOp8
 70
     1
102
RTVSPropertyOp9
 70
     1
102
RTVSPropertyOp10
 70
     1
102
RTVSPropertyOp11
 70
     1
102
RTVSPropertyOp12
 70
     1
102
RTVSPropertyOp13
 70
     1
102
RTVSPropertyOp14
 70
     1
102
RTVSPropertyOp15
 70
     1
102
RTVSPropertyOp16
 70
     1
102
RTVSPropertyOp17
 70
     1
102
RTVSPropertyOp18
 70
     1
102
RTVSPropertyOp19
 70
     1
102
RTVSPropertyOp20
 70
     1
102
RTVSPropertyOp21
 70
     1
102
RTVSPropertyOp22
 70
     1
102
RTVSPropertyOp23
 70
     1
102
RTVSPropertyOp24
 70
     1
102
RTVSPropertyOp25
 70
     1
102
RTVSPropertyOp26
 70
     1
102
RTVSPropertyOp27
 70
     1
102
RTVSPropertyOp28
 70
     1
102
RTVSPropertyOp29
 70
     1
102
RTVSPropertyOp30
 70
     1
102
RTVSPropertyOp31
 70
     1
102
RTVSPropertyOp32
 70
     1
102
RTVSPropertyOp33
 70
     1
102
RTVSPropertyOp34
 70
     1
102
RTVSPropertyOp35
 70
     1
102
RTVSPropertyOp36
 70
     1
102
RTVSPropertyOp37
 70
     1
102
RTVSPropertyOp38
 70
     1
102
RTVSPropertyOp39
 70
     1
102
RTVSPropertyOp40
 70
     1
102
RTVSPropertyOp41
 70
     1
102
RTVSPropertyOp42
 70
     1
102
RTVSPropertyOp43
 70
     1
102
RTVSPropertyOp44
 70
     1
102
RTVSPropertyOp45
 70
     1
102
RTVSPropertyOp46
 70
     1
102
RTVSPropertyOp47
 70
     1
102
RTVSPropertyOp48
 70
     1
102
RTVSPropertyOp49
 70
     1
102
RTVSPropertyOp50
 70
     1
102
RTVSPropertyOp51
 70
     0
102
RTVSPropertyOp52
 70
     0
102
RTVSPropertyOp53
 70
     1
102
RTVSPropertyOp54
 70
     1
102
RTVSPropertyOp55
 70
     1
102
RTVSPropertyOp56
 70
     1
102
RTVSPropertyOp57
 70
     1
102
RTVSPropertyOp58
 70
     1
102
RTVSPropertyOp59
 70
     1
102
RTVSPropertyOp60
 70
     1
102
RTVSPropertyOp61
 70
     1
102
RTVSPropertyOp62
 70
     1
  0
XRECORD
  5
FF59
102
{ACAD_REACTORS
330
FF58
102
}
330
FF58
100
AcDbXrecord
280
     1
102
RTVSPost2010Prop28
280
     0
102
RTVSPost2010PropOp28
 70
     1
102
RTVSPost2010Prop29
280
     1
102
RTVSPost2010PropOp29
 70
     1
102
RTVSPost2010Prop30
280
     1
102
RTVSPost2010PropOp30
 70
     1
102
RTVSPost2010Prop31
280
     0
102
RTVSPost2010PropOp31
 70
     1
102
RTVSPost2010Prop32
280
     0
102
RTVSPost2010PropOp32
 70
     1
102
RTVSPost2010Prop33
280
     0
102
RTVSPost2010PropOp33
 70
     1
102
RTVSPost2010Prop34
280
     0
102
RTVSPost2010PropOp34
 70
     1
102
RTVSPost2010Prop35
280
     0
102
RTVSPost2010PropOp35
 70
     1
102
RTVSPost2010Prop36
280
     0
102
RTVSPost2010PropOp36
 70
     1
102
RTVSPost2010Prop37
 90
       50
102
RTVSPost2010PropOp37
 70
     1
102
RTVSPost2010Prop38
140
0.0
102
RTVSPost2010PropOp38
 70
     1
102
RTVSPost2010Prop39
140
1.0
102
RTVSPost2010PropOp39
 70
     1
102
RTVSPost2010Prop40
 90
        0
102
RTVSPost2010PropOp40
 70
     1
102
RTVSPost2010Prop41ColorIndex
 90
       18
102
RTVSPost2010Prop41ColorRGB
 90
        0
102
RTVSPost2010PropOp41
 70
     1
102
RTVSPost2010Prop42
 90
       50
102
RTVSPost2010PropOp42
 70
     1
102
RTVSPost2010Prop43
 90
        3
102
RTVSPost2010PropOp43
 70
     1
102
RTVSPost2010Prop44ColorIndex
 90
        5
102
RTVSPost2010Prop44ColorRGB
 90
      255
102
RTVSPost2010PropOp44
 70
     1
102
RTVSPost2010Prop45
280
     0
102
RTVSPost2010PropOp45
 70
     1
102
RTVSPost2010Prop46
 90
       50
102
RTVSPost2010PropOp46
 70
     1
102
RTVSPost2010Prop47
 90
       50
102
RTVSPost2010PropOp47
 70
     1
102
RTVSPost2010Prop48
 90
       50
102
RTVSPost2010PropOp48
 70
     1
102
RTVSPost2010Prop49
280
     0
102
RTVSPost2010PropOp49
 70
     1
102
RTVSPost2010Prop50
 90
       50
102
RTVSPost2010PropOp50
 70
     1
102
RTVSPost2010Prop51ColorIndex
 90
      256
102
RTVSPost2010Prop51ColorRGB
 90
-16777216
102
RTVSPost2010PropOp51
 70
     0
102
RTVSPost2010Prop52
140
1.0
102
RTVSPost2010PropOp52
 70
     0
102
RTVSPost2010Prop53
 90
        2
102
RTVSPost2010PropOp53
 70
     1
102
RTVSPost2010Prop54
  1
strokes_ogs.tif
102
RTVSPost2010PropOp54
 70
     1
102
RTVSPost2010Prop55
280
     0
102
RTVSPost2010PropOp55
 70
     1
102
RTVSPost2010Prop56
140
1.0
102
RTVSPost2010PropOp56
 70
     1
102
RTVSPost2010Prop57
140
1.0
102
RTVSPost2010PropOp57
 70
     1
102
RTVSPropertyOp0
 70
     1
102
RTVSPropertyOp1
 70
     1
102
RTVSPropertyOp2
 70
     1
102
RTVSPropertyOp3
 70
     1
102
RTVSPropertyOp4
 70
     1
102
RTVSPropertyOp5
 70
     1
102
RTVSPropertyOp6
 70
     1
102
RTVSPropertyOp7
 70
     1
102
RTVSPropertyOp8
 70
     1
102
RTVSPropertyOp9
 70
     1
102
RTVSPropertyOp10
 70
     1
102
RTVSPropertyOp11
 70
     1
102
RTVSPropertyOp12
 70
     1
102
RTVSPropertyOp13
 70
     1
102
RTVSPropertyOp14
 70
     1
102
RTVSPropertyOp15
 70
     1
102
RTVSPropertyOp16
 70
     1
102
RTVSPropertyOp17
 70
     1
102
RTVSPropertyOp18
 70
     1
102
RTVSPropertyOp19
 70
     1
102
RTVSPropertyOp20
 70
     1
102
RTVSPropertyOp21
 70
     1
102
RTVSPropertyOp22
 70
     1
102
RTVSPropertyOp23
 70
     1
102
RTVSPropertyOp24
 70
     1
102
RTVSPropertyOp25
 70
     1
102
RTVSPropertyOp26
 70
     1
102
RTVSPropertyOp27
 70
     1
102
RTVSPropertyOp28
 70
     1
102
RTVSPropertyOp29
 70
     1
102
RTVSPropertyOp30
 70
     1
102
RTVSPropertyOp31
 70
     1
102
RTVSPropertyOp32
 70
     1
102
RTVSPropertyOp33
 70
     1
102
RTVSPropertyOp34
 70
     1
102
RTVSPropertyOp35
 70
     1
102
RTVSPropertyOp36
 70
     1
102
RTVSPropertyOp37
 70
     1
102
RTVSPropertyOp38
 70
     1
102
RTVSPropertyOp39
 70
     1
102
RTVSPropertyOp40
 70
     1
102
RTVSPropertyOp41
 70
     1
102
RTVSPropertyOp42
 70
     1
102
RTVSPropertyOp43
 70
     1
102
RTVSPropertyOp44
 70
     1
102
RTVSPropertyOp45
 70
     1
102
RTVSPropertyOp46
 70
     1
102
RTVSPropertyOp47
 70
     1
102
RTVSPropertyOp48
 70
     1
102
RTVSPropertyOp49
 70
     1
102
RTVSPropertyOp50
 70
     1
102
RTVSPropertyOp51
 70
     0
102
RTVSPropertyOp52
 70
     0
102
RTVSPropertyOp53
 70
     1
102
RTVSPropertyOp54
 70
     1
102
RTVSPropertyOp55
 70
     1
102
RTVSPropertyOp56
 70
     1
102
RTVSPropertyOp57
 70
     1
102
RTVSPropertyOp58
 70
     1
102
RTVSPropertyOp59
 70
     1
102
RTVSPropertyOp60
 70
     1
102
RTVSPropertyOp61
 70
     1
102
RTVSPropertyOp62
 70
     1
  0
XRECORD
  5
FF61
102
{ACAD_REACTORS
330
FF60
102
}
330
FF60
100
AcDbXrecord
280
     1
102
RTVSPost2010Prop28
280
     0
102
RTVSPost2010PropOp28
 70
     1
102
RTVSPost2010Prop29
280
     1
102
RTVSPost2010PropOp29
 70
     1
102
RTVSPost2010Prop30
280
     1
102
RTVSPost2010PropOp30
 70
     1
102
RTVSPost2010Prop31
280
     0
102
RTVSPost2010PropOp31
 70
     1
102
RTVSPost2010Prop32
280
     0
102
RTVSPost2010PropOp32
 70
     1
102
RTVSPost2010Prop33
280
     0
102
RTVSPost2010PropOp33
 70
     1
102
RTVSPost2010Prop34
280
     0
102
RTVSPost2010PropOp34
 70
     1
102
RTVSPost2010Prop35
280
     0
102
RTVSPost2010PropOp35
 70
     1
102
RTVSPost2010Prop36
280
     0
102
RTVSPost2010PropOp36
 70
     1
102
RTVSPost2010Prop37
 90
       50
102
RTVSPost2010PropOp37
 70
     1
102
RTVSPost2010Prop38
140
0.0
102
RTVSPost2010PropOp38
 70
     1
102
RTVSPost2010Prop39
140
1.0
102
RTVSPost2010PropOp39
 70
     1
102
RTVSPost2010Prop40
 90
        0
102
RTVSPost2010PropOp40
 70
     1
102
RTVSPost2010Prop41ColorIndex
 90
       18
102
RTVSPost2010Prop41ColorRGB
 90
        0
102
RTVSPost2010PropOp41
 70
     1
102
RTVSPost2010Prop42
 90
       50
102
RTVSPost2010PropOp42
 70
     1
102
RTVSPost2010Prop43
 90
        3
102
RTVSPost2010PropOp43
 70
     1
102
RTVSPost2010Prop44ColorIndex
 90
        5
102
RTVSPost2010Prop44ColorRGB
 90
      255
102
RTVSPost2010PropOp44
 70
     1
102
RTVSPost2010Prop45
280
     0
102
RTVSPost2010PropOp45
 70
     1
102
RTVSPost2010Prop46
 90
       50
102
RTVSPost2010PropOp46
 70
     1
102
RTVSPost2010Prop47
 90
       50
102
RTVSPost2010PropOp47
 70
     1
102
RTVSPost2010Prop48
 90
       50
102
RTVSPost2010PropOp48
 70
     1
102
RTVSPost2010Prop49
280
     0
102
RTVSPost2010PropOp49
 70
     1
102
RTVSPost2010Prop50
 90
       50
102
RTVSPost2010PropOp50
 70
     1
102
RTVSPost2010Prop51ColorIndex
 90
      256
102
RTVSPost2010Prop51ColorRGB
 90
-16777216
102
RTVSPost2010PropOp51
 70
     0
102
RTVSPost2010Prop52
140
1.0
102
RTVSPost2010PropOp52
 70
     0
102
RTVSPost2010Prop53
 90
        2
102
RTVSPost2010PropOp53
 70
     1
102
RTVSPost2010Prop54
  1
strokes_ogs.tif
102
RTVSPost2010PropOp54
 70
     1
102
RTVSPost2010Prop55
280
     0
102
RTVSPost2010PropOp55
 70
     1
102
RTVSPost2010Prop56
140
1.0
102
RTVSPost2010PropOp56
 70
     1
102
RTVSPost2010Prop57
140
1.0
102
RTVSPost2010PropOp57
 70
     1
102
RTVSPropertyOp0
 70
     1
102
RTVSPropertyOp1
 70
     1
102
RTVSPropertyOp2
 70
     1
102
RTVSPropertyOp3
 70
     1
102
RTVSPropertyOp4
 70
     1
102
RTVSPropertyOp5
 70
     1
102
RTVSPropertyOp6
 70
     1
102
RTVSPropertyOp7
 70
     1
102
RTVSPropertyOp8
 70
     1
102
RTVSPropertyOp9
 70
     1
102
RTVSPropertyOp10
 70
     1
102
RTVSPropertyOp11
 70
     1
102
RTVSPropertyOp12
 70
     1
102
RTVSPropertyOp13
 70
     1
102
RTVSPropertyOp14
 70
     1
102
RTVSPropertyOp15
 70
     1
102
RTVSPropertyOp16
 70
     1
102
RTVSPropertyOp17
 70
     1
102
RTVSPropertyOp18
 70
     1
102
RTVSPropertyOp19
 70
     1
102
RTVSPropertyOp20
 70
     1
102
RTVSPropertyOp21
 70
     1
102
RTVSPropertyOp22
 70
     1
102
RTVSPropertyOp23
 70
     1
102
RTVSPropertyOp24
 70
     1
102
RTVSPropertyOp25
 70
     1
102
RTVSPropertyOp26
 70
     1
102
RTVSPropertyOp27
 70
     1
102
RTVSPropertyOp28
 70
     1
102
RTVSPropertyOp29
 70
     1
102
RTVSPropertyOp30
 70
     1
102
RTVSPropertyOp31
 70
     1
102
RTVSPropertyOp32
 70
     1
102
RTVSPropertyOp33
 70
     1
102
RTVSPropertyOp34
 70
     1
102
RTVSPropertyOp35
 70
     1
102
RTVSPropertyOp36
 70
     1
102
RTVSPropertyOp37
 70
     1
102
RTVSPropertyOp38
 70
     1
102
RTVSPropertyOp39
 70
     1
102
RTVSPropertyOp40
 70
     1
102
RTVSPropertyOp41
 70
     1
102
RTVSPropertyOp42
 70
     1
102
RTVSPropertyOp43
 70
     1
102
RTVSPropertyOp44
 70
     1
102
RTVSPropertyOp45
 70
     1
102
RTVSPropertyOp46
 70
     1
102
RTVSPropertyOp47
 70
     1
102
RTVSPropertyOp48
 70
     1
102
RTVSPropertyOp49
 70
     1
102
RTVSPropertyOp50
 70
     1
102
RTVSPropertyOp51
 70
     0
102
RTVSPropertyOp52
 70
     0
102
RTVSPropertyOp53
 70
     1
102
RTVSPropertyOp54
 70
     1
102
RTVSPropertyOp55
 70
     1
102
RTVSPropertyOp56
 70
     1
102
RTVSPropertyOp57
 70
     1
102
RTVSPropertyOp58
 70
     1
102
RTVSPropertyOp59
 70
     1
102
RTVSPropertyOp60
 70
     1
102
RTVSPropertyOp61
 70
     1
102
RTVSPropertyOp62
 70
     1
  0
XRECORD
  5
FF7D
102
{ACAD_REACTORS
330
FF7C
102
}
330
FF7C
100
AcDbXrecord
280
     1
102
RTVSPost2010Prop28
280
     0
102
RTVSPost2010PropOp28
 70
     0
102
RTVSPost2010Prop29
280
     1
102
RTVSPost2010PropOp29
 70
     0
102
RTVSPost2010Prop30
280
     1
102
RTVSPost2010PropOp30
 70
     0
102
RTVSPost2010Prop31
280
     0
102
RTVSPost2010PropOp31
 70
     0
102
RTVSPost2010Prop32
280
     0
102
RTVSPost2010PropOp32
 70
     0
102
RTVSPost2010Prop33
280
     0
102
RTVSPost2010PropOp33
 70
     0
102
RTVSPost2010Prop34
280
     0
102
RTVSPost2010PropOp34
 70
     0
102
RTVSPost2010Prop35
280
     0
102
RTVSPost2010PropOp35
 70
     0
102
RTVSPost2010Prop36
280
     0
102
RTVSPost2010PropOp36
 70
     0
102
RTVSPost2010Prop37
 90
       50
102
RTVSPost2010PropOp37
 70
     0
102
RTVSPost2010Prop38
140
0.0
102
RTVSPost2010PropOp38
 70
     0
102
RTVSPost2010Prop39
140
1.0
102
RTVSPost2010PropOp39
 70
     0
102
RTVSPost2010Prop40
 90
        0
102
RTVSPost2010PropOp40
 70
     0
102
RTVSPost2010Prop41ColorIndex
 90
       18
102
RTVSPost2010Prop41ColorRGB
 90
        0
102
RTVSPost2010PropOp41
 70
     0
102
RTVSPost2010Prop42
 90
       50
102
RTVSPost2010PropOp42
 70
     0
102
RTVSPost2010Prop43
 90
        3
102
RTVSPost2010PropOp43
 70
     0
102
RTVSPost2010Prop44ColorIndex
 90
        5
102
RTVSPost2010Prop44ColorRGB
 90
      255
102
RTVSPost2010PropOp44
 70
     0
102
RTVSPost2010Prop45
280
     0
102
RTVSPost2010PropOp45
 70
     0
102
RTVSPost2010Prop46
 90
       50
102
RTVSPost2010PropOp46
 70
     0
102
RTVSPost2010Prop47
 90
       50
102
RTVSPost2010PropOp47
 70
     0
102
RTVSPost2010Prop48
 90
       50
102
RTVSPost2010PropOp48
 70
     0
102
RTVSPost2010Prop49
280
     0
102
RTVSPost2010PropOp49
 70
     0
102
RTVSPost2010Prop50
 90
       50
102
RTVSPost2010PropOp50
 70
     0
102
RTVSPost2010Prop51ColorIndex
 90
      256
102
RTVSPost2010Prop51ColorRGB
 90
-16777216
102
RTVSPost2010PropOp51
 70
     0
102
RTVSPost2010Prop52
140
1.0
102
RTVSPost2010PropOp52
 70
     0
102
RTVSPost2010Prop53
 90
        2
102
RTVSPost2010PropOp53
 70
     0
102
RTVSPost2010Prop54
  1
strokes_ogs.tif
102
RTVSPost2010PropOp54
 70
     0
102
RTVSPost2010Prop55
280
     0
102
RTVSPost2010PropOp55
 70
     0
102
RTVSPost2010Prop56
140
1.0
102
RTVSPost2010PropOp56
 70
     0
102
RTVSPost2010Prop57
140
1.0
102
RTVSPost2010PropOp57
 70
     0
102
RTVSPropertyOp0
 70
     0
102
RTVSPropertyOp1
 70
     0
102
RTVSPropertyOp2
 70
     0
102
RTVSPropertyOp3
 70
     0
102
RTVSPropertyOp4
 70
     0
102
RTVSPropertyOp5
 70
     0
102
RTVSPropertyOp6
 70
     0
102
RTVSPropertyOp7
 70
     0
102
RTVSPropertyOp8
 70
     0
102
RTVSPropertyOp9
 70
     0
102
RTVSPropertyOp10
 70
     0
102
RTVSPropertyOp11
 70
     0
102
RTVSPropertyOp12
 70
     0
102
RTVSPropertyOp13
 70
     0
102
RTVSPropertyOp14
 70
     2
102
RTVSPropertyOp15
 70
     0
102
RTVSPropertyOp16
 70
     0
102
RTVSPropertyOp17
 70
     0
102
RTVSPropertyOp18
 70
     0
102
RTVSPropertyOp19
 70
     0
102
RTVSPropertyOp20
 70
     0
102
RTVSPropertyOp21
 70
     0
102
RTVSPropertyOp22
 70
     0
102
RTVSPropertyOp23
 70
     0
102
RTVSPropertyOp24
 70
     0
102
RTVSPropertyOp25
 70
     0
102
RTVSPropertyOp26
 70
     0
102
RTVSPropertyOp27
 70
     0
102
RTVSPropertyOp28
 70
     0
102
RTVSPropertyOp29
 70
     0
102
RTVSPropertyOp30
 70
     0
102
RTVSPropertyOp31
 70
     0
102
RTVSPropertyOp32
 70
     0
102
RTVSPropertyOp33
 70
     0
102
RTVSPropertyOp34
 70
     0
102
RTVSPropertyOp35
 70
     0
102
RTVSPropertyOp36
 70
     0
102
RTVSPropertyOp37
 70
     0
102
RTVSPropertyOp38
 70
     0
102
RTVSPropertyOp39
 70
     0
102
RTVSPropertyOp40
 70
     0
102
RTVSPropertyOp41
 70
     0
102
RTVSPropertyOp42
 70
     0
102
RTVSPropertyOp43
 70
     0
102
RTVSPropertyOp44
 70
     0
102
RTVSPropertyOp45
 70
     0
102
RTVSPropertyOp46
 70
     0
102
RTVSPropertyOp47
 70
     0
102
RTVSPropertyOp48
 70
     0
102
RTVSPropertyOp49
 70
     0
102
RTVSPropertyOp50
 70
     0
102
RTVSPropertyOp51
 70
     0
102
RTVSPropertyOp52
 70
     0
102
RTVSPropertyOp53
 70
     0
102
RTVSPropertyOp54
 70
     0
102
RTVSPropertyOp55
 70
     0
102
RTVSPropertyOp56
 70
     0
102
RTVSPropertyOp57
 70
     0
102
RTVSPropertyOp58
 70
     0
102
RTVSPropertyOp59
 70
     0
102
RTVSPropertyOp60
 70
     0
102
RTVSPropertyOp61
 70
     0
102
RTVSPropertyOp62
 70
     0
  0
XRECORD
  5
FF6D
102
{ACAD_REACTORS
330
FF6C
102
}
330
FF6C
100
AcDbXrecord
280
     1
102
RTVSPost2010Prop28
280
     0
102
RTVSPost2010PropOp28
 70
     1
102
RTVSPost2010Prop29
280
     1
102
RTVSPost2010PropOp29
 70
     1
102
RTVSPost2010Prop30
280
     1
102
RTVSPost2010PropOp30
 70
     1
102
RTVSPost2010Prop31
280
     0
102
RTVSPost2010PropOp31
 70
     1
102
RTVSPost2010Prop32
280
     0
102
RTVSPost2010PropOp32
 70
     1
102
RTVSPost2010Prop33
280
     0
102
RTVSPost2010PropOp33
 70
     1
102
RTVSPost2010Prop34
280
     0
102
RTVSPost2010PropOp34
 70
     1
102
RTVSPost2010Prop35
280
     0
102
RTVSPost2010PropOp35
 70
     1
102
RTVSPost2010Prop36
280
     0
102
RTVSPost2010PropOp36
 70
     1
102
RTVSPost2010Prop37
 90
       50
102
RTVSPost2010PropOp37
 70
     1
102
RTVSPost2010Prop38
140
0.0
102
RTVSPost2010PropOp38
 70
     1
102
RTVSPost2010Prop39
140
1.0
102
RTVSPost2010PropOp39
 70
     1
102
RTVSPost2010Prop40
 90
        0
102
RTVSPost2010PropOp40
 70
     1
102
RTVSPost2010Prop41ColorIndex
 90
       18
102
RTVSPost2010Prop41ColorRGB
 90
        0
102
RTVSPost2010PropOp41
 70
     1
102
RTVSPost2010Prop42
 90
       50
102
RTVSPost2010PropOp42
 70
     1
102
RTVSPost2010Prop43
 90
        3
102
RTVSPost2010PropOp43
 70
     1
102
RTVSPost2010Prop44ColorIndex
 90
        5
102
RTVSPost2010Prop44ColorRGB
 90
      255
102
RTVSPost2010PropOp44
 70
     1
102
RTVSPost2010Prop45
280
     0
102
RTVSPost2010PropOp45
 70
     1
102
RTVSPost2010Prop46
 90
       50
102
RTVSPost2010PropOp46
 70
     1
102
RTVSPost2010Prop47
 90
       50
102
RTVSPost2010PropOp47
 70
     1
102
RTVSPost2010Prop48
 90
       50
102
RTVSPost2010PropOp48
 70
     1
102
RTVSPost2010Prop49
280
     0
102
RTVSPost2010PropOp49
 70
     1
102
RTVSPost2010Prop50
 90
       50
102
RTVSPost2010PropOp50
 70
     1
102
RTVSPost2010Prop51ColorIndex
 90
      256
102
RTVSPost2010Prop51ColorRGB
 90
-16777216
102
RTVSPost2010PropOp51
 70
     0
102
RTVSPost2010Prop52
140
1.0
102
RTVSPost2010PropOp52
 70
     0
102
RTVSPost2010Prop53
 90
        2
102
RTVSPost2010PropOp53
 70
     1
102
RTVSPost2010Prop54
  1
strokes_ogs.tif
102
RTVSPost2010PropOp54
 70
     1
102
RTVSPost2010Prop55
280
     0
102
RTVSPost2010PropOp55
 70
     1
102
RTVSPost2010Prop56
140
1.0
102
RTVSPost2010PropOp56
 70
     1
102
RTVSPost2010Prop57
140
1.0
102
RTVSPost2010PropOp57
 70
     1
102
RTVSPropertyOp0
 70
     1
102
RTVSPropertyOp1
 70
     1
102
RTVSPropertyOp2
 70
     1
102
RTVSPropertyOp3
 70
     1
102
RTVSPropertyOp4
 70
     1
102
RTVSPropertyOp5
 70
     1
102
RTVSPropertyOp6
 70
     1
102
RTVSPropertyOp7
 70
     1
102
RTVSPropertyOp8
 70
     1
102
RTVSPropertyOp9
 70
     1
102
RTVSPropertyOp10
 70
     1
102
RTVSPropertyOp11
 70
     1
102
RTVSPropertyOp12
 70
     1
102
RTVSPropertyOp13
 70
     1
102
RTVSPropertyOp14
 70
     1
102
RTVSPropertyOp15
 70
     1
102
RTVSPropertyOp16
 70
     1
102
RTVSPropertyOp17
 70
     1
102
RTVSPropertyOp18
 70
     1
102
RTVSPropertyOp19
 70
     1
102
RTVSPropertyOp20
 70
     1
102
RTVSPropertyOp21
 70
     1
102
RTVSPropertyOp22
 70
     1
102
RTVSPropertyOp23
 70
     1
102
RTVSPropertyOp24
 70
     1
102
RTVSPropertyOp25
 70
     1
102
RTVSPropertyOp26
 70
     1
102
RTVSPropertyOp27
 70
     1
102
RTVSPropertyOp28
 70
     1
102
RTVSPropertyOp29
 70
     1
102
RTVSPropertyOp30
 70
     1
102
RTVSPropertyOp31
 70
     1
102
RTVSPropertyOp32
 70
     1
102
RTVSPropertyOp33
 70
     1
102
RTVSPropertyOp34
 70
     1
102
RTVSPropertyOp35
 70
     1
102
RTVSPropertyOp36
 70
     1
102
RTVSPropertyOp37
 70
     1
102
RTVSPropertyOp38
 70
     1
102
RTVSPropertyOp39
 70
     1
102
RTVSPropertyOp40
 70
     1
102
RTVSPropertyOp41
 70
     1
102
RTVSPropertyOp42
 70
     1
102
RTVSPropertyOp43
 70
     1
102
RTVSPropertyOp44
 70
     1
102
RTVSPropertyOp45
 70
     1
102
RTVSPropertyOp46
 70
     1
102
RTVSPropertyOp47
 70
     1
102
RTVSPropertyOp48
 70
     1
102
RTVSPropertyOp49
 70
     1
102
RTVSPropertyOp50
 70
     1
102
RTVSPropertyOp51
 70
     0
102
RTVSPropertyOp52
 70
     0
102
RTVSPropertyOp53
 70
     1
102
RTVSPropertyOp54
 70
     1
102
RTVSPropertyOp55
 70
     1
102
RTVSPropertyOp56
 70
     1
102
RTVSPropertyOp57
 70
     1
102
RTVSPropertyOp58
 70
     1
102
RTVSPropertyOp59
 70
     1
102
RTVSPropertyOp60
 70
     1
102
RTVSPropertyOp61
 70
     1
102
RTVSPropertyOp62
 70
     1
  0
XRECORD
  5
FF7F
102
{ACAD_REACTORS
330
FF7E
102
}
330
FF7E
100
AcDbXrecord
280
     1
102
RTVSPost2010Prop28
280
     0
102
RTVSPost2010PropOp28
 70
     0
102
RTVSPost2010Prop29
280
     1
102
RTVSPost2010PropOp29
 70
     0
102
RTVSPost2010Prop30
280
     1
102
RTVSPost2010PropOp30
 70
     0
102
RTVSPost2010Prop31
280
     0
102
RTVSPost2010PropOp31
 70
     0
102
RTVSPost2010Prop32
280
     0
102
RTVSPost2010PropOp32
 70
     0
102
RTVSPost2010Prop33
280
     0
102
RTVSPost2010PropOp33
 70
     0
102
RTVSPost2010Prop34
280
     0
102
RTVSPost2010PropOp34
 70
     0
102
RTVSPost2010Prop35
280
     0
102
RTVSPost2010PropOp35
 70
     0
102
RTVSPost2010Prop36
280
     0
102
RTVSPost2010PropOp36
 70
     0
102
RTVSPost2010Prop37
 90
       50
102
RTVSPost2010PropOp37
 70
     0
102
RTVSPost2010Prop38
140
0.0
102
RTVSPost2010PropOp38
 70
     0
102
RTVSPost2010Prop39
140
1.0
102
RTVSPost2010PropOp39
 70
     0
102
RTVSPost2010Prop40
 90
        0
102
RTVSPost2010PropOp40
 70
     0
102
RTVSPost2010Prop41ColorIndex
 90
       18
102
RTVSPost2010Prop41ColorRGB
 90
        0
102
RTVSPost2010PropOp41
 70
     0
102
RTVSPost2010Prop42
 90
       50
102
RTVSPost2010PropOp42
 70
     0
102
RTVSPost2010Prop43
 90
        3
102
RTVSPost2010PropOp43
 70
     0
102
RTVSPost2010Prop44ColorIndex
 90
        5
102
RTVSPost2010Prop44ColorRGB
 90
      255
102
RTVSPost2010PropOp44
 70
     0
102
RTVSPost2010Prop45
280
     0
102
RTVSPost2010PropOp45
 70
     0
102
RTVSPost2010Prop46
 90
       50
102
RTVSPost2010PropOp46
 70
     0
102
RTVSPost2010Prop47
 90
       50
102
RTVSPost2010PropOp47
 70
     0
102
RTVSPost2010Prop48
 90
       50
102
RTVSPost2010PropOp48
 70
     0
102
RTVSPost2010Prop49
280
     0
102
RTVSPost2010PropOp49
 70
     0
102
RTVSPost2010Prop50
 90
       50
102
RTVSPost2010PropOp50
 70
     0
102
RTVSPost2010Prop51ColorIndex
 90
      256
102
RTVSPost2010Prop51ColorRGB
 90
-16777216
102
RTVSPost2010PropOp51
 70
     0
102
RTVSPost2010Prop52
140
1.0
102
RTVSPost2010PropOp52
 70
     0
102
RTVSPost2010Prop53
 90
        2
102
RTVSPost2010PropOp53
 70
     0
102
RTVSPost2010Prop54
  1
strokes_ogs.tif
102
RTVSPost2010PropOp54
 70
     0
102
RTVSPost2010Prop55
280
     0
102
RTVSPost2010PropOp55
 70
     0
102
RTVSPost2010Prop56
140
1.0
102
RTVSPost2010PropOp56
 70
     0
102
RTVSPost2010Prop57
140
1.0
102
RTVSPost2010PropOp57
 70
     0
102
RTVSPropertyOp0
 70
     0
102
RTVSPropertyOp1
 70
     0
102
RTVSPropertyOp2
 70
     0
102
RTVSPropertyOp3
 70
     0
102
RTVSPropertyOp4
 70
     0
102
RTVSPropertyOp5
 70
     0
102
RTVSPropertyOp6
 70
     0
102
RTVSPropertyOp7
 70
     0
102
RTVSPropertyOp8
 70
     0
102
RTVSPropertyOp9
 70
     0
102
RTVSPropertyOp10
 70
     0
102
RTVSPropertyOp11
 70
     0
102
RTVSPropertyOp12
 70
     0
102
RTVSPropertyOp13
 70
     0
102
RTVSPropertyOp14
 70
     2
102
RTVSPropertyOp15
 70
     0
102
RTVSPropertyOp16
 70
     0
102
RTVSPropertyOp17
 70
     0
102
RTVSPropertyOp18
 70
     0
102
RTVSPropertyOp19
 70
     0
102
RTVSPropertyOp20
 70
     0
102
RTVSPropertyOp21
 70
     0
102
RTVSPropertyOp22
 70
     0
102
RTVSPropertyOp23
 70
     0
102
RTVSPropertyOp24
 70
     0
102
RTVSPropertyOp25
 70
     0
102
RTVSPropertyOp26
 70
     0
102
RTVSPropertyOp27
 70
     0
102
RTVSPropertyOp28
 70
     0
102
RTVSPropertyOp29
 70
     0
102
RTVSPropertyOp30
 70
     0
102
RTVSPropertyOp31
 70
     0
102
RTVSPropertyOp32
 70
     0
102
RTVSPropertyOp33
 70
     0
102
RTVSPropertyOp34
 70
     0
102
RTVSPropertyOp35
 70
     0
102
RTVSPropertyOp36
 70
     0
102
RTVSPropertyOp37
 70
     0
102
RTVSPropertyOp38
 70
     0
102
RTVSPropertyOp39
 70
     0
102
RTVSPropertyOp40
 70
     0
102
RTVSPropertyOp41
 70
     0
102
RTVSPropertyOp42
 70
     0
102
RTVSPropertyOp43
 70
     0
102
RTVSPropertyOp44
 70
     0
102
RTVSPropertyOp45
 70
     0
102
RTVSPropertyOp46
 70
     0
102
RTVSPropertyOp47
 70
     0
102
RTVSPropertyOp48
 70
     0
102
RTVSPropertyOp49
 70
     0
102
RTVSPropertyOp50
 70
     0
102
RTVSPropertyOp51
 70
     0
102
RTVSPropertyOp52
 70
     0
102
RTVSPropertyOp53
 70
     0
102
RTVSPropertyOp54
 70
     0
102
RTVSPropertyOp55
 70
     0
102
RTVSPropertyOp56
 70
     0
102
RTVSPropertyOp57
 70
     0
102
RTVSPropertyOp58
 70
     0
102
RTVSPropertyOp59
 70
     0
102
RTVSPropertyOp60
 70
     0
102
RTVSPropertyOp61
 70
     0
102
RTVSPropertyOp62
 70
     0
  0
XRECORD
  5
FF65
102
{ACAD_REACTORS
330
FF64
102
}
330
FF64
100
AcDbXrecord
280
     1
102
RTVSPost2010Prop28
280
     0
102
RTVSPost2010PropOp28
 70
     1
102
RTVSPost2010Prop29
280
     1
102
RTVSPost2010PropOp29
 70
     1
102
RTVSPost2010Prop30
280
     1
102
RTVSPost2010PropOp30
 70
     1
102
RTVSPost2010Prop31
280
     0
102
RTVSPost2010PropOp31
 70
     1
102
RTVSPost2010Prop32
280
     0
102
RTVSPost2010PropOp32
 70
     1
102
RTVSPost2010Prop33
280
     0
102
RTVSPost2010PropOp33
 70
     1
102
RTVSPost2010Prop34
280
     0
102
RTVSPost2010PropOp34
 70
     1
102
RTVSPost2010Prop35
280
     0
102
RTVSPost2010PropOp35
 70
     1
102
RTVSPost2010Prop36
280
     0
102
RTVSPost2010PropOp36
 70
     1
102
RTVSPost2010Prop37
 90
       50
102
RTVSPost2010PropOp37
 70
     1
102
RTVSPost2010Prop38
140
0.0
102
RTVSPost2010PropOp38
 70
     1
102
RTVSPost2010Prop39
140
1.0
102
RTVSPost2010PropOp39
 70
     1
102
RTVSPost2010Prop40
 90
        0
102
RTVSPost2010PropOp40
 70
     1
102
RTVSPost2010Prop41ColorIndex
 90
       18
102
RTVSPost2010Prop41ColorRGB
 90
        0
102
RTVSPost2010PropOp41
 70
     1
102
RTVSPost2010Prop42
 90
       50
102
RTVSPost2010PropOp42
 70
     1
102
RTVSPost2010Prop43
 90
        3
102
RTVSPost2010PropOp43
 70
     1
102
RTVSPost2010Prop44ColorIndex
 90
        5
102
RTVSPost2010Prop44ColorRGB
 90
      255
102
RTVSPost2010PropOp44
 70
     1
102
RTVSPost2010Prop45
280
     0
102
RTVSPost2010PropOp45
 70
     1
102
RTVSPost2010Prop46
 90
       50
102
RTVSPost2010PropOp46
 70
     1
102
RTVSPost2010Prop47
 90
       50
102
RTVSPost2010PropOp47
 70
     1
102
RTVSPost2010Prop48
 90
       50
102
RTVSPost2010PropOp48
 70
     1
102
RTVSPost2010Prop49
280
     0
102
RTVSPost2010PropOp49
 70
     1
102
RTVSPost2010Prop50
 90
       50
102
RTVSPost2010PropOp50
 70
     1
102
RTVSPost2010Prop51ColorIndex
 90
      256
102
RTVSPost2010Prop51ColorRGB
 90
-16777216
102
RTVSPost2010PropOp51
 70
     0
102
RTVSPost2010Prop52
140
1.0
102
RTVSPost2010PropOp52
 70
     0
102
RTVSPost2010Prop53
 90
        2
102
RTVSPost2010PropOp53
 70
     1
102
RTVSPost2010Prop54
  1
strokes_ogs.tif
102
RTVSPost2010PropOp54
 70
     1
102
RTVSPost2010Prop55
280
     0
102
RTVSPost2010PropOp55
 70
     1
102
RTVSPost2010Prop56
140
1.0
102
RTVSPost2010PropOp56
 70
     1
102
RTVSPost2010Prop57
140
1.0
102
RTVSPost2010PropOp57
 70
     1
102
RTVSPropertyOp0
 70
     1
102
RTVSPropertyOp1
 70
     1
102
RTVSPropertyOp2
 70
     1
102
RTVSPropertyOp3
 70
     1
102
RTVSPropertyOp4
 70
     1
102
RTVSPropertyOp5
 70
     1
102
RTVSPropertyOp6
 70
     1
102
RTVSPropertyOp7
 70
     1
102
RTVSPropertyOp8
 70
     1
102
RTVSPropertyOp9
 70
     1
102
RTVSPropertyOp10
 70
     1
102
RTVSPropertyOp11
 70
     1
102
RTVSPropertyOp12
 70
     1
102
RTVSPropertyOp13
 70
     1
102
RTVSPropertyOp14
 70
     1
102
RTVSPropertyOp15
 70
     1
102
RTVSPropertyOp16
 70
     1
102
RTVSPropertyOp17
 70
     1
102
RTVSPropertyOp18
 70
     1
102
RTVSPropertyOp19
 70
     1
102
RTVSPropertyOp20
 70
     1
102
RTVSPropertyOp21
 70
     1
102
RTVSPropertyOp22
 70
     1
102
RTVSPropertyOp23
 70
     1
102
RTVSPropertyOp24
 70
     1
102
RTVSPropertyOp25
 70
     1
102
RTVSPropertyOp26
 70
     1
102
RTVSPropertyOp27
 70
     1
102
RTVSPropertyOp28
 70
     1
102
RTVSPropertyOp29
 70
     1
102
RTVSPropertyOp30
 70
     1
102
RTVSPropertyOp31
 70
     1
102
RTVSPropertyOp32
 70
     1
102
RTVSPropertyOp33
 70
     1
102
RTVSPropertyOp34
 70
     1
102
RTVSPropertyOp35
 70
     1
102
RTVSPropertyOp36
 70
     1
102
RTVSPropertyOp37
 70
     1
102
RTVSPropertyOp38
 70
     1
102
RTVSPropertyOp39
 70
     1
102
RTVSPropertyOp40
 70
     1
102
RTVSPropertyOp41
 70
     1
102
RTVSPropertyOp42
 70
     1
102
RTVSPropertyOp43
 70
     1
102
RTVSPropertyOp44
 70
     1
102
RTVSPropertyOp45
 70
     1
102
RTVSPropertyOp46
 70
     1
102
RTVSPropertyOp47
 70
     1
102
RTVSPropertyOp48
 70
     1
102
RTVSPropertyOp49
 70
     1
102
RTVSPropertyOp50
 70
     1
102
RTVSPropertyOp51
 70
     0
102
RTVSPropertyOp52
 70
     0
102
RTVSPropertyOp53
 70
     1
102
RTVSPropertyOp54
 70
     1
102
RTVSPropertyOp55
 70
     1
102
RTVSPropertyOp56
 70
     1
102
RTVSPropertyOp57
 70
     1
102
RTVSPropertyOp58
 70
     1
102
RTVSPropertyOp59
 70
     1
102
RTVSPropertyOp60
 70
     1
102
RTVSPropertyOp61
 70
     1
102
RTVSPropertyOp62
 70
     1
  0
XRECORD
  5
FF7B
102
{ACAD_REACTORS
330
FF7A
102
}
330
FF7A
100
AcDbXrecord
280
     1
102
RTVSPost2010Prop28
280
     0
102
RTVSPost2010PropOp28
 70
     1
102
RTVSPost2010Prop29
280
     1
102
RTVSPost2010PropOp29
 70
     1
102
RTVSPost2010Prop30
280
     1
102
RTVSPost2010PropOp30
 70
     1
102
RTVSPost2010Prop31
280
     0
102
RTVSPost2010PropOp31
 70
     1
102
RTVSPost2010Prop32
280
     0
102
RTVSPost2010PropOp32
 70
     1
102
RTVSPost2010Prop33
280
     0
102
RTVSPost2010PropOp33
 70
     1
102
RTVSPost2010Prop34
280
     0
102
RTVSPost2010PropOp34
 70
     1
102
RTVSPost2010Prop35
280
     0
102
RTVSPost2010PropOp35
 70
     1
102
RTVSPost2010Prop36
280
     0
102
RTVSPost2010PropOp36
 70
     1
102
RTVSPost2010Prop37
 90
       50
102
RTVSPost2010PropOp37
 70
     1
102
RTVSPost2010Prop38
140
0.0
102
RTVSPost2010PropOp38
 70
     1
102
RTVSPost2010Prop39
140
1.0
102
RTVSPost2010PropOp39
 70
     1
102
RTVSPost2010Prop40
 90
        0
102
RTVSPost2010PropOp40
 70
     1
102
RTVSPost2010Prop41ColorIndex
 90
       18
102
RTVSPost2010Prop41ColorRGB
 90
        0
102
RTVSPost2010PropOp41
 70
     1
102
RTVSPost2010Prop42
 90
       50
102
RTVSPost2010PropOp42
 70
     1
102
RTVSPost2010Prop43
 90
        3
102
RTVSPost2010PropOp43
 70
     1
102
RTVSPost2010Prop44ColorIndex
 90
        5
102
RTVSPost2010Prop44ColorRGB
 90
      255
102
RTVSPost2010PropOp44
 70
     1
102
RTVSPost2010Prop45
280
     0
102
RTVSPost2010PropOp45
 70
     1
102
RTVSPost2010Prop46
 90
       50
102
RTVSPost2010PropOp46
 70
     1
102
RTVSPost2010Prop47
 90
       50
102
RTVSPost2010PropOp47
 70
     1
102
RTVSPost2010Prop48
 90
       50
102
RTVSPost2010PropOp48
 70
     1
102
RTVSPost2010Prop49
280
     0
102
RTVSPost2010PropOp49
 70
     1
102
RTVSPost2010Prop50
 90
       50
102
RTVSPost2010PropOp50
 70
     1
102
RTVSPost2010Prop51ColorIndex
 90
      256
102
RTVSPost2010Prop51ColorRGB
 90
-16777216
102
RTVSPost2010PropOp51
 70
     0
102
RTVSPost2010Prop52
140
1.0
102
RTVSPost2010PropOp52
 70
     0
102
RTVSPost2010Prop53
 90
        2
102
RTVSPost2010PropOp53
 70
     1
102
RTVSPost2010Prop54
  1
strokes_ogs.tif
102
RTVSPost2010PropOp54
 70
     1
102
RTVSPost2010Prop55
280
     0
102
RTVSPost2010PropOp55
 70
     1
102
RTVSPost2010Prop56
140
1.0
102
RTVSPost2010PropOp56
 70
     1
102
RTVSPost2010Prop57
140
1.0
102
RTVSPost2010PropOp57
 70
     1
102
RTVSPropertyOp0
 70
     1
102
RTVSPropertyOp1
 70
     1
102
RTVSPropertyOp2
 70
     1
102
RTVSPropertyOp3
 70
     1
102
RTVSPropertyOp4
 70
     1
102
RTVSPropertyOp5
 70
     1
102
RTVSPropertyOp6
 70
     1
102
RTVSPropertyOp7
 70
     1
102
RTVSPropertyOp8
 70
     1
102
RTVSPropertyOp9
 70
     1
102
RTVSPropertyOp10
 70
     1
102
RTVSPropertyOp11
 70
     1
102
RTVSPropertyOp12
 70
     1
102
RTVSPropertyOp13
 70
     1
102
RTVSPropertyOp14
 70
     1
102
RTVSPropertyOp15
 70
     1
102
RTVSPropertyOp16
 70
     1
102
RTVSPropertyOp17
 70
     1
102
RTVSPropertyOp18
 70
     1
102
RTVSPropertyOp19
 70
     1
102
RTVSPropertyOp20
 70
     1
102
RTVSPropertyOp21
 70
     1
102
RTVSPropertyOp22
 70
     1
102
RTVSPropertyOp23
 70
     1
102
RTVSPropertyOp24
 70
     1
102
RTVSPropertyOp25
 70
     1
102
RTVSPropertyOp26
 70
     1
102
RTVSPropertyOp27
 70
     1
102
RTVSPropertyOp28
 70
     1
102
RTVSPropertyOp29
 70
     1
102
RTVSPropertyOp30
 70
     1
102
RTVSPropertyOp31
 70
     1
102
RTVSPropertyOp32
 70
     1
102
RTVSPropertyOp33
 70
     1
102
RTVSPropertyOp34
 70
     1
102
RTVSPropertyOp35
 70
     1
102
RTVSPropertyOp36
 70
     1
102
RTVSPropertyOp37
 70
     1
102
RTVSPropertyOp38
 70
     1
102
RTVSPropertyOp39
 70
     1
102
RTVSPropertyOp40
 70
     1
102
RTVSPropertyOp41
 70
     1
102
RTVSPropertyOp42
 70
     1
102
RTVSPropertyOp43
 70
     1
102
RTVSPropertyOp44
 70
     1
102
RTVSPropertyOp45
 70
     1
102
RTVSPropertyOp46
 70
     1
102
RTVSPropertyOp47
 70
     1
102
RTVSPropertyOp48
 70
     1
102
RTVSPropertyOp49
 70
     1
102
RTVSPropertyOp50
 70
     1
102
RTVSPropertyOp51
 70
     0
102
RTVSPropertyOp52
 70
     0
102
RTVSPropertyOp53
 70
     1
102
RTVSPropertyOp54
 70
     1
102
RTVSPropertyOp55
 70
     1
102
RTVSPropertyOp56
 70
     1
102
RTVSPropertyOp57
 70
     1
102
RTVSPropertyOp58
 70
     1
102
RTVSPropertyOp59
 70
     1
102
RTVSPropertyOp60
 70
     1
102
RTVSPropertyOp61
 70
     1
102
RTVSPropertyOp62
 70
     1
  0
XRECORD
  5
FF79
102
{ACAD_REACTORS
330
FF78
102
}
330
FF78
100
AcDbXrecord
280
     1
102
RTVSPost2010Prop28
280
     0
102
RTVSPost2010PropOp28
 70
     1
102
RTVSPost2010Prop29
280
     1
102
RTVSPost2010PropOp29
 70
     1
102
RTVSPost2010Prop30
280
     1
102
RTVSPost2010PropOp30
 70
     1
102
RTVSPost2010Prop31
280
     0
102
RTVSPost2010PropOp31
 70
     1
102
RTVSPost2010Prop32
280
     0
102
RTVSPost2010PropOp32
 70
     1
102
RTVSPost2010Prop33
280
     0
102
RTVSPost2010PropOp33
 70
     1
102
RTVSPost2010Prop34
280
     0
102
RTVSPost2010PropOp34
 70
     1
102
RTVSPost2010Prop35
280
     0
102
RTVSPost2010PropOp35
 70
     1
102
RTVSPost2010Prop36
280
     0
102
RTVSPost2010PropOp36
 70
     1
102
RTVSPost2010Prop37
 90
       50
102
RTVSPost2010PropOp37
 70
     1
102
RTVSPost2010Prop38
140
0.0
102
RTVSPost2010PropOp38
 70
     1
102
RTVSPost2010Prop39
140
1.0
102
RTVSPost2010PropOp39
 70
     1
102
RTVSPost2010Prop40
 90
        0
102
RTVSPost2010PropOp40
 70
     1
102
RTVSPost2010Prop41ColorIndex
 90
       18
102
RTVSPost2010Prop41ColorRGB
 90
        0
102
RTVSPost2010PropOp41
 70
     1
102
RTVSPost2010Prop42
 90
       50
102
RTVSPost2010PropOp42
 70
     1
102
RTVSPost2010Prop43
 90
        3
102
RTVSPost2010PropOp43
 70
     1
102
RTVSPost2010Prop44ColorIndex
 90
        5
102
RTVSPost2010Prop44ColorRGB
 90
      255
102
RTVSPost2010PropOp44
 70
     1
102
RTVSPost2010Prop45
280
     0
102
RTVSPost2010PropOp45
 70
     1
102
RTVSPost2010Prop46
 90
       50
102
RTVSPost2010PropOp46
 70
     1
102
RTVSPost2010Prop47
 90
       50
102
RTVSPost2010PropOp47
 70
     1
102
RTVSPost2010Prop48
 90
       50
102
RTVSPost2010PropOp48
 70
     1
102
RTVSPost2010Prop49
280
     0
102
RTVSPost2010PropOp49
 70
     1
102
RTVSPost2010Prop50
 90
       50
102
RTVSPost2010PropOp50
 70
     1
102
RTVSPost2010Prop51ColorIndex
 90
      256
102
RTVSPost2010Prop51ColorRGB
 90
-16777216
102
RTVSPost2010PropOp51
 70
     0
102
RTVSPost2010Prop52
140
1.0
102
RTVSPost2010PropOp52
 70
     0
102
RTVSPost2010Prop53
 90
        2
102
RTVSPost2010PropOp53
 70
     1
102
RTVSPost2010Prop54
  1
strokes_ogs.tif
102
RTVSPost2010PropOp54
 70
     1
102
RTVSPost2010Prop55
280
     0
102
RTVSPost2010PropOp55
 70
     1
102
RTVSPost2010Prop56
140
1.0
102
RTVSPost2010PropOp56
 70
     1
102
RTVSPost2010Prop57
140
1.0
102
RTVSPost2010PropOp57
 70
     1
102
RTVSPropertyOp0
 70
     1
102
RTVSPropertyOp1
 70
     1
102
RTVSPropertyOp2
 70
     1
102
RTVSPropertyOp3
 70
     1
102
RTVSPropertyOp4
 70
     1
102
RTVSPropertyOp5
 70
     1
102
RTVSPropertyOp6
 70
     1
102
RTVSPropertyOp7
 70
     1
102
RTVSPropertyOp8
 70
     1
102
RTVSPropertyOp9
 70
     1
102
RTVSPropertyOp10
 70
     1
102
RTVSPropertyOp11
 70
     1
102
RTVSPropertyOp12
 70
     1
102
RTVSPropertyOp13
 70
     1
102
RTVSPropertyOp14
 70
     1
102
RTVSPropertyOp15
 70
     1
102
RTVSPropertyOp16
 70
     1
102
RTVSPropertyOp17
 70
     1
102
RTVSPropertyOp18
 70
     1
102
RTVSPropertyOp19
 70
     1
102
RTVSPropertyOp20
 70
     1
102
RTVSPropertyOp21
 70
     1
102
RTVSPropertyOp22
 70
     1
102
RTVSPropertyOp23
 70
     1
102
RTVSPropertyOp24
 70
     1
102
RTVSPropertyOp25
 70
     1
102
RTVSPropertyOp26
 70
     1
102
RTVSPropertyOp27
 70
     1
102
RTVSPropertyOp28
 70
     1
102
RTVSPropertyOp29
 70
     1
102
RTVSPropertyOp30
 70
     1
102
RTVSPropertyOp31
 70
     1
102
RTVSPropertyOp32
 70
     1
102
RTVSPropertyOp33
 70
     1
102
RTVSPropertyOp34
 70
     1
102
RTVSPropertyOp35
 70
     1
102
RTVSPropertyOp36
 70
     1
102
RTVSPropertyOp37
 70
     1
102
RTVSPropertyOp38
 70
     1
102
RTVSPropertyOp39
 70
     1
102
RTVSPropertyOp40
 70
     1
102
RTVSPropertyOp41
 70
     1
102
RTVSPropertyOp42
 70
     1
102
RTVSPropertyOp43
 70
     1
102
RTVSPropertyOp44
 70
     1
102
RTVSPropertyOp45
 70
     1
102
RTVSPropertyOp46
 70
     1
102
RTVSPropertyOp47
 70
     1
102
RTVSPropertyOp48
 70
     1
102
RTVSPropertyOp49
 70
     1
102
RTVSPropertyOp50
 70
     1
102
RTVSPropertyOp51
 70
     0
102
RTVSPropertyOp52
 70
     0
102
RTVSPropertyOp53
 70
     1
102
RTVSPropertyOp54
 70
     1
102
RTVSPropertyOp55
 70
     1
102
RTVSPropertyOp56
 70
     1
102
RTVSPropertyOp57
 70
     1
102
RTVSPropertyOp58
 70
     1
102
RTVSPropertyOp59
 70
     1
102
RTVSPropertyOp60
 70
     1
102
RTVSPropertyOp61
 70
     1
102
RTVSPropertyOp62
 70
     1
  0
XRECORD
  5
FF73
102
{ACAD_REACTORS
330
FF72
102
}
330
FF72
100
AcDbXrecord
280
     1
102
RTVSPost2010Prop28
280
     0
102
RTVSPost2010PropOp28
 70
     1
102
RTVSPost2010Prop29
280
     1
102
RTVSPost2010PropOp29
 70
     1
102
RTVSPost2010Prop30
280
     1
102
RTVSPost2010PropOp30
 70
     1
102
RTVSPost2010Prop31
280
     0
102
RTVSPost2010PropOp31
 70
     1
102
RTVSPost2010Prop32
280
     0
102
RTVSPost2010PropOp32
 70
     1
102
RTVSPost2010Prop33
280
     0
102
RTVSPost2010PropOp33
 70
     1
102
RTVSPost2010Prop34
280
     0
102
RTVSPost2010PropOp34
 70
     1
102
RTVSPost2010Prop35
280
     0
102
RTVSPost2010PropOp35
 70
     1
102
RTVSPost2010Prop36
280
     0
102
RTVSPost2010PropOp36
 70
     1
102
RTVSPost2010Prop37
 90
       50
102
RTVSPost2010PropOp37
 70
     1
102
RTVSPost2010Prop38
140
0.0
102
RTVSPost2010PropOp38
 70
     1
102
RTVSPost2010Prop39
140
1.0
102
RTVSPost2010PropOp39
 70
     1
102
RTVSPost2010Prop40
 90
        0
102
RTVSPost2010PropOp40
 70
     1
102
RTVSPost2010Prop41ColorIndex
 90
       18
102
RTVSPost2010Prop41ColorRGB
 90
        0
102
RTVSPost2010PropOp41
 70
     1
102
RTVSPost2010Prop42
 90
       50
102
RTVSPost2010PropOp42
 70
     1
102
RTVSPost2010Prop43
 90
        3
102
RTVSPost2010PropOp43
 70
     1
102
RTVSPost2010Prop44ColorIndex
 90
        5
102
RTVSPost2010Prop44ColorRGB
 90
      255
102
RTVSPost2010PropOp44
 70
     1
102
RTVSPost2010Prop45
280
     0
102
RTVSPost2010PropOp45
 70
     1
102
RTVSPost2010Prop46
 90
       50
102
RTVSPost2010PropOp46
 70
     1
102
RTVSPost2010Prop47
 90
       50
102
RTVSPost2010PropOp47
 70
     1
102
RTVSPost2010Prop48
 90
       50
102
RTVSPost2010PropOp48
 70
     1
102
RTVSPost2010Prop49
280
     0
102
RTVSPost2010PropOp49
 70
     1
102
RTVSPost2010Prop50
 90
       50
102
RTVSPost2010PropOp50
 70
     1
102
RTVSPost2010Prop51ColorIndex
 90
      256
102
RTVSPost2010Prop51ColorRGB
 90
-16777216
102
RTVSPost2010PropOp51
 70
     0
102
RTVSPost2010Prop52
140
1.0
102
RTVSPost2010PropOp52
 70
     0
102
RTVSPost2010Prop53
 90
        2
102
RTVSPost2010PropOp53
 70
     1
102
RTVSPost2010Prop54
  1
strokes_ogs.tif
102
RTVSPost2010PropOp54
 70
     1
102
RTVSPost2010Prop55
280
     0
102
RTVSPost2010PropOp55
 70
     1
102
RTVSPost2010Prop56
140
1.0
102
RTVSPost2010PropOp56
 70
     1
102
RTVSPost2010Prop57
140
1.0
102
RTVSPost2010PropOp57
 70
     1
102
RTVSPropertyOp0
 70
     1
102
RTVSPropertyOp1
 70
     1
102
RTVSPropertyOp2
 70
     1
102
RTVSPropertyOp3
 70
     1
102
RTVSPropertyOp4
 70
     1
102
RTVSPropertyOp5
 70
     1
102
RTVSPropertyOp6
 70
     1
102
RTVSPropertyOp7
 70
     1
102
RTVSPropertyOp8
 70
     1
102
RTVSPropertyOp9
 70
     1
102
RTVSPropertyOp10
 70
     1
102
RTVSPropertyOp11
 70
     1
102
RTVSPropertyOp12
 70
     1
102
RTVSPropertyOp13
 70
     1
102
RTVSPropertyOp14
 70
     1
102
RTVSPropertyOp15
 70
     1
102
RTVSPropertyOp16
 70
     1
102
RTVSPropertyOp17
 70
     1
102
RTVSPropertyOp18
 70
     1
102
RTVSPropertyOp19
 70
     1
102
RTVSPropertyOp20
 70
     1
102
RTVSPropertyOp21
 70
     1
102
RTVSPropertyOp22
 70
     1
102
RTVSPropertyOp23
 70
     1
102
RTVSPropertyOp24
 70
     1
102
RTVSPropertyOp25
 70
     1
102
RTVSPropertyOp26
 70
     1
102
RTVSPropertyOp27
 70
     1
102
RTVSPropertyOp28
 70
     1
102
RTVSPropertyOp29
 70
     1
102
RTVSPropertyOp30
 70
     1
102
RTVSPropertyOp31
 70
     1
102
RTVSPropertyOp32
 70
     1
102
RTVSPropertyOp33
 70
     1
102
RTVSPropertyOp34
 70
     1
102
RTVSPropertyOp35
 70
     1
102
RTVSPropertyOp36
 70
     1
102
RTVSPropertyOp37
 70
     1
102
RTVSPropertyOp38
 70
     1
102
RTVSPropertyOp39
 70
     1
102
RTVSPropertyOp40
 70
     1
102
RTVSPropertyOp41
 70
     1
102
RTVSPropertyOp42
 70
     1
102
RTVSPropertyOp43
 70
     1
102
RTVSPropertyOp44
 70
     1
102
RTVSPropertyOp45
 70
     1
102
RTVSPropertyOp46
 70
     1
102
RTVSPropertyOp47
 70
     1
102
RTVSPropertyOp48
 70
     1
102
RTVSPropertyOp49
 70
     1
102
RTVSPropertyOp50
 70
     1
102
RTVSPropertyOp51
 70
     0
102
RTVSPropertyOp52
 70
     0
102
RTVSPropertyOp53
 70
     1
102
RTVSPropertyOp54
 70
     1
102
RTVSPropertyOp55
 70
     1
102
RTVSPropertyOp56
 70
     1
102
RTVSPropertyOp57
 70
     1
102
RTVSPropertyOp58
 70
     1
102
RTVSPropertyOp59
 70
     1
102
RTVSPropertyOp60
 70
     1
102
RTVSPropertyOp61
 70
     1
102
RTVSPropertyOp62
 70
     1
  0
XRECORD
  5
FF75
102
{ACAD_REACTORS
330
FF74
102
}
330
FF74
100
AcDbXrecord
280
     1
102
RTVSPost2010Prop28
280
     0
102
RTVSPost2010PropOp28
 70
     1
102
RTVSPost2010Prop29
280
     1
102
RTVSPost2010PropOp29
 70
     1
102
RTVSPost2010Prop30
280
     1
102
RTVSPost2010PropOp30
 70
     1
102
RTVSPost2010Prop31
280
     0
102
RTVSPost2010PropOp31
 70
     1
102
RTVSPost2010Prop32
280
     0
102
RTVSPost2010PropOp32
 70
     1
102
RTVSPost2010Prop33
280
     0
102
RTVSPost2010PropOp33
 70
     1
102
RTVSPost2010Prop34
280
     0
102
RTVSPost2010PropOp34
 70
     1
102
RTVSPost2010Prop35
280
     0
102
RTVSPost2010PropOp35
 70
     1
102
RTVSPost2010Prop36
280
     0
102
RTVSPost2010PropOp36
 70
     1
102
RTVSPost2010Prop37
 90
       50
102
RTVSPost2010PropOp37
 70
     1
102
RTVSPost2010Prop38
140
0.0
102
RTVSPost2010PropOp38
 70
     1
102
RTVSPost2010Prop39
140
1.0
102
RTVSPost2010PropOp39
 70
     1
102
RTVSPost2010Prop40
 90
        0
102
RTVSPost2010PropOp40
 70
     1
102
RTVSPost2010Prop41ColorIndex
 90
       18
102
RTVSPost2010Prop41ColorRGB
 90
        0
102
RTVSPost2010PropOp41
 70
     1
102
RTVSPost2010Prop42
 90
       50
102
RTVSPost2010PropOp42
 70
     1
102
RTVSPost2010Prop43
 90
        3
102
RTVSPost2010PropOp43
 70
     1
102
RTVSPost2010Prop44ColorIndex
 90
        5
102
RTVSPost2010Prop44ColorRGB
 90
      255
102
RTVSPost2010PropOp44
 70
     1
102
RTVSPost2010Prop45
280
     0
102
RTVSPost2010PropOp45
 70
     1
102
RTVSPost2010Prop46
 90
       50
102
RTVSPost2010PropOp46
 70
     1
102
RTVSPost2010Prop47
 90
       50
102
RTVSPost2010PropOp47
 70
     1
102
RTVSPost2010Prop48
 90
       50
102
RTVSPost2010PropOp48
 70
     1
102
RTVSPost2010Prop49
280
     0
102
RTVSPost2010PropOp49
 70
     1
102
RTVSPost2010Prop50
 90
       50
102
RTVSPost2010PropOp50
 70
     1
102
RTVSPost2010Prop51ColorIndex
 90
      256
102
RTVSPost2010Prop51ColorRGB
 90
-16777216
102
RTVSPost2010PropOp51
 70
     0
102
RTVSPost2010Prop52
140
1.0
102
RTVSPost2010PropOp52
 70
     0
102
RTVSPost2010Prop53
 90
        2
102
RTVSPost2010PropOp53
 70
     1
102
RTVSPost2010Prop54
  1
strokes_ogs.tif
102
RTVSPost2010PropOp54
 70
     1
102
RTVSPost2010Prop55
280
     0
102
RTVSPost2010PropOp55
 70
     1
102
RTVSPost2010Prop56
140
1.0
102
RTVSPost2010PropOp56
 70
     1
102
RTVSPost2010Prop57
140
1.0
102
RTVSPost2010PropOp57
 70
     1
102
RTVSPropertyOp0
 70
     1
102
RTVSPropertyOp1
 70
     1
102
RTVSPropertyOp2
 70
     1
102
RTVSPropertyOp3
 70
     1
102
RTVSPropertyOp4
 70
     1
102
RTVSPropertyOp5
 70
     1
102
RTVSPropertyOp6
 70
     1
102
RTVSPropertyOp7
 70
     1
102
RTVSPropertyOp8
 70
     1
102
RTVSPropertyOp9
 70
     1
102
RTVSPropertyOp10
 70
     1
102
RTVSPropertyOp11
 70
     1
102
RTVSPropertyOp12
 70
     1
102
RTVSPropertyOp13
 70
     1
102
RTVSPropertyOp14
 70
     1
102
RTVSPropertyOp15
 70
     1
102
RTVSPropertyOp16
 70
     1
102
RTVSPropertyOp17
 70
     1
102
RTVSPropertyOp18
 70
     1
102
RTVSPropertyOp19
 70
     1
102
RTVSPropertyOp20
 70
     1
102
RTVSPropertyOp21
 70
     1
102
RTVSPropertyOp22
 70
     1
102
RTVSPropertyOp23
 70
     1
102
RTVSPropertyOp24
 70
     1
102
RTVSPropertyOp25
 70
     1
102
RTVSPropertyOp26
 70
     1
102
RTVSPropertyOp27
 70
     1
102
RTVSPropertyOp28
 70
     1
102
RTVSPropertyOp29
 70
     1
102
RTVSPropertyOp30
 70
     1
102
RTVSPropertyOp31
 70
     1
102
RTVSPropertyOp32
 70
     1
102
RTVSPropertyOp33
 70
     1
102
RTVSPropertyOp34
 70
     1
102
RTVSPropertyOp35
 70
     1
102
RTVSPropertyOp36
 70
     1
102
RTVSPropertyOp37
 70
     1
102
RTVSPropertyOp38
 70
     1
102
RTVSPropertyOp39
 70
     1
102
RTVSPropertyOp40
 70
     1
102
RTVSPropertyOp41
 70
     1
102
RTVSPropertyOp42
 70
     1
102
RTVSPropertyOp43
 70
     1
102
RTVSPropertyOp44
 70
     1
102
RTVSPropertyOp45
 70
     1
102
RTVSPropertyOp46
 70
     1
102
RTVSPropertyOp47
 70
     1
102
RTVSPropertyOp48
 70
     1
102
RTVSPropertyOp49
 70
     1
102
RTVSPropertyOp50
 70
     1
102
RTVSPropertyOp51
 70
     0
102
RTVSPropertyOp52
 70
     0
102
RTVSPropertyOp53
 70
     1
102
RTVSPropertyOp54
 70
     1
102
RTVSPropertyOp55
 70
     1
102
RTVSPropertyOp56
 70
     1
102
RTVSPropertyOp57
 70
     1
102
RTVSPropertyOp58
 70
     1
102
RTVSPropertyOp59
 70
     1
102
RTVSPropertyOp60
 70
     1
102
RTVSPropertyOp61
 70
     1
102
RTVSPropertyOp62
 70
     1
  0
XRECORD
  5
FF6B
102
{ACAD_REACTORS
330
FF6A
102
}
330
FF6A
100
AcDbXrecord
280
     1
102
RTVSPost2010Prop28
280
     0
102
RTVSPost2010PropOp28
 70
     1
102
RTVSPost2010Prop29
280
     1
102
RTVSPost2010PropOp29
 70
     1
102
RTVSPost2010Prop30
280
     1
102
RTVSPost2010PropOp30
 70
     1
102
RTVSPost2010Prop31
280
     0
102
RTVSPost2010PropOp31
 70
     1
102
RTVSPost2010Prop32
280
     0
102
RTVSPost2010PropOp32
 70
     1
102
RTVSPost2010Prop33
280
     0
102
RTVSPost2010PropOp33
 70
     1
102
RTVSPost2010Prop34
280
     0
102
RTVSPost2010PropOp34
 70
     1
102
RTVSPost2010Prop35
280
     0
102
RTVSPost2010PropOp35
 70
     1
102
RTVSPost2010Prop36
280
     0
102
RTVSPost2010PropOp36
 70
     1
102
RTVSPost2010Prop37
 90
       50
102
RTVSPost2010PropOp37
 70
     1
102
RTVSPost2010Prop38
140
0.0
102
RTVSPost2010PropOp38
 70
     1
102
RTVSPost2010Prop39
140
1.0
102
RTVSPost2010PropOp39
 70
     1
102
RTVSPost2010Prop40
 90
        0
102
RTVSPost2010PropOp40
 70
     1
102
RTVSPost2010Prop41ColorIndex
 90
       18
102
RTVSPost2010Prop41ColorRGB
 90
        0
102
RTVSPost2010PropOp41
 70
     1
102
RTVSPost2010Prop42
 90
       50
102
RTVSPost2010PropOp42
 70
     1
102
RTVSPost2010Prop43
 90
        3
102
RTVSPost2010PropOp43
 70
     1
102
RTVSPost2010Prop44ColorIndex
 90
        5
102
RTVSPost2010Prop44ColorRGB
 90
      255
102
RTVSPost2010PropOp44
 70
     1
102
RTVSPost2010Prop45
280
     0
102
RTVSPost2010PropOp45
 70
     1
102
RTVSPost2010Prop46
 90
       50
102
RTVSPost2010PropOp46
 70
     1
102
RTVSPost2010Prop47
 90
       50
102
RTVSPost2010PropOp47
 70
     1
102
RTVSPost2010Prop48
 90
       50
102
RTVSPost2010PropOp48
 70
     1
102
RTVSPost2010Prop49
280
     0
102
RTVSPost2010PropOp49
 70
     1
102
RTVSPost2010Prop50
 90
       50
102
RTVSPost2010PropOp50
 70
     1
102
RTVSPost2010Prop51ColorIndex
 90
      256
102
RTVSPost2010Prop51ColorRGB
 90
-16777216
102
RTVSPost2010PropOp51
 70
     0
102
RTVSPost2010Prop52
140
1.0
102
RTVSPost2010PropOp52
 70
     0
102
RTVSPost2010Prop53
 90
        2
102
RTVSPost2010PropOp53
 70
     1
102
RTVSPost2010Prop54
  1
strokes_ogs.tif
102
RTVSPost2010PropOp54
 70
     1
102
RTVSPost2010Prop55
280
     0
102
RTVSPost2010PropOp55
 70
     1
102
RTVSPost2010Prop56
140
1.0
102
RTVSPost2010PropOp56
 70
     1
102
RTVSPost2010Prop57
140
1.0
102
RTVSPost2010PropOp57
 70
     1
102
RTVSPropertyOp0
 70
     1
102
RTVSPropertyOp1
 70
     1
102
RTVSPropertyOp2
 70
     1
102
RTVSPropertyOp3
 70
     1
102
RTVSPropertyOp4
 70
     1
102
RTVSPropertyOp5
 70
     1
102
RTVSPropertyOp6
 70
     1
102
RTVSPropertyOp7
 70
     1
102
RTVSPropertyOp8
 70
     1
102
RTVSPropertyOp9
 70
     1
102
RTVSPropertyOp10
 70
     1
102
RTVSPropertyOp11
 70
     1
102
RTVSPropertyOp12
 70
     1
102
RTVSPropertyOp13
 70
     1
102
RTVSPropertyOp14
 70
     1
102
RTVSPropertyOp15
 70
     1
102
RTVSPropertyOp16
 70
     1
102
RTVSPropertyOp17
 70
     1
102
RTVSPropertyOp18
 70
     1
102
RTVSPropertyOp19
 70
     1
102
RTVSPropertyOp20
 70
     1
102
RTVSPropertyOp21
 70
     1
102
RTVSPropertyOp22
 70
     1
102
RTVSPropertyOp23
 70
     1
102
RTVSPropertyOp24
 70
     1
102
RTVSPropertyOp25
 70
     1
102
RTVSPropertyOp26
 70
     1
102
RTVSPropertyOp27
 70
     1
102
RTVSPropertyOp28
 70
     1
102
RTVSPropertyOp29
 70
     1
102
RTVSPropertyOp30
 70
     1
102
RTVSPropertyOp31
 70
     1
102
RTVSPropertyOp32
 70
     1
102
RTVSPropertyOp33
 70
     1
102
RTVSPropertyOp34
 70
     1
102
RTVSPropertyOp35
 70
     1
102
RTVSPropertyOp36
 70
     1
102
RTVSPropertyOp37
 70
     1
102
RTVSPropertyOp38
 70
     1
102
RTVSPropertyOp39
 70
     1
102
RTVSPropertyOp40
 70
     1
102
RTVSPropertyOp41
 70
     1
102
RTVSPropertyOp42
 70
     1
102
RTVSPropertyOp43
 70
     1
102
RTVSPropertyOp44
 70
     1
102
RTVSPropertyOp45
 70
     1
102
RTVSPropertyOp46
 70
     1
102
RTVSPropertyOp47
 70
     1
102
RTVSPropertyOp48
 70
     1
102
RTVSPropertyOp49
 70
     1
102
RTVSPropertyOp50
 70
     1
102
RTVSPropertyOp51
 70
     0
102
RTVSPropertyOp52
 70
     0
102
RTVSPropertyOp53
 70
     1
102
RTVSPropertyOp54
 70
     1
102
RTVSPropertyOp55
 70
     1
102
RTVSPropertyOp56
 70
     1
102
RTVSPropertyOp57
 70
     1
102
RTVSPropertyOp58
 70
     1
102
RTVSPropertyOp59
 70
     1
102
RTVSPropertyOp60
 70
     1
102
RTVSPropertyOp61
 70
     1
102
RTVSPropertyOp62
 70
     1
  0
XRECORD
  5
FF5F
102
{ACAD_REACTORS
330
FF5E
102
}
330
FF5E
100
AcDbXrecord
280
     1
102
RTVSPost2010Prop28
280
     0
102
RTVSPost2010PropOp28
 70
     1
102
RTVSPost2010Prop29
280
     1
102
RTVSPost2010PropOp29
 70
     1
102
RTVSPost2010Prop30
280
     1
102
RTVSPost2010PropOp30
 70
     1
102
RTVSPost2010Prop31
280
     0
102
RTVSPost2010PropOp31
 70
     1
102
RTVSPost2010Prop32
280
     0
102
RTVSPost2010PropOp32
 70
     1
102
RTVSPost2010Prop33
280
     0
102
RTVSPost2010PropOp33
 70
     1
102
RTVSPost2010Prop34
280
     0
102
RTVSPost2010PropOp34
 70
     1
102
RTVSPost2010Prop35
280
     0
102
RTVSPost2010PropOp35
 70
     1
102
RTVSPost2010Prop36
280
     0
102
RTVSPost2010PropOp36
 70
     1
102
RTVSPost2010Prop37
 90
       50
102
RTVSPost2010PropOp37
 70
     1
102
RTVSPost2010Prop38
140
0.0
102
RTVSPost2010PropOp38
 70
     1
102
RTVSPost2010Prop39
140
1.0
102
RTVSPost2010PropOp39
 70
     1
102
RTVSPost2010Prop40
 90
        0
102
RTVSPost2010PropOp40
 70
     1
102
RTVSPost2010Prop41ColorIndex
 90
       18
102
RTVSPost2010Prop41ColorRGB
 90
        0
102
RTVSPost2010PropOp41
 70
     1
102
RTVSPost2010Prop42
 90
       50
102
RTVSPost2010PropOp42
 70
     1
102
RTVSPost2010Prop43
 90
        3
102
RTVSPost2010PropOp43
 70
     1
102
RTVSPost2010Prop44ColorIndex
 90
        5
102
RTVSPost2010Prop44ColorRGB
 90
      255
102
RTVSPost2010PropOp44
 70
     1
102
RTVSPost2010Prop45
280
     0
102
RTVSPost2010PropOp45
 70
     1
102
RTVSPost2010Prop46
 90
       50
102
RTVSPost2010PropOp46
 70
     1
102
RTVSPost2010Prop47
 90
       50
102
RTVSPost2010PropOp47
 70
     1
102
RTVSPost2010Prop48
 90
       50
102
RTVSPost2010PropOp48
 70
     1
102
RTVSPost2010Prop49
280
     0
102
RTVSPost2010PropOp49
 70
     1
102
RTVSPost2010Prop50
 90
       50
102
RTVSPost2010PropOp50
 70
     1
102
RTVSPost2010Prop51ColorIndex
 90
      256
102
RTVSPost2010Prop51ColorRGB
 90
-16777216
102
RTVSPost2010PropOp51
 70
     0
102
RTVSPost2010Prop52
140
1.0
102
RTVSPost2010PropOp52
 70
     0
102
RTVSPost2010Prop53
 90
        2
102
RTVSPost2010PropOp53
 70
     1
102
RTVSPost2010Prop54
  1
strokes_ogs.tif
102
RTVSPost2010PropOp54
 70
     1
102
RTVSPost2010Prop55
280
     0
102
RTVSPost2010PropOp55
 70
     1
102
RTVSPost2010Prop56
140
1.0
102
RTVSPost2010PropOp56
 70
     1
102
RTVSPost2010Prop57
140
1.0
102
RTVSPost2010PropOp57
 70
     1
102
RTVSPropertyOp0
 70
     1
102
RTVSPropertyOp1
 70
     1
102
RTVSPropertyOp2
 70
     1
102
RTVSPropertyOp3
 70
     1
102
RTVSPropertyOp4
 70
     1
102
RTVSPropertyOp5
 70
     1
102
RTVSPropertyOp6
 70
     1
102
RTVSPropertyOp7
 70
     1
102
RTVSPropertyOp8
 70
     1
102
RTVSPropertyOp9
 70
     1
102
RTVSPropertyOp10
 70
     1
102
RTVSPropertyOp11
 70
     1
102
RTVSPropertyOp12
 70
     1
102
RTVSPropertyOp13
 70
     1
102
RTVSPropertyOp14
 70
     1
102
RTVSPropertyOp15
 70
     1
102
RTVSPropertyOp16
 70
     1
102
RTVSPropertyOp17
 70
     1
102
RTVSPropertyOp18
 70
     1
102
RTVSPropertyOp19
 70
     1
102
RTVSPropertyOp20
 70
     1
102
RTVSPropertyOp21
 70
     1
102
RTVSPropertyOp22
 70
     1
102
RTVSPropertyOp23
 70
     1
102
RTVSPropertyOp24
 70
     1
102
RTVSPropertyOp25
 70
     1
102
RTVSPropertyOp26
 70
     1
102
RTVSPropertyOp27
 70
     1
102
RTVSPropertyOp28
 70
     1
102
RTVSPropertyOp29
 70
     1
102
RTVSPropertyOp30
 70
     1
102
RTVSPropertyOp31
 70
     1
102
RTVSPropertyOp32
 70
     1
102
RTVSPropertyOp33
 70
     1
102
RTVSPropertyOp34
 70
     1
102
RTVSPropertyOp35
 70
     1
102
RTVSPropertyOp36
 70
     1
102
RTVSPropertyOp37
 70
     1
102
RTVSPropertyOp38
 70
     1
102
RTVSPropertyOp39
 70
     1
102
RTVSPropertyOp40
 70
     1
102
RTVSPropertyOp41
 70
     1
102
RTVSPropertyOp42
 70
     1
102
RTVSPropertyOp43
 70
     1
102
RTVSPropertyOp44
 70
     1
102
RTVSPropertyOp45
 70
     1
102
RTVSPropertyOp46
 70
     1
102
RTVSPropertyOp47
 70
     1
102
RTVSPropertyOp48
 70
     1
102
RTVSPropertyOp49
 70
     1
102
RTVSPropertyOp50
 70
     1
102
RTVSPropertyOp51
 70
     0
102
RTVSPropertyOp52
 70
     0
102
RTVSPropertyOp53
 70
     1
102
RTVSPropertyOp54
 70
     1
102
RTVSPropertyOp55
 70
     1
102
RTVSPropertyOp56
 70
     1
102
RTVSPropertyOp57
 70
     1
102
RTVSPropertyOp58
 70
     1
102
RTVSPropertyOp59
 70
     1
102
RTVSPropertyOp60
 70
     1
102
RTVSPropertyOp61
 70
     1
102
RTVSPropertyOp62
 70
     1
  0
XRECORD
  5
FF77
102
{ACAD_REACTORS
330
FF76
102
}
330
FF76
100
AcDbXrecord
280
     1
102
RTVSPost2010Prop28
280
     0
102
RTVSPost2010PropOp28
 70
     1
102
RTVSPost2010Prop29
280
     1
102
RTVSPost2010PropOp29
 70
     1
102
RTVSPost2010Prop30
280
     1
102
RTVSPost2010PropOp30
 70
     1
102
RTVSPost2010Prop31
280
     0
102
RTVSPost2010PropOp31
 70
     1
102
RTVSPost2010Prop32
280
     0
102
RTVSPost2010PropOp32
 70
     1
102
RTVSPost2010Prop33
280
     0
102
RTVSPost2010PropOp33
 70
     1
102
RTVSPost2010Prop34
280
     0
102
RTVSPost2010PropOp34
 70
     1
102
RTVSPost2010Prop35
280
     0
102
RTVSPost2010PropOp35
 70
     1
102
RTVSPost2010Prop36
280
     0
102
RTVSPost2010PropOp36
 70
     1
102
RTVSPost2010Prop37
 90
       50
102
RTVSPost2010PropOp37
 70
     1
102
RTVSPost2010Prop38
140
0.0
102
RTVSPost2010PropOp38
 70
     1
102
RTVSPost2010Prop39
140
1.0
102
RTVSPost2010PropOp39
 70
     1
102
RTVSPost2010Prop40
 90
        0
102
RTVSPost2010PropOp40
 70
     1
102
RTVSPost2010Prop41ColorIndex
 90
       18
102
RTVSPost2010Prop41ColorRGB
 90
        0
102
RTVSPost2010PropOp41
 70
     1
102
RTVSPost2010Prop42
 90
       50
102
RTVSPost2010PropOp42
 70
     1
102
RTVSPost2010Prop43
 90
        3
102
RTVSPost2010PropOp43
 70
     1
102
RTVSPost2010Prop44ColorIndex
 90
        5
102
RTVSPost2010Prop44ColorRGB
 90
      255
102
RTVSPost2010PropOp44
 70
     1
102
RTVSPost2010Prop45
280
     0
102
RTVSPost2010PropOp45
 70
     1
102
RTVSPost2010Prop46
 90
       50
102
RTVSPost2010PropOp46
 70
     1
102
RTVSPost2010Prop47
 90
       50
102
RTVSPost2010PropOp47
 70
     1
102
RTVSPost2010Prop48
 90
       50
102
RTVSPost2010PropOp48
 70
     1
102
RTVSPost2010Prop49
280
     0
102
RTVSPost2010PropOp49
 70
     1
102
RTVSPost2010Prop50
 90
       50
102
RTVSPost2010PropOp50
 70
     1
102
RTVSPost2010Prop51ColorIndex
 90
      256
102
RTVSPost2010Prop51ColorRGB
 90
-16777216
102
RTVSPost2010PropOp51
 70
     0
102
RTVSPost2010Prop52
140
1.0
102
RTVSPost2010PropOp52
 70
     0
102
RTVSPost2010Prop53
 90
        2
102
RTVSPost2010PropOp53
 70
     1
102
RTVSPost2010Prop54
  1
strokes_ogs.tif
102
RTVSPost2010PropOp54
 70
     1
102
RTVSPost2010Prop55
280
     0
102
RTVSPost2010PropOp55
 70
     1
102
RTVSPost2010Prop56
140
1.0
102
RTVSPost2010PropOp56
 70
     1
102
RTVSPost2010Prop57
140
1.0
102
RTVSPost2010PropOp57
 70
     1
102
RTVSPropertyOp0
 70
     1
102
RTVSPropertyOp1
 70
     1
102
RTVSPropertyOp2
 70
     1
102
RTVSPropertyOp3
 70
     1
102
RTVSPropertyOp4
 70
     1
102
RTVSPropertyOp5
 70
     1
102
RTVSPropertyOp6
 70
     1
102
RTVSPropertyOp7
 70
     1
102
RTVSPropertyOp8
 70
     1
102
RTVSPropertyOp9
 70
     1
102
RTVSPropertyOp10
 70
     1
102
RTVSPropertyOp11
 70
     1
102
RTVSPropertyOp12
 70
     1
102
RTVSPropertyOp13
 70
     1
102
RTVSPropertyOp14
 70
     1
102
RTVSPropertyOp15
 70
     1
102
RTVSPropertyOp16
 70
     1
102
RTVSPropertyOp17
 70
     1
102
RTVSPropertyOp18
 70
     1
102
RTVSPropertyOp19
 70
     1
102
RTVSPropertyOp20
 70
     1
102
RTVSPropertyOp21
 70
     1
102
RTVSPropertyOp22
 70
     1
102
RTVSPropertyOp23
 70
     1
102
RTVSPropertyOp24
 70
     1
102
RTVSPropertyOp25
 70
     1
102
RTVSPropertyOp26
 70
     1
102
RTVSPropertyOp27
 70
     1
102
RTVSPropertyOp28
 70
     1
102
RTVSPropertyOp29
 70
     1
102
RTVSPropertyOp30
 70
     1
102
RTVSPropertyOp31
 70
     1
102
RTVSPropertyOp32
 70
     1
102
RTVSPropertyOp33
 70
     1
102
RTVSPropertyOp34
 70
     1
102
RTVSPropertyOp35
 70
     1
102
RTVSPropertyOp36
 70
     1
102
RTVSPropertyOp37
 70
     1
102
RTVSPropertyOp38
 70
     1
102
RTVSPropertyOp39
 70
     1
102
RTVSPropertyOp40
 70
     1
102
RTVSPropertyOp41
 70
     1
102
RTVSPropertyOp42
 70
     1
102
RTVSPropertyOp43
 70
     1
102
RTVSPropertyOp44
 70
     1
102
RTVSPropertyOp45
 70
     1
102
RTVSPropertyOp46
 70
     1
102
RTVSPropertyOp47
 70
     1
102
RTVSPropertyOp48
 70
     1
102
RTVSPropertyOp49
 70
     1
102
RTVSPropertyOp50
 70
     1
102
RTVSPropertyOp51
 70
     0
102
RTVSPropertyOp52
 70
     0
102
RTVSPropertyOp53
 70
     1
102
RTVSPropertyOp54
 70
     1
102
RTVSPropertyOp55
 70
     1
102
RTVSPropertyOp56
 70
     1
102
RTVSPropertyOp57
 70
     1
102
RTVSPropertyOp58
 70
     1
102
RTVSPropertyOp59
 70
     1
102
RTVSPropertyOp60
 70
     1
102
RTVSPropertyOp61
 70
     1
102
RTVSPropertyOp62
 70
     1
  0
ENDSEC
  0
EOF
