  0
SECTION
  2
HEADER
  9
$ACADVER
  1
AC1015
  9
$ACADMAINTVER
 70
    20
  9
$DWGCODEPAGE
  3
ANSI_932
  9
$INSBASE
 10
0.0
 20
0.0
 30
0.0
  9
$EXTMIN
 10
124.0
 20
4.0
 30
0.0
  9
$EXTMAX
 10
2784.000000000001
 20
2024.000000000001
 30
0.0
  9
$LIMMIN
 10
0.0
 20
0.0
  9
$LIMMAX
 10
29700.0
 20
21000.0
  9
$ORTHOMODE
 70
     0
  9
$REGENMODE
 70
     1
  9
$FILLMODE
 70
     1
  9
$QTEXTMODE
 70
     0
  9
$MIRRTEXT
 70
     1
  9
$LTSCALE
 40
4.0
  9
$ATTMODE
 70
     1
  9
$TEXTSIZE
 40
30.0
  9
$TRACEWID
 40
1.0
  9
$TEXTSTYLE
  7
Standard
  9
$CLAYER
  8
実形
  9
$CELTYPE
  6
ByLayer
  9
$CECOLOR
 62
     3
  9
$CELTSCALE
 40
1.0
  9
$DISPSILH
 70
     0
  9
$DIMSCALE
 40
1.0
  9
$DIMASZ
 40
10.0
  9
$DIMEXO
 40
65.0
  9
$DIMDLI
 40
3.75
  9
$DIMRND
 40
0.0
  9
$DIMDLE
 40
0.0
  9
$DIMEXE
 40
0.0
  9
$DIMTP
 40
0.0
  9
$DIMTM
 40
0.0
  9
$DIMTXT
 40
30.0
  9
$DIMCEN
 40
2.5
  9
$DIMTSZ
 40
0.0
  9
$DIMTOL
 70
     0
  9
$DIMLIM
 70
     0
  9
$DIMTIH
 70
     0
  9
$DIMTOH
 70
     0
  9
$DIMSE1
 70
     0
  9
$DIMSE2
 70
     0
  9
$DIMTAD
 70
     1
  9
$DIMZIN
 70
     8
  9
$DIMBLK
  1
Dot
  9
$DIMASO
 70
     1
  9
$DIMSHO
 70
     1
  9
$DIMPOST
  1

  9
$DIMAPOST
  1

  9
$DIMALT
 70
     0
  9
$DIMALTD
 70
     3
  9
$DIMALTF
 40
0.03937007874016
  9
$DIMLFAC
 40
1.0
  9
$DIMTOFL
 70
     1
  9
$DIMTVP
 40
0.0
  9
$DIMTIX
 70
     0
  9
$DIMSOXD
 70
     0
  9
$DIMSAH
 70
     0
  9
$DIMBLK1
  1

  9
$DIMBLK2
  1

  9
$DIMSTYLE
  2
ISO-25
  9
$DIMCLRD
 70
     0
  9
$DIMCLRE
 70
     0
  9
$DIMCLRT
 70
     0
  9
$DIMTFAC
 40
1.0
  9
$DIMGAP
 40
6.599999999999998
  9
$DIMJUST
 70
     0
  9
$DIMSD1
 70
     0
  9
$DIMSD2
 70
     0
  9
$DIMTOLJ
 70
     0
  9
$DIMTZIN
 70
     8
  9
$DIMALTZ
 70
     0
  9
$DIMALTTZ
 70
     0
  9
$DIMUPT
 70
     0
  9
$DIMDEC
 70
     2
  9
$DIMTDEC
 70
     2
  9
$DIMALTU
 70
     2
  9
$DIMALTTD
 70
     3
  9
$DIMTXSTY
  7
Standard
  9
$DIMAUNIT
 70
     0
  9
$DIMADEC
 70
     0
  9
$DIMALTRND
 40
0.0
  9
$DIMAZIN
 70
     0
  9
$DIMDSEP
 70
    46
  9
$DIMATFIT
 70
     3
  9
$DIMFRAC
 70
     0
  9
$DIMLDRBLK
  1
Open30
  9
$DIMLUNIT
 70
     2
  9
$DIMLWD
 70
    18
  9
$DIMLWE
 70
    18
  9
$DIMTMOVE
 70
     2
  9
$LUNITS
 70
     2
  9
$LUPREC
 70
     2
  9
$SKETCHINC
 40
1.0
  9
$FILLETRAD
 40
40.0
  9
$AUNITS
 70
     0
  9
$AUPREC
 70
     0
  9
$MENU
  1
.
  9
$ELEVATION
 40
0.0
  9
$PELEVATION
 40
0.0
  9
$THICKNESS
 40
0.0
  9
$LIMCHECK
 70
     1
  9
$CHAMFERA
 40
10.0
  9
$CHAMFERB
 40
10.0
  9
$CHAMFERC
 40
20.0
  9
$CHAMFERD
 40
0.0
  9
$SKPOLY
 70
     0
  9
$TDCREATE
 40
2451673.575802199
  9
$TDUCREATE
 40
2451673.200802199
  9
$TDUPDATE
 40
2458813.777667222
  9
$TDUUPDATE
 40
2458813.402667222
  9
$TDINDWG
 40
2.4393966319
  9
$TDUSRTIMER
 40
2.4393959375
  9
$USRTIMER
 70
     1
  9
$ANGBASE
 50
0.0
  9
$ANGDIR
 70
     0
  9
$PDMODE
 70
     0
  9
$PDSIZE
 40
0.0
  9
$PLINEWID
 40
0.0
  9
$SPLFRAME
 70
     0
  9
$SPLINETYPE
 70
     6
  9
$SPLINESEGS
 70
     8
  9
$HANDSEED
  5
8BC3
  9
$SURFTAB1
 70
     6
  9
$SURFTAB2
 70
     6
  9
$SURFTYPE
 70
     6
  9
$SURFU
 70
     6
  9
$SURFV
 70
     6
  9
$UCSBASE
  2

  9
$UCSNAME
  2

  9
$UCSORG
 10
0.0
 20
0.0
 30
0.0
  9
$UCSXDIR
 10
1.0
 20
0.0
 30
0.0
  9
$UCSYDIR
 10
0.0
 20
1.0
 30
0.0
  9
$UCSORTHOREF
  2

  9
$UCSORTHOVIEW
 70
     0
  9
$UCSORGTOP
 10
0.0
 20
0.0
 30
0.0
  9
$UCSORGBOTTOM
 10
0.0
 20
0.0
 30
0.0
  9
$UCSORGLEFT
 10
0.0
 20
0.0
 30
0.0
  9
$UCSORGRIGHT
 10
0.0
 20
0.0
 30
0.0
  9
$UCSORGFRONT
 10
0.0
 20
0.0
 30
0.0
  9
$UCSORGBACK
 10
0.0
 20
0.0
 30
0.0
  9
$PUCSBASE
  2

  9
$PUCSNAME
  2

  9
$PUCSORG
 10
0.0
 20
0.0
 30
0.0
  9
$PUCSXDIR
 10
1.0
 20
0.0
 30
0.0
  9
$PUCSYDIR
 10
0.0
 20
1.0
 30
0.0
  9
$PUCSORTHOREF
  2

  9
$PUCSORTHOVIEW
 70
     0
  9
$PUCSORGTOP
 10
0.0
 20
0.0
 30
0.0
  9
$PUCSORGBOTTOM
 10
0.0
 20
0.0
 30
0.0
  9
$PUCSORGLEFT
 10
0.0
 20
0.0
 30
0.0
  9
$PUCSORGRIGHT
 10
0.0
 20
0.0
 30
0.0
  9
$PUCSORGFRONT
 10
0.0
 20
0.0
 30
0.0
  9
$PUCSORGBACK
 10
0.0
 20
0.0
 30
0.0
  9
$USERI1
 70
     0
  9
$USERI2
 70
     0
  9
$USERI3
 70
     0
  9
$USERI4
 70
     0
  9
$USERI5
 70
     0
  9
$USERR1
 40
0.0
  9
$USERR2
 40
0.0
  9
$USERR3
 40
0.0
  9
$USERR4
 40
0.0
  9
$USERR5
 40
0.0
  9
$WORLDVIEW
 70
     1
  9
$SHADEDGE
 70
     3
  9
$SHADEDIF
 70
    70
  9
$TILEMODE
 70
     1
  9
$MAXACTVP
 70
    64
  9
$PINSBASE
 10
0.0
 20
0.0
 30
0.0
  9
$PLIMCHECK
 70
     0
  9
$PEXTMIN
 10
27.8447512626648
 20
20.24591643810271
 30
0.0
  9
$PEXTMAX
 10
250.6027613639831
 20
182.2132479429245
 30
0.0
  9
$PLIMMIN
 10
-3.757080078125
 20
-3.757083177566528
  9
$PLIMMAX
 10
293.2112426757813
 20
206.2162444591522
  9
$UNITMODE
 70
     0
  9
$VISRETAIN
 70
     1
  9
$PLINEGEN
 70
     0
  9
$PSLTSCALE
 70
     1
  9
$TREEDEPTH
 70
  3020
  9
$CMLSTYLE
  2
Standard
  9
$CMLJUST
 70
     0
  9
$CMLSCALE
 40
20.0
  9
$PROXYGRAPHICS
 70
     1
  9
$MEASUREMENT
 70
     1
  9
$CELWEIGHT
370
    -1
  9
$ENDCAPS
280
     0
  9
$JOINSTYLE
280
     0
  9
$LWDISPLAY
290
     0
  9
$INSUNITS
 70
     4
  9
$HYPERLINKBASE
  1

  9
$STYLESHEET
  1

  9
$XEDIT
290
     1
  9
$CEPSNTYPE
380
     0
  9
$PSTYLEMODE
290
     1
  9
$FINGERPRINTGUID
  2
{C8EA1F16-24C9-11D4-9416-CE0A3B32152F}
  9
$VERSIONGUID
  2
{618A5295-9090-4CD3-A171-2A9A53BF3B01}
  9
$EXTNAMES
290
     1
  9
$PSVPSCALE
 40
0.0
  9
$OLESTARTUP
290
     0
  0
ENDSEC
  0
SECTION
  2
CLASSES
  0
CLASS
  1
ACDBDICTIONARYWDFLT
  2
AcDbDictionaryWithDefault
  3
ObjectDBX Classes
 90
        0
280
     0
281
     0
  0
CLASS
  1
ACDBPLACEHOLDER
  2
AcDbPlaceHolder
  3
ObjectDBX Classes
 90
        0
280
     0
281
     0
  0
CLASS
  1
LAYOUT
  2
AcDbLayout
  3
ObjectDBX Classes
 90
        0
280
     0
281
     0
  0
CLASS
  1
DICTIONARYVAR
  2
AcDbDictionaryVar
  3
ObjectDBX Classes
 90
        0
280
     0
281
     0
  0
CLASS
  1
TABLESTYLE
  2
AcDbTableStyle
  3
ObjectDBX Classes
 90
     2047
280
     0
281
     0
  0
CLASS
  1
SORTENTSTABLE
  2
AcDbSortentsTable
  3
ObjectDBX Classes
 90
        0
280
     0
281
     0
  0
ENDSEC
  0
SECTION
  2
TABLES
  0
TABLE
  2
VPORT
  5
8
330
0
100
AcDbSymbolTable
 70
     2
  0
VPORT
  5
8BB7
330
8
100
AcDbSymbolTableRecord
100
AcDbViewportTableRecord
  2
*Active
 70
     0
 10
0.0
 20
0.0
 11
1.0
 21
1.0
 12
1656.13310107508
 22
877.6070876467574
 13
0.0
 23
0.0
 14
10.0
 24
10.0
 15
10.0
 25
10.0
 16
0.0
 26
0.0
 36
1.0
 17
0.0
 27
0.0
 37
0.0
 40
2504.783792107965
 41
1.29038112522686
 42
50.0
 43
0.0
 44
0.0
 50
0.0
 51
0.0
 71
     0
 72
   100
 73
     1
 74
     3
 75
     0
 76
     0
 77
     0
 78
     0
281
     0
 65
     1
110
0.0
120
0.0
130
0.0
111
1.0
121
0.0
131
0.0
112
0.0
122
1.0
132
0.0
 79
     0
146
0.0
  0
ENDTAB
  0
TABLE
  2
LTYPE
  5
5
330
0
100
AcDbSymbolTable
 70
    46
  0
LTYPE
  5
14
330
5
100
AcDbSymbolTableRecord
100
AcDbLinetypeTableRecord
  2
ByBlock
 70
     0
  3

 72
    65
 73
     0
 40
0.0
  0
LTYPE
  5
15
330
5
100
AcDbSymbolTableRecord
100
AcDbLinetypeTableRecord
  2
ByLayer
 70
     0
  3

 72
    65
 73
     0
 40
0.0
  0
LTYPE
  5
16
330
5
100
AcDbSymbolTableRecord
100
AcDbLinetypeTableRecord
  2
Continuous
 70
     0
  3
Solid line
 72
    65
 73
     0
 40
0.0
  0
LTYPE
  5
34
330
5
100
AcDbSymbolTableRecord
100
AcDbLinetypeTableRecord
  2
ACAD_ISO02W100
 70
     0
  3
ISO dash __ __ __ __ __ __ __ __ __ __ __ __ __
 72
    65
 73
     2
 40
15.0
 49
12.0
 74
     0
 49
-3.0
 74
     0
  0
LTYPE
  5
35
330
5
100
AcDbSymbolTableRecord
100
AcDbLinetypeTableRecord
  2
ACAD_ISO03W100
 70
     0
  3
ISO dash space __    __    __    __    __    __
 72
    65
 73
     2
 40
30.0
 49
12.0
 74
     0
 49
-18.0
 74
     0
  0
LTYPE
  5
36
330
5
100
AcDbSymbolTableRecord
100
AcDbLinetypeTableRecord
  2
ACAD_ISO04W100
 70
     0
  3
ISO long-dash dot ____ . ____ . ____ . ____ . _
 72
    65
 73
     4
 40
30.0
 49
24.0
 74
     0
 49
-3.0
 74
     0
 49
0.0
 74
     0
 49
-3.0
 74
     0
  0
LTYPE
  5
37
330
5
100
AcDbSymbolTableRecord
100
AcDbLinetypeTableRecord
  2
ACAD_ISO05W100
 70
     0
  3
ISO long-dash double-dot ____ .. ____ .. ____ .
 72
    65
 73
     6
 40
34.0
 49
24.0
 74
     0
 49
-3.0
 74
     0
 49
0.5
 74
     0
 49
-3.0
 74
     0
 49
0.5
 74
     0
 49
-3.0
 74
     0
  0
LTYPE
  5
38
330
5
100
AcDbSymbolTableRecord
100
AcDbLinetypeTableRecord
  2
ACAD_ISO06W100
 70
     0
  3
ISO long-dash triple-dot ____ ... ____ ... ____
 72
    65
 73
     8
 40
37.5
 49
24.0
 74
     0
 49
-3.0
 74
     0
 49
0.5
 74
     0
 49
-3.0
 74
     0
 49
0.5
 74
     0
 49
-3.0
 74
     0
 49
0.5
 74
     0
 49
-3.0
 74
     0
  0
LTYPE
  5
39
330
5
100
AcDbSymbolTableRecord
100
AcDbLinetypeTableRecord
  2
ACAD_ISO07W100
 70
     0
  3
ISO dot . . . . . . . . . . . . . . . . . . . .
 72
    65
 73
     2
 40
3.0
 49
0.0
 74
     0
 49
-3.0
 74
     0
  0
LTYPE
  5
3A
330
5
100
AcDbSymbolTableRecord
100
AcDbLinetypeTableRecord
  2
ACAD_ISO08W100
 70
     0
  3
ISO long-dash short-dash ____ __ ____ __ ____ _
 72
    65
 73
     4
 40
36.0
 49
24.0
 74
     0
 49
-3.0
 74
     0
 49
6.0
 74
     0
 49
-3.0
 74
     0
  0
LTYPE
  5
3B
330
5
100
AcDbSymbolTableRecord
100
AcDbLinetypeTableRecord
  2
ACAD_ISO09W100
 70
     0
  3
ISO long-dash double-short-dash ____ __ __ ____
 72
    65
 73
     6
 40
45.0
 49
24.0
 74
     0
 49
-3.0
 74
     0
 49
6.0
 74
     0
 49
-3.0
 74
     0
 49
6.0
 74
     0
 49
-3.0
 74
     0
  0
LTYPE
  5
3C
330
5
100
AcDbSymbolTableRecord
100
AcDbLinetypeTableRecord
  2
ACAD_ISO10W100
 70
     0
  3
ISO dash dot __ . __ . __ . __ . __ . __ . __ .
 72
    65
 73
     4
 40
18.0
 49
12.0
 74
     0
 49
-3.0
 74
     0
 49
0.0
 74
     0
 49
-3.0
 74
     0
  0
LTYPE
  5
3D
330
5
100
AcDbSymbolTableRecord
100
AcDbLinetypeTableRecord
  2
ACAD_ISO11W100
 70
     0
  3
ISO double-dash dot __ __ . __ __ . __ __ . __ 
 72
    65
 73
     6
 40
33.0
 49
12.0
 74
     0
 49
-3.0
 74
     0
 49
12.0
 74
     0
 49
-3.0
 74
     0
 49
0.0
 74
     0
 49
-3.0
 74
     0
  0
LTYPE
  5
3E
330
5
100
AcDbSymbolTableRecord
100
AcDbLinetypeTableRecord
  2
ACAD_ISO12W100
 70
     0
  3
ISO dash double-dot __ . . __ . . __ . . __ . .
 72
    65
 73
     6
 40
21.0
 49
12.0
 74
     0
 49
-3.0
 74
     0
 49
0.0
 74
     0
 49
-3.0
 74
     0
 49
0.0
 74
     0
 49
-3.0
 74
     0
  0
LTYPE
  5
3F
330
5
100
AcDbSymbolTableRecord
100
AcDbLinetypeTableRecord
  2
ACAD_ISO13W100
 70
     0
  3
ISO double-dash double-dot __ __ . . __ __ . . 
 72
    65
 73
     8
 40
36.0
 49
12.0
 74
     0
 49
-3.0
 74
     0
 49
12.0
 74
     0
 49
-3.0
 74
     0
 49
0.0
 74
     0
 49
-3.0
 74
     0
 49
0.0
 74
     0
 49
-3.0
 74
     0
  0
LTYPE
  5
40
330
5
100
AcDbSymbolTableRecord
100
AcDbLinetypeTableRecord
  2
ACAD_ISO14W100
 70
     0
  3
ISO dash triple-dot __ . . . __ . . . __ . . . 
 72
    65
 73
     8
 40
24.0
 49
12.0
 74
     0
 49
-3.0
 74
     0
 49
0.0
 74
     0
 49
-3.0
 74
     0
 49
0.0
 74
     0
 49
-3.0
 74
     0
 49
0.0
 74
     0
 49
-3.0
 74
     0
  0
LTYPE
  5
41
330
5
100
AcDbSymbolTableRecord
100
AcDbLinetypeTableRecord
  2
ACAD_ISO15W100
 70
     0
  3
ISO double-dash triple-dot __ __ . . . __ __ . 
 72
    65
 73
    10
 40
39.0
 49
12.0
 74
     0
 49
-3.0
 74
     0
 49
12.0
 74
     0
 49
-3.0
 74
     0
 49
0.0
 74
     0
 49
-3.0
 74
     0
 49
0.0
 74
     0
 49
-3.0
 74
     0
 49
0.0
 74
     0
 49
-3.0
 74
     0
  0
LTYPE
  5
42
330
5
100
AcDbSymbolTableRecord
100
AcDbLinetypeTableRecord
  2
BATTING
 70
     0
  3
Batting SSSSSSSSSSSSSSSSSSSSSSSSSSSSSSSSSSSSSSS
 72
    65
 73
     4
 40
10.16254
 49
0.00254
 74
     0
 49
-2.54
 74
     4
 75
   134
340
33
 46
2.54
 50
0.0
 44
-2.54
 45
0.0
 49
-5.08
 74
     4
 75
   134
340
33
 46
2.54
 50
180.0
 44
2.54
 45
0.0
 49
-2.54
 74
     0
  0
LTYPE
  5
43
330
5
100
AcDbSymbolTableRecord
100
AcDbLinetypeTableRecord
  2
BORDER
 70
     0
  3
Border __ __ . __ __ . __ __ . __ __ . __ __ .
 72
    65
 73
     6
 40
44.45
 49
12.7
 74
     0
 49
-6.349999999999999
 74
     0
 49
12.7
 74
     0
 49
-6.349999999999999
 74
     0
 49
0.0
 74
     0
 49
-6.349999999999999
 74
     0
  0
LTYPE
  5
44
330
5
100
AcDbSymbolTableRecord
100
AcDbLinetypeTableRecord
  2
BORDER2
 70
     0
  3
Border (.5x) __.__.__.__.__.__.__.__.__.__.__.
 72
    65
 73
     6
 40
22.225
 49
6.349999999999999
 74
     0
 49
-3.174999999999999
 74
     0
 49
6.349999999999999
 74
     0
 49
-3.174999999999999
 74
     0
 49
0.0
 74
     0
 49
-3.174999999999999
 74
     0
  0
LTYPE
  5
45
330
5
100
AcDbSymbolTableRecord
100
AcDbLinetypeTableRecord
  2
BORDERX2
 70
     0
  3
Border (2x) ____  ____  .  ____  ____  .  ___
 72
    65
 73
     6
 40
88.9
 49
25.4
 74
     0
 49
-12.7
 74
     0
 49
25.4
 74
     0
 49
-12.7
 74
     0
 49
0.0
 74
     0
 49
-12.7
 74
     0
  0
LTYPE
  5
46
330
5
100
AcDbSymbolTableRecord
100
AcDbLinetypeTableRecord
  2
CENTER
 70
     0
  3
Center ____ _ ____ _ ____ _ ____ _ ____ _ ____
 72
    65
 73
     4
 40
50.8
 49
31.75
 74
     0
 49
-6.349999999999999
 74
     0
 49
6.349999999999999
 74
     0
 49
-6.349999999999999
 74
     0
  0
LTYPE
  5
47
330
5
100
AcDbSymbolTableRecord
100
AcDbLinetypeTableRecord
  2
CENTER2
 70
     0
  3
Center (.5x) ___ _ ___ _ ___ _ ___ _ ___ _ ___
 72
    65
 73
     4
 40
28.575
 49
19.05
 74
     0
 49
-3.174999999999999
 74
     0
 49
3.174999999999999
 74
     0
 49
-3.174999999999999
 74
     0
  0
LTYPE
  5
48
330
5
100
AcDbSymbolTableRecord
100
AcDbLinetypeTableRecord
  2
CENTERX2
 70
     0
  3
Center (2x) ________  __  ________  __  _____
 72
    65
 73
     4
 40
101.6
 49
63.5
 74
     0
 49
-12.7
 74
     0
 49
12.7
 74
     0
 49
-12.7
 74
     0
  0
LTYPE
  5
49
330
5
100
AcDbSymbolTableRecord
100
AcDbLinetypeTableRecord
  2
DASHDOT
 70
     0
  3
Dash dot __ . __ . __ . __ . __ . __ . __ . __
 72
    65
 73
     4
 40
25.4
 49
12.7
 74
     0
 49
-6.349999999999999
 74
     0
 49
0.0
 74
     0
 49
-6.349999999999999
 74
     0
  0
LTYPE
  5
4A
330
5
100
AcDbSymbolTableRecord
100
AcDbLinetypeTableRecord
  2
DASHDOT2
 70
     0
  3
Dash dot (.5x) _._._._._._._._._._._._._._._.
 72
    65
 73
     4
 40
12.7
 49
6.349999999999999
 74
     0
 49
-3.174999999999999
 74
     0
 49
0.0
 74
     0
 49
-3.174999999999999
 74
     0
  0
LTYPE
  5
4B
330
5
100
AcDbSymbolTableRecord
100
AcDbLinetypeTableRecord
  2
DASHDOTX2
 70
     0
  3
Dash dot (2x) ____  .  ____  .  ____  .  ___
 72
    65
 73
     4
 40
50.8
 49
25.4
 74
     0
 49
-12.7
 74
     0
 49
0.0
 74
     0
 49
-12.7
 74
     0
  0
LTYPE
  5
4C
330
5
100
AcDbSymbolTableRecord
100
AcDbLinetypeTableRecord
  2
DASHED
 70
     0
  3
Dashed __ __ __ __ __ __ __ __ __ __ __ __ __ _
 72
    65
 73
     2
 40
19.05
 49
12.7
 74
     0
 49
-6.349999999999999
 74
     0
  0
LTYPE
  5
4D
330
5
100
AcDbSymbolTableRecord
100
AcDbLinetypeTableRecord
  2
DASHED2
 70
     0
  3
Dashed (.5x) _ _ _ _ _ _ _ _ _ _ _ _ _ _ _ _ _
 72
    65
 73
     2
 40
9.524999999999998
 49
6.349999999999999
 74
     0
 49
-3.174999999999999
 74
     0
  0
LTYPE
  5
4E
330
5
100
AcDbSymbolTableRecord
100
AcDbLinetypeTableRecord
  2
DASHEDX2
 70
     0
  3
Dashed (2x) ____  ____  ____  ____  ____  ___
 72
    65
 73
     2
 40
38.1
 49
25.4
 74
     0
 49
-12.7
 74
     0
  0
LTYPE
  5
4F
330
5
100
AcDbSymbolTableRecord
100
AcDbLinetypeTableRecord
  2
DIVIDE
 70
     0
  3
Divide ____ . . ____ . . ____ . . ____ . . ____
 72
    65
 73
     6
 40
31.75
 49
12.7
 74
     0
 49
-6.349999999999999
 74
     0
 49
0.0
 74
     0
 49
-6.349999999999999
 74
     0
 49
0.0
 74
     0
 49
-6.349999999999999
 74
     0
  0
LTYPE
  5
50
330
5
100
AcDbSymbolTableRecord
100
AcDbLinetypeTableRecord
  2
DIVIDE2
 70
     0
  3
Divide (.5x) __..__..__..__..__..__..__..__.._
 72
    65
 73
     6
 40
15.875
 49
6.349999999999999
 74
     0
 49
-3.174999999999999
 74
     0
 49
0.0
 74
     0
 49
-3.174999999999999
 74
     0
 49
0.0
 74
     0
 49
-3.174999999999999
 74
     0
  0
LTYPE
  5
51
330
5
100
AcDbSymbolTableRecord
100
AcDbLinetypeTableRecord
  2
DIVIDEX2
 70
     0
  3
Divide (2x) ________  .  .  ________  .  .  _
 72
    65
 73
     6
 40
63.49999999999999
 49
25.4
 74
     0
 49
-12.7
 74
     0
 49
0.0
 74
     0
 49
-12.7
 74
     0
 49
0.0
 74
     0
 49
-12.7
 74
     0
  0
LTYPE
  5
52
330
5
100
AcDbSymbolTableRecord
100
AcDbLinetypeTableRecord
  2
DOT
 70
     0
  3
Dot . . . . . . . . . . . . . . . . . . . . . .
 72
    65
 73
     2
 40
6.349999999999999
 49
0.0
 74
     0
 49
-6.349999999999999
 74
     0
  0
LTYPE
  5
53
330
5
100
AcDbSymbolTableRecord
100
AcDbLinetypeTableRecord
  2
DOT2
 70
     0
  3
Dot (.5x) .....................................
 72
    65
 73
     2
 40
3.174999999999999
 49
0.0
 74
     0
 49
-3.174999999999999
 74
     0
  0
LTYPE
  5
54
330
5
100
AcDbSymbolTableRecord
100
AcDbLinetypeTableRecord
  2
DOTX2
 70
     0
  3
Dot (2x) .  .  .  .  .  .  .  .  .  .  .  .  . 
 72
    65
 73
     2
 40
12.7
 49
0.0
 74
     0
 49
-12.7
 74
     0
  0
LTYPE
  5
55
330
5
100
AcDbSymbolTableRecord
100
AcDbLinetypeTableRecord
  2
FENCELINE1
 70
     0
  3
Fenceline circle ----0-----0----0-----0----0---
 72
    65
 73
     4
 40
36.83
 49
6.349999999999999
 74
     0
 49
-2.54
 74
     4
 75
   133
340
33
 46
2.54
 50
0.0
 44
-2.54
 45
0.0
 49
-2.54
 74
     0
 49
25.4
 74
     0
  0
LTYPE
  5
56
330
5
100
AcDbSymbolTableRecord
100
AcDbLinetypeTableRecord
  2
FENCELINE2
 70
     0
  3
Fenceline square ----[]-----[]----[]-----[]----
 72
    65
 73
     4
 40
36.83
 49
6.349999999999999
 74
     0
 49
-2.54
 74
     4
 75
   132
340
33
 46
2.54
 50
0.0
 44
-2.54
 45
0.0
 49
-2.54
 74
     0
 49
25.4
 74
     0
  0
LTYPE
  5
57
330
5
100
AcDbSymbolTableRecord
100
AcDbLinetypeTableRecord
  2
GAS_LINE
 70
     0
  3
Gas line ----GAS----GAS----GAS----GAS----GAS---
 72
    65
 73
     3
 40
24.13
 49
12.7
 74
     0
 49
-5.08
 74
     2
 75
     0
340
11
 46
2.54
 50
0.0
 44
-2.54
 45
-1.27
  9
GAS
 49
-6.349999999999999
 74
     0
  0
LTYPE
  5
58
330
5
100
AcDbSymbolTableRecord
100
AcDbLinetypeTableRecord
  2
HIDDEN
 70
     0
  3
Hidden __ __ __ __ __ __ __ __ __ __ __ __ __ _
 72
    65
 73
     2
 40
9.524999999999998
 49
6.349999999999999
 74
     0
 49
-3.174999999999999
 74
     0
  0
LTYPE
  5
59
330
5
100
AcDbSymbolTableRecord
100
AcDbLinetypeTableRecord
  2
HIDDEN2
 70
     0
  3
Hidden (.5x) _ _ _ _ _ _ _ _ _ _ _ _ _ _ _ _ _
 72
    65
 73
     2
 40
4.762499999999999
 49
3.174999999999999
 74
     0
 49
-1.587499999999999
 74
     0
  0
LTYPE
  5
5A
330
5
100
AcDbSymbolTableRecord
100
AcDbLinetypeTableRecord
  2
HIDDENX2
 70
     0
  3
Hidden (2x) ____ ____ ____ ____ ____ ____ ____
 72
    65
 73
     2
 40
19.05
 49
12.7
 74
     0
 49
-6.349999999999999
 74
     0
  0
LTYPE
  5
5B
330
5
100
AcDbSymbolTableRecord
100
AcDbLinetypeTableRecord
  2
HOT_WATER_SUPPLY
 70
     0
  3
Hot water supply ---- HW ---- HW ---- HW ----
 72
    65
 73
     3
 40
22.86
 49
12.7
 74
     0
 49
-5.08
 74
     2
 75
     0
340
11
 46
2.54
 50
0.0
 44
-2.54
 45
-1.27
  9
HW
 49
-5.08
 74
     0
  0
LTYPE
  5
5C
330
5
100
AcDbSymbolTableRecord
100
AcDbLinetypeTableRecord
  2
PHANTOM
 70
     0
  3
Phantom ______  __  __  ______  __  __  ______
 72
    65
 73
     6
 40
63.5
 49
31.75
 74
     0
 49
-6.349999999999999
 74
     0
 49
6.349999999999999
 74
     0
 49
-6.349999999999999
 74
     0
 49
6.349999999999999
 74
     0
 49
-6.349999999999999
 74
     0
  0
LTYPE
  5
5D
330
5
100
AcDbSymbolTableRecord
100
AcDbLinetypeTableRecord
  2
PHANTOM2
 70
     0
  3
Phantom (.5x) ___ _ _ ___ _ _ ___ _ _ ___ _ _
 72
    65
 73
     6
 40
31.75
 49
15.875
 74
     0
 49
-3.174999999999999
 74
     0
 49
3.174999999999999
 74
     0
 49
-3.174999999999999
 74
     0
 49
3.174999999999999
 74
     0
 49
-3.174999999999999
 74
     0
  0
LTYPE
  5
5E
330
5
100
AcDbSymbolTableRecord
100
AcDbLinetypeTableRecord
  2
PHANTOMX2
 70
     0
  3
Phantom (2x) ____________    ____    ____   _
 72
    65
 73
     6
 40
127.0
 49
63.5
 74
     0
 49
-12.7
 74
     0
 49
12.7
 74
     0
 49
-12.7
 74
     0
 49
12.7
 74
     0
 49
-12.7
 74
     0
  0
LTYPE
  5
5F
330
5
100
AcDbSymbolTableRecord
100
AcDbLinetypeTableRecord
  2
TRACKS
 70
     0
  3
Tracks -|-|-|-|-|-|-|-|-|-|-|-|-|-|-|-|-|-|-|-|
 72
    65
 73
     2
 40
7.62
 49
3.81
 74
     4
 75
   130
340
33
 46
6.349999999999999
 50
0.0
 44
0.0
 45
0.0
 49
3.81
 74
     0
  0
LTYPE
  5
60
330
5
100
AcDbSymbolTableRecord
100
AcDbLinetypeTableRecord
  2
ZIGZAG
 70
     0
  3
Zig zag /\/\/\/\/\/\/\/\/\/\/\/\/\/\/\/\/\/\/\/
 72
    65
 73
     4
 40
20.32254
 49
0.00254
 74
     0
 49
-5.08
 74
     4
 75
   131
340
33
 46
5.08
 50
0.0
 44
-5.08
 45
0.0
 49
-10.16
 74
     4
 75
   131
340
33
 46
5.08
 50
180.0
 44
5.08
 45
0.0
 49
-5.08
 74
     0
  0
ENDTAB
  0
TABLE
  2
LAYER
  5
2
102
{ACAD_XDICTIONARY
360
24C4
102
}
330
0
100
AcDbSymbolTable
 70
     9
  0
LAYER
  5
10
330
2
100
AcDbSymbolTableRecord
100
AcDbLayerTableRecord
  2
0
 70
     0
 62
     7
  6
Continuous
290
     0
370
    -3
390
F
  0
LAYER
  5
C3
330
2
100
AcDbSymbolTableRecord
100
AcDbLayerTableRecord
  2
Defpoints
 70
     0
 62
     7
  6
Continuous
290
     0
370
    -3
390
F
  0
LAYER
  5
256
330
2
100
AcDbSymbolTableRecord
100
AcDbLayerTableRecord
  2
センター
 70
     0
 62
     7
  6
CENTER2
370
    18
390
F
  0
LAYER
  5
268
330
2
100
AcDbSymbolTableRecord
100
AcDbLayerTableRecord
  2
実形
 70
     0
 62
     7
  6
Continuous
370
    -3
390
F
  0
LAYER
  5
269
330
2
100
AcDbSymbolTableRecord
100
AcDbLayerTableRecord
  2
補助
 70
     0
 62
     4
  6
Continuous
290
     0
370
    -3
390
F
  0
LAYER
  5
26A
330
2
100
AcDbSymbolTableRecord
100
AcDbLayerTableRecord
  2
寸法
 70
     0
 62
     7
  6
Continuous
370
    18
390
F
  0
LAYER
  5
26B
330
2
100
AcDbSymbolTableRecord
100
AcDbLayerTableRecord
  2
ハッチング
 70
     0
 62
     7
  6
Continuous
370
    18
390
F
  0
LAYER
  5
26D
330
2
100
AcDbSymbolTableRecord
100
AcDbLayerTableRecord
  2
枠
 70
     0
 62
     7
  6
Continuous
370
    -3
390
F
  0
LAYER
  5
1B3D
330
2
100
AcDbSymbolTableRecord
100
AcDbLayerTableRecord
  2
Cen
 70
     0
 62
     7
  6
CENTER2
290
     0
370
    15
390
F
  0
ENDTAB
  0
TABLE
  2
STYLE
  5
3
330
0
100
AcDbSymbolTable
 70
     3
  0
STYLE
  5
11
330
3
100
AcDbSymbolTableRecord
100
AcDbTextStyleTableRecord
  2
Standard
 70
     0
 40
0.0
 41
1.0
 50
0.0
 71
     0
 42
30.0
  3
txt.shx
  4
bigfont.shx
  0
STYLE
  5
33
330
3
100
AcDbSymbolTableRecord
100
AcDbTextStyleTableRecord
  2

 70
     1
 40
0.0
 41
1.0
 50
0.0
 71
     0
 42
2.5
  3
ltypeshp.shx
  4

  0
STYLE
  5
35E2
330
3
100
AcDbSymbolTableRecord
100
AcDbTextStyleTableRecord
  2
ms明朝
 70
     0
 40
0.0
 41
1.0
 50
0.0
 71
     0
 42
25.0
  3
MS Mincho.ttf
  4

1001
ACAD
1000
MS Mincho
1071
    32785
  0
ENDTAB
  0
TABLE
  2
VIEW
  5
6
330
0
100
AcDbSymbolTable
 70
     0
  0
ENDTAB
  0
TABLE
  2
UCS
  5
7
330
0
100
AcDbSymbolTable
 70
     0
  0
ENDTAB
  0
TABLE
  2
APPID
  5
9
330
0
100
AcDbSymbolTable
 70
     2
  0
APPID
  5
12
330
9
100
AcDbSymbolTableRecord
100
AcDbRegAppTableRecord
  2
ACAD
 70
     0
  0
APPID
  5
24C3
330
9
100
AcDbSymbolTableRecord
100
AcDbRegAppTableRecord
  2
ACAD_PSEXT
 70
     0
  0
ENDTAB
  0
TABLE
  2
DIMSTYLE
  5
A
330
0
100
AcDbSymbolTable
 70
     1
100
AcDbDimStyleTable
 71
     1
340
27
  0
DIMSTYLE
105
27
102
{ACAD_REACTORS
330
6AE3
330
6C16
330
6F49
330
6F54
330
772D
330
773A
330
7747
330
77C9
330
77DF
330
77F5
330
878B
330
878C
330
878D
330
878E
330
8857
330
8859
330
885A
330
887A
102
}
330
A
100
AcDbSymbolTableRecord
100
AcDbDimStyleTableRecord
  2
ISO-25
 70
     0
 41
35.0
 42
65.0
 43
3.75
 44
0.0
 73
     0
 74
     0
 77
     1
 78
     8
140
25.0
141
2.5
143
0.03937007874016
147
6.25
171
     3
172
     1
271
     2
272
     2
274
     3
283
     0
284
     8
340
11
341
DA
342
D0
371
    15
372
    15
  0
ENDTAB
  0
TABLE
  2
BLOCK_RECORD
  5
1
330
0
100
AcDbSymbolTable
 70
    27
  0
BLOCK_RECORD
  5
1F
102
{ACAD_XDICTIONARY
360
2396
102
}
330
1
100
AcDbSymbolTableRecord
100
AcDbBlockTableRecord
  2
*Model_Space
340
22
  0
BLOCK_RECORD
  5
1B
330
1
100
AcDbSymbolTableRecord
100
AcDbBlockTableRecord
  2
*Paper_Space
340
1E
  0
BLOCK_RECORD
  5
23
330
1
100
AcDbSymbolTableRecord
100
AcDbBlockTableRecord
  2
*Paper_Space0
340
26
  0
BLOCK_RECORD
  5
D0
330
1
100
AcDbSymbolTableRecord
100
AcDbBlockTableRecord
  2
_DotSmall
340
0
  0
BLOCK_RECORD
  5
D4
330
1
100
AcDbSymbolTableRecord
100
AcDbBlockTableRecord
  2
_Origin2
340
0
  0
BLOCK_RECORD
  5
DA
330
1
100
AcDbSymbolTableRecord
100
AcDbBlockTableRecord
  2
_Open30
340
0
  0
BLOCK_RECORD
  5
2D6
330
1
100
AcDbSymbolTableRecord
100
AcDbBlockTableRecord
  2
A$C6CAC4411
340
0
  0
BLOCK_RECORD
  5
30D
330
1
100
AcDbSymbolTableRecord
100
AcDbBlockTableRecord
  2
_Dot
340
0
102
{BLKREFS
331
8AE1
331
8AE2
331
8AEA
331
8AEB
331
8AF3
331
8AF4
331
8AFC
331
8AFD
331
8B06
331
8B07
331
8B0E
331
8B0F
331
8B18
331
8B19
331
8B21
331
8B22
331
8B29
331
8B2A
331
8B33
331
8B34
331
8B3B
331
8B3C
331
8B45
331
8B46
331
8B4E
331
8B4F
331
8B56
331
8B57
331
8B5F
331
8B60
331
8B69
331
8B6A
331
8B72
331
8B73
331
8B7A
331
8B7B
102
}
  0
BLOCK_RECORD
  5
313C
102
{ACAD_XDICTIONARY
360
313E
102
}
330
1
100
AcDbSymbolTableRecord
100
AcDbBlockTableRecord
  2
A$C6850087C
340
0
  0
BLOCK_RECORD
  5
3846
102
{ACAD_XDICTIONARY
360
3848
102
}
330
1
100
AcDbSymbolTableRecord
100
AcDbBlockTableRecord
  2
A$C71387EE1
340
0
  0
BLOCK_RECORD
  5
6AE4
330
1
100
AcDbSymbolTableRecord
100
AcDbBlockTableRecord
  2
*D8
340
0
  0
BLOCK_RECORD
  5
6C17
330
1
100
AcDbSymbolTableRecord
100
AcDbBlockTableRecord
  2
*D9
340
0
  0
BLOCK_RECORD
  5
6DBC
102
{ACAD_XDICTIONARY
360
6DBE
102
}
330
1
100
AcDbSymbolTableRecord
100
AcDbBlockTableRecord
  2
A$C23106B24
340
0
  0
BLOCK_RECORD
  5
6F56
330
1
100
AcDbSymbolTableRecord
100
AcDbBlockTableRecord
  2
*D11
340
0
  0
BLOCK_RECORD
  5
6FAA
330
1
100
AcDbSymbolTableRecord
100
AcDbBlockTableRecord
  2
*D12
340
0
  0
BLOCK_RECORD
  5
772E
330
1
100
AcDbSymbolTableRecord
100
AcDbBlockTableRecord
  2
*D13
340
0
  0
BLOCK_RECORD
  5
773B
330
1
100
AcDbSymbolTableRecord
100
AcDbBlockTableRecord
  2
*D14
340
0
  0
BLOCK_RECORD
  5
7748
330
1
100
AcDbSymbolTableRecord
100
AcDbBlockTableRecord
  2
*D15
340
0
  0
BLOCK_RECORD
  5
77CA
330
1
100
AcDbSymbolTableRecord
100
AcDbBlockTableRecord
  2
*D16
340
0
  0
BLOCK_RECORD
  5
77E0
330
1
100
AcDbSymbolTableRecord
100
AcDbBlockTableRecord
  2
*D17
340
0
  0
BLOCK_RECORD
  5
77F6
330
1
100
AcDbSymbolTableRecord
100
AcDbBlockTableRecord
  2
*D18
340
0
  0
BLOCK_RECORD
  5
87A2
330
1
100
AcDbSymbolTableRecord
100
AcDbBlockTableRecord
  2
*D19
340
0
  0
BLOCK_RECORD
  5
87AE
330
1
100
AcDbSymbolTableRecord
100
AcDbBlockTableRecord
  2
*D20
340
0
  0
BLOCK_RECORD
  5
87BA
330
1
100
AcDbSymbolTableRecord
100
AcDbBlockTableRecord
  2
*D21
340
0
  0
BLOCK_RECORD
  5
87C6
330
1
100
AcDbSymbolTableRecord
100
AcDbBlockTableRecord
  2
*D22
340
0
  0
BLOCK_RECORD
  5
8881
330
1
100
AcDbSymbolTableRecord
100
AcDbBlockTableRecord
  2
*D23
340
0
  0
BLOCK_RECORD
  5
888D
330
1
100
AcDbSymbolTableRecord
100
AcDbBlockTableRecord
  2
*D24
340
0
  0
BLOCK_RECORD
  5
8899
330
1
100
AcDbSymbolTableRecord
100
AcDbBlockTableRecord
  2
*D25
340
0
  0
BLOCK_RECORD
  5
88A5
330
1
100
AcDbSymbolTableRecord
100
AcDbBlockTableRecord
  2
*D26
340
0
  0
ENDTAB
  0
ENDSEC
  0
SECTION
  2
BLOCKS
  0
BLOCK
  5
20
330
1F
100
AcDbEntity
  8
0
100
AcDbBlockBegin
  2
*Model_Space
 70
     0
 10
0.0
 20
0.0
 30
0.0
  3
*Model_Space
  1

  0
ENDBLK
  5
21
330
1F
100
AcDbEntity
  8
0
100
AcDbBlockEnd
  0
BLOCK
  5
1C
330
1B
100
AcDbEntity
 67
     1
  8
0
100
AcDbBlockBegin
  2
*Paper_Space
 70
     0
 10
0.0
 20
0.0
 30
0.0
  3
*Paper_Space
  1

  0
ENDBLK
  5
1D
330
1B
100
AcDbEntity
 67
     1
  8
0
100
AcDbBlockEnd
  0
BLOCK
  5
24
330
23
100
AcDbEntity
  8
0
100
AcDbBlockBegin
  2
*Paper_Space0
 70
     0
 10
0.0
 20
0.0
 30
0.0
  3
*Paper_Space0
  1

  0
ENDBLK
  5
25
330
23
100
AcDbEntity
  8
0
100
AcDbBlockEnd
  0
BLOCK
  5
D2
330
D0
100
AcDbEntity
  8
0
100
AcDbBlockBegin
  2
_DotSmall
 70
     0
 10
0.0
 20
0.0
 30
0.0
  3
_DotSmall
  1

  0
LWPOLYLINE
  5
D1
330
D0
100
AcDbEntity
  8
0
 62
     0
100
AcDbPolyline
 90
        2
 70
     1
 43
0.5
 10
-0.0625
 20
0.0
 42
1.0
 10
0.0625
 20
0.0
 42
1.0
  0
ENDBLK
  5
D3
330
D0
100
AcDbEntity
  8
0
100
AcDbBlockEnd
  0
BLOCK
  5
D8
330
D4
100
AcDbEntity
  8
0
100
AcDbBlockBegin
  2
_Origin2
 70
     0
 10
0.0
 20
0.0
 30
0.0
  3
_Origin2
  1

  0
CIRCLE
  5
D5
330
D4
100
AcDbEntity
  8
0
 62
     0
370
    -2
100
AcDbCircle
 10
0.0
 20
0.0
 30
0.0
 40
0.5
  0
CIRCLE
  5
D6
330
D4
100
AcDbEntity
  8
0
 62
     0
370
    -2
100
AcDbCircle
 10
0.0
 20
0.0
 30
0.0
 40
0.25
  0
LINE
  5
D7
330
D4
100
AcDbEntity
  8
0
 62
     0
370
    -2
100
AcDbLine
 10
-0.5
 20
0.0
 30
0.0
 11
-1.0
 21
0.0
 31
0.0
  0
ENDBLK
  5
D9
330
D4
100
AcDbEntity
  8
0
100
AcDbBlockEnd
  0
BLOCK
  5
DE
330
DA
100
AcDbEntity
  8
0
100
AcDbBlockBegin
  2
_Open30
 70
     0
 10
0.0
 20
0.0
 30
0.0
  3
_Open30
  1

  0
LINE
  5
DB
330
DA
100
AcDbEntity
  8
0
 62
     0
370
    -2
100
AcDbLine
 10
-1.0
 20
0.26794919
 30
0.0
 11
0.0
 21
0.0
 31
0.0
  0
LINE
  5
DC
330
DA
100
AcDbEntity
  8
0
 62
     0
370
    -2
100
AcDbLine
 10
0.0
 20
0.0
 30
0.0
 11
-1.0
 21
-0.26794919
 31
0.0
  0
LINE
  5
DD
330
DA
100
AcDbEntity
  8
0
 62
     0
370
    -2
100
AcDbLine
 10
0.0
 20
0.0
 30
0.0
 11
-1.0
 21
0.0
 31
0.0
  0
ENDBLK
  5
DF
330
DA
100
AcDbEntity
  8
0
100
AcDbBlockEnd
  0
BLOCK
  5
2E7
330
2D6
100
AcDbEntity
  8
0
100
AcDbBlockBegin
  2
A$C6CAC4411
 70
     0
 10
0.0
 20
0.0
 30
0.0
  3
A$C6CAC4411
  1

  0
TEXT
  5
2D7
330
2D6
100
AcDbEntity
  8
0
100
AcDbText
 10
176.2557717918098
 20
0.0000022116982912
 30
0.0
 40
40.0
  1
中外交易株式会社
 72
     4
 11
364.2557717918098
 21
20.0000022116983
 31
0.0
100
AcDbText
  0
LINE
  5
2D8
330
2D6
100
AcDbEntity
  8
0
100
AcDbLine
 10
-0.0000028735375963
 20
52.5000022116983
 30
0.0
 11
599.9999971264624
 21
52.5000022116983
 31
0.0
  0
HATCH
  5
2D9
330
2D6
100
AcDbEntity
  8
実形
100
AcDbHatch
 10
0.0
 20
0.0
 30
0.0
210
0.0
220
0.0
230
1.0
  2
SOLID
 70
     1
 71
     1
 91
        3
 92
        1
 93
        4
 72
     2
 10
133.1661954404576
 20
20.0000022116983
 40
20.0
 50
11.64772366707622
 51
342.6561058784662
 73
     1
 72
     1
 10
152.2568494677857
 20
14.03787769028346
 11
128.1661954404576
 21
14.03787769028349
 72
     1
 10
128.1661954404576
 20
14.03787769028349
 11
128.1661954404576
 21
24.0378776902835
 72
     1
 10
128.1661954404576
 20
24.0378776902835
 11
152.7543439394721
 21
24.0378776902835
 97
        4
330
2DF
330
2DC
330
2E0
330
2DD
 92
        1
 93
        4
 72
     2
 10
64.25577179180982
 20
20.0000022116983
 40
20.0
 50
11.64772366707622
 51
342.6561058784662
 73
     1
 72
     1
 10
83.34642581913795
 20
14.03787769028346
 11
59.25577179180982
 21
14.03787769028349
 72
     1
 10
59.25577179180982
 20
14.03787769028349
 11
59.25577179180982
 21
24.0378776902835
 72
     1
 10
59.25577179180982
 20
24.0378776902835
 11
83.84392029082437
 21
24.0378776902835
 97
        4
330
2DE
330
2DB
330
2E1
330
2DA
 92
        1
 93
        5
 72
     1
 10
121.6418911694018
 20
40.0000022116983
 11
86.64189116940178
 21
40.0000022116983
 72
     1
 10
86.64189116940178
 20
40.0000022116983
 11
86.64189116940178
 21
0.0000022116983018
 72
     1
 10
86.64189116940178
 20
0.0000022116983018
 11
121.6418911694018
 21
0.0000022116983018
 72
     1
 10
121.6418911694018
 20
0.0000022116983018
 11
86.64189116940178
 21
20.0000022116983
 72
     1
 10
86.64189116940178
 20
20.0000022116983
 11
121.6418911694018
 21
40.0000022116983
 97
        5
330
2E2
330
2E3
330
2E5
330
2E6
330
2E4
 75
     0
 76
     1
 98
        1
 10
-2184.000002873538
 20
-16.4999977883017
  0
LINE
  5
2DA
102
{ACAD_REACTORS
330
2D9
102
}
330
2D6
100
AcDbEntity
  8
実形
370
     5
100
AcDbLine
 10
83.84392029082437
 20
24.0378776902835
 30
0.0
 11
59.25577179180982
 21
24.0378776902835
 31
0.0
  0
LINE
  5
2DB
102
{ACAD_REACTORS
330
2D9
102
}
330
2D6
100
AcDbEntity
  8
実形
370
     5
100
AcDbLine
 10
59.25577179180982
 20
14.03787769028349
 30
0.0
 11
83.34642581913795
 21
14.03787769028346
 31
0.0
  0
LINE
  5
2DC
102
{ACAD_REACTORS
330
2D9
102
}
330
2D6
100
AcDbEntity
  8
実形
370
     5
100
AcDbLine
 10
128.1661954404576
 20
14.03787769028349
 30
0.0
 11
152.2568494677857
 21
14.03787769028346
 31
0.0
  0
LINE
  5
2DD
102
{ACAD_REACTORS
330
2D9
102
}
330
2D6
100
AcDbEntity
  8
実形
370
     5
100
AcDbLine
 10
152.7543439394721
 20
24.0378776902835
 30
0.0
 11
128.1661954404576
 21
24.0378776902835
 31
0.0
  0
ARC
  5
2DE
102
{ACAD_REACTORS
330
2D9
102
}
330
2D6
100
AcDbEntity
  8
実形
370
     5
100
AcDbCircle
 10
64.25577179180982
 20
20.0000022116983
 30
0.0
 40
20.0
100
AcDbArc
 50
11.6477236670758
 51
342.6561058784691
  0
ARC
  5
2DF
102
{ACAD_REACTORS
330
2D9
102
}
330
2D6
100
AcDbEntity
  8
実形
370
     5
100
AcDbCircle
 10
133.1661954404576
 20
20.0000022116983
 30
0.0
 40
20.0
100
AcDbArc
 50
11.6477236670758
 51
342.6561058784691
  0
LINE
  5
2E0
102
{ACAD_REACTORS
330
2D9
102
}
330
2D6
100
AcDbEntity
  8
実形
370
     5
100
AcDbLine
 10
128.1661954404576
 20
24.0378776902835
 30
0.0
 11
128.1661954404576
 21
14.03787769028349
 31
0.0
  0
LINE
  5
2E1
102
{ACAD_REACTORS
330
2D9
102
}
330
2D6
100
AcDbEntity
  8
実形
370
     5
100
AcDbLine
 10
59.25577179180982
 20
24.0378776902835
 30
0.0
 11
59.25577179180982
 21
14.03787769028349
 31
0.0
  0
LINE
  5
2E2
102
{ACAD_REACTORS
330
2D9
102
}
330
2D6
100
AcDbEntity
  8
実形
370
     5
100
AcDbLine
 10
121.6418911694018
 20
40.0000022116983
 30
0.0
 11
86.64189116940178
 21
40.0000022116983
 31
0.0
  0
LINE
  5
2E3
102
{ACAD_REACTORS
330
2D9
102
}
330
2D6
100
AcDbEntity
  8
実形
370
     5
100
AcDbLine
 10
86.64189116940178
 20
40.0000022116983
 30
0.0
 11
86.64189116940178
 21
0.0000022116983018
 31
0.0
  0
LINE
  5
2E4
102
{ACAD_REACTORS
330
2D9
102
}
330
2D6
100
AcDbEntity
  8
実形
370
     5
100
AcDbLine
 10
86.64189116940178
 20
20.0000022116983
 30
0.0
 11
121.6418911694018
 21
40.0000022116983
 31
0.0
  0
LINE
  5
2E5
102
{ACAD_REACTORS
330
2D9
102
}
330
2D6
100
AcDbEntity
  8
実形
370
     5
100
AcDbLine
 10
86.64189116940178
 20
0.0000022116983018
 30
0.0
 11
121.6418911694018
 21
0.0000022116983018
 31
0.0
  0
LINE
  5
2E6
102
{ACAD_REACTORS
330
2D9
102
}
330
2D6
100
AcDbEntity
  8
実形
370
     5
100
AcDbLine
 10
121.6418911694018
 20
0.0000022116983018
 30
0.0
 11
86.64189116940178
 21
20.0000022116983
 31
0.0
  0
ENDBLK
  5
2E8
330
2D6
100
AcDbEntity
  8
0
100
AcDbBlockEnd
  0
BLOCK
  5
310
330
30D
100
AcDbEntity
  8
0
100
AcDbBlockBegin
  2
_Dot
 70
     0
 10
0.0
 20
0.0
 30
0.0
  3
_Dot
  1

  0
LWPOLYLINE
  5
30E
330
30D
100
AcDbEntity
  8
0
 62
     0
100
AcDbPolyline
 90
        2
 70
     1
 43
0.5
 10
-0.25
 20
0.0
 42
1.0
 10
0.25
 20
0.0
 42
1.0
  0
LINE
  5
30F
330
30D
100
AcDbEntity
  8
0
 62
     0
370
    -2
100
AcDbLine
 10
-0.5
 20
0.0
 30
0.0
 11
-1.0
 21
0.0
 31
0.0
  0
ENDBLK
  5
311
330
30D
100
AcDbEntity
  8
0
100
AcDbBlockEnd
  0
BLOCK
  5
3140
330
313C
100
AcDbEntity
  8
0
100
AcDbBlockBegin
  2
A$C6850087C
 70
     0
 10
0.0
 20
0.0
 30
0.0
  3
A$C6850087C
  1

  0
TEXT
  5
313D
330
313C
100
AcDbEntity
  8
実形
 62
     0
 48
20.0
100
AcDbText
 10
0.0
 20
0.0
 30
0.0
 40
40.0
  1
平面図
100
AcDbText
  0
ENDBLK
  5
3141
330
313C
100
AcDbEntity
  8
0
100
AcDbBlockEnd
  0
BLOCK
  5
384A
330
3846
100
AcDbEntity
  8
0
 62
     1
100
AcDbBlockBegin
  2
A$C71387EE1
 70
     0
 10
0.0
 20
0.0
 30
0.0
  3
A$C71387EE1
  1

  0
HATCH
  5
3847
330
3846
100
AcDbEntity
  8
実形
 62
     0
100
AcDbHatch
 10
0.0
 20
0.0
 30
0.0
210
0.0
220
0.0
230
1.0
  2
SOLID
 70
     1
 71
     0
 91
        1
 92
        7
 72
     1
 73
     1
 93
        2
 10
4.552685078746208
 20
-0.0000011660104065
 42
-1.0
 10
4.54872920619573
 20
9.101406589272301
 42
-1.0
 97
        0
 75
     0
 76
     1
 47
0.1166526434546944
 98
        1
 10
6.65106624868099
 20
3.151407247997667
  0
ENDBLK
  5
384B
330
3846
100
AcDbEntity
  8
0
 62
     1
100
AcDbBlockEnd
  0
BLOCK
  5
6AEE
330
6AE4
100
AcDbEntity
  8
0
 62
     3
100
AcDbBlockBegin
  2
*D8
 70
     1
 10
0.0
 20
0.0
 30
0.0
  3
*D8
  1

  0
LINE
  5
8ADE
330
6AE4
100
AcDbEntity
  8
実形
 62
     0
370
    18
100
AcDbLine
 10
569.7129285792779
 20
1583.746825766399
 30
0.0
 11
569.7129285792779
 21
1658.396577914092
 31
0.0
  0
LINE
  5
8ADF
330
6AE4
100
AcDbEntity
  8
実形
 62
     0
370
    18
100
AcDbLine
 10
1069.712928579278
 20
1583.746825766399
 30
0.0
 11
1069.712928579278
 21
1658.396577914092
 31
0.0
  0
LINE
  5
8AE0
330
6AE4
100
AcDbEntity
  8
実形
 62
     0
370
    18
100
AcDbLine
 10
579.712928579278
 20
1658.396577914092
 30
0.0
 11
1059.712928579278
 21
1658.396577914092
 31
0.0
  0
INSERT
  5
8AE1
330
6AE4
100
AcDbEntity
  8
実形
 62
     0
370
    18
100
AcDbBlockReference
  2
_Dot
 10
569.7129285792779
 20
1658.396577914092
 30
0.0
 41
10.0
 42
10.0
 43
10.0
 50
180.0
  0
INSERT
  5
8AE2
330
6AE4
100
AcDbEntity
  8
実形
 62
     0
370
    18
100
AcDbBlockReference
  2
_Dot
 10
1069.712928579278
 20
1658.396577914092
 30
0.0
 41
10.0
 42
10.0
 43
10.0
  0
MTEXT
  5
8AE3
330
6AE4
100
AcDbEntity
  8
実形
 62
     0
100
AcDbMText
 10
819.7129285792779
 20
1679.996577914092
 30
0.0
 40
30.0
 41
0.0
 71
     5
 72
     1
  1
250
 73
     1
 44
1.0
1001
ACAD
1000
MTEXTBEGIN
1070
    73
1070
     1
1070
    44
1040
1.0
1070
    74
1070
     0
1000
MTEXTEND
  0
POINT
  5
8AE4
330
6AE4
100
AcDbEntity
  8
Defpoints
 62
     0
100
AcDbPoint
 10
569.7129285792779
 20
1518.746825766398
 30
0.0
  0
POINT
  5
8AE5
330
6AE4
100
AcDbEntity
  8
Defpoints
 62
     0
100
AcDbPoint
 10
1069.712928579278
 20
1518.746825766398
 30
0.0
  0
POINT
  5
8AE6
330
6AE4
100
AcDbEntity
  8
Defpoints
 62
     0
100
AcDbPoint
 10
1069.712928579278
 20
1658.396577914092
 30
0.0
  0
ENDBLK
  5
6AEF
330
6AE4
100
AcDbEntity
  8
0
 62
     3
100
AcDbBlockEnd
  0
BLOCK
  5
6C21
330
6C17
100
AcDbEntity
  8
0
 62
     3
100
AcDbBlockBegin
  2
*D9
 70
     1
 10
0.0
 20
0.0
 30
0.0
  3
*D9
  1

  0
LINE
  5
8AE7
330
6C17
100
AcDbEntity
  8
実形
 62
     0
370
    18
100
AcDbLine
 10
501.239325819555
 20
1533.705382054273
 30
0.0
 11
429.7286310142329
 21
1533.705382054273
 31
0.0
  0
LINE
  5
8AE8
330
6C17
100
AcDbEntity
  8
実形
 62
     0
370
    18
100
AcDbLine
 10
500.9138686792131
 20
645.7053820542735
 30
0.0
 11
429.7286310142327
 21
645.7053820542735
 31
0.0
  0
LINE
  5
8AE9
330
6C17
100
AcDbEntity
  8
実形
 62
     0
370
    18
100
AcDbLine
 10
429.7286310142329
 20
1523.705382054273
 30
0.0
 11
429.7286310142327
 21
655.7053820542734
 31
0.0
  0
INSERT
  5
8AEA
330
6C17
100
AcDbEntity
  8
実形
 62
     0
370
    18
100
AcDbBlockReference
  2
_Dot
 10
429.7286310142329
 20
1533.705382054273
 30
0.0
 41
10.0
 42
10.0
 43
10.0
 50
90.0
  0
INSERT
  5
8AEB
330
6C17
100
AcDbEntity
  8
実形
 62
     0
370
    18
100
AcDbBlockReference
  2
_Dot
 10
429.7286310142327
 20
645.7053820542735
 30
0.0
 41
10.0
 42
10.0
 43
10.0
 50
270.0
  0
MTEXT
  5
8AEC
330
6C17
100
AcDbEntity
  8
実形
 62
     0
100
AcDbMText
 10
408.1286310142326
 20
1089.705382054273
 30
0.0
 40
30.0
 41
0.0
 71
     5
 72
     1
  1
444
 11
0.0000000000000001
 21
1.0
 31
0.0
 73
     1
 44
1.0
1001
ACAD
1000
MTEXTBEGIN
1070
    73
1070
     1
1070
    44
1040
1.0
1070
    74
1070
     0
1000
MTEXTEND
  0
POINT
  5
8AED
330
6C17
100
AcDbEntity
  8
Defpoints
 62
     0
100
AcDbPoint
 10
566.239325819555
 20
1533.705382054273
 30
0.0
  0
POINT
  5
8AEE
330
6C17
100
AcDbEntity
  8
Defpoints
 62
     0
100
AcDbPoint
 10
565.9138686792131
 20
645.7053820542735
 30
0.0
  0
POINT
  5
8AEF
330
6C17
100
AcDbEntity
  8
Defpoints
 62
     0
100
AcDbPoint
 10
429.7286310142327
 20
645.7053820542735
 30
0.0
  0
ENDBLK
  5
6C22
330
6C17
100
AcDbEntity
  8
0
 62
     3
100
AcDbBlockEnd
  0
BLOCK
  5
6DC0
330
6DBC
100
AcDbEntity
  8
0
 62
     3
100
AcDbBlockBegin
  2
A$C23106B24
 70
     0
 10
0.0
 20
0.0
 30
0.0
  3
A$C23106B24
  1

  0
TEXT
  5
6DBD
330
6DBC
100
AcDbEntity
  8
0
100
AcDbText
 10
-0.3333276496476476
 20
-0.3333326617048451
 30
0.0
 40
5.0
  1
●
 72
     4
 11
2.000005683685685
 21
2.166667338295155
 31
0.0
100
AcDbText
  0
ENDBLK
  5
6DC1
330
6DBC
100
AcDbEntity
  8
0
 62
     3
100
AcDbBlockEnd
  0
BLOCK
  5
6F60
330
6F56
100
AcDbEntity
  8
0
 62
     3
100
AcDbBlockBegin
  2
*D11
 70
     1
 10
0.0
 20
0.0
 30
0.0
  3
*D11
  1

  0
LINE
  5
8AF0
330
6F56
100
AcDbEntity
  8
実形
 62
     0
370
    18
100
AcDbLine
 10
1383.234430156064
 20
1644.68918251803
 30
0.0
 11
1383.234430156064
 21
1719.338934665724
 31
0.0
  0
LINE
  5
8AF1
330
6F56
100
AcDbEntity
  8
実形
 62
     0
370
    18
100
AcDbLine
 10
1883.234430156064
 20
1644.68918251803
 30
0.0
 11
1883.234430156064
 21
1719.338934665724
 31
0.0
  0
LINE
  5
8AF2
330
6F56
100
AcDbEntity
  8
実形
 62
     0
370
    18
100
AcDbLine
 10
1393.234430156064
 20
1719.338934665724
 30
0.0
 11
1873.234430156064
 21
1719.338934665724
 31
0.0
  0
INSERT
  5
8AF3
330
6F56
100
AcDbEntity
  8
実形
 62
     0
370
    18
100
AcDbBlockReference
  2
_Dot
 10
1383.234430156064
 20
1719.338934665724
 30
0.0
 41
10.0
 42
10.0
 43
10.0
 50
180.0
  0
INSERT
  5
8AF4
330
6F56
100
AcDbEntity
  8
実形
 62
     0
370
    18
100
AcDbBlockReference
  2
_Dot
 10
1883.234430156064
 20
1719.338934665724
 30
0.0
 41
10.0
 42
10.0
 43
10.0
  0
MTEXT
  5
8AF5
330
6F56
100
AcDbEntity
  8
実形
 62
     0
100
AcDbMText
 10
1633.234430156064
 20
1740.938934665724
 30
0.0
 40
30.0
 41
0.0
 71
     5
 72
     1
  1
250
 73
     1
 44
1.0
1001
ACAD
1000
MTEXTBEGIN
1070
    73
1070
     1
1070
    44
1040
1.0
1070
    74
1070
     0
1000
MTEXTEND
  0
POINT
  5
8AF6
330
6F56
100
AcDbEntity
  8
Defpoints
 62
     0
100
AcDbPoint
 10
1383.234430156064
 20
1579.68918251803
 30
0.0
  0
POINT
  5
8AF7
330
6F56
100
AcDbEntity
  8
Defpoints
 62
     0
100
AcDbPoint
 10
1883.234430156064
 20
1579.68918251803
 30
0.0
  0
POINT
  5
8AF8
330
6F56
100
AcDbEntity
  8
Defpoints
 62
     0
100
AcDbPoint
 10
1883.234430156064
 20
1719.338934665724
 30
0.0
  0
ENDBLK
  5
6F61
330
6F56
100
AcDbEntity
  8
0
 62
     3
100
AcDbBlockEnd
  0
BLOCK
  5
6FB4
330
6FAA
100
AcDbEntity
  8
0
 62
     3
100
AcDbBlockBegin
  2
*D12
 70
     1
 10
0.0
 20
0.0
 30
0.0
  3
*D12
  1

  0
LINE
  5
8AF9
330
6FAA
100
AcDbEntity
  8
実形
 62
     0
370
    18
100
AcDbLine
 10
2007.58605839952
 20
1533.705382054273
 30
0.0
 11
2079.096753204842
 21
1533.705382054273
 31
0.0
  0
LINE
  5
8AFA
330
6FAA
100
AcDbEntity
  8
実形
 62
     0
370
    18
100
AcDbLine
 10
2007.911515539861
 20
645.7053820542732
 30
0.0
 11
2079.096753204842
 21
645.7053820542732
 31
0.0
  0
LINE
  5
8AFB
330
6FAA
100
AcDbEntity
  8
実形
 62
     0
370
    18
100
AcDbLine
 10
2079.096753204842
 20
1523.705382054273
 30
0.0
 11
2079.096753204842
 21
655.7053820542733
 31
0.0
  0
INSERT
  5
8AFC
330
6FAA
100
AcDbEntity
  8
実形
 62
     0
370
    18
100
AcDbBlockReference
  2
_Dot
 10
2079.096753204842
 20
1533.705382054273
 30
0.0
 41
10.0
 42
10.0
 43
10.0
 50
90.0
  0
INSERT
  5
8AFD
330
6FAA
100
AcDbEntity
  8
実形
 62
     0
370
    18
100
AcDbBlockReference
  2
_Dot
 10
2079.096753204842
 20
645.7053820542732
 30
0.0
 41
10.0
 42
10.0
 43
10.0
 50
270.0
  0
MTEXT
  5
8AFE
330
6FAA
100
AcDbEntity
  8
実形
 62
     0
100
AcDbMText
 10
2057.496753204842
 20
1089.705382054273
 30
0.0
 40
30.0
 41
0.0
 71
     5
 72
     1
  1
444
 11
0.0000000000000001
 21
1.0
 31
0.0
 73
     1
 44
1.0
1001
ACAD
1000
MTEXTBEGIN
1070
    73
1070
     1
1070
    44
1040
1.0
1070
    74
1070
     0
1000
MTEXTEND
  0
POINT
  5
8AFF
330
6FAA
100
AcDbEntity
  8
Defpoints
 62
     0
100
AcDbPoint
 10
1942.58605839952
 20
1533.705382054273
 30
0.0
  0
POINT
  5
8B00
330
6FAA
100
AcDbEntity
  8
Defpoints
 62
     0
100
AcDbPoint
 10
1942.911515539861
 20
645.7053820542732
 30
0.0
  0
POINT
  5
8B01
330
6FAA
100
AcDbEntity
  8
Defpoints
 62
     0
100
AcDbPoint
 10
2079.096753204842
 20
645.7053820542732
 30
0.0
  0
ENDBLK
  5
6FB5
330
6FAA
100
AcDbEntity
  8
0
 62
     3
100
AcDbBlockEnd
  0
BLOCK
  5
7738
330
772E
100
AcDbEntity
  8
0
 62
     3
100
AcDbBlockBegin
  2
*D13
 70
     1
 10
0.0
 20
0.0
 30
0.0
  3
*D13
  1

  0
LINE
  5
8B02
330
772E
100
AcDbEntity
  8
実形
 62
     0
370
    18
100
AcDbLine
 10
1383.234430156064
 20
1609.291548064773
 30
0.0
 11
1383.234430156064
 21
1641.792793837003
 31
0.0
  0
LINE
  5
8B03
330
772E
100
AcDbEntity
  8
実形
 62
     0
370
    18
100
AcDbLine
 10
1429.234430156064
 20
1609.291548064773
 30
0.0
 11
1429.234430156064
 21
1641.792793837003
 31
0.0
  0
LINE
  5
8B04
330
772E
100
AcDbEntity
  8
実形
 62
     0
370
    18
100
AcDbLine
 10
1393.234430156064
 20
1641.792793837003
 30
0.0
 11
1419.234430156064
 21
1641.792793837003
 31
0.0
  0
MTEXT
  5
8B05
330
772E
100
AcDbEntity
  8
実形
 62
     0
100
AcDbMText
 10
1419.042584800105
 20
1666.692793837003
 30
0.0
 40
30.0
 41
0.0
 71
     5
 72
     1
  1
23
 73
     1
 44
1.0
1001
ACAD
1000
MTEXTBEGIN
1070
    73
1070
     1
1070
    44
1040
1.0
1070
    74
1070
     0
1000
MTEXTEND
  0
INSERT
  5
8B06
330
772E
100
AcDbEntity
  8
実形
 62
     0
370
    18
100
AcDbBlockReference
  2
_Dot
 10
1383.234430156064
 20
1641.792793837003
 30
0.0
 41
10.0
 42
10.0
 43
10.0
 50
180.0
  0
INSERT
  5
8B07
330
772E
100
AcDbEntity
  8
実形
 62
     0
370
    18
100
AcDbBlockReference
  2
_Dot
 10
1429.234430156064
 20
1641.792793837003
 30
0.0
 41
10.0
 42
10.0
 43
10.0
  0
POINT
  5
8B08
330
772E
100
AcDbEntity
  8
Defpoints
 62
     0
100
AcDbPoint
 10
1383.234430156064
 20
1544.291548064773
 30
0.0
  0
POINT
  5
8B09
330
772E
100
AcDbEntity
  8
Defpoints
 62
     0
100
AcDbPoint
 10
1429.234430156064
 20
1544.291548064773
 30
0.0
  0
POINT
  5
8B0A
330
772E
100
AcDbEntity
  8
Defpoints
 62
     0
100
AcDbPoint
 10
1429.234430156064
 20
1641.792793837003
 30
0.0
  0
ENDBLK
  5
7739
330
772E
100
AcDbEntity
  8
0
 62
     3
100
AcDbBlockEnd
  0
BLOCK
  5
7745
330
773B
100
AcDbEntity
  8
0
 62
     3
100
AcDbBlockBegin
  2
*D14
 70
     1
 10
0.0
 20
0.0
 30
0.0
  3
*D14
  1

  0
LINE
  5
8B0B
330
773B
100
AcDbEntity
  8
実形
 62
     0
370
    18
100
AcDbLine
 10
1429.234430156064
 20
1606.873039274271
 30
0.0
 11
1429.234430156064
 21
1641.792793837003
 31
0.0
  0
LINE
  5
8B0C
330
773B
100
AcDbEntity
  8
実形
 62
     0
370
    18
100
AcDbLine
 10
1837.234430156064
 20
1606.873039274271
 30
0.0
 11
1837.234430156064
 21
1641.792793837003
 31
0.0
  0
LINE
  5
8B0D
330
773B
100
AcDbEntity
  8
実形
 62
     0
370
    18
100
AcDbLine
 10
1439.234430156064
 20
1641.792793837003
 30
0.0
 11
1827.234430156064
 21
1641.792793837003
 31
0.0
  0
INSERT
  5
8B0E
330
773B
100
AcDbEntity
  8
実形
 62
     0
370
    18
100
AcDbBlockReference
  2
_Dot
 10
1429.234430156064
 20
1641.792793837003
 30
0.0
 41
10.0
 42
10.0
 43
10.0
 50
180.0
  0
INSERT
  5
8B0F
330
773B
100
AcDbEntity
  8
実形
 62
     0
370
    18
100
AcDbBlockReference
  2
_Dot
 10
1837.234430156064
 20
1641.792793837003
 30
0.0
 41
10.0
 42
10.0
 43
10.0
  0
MTEXT
  5
8B10
330
773B
100
AcDbEntity
  8
実形
 62
     0
100
AcDbMText
 10
1633.234430156064
 20
1663.392793837003
 30
0.0
 40
30.0
 41
0.0
 71
     5
 72
     1
  1
204
 73
     1
 44
1.0
1001
ACAD
1000
MTEXTBEGIN
1070
    73
1070
     1
1070
    44
1040
1.0
1070
    74
1070
     0
1000
MTEXTEND
  0
POINT
  5
8B11
330
773B
100
AcDbEntity
  8
Defpoints
 62
     0
100
AcDbPoint
 10
1429.234430156064
 20
1541.873039274271
 30
0.0
  0
POINT
  5
8B12
330
773B
100
AcDbEntity
  8
Defpoints
 62
     0
100
AcDbPoint
 10
1837.234430156064
 20
1541.873039274271
 30
0.0
  0
POINT
  5
8B13
330
773B
100
AcDbEntity
  8
Defpoints
 62
     0
100
AcDbPoint
 10
1837.234430156064
 20
1641.792793837003
 30
0.0
  0
ENDBLK
  5
7746
330
773B
100
AcDbEntity
  8
0
 62
     3
100
AcDbBlockEnd
  0
BLOCK
  5
7752
330
7748
100
AcDbEntity
  8
0
 62
     3
100
AcDbBlockBegin
  2
*D15
 70
     1
 10
0.0
 20
0.0
 30
0.0
  3
*D15
  1

  0
LINE
  5
8B14
330
7748
100
AcDbEntity
  8
実形
 62
     0
370
    18
100
AcDbLine
 10
1837.234430156064
 20
1606.873039274271
 30
0.0
 11
1837.234430156064
 21
1641.792793837003
 31
0.0
  0
LINE
  5
8B15
330
7748
100
AcDbEntity
  8
実形
 62
     0
370
    18
100
AcDbLine
 10
1883.234430156064
 20
1606.873039274271
 30
0.0
 11
1883.234430156064
 21
1641.792793837003
 31
0.0
  0
LINE
  5
8B16
330
7748
100
AcDbEntity
  8
実形
 62
     0
370
    18
100
AcDbLine
 10
1847.234430156064
 20
1641.792793837003
 30
0.0
 11
1873.234430156064
 21
1641.792793837003
 31
0.0
  0
MTEXT
  5
8B17
330
7748
100
AcDbEntity
  8
実形
 62
     0
100
AcDbMText
 10
1846.871576807682
 20
1666.692793837003
 30
0.0
 40
30.0
 41
0.0
 71
     5
 72
     1
  1
23
 73
     1
 44
1.0
1001
ACAD
1000
MTEXTBEGIN
1070
    73
1070
     1
1070
    44
1040
1.0
1070
    74
1070
     0
1000
MTEXTEND
  0
INSERT
  5
8B18
330
7748
100
AcDbEntity
  8
実形
 62
     0
370
    18
100
AcDbBlockReference
  2
_Dot
 10
1837.234430156064
 20
1641.792793837003
 30
0.0
 41
10.0
 42
10.0
 43
10.0
 50
180.0
  0
INSERT
  5
8B19
330
7748
100
AcDbEntity
  8
実形
 62
     0
370
    18
100
AcDbBlockReference
  2
_Dot
 10
1883.234430156064
 20
1641.792793837003
 30
0.0
 41
10.0
 42
10.0
 43
10.0
  0
POINT
  5
8B1A
330
7748
100
AcDbEntity
  8
Defpoints
 62
     0
100
AcDbPoint
 10
1837.234430156064
 20
1541.873039274271
 30
0.0
  0
POINT
  5
8B1B
330
7748
100
AcDbEntity
  8
Defpoints
 62
     0
100
AcDbPoint
 10
1883.234430156064
 20
1541.873039274271
 30
0.0
  0
POINT
  5
8B1C
330
7748
100
AcDbEntity
  8
Defpoints
 62
     0
100
AcDbPoint
 10
1883.234430156064
 20
1641.792793837003
 30
0.0
  0
ENDBLK
  5
7753
330
7748
100
AcDbEntity
  8
0
 62
     3
100
AcDbBlockEnd
  0
BLOCK
  5
77D4
330
77CA
100
AcDbEntity
  8
0
 62
     3
100
AcDbBlockBegin
  2
*D16
 70
     1
 10
0.0
 20
0.0
 30
0.0
  3
*D16
  1

  0
LINE
  5
8B1D
330
77CA
100
AcDbEntity
  8
実形
 62
     0
370
    18
100
AcDbLine
 10
1975.900937973978
 20
1533.705382054273
 30
0.0
 11
2013.799333311125
 21
1533.705382054273
 31
0.0
  0
LINE
  5
8B1E
330
77CA
100
AcDbEntity
  8
実形
 62
     0
370
    18
100
AcDbLine
 10
1975.900937973978
 20
1487.705382054273
 30
0.0
 11
2013.799333311125
 21
1487.705382054273
 31
0.0
  0
LINE
  5
8B1F
330
77CA
100
AcDbEntity
  8
実形
 62
     0
370
    18
100
AcDbLine
 10
2013.799333311125
 20
1523.705382054273
 30
0.0
 11
2013.799333311125
 21
1497.705382054273
 31
0.0
  0
MTEXT
  5
8B20
330
77CA
100
AcDbEntity
  8
実形
 62
     0
100
AcDbMText
 10
1951.799641802225
 20
1496.430198401422
 30
0.0
 40
30.0
 41
0.0
 71
     5
 72
     1
  1
23
 11
0.0000000000000001
 21
1.0
 31
0.0
 73
     1
 44
1.0
1001
ACAD
1000
MTEXTBEGIN
1070
    73
1070
     1
1070
    44
1040
1.0
1070
    74
1070
     0
1000
MTEXTEND
  0
INSERT
  5
8B21
330
77CA
100
AcDbEntity
  8
実形
 62
     0
370
    18
100
AcDbBlockReference
  2
_Dot
 10
2013.799333311125
 20
1533.705382054273
 30
0.0
 41
10.0
 42
10.0
 43
10.0
 50
90.0
  0
INSERT
  5
8B22
330
77CA
100
AcDbEntity
  8
実形
 62
     0
370
    18
100
AcDbBlockReference
  2
_Dot
 10
2013.799333311125
 20
1487.705382054273
 30
0.0
 41
10.0
 42
10.0
 43
10.0
 50
270.0
  0
POINT
  5
8B23
330
77CA
100
AcDbEntity
  8
Defpoints
 62
     0
100
AcDbPoint
 10
1910.900937973978
 20
1533.705382054273
 30
0.0
  0
POINT
  5
8B24
330
77CA
100
AcDbEntity
  8
Defpoints
 62
     0
100
AcDbPoint
 10
1910.900937973978
 20
1487.705382054273
 30
0.0
  0
POINT
  5
8B25
330
77CA
100
AcDbEntity
  8
Defpoints
 62
     0
100
AcDbPoint
 10
2013.799333311125
 20
1487.705382054273
 30
0.0
  0
ENDBLK
  5
77D5
330
77CA
100
AcDbEntity
  8
0
 62
     3
100
AcDbBlockEnd
  0
BLOCK
  5
77EA
330
77E0
100
AcDbEntity
  8
0
 62
     3
100
AcDbBlockBegin
  2
*D17
 70
     1
 10
0.0
 20
0.0
 30
0.0
  3
*D17
  1

  0
LINE
  5
8B26
330
77E0
100
AcDbEntity
  8
実形
 62
     0
370
    18
100
AcDbLine
 10
1975.900937973978
 20
1487.705382054273
 30
0.0
 11
2013.799333311125
 21
1487.705382054273
 31
0.0
  0
LINE
  5
8B27
330
77E0
100
AcDbEntity
  8
実形
 62
     0
370
    18
100
AcDbLine
 10
1975.900937973978
 20
691.7053820542733
 30
0.0
 11
2013.799333311125
 21
691.7053820542733
 31
0.0
  0
LINE
  5
8B28
330
77E0
100
AcDbEntity
  8
実形
 62
     0
370
    18
100
AcDbLine
 10
2013.799333311125
 20
1477.705382054273
 30
0.0
 11
2013.799333311125
 21
701.7053820542733
 31
0.0
  0
INSERT
  5
8B29
330
77E0
100
AcDbEntity
  8
実形
 62
     0
370
    18
100
AcDbBlockReference
  2
_Dot
 10
2013.799333311125
 20
1487.705382054273
 30
0.0
 41
10.0
 42
10.0
 43
10.0
 50
90.0
  0
INSERT
  5
8B2A
330
77E0
100
AcDbEntity
  8
実形
 62
     0
370
    18
100
AcDbBlockReference
  2
_Dot
 10
2013.799333311125
 20
691.7053820542733
 30
0.0
 41
10.0
 42
10.0
 43
10.0
 50
270.0
  0
MTEXT
  5
8B2B
330
77E0
100
AcDbEntity
  8
実形
 62
     0
100
AcDbMText
 10
1992.199333311124
 20
1089.705382054273
 30
0.0
 40
30.0
 41
0.0
 71
     5
 72
     1
  1
398
 11
0.0000000000000001
 21
1.0
 31
0.0
 73
     1
 44
1.0
1001
ACAD
1000
MTEXTBEGIN
1070
    73
1070
     1
1070
    44
1040
1.0
1070
    74
1070
     0
1000
MTEXTEND
  0
POINT
  5
8B2C
330
77E0
100
AcDbEntity
  8
Defpoints
 62
     0
100
AcDbPoint
 10
1910.900937973978
 20
1487.705382054273
 30
0.0
  0
POINT
  5
8B2D
330
77E0
100
AcDbEntity
  8
Defpoints
 62
     0
100
AcDbPoint
 10
1910.900937973978
 20
691.7053820542733
 30
0.0
  0
POINT
  5
8B2E
330
77E0
100
AcDbEntity
  8
Defpoints
 62
     0
100
AcDbPoint
 10
2013.799333311125
 20
691.7053820542733
 30
0.0
  0
ENDBLK
  5
77EB
330
77E0
100
AcDbEntity
  8
0
 62
     3
100
AcDbBlockEnd
  0
BLOCK
  5
7800
330
77F6
100
AcDbEntity
  8
0
 62
     3
100
AcDbBlockBegin
  2
*D18
 70
     1
 10
0.0
 20
0.0
 30
0.0
  3
*D18
  1

  0
LINE
  5
8B2F
330
77F6
100
AcDbEntity
  8
実形
 62
     0
370
    18
100
AcDbLine
 10
1975.900937973978
 20
691.7053820542733
 30
0.0
 11
2013.799333311125
 21
691.7053820542733
 31
0.0
  0
LINE
  5
8B30
330
77F6
100
AcDbEntity
  8
実形
 62
     0
370
    18
100
AcDbLine
 10
1975.900937973978
 20
645.7053820542732
 30
0.0
 11
2013.799333311125
 21
645.7053820542732
 31
0.0
  0
LINE
  5
8B31
330
77F6
100
AcDbEntity
  8
実形
 62
     0
370
    18
100
AcDbLine
 10
2013.799333311125
 20
681.7053820542732
 30
0.0
 11
2013.799333311125
 21
655.7053820542733
 31
0.0
  0
MTEXT
  5
8B32
330
77F6
100
AcDbEntity
  8
実形
 62
     0
100
AcDbMText
 10
1956.859838135389
 20
677.2966759380452
 30
0.0
 40
30.0
 41
0.0
 71
     5
 72
     1
  1
23
 11
0.0000000000000001
 21
1.0
 31
0.0
 73
     1
 44
1.0
1001
ACAD
1000
MTEXTBEGIN
1070
    73
1070
     1
1070
    44
1040
1.0
1070
    74
1070
     0
1000
MTEXTEND
  0
INSERT
  5
8B33
330
77F6
100
AcDbEntity
  8
実形
 62
     0
370
    18
100
AcDbBlockReference
  2
_Dot
 10
2013.799333311125
 20
691.7053820542733
 30
0.0
 41
10.0
 42
10.0
 43
10.0
 50
90.0
  0
INSERT
  5
8B34
330
77F6
100
AcDbEntity
  8
実形
 62
     0
370
    18
100
AcDbBlockReference
  2
_Dot
 10
2013.799333311125
 20
645.7053820542732
 30
0.0
 41
10.0
 42
10.0
 43
10.0
 50
270.0
  0
POINT
  5
8B35
330
77F6
100
AcDbEntity
  8
Defpoints
 62
     0
100
AcDbPoint
 10
1910.900937973978
 20
691.7053820542733
 30
0.0
  0
POINT
  5
8B36
330
77F6
100
AcDbEntity
  8
Defpoints
 62
     0
100
AcDbPoint
 10
1910.900937973978
 20
645.7053820542732
 30
0.0
  0
POINT
  5
8B37
330
77F6
100
AcDbEntity
  8
Defpoints
 62
     0
100
AcDbPoint
 10
2013.799333311125
 20
645.7053820542732
 30
0.0
  0
ENDBLK
  5
7801
330
77F6
100
AcDbEntity
  8
0
 62
     3
100
AcDbBlockEnd
  0
BLOCK
  5
87AC
330
87A2
100
AcDbEntity
  8
0
 62
     3
100
AcDbBlockBegin
  2
*D19
 70
     1
 10
0.0
 20
0.0
 30
0.0
  3
*D19
  1

  0
LINE
  5
8B38
330
87A2
100
AcDbEntity
  8
実形
 62
     0
370
    18
100
AcDbLine
 10
615.7129285792779
 20
259.5678071957864
 30
0.0
 11
615.7129285792779
 21
227.6886020080165
 31
0.0
  0
LINE
  5
8B39
330
87A2
100
AcDbEntity
  8
実形
 62
     0
370
    18
100
AcDbLine
 10
1023.712928579278
 20
233.6611421926955
 30
0.0
 11
1023.712928579278
 21
227.6886020080165
 31
0.0
  0
LINE
  5
8B3A
330
87A2
100
AcDbEntity
  8
実形
 62
     0
370
    18
100
AcDbLine
 10
625.7129285792778
 20
227.6886020080165
 30
0.0
 11
1013.712928579278
 21
227.6886020080165
 31
0.0
  0
INSERT
  5
8B3B
330
87A2
100
AcDbEntity
  8
実形
 62
     0
370
    18
100
AcDbBlockReference
  2
_Dot
 10
615.7129285792779
 20
227.6886020080165
 30
0.0
 41
10.0
 42
10.0
 43
10.0
 50
180.0
  0
INSERT
  5
8B3C
330
87A2
100
AcDbEntity
  8
実形
 62
     0
370
    18
100
AcDbBlockReference
  2
_Dot
 10
1023.712928579278
 20
227.6886020080165
 30
0.0
 41
10.0
 42
10.0
 43
10.0
  0
MTEXT
  5
8B3D
330
87A2
100
AcDbEntity
  8
実形
 62
     0
100
AcDbMText
 10
819.7129285792779
 20
249.2886020080165
 30
0.0
 40
30.0
 41
0.0
 71
     5
 72
     1
  1
204
 73
     1
 44
1.0
1001
ACAD
1000
MTEXTBEGIN
1070
    73
1070
     1
1070
    44
1040
1.0
1070
    74
1070
     0
1000
MTEXTEND
  0
POINT
  5
8B3E
330
87A2
100
AcDbEntity
  8
Defpoints
 62
     0
100
AcDbPoint
 10
615.7129285792779
 20
324.5678071957864
 30
0.0
  0
POINT
  5
8B3F
330
87A2
100
AcDbEntity
  8
Defpoints
 62
     0
100
AcDbPoint
 10
1023.712928579278
 20
298.6611421926955
 30
0.0
  0
POINT
  5
8B40
330
87A2
100
AcDbEntity
  8
Defpoints
 62
     0
100
AcDbPoint
 10
1023.712928579278
 20
227.6886020080165
 30
0.0
  0
ENDBLK
  5
87AD
330
87A2
100
AcDbEntity
  8
0
 62
     3
100
AcDbBlockEnd
  0
BLOCK
  5
87B8
330
87AE
100
AcDbEntity
  8
0
 62
     3
100
AcDbBlockBegin
  2
*D20
 70
     1
 10
0.0
 20
0.0
 30
0.0
  3
*D20
  1

  0
LINE
  5
8B41
330
87AE
100
AcDbEntity
  8
実形
 62
     0
370
    18
100
AcDbLine
 10
569.7129285792779
 20
258.8753759763931
 30
0.0
 11
569.7129285792779
 21
227.6886020080165
 31
0.0
  0
LINE
  5
8B42
330
87AE
100
AcDbEntity
  8
実形
 62
     0
370
    18
100
AcDbLine
 10
615.7129285792779
 20
256.7542375993308
 30
0.0
 11
615.7129285792779
 21
227.6886020080165
 31
0.0
  0
LINE
  5
8B43
330
87AE
100
AcDbEntity
  8
実形
 62
     0
370
    18
100
AcDbLine
 10
579.7129285792778
 20
227.6886020080165
 30
0.0
 11
605.7129285792779
 21
227.6886020080165
 31
0.0
  0
MTEXT
  5
8B44
330
87AE
100
AcDbEntity
  8
実形
 62
     0
100
AcDbMText
 10
593.8342729949361
 20
285.3254294802664
 30
0.0
 40
30.0
 41
0.0
 71
     5
 72
     1
  1
23
 73
     1
 44
1.0
1001
ACAD
1000
MTEXTBEGIN
1070
    73
1070
     1
1070
    44
1040
1.0
1070
    74
1070
     0
1000
MTEXTEND
  0
INSERT
  5
8B45
330
87AE
100
AcDbEntity
  8
実形
 62
     0
370
    18
100
AcDbBlockReference
  2
_Dot
 10
569.7129285792779
 20
227.6886020080165
 30
0.0
 41
10.0
 42
10.0
 43
10.0
 50
180.0
  0
INSERT
  5
8B46
330
87AE
100
AcDbEntity
  8
実形
 62
     0
370
    18
100
AcDbBlockReference
  2
_Dot
 10
615.7129285792779
 20
227.6886020080165
 30
0.0
 41
10.0
 42
10.0
 43
10.0
  0
POINT
  5
8B47
330
87AE
100
AcDbEntity
  8
Defpoints
 62
     0
100
AcDbPoint
 10
569.7129285792779
 20
323.8753759763931
 30
0.0
  0
POINT
  5
8B48
330
87AE
100
AcDbEntity
  8
Defpoints
 62
     0
100
AcDbPoint
 10
615.7129285792779
 20
321.7542375993307
 30
0.0
  0
POINT
  5
8B49
330
87AE
100
AcDbEntity
  8
Defpoints
 62
     0
100
AcDbPoint
 10
615.7129285792779
 20
227.6886020080165
 30
0.0
  0
ENDBLK
  5
87B9
330
87AE
100
AcDbEntity
  8
0
 62
     3
100
AcDbBlockEnd
  0
BLOCK
  5
87C4
330
87BA
100
AcDbEntity
  8
0
 62
     3
100
AcDbBlockBegin
  2
*D21
 70
     1
 10
0.0
 20
0.0
 30
0.0
  3
*D21
  1

  0
LINE
  5
8B4A
330
87BA
100
AcDbEntity
  8
実形
 62
     0
370
    18
100
AcDbLine
 10
1023.712928579278
 20
258.4106495782525
 30
0.0
 11
1023.712928579278
 21
227.6886020080165
 31
0.0
  0
LINE
  5
8B4B
330
87BA
100
AcDbEntity
  8
実形
 62
     0
370
    18
100
AcDbLine
 10
1069.712928579278
 20
258.8753759763931
 30
0.0
 11
1069.712928579278
 21
227.6886020080165
 31
0.0
  0
LINE
  5
8B4C
330
87BA
100
AcDbEntity
  8
実形
 62
     0
370
    18
100
AcDbLine
 10
1033.712928579278
 20
227.6886020080165
 30
0.0
 11
1059.712928579278
 21
227.6886020080165
 31
0.0
  0
MTEXT
  5
8B4D
330
87BA
100
AcDbEntity
  8
実形
 62
     0
100
AcDbMText
 10
1047.465383093115
 20
288.3488241317082
 30
0.0
 40
30.0
 41
0.0
 71
     5
 72
     1
  1
23
 73
     1
 44
1.0
1001
ACAD
1000
MTEXTBEGIN
1070
    73
1070
     1
1070
    44
1040
1.0
1070
    74
1070
     0
1000
MTEXTEND
  0
INSERT
  5
8B4E
330
87BA
100
AcDbEntity
  8
実形
 62
     0
370
    18
100
AcDbBlockReference
  2
_Dot
 10
1023.712928579278
 20
227.6886020080165
 30
0.0
 41
10.0
 42
10.0
 43
10.0
 50
180.0
  0
INSERT
  5
8B4F
330
87BA
100
AcDbEntity
  8
実形
 62
     0
370
    18
100
AcDbBlockReference
  2
_Dot
 10
1069.712928579278
 20
227.6886020080165
 30
0.0
 41
10.0
 42
10.0
 43
10.0
  0
POINT
  5
8B50
330
87BA
100
AcDbEntity
  8
Defpoints
 62
     0
100
AcDbPoint
 10
1023.712928579278
 20
323.4106495782526
 30
0.0
  0
POINT
  5
8B51
330
87BA
100
AcDbEntity
  8
Defpoints
 62
     0
100
AcDbPoint
 10
1069.712928579278
 20
323.8753759763931
 30
0.0
  0
POINT
  5
8B52
330
87BA
100
AcDbEntity
  8
Defpoints
 62
     0
100
AcDbPoint
 10
1069.712928579278
 20
227.6886020080165
 30
0.0
  0
ENDBLK
  5
87C5
330
87BA
100
AcDbEntity
  8
0
 62
     3
100
AcDbBlockEnd
  0
BLOCK
  5
87D0
330
87C6
100
AcDbEntity
  8
0
 62
     3
100
AcDbBlockBegin
  2
*D22
 70
     1
 10
0.0
 20
0.0
 30
0.0
  3
*D22
  1

  0
LINE
  5
8B53
330
87C6
100
AcDbEntity
  8
実形
 62
     0
370
    18
100
AcDbLine
 10
569.7129285792779
 20
258.8753759763931
 30
0.0
 11
569.7129285792779
 21
164.4526250337421
 31
0.0
  0
LINE
  5
8B54
330
87C6
100
AcDbEntity
  8
実形
 62
     0
370
    18
100
AcDbLine
 10
1069.712928579278
 20
258.8753759763918
 30
0.0
 11
1069.712928579278
 21
164.4526250337421
 31
0.0
  0
LINE
  5
8B55
330
87C6
100
AcDbEntity
  8
実形
 62
     0
370
    18
100
AcDbLine
 10
579.7129285792778
 20
164.4526250337421
 30
0.0
 11
1059.712928579278
 21
164.4526250337421
 31
0.0
  0
INSERT
  5
8B56
330
87C6
100
AcDbEntity
  8
実形
 62
     0
370
    18
100
AcDbBlockReference
  2
_Dot
 10
569.7129285792779
 20
164.4526250337421
 30
0.0
 41
10.0
 42
10.0
 43
10.0
 50
180.0
  0
INSERT
  5
8B57
330
87C6
100
AcDbEntity
  8
実形
 62
     0
370
    18
100
AcDbBlockReference
  2
_Dot
 10
1069.712928579278
 20
164.4526250337421
 30
0.0
 41
10.0
 42
10.0
 43
10.0
  0
MTEXT
  5
8B58
330
87C6
100
AcDbEntity
  8
実形
 62
     0
100
AcDbMText
 10
819.7129285792779
 20
186.0526250337421
 30
0.0
 40
30.0
 41
0.0
 71
     5
 72
     1
  1
250
 73
     1
 44
1.0
1001
ACAD
1000
MTEXTBEGIN
1070
    73
1070
     1
1070
    44
1040
1.0
1070
    74
1070
     0
1000
MTEXTEND
  0
POINT
  5
8B59
330
87C6
100
AcDbEntity
  8
Defpoints
 62
     0
100
AcDbPoint
 10
569.7129285792779
 20
323.8753759763931
 30
0.0
  0
POINT
  5
8B5A
330
87C6
100
AcDbEntity
  8
Defpoints
 62
     0
100
AcDbPoint
 10
1069.712928579278
 20
323.8753759763917
 30
0.0
  0
POINT
  5
8B5B
330
87C6
100
AcDbEntity
  8
Defpoints
 62
     0
100
AcDbPoint
 10
1069.712928579278
 20
164.4526250337421
 30
0.0
  0
ENDBLK
  5
87D1
330
87C6
100
AcDbEntity
  8
0
 62
     3
100
AcDbBlockEnd
  0
BLOCK
  5
888B
330
8881
100
AcDbEntity
  8
0
 62
     3
100
AcDbBlockBegin
  2
*D23
 70
     1
 10
0.0
 20
0.0
 30
0.0
  3
*D23
  1

  0
LINE
  5
8B5C
330
8881
100
AcDbEntity
  8
実形
 62
     0
370
    18
100
AcDbLine
 10
2500.248400307262
 20
1533.705382054273
 30
0.0
 11
2564.253891897287
 21
1533.705382054273
 31
0.0
  0
LINE
  5
8B5D
330
8881
100
AcDbEntity
  8
実形
 62
     0
370
    18
100
AcDbLine
 10
2467.224793693551
 20
645.705382054273
 30
0.0
 11
2564.253891897287
 21
645.705382054273
 31
0.0
  0
LINE
  5
8B5E
330
8881
100
AcDbEntity
  8
実形
 62
     0
370
    18
100
AcDbLine
 10
2564.253891897287
 20
1523.705382054273
 30
0.0
 11
2564.253891897287
 21
655.705382054273
 31
0.0
  0
INSERT
  5
8B5F
330
8881
100
AcDbEntity
  8
実形
 62
     0
370
    18
100
AcDbBlockReference
  2
_Dot
 10
2564.253891897287
 20
1533.705382054273
 30
0.0
 41
10.0
 42
10.0
 43
10.0
 50
90.0
  0
INSERT
  5
8B60
330
8881
100
AcDbEntity
  8
実形
 62
     0
370
    18
100
AcDbBlockReference
  2
_Dot
 10
2564.253891897287
 20
645.705382054273
 30
0.0
 41
10.0
 42
10.0
 43
10.0
 50
270.0
  0
MTEXT
  5
8B61
330
8881
100
AcDbEntity
  8
実形
 62
     0
100
AcDbMText
 10
2542.653891897287
 20
1089.705382054273
 30
0.0
 40
30.0
 41
0.0
 71
     5
 72
     1
  1
444
 11
0.0000000000000001
 21
1.0
 31
0.0
 73
     1
 44
1.0
1001
ACAD
1000
MTEXTBEGIN
1070
    73
1070
     1
1070
    44
1040
1.0
1070
    74
1070
     0
1000
MTEXTEND
  0
POINT
  5
8B62
330
8881
100
AcDbEntity
  8
Defpoints
 62
     0
100
AcDbPoint
 10
2435.248400307262
 20
1533.705382054273
 30
0.0
  0
POINT
  5
8B63
330
8881
100
AcDbEntity
  8
Defpoints
 62
     0
100
AcDbPoint
 10
2402.224793693551
 20
645.705382054273
 30
0.0
  0
POINT
  5
8B64
330
8881
100
AcDbEntity
  8
Defpoints
 62
     0
100
AcDbPoint
 10
2564.253891897287
 20
645.705382054273
 30
0.0
  0
ENDBLK
  5
888C
330
8881
100
AcDbEntity
  8
0
 62
     3
100
AcDbBlockEnd
  0
BLOCK
  5
8897
330
888D
100
AcDbEntity
  8
0
 62
     3
100
AcDbBlockBegin
  2
*D24
 70
     1
 10
0.0
 20
0.0
 30
0.0
  3
*D24
  1

  0
LINE
  5
8B65
330
888D
100
AcDbEntity
  8
実形
 62
     0
370
    18
100
AcDbLine
 10
2478.349005015229
 20
1533.705382054273
 30
0.0
 11
2503.52870755873
 21
1533.705382054273
 31
0.0
  0
LINE
  5
8B66
330
888D
100
AcDbEntity
  8
実形
 62
     0
370
    18
100
AcDbLine
 10
2478.349005015228
 20
1487.705382054273
 30
0.0
 11
2503.52870755873
 21
1487.705382054273
 31
0.0
  0
LINE
  5
8B67
330
888D
100
AcDbEntity
  8
実形
 62
     0
370
    18
100
AcDbLine
 10
2503.52870755873
 20
1523.705382054273
 30
0.0
 11
2503.52870755873
 21
1497.705382054273
 31
0.0
  0
MTEXT
  5
8B68
330
888D
100
AcDbEntity
  8
実形
 62
     0
100
AcDbMText
 10
2488.613406249828
 20
1570.861419152518
 30
0.0
 40
30.0
 41
0.0
 71
     5
 72
     1
  1
23
 11
0.0000000000000001
 21
1.0
 31
0.0
 73
     1
 44
1.0
1001
ACAD
1000
MTEXTBEGIN
1070
    73
1070
     1
1070
    44
1040
1.0
1070
    74
1070
     0
1000
MTEXTEND
  0
INSERT
  5
8B69
330
888D
100
AcDbEntity
  8
実形
 62
     0
370
    18
100
AcDbBlockReference
  2
_Dot
 10
2503.52870755873
 20
1533.705382054273
 30
0.0
 41
10.0
 42
10.0
 43
10.0
 50
90.0
  0
INSERT
  5
8B6A
330
888D
100
AcDbEntity
  8
実形
 62
     0
370
    18
100
AcDbBlockReference
  2
_Dot
 10
2503.52870755873
 20
1487.705382054273
 30
0.0
 41
10.0
 42
10.0
 43
10.0
 50
270.0
  0
POINT
  5
8B6B
330
888D
100
AcDbEntity
  8
Defpoints
 62
     0
100
AcDbPoint
 10
2413.349005015229
 20
1533.705382054273
 30
0.0
  0
POINT
  5
8B6C
330
888D
100
AcDbEntity
  8
Defpoints
 62
     0
100
AcDbPoint
 10
2413.349005015228
 20
1487.705382054273
 30
0.0
  0
POINT
  5
8B6D
330
888D
100
AcDbEntity
  8
Defpoints
 62
     0
100
AcDbPoint
 10
2503.52870755873
 20
1487.705382054273
 30
0.0
  0
ENDBLK
  5
8898
330
888D
100
AcDbEntity
  8
0
 62
     3
100
AcDbBlockEnd
  0
BLOCK
  5
88A3
330
8899
100
AcDbEntity
  8
0
 62
     3
100
AcDbBlockBegin
  2
*D25
 70
     1
 10
0.0
 20
0.0
 30
0.0
  3
*D25
  1

  0
LINE
  5
8B6E
330
8899
100
AcDbEntity
  8
実形
 62
     0
370
    18
100
AcDbLine
 10
2467.930426101381
 20
691.705382054273
 30
0.0
 11
2503.528707558753
 21
691.705382054273
 31
0.0
  0
LINE
  5
8B6F
330
8899
100
AcDbEntity
  8
実形
 62
     0
370
    18
100
AcDbLine
 10
2467.224793693551
 20
645.705382054273
 30
0.0
 11
2503.528707558753
 21
645.705382054273
 31
0.0
  0
LINE
  5
8B70
330
8899
100
AcDbEntity
  8
実形
 62
     0
370
    18
100
AcDbLine
 10
2503.528707558753
 20
681.7053820542731
 30
0.0
 11
2503.528707558753
 21
655.705382054273
 31
0.0
  0
MTEXT
  5
8B71
330
8899
100
AcDbEntity
  8
実形
 62
     0
100
AcDbMText
 10
2484.835463319834
 20
614.444862161429
 30
0.0
 40
30.0
 41
0.0
 71
     5
 72
     1
  1
23
 11
0.0000000000000001
 21
1.0
 31
0.0
 73
     1
 44
1.0
1001
ACAD
1000
MTEXTBEGIN
1070
    73
1070
     1
1070
    44
1040
1.0
1070
    74
1070
     0
1000
MTEXTEND
  0
INSERT
  5
8B72
330
8899
100
AcDbEntity
  8
実形
 62
     0
370
    18
100
AcDbBlockReference
  2
_Dot
 10
2503.528707558753
 20
691.705382054273
 30
0.0
 41
10.0
 42
10.0
 43
10.0
 50
90.0
  0
INSERT
  5
8B73
330
8899
100
AcDbEntity
  8
実形
 62
     0
370
    18
100
AcDbBlockReference
  2
_Dot
 10
2503.528707558753
 20
645.705382054273
 30
0.0
 41
10.0
 42
10.0
 43
10.0
 50
270.0
  0
POINT
  5
8B74
330
8899
100
AcDbEntity
  8
Defpoints
 62
     0
100
AcDbPoint
 10
2402.930426101381
 20
691.705382054273
 30
0.0
  0
POINT
  5
8B75
330
8899
100
AcDbEntity
  8
Defpoints
 62
     0
100
AcDbPoint
 10
2402.224793693551
 20
645.705382054273
 30
0.0
  0
POINT
  5
8B76
330
8899
100
AcDbEntity
  8
Defpoints
 62
     0
100
AcDbPoint
 10
2503.528707558753
 20
645.705382054273
 30
0.0
  0
ENDBLK
  5
88A4
330
8899
100
AcDbEntity
  8
0
 62
     3
100
AcDbBlockEnd
  0
BLOCK
  5
88AF
330
88A5
100
AcDbEntity
  8
0
 62
     3
100
AcDbBlockBegin
  2
*D26
 70
     1
 10
0.0
 20
0.0
 30
0.0
  3
*D26
  1

  0
LINE
  5
8B77
330
88A5
100
AcDbEntity
  8
実形
 62
     0
370
    18
100
AcDbLine
 10
2478.224793693551
 20
1487.705382054273
 30
0.0
 11
2503.528707558754
 21
1487.705382054273
 31
0.0
  0
LINE
  5
8B78
330
88A5
100
AcDbEntity
  8
実形
 62
     0
370
    18
100
AcDbLine
 10
2478.224793693551
 20
691.705382054273
 30
0.0
 11
2503.528707558753
 21
691.705382054273
 31
0.0
  0
LINE
  5
8B79
330
88A5
100
AcDbEntity
  8
実形
 62
     0
370
    18
100
AcDbLine
 10
2503.528707558754
 20
1477.705382054273
 30
0.0
 11
2503.528707558753
 21
701.705382054273
 31
0.0
  0
INSERT
  5
8B7A
330
88A5
100
AcDbEntity
  8
実形
 62
     0
370
    18
100
AcDbBlockReference
  2
_Dot
 10
2503.528707558754
 20
1487.705382054273
 30
0.0
 41
10.0
 42
10.0
 43
10.0
 50
90.0
  0
INSERT
  5
8B7B
330
88A5
100
AcDbEntity
  8
実形
 62
     0
370
    18
100
AcDbBlockReference
  2
_Dot
 10
2503.528707558753
 20
691.705382054273
 30
0.0
 41
10.0
 42
10.0
 43
10.0
 50
270.0
  0
MTEXT
  5
8B7C
330
88A5
100
AcDbEntity
  8
実形
 62
     0
100
AcDbMText
 10
2481.928707558753
 20
1089.705382054273
 30
0.0
 40
30.0
 41
0.0
 71
     5
 72
     1
  1
398
 11
0.0000000000000001
 21
1.0
 31
0.0
 73
     1
 44
1.0
1001
ACAD
1000
MTEXTBEGIN
1070
    73
1070
     1
1070
    44
1040
1.0
1070
    74
1070
     0
1000
MTEXTEND
  0
POINT
  5
8B7D
330
88A5
100
AcDbEntity
  8
Defpoints
 62
     0
100
AcDbPoint
 10
2413.224793693551
 20
1487.705382054273
 30
0.0
  0
POINT
  5
8B7E
330
88A5
100
AcDbEntity
  8
Defpoints
 62
     0
100
AcDbPoint
 10
2413.224793693551
 20
691.705382054273
 30
0.0
  0
POINT
  5
8B7F
330
88A5
100
AcDbEntity
  8
Defpoints
 62
     0
100
AcDbPoint
 10
2503.528707558753
 20
691.705382054273
 30
0.0
  0
ENDBLK
  5
88B0
330
88A5
100
AcDbEntity
  8
0
 62
     3
100
AcDbBlockEnd
  0
ENDSEC
  0
SECTION
  2
ENTITIES
  0
LINE
  5
9C
330
1F
100
AcDbEntity
  8
枠
 62
     0
100
AcDbLine
 10
124.0
 20
4.0
 30
0.0
 11
2784.0
 21
4.0
 31
0.0
  0
LINE
  5
A0
330
1F
100
AcDbEntity
  8
枠
 62
     0
100
AcDbLine
 10
2784.0
 20
2024.0
 30
0.0
 11
124.0
 21
2024.0
 31
0.0
  0
LINE
  5
A5
330
1F
100
AcDbEntity
  8
枠
 62
     0
100
AcDbLine
 10
2784.0
 20
4.0
 30
0.0
 11
2784.0
 21
2024.0
 31
0.0
  0
LINE
  5
272
330
1F
100
AcDbEntity
  8
枠
 62
     0
100
AcDbLine
 10
2184.0
 20
134.0
 30
0.0
 11
2184.0
 21
199.0
 31
0.0
  0
LINE
  5
1B73
330
1F
100
AcDbEntity
  8
枠
 62
     0
100
AcDbLine
 10
1894.0
 20
2024.0
 30
0.0
 11
2784.0
 21
2024.0
 31
0.0
  0
LINE
  5
1B80
330
1F
100
AcDbEntity
  8
枠
 62
     0
100
AcDbLine
 10
2784.0
 20
1829.0
 30
0.0
 11
2784.0
 21
2024.0
 31
0.0
  0
LINE
  5
1B81
330
1F
100
AcDbEntity
  8
枠
 62
     0
100
AcDbLine
 10
2784.0
 20
2024.0
 30
0.0
 11
2784.000000000001
 21
1829.0
 31
0.0
  0
LINE
  5
1B84
330
1F
100
AcDbEntity
  8
枠
 62
     0
100
AcDbLine
 10
2064.0
 20
69.0
 30
0.0
 11
2784.0
 21
69.0
 31
0.0
  0
LINE
  5
1B85
330
1F
100
AcDbEntity
  8
枠
 62
     0
100
AcDbLine
 10
2064.0
 20
199.0
 30
0.0
 11
2784.0
 21
199.0
 31
0.0
  0
LINE
  5
1B86
330
1F
100
AcDbEntity
  8
枠
 62
     0
100
AcDbLine
 10
2064.0
 20
134.0
 30
0.0
 11
2784.0
 21
134.0
 31
0.0
  0
LINE
  5
1B87
330
1F
100
AcDbEntity
  8
枠
 62
     0
100
AcDbLine
 10
2064.0
 20
4.0
 30
0.0
 11
2064.0
 21
199.0
 31
0.0
  0
TEXT
  5
1B88
330
1F
100
AcDbEntity
  8
枠
 62
     0
100
AcDbText
 10
2300.255774665348
 20
16.49999999999999
 30
0.0
 40
40.0
  1
中外交易株式会社
 72
     4
 11
2488.255774665347
 21
36.5
 31
0.0
100
AcDbText
  0
LINE
  5
1B8A
330
1F
100
AcDbEntity
  8
枠
 62
     0
100
AcDbLine
 10
2184.0
 20
69.0
 30
0.0
 11
2784.0
 21
69.0
 31
0.0
  0
LINE
  5
1B8B
102
{ACAD_REACTORS
330
1B98
102
}
330
1F
100
AcDbEntity
  8
枠
 62
     0
370
     5
100
AcDbLine
 10
2207.843923164362
 20
40.53787547858519
 30
0.0
 11
2183.255774665347
 21
40.53787547858519
 31
0.0
  0
LINE
  5
1B8C
102
{ACAD_REACTORS
330
1B98
102
}
330
1F
100
AcDbEntity
  8
枠
 62
     0
370
     5
100
AcDbLine
 10
2183.255774665347
 20
40.53787547858519
 30
0.0
 11
2183.255774665347
 21
30.53787547858519
 31
0.0
  0
LINE
  5
1B8D
102
{ACAD_REACTORS
330
1B98
102
}
330
1F
100
AcDbEntity
  8
枠
 62
     0
370
     5
100
AcDbLine
 10
2183.255774665347
 20
30.53787547858519
 30
0.0
 11
2207.346428692676
 21
30.53787547858519
 31
0.0
  0
LINE
  5
1B8E
102
{ACAD_REACTORS
330
1B98
102
}
330
1F
100
AcDbEntity
  8
枠
 62
     0
370
     5
100
AcDbLine
 10
2210.641894042939
 20
56.5
 30
0.0
 11
2210.641894042939
 21
16.5
 31
0.0
  0
LINE
  5
1B8F
102
{ACAD_REACTORS
330
1B98
102
}
330
1F
100
AcDbEntity
  8
枠
 62
     0
370
     5
100
AcDbLine
 10
2210.641894042939
 20
16.5
 30
0.0
 11
2245.64189404294
 21
16.5
 31
0.0
  0
LINE
  5
1B90
102
{ACAD_REACTORS
330
1B98
102
}
330
1F
100
AcDbEntity
  8
枠
 62
     0
370
     5
100
AcDbLine
 10
2245.64189404294
 20
16.5
 30
0.0
 11
2210.641894042939
 21
36.5
 31
0.0
  0
LINE
  5
1B91
102
{ACAD_REACTORS
330
1B98
102
}
330
1F
100
AcDbEntity
  8
枠
 62
     0
370
     5
100
AcDbLine
 10
2210.641894042939
 20
36.5
 30
0.0
 11
2245.64189404294
 21
56.5
 31
0.0
  0
LINE
  5
1B92
102
{ACAD_REACTORS
330
1B98
102
}
330
1F
100
AcDbEntity
  8
枠
 62
     0
370
     5
100
AcDbLine
 10
2245.64189404294
 20
56.5
 30
0.0
 11
2210.641894042939
 21
56.5
 31
0.0
  0
LINE
  5
1B93
102
{ACAD_REACTORS
330
1B98
102
}
330
1F
100
AcDbEntity
  8
枠
 62
     0
370
     5
100
AcDbLine
 10
2276.75434681301
 20
40.53787547858519
 30
0.0
 11
2252.166198313995
 21
40.53787547858519
 31
0.0
  0
LINE
  5
1B94
102
{ACAD_REACTORS
330
1B98
102
}
330
1F
100
AcDbEntity
  8
枠
 62
     0
370
     5
100
AcDbLine
 10
2252.166198313995
 20
40.53787547858519
 30
0.0
 11
2252.166198313995
 21
30.53787547858519
 31
0.0
  0
LINE
  5
1B95
102
{ACAD_REACTORS
330
1B98
102
}
330
1F
100
AcDbEntity
  8
枠
 62
     0
370
     5
100
AcDbLine
 10
2252.166198313995
 20
30.53787547858519
 30
0.0
 11
2276.256852341323
 21
30.53787547858519
 31
0.0
  0
ARC
  5
1B96
102
{ACAD_REACTORS
330
1B98
102
}
330
1F
100
AcDbEntity
  8
枠
 62
     0
370
     5
100
AcDbCircle
 10
2188.255774665348
 20
36.5
 30
0.0
 40
20.0
100
AcDbArc
 50
11.64772366708617
 51
342.6561058784773
  0
ARC
  5
1B97
102
{ACAD_REACTORS
330
1B98
102
}
330
1F
100
AcDbEntity
  8
枠
 62
     0
370
     5
100
AcDbCircle
 10
2257.166198313996
 20
36.5
 30
0.0
 40
20.0
100
AcDbArc
 50
11.64772366708617
 51
342.6561058784773
  0
HATCH
  5
1B98
330
1F
100
AcDbEntity
  8
枠
 62
     0
100
AcDbHatch
 10
0.0
 20
0.0
 30
0.0
210
0.0
220
0.0
230
1.0
  2
SOLID
 70
     1
 71
     1
 91
        3
 92
        1
 93
        4
 72
     2
 10
2257.166198313996
 20
36.5
 40
20.0
 50
11.64772366708617
 51
342.6561058784773
 73
     1
 72
     1
 10
2276.256852341323
 20
30.53787547858519
 11
2252.166198313995
 21
30.53787547858519
 72
     1
 10
2252.166198313995
 20
30.53787547858519
 11
2252.166198313995
 21
40.53787547858519
 72
     1
 10
2252.166198313995
 20
40.53787547858519
 11
2276.75434681301
 21
40.53787547858519
 97
        4
330
1B97
330
1B95
330
1B94
330
1B93
 92
        1
 93
        4
 72
     2
 10
2188.255774665348
 20
36.5
 40
20.0
 50
11.64772366708617
 51
342.6561058784773
 73
     1
 72
     1
 10
2207.346428692676
 20
30.53787547858519
 11
2183.255774665347
 21
30.53787547858519
 72
     1
 10
2183.255774665347
 20
30.53787547858519
 11
2183.255774665347
 21
40.53787547858519
 72
     1
 10
2183.255774665347
 20
40.53787547858519
 11
2207.843923164362
 21
40.53787547858519
 97
        4
330
1B96
330
1B8D
330
1B8C
330
1B8B
 92
        1
 93
        5
 72
     1
 10
2245.64189404294
 20
56.5
 11
2210.641894042939
 21
56.5
 72
     1
 10
2210.641894042939
 20
56.5
 11
2210.641894042939
 21
16.5
 72
     1
 10
2210.641894042939
 20
16.5
 11
2245.64189404294
 21
16.5
 72
     1
 10
2245.64189404294
 20
16.5
 11
2210.641894042939
 21
36.5
 72
     1
 10
2210.641894042939
 20
36.5
 11
2245.64189404294
 21
56.5
 97
        5
330
1B92
330
1B8E
330
1B8F
330
1B90
330
1B91
 75
     0
 76
     1
 98
        1
 10
-60.0
 20
0.0
  0
LINE
  5
1B99
330
1F
100
AcDbEntity
  8
枠
 62
     0
100
AcDbLine
 10
2184.0
 20
69.0
 30
0.0
 11
2184.0
 21
199.0
 31
0.0
  0
LINE
  5
1B9B
330
1F
100
AcDbEntity
  8
枠
 62
     0
100
AcDbLine
 10
2784.0
 20
69.0
 30
0.0
 11
2784.0
 21
134.0
 31
0.0
  0
LINE
  5
1B9C
330
1F
100
AcDbEntity
  8
枠
 62
     0
100
AcDbLine
 10
2784.0
 20
134.0
 30
0.0
 11
2784.0
 21
199.0
 31
0.0
  0
LINE
  5
1B9D
330
1F
100
AcDbEntity
  8
枠
 62
     0
100
AcDbLine
 10
2784.0
 20
4.0
 30
0.0
 11
2784.0
 21
69.0
 31
0.0
  0
LINE
  5
1BA1
330
1F
100
AcDbEntity
  8
枠
 62
     0
100
AcDbLine
 10
2784.0
 20
1829.0
 30
0.0
 11
2784.0
 21
2024.000000000001
 31
0.0
  0
LINE
  5
5164
330
1F
100
AcDbEntity
  8
実形
100
AcDbLine
 10
629.712928579278
 20
1533.705382054273
 30
0.0
 11
1009.712928579278
 21
1533.705382054273
 31
0.0
  0
LINE
  5
5165
330
1F
100
AcDbEntity
  8
実形
100
AcDbLine
 10
1069.712928579278
 20
1473.705382054273
 30
0.0
 11
1069.712928579278
 21
705.7053820542734
 31
0.0
  0
LINE
  5
5166
330
1F
100
AcDbEntity
  8
実形
100
AcDbLine
 10
1009.712928579278
 20
645.7053820542734
 30
0.0
 11
629.712928579278
 21
645.7053820542732
 31
0.0
  0
LINE
  5
5167
330
1F
100
AcDbEntity
  8
実形
100
AcDbLine
 10
569.7129285792779
 20
705.7053820542733
 30
0.0
 11
569.7129285792779
 21
1473.705382054273
 31
0.0
  0
TEXT
  5
5C3E
330
1F
100
AcDbEntity
  8
実形
100
AcDbText
 10
1109.083223416928
 20
1298.4216028103
 30
0.0
 40
30.0
  1
A
 72
     4
 11
1119.083223416928
 21
1313.4216028103
 31
0.0
100
AcDbText
  0
TEXT
  5
5C47
330
1F
100
AcDbEntity
  8
実形
100
AcDbText
 10
1122.4346686055
 20
1296.646149022621
 30
0.0
 40
30.0
  1
´
 72
     4
 11
1136.4346686055
 21
1324.646149022621
 31
0.0
100
AcDbText
  0
TEXT
  5
5E3A
330
1F
100
AcDbEntity
  8
実形
100
AcDbText
 10
1151.037708176005
 20
589.7431766320432
 30
0.0
 40
30.0
  1
30R
 72
     2
 11
1226.037708176005
 21
585.7431766320432
 31
0.0
100
AcDbText
 73
     1
  0
LEADER
  5
5E44
330
1F
100
AcDbEntity
  8
実形
100
AcDbLeader
  3
ISO-25
 76
     2
 10
1065.998633517989
 20
655.9800467455252
 30
0.0
 10
1132.913602859089
 20
605.3108138762145
 30
0.0
1001
ACAD
1000
DSTYLE
1002
{
1070
    77
1070
     0
1070
    41
1040
10.0
1070
   140
1040
30.0
1070
   147
1040
6.599999999999998
1070
   279
1070
     2
1070
   342
1005
30D
1070
   371
1070
    18
1070
   372
1070
    18
1002
}
  0
TEXT
  5
5E5F
330
1F
100
AcDbEntity
  8
枠
 62
     0
100
AcDbText
 10
2086.666666666667
 20
84.0
 30
0.0
 40
35.0
  1
品番
 72
     4
 11
2124.0
 21
101.5
 31
0.0
100
AcDbText
  0
TEXT
  5
5E68
330
1F
100
AcDbEntity
  8
枠
 62
     0
100
AcDbText
 10
2086.666666666667
 20
149.0
 30
0.0
 40
35.0
  1
名称
 72
     4
 11
2124.0
 21
166.5
 31
0.0
100
AcDbText
  0
TEXT
  5
65C5
330
1F
100
AcDbEntity
  8
実形
100
AcDbText
 10
795.2963184938162
 20
588.3231054849525
 30
0.0
 40
30.0
  1
B
 72
     4
 11
805.2963184938162
 21
603.3231054849525
 31
0.0
100
AcDbText
  0
TEXT
  5
65CE
330
1F
100
AcDbEntity
  8
実形
100
AcDbText
 10
811.63037681704
 20
590.9698317905094
 30
0.0
 40
30.0
  1
´
 72
     4
 11
825.6303768170401
 21
618.9698317905095
 31
0.0
100
AcDbText
  0
TEXT
  5
68D6
330
1F
100
AcDbEntity
  8
実形
100
AcDbText
 10
2255.608802850728
 20
146.6405006610517
 30
0.0
 40
35.0
  1
ｶｯﾃｨﾝｸﾞﾎﾞｰﾄﾞ
  7
ms明朝
 72
     4
 11
2409.208802850728
 21
163.9405006610517
 31
0.0
100
AcDbText
  0
DIMENSION
  5
6AE3
330
1F
100
AcDbEntity
  8
実形
100
AcDbDimension
  2
*D8
 10
1069.712928579278
 20
1658.396577914092
 30
0.0
 11
819.7129285792779
 21
1679.996577914092
 31
0.0
 70
    32
  1
250
 71
     5
 42
500.0
  3
ISO-25
100
AcDbAlignedDimension
 13
569.7129285792779
 23
1518.746825766398
 33
0.0
 14
1069.712928579278
 24
1518.746825766398
 34
0.0
100
AcDbRotatedDimension
1001
ACAD
1000
DSTYLE
1002
{
1070
    41
1040
10.0
1070
   140
1040
30.0
1070
   147
1040
6.599999999999998
1070
   279
1070
     2
1070
   342
1005
30D
1070
   371
1070
    18
1070
   372
1070
    18
1002
}
  0
DIMENSION
  5
6C16
330
1F
100
AcDbEntity
  8
実形
100
AcDbDimension
  2
*D9
 10
429.7286310142327
 20
645.7053820542735
 30
0.0
 11
408.1286310142326
 21
1089.705382054273
 31
0.0
 70
    32
  1
444
 71
     5
 42
887.9999999999999
  3
ISO-25
100
AcDbAlignedDimension
 13
566.239325819555
 23
1533.705382054273
 33
0.0
 14
565.9138686792131
 24
645.7053820542735
 34
0.0
 50
90.0
100
AcDbRotatedDimension
1001
ACAD
1000
DSTYLE
1002
{
1070
    41
1040
10.0
1070
   140
1040
30.0
1070
   147
1040
6.599999999999998
1070
   279
1070
     2
1070
   342
1005
30D
1070
   371
1070
    18
1070
   372
1070
    18
1002
}
  0
TEXT
  5
6CEF
330
1F
100
AcDbEntity
  8
実形
100
AcDbText
 10
435.1241132687736
 20
1803.819093028745
 30
0.0
 40
40.0
  1
平面（上方向より）
 72
     4
 11
635.1241132687737
 21
1823.819093028745
 31
0.0
100
AcDbText
  0
LINE
  5
6F33
330
1F
100
AcDbEntity
  8
実形
100
AcDbLine
 10
1443.234430156064
 20
1533.705382054273
 30
0.0
 11
1823.234430156064
 21
1533.705382054273
 31
0.0
  0
LINE
  5
6F36
330
1F
100
AcDbEntity
  8
実形
100
AcDbLine
 10
1883.234430156064
 20
1473.705382054273
 30
0.0
 11
1883.234430156064
 21
705.7053820542734
 31
0.0
  0
LINE
  5
6F3A
330
1F
100
AcDbEntity
  8
実形
100
AcDbLine
 10
1823.234430156064
 20
645.7053820542734
 30
0.0
 11
1443.234430156064
 21
645.7053820542731
 31
0.0
  0
LINE
  5
6F3C
330
1F
100
AcDbEntity
  8
実形
100
AcDbLine
 10
1383.234430156064
 20
705.7053820542732
 30
0.0
 11
1383.234430156064
 21
1473.705382054273
 31
0.0
  0
TEXT
  5
6F44
330
1F
100
AcDbEntity
  8
実形
100
AcDbText
 10
1713.837497576547
 20
778.9017031699122
 30
0.0
 40
30.0
  1
20R
 72
     2
 11
1788.837497576547
 21
774.9017031699122
 31
0.0
100
AcDbText
 73
     1
  0
LEADER
  5
6F45
330
1F
100
AcDbEntity
  8
実形
100
AcDbLeader
  3
ISO-25
 76
     2
 10
1814.889438717317
 20
714.5901160560779
 30
0.0
 10
1762.857477841786
 20
769.4854726960357
 30
0.0
1001
ACAD
1000
DSTYLE
1002
{
1070
    77
1070
     0
1070
    41
1040
10.0
1070
   140
1040
30.0
1070
   147
1040
6.599999999999998
1070
   279
1070
     2
1070
   342
1005
30D
1070
   371
1070
    18
1070
   372
1070
    18
1002
}
  0
DIMENSION
  5
6F49
330
1F
100
AcDbEntity
  8
実形
100
AcDbDimension
  2
*D11
 10
1883.234430156064
 20
1719.338934665724
 30
0.0
 11
1633.234430156064
 21
1740.938934665724
 31
0.0
 70
    32
  1
250
 71
     5
 42
500.0
  3
ISO-25
100
AcDbAlignedDimension
 13
1383.234430156064
 23
1579.68918251803
 33
0.0
 14
1883.234430156064
 24
1579.68918251803
 34
0.0
100
AcDbRotatedDimension
1001
ACAD
1000
DSTYLE
1002
{
1070
    41
1040
10.0
1070
   140
1040
30.0
1070
   147
1040
6.599999999999998
1070
   279
1070
     2
1070
   342
1005
30D
1070
   371
1070
    18
1070
   372
1070
    18
1002
}
  0
DIMENSION
  5
6F54
330
1F
100
AcDbEntity
  8
実形
100
AcDbDimension
  2
*D12
 10
2079.096753204842
 20
645.7053820542732
 30
0.0
 11
2057.496753204842
 21
1089.705382054273
 31
0.0
 70
    32
  1
444
 71
     5
 42
887.9999999999997
  3
ISO-25
100
AcDbAlignedDimension
 13
1942.58605839952
 23
1533.705382054273
 33
0.0
 14
1942.911515539861
 24
645.7053820542732
 34
0.0
 50
90.0
100
AcDbRotatedDimension
1001
ACAD
1000
DSTYLE
1002
{
1070
    41
1040
10.0
1070
   140
1040
30.0
1070
   147
1040
6.599999999999998
1070
   279
1070
     2
1070
   342
1005
30D
1070
   371
1070
    18
1070
   372
1070
    18
1002
}
  0
TEXT
  5
6F55
330
1F
100
AcDbEntity
  8
実形
100
AcDbText
 10
1248.64561484556
 20
1803.819093028745
 30
0.0
 40
40.0
  1
平面（下方向より）
 72
     4
 11
1448.64561484556
 21
1823.819093028745
 31
0.0
100
AcDbText
  0
LINE
  5
7047
330
1F
100
AcDbEntity
  8
実形
  6
ACAD_ISO08W100
100
AcDbLine
 10
819.7129285792779
 20
645.7053820542732
 30
0.0
 11
817.6226616594412
 21
1555.530534396532
 31
0.0
  0
LINE
  5
71DB
330
1F
100
AcDbEntity
  8
実形
  6
ACAD_ISO08W100
100
AcDbLine
 10
550.4361358748574
 20
1306.873095881787
 30
0.0
 11
1096.191559755876
 21
1306.873095881787
 31
0.0
  0
TEXT
  5
71E4
330
1F
100
AcDbEntity
  8
実形
100
AcDbText
 10
516.8855171962059
 20
1295.389232525878
 30
0.0
 40
30.0
  1
A
 72
     4
 11
526.8855171962059
 21
1310.389232525878
 31
0.0
100
AcDbText
  0
TEXT
  5
7235
330
1F
100
AcDbEntity
  8
実形
100
AcDbText
 10
805.5892105766416
 20
1565.61280521168
 30
0.0
 40
30.0
  1
B
 72
     4
 11
815.5892105766415
 21
1580.61280521168
 31
0.0
100
AcDbText
  0
LINE
  5
7729
330
1F
100
AcDbEntity
  8
実形
100
AcDbLine
 10
1469.234430156064
 20
1487.705382054273
 30
0.0
 11
1797.234430156064
 21
1487.705382054273
 31
0.0
  0
LINE
  5
772A
330
1F
100
AcDbEntity
  8
実形
100
AcDbLine
 10
1429.234430156064
 20
731.7053820542732
 30
0.0
 11
1429.234430156064
 21
1447.705382054273
 31
0.0
  0
LINE
  5
772B
330
1F
100
AcDbEntity
  8
実形
100
AcDbLine
 10
1837.234430156064
 20
1447.705382054273
 30
0.0
 11
1837.234430156064
 21
731.7053820542733
 31
0.0
  0
LINE
  5
772C
330
1F
100
AcDbEntity
  8
実形
100
AcDbLine
 10
1797.234430156064
 20
691.7053820542734
 30
0.0
 11
1469.234430156064
 21
691.7053820542733
 31
0.0
  0
DIMENSION
  5
772D
330
1F
100
AcDbEntity
  8
実形
100
AcDbDimension
  2
*D13
 10
1429.234430156064
 20
1641.792793837003
 30
0.0
 11
1419.042584800105
 21
1666.692793837003
 31
0.0
 70
   160
  1
23
 71
     5
 42
46.0
  3
ISO-25
100
AcDbAlignedDimension
 13
1383.234430156064
 23
1544.291548064773
 33
0.0
 14
1429.234430156064
 24
1544.291548064773
 34
0.0
100
AcDbRotatedDimension
1001
ACAD
1000
DSTYLE
1002
{
1070
    41
1040
10.0
1070
   140
1040
30.0
1070
   147
1040
6.599999999999998
1070
   279
1070
     2
1070
   342
1005
30D
1070
   371
1070
    18
1070
   372
1070
    18
1002
}
  0
DIMENSION
  5
773A
330
1F
100
AcDbEntity
  8
実形
100
AcDbDimension
  2
*D14
 10
1837.234430156064
 20
1641.792793837003
 30
0.0
 11
1633.234430156064
 21
1663.392793837003
 31
0.0
 70
    32
  1
204
 71
     5
 42
408.0
  3
ISO-25
100
AcDbAlignedDimension
 13
1429.234430156064
 23
1541.873039274271
 33
0.0
 14
1837.234430156064
 24
1541.873039274271
 34
0.0
100
AcDbRotatedDimension
1001
ACAD
1000
DSTYLE
1002
{
1070
    41
1040
10.0
1070
   140
1040
30.0
1070
   147
1040
6.599999999999998
1070
   279
1070
     2
1070
   342
1005
30D
1070
   371
1070
    18
1070
   372
1070
    18
1002
}
  0
DIMENSION
  5
7747
330
1F
100
AcDbEntity
  8
実形
100
AcDbDimension
  2
*D15
 10
1883.234430156064
 20
1641.792793837003
 30
0.0
 11
1846.871576807682
 21
1666.692793837003
 31
0.0
 70
   160
  1
23
 71
     5
 42
46.0
  3
ISO-25
100
AcDbAlignedDimension
 13
1837.234430156064
 23
1541.873039274271
 33
0.0
 14
1883.234430156064
 24
1541.873039274271
 34
0.0
100
AcDbRotatedDimension
1001
ACAD
1000
DSTYLE
1002
{
1070
    41
1040
10.0
1070
   140
1040
30.0
1070
   147
1040
6.599999999999998
1070
   279
1070
     2
1070
   342
1005
30D
1070
   371
1070
    18
1070
   372
1070
    18
1002
}
  0
DIMENSION
  5
77C9
330
1F
100
AcDbEntity
  8
実形
100
AcDbDimension
  2
*D16
 10
2013.799333311125
 20
1487.705382054273
 30
0.0
 11
1951.799641802225
 21
1496.430198401422
 31
0.0
 70
   160
  1
23
 71
     5
 42
45.99999999999977
  3
ISO-25
100
AcDbAlignedDimension
 13
1910.900937973978
 23
1533.705382054273
 33
0.0
 14
1910.900937973978
 24
1487.705382054273
 34
0.0
 50
90.0
100
AcDbRotatedDimension
1001
ACAD
1000
DSTYLE
1002
{
1070
    41
1040
10.0
1070
   140
1040
30.0
1070
   147
1040
6.599999999999998
1070
   279
1070
     2
1070
   342
1005
30D
1070
   371
1070
    18
1070
   372
1070
    18
1002
}
  0
DIMENSION
  5
77DF
330
1F
100
AcDbEntity
  8
実形
100
AcDbDimension
  2
*D17
 10
2013.799333311125
 20
691.7053820542733
 30
0.0
 11
1992.199333311124
 21
1089.705382054273
 31
0.0
 70
    32
  1
398
 71
     5
 42
796.0000000000002
  3
ISO-25
100
AcDbAlignedDimension
 13
1910.900937973978
 23
1487.705382054273
 33
0.0
 14
1910.900937973978
 24
691.7053820542733
 34
0.0
 50
90.0
100
AcDbRotatedDimension
1001
ACAD
1000
DSTYLE
1002
{
1070
    41
1040
10.0
1070
   140
1040
30.0
1070
   147
1040
6.599999999999998
1070
   279
1070
     2
1070
   342
1005
30D
1070
   371
1070
    18
1070
   372
1070
    18
1002
}
  0
DIMENSION
  5
77F5
330
1F
100
AcDbEntity
  8
実形
100
AcDbDimension
  2
*D18
 10
2013.799333311125
 20
645.7053820542732
 30
0.0
 11
1956.859838135389
 21
677.2966759380452
 31
0.0
 70
   160
  1
23
 71
     5
 42
46.0
  3
ISO-25
100
AcDbAlignedDimension
 13
1910.900937973978
 23
691.7053820542733
 33
0.0
 14
1910.900937973978
 24
645.7053820542732
 34
0.0
 50
90.0
100
AcDbRotatedDimension
1001
ACAD
1000
DSTYLE
1002
{
1070
    41
1040
10.0
1070
   140
1040
30.0
1070
   147
1040
6.599999999999998
1070
   279
1070
     2
1070
   342
1005
30D
1070
   371
1070
    18
1070
   372
1070
    18
1002
}
  0
LINE
  5
7FC1
330
1F
100
AcDbEntity
  8
枠
 62
     0
100
AcDbLine
 10
124.0
 20
2024.0
 30
0.0
 11
124.0
 21
4.0
 31
0.0
  0
TEXT
  5
877A
330
1F
100
AcDbEntity
  8
実形
100
AcDbText
 10
420.3595818067915
 20
464.8802828601938
 30
0.0
 40
40.0
  1
A-A´断面
 72
     4
 11
547.0262484734582
 21
484.8802828601938
 31
0.0
100
AcDbText
  0
LINE
  5
877B
330
1F
100
AcDbEntity
  8
実形
100
AcDbLine
 10
573.712928579278
 20
353.8753759763931
 30
0.0
 11
1065.712928579278
 21
353.8753759763931
 31
0.0
  0
LINE
  5
877C
330
1F
100
AcDbEntity
  8
実形
100
AcDbLine
 10
573.712928579278
 20
331.8753759763931
 30
0.0
 11
611.7129285792779
 21
331.8753759763931
 31
0.0
  0
LINE
  5
877D
330
1F
100
AcDbEntity
  8
実形
100
AcDbLine
 10
1027.712928579278
 20
331.8753759763931
 30
0.0
 11
1065.712928579278
 21
331.8753759763931
 31
0.0
  0
ARC
  5
877E
330
1F
100
AcDbEntity
  8
実形
100
AcDbCircle
 10
1027.712928579278
 20
327.8753759763931
 30
0.0
 40
4.0
100
AcDbArc
 50
90.0
 51
180.0
  0
LINE
  5
877F
330
1F
100
AcDbEntity
  8
実形
100
AcDbLine
 10
619.7129285792779
 20
323.8753759763931
 30
0.0
 11
1019.712928579279
 21
323.875375976393
 31
0.0
  0
ARC
  5
8780
330
1F
100
AcDbEntity
  8
実形
100
AcDbCircle
 10
1019.712928579279
 20
327.875375976393
 30
0.0
 40
4.0
100
AcDbArc
 50
270.0
 51
359.9999999999935
  0
LINE
  5
8781
330
1F
100
AcDbEntity
  8
実形
100
AcDbLine
 10
569.7129285792779
 20
349.8753759763931
 30
0.0
 11
569.7129285792779
 21
335.8753759763931
 31
0.0
  0
ARC
  5
8782
330
1F
100
AcDbEntity
  8
実形
100
AcDbCircle
 10
573.712928579278
 20
335.8753759763931
 30
0.0
 40
4.0
100
AcDbArc
 50
180.0
 51
270.0
  0
ARC
  5
8783
330
1F
100
AcDbEntity
  8
実形
100
AcDbCircle
 10
573.712928579278
 20
349.8753759763931
 30
0.0
 40
4.0
100
AcDbArc
 50
90.0
 51
180.0
  0
LINE
  5
8784
330
1F
100
AcDbEntity
  8
実形
100
AcDbLine
 10
615.7129285792779
 20
327.8753759763931
 30
0.0
 11
615.7129285792779
 21
327.8753759763931
 31
0.0
  0
ARC
  5
8785
330
1F
100
AcDbEntity
  8
実形
100
AcDbCircle
 10
619.7129285792779
 20
327.8753759763931
 30
0.0
 40
4.0
100
AcDbArc
 50
180.0
 51
270.0
  0
ARC
  5
8786
330
1F
100
AcDbEntity
  8
実形
100
AcDbCircle
 10
611.7129285792779
 20
327.8753759763931
 30
0.0
 40
4.0
100
AcDbArc
 50
0.0
 51
90.0
  0
LINE
  5
8787
330
1F
100
AcDbEntity
  8
実形
100
AcDbLine
 10
1069.712928579278
 20
349.8753759763931
 30
0.0
 11
1069.712928579278
 21
335.8753759763932
 31
0.0
  0
ARC
  5
8788
330
1F
100
AcDbEntity
  8
実形
100
AcDbCircle
 10
1065.712928579278
 20
335.8753759763931
 30
0.0
 40
4.0
100
AcDbArc
 50
270.0
 51
0.0
  0
ARC
  5
8789
330
1F
100
AcDbEntity
  8
実形
100
AcDbCircle
 10
1065.712928579278
 20
349.8753759763931
 30
0.0
 40
4.0
100
AcDbArc
 50
0.0
 51
90.0
  0
LINE
  5
878A
330
1F
100
AcDbEntity
  8
実形
100
AcDbLine
 10
1023.712928579278
 20
327.8753759763931
 30
0.0
 11
1023.712928579278
 21
327.8753759763928
 31
0.0
  0
DIMENSION
  5
878B
330
1F
100
AcDbEntity
  8
実形
100
AcDbDimension
  2
*D19
 10
1023.712928579278
 20
227.6886020080165
 30
0.0
 11
819.7129285792779
 21
249.2886020080165
 31
0.0
 70
    32
  1
204
 71
     5
 42
408.0
  3
ISO-25
100
AcDbAlignedDimension
 13
615.7129285792779
 23
324.5678071957864
 33
0.0
 14
1023.712928579278
 24
298.6611421926955
 34
0.0
100
AcDbRotatedDimension
1001
ACAD
1000
DSTYLE
1002
{
1070
    41
1040
10.0
1070
   140
1040
30.0
1070
   147
1040
6.599999999999998
1070
   279
1070
     2
1070
   342
1005
30D
1070
   371
1070
    18
1070
   372
1070
    18
1002
}
  0
DIMENSION
  5
878C
330
1F
100
AcDbEntity
  8
実形
100
AcDbDimension
  2
*D20
 10
615.7129285792779
 20
227.6886020080165
 30
0.0
 11
593.8342729949361
 21
285.3254294802664
 31
0.0
 70
   160
  1
23
 71
     5
 42
46.0
  3
ISO-25
100
AcDbAlignedDimension
 13
569.7129285792779
 23
323.8753759763931
 33
0.0
 14
615.7129285792779
 24
321.7542375993307
 34
0.0
100
AcDbRotatedDimension
1001
ACAD
1000
DSTYLE
1002
{
1070
    41
1040
10.0
1070
   140
1040
30.0
1070
   147
1040
6.599999999999998
1070
   279
1070
     2
1070
   342
1005
30D
1070
   371
1070
    18
1070
   372
1070
    18
1002
}
  0
DIMENSION
  5
878D
330
1F
100
AcDbEntity
  8
実形
100
AcDbDimension
  2
*D21
 10
1069.712928579278
 20
227.6886020080165
 30
0.0
 11
1047.465383093115
 21
288.3488241317082
 31
0.0
 70
   160
  1
23
 71
     5
 42
46.00000000000011
  3
ISO-25
100
AcDbAlignedDimension
 13
1023.712928579278
 23
323.4106495782526
 33
0.0
 14
1069.712928579278
 24
323.8753759763931
 34
0.0
100
AcDbRotatedDimension
1001
ACAD
1000
DSTYLE
1002
{
1070
    41
1040
10.0
1070
   140
1040
30.0
1070
   147
1040
6.599999999999998
1070
   279
1070
     2
1070
   342
1005
30D
1070
   371
1070
    18
1070
   372
1070
    18
1002
}
  0
DIMENSION
  5
878E
330
1F
100
AcDbEntity
  8
実形
100
AcDbDimension
  2
*D22
 10
1069.712928579278
 20
164.4526250337421
 30
0.0
 11
819.7129285792779
 21
186.0526250337421
 31
0.0
 70
    32
  1
250
 71
     5
 42
500.0
  3
ISO-25
100
AcDbAlignedDimension
 13
569.7129285792779
 23
323.8753759763931
 33
0.0
 14
1069.712928579278
 24
323.8753759763917
 34
0.0
100
AcDbRotatedDimension
1001
ACAD
1000
DSTYLE
1002
{
1070
    41
1040
10.0
1070
   140
1040
30.0
1070
   147
1040
6.599999999999998
1070
   279
1070
     2
1070
   342
1005
30D
1070
   371
1070
    18
1070
   372
1070
    18
1002
}
  0
LINE
  5
878F
330
1F
100
AcDbEntity
  8
実形
100
AcDbLine
 10
540.2425600349597
 20
323.8753759763931
 30
0.0
 11
469.2946992787765
 21
323.8753759763932
 31
0.0
  0
LINE
  5
8790
330
1F
100
AcDbEntity
  8
実形
100
AcDbLine
 10
540.2425600349597
 20
331.8753759763931
 30
0.0
 11
510.7337578171009
 21
331.8753759763931
 31
0.0
  0
LINE
  5
8791
330
1F
100
AcDbEntity
  8
実形
100
AcDbLine
 10
540.2425600349597
 20
353.8753759763931
 30
0.0
 11
469.2946992787765
 21
353.8753759763931
 31
0.0
  0
LINE
  5
8792
330
1F
100
AcDbEntity
  8
実形
100
AcDbLine
 10
469.2946992787765
 20
353.8753759763931
 30
0.0
 11
469.2946992787765
 21
323.8753759763931
 31
0.0
  0
LINE
  5
8793
330
1F
100
AcDbEntity
  8
実形
100
AcDbLine
 10
510.7337578171009
 20
353.8753759763931
 30
0.0
 11
510.7337578171009
 21
323.8753759763931
 31
0.0
  0
TEXT
  5
8794
330
1F
100
AcDbEntity
  8
実形
100
AcDbText
 10
505.5160258340396
 20
319.3495766186675
 30
0.0
 40
10.0
  1
●
 72
     4
 11
510.1826925007062
 21
324.3495766186675
 31
0.0
100
AcDbText
  0
TEXT
  5
8795
330
1F
100
AcDbEntity
  8
実形
100
AcDbText
 10
505.2346053031099
 20
327.5085415655935
 30
0.0
 40
10.0
  1
●
 72
     4
 11
509.9012719697766
 21
332.5085415655935
 31
0.0
100
AcDbText
  0
TEXT
  5
8796
330
1F
100
AcDbEntity
  8
実形
100
AcDbText
 10
505.5160258340396
 20
348.6093164635045
 30
0.0
 40
10.0
  1
●
 72
     4
 11
510.1826925007062
 21
353.6093164635044
 31
0.0
100
AcDbText
  0
TEXT
  5
8797
330
1F
100
AcDbEntity
  8
実形
100
AcDbText
 10
464.7443803212929
 20
318.6173795703844
 30
0.0
 40
10.0
  1
●
 72
     4
 11
469.4110469879596
 21
323.6173795703844
 31
0.0
100
AcDbText
  0
TEXT
  5
8798
330
1F
100
AcDbEntity
  8
実形
100
AcDbText
 10
464.6181463903861
 20
348.6431020199621
 30
0.0
 40
10.0
  1
●
 72
     4
 11
469.2848130570528
 21
353.643102019962
 31
0.0
100
AcDbText
  0
TEXT
  5
8799
330
1F
100
AcDbEntity
  8
実形
100
AcDbText
 10
507.0138623151761
 20
367.9631055742575
 30
0.0
 40
30.0
  1
11
 50
90.0
 72
     2
 11
511.0138623151761
 21
397.9631055742575
 31
0.0
100
AcDbText
 73
     1
  0
TEXT
  5
879A
330
1F
100
AcDbEntity
  8
実形
100
AcDbText
 10
510.5947146638027
 20
295.7676479346655
 30
0.0
 40
30.0
  1
4
 50
90.0
 72
     2
 11
514.5947146638027
 21
315.7676479346656
 31
0.0
100
AcDbText
 73
     1
  0
TEXT
  5
879B
330
1F
100
AcDbEntity
  8
実形
100
AcDbText
 10
450.2960829669155
 20
317.8111679484991
 30
0.0
 40
30.0
  1
15
 50
90.0
 72
     2
 11
454.2960829669154
 21
357.8111679484991
 31
0.0
100
AcDbText
 73
     1
  0
TEXT
  5
879C
330
1F
100
AcDbEntity
  8
実形
100
AcDbText
 10
1143.749572889918
 20
383.5295489844611
 30
0.0
 40
30.0
  1
2R
 72
     2
 11
1193.749572889918
 21
379.5295489844611
 31
0.0
100
AcDbText
 73
     1
  0
LEADER
  5
879D
330
1F
100
AcDbEntity
  8
実形
100
AcDbLeader
  3
ISO-25
 76
     2
 10
1081.312539179949
 20
356.845193735654
 30
0.0
 10
1137.99226943115
 20
382.5240323089584
 30
0.0
1001
ACAD
1000
DSTYLE
1002
{
1070
    77
1070
     0
1070
    41
1040
10.0
1070
   140
1040
30.0
1070
   147
1040
6.599999999999998
1070
   279
1070
     2
1070
   342
1005
30D
1070
   371
1070
    13
1070
   372
1070
    18
1002
}
  0
TEXT
  5
879E
330
1F
100
AcDbEntity
  8
実形
100
AcDbText
 10
1147.034008799667
 20
302.1296140840841
 30
0.0
 40
30.0
  1
2R
 72
     2
 11
1197.034008799667
 21
298.1296140840841
 31
0.0
100
AcDbText
 73
     1
  0
LEADER
  5
879F
330
1F
100
AcDbEntity
  8
実形
100
AcDbLeader
  3
ISO-25
 76
     2
 10
1081.911707467472
 20
332.8845781157497
 30
0.0
 10
1138.996905540105
 20
379.510880472375
 30
0.0
1001
ACAD
1000
DSTYLE
1002
{
1070
    77
1070
     0
1070
    41
1040
10.0
1070
   140
1040
30.0
1070
   147
1040
6.599999999999998
1070
   279
1070
     2
1070
   342
1005
30D
1070
   371
1070
    13
1070
   372
1070
    18
1002
}
  0
LEADER
  5
87A0
330
1F
100
AcDbEntity
  8
実形
100
AcDbLeader
  3
ISO-25
 76
     2
 10
1044.220363353994
 20
326.2604820191482
 30
0.0
 10
1135.982997213238
 20
316.1909644355401
 30
0.0
1001
ACAD
1000
DSTYLE
1002
{
1070
    77
1070
     0
1070
    41
1040
10.0
1070
   140
1040
30.0
1070
   147
1040
6.599999999999998
1070
   279
1070
     2
1070
   342
1005
30D
1070
   371
1070
    13
1070
   372
1070
    18
1002
}
  0
LEADER
  5
87A1
330
1F
100
AcDbEntity
  8
実形
100
AcDbLeader
  3
ISO-25
 76
     2
 10
1041.316685433348
 20
320.0578410965927
 30
0.0
 10
1134.978346716367
 20
314.1822089874531
 30
0.0
1001
ACAD
1000
DSTYLE
1002
{
1070
    77
1070
     0
1070
    41
1040
10.0
1070
   140
1040
30.0
1070
   147
1040
6.599999999999998
1070
   279
1070
     2
1070
   342
1005
30D
1070
   371
1070
    13
1070
   372
1070
    18
1002
}
  0
DIMENSION
  5
8857
330
1F
100
AcDbEntity
  8
実形
100
AcDbDimension
  2
*D23
 10
2564.253891897287
 20
645.705382054273
 30
0.0
 11
2542.653891897287
 21
1089.705382054273
 31
0.0
 70
    32
  1
444
 71
     5
 42
888.0
  3
ISO-25
100
AcDbAlignedDimension
 13
2435.248400307262
 23
1533.705382054273
 33
0.0
 14
2402.224793693551
 24
645.705382054273
 34
0.0
 50
90.0
100
AcDbRotatedDimension
1001
ACAD
1000
DSTYLE
1002
{
1070
    41
1040
10.0
1070
   140
1040
30.0
1070
   147
1040
6.599999999999998
1070
   279
1070
     2
1070
   342
1005
30D
1070
   371
1070
    18
1070
   372
1070
    18
1002
}
  0
TEXT
  5
8858
330
1F
100
AcDbEntity
  8
実形
100
AcDbText
 10
2259.017541305809
 20
1710.025625316928
 30
0.0
 40
40.0
  1
B-B\U+00b4断面
 72
     4
 11
2385.684207972475
 21
1730.025625316928
 31
0.0
100
AcDbText
  0
DIMENSION
  5
8859
330
1F
100
AcDbEntity
  8
実形
100
AcDbDimension
  2
*D24
 10
2503.52870755873
 20
1487.705382054273
 30
0.0
 11
2488.613406249828
 21
1570.861419152518
 31
0.0
 70
   160
  1
23
 71
     5
 42
46.00000000000022
  3
ISO-25
100
AcDbAlignedDimension
 13
2413.349005015229
 23
1533.705382054273
 33
0.0
 14
2413.349005015228
 24
1487.705382054273
 34
0.0
 50
90.0
100
AcDbRotatedDimension
1001
ACAD
1000
DSTYLE
1002
{
1070
    41
1040
10.0
1070
   140
1040
30.0
1070
   147
1040
6.599999999999998
1070
   279
1070
     2
1070
   342
1005
30D
1070
   371
1070
    18
1070
   372
1070
    18
1002
}
  0
DIMENSION
  5
885A
330
1F
100
AcDbEntity
  8
実形
100
AcDbDimension
  2
*D25
 10
2503.528707558753
 20
645.705382054273
 30
0.0
 11
2484.835463319834
 21
614.444862161429
 31
0.0
 70
   160
  1
23
 71
     5
 42
46.0
  3
ISO-25
100
AcDbAlignedDimension
 13
2402.930426101381
 23
691.705382054273
 33
0.0
 14
2402.224793693551
 24
645.705382054273
 34
0.0
 50
90.0
100
AcDbRotatedDimension
1001
ACAD
1000
DSTYLE
1002
{
1070
    41
1040
10.0
1070
   140
1040
30.0
1070
   147
1040
6.599999999999998
1070
   279
1070
     2
1070
   342
1005
30D
1070
   371
1070
    18
1070
   372
1070
    18
1002
}
  0
LINE
  5
885B
330
1F
100
AcDbEntity
  8
実形
100
AcDbLine
 10
2416.224793693551
 20
1487.705382054273
 30
0.0
 11
2416.224793693551
 21
1487.705382054272
 31
0.0
  0
LINE
  5
885C
330
1F
100
AcDbEntity
  8
実形
100
AcDbLine
 10
2394.224793693551
 20
645.7053820542731
 30
0.0
 11
2408.224793693551
 21
645.7053820542728
 31
0.0
  0
LINE
  5
885D
330
1F
100
AcDbEntity
  8
実形
100
AcDbLine
 10
2416.224793693551
 20
691.705382054273
 30
0.0
 11
2416.22479369355
 21
691.7053820542729
 31
0.0
  0
ARC
  5
885E
330
1F
100
AcDbEntity
  8
実形
100
AcDbCircle
 10
2416.224793693551
 20
687.705382054273
 30
0.0
 40
4.0
100
AcDbArc
 50
90.0
 51
180.0
  0
LINE
  5
885F
330
1F
100
AcDbEntity
  8
実形
100
AcDbLine
 10
2420.22479369355
 20
695.7053820542729
 30
0.0
 11
2420.224793693551
 21
1483.705382054272
 31
0.0
  0
ARC
  5
8860
330
1F
100
AcDbEntity
  8
実形
100
AcDbCircle
 10
2416.22479369355
 20
695.7053820542729
 30
0.0
 40
4.0
100
AcDbArc
 50
270.0
 51
0.0
  0
ARC
  5
8861
330
1F
100
AcDbEntity
  8
実形
100
AcDbCircle
 10
2416.224793693551
 20
1483.705382054272
 30
0.0
 40
4.0
100
AcDbArc
 50
0.0
 51
90.0
  0
LINE
  5
8862
330
1F
100
AcDbEntity
  8
実形
100
AcDbLine
 10
2412.224793693551
 20
649.7053820542728
 30
0.0
 11
2412.224793693551
 21
687.705382054273
 31
0.0
  0
ARC
  5
8863
330
1F
100
AcDbEntity
  8
実形
100
AcDbCircle
 10
2408.224793693551
 20
649.7053820542728
 30
0.0
 40
4.0
100
AcDbArc
 50
270.0
 51
0.0
  0
LINE
  5
8864
330
1F
100
AcDbEntity
  8
実形
100
AcDbLine
 10
2412.224793693551
 20
1491.705382054273
 30
0.0
 11
2412.224793693552
 21
1529.705382054273
 31
0.0
  0
ARC
  5
8865
330
1F
100
AcDbEntity
  8
実形
100
AcDbCircle
 10
2416.224793693551
 20
1491.705382054273
 30
0.0
 40
4.0
100
AcDbArc
 50
180.0
 51
270.0
  0
ARC
  5
8866
330
1F
100
AcDbEntity
  8
実形
100
AcDbCircle
 10
2408.224793693552
 20
1529.705382054273
 30
0.0
 40
4.0
100
AcDbArc
 50
0.0
 51
90.0
  0
LINE
  5
8867
330
1F
100
AcDbEntity
  8
実形
100
AcDbLine
 10
2390.224793693551
 20
649.7053820542731
 30
0.0
 11
2390.224793693551
 21
1529.705382054273
 31
0.0
  0
ARC
  5
8868
330
1F
100
AcDbEntity
  8
実形
100
AcDbCircle
 10
2394.224793693551
 20
649.7053820542731
 30
0.0
 40
4.0
100
AcDbArc
 50
180.0
 51
270.0
  0
LINE
  5
8869
330
1F
100
AcDbEntity
  8
実形
100
AcDbLine
 10
2394.224793693552
 20
1533.705382054273
 30
0.0
 11
2408.224793693552
 21
1533.705382054273
 31
0.0
  0
ARC
  5
886A
330
1F
100
AcDbEntity
  8
実形
100
AcDbCircle
 10
2394.224793693552
 20
1529.705382054273
 30
0.0
 40
4.0
100
AcDbArc
 50
90.0
 51
180.0
  0
LINE
  5
886B
330
1F
100
AcDbEntity
  8
実形
100
AcDbLine
 10
2420.224793693551
 20
1575.669323101321
 30
0.0
 11
2420.224793693551
 21
1605.17812531918
 31
0.0
  0
LINE
  5
886C
330
1F
100
AcDbEntity
  8
実形
100
AcDbLine
 10
2420.224793693551
 20
1605.17812531918
 30
0.0
 11
2390.224793693551
 21
1605.17812531918
 31
0.0
  0
LINE
  5
886D
330
1F
100
AcDbEntity
  8
実形
100
AcDbLine
 10
2390.224793693551
 20
1605.17812531918
 30
0.0
 11
2390.224793693551
 21
1575.669323101321
 31
0.0
  0
LINE
  5
886E
330
1F
100
AcDbEntity
  8
実形
100
AcDbLine
 10
2412.224793693552
 20
1604.88610554303
 30
0.0
 11
2412.224793693552
 21
1575.377303325171
 31
0.0
  0
TEXT
  5
886F
330
1F
100
AcDbEntity
  8
実形
100
AcDbText
 10
2415.006362649073
 20
1609.520190641137
 30
0.0
 40
10.0
  1
●
 50
270.0
 72
     4
 11
2420.006362649073
 21
1604.85352397447
 31
0.0
100
AcDbText
  0
TEXT
  5
8870
330
1F
100
AcDbEntity
  8
実形
100
AcDbText
 10
2407.507404964101
 20
1609.788738294338
 30
0.0
 40
10.0
  1
●
 50
270.0
 72
     4
 11
2412.507404964101
 21
1605.122071627671
 31
0.0
100
AcDbText
  0
TEXT
  5
8871
330
1F
100
AcDbEntity
  8
実形
100
AcDbText
 10
2386.057416866038
 20
1609.800474355813
 30
0.0
 40
10.0
  1
●
 50
270.0
 72
     4
 11
2391.057416866038
 21
1605.133807689146
 31
0.0
100
AcDbText
  0
TEXT
  5
8872
330
1F
100
AcDbEntity
  8
実形
100
AcDbText
 10
2346.842738109055
 20
1603.922433320992
 30
0.0
 40
30.0
  1
11
 72
     2
 11
2376.842738109055
 21
1599.922433320992
 31
0.0
100
AcDbText
 73
     1
  0
TEXT
  5
8873
330
1F
100
AcDbEntity
  8
実形
100
AcDbText
 10
2438.872465106101
 20
1602.158801425508
 30
0.0
 40
30.0
  1
4
 72
     2
 11
2458.872465106101
 21
1598.158801425508
 31
0.0
100
AcDbText
 73
     1
  0
TEXT
  5
8874
330
1F
100
AcDbEntity
  8
実形
100
AcDbText
 10
2312.023025003993
 20
553.2965828340782
 30
0.0
 40
30.0
  1
2R
 72
     2
 11
2362.023025003993
 21
549.2965828340782
 31
0.0
100
AcDbText
 73
     1
  0
TEXT
  5
8875
330
1F
100
AcDbEntity
  8
実形
100
AcDbText
 10
2430.944116608563
 20
528.2149324365271
 30
0.0
 40
30.0
  1
2R
 72
     2
 11
2480.944116608564
 21
524.2149324365271
 31
0.0
100
AcDbText
 73
     1
  0
LEADER
  5
8876
330
1F
100
AcDbEntity
  8
実形
100
AcDbLeader
  3
ISO-25
 76
     2
 10
2387.735763879693
 20
641.1371168887263
 30
0.0
 10
2345.937246934518
 20
589.9913955438403
 30
0.0
1001
ACAD
1000
DSTYLE
1002
{
1070
    77
1070
     0
1070
    41
1040
10.0
1070
   140
1040
30.0
1070
   147
1040
6.599999999999998
1070
   279
1070
     2
1070
   342
1005
30D
1070
   371
1070
    13
1070
   372
1070
    18
1002
}
  0
LEADER
  5
8877
330
1F
100
AcDbEntity
  8
実形
100
AcDbLeader
  3
ISO-25
 76
     2
 10
2407.602539226838
 20
640.1053385453751
 30
0.0
 10
2348.012671567205
 20
590.4063732541669
 30
0.0
1001
ACAD
1000
DSTYLE
1002
{
1070
    77
1070
     0
1070
    41
1040
10.0
1070
   140
1040
30.0
1070
   147
1040
6.599999999999998
1070
   279
1070
     2
1070
   342
1005
30D
1070
   371
1070
    13
1070
   372
1070
    18
1002
}
  0
LEADER
  5
8878
330
1F
100
AcDbEntity
  8
実形
100
AcDbLeader
  3
ISO-25
 76
     2
 10
2418.586835986673
 20
679.2984136196628
 30
0.0
 10
2446.802291631972
 20
560.3684666458964
 30
0.0
1001
ACAD
1000
DSTYLE
1002
{
1070
    77
1070
     0
1070
    41
1040
10.0
1070
   140
1040
30.0
1070
   147
1040
6.599999999999998
1070
   279
1070
     2
1070
   342
1005
30D
1070
   371
1070
    13
1070
   372
1070
    18
1002
}
  0
LEADER
  5
8879
330
1F
100
AcDbEntity
  8
実形
100
AcDbLeader
  3
ISO-25
 76
     2
 10
2424.732723818146
 20
685.1969676974422
 30
0.0
 10
2446.802291631972
 20
560.3684666458964
 30
0.0
1001
ACAD
1000
DSTYLE
1002
{
1070
    77
1070
     0
1070
    41
1040
10.0
1070
   140
1040
30.0
1070
   147
1040
6.599999999999998
1070
   279
1070
     2
1070
   342
1005
30D
1070
   371
1070
    13
1070
   372
1070
    18
1002
}
  0
DIMENSION
  5
887A
330
1F
100
AcDbEntity
  8
実形
100
AcDbDimension
  2
*D26
 10
2503.528707558753
 20
691.705382054273
 30
0.0
 11
2481.928707558753
 21
1089.705382054273
 31
0.0
 70
    32
  1
398
 71
     5
 42
795.9999999999996
  3
ISO-25
100
AcDbAlignedDimension
 13
2413.224793693551
 23
1487.705382054273
 33
0.0
 14
2413.224793693551
 24
691.705382054273
 34
0.0
 50
90.0
100
AcDbRotatedDimension
1001
ACAD
1000
DSTYLE
1002
{
1070
    41
1040
10.0
1070
   140
1040
30.0
1070
   147
1040
6.599999999999998
1070
   279
1070
     2
1070
   342
1005
30D
1070
   371
1070
    18
1070
   372
1070
    18
1002
}
  0
LINE
  5
887B
330
1F
100
AcDbEntity
  8
実形
100
AcDbLine
 10
2390.224793693551
 20
1575.669323101321
 30
0.0
 11
2390.224793693551
 21
1646.617183857504
 31
0.0
  0
LINE
  5
887C
330
1F
100
AcDbEntity
  8
実形
100
AcDbLine
 10
2390.224793693551
 20
1646.617183857504
 30
0.0
 11
2420.224793693551
 21
1646.617183857504
 31
0.0
  0
LINE
  5
887D
330
1F
100
AcDbEntity
  8
実形
100
AcDbLine
 10
2420.224793693551
 20
1646.617183857504
 30
0.0
 11
2420.224793693551
 21
1575.669323101321
 31
0.0
  0
TEXT
  5
887E
330
1F
100
AcDbEntity
  8
実形
100
AcDbText
 10
2384.558078905704
 20
1657.567685072346
 30
0.0
 40
30.0
  1
15
 72
     2
 11
2424.558078905704
 21
1653.567685072346
 31
0.0
100
AcDbText
 73
     1
  0
TEXT
  5
887F
330
1F
100
AcDbEntity
  8
実形
100
AcDbText
 10
2385.110376103053
 20
1651.298381171866
 30
0.0
 40
10.0
  1
●
 50
270.0
 72
     4
 11
2390.110376103053
 21
1646.631714505199
 31
0.0
100
AcDbText
  0
TEXT
  5
8880
330
1F
100
AcDbEntity
  8
実形
100
AcDbText
 10
2415.286994006894
 20
1651.057026773347
 30
0.0
 40
10.0
  1
●
 50
270.0
 72
     4
 11
2420.286994006894
 21
1646.390360106681
 31
0.0
100
AcDbText
  0
TEXT
  5
8939
330
1F
100
AcDbEntity
  8
実形
100
AcDbText
 10
2251.376170520758
 20
82.18648771656807
 30
0.0
 40
35.0
  1
TBK250-444MN
  7
ms明朝
 72
     4
 11
2404.976170520758
 21
99.28648771656808
 31
0.0
100
AcDbText
  0
ARC
  5
898E
330
1F
100
AcDbEntity
  8
実形
100
AcDbCircle
 10
1009.712928579278
 20
705.7053820542734
 30
0.0
 40
60.0
100
AcDbArc
 50
270.0
 51
0.0
  0
ARC
  5
898F
330
1F
100
AcDbEntity
  8
実形
100
AcDbCircle
 10
1009.712928579278
 20
1473.705382054273
 30
0.0
 40
60.0
100
AcDbArc
 50
0.0
 51
90.0
  0
ARC
  5
8990
330
1F
100
AcDbEntity
  8
実形
100
AcDbCircle
 10
629.712928579278
 20
705.7053820542733
 30
0.0
 40
60.0
100
AcDbArc
 50
180.0
 51
270.0
  0
ARC
  5
8991
330
1F
100
AcDbEntity
  8
実形
100
AcDbCircle
 10
629.712928579278
 20
1473.705382054273
 30
0.0
 40
60.0
100
AcDbArc
 50
90.0
 51
180.0
  0
TEXT
  5
899B
330
1F
100
AcDbEntity
  8
実形
100
AcDbText
 10
1152.150805989808
 20
1554.782964141722
 30
0.0
 40
30.0
  1
30R
 72
     2
 11
1227.150805989808
 21
1550.782964141722
 31
0.0
100
AcDbText
 73
     1
  0
LEADER
  5
899C
330
1F
100
AcDbEntity
  8
実形
100
AcDbLeader
  3
ISO-25
 76
     2
 10
1063.23663469902
 20
1525.490183207998
 30
0.0
 10
1139.576029725053
 20
1565.98651157593
 30
0.0
1001
ACAD
1000
DSTYLE
1002
{
1070
    77
1070
     0
1070
    41
1040
10.0
1070
   140
1040
30.0
1070
   147
1040
6.599999999999998
1070
   279
1070
     2
1070
   342
1005
30D
1070
   371
1070
    18
1070
   372
1070
    18
1002
}
  0
TEXT
  5
89AB
330
1F
100
AcDbEntity
  8
実形
100
AcDbText
 10
1975.780097901228
 20
569.4553226310572
 30
0.0
 40
30.0
  1
30R
 72
     2
 11
2050.780097901228
 21
565.4553226310572
 31
0.0
100
AcDbText
 73
     1
  0
LEADER
  5
89AC
330
1F
100
AcDbEntity
  8
実形
100
AcDbLeader
  3
ISO-25
 76
     2
 10
1879.520135094775
 20
655.9800467455252
 30
0.0
 10
1954.679620909894
 20
592.5594792026668
 30
0.0
1001
ACAD
1000
DSTYLE
1002
{
1070
    77
1070
     0
1070
    41
1040
10.0
1070
   140
1040
30.0
1070
   147
1040
6.599999999999998
1070
   279
1070
     2
1070
   342
1005
30D
1070
   371
1070
    18
1070
   372
1070
    18
1002
}
  0
TEXT
  5
89AD
330
1F
100
AcDbEntity
  8
実形
100
AcDbText
 10
1962.304238339799
 20
1590.805802840715
 30
0.0
 40
30.0
  1
30R
 72
     2
 11
2037.304238339799
 21
1586.805802840715
 31
0.0
100
AcDbText
 73
     1
  0
LEADER
  5
89AE
330
1F
100
AcDbEntity
  8
実形
100
AcDbLeader
  3
ISO-25
 76
     2
 10
1876.758136275806
 20
1525.490183207998
 30
0.0
 10
1947.797464668489
 20
1589.544671549232
 30
0.0
1001
ACAD
1000
DSTYLE
1002
{
1070
    77
1070
     0
1070
    41
1040
10.0
1070
   140
1040
30.0
1070
   147
1040
6.599999999999998
1070
   279
1070
     2
1070
   342
1005
30D
1070
   371
1070
    18
1070
   372
1070
    18
1002
}
  0
ARC
  5
89AF
330
1F
100
AcDbEntity
  8
実形
100
AcDbCircle
 10
1823.234430156064
 20
705.7053820542734
 30
0.0
 40
60.0
100
AcDbArc
 50
270.0
 51
0.0
  0
ARC
  5
89B1
330
1F
100
AcDbEntity
  8
実形
100
AcDbCircle
 10
1823.234430156064
 20
1473.705382054273
 30
0.0
 40
60.0
100
AcDbArc
 50
0.0
 51
90.0
  0
ARC
  5
89B2
330
1F
100
AcDbEntity
  8
実形
100
AcDbCircle
 10
1443.234430156064
 20
1473.705382054273
 30
0.0
 40
60.0
100
AcDbArc
 50
90.0
 51
180.0
  0
ARC
  5
89B3
330
1F
100
AcDbEntity
  8
実形
100
AcDbCircle
 10
1443.234430156064
 20
705.7053820542732
 30
0.0
 40
60.0
100
AcDbArc
 50
180.0
 51
270.0
  0
ARC
  5
89B4
330
1F
100
AcDbEntity
  8
実形
100
AcDbCircle
 10
1797.234430156064
 20
731.7053820542733
 30
0.0
 40
40.0
100
AcDbArc
 50
270.0
 51
0.0000000000000127
  0
ARC
  5
89B5
330
1F
100
AcDbEntity
  8
実形
100
AcDbCircle
 10
1797.234430156064
 20
1447.705382054273
 30
0.0
 40
40.0
100
AcDbArc
 50
0.0
 51
89.99999999999998
  0
TEXT
  5
89BF
330
1F
100
AcDbEntity
  8
実形
100
AcDbText
 10
1712.985857636369
 20
1362.147000443997
 30
0.0
 40
30.0
  1
20R
 72
     2
 11
1787.985857636369
 21
1358.147000443997
 31
0.0
100
AcDbText
 73
     1
  0
LEADER
  5
89C0
330
1F
100
AcDbEntity
  8
実形
100
AcDbLeader
  3
ISO-25
 76
     2
 10
1802.392310393585
 20
1456.649258429262
 30
0.0
 10
1749.715320836356
 20
1400.393521389557
 30
0.0
1001
ACAD
1000
DSTYLE
1002
{
1070
    77
1070
     0
1070
    41
1040
10.0
1070
   140
1040
30.0
1070
   147
1040
6.599999999999998
1070
   279
1070
     2
1070
   342
1005
30D
1070
   371
1070
    18
1070
   372
1070
    18
1002
}
  0
ARC
  5
8A80
330
1F
100
AcDbEntity
  8
実形
100
AcDbCircle
 10
1469.234430156064
 20
1447.705382054273
 30
0.0
 40
40.0
100
AcDbArc
 50
89.99999999999996
 51
180.0
  0
ARC
  5
8A81
330
1F
100
AcDbEntity
  8
実形
100
AcDbCircle
 10
1469.234430156064
 20
731.7053820542732
 30
0.0
 40
40.0
100
AcDbArc
 50
180.0
 51
270.0
  0
LINE
  5
8ABA
330
1F
100
AcDbEntity
  8
枠
100
AcDbLine
 10
2784.0
 20
1958.999999999999
 30
0.0
 11
2064.0
 21
1958.999999999999
 31
0.0
  0
LINE
  5
8ABB
330
1F
100
AcDbEntity
  8
枠
100
AcDbLine
 10
2784.0
 20
1893.999999999998
 30
0.0
 11
2064.0
 21
1893.999999999998
 31
0.0
  0
LINE
  5
8ABC
330
1F
100
AcDbEntity
  8
枠
100
AcDbLine
 10
2064.0
 20
1893.999999999998
 30
0.0
 11
2064.0
 21
2023.999999999999
 31
0.0
  0
TEXT
  5
8ABD
330
1F
100
AcDbEntity
  8
枠
100
AcDbText
 10
2610.032183533279
 20
1976.499999999999
 30
0.0
 40
30.0
  1
梱包
 72
     4
 11
2642.032183533279
 21
1991.499999999999
 31
0.0
100
AcDbText
  0
LINE
  5
8ABE
330
1F
100
AcDbEntity
  8
枠
100
AcDbLine
 10
2512.351089910522
 20
1893.999999999998
 30
0.0
 11
2512.351089910522
 21
2023.999999999999
 31
0.0
  0
LINE
  5
8ABF
330
1F
100
AcDbEntity
  8
枠
100
AcDbLine
 10
2317.81684247519
 20
1893.999999999998
 30
0.0
 11
2317.81684247519
 21
2023.999999999999
 31
0.0
  0
TEXT
  5
8AC0
330
1F
100
AcDbEntity
  8
枠
100
AcDbText
 10
2144.5
 20
1976.499999999999
 30
0.0
 40
30.0
  1
材質
 72
     4
 11
2176.5
 21
1991.499999999999
 31
0.0
100
AcDbText
  0
TEXT
  5
8AC1
330
1F
100
AcDbEntity
  8
枠
100
AcDbText
 10
2376.771452399255
 20
1976.499999999999
 30
0.0
 40
30.0
  1
カラー
 72
     4
 11
2426.771452399254
 21
1991.499999999999
 31
0.0
100
AcDbText
  0
TEXT
  5
8AC2
330
1F
100
AcDbEntity
  8
枠
100
AcDbText
 10
2523.445286297019
 20
1911.147384958692
 30
0.0
 40
30.0
  1
シュリンク梱包
 72
     4
 11
2647.445286297019
 21
1926.147384958692
 31
0.0
100
AcDbText
  0
TEXT
  5
8AC3
330
1F
100
AcDbEntity
  8
枠
100
AcDbText
 10
2377.530334516651
 20
1911.147384958692
 30
0.0
 40
30.0
  1
白系
 72
     4
 11
2411.530334516652
 21
1926.147384958692
 31
0.0
100
AcDbText
  0
TEXT
  5
8AC4
330
1F
100
AcDbEntity
  8
枠
100
AcDbText
 10
2079.198598973639
 20
1911.147384958692
 30
0.0
 40
30.0
  1
ポリエチレン
 72
     4
 11
2183.198598973639
 21
1926.147384958692
 31
0.0
100
AcDbText
  0
VIEWPORT
  5
2E
102
{ACAD_XDICTIONARY
360
8BBF
102
}
330
1B
100
AcDbEntity
 67
     1
  8
0
100
AcDbViewport
 10
144.7270812988281
 20
101.2295806407928
 30
0.0
 40
411.6736216682419
 41
222.1517806396485
 68
     1
 69
     1
 12
144.7270812988281
 22
101.2295806407928
 13
0.0
 23
0.0
 14
10.0
 24
10.0
 15
10.0
 25
10.0
 16
0.0
 26
0.0
 36
1.0
 17
0.0
 27
0.0
 37
0.0
 42
50.0
 43
0.0
 44
0.0
 45
222.1517806396485
 50
0.0
 51
0.0
 72
   100
 90
    32800
  1

281
     0
 71
     1
 74
     0
110
0.0
120
0.0
130
0.0
111
1.0
121
0.0
131
0.0
112
0.0
122
1.0
132
0.0
 79
     0
146
0.0
  0
VIEWPORT
  5
30
102
{ACAD_XDICTIONARY
360
8BC1
102
}
330
1B
100
AcDbEntity
 67
     1
  8
0
100
AcDbViewport
 10
139.2237563133239
 20
101.2295821905136
 30
0.0
 40
222.7580101013184
 41
161.9673315048218
 68
     2
 69
     2
 12
210.0
 22
148.5
 13
0.0
 23
0.0
 14
10.0
 24
10.0
 15
10.0
 25
10.0
 16
0.0
 26
0.0
 36
1.0
 17
0.0
 27
0.0
 37
0.0
 42
50.0
 43
0.0
 44
0.0
 45
309.0686705647124
 50
0.0
 51
0.0
 72
   100
 90
    32864
  1

281
     0
 71
     1
 74
     0
110
0.0
120
0.0
130
0.0
111
1.0
121
0.0
131
0.0
112
0.0
122
1.0
132
0.0
 79
     0
146
0.0
  0
ENDSEC
  0
SECTION
  2
OBJECTS
  0
DICTIONARY
  5
C
330
0
100
AcDbDictionary
281
     1
  3
ACAD_COLOR
350
22AD
  3
ACAD_GROUP
350
D
  3
ACAD_LAYOUT
350
1A
  3
ACAD_MATERIAL
350
22AC
  3
ACAD_MLINESTYLE
350
17
  3
ACAD_PLOTSETTINGS
350
19
  3
ACAD_PLOTSTYLENAME
350
E
  3
ACAD_TABLESTYLE
350
22AE
  3
AcadDim
350
124
  3
ACDBHEADERROUNDTRIPXREC
350
8BB8
  3
AcDbVariableDictionary
350
1589
  0
DICTIONARY
  5
24C4
330
2
100
AcDbDictionary
280
     1
281
     1
  3
ACAD_LAYERFILTERS
360
7E84
  3
ACAD_LAYERSTATES
360
24C5
  3
ACLYDICTIONARY
360
7E83
  0
DICTIONARY
  5
2396
330
1F
100
AcDbDictionary
280
     1
281
     1
  3
ACAD_SORTENTS
360
2397
  0
DICTIONARY
  5
313E
330
313C
100
AcDbDictionary
280
     1
281
     1
  3
ACAD_SORTENTS
360
313F
  0
DICTIONARY
  5
3848
330
3846
100
AcDbDictionary
280
     1
281
     1
  3
ACAD_SORTENTS
360
3849
  0
DICTIONARY
  5
6DBE
330
6DBC
100
AcDbDictionary
280
     1
281
     1
  3
ACAD_SORTENTS
360
6DBF
  0
DICTIONARY
  5
8BBF
330
2E
100
AcDbDictionary
280
     1
281
     1
  3
ACAD_XREC_ROUNDTRIP
360
8BC0
  0
DICTIONARY
  5
8BC1
330
30
100
AcDbDictionary
280
     1
281
     1
  3
ACAD_XREC_ROUNDTRIP
360
8BC2
  0
DICTIONARY
  5
22AD
102
{ACAD_REACTORS
330
C
102
}
330
C
100
AcDbDictionary
281
     1
  0
DICTIONARY
  5
D
102
{ACAD_REACTORS
330
C
102
}
330
C
100
AcDbDictionary
281
     1
  0
DICTIONARY
  5
1A
102
{ACAD_REACTORS
330
C
102
}
330
C
100
AcDbDictionary
281
     1
  3
Model
350
22
  3
ﾚｲｱｳﾄ1
350
1E
  3
ﾚｲｱｳﾄ2
350
26
  0
DICTIONARY
  5
22AC
102
{ACAD_REACTORS
330
C
102
}
330
C
100
AcDbDictionary
281
     1
  0
DICTIONARY
  5
17
102
{ACAD_REACTORS
330
C
102
}
330
C
100
AcDbDictionary
281
     1
  3
Standard
350
18
  0
DICTIONARY
  5
19
102
{ACAD_REACTORS
330
C
102
}
330
C
100
AcDbDictionary
281
     1
  0
ACDBDICTIONARYWDFLT
  5
E
102
{ACAD_REACTORS
330
C
102
}
330
C
100
AcDbDictionary
281
     1
  3
Normal
350
F
100
AcDbDictionaryWithDefault
340
F
  0
DICTIONARY
  5
22AE
102
{ACAD_REACTORS
330
C
102
}
330
C
100
AcDbDictionary
281
     1
  3
Standard
350
22AF
  0
XRECORD
  5
124
102
{ACAD_REACTORS
330
C
102
}
330
C
100
AcDbXrecord
280
     1
 90
   990106
  3

 60
     0
 61
     0
 62
     1
 63
     3
 64
     0
 65
     0
 66
     0
 67
     3
 68
     1
 69
     0
 70
     0
 71
     0
 72
     0
 40
30.0
170
     0
  0
DICTIONARY
  5
8BB8
102
{ACAD_REACTORS
330
C
102
}
330
C
100
AcDbDictionary
281
     1
  0
DICTIONARY
  5
1589
102
{ACAD_REACTORS
330
C
102
}
330
C
100
AcDbDictionary
281
     1
  3
CTABLESTYLE
350
22B5
  3
DIMASSOC
350
8BB5
  3
PROJECTNAME
350
8BB6
  3
SORTENTS
350
158A
  0
DICTIONARY
  5
7E84
102
{ACAD_REACTORS
330
24C4
102
}
330
24C4
100
AcDbDictionary
281
     1
  0
DICTIONARY
  5
24C5
102
{ACAD_REACTORS
330
24C4
102
}
330
24C4
100
AcDbDictionary
281
     1
  0
DICTIONARY
  5
7E83
102
{ACAD_REACTORS
330
24C4
102
}
330
24C4
100
AcDbDictionary
281
     1
1001
ACAD
1000
<All
  0
SORTENTSTABLE
  5
2397
102
{ACAD_REACTORS
330
2396
102
}
330
2396
100
AcDbSortentsTable
330
1F
331
8783
  5
878F
331
5E68
  5
6CF8
331
7235
  5
877F
331
772D
  5
8780
331
6CEF
  5
70BF
331
878B
  5
8797
331
8990
  5
6B02
331
8793
  5
879F
331
885A
  5
8866
331
879B
  5
885C
331
8862
  5
886E
331
1B73
  5
1B86
331
886A
  5
8876
331
1B8B
  5
1B90
331
1B93
  5
1B98
331
8872
  5
887E
331
877C
  5
8788
331
887A
  5
899B
331
89C0
  5
8A81
331
8A80
  5
717B
331
8784
  5
8790
331
8939
  5
89AF
331
1B9B
  5
5178
331
878C
  5
8798
331
8991
  5
5D6F
331
77F5
  5
8785
331
8794
  5
87A0
331
885B
  5
8867
331
879C
  5
885D
331
8863
  5
886F
331
886B
  5
8877
331
89B1
  5
71B0
331
1B84
  5
1B8A
331
1B8C
  5
1B91
331
5E3A
  5
6CF3
331
1B94
  5
1B99
331
7047
  5
877C
331
8873
  5
887F
331
877D
  5
8789
331
887B
  5
899C
331
8A81
  5
7DD7
331
8785
  5
8791
331
1B9C
  5
5179
331
878D
  5
8799
331
7747
  5
8782
331
8795
  5
87A1
331
885C
  5
8868
331
8864
  5
8870
331
879D
  5
885E
331
886C
  5
8878
331
89B2
  5
70FA
331
1B85
  5
1B8B
331
1B8D
  5
1B92
331
1B95
  5
1B9B
331
8874
  5
8880
331
887C
  5
89A0
331
877E
  5
878A
331
8786
  5
8792
331
77DF
  5
8784
331
1B9D
  5
5A6A
331
6F49
  5
7FC1
331
9C
  5
9C
331
878E
  5
879A
331
8796
  5
8857
331
885D
  5
8869
331
899B
  5
89B2
331
879E
  5
885F
331
8865
  5
8871
331
89AB
  5
89B4
331
886D
  5
8879
331
89B3
  5
7868
331
5164
  5
5A99
331
1B86
  5
1B8C
331
1B8E
  5
1B93
331
6AE3
  5
6F4D
331
1B96
  5
1B9C
331
6F3A
  5
71DB
331
8875
  5
8939
331
877F
  5
878B
331
887D
  5
89AB
331
8787
  5
8793
331
5E44
  5
6CF5
331
7729
  5
715B
331
A5
  5
1B84
331
878F
  5
879B
331
8797
  5
8858
331
885E
  5
886A
331
899C
  5
89B3
331
879F
  5
8860
331
8866
  5
8872
331
89AC
  5
89B5
331
886E
  5
887A
331
89B4
  5
71B5
331
5165
  5
5F4A
331
1B87
  5
1B8D
331
1B8F
  5
1B94
331
6F33
  5
70C0
331
1B97
  5
1B9D
331
77C9
  5
8783
331
8876
  5
898E
331
8780
  5
878C
331
887E
  5
89AC
331
772A
  5
7869
331
65C5
  5
6CF9
331
773A
  5
8781
331
8788
  5
8794
331
8790
  5
879C
331
8857
  5
8863
331
8798
  5
8859
331
885F
  5
886B
331
87A0
  5
8861
331
8867
  5
8873
331
89AD
  5
89BF
331
886F
  5
887B
331
89B5
  5
7181
331
1B80
  5
1B87
331
5166
  5
68B3
331
1B88
  5
1B8E
331
5C3E
  5
6B03
331
1B90
  5
1B95
331
71DB
  5
877D
331
6F3C
  5
7866
331
7FC1
  5
1B80
331
8877
  5
898F
331
8781
  5
878D
331
887F
  5
89AD
331
1B98
  5
1BA1
331
6F44
  5
7FBF
331
898E
  5
604E
331
272
  5
1B85
331
772B
  5
71B4
331
6F54
  5
877A
331
8789
  5
8795
331
8791
  5
879D
331
8858
  5
8864
331
8799
  5
885A
331
8860
  5
886C
331
87A1
  5
8862
331
8868
  5
8874
331
89AE
  5
89C0
331
1B81
  5
1B88
331
5167
  5
68BC
331
65CE
  5
6D18
331
68D6
  5
6F4B
331
1B91
  5
1B96
331
5C47
  5
6B04
331
8870
  5
887C
331
877A
  5
8786
331
8878
  5
8990
331
8782
  5
878E
331
8880
  5
89AE
331
1B99
  5
5164
331
71E4
  5
877E
331
6F45
  5
7FC0
331
1BA1
  5
5A6B
331
6C16
  5
6F52
331
898F
  5
5FE0
331
5E5F
  5
6CF7
331
772C
  5
71E4
331
6F55
  5
877B
331
A0
  5
1B81
331
878A
  5
8796
331
8792
  5
879E
331
8859
  5
8865
331
879A
  5
885B
331
8861
  5
886D
331
8869
  5
8875
331
89AF
  5
71B2
331
1B8A
  5
1B8F
331
1B92
  5
1B97
331
6F36
  5
71AD
331
8871
  5
887D
331
877B
  5
8787
331
8879
  5
8991
331
89BF
  5
8A80
  0
SORTENTSTABLE
  5
313F
102
{ACAD_REACTORS
330
313E
102
}
330
313E
100
AcDbSortentsTable
330
313C
  0
SORTENTSTABLE
  5
3849
102
{ACAD_REACTORS
330
3848
102
}
330
3848
100
AcDbSortentsTable
330
3846
  0
SORTENTSTABLE
  5
6DBF
102
{ACAD_REACTORS
330
6DBE
102
}
330
6DBE
100
AcDbSortentsTable
330
6DBC
  0
XRECORD
  5
8BC0
102
{ACAD_REACTORS
330
8BBF
102
}
330
8BBF
100
AcDbXrecord
280
     1
102
SHADEPLOT
 70
     0
  0
XRECORD
  5
8BC2
102
{ACAD_REACTORS
330
8BC1
102
}
330
8BC1
100
AcDbXrecord
280
     1
102
SHADEPLOT
 70
     0
  0
LAYOUT
  5
22
102
{ACAD_XDICTIONARY
360
8BBB
102
}
102
{ACAD_REACTORS
330
1A
102
}
330
1A
100
AcDbPlotSettings
  1

  2
EPSON PM-800C
  4
A4
  6

 40
3.757083177566528
 41
14.7637300491333
 42
3.757080078125
 43
3.757080078125
 44
209.9733276367187
 45
296.9683227539062
 46
0.0
 47
0.0
 48
0.0
 49
0.0
140
0.0
141
0.0
142
1.0
143
10.0
 70
 11952
 72
     1
 73
     1
 74
     2
  7

 75
    20
147
0.1
148
0.0
149
0.0
100
AcDbLayout
  1
Model
 70
     1
 71
     0
 10
0.0
 20
0.0
 11
12.0
 21
9.0
 12
0.0
 22
0.0
 32
0.0
 14
0.0
 24
0.0
 34
0.0
 15
0.0
 25
0.0
 35
0.0
146
0.0
 13
0.0
 23
0.0
 33
0.0
 16
1.0
 26
0.0
 36
0.0
 17
0.0
 27
1.0
 37
0.0
 76
     0
330
1F
  0
LAYOUT
  5
1E
102
{ACAD_XDICTIONARY
360
8BB9
102
}
102
{ACAD_REACTORS
330
1A
102
}
330
1A
100
AcDbPlotSettings
  1

  2
EPSON PM-800C
  4
A4
  6

 40
3.757083177566528
 41
14.7637300491333
 42
3.757080078125
 43
3.757080078125
 44
209.9733276367187
 45
296.9683227539062
 46
0.0
 47
0.0
 48
0.0
 49
0.0
140
0.0
141
0.0
142
1.0
143
1.0
 70
   688
 72
     1
 73
     1
 74
     5
  7

 75
    16
147
1.0
148
0.0
149
0.0
100
AcDbLayout
  1
ﾚｲｱｳﾄ1
 70
     1
 71
     1
 10
-3.757080078125
 20
-3.757083177566528
 11
293.2112426757813
 21
206.2162444591522
 12
0.0
 22
0.0
 32
0.0
 14
27.8447512626648
 24
20.24591643810271
 34
0.0
 15
250.6027613639831
 25
182.2132479429245
 35
0.0
146
0.0
 13
0.0
 23
0.0
 33
0.0
 16
1.0
 26
0.0
 36
0.0
 17
0.0
 27
1.0
 37
0.0
 76
     0
330
1B
331
2E
  0
LAYOUT
  5
26
102
{ACAD_XDICTIONARY
360
8BBD
102
}
102
{ACAD_REACTORS
330
1A
102
}
330
1A
100
AcDbPlotSettings
  1

  2
EPSON PM-800C
  4

  6

 40
0.0
 41
0.0
 42
0.0
 43
0.0
 44
0.0
 45
0.0
 46
0.0
 47
0.0
 48
0.0
 49
0.0
140
0.0
141
0.0
142
1.0
143
1.0
 70
   688
 72
     0
 73
     0
 74
     5
  7

 75
    16
147
1.0
148
0.0
149
0.0
100
AcDbLayout
  1
ﾚｲｱｳﾄ2
 70
     1
 71
     2
 10
0.0
 20
0.0
 11
12.0
 21
9.0
 12
0.0
 22
0.0
 32
0.0
 14
0.0
 24
0.0
 34
0.0
 15
0.0
 25
0.0
 35
0.0
146
0.0
 13
0.0
 23
0.0
 33
0.0
 16
1.0
 26
0.0
 36
0.0
 17
0.0
 27
1.0
 37
0.0
 76
     0
330
23
  0
MLINESTYLE
  5
18
102
{ACAD_REACTORS
330
17
102
}
330
17
100
AcDbMlineStyle
  2
STANDARD
 70
     0
  3

 62
   256
 51
90.0
 52
90.0
 71
     2
 49
0.5
 62
   256
  6
BYLAYER
 49
-0.5
 62
   256
  6
BYLAYER
  0
ACDBPLACEHOLDER
  5
F
102
{ACAD_REACTORS
330
E
102
}
330
E
  0
TABLESTYLE
  5
22AF
102
{ACAD_REACTORS
330
22AE
102
}
330
22AE
100
AcDbTableStyle
  3
Standard
 70
     0
 71
     0
 40
1.5
 41
1.5
280
     0
281
     0
  7
Standard
140
4.5
170
     2
 62
     0
 63
     7
283
     0
274
    -2
284
     1
 64
     0
275
    -2
285
     1
 65
     0
276
    -2
286
     1
 66
     0
277
    -2
287
     1
 67
     0
278
    -2
288
     1
 68
     0
279
    -2
289
     1
 69
     0
  7
Standard
140
6.0
170
     5
 62
     0
 63
     7
283
     0
274
    -2
284
     1
 64
     0
275
    -2
285
     1
 65
     0
276
    -2
286
     1
 66
     0
277
    -2
287
     1
 67
     0
278
    -2
288
     1
 68
     0
279
    -2
289
     1
 69
     0
  7
Standard
140
4.5
170
     5
 62
     0
 63
     7
283
     0
274
    -2
284
     1
 64
     0
275
    -2
285
     1
 65
     0
276
    -2
286
     1
 66
     0
277
    -2
287
     1
 67
     0
278
    -2
288
     1
 68
     0
279
    -2
289
     1
 69
     0
  0
DICTIONARYVAR
  5
22B5
102
{ACAD_REACTORS
330
1589
102
}
330
1589
100
DictionaryVariables
280
     0
  1
STANDARD
  0
DICTIONARYVAR
  5
8BB5
102
{ACAD_REACTORS
330
1589
102
}
330
1589
100
DictionaryVariables
280
     0
  1
1
  0
DICTIONARYVAR
  5
8BB6
102
{ACAD_REACTORS
330
1589
102
}
330
1589
100
DictionaryVariables
280
     0
  1

  0
DICTIONARYVAR
  5
158A
102
{ACAD_REACTORS
330
1589
102
}
330
1589
100
DictionaryVariables
280
     0
  1
96
  0
DICTIONARY
  5
8BBB
330
22
100
AcDbDictionary
280
     1
281
     1
  3
ACAD_XREC_ROUNDTRIP
360
8BBC
  0
DICTIONARY
  5
8BB9
330
1E
100
AcDbDictionary
280
     1
281
     1
  3
ACAD_XREC_ROUNDTRIP
360
8BBA
  0
DICTIONARY
  5
8BBD
330
26
100
AcDbDictionary
280
     1
281
     1
  3
ACAD_XREC_ROUNDTRIP
360
8BBE
  0
XRECORD
  5
8BBC
102
{ACAD_REACTORS
330
8BBB
102
}
330
8BBB
100
AcDbXrecord
280
     1
102
SHADEPLOT
 70
     0
102
SHADEPLOTRESLEVEL
 70
     2
102
SHADEPLOTCUSTOMDPI
 70
   300
  0
XRECORD
  5
8BBA
102
{ACAD_REACTORS
330
8BB9
102
}
330
8BB9
100
AcDbXrecord
280
     1
102
SHADEPLOT
 70
     0
102
SHADEPLOTRESLEVEL
 70
     2
102
SHADEPLOTCUSTOMDPI
 70
   300
  0
XRECORD
  5
8BBE
102
{ACAD_REACTORS
330
8BBD
102
}
330
8BBD
100
AcDbXrecord
280
     1
102
SHADEPLOT
 70
     0
102
SHADEPLOTRESLEVEL
 70
     2
102
SHADEPLOTCUSTOMDPI
 70
   300
  0
ENDSEC
  0
EOF
