  0
SECTION
  2
HEADER
  9
$ACADVER
  1
AC1015
  9
$ACADMAINTVER
 70
    20
  9
$DWGCODEPAGE
  3
ANSI_932
  9
$INSBASE
 10
0.0
 20
0.0
 30
0.0
  9
$EXTMIN
 10
159.0
 20
3.999999999999088
 30
0.0
  9
$EXTMAX
 10
2834.0
 20
2024.0
 30
0.0
  9
$LIMMIN
 10
54.0
 20
4.0
  9
$LIMMAX
 10
2834.0
 20
2024.0
  9
$ORTHOMODE
 70
     0
  9
$REGENMODE
 70
     1
  9
$FILLMODE
 70
     1
  9
$QTEXTMODE
 70
     0
  9
$MIRRTEXT
 70
     1
  9
$LTSCALE
 40
4.0
  9
$ATTMODE
 70
     1
  9
$TEXTSIZE
 40
30.0
  9
$TRACEWID
 40
1.0
  9
$TEXTSTYLE
  7
Standard
  9
$CLAYER
  8
実形
  9
$CELTYPE
  6
ByLayer
  9
$CECOLOR
 62
     3
  9
$CELTSCALE
 40
1.0
  9
$DISPSILH
 70
     0
  9
$DIMSCALE
 40
1.0
  9
$DIMASZ
 40
10.0
  9
$DIMEXO
 40
65.0
  9
$DIMDLI
 40
3.75
  9
$DIMRND
 40
0.0
  9
$DIMDLE
 40
0.0
  9
$DIMEXE
 40
0.0
  9
$DIMTP
 40
0.0
  9
$DIMTM
 40
0.0
  9
$DIMTXT
 40
30.0
  9
$DIMCEN
 40
2.5
  9
$DIMTSZ
 40
0.0
  9
$DIMTOL
 70
     0
  9
$DIMLIM
 70
     0
  9
$DIMTIH
 70
     0
  9
$DIMTOH
 70
     0
  9
$DIMSE1
 70
     0
  9
$DIMSE2
 70
     0
  9
$DIMTAD
 70
     1
  9
$DIMZIN
 70
     8
  9
$DIMBLK
  1
Dot
  9
$DIMASO
 70
     1
  9
$DIMSHO
 70
     1
  9
$DIMPOST
  1

  9
$DIMAPOST
  1

  9
$DIMALT
 70
     0
  9
$DIMALTD
 70
     3
  9
$DIMALTF
 40
0.03937007874016
  9
$DIMLFAC
 40
1.0
  9
$DIMTOFL
 70
     1
  9
$DIMTVP
 40
0.0
  9
$DIMTIX
 70
     0
  9
$DIMSOXD
 70
     0
  9
$DIMSAH
 70
     0
  9
$DIMBLK1
  1

  9
$DIMBLK2
  1

  9
$DIMSTYLE
  2
ISO-25
  9
$DIMCLRD
 70
     0
  9
$DIMCLRE
 70
     0
  9
$DIMCLRT
 70
     0
  9
$DIMTFAC
 40
1.0
  9
$DIMGAP
 40
6.599999999999997
  9
$DIMJUST
 70
     0
  9
$DIMSD1
 70
     0
  9
$DIMSD2
 70
     0
  9
$DIMTOLJ
 70
     0
  9
$DIMTZIN
 70
     8
  9
$DIMALTZ
 70
     0
  9
$DIMALTTZ
 70
     0
  9
$DIMUPT
 70
     0
  9
$DIMDEC
 70
     2
  9
$DIMTDEC
 70
     2
  9
$DIMALTU
 70
     2
  9
$DIMALTTD
 70
     3
  9
$DIMTXSTY
  7
Standard
  9
$DIMAUNIT
 70
     0
  9
$DIMADEC
 70
     0
  9
$DIMALTRND
 40
0.0
  9
$DIMAZIN
 70
     0
  9
$DIMDSEP
 70
    46
  9
$DIMATFIT
 70
     3
  9
$DIMFRAC
 70
     0
  9
$DIMLDRBLK
  1
Open30
  9
$DIMLUNIT
 70
     2
  9
$DIMLWD
 70
    18
  9
$DIMLWE
 70
    18
  9
$DIMTMOVE
 70
     2
  9
$LUNITS
 70
     2
  9
$LUPREC
 70
     2
  9
$SKETCHINC
 40
1.0
  9
$FILLETRAD
 40
12.0
  9
$AUNITS
 70
     0
  9
$AUPREC
 70
     0
  9
$MENU
  1
.
  9
$ELEVATION
 40
0.0
  9
$PELEVATION
 40
0.0
  9
$THICKNESS
 40
0.0
  9
$LIMCHECK
 70
     1
  9
$CHAMFERA
 40
10.0
  9
$CHAMFERB
 40
10.0
  9
$CHAMFERC
 40
20.0
  9
$CHAMFERD
 40
0.0
  9
$SKPOLY
 70
     0
  9
$TDCREATE
 40
2451673.575802199
  9
$TDUCREATE
 40
2451673.200802199
  9
$TDUPDATE
 40
2458820.602658715
  9
$TDUUPDATE
 40
2458820.227658715
  9
$TDINDWG
 40
2.3403638194
  9
$TDUSRTIMER
 40
2.3403630093
  9
$USRTIMER
 70
     1
  9
$ANGBASE
 50
0.0
  9
$ANGDIR
 70
     0
  9
$PDMODE
 70
     0
  9
$PDSIZE
 40
0.0
  9
$PLINEWID
 40
0.0
  9
$SPLFRAME
 70
     0
  9
$SPLINETYPE
 70
     6
  9
$SPLINESEGS
 70
     8
  9
$HANDSEED
  5
8BF6
  9
$SURFTAB1
 70
     6
  9
$SURFTAB2
 70
     6
  9
$SURFTYPE
 70
     6
  9
$SURFU
 70
     6
  9
$SURFV
 70
     6
  9
$UCSBASE
  2

  9
$UCSNAME
  2

  9
$UCSORG
 10
0.0
 20
0.0
 30
0.0
  9
$UCSXDIR
 10
1.0
 20
0.0
 30
0.0
  9
$UCSYDIR
 10
0.0
 20
1.0
 30
0.0
  9
$UCSORTHOREF
  2

  9
$UCSORTHOVIEW
 70
     0
  9
$UCSORGTOP
 10
0.0
 20
0.0
 30
0.0
  9
$UCSORGBOTTOM
 10
0.0
 20
0.0
 30
0.0
  9
$UCSORGLEFT
 10
0.0
 20
0.0
 30
0.0
  9
$UCSORGRIGHT
 10
0.0
 20
0.0
 30
0.0
  9
$UCSORGFRONT
 10
0.0
 20
0.0
 30
0.0
  9
$UCSORGBACK
 10
0.0
 20
0.0
 30
0.0
  9
$PUCSBASE
  2

  9
$PUCSNAME
  2

  9
$PUCSORG
 10
0.0
 20
0.0
 30
0.0
  9
$PUCSXDIR
 10
1.0
 20
0.0
 30
0.0
  9
$PUCSYDIR
 10
0.0
 20
1.0
 30
0.0
  9
$PUCSORTHOREF
  2

  9
$PUCSORTHOVIEW
 70
     0
  9
$PUCSORGTOP
 10
0.0
 20
0.0
 30
0.0
  9
$PUCSORGBOTTOM
 10
0.0
 20
0.0
 30
0.0
  9
$PUCSORGLEFT
 10
0.0
 20
0.0
 30
0.0
  9
$PUCSORGRIGHT
 10
0.0
 20
0.0
 30
0.0
  9
$PUCSORGFRONT
 10
0.0
 20
0.0
 30
0.0
  9
$PUCSORGBACK
 10
0.0
 20
0.0
 30
0.0
  9
$USERI1
 70
     0
  9
$USERI2
 70
     0
  9
$USERI3
 70
     0
  9
$USERI4
 70
     0
  9
$USERI5
 70
     0
  9
$USERR1
 40
0.0
  9
$USERR2
 40
0.0
  9
$USERR3
 40
0.0
  9
$USERR4
 40
0.0
  9
$USERR5
 40
0.0
  9
$WORLDVIEW
 70
     1
  9
$SHADEDGE
 70
     3
  9
$SHADEDIF
 70
    70
  9
$TILEMODE
 70
     1
  9
$MAXACTVP
 70
    64
  9
$PINSBASE
 10
0.0
 20
0.0
 30
0.0
  9
$PLIMCHECK
 70
     0
  9
$PEXTMIN
 10
27.8447512626648
 20
20.24591643810271
 30
0.0
  9
$PEXTMAX
 10
250.6027613639831
 20
182.2132479429245
 30
0.0
  9
$PLIMMIN
 10
-3.757080078125
 20
-3.757083177566528
  9
$PLIMMAX
 10
293.2112426757813
 20
206.2162444591522
  9
$UNITMODE
 70
     0
  9
$VISRETAIN
 70
     1
  9
$PLINEGEN
 70
     0
  9
$PSLTSCALE
 70
     1
  9
$TREEDEPTH
 70
  3020
  9
$CMLSTYLE
  2
Standard
  9
$CMLJUST
 70
     0
  9
$CMLSCALE
 40
20.0
  9
$PROXYGRAPHICS
 70
     1
  9
$MEASUREMENT
 70
     1
  9
$CELWEIGHT
370
    -1
  9
$ENDCAPS
280
     0
  9
$JOINSTYLE
280
     0
  9
$LWDISPLAY
290
     0
  9
$INSUNITS
 70
     4
  9
$HYPERLINKBASE
  1

  9
$STYLESHEET
  1

  9
$XEDIT
290
     1
  9
$CEPSNTYPE
380
     0
  9
$PSTYLEMODE
290
     1
  9
$FINGERPRINTGUID
  2
{C8EA1F16-24C9-11D4-9416-CE0A3B32152F}
  9
$VERSIONGUID
  2
{1C3506B7-25A2-416A-8C58-5F545DAE5949}
  9
$EXTNAMES
290
     1
  9
$PSVPSCALE
 40
0.0
  9
$OLESTARTUP
290
     0
  0
ENDSEC
  0
SECTION
  2
CLASSES
  0
CLASS
  1
ACDBDICTIONARYWDFLT
  2
AcDbDictionaryWithDefault
  3
ObjectDBX Classes
 90
        0
280
     0
281
     0
  0
CLASS
  1
ACDBPLACEHOLDER
  2
AcDbPlaceHolder
  3
ObjectDBX Classes
 90
        0
280
     0
281
     0
  0
CLASS
  1
LAYOUT
  2
AcDbLayout
  3
ObjectDBX Classes
 90
        0
280
     0
281
     0
  0
CLASS
  1
DICTIONARYVAR
  2
AcDbDictionaryVar
  3
ObjectDBX Classes
 90
        0
280
     0
281
     0
  0
CLASS
  1
TABLESTYLE
  2
AcDbTableStyle
  3
ObjectDBX Classes
 90
     2047
280
     0
281
     0
  0
CLASS
  1
SORTENTSTABLE
  2
AcDbSortentsTable
  3
ObjectDBX Classes
 90
        0
280
     0
281
     0
  0
ENDSEC
  0
SECTION
  2
TABLES
  0
TABLE
  2
VPORT
  5
8
330
0
100
AcDbSymbolTable
 70
     2
  0
VPORT
  5
8BE9
330
8
100
AcDbSymbolTableRecord
100
AcDbViewportTableRecord
  2
*Active
 70
     0
 10
0.0
 20
0.0
 11
1.0
 21
1.0
 12
1692.689834498019
 22
884.4390314188103
 13
0.0
 23
0.0
 14
10.0
 24
10.0
 15
10.0
 25
10.0
 16
0.0
 26
0.0
 36
1.0
 17
0.0
 27
0.0
 37
0.0
 40
2971.640533188924
 41
1.29038112522686
 42
50.0
 43
0.0
 44
0.0
 50
0.0
 51
0.0
 71
     0
 72
   100
 73
     1
 74
     3
 75
     0
 76
     0
 77
     0
 78
     0
281
     0
 65
     1
110
0.0
120
0.0
130
0.0
111
1.0
121
0.0
131
0.0
112
0.0
122
1.0
132
0.0
 79
     0
146
0.0
  0
ENDTAB
  0
TABLE
  2
LTYPE
  5
5
330
0
100
AcDbSymbolTable
 70
    46
  0
LTYPE
  5
14
330
5
100
AcDbSymbolTableRecord
100
AcDbLinetypeTableRecord
  2
ByBlock
 70
     0
  3

 72
    65
 73
     0
 40
0.0
  0
LTYPE
  5
15
330
5
100
AcDbSymbolTableRecord
100
AcDbLinetypeTableRecord
  2
ByLayer
 70
     0
  3

 72
    65
 73
     0
 40
0.0
  0
LTYPE
  5
16
330
5
100
AcDbSymbolTableRecord
100
AcDbLinetypeTableRecord
  2
Continuous
 70
     0
  3
Solid line
 72
    65
 73
     0
 40
0.0
  0
LTYPE
  5
34
330
5
100
AcDbSymbolTableRecord
100
AcDbLinetypeTableRecord
  2
ACAD_ISO02W100
 70
     0
  3
ISO dash __ __ __ __ __ __ __ __ __ __ __ __ __
 72
    65
 73
     2
 40
15.0
 49
12.0
 74
     0
 49
-3.0
 74
     0
  0
LTYPE
  5
35
330
5
100
AcDbSymbolTableRecord
100
AcDbLinetypeTableRecord
  2
ACAD_ISO03W100
 70
     0
  3
ISO dash space __    __    __    __    __    __
 72
    65
 73
     2
 40
30.0
 49
12.0
 74
     0
 49
-18.0
 74
     0
  0
LTYPE
  5
36
330
5
100
AcDbSymbolTableRecord
100
AcDbLinetypeTableRecord
  2
ACAD_ISO04W100
 70
     0
  3
ISO long-dash dot ____ . ____ . ____ . ____ . _
 72
    65
 73
     4
 40
30.0
 49
24.0
 74
     0
 49
-3.0
 74
     0
 49
0.0
 74
     0
 49
-3.0
 74
     0
  0
LTYPE
  5
37
330
5
100
AcDbSymbolTableRecord
100
AcDbLinetypeTableRecord
  2
ACAD_ISO05W100
 70
     0
  3
ISO long-dash double-dot ____ .. ____ .. ____ .
 72
    65
 73
     6
 40
34.0
 49
24.0
 74
     0
 49
-3.0
 74
     0
 49
0.5
 74
     0
 49
-3.0
 74
     0
 49
0.5
 74
     0
 49
-3.0
 74
     0
  0
LTYPE
  5
38
330
5
100
AcDbSymbolTableRecord
100
AcDbLinetypeTableRecord
  2
ACAD_ISO06W100
 70
     0
  3
ISO long-dash triple-dot ____ ... ____ ... ____
 72
    65
 73
     8
 40
37.5
 49
24.0
 74
     0
 49
-3.0
 74
     0
 49
0.5
 74
     0
 49
-3.0
 74
     0
 49
0.5
 74
     0
 49
-3.0
 74
     0
 49
0.5
 74
     0
 49
-3.0
 74
     0
  0
LTYPE
  5
39
330
5
100
AcDbSymbolTableRecord
100
AcDbLinetypeTableRecord
  2
ACAD_ISO07W100
 70
     0
  3
ISO dot . . . . . . . . . . . . . . . . . . . .
 72
    65
 73
     2
 40
3.0
 49
0.0
 74
     0
 49
-3.0
 74
     0
  0
LTYPE
  5
3A
330
5
100
AcDbSymbolTableRecord
100
AcDbLinetypeTableRecord
  2
ACAD_ISO08W100
 70
     0
  3
ISO long-dash short-dash ____ __ ____ __ ____ _
 72
    65
 73
     4
 40
36.0
 49
24.0
 74
     0
 49
-3.0
 74
     0
 49
6.0
 74
     0
 49
-3.0
 74
     0
  0
LTYPE
  5
3B
330
5
100
AcDbSymbolTableRecord
100
AcDbLinetypeTableRecord
  2
ACAD_ISO09W100
 70
     0
  3
ISO long-dash double-short-dash ____ __ __ ____
 72
    65
 73
     6
 40
45.0
 49
24.0
 74
     0
 49
-3.0
 74
     0
 49
6.0
 74
     0
 49
-3.0
 74
     0
 49
6.0
 74
     0
 49
-3.0
 74
     0
  0
LTYPE
  5
3C
330
5
100
AcDbSymbolTableRecord
100
AcDbLinetypeTableRecord
  2
ACAD_ISO10W100
 70
     0
  3
ISO dash dot __ . __ . __ . __ . __ . __ . __ .
 72
    65
 73
     4
 40
18.0
 49
12.0
 74
     0
 49
-3.0
 74
     0
 49
0.0
 74
     0
 49
-3.0
 74
     0
  0
LTYPE
  5
3D
330
5
100
AcDbSymbolTableRecord
100
AcDbLinetypeTableRecord
  2
ACAD_ISO11W100
 70
     0
  3
ISO double-dash dot __ __ . __ __ . __ __ . __ 
 72
    65
 73
     6
 40
33.0
 49
12.0
 74
     0
 49
-3.0
 74
     0
 49
12.0
 74
     0
 49
-3.0
 74
     0
 49
0.0
 74
     0
 49
-3.0
 74
     0
  0
LTYPE
  5
3E
330
5
100
AcDbSymbolTableRecord
100
AcDbLinetypeTableRecord
  2
ACAD_ISO12W100
 70
     0
  3
ISO dash double-dot __ . . __ . . __ . . __ . .
 72
    65
 73
     6
 40
21.0
 49
12.0
 74
     0
 49
-3.0
 74
     0
 49
0.0
 74
     0
 49
-3.0
 74
     0
 49
0.0
 74
     0
 49
-3.0
 74
     0
  0
LTYPE
  5
3F
330
5
100
AcDbSymbolTableRecord
100
AcDbLinetypeTableRecord
  2
ACAD_ISO13W100
 70
     0
  3
ISO double-dash double-dot __ __ . . __ __ . . 
 72
    65
 73
     8
 40
36.0
 49
12.0
 74
     0
 49
-3.0
 74
     0
 49
12.0
 74
     0
 49
-3.0
 74
     0
 49
0.0
 74
     0
 49
-3.0
 74
     0
 49
0.0
 74
     0
 49
-3.0
 74
     0
  0
LTYPE
  5
40
330
5
100
AcDbSymbolTableRecord
100
AcDbLinetypeTableRecord
  2
ACAD_ISO14W100
 70
     0
  3
ISO dash triple-dot __ . . . __ . . . __ . . . 
 72
    65
 73
     8
 40
24.0
 49
12.0
 74
     0
 49
-3.0
 74
     0
 49
0.0
 74
     0
 49
-3.0
 74
     0
 49
0.0
 74
     0
 49
-3.0
 74
     0
 49
0.0
 74
     0
 49
-3.0
 74
     0
  0
LTYPE
  5
41
330
5
100
AcDbSymbolTableRecord
100
AcDbLinetypeTableRecord
  2
ACAD_ISO15W100
 70
     0
  3
ISO double-dash triple-dot __ __ . . . __ __ . 
 72
    65
 73
    10
 40
39.0
 49
12.0
 74
     0
 49
-3.0
 74
     0
 49
12.0
 74
     0
 49
-3.0
 74
     0
 49
0.0
 74
     0
 49
-3.0
 74
     0
 49
0.0
 74
     0
 49
-3.0
 74
     0
 49
0.0
 74
     0
 49
-3.0
 74
     0
  0
LTYPE
  5
42
330
5
100
AcDbSymbolTableRecord
100
AcDbLinetypeTableRecord
  2
BATTING
 70
     0
  3
Batting SSSSSSSSSSSSSSSSSSSSSSSSSSSSSSSSSSSSSSS
 72
    65
 73
     4
 40
10.16254
 49
0.00254
 74
     0
 49
-2.54
 74
     4
 75
   134
340
33
 46
2.54
 50
0.0
 44
-2.54
 45
0.0
 49
-5.08
 74
     4
 75
   134
340
33
 46
2.54
 50
180.0
 44
2.54
 45
0.0
 49
-2.54
 74
     0
  0
LTYPE
  5
43
330
5
100
AcDbSymbolTableRecord
100
AcDbLinetypeTableRecord
  2
BORDER
 70
     0
  3
Border __ __ . __ __ . __ __ . __ __ . __ __ .
 72
    65
 73
     6
 40
44.45
 49
12.7
 74
     0
 49
-6.349999999999998
 74
     0
 49
12.7
 74
     0
 49
-6.349999999999998
 74
     0
 49
0.0
 74
     0
 49
-6.349999999999998
 74
     0
  0
LTYPE
  5
44
330
5
100
AcDbSymbolTableRecord
100
AcDbLinetypeTableRecord
  2
BORDER2
 70
     0
  3
Border (.5x) __.__.__.__.__.__.__.__.__.__.__.
 72
    65
 73
     6
 40
22.225
 49
6.349999999999998
 74
     0
 49
-3.174999999999998
 74
     0
 49
6.349999999999998
 74
     0
 49
-3.174999999999998
 74
     0
 49
0.0
 74
     0
 49
-3.174999999999998
 74
     0
  0
LTYPE
  5
45
330
5
100
AcDbSymbolTableRecord
100
AcDbLinetypeTableRecord
  2
BORDERX2
 70
     0
  3
Border (2x) ____  ____  .  ____  ____  .  ___
 72
    65
 73
     6
 40
88.9
 49
25.4
 74
     0
 49
-12.7
 74
     0
 49
25.4
 74
     0
 49
-12.7
 74
     0
 49
0.0
 74
     0
 49
-12.7
 74
     0
  0
LTYPE
  5
46
330
5
100
AcDbSymbolTableRecord
100
AcDbLinetypeTableRecord
  2
CENTER
 70
     0
  3
Center ____ _ ____ _ ____ _ ____ _ ____ _ ____
 72
    65
 73
     4
 40
50.8
 49
31.75
 74
     0
 49
-6.349999999999998
 74
     0
 49
6.349999999999998
 74
     0
 49
-6.349999999999998
 74
     0
  0
LTYPE
  5
47
330
5
100
AcDbSymbolTableRecord
100
AcDbLinetypeTableRecord
  2
CENTER2
 70
     0
  3
Center (.5x) ___ _ ___ _ ___ _ ___ _ ___ _ ___
 72
    65
 73
     4
 40
28.575
 49
19.05
 74
     0
 49
-3.174999999999998
 74
     0
 49
3.174999999999998
 74
     0
 49
-3.174999999999998
 74
     0
  0
LTYPE
  5
48
330
5
100
AcDbSymbolTableRecord
100
AcDbLinetypeTableRecord
  2
CENTERX2
 70
     0
  3
Center (2x) ________  __  ________  __  _____
 72
    65
 73
     4
 40
101.6
 49
63.5
 74
     0
 49
-12.7
 74
     0
 49
12.7
 74
     0
 49
-12.7
 74
     0
  0
LTYPE
  5
49
330
5
100
AcDbSymbolTableRecord
100
AcDbLinetypeTableRecord
  2
DASHDOT
 70
     0
  3
Dash dot __ . __ . __ . __ . __ . __ . __ . __
 72
    65
 73
     4
 40
25.4
 49
12.7
 74
     0
 49
-6.349999999999998
 74
     0
 49
0.0
 74
     0
 49
-6.349999999999998
 74
     0
  0
LTYPE
  5
4A
330
5
100
AcDbSymbolTableRecord
100
AcDbLinetypeTableRecord
  2
DASHDOT2
 70
     0
  3
Dash dot (.5x) _._._._._._._._._._._._._._._.
 72
    65
 73
     4
 40
12.7
 49
6.349999999999998
 74
     0
 49
-3.174999999999998
 74
     0
 49
0.0
 74
     0
 49
-3.174999999999998
 74
     0
  0
LTYPE
  5
4B
330
5
100
AcDbSymbolTableRecord
100
AcDbLinetypeTableRecord
  2
DASHDOTX2
 70
     0
  3
Dash dot (2x) ____  .  ____  .  ____  .  ___
 72
    65
 73
     4
 40
50.8
 49
25.4
 74
     0
 49
-12.7
 74
     0
 49
0.0
 74
     0
 49
-12.7
 74
     0
  0
LTYPE
  5
4C
330
5
100
AcDbSymbolTableRecord
100
AcDbLinetypeTableRecord
  2
DASHED
 70
     0
  3
Dashed __ __ __ __ __ __ __ __ __ __ __ __ __ _
 72
    65
 73
     2
 40
19.05
 49
12.7
 74
     0
 49
-6.349999999999998
 74
     0
  0
LTYPE
  5
4D
330
5
100
AcDbSymbolTableRecord
100
AcDbLinetypeTableRecord
  2
DASHED2
 70
     0
  3
Dashed (.5x) _ _ _ _ _ _ _ _ _ _ _ _ _ _ _ _ _
 72
    65
 73
     2
 40
9.524999999999996
 49
6.349999999999998
 74
     0
 49
-3.174999999999998
 74
     0
  0
LTYPE
  5
4E
330
5
100
AcDbSymbolTableRecord
100
AcDbLinetypeTableRecord
  2
DASHEDX2
 70
     0
  3
Dashed (2x) ____  ____  ____  ____  ____  ___
 72
    65
 73
     2
 40
38.1
 49
25.4
 74
     0
 49
-12.7
 74
     0
  0
LTYPE
  5
4F
330
5
100
AcDbSymbolTableRecord
100
AcDbLinetypeTableRecord
  2
DIVIDE
 70
     0
  3
Divide ____ . . ____ . . ____ . . ____ . . ____
 72
    65
 73
     6
 40
31.75
 49
12.7
 74
     0
 49
-6.349999999999998
 74
     0
 49
0.0
 74
     0
 49
-6.349999999999998
 74
     0
 49
0.0
 74
     0
 49
-6.349999999999998
 74
     0
  0
LTYPE
  5
50
330
5
100
AcDbSymbolTableRecord
100
AcDbLinetypeTableRecord
  2
DIVIDE2
 70
     0
  3
Divide (.5x) __..__..__..__..__..__..__..__.._
 72
    65
 73
     6
 40
15.875
 49
6.349999999999998
 74
     0
 49
-3.174999999999998
 74
     0
 49
0.0
 74
     0
 49
-3.174999999999998
 74
     0
 49
0.0
 74
     0
 49
-3.174999999999998
 74
     0
  0
LTYPE
  5
51
330
5
100
AcDbSymbolTableRecord
100
AcDbLinetypeTableRecord
  2
DIVIDEX2
 70
     0
  3
Divide (2x) ________  .  .  ________  .  .  _
 72
    65
 73
     6
 40
63.49999999999999
 49
25.4
 74
     0
 49
-12.7
 74
     0
 49
0.0
 74
     0
 49
-12.7
 74
     0
 49
0.0
 74
     0
 49
-12.7
 74
     0
  0
LTYPE
  5
52
330
5
100
AcDbSymbolTableRecord
100
AcDbLinetypeTableRecord
  2
DOT
 70
     0
  3
Dot . . . . . . . . . . . . . . . . . . . . . .
 72
    65
 73
     2
 40
6.349999999999998
 49
0.0
 74
     0
 49
-6.349999999999998
 74
     0
  0
LTYPE
  5
53
330
5
100
AcDbSymbolTableRecord
100
AcDbLinetypeTableRecord
  2
DOT2
 70
     0
  3
Dot (.5x) .....................................
 72
    65
 73
     2
 40
3.174999999999998
 49
0.0
 74
     0
 49
-3.174999999999998
 74
     0
  0
LTYPE
  5
54
330
5
100
AcDbSymbolTableRecord
100
AcDbLinetypeTableRecord
  2
DOTX2
 70
     0
  3
Dot (2x) .  .  .  .  .  .  .  .  .  .  .  .  . 
 72
    65
 73
     2
 40
12.7
 49
0.0
 74
     0
 49
-12.7
 74
     0
  0
LTYPE
  5
55
330
5
100
AcDbSymbolTableRecord
100
AcDbLinetypeTableRecord
  2
FENCELINE1
 70
     0
  3
Fenceline circle ----0-----0----0-----0----0---
 72
    65
 73
     4
 40
36.83
 49
6.349999999999998
 74
     0
 49
-2.54
 74
     4
 75
   133
340
33
 46
2.54
 50
0.0
 44
-2.54
 45
0.0
 49
-2.54
 74
     0
 49
25.4
 74
     0
  0
LTYPE
  5
56
330
5
100
AcDbSymbolTableRecord
100
AcDbLinetypeTableRecord
  2
FENCELINE2
 70
     0
  3
Fenceline square ----[]-----[]----[]-----[]----
 72
    65
 73
     4
 40
36.83
 49
6.349999999999998
 74
     0
 49
-2.54
 74
     4
 75
   132
340
33
 46
2.54
 50
0.0
 44
-2.54
 45
0.0
 49
-2.54
 74
     0
 49
25.4
 74
     0
  0
LTYPE
  5
57
330
5
100
AcDbSymbolTableRecord
100
AcDbLinetypeTableRecord
  2
GAS_LINE
 70
     0
  3
Gas line ----GAS----GAS----GAS----GAS----GAS---
 72
    65
 73
     3
 40
24.13
 49
12.7
 74
     0
 49
-5.08
 74
     2
 75
     0
340
11
 46
2.54
 50
0.0
 44
-2.54
 45
-1.27
  9
GAS
 49
-6.349999999999998
 74
     0
  0
LTYPE
  5
58
330
5
100
AcDbSymbolTableRecord
100
AcDbLinetypeTableRecord
  2
HIDDEN
 70
     0
  3
Hidden __ __ __ __ __ __ __ __ __ __ __ __ __ _
 72
    65
 73
     2
 40
9.524999999999996
 49
6.349999999999998
 74
     0
 49
-3.174999999999998
 74
     0
  0
LTYPE
  5
59
330
5
100
AcDbSymbolTableRecord
100
AcDbLinetypeTableRecord
  2
HIDDEN2
 70
     0
  3
Hidden (.5x) _ _ _ _ _ _ _ _ _ _ _ _ _ _ _ _ _
 72
    65
 73
     2
 40
4.762499999999998
 49
3.174999999999998
 74
     0
 49
-1.587499999999999
 74
     0
  0
LTYPE
  5
5A
330
5
100
AcDbSymbolTableRecord
100
AcDbLinetypeTableRecord
  2
HIDDENX2
 70
     0
  3
Hidden (2x) ____ ____ ____ ____ ____ ____ ____
 72
    65
 73
     2
 40
19.05
 49
12.7
 74
     0
 49
-6.349999999999998
 74
     0
  0
LTYPE
  5
5B
330
5
100
AcDbSymbolTableRecord
100
AcDbLinetypeTableRecord
  2
HOT_WATER_SUPPLY
 70
     0
  3
Hot water supply ---- HW ---- HW ---- HW ----
 72
    65
 73
     3
 40
22.86
 49
12.7
 74
     0
 49
-5.08
 74
     2
 75
     0
340
11
 46
2.54
 50
0.0
 44
-2.54
 45
-1.27
  9
HW
 49
-5.08
 74
     0
  0
LTYPE
  5
5C
330
5
100
AcDbSymbolTableRecord
100
AcDbLinetypeTableRecord
  2
PHANTOM
 70
     0
  3
Phantom ______  __  __  ______  __  __  ______
 72
    65
 73
     6
 40
63.5
 49
31.75
 74
     0
 49
-6.349999999999998
 74
     0
 49
6.349999999999998
 74
     0
 49
-6.349999999999998
 74
     0
 49
6.349999999999998
 74
     0
 49
-6.349999999999998
 74
     0
  0
LTYPE
  5
5D
330
5
100
AcDbSymbolTableRecord
100
AcDbLinetypeTableRecord
  2
PHANTOM2
 70
     0
  3
Phantom (.5x) ___ _ _ ___ _ _ ___ _ _ ___ _ _
 72
    65
 73
     6
 40
31.75
 49
15.875
 74
     0
 49
-3.174999999999998
 74
     0
 49
3.174999999999998
 74
     0
 49
-3.174999999999998
 74
     0
 49
3.174999999999998
 74
     0
 49
-3.174999999999998
 74
     0
  0
LTYPE
  5
5E
330
5
100
AcDbSymbolTableRecord
100
AcDbLinetypeTableRecord
  2
PHANTOMX2
 70
     0
  3
Phantom (2x) ____________    ____    ____   _
 72
    65
 73
     6
 40
127.0
 49
63.5
 74
     0
 49
-12.7
 74
     0
 49
12.7
 74
     0
 49
-12.7
 74
     0
 49
12.7
 74
     0
 49
-12.7
 74
     0
  0
LTYPE
  5
5F
330
5
100
AcDbSymbolTableRecord
100
AcDbLinetypeTableRecord
  2
TRACKS
 70
     0
  3
Tracks -|-|-|-|-|-|-|-|-|-|-|-|-|-|-|-|-|-|-|-|
 72
    65
 73
     2
 40
7.62
 49
3.81
 74
     4
 75
   130
340
33
 46
6.349999999999998
 50
0.0
 44
0.0
 45
0.0
 49
3.81
 74
     0
  0
LTYPE
  5
60
330
5
100
AcDbSymbolTableRecord
100
AcDbLinetypeTableRecord
  2
ZIGZAG
 70
     0
  3
Zig zag /\/\/\/\/\/\/\/\/\/\/\/\/\/\/\/\/\/\/\/
 72
    65
 73
     4
 40
20.32254
 49
0.00254
 74
     0
 49
-5.08
 74
     4
 75
   131
340
33
 46
5.08
 50
0.0
 44
-5.08
 45
0.0
 49
-10.16
 74
     4
 75
   131
340
33
 46
5.08
 50
180.0
 44
5.08
 45
0.0
 49
-5.08
 74
     0
  0
ENDTAB
  0
TABLE
  2
LAYER
  5
2
102
{ACAD_XDICTIONARY
360
24C4
102
}
330
0
100
AcDbSymbolTable
 70
     9
  0
LAYER
  5
10
330
2
100
AcDbSymbolTableRecord
100
AcDbLayerTableRecord
  2
0
 70
     0
 62
     7
  6
Continuous
290
     0
370
    -3
390
F
  0
LAYER
  5
C3
330
2
100
AcDbSymbolTableRecord
100
AcDbLayerTableRecord
  2
Defpoints
 70
     0
 62
     7
  6
Continuous
290
     0
370
    -3
390
F
  0
LAYER
  5
256
330
2
100
AcDbSymbolTableRecord
100
AcDbLayerTableRecord
  2
センター
 70
     0
 62
     7
  6
CENTER2
370
    18
390
F
  0
LAYER
  5
268
330
2
100
AcDbSymbolTableRecord
100
AcDbLayerTableRecord
  2
実形
 70
     0
 62
     7
  6
Continuous
370
    -3
390
F
  0
LAYER
  5
269
330
2
100
AcDbSymbolTableRecord
100
AcDbLayerTableRecord
  2
補助
 70
     0
 62
     4
  6
Continuous
370
    -3
390
F
  0
LAYER
  5
26A
330
2
100
AcDbSymbolTableRecord
100
AcDbLayerTableRecord
  2
寸法
 70
     0
 62
     7
  6
Continuous
370
    18
390
F
  0
LAYER
  5
26B
330
2
100
AcDbSymbolTableRecord
100
AcDbLayerTableRecord
  2
ハッチング
 70
     0
 62
     7
  6
Continuous
370
    18
390
F
  0
LAYER
  5
26D
330
2
100
AcDbSymbolTableRecord
100
AcDbLayerTableRecord
  2
枠
 70
     0
 62
     7
  6
Continuous
370
    -3
390
F
  0
LAYER
  5
1B3D
330
2
100
AcDbSymbolTableRecord
100
AcDbLayerTableRecord
  2
Cen
 70
     0
 62
     7
  6
CENTER2
290
     0
370
    15
390
F
  0
ENDTAB
  0
TABLE
  2
STYLE
  5
3
330
0
100
AcDbSymbolTable
 70
     3
  0
STYLE
  5
11
330
3
100
AcDbSymbolTableRecord
100
AcDbTextStyleTableRecord
  2
Standard
 70
     0
 40
0.0
 41
1.0
 50
0.0
 71
     0
 42
30.0
  3
txt.shx
  4
bigfont.shx
  0
STYLE
  5
33
330
3
100
AcDbSymbolTableRecord
100
AcDbTextStyleTableRecord
  2

 70
     1
 40
0.0
 41
1.0
 50
0.0
 71
     0
 42
2.5
  3
ltypeshp.shx
  4

  0
STYLE
  5
35E2
330
3
100
AcDbSymbolTableRecord
100
AcDbTextStyleTableRecord
  2
ms明朝
 70
     0
 40
0.0
 41
1.0
 50
0.0
 71
     0
 42
25.0
  3
MS Mincho.ttf
  4

1001
ACAD
1000
MS Mincho
1071
    32785
  0
ENDTAB
  0
TABLE
  2
VIEW
  5
6
330
0
100
AcDbSymbolTable
 70
     0
  0
ENDTAB
  0
TABLE
  2
UCS
  5
7
330
0
100
AcDbSymbolTable
 70
     0
  0
ENDTAB
  0
TABLE
  2
APPID
  5
9
330
0
100
AcDbSymbolTable
 70
     2
  0
APPID
  5
12
330
9
100
AcDbSymbolTableRecord
100
AcDbRegAppTableRecord
  2
ACAD
 70
     0
  0
APPID
  5
24C3
330
9
100
AcDbSymbolTableRecord
100
AcDbRegAppTableRecord
  2
ACAD_PSEXT
 70
     0
  0
ENDTAB
  0
TABLE
  2
DIMSTYLE
  5
A
330
0
100
AcDbSymbolTable
 70
     1
100
AcDbDimStyleTable
 71
     1
340
27
  0
DIMSTYLE
105
27
102
{ACAD_REACTORS
330
517E
330
51A6
330
51E0
330
5201
330
523E
330
5267
330
527D
330
52A7
330
533B
330
5375
330
5394
330
53BC
330
53DB
330
5437
330
5489
330
54B2
330
54DB
330
5504
330
552D
330
5557
330
5580
330
5833
330
58E6
330
5A71
330
5A9A
330
5ACD
330
5ADB
330
5B10
330
5F4A
330
5F98
330
5FAF
330
5FE0
330
5F2A
330
635B
330
635D
330
635E
330
635F
330
6360
330
6362
330
6363
330
6364
330
6365
330
6366
330
8347
330
8348
330
8349
330
834A
330
834B
330
834C
330
8352
330
8365
330
8366
330
8367
330
837A
330
8385
330
8802
330
8803
330
8804
330
8805
330
8806
330
8A0C
330
8A1A
330
8A31
330
82F8
330
82F9
330
82FA
330
82FB
330
82FC
330
82FD
330
8303
330
8316
330
8317
330
8318
330
832B
330
8336
102
}
330
A
100
AcDbSymbolTableRecord
100
AcDbDimStyleTableRecord
  2
ISO-25
 70
     0
 41
35.0
 42
65.0
 43
3.75
 44
0.0
 73
     0
 74
     0
 77
     1
 78
     8
140
25.0
141
2.5
143
0.03937007874016
147
6.25
171
     3
172
     1
271
     2
272
     2
274
     3
283
     0
284
     8
340
11
341
DA
342
D0
371
    15
372
    15
  0
ENDTAB
  0
TABLE
  2
BLOCK_RECORD
  5
1
330
0
100
AcDbSymbolTable
 70
    86
  0
BLOCK_RECORD
  5
1F
102
{ACAD_XDICTIONARY
360
2396
102
}
330
1
100
AcDbSymbolTableRecord
100
AcDbBlockTableRecord
  2
*Model_Space
340
22
  0
BLOCK_RECORD
  5
1B
330
1
100
AcDbSymbolTableRecord
100
AcDbBlockTableRecord
  2
*Paper_Space
340
1E
  0
BLOCK_RECORD
  5
23
330
1
100
AcDbSymbolTableRecord
100
AcDbBlockTableRecord
  2
*Paper_Space0
340
26
  0
BLOCK_RECORD
  5
D0
330
1
100
AcDbSymbolTableRecord
100
AcDbBlockTableRecord
  2
_DotSmall
340
0
  0
BLOCK_RECORD
  5
D4
330
1
100
AcDbSymbolTableRecord
100
AcDbBlockTableRecord
  2
_Origin2
340
0
  0
BLOCK_RECORD
  5
DA
330
1
100
AcDbSymbolTableRecord
100
AcDbBlockTableRecord
  2
_Open30
340
0
  0
BLOCK_RECORD
  5
2D6
330
1
100
AcDbSymbolTableRecord
100
AcDbBlockTableRecord
  2
A$C6CAC4411
340
0
  0
BLOCK_RECORD
  5
30D
330
1
100
AcDbSymbolTableRecord
100
AcDbBlockTableRecord
  2
_Dot
340
0
102
{BLKREFS
331
7C28
331
7C29
331
7C31
331
7C32
331
7C3A
331
7C3B
331
807C
331
807D
331
8098
331
8099
331
80A2
331
80A3
331
8118
331
8119
331
8120
331
8121
331
8129
331
812A
331
8135
331
8136
331
813D
331
813E
331
8146
331
8147
331
814F
331
8150
331
8158
331
8159
331
8164
331
8165
331
825A
331
825B
331
8267
331
8268
331
8272
331
8273
331
827E
331
827F
331
828B
331
828C
331
8297
331
8298
331
82A5
331
82A6
331
82B3
331
82B4
331
82CD
331
82CE
331
82DB
331
82DC
331
82C1
331
82C2
331
82E9
331
82EA
331
85A4
331
85A5
331
85AC
331
85AD
331
85B5
331
85B6
331
85C1
331
85C2
331
869E
331
869F
331
86A7
331
86A8
331
86B0
331
86B1
331
86B9
331
86BA
331
86DE
331
86DF
331
86E7
331
86E8
331
86EF
331
86F0
331
86F9
331
86FA
331
8702
331
8703
331
870A
331
870B
331
8713
331
8714
331
871C
331
871D
331
8725
331
8726
331
872F
331
8730
331
8738
331
8739
331
8740
331
8741
331
8749
331
874A
331
8752
331
8753
331
875B
331
875C
331
8764
331
8765
331
876D
331
876E
331
8777
331
8778
331
8780
331
8781
331
8788
331
8789
331
8874
331
8875
331
887D
331
887E
331
8886
331
8887
331
888F
331
8890
331
8898
331
8899
331
8959
331
895A
331
8963
331
8964
331
896B
331
896C
331
8974
331
8975
331
897E
331
897F
331
8987
331
8988
331
8992
331
8993
331
899D
331
899E
331
89A6
331
89A7
331
89B1
331
89B2
331
89BB
331
89BC
331
89C6
331
89C7
331
8ACC
331
8ACD
331
8AD5
331
8AD6
331
8ADE
331
8ADF
102
}
  0
BLOCK_RECORD
  5
313C
102
{ACAD_XDICTIONARY
360
313E
102
}
330
1
100
AcDbSymbolTableRecord
100
AcDbBlockTableRecord
  2
A$C6850087C
340
0
  0
BLOCK_RECORD
  5
3846
102
{ACAD_XDICTIONARY
360
3848
102
}
330
1
100
AcDbSymbolTableRecord
100
AcDbBlockTableRecord
  2
A$C71387EE1
340
0
  0
BLOCK_RECORD
  5
517F
330
1
100
AcDbSymbolTableRecord
100
AcDbBlockTableRecord
  2
*D8
340
0
  0
BLOCK_RECORD
  5
51A7
330
1
100
AcDbSymbolTableRecord
100
AcDbBlockTableRecord
  2
*D9
340
0
  0
BLOCK_RECORD
  5
51E1
330
1
100
AcDbSymbolTableRecord
100
AcDbBlockTableRecord
  2
*D10
340
0
  0
BLOCK_RECORD
  5
5202
330
1
100
AcDbSymbolTableRecord
100
AcDbBlockTableRecord
  2
*D11
340
0
  0
BLOCK_RECORD
  5
523F
330
1
100
AcDbSymbolTableRecord
100
AcDbBlockTableRecord
  2
*D12
340
0
  0
BLOCK_RECORD
  5
5268
330
1
100
AcDbSymbolTableRecord
100
AcDbBlockTableRecord
  2
*D13
340
0
  0
BLOCK_RECORD
  5
527E
330
1
100
AcDbSymbolTableRecord
100
AcDbBlockTableRecord
  2
*D14
340
0
  0
BLOCK_RECORD
  5
52A8
330
1
100
AcDbSymbolTableRecord
100
AcDbBlockTableRecord
  2
*D15
340
0
  0
BLOCK_RECORD
  5
533C
330
1
100
AcDbSymbolTableRecord
100
AcDbBlockTableRecord
  2
*D16
340
0
  0
BLOCK_RECORD
  5
5376
330
1
100
AcDbSymbolTableRecord
100
AcDbBlockTableRecord
  2
*D17
340
0
  0
BLOCK_RECORD
  5
5395
330
1
100
AcDbSymbolTableRecord
100
AcDbBlockTableRecord
  2
*D18
340
0
  0
BLOCK_RECORD
  5
53BD
330
1
100
AcDbSymbolTableRecord
100
AcDbBlockTableRecord
  2
*D19
340
0
  0
BLOCK_RECORD
  5
53DC
330
1
100
AcDbSymbolTableRecord
100
AcDbBlockTableRecord
  2
*D20
340
0
  0
BLOCK_RECORD
  5
5438
330
1
100
AcDbSymbolTableRecord
100
AcDbBlockTableRecord
  2
*D21
340
0
  0
BLOCK_RECORD
  5
548A
330
1
100
AcDbSymbolTableRecord
100
AcDbBlockTableRecord
  2
*D22
340
0
  0
BLOCK_RECORD
  5
54B3
330
1
100
AcDbSymbolTableRecord
100
AcDbBlockTableRecord
  2
*D23
340
0
  0
BLOCK_RECORD
  5
54DC
330
1
100
AcDbSymbolTableRecord
100
AcDbBlockTableRecord
  2
*D24
340
0
  0
BLOCK_RECORD
  5
5505
330
1
100
AcDbSymbolTableRecord
100
AcDbBlockTableRecord
  2
*D25
340
0
  0
BLOCK_RECORD
  5
552E
330
1
100
AcDbSymbolTableRecord
100
AcDbBlockTableRecord
  2
*D26
340
0
  0
BLOCK_RECORD
  5
5558
330
1
100
AcDbSymbolTableRecord
100
AcDbBlockTableRecord
  2
*D27
340
0
  0
BLOCK_RECORD
  5
5581
330
1
100
AcDbSymbolTableRecord
100
AcDbBlockTableRecord
  2
*D28
340
0
  0
BLOCK_RECORD
  5
5834
330
1
100
AcDbSymbolTableRecord
100
AcDbBlockTableRecord
  2
*D29
340
0
  0
BLOCK_RECORD
  5
58E7
330
1
100
AcDbSymbolTableRecord
100
AcDbBlockTableRecord
  2
*D30
340
0
  0
BLOCK_RECORD
  5
5A72
330
1
100
AcDbSymbolTableRecord
100
AcDbBlockTableRecord
  2
*D31
340
0
  0
BLOCK_RECORD
  5
5A9B
330
1
100
AcDbSymbolTableRecord
100
AcDbBlockTableRecord
  2
*D32
340
0
  0
BLOCK_RECORD
  5
5ACE
330
1
100
AcDbSymbolTableRecord
100
AcDbBlockTableRecord
  2
*D33
340
0
  0
BLOCK_RECORD
  5
5ADC
330
1
100
AcDbSymbolTableRecord
100
AcDbBlockTableRecord
  2
*D34
340
0
  0
BLOCK_RECORD
  5
5B11
330
1
100
AcDbSymbolTableRecord
100
AcDbBlockTableRecord
  2
*D35
340
0
  0
BLOCK_RECORD
  5
5F2B
330
1
100
AcDbSymbolTableRecord
100
AcDbBlockTableRecord
  2
*D36
340
0
  0
BLOCK_RECORD
  5
5F4B
330
1
100
AcDbSymbolTableRecord
100
AcDbBlockTableRecord
  2
*D37
340
0
  0
BLOCK_RECORD
  5
5F99
330
1
100
AcDbSymbolTableRecord
100
AcDbBlockTableRecord
  2
*D38
340
0
  0
BLOCK_RECORD
  5
5FB0
330
1
100
AcDbSymbolTableRecord
100
AcDbBlockTableRecord
  2
*D39
340
0
  0
BLOCK_RECORD
  5
5FE1
330
1
100
AcDbSymbolTableRecord
100
AcDbBlockTableRecord
  2
*D40
340
0
  0
BLOCK_RECORD
  5
6367
330
1
100
AcDbSymbolTableRecord
100
AcDbBlockTableRecord
  2
*D41
340
0
  0
BLOCK_RECORD
  5
6373
330
1
100
AcDbSymbolTableRecord
100
AcDbBlockTableRecord
  2
*D42
340
0
  0
BLOCK_RECORD
  5
6381
330
1
100
AcDbSymbolTableRecord
100
AcDbBlockTableRecord
  2
*D43
340
0
  0
BLOCK_RECORD
  5
638D
330
1
100
AcDbSymbolTableRecord
100
AcDbBlockTableRecord
  2
*D44
340
0
  0
BLOCK_RECORD
  5
6399
330
1
100
AcDbSymbolTableRecord
100
AcDbBlockTableRecord
  2
*D45
340
0
  0
BLOCK_RECORD
  5
63A7
330
1
100
AcDbSymbolTableRecord
100
AcDbBlockTableRecord
  2
*D46
340
0
  0
BLOCK_RECORD
  5
63B3
330
1
100
AcDbSymbolTableRecord
100
AcDbBlockTableRecord
  2
*D47
340
0
  0
BLOCK_RECORD
  5
63BF
330
1
100
AcDbSymbolTableRecord
100
AcDbBlockTableRecord
  2
*D48
340
0
  0
BLOCK_RECORD
  5
63CB
330
1
100
AcDbSymbolTableRecord
100
AcDbBlockTableRecord
  2
*D49
340
0
  0
BLOCK_RECORD
  5
63D7
330
1
100
AcDbSymbolTableRecord
100
AcDbBlockTableRecord
  2
*D50
340
0
  0
BLOCK_RECORD
  5
6B87
102
{ACAD_XDICTIONARY
360
6B89
102
}
330
1
100
AcDbSymbolTableRecord
100
AcDbBlockTableRecord
  2
A$C47AF373A
340
0
  0
BLOCK_RECORD
  5
6C00
102
{ACAD_XDICTIONARY
360
6C02
102
}
330
1
100
AcDbSymbolTableRecord
100
AcDbBlockTableRecord
  2
A$C2B9560D8
340
0
  0
BLOCK_RECORD
  5
8255
330
1
100
AcDbSymbolTableRecord
100
AcDbBlockTableRecord
  2
*D53
340
0
  0
BLOCK_RECORD
  5
8261
330
1
100
AcDbSymbolTableRecord
100
AcDbBlockTableRecord
  2
*D54
340
0
  0
BLOCK_RECORD
  5
826D
330
1
100
AcDbSymbolTableRecord
100
AcDbBlockTableRecord
  2
*D55
340
0
  0
BLOCK_RECORD
  5
8279
330
1
100
AcDbSymbolTableRecord
100
AcDbBlockTableRecord
  2
*D56
340
0
  0
BLOCK_RECORD
  5
8285
330
1
100
AcDbSymbolTableRecord
100
AcDbBlockTableRecord
  2
*D57
340
0
  0
BLOCK_RECORD
  5
8291
330
1
100
AcDbSymbolTableRecord
100
AcDbBlockTableRecord
  2
*D58
340
0
  0
BLOCK_RECORD
  5
829D
330
1
100
AcDbSymbolTableRecord
100
AcDbBlockTableRecord
  2
*D59
340
0
  0
BLOCK_RECORD
  5
82AB
330
1
100
AcDbSymbolTableRecord
100
AcDbBlockTableRecord
  2
*D60
340
0
  0
BLOCK_RECORD
  5
82B9
330
1
100
AcDbSymbolTableRecord
100
AcDbBlockTableRecord
  2
*D61
340
0
  0
BLOCK_RECORD
  5
82C7
330
1
100
AcDbSymbolTableRecord
100
AcDbBlockTableRecord
  2
*D62
340
0
  0
BLOCK_RECORD
  5
82D3
330
1
100
AcDbSymbolTableRecord
100
AcDbBlockTableRecord
  2
*D63
340
0
  0
BLOCK_RECORD
  5
82E1
330
1
100
AcDbSymbolTableRecord
100
AcDbBlockTableRecord
  2
*D64
340
0
  0
BLOCK_RECORD
  5
82EF
102
{ACAD_XDICTIONARY
360
8338
102
}
330
1
100
AcDbSymbolTableRecord
100
AcDbBlockTableRecord
  2
A$C43863A15
340
0
  0
BLOCK_RECORD
  5
8387
330
1
100
AcDbSymbolTableRecord
100
AcDbBlockTableRecord
  2
*D66
340
0
  0
BLOCK_RECORD
  5
8393
330
1
100
AcDbSymbolTableRecord
100
AcDbBlockTableRecord
  2
*D67
340
0
  0
BLOCK_RECORD
  5
839F
330
1
100
AcDbSymbolTableRecord
100
AcDbBlockTableRecord
  2
*D68
340
0
  0
BLOCK_RECORD
  5
83AB
330
1
100
AcDbSymbolTableRecord
100
AcDbBlockTableRecord
  2
*D69
340
0
  0
BLOCK_RECORD
  5
83B7
330
1
100
AcDbSymbolTableRecord
100
AcDbBlockTableRecord
  2
*D70
340
0
  0
BLOCK_RECORD
  5
83C3
330
1
100
AcDbSymbolTableRecord
100
AcDbBlockTableRecord
  2
*D71
340
0
  0
BLOCK_RECORD
  5
83CF
330
1
100
AcDbSymbolTableRecord
100
AcDbBlockTableRecord
  2
*D72
340
0
  0
BLOCK_RECORD
  5
83DD
330
1
100
AcDbSymbolTableRecord
100
AcDbBlockTableRecord
  2
*D73
340
0
  0
BLOCK_RECORD
  5
83EB
330
1
100
AcDbSymbolTableRecord
100
AcDbBlockTableRecord
  2
*D74
340
0
  0
BLOCK_RECORD
  5
83F7
330
1
100
AcDbSymbolTableRecord
100
AcDbBlockTableRecord
  2
*D75
340
0
  0
BLOCK_RECORD
  5
8405
330
1
100
AcDbSymbolTableRecord
100
AcDbBlockTableRecord
  2
*D76
340
0
  0
BLOCK_RECORD
  5
8413
330
1
100
AcDbSymbolTableRecord
100
AcDbBlockTableRecord
  2
*D77
340
0
  0
BLOCK_RECORD
  5
8807
330
1
100
AcDbSymbolTableRecord
100
AcDbBlockTableRecord
  2
*D78
340
0
  0
BLOCK_RECORD
  5
8813
330
1
100
AcDbSymbolTableRecord
100
AcDbBlockTableRecord
  2
*D79
340
0
  0
BLOCK_RECORD
  5
881F
330
1
100
AcDbSymbolTableRecord
100
AcDbBlockTableRecord
  2
*D80
340
0
  0
BLOCK_RECORD
  5
882B
330
1
100
AcDbSymbolTableRecord
100
AcDbBlockTableRecord
  2
*D81
340
0
  0
BLOCK_RECORD
  5
8837
330
1
100
AcDbSymbolTableRecord
100
AcDbBlockTableRecord
  2
*D82
340
0
  0
BLOCK_RECORD
  5
8A0D
330
1
100
AcDbSymbolTableRecord
100
AcDbBlockTableRecord
  2
*D83
340
0
  0
BLOCK_RECORD
  5
8A1B
330
1
100
AcDbSymbolTableRecord
100
AcDbBlockTableRecord
  2
*D84
340
0
  0
BLOCK_RECORD
  5
8A32
330
1
100
AcDbSymbolTableRecord
100
AcDbBlockTableRecord
  2
*D85
340
0
  0
ENDTAB
  0
ENDSEC
  0
SECTION
  2
BLOCKS
  0
BLOCK
  5
20
330
1F
100
AcDbEntity
  8
0
100
AcDbBlockBegin
  2
*Model_Space
 70
     0
 10
0.0
 20
0.0
 30
0.0
  3
*Model_Space
  1

  0
ENDBLK
  5
21
330
1F
100
AcDbEntity
  8
0
100
AcDbBlockEnd
  0
BLOCK
  5
1C
330
1B
100
AcDbEntity
 67
     1
  8
0
100
AcDbBlockBegin
  2
*Paper_Space
 70
     0
 10
0.0
 20
0.0
 30
0.0
  3
*Paper_Space
  1

  0
ENDBLK
  5
1D
330
1B
100
AcDbEntity
 67
     1
  8
0
100
AcDbBlockEnd
  0
BLOCK
  5
24
330
23
100
AcDbEntity
  8
0
100
AcDbBlockBegin
  2
*Paper_Space0
 70
     0
 10
0.0
 20
0.0
 30
0.0
  3
*Paper_Space0
  1

  0
ENDBLK
  5
25
330
23
100
AcDbEntity
  8
0
100
AcDbBlockEnd
  0
BLOCK
  5
D2
330
D0
100
AcDbEntity
  8
0
100
AcDbBlockBegin
  2
_DotSmall
 70
     0
 10
0.0
 20
0.0
 30
0.0
  3
_DotSmall
  1

  0
LWPOLYLINE
  5
D1
330
D0
100
AcDbEntity
  8
0
 62
     0
100
AcDbPolyline
 90
        2
 70
     1
 43
0.5
 10
-0.0625
 20
0.0
 42
1.0
 10
0.0625
 20
0.0
 42
1.0
  0
ENDBLK
  5
D3
330
D0
100
AcDbEntity
  8
0
100
AcDbBlockEnd
  0
BLOCK
  5
D8
330
D4
100
AcDbEntity
  8
0
100
AcDbBlockBegin
  2
_Origin2
 70
     0
 10
0.0
 20
0.0
 30
0.0
  3
_Origin2
  1

  0
CIRCLE
  5
D5
330
D4
100
AcDbEntity
  8
0
 62
     0
370
    -2
100
AcDbCircle
 10
0.0
 20
0.0
 30
0.0
 40
0.5
  0
CIRCLE
  5
D6
330
D4
100
AcDbEntity
  8
0
 62
     0
370
    -2
100
AcDbCircle
 10
0.0
 20
0.0
 30
0.0
 40
0.25
  0
LINE
  5
D7
330
D4
100
AcDbEntity
  8
0
 62
     0
370
    -2
100
AcDbLine
 10
-0.5
 20
0.0
 30
0.0
 11
-1.0
 21
0.0
 31
0.0
  0
ENDBLK
  5
D9
330
D4
100
AcDbEntity
  8
0
100
AcDbBlockEnd
  0
BLOCK
  5
DE
330
DA
100
AcDbEntity
  8
0
100
AcDbBlockBegin
  2
_Open30
 70
     0
 10
0.0
 20
0.0
 30
0.0
  3
_Open30
  1

  0
LINE
  5
DB
330
DA
100
AcDbEntity
  8
0
 62
     0
370
    -2
100
AcDbLine
 10
-1.0
 20
0.26794919
 30
0.0
 11
0.0
 21
0.0
 31
0.0
  0
LINE
  5
DC
330
DA
100
AcDbEntity
  8
0
 62
     0
370
    -2
100
AcDbLine
 10
0.0
 20
0.0
 30
0.0
 11
-1.0
 21
-0.26794919
 31
0.0
  0
LINE
  5
DD
330
DA
100
AcDbEntity
  8
0
 62
     0
370
    -2
100
AcDbLine
 10
0.0
 20
0.0
 30
0.0
 11
-1.0
 21
0.0
 31
0.0
  0
ENDBLK
  5
DF
330
DA
100
AcDbEntity
  8
0
100
AcDbBlockEnd
  0
BLOCK
  5
2E7
330
2D6
100
AcDbEntity
  8
0
100
AcDbBlockBegin
  2
A$C6CAC4411
 70
     0
 10
0.0
 20
0.0
 30
0.0
  3
A$C6CAC4411
  1

  0
TEXT
  5
2D7
330
2D6
100
AcDbEntity
  8
0
100
AcDbText
 10
176.2557717918098
 20
0.0000022116982912
 30
0.0
 40
40.0
  1
中外交易株式会社
 72
     4
 11
364.2557717918098
 21
20.0000022116983
 31
0.0
100
AcDbText
  0
LINE
  5
2D8
330
2D6
100
AcDbEntity
  8
0
100
AcDbLine
 10
-0.0000028735375963
 20
52.5000022116983
 30
0.0
 11
599.9999971264624
 21
52.5000022116983
 31
0.0
  0
HATCH
  5
2D9
330
2D6
100
AcDbEntity
  8
実形
100
AcDbHatch
 10
0.0
 20
0.0
 30
0.0
210
0.0
220
0.0
230
1.0
  2
SOLID
 70
     1
 71
     1
 91
        3
 92
        1
 93
        4
 72
     2
 10
133.1661954404576
 20
20.0000022116983
 40
20.0
 50
11.6477236670758
 51
342.6561058784691
 73
     1
 72
     1
 10
152.2568494677857
 20
14.03787769028346
 11
128.1661954404576
 21
14.03787769028349
 72
     1
 10
128.1661954404576
 20
14.03787769028349
 11
128.1661954404576
 21
24.0378776902835
 72
     1
 10
128.1661954404576
 20
24.0378776902835
 11
152.7543439394721
 21
24.0378776902835
 97
        4
330
2DF
330
2DC
330
2E0
330
2DD
 92
        1
 93
        4
 72
     2
 10
64.25577179180982
 20
20.0000022116983
 40
20.0
 50
11.6477236670758
 51
342.6561058784691
 73
     1
 72
     1
 10
83.34642581913795
 20
14.03787769028346
 11
59.25577179180981
 21
14.03787769028349
 72
     1
 10
59.25577179180981
 20
14.03787769028349
 11
59.25577179180981
 21
24.0378776902835
 72
     1
 10
59.25577179180981
 20
24.0378776902835
 11
83.84392029082437
 21
24.0378776902835
 97
        4
330
2DE
330
2DB
330
2E1
330
2DA
 92
        1
 93
        5
 72
     1
 10
121.6418911694018
 20
40.0000022116983
 11
86.64189116940177
 21
40.0000022116983
 72
     1
 10
86.64189116940177
 20
40.0000022116983
 11
86.64189116940177
 21
0.0000022116983018
 72
     1
 10
86.64189116940177
 20
0.0000022116983018
 11
121.6418911694018
 21
0.0000022116983018
 72
     1
 10
121.6418911694018
 20
0.0000022116983018
 11
86.64189116940177
 21
20.0000022116983
 72
     1
 10
86.64189116940177
 20
20.0000022116983
 11
121.6418911694018
 21
40.0000022116983
 97
        5
330
2E2
330
2E3
330
2E5
330
2E6
330
2E4
 75
     0
 76
     1
 98
        1
 10
-2184.000002873538
 20
-16.4999977883017
  0
LINE
  5
2DA
102
{ACAD_REACTORS
330
2D9
102
}
330
2D6
100
AcDbEntity
  8
実形
370
     5
100
AcDbLine
 10
83.84392029082437
 20
24.0378776902835
 30
0.0
 11
59.25577179180981
 21
24.0378776902835
 31
0.0
  0
LINE
  5
2DB
102
{ACAD_REACTORS
330
2D9
102
}
330
2D6
100
AcDbEntity
  8
実形
370
     5
100
AcDbLine
 10
59.25577179180981
 20
14.03787769028349
 30
0.0
 11
83.34642581913795
 21
14.03787769028346
 31
0.0
  0
LINE
  5
2DC
102
{ACAD_REACTORS
330
2D9
102
}
330
2D6
100
AcDbEntity
  8
実形
370
     5
100
AcDbLine
 10
128.1661954404576
 20
14.03787769028349
 30
0.0
 11
152.2568494677857
 21
14.03787769028346
 31
0.0
  0
LINE
  5
2DD
102
{ACAD_REACTORS
330
2D9
102
}
330
2D6
100
AcDbEntity
  8
実形
370
     5
100
AcDbLine
 10
152.7543439394721
 20
24.0378776902835
 30
0.0
 11
128.1661954404576
 21
24.0378776902835
 31
0.0
  0
ARC
  5
2DE
102
{ACAD_REACTORS
330
2D9
102
}
330
2D6
100
AcDbEntity
  8
実形
370
     5
100
AcDbCircle
 10
64.25577179180982
 20
20.0000022116983
 30
0.0
 40
20.0
100
AcDbArc
 50
11.6477236670758
 51
342.6561058784691
  0
ARC
  5
2DF
102
{ACAD_REACTORS
330
2D9
102
}
330
2D6
100
AcDbEntity
  8
実形
370
     5
100
AcDbCircle
 10
133.1661954404576
 20
20.0000022116983
 30
0.0
 40
20.0
100
AcDbArc
 50
11.6477236670758
 51
342.6561058784691
  0
LINE
  5
2E0
102
{ACAD_REACTORS
330
2D9
102
}
330
2D6
100
AcDbEntity
  8
実形
370
     5
100
AcDbLine
 10
128.1661954404576
 20
24.0378776902835
 30
0.0
 11
128.1661954404576
 21
14.03787769028349
 31
0.0
  0
LINE
  5
2E1
102
{ACAD_REACTORS
330
2D9
102
}
330
2D6
100
AcDbEntity
  8
実形
370
     5
100
AcDbLine
 10
59.25577179180981
 20
24.0378776902835
 30
0.0
 11
59.25577179180981
 21
14.03787769028349
 31
0.0
  0
LINE
  5
2E2
102
{ACAD_REACTORS
330
2D9
102
}
330
2D6
100
AcDbEntity
  8
実形
370
     5
100
AcDbLine
 10
121.6418911694018
 20
40.0000022116983
 30
0.0
 11
86.64189116940177
 21
40.0000022116983
 31
0.0
  0
LINE
  5
2E3
102
{ACAD_REACTORS
330
2D9
102
}
330
2D6
100
AcDbEntity
  8
実形
370
     5
100
AcDbLine
 10
86.64189116940177
 20
40.0000022116983
 30
0.0
 11
86.64189116940177
 21
0.0000022116983018
 31
0.0
  0
LINE
  5
2E4
102
{ACAD_REACTORS
330
2D9
102
}
330
2D6
100
AcDbEntity
  8
実形
370
     5
100
AcDbLine
 10
86.64189116940177
 20
20.0000022116983
 30
0.0
 11
121.6418911694018
 21
40.0000022116983
 31
0.0
  0
LINE
  5
2E5
102
{ACAD_REACTORS
330
2D9
102
}
330
2D6
100
AcDbEntity
  8
実形
370
     5
100
AcDbLine
 10
86.64189116940177
 20
0.0000022116983018
 30
0.0
 11
121.6418911694018
 21
0.0000022116983018
 31
0.0
  0
LINE
  5
2E6
102
{ACAD_REACTORS
330
2D9
102
}
330
2D6
100
AcDbEntity
  8
実形
370
     5
100
AcDbLine
 10
121.6418911694018
 20
0.0000022116983018
 30
0.0
 11
86.64189116940177
 21
20.0000022116983
 31
0.0
  0
ENDBLK
  5
2E8
330
2D6
100
AcDbEntity
  8
0
100
AcDbBlockEnd
  0
BLOCK
  5
310
330
30D
100
AcDbEntity
  8
0
100
AcDbBlockBegin
  2
_Dot
 70
     0
 10
0.0
 20
0.0
 30
0.0
  3
_Dot
  1

  0
LWPOLYLINE
  5
30E
330
30D
100
AcDbEntity
  8
0
 62
     0
100
AcDbPolyline
 90
        2
 70
     1
 43
0.5
 10
-0.25
 20
0.0
 42
1.0
 10
0.25
 20
0.0
 42
1.0
  0
LINE
  5
30F
330
30D
100
AcDbEntity
  8
0
 62
     0
370
    -2
100
AcDbLine
 10
-0.5
 20
0.0
 30
0.0
 11
-1.0
 21
0.0
 31
0.0
  0
ENDBLK
  5
311
330
30D
100
AcDbEntity
  8
0
100
AcDbBlockEnd
  0
BLOCK
  5
3140
330
313C
100
AcDbEntity
  8
0
100
AcDbBlockBegin
  2
A$C6850087C
 70
     0
 10
0.0
 20
0.0
 30
0.0
  3
A$C6850087C
  1

  0
TEXT
  5
313D
330
313C
100
AcDbEntity
  8
実形
 62
     0
 48
20.0
100
AcDbText
 10
0.0
 20
0.0
 30
0.0
 40
40.0
  1
平面図
100
AcDbText
  0
ENDBLK
  5
3141
330
313C
100
AcDbEntity
  8
0
100
AcDbBlockEnd
  0
BLOCK
  5
384A
330
3846
100
AcDbEntity
  8
0
 62
     1
100
AcDbBlockBegin
  2
A$C71387EE1
 70
     0
 10
0.0
 20
0.0
 30
0.0
  3
A$C71387EE1
  1

  0
HATCH
  5
3847
330
3846
100
AcDbEntity
  8
実形
 62
     0
100
AcDbHatch
 10
0.0
 20
0.0
 30
0.0
210
0.0
220
0.0
230
1.0
  2
SOLID
 70
     1
 71
     0
 91
        1
 92
        7
 72
     1
 73
     1
 93
        2
 10
4.552685078746208
 20
-0.0000011660104065
 42
-1.0
 10
4.54872920619573
 20
9.101406589272301
 42
-1.0
 97
        0
 75
     0
 76
     1
 47
0.1166526434546944
 98
        1
 10
6.651066248680989
 20
3.151407247997667
  0
ENDBLK
  5
384B
330
3846
100
AcDbEntity
  8
0
 62
     1
100
AcDbBlockEnd
  0
BLOCK
  5
5189
330
517F
100
AcDbEntity
  8
0
 62
     1
100
AcDbBlockBegin
  2
*D8
 70
     1
 10
0.0
 20
0.0
 30
0.0
  3
*D8
  1

  0
LINE
  5
8734
330
517F
100
AcDbEntity
  8
実形
 62
     0
370
    18
100
AcDbLine
 10
858.7710340146243
 20
1665.664804741403
 30
0.0
 11
858.7710340146243
 21
1697.206346885678
 31
0.0
  0
LINE
  5
8735
330
517F
100
AcDbEntity
  8
実形
 62
     0
370
    18
100
AcDbLine
 10
898.7710340146241
 20
1665.664804741403
 30
0.0
 11
898.7710340146241
 21
1697.206346885678
 31
0.0
  0
LINE
  5
8736
330
517F
100
AcDbEntity
  8
実形
 62
     0
370
    18
100
AcDbLine
 10
868.7710340146239
 20
1697.206346885678
 30
0.0
 11
888.771034014624
 21
1697.206346885678
 31
0.0
  0
MTEXT
  5
8737
330
517F
100
AcDbEntity
  8
実形
 62
     0
100
AcDbMText
 10
822.8304222143343
 20
1719.456882112318
 30
0.0
 40
30.0
 41
0.0
 71
     5
 72
     1
  1
20
 73
     1
 44
1.0
1001
ACAD
1000
MTEXTBEGIN
1070
    73
1070
     1
1070
    44
1040
1.0
1070
    74
1070
     0
1000
MTEXTEND
  0
INSERT
  5
8738
330
517F
100
AcDbEntity
  8
実形
 62
     0
370
    18
100
AcDbBlockReference
  2
_Dot
 10
858.7710340146243
 20
1697.206346885678
 30
0.0
 41
10.0
 42
10.0
 43
10.0
 50
180.0
  0
INSERT
  5
8739
330
517F
100
AcDbEntity
  8
実形
 62
     0
370
    18
100
AcDbBlockReference
  2
_Dot
 10
898.7710340146241
 20
1697.206346885678
 30
0.0
 41
10.0
 42
10.0
 43
10.0
  0
POINT
  5
873A
330
517F
100
AcDbEntity
  8
Defpoints
 62
     0
100
AcDbPoint
 10
858.7710340146243
 20
1600.664804741403
 30
0.0
  0
POINT
  5
873B
330
517F
100
AcDbEntity
  8
Defpoints
 62
     0
100
AcDbPoint
 10
898.7710340146241
 20
1600.664804741403
 30
0.0
  0
POINT
  5
873C
330
517F
100
AcDbEntity
  8
Defpoints
 62
     0
100
AcDbPoint
 10
898.7710340146241
 20
1697.206346885678
 30
0.0
  0
ENDBLK
  5
518A
330
517F
100
AcDbEntity
  8
0
 62
     1
100
AcDbBlockEnd
  0
BLOCK
  5
51B1
330
51A7
100
AcDbEntity
  8
0
 62
     1
100
AcDbBlockBegin
  2
*D9
 70
     1
 10
0.0
 20
0.0
 30
0.0
  3
*D9
  1

  0
LINE
  5
872B
330
51A7
100
AcDbEntity
  8
実形
 62
     0
370
    18
100
AcDbLine
 10
898.7710340146241
 20
1665.664804741403
 30
0.0
 11
898.7710340146241
 21
1697.206346885678
 31
0.0
  0
LINE
  5
872C
330
51A7
100
AcDbEntity
  8
実形
 62
     0
370
    18
100
AcDbLine
 10
948.7710340146239
 20
1665.664804741403
 30
0.0
 11
948.7710340146239
 21
1697.206346885678
 31
0.0
  0
LINE
  5
872D
330
51A7
100
AcDbEntity
  8
実形
 62
     0
370
    18
100
AcDbLine
 10
908.7710340146239
 20
1697.206346885678
 30
0.0
 11
938.771034014624
 21
1697.206346885678
 31
0.0
  0
MTEXT
  5
872E
330
51A7
100
AcDbEntity
  8
実形
 62
     0
100
AcDbMText
 10
921.2868215322739
 20
1642.708940632247
 30
0.0
 40
30.0
 41
0.0
 71
     5
 72
     1
  1
25
 73
     1
 44
1.0
1001
ACAD
1000
MTEXTBEGIN
1070
    73
1070
     1
1070
    44
1040
1.0
1070
    74
1070
     0
1000
MTEXTEND
  0
INSERT
  5
872F
330
51A7
100
AcDbEntity
  8
実形
 62
     0
370
    18
100
AcDbBlockReference
  2
_Dot
 10
898.7710340146241
 20
1697.206346885678
 30
0.0
 41
10.0
 42
10.0
 43
10.0
 50
180.0
  0
INSERT
  5
8730
330
51A7
100
AcDbEntity
  8
実形
 62
     0
370
    18
100
AcDbBlockReference
  2
_Dot
 10
948.7710340146239
 20
1697.206346885678
 30
0.0
 41
10.0
 42
10.0
 43
10.0
  0
POINT
  5
8731
330
51A7
100
AcDbEntity
  8
Defpoints
 62
     0
100
AcDbPoint
 10
898.7710340146241
 20
1600.664804741403
 30
0.0
  0
POINT
  5
8732
330
51A7
100
AcDbEntity
  8
Defpoints
 62
     0
100
AcDbPoint
 10
948.7710340146239
 20
1600.664804741403
 30
0.0
  0
POINT
  5
8733
330
51A7
100
AcDbEntity
  8
Defpoints
 62
     0
100
AcDbPoint
 10
948.7710340146239
 20
1697.206346885678
 30
0.0
  0
ENDBLK
  5
51B2
330
51A7
100
AcDbEntity
  8
0
 62
     1
100
AcDbBlockEnd
  0
BLOCK
  5
51EB
330
51E1
100
AcDbEntity
  8
0
 62
     1
100
AcDbBlockBegin
  2
*D10
 70
     1
 10
0.0
 20
0.0
 30
0.0
  3
*D10
  1

  0
LINE
  5
8722
330
51E1
100
AcDbEntity
  8
実形
 62
     0
370
    18
100
AcDbLine
 10
948.7710340146239
 20
1665.664804741403
 30
0.0
 11
948.7710340146239
 21
1697.206346885678
 31
0.0
  0
LINE
  5
8723
330
51E1
100
AcDbEntity
  8
実形
 62
     0
370
    18
100
AcDbLine
 10
1028.771034014624
 20
1665.664804741403
 30
0.0
 11
1028.771034014624
 21
1697.206346885678
 31
0.0
  0
LINE
  5
8724
330
51E1
100
AcDbEntity
  8
実形
 62
     0
370
    18
100
AcDbLine
 10
958.7710340146239
 20
1697.206346885678
 30
0.0
 11
1018.771034014624
 21
1697.206346885678
 31
0.0
  0
INSERT
  5
8725
330
51E1
100
AcDbEntity
  8
実形
 62
     0
370
    18
100
AcDbBlockReference
  2
_Dot
 10
948.7710340146239
 20
1697.206346885678
 30
0.0
 41
10.0
 42
10.0
 43
10.0
 50
180.0
  0
INSERT
  5
8726
330
51E1
100
AcDbEntity
  8
実形
 62
     0
370
    18
100
AcDbBlockReference
  2
_Dot
 10
1028.771034014624
 20
1697.206346885678
 30
0.0
 41
10.0
 42
10.0
 43
10.0
  0
MTEXT
  5
8727
330
51E1
100
AcDbEntity
  8
実形
 62
     0
100
AcDbMText
 10
988.771034014624
 20
1718.806346885678
 30
0.0
 40
30.0
 41
0.0
 71
     5
 72
     1
  1
40
 73
     1
 44
1.0
1001
ACAD
1000
MTEXTBEGIN
1070
    73
1070
     1
1070
    44
1040
1.0
1070
    74
1070
     0
1000
MTEXTEND
  0
POINT
  5
8728
330
51E1
100
AcDbEntity
  8
Defpoints
 62
     0
100
AcDbPoint
 10
948.7710340146239
 20
1600.664804741403
 30
0.0
  0
POINT
  5
8729
330
51E1
100
AcDbEntity
  8
Defpoints
 62
     0
100
AcDbPoint
 10
1028.771034014624
 20
1600.664804741403
 30
0.0
  0
POINT
  5
872A
330
51E1
100
AcDbEntity
  8
Defpoints
 62
     0
100
AcDbPoint
 10
1028.771034014624
 20
1697.206346885678
 30
0.0
  0
ENDBLK
  5
51EC
330
51E1
100
AcDbEntity
  8
0
 62
     1
100
AcDbBlockEnd
  0
BLOCK
  5
520C
330
5202
100
AcDbEntity
  8
0
 62
     1
100
AcDbBlockBegin
  2
*D11
 70
     1
 10
0.0
 20
0.0
 30
0.0
  3
*D11
  1

  0
LINE
  5
8719
330
5202
100
AcDbEntity
  8
実形
 62
     0
370
    18
100
AcDbLine
 10
1028.771034014624
 20
1665.664804741403
 30
0.0
 11
1028.771034014624
 21
1697.206346885678
 31
0.0
  0
LINE
  5
871A
330
5202
100
AcDbEntity
  8
実形
 62
     0
370
    18
100
AcDbLine
 10
1108.771034014624
 20
1665.664804741403
 30
0.0
 11
1108.771034014624
 21
1697.206346885678
 31
0.0
  0
LINE
  5
871B
330
5202
100
AcDbEntity
  8
実形
 62
     0
370
    18
100
AcDbLine
 10
1038.771034014624
 20
1697.206346885678
 30
0.0
 11
1098.771034014624
 21
1697.206346885678
 31
0.0
  0
INSERT
  5
871C
330
5202
100
AcDbEntity
  8
実形
 62
     0
370
    18
100
AcDbBlockReference
  2
_Dot
 10
1028.771034014624
 20
1697.206346885678
 30
0.0
 41
10.0
 42
10.0
 43
10.0
 50
180.0
  0
INSERT
  5
871D
330
5202
100
AcDbEntity
  8
実形
 62
     0
370
    18
100
AcDbBlockReference
  2
_Dot
 10
1108.771034014624
 20
1697.206346885678
 30
0.0
 41
10.0
 42
10.0
 43
10.0
  0
MTEXT
  5
871E
330
5202
100
AcDbEntity
  8
実形
 62
     0
100
AcDbMText
 10
1068.771034014624
 20
1718.806346885678
 30
0.0
 40
30.0
 41
0.0
 71
     5
 72
     1
  1
40
 73
     1
 44
1.0
1001
ACAD
1000
MTEXTBEGIN
1070
    73
1070
     1
1070
    44
1040
1.0
1070
    74
1070
     0
1000
MTEXTEND
  0
POINT
  5
871F
330
5202
100
AcDbEntity
  8
Defpoints
 62
     0
100
AcDbPoint
 10
1028.771034014624
 20
1600.664804741403
 30
0.0
  0
POINT
  5
8720
330
5202
100
AcDbEntity
  8
Defpoints
 62
     0
100
AcDbPoint
 10
1108.771034014624
 20
1600.664804741403
 30
0.0
  0
POINT
  5
8721
330
5202
100
AcDbEntity
  8
Defpoints
 62
     0
100
AcDbPoint
 10
1108.771034014624
 20
1697.206346885678
 30
0.0
  0
ENDBLK
  5
520D
330
5202
100
AcDbEntity
  8
0
 62
     1
100
AcDbBlockEnd
  0
BLOCK
  5
5249
330
523F
100
AcDbEntity
  8
0
 62
     1
100
AcDbBlockBegin
  2
*D12
 70
     1
 10
0.0
 20
0.0
 30
0.0
  3
*D12
  1

  0
LINE
  5
8710
330
523F
100
AcDbEntity
  8
実形
 62
     0
370
    18
100
AcDbLine
 10
1108.771034014624
 20
1665.664804741403
 30
0.0
 11
1108.771034014624
 21
1697.206346885678
 31
0.0
  0
LINE
  5
8711
330
523F
100
AcDbEntity
  8
実形
 62
     0
370
    18
100
AcDbLine
 10
1188.771034014624
 20
1665.664804741403
 30
0.0
 11
1188.771034014624
 21
1697.206346885678
 31
0.0
  0
LINE
  5
8712
330
523F
100
AcDbEntity
  8
実形
 62
     0
370
    18
100
AcDbLine
 10
1118.771034014624
 20
1697.206346885678
 30
0.0
 11
1178.771034014624
 21
1697.206346885678
 31
0.0
  0
INSERT
  5
8713
330
523F
100
AcDbEntity
  8
実形
 62
     0
370
    18
100
AcDbBlockReference
  2
_Dot
 10
1108.771034014624
 20
1697.206346885678
 30
0.0
 41
10.0
 42
10.0
 43
10.0
 50
180.0
  0
INSERT
  5
8714
330
523F
100
AcDbEntity
  8
実形
 62
     0
370
    18
100
AcDbBlockReference
  2
_Dot
 10
1188.771034014624
 20
1697.206346885678
 30
0.0
 41
10.0
 42
10.0
 43
10.0
  0
MTEXT
  5
8715
330
523F
100
AcDbEntity
  8
実形
 62
     0
100
AcDbMText
 10
1148.771034014624
 20
1718.806346885678
 30
0.0
 40
30.0
 41
0.0
 71
     5
 72
     1
  1
40
 73
     1
 44
1.0
1001
ACAD
1000
MTEXTBEGIN
1070
    73
1070
     1
1070
    44
1040
1.0
1070
    74
1070
     0
1000
MTEXTEND
  0
POINT
  5
8716
330
523F
100
AcDbEntity
  8
Defpoints
 62
     0
100
AcDbPoint
 10
1108.771034014624
 20
1600.664804741403
 30
0.0
  0
POINT
  5
8717
330
523F
100
AcDbEntity
  8
Defpoints
 62
     0
100
AcDbPoint
 10
1188.771034014624
 20
1600.664804741403
 30
0.0
  0
POINT
  5
8718
330
523F
100
AcDbEntity
  8
Defpoints
 62
     0
100
AcDbPoint
 10
1188.771034014624
 20
1697.206346885678
 30
0.0
  0
ENDBLK
  5
524A
330
523F
100
AcDbEntity
  8
0
 62
     1
100
AcDbBlockEnd
  0
BLOCK
  5
5272
330
5268
100
AcDbEntity
  8
0
 62
     1
100
AcDbBlockBegin
  2
*D13
 70
     1
 10
0.0
 20
0.0
 30
0.0
  3
*D13
  1

  0
LINE
  5
8707
330
5268
100
AcDbEntity
  8
実形
 62
     0
370
    18
100
AcDbLine
 10
1188.771034014624
 20
1665.664804741403
 30
0.0
 11
1188.771034014624
 21
1697.206346885678
 31
0.0
  0
LINE
  5
8708
330
5268
100
AcDbEntity
  8
実形
 62
     0
370
    18
100
AcDbLine
 10
1268.771034014624
 20
1665.664804741403
 30
0.0
 11
1268.771034014624
 21
1697.206346885678
 31
0.0
  0
LINE
  5
8709
330
5268
100
AcDbEntity
  8
実形
 62
     0
370
    18
100
AcDbLine
 10
1198.771034014624
 20
1697.206346885678
 30
0.0
 11
1258.771034014624
 21
1697.206346885678
 31
0.0
  0
INSERT
  5
870A
330
5268
100
AcDbEntity
  8
実形
 62
     0
370
    18
100
AcDbBlockReference
  2
_Dot
 10
1188.771034014624
 20
1697.206346885678
 30
0.0
 41
10.0
 42
10.0
 43
10.0
 50
180.0
  0
INSERT
  5
870B
330
5268
100
AcDbEntity
  8
実形
 62
     0
370
    18
100
AcDbBlockReference
  2
_Dot
 10
1268.771034014624
 20
1697.206346885678
 30
0.0
 41
10.0
 42
10.0
 43
10.0
  0
MTEXT
  5
870C
330
5268
100
AcDbEntity
  8
実形
 62
     0
100
AcDbMText
 10
1228.771034014624
 20
1718.806346885678
 30
0.0
 40
30.0
 41
0.0
 71
     5
 72
     1
  1
40
 73
     1
 44
1.0
1001
ACAD
1000
MTEXTBEGIN
1070
    73
1070
     1
1070
    44
1040
1.0
1070
    74
1070
     0
1000
MTEXTEND
  0
POINT
  5
870D
330
5268
100
AcDbEntity
  8
Defpoints
 62
     0
100
AcDbPoint
 10
1188.771034014624
 20
1600.664804741403
 30
0.0
  0
POINT
  5
870E
330
5268
100
AcDbEntity
  8
Defpoints
 62
     0
100
AcDbPoint
 10
1268.771034014624
 20
1600.664804741403
 30
0.0
  0
POINT
  5
870F
330
5268
100
AcDbEntity
  8
Defpoints
 62
     0
100
AcDbPoint
 10
1268.771034014624
 20
1697.206346885678
 30
0.0
  0
ENDBLK
  5
5273
330
5268
100
AcDbEntity
  8
0
 62
     1
100
AcDbBlockEnd
  0
BLOCK
  5
5288
330
527E
100
AcDbEntity
  8
0
 62
     1
100
AcDbBlockBegin
  2
*D14
 70
     1
 10
0.0
 20
0.0
 30
0.0
  3
*D14
  1

  0
LINE
  5
86FE
330
527E
100
AcDbEntity
  8
実形
 62
     0
370
    18
100
AcDbLine
 10
1268.771034014624
 20
1665.664804741403
 30
0.0
 11
1268.771034014624
 21
1697.206346885678
 31
0.0
  0
LINE
  5
86FF
330
527E
100
AcDbEntity
  8
実形
 62
     0
370
    18
100
AcDbLine
 10
1318.771034014624
 20
1665.664804741403
 30
0.0
 11
1318.771034014624
 21
1697.206346885678
 31
0.0
  0
LINE
  5
8700
330
527E
100
AcDbEntity
  8
実形
 62
     0
370
    18
100
AcDbLine
 10
1278.771034014624
 20
1697.206346885678
 30
0.0
 11
1308.771034014624
 21
1697.206346885678
 31
0.0
  0
MTEXT
  5
8701
330
527E
100
AcDbEntity
  8
実形
 62
     0
100
AcDbMText
 10
1295.353832290871
 20
1643.964465581163
 30
0.0
 40
30.0
 41
0.0
 71
     5
 72
     1
  1
25
 73
     1
 44
1.0
1001
ACAD
1000
MTEXTBEGIN
1070
    73
1070
     1
1070
    44
1040
1.0
1070
    74
1070
     0
1000
MTEXTEND
  0
INSERT
  5
8702
330
527E
100
AcDbEntity
  8
実形
 62
     0
370
    18
100
AcDbBlockReference
  2
_Dot
 10
1268.771034014624
 20
1697.206346885678
 30
0.0
 41
10.0
 42
10.0
 43
10.0
 50
180.0
  0
INSERT
  5
8703
330
527E
100
AcDbEntity
  8
実形
 62
     0
370
    18
100
AcDbBlockReference
  2
_Dot
 10
1318.771034014624
 20
1697.206346885678
 30
0.0
 41
10.0
 42
10.0
 43
10.0
  0
POINT
  5
8704
330
527E
100
AcDbEntity
  8
Defpoints
 62
     0
100
AcDbPoint
 10
1268.771034014624
 20
1600.664804741403
 30
0.0
  0
POINT
  5
8705
330
527E
100
AcDbEntity
  8
Defpoints
 62
     0
100
AcDbPoint
 10
1318.771034014624
 20
1600.664804741403
 30
0.0
  0
POINT
  5
8706
330
527E
100
AcDbEntity
  8
Defpoints
 62
     0
100
AcDbPoint
 10
1318.771034014624
 20
1697.206346885678
 30
0.0
  0
ENDBLK
  5
5289
330
527E
100
AcDbEntity
  8
0
 62
     1
100
AcDbBlockEnd
  0
BLOCK
  5
52B2
330
52A8
100
AcDbEntity
  8
0
 62
     1
100
AcDbBlockBegin
  2
*D15
 70
     1
 10
0.0
 20
0.0
 30
0.0
  3
*D15
  1

  0
LINE
  5
86F5
330
52A8
100
AcDbEntity
  8
実形
 62
     0
370
    18
100
AcDbLine
 10
1318.771034014624
 20
1665.664804741403
 30
0.0
 11
1318.771034014624
 21
1697.206346885678
 31
0.0
  0
LINE
  5
86F6
330
52A8
100
AcDbEntity
  8
実形
 62
     0
370
    18
100
AcDbLine
 10
1358.771034014624
 20
1665.664804741403
 30
0.0
 11
1358.771034014624
 21
1697.206346885678
 31
0.0
  0
LINE
  5
86F7
330
52A8
100
AcDbEntity
  8
実形
 62
     0
370
    18
100
AcDbLine
 10
1328.771034014624
 20
1697.206346885678
 30
0.0
 11
1348.771034014624
 21
1697.206346885678
 31
0.0
  0
MTEXT
  5
86F8
330
52A8
100
AcDbEntity
  8
実形
 62
     0
100
AcDbMText
 10
1394.004490709541
 20
1741.678415130965
 30
0.0
 40
30.0
 41
0.0
 71
     5
 72
     1
  1
20
 73
     1
 44
1.0
1001
ACAD
1000
MTEXTBEGIN
1070
    73
1070
     1
1070
    44
1040
1.0
1070
    74
1070
     0
1000
MTEXTEND
  0
INSERT
  5
86F9
330
52A8
100
AcDbEntity
  8
実形
 62
     0
370
    18
100
AcDbBlockReference
  2
_Dot
 10
1318.771034014624
 20
1697.206346885678
 30
0.0
 41
10.0
 42
10.0
 43
10.0
 50
180.0
  0
INSERT
  5
86FA
330
52A8
100
AcDbEntity
  8
実形
 62
     0
370
    18
100
AcDbBlockReference
  2
_Dot
 10
1358.771034014624
 20
1697.206346885678
 30
0.0
 41
10.0
 42
10.0
 43
10.0
  0
POINT
  5
86FB
330
52A8
100
AcDbEntity
  8
Defpoints
 62
     0
100
AcDbPoint
 10
1318.771034014624
 20
1600.664804741403
 30
0.0
  0
POINT
  5
86FC
330
52A8
100
AcDbEntity
  8
Defpoints
 62
     0
100
AcDbPoint
 10
1358.771034014624
 20
1600.664804741403
 30
0.0
  0
POINT
  5
86FD
330
52A8
100
AcDbEntity
  8
Defpoints
 62
     0
100
AcDbPoint
 10
1358.771034014624
 20
1697.206346885678
 30
0.0
  0
ENDBLK
  5
52B3
330
52A8
100
AcDbEntity
  8
0
 62
     1
100
AcDbBlockEnd
  0
BLOCK
  5
5346
330
533C
100
AcDbEntity
  8
0
 62
     1
100
AcDbBlockBegin
  2
*D16
 70
     1
 10
0.0
 20
0.0
 30
0.0
  3
*D16
  1

  0
LINE
  5
86EC
330
533C
100
AcDbEntity
  8
実形
 62
     0
370
    18
100
AcDbLine
 10
858.7710340146243
 20
1665.664804741403
 30
0.0
 11
858.7710340146243
 21
1835.900840620273
 31
0.0
  0
LINE
  5
86ED
330
533C
100
AcDbEntity
  8
実形
 62
     0
370
    18
100
AcDbLine
 10
1358.771034014624
 20
1665.664804741403
 30
0.0
 11
1358.771034014624
 21
1835.900840620273
 31
0.0
  0
LINE
  5
86EE
330
533C
100
AcDbEntity
  8
実形
 62
     0
370
    18
100
AcDbLine
 10
868.7710340146239
 20
1835.900840620273
 30
0.0
 11
1348.771034014624
 21
1835.900840620273
 31
0.0
  0
INSERT
  5
86EF
330
533C
100
AcDbEntity
  8
実形
 62
     0
370
    18
100
AcDbBlockReference
  2
_Dot
 10
858.7710340146243
 20
1835.900840620273
 30
0.0
 41
10.0
 42
10.0
 43
10.0
 50
180.0
  0
INSERT
  5
86F0
330
533C
100
AcDbEntity
  8
実形
 62
     0
370
    18
100
AcDbBlockReference
  2
_Dot
 10
1358.771034014624
 20
1835.900840620273
 30
0.0
 41
10.0
 42
10.0
 43
10.0
  0
MTEXT
  5
86F1
330
533C
100
AcDbEntity
  8
実形
 62
     0
100
AcDbMText
 10
1108.771034014624
 20
1857.500840620273
 30
0.0
 40
30.0
 41
0.0
 71
     5
 72
     1
  1
250
 73
     1
 44
1.0
1001
ACAD
1000
MTEXTBEGIN
1070
    73
1070
     1
1070
    44
1040
1.0
1070
    74
1070
     0
1000
MTEXTEND
  0
POINT
  5
86F2
330
533C
100
AcDbEntity
  8
Defpoints
 62
     0
100
AcDbPoint
 10
858.7710340146243
 20
1600.664804741403
 30
0.0
  0
POINT
  5
86F3
330
533C
100
AcDbEntity
  8
Defpoints
 62
     0
100
AcDbPoint
 10
1358.771034014624
 20
1600.664804741403
 30
0.0
  0
POINT
  5
86F4
330
533C
100
AcDbEntity
  8
Defpoints
 62
     0
100
AcDbPoint
 10
1358.771034014624
 20
1835.900840620273
 30
0.0
  0
ENDBLK
  5
5347
330
533C
100
AcDbEntity
  8
0
 62
     1
100
AcDbBlockEnd
  0
BLOCK
  5
5380
330
5376
100
AcDbEntity
  8
0
 62
     1
100
AcDbBlockBegin
  2
*D17
 70
     1
 10
0.0
 20
0.0
 30
0.0
  3
*D17
  1

  0
LINE
  5
877C
330
5376
100
AcDbEntity
  8
実形
 62
     0
370
    18
100
AcDbLine
 10
752.9424506651629
 20
1605.580390790751
 30
0.0
 11
722.2887743570717
 21
1605.580390790751
 31
0.0
  0
LINE
  5
877D
330
5376
100
AcDbEntity
  8
実形
 62
     0
370
    18
100
AcDbLine
 10
753.3502058085249
 20
1565.580390790751
 30
0.0
 11
722.2887743570717
 21
1565.580390790751
 31
0.0
  0
LINE
  5
877E
330
5376
100
AcDbEntity
  8
実形
 62
     0
370
    18
100
AcDbLine
 10
722.2887743570717
 20
1595.580390790751
 30
0.0
 11
722.2887743570717
 21
1575.580390790751
 31
0.0
  0
MTEXT
  5
877F
330
5376
100
AcDbEntity
  8
実形
 62
     0
100
AcDbMText
 10
693.5458459594245
 20
1575.541143657913
 30
0.0
 40
30.0
 41
0.0
 71
     5
 72
     1
  1
20
 11
0.0000000000000001
 21
1.0
 31
0.0
 73
     1
 44
1.0
1001
ACAD
1000
MTEXTBEGIN
1070
    73
1070
     1
1070
    44
1040
1.0
1070
    74
1070
     0
1000
MTEXTEND
  0
INSERT
  5
8780
330
5376
100
AcDbEntity
  8
実形
 62
     0
370
    18
100
AcDbBlockReference
  2
_Dot
 10
722.2887743570717
 20
1605.580390790751
 30
0.0
 41
10.0
 42
10.0
 43
10.0
 50
90.0
  0
INSERT
  5
8781
330
5376
100
AcDbEntity
  8
実形
 62
     0
370
    18
100
AcDbBlockReference
  2
_Dot
 10
722.2887743570717
 20
1565.580390790751
 30
0.0
 41
10.0
 42
10.0
 43
10.0
 50
270.0
  0
POINT
  5
8782
330
5376
100
AcDbEntity
  8
Defpoints
 62
     0
100
AcDbPoint
 10
817.942450665163
 20
1605.580390790751
 30
0.0
  0
POINT
  5
8783
330
5376
100
AcDbEntity
  8
Defpoints
 62
     0
100
AcDbPoint
 10
818.3502058085251
 20
1565.580390790751
 30
0.0
  0
POINT
  5
8784
330
5376
100
AcDbEntity
  8
Defpoints
 62
     0
100
AcDbPoint
 10
722.2887743570717
 20
1565.580390790751
 30
0.0
  0
ENDBLK
  5
5381
330
5376
100
AcDbEntity
  8
0
 62
     1
100
AcDbBlockEnd
  0
BLOCK
  5
539F
330
5395
100
AcDbEntity
  8
0
 62
     1
100
AcDbBlockBegin
  2
*D18
 70
     1
 10
0.0
 20
0.0
 30
0.0
  3
*D18
  1

  0
LINE
  5
8773
330
5395
100
AcDbEntity
  8
実形
 62
     0
370
    18
100
AcDbLine
 10
753.3502058085249
 20
1565.580390790751
 30
0.0
 11
722.2887743570717
 21
1565.580390790751
 31
0.0
  0
LINE
  5
8774
330
5395
100
AcDbEntity
  8
実形
 62
     0
370
    18
100
AcDbLine
 10
753.3502058085249
 20
1501.580390790751
 30
0.0
 11
722.2887743570717
 21
1501.580390790751
 31
0.0
  0
LINE
  5
8775
330
5395
100
AcDbEntity
  8
実形
 62
     0
370
    18
100
AcDbLine
 10
722.2887743570717
 20
1555.580390790751
 30
0.0
 11
722.2887743570717
 21
1511.580390790751
 31
0.0
  0
MTEXT
  5
8776
330
5395
100
AcDbEntity
  8
実形
 62
     0
100
AcDbMText
 10
783.9032377873027
 20
1533.279331203722
 30
0.0
 40
30.0
 41
0.0
 71
     5
 72
     1
  1
32
 11
0.0000000000000001
 21
1.0
 31
0.0
 73
     1
 44
1.0
1001
ACAD
1000
MTEXTBEGIN
1070
    73
1070
     1
1070
    44
1040
1.0
1070
    74
1070
     0
1000
MTEXTEND
  0
INSERT
  5
8777
330
5395
100
AcDbEntity
  8
実形
 62
     0
370
    18
100
AcDbBlockReference
  2
_Dot
 10
722.2887743570717
 20
1565.580390790751
 30
0.0
 41
10.0
 42
10.0
 43
10.0
 50
90.0
  0
INSERT
  5
8778
330
5395
100
AcDbEntity
  8
実形
 62
     0
370
    18
100
AcDbBlockReference
  2
_Dot
 10
722.2887743570717
 20
1501.580390790751
 30
0.0
 41
10.0
 42
10.0
 43
10.0
 50
270.0
  0
POINT
  5
8779
330
5395
100
AcDbEntity
  8
Defpoints
 62
     0
100
AcDbPoint
 10
818.3502058085251
 20
1565.580390790751
 30
0.0
  0
POINT
  5
877A
330
5395
100
AcDbEntity
  8
Defpoints
 62
     0
100
AcDbPoint
 10
818.3502058085251
 20
1501.580390790751
 30
0.0
  0
POINT
  5
877B
330
5395
100
AcDbEntity
  8
Defpoints
 62
     0
100
AcDbPoint
 10
722.2887743570717
 20
1501.580390790751
 30
0.0
  0
ENDBLK
  5
53A0
330
5395
100
AcDbEntity
  8
0
 62
     1
100
AcDbBlockEnd
  0
BLOCK
  5
53C7
330
53BD
100
AcDbEntity
  8
0
 62
     1
100
AcDbBlockBegin
  2
*D19
 70
     1
 10
0.0
 20
0.0
 30
0.0
  3
*D19
  1

  0
LINE
  5
86AD
330
53BD
100
AcDbEntity
  8
実形
 62
     0
370
    18
100
AcDbLine
 10
752.0228547387342
 20
1605.580390790751
 30
0.0
 11
555.3174060899785
 21
1605.580390790751
 31
0.0
  0
LINE
  5
86AE
330
53BD
100
AcDbEntity
  8
実形
 62
     0
370
    18
100
AcDbLine
 10
720.6471586503377
 20
837.5803907907512
 30
0.0
 11
555.3174060899785
 21
837.5803907907512
 31
0.0
  0
LINE
  5
86AF
330
53BD
100
AcDbEntity
  8
実形
 62
     0
370
    18
100
AcDbLine
 10
555.3174060899785
 20
1595.580390790751
 30
0.0
 11
555.3174060899785
 21
847.5803907907511
 31
0.0
  0
INSERT
  5
86B0
330
53BD
100
AcDbEntity
  8
実形
 62
     0
370
    18
100
AcDbBlockReference
  2
_Dot
 10
555.3174060899785
 20
1605.580390790751
 30
0.0
 41
10.0
 42
10.0
 43
10.0
 50
90.0
  0
INSERT
  5
86B1
330
53BD
100
AcDbEntity
  8
実形
 62
     0
370
    18
100
AcDbBlockReference
  2
_Dot
 10
555.3174060899785
 20
837.5803907907512
 30
0.0
 41
10.0
 42
10.0
 43
10.0
 50
270.0
  0
MTEXT
  5
86B2
330
53BD
100
AcDbEntity
  8
実形
 62
     0
100
AcDbMText
 10
533.7174060899783
 20
1221.580390790751
 30
0.0
 40
30.0
 41
0.0
 71
     5
 72
     1
  1
384
 11
0.0000000000000001
 21
1.0
 31
0.0
 73
     1
 44
1.0
1001
ACAD
1000
MTEXTBEGIN
1070
    73
1070
     1
1070
    44
1040
1.0
1070
    74
1070
     0
1000
MTEXTEND
  0
POINT
  5
86B3
330
53BD
100
AcDbEntity
  8
Defpoints
 62
     0
100
AcDbPoint
 10
817.0228547387342
 20
1605.580390790751
 30
0.0
  0
POINT
  5
86B4
330
53BD
100
AcDbEntity
  8
Defpoints
 62
     0
100
AcDbPoint
 10
785.6471586503374
 20
837.5803907907512
 30
0.0
  0
POINT
  5
86B5
330
53BD
100
AcDbEntity
  8
Defpoints
 62
     0
100
AcDbPoint
 10
555.3174060899785
 20
837.5803907907512
 30
0.0
  0
ENDBLK
  5
53C8
330
53BD
100
AcDbEntity
  8
0
 62
     1
100
AcDbBlockEnd
  0
BLOCK
  5
53E6
330
53DC
100
AcDbEntity
  8
0
 62
     1
100
AcDbBlockBegin
  2
*D20
 70
     1
 10
0.0
 20
0.0
 30
0.0
  3
*D20
  1

  0
LINE
  5
876A
330
53DC
100
AcDbEntity
  8
実形
 62
     0
370
    18
100
AcDbLine
 10
753.3502058085249
 20
1501.580390790751
 30
0.0
 11
722.2887743570717
 21
1501.580390790751
 31
0.0
  0
LINE
  5
876B
330
53DC
100
AcDbEntity
  8
実形
 62
     0
370
    18
100
AcDbLine
 10
753.3502058085249
 20
1421.580390790751
 30
0.0
 11
722.2887743570717
 21
1421.580390790751
 31
0.0
  0
LINE
  5
876C
330
53DC
100
AcDbEntity
  8
実形
 62
     0
370
    18
100
AcDbLine
 10
722.2887743570717
 20
1491.580390790751
 30
0.0
 11
722.2887743570717
 21
1431.580390790751
 31
0.0
  0
INSERT
  5
876D
330
53DC
100
AcDbEntity
  8
実形
 62
     0
370
    18
100
AcDbBlockReference
  2
_Dot
 10
722.2887743570717
 20
1501.580390790751
 30
0.0
 41
10.0
 42
10.0
 43
10.0
 50
90.0
  0
INSERT
  5
876E
330
53DC
100
AcDbEntity
  8
実形
 62
     0
370
    18
100
AcDbBlockReference
  2
_Dot
 10
722.2887743570717
 20
1421.580390790751
 30
0.0
 41
10.0
 42
10.0
 43
10.0
 50
270.0
  0
MTEXT
  5
876F
330
53DC
100
AcDbEntity
  8
実形
 62
     0
100
AcDbMText
 10
700.6887743570715
 20
1461.580390790751
 30
0.0
 40
30.0
 41
0.0
 71
     5
 72
     1
  1
40
 11
0.0000000000000001
 21
1.0
 31
0.0
 73
     1
 44
1.0
1001
ACAD
1000
MTEXTBEGIN
1070
    73
1070
     1
1070
    44
1040
1.0
1070
    74
1070
     0
1000
MTEXTEND
  0
POINT
  5
8770
330
53DC
100
AcDbEntity
  8
Defpoints
 62
     0
100
AcDbPoint
 10
818.3502058085251
 20
1501.580390790751
 30
0.0
  0
POINT
  5
8771
330
53DC
100
AcDbEntity
  8
Defpoints
 62
     0
100
AcDbPoint
 10
818.3502058085251
 20
1421.580390790751
 30
0.0
  0
POINT
  5
8772
330
53DC
100
AcDbEntity
  8
Defpoints
 62
     0
100
AcDbPoint
 10
722.2887743570717
 20
1421.580390790751
 30
0.0
  0
ENDBLK
  5
53E7
330
53DC
100
AcDbEntity
  8
0
 62
     1
100
AcDbBlockEnd
  0
BLOCK
  5
5442
330
5438
100
AcDbEntity
  8
0
 62
     1
100
AcDbBlockBegin
  2
*D21
 70
     1
 10
0.0
 20
0.0
 30
0.0
  3
*D21
  1

  0
LINE
  5
8761
330
5438
100
AcDbEntity
  8
実形
 62
     0
370
    18
100
AcDbLine
 10
753.3502058085249
 20
1421.580390790751
 30
0.0
 11
722.2887743570717
 21
1421.580390790751
 31
0.0
  0
LINE
  5
8762
330
5438
100
AcDbEntity
  8
実形
 62
     0
370
    18
100
AcDbLine
 10
753.3502058085249
 20
1341.580390790751
 30
0.0
 11
722.2887743570717
 21
1341.580390790751
 31
0.0
  0
LINE
  5
8763
330
5438
100
AcDbEntity
  8
実形
 62
     0
370
    18
100
AcDbLine
 10
722.2887743570717
 20
1411.580390790751
 30
0.0
 11
722.2887743570717
 21
1351.580390790751
 31
0.0
  0
INSERT
  5
8764
330
5438
100
AcDbEntity
  8
実形
 62
     0
370
    18
100
AcDbBlockReference
  2
_Dot
 10
722.2887743570717
 20
1421.580390790751
 30
0.0
 41
10.0
 42
10.0
 43
10.0
 50
90.0
  0
INSERT
  5
8765
330
5438
100
AcDbEntity
  8
実形
 62
     0
370
    18
100
AcDbBlockReference
  2
_Dot
 10
722.2887743570717
 20
1341.580390790751
 30
0.0
 41
10.0
 42
10.0
 43
10.0
 50
270.0
  0
MTEXT
  5
8766
330
5438
100
AcDbEntity
  8
実形
 62
     0
100
AcDbMText
 10
700.6887743570715
 20
1381.580390790751
 30
0.0
 40
30.0
 41
0.0
 71
     5
 72
     1
  1
40
 11
0.0000000000000001
 21
1.0
 31
0.0
 73
     1
 44
1.0
1001
ACAD
1000
MTEXTBEGIN
1070
    73
1070
     1
1070
    44
1040
1.0
1070
    74
1070
     0
1000
MTEXTEND
  0
POINT
  5
8767
330
5438
100
AcDbEntity
  8
Defpoints
 62
     0
100
AcDbPoint
 10
818.3502058085251
 20
1421.580390790751
 30
0.0
  0
POINT
  5
8768
330
5438
100
AcDbEntity
  8
Defpoints
 62
     0
100
AcDbPoint
 10
818.3502058085251
 20
1341.580390790751
 30
0.0
  0
POINT
  5
8769
330
5438
100
AcDbEntity
  8
Defpoints
 62
     0
100
AcDbPoint
 10
722.2887743570717
 20
1341.580390790751
 30
0.0
  0
ENDBLK
  5
5443
330
5438
100
AcDbEntity
  8
0
 62
     1
100
AcDbBlockEnd
  0
BLOCK
  5
5494
330
548A
100
AcDbEntity
  8
0
 62
     1
100
AcDbBlockBegin
  2
*D22
 70
     1
 10
0.0
 20
0.0
 30
0.0
  3
*D22
  1

  0
LINE
  5
873D
330
548A
100
AcDbEntity
  8
実形
 62
     0
370
    18
100
AcDbLine
 10
753.3502058085249
 20
1341.580390790751
 30
0.0
 11
722.2887743570717
 21
1341.580390790751
 31
0.0
  0
LINE
  5
873E
330
548A
100
AcDbEntity
  8
実形
 62
     0
370
    18
100
AcDbLine
 10
753.3502058085249
 20
1261.580390790751
 30
0.0
 11
722.2887743570717
 21
1261.580390790751
 31
0.0
  0
LINE
  5
873F
330
548A
100
AcDbEntity
  8
実形
 62
     0
370
    18
100
AcDbLine
 10
722.2887743570717
 20
1331.580390790751
 30
0.0
 11
722.2887743570717
 21
1271.580390790751
 31
0.0
  0
INSERT
  5
8740
330
548A
100
AcDbEntity
  8
実形
 62
     0
370
    18
100
AcDbBlockReference
  2
_Dot
 10
722.2887743570717
 20
1341.580390790751
 30
0.0
 41
10.0
 42
10.0
 43
10.0
 50
90.0
  0
INSERT
  5
8741
330
548A
100
AcDbEntity
  8
実形
 62
     0
370
    18
100
AcDbBlockReference
  2
_Dot
 10
722.2887743570717
 20
1261.580390790751
 30
0.0
 41
10.0
 42
10.0
 43
10.0
 50
270.0
  0
MTEXT
  5
8742
330
548A
100
AcDbEntity
  8
実形
 62
     0
100
AcDbMText
 10
700.6887743570716
 20
1301.580390790751
 30
0.0
 40
30.0
 41
0.0
 71
     5
 72
     1
  1
40
 11
0.0000000000000001
 21
1.0
 31
0.0
 73
     1
 44
1.0
1001
ACAD
1000
MTEXTBEGIN
1070
    73
1070
     1
1070
    44
1040
1.0
1070
    74
1070
     0
1000
MTEXTEND
  0
POINT
  5
8743
330
548A
100
AcDbEntity
  8
Defpoints
 62
     0
100
AcDbPoint
 10
818.3502058085251
 20
1341.580390790751
 30
0.0
  0
POINT
  5
8744
330
548A
100
AcDbEntity
  8
Defpoints
 62
     0
100
AcDbPoint
 10
818.3502058085251
 20
1261.580390790751
 30
0.0
  0
POINT
  5
8745
330
548A
100
AcDbEntity
  8
Defpoints
 62
     0
100
AcDbPoint
 10
722.2887743570717
 20
1261.580390790751
 30
0.0
  0
ENDBLK
  5
5495
330
548A
100
AcDbEntity
  8
0
 62
     1
100
AcDbBlockEnd
  0
BLOCK
  5
54BD
330
54B3
100
AcDbEntity
  8
0
 62
     1
100
AcDbBlockBegin
  2
*D23
 70
     1
 10
0.0
 20
0.0
 30
0.0
  3
*D23
  1

  0
LINE
  5
8758
330
54B3
100
AcDbEntity
  8
実形
 62
     0
370
    18
100
AcDbLine
 10
753.3502058085249
 20
1261.580390790751
 30
0.0
 11
722.2887743570717
 21
1261.580390790751
 31
0.0
  0
LINE
  5
8759
330
54B3
100
AcDbEntity
  8
実形
 62
     0
370
    18
100
AcDbLine
 10
753.3502058085249
 20
1181.580390790751
 30
0.0
 11
722.2887743570717
 21
1181.580390790751
 31
0.0
  0
LINE
  5
875A
330
54B3
100
AcDbEntity
  8
実形
 62
     0
370
    18
100
AcDbLine
 10
722.2887743570717
 20
1251.580390790751
 30
0.0
 11
722.2887743570717
 21
1191.580390790751
 31
0.0
  0
INSERT
  5
875B
330
54B3
100
AcDbEntity
  8
実形
 62
     0
370
    18
100
AcDbBlockReference
  2
_Dot
 10
722.2887743570717
 20
1261.580390790751
 30
0.0
 41
10.0
 42
10.0
 43
10.0
 50
90.0
  0
INSERT
  5
875C
330
54B3
100
AcDbEntity
  8
実形
 62
     0
370
    18
100
AcDbBlockReference
  2
_Dot
 10
722.2887743570717
 20
1181.580390790751
 30
0.0
 41
10.0
 42
10.0
 43
10.0
 50
270.0
  0
MTEXT
  5
875D
330
54B3
100
AcDbEntity
  8
実形
 62
     0
100
AcDbMText
 10
700.6887743570716
 20
1221.580390790751
 30
0.0
 40
30.0
 41
0.0
 71
     5
 72
     1
  1
40
 11
0.0000000000000001
 21
1.0
 31
0.0
 73
     1
 44
1.0
1001
ACAD
1000
MTEXTBEGIN
1070
    73
1070
     1
1070
    44
1040
1.0
1070
    74
1070
     0
1000
MTEXTEND
  0
POINT
  5
875E
330
54B3
100
AcDbEntity
  8
Defpoints
 62
     0
100
AcDbPoint
 10
818.3502058085251
 20
1261.580390790751
 30
0.0
  0
POINT
  5
875F
330
54B3
100
AcDbEntity
  8
Defpoints
 62
     0
100
AcDbPoint
 10
818.3502058085251
 20
1181.580390790751
 30
0.0
  0
POINT
  5
8760
330
54B3
100
AcDbEntity
  8
Defpoints
 62
     0
100
AcDbPoint
 10
722.2887743570717
 20
1181.580390790751
 30
0.0
  0
ENDBLK
  5
54BE
330
54B3
100
AcDbEntity
  8
0
 62
     1
100
AcDbBlockEnd
  0
BLOCK
  5
54E6
330
54DC
100
AcDbEntity
  8
0
 62
     1
100
AcDbBlockBegin
  2
*D24
 70
     1
 10
0.0
 20
0.0
 30
0.0
  3
*D24
  1

  0
LINE
  5
874F
330
54DC
100
AcDbEntity
  8
実形
 62
     0
370
    18
100
AcDbLine
 10
753.3502058085249
 20
1181.580390790751
 30
0.0
 11
722.2887743570717
 21
1181.580390790751
 31
0.0
  0
LINE
  5
8750
330
54DC
100
AcDbEntity
  8
実形
 62
     0
370
    18
100
AcDbLine
 10
753.3502058085249
 20
1101.580390790751
 30
0.0
 11
722.2887743570717
 21
1101.580390790751
 31
0.0
  0
LINE
  5
8751
330
54DC
100
AcDbEntity
  8
実形
 62
     0
370
    18
100
AcDbLine
 10
722.2887743570717
 20
1171.580390790751
 30
0.0
 11
722.2887743570717
 21
1111.580390790751
 31
0.0
  0
INSERT
  5
8752
330
54DC
100
AcDbEntity
  8
実形
 62
     0
370
    18
100
AcDbBlockReference
  2
_Dot
 10
722.2887743570717
 20
1181.580390790751
 30
0.0
 41
10.0
 42
10.0
 43
10.0
 50
90.0
  0
INSERT
  5
8753
330
54DC
100
AcDbEntity
  8
実形
 62
     0
370
    18
100
AcDbBlockReference
  2
_Dot
 10
722.2887743570717
 20
1101.580390790751
 30
0.0
 41
10.0
 42
10.0
 43
10.0
 50
270.0
  0
MTEXT
  5
8754
330
54DC
100
AcDbEntity
  8
実形
 62
     0
100
AcDbMText
 10
700.6887743570716
 20
1141.580390790751
 30
0.0
 40
30.0
 41
0.0
 71
     5
 72
     1
  1
40
 11
0.0000000000000001
 21
1.0
 31
0.0
 73
     1
 44
1.0
1001
ACAD
1000
MTEXTBEGIN
1070
    73
1070
     1
1070
    44
1040
1.0
1070
    74
1070
     0
1000
MTEXTEND
  0
POINT
  5
8755
330
54DC
100
AcDbEntity
  8
Defpoints
 62
     0
100
AcDbPoint
 10
818.3502058085251
 20
1181.580390790751
 30
0.0
  0
POINT
  5
8756
330
54DC
100
AcDbEntity
  8
Defpoints
 62
     0
100
AcDbPoint
 10
818.3502058085251
 20
1101.580390790751
 30
0.0
  0
POINT
  5
8757
330
54DC
100
AcDbEntity
  8
Defpoints
 62
     0
100
AcDbPoint
 10
722.2887743570717
 20
1101.580390790751
 30
0.0
  0
ENDBLK
  5
54E7
330
54DC
100
AcDbEntity
  8
0
 62
     1
100
AcDbBlockEnd
  0
BLOCK
  5
550F
330
5505
100
AcDbEntity
  8
0
 62
     1
100
AcDbBlockBegin
  2
*D25
 70
     1
 10
0.0
 20
0.0
 30
0.0
  3
*D25
  1

  0
LINE
  5
8746
330
5505
100
AcDbEntity
  8
実形
 62
     0
370
    18
100
AcDbLine
 10
753.3502058085249
 20
1101.580390790751
 30
0.0
 11
722.2887743570717
 21
1101.580390790751
 31
0.0
  0
LINE
  5
8747
330
5505
100
AcDbEntity
  8
実形
 62
     0
370
    18
100
AcDbLine
 10
753.3502058085249
 20
1021.580390790751
 30
0.0
 11
722.2887743570717
 21
1021.580390790751
 31
0.0
  0
LINE
  5
8748
330
5505
100
AcDbEntity
  8
実形
 62
     0
370
    18
100
AcDbLine
 10
722.2887743570717
 20
1091.580390790751
 30
0.0
 11
722.2887743570717
 21
1031.580390790751
 31
0.0
  0
INSERT
  5
8749
330
5505
100
AcDbEntity
  8
実形
 62
     0
370
    18
100
AcDbBlockReference
  2
_Dot
 10
722.2887743570717
 20
1101.580390790751
 30
0.0
 41
10.0
 42
10.0
 43
10.0
 50
90.0
  0
INSERT
  5
874A
330
5505
100
AcDbEntity
  8
実形
 62
     0
370
    18
100
AcDbBlockReference
  2
_Dot
 10
722.2887743570717
 20
1021.580390790751
 30
0.0
 41
10.0
 42
10.0
 43
10.0
 50
270.0
  0
MTEXT
  5
874B
330
5505
100
AcDbEntity
  8
実形
 62
     0
100
AcDbMText
 10
700.6887743570716
 20
1061.580390790751
 30
0.0
 40
30.0
 41
0.0
 71
     5
 72
     1
  1
40
 11
0.0000000000000001
 21
1.0
 31
0.0
 73
     1
 44
1.0
1001
ACAD
1000
MTEXTBEGIN
1070
    73
1070
     1
1070
    44
1040
1.0
1070
    74
1070
     0
1000
MTEXTEND
  0
POINT
  5
874C
330
5505
100
AcDbEntity
  8
Defpoints
 62
     0
100
AcDbPoint
 10
818.3502058085251
 20
1101.580390790751
 30
0.0
  0
POINT
  5
874D
330
5505
100
AcDbEntity
  8
Defpoints
 62
     0
100
AcDbPoint
 10
818.3502058085251
 20
1021.580390790751
 30
0.0
  0
POINT
  5
874E
330
5505
100
AcDbEntity
  8
Defpoints
 62
     0
100
AcDbPoint
 10
722.2887743570717
 20
1021.580390790751
 30
0.0
  0
ENDBLK
  5
5510
330
5505
100
AcDbEntity
  8
0
 62
     1
100
AcDbBlockEnd
  0
BLOCK
  5
5538
330
552E
100
AcDbEntity
  8
0
 62
     1
100
AcDbBlockBegin
  2
*D26
 70
     1
 10
0.0
 20
0.0
 30
0.0
  3
*D26
  1

  0
LINE
  5
86A4
330
552E
100
AcDbEntity
  8
実形
 62
     0
370
    18
100
AcDbLine
 10
753.3502058085249
 20
1021.580390790751
 30
0.0
 11
722.2887743570717
 21
1021.580390790751
 31
0.0
  0
LINE
  5
86A5
330
552E
100
AcDbEntity
  8
実形
 62
     0
370
    18
100
AcDbLine
 10
753.3502058085249
 20
941.5803907907511
 30
0.0
 11
722.2887743570717
 21
941.5803907907511
 31
0.0
  0
LINE
  5
86A6
330
552E
100
AcDbEntity
  8
実形
 62
     0
370
    18
100
AcDbLine
 10
722.2887743570717
 20
1011.580390790751
 30
0.0
 11
722.2887743570717
 21
951.580390790751
 31
0.0
  0
INSERT
  5
86A7
330
552E
100
AcDbEntity
  8
実形
 62
     0
370
    18
100
AcDbBlockReference
  2
_Dot
 10
722.2887743570717
 20
1021.580390790751
 30
0.0
 41
10.0
 42
10.0
 43
10.0
 50
90.0
  0
INSERT
  5
86A8
330
552E
100
AcDbEntity
  8
実形
 62
     0
370
    18
100
AcDbBlockReference
  2
_Dot
 10
722.2887743570717
 20
941.5803907907511
 30
0.0
 41
10.0
 42
10.0
 43
10.0
 50
270.0
  0
MTEXT
  5
86A9
330
552E
100
AcDbEntity
  8
実形
 62
     0
100
AcDbMText
 10
700.6887743570716
 20
981.5803907907511
 30
0.0
 40
30.0
 41
0.0
 71
     5
 72
     1
  1
40
 11
0.0000000000000001
 21
1.0
 31
0.0
 73
     1
 44
1.0
1001
ACAD
1000
MTEXTBEGIN
1070
    73
1070
     1
1070
    44
1040
1.0
1070
    74
1070
     0
1000
MTEXTEND
  0
POINT
  5
86AA
330
552E
100
AcDbEntity
  8
Defpoints
 62
     0
100
AcDbPoint
 10
818.3502058085251
 20
1021.580390790751
 30
0.0
  0
POINT
  5
86AB
330
552E
100
AcDbEntity
  8
Defpoints
 62
     0
100
AcDbPoint
 10
818.3502058085251
 20
941.5803907907511
 30
0.0
  0
POINT
  5
86AC
330
552E
100
AcDbEntity
  8
Defpoints
 62
     0
100
AcDbPoint
 10
722.2887743570717
 20
941.5803907907511
 30
0.0
  0
ENDBLK
  5
5539
330
552E
100
AcDbEntity
  8
0
 62
     1
100
AcDbBlockEnd
  0
BLOCK
  5
5562
330
5558
100
AcDbEntity
  8
0
 62
     1
100
AcDbBlockBegin
  2
*D27
 70
     1
 10
0.0
 20
0.0
 30
0.0
  3
*D27
  1

  0
LINE
  5
86E3
330
5558
100
AcDbEntity
  8
実形
 62
     0
370
    18
100
AcDbLine
 10
753.3502058085253
 20
941.5803907907511
 30
0.0
 11
722.288774357072
 21
941.5803907907511
 31
0.0
  0
LINE
  5
86E4
330
5558
100
AcDbEntity
  8
実形
 62
     0
370
    18
100
AcDbLine
 10
753.3502058085253
 20
877.5803907907512
 30
0.0
 11
722.288774357072
 21
877.5803907907512
 31
0.0
  0
LINE
  5
86E5
330
5558
100
AcDbEntity
  8
実形
 62
     0
370
    18
100
AcDbLine
 10
722.288774357072
 20
931.5803907907511
 30
0.0
 11
722.288774357072
 21
887.5803907907512
 31
0.0
  0
MTEXT
  5
86E6
330
5558
100
AcDbEntity
  8
実形
 62
     0
100
AcDbMText
 10
781.1468038694856
 20
911.998880828818
 30
0.0
 40
30.0
 41
0.0
 71
     5
 72
     1
  1
32
 11
0.0000000000000001
 21
1.0
 31
0.0
 73
     1
 44
1.0
1001
ACAD
1000
MTEXTBEGIN
1070
    73
1070
     1
1070
    44
1040
1.0
1070
    74
1070
     0
1000
MTEXTEND
  0
INSERT
  5
86E7
330
5558
100
AcDbEntity
  8
実形
 62
     0
370
    18
100
AcDbBlockReference
  2
_Dot
 10
722.288774357072
 20
941.5803907907511
 30
0.0
 41
10.0
 42
10.0
 43
10.0
 50
90.0
  0
INSERT
  5
86E8
330
5558
100
AcDbEntity
  8
実形
 62
     0
370
    18
100
AcDbBlockReference
  2
_Dot
 10
722.288774357072
 20
877.5803907907512
 30
0.0
 41
10.0
 42
10.0
 43
10.0
 50
270.0
  0
POINT
  5
86E9
330
5558
100
AcDbEntity
  8
Defpoints
 62
     0
100
AcDbPoint
 10
818.3502058085252
 20
941.5803907907511
 30
0.0
  0
POINT
  5
86EA
330
5558
100
AcDbEntity
  8
Defpoints
 62
     0
100
AcDbPoint
 10
818.3502058085252
 20
877.5803907907512
 30
0.0
  0
POINT
  5
86EB
330
5558
100
AcDbEntity
  8
Defpoints
 62
     0
100
AcDbPoint
 10
722.288774357072
 20
877.5803907907512
 30
0.0
  0
ENDBLK
  5
5563
330
5558
100
AcDbEntity
  8
0
 62
     1
100
AcDbBlockEnd
  0
BLOCK
  5
558B
330
5581
100
AcDbEntity
  8
0
 62
     1
100
AcDbBlockBegin
  2
*D28
 70
     1
 10
0.0
 20
0.0
 30
0.0
  3
*D28
  1

  0
LINE
  5
86DA
330
5581
100
AcDbEntity
  8
実形
 62
     0
370
    18
100
AcDbLine
 10
753.3502058085249
 20
877.5803907907512
 30
0.0
 11
722.288774357072
 21
877.5803907907512
 31
0.0
  0
LINE
  5
86DB
330
5581
100
AcDbEntity
  8
実形
 62
     0
370
    18
100
AcDbLine
 10
752.8885014543484
 20
837.5803907907512
 30
0.0
 11
722.288774357072
 21
837.5803907907512
 31
0.0
  0
LINE
  5
86DC
330
5581
100
AcDbEntity
  8
実形
 62
     0
370
    18
100
AcDbLine
 10
722.288774357072
 20
867.5803907907511
 30
0.0
 11
722.288774357072
 21
847.5803907907511
 31
0.0
  0
MTEXT
  5
86DD
330
5581
100
AcDbEntity
  8
実形
 62
     0
100
AcDbMText
 10
691.619571820267
 20
868.1055196462958
 30
0.0
 40
30.0
 41
0.0
 71
     5
 72
     1
  1
20
 11
0.0000000000000001
 21
1.0
 31
0.0
 73
     1
 44
1.0
1001
ACAD
1000
MTEXTBEGIN
1070
    73
1070
     1
1070
    44
1040
1.0
1070
    74
1070
     0
1000
MTEXTEND
  0
INSERT
  5
86DE
330
5581
100
AcDbEntity
  8
実形
 62
     0
370
    18
100
AcDbBlockReference
  2
_Dot
 10
722.288774357072
 20
877.5803907907512
 30
0.0
 41
10.0
 42
10.0
 43
10.0
 50
90.0
  0
INSERT
  5
86DF
330
5581
100
AcDbEntity
  8
実形
 62
     0
370
    18
100
AcDbBlockReference
  2
_Dot
 10
722.288774357072
 20
837.5803907907512
 30
0.0
 41
10.0
 42
10.0
 43
10.0
 50
270.0
  0
POINT
  5
86E0
330
5581
100
AcDbEntity
  8
Defpoints
 62
     0
100
AcDbPoint
 10
818.3502058085251
 20
877.5803907907512
 30
0.0
  0
POINT
  5
86E1
330
5581
100
AcDbEntity
  8
Defpoints
 62
     0
100
AcDbPoint
 10
817.8885014543483
 20
837.5803907907512
 30
0.0
  0
POINT
  5
86E2
330
5581
100
AcDbEntity
  8
Defpoints
 62
     0
100
AcDbPoint
 10
722.288774357072
 20
837.5803907907512
 30
0.0
  0
ENDBLK
  5
558C
330
5581
100
AcDbEntity
  8
0
 62
     1
100
AcDbBlockEnd
  0
BLOCK
  5
583E
330
5834
100
AcDbEntity
  8
0
 62
     1
100
AcDbBlockBegin
  2
*D29
 70
     1
 10
0.0
 20
0.0
 30
0.0
  3
*D29
  1

  0
LINE
  5
8785
330
5834
100
AcDbEntity
  8
実形
 62
     0
370
    18
100
AcDbLine
 10
898.7710340146241
 20
1746.191270403878
 30
0.0
 11
898.7710340146241
 21
1773.405628569316
 31
0.0
  0
LINE
  5
8786
330
5834
100
AcDbEntity
  8
実形
 62
     0
370
    18
100
AcDbLine
 10
1318.771034014624
 20
1746.191270403878
 30
0.0
 11
1318.771034014624
 21
1773.405628569316
 31
0.0
  0
LINE
  5
8787
330
5834
100
AcDbEntity
  8
実形
 62
     0
370
    18
100
AcDbLine
 10
908.7710340146239
 20
1773.405628569316
 30
0.0
 11
1308.771034014624
 21
1773.405628569316
 31
0.0
  0
INSERT
  5
8788
330
5834
100
AcDbEntity
  8
実形
 62
     0
370
    18
100
AcDbBlockReference
  2
_Dot
 10
898.7710340146241
 20
1773.405628569316
 30
0.0
 41
10.0
 42
10.0
 43
10.0
 50
180.0
  0
INSERT
  5
8789
330
5834
100
AcDbEntity
  8
実形
 62
     0
370
    18
100
AcDbBlockReference
  2
_Dot
 10
1318.771034014624
 20
1773.405628569316
 30
0.0
 41
10.0
 42
10.0
 43
10.0
  0
MTEXT
  5
878A
330
5834
100
AcDbEntity
  8
実形
 62
     0
100
AcDbMText
 10
1108.771034014624
 20
1795.005628569316
 30
0.0
 40
30.0
 41
0.0
 71
     5
 72
     1
  1
210
 73
     1
 44
1.0
1001
ACAD
1000
MTEXTBEGIN
1070
    73
1070
     1
1070
    44
1040
1.0
1070
    74
1070
     0
1000
MTEXTEND
  0
POINT
  5
878B
330
5834
100
AcDbEntity
  8
Defpoints
 62
     0
100
AcDbPoint
 10
898.7710340146241
 20
1681.191270403878
 30
0.0
  0
POINT
  5
878C
330
5834
100
AcDbEntity
  8
Defpoints
 62
     0
100
AcDbPoint
 10
1318.771034014624
 20
1681.191270403878
 30
0.0
  0
POINT
  5
878D
330
5834
100
AcDbEntity
  8
Defpoints
 62
     0
100
AcDbPoint
 10
1318.771034014624
 20
1773.405628569316
 30
0.0
  0
ENDBLK
  5
583F
330
5834
100
AcDbEntity
  8
0
 62
     1
100
AcDbBlockEnd
  0
BLOCK
  5
58F1
330
58E7
100
AcDbEntity
  8
0
 62
     1
100
AcDbBlockBegin
  2
*D30
 70
     1
 10
0.0
 20
0.0
 30
0.0
  3
*D30
  1

  0
LINE
  5
869B
330
58E7
100
AcDbEntity
  8
実形
 62
     0
370
    18
100
AcDbLine
 10
657.2887743570718
 20
1565.580390790751
 30
0.0
 11
619.6233729757953
 21
1565.580390790751
 31
0.0
  0
LINE
  5
869C
330
58E7
100
AcDbEntity
  8
実形
 62
     0
370
    18
100
AcDbLine
 10
644.9660216467328
 20
877.5803907907512
 30
0.0
 11
619.6233729757953
 21
877.5803907907512
 31
0.0
  0
LINE
  5
869D
330
58E7
100
AcDbEntity
  8
実形
 62
     0
370
    18
100
AcDbLine
 10
619.6233729757953
 20
1555.580390790751
 30
0.0
 11
619.6233729757953
 21
887.5803907907512
 31
0.0
  0
INSERT
  5
869E
330
58E7
100
AcDbEntity
  8
実形
 62
     0
370
    18
100
AcDbBlockReference
  2
_Dot
 10
619.6233729757953
 20
1565.580390790751
 30
0.0
 41
10.0
 42
10.0
 43
10.0
 50
90.0
  0
INSERT
  5
869F
330
58E7
100
AcDbEntity
  8
実形
 62
     0
370
    18
100
AcDbBlockReference
  2
_Dot
 10
619.6233729757953
 20
877.5803907907512
 30
0.0
 41
10.0
 42
10.0
 43
10.0
 50
270.0
  0
MTEXT
  5
86A0
330
58E7
100
AcDbEntity
  8
実形
 62
     0
100
AcDbMText
 10
598.0233729757949
 20
1221.580390790751
 30
0.0
 40
30.0
 41
0.0
 71
     5
 72
     1
  1
344
 11
0.0000000000000001
 21
1.0
 31
0.0
 73
     1
 44
1.0
1001
ACAD
1000
MTEXTBEGIN
1070
    73
1070
     1
1070
    44
1040
1.0
1070
    74
1070
     0
1000
MTEXTEND
  0
POINT
  5
86A1
330
58E7
100
AcDbEntity
  8
Defpoints
 62
     0
100
AcDbPoint
 10
722.2887743570717
 20
1565.580390790751
 30
0.0
  0
POINT
  5
86A2
330
58E7
100
AcDbEntity
  8
Defpoints
 62
     0
100
AcDbPoint
 10
709.9660216467327
 20
877.5803907907512
 30
0.0
  0
POINT
  5
86A3
330
58E7
100
AcDbEntity
  8
Defpoints
 62
     0
100
AcDbPoint
 10
619.6233729757953
 20
877.5803907907512
 30
0.0
  0
ENDBLK
  5
58F2
330
58E7
100
AcDbEntity
  8
0
 62
     1
100
AcDbBlockEnd
  0
BLOCK
  5
5A7C
330
5A72
100
AcDbEntity
  8
0
 62
     1
100
AcDbBlockBegin
  2
*D31
 70
     1
 10
0.0
 20
0.0
 30
0.0
  3
*D31
  1

  0
LINE
  5
86B6
330
5A72
100
AcDbEntity
  8
実形
 62
     0
370
    18
100
AcDbLine
 10
444.0757996528089
 20
542.6687844154765
 30
0.0
 11
444.0757996528089
 21
585.4946261266432
 31
0.0
  0
LINE
  5
86B7
330
5A72
100
AcDbEntity
  8
実形
 62
     0
370
    18
100
AcDbLine
 10
644.0757996528091
 20
542.6687844154765
 30
0.0
 11
644.0757996528091
 21
585.4946261266432
 31
0.0
  0
LINE
  5
86B8
330
5A72
100
AcDbEntity
  8
実形
 62
     0
370
    18
100
AcDbLine
 10
454.0757996528092
 20
585.4946261266432
 30
0.0
 11
634.0757996528091
 21
585.4946261266432
 31
0.0
  0
INSERT
  5
86B9
330
5A72
100
AcDbEntity
  8
実形
 62
     0
370
    18
100
AcDbBlockReference
  2
_Dot
 10
444.0757996528089
 20
585.4946261266432
 30
0.0
 41
10.0
 42
10.0
 43
10.0
 50
180.0
  0
INSERT
  5
86BA
330
5A72
100
AcDbEntity
  8
実形
 62
     0
370
    18
100
AcDbBlockReference
  2
_Dot
 10
644.0757996528091
 20
585.4946261266432
 30
0.0
 41
10.0
 42
10.0
 43
10.0
  0
MTEXT
  5
86BB
330
5A72
100
AcDbEntity
  8
実形
 62
     0
100
AcDbMText
 10
544.0757996528089
 20
607.0946261266432
 30
0.0
 40
30.0
 41
0.0
 71
     5
 72
     1
  1
20
 73
     1
 44
1.0
1001
ACAD
1000
MTEXTBEGIN
1070
    73
1070
     1
1070
    44
1040
1.0
1070
    74
1070
     0
1000
MTEXTEND
  0
POINT
  5
86BC
330
5A72
100
AcDbEntity
  8
Defpoints
 62
     0
100
AcDbPoint
 10
444.0757996528089
 20
477.6687844154767
 30
0.0
  0
POINT
  5
86BD
330
5A72
100
AcDbEntity
  8
Defpoints
 62
     0
100
AcDbPoint
 10
644.0757996528091
 20
477.6687844154767
 30
0.0
  0
POINT
  5
86BE
330
5A72
100
AcDbEntity
  8
Defpoints
 62
     0
100
AcDbPoint
 10
644.0757996528091
 20
585.4946261266432
 30
0.0
  0
ENDBLK
  5
5A7D
330
5A72
100
AcDbEntity
  8
0
 62
     1
100
AcDbBlockEnd
  0
BLOCK
  5
5AA7
330
5A9B
100
AcDbEntity
  8
0
 62
     1
100
AcDbBlockBegin
  2
*D32
 70
     1
 10
0.0
 20
0.0
 30
0.0
  3
*D32
  1

  0
LINE
  5
8112
330
5A9B
100
AcDbEntity
  8
実形
 62
     0
370
    18
100
AcDbLine
 10
404.7684023831378
 20
477.6687844154767
 30
0.0
 11
368.2229613536065
 21
477.6687844154767
 31
0.0
  0
LINE
  5
8113
330
5A9B
100
AcDbEntity
  8
実形
 62
     0
370
    18
100
AcDbLine
 10
404.7684023831378
 20
465.6687844154767
 30
0.0
 11
368.2229613536065
 21
465.6687844154767
 31
0.0
  0
LINE
  5
8114
330
5A9B
100
AcDbEntity
  8
実形
 62
     0
370
    18
100
AcDbLine
 10
368.2229613536065
 20
487.6687844154766
 30
0.0
 11
368.2229613536065
 21
497.6687844154766
 31
0.0
  0
LINE
  5
8115
330
5A9B
100
AcDbEntity
  8
実形
 62
     0
370
    18
100
AcDbLine
 10
368.2229613536065
 20
455.6687844154766
 30
0.0
 11
368.2229613536065
 21
445.6687844154767
 31
0.0
  0
MTEXT
  5
8116
330
5A9B
100
AcDbEntity
  8
実形
 62
     0
100
AcDbMText
 10
343.3229613536064
 20
514.5501612175811
 30
0.0
 40
30.0
 41
0.0
 71
     5
 72
     1
  1
1.2
 11
0.0000000000000001
 21
1.0
 31
0.0
 73
     1
 44
1.0
1001
ACAD
1000
MTEXTBEGIN
1070
    73
1070
     1
1070
    44
1040
1.0
1070
    74
1070
     0
1000
MTEXTEND
  0
LINE
  5
8117
330
5A9B
100
AcDbEntity
  8
実形
 62
     0
370
    18
100
AcDbLine
 10
368.2229613536065
 20
477.6687844154767
 30
0.0
 11
368.2229613536065
 21
465.6687844154767
 31
0.0
  0
INSERT
  5
8118
330
5A9B
100
AcDbEntity
  8
実形
 62
     0
370
    18
100
AcDbBlockReference
  2
_Dot
 10
368.2229613536065
 20
477.6687844154767
 30
0.0
 41
10.0
 42
10.0
 43
10.0
 50
270.0
  0
INSERT
  5
8119
330
5A9B
100
AcDbEntity
  8
実形
 62
     0
370
    18
100
AcDbBlockReference
  2
_Dot
 10
368.2229613536065
 20
465.6687844154767
 30
0.0
 41
10.0
 42
10.0
 43
10.0
 50
90.0
  0
POINT
  5
811A
330
5A9B
100
AcDbEntity
  8
Defpoints
 62
     0
100
AcDbPoint
 10
469.768402383138
 20
477.6687844154767
 30
0.0
  0
POINT
  5
811B
330
5A9B
100
AcDbEntity
  8
Defpoints
 62
     0
100
AcDbPoint
 10
469.768402383138
 20
465.6687844154767
 30
0.0
  0
POINT
  5
811C
330
5A9B
100
AcDbEntity
  8
Defpoints
 62
     0
100
AcDbPoint
 10
368.2229613536065
 20
465.6687844154767
 30
0.0
  0
ENDBLK
  5
5AA8
330
5A9B
100
AcDbEntity
  8
0
 62
     1
100
AcDbBlockEnd
  0
BLOCK
  5
5AD8
330
5ACE
100
AcDbEntity
  8
0
 62
     3
100
AcDbBlockBegin
  2
*D33
 70
     1
 10
0.0
 20
0.0
 30
0.0
  3
*D33
  1

  0
LINE
  5
811D
330
5ACE
100
AcDbEntity
  8
実形
 62
     0
370
    18
100
AcDbLine
 10
369.0757996528092
 20
465.6687844154767
 30
0.0
 11
368.2229613536065
 21
465.6687844154767
 31
0.0
  0
LINE
  5
811E
330
5ACE
100
AcDbEntity
  8
実形
 62
     0
370
    18
100
AcDbLine
 10
369.0757996528092
 20
339.6687844154769
 30
0.0
 11
368.2229613536065
 21
339.6687844154769
 31
0.0
  0
LINE
  5
811F
330
5ACE
100
AcDbEntity
  8
実形
 62
     0
370
    18
100
AcDbLine
 10
368.2229613536065
 20
455.6687844154766
 30
0.0
 11
368.2229613536065
 21
349.6687844154769
 31
0.0
  0
INSERT
  5
8120
330
5ACE
100
AcDbEntity
  8
実形
 62
     0
370
    18
100
AcDbBlockReference
  2
_Dot
 10
368.2229613536065
 20
465.6687844154767
 30
0.0
 41
10.0
 42
10.0
 43
10.0
 50
90.0
  0
INSERT
  5
8121
330
5ACE
100
AcDbEntity
  8
実形
 62
     0
370
    18
100
AcDbBlockReference
  2
_Dot
 10
368.2229613536065
 20
339.6687844154769
 30
0.0
 41
10.0
 42
10.0
 43
10.0
 50
270.0
  0
MTEXT
  5
8122
330
5ACE
100
AcDbEntity
  8
実形
 62
     0
100
AcDbMText
 10
346.6229613536063
 20
402.6687844154769
 30
0.0
 40
30.0
 41
0.0
 71
     5
 72
     1
  1
12.6
 11
0.0000000000000001
 21
1.0
 31
0.0
 73
     1
 44
1.0
1001
ACAD
1000
MTEXTBEGIN
1070
    73
1070
     1
1070
    44
1040
1.0
1070
    74
1070
     0
1000
MTEXTEND
  0
POINT
  5
8123
330
5ACE
100
AcDbEntity
  8
Defpoints
 62
     0
100
AcDbPoint
 10
434.0757996528092
 20
465.6687844154767
 30
0.0
  0
POINT
  5
8124
330
5ACE
100
AcDbEntity
  8
Defpoints
 62
     0
100
AcDbPoint
 10
434.0757996528092
 20
339.6687844154769
 30
0.0
  0
POINT
  5
8125
330
5ACE
100
AcDbEntity
  8
Defpoints
 62
     0
100
AcDbPoint
 10
368.2229613536065
 20
339.6687844154769
 30
0.0
  0
ENDBLK
  5
5AD9
330
5ACE
100
AcDbEntity
  8
0
 62
     3
100
AcDbBlockEnd
  0
BLOCK
  5
5AE6
330
5ADC
100
AcDbEntity
  8
0
 62
     3
100
AcDbBlockBegin
  2
*D34
 70
     1
 10
0.0
 20
0.0
 30
0.0
  3
*D34
  1

  0
LINE
  5
8126
330
5ADC
100
AcDbEntity
  8
実形
 62
     0
370
    18
100
AcDbLine
 10
369.0757996528092
 20
477.6687844154767
 30
0.0
 11
267.9911077601692
 21
477.6687844154767
 31
0.0
  0
LINE
  5
8127
330
5ADC
100
AcDbEntity
  8
実形
 62
     0
370
    18
100
AcDbLine
 10
369.0757996528092
 20
327.6687844154768
 30
0.0
 11
267.9911077601691
 21
327.6687844154768
 31
0.0
  0
LINE
  5
8128
330
5ADC
100
AcDbEntity
  8
実形
 62
     0
370
    18
100
AcDbLine
 10
267.9911077601692
 20
467.6687844154766
 30
0.0
 11
267.9911077601691
 21
337.6687844154767
 31
0.0
  0
INSERT
  5
8129
330
5ADC
100
AcDbEntity
  8
実形
 62
     0
370
    18
100
AcDbBlockReference
  2
_Dot
 10
267.9911077601692
 20
477.6687844154767
 30
0.0
 41
10.0
 42
10.0
 43
10.0
 50
90.0
  0
INSERT
  5
812A
330
5ADC
100
AcDbEntity
  8
実形
 62
     0
370
    18
100
AcDbBlockReference
  2
_Dot
 10
267.9911077601691
 20
327.6687844154768
 30
0.0
 41
10.0
 42
10.0
 43
10.0
 50
270.0
  0
MTEXT
  5
812B
330
5ADC
100
AcDbEntity
  8
実形
 62
     0
100
AcDbMText
 10
246.3911077601691
 20
402.6687844154769
 30
0.0
 40
30.0
 41
0.0
 71
     5
 72
     1
  1
15
 11
0.0000000000000001
 21
1.0
 31
0.0
 73
     1
 44
1.0
1001
ACAD
1000
MTEXTBEGIN
1070
    73
1070
     1
1070
    44
1040
1.0
1070
    74
1070
     0
1000
MTEXTEND
  0
POINT
  5
812C
330
5ADC
100
AcDbEntity
  8
Defpoints
 62
     0
100
AcDbPoint
 10
434.0757996528092
 20
477.6687844154767
 30
0.0
  0
POINT
  5
812D
330
5ADC
100
AcDbEntity
  8
Defpoints
 62
     0
100
AcDbPoint
 10
434.0757996528092
 20
327.6687844154767
 30
0.0
  0
POINT
  5
812E
330
5ADC
100
AcDbEntity
  8
Defpoints
 62
     0
100
AcDbPoint
 10
267.9911077601691
 20
327.6687844154768
 30
0.0
  0
ENDBLK
  5
5AE7
330
5ADC
100
AcDbEntity
  8
0
 62
     3
100
AcDbBlockEnd
  0
BLOCK
  5
5B1D
330
5B11
100
AcDbEntity
  8
0
 62
     3
100
AcDbBlockBegin
  2
*D35
 70
     1
 10
0.0
 20
0.0
 30
0.0
  3
*D35
  1

  0
LINE
  5
812F
330
5B11
100
AcDbEntity
  8
実形
 62
     0
370
    18
100
AcDbLine
 10
403.4702915116095
 20
339.6687844154768
 30
0.0
 11
368.2229613536065
 21
339.6687844154769
 31
0.0
  0
LINE
  5
8130
330
5B11
100
AcDbEntity
  8
実形
 62
     0
370
    18
100
AcDbLine
 10
405.1255549514598
 20
327.6687844154767
 30
0.0
 11
368.2229613536065
 21
327.6687844154768
 31
0.0
  0
LINE
  5
8131
330
5B11
100
AcDbEntity
  8
実形
 62
     0
370
    18
100
AcDbLine
 10
368.2229613536065
 20
349.6687844154769
 30
0.0
 11
368.2229613536065
 21
359.6687844154768
 31
0.0
  0
LINE
  5
8132
330
5B11
100
AcDbEntity
  8
実形
 62
     0
370
    18
100
AcDbLine
 10
368.2229613536065
 20
317.6687844154768
 30
0.0
 11
368.2229613536065
 21
307.6687844154768
 31
0.0
  0
MTEXT
  5
8133
330
5B11
100
AcDbEntity
  8
実形
 62
     0
100
AcDbMText
 10
343.3229613536064
 20
291.0148636725971
 30
0.0
 40
30.0
 41
0.0
 71
     5
 72
     1
  1
1.2
 11
0.0000000000000001
 21
1.0
 31
0.0
 73
     1
 44
1.0
1001
ACAD
1000
MTEXTBEGIN
1070
    73
1070
     1
1070
    44
1040
1.0
1070
    74
1070
     0
1000
MTEXTEND
  0
LINE
  5
8134
330
5B11
100
AcDbEntity
  8
実形
 62
     0
370
    18
100
AcDbLine
 10
368.2229613536065
 20
339.6687844154769
 30
0.0
 11
368.2229613536065
 21
327.6687844154768
 31
0.0
  0
INSERT
  5
8135
330
5B11
100
AcDbEntity
  8
実形
 62
     0
370
    18
100
AcDbBlockReference
  2
_Dot
 10
368.2229613536065
 20
339.6687844154769
 30
0.0
 41
10.0
 42
10.0
 43
10.0
 50
270.0
  0
INSERT
  5
8136
330
5B11
100
AcDbEntity
  8
実形
 62
     0
370
    18
100
AcDbBlockReference
  2
_Dot
 10
368.2229613536065
 20
327.6687844154768
 30
0.0
 41
10.0
 42
10.0
 43
10.0
 50
90.0
  0
POINT
  5
8137
330
5B11
100
AcDbEntity
  8
Defpoints
 62
     0
100
AcDbPoint
 10
468.4702915116095
 20
339.6687844154768
 30
0.0
  0
POINT
  5
8138
330
5B11
100
AcDbEntity
  8
Defpoints
 62
     0
100
AcDbPoint
 10
470.1255549514598
 20
327.6687844154767
 30
0.0
  0
POINT
  5
8139
330
5B11
100
AcDbEntity
  8
Defpoints
 62
     0
100
AcDbPoint
 10
368.2229613536065
 20
327.6687844154768
 30
0.0
  0
ENDBLK
  5
5B1E
330
5B11
100
AcDbEntity
  8
0
 62
     3
100
AcDbBlockEnd
  0
BLOCK
  5
5F35
330
5F2B
100
AcDbEntity
  8
0
 62
     3
100
AcDbBlockBegin
  2
*D36
 70
     1
 10
0.0
 20
0.0
 30
0.0
  3
*D36
  1

  0
LINE
  5
813A
330
5F2B
100
AcDbEntity
  8
実形
 62
     0
370
    18
100
AcDbLine
 10
644.0757996528092
 20
288.4040832798037
 30
0.0
 11
644.0757996528092
 21
249.7575464485617
 31
0.0
  0
LINE
  5
813B
330
5F2B
100
AcDbEntity
  8
実形
 62
     0
370
    18
100
AcDbLine
 10
894.0757996528091
 20
286.9745793713796
 30
0.0
 11
894.0757996528091
 21
249.7575464485617
 31
0.0
  0
LINE
  5
813C
330
5F2B
100
AcDbEntity
  8
実形
 62
     0
370
    18
100
AcDbLine
 10
654.0757996528092
 20
249.7575464485617
 30
0.0
 11
884.0757996528093
 21
249.7575464485617
 31
0.0
  0
INSERT
  5
813D
330
5F2B
100
AcDbEntity
  8
実形
 62
     0
370
    18
100
AcDbBlockReference
  2
_Dot
 10
644.0757996528092
 20
249.7575464485617
 30
0.0
 41
10.0
 42
10.0
 43
10.0
 50
180.0
  0
INSERT
  5
813E
330
5F2B
100
AcDbEntity
  8
実形
 62
     0
370
    18
100
AcDbBlockReference
  2
_Dot
 10
894.0757996528091
 20
249.7575464485617
 30
0.0
 41
10.0
 42
10.0
 43
10.0
  0
MTEXT
  5
813F
330
5F2B
100
AcDbEntity
  8
実形
 62
     0
100
AcDbMText
 10
769.0757996528093
 20
271.3575464485617
 30
0.0
 40
30.0
 41
0.0
 71
     5
 72
     1
  1
25
 73
     1
 44
1.0
1001
ACAD
1000
MTEXTBEGIN
1070
    73
1070
     1
1070
    44
1040
1.0
1070
    74
1070
     0
1000
MTEXTEND
  0
POINT
  5
8140
330
5F2B
100
AcDbEntity
  8
Defpoints
 62
     0
100
AcDbPoint
 10
644.0757996528092
 20
353.4040832798037
 30
0.0
  0
POINT
  5
8141
330
5F2B
100
AcDbEntity
  8
Defpoints
 62
     0
100
AcDbPoint
 10
894.0757996528091
 20
351.9745793713795
 30
0.0
  0
POINT
  5
8142
330
5F2B
100
AcDbEntity
  8
Defpoints
 62
     0
100
AcDbPoint
 10
894.0757996528091
 20
249.7575464485617
 30
0.0
  0
ENDBLK
  5
5F36
330
5F2B
100
AcDbEntity
  8
0
 62
     3
100
AcDbBlockEnd
  0
BLOCK
  5
5F55
330
5F4B
100
AcDbEntity
  8
0
 62
     3
100
AcDbBlockBegin
  2
*D37
 70
     1
 10
0.0
 20
0.0
 30
0.0
  3
*D37
  1

  0
LINE
  5
8143
330
5F4B
100
AcDbEntity
  8
実形
 62
     0
370
    18
100
AcDbLine
 10
854.0757996528093
 20
372.1251455729616
 30
0.0
 11
854.0757996528093
 21
400.8833310174122
 31
0.0
  0
LINE
  5
8144
330
5F4B
100
AcDbEntity
  8
実形
 62
     0
370
    18
100
AcDbLine
 10
934.0757996528093
 20
372.1251455729616
 30
0.0
 11
934.0757996528093
 21
400.8833310174122
 31
0.0
  0
LINE
  5
8145
330
5F4B
100
AcDbEntity
  8
実形
 62
     0
370
    18
100
AcDbLine
 10
864.0757996528092
 20
400.8833310174122
 30
0.0
 11
924.075799652809
 21
400.8833310174122
 31
0.0
  0
INSERT
  5
8146
330
5F4B
100
AcDbEntity
  8
実形
 62
     0
370
    18
100
AcDbBlockReference
  2
_Dot
 10
854.0757996528093
 20
400.8833310174122
 30
0.0
 41
10.0
 42
10.0
 43
10.0
 50
180.0
  0
INSERT
  5
8147
330
5F4B
100
AcDbEntity
  8
実形
 62
     0
370
    18
100
AcDbBlockReference
  2
_Dot
 10
934.0757996528093
 20
400.8833310174122
 30
0.0
 41
10.0
 42
10.0
 43
10.0
  0
MTEXT
  5
8148
330
5F4B
100
AcDbEntity
  8
実形
 62
     0
100
AcDbMText
 10
894.0757996528091
 20
422.4833310174124
 30
0.0
 40
30.0
 41
0.0
 71
     5
 72
     1
  1
8
 73
     1
 44
1.0
1001
ACAD
1000
MTEXTBEGIN
1070
    73
1070
     1
1070
    44
1040
1.0
1070
    74
1070
     0
1000
MTEXTEND
  0
POINT
  5
8149
330
5F4B
100
AcDbEntity
  8
Defpoints
 62
     0
100
AcDbPoint
 10
854.0757996528093
 20
307.1251455729617
 30
0.0
  0
POINT
  5
814A
330
5F4B
100
AcDbEntity
  8
Defpoints
 62
     0
100
AcDbPoint
 10
934.0757996528093
 20
307.1251455729616
 30
0.0
  0
POINT
  5
814B
330
5F4B
100
AcDbEntity
  8
Defpoints
 62
     0
100
AcDbPoint
 10
934.0757996528093
 20
400.8833310174122
 30
0.0
  0
ENDBLK
  5
5F56
330
5F4B
100
AcDbEntity
  8
0
 62
     3
100
AcDbBlockEnd
  0
BLOCK
  5
5FA3
330
5F99
100
AcDbEntity
  8
0
 62
     3
100
AcDbBlockBegin
  2
*D38
 70
     1
 10
0.0
 20
0.0
 30
0.0
  3
*D38
  1

  0
LINE
  5
814C
330
5F99
100
AcDbEntity
  8
実形
 62
     0
370
    18
100
AcDbLine
 10
1254.075799652809
 20
372.1251455729616
 30
0.0
 11
1254.075799652809
 21
400.8833310174122
 31
0.0
  0
LINE
  5
814D
330
5F99
100
AcDbEntity
  8
実形
 62
     0
370
    18
100
AcDbLine
 10
1334.075799652809
 20
372.1251455729616
 30
0.0
 11
1334.075799652809
 21
400.8833310174122
 31
0.0
  0
LINE
  5
814E
330
5F99
100
AcDbEntity
  8
実形
 62
     0
370
    18
100
AcDbLine
 10
1264.075799652809
 20
400.8833310174122
 30
0.0
 11
1324.075799652809
 21
400.8833310174122
 31
0.0
  0
INSERT
  5
814F
330
5F99
100
AcDbEntity
  8
実形
 62
     0
370
    18
100
AcDbBlockReference
  2
_Dot
 10
1254.075799652809
 20
400.8833310174122
 30
0.0
 41
10.0
 42
10.0
 43
10.0
 50
180.0
  0
INSERT
  5
8150
330
5F99
100
AcDbEntity
  8
実形
 62
     0
370
    18
100
AcDbBlockReference
  2
_Dot
 10
1334.075799652809
 20
400.8833310174122
 30
0.0
 41
10.0
 42
10.0
 43
10.0
  0
MTEXT
  5
8151
330
5F99
100
AcDbEntity
  8
実形
 62
     0
100
AcDbMText
 10
1294.075799652809
 20
422.4833310174124
 30
0.0
 40
30.0
 41
0.0
 71
     5
 72
     1
  1
8
 73
     1
 44
1.0
1001
ACAD
1000
MTEXTBEGIN
1070
    73
1070
     1
1070
    44
1040
1.0
1070
    74
1070
     0
1000
MTEXTEND
  0
POINT
  5
8152
330
5F99
100
AcDbEntity
  8
Defpoints
 62
     0
100
AcDbPoint
 10
1254.075799652809
 20
307.1251455729617
 30
0.0
  0
POINT
  5
8153
330
5F99
100
AcDbEntity
  8
Defpoints
 62
     0
100
AcDbPoint
 10
1334.075799652809
 20
307.1251455729616
 30
0.0
  0
POINT
  5
8154
330
5F99
100
AcDbEntity
  8
Defpoints
 62
     0
100
AcDbPoint
 10
1334.075799652809
 20
400.8833310174122
 30
0.0
  0
ENDBLK
  5
5FA4
330
5F99
100
AcDbEntity
  8
0
 62
     3
100
AcDbBlockEnd
  0
BLOCK
  5
5FBA
330
5FB0
100
AcDbEntity
  8
0
 62
     3
100
AcDbBlockBegin
  2
*D39
 70
     1
 10
0.0
 20
0.0
 30
0.0
  3
*D39
  1

  0
LINE
  5
8155
330
5FB0
100
AcDbEntity
  8
実形
 62
     0
370
    18
100
AcDbLine
 10
894.0757996528091
 20
262.6687844154771
 30
0.0
 11
894.0757996528091
 21
249.7575464485617
 31
0.0
  0
LINE
  5
8156
330
5FB0
100
AcDbEntity
  8
実形
 62
     0
370
    18
100
AcDbLine
 10
1294.075799652809
 20
286.737049604204
 30
0.0
 11
1294.075799652809
 21
249.7575464485617
 31
0.0
  0
LINE
  5
8157
330
5FB0
100
AcDbEntity
  8
実形
 62
     0
370
    18
100
AcDbLine
 10
904.0757996528093
 20
249.7575464485617
 30
0.0
 11
1284.075799652809
 21
249.7575464485617
 31
0.0
  0
INSERT
  5
8158
330
5FB0
100
AcDbEntity
  8
実形
 62
     0
370
    18
100
AcDbBlockReference
  2
_Dot
 10
894.0757996528091
 20
249.7575464485617
 30
0.0
 41
10.0
 42
10.0
 43
10.0
 50
180.0
  0
INSERT
  5
8159
330
5FB0
100
AcDbEntity
  8
実形
 62
     0
370
    18
100
AcDbBlockReference
  2
_Dot
 10
1294.075799652809
 20
249.7575464485617
 30
0.0
 41
10.0
 42
10.0
 43
10.0
  0
MTEXT
  5
815A
330
5FB0
100
AcDbEntity
  8
実形
 62
     0
100
AcDbMText
 10
1094.075799652809
 20
271.3575464485617
 30
0.0
 40
30.0
 41
0.0
 71
     5
 72
     1
  1
40
 73
     1
 44
1.0
1001
ACAD
1000
MTEXTBEGIN
1070
    73
1070
     1
1070
    44
1040
1.0
1070
    74
1070
     0
1000
MTEXTEND
  0
POINT
  5
815B
330
5FB0
100
AcDbEntity
  8
Defpoints
 62
     0
100
AcDbPoint
 10
894.0757996528091
 20
327.6687844154772
 30
0.0
  0
POINT
  5
815C
330
5FB0
100
AcDbEntity
  8
Defpoints
 62
     0
100
AcDbPoint
 10
1294.075799652809
 20
351.737049604204
 30
0.0
  0
POINT
  5
815D
330
5FB0
100
AcDbEntity
  8
Defpoints
 62
     0
100
AcDbPoint
 10
1294.075799652809
 20
249.7575464485617
 30
0.0
  0
ENDBLK
  5
5FBB
330
5FB0
100
AcDbEntity
  8
0
 62
     3
100
AcDbBlockEnd
  0
BLOCK
  5
5FED
330
5FE1
100
AcDbEntity
  8
0
 62
     3
100
AcDbBlockBegin
  2
*D40
 70
     1
 10
0.0
 20
0.0
 30
0.0
  3
*D40
  1

  0
LINE
  5
815E
330
5FE1
100
AcDbEntity
  8
実形
 62
     0
370
    18
100
AcDbLine
 10
632.0757996528096
 20
287.9180329716728
 30
0.0
 11
632.0757996528096
 21
249.7575464485617
 31
0.0
  0
LINE
  5
815F
330
5FE1
100
AcDbEntity
  8
実形
 62
     0
370
    18
100
AcDbLine
 10
644.0757996528092
 20
280.6687844154768
 30
0.0
 11
644.0757996528092
 21
249.7575464485617
 31
0.0
  0
LINE
  5
8160
330
5FE1
100
AcDbEntity
  8
実形
 62
     0
370
    18
100
AcDbLine
 10
622.0757996528095
 20
249.7575464485617
 30
0.0
 11
612.0757996528095
 21
249.7575464485617
 31
0.0
  0
LINE
  5
8161
330
5FE1
100
AcDbEntity
  8
実形
 62
     0
370
    18
100
AcDbLine
 10
654.0757996528092
 20
249.7575464485617
 30
0.0
 11
664.0757996528092
 21
249.7575464485617
 31
0.0
  0
MTEXT
  5
8162
330
5FE1
100
AcDbEntity
  8
実形
 62
     0
100
AcDbMText
 10
590.0805527991622
 20
274.325613877294
 30
0.0
 40
30.0
 41
0.0
 71
     5
 72
     1
  1
1.2
 73
     1
 44
1.0
1001
ACAD
1000
MTEXTBEGIN
1070
    73
1070
     1
1070
    44
1040
1.0
1070
    74
1070
     0
1000
MTEXTEND
  0
LINE
  5
8163
330
5FE1
100
AcDbEntity
  8
実形
 62
     0
370
    18
100
AcDbLine
 10
632.0757996528096
 20
249.7575464485617
 30
0.0
 11
644.0757996528092
 21
249.7575464485617
 31
0.0
  0
INSERT
  5
8164
330
5FE1
100
AcDbEntity
  8
実形
 62
     0
370
    18
100
AcDbBlockReference
  2
_Dot
 10
632.0757996528096
 20
249.7575464485617
 30
0.0
 41
10.0
 42
10.0
 43
10.0
  0
INSERT
  5
8165
330
5FE1
100
AcDbEntity
  8
実形
 62
     0
370
    18
100
AcDbBlockReference
  2
_Dot
 10
644.0757996528092
 20
249.7575464485617
 30
0.0
 41
10.0
 42
10.0
 43
10.0
 50
180.0
  0
POINT
  5
8166
330
5FE1
100
AcDbEntity
  8
Defpoints
 62
     0
100
AcDbPoint
 10
632.0757996528096
 20
352.9180329716728
 30
0.0
  0
POINT
  5
8167
330
5FE1
100
AcDbEntity
  8
Defpoints
 62
     0
100
AcDbPoint
 10
644.0757996528092
 20
345.6687844154769
 30
0.0
  0
POINT
  5
8168
330
5FE1
100
AcDbEntity
  8
Defpoints
 62
     0
100
AcDbPoint
 10
644.0757996528092
 20
249.7575464485617
 30
0.0
  0
ENDBLK
  5
5FEE
330
5FE1
100
AcDbEntity
  8
0
 62
     3
100
AcDbBlockEnd
  0
BLOCK
  5
6371
330
6367
100
AcDbEntity
  8
0
 62
     3
100
AcDbBlockBegin
  2
*D41
 70
     1
 10
0.0
 20
0.0
 30
0.0
  3
*D41
  1

  0
LINE
  5
8095
330
6367
100
AcDbEntity
  8
実形
 62
     0
370
    18
100
AcDbLine
 10
1763.136995706918
 20
542.6687844154757
 30
0.0
 11
1763.136995706918
 21
585.4946261266421
 31
0.0
  0
LINE
  5
8096
330
6367
100
AcDbEntity
  8
実形
 62
     0
370
    18
100
AcDbLine
 10
1963.136995706918
 20
542.6687844154757
 30
0.0
 11
1963.136995706918
 21
585.4946261266421
 31
0.0
  0
LINE
  5
8097
330
6367
100
AcDbEntity
  8
実形
 62
     0
370
    18
100
AcDbLine
 10
1773.136995706918
 20
585.4946261266421
 30
0.0
 11
1953.136995706918
 21
585.4946261266421
 31
0.0
  0
INSERT
  5
8098
330
6367
100
AcDbEntity
  8
実形
 62
     0
370
    18
100
AcDbBlockReference
  2
_Dot
 10
1763.136995706918
 20
585.4946261266421
 30
0.0
 41
10.0
 42
10.0
 43
10.0
 50
180.0
  0
INSERT
  5
8099
330
6367
100
AcDbEntity
  8
実形
 62
     0
370
    18
100
AcDbBlockReference
  2
_Dot
 10
1963.136995706918
 20
585.4946261266421
 30
0.0
 41
10.0
 42
10.0
 43
10.0
  0
MTEXT
  5
809A
330
6367
100
AcDbEntity
  8
実形
 62
     0
100
AcDbMText
 10
1863.136995706918
 20
607.0946261266422
 30
0.0
 40
30.0
 41
0.0
 71
     5
 72
     1
  1
20
 73
     1
 44
1.0
1001
ACAD
1000
MTEXTBEGIN
1070
    73
1070
     1
1070
    44
1040
1.0
1070
    74
1070
     0
1000
MTEXTEND
  0
POINT
  5
809B
330
6367
100
AcDbEntity
  8
Defpoints
 62
     0
100
AcDbPoint
 10
1763.136995706918
 20
477.6687844154756
 30
0.0
  0
POINT
  5
809C
330
6367
100
AcDbEntity
  8
Defpoints
 62
     0
100
AcDbPoint
 10
1963.136995706918
 20
477.6687844154756
 30
0.0
  0
POINT
  5
809D
330
6367
100
AcDbEntity
  8
Defpoints
 62
     0
100
AcDbPoint
 10
1963.136995706918
 20
585.4946261266421
 30
0.0
  0
ENDBLK
  5
6372
330
6367
100
AcDbEntity
  8
0
 62
     3
100
AcDbBlockEnd
  0
BLOCK
  5
637F
330
6373
100
AcDbEntity
  8
0
 62
     3
100
AcDbBlockBegin
  2
*D42
 70
     1
 10
0.0
 20
0.0
 30
0.0
  3
*D42
  1

  0
LINE
  5
859E
330
6373
100
AcDbEntity
  8
実形
 62
     0
370
    18
100
AcDbLine
 10
1727.291178432053
 20
477.6687844154767
 30
0.0
 11
1690.745737402522
 21
477.6687844154767
 31
0.0
  0
LINE
  5
859F
330
6373
100
AcDbEntity
  8
実形
 62
     0
370
    18
100
AcDbLine
 10
1727.291178432053
 20
465.6687844154767
 30
0.0
 11
1690.745737402522
 21
465.6687844154767
 31
0.0
  0
LINE
  5
85A0
330
6373
100
AcDbEntity
  8
実形
 62
     0
370
    18
100
AcDbLine
 10
1690.745737402522
 20
487.6687844154766
 30
0.0
 11
1690.745737402522
 21
497.6687844154766
 31
0.0
  0
LINE
  5
85A1
330
6373
100
AcDbEntity
  8
実形
 62
     0
370
    18
100
AcDbLine
 10
1690.745737402522
 20
455.6687844154766
 30
0.0
 11
1690.745737402522
 21
445.6687844154767
 31
0.0
  0
MTEXT
  5
85A2
330
6373
100
AcDbEntity
  8
実形
 62
     0
100
AcDbMText
 10
1665.845737402521
 20
514.5501612175811
 30
0.0
 40
30.0
 41
0.0
 71
     5
 72
     1
  1
1.2
 11
0.0000000000000001
 21
1.0
 31
0.0
 73
     1
 44
1.0
1001
ACAD
1000
MTEXTBEGIN
1070
    73
1070
     1
1070
    44
1040
1.0
1070
    74
1070
     0
1000
MTEXTEND
  0
LINE
  5
85A3
330
6373
100
AcDbEntity
  8
実形
 62
     0
370
    18
100
AcDbLine
 10
1690.745737402522
 20
477.6687844154767
 30
0.0
 11
1690.745737402522
 21
465.6687844154767
 31
0.0
  0
INSERT
  5
85A4
330
6373
100
AcDbEntity
  8
実形
 62
     0
370
    18
100
AcDbBlockReference
  2
_Dot
 10
1690.745737402522
 20
477.6687844154767
 30
0.0
 41
10.0
 42
10.0
 43
10.0
 50
270.0
  0
INSERT
  5
85A5
330
6373
100
AcDbEntity
  8
実形
 62
     0
370
    18
100
AcDbBlockReference
  2
_Dot
 10
1690.745737402522
 20
465.6687844154767
 30
0.0
 41
10.0
 42
10.0
 43
10.0
 50
90.0
  0
POINT
  5
85A6
330
6373
100
AcDbEntity
  8
Defpoints
 62
     0
100
AcDbPoint
 10
1792.291178432053
 20
477.6687844154767
 30
0.0
  0
POINT
  5
85A7
330
6373
100
AcDbEntity
  8
Defpoints
 62
     0
100
AcDbPoint
 10
1792.291178432053
 20
465.6687844154767
 30
0.0
  0
POINT
  5
85A8
330
6373
100
AcDbEntity
  8
Defpoints
 62
     0
100
AcDbPoint
 10
1690.745737402522
 20
465.6687844154767
 30
0.0
  0
ENDBLK
  5
6380
330
6373
100
AcDbEntity
  8
0
 62
     3
100
AcDbBlockEnd
  0
BLOCK
  5
638B
330
6381
100
AcDbEntity
  8
0
 62
     3
100
AcDbBlockBegin
  2
*D43
 70
     1
 10
0.0
 20
0.0
 30
0.0
  3
*D43
  1

  0
LINE
  5
85A9
330
6381
100
AcDbEntity
  8
実形
 62
     0
370
    18
100
AcDbLine
 10
1691.598575701724
 20
465.6687844154767
 30
0.0
 11
1690.745737402522
 21
465.6687844154767
 31
0.0
  0
LINE
  5
85AA
330
6381
100
AcDbEntity
  8
実形
 62
     0
370
    18
100
AcDbLine
 10
1691.598575701724
 20
339.6687844154769
 30
0.0
 11
1690.745737402522
 21
339.6687844154769
 31
0.0
  0
LINE
  5
85AB
330
6381
100
AcDbEntity
  8
実形
 62
     0
370
    18
100
AcDbLine
 10
1690.745737402522
 20
455.6687844154766
 30
0.0
 11
1690.745737402522
 21
349.6687844154769
 31
0.0
  0
INSERT
  5
85AC
330
6381
100
AcDbEntity
  8
実形
 62
     0
370
    18
100
AcDbBlockReference
  2
_Dot
 10
1690.745737402522
 20
465.6687844154767
 30
0.0
 41
10.0
 42
10.0
 43
10.0
 50
90.0
  0
INSERT
  5
85AD
330
6381
100
AcDbEntity
  8
実形
 62
     0
370
    18
100
AcDbBlockReference
  2
_Dot
 10
1690.745737402522
 20
339.6687844154769
 30
0.0
 41
10.0
 42
10.0
 43
10.0
 50
270.0
  0
MTEXT
  5
85AE
330
6381
100
AcDbEntity
  8
実形
 62
     0
100
AcDbMText
 10
1669.145737402521
 20
402.6687844154769
 30
0.0
 40
30.0
 41
0.0
 71
     5
 72
     1
  1
12.6
 11
0.0000000000000001
 21
1.0
 31
0.0
 73
     1
 44
1.0
1001
ACAD
1000
MTEXTBEGIN
1070
    73
1070
     1
1070
    44
1040
1.0
1070
    74
1070
     0
1000
MTEXTEND
  0
POINT
  5
85AF
330
6381
100
AcDbEntity
  8
Defpoints
 62
     0
100
AcDbPoint
 10
1756.598575701724
 20
465.6687844154767
 30
0.0
  0
POINT
  5
85B0
330
6381
100
AcDbEntity
  8
Defpoints
 62
     0
100
AcDbPoint
 10
1756.598575701724
 20
339.6687844154769
 30
0.0
  0
POINT
  5
85B1
330
6381
100
AcDbEntity
  8
Defpoints
 62
     0
100
AcDbPoint
 10
1690.745737402522
 20
339.6687844154769
 30
0.0
  0
ENDBLK
  5
638C
330
6381
100
AcDbEntity
  8
0
 62
     3
100
AcDbBlockEnd
  0
BLOCK
  5
6397
330
638D
100
AcDbEntity
  8
0
 62
     3
100
AcDbBlockBegin
  2
*D44
 70
     1
 10
0.0
 20
0.0
 30
0.0
  3
*D44
  1

  0
LINE
  5
85B2
330
638D
100
AcDbEntity
  8
実形
 62
     0
370
    18
100
AcDbLine
 10
1691.598575701724
 20
477.6687844154767
 30
0.0
 11
1590.513883809084
 21
477.6687844154767
 31
0.0
  0
LINE
  5
85B3
330
638D
100
AcDbEntity
  8
実形
 62
     0
370
    18
100
AcDbLine
 10
1691.598575701724
 20
327.6687844154767
 30
0.0
 11
1590.513883809084
 21
327.6687844154768
 31
0.0
  0
LINE
  5
85B4
330
638D
100
AcDbEntity
  8
実形
 62
     0
370
    18
100
AcDbLine
 10
1590.513883809084
 20
467.6687844154766
 30
0.0
 11
1590.513883809084
 21
337.6687844154767
 31
0.0
  0
INSERT
  5
85B5
330
638D
100
AcDbEntity
  8
実形
 62
     0
370
    18
100
AcDbBlockReference
  2
_Dot
 10
1590.513883809084
 20
477.6687844154767
 30
0.0
 41
10.0
 42
10.0
 43
10.0
 50
90.0
  0
INSERT
  5
85B6
330
638D
100
AcDbEntity
  8
実形
 62
     0
370
    18
100
AcDbBlockReference
  2
_Dot
 10
1590.513883809084
 20
327.6687844154768
 30
0.0
 41
10.0
 42
10.0
 43
10.0
 50
270.0
  0
MTEXT
  5
85B7
330
638D
100
AcDbEntity
  8
実形
 62
     0
100
AcDbMText
 10
1568.913883809084
 20
402.6687844154769
 30
0.0
 40
30.0
 41
0.0
 71
     5
 72
     1
  1
15
 11
0.0000000000000001
 21
1.0
 31
0.0
 73
     1
 44
1.0
1001
ACAD
1000
MTEXTBEGIN
1070
    73
1070
     1
1070
    44
1040
1.0
1070
    74
1070
     0
1000
MTEXTEND
  0
POINT
  5
85B8
330
638D
100
AcDbEntity
  8
Defpoints
 62
     0
100
AcDbPoint
 10
1756.598575701724
 20
477.6687844154767
 30
0.0
  0
POINT
  5
85B9
330
638D
100
AcDbEntity
  8
Defpoints
 62
     0
100
AcDbPoint
 10
1756.598575701724
 20
327.6687844154767
 30
0.0
  0
POINT
  5
85BA
330
638D
100
AcDbEntity
  8
Defpoints
 62
     0
100
AcDbPoint
 10
1590.513883809084
 20
327.6687844154768
 30
0.0
  0
ENDBLK
  5
6398
330
638D
100
AcDbEntity
  8
0
 62
     3
100
AcDbBlockEnd
  0
BLOCK
  5
63A5
330
6399
100
AcDbEntity
  8
0
 62
     3
100
AcDbBlockBegin
  2
*D45
 70
     1
 10
0.0
 20
0.0
 30
0.0
  3
*D45
  1

  0
LINE
  5
85BB
330
6399
100
AcDbEntity
  8
実形
 62
     0
370
    18
100
AcDbLine
 10
1725.993067560525
 20
339.6687844154768
 30
0.0
 11
1690.745737402522
 21
339.6687844154768
 31
0.0
  0
LINE
  5
85BC
330
6399
100
AcDbEntity
  8
実形
 62
     0
370
    18
100
AcDbLine
 10
1727.648331000375
 20
327.6687844154767
 30
0.0
 11
1690.745737402522
 21
327.6687844154767
 31
0.0
  0
LINE
  5
85BD
330
6399
100
AcDbEntity
  8
実形
 62
     0
370
    18
100
AcDbLine
 10
1690.745737402522
 20
349.6687844154769
 30
0.0
 11
1690.745737402522
 21
359.6687844154768
 31
0.0
  0
LINE
  5
85BE
330
6399
100
AcDbEntity
  8
実形
 62
     0
370
    18
100
AcDbLine
 10
1690.745737402522
 20
317.6687844154767
 30
0.0
 11
1690.745737402522
 21
307.6687844154767
 31
0.0
  0
MTEXT
  5
85BF
330
6399
100
AcDbEntity
  8
実形
 62
     0
100
AcDbMText
 10
1665.845737402521
 20
291.0148636725971
 30
0.0
 40
30.0
 41
0.0
 71
     5
 72
     1
  1
1.2
 11
0.0000000000000001
 21
1.0
 31
0.0
 73
     1
 44
1.0
1001
ACAD
1000
MTEXTBEGIN
1070
    73
1070
     1
1070
    44
1040
1.0
1070
    74
1070
     0
1000
MTEXTEND
  0
LINE
  5
85C0
330
6399
100
AcDbEntity
  8
実形
 62
     0
370
    18
100
AcDbLine
 10
1690.745737402522
 20
339.6687844154768
 30
0.0
 11
1690.745737402522
 21
327.6687844154767
 31
0.0
  0
INSERT
  5
85C1
330
6399
100
AcDbEntity
  8
実形
 62
     0
370
    18
100
AcDbBlockReference
  2
_Dot
 10
1690.745737402522
 20
339.6687844154768
 30
0.0
 41
10.0
 42
10.0
 43
10.0
 50
270.0
  0
INSERT
  5
85C2
330
6399
100
AcDbEntity
  8
実形
 62
     0
370
    18
100
AcDbBlockReference
  2
_Dot
 10
1690.745737402522
 20
327.6687844154767
 30
0.0
 41
10.0
 42
10.0
 43
10.0
 50
90.0
  0
POINT
  5
85C3
330
6399
100
AcDbEntity
  8
Defpoints
 62
     0
100
AcDbPoint
 10
1790.993067560524
 20
339.6687844154768
 30
0.0
  0
POINT
  5
85C4
330
6399
100
AcDbEntity
  8
Defpoints
 62
     0
100
AcDbPoint
 10
1792.648331000375
 20
327.6687844154767
 30
0.0
  0
POINT
  5
85C5
330
6399
100
AcDbEntity
  8
Defpoints
 62
     0
100
AcDbPoint
 10
1690.745737402522
 20
327.6687844154767
 30
0.0
  0
ENDBLK
  5
63A6
330
6399
100
AcDbEntity
  8
0
 62
     3
100
AcDbBlockEnd
  0
BLOCK
  5
63B1
330
63A7
100
AcDbEntity
  8
0
 62
     3
100
AcDbBlockBegin
  2
*D46
 70
     1
 10
0.0
 20
0.0
 30
0.0
  3
*D46
  1

  0
LINE
  5
809F
330
63A7
100
AcDbEntity
  8
実形
 62
     0
370
    18
100
AcDbLine
 10
1963.136995706918
 20
288.4040832798028
 30
0.0
 11
1963.136995706918
 21
249.7575464485608
 31
0.0
  0
LINE
  5
80A0
330
63A7
100
AcDbEntity
  8
実形
 62
     0
370
    18
100
AcDbLine
 10
2283.136995706918
 20
286.9745793713786
 30
0.0
 11
2283.136995706918
 21
249.7575464485608
 31
0.0
  0
LINE
  5
80A1
330
63A7
100
AcDbEntity
  8
実形
 62
     0
370
    18
100
AcDbLine
 10
1973.136995706918
 20
249.7575464485608
 30
0.0
 11
2273.136995706918
 21
249.7575464485608
 31
0.0
  0
INSERT
  5
80A2
330
63A7
100
AcDbEntity
  8
実形
 62
     0
370
    18
100
AcDbBlockReference
  2
_Dot
 10
1963.136995706918
 20
249.7575464485608
 30
0.0
 41
10.0
 42
10.0
 43
10.0
 50
180.0
  0
INSERT
  5
80A3
330
63A7
100
AcDbEntity
  8
実形
 62
     0
370
    18
100
AcDbBlockReference
  2
_Dot
 10
2283.136995706918
 20
249.7575464485608
 30
0.0
 41
10.0
 42
10.0
 43
10.0
  0
MTEXT
  5
80A4
330
63A7
100
AcDbEntity
  8
実形
 62
     0
100
AcDbMText
 10
2123.136995706918
 20
271.3575464485608
 30
0.0
 40
30.0
 41
0.0
 71
     5
 72
     1
  1
32
 73
     1
 44
1.0
1001
ACAD
1000
MTEXTBEGIN
1070
    73
1070
     1
1070
    44
1040
1.0
1070
    74
1070
     0
1000
MTEXTEND
  0
POINT
  5
80A5
330
63A7
100
AcDbEntity
  8
Defpoints
 62
     0
100
AcDbPoint
 10
1963.136995706918
 20
353.4040832798027
 30
0.0
  0
POINT
  5
80A6
330
63A7
100
AcDbEntity
  8
Defpoints
 62
     0
100
AcDbPoint
 10
2283.136995706918
 20
351.9745793713787
 30
0.0
  0
POINT
  5
80A7
330
63A7
100
AcDbEntity
  8
Defpoints
 62
     0
100
AcDbPoint
 10
2283.136995706918
 20
249.7575464485608
 30
0.0
  0
ENDBLK
  5
63B2
330
63A7
100
AcDbEntity
  8
0
 62
     3
100
AcDbBlockEnd
  0
BLOCK
  5
63BD
330
63B3
100
AcDbEntity
  8
0
 62
     3
100
AcDbBlockBegin
  2
*D47
 70
     1
 10
0.0
 20
0.0
 30
0.0
  3
*D47
  1

  0
LINE
  5
7C25
330
63B3
100
AcDbEntity
  8
実形
 62
     0
370
    18
100
AcDbLine
 10
2243.136995706918
 20
372.1251455729608
 30
0.0
 11
2243.136995706918
 21
400.8833310174114
 31
0.0
  0
LINE
  5
7C26
330
63B3
100
AcDbEntity
  8
実形
 62
     0
370
    18
100
AcDbLine
 10
2323.136995706919
 20
372.1251455729607
 30
0.0
 11
2323.136995706919
 21
400.8833310174114
 31
0.0
  0
LINE
  5
7C27
330
63B3
100
AcDbEntity
  8
実形
 62
     0
370
    18
100
AcDbLine
 10
2253.136995706919
 20
400.8833310174114
 30
0.0
 11
2313.136995706918
 21
400.8833310174114
 31
0.0
  0
INSERT
  5
7C28
330
63B3
100
AcDbEntity
  8
実形
 62
     0
370
    18
100
AcDbBlockReference
  2
_Dot
 10
2243.136995706918
 20
400.8833310174114
 30
0.0
 41
10.0
 42
10.0
 43
10.0
 50
180.0
  0
INSERT
  5
7C29
330
63B3
100
AcDbEntity
  8
実形
 62
     0
370
    18
100
AcDbBlockReference
  2
_Dot
 10
2323.136995706919
 20
400.8833310174114
 30
0.0
 41
10.0
 42
10.0
 43
10.0
  0
MTEXT
  5
7C2A
330
63B3
100
AcDbEntity
  8
実形
 62
     0
100
AcDbMText
 10
2283.136995706918
 20
422.4833310174113
 30
0.0
 40
30.0
 41
0.0
 71
     5
 72
     1
  1
8
 73
     1
 44
1.0
1001
ACAD
1000
MTEXTBEGIN
1070
    73
1070
     1
1070
    44
1040
1.0
1070
    74
1070
     0
1000
MTEXTEND
  0
POINT
  5
7C2B
330
63B3
100
AcDbEntity
  8
Defpoints
 62
     0
100
AcDbPoint
 10
2243.136995706918
 20
307.1251455729608
 30
0.0
  0
POINT
  5
7C2C
330
63B3
100
AcDbEntity
  8
Defpoints
 62
     0
100
AcDbPoint
 10
2323.136995706919
 20
307.1251455729607
 30
0.0
  0
POINT
  5
7C2D
330
63B3
100
AcDbEntity
  8
Defpoints
 62
     0
100
AcDbPoint
 10
2323.136995706919
 20
400.8833310174114
 30
0.0
  0
ENDBLK
  5
63BE
330
63B3
100
AcDbEntity
  8
0
 62
     3
100
AcDbBlockEnd
  0
BLOCK
  5
63C9
330
63BF
100
AcDbEntity
  8
0
 62
     3
100
AcDbBlockBegin
  2
*D48
 70
     1
 10
0.0
 20
0.0
 30
0.0
  3
*D48
  1

  0
LINE
  5
7C2E
330
63BF
100
AcDbEntity
  8
実形
 62
     0
370
    18
100
AcDbLine
 10
2643.136995706918
 20
372.1251455729608
 30
0.0
 11
2643.136995706918
 21
400.8833310174114
 31
0.0
  0
LINE
  5
7C2F
330
63BF
100
AcDbEntity
  8
実形
 62
     0
370
    18
100
AcDbLine
 10
2723.136995706918
 20
372.1251455729607
 30
0.0
 11
2723.136995706918
 21
400.8833310174114
 31
0.0
  0
LINE
  5
7C30
330
63BF
100
AcDbEntity
  8
実形
 62
     0
370
    18
100
AcDbLine
 10
2653.136995706919
 20
400.8833310174114
 30
0.0
 11
2713.136995706918
 21
400.8833310174114
 31
0.0
  0
INSERT
  5
7C31
330
63BF
100
AcDbEntity
  8
実形
 62
     0
370
    18
100
AcDbBlockReference
  2
_Dot
 10
2643.136995706918
 20
400.8833310174114
 30
0.0
 41
10.0
 42
10.0
 43
10.0
 50
180.0
  0
INSERT
  5
7C32
330
63BF
100
AcDbEntity
  8
実形
 62
     0
370
    18
100
AcDbBlockReference
  2
_Dot
 10
2723.136995706918
 20
400.8833310174114
 30
0.0
 41
10.0
 42
10.0
 43
10.0
  0
MTEXT
  5
7C33
330
63BF
100
AcDbEntity
  8
実形
 62
     0
100
AcDbMText
 10
2683.136995706918
 20
422.4833310174113
 30
0.0
 40
30.0
 41
0.0
 71
     5
 72
     1
  1
8
 73
     1
 44
1.0
1001
ACAD
1000
MTEXTBEGIN
1070
    73
1070
     1
1070
    44
1040
1.0
1070
    74
1070
     0
1000
MTEXTEND
  0
POINT
  5
7C34
330
63BF
100
AcDbEntity
  8
Defpoints
 62
     0
100
AcDbPoint
 10
2643.136995706918
 20
307.1251455729608
 30
0.0
  0
POINT
  5
7C35
330
63BF
100
AcDbEntity
  8
Defpoints
 62
     0
100
AcDbPoint
 10
2723.136995706918
 20
307.1251455729607
 30
0.0
  0
POINT
  5
7C36
330
63BF
100
AcDbEntity
  8
Defpoints
 62
     0
100
AcDbPoint
 10
2723.136995706918
 20
400.8833310174114
 30
0.0
  0
ENDBLK
  5
63CA
330
63BF
100
AcDbEntity
  8
0
 62
     3
100
AcDbBlockEnd
  0
BLOCK
  5
63D5
330
63CB
100
AcDbEntity
  8
0
 62
     3
100
AcDbBlockBegin
  2
*D49
 70
     1
 10
0.0
 20
0.0
 30
0.0
  3
*D49
  1

  0
LINE
  5
7C37
330
63CB
100
AcDbEntity
  8
実形
 62
     0
370
    18
100
AcDbLine
 10
2283.136995706918
 20
262.6687844154762
 30
0.0
 11
2283.136995706918
 21
249.7575464485608
 31
0.0
  0
LINE
  5
7C38
330
63CB
100
AcDbEntity
  8
実形
 62
     0
370
    18
100
AcDbLine
 10
2683.136995706918
 20
286.7370496042031
 30
0.0
 11
2683.136995706918
 21
249.7575464485608
 31
0.0
  0
LINE
  5
7C39
330
63CB
100
AcDbEntity
  8
実形
 62
     0
370
    18
100
AcDbLine
 10
2293.136995706918
 20
249.7575464485608
 30
0.0
 11
2673.136995706919
 21
249.7575464485608
 31
0.0
  0
INSERT
  5
7C3A
330
63CB
100
AcDbEntity
  8
実形
 62
     0
370
    18
100
AcDbBlockReference
  2
_Dot
 10
2283.136995706918
 20
249.7575464485608
 30
0.0
 41
10.0
 42
10.0
 43
10.0
 50
180.0
  0
INSERT
  5
7C3B
330
63CB
100
AcDbEntity
  8
実形
 62
     0
370
    18
100
AcDbBlockReference
  2
_Dot
 10
2683.136995706918
 20
249.7575464485608
 30
0.0
 41
10.0
 42
10.0
 43
10.0
  0
MTEXT
  5
7C3C
330
63CB
100
AcDbEntity
  8
実形
 62
     0
100
AcDbMText
 10
2483.136995706918
 20
271.3575464485608
 30
0.0
 40
30.0
 41
0.0
 71
     5
 72
     1
  1
40
 73
     1
 44
1.0
1001
ACAD
1000
MTEXTBEGIN
1070
    73
1070
     1
1070
    44
1040
1.0
1070
    74
1070
     0
1000
MTEXTEND
  0
POINT
  5
7C3D
330
63CB
100
AcDbEntity
  8
Defpoints
 62
     0
100
AcDbPoint
 10
2283.136995706918
 20
327.6687844154762
 30
0.0
  0
POINT
  5
7C3E
330
63CB
100
AcDbEntity
  8
Defpoints
 62
     0
100
AcDbPoint
 10
2683.136995706918
 20
351.7370496042031
 30
0.0
  0
POINT
  5
7C3F
330
63CB
100
AcDbEntity
  8
Defpoints
 62
     0
100
AcDbPoint
 10
2683.136995706918
 20
249.7575464485608
 30
0.0
  0
ENDBLK
  5
63D6
330
63CB
100
AcDbEntity
  8
0
 62
     3
100
AcDbBlockEnd
  0
BLOCK
  5
63E3
330
63D7
100
AcDbEntity
  8
0
 62
     3
100
AcDbBlockBegin
  2
*D50
 70
     1
 10
0.0
 20
0.0
 30
0.0
  3
*D50
  1

  0
LINE
  5
8076
330
63D7
100
AcDbEntity
  8
実形
 62
     0
370
    18
100
AcDbLine
 10
1951.136995706919
 20
287.9180329716719
 30
0.0
 11
1951.136995706919
 21
249.7575464485608
 31
0.0
  0
LINE
  5
8077
330
63D7
100
AcDbEntity
  8
実形
 62
     0
370
    18
100
AcDbLine
 10
1963.136995706918
 20
280.6687844154759
 30
0.0
 11
1963.136995706918
 21
249.7575464485608
 31
0.0
  0
LINE
  5
8078
330
63D7
100
AcDbEntity
  8
実形
 62
     0
370
    18
100
AcDbLine
 10
1941.136995706919
 20
249.7575464485608
 30
0.0
 11
1931.136995706918
 21
249.7575464485608
 31
0.0
  0
LINE
  5
8079
330
63D7
100
AcDbEntity
  8
実形
 62
     0
370
    18
100
AcDbLine
 10
1973.136995706918
 20
249.7575464485608
 30
0.0
 11
1983.136995706918
 21
249.7575464485608
 31
0.0
  0
MTEXT
  5
807A
330
63D7
100
AcDbEntity
  8
実形
 62
     0
100
AcDbMText
 10
1909.141748853271
 20
274.3256138772931
 30
0.0
 40
30.0
 41
0.0
 71
     5
 72
     1
  1
1.2
 73
     1
 44
1.0
1001
ACAD
1000
MTEXTBEGIN
1070
    73
1070
     1
1070
    44
1040
1.0
1070
    74
1070
     0
1000
MTEXTEND
  0
LINE
  5
807B
330
63D7
100
AcDbEntity
  8
実形
 62
     0
370
    18
100
AcDbLine
 10
1951.136995706919
 20
249.7575464485608
 30
0.0
 11
1963.136995706918
 21
249.7575464485608
 31
0.0
  0
INSERT
  5
807C
330
63D7
100
AcDbEntity
  8
実形
 62
     0
370
    18
100
AcDbBlockReference
  2
_Dot
 10
1951.136995706919
 20
249.7575464485608
 30
0.0
 41
10.0
 42
10.0
 43
10.0
  0
INSERT
  5
807D
330
63D7
100
AcDbEntity
  8
実形
 62
     0
370
    18
100
AcDbBlockReference
  2
_Dot
 10
1963.136995706918
 20
249.7575464485608
 30
0.0
 41
10.0
 42
10.0
 43
10.0
 50
180.0
  0
POINT
  5
807E
330
63D7
100
AcDbEntity
  8
Defpoints
 62
     0
100
AcDbPoint
 10
1951.136995706919
 20
352.9180329716719
 30
0.0
  0
POINT
  5
807F
330
63D7
100
AcDbEntity
  8
Defpoints
 62
     0
100
AcDbPoint
 10
1963.136995706918
 20
345.6687844154759
 30
0.0
  0
POINT
  5
8080
330
63D7
100
AcDbEntity
  8
Defpoints
 62
     0
100
AcDbPoint
 10
1963.136995706918
 20
249.7575464485608
 30
0.0
  0
ENDBLK
  5
63E4
330
63D7
100
AcDbEntity
  8
0
 62
     3
100
AcDbBlockEnd
  0
BLOCK
  5
6B8B
330
6B87
100
AcDbEntity
  8
0
 62
     3
100
AcDbBlockBegin
  2
A$C47AF373A
 70
     0
 10
0.0
 20
0.0
 30
0.0
  3
A$C47AF373A
  1

  0
LINE
  5
6B88
330
6B87
100
AcDbEntity
  8
枠
 62
     0
100
AcDbLine
 10
-0.0000111344452307
 20
0.0000048001220421
 30
0.0
 11
-0.0000111344452307
 21
2020.000004800122
 31
0.0
  0
ENDBLK
  5
6B8C
330
6B87
100
AcDbEntity
  8
0
 62
     3
100
AcDbBlockEnd
  0
BLOCK
  5
6C04
330
6C00
100
AcDbEntity
  8
0
 62
     3
100
AcDbBlockBegin
  2
A$C2B9560D8
 70
     0
 10
0.0
 20
0.0
 30
0.0
  3
A$C2B9560D8
  1

  0
LINE
  5
6C01
330
6C00
100
AcDbEntity
  8
枠
 62
     0
100
AcDbLine
 10
-0.0000103150450741
 20
2020.000004800122
 30
0.0
 11
-0.0000103150450741
 21
0.0000048001220421
 31
0.0
  0
ENDBLK
  5
6C05
330
6C00
100
AcDbEntity
  8
0
 62
     3
100
AcDbBlockEnd
  0
BLOCK
  5
8256
330
8255
100
AcDbEntity
  8
0
 62
     1
100
AcDbBlockBegin
  2
*D53
 70
     1
 10
0.0
 20
0.0
 30
0.0
  3
*D53
  1

  0
LINE
  5
8257
330
8255
100
AcDbEntity
  8
実形
 62
     0
370
    18
100
AcDbLine
 10
1845.607236648939
 20
1590.580390790751
 30
0.0
 11
1914.430338998341
 21
1590.580390790751
 31
0.0
  0
LINE
  5
8258
330
8255
100
AcDbEntity
  8
実形
 62
     0
370
    18
100
AcDbLine
 10
1845.607236648939
 20
1012.580390790751
 30
0.0
 11
1914.43033899834
 21
1012.580390790751
 31
0.0
  0
LINE
  5
8259
330
8255
100
AcDbEntity
  8
実形
 62
     0
370
    18
100
AcDbLine
 10
1914.430338998341
 20
1580.580390790751
 30
0.0
 11
1914.43033899834
 21
1022.580390790751
 31
0.0
  0
INSERT
  5
825A
330
8255
100
AcDbEntity
  8
実形
 62
     0
370
    18
100
AcDbBlockReference
  2
_Dot
 10
1914.430338998341
 20
1590.580390790751
 30
0.0
 41
10.0
 42
10.0
 43
10.0
 50
90.0
  0
INSERT
  5
825B
330
8255
100
AcDbEntity
  8
実形
 62
     0
370
    18
100
AcDbBlockReference
  2
_Dot
 10
1914.43033899834
 20
1012.580390790751
 30
0.0
 41
10.0
 42
10.0
 43
10.0
 50
270.0
  0
MTEXT
  5
825C
330
8255
100
AcDbEntity
  8
実形
 62
     0
100
AcDbMText
 10
1892.83033899834
 20
1301.580390790751
 30
0.0
 40
30.0
 41
0.0
 71
     5
 72
     1
  1
289
 11
0.0000000000000001
 21
1.0
 31
0.0
 73
     1
 44
1.0
1001
ACAD
1000
MTEXTBEGIN
1070
    73
1070
     1
1070
    44
1040
1.0
1070
    74
1070
     0
1000
MTEXTEND
  0
POINT
  5
825D
330
8255
100
AcDbEntity
  8
Defpoints
 62
     0
100
AcDbPoint
 10
1780.607236648939
 20
1590.580390790751
 30
0.0
  0
POINT
  5
825E
330
8255
100
AcDbEntity
  8
Defpoints
 62
     0
100
AcDbPoint
 10
1780.607236648939
 20
1012.580390790751
 30
0.0
  0
POINT
  5
825F
330
8255
100
AcDbEntity
  8
Defpoints
 62
     0
100
AcDbPoint
 10
1914.43033899834
 20
1012.580390790751
 30
0.0
  0
ENDBLK
  5
8260
330
8255
100
AcDbEntity
  8
0
 62
     1
100
AcDbBlockEnd
  0
BLOCK
  5
8262
330
8261
100
AcDbEntity
  8
0
 62
     3
100
AcDbBlockBegin
  2
*D54
 70
     1
 10
0.0
 20
0.0
 30
0.0
  3
*D54
  1

  0
LINE
  5
8263
330
8261
100
AcDbEntity
  8
実形
 62
     0
370
    18
100
AcDbLine
 10
1815.127275581283
 20
1052.58039079075
 30
0.0
 11
1848.88754390043
 21
1052.58039079075
 31
0.0
  0
LINE
  5
8264
330
8261
100
AcDbEntity
  8
実形
 62
     0
370
    18
100
AcDbLine
 10
1823.707841356929
 20
1012.580390790751
 30
0.0
 11
1848.88754390043
 21
1012.580390790751
 31
0.0
  0
LINE
  5
8265
330
8261
100
AcDbEntity
  8
実形
 62
     0
370
    18
100
AcDbLine
 10
1848.88754390043
 20
1042.58039079075
 30
0.0
 11
1848.88754390043
 21
1022.580390790751
 31
0.0
  0
MTEXT
  5
8266
330
8261
100
AcDbEntity
  8
実形
 62
     0
100
AcDbMText
 10
1830.194299661511
 20
972.0205415454326
 30
0.0
 40
30.0
 41
0.0
 71
     5
 72
     1
  1
20
 11
0.0000000000000001
 21
1.0
 31
0.0
 73
     1
 44
1.0
1001
ACAD
1000
MTEXTBEGIN
1070
    73
1070
     1
1070
    44
1040
1.0
1070
    74
1070
     0
1000
MTEXTEND
  0
INSERT
  5
8267
330
8261
100
AcDbEntity
  8
実形
 62
     0
370
    18
100
AcDbBlockReference
  2
_Dot
 10
1848.88754390043
 20
1052.58039079075
 30
0.0
 41
10.0
 42
10.0
 43
10.0
 50
90.0
  0
INSERT
  5
8268
330
8261
100
AcDbEntity
  8
実形
 62
     0
370
    18
100
AcDbBlockReference
  2
_Dot
 10
1848.88754390043
 20
1012.580390790751
 30
0.0
 41
10.0
 42
10.0
 43
10.0
 50
270.0
  0
POINT
  5
8269
330
8261
100
AcDbEntity
  8
Defpoints
 62
     0
100
AcDbPoint
 10
1750.127275581283
 20
1052.58039079075
 30
0.0
  0
POINT
  5
826A
330
8261
100
AcDbEntity
  8
Defpoints
 62
     0
100
AcDbPoint
 10
1758.707841356929
 20
1012.580390790751
 30
0.0
  0
POINT
  5
826B
330
8261
100
AcDbEntity
  8
Defpoints
 62
     0
100
AcDbPoint
 10
1848.88754390043
 20
1012.580390790751
 30
0.0
  0
ENDBLK
  5
826C
330
8261
100
AcDbEntity
  8
0
 62
     3
100
AcDbBlockEnd
  0
BLOCK
  5
826E
330
826D
100
AcDbEntity
  8
0
 62
     3
100
AcDbBlockBegin
  2
*D55
 70
     1
 10
0.0
 20
0.0
 30
0.0
  3
*D55
  1

  0
LINE
  5
826F
330
826D
100
AcDbEntity
  8
実形
 62
     0
370
    18
100
AcDbLine
 10
1848.092307672617
 20
1550.580390790751
 30
0.0
 11
1848.88754390043
 21
1550.580390790751
 31
0.0
  0
LINE
  5
8270
330
826D
100
AcDbEntity
  8
実形
 62
     0
370
    18
100
AcDbLine
 10
1841.460075687956
 20
1052.58039079075
 30
0.0
 11
1848.88754390043
 21
1052.58039079075
 31
0.0
  0
LINE
  5
8271
330
826D
100
AcDbEntity
  8
実形
 62
     0
370
    18
100
AcDbLine
 10
1848.88754390043
 20
1540.580390790751
 30
0.0
 11
1848.88754390043
 21
1062.58039079075
 31
0.0
  0
INSERT
  5
8272
330
826D
100
AcDbEntity
  8
実形
 62
     0
370
    18
100
AcDbBlockReference
  2
_Dot
 10
1848.88754390043
 20
1550.580390790751
 30
0.0
 41
10.0
 42
10.0
 43
10.0
 50
90.0
  0
INSERT
  5
8273
330
826D
100
AcDbEntity
  8
実形
 62
     0
370
    18
100
AcDbBlockReference
  2
_Dot
 10
1848.88754390043
 20
1052.58039079075
 30
0.0
 41
10.0
 42
10.0
 43
10.0
 50
270.0
  0
MTEXT
  5
8274
330
826D
100
AcDbEntity
  8
実形
 62
     0
100
AcDbMText
 10
1827.28754390043
 20
1301.580390790751
 30
0.0
 40
30.0
 41
0.0
 71
     5
 72
     1
  1
249
 11
0.0000000000000001
 21
1.0
 31
0.0
 73
     1
 44
1.0
1001
ACAD
1000
MTEXTBEGIN
1070
    73
1070
     1
1070
    44
1040
1.0
1070
    74
1070
     0
1000
MTEXTEND
  0
POINT
  5
8275
330
826D
100
AcDbEntity
  8
Defpoints
 62
     0
100
AcDbPoint
 10
1783.092307672617
 20
1550.580390790751
 30
0.0
  0
POINT
  5
8276
330
826D
100
AcDbEntity
  8
Defpoints
 62
     0
100
AcDbPoint
 10
1776.460075687956
 20
1052.58039079075
 30
0.0
  0
POINT
  5
8277
330
826D
100
AcDbEntity
  8
Defpoints
 62
     0
100
AcDbPoint
 10
1848.88754390043
 20
1052.58039079075
 30
0.0
  0
ENDBLK
  5
8278
330
826D
100
AcDbEntity
  8
0
 62
     3
100
AcDbBlockEnd
  0
BLOCK
  5
827A
330
8279
100
AcDbEntity
  8
0
 62
     3
100
AcDbBlockBegin
  2
*D56
 70
     1
 10
0.0
 20
0.0
 30
0.0
  3
*D56
  1

  0
LINE
  5
827B
330
8279
100
AcDbEntity
  8
実形
 62
     0
370
    18
100
AcDbLine
 10
1452.180159105262
 20
1538.580390790751
 30
0.0
 11
1498.380698672294
 21
1538.580390790751
 31
0.0
  0
LINE
  5
827C
330
8279
100
AcDbEntity
  8
実形
 62
     0
370
    18
100
AcDbLine
 10
1452.180159105262
 20
1064.580390790751
 30
0.0
 11
1498.380698672294
 21
1064.580390790751
 31
0.0
  0
LINE
  5
827D
330
8279
100
AcDbEntity
  8
実形
 62
     0
370
    18
100
AcDbLine
 10
1498.380698672294
 20
1528.580390790751
 30
0.0
 11
1498.380698672294
 21
1074.580390790751
 31
0.0
  0
INSERT
  5
827E
330
8279
100
AcDbEntity
  8
実形
 62
     0
370
    18
100
AcDbBlockReference
  2
_Dot
 10
1498.380698672294
 20
1538.580390790751
 30
0.0
 41
10.0
 42
10.0
 43
10.0
 50
90.0
  0
INSERT
  5
827F
330
8279
100
AcDbEntity
  8
実形
 62
     0
370
    18
100
AcDbBlockReference
  2
_Dot
 10
1498.380698672294
 20
1064.580390790751
 30
0.0
 41
10.0
 42
10.0
 43
10.0
 50
270.0
  0
MTEXT
  5
8280
330
8279
100
AcDbEntity
  8
実形
 62
     0
100
AcDbMText
 10
1476.780698672294
 20
1301.580390790751
 30
0.0
 40
30.0
 41
0.0
 71
     5
 72
     1
  1
237
 11
0.0000000000000001
 21
1.0
 31
0.0
 73
     1
 44
1.0
1001
ACAD
1000
MTEXTBEGIN
1070
    73
1070
     1
1070
    44
1040
1.0
1070
    74
1070
     0
1000
MTEXTEND
  0
POINT
  5
8281
330
8279
100
AcDbEntity
  8
Defpoints
 62
     0
100
AcDbPoint
 10
1387.180159105263
 20
1538.580390790751
 30
0.0
  0
POINT
  5
8282
330
8279
100
AcDbEntity
  8
Defpoints
 62
     0
100
AcDbPoint
 10
1387.180159105262
 20
1064.580390790751
 30
0.0
  0
POINT
  5
8283
330
8279
100
AcDbEntity
  8
Defpoints
 62
     0
100
AcDbPoint
 10
1498.380698672294
 20
1064.580390790751
 30
0.0
  0
ENDBLK
  5
8284
330
8279
100
AcDbEntity
  8
0
 62
     3
100
AcDbBlockEnd
  0
BLOCK
  5
8286
330
8285
100
AcDbEntity
  8
0
 62
     3
100
AcDbBlockBegin
  2
*D57
 70
     1
 10
0.0
 20
0.0
 30
0.0
  3
*D57
  1

  0
LINE
  5
8287
330
8285
100
AcDbEntity
  8
実形
 62
     0
370
    18
100
AcDbLine
 10
1452.180159105262
 20
1590.580390790751
 30
0.0
 11
1498.380698672294
 21
1590.580390790751
 31
0.0
  0
LINE
  5
8288
330
8285
100
AcDbEntity
  8
実形
 62
     0
370
    18
100
AcDbLine
 10
1452.180159105262
 20
1012.580390790751
 30
0.0
 11
1498.380698672294
 21
1012.580390790751
 31
0.0
  0
LINE
  5
8289
330
8285
100
AcDbEntity
  8
実形
 62
     0
370
    18
100
AcDbLine
 10
1498.380698672294
 20
1580.580390790751
 30
0.0
 11
1498.380698672294
 21
1022.580390790751
 31
0.0
  0
MTEXT
  5
828A
330
8285
100
AcDbEntity
  8
実形
 62
     0
100
AcDbMText
 10
1481.440691698109
 20
1627.920904237157
 30
0.0
 40
30.0
 41
0.0
 71
     5
 72
     1
  1
20
 11
0.0000000000000001
 21
1.0
 31
0.0
 73
     1
 44
1.0
1001
ACAD
1000
MTEXTBEGIN
1070
    73
1070
     1
1070
    44
1040
1.0
1070
    74
1070
     0
1000
MTEXTEND
  0
INSERT
  5
828B
330
8285
100
AcDbEntity
  8
実形
 62
     0
370
    18
100
AcDbBlockReference
  2
_Dot
 10
1498.380698672294
 20
1590.580390790751
 30
0.0
 41
10.0
 42
10.0
 43
10.0
 50
90.0
  0
INSERT
  5
828C
330
8285
100
AcDbEntity
  8
実形
 62
     0
370
    18
100
AcDbBlockReference
  2
_Dot
 10
1498.380698672294
 20
1012.580390790751
 30
0.0
 41
10.0
 42
10.0
 43
10.0
 50
270.0
  0
POINT
  5
828D
330
8285
100
AcDbEntity
  8
Defpoints
 62
     0
100
AcDbPoint
 10
1387.180159105263
 20
1590.580390790751
 30
0.0
  0
POINT
  5
828E
330
8285
100
AcDbEntity
  8
Defpoints
 62
     0
100
AcDbPoint
 10
1387.180159105262
 20
1012.580390790751
 30
0.0
  0
POINT
  5
828F
330
8285
100
AcDbEntity
  8
Defpoints
 62
     0
100
AcDbPoint
 10
1498.380698672294
 20
1012.580390790751
 30
0.0
  0
ENDBLK
  5
8290
330
8285
100
AcDbEntity
  8
0
 62
     3
100
AcDbBlockEnd
  0
BLOCK
  5
8292
330
8291
100
AcDbEntity
  8
0
 62
     3
100
AcDbBlockBegin
  2
*D58
 70
     1
 10
0.0
 20
0.0
 30
0.0
  3
*D58
  1

  0
LINE
  5
8293
330
8291
100
AcDbEntity
  8
実形
 62
     0
370
    18
100
AcDbLine
 10
1452.180159105262
 20
1550.580390790751
 30
0.0
 11
1498.380698672294
 21
1550.580390790751
 31
0.0
  0
LINE
  5
8294
330
8291
100
AcDbEntity
  8
実形
 62
     0
370
    18
100
AcDbLine
 10
1452.180159105262
 20
1052.580390790751
 30
0.0
 11
1498.380698672294
 21
1052.580390790751
 31
0.0
  0
LINE
  5
8295
330
8291
100
AcDbEntity
  8
実形
 62
     0
370
    18
100
AcDbLine
 10
1498.380698672294
 20
1540.580390790751
 30
0.0
 11
1498.380698672294
 21
1062.580390790751
 31
0.0
  0
MTEXT
  5
8296
330
8291
100
AcDbEntity
  8
実形
 62
     0
100
AcDbMText
 10
1476.543670562781
 20
974.9197808411492
 30
0.0
 40
30.0
 41
0.0
 71
     5
 72
     1
  1
20
 11
0.0000000000000001
 21
1.0
 31
0.0
 73
     1
 44
1.0
1001
ACAD
1000
MTEXTBEGIN
1070
    73
1070
     1
1070
    44
1040
1.0
1070
    74
1070
     0
1000
MTEXTEND
  0
INSERT
  5
8297
330
8291
100
AcDbEntity
  8
実形
 62
     0
370
    18
100
AcDbBlockReference
  2
_Dot
 10
1498.380698672294
 20
1550.580390790751
 30
0.0
 41
10.0
 42
10.0
 43
10.0
 50
90.0
  0
INSERT
  5
8298
330
8291
100
AcDbEntity
  8
実形
 62
     0
370
    18
100
AcDbBlockReference
  2
_Dot
 10
1498.380698672294
 20
1052.580390790751
 30
0.0
 41
10.0
 42
10.0
 43
10.0
 50
270.0
  0
POINT
  5
8299
330
8291
100
AcDbEntity
  8
Defpoints
 62
     0
100
AcDbPoint
 10
1387.180159105263
 20
1550.580390790751
 30
0.0
  0
POINT
  5
829A
330
8291
100
AcDbEntity
  8
Defpoints
 62
     0
100
AcDbPoint
 10
1387.180159105262
 20
1052.580390790751
 30
0.0
  0
POINT
  5
829B
330
8291
100
AcDbEntity
  8
Defpoints
 62
     0
100
AcDbPoint
 10
1498.380698672294
 20
1052.580390790751
 30
0.0
  0
ENDBLK
  5
829C
330
8291
100
AcDbEntity
  8
0
 62
     3
100
AcDbBlockEnd
  0
BLOCK
  5
829E
330
829D
100
AcDbEntity
  8
0
 62
     3
100
AcDbBlockBegin
  2
*D59
 70
     1
 10
0.0
 20
0.0
 30
0.0
  3
*D59
  1

  0
LINE
  5
829F
330
829D
100
AcDbEntity
  8
実形
 62
     0
370
    18
100
AcDbLine
 10
1709.208376945844
 20
945.964421631591
 30
0.0
 11
1709.208376945844
 21
921.8951896395203
 31
0.0
  0
LINE
  5
82A0
330
829D
100
AcDbEntity
  8
実形
 62
     0
370
    18
100
AcDbLine
 10
1739.208376945844
 20
947.1193308714475
 30
0.0
 11
1739.208376945844
 21
921.8951896395203
 31
0.0
  0
LINE
  5
82A1
330
829D
100
AcDbEntity
  8
実形
 62
     0
370
    18
100
AcDbLine
 10
1699.208376945844
 20
921.8951896395203
 30
0.0
 11
1689.208376945844
 21
921.8951896395203
 31
0.0
  0
LINE
  5
82A2
330
829D
100
AcDbEntity
  8
実形
 62
     0
370
    18
100
AcDbLine
 10
1749.208376945844
 20
921.8951896395203
 30
0.0
 11
1759.208376945844
 21
921.8951896395203
 31
0.0
  0
MTEXT
  5
82A3
330
829D
100
AcDbEntity
  8
実形
 62
     0
100
AcDbMText
 10
1725.663579685923
 20
891.4171782810017
 30
0.0
 40
30.0
 41
0.0
 71
     5
 72
     1
  1
15
 73
     1
 44
1.0
1001
ACAD
1000
MTEXTBEGIN
1070
    73
1070
     1
1070
    44
1040
1.0
1070
    74
1070
     0
1000
MTEXTEND
  0
LINE
  5
82A4
330
829D
100
AcDbEntity
  8
実形
 62
     0
370
    18
100
AcDbLine
 10
1709.208376945844
 20
921.8951896395203
 30
0.0
 11
1739.208376945844
 21
921.8951896395203
 31
0.0
  0
INSERT
  5
82A5
330
829D
100
AcDbEntity
  8
実形
 62
     0
370
    18
100
AcDbBlockReference
  2
_Dot
 10
1709.208376945844
 20
921.8951896395203
 30
0.0
 41
10.0
 42
10.0
 43
10.0
  0
INSERT
  5
82A6
330
829D
100
AcDbEntity
  8
実形
 62
     0
370
    18
100
AcDbBlockReference
  2
_Dot
 10
1739.208376945844
 20
921.8951896395203
 30
0.0
 41
10.0
 42
10.0
 43
10.0
 50
180.0
  0
POINT
  5
82A7
330
829D
100
AcDbEntity
  8
Defpoints
 62
     0
100
AcDbPoint
 10
1709.208376945844
 20
1010.964421631591
 30
0.0
  0
POINT
  5
82A8
330
829D
100
AcDbEntity
  8
Defpoints
 62
     0
100
AcDbPoint
 10
1739.208376945844
 20
1012.119330871447
 30
0.0
  0
POINT
  5
82A9
330
829D
100
AcDbEntity
  8
Defpoints
 62
     0
100
AcDbPoint
 10
1739.208376945844
 20
921.8951896395203
 30
0.0
  0
ENDBLK
  5
82AA
330
829D
100
AcDbEntity
  8
0
 62
     3
100
AcDbBlockEnd
  0
BLOCK
  5
82AC
330
82AB
100
AcDbEntity
  8
0
 62
     3
100
AcDbBlockBegin
  2
*D60
 70
     1
 10
0.0
 20
0.0
 30
0.0
  3
*D60
  1

  0
LINE
  5
82AD
330
82AB
100
AcDbEntity
  8
実形
 62
     0
370
    18
100
AcDbLine
 10
1814.056987040666
 20
1064.58039079075
 30
0.0
 11
1848.88754390043
 21
1064.58039079075
 31
0.0
  0
LINE
  5
82AE
330
82AB
100
AcDbEntity
  8
実形
 62
     0
370
    18
100
AcDbLine
 10
1804.208376945844
 20
1052.580390790751
 30
0.0
 11
1848.88754390043
 21
1052.580390790751
 31
0.0
  0
LINE
  5
82AF
330
82AB
100
AcDbEntity
  8
実形
 62
     0
370
    18
100
AcDbLine
 10
1848.88754390043
 20
1074.58039079075
 30
0.0
 11
1848.88754390043
 21
1084.58039079075
 31
0.0
  0
LINE
  5
82B0
330
82AB
100
AcDbEntity
  8
実形
 62
     0
370
    18
100
AcDbLine
 10
1848.88754390043
 20
1042.580390790751
 30
0.0
 11
1848.88754390043
 21
1032.580390790751
 31
0.0
  0
MTEXT
  5
82B1
330
82AB
100
AcDbEntity
  8
実形
 62
     0
100
AcDbMText
 10
1825.564720371515
 20
1086.609993813197
 30
0.0
 40
30.0
 41
0.0
 71
     5
 72
     1
  1
6
 11
0.0000000000000001
 21
1.0
 31
0.0
 73
     1
 44
1.0
1001
ACAD
1000
MTEXTBEGIN
1070
    73
1070
     1
1070
    44
1040
1.0
1070
    74
1070
     0
1000
MTEXTEND
  0
LINE
  5
82B2
330
82AB
100
AcDbEntity
  8
実形
 62
     0
370
    18
100
AcDbLine
 10
1848.88754390043
 20
1064.58039079075
 30
0.0
 11
1848.88754390043
 21
1052.580390790751
 31
0.0
  0
INSERT
  5
82B3
330
82AB
100
AcDbEntity
  8
実形
 62
     0
370
    18
100
AcDbBlockReference
  2
_Dot
 10
1848.88754390043
 20
1064.58039079075
 30
0.0
 41
10.0
 42
10.0
 43
10.0
 50
270.0
  0
INSERT
  5
82B4
330
82AB
100
AcDbEntity
  8
実形
 62
     0
370
    18
100
AcDbBlockReference
  2
_Dot
 10
1848.88754390043
 20
1052.580390790751
 30
0.0
 41
10.0
 42
10.0
 43
10.0
 50
90.0
  0
POINT
  5
82B5
330
82AB
100
AcDbEntity
  8
Defpoints
 62
     0
100
AcDbPoint
 10
1749.056987040666
 20
1064.58039079075
 30
0.0
  0
POINT
  5
82B6
330
82AB
100
AcDbEntity
  8
Defpoints
 62
     0
100
AcDbPoint
 10
1739.208376945844
 20
1052.580390790751
 30
0.0
  0
POINT
  5
82B7
330
82AB
100
AcDbEntity
  8
Defpoints
 62
     0
100
AcDbPoint
 10
1848.88754390043
 20
1052.580390790751
 30
0.0
  0
ENDBLK
  5
82B8
330
82AB
100
AcDbEntity
  8
0
 62
     3
100
AcDbBlockEnd
  0
BLOCK
  5
82BA
330
82B9
100
AcDbEntity
  8
0
 62
     3
100
AcDbBlockBegin
  2
*D61
 70
     1
 10
0.0
 20
0.0
 30
0.0
  3
*D61
  1

  0
LINE
  5
82BB
330
82B9
100
AcDbEntity
  8
実形
 62
     0
370
    18
100
AcDbLine
 10
1814.056987040666
 20
1538.580390790752
 30
0.0
 11
1848.88754390043
 21
1538.580390790752
 31
0.0
  0
LINE
  5
82BC
330
82B9
100
AcDbEntity
  8
実形
 62
     0
370
    18
100
AcDbLine
 10
1804.208376945844
 20
1550.580390790751
 30
0.0
 11
1848.88754390043
 21
1550.580390790751
 31
0.0
  0
LINE
  5
82BD
330
82B9
100
AcDbEntity
  8
実形
 62
     0
370
    18
100
AcDbLine
 10
1848.88754390043
 20
1528.580390790751
 30
0.0
 11
1848.88754390043
 21
1518.580390790751
 31
0.0
  0
LINE
  5
82BE
330
82B9
100
AcDbEntity
  8
実形
 62
     0
370
    18
100
AcDbLine
 10
1848.88754390043
 20
1560.580390790751
 30
0.0
 11
1848.88754390043
 21
1570.580390790751
 31
0.0
  0
MTEXT
  5
82BF
330
82B9
100
AcDbEntity
  8
実形
 62
     0
100
AcDbMText
 10
1825.564720371515
 20
1516.550787768305
 30
0.0
 40
30.0
 41
0.0
 71
     5
 72
     1
  1
6
 11
0.0000000000000001
 21
1.0
 31
0.0
 73
     1
 44
1.0
1001
ACAD
1000
MTEXTBEGIN
1070
    73
1070
     1
1070
    44
1040
1.0
1070
    74
1070
     0
1000
MTEXTEND
  0
LINE
  5
82C0
330
82B9
100
AcDbEntity
  8
実形
 62
     0
370
    18
100
AcDbLine
 10
1848.88754390043
 20
1538.580390790752
 30
0.0
 11
1848.88754390043
 21
1550.580390790751
 31
0.0
  0
INSERT
  5
82C1
330
82B9
100
AcDbEntity
  8
実形
 62
     0
370
    18
100
AcDbBlockReference
  2
_Dot
 10
1848.88754390043
 20
1538.580390790752
 30
0.0
 41
10.0
 42
10.0
 43
10.0
 50
90.0
  0
INSERT
  5
82C2
330
82B9
100
AcDbEntity
  8
実形
 62
     0
370
    18
100
AcDbBlockReference
  2
_Dot
 10
1848.88754390043
 20
1550.580390790751
 30
0.0
 41
10.0
 42
10.0
 43
10.0
 50
270.0
  0
POINT
  5
82C3
330
82B9
100
AcDbEntity
  8
Defpoints
 62
     0
100
AcDbPoint
 10
1749.056987040666
 20
1538.580390790752
 30
0.0
  0
POINT
  5
82C4
330
82B9
100
AcDbEntity
  8
Defpoints
 62
     0
100
AcDbPoint
 10
1739.208376945844
 20
1550.580390790751
 30
0.0
  0
POINT
  5
82C5
330
82B9
100
AcDbEntity
  8
Defpoints
 62
     0
100
AcDbPoint
 10
1848.88754390043
 20
1550.580390790751
 30
0.0
  0
ENDBLK
  5
82C6
330
82B9
100
AcDbEntity
  8
0
 62
     3
100
AcDbBlockEnd
  0
BLOCK
  5
82C8
330
82C7
100
AcDbEntity
  8
0
 62
     3
100
AcDbBlockBegin
  2
*D62
 70
     1
 10
0.0
 20
0.0
 30
0.0
  3
*D62
  1

  0
LINE
  5
82C9
330
82C7
100
AcDbEntity
  8
実形
 62
     0
370
    18
100
AcDbLine
 10
1815.127275581283
 20
1550.580390790752
 30
0.0
 11
1848.88754390043
 21
1550.580390790752
 31
0.0
  0
LINE
  5
82CA
330
82C7
100
AcDbEntity
  8
実形
 62
     0
370
    18
100
AcDbLine
 10
1823.707841356929
 20
1590.580390790751
 30
0.0
 11
1848.88754390043
 21
1590.580390790751
 31
0.0
  0
LINE
  5
82CB
330
82C7
100
AcDbEntity
  8
実形
 62
     0
370
    18
100
AcDbLine
 10
1848.88754390043
 20
1560.580390790751
 30
0.0
 11
1848.88754390043
 21
1580.580390790751
 31
0.0
  0
MTEXT
  5
82CC
330
82C7
100
AcDbEntity
  8
実形
 62
     0
100
AcDbMText
 10
1830.194299661511
 20
1631.140240036069
 30
0.0
 40
30.0
 41
0.0
 71
     5
 72
     1
  1
20
 11
0.0000000000000001
 21
1.0
 31
0.0
 73
     1
 44
1.0
1001
ACAD
1000
MTEXTBEGIN
1070
    73
1070
     1
1070
    44
1040
1.0
1070
    74
1070
     0
1000
MTEXTEND
  0
INSERT
  5
82CD
330
82C7
100
AcDbEntity
  8
実形
 62
     0
370
    18
100
AcDbBlockReference
  2
_Dot
 10
1848.88754390043
 20
1550.580390790752
 30
0.0
 41
10.0
 42
10.0
 43
10.0
 50
270.0
  0
INSERT
  5
82CE
330
82C7
100
AcDbEntity
  8
実形
 62
     0
370
    18
100
AcDbBlockReference
  2
_Dot
 10
1848.88754390043
 20
1590.580390790751
 30
0.0
 41
10.0
 42
10.0
 43
10.0
 50
90.0
  0
POINT
  5
82CF
330
82C7
100
AcDbEntity
  8
Defpoints
 62
     0
100
AcDbPoint
 10
1750.127275581283
 20
1550.580390790752
 30
0.0
  0
POINT
  5
82D0
330
82C7
100
AcDbEntity
  8
Defpoints
 62
     0
100
AcDbPoint
 10
1758.707841356929
 20
1590.580390790751
 30
0.0
  0
POINT
  5
82D1
330
82C7
100
AcDbEntity
  8
Defpoints
 62
     0
100
AcDbPoint
 10
1848.88754390043
 20
1590.580390790751
 30
0.0
  0
ENDBLK
  5
82D2
330
82C7
100
AcDbEntity
  8
0
 62
     3
100
AcDbBlockEnd
  0
BLOCK
  5
82D4
330
82D3
100
AcDbEntity
  8
0
 62
     3
100
AcDbBlockBegin
  2
*D63
 70
     1
 10
0.0
 20
0.0
 30
0.0
  3
*D63
  1

  0
LINE
  5
82D5
330
82D3
100
AcDbEntity
  8
実形
 62
     0
370
    18
100
AcDbLine
 10
1709.208376945844
 20
1657.196359949911
 30
0.0
 11
1709.208376945844
 21
1681.265591941982
 31
0.0
  0
LINE
  5
82D6
330
82D3
100
AcDbEntity
  8
実形
 62
     0
370
    18
100
AcDbLine
 10
1739.208376945844
 20
1656.041450710054
 30
0.0
 11
1739.208376945844
 21
1681.265591941982
 31
0.0
  0
LINE
  5
82D7
330
82D3
100
AcDbEntity
  8
実形
 62
     0
370
    18
100
AcDbLine
 10
1699.208376945844
 20
1681.265591941982
 30
0.0
 11
1689.208376945844
 21
1681.265591941982
 31
0.0
  0
LINE
  5
82D8
330
82D3
100
AcDbEntity
  8
実形
 62
     0
370
    18
100
AcDbLine
 10
1749.208376945844
 20
1681.265591941982
 30
0.0
 11
1759.208376945844
 21
1681.265591941982
 31
0.0
  0
MTEXT
  5
82D9
330
82D3
100
AcDbEntity
  8
実形
 62
     0
100
AcDbMText
 10
1725.663579685923
 20
1711.7436033005
 30
0.0
 40
30.0
 41
0.0
 71
     5
 72
     1
  1
15
 73
     1
 44
1.0
1001
ACAD
1000
MTEXTBEGIN
1070
    73
1070
     1
1070
    44
1040
1.0
1070
    74
1070
     0
1000
MTEXTEND
  0
LINE
  5
82DA
330
82D3
100
AcDbEntity
  8
実形
 62
     0
370
    18
100
AcDbLine
 10
1709.208376945844
 20
1681.265591941982
 30
0.0
 11
1739.208376945844
 21
1681.265591941982
 31
0.0
  0
INSERT
  5
82DB
330
82D3
100
AcDbEntity
  8
実形
 62
     0
370
    18
100
AcDbBlockReference
  2
_Dot
 10
1709.208376945844
 20
1681.265591941982
 30
0.0
 41
10.0
 42
10.0
 43
10.0
  0
INSERT
  5
82DC
330
82D3
100
AcDbEntity
  8
実形
 62
     0
370
    18
100
AcDbBlockReference
  2
_Dot
 10
1739.208376945844
 20
1681.265591941982
 30
0.0
 41
10.0
 42
10.0
 43
10.0
 50
180.0
  0
POINT
  5
82DD
330
82D3
100
AcDbEntity
  8
Defpoints
 62
     0
100
AcDbPoint
 10
1709.208376945844
 20
1592.196359949911
 30
0.0
  0
POINT
  5
82DE
330
82D3
100
AcDbEntity
  8
Defpoints
 62
     0
100
AcDbPoint
 10
1739.208376945844
 20
1591.041450710054
 30
0.0
  0
POINT
  5
82DF
330
82D3
100
AcDbEntity
  8
Defpoints
 62
     0
100
AcDbPoint
 10
1739.208376945844
 20
1681.265591941982
 30
0.0
  0
ENDBLK
  5
82E0
330
82D3
100
AcDbEntity
  8
0
 62
     3
100
AcDbBlockEnd
  0
BLOCK
  5
82E2
330
82E1
100
AcDbEntity
  8
0
 62
     3
100
AcDbBlockBegin
  2
*D64
 70
     1
 10
0.0
 20
0.0
 30
0.0
  3
*D64
  1

  0
LINE
  5
82E3
330
82E1
100
AcDbEntity
  8
実形
 62
     0
370
    18
100
AcDbLine
 10
1814.056987040666
 20
1538.580390790752
 30
0.0
 11
1848.88754390043
 21
1538.580390790752
 31
0.0
  0
LINE
  5
82E4
330
82E1
100
AcDbEntity
  8
実形
 62
     0
370
    18
100
AcDbLine
 10
1804.208376945844
 20
1550.580390790751
 30
0.0
 11
1848.88754390043
 21
1550.580390790751
 31
0.0
  0
LINE
  5
82E5
330
82E1
100
AcDbEntity
  8
実形
 62
     0
370
    18
100
AcDbLine
 10
1848.88754390043
 20
1528.580390790752
 30
0.0
 11
1848.88754390043
 21
1518.580390790751
 31
0.0
  0
LINE
  5
82E6
330
82E1
100
AcDbEntity
  8
実形
 62
     0
370
    18
100
AcDbLine
 10
1848.88754390043
 20
1560.580390790751
 30
0.0
 11
1848.88754390043
 21
1570.580390790751
 31
0.0
  0
MTEXT
  5
82E7
330
82E1
100
AcDbEntity
  8
実形
 62
     0
100
AcDbMText
 10
1825.564720371515
 20
1516.550787768305
 30
0.0
 40
30.0
 41
0.0
 71
     5
 72
     1
  1
6
 11
0.0000000000000001
 21
1.0
 31
0.0
 73
     1
 44
1.0
1001
ACAD
1000
MTEXTBEGIN
1070
    73
1070
     1
1070
    44
1040
1.0
1070
    74
1070
     0
1000
MTEXTEND
  0
LINE
  5
82E8
330
82E1
100
AcDbEntity
  8
実形
 62
     0
370
    18
100
AcDbLine
 10
1848.88754390043
 20
1538.580390790752
 30
0.0
 11
1848.88754390043
 21
1550.580390790751
 31
0.0
  0
INSERT
  5
82E9
330
82E1
100
AcDbEntity
  8
実形
 62
     0
370
    18
100
AcDbBlockReference
  2
_Dot
 10
1848.88754390043
 20
1538.580390790752
 30
0.0
 41
10.0
 42
10.0
 43
10.0
 50
90.0
  0
INSERT
  5
82EA
330
82E1
100
AcDbEntity
  8
実形
 62
     0
370
    18
100
AcDbBlockReference
  2
_Dot
 10
1848.88754390043
 20
1550.580390790751
 30
0.0
 41
10.0
 42
10.0
 43
10.0
 50
270.0
  0
POINT
  5
82EB
330
82E1
100
AcDbEntity
  8
Defpoints
 62
     0
100
AcDbPoint
 10
1749.056987040666
 20
1538.580390790752
 30
0.0
  0
POINT
  5
82EC
330
82E1
100
AcDbEntity
  8
Defpoints
 62
     0
100
AcDbPoint
 10
1739.208376945844
 20
1550.580390790751
 30
0.0
  0
POINT
  5
82ED
330
82E1
100
AcDbEntity
  8
Defpoints
 62
     0
100
AcDbPoint
 10
1848.88754390043
 20
1550.580390790751
 30
0.0
  0
ENDBLK
  5
82EE
330
82E1
100
AcDbEntity
  8
0
 62
     3
100
AcDbBlockEnd
  0
BLOCK
  5
833A
330
82EF
100
AcDbEntity
  8
0
 62
     3
100
AcDbBlockBegin
  2
A$C43863A15
 70
     0
 10
0.0
 20
0.0
 30
0.0
  3
A$C43863A15
  1

  0
LINE
  5
82F0
330
82EF
100
AcDbEntity
  8
実形
100
AcDbLine
 10
0.0
 20
0.0
 30
0.0
 11
8.100604707967022
 21
0.0000000000002274
 31
0.0
  0
LINE
  5
82F1
330
82EF
100
AcDbEntity
  8
実形
100
AcDbLine
 10
8.100604707967022
 20
40.0
 30
0.0
 11
21.90000000000009
 21
40.0
 31
0.0
  0
LINE
  5
82F2
330
82EF
100
AcDbEntity
  8
実形
100
AcDbLine
 10
29.99999999999977
 20
31.90000000000009
 30
0.0
 11
30.0
 21
438.9036600889553
 31
0.0
  0
LINE
  5
82F3
330
82EF
100
AcDbEntity
  8
実形
100
AcDbLine
 10
21.89999999999987
 20
39.99999999999977
 30
0.0
 11
21.89999999999963
 21
51.99999999999954
 31
0.0
  0
LINE
  5
82F4
330
82EF
100
AcDbEntity
  8
実形
100
AcDbLine
 10
0.0
 20
0.0
 30
0.0
 11
0.0
 21
40.0
 31
0.0
  0
LINE
  5
82F5
330
82EF
100
AcDbEntity
  8
実形
100
AcDbLine
 10
-0.0000000000002274
 20
51.99999999999954
 30
0.0
 11
0.0
 21
438.9036600889553
 31
0.0
  0
LINE
  5
82F6
330
82EF
100
AcDbEntity
  8
実形
100
AcDbLine
 10
8.100604707966795
 20
0.0
 30
0.0
 11
8.100604707967022
 21
31.90000000000009
 31
0.0
  0
LINE
  5
82F7
330
82EF
100
AcDbEntity
  8
実形
100
AcDbLine
 10
8.100604707966795
 20
51.99999999999954
 30
0.0
 11
8.100604707966567
 21
438.9036600889553
 31
0.0
  0
DIMENSION
  5
82F8
330
82EF
100
AcDbEntity
  8
実形
100
AcDbDimension
  2
*D53
 10
205.2219620524963
 20
-0.0000000000002274
 30
0.0
 11
183.6219620524961
 21
289.0000000000002
 31
0.0
 12
-1709.208376945844
 22
-1012.580390790751
 32
0.0
  1
289
 71
     5
 42
578.0000000000003
  3
ISO-25
100
AcDbAlignedDimension
 13
71.39885970309477
 23
578.0000000000002
 33
0.0
 14
71.39885970309456
 24
-0.0000000000001137
 34
0.0
 50
90.0
100
AcDbRotatedDimension
1001
ACAD
1000
DSTYLE
1002
{
1070
    41
1040
10.0
1070
   140
1040
30.0
1070
   147
1040
6.599999999999997
1070
   279
1070
     2
1070
   342
1005
30D
1070
   371
1070
    18
1070
   372
1070
    18
1002
}
  0
DIMENSION
  5
82F9
330
82EF
100
AcDbEntity
  8
実形
100
AcDbDimension
  2
*D54
 10
139.6791669545857
 20
-0.0000000000002274
 30
0.0
 11
120.9859227156669
 21
-40.55984924531822
 31
0.0
 12
-1709.208376945844
 22
-1012.580390790751
 32
0.0
 70
   128
  1
20
 71
     5
 42
39.99999999999977
  3
ISO-25
100
AcDbAlignedDimension
 13
40.91889863543906
 23
39.99999999999955
 33
0.0
 14
49.49946441108521
 24
-0.0000000000001137
 34
0.0
 50
90.0
100
AcDbRotatedDimension
1001
ACAD
1000
DSTYLE
1002
{
1070
    41
1040
10.0
1070
   140
1040
30.0
1070
   147
1040
6.599999999999997
1070
   279
1070
     2
1070
   342
1005
30D
1070
   371
1070
    18
1070
   372
1070
    18
1002
}
  0
DIMENSION
  5
82FA
330
82EF
100
AcDbEntity
  8
実形
100
AcDbDimension
  2
*D55
 10
139.6791669545857
 20
39.99999999999955
 30
0.0
 11
118.0791669545856
 21
289.0000000000005
 31
0.0
 12
-1709.208376945844
 22
-1012.580390790751
 32
0.0
  1
249
 71
     5
 42
498.0000000000006
  3
ISO-25
100
AcDbAlignedDimension
 13
73.8839307267724
 23
538.0000000000001
 33
0.0
 14
67.25169874211201
 24
39.99999999999955
 34
0.0
 50
90.0
100
AcDbRotatedDimension
1001
ACAD
1000
DSTYLE
1002
{
1070
    41
1040
10.0
1070
   140
1040
30.0
1070
   147
1040
6.599999999999997
1070
   279
1070
     2
1070
   342
1005
30D
1070
   371
1070
    18
1070
   372
1070
    18
1002
}
  0
DIMENSION
  5
82FB
330
82EF
100
AcDbEntity
  8
実形
100
AcDbDimension
  2
*D56
 10
-210.8276782735504
 20
52.0
 30
0.0
 11
-232.4276782735505
 21
289.0
 31
0.0
 12
-1709.208376945844
 22
-1012.580390790751
 32
0.0
  1
237
 71
     5
 42
473.9999999999997
  3
ISO-25
100
AcDbAlignedDimension
 13
-322.0282178405816
 23
525.9999999999998
 33
0.0
 14
-322.0282178405819
 24
52.0
 34
0.0
 50
90.0
100
AcDbRotatedDimension
1001
ACAD
1000
DSTYLE
1002
{
1070
    41
1040
10.0
1070
   140
1040
30.0
1070
   147
1040
6.599999999999997
1070
   279
1070
     2
1070
   342
1005
30D
1070
   371
1070
    18
1070
   372
1070
    18
1002
}
  0
DIMENSION
  5
82FC
330
82EF
100
AcDbEntity
  8
実形
100
AcDbDimension
  2
*D57
 10
-210.8276782735504
 20
0.0
 30
0.0
 11
-227.7676852477346
 21
615.3405134464057
 31
0.0
 12
-1709.208376945844
 22
-1012.580390790751
 32
0.0
 70
   128
  1
20
 71
     5
 42
577.9999999999999
  3
ISO-25
100
AcDbAlignedDimension
 13
-322.0282178405816
 23
578.0
 33
0.0
 14
-322.0282178405821
 24
0.0
 34
0.0
 50
90.0
100
AcDbRotatedDimension
1001
ACAD
1000
DSTYLE
1002
{
1070
    41
1040
10.0
1070
   140
1040
30.0
1070
   147
1040
6.599999999999997
1070
   279
1070
     2
1070
   342
1005
30D
1070
   371
1070
    18
1070
   372
1070
    18
1002
}
  0
DIMENSION
  5
82FD
330
82EF
100
AcDbEntity
  8
実形
100
AcDbDimension
  2
*D58
 10
-210.8276782735504
 20
40.0
 30
0.0
 11
-232.6647063830626
 21
-37.66060994960208
 31
0.0
 12
-1709.208376945844
 22
-1012.580390790751
 32
0.0
 70
   128
  1
20
 71
     5
 42
498.0
  3
ISO-25
100
AcDbAlignedDimension
 13
-322.0282178405816
 23
538.0
 33
0.0
 14
-322.0282178405819
 24
40.0
 34
0.0
 50
90.0
100
AcDbRotatedDimension
1001
ACAD
1000
DSTYLE
1002
{
1070
    41
1040
10.0
1070
   140
1040
30.0
1070
   147
1040
6.599999999999997
1070
   279
1070
     2
1070
   342
1005
30D
1070
   371
1070
    18
1070
   372
1070
    18
1002
}
  0
LINE
  5
82FE
330
82EF
100
AcDbEntity
  8
実形
100
AcDbLine
 10
0.0
 20
51.99999999999977
 30
0.0
 11
29.99999999999977
 21
51.99999999999954
 31
0.0
  0
LINE
  5
82FF
330
82EF
100
AcDbEntity
  8
実形
100
AcDbLine
 10
0.0000000000002274
 20
40.0
 30
0.0
 11
21.89999999999987
 21
39.99999999999977
 31
0.0
  0
LINE
  5
8300
330
82EF
100
AcDbEntity
  8
実形
100
AcDbLine
 10
8.100604707967249
 20
31.90000000000009
 30
0.0
 11
29.99999999999977
 21
31.90000000000009
 31
0.0
  0
LINE
  5
8301
330
82EF
100
AcDbEntity
  8
実形
100
AcDbLine
 10
-161.7608076178005
 20
-0.0000000000007958
 30
0.0
 11
-153.6602029098335
 21
-0.0000000000005684
 31
0.0
  0
LINE
  5
8302
330
82EF
100
AcDbEntity
  8
実形
100
AcDbLine
 10
-161.7608076178005
 20
0.0
 30
0.0
 11
-153.6602029098335
 21
0.0000000000002274
 31
0.0
  0
DIMENSION
  5
8303
330
82EF
100
AcDbEntity
  8
実形
100
AcDbDimension
  2
*D59
 10
29.99999999999977
 20
-90.68520115123076
 30
0.0
 11
16.4552027400789
 21
-121.1632125097494
 31
0.0
 12
-1709.208376945844
 22
-1012.580390790751
 32
0.0
 70
   128
  1
15
 71
     5
 42
29.99999999999977
  3
ISO-25
100
AcDbAlignedDimension
 13
0.0
 23
-1.615969159160158
 33
0.0
 14
29.99999999999977
 24
-0.4610599193035796
 34
0.0
100
AcDbRotatedDimension
1001
ACAD
1000
DSTYLE
1002
{
1070
    41
1040
10.0
1070
   140
1040
30.0
1070
   147
1040
6.599999999999997
1070
   279
1070
     2
1070
   342
1005
30D
1070
   371
1070
    18
1070
   372
1070
    18
1002
}
  0
LINE
  5
8304
330
82EF
100
AcDbEntity
  8
実形
100
AcDbLine
 10
0.0
 20
-20.61292597043212
 30
0.0
 11
0.0
 21
-50.66916293914414
 31
0.0
  0
LINE
  5
8305
330
82EF
100
AcDbEntity
  8
実形
100
AcDbLine
 10
0.0
 20
-50.66916293914414
 30
0.0
 11
8.100604707966795
 21
-50.66916293914414
 31
0.0
  0
LINE
  5
8306
330
82EF
100
AcDbEntity
  8
実形
100
AcDbLine
 10
8.100604707966795
 20
-50.66916293914414
 30
0.0
 11
8.100604707966795
 21
-20.61292597043212
 31
0.0
  0
LINE
  5
8307
330
82EF
100
AcDbEntity
  8
実形
100
AcDbLine
 10
21.89939529203321
 20
-20.61292597043212
 30
0.0
 11
21.89939529203321
 21
-50.66916293914414
 31
0.0
  0
LINE
  5
8308
330
82EF
100
AcDbEntity
  8
実形
100
AcDbLine
 10
21.89939529203321
 20
-50.66916293914414
 30
0.0
 11
30.0
 21
-50.66916293914414
 31
0.0
  0
LINE
  5
8309
330
82EF
100
AcDbEntity
  8
実形
100
AcDbLine
 10
30.0
 20
-50.66916293914414
 30
0.0
 11
30.0
 21
-20.61292597043212
 31
0.0
  0
TEXT
  5
830A
330
82EF
100
AcDbEntity
  8
実形
100
AcDbText
 10
-3.15501394483437
 20
-47.31833959721978
 30
0.0
 40
7.0
  1
●
 50
180.0
 71
     2
 72
     2
 11
2.911652721832296
 21
-46.38500626388645
 31
0.0
100
AcDbText
 73
     1
  0
TEXT
  5
830B
330
82EF
100
AcDbEntity
  8
実形
100
AcDbText
 10
4.195360737484572
 20
-47.31833959721978
 30
0.0
 40
7.0
  1
●
 50
180.0
 71
     2
 72
     2
 11
10.26202740415124
 21
-46.38500626388645
 31
0.0
100
AcDbText
 73
     1
  0
TEXT
  5
830C
330
82EF
100
AcDbEntity
  8
実形
100
AcDbText
 10
18.46371470029697
 20
-47.03015700497842
 30
0.0
 40
7.0
  1
●
 50
180.0
 71
     2
 72
     2
 11
24.53038136696364
 21
-46.09682367164509
 31
0.0
100
AcDbText
 73
     1
  0
TEXT
  5
830D
330
82EF
100
AcDbEntity
  8
実形
100
AcDbText
 10
26.67881509588478
 20
-47.17424223741607
 30
0.0
 40
7.0
  1
●
 50
180.0
 71
     2
 72
     2
 11
32.74548176255144
 21
-46.24090890408274
 31
0.0
100
AcDbText
 73
     1
  0
TEXT
  5
830E
330
82EF
100
AcDbEntity
  8
実形
100
AcDbText
 10
46.27027592924689
 20
-61.43440161851549
 30
0.0
 40
25.0
  1
1.2
 72
     4
 11
67.10360926258022
 21
-48.93440161851549
 31
0.0
100
AcDbText
  0
TEXT
  5
830F
330
82EF
100
AcDbEntity
  8
実形
100
AcDbText
 10
-60.19610776824001
 20
-61.43440161851549
 30
0.0
 40
25.0
  1
1.2
 72
     4
 11
-39.36277443490668
 21
-48.93440161851549
 31
0.0
100
AcDbText
  0
LINE
  5
8310
330
82EF
100
AcDbEntity
  8
実形
100
AcDbLine
 10
67.87015191611931
 20
31.90000000000009
 30
0.0
 11
104.2579714940736
 21
31.90000000000009
 31
0.0
  0
LINE
  5
8311
330
82EF
100
AcDbEntity
  8
実形
100
AcDbLine
 10
67.87015191611954
 20
39.99999999999955
 30
0.0
 11
105.0548468572822
 21
39.99999999999955
 31
0.0
  0
TEXT
  5
8312
330
82EF
100
AcDbEntity
  8
実形
100
AcDbText
 10
100.8227236780582
 20
34.83996627473364
 30
0.0
 40
7.0
  1
●
 50
180.0
 71
     2
 72
     2
 11
106.8893903447249
 21
35.77329960806697
 31
0.0
100
AcDbText
 73
     1
  0
TEXT
  5
8313
330
82EF
100
AcDbEntity
  8
実形
100
AcDbText
 10
100.9159436924352
 20
43.58441655661528
 30
0.0
 40
7.0
  1
●
 50
180.0
 71
     2
 72
     2
 11
106.9826103591019
 21
44.51774988994862
 31
0.0
100
AcDbText
 73
     1
  0
TEXT
  5
8314
330
82EF
100
AcDbEntity
  8
実形
100
AcDbText
 10
97.52045300050372
 20
-16.17965127657392
 30
0.0
 40
25.0
  1
1.2
 50
90.0
 72
     4
 11
85.02045300050372
 21
4.653682056759407
 31
0.0
100
AcDbText
  0
LINE
  5
8315
330
82EF
100
AcDbEntity
  8
実形
 62
     3
100
AcDbLine
 10
104.1906232045956
 20
40.23434118881914
 30
0.0
 11
104.1906232045956
 21
32.32597861216664
 31
0.0
  0
DIMENSION
  5
8316
330
82EF
100
AcDbEntity
  8
実形
100
AcDbDimension
  2
*D60
 10
139.6791669545857
 20
40.0
 30
0.0
 11
116.3563434256709
 21
74.02960302244583
 31
0.0
 12
-1709.208376945844
 22
-1012.580390790751
 32
0.0
 70
   128
  1
6
 71
     5
 42
11.99999999999954
  3
ISO-25
100
AcDbAlignedDimension
 13
39.84861009482188
 23
51.99999999999954
 33
0.0
 14
29.99999999999955
 24
40.0
 34
0.0
 50
90.0
100
AcDbRotatedDimension
1001
ACAD
1000
DSTYLE
1002
{
1070
    41
1040
10.0
1070
   140
1040
30.0
1070
   147
1040
6.599999999999997
1070
   279
1070
     2
1070
   342
1005
30D
1070
   371
1070
    18
1070
   372
1070
    18
1002
}
  0
DIMENSION
  5
8317
330
82EF
100
AcDbEntity
  8
実形
100
AcDbDimension
  2
*D62
 10
139.6791669545857
 20
578.0
 30
0.0
 11
120.9859227156669
 21
618.5598492453181
 31
0.0
 12
-1709.208376945844
 22
-1012.580390790751
 32
0.0
 70
   128
  1
20
 71
     5
 42
39.99999999999955
  3
ISO-25
100
AcDbAlignedDimension
 13
40.91889863543906
 23
538.0000000000003
 33
0.0
 14
49.49946441108521
 24
578.0
 34
0.0
 50
270.0
100
AcDbRotatedDimension
1001
ACAD
1000
DSTYLE
1002
{
1070
    41
1040
10.0
1070
   140
1040
30.0
1070
   147
1040
6.599999999999997
1070
   279
1070
     2
1070
   342
1005
30D
1070
   371
1070
    18
1070
   372
1070
    18
1002
}
  0
DIMENSION
  5
8318
330
82EF
100
AcDbEntity
  8
実形
100
AcDbDimension
  2
*D63
 10
29.99999999999977
 20
668.6852011512307
 30
0.0
 11
16.4552027400789
 21
699.1632125097494
 31
0.0
 12
-1709.208376945844
 22
-1012.580390790751
 32
0.0
 70
   128
  1
15
 71
     5
 42
29.99999999999977
  3
ISO-25
100
AcDbAlignedDimension
 13
0.0
 23
579.6159691591602
 33
0.0
 14
29.99999999999977
 24
578.4610599193036
 34
0.0
100
AcDbRotatedDimension
1001
ACAD
1000
DSTYLE
1002
{
1070
    41
1040
10.0
1070
   140
1040
30.0
1070
   147
1040
6.599999999999997
1070
   279
1070
     2
1070
   342
1005
30D
1070
   371
1070
    18
1070
   372
1070
    18
1002
}
  0
LINE
  5
8319
330
82EF
100
AcDbEntity
  8
実形
100
AcDbLine
 10
0.0
 20
598.6129259704321
 30
0.0
 11
0.0
 21
628.6691629391441
 31
0.0
  0
LINE
  5
831A
330
82EF
100
AcDbEntity
  8
実形
100
AcDbLine
 10
0.0
 20
628.6691629391441
 30
0.0
 11
8.100604707966795
 21
628.6691629391441
 31
0.0
  0
LINE
  5
831B
330
82EF
100
AcDbEntity
  8
実形
100
AcDbLine
 10
8.100604707966795
 20
628.6691629391441
 30
0.0
 11
8.100604707966795
 21
598.6129259704321
 31
0.0
  0
LINE
  5
831C
330
82EF
100
AcDbEntity
  8
実形
100
AcDbLine
 10
21.89939529203321
 20
598.6129259704321
 30
0.0
 11
21.89939529203321
 21
628.6691629391441
 31
0.0
  0
LINE
  5
831D
330
82EF
100
AcDbEntity
  8
実形
100
AcDbLine
 10
21.89939529203321
 20
628.6691629391441
 30
0.0
 11
30.0
 21
628.6691629391441
 31
0.0
  0
LINE
  5
831E
330
82EF
100
AcDbEntity
  8
実形
100
AcDbLine
 10
30.0
 20
628.6691629391441
 30
0.0
 11
30.0
 21
598.6129259704321
 31
0.0
  0
TEXT
  5
831F
330
82EF
100
AcDbEntity
  8
実形
100
AcDbText
 10
-3.15501394483437
 20
625.3183395972196
 30
0.0
 40
7.0
  1
●
 72
     2
 11
2.911652721832296
 21
624.3850062638863
 31
0.0
100
AcDbText
 73
     1
  0
TEXT
  5
8320
330
82EF
100
AcDbEntity
  8
実形
100
AcDbText
 10
4.195360737484572
 20
625.3183395972196
 30
0.0
 40
7.0
  1
●
 72
     2
 11
10.26202740415124
 21
624.3850062638863
 31
0.0
100
AcDbText
 73
     1
  0
TEXT
  5
8321
330
82EF
100
AcDbEntity
  8
実形
100
AcDbText
 10
18.46371470029697
 20
625.0301570049783
 30
0.0
 40
7.0
  1
●
 72
     2
 11
24.53038136696364
 21
624.0968236716451
 31
0.0
100
AcDbText
 73
     1
  0
TEXT
  5
8322
330
82EF
100
AcDbEntity
  8
実形
100
AcDbText
 10
26.67881509588478
 20
625.174242237416
 30
0.0
 40
7.0
  1
●
 72
     2
 11
32.74548176255144
 21
624.2409089040827
 31
0.0
100
AcDbText
 73
     1
  0
TEXT
  5
8323
330
82EF
100
AcDbEntity
  8
実形
100
AcDbText
 10
46.27027592924689
 20
611.5535610721912
 30
0.0
 40
25.0
  1
1.2
 72
     4
 11
67.10360926258022
 21
624.0535610721912
 31
0.0
100
AcDbText
  0
TEXT
  5
8324
330
82EF
100
AcDbEntity
  8
実形
100
AcDbText
 10
-60.19610776824001
 20
611.5535610721912
 30
0.0
 40
25.0
  1
1.2
 72
     4
 11
-39.36277443490668
 21
624.0535610721912
 31
0.0
100
AcDbText
  0
LINE
  5
8325
330
82EF
100
AcDbEntity
  8
実形
100
AcDbLine
 10
67.87015191611931
 20
546.0999999999997
 30
0.0
 11
104.2579714940736
 21
546.0999999999997
 31
0.0
  0
LINE
  5
8326
330
82EF
100
AcDbEntity
  8
実形
100
AcDbLine
 10
67.87015191611954
 20
538.0000000000003
 30
0.0
 11
105.0548468572822
 21
538.0000000000003
 31
0.0
  0
TEXT
  5
8327
330
82EF
100
AcDbEntity
  8
実形
100
AcDbText
 10
100.8227236780582
 20
543.1600337252663
 30
0.0
 40
7.0
  1
●
 72
     2
 11
106.8893903447249
 21
542.226700391933
 31
0.0
100
AcDbText
 73
     1
  0
TEXT
  5
8328
330
82EF
100
AcDbEntity
  8
実形
100
AcDbText
 10
100.9159436924352
 20
534.4155834433847
 30
0.0
 40
7.0
  1
●
 72
     2
 11
106.9826103591019
 21
533.4822501100513
 31
0.0
100
AcDbText
 73
     1
  0
TEXT
  5
8329
330
82EF
100
AcDbEntity
  8
実形
100
AcDbText
 10
97.52045300050372
 20
552.1262323590828
 30
0.0
 40
25.0
  1
1.2
 50
90.0
 72
     4
 11
85.02045300050372
 21
572.9595656924161
 31
0.0
100
AcDbText
  0
LINE
  5
832A
330
82EF
100
AcDbEntity
  8
実形
 62
     3
100
AcDbLine
 10
104.1906232045956
 20
537.7656588111809
 30
0.0
 11
104.1906232045956
 21
545.6740213878333
 31
0.0
  0
DIMENSION
  5
832B
330
82EF
100
AcDbEntity
  8
実形
100
AcDbDimension
  2
*D61
 10
139.6791669545857
 20
538.0
 30
0.0
 11
116.3563434256709
 21
503.9703969775541
 31
0.0
 12
-1709.208376945844
 22
-1012.580390790751
 32
0.0
 70
   128
  1
6
 71
     5
 42
11.99999999999954
  3
ISO-25
100
AcDbAlignedDimension
 13
39.84861009482188
 23
526.0000000000003
 33
0.0
 14
29.99999999999955
 24
538.0
 34
0.0
 50
270.0
100
AcDbRotatedDimension
1001
ACAD
1000
DSTYLE
1002
{
1070
    41
1040
10.0
1070
   140
1040
30.0
1070
   147
1040
6.599999999999997
1070
   279
1070
     2
1070
   342
1005
30D
1070
   371
1070
    18
1070
   372
1070
    18
1002
}
  0
LINE
  5
832C
330
82EF
100
AcDbEntity
  8
実形
100
AcDbLine
 10
8.100604707967022
 20
538.0000000000001
 30
0.0
 11
21.90000000000009
 21
538.0000000000001
 31
0.0
  0
LINE
  5
832D
330
82EF
100
AcDbEntity
  8
実形
100
AcDbLine
 10
29.99999999999977
 20
546.1000000000001
 30
0.0
 11
30.0
 21
139.0963399110449
 31
0.0
  0
LINE
  5
832E
330
82EF
100
AcDbEntity
  8
実形
100
AcDbLine
 10
21.89999999999987
 20
538.0000000000003
 30
0.0
 11
21.89999999999963
 21
526.0000000000006
 31
0.0
  0
LINE
  5
832F
330
82EF
100
AcDbEntity
  8
実形
100
AcDbLine
 10
0.0
 20
578.0000000000002
 30
0.0
 11
0.0
 21
538.0000000000001
 31
0.0
  0
LINE
  5
8330
330
82EF
100
AcDbEntity
  8
実形
100
AcDbLine
 10
-0.0000000000002274
 20
526.0000000000006
 30
0.0
 11
0.0
 21
139.0963399110449
 31
0.0
  0
LINE
  5
8331
330
82EF
100
AcDbEntity
  8
実形
100
AcDbLine
 10
8.100604707966795
 20
578.0000000000002
 30
0.0
 11
8.100604707967022
 21
546.1000000000001
 31
0.0
  0
LINE
  5
8332
330
82EF
100
AcDbEntity
  8
実形
100
AcDbLine
 10
8.100604707966795
 20
526.0000000000006
 30
0.0
 11
8.100604707966567
 21
139.0963399110449
 31
0.0
  0
LINE
  5
8333
330
82EF
100
AcDbEntity
  8
実形
100
AcDbLine
 10
0.0
 20
526.0000000000003
 30
0.0
 11
29.99999999999977
 21
526.0000000000006
 31
0.0
  0
LINE
  5
8334
330
82EF
100
AcDbEntity
  8
実形
100
AcDbLine
 10
0.0000000000002274
 20
538.0000000000001
 30
0.0
 11
21.89999999999987
 21
538.0000000000003
 31
0.0
  0
LINE
  5
8335
330
82EF
100
AcDbEntity
  8
実形
100
AcDbLine
 10
8.100604707967249
 20
546.1000000000001
 30
0.0
 11
29.99999999999977
 21
546.1000000000001
 31
0.0
  0
DIMENSION
  5
8336
330
82EF
100
AcDbEntity
  8
実形
100
AcDbDimension
  2
*D64
 10
139.6791669545857
 20
538.0000000000001
 30
0.0
 11
116.3563434256709
 21
503.9703969775543
 31
0.0
 12
-1709.208376945844
 22
-1012.580390790751
 32
0.0
 70
   128
  1
6
 71
     5
 42
11.99999999999954
  3
ISO-25
100
AcDbAlignedDimension
 13
39.84861009482188
 23
526.0000000000006
 33
0.0
 14
29.99999999999955
 24
538.0000000000001
 34
0.0
 50
270.0
100
AcDbRotatedDimension
1001
ACAD
1000
DSTYLE
1002
{
1070
    41
1040
10.0
1070
   140
1040
30.0
1070
   147
1040
6.599999999999997
1070
   279
1070
     2
1070
   342
1005
30D
1070
   371
1070
    18
1070
   372
1070
    18
1002
}
  0
LINE
  5
8337
330
82EF
100
AcDbEntity
  8
実形
100
AcDbLine
 10
0.0
 20
578.0000000000002
 30
0.0
 11
8.100604707966795
 21
578.0
 31
0.0
  0
ENDBLK
  5
833B
330
82EF
100
AcDbEntity
  8
0
 62
     3
100
AcDbBlockEnd
  0
BLOCK
  5
8391
330
8387
100
AcDbEntity
  8
0
 62
     3
100
AcDbBlockBegin
  2
*D66
 70
     1
 10
0.0
 20
0.0
 30
0.0
  3
*D66
  1

  0
LINE
  5
8956
330
8387
100
AcDbEntity
  8
実形
 62
     0
370
    18
100
AcDbLine
 10
1973.756243221971
 20
1605.580390790751
 30
0.0
 11
2042.579345571373
 21
1605.580390790751
 31
0.0
  0
LINE
  5
8957
330
8387
100
AcDbEntity
  8
実形
 62
     0
370
    18
100
AcDbLine
 10
1973.756243221971
 20
837.580390790751
 30
0.0
 11
2042.579345571372
 21
837.580390790751
 31
0.0
  0
LINE
  5
8958
330
8387
100
AcDbEntity
  8
実形
 62
     0
370
    18
100
AcDbLine
 10
2042.579345571373
 20
1595.580390790751
 30
0.0
 11
2042.579345571372
 21
847.580390790751
 31
0.0
  0
INSERT
  5
8959
330
8387
100
AcDbEntity
  8
実形
 62
     0
370
    18
100
AcDbBlockReference
  2
_Dot
 10
2042.579345571373
 20
1605.580390790751
 30
0.0
 41
10.0
 42
10.0
 43
10.0
 50
90.0
  0
INSERT
  5
895A
330
8387
100
AcDbEntity
  8
実形
 62
     0
370
    18
100
AcDbBlockReference
  2
_Dot
 10
2042.579345571372
 20
837.580390790751
 30
0.0
 41
10.0
 42
10.0
 43
10.0
 50
270.0
  0
MTEXT
  5
895B
330
8387
100
AcDbEntity
  8
実形
 62
     0
100
AcDbMText
 10
2020.979345571372
 20
1221.580390790751
 30
0.0
 40
30.0
 41
0.0
 71
     5
 72
     1
  1
384
 11
0.0000000000000001
 21
1.0
 31
0.0
 73
     1
 44
1.0
1001
ACAD
1000
MTEXTBEGIN
1070
    73
1070
     1
1070
    44
1040
1.0
1070
    74
1070
     0
1000
MTEXTEND
  0
POINT
  5
895C
330
8387
100
AcDbEntity
  8
Defpoints
 62
     0
100
AcDbPoint
 10
1908.756243221971
 20
1605.580390790751
 30
0.0
  0
POINT
  5
895D
330
8387
100
AcDbEntity
  8
Defpoints
 62
     0
100
AcDbPoint
 10
1908.756243221971
 20
837.580390790751
 30
0.0
  0
POINT
  5
895E
330
8387
100
AcDbEntity
  8
Defpoints
 62
     0
100
AcDbPoint
 10
2042.579345571372
 20
837.580390790751
 30
0.0
  0
ENDBLK
  5
8392
330
8387
100
AcDbEntity
  8
0
 62
     3
100
AcDbBlockEnd
  0
BLOCK
  5
839D
330
8393
100
AcDbEntity
  8
0
 62
     3
100
AcDbBlockBegin
  2
*D67
 70
     1
 10
0.0
 20
0.0
 30
0.0
  3
*D67
  1

  0
LINE
  5
895F
330
8393
100
AcDbEntity
  8
実形
 62
     0
370
    18
100
AcDbLine
 10
1952.238337640176
 20
877.5803907907507
 30
0.0
 11
1977.036550473462
 21
877.5803907907507
 31
0.0
  0
LINE
  5
8960
330
8393
100
AcDbEntity
  8
実形
 62
     0
370
    18
100
AcDbLine
 10
1941.40624244145
 20
837.580390790751
 30
0.0
 11
1977.036550473462
 21
837.580390790751
 31
0.0
  0
LINE
  5
8961
330
8393
100
AcDbEntity
  8
実形
 62
     0
370
    18
100
AcDbLine
 10
1977.036550473462
 20
867.5803907907507
 30
0.0
 11
1977.036550473462
 21
847.580390790751
 31
0.0
  0
MTEXT
  5
8962
330
8393
100
AcDbEntity
  8
実形
 62
     0
100
AcDbMText
 10
1958.343306234543
 20
797.0205415454329
 30
0.0
 40
30.0
 41
0.0
 71
     5
 72
     1
  1
20
 11
0.0000000000000001
 21
1.0
 31
0.0
 73
     1
 44
1.0
1001
ACAD
1000
MTEXTBEGIN
1070
    73
1070
     1
1070
    44
1040
1.0
1070
    74
1070
     0
1000
MTEXTEND
  0
INSERT
  5
8963
330
8393
100
AcDbEntity
  8
実形
 62
     0
370
    18
100
AcDbBlockReference
  2
_Dot
 10
1977.036550473462
 20
877.5803907907507
 30
0.0
 41
10.0
 42
10.0
 43
10.0
 50
90.0
  0
INSERT
  5
8964
330
8393
100
AcDbEntity
  8
実形
 62
     0
370
    18
100
AcDbBlockReference
  2
_Dot
 10
1977.036550473462
 20
837.580390790751
 30
0.0
 41
10.0
 42
10.0
 43
10.0
 50
270.0
  0
POINT
  5
8965
330
8393
100
AcDbEntity
  8
Defpoints
 62
     0
100
AcDbPoint
 10
1887.238337640177
 20
877.5803907907507
 30
0.0
  0
POINT
  5
8966
330
8393
100
AcDbEntity
  8
Defpoints
 62
     0
100
AcDbPoint
 10
1876.40624244145
 20
837.580390790751
 30
0.0
  0
POINT
  5
8967
330
8393
100
AcDbEntity
  8
Defpoints
 62
     0
100
AcDbPoint
 10
1977.036550473462
 20
837.580390790751
 30
0.0
  0
ENDBLK
  5
839E
330
8393
100
AcDbEntity
  8
0
 62
     3
100
AcDbBlockEnd
  0
BLOCK
  5
83A9
330
839F
100
AcDbEntity
  8
0
 62
     3
100
AcDbBlockBegin
  2
*D68
 70
     1
 10
0.0
 20
0.0
 30
0.0
  3
*D68
  1

  0
LINE
  5
8968
330
839F
100
AcDbEntity
  8
実形
 62
     0
370
    18
100
AcDbLine
 10
1976.241314245649
 20
1565.580390790751
 30
0.0
 11
1977.036550473462
 21
1565.580390790751
 31
0.0
  0
LINE
  5
8969
330
839F
100
AcDbEntity
  8
実形
 62
     0
370
    18
100
AcDbLine
 10
1969.609082260988
 20
877.5803907907507
 30
0.0
 11
1977.036550473461
 21
877.5803907907507
 31
0.0
  0
LINE
  5
896A
330
839F
100
AcDbEntity
  8
実形
 62
     0
370
    18
100
AcDbLine
 10
1977.036550473462
 20
1555.580390790751
 30
0.0
 11
1977.036550473461
 21
887.5803907907506
 31
0.0
  0
INSERT
  5
896B
330
839F
100
AcDbEntity
  8
実形
 62
     0
370
    18
100
AcDbBlockReference
  2
_Dot
 10
1977.036550473462
 20
1565.580390790751
 30
0.0
 41
10.0
 42
10.0
 43
10.0
 50
90.0
  0
INSERT
  5
896C
330
839F
100
AcDbEntity
  8
実形
 62
     0
370
    18
100
AcDbBlockReference
  2
_Dot
 10
1977.036550473461
 20
877.5803907907507
 30
0.0
 41
10.0
 42
10.0
 43
10.0
 50
270.0
  0
MTEXT
  5
896D
330
839F
100
AcDbEntity
  8
実形
 62
     0
100
AcDbMText
 10
1955.436550473461
 20
1221.580390790751
 30
0.0
 40
30.0
 41
0.0
 71
     5
 72
     1
  1
332
 11
0.0000000000000001
 21
1.0
 31
0.0
 73
     1
 44
1.0
1001
ACAD
1000
MTEXTBEGIN
1070
    73
1070
     1
1070
    44
1040
1.0
1070
    74
1070
     0
1000
MTEXTEND
  0
POINT
  5
896E
330
839F
100
AcDbEntity
  8
Defpoints
 62
     0
100
AcDbPoint
 10
1911.241314245649
 20
1565.580390790751
 30
0.0
  0
POINT
  5
896F
330
839F
100
AcDbEntity
  8
Defpoints
 62
     0
100
AcDbPoint
 10
1904.609082260989
 20
877.5803907907507
 30
0.0
  0
POINT
  5
8970
330
839F
100
AcDbEntity
  8
Defpoints
 62
     0
100
AcDbPoint
 10
1977.036550473461
 20
877.5803907907507
 30
0.0
  0
ENDBLK
  5
83AA
330
839F
100
AcDbEntity
  8
0
 62
     3
100
AcDbBlockEnd
  0
BLOCK
  5
83B5
330
83AB
100
AcDbEntity
  8
0
 62
     3
100
AcDbBlockBegin
  2
*D69
 70
     1
 10
0.0
 20
0.0
 30
0.0
  3
*D69
  1

  0
LINE
  5
8971
330
83AB
100
AcDbEntity
  8
実形
 62
     0
370
    18
100
AcDbLine
 10
1645.412504176796
 20
1553.580390790751
 30
0.0
 11
1691.613043743827
 21
1553.580390790751
 31
0.0
  0
LINE
  5
8972
330
83AB
100
AcDbEntity
  8
実形
 62
     0
370
    18
100
AcDbLine
 10
1645.412504176795
 20
889.5803907907511
 30
0.0
 11
1691.613043743827
 21
889.5803907907511
 31
0.0
  0
LINE
  5
8973
330
83AB
100
AcDbEntity
  8
実形
 62
     0
370
    18
100
AcDbLine
 10
1691.613043743827
 20
1543.580390790751
 30
0.0
 11
1691.613043743827
 21
899.5803907907511
 31
0.0
  0
INSERT
  5
8974
330
83AB
100
AcDbEntity
  8
実形
 62
     0
370
    18
100
AcDbBlockReference
  2
_Dot
 10
1691.613043743827
 20
1553.580390790751
 30
0.0
 41
10.0
 42
10.0
 43
10.0
 50
90.0
  0
INSERT
  5
8975
330
83AB
100
AcDbEntity
  8
実形
 62
     0
370
    18
100
AcDbBlockReference
  2
_Dot
 10
1691.613043743827
 20
889.5803907907511
 30
0.0
 41
10.0
 42
10.0
 43
10.0
 50
270.0
  0
MTEXT
  5
8976
330
83AB
100
AcDbEntity
  8
実形
 62
     0
100
AcDbMText
 10
1670.013043743827
 20
1221.580390790751
 30
0.0
 40
30.0
 41
0.0
 71
     5
 72
     1
  1
332
 11
0.0000000000000001
 21
1.0
 31
0.0
 73
     1
 44
1.0
1001
ACAD
1000
MTEXTBEGIN
1070
    73
1070
     1
1070
    44
1040
1.0
1070
    74
1070
     0
1000
MTEXTEND
  0
POINT
  5
8977
330
83AB
100
AcDbEntity
  8
Defpoints
 62
     0
100
AcDbPoint
 10
1580.412504176796
 20
1553.580390790751
 30
0.0
  0
POINT
  5
8978
330
83AB
100
AcDbEntity
  8
Defpoints
 62
     0
100
AcDbPoint
 10
1580.412504176796
 20
889.5803907907511
 30
0.0
  0
POINT
  5
8979
330
83AB
100
AcDbEntity
  8
Defpoints
 62
     0
100
AcDbPoint
 10
1691.613043743827
 20
889.5803907907511
 30
0.0
  0
ENDBLK
  5
83B6
330
83AB
100
AcDbEntity
  8
0
 62
     3
100
AcDbBlockEnd
  0
BLOCK
  5
83C1
330
83B7
100
AcDbEntity
  8
0
 62
     3
100
AcDbBlockBegin
  2
*D70
 70
     1
 10
0.0
 20
0.0
 30
0.0
  3
*D70
  1

  0
LINE
  5
897A
330
83B7
100
AcDbEntity
  8
実形
 62
     0
370
    18
100
AcDbLine
 10
1645.412504176796
 20
1605.580390790751
 30
0.0
 11
1691.613043743827
 21
1605.580390790751
 31
0.0
  0
LINE
  5
897B
330
83B7
100
AcDbEntity
  8
実形
 62
     0
370
    18
100
AcDbLine
 10
1645.412504176795
 20
837.5803907907512
 30
0.0
 11
1691.613043743827
 21
837.5803907907512
 31
0.0
  0
LINE
  5
897C
330
83B7
100
AcDbEntity
  8
実形
 62
     0
370
    18
100
AcDbLine
 10
1691.613043743827
 20
1595.580390790751
 30
0.0
 11
1691.613043743827
 21
847.5803907907511
 31
0.0
  0
MTEXT
  5
897D
330
83B7
100
AcDbEntity
  8
実形
 62
     0
100
AcDbMText
 10
1674.673036769643
 20
1642.920904237157
 30
0.0
 40
30.0
 41
0.0
 71
     5
 72
     1
  1
20
 11
0.0000000000000001
 21
1.0
 31
0.0
 73
     1
 44
1.0
1001
ACAD
1000
MTEXTBEGIN
1070
    73
1070
     1
1070
    44
1040
1.0
1070
    74
1070
     0
1000
MTEXTEND
  0
INSERT
  5
897E
330
83B7
100
AcDbEntity
  8
実形
 62
     0
370
    18
100
AcDbBlockReference
  2
_Dot
 10
1691.613043743827
 20
1605.580390790751
 30
0.0
 41
10.0
 42
10.0
 43
10.0
 50
90.0
  0
INSERT
  5
897F
330
83B7
100
AcDbEntity
  8
実形
 62
     0
370
    18
100
AcDbBlockReference
  2
_Dot
 10
1691.613043743827
 20
837.5803907907512
 30
0.0
 41
10.0
 42
10.0
 43
10.0
 50
270.0
  0
POINT
  5
8980
330
83B7
100
AcDbEntity
  8
Defpoints
 62
     0
100
AcDbPoint
 10
1580.412504176796
 20
1605.580390790751
 30
0.0
  0
POINT
  5
8981
330
83B7
100
AcDbEntity
  8
Defpoints
 62
     0
100
AcDbPoint
 10
1580.412504176795
 20
837.5803907907512
 30
0.0
  0
POINT
  5
8982
330
83B7
100
AcDbEntity
  8
Defpoints
 62
     0
100
AcDbPoint
 10
1691.613043743827
 20
837.5803907907512
 30
0.0
  0
ENDBLK
  5
83C2
330
83B7
100
AcDbEntity
  8
0
 62
     3
100
AcDbBlockEnd
  0
BLOCK
  5
83CD
330
83C3
100
AcDbEntity
  8
0
 62
     3
100
AcDbBlockBegin
  2
*D71
 70
     1
 10
0.0
 20
0.0
 30
0.0
  3
*D71
  1

  0
LINE
  5
8983
330
83C3
100
AcDbEntity
  8
実形
 62
     0
370
    18
100
AcDbLine
 10
1645.412504176796
 20
1565.580390790751
 30
0.0
 11
1691.613043743827
 21
1565.580390790751
 31
0.0
  0
LINE
  5
8984
330
83C3
100
AcDbEntity
  8
実形
 62
     0
370
    18
100
AcDbLine
 10
1645.412504176795
 20
877.5803907907512
 30
0.0
 11
1691.613043743827
 21
877.5803907907512
 31
0.0
  0
LINE
  5
8985
330
83C3
100
AcDbEntity
  8
実形
 62
     0
370
    18
100
AcDbLine
 10
1691.613043743827
 20
1555.580390790751
 30
0.0
 11
1691.613043743827
 21
887.5803907907512
 31
0.0
  0
MTEXT
  5
8986
330
83C3
100
AcDbEntity
  8
実形
 62
     0
100
AcDbMText
 10
1669.776015634315
 20
799.9197808411492
 30
0.0
 40
30.0
 41
0.0
 71
     5
 72
     1
  1
20
 11
0.0000000000000001
 21
1.0
 31
0.0
 73
     1
 44
1.0
1001
ACAD
1000
MTEXTBEGIN
1070
    73
1070
     1
1070
    44
1040
1.0
1070
    74
1070
     0
1000
MTEXTEND
  0
INSERT
  5
8987
330
83C3
100
AcDbEntity
  8
実形
 62
     0
370
    18
100
AcDbBlockReference
  2
_Dot
 10
1691.613043743827
 20
1565.580390790751
 30
0.0
 41
10.0
 42
10.0
 43
10.0
 50
90.0
  0
INSERT
  5
8988
330
83C3
100
AcDbEntity
  8
実形
 62
     0
370
    18
100
AcDbBlockReference
  2
_Dot
 10
1691.613043743827
 20
877.5803907907512
 30
0.0
 41
10.0
 42
10.0
 43
10.0
 50
270.0
  0
POINT
  5
8989
330
83C3
100
AcDbEntity
  8
Defpoints
 62
     0
100
AcDbPoint
 10
1580.412504176796
 20
1565.580390790751
 30
0.0
  0
POINT
  5
898A
330
83C3
100
AcDbEntity
  8
Defpoints
 62
     0
100
AcDbPoint
 10
1580.412504176796
 20
877.5803907907512
 30
0.0
  0
POINT
  5
898B
330
83C3
100
AcDbEntity
  8
Defpoints
 62
     0
100
AcDbPoint
 10
1691.613043743827
 20
877.5803907907512
 30
0.0
  0
ENDBLK
  5
83CE
330
83C3
100
AcDbEntity
  8
0
 62
     3
100
AcDbBlockEnd
  0
BLOCK
  5
83DB
330
83CF
100
AcDbEntity
  8
0
 62
     3
100
AcDbBlockBegin
  2
*D72
 70
     1
 10
0.0
 20
0.0
 30
0.0
  3
*D72
  1

  0
LINE
  5
898C
330
83CF
100
AcDbEntity
  8
実形
 62
     0
370
    18
100
AcDbLine
 10
1837.357383518876
 20
770.964421631591
 30
0.0
 11
1837.357383518876
 21
746.8951896395203
 31
0.0
  0
LINE
  5
898D
330
83CF
100
AcDbEntity
  8
実形
 62
     0
370
    18
100
AcDbLine
 10
1867.357383518876
 20
772.1193308714474
 30
0.0
 11
1867.357383518876
 21
746.8951896395203
 31
0.0
  0
LINE
  5
898E
330
83CF
100
AcDbEntity
  8
実形
 62
     0
370
    18
100
AcDbLine
 10
1827.357383518876
 20
746.8951896395203
 30
0.0
 11
1817.357383518876
 21
746.8951896395203
 31
0.0
  0
LINE
  5
898F
330
83CF
100
AcDbEntity
  8
実形
 62
     0
370
    18
100
AcDbLine
 10
1877.357383518876
 20
746.8951896395203
 30
0.0
 11
1887.357383518876
 21
746.8951896395203
 31
0.0
  0
MTEXT
  5
8990
330
83CF
100
AcDbEntity
  8
実形
 62
     0
100
AcDbMText
 10
1853.812586258955
 20
716.4171782810017
 30
0.0
 40
30.0
 41
0.0
 71
     5
 72
     1
  1
15
 73
     1
 44
1.0
1001
ACAD
1000
MTEXTBEGIN
1070
    73
1070
     1
1070
    44
1040
1.0
1070
    74
1070
     0
1000
MTEXTEND
  0
LINE
  5
8991
330
83CF
100
AcDbEntity
  8
実形
 62
     0
370
    18
100
AcDbLine
 10
1837.357383518876
 20
746.8951896395203
 30
0.0
 11
1867.357383518876
 21
746.8951896395203
 31
0.0
  0
INSERT
  5
8992
330
83CF
100
AcDbEntity
  8
実形
 62
     0
370
    18
100
AcDbBlockReference
  2
_Dot
 10
1837.357383518876
 20
746.8951896395203
 30
0.0
 41
10.0
 42
10.0
 43
10.0
  0
INSERT
  5
8993
330
83CF
100
AcDbEntity
  8
実形
 62
     0
370
    18
100
AcDbBlockReference
  2
_Dot
 10
1867.357383518876
 20
746.8951896395203
 30
0.0
 41
10.0
 42
10.0
 43
10.0
 50
180.0
  0
POINT
  5
8994
330
83CF
100
AcDbEntity
  8
Defpoints
 62
     0
100
AcDbPoint
 10
1837.357383518876
 20
835.964421631591
 30
0.0
  0
POINT
  5
8995
330
83CF
100
AcDbEntity
  8
Defpoints
 62
     0
100
AcDbPoint
 10
1867.357383518876
 20
837.1193308714476
 30
0.0
  0
POINT
  5
8996
330
83CF
100
AcDbEntity
  8
Defpoints
 62
     0
100
AcDbPoint
 10
1867.357383518876
 20
746.8951896395203
 30
0.0
  0
ENDBLK
  5
83DC
330
83CF
100
AcDbEntity
  8
0
 62
     3
100
AcDbBlockEnd
  0
BLOCK
  5
83E9
330
83DD
100
AcDbEntity
  8
0
 62
     3
100
AcDbBlockBegin
  2
*D73
 70
     1
 10
0.0
 20
0.0
 30
0.0
  3
*D73
  1

  0
LINE
  5
8997
330
83DD
100
AcDbEntity
  8
実形
 62
     0
370
    18
100
AcDbLine
 10
1942.205993613698
 20
889.5803907907506
 30
0.0
 11
1977.036550473462
 21
889.5803907907506
 31
0.0
  0
LINE
  5
8998
330
83DD
100
AcDbEntity
  8
実形
 62
     0
370
    18
100
AcDbLine
 10
1941.40624244145
 20
877.5803907907512
 30
0.0
 11
1977.036550473462
 21
877.5803907907512
 31
0.0
  0
LINE
  5
8999
330
83DD
100
AcDbEntity
  8
実形
 62
     0
370
    18
100
AcDbLine
 10
1977.036550473462
 20
899.5803907907507
 30
0.0
 11
1977.036550473462
 21
909.5803907907507
 31
0.0
  0
LINE
  5
899A
330
83DD
100
AcDbEntity
  8
実形
 62
     0
370
    18
100
AcDbLine
 10
1977.036550473462
 20
867.5803907907511
 30
0.0
 11
1977.036550473462
 21
857.5803907907511
 31
0.0
  0
MTEXT
  5
899B
330
83DD
100
AcDbEntity
  8
実形
 62
     0
100
AcDbMText
 10
1920.416691031488
 20
883.5516116731897
 30
0.0
 40
25.0
 41
0.0
 71
     5
 72
     1
  1
6
 11
0.0000000000000001
 21
1.0
 31
0.0
 73
     1
 44
1.0
1001
ACAD
1000
MTEXTBEGIN
1070
    73
1070
     1
1070
    44
1040
1.0
1070
    74
1070
     0
1000
MTEXTEND
  0
LINE
  5
899C
330
83DD
100
AcDbEntity
  8
実形
 62
     0
370
    18
100
AcDbLine
 10
1977.036550473462
 20
889.5803907907506
 30
0.0
 11
1977.036550473462
 21
877.5803907907512
 31
0.0
  0
INSERT
  5
899D
330
83DD
100
AcDbEntity
  8
実形
 62
     0
370
    18
100
AcDbBlockReference
  2
_Dot
 10
1977.036550473462
 20
889.5803907907506
 30
0.0
 41
10.0
 42
10.0
 43
10.0
 50
270.0
  0
INSERT
  5
899E
330
83DD
100
AcDbEntity
  8
実形
 62
     0
370
    18
100
AcDbBlockReference
  2
_Dot
 10
1977.036550473462
 20
877.5803907907512
 30
0.0
 41
10.0
 42
10.0
 43
10.0
 50
90.0
  0
POINT
  5
899F
330
83DD
100
AcDbEntity
  8
Defpoints
 62
     0
100
AcDbPoint
 10
1877.205993613698
 20
889.5803907907506
 30
0.0
  0
POINT
  5
89A0
330
83DD
100
AcDbEntity
  8
Defpoints
 62
     0
100
AcDbPoint
 10
1876.40624244145
 20
877.5803907907512
 30
0.0
  0
POINT
  5
89A1
330
83DD
100
AcDbEntity
  8
Defpoints
 62
     0
100
AcDbPoint
 10
1977.036550473462
 20
877.5803907907512
 30
0.0
  0
ENDBLK
  5
83EA
330
83DD
100
AcDbEntity
  8
0
 62
     3
100
AcDbBlockEnd
  0
BLOCK
  5
83F5
330
83EB
100
AcDbEntity
  8
0
 62
     3
100
AcDbBlockBegin
  2
*D74
 70
     1
 10
0.0
 20
0.0
 30
0.0
  3
*D74
  1

  0
LINE
  5
89A2
330
83EB
100
AcDbEntity
  8
実形
 62
     0
370
    18
100
AcDbLine
 10
1943.276282154315
 20
1565.580390790751
 30
0.0
 11
1977.036550473462
 21
1565.580390790751
 31
0.0
  0
LINE
  5
89A3
330
83EB
100
AcDbEntity
  8
実形
 62
     0
370
    18
100
AcDbLine
 10
1951.856847929962
 20
1605.580390790751
 30
0.0
 11
1977.036550473462
 21
1605.580390790751
 31
0.0
  0
LINE
  5
89A4
330
83EB
100
AcDbEntity
  8
実形
 62
     0
370
    18
100
AcDbLine
 10
1977.036550473462
 20
1575.580390790752
 30
0.0
 11
1977.036550473462
 21
1595.580390790751
 31
0.0
  0
MTEXT
  5
89A5
330
83EB
100
AcDbEntity
  8
実形
 62
     0
100
AcDbMText
 10
1958.343306234543
 20
1646.140240036069
 30
0.0
 40
30.0
 41
0.0
 71
     5
 72
     1
  1
20
 11
0.0000000000000001
 21
1.0
 31
0.0
 73
     1
 44
1.0
1001
ACAD
1000
MTEXTBEGIN
1070
    73
1070
     1
1070
    44
1040
1.0
1070
    74
1070
     0
1000
MTEXTEND
  0
INSERT
  5
89A6
330
83EB
100
AcDbEntity
  8
実形
 62
     0
370
    18
100
AcDbBlockReference
  2
_Dot
 10
1977.036550473462
 20
1565.580390790751
 30
0.0
 41
10.0
 42
10.0
 43
10.0
 50
270.0
  0
INSERT
  5
89A7
330
83EB
100
AcDbEntity
  8
実形
 62
     0
370
    18
100
AcDbBlockReference
  2
_Dot
 10
1977.036550473462
 20
1605.580390790751
 30
0.0
 41
10.0
 42
10.0
 43
10.0
 50
90.0
  0
POINT
  5
89A8
330
83EB
100
AcDbEntity
  8
Defpoints
 62
     0
100
AcDbPoint
 10
1878.276282154315
 20
1565.580390790751
 30
0.0
  0
POINT
  5
89A9
330
83EB
100
AcDbEntity
  8
Defpoints
 62
     0
100
AcDbPoint
 10
1886.85684792996
 20
1605.580390790751
 30
0.0
  0
POINT
  5
89AA
330
83EB
100
AcDbEntity
  8
Defpoints
 62
     0
100
AcDbPoint
 10
1977.036550473462
 20
1605.580390790751
 30
0.0
  0
ENDBLK
  5
83F6
330
83EB
100
AcDbEntity
  8
0
 62
     3
100
AcDbBlockEnd
  0
BLOCK
  5
8403
330
83F7
100
AcDbEntity
  8
0
 62
     3
100
AcDbBlockBegin
  2
*D75
 70
     1
 10
0.0
 20
0.0
 30
0.0
  3
*D75
  1

  0
LINE
  5
89AB
330
83F7
100
AcDbEntity
  8
実形
 62
     0
370
    18
100
AcDbLine
 10
1837.357383518876
 20
1672.196359949911
 30
0.0
 11
1837.357383518876
 21
1696.265591941982
 31
0.0
  0
LINE
  5
89AC
330
83F7
100
AcDbEntity
  8
実形
 62
     0
370
    18
100
AcDbLine
 10
1867.357383518876
 20
1671.041450710055
 30
0.0
 11
1867.357383518876
 21
1696.265591941982
 31
0.0
  0
LINE
  5
89AD
330
83F7
100
AcDbEntity
  8
実形
 62
     0
370
    18
100
AcDbLine
 10
1827.357383518876
 20
1696.265591941982
 30
0.0
 11
1817.357383518876
 21
1696.265591941982
 31
0.0
  0
LINE
  5
89AE
330
83F7
100
AcDbEntity
  8
実形
 62
     0
370
    18
100
AcDbLine
 10
1877.357383518876
 20
1696.265591941982
 30
0.0
 11
1887.357383518876
 21
1696.265591941982
 31
0.0
  0
MTEXT
  5
89AF
330
83F7
100
AcDbEntity
  8
実形
 62
     0
100
AcDbMText
 10
1853.812586258955
 20
1726.7436033005
 30
0.0
 40
30.0
 41
0.0
 71
     5
 72
     1
  1
15
 73
     1
 44
1.0
1001
ACAD
1000
MTEXTBEGIN
1070
    73
1070
     1
1070
    44
1040
1.0
1070
    74
1070
     0
1000
MTEXTEND
  0
LINE
  5
89B0
330
83F7
100
AcDbEntity
  8
実形
 62
     0
370
    18
100
AcDbLine
 10
1837.357383518876
 20
1696.265591941982
 30
0.0
 11
1867.357383518876
 21
1696.265591941982
 31
0.0
  0
INSERT
  5
89B1
330
83F7
100
AcDbEntity
  8
実形
 62
     0
370
    18
100
AcDbBlockReference
  2
_Dot
 10
1837.357383518876
 20
1696.265591941982
 30
0.0
 41
10.0
 42
10.0
 43
10.0
  0
INSERT
  5
89B2
330
83F7
100
AcDbEntity
  8
実形
 62
     0
370
    18
100
AcDbBlockReference
  2
_Dot
 10
1867.357383518876
 20
1696.265591941982
 30
0.0
 41
10.0
 42
10.0
 43
10.0
 50
180.0
  0
POINT
  5
89B3
330
83F7
100
AcDbEntity
  8
Defpoints
 62
     0
100
AcDbPoint
 10
1837.357383518876
 20
1607.196359949911
 30
0.0
  0
POINT
  5
89B4
330
83F7
100
AcDbEntity
  8
Defpoints
 62
     0
100
AcDbPoint
 10
1867.357383518876
 20
1606.041450710054
 30
0.0
  0
POINT
  5
89B5
330
83F7
100
AcDbEntity
  8
Defpoints
 62
     0
100
AcDbPoint
 10
1867.357383518876
 20
1696.265591941982
 30
0.0
  0
ENDBLK
  5
8404
330
83F7
100
AcDbEntity
  8
0
 62
     3
100
AcDbBlockEnd
  0
BLOCK
  5
8411
330
8405
100
AcDbEntity
  8
0
 62
     3
100
AcDbBlockBegin
  2
*D76
 70
     1
 10
0.0
 20
0.0
 30
0.0
  3
*D76
  1

  0
LINE
  5
89B6
330
8405
100
AcDbEntity
  8
実形
 62
     0
370
    18
100
AcDbLine
 10
1942.205993613698
 20
1553.580390790751
 30
0.0
 11
1977.036550473462
 21
1553.580390790751
 31
0.0
  0
LINE
  5
89B7
330
8405
100
AcDbEntity
  8
実形
 62
     0
370
    18
100
AcDbLine
 10
1942.034264569186
 20
1565.580390790751
 30
0.0
 11
1977.036550473462
 21
1565.580390790751
 31
0.0
  0
LINE
  5
89B8
330
8405
100
AcDbEntity
  8
実形
 62
     0
370
    18
100
AcDbLine
 10
1977.036550473462
 20
1543.580390790751
 30
0.0
 11
1977.036550473462
 21
1533.580390790751
 31
0.0
  0
LINE
  5
89B9
330
8405
100
AcDbEntity
  8
実形
 62
     0
370
    18
100
AcDbLine
 10
1977.036550473462
 20
1575.580390790751
 30
0.0
 11
1977.036550473462
 21
1585.580390790751
 31
0.0
  0
LINE
  5
89BA
330
8405
100
AcDbEntity
  8
実形
 62
     0
370
    18
100
AcDbLine
 10
1977.036550473462
 20
1553.580390790751
 30
0.0
 11
1977.036550473462
 21
1565.580390790751
 31
0.0
  0
INSERT
  5
89BB
330
8405
100
AcDbEntity
  8
実形
 62
     0
370
    18
100
AcDbBlockReference
  2
_Dot
 10
1977.036550473462
 20
1553.580390790751
 30
0.0
 41
10.0
 42
10.0
 43
10.0
 50
90.0
  0
INSERT
  5
89BC
330
8405
100
AcDbEntity
  8
実形
 62
     0
370
    18
100
AcDbBlockReference
  2
_Dot
 10
1977.036550473462
 20
1565.580390790751
 30
0.0
 41
10.0
 42
10.0
 43
10.0
 50
270.0
  0
POINT
  5
89BD
330
8405
100
AcDbEntity
  8
Defpoints
 62
     0
100
AcDbPoint
 10
1877.205993613698
 20
1553.580390790751
 30
0.0
  0
POINT
  5
89BE
330
8405
100
AcDbEntity
  8
Defpoints
 62
     0
100
AcDbPoint
 10
1877.034264569186
 20
1565.580390790751
 30
0.0
  0
POINT
  5
89BF
330
8405
100
AcDbEntity
  8
Defpoints
 62
     0
100
AcDbPoint
 10
1977.036550473462
 20
1565.580390790751
 30
0.0
  0
ENDBLK
  5
8412
330
8405
100
AcDbEntity
  8
0
 62
     3
100
AcDbBlockEnd
  0
BLOCK
  5
841F
330
8413
100
AcDbEntity
  8
0
 62
     3
100
AcDbBlockBegin
  2
*D77
 70
     1
 10
0.0
 20
0.0
 30
0.0
  3
*D77
  1

  0
LINE
  5
89C0
330
8413
100
AcDbEntity
  8
実形
 62
     0
370
    18
100
AcDbLine
 10
1942.205993613698
 20
1553.580390790752
 30
0.0
 11
1977.036550473462
 21
1553.580390790752
 31
0.0
  0
LINE
  5
89C1
330
8413
100
AcDbEntity
  8
実形
 62
     0
370
    18
100
AcDbLine
 10
1942.034264569186
 20
1565.580390790751
 30
0.0
 11
1977.036550473462
 21
1565.580390790751
 31
0.0
  0
LINE
  5
89C2
330
8413
100
AcDbEntity
  8
実形
 62
     0
370
    18
100
AcDbLine
 10
1977.036550473462
 20
1543.580390790752
 30
0.0
 11
1977.036550473462
 21
1533.580390790752
 31
0.0
  0
LINE
  5
89C3
330
8413
100
AcDbEntity
  8
実形
 62
     0
370
    18
100
AcDbLine
 10
1977.036550473462
 20
1575.580390790751
 30
0.0
 11
1977.036550473462
 21
1585.580390790751
 31
0.0
  0
MTEXT
  5
89C4
330
8413
100
AcDbEntity
  8
実形
 62
     0
100
AcDbMText
 10
1921.482266084403
 20
1561.123379875721
 30
0.0
 40
25.0
 41
0.0
 71
     5
 72
     1
  1
6
 11
0.0000000000000001
 21
1.0
 31
0.0
 73
     1
 44
1.0
1001
ACAD
1000
MTEXTBEGIN
1070
    73
1070
     1
1070
    44
1040
1.0
1070
    74
1070
     0
1000
MTEXTEND
  0
LINE
  5
89C5
330
8413
100
AcDbEntity
  8
実形
 62
     0
370
    18
100
AcDbLine
 10
1977.036550473462
 20
1553.580390790752
 30
0.0
 11
1977.036550473462
 21
1565.580390790751
 31
0.0
  0
INSERT
  5
89C6
330
8413
100
AcDbEntity
  8
実形
 62
     0
370
    18
100
AcDbBlockReference
  2
_Dot
 10
1977.036550473462
 20
1553.580390790752
 30
0.0
 41
10.0
 42
10.0
 43
10.0
 50
90.0
  0
INSERT
  5
89C7
330
8413
100
AcDbEntity
  8
実形
 62
     0
370
    18
100
AcDbBlockReference
  2
_Dot
 10
1977.036550473462
 20
1565.580390790751
 30
0.0
 41
10.0
 42
10.0
 43
10.0
 50
270.0
  0
POINT
  5
89C8
330
8413
100
AcDbEntity
  8
Defpoints
 62
     0
100
AcDbPoint
 10
1877.205993613698
 20
1553.580390790752
 30
0.0
  0
POINT
  5
89C9
330
8413
100
AcDbEntity
  8
Defpoints
 62
     0
100
AcDbPoint
 10
1877.034264569186
 20
1565.580390790751
 30
0.0
  0
POINT
  5
89CA
330
8413
100
AcDbEntity
  8
Defpoints
 62
     0
100
AcDbPoint
 10
1977.036550473462
 20
1565.580390790751
 30
0.0
  0
ENDBLK
  5
8420
330
8413
100
AcDbEntity
  8
0
 62
     3
100
AcDbBlockEnd
  0
BLOCK
  5
8811
330
8807
100
AcDbEntity
  8
0
 62
     3
100
AcDbBlockBegin
  2
*D78
 70
     1
 10
0.0
 20
0.0
 30
0.0
  3
*D78
  1

  0
LINE
  5
8870
330
8807
100
AcDbEntity
  8
実形
 62
     0
370
    18
100
AcDbLine
 10
910.7710340146242
 20
687.1567556932977
 30
0.0
 11
910.7710340146242
 21
637.3174627185721
 31
0.0
  0
LINE
  5
8871
330
8807
100
AcDbEntity
  8
実形
 62
     0
370
    18
100
AcDbLine
 10
1306.771034014624
 20
687.1567556932977
 30
0.0
 11
1306.771034014624
 21
637.3174627185721
 31
0.0
  0
LINE
  5
8872
330
8807
100
AcDbEntity
  8
実形
 62
     0
370
    18
100
AcDbLine
 10
920.7710340146244
 20
637.3174627185721
 30
0.0
 11
1296.771034014624
 21
637.3174627185721
 31
0.0
  0
MTEXT
  5
8873
330
8807
100
AcDbEntity
  8
実形
 62
     0
100
AcDbMText
 10
1109.205356699319
 20
658.9174627185721
 30
0.0
 40
30.0
 41
0.0
 71
     5
 72
     1
  1
198
 73
     1
 44
1.0
1001
ACAD
1000
MTEXTBEGIN
1070
    73
1070
     1
1070
    44
1040
1.0
1070
    74
1070
     0
1000
MTEXTEND
  0
INSERT
  5
8874
330
8807
100
AcDbEntity
  8
実形
 62
     0
370
    18
100
AcDbBlockReference
  2
_Dot
 10
910.7710340146242
 20
637.3174627185721
 30
0.0
 41
10.0
 42
10.0
 43
10.0
 50
180.0
  0
INSERT
  5
8875
330
8807
100
AcDbEntity
  8
実形
 62
     0
370
    18
100
AcDbBlockReference
  2
_Dot
 10
1306.771034014624
 20
637.3174627185721
 30
0.0
 41
10.0
 42
10.0
 43
10.0
  0
POINT
  5
8876
330
8807
100
AcDbEntity
  8
Defpoints
 62
     0
100
AcDbPoint
 10
910.7710340146242
 20
752.1567556932978
 30
0.0
  0
POINT
  5
8877
330
8807
100
AcDbEntity
  8
Defpoints
 62
     0
100
AcDbPoint
 10
1306.771034014624
 20
752.1567556932978
 30
0.0
  0
POINT
  5
8878
330
8807
100
AcDbEntity
  8
Defpoints
 62
     0
100
AcDbPoint
 10
1306.771034014624
 20
637.3174627185721
 30
0.0
  0
ENDBLK
  5
8812
330
8807
100
AcDbEntity
  8
0
 62
     3
100
AcDbBlockEnd
  0
BLOCK
  5
881D
330
8813
100
AcDbEntity
  8
0
 62
     3
100
AcDbBlockBegin
  2
*D79
 70
     1
 10
0.0
 20
0.0
 30
0.0
  3
*D79
  1

  0
LINE
  5
8879
330
8813
100
AcDbEntity
  8
実形
 62
     0
370
    18
100
AcDbLine
 10
898.7710340146241
 20
687.1567556932977
 30
0.0
 11
898.7710340146241
 21
637.3174627185721
 31
0.0
  0
LINE
  5
887A
330
8813
100
AcDbEntity
  8
実形
 62
     0
370
    18
100
AcDbLine
 10
1318.771034014624
 20
687.1567556932977
 30
0.0
 11
1318.771034014624
 21
637.3174627185721
 31
0.0
  0
LINE
  5
887B
330
8813
100
AcDbEntity
  8
実形
 62
     0
370
    18
100
AcDbLine
 10
908.7710340146243
 20
637.3174627185721
 30
0.0
 11
1308.771034014624
 21
637.3174627185721
 31
0.0
  0
MTEXT
  5
887C
330
8813
100
AcDbEntity
  8
実形
 62
     0
100
AcDbMText
 10
1312.448027638127
 20
714.0756676003197
 30
0.0
 40
30.0
 41
0.0
 71
     5
 72
     1
  1
6
 73
     1
 44
1.0
1001
ACAD
1000
MTEXTBEGIN
1070
    73
1070
     1
1070
    44
1040
1.0
1070
    74
1070
     0
1000
MTEXTEND
  0
INSERT
  5
887D
330
8813
100
AcDbEntity
  8
実形
 62
     0
370
    18
100
AcDbBlockReference
  2
_Dot
 10
898.7710340146241
 20
637.3174627185721
 30
0.0
 41
10.0
 42
10.0
 43
10.0
 50
180.0
  0
INSERT
  5
887E
330
8813
100
AcDbEntity
  8
実形
 62
     0
370
    18
100
AcDbBlockReference
  2
_Dot
 10
1318.771034014624
 20
637.3174627185721
 30
0.0
 41
10.0
 42
10.0
 43
10.0
  0
POINT
  5
887F
330
8813
100
AcDbEntity
  8
Defpoints
 62
     0
100
AcDbPoint
 10
898.7710340146241
 20
752.1567556932978
 30
0.0
  0
POINT
  5
8880
330
8813
100
AcDbEntity
  8
Defpoints
 62
     0
100
AcDbPoint
 10
1318.771034014624
 20
752.1567556932978
 30
0.0
  0
POINT
  5
8881
330
8813
100
AcDbEntity
  8
Defpoints
 62
     0
100
AcDbPoint
 10
1318.771034014624
 20
637.3174627185721
 30
0.0
  0
ENDBLK
  5
881E
330
8813
100
AcDbEntity
  8
0
 62
     3
100
AcDbBlockEnd
  0
BLOCK
  5
8829
330
881F
100
AcDbEntity
  8
0
 62
     3
100
AcDbBlockBegin
  2
*D80
 70
     1
 10
0.0
 20
0.0
 30
0.0
  3
*D80
  1

  0
LINE
  5
8882
330
881F
100
AcDbEntity
  8
実形
 62
     0
370
    18
100
AcDbLine
 10
898.0826962644341
 20
632.2288896761861
 30
0.0
 11
898.0826962644341
 21
637.3174627185721
 31
0.0
  0
LINE
  5
8883
330
881F
100
AcDbEntity
  8
実形
 62
     0
370
    18
100
AcDbLine
 10
1304.271034014624
 20
636.4180112169973
 30
0.0
 11
1304.271034014624
 21
637.3174627185721
 31
0.0
  0
LINE
  5
8884
330
881F
100
AcDbEntity
  8
実形
 62
     0
370
    18
100
AcDbLine
 10
908.0826962644341
 20
637.3174627185721
 30
0.0
 11
1294.271034014624
 21
637.3174627185721
 31
0.0
  0
MTEXT
  5
8885
330
881F
100
AcDbEntity
  8
実形
 62
     0
100
AcDbMText
 10
903.4829687759977
 20
711.4241525465317
 30
0.0
 40
30.0
 41
0.0
 71
     5
 72
     1
  1
6
 73
     1
 44
1.0
1001
ACAD
1000
MTEXTBEGIN
1070
    73
1070
     1
1070
    44
1040
1.0
1070
    74
1070
     0
1000
MTEXTEND
  0
INSERT
  5
8886
330
881F
100
AcDbEntity
  8
実形
 62
     0
370
    18
100
AcDbBlockReference
  2
_Dot
 10
898.0826962644341
 20
637.3174627185721
 30
0.0
 41
10.0
 42
10.0
 43
10.0
 50
180.0
  0
INSERT
  5
8887
330
881F
100
AcDbEntity
  8
実形
 62
     0
370
    18
100
AcDbBlockReference
  2
_Dot
 10
1304.271034014624
 20
637.3174627185721
 30
0.0
 41
10.0
 42
10.0
 43
10.0
  0
POINT
  5
8888
330
881F
100
AcDbEntity
  8
Defpoints
 62
     0
100
AcDbPoint
 10
898.0826962644341
 20
697.2288896761861
 30
0.0
  0
POINT
  5
8889
330
881F
100
AcDbEntity
  8
Defpoints
 62
     0
100
AcDbPoint
 10
1304.271034014624
 20
701.4180112169973
 30
0.0
  0
POINT
  5
888A
330
881F
100
AcDbEntity
  8
Defpoints
 62
     0
100
AcDbPoint
 10
1304.271034014624
 20
637.3174627185721
 30
0.0
  0
ENDBLK
  5
882A
330
881F
100
AcDbEntity
  8
0
 62
     3
100
AcDbBlockEnd
  0
BLOCK
  5
8835
330
882B
100
AcDbEntity
  8
0
 62
     3
100
AcDbBlockBegin
  2
*D81
 70
     1
 10
0.0
 20
0.0
 30
0.0
  3
*D81
  1

  0
LINE
  5
888B
330
882B
100
AcDbEntity
  8
実形
 62
     0
370
    18
100
AcDbLine
 10
1318.771034014624
 20
685.9069531209147
 30
0.0
 11
1318.771034014624
 21
637.3174627185721
 31
0.0
  0
LINE
  5
888C
330
882B
100
AcDbEntity
  8
実形
 62
     0
370
    18
100
AcDbLine
 10
1358.771034014624
 20
685.906953120915
 30
0.0
 11
1358.771034014624
 21
637.3174627185721
 31
0.0
  0
LINE
  5
888D
330
882B
100
AcDbEntity
  8
実形
 62
     0
370
    18
100
AcDbLine
 10
1328.771034014624
 20
637.3174627185721
 30
0.0
 11
1348.771034014624
 21
637.3174627185721
 31
0.0
  0
MTEXT
  5
888E
330
882B
100
AcDbEntity
  8
実形
 62
     0
100
AcDbMText
 10
1396.501054352438
 20
661.2665840348512
 30
0.0
 40
30.0
 41
0.0
 71
     5
 72
     1
  1
20
 73
     1
 44
1.0
1001
ACAD
1000
MTEXTBEGIN
1070
    73
1070
     1
1070
    44
1040
1.0
1070
    74
1070
     0
1000
MTEXTEND
  0
INSERT
  5
888F
330
882B
100
AcDbEntity
  8
実形
 62
     0
370
    18
100
AcDbBlockReference
  2
_Dot
 10
1318.771034014624
 20
637.3174627185721
 30
0.0
 41
10.0
 42
10.0
 43
10.0
 50
180.0
  0
INSERT
  5
8890
330
882B
100
AcDbEntity
  8
実形
 62
     0
370
    18
100
AcDbBlockReference
  2
_Dot
 10
1358.771034014624
 20
637.3174627185721
 30
0.0
 41
10.0
 42
10.0
 43
10.0
  0
POINT
  5
8891
330
882B
100
AcDbEntity
  8
Defpoints
 62
     0
100
AcDbPoint
 10
1318.771034014624
 20
750.9069531209147
 30
0.0
  0
POINT
  5
8892
330
882B
100
AcDbEntity
  8
Defpoints
 62
     0
100
AcDbPoint
 10
1358.771034014624
 20
750.9069531209148
 30
0.0
  0
POINT
  5
8893
330
882B
100
AcDbEntity
  8
Defpoints
 62
     0
100
AcDbPoint
 10
1358.771034014624
 20
637.3174627185721
 30
0.0
  0
ENDBLK
  5
8836
330
882B
100
AcDbEntity
  8
0
 62
     3
100
AcDbBlockEnd
  0
BLOCK
  5
8841
330
8837
100
AcDbEntity
  8
0
 62
     3
100
AcDbBlockBegin
  2
*D82
 70
     1
 10
0.0
 20
0.0
 30
0.0
  3
*D82
  1

  0
LINE
  5
8894
330
8837
100
AcDbEntity
  8
実形
 62
     0
370
    18
100
AcDbLine
 10
858.7710340146236
 20
685.9069531209147
 30
0.0
 11
858.7710340146236
 21
637.3174627185721
 31
0.0
  0
LINE
  5
8895
330
8837
100
AcDbEntity
  8
実形
 62
     0
370
    18
100
AcDbLine
 10
898.7710340146241
 20
685.906953120915
 30
0.0
 11
898.7710340146241
 21
637.3174627185721
 31
0.0
  0
LINE
  5
8896
330
8837
100
AcDbEntity
  8
実形
 62
     0
370
    18
100
AcDbLine
 10
868.7710340146237
 20
637.3174627185721
 30
0.0
 11
888.7710340146242
 21
637.3174627185721
 31
0.0
  0
MTEXT
  5
8897
330
8837
100
AcDbEntity
  8
実形
 62
     0
100
AcDbMText
 10
819.6403534577875
 20
660.2394160536738
 30
0.0
 40
30.0
 41
0.0
 71
     5
 72
     1
  1
20
 73
     1
 44
1.0
1001
ACAD
1000
MTEXTBEGIN
1070
    73
1070
     1
1070
    44
1040
1.0
1070
    74
1070
     0
1000
MTEXTEND
  0
INSERT
  5
8898
330
8837
100
AcDbEntity
  8
実形
 62
     0
370
    18
100
AcDbBlockReference
  2
_Dot
 10
858.7710340146236
 20
637.3174627185721
 30
0.0
 41
10.0
 42
10.0
 43
10.0
 50
180.0
  0
INSERT
  5
8899
330
8837
100
AcDbEntity
  8
実形
 62
     0
370
    18
100
AcDbBlockReference
  2
_Dot
 10
898.7710340146241
 20
637.3174627185721
 30
0.0
 41
10.0
 42
10.0
 43
10.0
  0
POINT
  5
889A
330
8837
100
AcDbEntity
  8
Defpoints
 62
     0
100
AcDbPoint
 10
858.7710340146236
 20
750.9069531209147
 30
0.0
  0
POINT
  5
889B
330
8837
100
AcDbEntity
  8
Defpoints
 62
     0
100
AcDbPoint
 10
898.7710340146241
 20
750.9069531209148
 30
0.0
  0
POINT
  5
889C
330
8837
100
AcDbEntity
  8
Defpoints
 62
     0
100
AcDbPoint
 10
898.7710340146241
 20
637.3174627185721
 30
0.0
  0
ENDBLK
  5
8842
330
8837
100
AcDbEntity
  8
0
 62
     3
100
AcDbBlockEnd
  0
BLOCK
  5
8A17
330
8A0D
100
AcDbEntity
  8
0
 62
     3
100
AcDbBlockBegin
  2
*D83
 70
     1
 10
0.0
 20
0.0
 30
0.0
  3
*D83
  1

  0
LINE
  5
8ADB
330
8A0D
100
AcDbEntity
  8
実形
 62
     0
370
    18
100
AcDbLine
 10
1496.128647434989
 20
1251.580390790751
 30
0.0
 11
1544.102903920704
 21
1251.580390790751
 31
0.0
  0
LINE
  5
8ADC
330
8A0D
100
AcDbEntity
  8
実形
 62
     0
370
    18
100
AcDbLine
 10
1496.128647434989
 20
1191.580390790751
 30
0.0
 11
1544.102903920704
 21
1191.58039079075
 31
0.0
  0
LINE
  5
8ADD
330
8A0D
100
AcDbEntity
  8
実形
 62
     0
370
    18
100
AcDbLine
 10
1544.102903920704
 20
1241.580390790751
 30
0.0
 11
1544.102903920704
 21
1201.58039079075
 31
0.0
  0
INSERT
  5
8ADE
330
8A0D
100
AcDbEntity
  8
実形
 62
     0
370
    18
100
AcDbBlockReference
  2
_Dot
 10
1544.102903920704
 20
1251.580390790751
 30
0.0
 41
10.0
 42
10.0
 43
10.0
 50
90.0
  0
INSERT
  5
8ADF
330
8A0D
100
AcDbEntity
  8
実形
 62
     0
370
    18
100
AcDbBlockReference
  2
_Dot
 10
1544.102903920704
 20
1191.58039079075
 30
0.0
 41
10.0
 42
10.0
 43
10.0
 50
270.0
  0
MTEXT
  5
8AE0
330
8A0D
100
AcDbEntity
  8
実形
 62
     0
100
AcDbMText
 10
1522.502903920704
 20
1221.580390790751
 30
0.0
 40
30.0
 41
0.0
 71
     5
 72
     1
  1
30
 11
0.0000000000000001
 21
1.0
 31
0.0
 73
     1
 44
1.0
1001
ACAD
1000
MTEXTBEGIN
1070
    73
1070
     1
1070
    44
1040
1.0
1070
    74
1070
     0
1000
MTEXTEND
  0
POINT
  5
8AE1
330
8A0D
100
AcDbEntity
  8
Defpoints
 62
     0
100
AcDbPoint
 10
1431.128647434989
 20
1251.580390790751
 30
0.0
  0
POINT
  5
8AE2
330
8A0D
100
AcDbEntity
  8
Defpoints
 62
     0
100
AcDbPoint
 10
1431.128647434989
 20
1191.580390790751
 30
0.0
  0
POINT
  5
8AE3
330
8A0D
100
AcDbEntity
  8
Defpoints
 62
     0
100
AcDbPoint
 10
1544.102903920704
 20
1191.58039079075
 30
0.0
  0
ENDBLK
  5
8A18
330
8A0D
100
AcDbEntity
  8
0
 62
     3
100
AcDbBlockEnd
  0
BLOCK
  5
8A25
330
8A1B
100
AcDbEntity
  8
0
 62
     3
100
AcDbBlockBegin
  2
*D84
 70
     1
 10
0.0
 20
0.0
 30
0.0
  3
*D84
  1

  0
LINE
  5
8AD2
330
8A1B
100
AcDbEntity
  8
実形
 62
     0
370
    18
100
AcDbLine
 10
1495.848633410622
 20
1553.580390790751
 30
0.0
 11
1544.102903920704
 21
1553.580390790751
 31
0.0
  0
LINE
  5
8AD3
330
8A1B
100
AcDbEntity
  8
実形
 62
     0
370
    18
100
AcDbLine
 10
1496.128647434989
 20
1251.580390790751
 30
0.0
 11
1544.102903920704
 21
1251.580390790751
 31
0.0
  0
LINE
  5
8AD4
330
8A1B
100
AcDbEntity
  8
実形
 62
     0
370
    18
100
AcDbLine
 10
1544.102903920704
 20
1543.580390790751
 30
0.0
 11
1544.102903920704
 21
1261.580390790751
 31
0.0
  0
INSERT
  5
8AD5
330
8A1B
100
AcDbEntity
  8
実形
 62
     0
370
    18
100
AcDbBlockReference
  2
_Dot
 10
1544.102903920704
 20
1553.580390790751
 30
0.0
 41
10.0
 42
10.0
 43
10.0
 50
90.0
  0
INSERT
  5
8AD6
330
8A1B
100
AcDbEntity
  8
実形
 62
     0
370
    18
100
AcDbBlockReference
  2
_Dot
 10
1544.102903920704
 20
1251.580390790751
 30
0.0
 41
10.0
 42
10.0
 43
10.0
 50
270.0
  0
MTEXT
  5
8AD7
330
8A1B
100
AcDbEntity
  8
実形
 62
     0
100
AcDbMText
 10
1522.502903920704
 20
1402.580390790751
 30
0.0
 40
30.0
 41
0.0
 71
     5
 72
     1
  1
151
 11
0.0000000000000001
 21
1.0
 31
0.0
 73
     1
 44
1.0
1001
ACAD
1000
MTEXTBEGIN
1070
    73
1070
     1
1070
    44
1040
1.0
1070
    74
1070
     0
1000
MTEXTEND
  0
POINT
  5
8AD8
330
8A1B
100
AcDbEntity
  8
Defpoints
 62
     0
100
AcDbPoint
 10
1430.848633410622
 20
1553.580390790751
 30
0.0
  0
POINT
  5
8AD9
330
8A1B
100
AcDbEntity
  8
Defpoints
 62
     0
100
AcDbPoint
 10
1431.128647434989
 20
1251.580390790751
 30
0.0
  0
POINT
  5
8ADA
330
8A1B
100
AcDbEntity
  8
Defpoints
 62
     0
100
AcDbPoint
 10
1544.102903920704
 20
1251.580390790751
 30
0.0
  0
ENDBLK
  5
8A26
330
8A1B
100
AcDbEntity
  8
0
 62
     3
100
AcDbBlockEnd
  0
BLOCK
  5
8A3C
330
8A32
100
AcDbEntity
  8
0
 62
     3
100
AcDbBlockBegin
  2
*D85
 70
     1
 10
0.0
 20
0.0
 30
0.0
  3
*D85
  1

  0
LINE
  5
8AC9
330
8A32
100
AcDbEntity
  8
実形
 62
     0
370
    18
100
AcDbLine
 10
1496.128647434989
 20
1191.580390790751
 30
0.0
 11
1544.102903920704
 21
1191.58039079075
 31
0.0
  0
LINE
  5
8ACA
330
8A32
100
AcDbEntity
  8
実形
 62
     0
370
    18
100
AcDbLine
 10
1496.128647434989
 20
889.5803907907511
 30
0.0
 11
1544.102903920704
 21
889.5803907907511
 31
0.0
  0
LINE
  5
8ACB
330
8A32
100
AcDbEntity
  8
実形
 62
     0
370
    18
100
AcDbLine
 10
1544.102903920704
 20
1181.58039079075
 30
0.0
 11
1544.102903920704
 21
899.5803907907511
 31
0.0
  0
INSERT
  5
8ACC
330
8A32
100
AcDbEntity
  8
実形
 62
     0
370
    18
100
AcDbBlockReference
  2
_Dot
 10
1544.102903920704
 20
1191.58039079075
 30
0.0
 41
10.0
 42
10.0
 43
10.0
 50
90.0
  0
INSERT
  5
8ACD
330
8A32
100
AcDbEntity
  8
実形
 62
     0
370
    18
100
AcDbBlockReference
  2
_Dot
 10
1544.102903920704
 20
889.5803907907511
 30
0.0
 41
10.0
 42
10.0
 43
10.0
 50
270.0
  0
MTEXT
  5
8ACE
330
8A32
100
AcDbEntity
  8
実形
 62
     0
100
AcDbMText
 10
1522.502903920704
 20
1040.580390790751
 30
0.0
 40
30.0
 41
0.0
 71
     5
 72
     1
  1
151
 11
0.0000000000000001
 21
1.0
 31
0.0
 73
     1
 44
1.0
1001
ACAD
1000
MTEXTBEGIN
1070
    73
1070
     1
1070
    44
1040
1.0
1070
    74
1070
     0
1000
MTEXTEND
  0
POINT
  5
8ACF
330
8A32
100
AcDbEntity
  8
Defpoints
 62
     0
100
AcDbPoint
 10
1431.128647434989
 20
1191.580390790751
 30
0.0
  0
POINT
  5
8AD0
330
8A32
100
AcDbEntity
  8
Defpoints
 62
     0
100
AcDbPoint
 10
1431.128647434989
 20
889.5803907907511
 30
0.0
  0
POINT
  5
8AD1
330
8A32
100
AcDbEntity
  8
Defpoints
 62
     0
100
AcDbPoint
 10
1544.102903920704
 20
889.5803907907511
 30
0.0
  0
ENDBLK
  5
8A3D
330
8A32
100
AcDbEntity
  8
0
 62
     3
100
AcDbBlockEnd
  0
ENDSEC
  0
SECTION
  2
ENTITIES
  0
LINE
  5
9C
330
1F
100
AcDbEntity
  8
枠
 62
     0
100
AcDbLine
 10
159.0
 20
3.999999999999088
 30
0.0
 11
2834.0
 21
3.999999999999089
 31
0.0
  0
LINE
  5
A0
330
1F
100
AcDbEntity
  8
枠
 62
     0
100
AcDbLine
 10
2834.0
 20
2023.999999999999
 30
0.0
 11
159.0
 21
2023.999999999999
 31
0.0
  0
LINE
  5
272
330
1F
100
AcDbEntity
  8
実形
 62
     0
100
AcDbLine
 10
2234.0
 20
133.9999999999991
 30
0.0
 11
2234.0
 21
198.9999999999991
 31
0.0
  0
LINE
  5
1B71
330
1F
100
AcDbEntity
  8
枠
 62
     0
100
AcDbLine
 10
2834.0
 20
1959.0
 30
0.0
 11
2114.0
 21
1959.0
 31
0.0
  0
LINE
  5
1B72
330
1F
100
AcDbEntity
  8
枠
 62
     0
100
AcDbLine
 10
2834.0
 20
1893.999999999999
 30
0.0
 11
2114.0
 21
1893.999999999999
 31
0.0
  0
LINE
  5
1B73
330
1F
100
AcDbEntity
  8
枠
 62
     0
100
AcDbLine
 10
1944.0
 20
2023.999999999999
 30
0.0
 11
2834.0
 21
2023.999999999999
 31
0.0
  0
LINE
  5
1B74
330
1F
100
AcDbEntity
  8
枠
 62
     0
100
AcDbLine
 10
2114.0
 20
1893.999999999999
 30
0.0
 11
2114.0
 21
2024.0
 31
0.0
  0
TEXT
  5
1B7B
330
1F
100
AcDbEntity
  8
枠
 62
     0
100
AcDbText
 10
2671.5
 20
1976.5
 30
0.0
 40
30.0
  1
仕上げ
 72
     4
 11
2721.5
 21
1991.5
 31
0.0
100
AcDbText
  0
LINE
  5
1B7C
330
1F
100
AcDbEntity
  8
枠
 62
     0
100
AcDbLine
 10
2609.0
 20
1893.999999999999
 30
0.0
 11
2609.0
 21
2024.0
 31
0.0
  0
TEXT
  5
1B7F
330
1F
100
AcDbEntity
  8
枠
 62
     0
100
AcDbText
 10
2217.0
 20
1976.499999999999
 30
0.0
 40
30.0
  1
材質
 72
     4
 11
2249.0
 21
1991.499999999999
 31
0.0
100
AcDbText
  0
LINE
  5
1B84
330
1F
100
AcDbEntity
  8
実形
 62
     0
100
AcDbLine
 10
2114.0
 20
68.99999999999909
 30
0.0
 11
2834.0
 21
68.99999999999909
 31
0.0
  0
LINE
  5
1B85
330
1F
100
AcDbEntity
  8
実形
 62
     0
100
AcDbLine
 10
2114.0
 20
198.9999999999991
 30
0.0
 11
2834.0
 21
198.9999999999991
 31
0.0
  0
LINE
  5
1B86
330
1F
100
AcDbEntity
  8
実形
 62
     0
100
AcDbLine
 10
2114.0
 20
133.9999999999991
 30
0.0
 11
2834.0
 21
133.9999999999991
 31
0.0
  0
LINE
  5
1B87
330
1F
100
AcDbEntity
  8
実形
 62
     0
100
AcDbLine
 10
2114.0
 20
3.999999999999089
 30
0.0
 11
2114.0
 21
198.9999999999991
 31
0.0
  0
TEXT
  5
1B88
330
1F
100
AcDbEntity
  8
実形
 62
     0
100
AcDbText
 10
2345.468239004244
 20
15.92857142857052
 30
0.0
 40
40.0
  1
中外交易株式会社
  7
ms明朝
 72
     4
 11
2579.525381861387
 21
36.49999999999909
 31
0.0
100
AcDbText
  0
LINE
  5
1B8A
330
1F
100
AcDbEntity
  8
実形
 62
     0
100
AcDbLine
 10
2234.0
 20
68.99999999999909
 30
0.0
 11
2834.0
 21
68.99999999999909
 31
0.0
  0
LINE
  5
1B8B
102
{ACAD_REACTORS
330
1B98
102
}
330
1F
100
AcDbEntity
  8
実形
 62
     0
370
     5
100
AcDbLine
 10
2257.843923164362
 20
40.53787547858428
 30
0.0
 11
2233.255774665348
 21
40.53787547858428
 31
0.0
  0
LINE
  5
1B8C
102
{ACAD_REACTORS
330
1B98
102
}
330
1F
100
AcDbEntity
  8
実形
 62
     0
370
     5
100
AcDbLine
 10
2233.255774665348
 20
40.53787547858428
 30
0.0
 11
2233.255774665348
 21
30.53787547858429
 31
0.0
  0
LINE
  5
1B8D
102
{ACAD_REACTORS
330
1B98
102
}
330
1F
100
AcDbEntity
  8
枠
 62
     0
370
     5
100
AcDbLine
 10
2233.255774665348
 20
30.53787547858429
 30
0.0
 11
2257.346428692676
 21
30.53787547858429
 31
0.0
  0
LINE
  5
1B8E
102
{ACAD_REACTORS
330
1B98
102
}
330
1F
100
AcDbEntity
  8
実形
 62
     0
370
     5
100
AcDbLine
 10
2260.641894042939
 20
56.49999999999909
 30
0.0
 11
2260.641894042939
 21
16.49999999999909
 31
0.0
  0
LINE
  5
1B8F
102
{ACAD_REACTORS
330
1B98
102
}
330
1F
100
AcDbEntity
  8
枠
 62
     0
370
     5
100
AcDbLine
 10
2260.641894042939
 20
16.49999999999909
 30
0.0
 11
2295.641894042939
 21
16.49999999999909
 31
0.0
  0
LINE
  5
1B90
102
{ACAD_REACTORS
330
1B98
102
}
330
1F
100
AcDbEntity
  8
枠
 62
     0
370
     5
100
AcDbLine
 10
2295.641894042939
 20
16.49999999999909
 30
0.0
 11
2260.641894042939
 21
36.49999999999909
 31
0.0
  0
LINE
  5
1B91
102
{ACAD_REACTORS
330
1B98
102
}
330
1F
100
AcDbEntity
  8
実形
 62
     0
370
     5
100
AcDbLine
 10
2260.641894042939
 20
36.49999999999909
 30
0.0
 11
2295.641894042939
 21
56.49999999999909
 31
0.0
  0
LINE
  5
1B92
102
{ACAD_REACTORS
330
1B98
102
}
330
1F
100
AcDbEntity
  8
実形
 62
     0
370
     5
100
AcDbLine
 10
2295.641894042939
 20
56.49999999999909
 30
0.0
 11
2260.641894042939
 21
56.49999999999909
 31
0.0
  0
LINE
  5
1B93
102
{ACAD_REACTORS
330
1B98
102
}
330
1F
100
AcDbEntity
  8
実形
 62
     0
370
     5
100
AcDbLine
 10
2326.75434681301
 20
40.53787547858428
 30
0.0
 11
2302.166198313996
 21
40.53787547858428
 31
0.0
  0
LINE
  5
1B94
102
{ACAD_REACTORS
330
1B98
102
}
330
1F
100
AcDbEntity
  8
実形
 62
     0
370
     5
100
AcDbLine
 10
2302.166198313996
 20
40.53787547858428
 30
0.0
 11
2302.166198313996
 21
30.53787547858429
 31
0.0
  0
LINE
  5
1B95
102
{ACAD_REACTORS
330
1B98
102
}
330
1F
100
AcDbEntity
  8
枠
 62
     0
370
     5
100
AcDbLine
 10
2302.166198313996
 20
30.53787547858429
 30
0.0
 11
2326.256852341323
 21
30.53787547858429
 31
0.0
  0
ARC
  5
1B96
102
{ACAD_REACTORS
330
1B98
102
}
330
1F
100
AcDbEntity
  8
実形
 62
     0
370
     5
100
AcDbCircle
 10
2238.255774665347
 20
36.49999999999909
 30
0.0
 40
20.0
100
AcDbArc
 50
11.64772366708617
 51
342.6561058784773
  0
ARC
  5
1B97
102
{ACAD_REACTORS
330
1B98
102
}
330
1F
100
AcDbEntity
  8
実形
 62
     0
370
     5
100
AcDbCircle
 10
2307.166198313995
 20
36.49999999999909
 30
0.0
 40
20.0
100
AcDbArc
 50
11.64772366708617
 51
342.6561058784773
  0
HATCH
  5
1B98
330
1F
100
AcDbEntity
  8
実形
 62
     0
100
AcDbHatch
 10
0.0
 20
0.0
 30
0.0
210
0.0
220
0.0
230
1.0
  2
SOLID
 70
     1
 71
     1
 91
        3
 92
        1
 93
        4
 72
     2
 10
2307.166198313995
 20
36.49999999999909
 40
20.0
 50
11.64772366708617
 51
342.6561058784773
 73
     1
 72
     1
 10
2326.256852341323
 20
30.53787547858429
 11
2302.166198313996
 21
30.53787547858429
 72
     1
 10
2302.166198313996
 20
30.53787547858429
 11
2302.166198313996
 21
40.53787547858428
 72
     1
 10
2302.166198313996
 20
40.53787547858428
 11
2326.75434681301
 21
40.53787547858428
 97
        4
330
1B97
330
1B95
330
1B94
330
1B93
 92
        1
 93
        4
 72
     2
 10
2238.255774665347
 20
36.49999999999909
 40
20.0
 50
11.64772366708617
 51
342.6561058784773
 73
     1
 72
     1
 10
2257.346428692676
 20
30.53787547858429
 11
2233.255774665348
 21
30.53787547858429
 72
     1
 10
2233.255774665348
 20
30.53787547858429
 11
2233.255774665348
 21
40.53787547858428
 72
     1
 10
2233.255774665348
 20
40.53787547858428
 11
2257.843923164362
 21
40.53787547858428
 97
        4
330
1B96
330
1B8D
330
1B8C
330
1B8B
 92
        1
 93
        5
 72
     1
 10
2295.641894042939
 20
56.49999999999909
 11
2260.641894042939
 21
56.49999999999909
 72
     1
 10
2260.641894042939
 20
56.49999999999909
 11
2260.641894042939
 21
16.49999999999909
 72
     1
 10
2260.641894042939
 20
16.49999999999909
 11
2295.641894042939
 21
16.49999999999909
 72
     1
 10
2295.641894042939
 20
16.49999999999909
 11
2260.641894042939
 21
36.49999999999909
 72
     1
 10
2260.641894042939
 20
36.49999999999909
 11
2295.641894042939
 21
56.49999999999909
 97
        5
330
1B92
330
1B8E
330
1B8F
330
1B90
330
1B91
 75
     0
 76
     1
 98
        1
 10
-10.0
 20
-0.0000000000009095
  0
LINE
  5
1B99
330
1F
100
AcDbEntity
  8
実形
 62
     0
100
AcDbLine
 10
2234.0
 20
68.99999999999909
 30
0.0
 11
2234.0
 21
198.9999999999991
 31
0.0
  0
LINE
  5
1BA2
330
1F
100
AcDbEntity
  8
枠
 62
     0
100
AcDbLine
 10
2384.0
 20
1893.999999999999
 30
0.0
 11
2384.0
 21
2024.0
 31
0.0
  0
TEXT
  5
1BA6
330
1F
100
AcDbEntity
  8
枠
 62
     0
100
AcDbText
 10
2466.5
 20
1977.5
 30
0.0
 40
30.0
  1
厚さ
 72
     4
 11
2496.5
 21
1991.5
 31
0.0
100
AcDbText
  0
TEXT
  5
1BA7
330
1F
100
AcDbEntity
  8
実形
 62
     0
100
AcDbText
 10
2435.5
 20
1911.500000000001
 30
0.0
 40
30.0
  1
1.2ｍｍ
 72
     4
 11
2496.5
 21
1926.500000000001
 31
0.0
100
AcDbText
  0
TEXT
  5
1BA8
330
1F
100
AcDbEntity
  8
実形
 62
     0
100
AcDbText
 10
2166.5
 20
1911.5
 30
0.0
 40
30.0
  1
SUS304
 72
     4
 11
2249.0
 21
1926.5
 31
0.0
100
AcDbText
  0
LINE
  5
5164
330
1F
100
AcDbEntity
  8
実形
100
AcDbLine
 10
922.771034014624
 20
1605.58039079075
 30
0.0
 11
1294.771034014624
 21
1605.580390790751
 31
0.0
  0
LINE
  5
5165
330
1F
100
AcDbEntity
  8
実形
100
AcDbLine
 10
1358.771034014624
 20
1541.580390790751
 30
0.0
 11
1358.771034014624
 21
1263.580390790751
 31
0.0
  0
LINE
  5
5166
330
1F
100
AcDbEntity
  8
実形
100
AcDbLine
 10
1294.771034014624
 20
837.5803907907512
 30
0.0
 11
922.7710340146243
 21
837.5803907907512
 31
0.0
  0
LINE
  5
5167
330
1F
100
AcDbEntity
  8
実形
100
AcDbLine
 10
858.7710340146239
 20
901.580390790751
 30
0.0
 11
858.7710340146243
 21
1179.580390790751
 31
0.0
  0
LINE
  5
5169
330
1F
100
AcDbEntity
  8
実形
100
AcDbLine
 10
910.7710340146239
 20
1565.580390790751
 30
0.0
 11
1306.771034014624
 21
1565.580390790751
 31
0.0
  0
LINE
  5
516A
330
1F
100
AcDbEntity
  8
実形
100
AcDbLine
 10
1318.771034014624
 20
1553.580390790751
 30
0.0
 11
1318.771034014624
 21
889.5803907907509
 31
0.0
  0
LINE
  5
516B
330
1F
100
AcDbEntity
  8
実形
100
AcDbLine
 10
898.7710340146241
 20
889.5803907907511
 30
0.0
 11
898.7710340146241
 21
1553.580390790751
 31
0.0
  0
LINE
  5
516C
330
1F
100
AcDbEntity
  8
実形
100
AcDbLine
 10
1306.771034014624
 20
877.580390790751
 30
0.0
 11
910.7710340146242
 21
877.5803907907512
 31
0.0
  0
LINE
  5
516D
330
1F
100
AcDbEntity
  8
実形
  6
CENTER2
 48
0.8
100
AcDbLine
 10
936.0767009752873
 20
1501.580390790751
 30
0.0
 11
1153.105161809597
 21
1501.580390790751
 31
0.0
  0
LINE
  5
516E
330
1F
100
AcDbEntity
  8
実形
  6
CENTER2
 48
0.8
100
AcDbLine
 10
936.0767009752873
 20
1421.580390790751
 30
0.0
 11
1153.105161809597
 21
1421.580390790751
 31
0.0
  0
LINE
  5
516F
330
1F
100
AcDbEntity
  8
実形
  6
CENTER2
 48
0.8
100
AcDbLine
 10
844.3063003984516
 20
1421.580390790751
 30
0.0
 11
1379.208754798989
 21
1421.580390790751
 31
0.0
  0
CIRCLE
  5
517D
330
1F
100
AcDbEntity
  8
実形
100
AcDbCircle
 10
948.7710340146239
 20
1501.580390790751
 30
0.0
 40
8.0
  0
DIMENSION
  5
517E
330
1F
100
AcDbEntity
  8
実形
100
AcDbDimension
  2
*D8
 10
898.7710340146241
 20
1697.206346885678
 30
0.0
 11
822.8304222143343
 21
1719.456882112318
 31
0.0
 70
   160
  1
20
 71
     5
 42
40.0
  3
ISO-25
100
AcDbAlignedDimension
 13
858.7710340146243
 23
1600.664804741403
 33
0.0
 14
898.7710340146241
 24
1600.664804741403
 34
0.0
100
AcDbRotatedDimension
1001
ACAD
1000
DSTYLE
1002
{
1070
    41
1040
10.0
1070
   140
1040
30.0
1070
   147
1040
6.599999999999997
1070
   279
1070
     2
1070
   342
1005
30D
1070
   371
1070
    18
1070
   372
1070
    18
1002
}
  0
DIMENSION
  5
51A6
330
1F
100
AcDbEntity
  8
実形
100
AcDbDimension
  2
*D9
 10
948.7710340146239
 20
1697.206346885678
 30
0.0
 11
921.2868215322739
 21
1642.708940632247
 31
0.0
 70
   160
  1
25
 71
     5
 42
50.0
  3
ISO-25
100
AcDbAlignedDimension
 13
898.7710340146241
 23
1600.664804741403
 33
0.0
 14
948.7710340146239
 24
1600.664804741403
 34
0.0
100
AcDbRotatedDimension
1001
ACAD
1000
DSTYLE
1002
{
1070
    41
1040
10.0
1070
   140
1040
30.0
1070
   147
1040
6.599999999999997
1070
   279
1070
     2
1070
   342
1005
30D
1070
   371
1070
    18
1070
   372
1070
    18
1002
}
  0
DIMENSION
  5
51E0
330
1F
100
AcDbEntity
  8
実形
100
AcDbDimension
  2
*D10
 10
1028.771034014624
 20
1697.206346885678
 30
0.0
 11
988.771034014624
 21
1718.806346885678
 31
0.0
 70
    32
  1
40
 71
     5
 42
80.0
  3
ISO-25
100
AcDbAlignedDimension
 13
948.7710340146239
 23
1600.664804741403
 33
0.0
 14
1028.771034014624
 24
1600.664804741403
 34
0.0
100
AcDbRotatedDimension
1001
ACAD
1000
DSTYLE
1002
{
1070
    41
1040
10.0
1070
   140
1040
30.0
1070
   147
1040
6.599999999999997
1070
   279
1070
     2
1070
   342
1005
30D
1070
   371
1070
    18
1070
   372
1070
    18
1002
}
  0
DIMENSION
  5
5201
330
1F
100
AcDbEntity
  8
実形
100
AcDbDimension
  2
*D11
 10
1108.771034014624
 20
1697.206346885678
 30
0.0
 11
1068.771034014624
 21
1718.806346885678
 31
0.0
 70
    32
  1
40
 71
     5
 42
80.0
  3
ISO-25
100
AcDbAlignedDimension
 13
1028.771034014624
 23
1600.664804741403
 33
0.0
 14
1108.771034014624
 24
1600.664804741403
 34
0.0
100
AcDbRotatedDimension
1001
ACAD
1000
DSTYLE
1002
{
1070
    41
1040
10.0
1070
   140
1040
30.0
1070
   147
1040
6.599999999999997
1070
   279
1070
     2
1070
   342
1005
30D
1070
   371
1070
    18
1070
   372
1070
    18
1002
}
  0
DIMENSION
  5
523E
330
1F
100
AcDbEntity
  8
実形
100
AcDbDimension
  2
*D12
 10
1188.771034014624
 20
1697.206346885678
 30
0.0
 11
1148.771034014624
 21
1718.806346885678
 31
0.0
 70
    32
  1
40
 71
     5
 42
80.0
  3
ISO-25
100
AcDbAlignedDimension
 13
1108.771034014624
 23
1600.664804741403
 33
0.0
 14
1188.771034014624
 24
1600.664804741403
 34
0.0
100
AcDbRotatedDimension
1001
ACAD
1000
DSTYLE
1002
{
1070
    41
1040
10.0
1070
   140
1040
30.0
1070
   147
1040
6.599999999999997
1070
   279
1070
     2
1070
   342
1005
30D
1070
   371
1070
    18
1070
   372
1070
    18
1002
}
  0
DIMENSION
  5
5267
330
1F
100
AcDbEntity
  8
実形
100
AcDbDimension
  2
*D13
 10
1268.771034014624
 20
1697.206346885678
 30
0.0
 11
1228.771034014624
 21
1718.806346885678
 31
0.0
 70
    32
  1
40
 71
     5
 42
80.0
  3
ISO-25
100
AcDbAlignedDimension
 13
1188.771034014624
 23
1600.664804741403
 33
0.0
 14
1268.771034014624
 24
1600.664804741403
 34
0.0
100
AcDbRotatedDimension
1001
ACAD
1000
DSTYLE
1002
{
1070
    41
1040
10.0
1070
   140
1040
30.0
1070
   147
1040
6.599999999999997
1070
   279
1070
     2
1070
   342
1005
30D
1070
   371
1070
    18
1070
   372
1070
    18
1002
}
  0
DIMENSION
  5
527D
330
1F
100
AcDbEntity
  8
実形
100
AcDbDimension
  2
*D14
 10
1318.771034014624
 20
1697.206346885678
 30
0.0
 11
1295.353832290871
 21
1643.964465581163
 31
0.0
 70
   160
  1
25
 71
     5
 42
50.00000000000023
  3
ISO-25
100
AcDbAlignedDimension
 13
1268.771034014624
 23
1600.664804741403
 33
0.0
 14
1318.771034014624
 24
1600.664804741403
 34
0.0
100
AcDbRotatedDimension
1001
ACAD
1000
DSTYLE
1002
{
1070
    41
1040
10.0
1070
   140
1040
30.0
1070
   147
1040
6.599999999999997
1070
   279
1070
     2
1070
   342
1005
30D
1070
   371
1070
    18
1070
   372
1070
    18
1002
}
  0
DIMENSION
  5
52A7
330
1F
100
AcDbEntity
  8
実形
100
AcDbDimension
  2
*D15
 10
1358.771034014624
 20
1697.206346885678
 30
0.0
 11
1394.004490709541
 21
1741.678415130965
 31
0.0
 70
   160
  1
20
 71
     5
 42
39.99999999999977
  3
ISO-25
100
AcDbAlignedDimension
 13
1318.771034014624
 23
1600.664804741403
 33
0.0
 14
1358.771034014624
 24
1600.664804741403
 34
0.0
100
AcDbRotatedDimension
1001
ACAD
1000
DSTYLE
1002
{
1070
    41
1040
10.0
1070
   140
1040
30.0
1070
   147
1040
6.599999999999997
1070
   279
1070
     2
1070
   342
1005
30D
1070
   371
1070
    18
1070
   372
1070
    18
1002
}
  0
DIMENSION
  5
533B
330
1F
100
AcDbEntity
  8
実形
100
AcDbDimension
  2
*D16
 10
1358.771034014624
 20
1835.900840620273
 30
0.0
 11
1108.771034014624
 21
1857.500840620273
 31
0.0
 70
    32
  1
250
 71
     5
 42
500.0
  3
ISO-25
100
AcDbAlignedDimension
 13
858.7710340146243
 23
1600.664804741403
 33
0.0
 14
1358.771034014624
 24
1600.664804741403
 34
0.0
100
AcDbRotatedDimension
1001
ACAD
1000
DSTYLE
1002
{
1070
    41
1040
10.0
1070
   140
1040
30.0
1070
   147
1040
6.599999999999997
1070
   279
1070
     2
1070
   342
1005
30D
1070
   371
1070
    18
1070
   372
1070
    18
1002
}
  0
DIMENSION
  5
5375
330
1F
100
AcDbEntity
  8
実形
100
AcDbDimension
  2
*D17
 10
722.2887743570717
 20
1565.580390790751
 30
0.0
 11
693.5458459594245
 21
1575.541143657913
 31
0.0
 70
   160
  1
20
 71
     5
 42
40.0
  3
ISO-25
100
AcDbAlignedDimension
 13
817.942450665163
 23
1605.580390790751
 33
0.0
 14
818.3502058085251
 24
1565.580390790751
 34
0.0
 50
90.0
100
AcDbRotatedDimension
1001
ACAD
1000
DSTYLE
1002
{
1070
    41
1040
10.0
1070
   140
1040
30.0
1070
   147
1040
6.599999999999997
1070
   279
1070
     2
1070
   342
1005
30D
1070
   371
1070
    18
1070
   372
1070
    18
1002
}
  0
DIMENSION
  5
5394
330
1F
100
AcDbEntity
  8
実形
100
AcDbDimension
  2
*D18
 10
722.2887743570717
 20
1501.580390790751
 30
0.0
 11
783.9032377873027
 21
1533.279331203722
 31
0.0
 70
   160
  1
32
 71
     5
 42
63.99999999999977
  3
ISO-25
100
AcDbAlignedDimension
 13
818.3502058085251
 23
1565.580390790751
 33
0.0
 14
818.3502058085251
 24
1501.580390790751
 34
0.0
 50
90.0
100
AcDbRotatedDimension
1001
ACAD
1000
DSTYLE
1002
{
1070
    41
1040
10.0
1070
   140
1040
30.0
1070
   147
1040
6.599999999999997
1070
   279
1070
     2
1070
   342
1005
30D
1070
   371
1070
    18
1070
   372
1070
    18
1002
}
  0
DIMENSION
  5
53BC
330
1F
100
AcDbEntity
  8
実形
100
AcDbDimension
  2
*D19
 10
555.3174060899785
 20
837.5803907907512
 30
0.0
 11
533.7174060899783
 21
1221.580390790751
 31
0.0
 70
    32
  1
384
 71
     5
 42
768.0
  3
ISO-25
100
AcDbAlignedDimension
 13
817.0228547387342
 23
1605.580390790751
 33
0.0
 14
785.6471586503374
 24
837.5803907907512
 34
0.0
 50
90.0
100
AcDbRotatedDimension
1001
ACAD
1000
DSTYLE
1002
{
1070
    41
1040
10.0
1070
   140
1040
30.0
1070
   147
1040
6.599999999999997
1070
   279
1070
     2
1070
   342
1005
30D
1070
   371
1070
    18
1070
   372
1070
    18
1002
}
  0
DIMENSION
  5
53DB
330
1F
100
AcDbEntity
  8
実形
100
AcDbDimension
  2
*D20
 10
722.2887743570717
 20
1421.580390790751
 30
0.0
 11
700.6887743570715
 21
1461.580390790751
 31
0.0
 70
    32
  1
40
 71
     5
 42
80.0
  3
ISO-25
100
AcDbAlignedDimension
 13
818.3502058085251
 23
1501.580390790751
 33
0.0
 14
818.3502058085251
 24
1421.580390790751
 34
0.0
 50
90.0
100
AcDbRotatedDimension
1001
ACAD
1000
DSTYLE
1002
{
1070
    41
1040
10.0
1070
   140
1040
30.0
1070
   147
1040
6.599999999999997
1070
   279
1070
     2
1070
   342
1005
30D
1070
   371
1070
    18
1070
   372
1070
    18
1002
}
  0
DIMENSION
  5
5437
330
1F
100
AcDbEntity
  8
実形
100
AcDbDimension
  2
*D21
 10
722.2887743570717
 20
1341.580390790751
 30
0.0
 11
700.6887743570715
 21
1381.580390790751
 31
0.0
 70
    32
  1
40
 71
     5
 42
80.0
  3
ISO-25
100
AcDbAlignedDimension
 13
818.3502058085251
 23
1421.580390790751
 33
0.0
 14
818.3502058085251
 24
1341.580390790751
 34
0.0
 50
90.0
100
AcDbRotatedDimension
1001
ACAD
1000
DSTYLE
1002
{
1070
    41
1040
10.0
1070
   140
1040
30.0
1070
   147
1040
6.599999999999997
1070
   279
1070
     2
1070
   342
1005
30D
1070
   371
1070
    18
1070
   372
1070
    18
1002
}
  0
DIMENSION
  5
5489
330
1F
100
AcDbEntity
  8
実形
100
AcDbDimension
  2
*D22
 10
722.2887743570717
 20
1261.580390790751
 30
0.0
 11
700.6887743570716
 21
1301.580390790751
 31
0.0
 70
    32
  1
40
 71
     5
 42
80.0
  3
ISO-25
100
AcDbAlignedDimension
 13
818.3502058085251
 23
1341.580390790751
 33
0.0
 14
818.3502058085251
 24
1261.580390790751
 34
0.0
 50
90.0
100
AcDbRotatedDimension
1001
ACAD
1000
DSTYLE
1002
{
1070
    41
1040
10.0
1070
   140
1040
30.0
1070
   147
1040
6.599999999999997
1070
   279
1070
     2
1070
   342
1005
30D
1070
   371
1070
    18
1070
   372
1070
    18
1002
}
  0
DIMENSION
  5
54B2
330
1F
100
AcDbEntity
  8
実形
100
AcDbDimension
  2
*D23
 10
722.2887743570717
 20
1181.580390790751
 30
0.0
 11
700.6887743570716
 21
1221.580390790751
 31
0.0
 70
    32
  1
40
 71
     5
 42
80.0
  3
ISO-25
100
AcDbAlignedDimension
 13
818.3502058085251
 23
1261.580390790751
 33
0.0
 14
818.3502058085251
 24
1181.580390790751
 34
0.0
 50
90.0
100
AcDbRotatedDimension
1001
ACAD
1000
DSTYLE
1002
{
1070
    41
1040
10.0
1070
   140
1040
30.0
1070
   147
1040
6.599999999999997
1070
   279
1070
     2
1070
   342
1005
30D
1070
   371
1070
    18
1070
   372
1070
    18
1002
}
  0
DIMENSION
  5
54DB
330
1F
100
AcDbEntity
  8
実形
100
AcDbDimension
  2
*D24
 10
722.2887743570717
 20
1101.580390790751
 30
0.0
 11
700.6887743570716
 21
1141.580390790751
 31
0.0
 70
    32
  1
40
 71
     5
 42
80.0
  3
ISO-25
100
AcDbAlignedDimension
 13
818.3502058085251
 23
1181.580390790751
 33
0.0
 14
818.3502058085251
 24
1101.580390790751
 34
0.0
 50
90.0
100
AcDbRotatedDimension
1001
ACAD
1000
DSTYLE
1002
{
1070
    41
1040
10.0
1070
   140
1040
30.0
1070
   147
1040
6.599999999999997
1070
   279
1070
     2
1070
   342
1005
30D
1070
   371
1070
    18
1070
   372
1070
    18
1002
}
  0
DIMENSION
  5
5504
330
1F
100
AcDbEntity
  8
実形
100
AcDbDimension
  2
*D25
 10
722.2887743570717
 20
1021.580390790751
 30
0.0
 11
700.6887743570716
 21
1061.580390790751
 31
0.0
 70
    32
  1
40
 71
     5
 42
79.9999999999999
  3
ISO-25
100
AcDbAlignedDimension
 13
818.3502058085251
 23
1101.580390790751
 33
0.0
 14
818.3502058085251
 24
1021.580390790751
 34
0.0
 50
90.0
100
AcDbRotatedDimension
1001
ACAD
1000
DSTYLE
1002
{
1070
    41
1040
10.0
1070
   140
1040
30.0
1070
   147
1040
6.599999999999997
1070
   279
1070
     2
1070
   342
1005
30D
1070
   371
1070
    18
1070
   372
1070
    18
1002
}
  0
DIMENSION
  5
552D
330
1F
100
AcDbEntity
  8
実形
100
AcDbDimension
  2
*D26
 10
722.2887743570717
 20
941.5803907907511
 30
0.0
 11
700.6887743570716
 21
981.5803907907511
 31
0.0
 70
    32
  1
40
 71
     5
 42
80.0
  3
ISO-25
100
AcDbAlignedDimension
 13
818.3502058085251
 23
1021.580390790751
 33
0.0
 14
818.3502058085251
 24
941.5803907907511
 34
0.0
 50
90.0
100
AcDbRotatedDimension
1001
ACAD
1000
DSTYLE
1002
{
1070
    41
1040
10.0
1070
   140
1040
30.0
1070
   147
1040
6.599999999999997
1070
   279
1070
     2
1070
   342
1005
30D
1070
   371
1070
    18
1070
   372
1070
    18
1002
}
  0
DIMENSION
  5
5557
330
1F
100
AcDbEntity
  8
実形
100
AcDbDimension
  2
*D27
 10
722.288774357072
 20
877.5803907907512
 30
0.0
 11
781.1468038694856
 21
911.998880828818
 31
0.0
 70
   160
  1
32
 71
     5
 42
63.99999999999988
  3
ISO-25
100
AcDbAlignedDimension
 13
818.3502058085252
 23
941.5803907907511
 33
0.0
 14
818.3502058085252
 24
877.5803907907512
 34
0.0
 50
90.0
100
AcDbRotatedDimension
1001
ACAD
1000
DSTYLE
1002
{
1070
    41
1040
10.0
1070
   140
1040
30.0
1070
   147
1040
6.599999999999997
1070
   279
1070
     2
1070
   342
1005
30D
1070
   371
1070
    18
1070
   372
1070
    18
1002
}
  0
DIMENSION
  5
5580
330
1F
100
AcDbEntity
  8
実形
100
AcDbDimension
  2
*D28
 10
722.288774357072
 20
837.5803907907512
 30
0.0
 11
691.619571820267
 21
868.1055196462958
 31
0.0
 70
   160
  1
20
 71
     5
 42
40.0
  3
ISO-25
100
AcDbAlignedDimension
 13
818.3502058085251
 23
877.5803907907512
 33
0.0
 14
817.8885014543483
 24
837.5803907907512
 34
0.0
 50
90.0
100
AcDbRotatedDimension
1001
ACAD
1000
DSTYLE
1002
{
1070
    41
1040
10.0
1070
   140
1040
30.0
1070
   147
1040
6.599999999999997
1070
   279
1070
     2
1070
   342
1005
30D
1070
   371
1070
    18
1070
   372
1070
    18
1002
}
  0
CIRCLE
  5
5640
330
1F
100
AcDbEntity
  8
実形
100
AcDbCircle
 10
948.7710340146239
 20
1421.58039079075
 30
0.0
 40
8.0
  0
CIRCLE
  5
5648
330
1F
100
AcDbEntity
  8
実形
100
AcDbCircle
 10
948.7710340146239
 20
1341.580390790751
 30
0.0
 40
8.0
  0
CIRCLE
  5
5650
330
1F
100
AcDbEntity
  8
実形
100
AcDbCircle
 10
948.7710340146239
 20
1341.580390790751
 30
0.0
 40
8.0
  0
CIRCLE
  5
5658
330
1F
100
AcDbEntity
  8
実形
100
AcDbCircle
 10
948.7710340146239
 20
1261.580390790751
 30
0.0
 40
8.0
  0
CIRCLE
  5
5660
330
1F
100
AcDbEntity
  8
実形
100
AcDbCircle
 10
948.7710340146239
 20
1181.580390790751
 30
0.0
 40
8.0
  0
CIRCLE
  5
5668
330
1F
100
AcDbEntity
  8
実形
100
AcDbCircle
 10
948.7710340146239
 20
1101.580390790751
 30
0.0
 40
8.0
  0
CIRCLE
  5
5670
330
1F
100
AcDbEntity
  8
実形
100
AcDbCircle
 10
948.7710340146243
 20
1021.580390790751
 30
0.0
 40
8.0
  0
CIRCLE
  5
5678
330
1F
100
AcDbEntity
  8
実形
100
AcDbCircle
 10
948.7710340146239
 20
941.5803907907507
 30
0.0
 40
25.0
  0
CIRCLE
  5
568C
330
1F
100
AcDbEntity
  8
実形
100
AcDbCircle
 10
1028.771034014624
 20
1501.580390790751
 30
0.0
 40
8.0
  0
CIRCLE
  5
568E
330
1F
100
AcDbEntity
  8
実形
100
AcDbCircle
 10
1028.771034014624
 20
1421.58039079075
 30
0.0
 40
8.0
  0
CIRCLE
  5
568F
330
1F
100
AcDbEntity
  8
実形
100
AcDbCircle
 10
1028.771034014624
 20
1341.580390790751
 30
0.0
 40
8.0
  0
CIRCLE
  5
5690
330
1F
100
AcDbEntity
  8
実形
100
AcDbCircle
 10
1028.771034014624
 20
1341.580390790751
 30
0.0
 40
8.0
  0
CIRCLE
  5
5691
330
1F
100
AcDbEntity
  8
実形
100
AcDbCircle
 10
1028.771034014624
 20
1261.580390790751
 30
0.0
 40
8.0
  0
CIRCLE
  5
5692
330
1F
100
AcDbEntity
  8
実形
100
AcDbCircle
 10
1028.771034014624
 20
1181.580390790751
 30
0.0
 40
8.0
  0
CIRCLE
  5
5693
330
1F
100
AcDbEntity
  8
実形
100
AcDbCircle
 10
1028.771034014624
 20
1101.580390790751
 30
0.0
 40
8.0
  0
CIRCLE
  5
5694
330
1F
100
AcDbEntity
  8
実形
100
AcDbCircle
 10
1028.771034014624
 20
1021.580390790751
 30
0.0
 40
8.0
  0
CIRCLE
  5
5695
330
1F
100
AcDbEntity
  8
実形
100
AcDbCircle
 10
1028.771034014624
 20
941.5803907907507
 30
0.0
 40
8.0
  0
CIRCLE
  5
56A6
330
1F
100
AcDbEntity
  8
実形
100
AcDbCircle
 10
1108.771034014624
 20
1501.580390790751
 30
0.0
 40
8.0
  0
CIRCLE
  5
56A8
330
1F
100
AcDbEntity
  8
実形
100
AcDbCircle
 10
1108.771034014624
 20
1421.58039079075
 30
0.0
 40
8.0
  0
CIRCLE
  5
56A9
330
1F
100
AcDbEntity
  8
実形
100
AcDbCircle
 10
1108.771034014624
 20
1341.580390790751
 30
0.0
 40
8.0
  0
CIRCLE
  5
56AA
330
1F
100
AcDbEntity
  8
実形
100
AcDbCircle
 10
1108.771034014624
 20
1341.580390790751
 30
0.0
 40
8.0
  0
CIRCLE
  5
56AB
330
1F
100
AcDbEntity
  8
実形
100
AcDbCircle
 10
1108.771034014624
 20
1261.580390790751
 30
0.0
 40
8.0
  0
CIRCLE
  5
56AC
330
1F
100
AcDbEntity
  8
実形
100
AcDbCircle
 10
1108.771034014624
 20
1181.580390790751
 30
0.0
 40
8.0
  0
CIRCLE
  5
56AD
330
1F
100
AcDbEntity
  8
実形
100
AcDbCircle
 10
1108.771034014624
 20
1101.580390790751
 30
0.0
 40
8.0
  0
CIRCLE
  5
56AE
330
1F
100
AcDbEntity
  8
実形
100
AcDbCircle
 10
1108.771034014624
 20
1021.580390790751
 30
0.0
 40
8.0
  0
CIRCLE
  5
56AF
330
1F
100
AcDbEntity
  8
実形
100
AcDbCircle
 10
1108.771034014624
 20
941.5803907907507
 30
0.0
 40
8.0
  0
CIRCLE
  5
56C0
330
1F
100
AcDbEntity
  8
実形
100
AcDbCircle
 10
1188.771034014624
 20
1501.580390790751
 30
0.0
 40
8.0
  0
CIRCLE
  5
56C2
330
1F
100
AcDbEntity
  8
実形
100
AcDbCircle
 10
1188.771034014624
 20
1421.58039079075
 30
0.0
 40
8.0
  0
CIRCLE
  5
56C3
330
1F
100
AcDbEntity
  8
実形
100
AcDbCircle
 10
1188.771034014624
 20
1341.580390790751
 30
0.0
 40
8.0
  0
CIRCLE
  5
56C4
330
1F
100
AcDbEntity
  8
実形
100
AcDbCircle
 10
1188.771034014624
 20
1341.580390790751
 30
0.0
 40
8.0
  0
CIRCLE
  5
56C5
330
1F
100
AcDbEntity
  8
実形
100
AcDbCircle
 10
1188.771034014624
 20
1261.580390790751
 30
0.0
 40
8.0
  0
CIRCLE
  5
56C6
330
1F
100
AcDbEntity
  8
実形
100
AcDbCircle
 10
1188.771034014624
 20
1181.580390790751
 30
0.0
 40
8.0
  0
CIRCLE
  5
56C7
330
1F
100
AcDbEntity
  8
実形
100
AcDbCircle
 10
1188.771034014624
 20
1101.580390790751
 30
0.0
 40
8.0
  0
CIRCLE
  5
56C8
330
1F
100
AcDbEntity
  8
実形
100
AcDbCircle
 10
1188.771034014624
 20
1021.580390790751
 30
0.0
 40
8.0
  0
CIRCLE
  5
56C9
330
1F
100
AcDbEntity
  8
実形
100
AcDbCircle
 10
1188.771034014624
 20
941.5803907907507
 30
0.0
 40
8.0
  0
CIRCLE
  5
56DA
330
1F
100
AcDbEntity
  8
実形
100
AcDbCircle
 10
1268.771034014624
 20
1501.580390790751
 30
0.0
 40
25.0
  0
CIRCLE
  5
56DC
330
1F
100
AcDbEntity
  8
実形
100
AcDbCircle
 10
1268.771034014624
 20
1421.58039079075
 30
0.0
 40
8.0
  0
CIRCLE
  5
56DD
330
1F
100
AcDbEntity
  8
実形
100
AcDbCircle
 10
1268.771034014624
 20
1341.580390790751
 30
0.0
 40
8.0
  0
CIRCLE
  5
56DE
330
1F
100
AcDbEntity
  8
実形
100
AcDbCircle
 10
1268.771034014624
 20
1341.580390790751
 30
0.0
 40
8.0
  0
CIRCLE
  5
56DF
330
1F
100
AcDbEntity
  8
実形
100
AcDbCircle
 10
1268.771034014624
 20
1261.580390790751
 30
0.0
 40
8.0
  0
CIRCLE
  5
56E0
330
1F
100
AcDbEntity
  8
実形
100
AcDbCircle
 10
1268.771034014624
 20
1181.580390790751
 30
0.0
 40
8.0
  0
CIRCLE
  5
56E1
330
1F
100
AcDbEntity
  8
実形
100
AcDbCircle
 10
1268.771034014624
 20
1101.580390790751
 30
0.0
 40
8.0
  0
CIRCLE
  5
56E2
330
1F
100
AcDbEntity
  8
実形
100
AcDbCircle
 10
1268.771034014624
 20
1021.580390790751
 30
0.0
 40
8.0
  0
CIRCLE
  5
56E3
330
1F
100
AcDbEntity
  8
実形
100
AcDbCircle
 10
1268.771034014624
 20
941.5803907907507
 30
0.0
 40
8.0
  0
LINE
  5
56E6
330
1F
100
AcDbEntity
  8
実形
  6
CENTER2
 48
0.8
100
AcDbLine
 10
948.7710340146239
 20
1373.15059383228
 30
0.0
 11
948.7710340146239
 21
1593.328587473318
 31
0.0
  0
LINE
  5
56E7
330
1F
100
AcDbEntity
  8
実形
  6
CENTER2
 48
0.8
100
AcDbLine
 10
1028.771034014624
 20
1373.15059383228
 30
0.0
 11
1028.771034014624
 21
1593.328587473318
 31
0.0
  0
LINE
  5
56E8
330
1F
100
AcDbEntity
  8
実形
  6
CENTER2
 48
0.8
100
AcDbLine
 10
1108.771034014624
 20
824.5928795306252
 30
0.0
 11
1108.771034014624
 21
1610.279337630075
 31
0.0
  0
DIMENSION
  5
5833
330
1F
100
AcDbEntity
  8
実形
100
AcDbDimension
  2
*D29
 10
1318.771034014624
 20
1773.405628569316
 30
0.0
 11
1108.771034014624
 21
1795.005628569316
 31
0.0
 70
    32
  1
210
 71
     5
 42
420.0
  3
ISO-25
100
AcDbAlignedDimension
 13
898.7710340146241
 23
1681.191270403878
 33
0.0
 14
1318.771034014624
 24
1681.191270403878
 34
0.0
100
AcDbRotatedDimension
1001
ACAD
1000
DSTYLE
1002
{
1070
    41
1040
10.0
1070
   140
1040
30.0
1070
   147
1040
6.599999999999997
1070
   279
1070
     2
1070
   342
1005
30D
1070
   371
1070
    18
1070
   372
1070
    18
1002
}
  0
DIMENSION
  5
58E6
330
1F
100
AcDbEntity
  8
実形
100
AcDbDimension
  2
*D30
 10
619.6233729757953
 20
877.5803907907512
 30
0.0
 11
598.0233729757949
 21
1221.580390790751
 31
0.0
 70
    32
  1
344
 71
     5
 42
688.0
  3
ISO-25
100
AcDbAlignedDimension
 13
722.2887743570717
 23
1565.580390790751
 33
0.0
 14
709.9660216467327
 24
877.5803907907512
 34
0.0
 50
90.0
100
AcDbRotatedDimension
1001
ACAD
1000
DSTYLE
1002
{
1070
    41
1040
10.0
1070
   140
1040
30.0
1070
   147
1040
6.599999999999997
1070
   279
1070
     2
1070
   342
1005
30D
1070
   371
1070
    18
1070
   372
1070
    18
1002
}
  0
LINE
  5
5A69
330
1F
100
AcDbEntity
  8
実形
100
AcDbLine
 10
444.0757996528089
 20
477.6687844154767
 30
0.0
 11
634.0757996528091
 21
477.6687844154767
 31
0.0
  0
LINE
  5
5A6A
330
1F
100
AcDbEntity
  8
実形
100
AcDbLine
 10
644.0757996528091
 20
467.6687844154766
 30
0.0
 11
644.0757996528091
 21
343.6687844154767
 31
0.0
  0
LINE
  5
5A6D
330
1F
100
AcDbEntity
  8
実形
100
AcDbLine
 10
648.0757996528089
 20
339.6687844154767
 30
0.0
 11
854.0757996528091
 21
339.6687844154767
 31
0.0
  0
DIMENSION
  5
5A71
330
1F
100
AcDbEntity
  8
実形
100
AcDbDimension
  2
*D31
 10
644.0757996528091
 20
585.4946261266432
 30
0.0
 11
544.0757996528089
 21
607.0946261266432
 31
0.0
 70
    32
  1
20
 71
     5
 42
200.0
  3
ISO-25
100
AcDbAlignedDimension
 13
444.0757996528089
 23
477.6687844154767
 33
0.0
 14
644.0757996528091
 24
477.6687844154767
 34
0.0
100
AcDbRotatedDimension
1001
ACAD
1000
DSTYLE
1002
{
1070
    41
1040
10.0
1070
   140
1040
30.0
1070
   147
1040
6.599999999999997
1070
   279
1070
     2
1070
   342
1005
30D
1070
   371
1070
    18
1070
   372
1070
    18
1002
}
  0
DIMENSION
  5
5A9A
330
1F
100
AcDbEntity
  8
実形
100
AcDbDimension
  2
*D32
 10
368.2229613536065
 20
465.6687844154767
 30
0.0
 11
343.3229613536064
 21
514.5501612175811
 31
0.0
 70
   160
  1
1.2
 71
     5
 42
12.0
  3
ISO-25
100
AcDbAlignedDimension
 13
469.768402383138
 23
477.6687844154767
 33
0.0
 14
469.768402383138
 24
465.6687844154767
 34
0.0
 50
90.0
100
AcDbRotatedDimension
1001
ACAD
1000
DSTYLE
1002
{
1070
    41
1040
10.0
1070
   140
1040
30.0
1070
   147
1040
6.599999999999997
1070
   279
1070
     2
1070
   342
1005
30D
1070
   371
1070
    18
1070
   372
1070
    18
1002
}
  0
DIMENSION
  5
5ACD
330
1F
100
AcDbEntity
  8
実形
100
AcDbDimension
  2
*D33
 10
368.2229613536065
 20
339.6687844154769
 30
0.0
 11
346.6229613536063
 21
402.6687844154769
 31
0.0
 70
    32
  1
12.6
 71
     5
 42
125.9999999999998
  3
ISO-25
100
AcDbAlignedDimension
 13
434.0757996528092
 23
465.6687844154767
 33
0.0
 14
434.0757996528092
 24
339.6687844154769
 34
0.0
 50
90.0
100
AcDbRotatedDimension
1001
ACAD
1000
DSTYLE
1002
{
1070
    41
1040
10.0
1070
   140
1040
30.0
1070
   147
1040
6.599999999999997
1070
   279
1070
     2
1070
   342
1005
30D
1070
   371
1070
    18
1070
   372
1070
    18
1002
}
  0
DIMENSION
  5
5ADB
330
1F
100
AcDbEntity
  8
実形
100
AcDbDimension
  2
*D34
 10
267.9911077601691
 20
327.6687844154768
 30
0.0
 11
246.3911077601691
 21
402.6687844154769
 31
0.0
 70
    32
  1
15
 71
     5
 42
150.0
  3
ISO-25
100
AcDbAlignedDimension
 13
434.0757996528092
 23
477.6687844154767
 33
0.0
 14
434.0757996528092
 24
327.6687844154767
 34
0.0
 50
90.0
100
AcDbRotatedDimension
1001
ACAD
1000
DSTYLE
1002
{
1070
    41
1040
10.0
1070
   140
1040
30.0
1070
   147
1040
6.599999999999997
1070
   279
1070
     2
1070
   342
1005
30D
1070
   371
1070
    18
1070
   372
1070
    18
1002
}
  0
DIMENSION
  5
5B10
330
1F
100
AcDbEntity
  8
実形
100
AcDbDimension
  2
*D35
 10
368.2229613536065
 20
327.6687844154768
 30
0.0
 11
343.3229613536064
 21
291.0148636725971
 31
0.0
 70
   160
  1
1.2
 71
     5
 42
12.00000000000011
  3
ISO-25
100
AcDbAlignedDimension
 13
468.4702915116095
 23
339.6687844154768
 33
0.0
 14
470.1255549514598
 24
327.6687844154767
 34
0.0
 50
90.0
100
AcDbRotatedDimension
1001
ACAD
1000
DSTYLE
1002
{
1070
    41
1040
10.0
1070
   140
1040
30.0
1070
   147
1040
6.599999999999997
1070
   279
1070
     2
1070
   342
1005
30D
1070
   371
1070
    18
1070
   372
1070
    18
1002
}
  0
LINE
  5
5BFE
330
1F
100
AcDbEntity
  8
実形
100
AcDbLine
 10
854.0757996528091
 20
339.6687844154767
 30
0.0
 11
854.0757996528091
 21
327.6687844154767
 31
0.0
  0
LINE
  5
5BFF
330
1F
100
AcDbEntity
  8
実形
100
AcDbLine
 10
934.0757996528093
 20
339.6687844154767
 30
0.0
 11
934.0757996528093
 21
327.6687844154767
 31
0.0
  0
LINE
  5
5C00
330
1F
100
AcDbEntity
  8
実形
100
AcDbLine
 10
1254.075799652809
 20
339.6687844154767
 30
0.0
 11
1254.075799652809
 21
327.6687844154767
 31
0.0
  0
LINE
  5
5C01
330
1F
100
AcDbEntity
  8
実形
100
AcDbLine
 10
1334.075799652809
 20
340.2114184609818
 30
0.0
 11
1334.075799652809
 21
328.2114184609818
 31
0.0
  0
LINE
  5
5C29
330
1F
100
AcDbEntity
  8
実形
100
AcDbLine
 10
934.0757996528093
 20
339.6687844154767
 30
0.0
 11
1254.075799652809
 21
339.6687844154767
 31
0.0
  0
TEXT
  5
5C3E
330
1F
100
AcDbEntity
  8
実形
100
AcDbText
 10
1402.737556999324
 20
1410.113932282331
 30
0.0
 40
30.0
  1
A
 72
     4
 11
1412.737556999324
 21
1425.113932282331
 31
0.0
100
AcDbText
  0
TEXT
  5
5C47
330
1F
100
AcDbEntity
  8
実形
100
AcDbText
 10
1411.250990288472
 20
1409.467184460877
 30
0.0
 40
30.0
  1
´
 72
     4
 11
1425.250990288472
 21
1437.467184460877
 31
0.0
100
AcDbText
  0
TEXT
  5
5C50
330
1F
100
AcDbEntity
  8
実形
100
AcDbText
 10
255.8782377653542
 20
617.9075789672893
 30
0.0
 40
40.0
  1
A-A´断面
 72
     4
 11
382.5449044320208
 21
637.9075789672892
 31
0.0
100
AcDbText
  0
LINE
  5
5C52
330
1F
100
AcDbEntity
  8
実形
100
AcDbLine
 10
1334.075799652809
 20
340.2114184609818
 30
0.0
 11
1407.963956478303
 21
340.2114184609818
 31
0.0
  0
LINE
  5
5DC3
330
1F
100
AcDbEntity
  8
実形
100
AcDbLine
 10
444.0757996528089
 20
465.6687844154767
 30
0.0
 11
628.0757996528091
 21
465.6687844154767
 31
0.0
  0
LINE
  5
5DC4
330
1F
100
AcDbEntity
  8
実形
100
AcDbLine
 10
632.0757996528091
 20
461.6687844154767
 30
0.0
 11
632.0757996528096
 21
337.6687844154767
 31
0.0
  0
LINE
  5
5DC5
330
1F
100
AcDbEntity
  8
実形
100
AcDbLine
 10
642.0757996528095
 20
327.6687844154767
 30
0.0
 11
854.0757996528091
 21
327.6687844154767
 31
0.0
  0
LINE
  5
5DC6
330
1F
100
AcDbEntity
  8
実形
100
AcDbLine
 10
934.0757996528093
 20
327.6687844154767
 30
0.0
 11
1254.075799652809
 21
327.6687844154767
 31
0.0
  0
LINE
  5
5DC7
330
1F
100
AcDbEntity
  8
実形
100
AcDbLine
 10
1334.075799652809
 20
328.2114184609818
 30
0.0
 11
1407.963956478303
 21
328.2114184609818
 31
0.0
  0
TEXT
  5
5E30
330
1F
100
AcDbEntity
  8
実形
 48
20.0
100
AcDbText
 10
982.3998768247493
 20
752.221079705915
 30
0.0
 40
30.0
  1
8φ
100
AcDbText
  0
LEADER
  5
5E31
330
1F
100
AcDbEntity
  8
実形
100
AcDbLeader
  3
ISO-25
 76
     2
 10
1096.022669825141
 20
938.7295235309313
 30
0.0
 10
1015.290684782811
 20
796.1035366140413
 30
0.0
1001
ACAD
1000
DSTYLE
1002
{
1070
    77
1070
     0
1070
    41
1040
10.0
1070
   140
1040
30.0
1070
   147
1040
6.599999999999997
1070
   279
1070
     2
1070
   342
1005
30D
1070
   371
1070
    18
1070
   372
1070
    18
1002
}
  0
TEXT
  5
5E3A
330
1F
100
AcDbEntity
  8
実形
100
AcDbText
 10
1409.422373154168
 20
760.83173149137
 30
0.0
 40
30.0
  1
6R
 72
     2
 11
1459.422373154168
 21
756.83173149137
 31
0.0
100
AcDbText
 73
     1
  0
TEXT
  5
5E42
330
1F
100
AcDbEntity
  8
実形
100
AcDbText
 10
1308.332711815233
 20
760.7731076255866
 30
0.0
 40
30.0
  1
6R
 72
     2
 11
1358.332711815233
 21
756.7731076255867
 31
0.0
100
AcDbText
 73
     1
  0
LEADER
  5
5E43
330
1F
100
AcDbEntity
  8
実形
100
AcDbLeader
  3
ISO-25
 76
     2
 10
1306.240903943248
 20
836.7634993230403
 30
0.0
 10
1332.078587356043
 20
793.6851520060662
 30
0.0
1001
ACAD
1000
DSTYLE
1002
{
1070
    77
1070
     0
1070
    41
1040
10.0
1070
   140
1040
30.0
1070
   147
1040
6.599999999999997
1070
   279
1070
     2
1070
   342
1005
30D
1070
   371
1070
    18
1070
   372
1070
    18
1002
}
  0
LEADER
  5
5E44
330
1F
100
AcDbEntity
  8
実形
100
AcDbLeader
  3
ISO-25
 76
     2
 10
1319.332733018926
 20
877.8343373136593
 30
0.0
 10
1421.971708294435
 20
797.1858226126924
 30
0.0
1001
ACAD
1000
DSTYLE
1002
{
1070
    77
1070
     0
1070
    41
1040
10.0
1070
   140
1040
30.0
1070
   147
1040
6.599999999999997
1070
   279
1070
     2
1070
   342
1005
30D
1070
   371
1070
    18
1070
   372
1070
    18
1002
}
  0
TEXT
  5
5E5F
330
1F
100
AcDbEntity
  8
実形
 62
     0
100
AcDbText
 10
2136.666666666667
 20
83.99999999999909
 30
0.0
 40
35.0
  1
品番
 72
     4
 11
2174.0
 21
101.4999999999991
 31
0.0
100
AcDbText
  0
TEXT
  5
5E68
330
1F
100
AcDbEntity
  8
実形
 62
     0
100
AcDbText
 10
2136.666666666667
 20
148.9999999999991
 30
0.0
 40
35.0
  1
名称
 72
     4
 11
2174.0
 21
166.4999999999991
 31
0.0
100
AcDbText
  0
DIMENSION
  5
5F2A
330
1F
100
AcDbEntity
  8
実形
100
AcDbDimension
  2
*D36
 10
894.0757996528091
 20
249.7575464485617
 30
0.0
 11
769.0757996528093
 21
271.3575464485617
 31
0.0
 70
    32
  1
25
 71
     5
 42
249.9999999999998
  3
ISO-25
100
AcDbAlignedDimension
 13
644.0757996528092
 23
353.4040832798037
 33
0.0
 14
894.0757996528091
 24
351.9745793713795
 34
0.0
100
AcDbRotatedDimension
1001
ACAD
1000
DSTYLE
1002
{
1070
    41
1040
10.0
1070
   140
1040
30.0
1070
   147
1040
6.599999999999997
1070
   279
1070
     2
1070
   342
1005
30D
1070
   371
1070
    18
1070
   372
1070
    18
1002
}
  0
DIMENSION
  5
5F4A
330
1F
100
AcDbEntity
  8
実形
100
AcDbDimension
  2
*D37
 10
934.0757996528093
 20
400.8833310174122
 30
0.0
 11
894.0757996528091
 21
422.4833310174124
 31
0.0
 70
    32
  1
8
 71
     5
 42
79.9999999999999
  3
ISO-25
100
AcDbAlignedDimension
 13
854.0757996528093
 23
307.1251455729617
 33
0.0
 14
934.0757996528093
 24
307.1251455729616
 34
0.0
100
AcDbRotatedDimension
1001
ACAD
1000
DSTYLE
1002
{
1070
    41
1040
10.0
1070
   140
1040
30.0
1070
   147
1040
6.599999999999997
1070
   279
1070
     2
1070
   342
1005
30D
1070
   371
1070
    18
1070
   372
1070
    18
1002
}
  0
DIMENSION
  5
5F98
330
1F
100
AcDbEntity
  8
実形
100
AcDbDimension
  2
*D38
 10
1334.075799652809
 20
400.8833310174122
 30
0.0
 11
1294.075799652809
 21
422.4833310174124
 31
0.0
 70
    32
  1
8
 71
     5
 42
80.0
  3
ISO-25
100
AcDbAlignedDimension
 13
1254.075799652809
 23
307.1251455729617
 33
0.0
 14
1334.075799652809
 24
307.1251455729616
 34
0.0
100
AcDbRotatedDimension
1001
ACAD
1000
DSTYLE
1002
{
1070
    41
1040
10.0
1070
   140
1040
30.0
1070
   147
1040
6.599999999999997
1070
   279
1070
     2
1070
   342
1005
30D
1070
   371
1070
    18
1070
   372
1070
    18
1002
}
  0
DIMENSION
  5
5FAF
330
1F
100
AcDbEntity
  8
実形
100
AcDbDimension
  2
*D39
 10
1294.075799652809
 20
249.7575464485617
 30
0.0
 11
1094.075799652809
 21
271.3575464485617
 31
0.0
 70
    32
  1
40
 71
     5
 42
400.0
  3
ISO-25
100
AcDbAlignedDimension
 13
894.0757996528091
 23
327.6687844154772
 33
0.0
 14
1294.075799652809
 24
351.737049604204
 34
0.0
100
AcDbRotatedDimension
1001
ACAD
1000
DSTYLE
1002
{
1070
    41
1040
10.0
1070
   140
1040
30.0
1070
   147
1040
6.599999999999997
1070
   279
1070
     2
1070
   342
1005
30D
1070
   371
1070
    18
1070
   372
1070
    18
1002
}
  0
DIMENSION
  5
5FE0
330
1F
100
AcDbEntity
  8
実形
100
AcDbDimension
  2
*D40
 10
644.0757996528092
 20
249.7575464485617
 30
0.0
 11
590.0805527991622
 21
274.325613877294
 31
0.0
 70
   160
  1
1.2
 71
     5
 42
11.99999999999977
  3
ISO-25
100
AcDbAlignedDimension
 13
632.0757996528096
 23
352.9180329716728
 33
0.0
 14
644.0757996528092
 24
345.6687844154769
 34
0.0
100
AcDbRotatedDimension
1001
ACAD
1000
DSTYLE
1002
{
1070
    41
1040
10.0
1070
   140
1040
30.0
1070
   147
1040
6.599999999999997
1070
   279
1070
     2
1070
   342
1005
30D
1070
   371
1070
    18
1070
   372
1070
    18
1002
}
  0
ARC
  5
604C
330
1F
100
AcDbEntity
  8
実形
100
AcDbCircle
 10
634.0757996528091
 20
467.6687844154766
 30
0.0
 40
10.0
100
AcDbArc
 50
0.0000000000001018
 51
90.0
  0
ARC
  5
604D
330
1F
100
AcDbEntity
  8
実形
100
AcDbCircle
 10
628.0757996528091
 20
461.6687844154767
 30
0.0
 40
4.0
100
AcDbArc
 50
0.0000000000002672
 51
90.0
  0
ARC
  5
604E
330
1F
100
AcDbEntity
  8
実形
100
AcDbCircle
 10
648.0757996528089
 20
343.6687844154767
 30
0.0
 40
4.0
100
AcDbArc
 50
180.0000000000001
 51
269.9999999999999
  0
ARC
  5
604F
330
1F
100
AcDbEntity
  8
実形
100
AcDbCircle
 10
642.0757996528095
 20
337.6687844154767
 30
0.0
 40
10.0
100
AcDbArc
 50
180.0000000000002
 51
269.9999999999999
  0
LINE
  5
6349
330
1F
100
AcDbEntity
  8
実形
100
AcDbLine
 10
1763.136995706918
 20
477.6687844154756
 30
0.0
 11
1953.136995706918
 21
477.6687844154756
 31
0.0
  0
LINE
  5
634A
330
1F
100
AcDbEntity
  8
実形
100
AcDbLine
 10
1763.136995706918
 20
465.6687844154758
 30
0.0
 11
1947.136995706918
 21
465.6687844154758
 31
0.0
  0
LINE
  5
634B
330
1F
100
AcDbEntity
  8
実形
100
AcDbLine
 10
1963.136995706918
 20
467.6687844154757
 30
0.0
 11
1963.136995706918
 21
343.6687844154759
 31
0.0
  0
ARC
  5
634C
330
1F
100
AcDbEntity
  8
実形
100
AcDbCircle
 10
1967.136995706918
 20
343.6687844154759
 30
0.0
 40
4.0
100
AcDbArc
 50
180.0
 51
270.0
  0
ARC
  5
634D
330
1F
100
AcDbEntity
  8
実形
100
AcDbCircle
 10
1953.136995706918
 20
467.6687844154757
 30
0.0
 40
10.0
100
AcDbArc
 50
0.0
 51
90.0
  0
LINE
  5
634E
330
1F
100
AcDbEntity
  8
実形
100
AcDbLine
 10
1951.136995706918
 20
461.6687844154758
 30
0.0
 11
1951.136995706919
 21
337.6687844154758
 31
0.0
  0
ARC
  5
634F
330
1F
100
AcDbEntity
  8
実形
100
AcDbCircle
 10
1961.136995706918
 20
337.6687844154758
 30
0.0
 40
10.0
100
AcDbArc
 50
180.0
 51
270.0
  0
ARC
  5
6350
330
1F
100
AcDbEntity
  8
実形
100
AcDbCircle
 10
1947.136995706918
 20
461.6687844154758
 30
0.0
 40
4.0
100
AcDbArc
 50
0.0
 51
90.0
  0
LINE
  5
6351
330
1F
100
AcDbEntity
  8
実形
100
AcDbLine
 10
2323.136995706919
 20
339.6687844154758
 30
0.0
 11
2323.136995706919
 21
327.6687844154758
 31
0.0
  0
LINE
  5
6352
330
1F
100
AcDbEntity
  8
実形
100
AcDbLine
 10
2243.136995706918
 20
339.6687844154758
 30
0.0
 11
2243.136995706918
 21
327.6687844154758
 31
0.0
  0
LINE
  5
6353
330
1F
100
AcDbEntity
  8
実形
100
AcDbLine
 10
2723.136995706918
 20
340.2114184609809
 30
0.0
 11
2723.136995706918
 21
328.2114184609809
 31
0.0
  0
LINE
  5
6354
330
1F
100
AcDbEntity
  8
実形
100
AcDbLine
 10
2643.136995706918
 20
339.6687844154758
 30
0.0
 11
2643.136995706918
 21
327.6687844154758
 31
0.0
  0
LINE
  5
6355
330
1F
100
AcDbEntity
  8
実形
100
AcDbLine
 10
1967.136995706918
 20
339.6687844154758
 30
0.0
 11
2243.136995706918
 21
339.6687844154758
 31
0.0
  0
LINE
  5
6356
330
1F
100
AcDbEntity
  8
実形
100
AcDbLine
 10
1961.136995706918
 20
327.6687844154758
 30
0.0
 11
2243.136995706918
 21
327.6687844154758
 31
0.0
  0
LINE
  5
6357
330
1F
100
AcDbEntity
  8
実形
100
AcDbLine
 10
2323.136995706919
 20
339.6687844154758
 30
0.0
 11
2643.136995706918
 21
339.6687844154758
 31
0.0
  0
LINE
  5
6358
330
1F
100
AcDbEntity
  8
実形
100
AcDbLine
 10
2323.136995706919
 20
327.6687844154758
 30
0.0
 11
2643.136995706918
 21
327.6687844154758
 31
0.0
  0
LINE
  5
6359
330
1F
100
AcDbEntity
  8
実形
100
AcDbLine
 10
2723.136995706918
 20
340.2114184609809
 30
0.0
 11
2783.318841228138
 21
340.211418460981
 31
0.0
  0
LINE
  5
635A
330
1F
100
AcDbEntity
  8
実形
100
AcDbLine
 10
2723.136995706918
 20
328.2114184609809
 30
0.0
 11
2783.318841228138
 21
328.211418460981
 31
0.0
  0
DIMENSION
  5
635B
330
1F
100
AcDbEntity
  8
実形
100
AcDbDimension
  2
*D41
 10
1963.136995706918
 20
585.4946261266421
 30
0.0
 11
1863.136995706918
 21
607.0946261266422
 31
0.0
 70
    32
  1
20
 71
     5
 42
200.0
  3
ISO-25
100
AcDbAlignedDimension
 13
1763.136995706918
 23
477.6687844154756
 33
0.0
 14
1963.136995706918
 24
477.6687844154756
 34
0.0
100
AcDbRotatedDimension
1001
ACAD
1000
DSTYLE
1002
{
1070
    41
1040
10.0
1070
   140
1040
30.0
1070
   147
1040
6.599999999999997
1070
   279
1070
     2
1070
   342
1005
30D
1070
   371
1070
    18
1070
   372
1070
    18
1002
}
  0
DIMENSION
  5
635D
330
1F
100
AcDbEntity
  8
実形
100
AcDbDimension
  2
*D42
 10
1690.745737402522
 20
465.6687844154767
 30
0.0
 11
1665.845737402521
 21
514.5501612175811
 31
0.0
 70
   160
  1
1.2
 71
     5
 42
12.0
  3
ISO-25
100
AcDbAlignedDimension
 13
1792.291178432053
 23
477.6687844154767
 33
0.0
 14
1792.291178432053
 24
465.6687844154767
 34
0.0
 50
90.0
100
AcDbRotatedDimension
1001
ACAD
1000
DSTYLE
1002
{
1070
    41
1040
10.0
1070
   140
1040
30.0
1070
   147
1040
6.599999999999997
1070
   279
1070
     2
1070
   342
1005
30D
1070
   371
1070
    18
1070
   372
1070
    18
1002
}
  0
DIMENSION
  5
635E
330
1F
100
AcDbEntity
  8
実形
100
AcDbDimension
  2
*D43
 10
1690.745737402522
 20
339.6687844154769
 30
0.0
 11
1669.145737402521
 21
402.6687844154769
 31
0.0
 70
    32
  1
12.6
 71
     5
 42
125.9999999999998
  3
ISO-25
100
AcDbAlignedDimension
 13
1756.598575701724
 23
465.6687844154767
 33
0.0
 14
1756.598575701724
 24
339.6687844154769
 34
0.0
 50
90.0
100
AcDbRotatedDimension
1001
ACAD
1000
DSTYLE
1002
{
1070
    41
1040
10.0
1070
   140
1040
30.0
1070
   147
1040
6.599999999999997
1070
   279
1070
     2
1070
   342
1005
30D
1070
   371
1070
    18
1070
   372
1070
    18
1002
}
  0
DIMENSION
  5
635F
330
1F
100
AcDbEntity
  8
実形
100
AcDbDimension
  2
*D44
 10
1590.513883809084
 20
327.6687844154768
 30
0.0
 11
1568.913883809084
 21
402.6687844154769
 31
0.0
 70
    32
  1
15
 71
     5
 42
150.0
  3
ISO-25
100
AcDbAlignedDimension
 13
1756.598575701724
 23
477.6687844154767
 33
0.0
 14
1756.598575701724
 24
327.6687844154767
 34
0.0
 50
90.0
100
AcDbRotatedDimension
1001
ACAD
1000
DSTYLE
1002
{
1070
    41
1040
10.0
1070
   140
1040
30.0
1070
   147
1040
6.599999999999997
1070
   279
1070
     2
1070
   342
1005
30D
1070
   371
1070
    18
1070
   372
1070
    18
1002
}
  0
DIMENSION
  5
6360
330
1F
100
AcDbEntity
  8
実形
100
AcDbDimension
  2
*D45
 10
1690.745737402522
 20
327.6687844154767
 30
0.0
 11
1665.845737402521
 21
291.0148636725971
 31
0.0
 70
   160
  1
1.2
 71
     5
 42
12.00000000000011
  3
ISO-25
100
AcDbAlignedDimension
 13
1790.993067560524
 23
339.6687844154768
 33
0.0
 14
1792.648331000375
 24
327.6687844154767
 34
0.0
 50
90.0
100
AcDbRotatedDimension
1001
ACAD
1000
DSTYLE
1002
{
1070
    41
1040
10.0
1070
   140
1040
30.0
1070
   147
1040
6.599999999999997
1070
   279
1070
     2
1070
   342
1005
30D
1070
   371
1070
    18
1070
   372
1070
    18
1002
}
  0
TEXT
  5
6361
330
1F
100
AcDbEntity
  8
実形
100
AcDbText
 10
1421.625657367317
 20
575.142494409768
 30
0.0
 40
40.0
  1
B-B\M+1814C断面
 72
     4
 11
1548.292324033984
 21
595.142494409768
 31
0.0
100
AcDbText
  0
DIMENSION
  5
6362
330
1F
100
AcDbEntity
  8
実形
100
AcDbDimension
  2
*D46
 10
2283.136995706918
 20
249.7575464485608
 30
0.0
 11
2123.136995706918
 21
271.3575464485608
 31
0.0
 70
    32
  1
32
 71
     5
 42
320.0
  3
ISO-25
100
AcDbAlignedDimension
 13
1963.136995706918
 23
353.4040832798027
 33
0.0
 14
2283.136995706918
 24
351.9745793713787
 34
0.0
100
AcDbRotatedDimension
1001
ACAD
1000
DSTYLE
1002
{
1070
    41
1040
10.0
1070
   140
1040
30.0
1070
   147
1040
6.599999999999997
1070
   279
1070
     2
1070
   342
1005
30D
1070
   371
1070
    18
1070
   372
1070
    18
1002
}
  0
DIMENSION
  5
6363
330
1F
100
AcDbEntity
  8
実形
100
AcDbDimension
  2
*D47
 10
2323.136995706919
 20
400.8833310174114
 30
0.0
 11
2283.136995706918
 21
422.4833310174113
 31
0.0
 70
    32
  1
8
 71
     5
 42
80.0
  3
ISO-25
100
AcDbAlignedDimension
 13
2243.136995706918
 23
307.1251455729608
 33
0.0
 14
2323.136995706919
 24
307.1251455729607
 34
0.0
100
AcDbRotatedDimension
1001
ACAD
1000
DSTYLE
1002
{
1070
    41
1040
10.0
1070
   140
1040
30.0
1070
   147
1040
6.599999999999997
1070
   279
1070
     2
1070
   342
1005
30D
1070
   371
1070
    18
1070
   372
1070
    18
1002
}
  0
DIMENSION
  5
6364
330
1F
100
AcDbEntity
  8
実形
100
AcDbDimension
  2
*D48
 10
2723.136995706918
 20
400.8833310174114
 30
0.0
 11
2683.136995706918
 21
422.4833310174113
 31
0.0
 70
    32
  1
8
 71
     5
 42
80.0
  3
ISO-25
100
AcDbAlignedDimension
 13
2643.136995706918
 23
307.1251455729608
 33
0.0
 14
2723.136995706918
 24
307.1251455729607
 34
0.0
100
AcDbRotatedDimension
1001
ACAD
1000
DSTYLE
1002
{
1070
    41
1040
10.0
1070
   140
1040
30.0
1070
   147
1040
6.599999999999997
1070
   279
1070
     2
1070
   342
1005
30D
1070
   371
1070
    18
1070
   372
1070
    18
1002
}
  0
DIMENSION
  5
6365
330
1F
100
AcDbEntity
  8
実形
100
AcDbDimension
  2
*D49
 10
2683.136995706918
 20
249.7575464485608
 30
0.0
 11
2483.136995706918
 21
271.3575464485608
 31
0.0
 70
    32
  1
40
 71
     5
 42
400.0
  3
ISO-25
100
AcDbAlignedDimension
 13
2283.136995706918
 23
327.6687844154762
 33
0.0
 14
2683.136995706918
 24
351.7370496042031
 34
0.0
100
AcDbRotatedDimension
1001
ACAD
1000
DSTYLE
1002
{
1070
    41
1040
10.0
1070
   140
1040
30.0
1070
   147
1040
6.599999999999997
1070
   279
1070
     2
1070
   342
1005
30D
1070
   371
1070
    18
1070
   372
1070
    18
1002
}
  0
DIMENSION
  5
6366
330
1F
100
AcDbEntity
  8
実形
100
AcDbDimension
  2
*D50
 10
1963.136995706918
 20
249.7575464485608
 30
0.0
 11
1909.141748853271
 21
274.3256138772931
 31
0.0
 70
   160
  1
1.2
 71
     5
 42
11.99999999999954
  3
ISO-25
100
AcDbAlignedDimension
 13
1951.136995706919
 23
352.9180329716719
 33
0.0
 14
1963.136995706918
 24
345.6687844154759
 34
0.0
100
AcDbRotatedDimension
1001
ACAD
1000
DSTYLE
1002
{
1070
    41
1040
10.0
1070
   140
1040
30.0
1070
   147
1040
6.599999999999997
1070
   279
1070
     2
1070
   342
1005
30D
1070
   371
1070
    18
1070
   372
1070
    18
1002
}
  0
LINE
  5
64D9
330
1F
100
AcDbEntity
  8
実形
100
AcDbLine
 10
444.0757996528089
 20
477.6687844154767
 30
0.0
 11
444.0757996528089
 21
465.6687844154767
 31
0.0
  0
TEXT
  5
65BC
330
1F
100
AcDbEntity
  8
実形
100
AcDbText
 10
1099.100408691905
 20
1622.589173580733
 30
0.0
 40
30.0
  1
B
 72
     4
 11
1109.100408691905
 21
1637.589173580733
 31
0.0
100
AcDbText
  0
TEXT
  5
65C5
330
1F
100
AcDbEntity
  8
実形
100
AcDbText
 10
1099.354423929162
 20
780.1981142214303
 30
0.0
 40
30.0
  1
B
 72
     4
 11
1109.354423929162
 21
795.1981142214304
 31
0.0
100
AcDbText
  0
TEXT
  5
65CE
330
1F
100
AcDbEntity
  8
実形
100
AcDbText
 10
1115.688482252386
 20
782.8448405269873
 30
0.0
 40
30.0
  1
´
 72
     4
 11
1129.688482252386
 21
810.8448405269873
 31
0.0
100
AcDbText
  0
TEXT
  5
68B3
330
1F
100
AcDbEntity
  8
実形
 62
     0
100
AcDbText
 10
2653.5
 20
1911.500000000001
 30
0.0
 40
30.0
  1
電解研磨
 72
     4
 11
2721.5
 21
1926.500000000001
 31
0.0
100
AcDbText
  0
TEXT
  5
68BC
330
1F
100
AcDbEntity
  8
実形
100
AcDbText
 10
2299.87101802458
 20
83.4164511805565
 30
0.0
 40
35.0
  1
RaS250-384MT
  7
ms明朝
 72
     4
 11
2453.47101802458
 21
100.5164511805565
 31
0.0
100
AcDbText
  0
TEXT
  5
68D6
330
1F
100
AcDbEntity
  8
実形
100
AcDbText
 10
2295.707342985361
 20
148.5823867076031
 30
0.0
 40
35.0
  1
水切トレー
  7
ms明朝
 72
     4
 11
2423.707342985361
 21
166.782386707603
 31
0.0
100
AcDbText
  0
LINE
  5
6D9B
330
1F
100
AcDbEntity
  8
実形
 62
     0
100
AcDbLine
 10
2834.0
 20
4.0
 30
0.0
 11
2834.0
 21
2024.0
 31
0.0
  0
LINE
  5
78FB
330
1F
100
AcDbEntity
  8
実形
100
AcDbLine
 10
1763.136995706918
 20
477.6687844154756
 30
0.0
 11
1763.136995706918
 21
465.6687844154758
 31
0.0
  0
TEXT
  5
79B3
330
1F
100
AcDbEntity
  8
実形
100
AcDbText
 10
812.5236759016116
 20
1408.830151134762
 30
0.0
 40
30.0
  1
A
 72
     4
 11
822.5236759016116
 21
1423.830151134762
 31
0.0
100
AcDbText
  0
ARC
  5
7DF4
330
1F
100
AcDbEntity
  8
実形
100
AcDbCircle
 10
1306.771034014624
 20
1553.580390790751
 30
0.0
 40
12.0
100
AcDbArc
 50
0.0
 51
90.0
  0
ARC
  5
7DF5
330
1F
100
AcDbEntity
  8
実形
100
AcDbCircle
 10
910.7710340146239
 20
1553.580390790751
 30
0.0
 40
12.0
100
AcDbArc
 50
89.99999999999996
 51
180.0
  0
ARC
  5
7F52
330
1F
100
AcDbEntity
  8
実形
100
AcDbCircle
 10
1306.771034014624
 20
889.5803907907509
 30
0.0
 40
12.0
100
AcDbArc
 50
270.0
 51
0.0
  0
ARC
  5
7F53
330
1F
100
AcDbEntity
  8
実形
100
AcDbCircle
 10
910.7710340146242
 20
889.5803907907511
 30
0.0
 40
12.0
100
AcDbArc
 50
180.0
 51
270.0
  0
LINE
  5
833F
330
1F
100
AcDbEntity
  8
実形
100
AcDbLine
 10
1837.357383518876
 20
837.5803907907512
 30
0.0
 11
1845.457988226843
 21
837.5803907907512
 31
0.0
  0
LINE
  5
8340
330
1F
100
AcDbEntity
  8
実形
100
AcDbLine
 10
1845.457988226843
 20
877.5803907907512
 30
0.0
 11
1859.257383518876
 21
877.5803907907512
 31
0.0
  0
LINE
  5
8341
330
1F
100
AcDbEntity
  8
実形
100
AcDbLine
 10
1867.357383518876
 20
869.4803907907513
 30
0.0
 11
1867.357383518876
 21
1466.484050879706
 31
0.0
  0
LINE
  5
8342
330
1F
100
AcDbEntity
  8
実形
100
AcDbLine
 10
1859.257383518876
 20
877.5803907907507
 30
0.0
 11
1859.257383518876
 21
889.5803907907506
 31
0.0
  0
LINE
  5
8343
330
1F
100
AcDbEntity
  8
実形
100
AcDbLine
 10
1837.357383518876
 20
837.5803907907512
 30
0.0
 11
1837.357383518876
 21
877.5803907907512
 31
0.0
  0
LINE
  5
8344
330
1F
100
AcDbEntity
  8
実形
100
AcDbLine
 10
1837.357383518876
 20
889.5803907907506
 30
0.0
 11
1837.357383518876
 21
1179.580390790751
 31
0.0
  0
LINE
  5
8345
330
1F
100
AcDbEntity
  8
実形
100
AcDbLine
 10
1845.457988226843
 20
837.5803907907512
 30
0.0
 11
1845.457988226843
 21
869.4803907907513
 31
0.0
  0
LINE
  5
8346
330
1F
100
AcDbEntity
  8
実形
100
AcDbLine
 10
1845.457988226843
 20
889.5803907907506
 30
0.0
 11
1845.457988226843
 21
1179.580390790751
 31
0.0
  0
DIMENSION
  5
8347
330
1F
100
AcDbEntity
  8
実形
100
AcDbDimension
  2
*D66
 10
2042.579345571372
 20
837.580390790751
 30
0.0
 11
2020.979345571372
 21
1221.580390790751
 31
0.0
 70
    32
  1
384
 71
     5
 42
768.0000000000003
  3
ISO-25
100
AcDbAlignedDimension
 13
1908.756243221971
 23
1605.580390790751
 33
0.0
 14
1908.756243221971
 24
837.580390790751
 34
0.0
 50
90.0
100
AcDbRotatedDimension
1001
ACAD
1000
DSTYLE
1002
{
1070
    41
1040
10.0
1070
   140
1040
30.0
1070
   147
1040
6.599999999999997
1070
   279
1070
     2
1070
   342
1005
30D
1070
   371
1070
    18
1070
   372
1070
    18
1002
}
  0
DIMENSION
  5
8348
330
1F
100
AcDbEntity
  8
実形
100
AcDbDimension
  2
*D67
 10
1977.036550473462
 20
837.580390790751
 30
0.0
 11
1958.343306234543
 21
797.0205415454329
 31
0.0
 70
   160
  1
20
 71
     5
 42
39.99999999999966
  3
ISO-25
100
AcDbAlignedDimension
 13
1887.238337640177
 23
877.5803907907507
 33
0.0
 14
1876.40624244145
 24
837.580390790751
 34
0.0
 50
90.0
100
AcDbRotatedDimension
1001
ACAD
1000
DSTYLE
1002
{
1070
    41
1040
10.0
1070
   140
1040
30.0
1070
   147
1040
6.599999999999997
1070
   279
1070
     2
1070
   342
1005
30D
1070
   371
1070
    18
1070
   372
1070
    18
1002
}
  0
DIMENSION
  5
8349
330
1F
100
AcDbEntity
  8
実形
100
AcDbDimension
  2
*D68
 10
1977.036550473461
 20
877.5803907907507
 30
0.0
 11
1955.436550473461
 21
1221.580390790751
 31
0.0
 70
    32
  1
332
 71
     5
 42
688.0000000000006
  3
ISO-25
100
AcDbAlignedDimension
 13
1911.241314245649
 23
1565.580390790751
 33
0.0
 14
1904.609082260989
 24
877.5803907907507
 34
0.0
 50
90.0
100
AcDbRotatedDimension
1001
ACAD
1000
DSTYLE
1002
{
1070
    41
1040
10.0
1070
   140
1040
30.0
1070
   147
1040
6.599999999999997
1070
   279
1070
     2
1070
   342
1005
30D
1070
   371
1070
    18
1070
   372
1070
    18
1002
}
  0
DIMENSION
  5
834A
330
1F
100
AcDbEntity
  8
実形
100
AcDbDimension
  2
*D69
 10
1691.613043743827
 20
889.5803907907511
 30
0.0
 11
1670.013043743827
 21
1221.580390790751
 31
0.0
 70
    32
  1
332
 71
     5
 42
663.9999999999997
  3
ISO-25
100
AcDbAlignedDimension
 13
1580.412504176796
 23
1553.580390790751
 33
0.0
 14
1580.412504176796
 24
889.5803907907511
 34
0.0
 50
90.0
100
AcDbRotatedDimension
1001
ACAD
1000
DSTYLE
1002
{
1070
    41
1040
10.0
1070
   140
1040
30.0
1070
   147
1040
6.599999999999997
1070
   279
1070
     2
1070
   342
1005
30D
1070
   371
1070
    18
1070
   372
1070
    18
1002
}
  0
DIMENSION
  5
834B
330
1F
100
AcDbEntity
  8
実形
100
AcDbDimension
  2
*D70
 10
1691.613043743827
 20
837.5803907907512
 30
0.0
 11
1674.673036769643
 21
1642.920904237157
 31
0.0
 70
   160
  1
20
 71
     5
 42
768.0000000000001
  3
ISO-25
100
AcDbAlignedDimension
 13
1580.412504176796
 23
1605.580390790751
 33
0.0
 14
1580.412504176795
 24
837.5803907907512
 34
0.0
 50
90.0
100
AcDbRotatedDimension
1001
ACAD
1000
DSTYLE
1002
{
1070
    41
1040
10.0
1070
   140
1040
30.0
1070
   147
1040
6.599999999999997
1070
   279
1070
     2
1070
   342
1005
30D
1070
   371
1070
    18
1070
   372
1070
    18
1002
}
  0
DIMENSION
  5
834C
330
1F
100
AcDbEntity
  8
実形
100
AcDbDimension
  2
*D71
 10
1691.613043743827
 20
877.5803907907512
 30
0.0
 11
1669.776015634315
 21
799.9197808411492
 31
0.0
 70
   160
  1
20
 71
     5
 42
688.0000000000001
  3
ISO-25
100
AcDbAlignedDimension
 13
1580.412504176796
 23
1565.580390790751
 33
0.0
 14
1580.412504176796
 24
877.5803907907512
 34
0.0
 50
90.0
100
AcDbRotatedDimension
1001
ACAD
1000
DSTYLE
1002
{
1070
    41
1040
10.0
1070
   140
1040
30.0
1070
   147
1040
6.599999999999997
1070
   279
1070
     2
1070
   342
1005
30D
1070
   371
1070
    18
1070
   372
1070
    18
1002
}
  0
LINE
  5
834D
330
1F
100
AcDbEntity
  8
実形
100
AcDbLine
 10
1837.357383518876
 20
889.5803907907509
 30
0.0
 11
1867.357383518876
 21
889.5803907907506
 31
0.0
  0
LINE
  5
834E
330
1F
100
AcDbEntity
  8
実形
100
AcDbLine
 10
1837.357383518876
 20
877.5803907907512
 30
0.0
 11
1859.257383518876
 21
877.5803907907507
 31
0.0
  0
LINE
  5
834F
330
1F
100
AcDbEntity
  8
実形
100
AcDbLine
 10
1845.457988226844
 20
869.4803907907513
 30
0.0
 11
1867.357383518876
 21
869.4803907907513
 31
0.0
  0
DIMENSION
  5
8352
330
1F
100
AcDbEntity
  8
実形
100
AcDbDimension
  2
*D72
 10
1867.357383518876
 20
746.8951896395203
 30
0.0
 11
1853.812586258955
 21
716.4171782810017
 31
0.0
 70
   160
  1
15
 71
     5
 42
29.99999999999977
  3
ISO-25
100
AcDbAlignedDimension
 13
1837.357383518876
 23
835.964421631591
 33
0.0
 14
1867.357383518876
 24
837.1193308714476
 34
0.0
100
AcDbRotatedDimension
1001
ACAD
1000
DSTYLE
1002
{
1070
    41
1040
10.0
1070
   140
1040
30.0
1070
   147
1040
6.599999999999997
1070
   279
1070
     2
1070
   342
1005
30D
1070
   371
1070
    18
1070
   372
1070
    18
1002
}
  0
LINE
  5
8353
330
1F
100
AcDbEntity
  8
実形
100
AcDbLine
 10
1837.357383518876
 20
816.9674648203191
 30
0.0
 11
1837.357383518876
 21
786.911227851607
 31
0.0
  0
LINE
  5
8354
330
1F
100
AcDbEntity
  8
実形
100
AcDbLine
 10
1837.357383518876
 20
786.911227851607
 30
0.0
 11
1845.457988226843
 21
786.911227851607
 31
0.0
  0
LINE
  5
8355
330
1F
100
AcDbEntity
  8
実形
100
AcDbLine
 10
1845.457988226843
 20
786.911227851607
 30
0.0
 11
1845.457988226843
 21
816.9674648203191
 31
0.0
  0
TEXT
  5
8359
330
1F
100
AcDbEntity
  8
実形
100
AcDbText
 10
1834.202369574041
 20
790.2620511935315
 30
0.0
 40
7.0
  1
●
 50
180.0
 71
     2
 72
     2
 11
1840.269036240708
 21
791.1953845268648
 31
0.0
100
AcDbText
 73
     1
  0
TEXT
  5
835A
330
1F
100
AcDbEntity
  8
実形
100
AcDbText
 10
1841.55274425636
 20
790.2620511935315
 30
0.0
 40
7.0
  1
●
 50
180.0
 71
     2
 72
     2
 11
1847.619410923027
 21
791.1953845268648
 31
0.0
100
AcDbText
 73
     1
  0
TEXT
  5
835E
330
1F
100
AcDbEntity
  8
実形
100
AcDbText
 10
1777.161275750637
 20
776.1459891722355
 30
0.0
 40
25.0
  1
1.2
 72
     4
 11
1797.99460908397
 21
788.6459891722355
 31
0.0
100
AcDbText
  0
DIMENSION
  5
8365
330
1F
100
AcDbEntity
  8
実形
100
AcDbDimension
  2
*D73
 10
1977.036550473462
 20
877.5803907907512
 30
0.0
 11
1920.416691031488
 21
883.5516116731897
 31
0.0
 70
   160
  1
6
 71
     5
 42
11.99999999999954
  3
ISO-25
100
AcDbAlignedDimension
 13
1877.205993613698
 23
889.5803907907506
 33
0.0
 14
1876.40624244145
 24
877.5803907907512
 34
0.0
 50
90.0
100
AcDbRotatedDimension
1001
ACAD
1000
DSTYLE
1002
{
1070
    41
1040
10.0
1070
   140
1040
25.0
1070
   147
1040
6.599999999999997
1070
   279
1070
     2
1070
   342
1005
30D
1070
   371
1070
    18
1070
   372
1070
    18
1002
}
  0
DIMENSION
  5
8366
330
1F
100
AcDbEntity
  8
実形
100
AcDbDimension
  2
*D74
 10
1977.036550473462
 20
1605.580390790751
 30
0.0
 11
1958.343306234543
 21
1646.140240036069
 31
0.0
 70
   160
  1
20
 71
     5
 42
39.99999999999955
  3
ISO-25
100
AcDbAlignedDimension
 13
1878.276282154315
 23
1565.580390790751
 33
0.0
 14
1886.85684792996
 24
1605.580390790751
 34
0.0
 50
270.0
100
AcDbRotatedDimension
1001
ACAD
1000
DSTYLE
1002
{
1070
    41
1040
10.0
1070
   140
1040
30.0
1070
   147
1040
6.599999999999997
1070
   279
1070
     2
1070
   342
1005
30D
1070
   371
1070
    18
1070
   372
1070
    18
1002
}
  0
DIMENSION
  5
8367
330
1F
100
AcDbEntity
  8
実形
100
AcDbDimension
  2
*D75
 10
1867.357383518876
 20
1696.265591941982
 30
0.0
 11
1853.812586258955
 21
1726.7436033005
 31
0.0
 70
   160
  1
15
 71
     5
 42
29.99999999999977
  3
ISO-25
100
AcDbAlignedDimension
 13
1837.357383518876
 23
1607.196359949911
 33
0.0
 14
1867.357383518876
 24
1606.041450710054
 34
0.0
100
AcDbRotatedDimension
1001
ACAD
1000
DSTYLE
1002
{
1070
    41
1040
10.0
1070
   140
1040
30.0
1070
   147
1040
6.599999999999997
1070
   279
1070
     2
1070
   342
1005
30D
1070
   371
1070
    18
1070
   372
1070
    18
1002
}
  0
LINE
  5
8368
330
1F
100
AcDbEntity
  8
実形
100
AcDbLine
 10
1837.357383518876
 20
1626.193316761183
 30
0.0
 11
1837.357383518876
 21
1656.249553729895
 31
0.0
  0
LINE
  5
8369
330
1F
100
AcDbEntity
  8
実形
100
AcDbLine
 10
1837.357383518876
 20
1656.249553729895
 30
0.0
 11
1845.457988226843
 21
1656.249553729895
 31
0.0
  0
LINE
  5
836A
330
1F
100
AcDbEntity
  8
実形
100
AcDbLine
 10
1845.457988226843
 20
1656.249553729895
 30
0.0
 11
1845.457988226843
 21
1626.193316761183
 31
0.0
  0
TEXT
  5
836E
330
1F
100
AcDbEntity
  8
実形
100
AcDbText
 10
1834.202369574041
 20
1652.89873038797
 30
0.0
 40
7.0
  1
●
 72
     2
 11
1840.269036240708
 21
1651.965397054637
 31
0.0
100
AcDbText
 73
     1
  0
TEXT
  5
836F
330
1F
100
AcDbEntity
  8
実形
100
AcDbText
 10
1841.55274425636
 20
1652.89873038797
 30
0.0
 40
7.0
  1
●
 72
     2
 11
1847.619410923027
 21
1651.965397054637
 31
0.0
100
AcDbText
 73
     1
  0
TEXT
  5
8373
330
1F
100
AcDbEntity
  8
実形
100
AcDbText
 10
1777.161275750637
 20
1639.133951862942
 30
0.0
 40
25.0
  1
1.2
 72
     4
 11
1797.99460908397
 21
1651.633951862942
 31
0.0
100
AcDbText
  0
DIMENSION
  5
837A
330
1F
100
AcDbEntity
  8
実形
100
AcDbDimension
  2
*D76
 10
1977.036550473462
 20
1565.580390790751
 30
0.0
 11
1953.713726944547
 21
1531.550787768305
 31
0.0
 70
   160
  1
 
 71
     5
 42
11.99999999999954
  3
ISO-25
100
AcDbAlignedDimension
 13
1877.205993613698
 23
1553.580390790751
 33
0.0
 14
1877.034264569186
 24
1565.580390790751
 34
0.0
 50
270.0
100
AcDbRotatedDimension
1001
ACAD
1000
DSTYLE
1002
{
1070
    41
1040
10.0
1070
   140
1040
30.0
1070
   147
1040
6.599999999999997
1070
   279
1070
     2
1070
   342
1005
30D
1070
   371
1070
    18
1070
   372
1070
    18
1002
}
  0
LINE
  5
837B
330
1F
100
AcDbEntity
  8
実形
100
AcDbLine
 10
1845.457988226843
 20
1565.580390790751
 30
0.0
 11
1859.257383518876
 21
1565.580390790751
 31
0.0
  0
LINE
  5
837C
330
1F
100
AcDbEntity
  8
実形
100
AcDbLine
 10
1867.357383518876
 20
1573.680390790751
 30
0.0
 11
1867.357383518876
 21
976.6767307017959
 31
0.0
  0
LINE
  5
837D
330
1F
100
AcDbEntity
  8
実形
100
AcDbLine
 10
1859.257383518876
 20
1565.580390790751
 30
0.0
 11
1859.257383518876
 21
1553.580390790752
 31
0.0
  0
LINE
  5
837E
330
1F
100
AcDbEntity
  8
実形
100
AcDbLine
 10
1837.357383518876
 20
1605.580390790751
 30
0.0
 11
1837.357383518876
 21
1565.580390790751
 31
0.0
  0
LINE
  5
837F
330
1F
100
AcDbEntity
  8
実形
100
AcDbLine
 10
1837.357383518876
 20
1553.580390790752
 30
0.0
 11
1837.357383518876
 21
1263.58039079075
 31
0.0
  0
LINE
  5
8380
330
1F
100
AcDbEntity
  8
実形
100
AcDbLine
 10
1845.457988226843
 20
1605.580390790751
 30
0.0
 11
1845.457988226843
 21
1573.680390790751
 31
0.0
  0
LINE
  5
8381
330
1F
100
AcDbEntity
  8
実形
100
AcDbLine
 10
1845.457988226843
 20
1553.580390790752
 30
0.0
 11
1845.457988226843
 21
1263.58039079075
 31
0.0
  0
LINE
  5
8382
330
1F
100
AcDbEntity
  8
実形
100
AcDbLine
 10
1837.357383518876
 20
1553.580390790751
 30
0.0
 11
1867.357383518876
 21
1553.580390790752
 31
0.0
  0
LINE
  5
8383
330
1F
100
AcDbEntity
  8
実形
100
AcDbLine
 10
1837.357383518876
 20
1565.580390790751
 30
0.0
 11
1859.257383518876
 21
1565.580390790751
 31
0.0
  0
LINE
  5
8384
330
1F
100
AcDbEntity
  8
実形
100
AcDbLine
 10
1845.457988226844
 20
1573.680390790751
 30
0.0
 11
1867.357383518876
 21
1573.680390790751
 31
0.0
  0
DIMENSION
  5
8385
330
1F
100
AcDbEntity
  8
実形
100
AcDbDimension
  2
*D77
 10
1977.036550473462
 20
1565.580390790751
 30
0.0
 11
1921.482266084403
 21
1561.123379875721
 31
0.0
 70
   160
  1
6
 71
     5
 42
11.99999999999954
  3
ISO-25
100
AcDbAlignedDimension
 13
1877.205993613698
 23
1553.580390790752
 33
0.0
 14
1877.034264569186
 24
1565.580390790751
 34
0.0
 50
270.0
100
AcDbRotatedDimension
1001
ACAD
1000
DSTYLE
1002
{
1070
    41
1040
10.0
1070
   140
1040
25.0
1070
   147
1040
6.599999999999997
1070
   279
1070
     2
1070
   342
1005
30D
1070
   371
1070
    18
1070
   372
1070
    18
1002
}
  0
LINE
  5
8386
330
1F
100
AcDbEntity
  8
実形
100
AcDbLine
 10
1837.357383518876
 20
1605.580390790751
 30
0.0
 11
1845.457988226843
 21
1605.580390790751
 31
0.0
  0
TEXT
  5
853A
330
1F
100
AcDbEntity
  8
実形
100
AcDbText
 10
1631.387468200047
 20
877.6793197043733
 30
0.0
 40
25.0
  1
6
 50
90.0
 72
     4
 11
1618.887468200048
 21
886.0126530377067
 31
0.0
100
AcDbText
  0
TEXT
  5
8542
330
1F
100
AcDbEntity
  8
実形
100
AcDbText
 10
1635.933373630705
 20
1551.972853144528
 30
0.0
 40
25.0
  1
6
 50
90.0
 72
     4
 11
1623.433373630705
 21
1560.306186477862
 31
0.0
100
AcDbText
  0
LINE
  5
868B
330
1F
100
AcDbEntity
  8
実形
100
AcDbLine
 10
1318.771034014624
 20
1553.580390790751
 30
0.0
 11
1346.771034014624
 21
1553.580390790751
 31
0.0
  0
LINE
  5
868C
330
1F
100
AcDbEntity
  8
実形
100
AcDbLine
 10
1306.771034014624
 20
1565.580390790751
 30
0.0
 11
1306.771034014624
 21
1593.580390790751
 31
0.0
  0
LINE
  5
868D
330
1F
100
AcDbEntity
  8
実形
100
AcDbLine
 10
1318.771034014624
 20
889.5803907907509
 30
0.0
 11
1346.771034014624
 21
889.5803907907509
 31
0.0
  0
LINE
  5
868E
330
1F
100
AcDbEntity
  8
実形
100
AcDbLine
 10
1306.771034014624
 20
877.580390790751
 30
0.0
 11
1306.771034014623
 21
849.5803907907511
 31
0.0
  0
LINE
  5
868F
330
1F
100
AcDbEntity
  8
実形
100
AcDbLine
 10
910.7710340146242
 20
877.5803907907512
 30
0.0
 11
910.7710340146242
 21
849.5803907907511
 31
0.0
  0
LINE
  5
8690
330
1F
100
AcDbEntity
  8
実形
100
AcDbLine
 10
898.7710340146241
 20
889.5803907907511
 30
0.0
 11
870.771034014624
 21
889.5803907907511
 31
0.0
  0
LINE
  5
8691
330
1F
100
AcDbEntity
  8
実形
100
AcDbLine
 10
910.7710340146239
 20
1565.580390790751
 30
0.0
 11
910.7710340146239
 21
1593.58039079075
 31
0.0
  0
LINE
  5
8692
330
1F
100
AcDbEntity
  8
実形
100
AcDbLine
 10
898.7710340146241
 20
1553.580390790751
 30
0.0
 11
870.7710340146237
 21
1553.580390790751
 31
0.0
  0
ARC
  5
8693
330
1F
100
AcDbEntity
  8
実形
100
AcDbCircle
 10
1346.771034014624
 20
1541.580390790751
 30
0.0
 40
12.0
100
AcDbArc
 50
0.0
 51
90.0
  0
ARC
  5
8694
330
1F
100
AcDbEntity
  8
実形
100
AcDbCircle
 10
1294.771034014624
 20
1593.580390790751
 30
0.0
 40
12.0
100
AcDbArc
 50
0.0
 51
90.0
  0
ARC
  5
8695
330
1F
100
AcDbEntity
  8
実形
100
AcDbCircle
 10
1294.771034014624
 20
849.5803907907511
 30
0.0
 40
12.0
100
AcDbArc
 50
270.0
 51
359.9999999999997
  0
ARC
  5
8696
330
1F
100
AcDbEntity
  8
実形
100
AcDbCircle
 10
1346.771034014624
 20
901.580390790751
 30
0.0
 40
12.0
100
AcDbArc
 50
269.9999999999998
 51
0.0000000000000382
  0
ARC
  5
8697
330
1F
100
AcDbEntity
  8
実形
100
AcDbCircle
 10
922.7710340146243
 20
849.5803907907511
 30
0.0
 40
12.0
100
AcDbArc
 50
180.0
 51
270.0
  0
ARC
  5
8698
330
1F
100
AcDbEntity
  8
実形
100
AcDbCircle
 10
870.771034014624
 20
901.580390790751
 30
0.0
 40
12.0
100
AcDbArc
 50
180.0
 51
270.0000000000002
  0
ARC
  5
8699
330
1F
100
AcDbEntity
  8
実形
100
AcDbCircle
 10
870.771034014624
 20
1541.580390790751
 30
0.0
 40
12.0
100
AcDbArc
 50
90.00000000000033
 51
180.0
  0
ARC
  5
869A
330
1F
100
AcDbEntity
  8
実形
100
AcDbCircle
 10
922.771034014624
 20
1593.58039079075
 30
0.0
 40
12.0
100
AcDbArc
 50
90.00000000000005
 51
180.0
  0
DIMENSION
  5
8802
330
1F
100
AcDbEntity
  8
実形
100
AcDbDimension
  2
*D78
 10
1306.771034014624
 20
637.3174627185721
 30
0.0
 11
1109.205356699319
 21
658.9174627185721
 31
0.0
 70
   160
  1
198
 71
     5
 42
395.9999999999995
  3
ISO-25
100
AcDbAlignedDimension
 13
910.7710340146242
 23
752.1567556932978
 33
0.0
 14
1306.771034014624
 24
752.1567556932978
 34
0.0
100
AcDbRotatedDimension
1001
ACAD
1000
DSTYLE
1002
{
1070
    41
1040
10.0
1070
   140
1040
30.0
1070
   147
1040
6.599999999999997
1070
   279
1070
     2
1070
   342
1005
30D
1070
   371
1070
    18
1070
   372
1070
    18
1002
}
  0
DIMENSION
  5
8803
330
1F
100
AcDbEntity
  8
実形
100
AcDbDimension
  2
*D79
 10
1318.771034014624
 20
637.3174627185721
 30
0.0
 11
1312.448027638127
 21
714.0756676003197
 31
0.0
 70
   160
  1
6
 71
     5
 42
419.9999999999994
  3
ISO-25
100
AcDbAlignedDimension
 13
898.7710340146241
 23
752.1567556932978
 33
0.0
 14
1318.771034014624
 24
752.1567556932978
 34
0.0
100
AcDbRotatedDimension
1001
ACAD
1000
DSTYLE
1002
{
1070
    41
1040
10.0
1070
   140
1040
30.0
1070
   147
1040
6.599999999999997
1070
   279
1070
     2
1070
   342
1005
30D
1070
   371
1070
    18
1070
   372
1070
    18
1002
}
  0
DIMENSION
  5
8804
330
1F
100
AcDbEntity
  8
実形
100
AcDbDimension
  2
*D80
 10
1304.271034014624
 20
637.3174627185721
 30
0.0
 11
903.4829687759977
 21
711.4241525465317
 31
0.0
 70
   160
  1
6
 71
     5
 42
406.1883377501896
  3
ISO-25
100
AcDbAlignedDimension
 13
898.0826962644341
 23
697.2288896761861
 33
0.0
 14
1304.271034014624
 24
701.4180112169973
 34
0.0
100
AcDbRotatedDimension
1001
ACAD
1000
DSTYLE
1002
{
1070
    41
1040
10.0
1070
   140
1040
30.0
1070
   147
1040
6.599999999999997
1070
   279
1070
     2
1070
   342
1005
30D
1070
   371
1070
    18
1070
   372
1070
    18
1002
}
  0
DIMENSION
  5
8805
330
1F
100
AcDbEntity
  8
実形
100
AcDbDimension
  2
*D81
 10
1358.771034014624
 20
637.3174627185721
 30
0.0
 11
1396.501054352438
 21
661.2665840348512
 31
0.0
 70
   160
  1
20
 71
     5
 42
40.00000000000068
  3
ISO-25
100
AcDbAlignedDimension
 13
1318.771034014624
 23
750.9069531209147
 33
0.0
 14
1358.771034014624
 24
750.9069531209148
 34
0.0
100
AcDbRotatedDimension
1001
ACAD
1000
DSTYLE
1002
{
1070
    41
1040
10.0
1070
   140
1040
30.0
1070
   147
1040
6.599999999999997
1070
   279
1070
     2
1070
   342
1005
30D
1070
   371
1070
    18
1070
   372
1070
    18
1002
}
  0
DIMENSION
  5
8806
330
1F
100
AcDbEntity
  8
実形
100
AcDbDimension
  2
*D82
 10
898.7710340146241
 20
637.3174627185721
 30
0.0
 11
819.6403534577875
 21
660.2394160536738
 31
0.0
 70
   160
  1
20
 71
     5
 42
40.00000000000068
  3
ISO-25
100
AcDbAlignedDimension
 13
858.7710340146236
 23
750.9069531209147
 33
0.0
 14
898.7710340146241
 24
750.9069531209148
 34
0.0
100
AcDbRotatedDimension
1001
ACAD
1000
DSTYLE
1002
{
1070
    41
1040
10.0
1070
   140
1040
30.0
1070
   147
1040
6.599999999999997
1070
   279
1070
     2
1070
   342
1005
30D
1070
   371
1070
    18
1070
   372
1070
    18
1002
}
  0
LINE
  5
89E5
330
1F
100
AcDbEntity
  8
実形
100
AcDbLine
 10
1859.257383518877
 20
1251.580390790751
 30
0.0
 11
1859.257383518876
 21
1191.580390790751
 31
0.0
  0
LINE
  5
89E6
330
1F
100
AcDbEntity
  8
実形
100
AcDbLine
 10
1845.457988226843
 20
1191.58039079075
 30
0.0
 11
1845.457988226843
 21
976.6767307017959
 31
0.0
  0
LINE
  5
89E7
330
1F
100
AcDbEntity
  8
実形
100
AcDbLine
 10
1845.457988226843
 20
1251.580390790751
 30
0.0
 11
1845.457988226843
 21
1466.484050879706
 31
0.0
  0
LINE
  5
89E8
330
1F
100
AcDbEntity
  8
実形
100
AcDbLine
 10
1837.357383518876
 20
1191.58039079075
 30
0.0
 11
1837.357383518876
 21
976.6767307017959
 31
0.0
  0
LINE
  5
89E9
330
1F
100
AcDbEntity
  8
実形
100
AcDbLine
 10
1837.357383518876
 20
1251.580390790751
 30
0.0
 11
1837.357383518876
 21
1466.484050879706
 31
0.0
  0
LINE
  5
8A07
330
1F
100
AcDbEntity
  8
実形
100
AcDbLine
 10
870.7710340146237
 20
1251.580390790751
 30
0.0
 11
898.7710340146241
 21
1251.580390790751
 31
0.0
  0
LINE
  5
8A08
330
1F
100
AcDbEntity
  8
実形
100
AcDbLine
 10
870.771034014624
 20
1191.580390790751
 30
0.0
 11
898.7710340146241
 21
1191.580390790751
 31
0.0
  0
LINE
  5
8A0A
330
1F
100
AcDbEntity
  8
実形
100
AcDbLine
 10
1837.357383518876
 20
1191.580390790751
 30
0.0
 11
1859.257383518876
 21
1191.580390790751
 31
0.0
  0
LINE
  5
8A0B
330
1F
100
AcDbEntity
  8
実形
100
AcDbLine
 10
1837.357383518876
 20
1251.580390790751
 30
0.0
 11
1859.257383518877
 21
1251.580390790751
 31
0.0
  0
DIMENSION
  5
8A0C
330
1F
100
AcDbEntity
  8
実形
100
AcDbDimension
  2
*D83
 10
1544.102903920704
 20
1191.58039079075
 30
0.0
 11
1522.502903920704
 21
1221.580390790751
 31
0.0
 70
    32
  1
30
 71
     5
 42
60.00000000000023
  3
ISO-25
100
AcDbAlignedDimension
 13
1431.128647434989
 23
1251.580390790751
 33
0.0
 14
1431.128647434989
 24
1191.580390790751
 34
0.0
 50
90.0
100
AcDbRotatedDimension
1001
ACAD
1000
DSTYLE
1002
{
1070
    41
1040
10.0
1070
   140
1040
30.0
1070
   147
1040
6.599999999999997
1070
   279
1070
     2
1070
   342
1005
30D
1070
   371
1070
    18
1070
   372
1070
    18
1002
}
  0
DIMENSION
  5
8A1A
330
1F
100
AcDbEntity
  8
実形
100
AcDbDimension
  2
*D84
 10
1544.102903920704
 20
1251.580390790751
 30
0.0
 11
1522.502903920704
 21
1402.580390790751
 31
0.0
 70
    32
  1
151
 71
     5
 42
301.9999999999998
  3
ISO-25
100
AcDbAlignedDimension
 13
1430.848633410622
 23
1553.580390790751
 33
0.0
 14
1431.128647434989
 24
1251.580390790751
 34
0.0
 50
90.0
100
AcDbRotatedDimension
1001
ACAD
1000
DSTYLE
1002
{
1070
    41
1040
10.0
1070
   140
1040
30.0
1070
   147
1040
6.599999999999997
1070
   279
1070
     2
1070
   342
1005
30D
1070
   371
1070
    18
1070
   372
1070
    18
1002
}
  0
DIMENSION
  5
8A31
330
1F
100
AcDbEntity
  8
実形
100
AcDbDimension
  2
*D85
 10
1544.102903920704
 20
889.5803907907511
 30
0.0
 11
1522.502903920704
 21
1040.580390790751
 31
0.0
 70
    32
  1
151
 71
     5
 42
301.9999999999996
  3
ISO-25
100
AcDbAlignedDimension
 13
1431.128647434989
 23
1191.580390790751
 33
0.0
 14
1431.128647434989
 24
889.5803907907511
 34
0.0
 50
90.0
100
AcDbRotatedDimension
1001
ACAD
1000
DSTYLE
1002
{
1070
    41
1040
10.0
1070
   140
1040
30.0
1070
   147
1040
6.599999999999997
1070
   279
1070
     2
1070
   342
1005
30D
1070
   371
1070
    18
1070
   372
1070
    18
1002
}
  0
LINE
  5
8A47
330
1F
100
AcDbEntity
  8
実形
100
AcDbLine
 10
1318.771034014624
 20
1191.580390790751
 30
0.0
 11
1346.771034014624
 21
1191.58039079075
 31
0.0
  0
LINE
  5
8A48
330
1F
100
AcDbEntity
  8
実形
100
AcDbLine
 10
1318.771034014624
 20
1251.580390790751
 30
0.0
 11
1346.771034014624
 21
1251.580390790751
 31
0.0
  0
LINE
  5
8A4B
330
1F
100
AcDbEntity
  8
実形
100
AcDbLine
 10
858.7710340146236
 20
1263.580390790751
 30
0.0
 11
858.7710340146243
 21
1553.580390790751
 31
0.0
  0
ARC
  5
8A4C
330
1F
100
AcDbEntity
  8
実形
100
AcDbCircle
 10
870.771034014624
 20
1179.580390790751
 30
0.0
 40
12.0
100
AcDbArc
 50
90.00000000000033
 51
180.0
  0
ARC
  5
8A4D
330
1F
100
AcDbEntity
  8
実形
100
AcDbCircle
 10
870.7710340146237
 20
1263.580390790751
 30
0.0
 40
12.0
100
AcDbArc
 50
179.9999999999999
 51
270.0
  0
TEXT
  5
8A8D
330
1F
100
AcDbEntity
  8
実形
100
AcDbText
 10
1438.080295771725
 20
1199.375485070951
 30
0.0
 40
28.0
  1
6R
 50
90.0
 72
     4
 11
1424.080295771725
 21
1222.708818404284
 31
0.0
100
AcDbText
  0
LEADER
  5
8A8E
330
1F
100
AcDbEntity
  8
実形
100
AcDbLeader
  3
ISO-25
 76
     2
 10
1360.761941409254
 20
1188.028383969525
 30
0.0
 10
1404.695295895998
 20
1206.917638561193
 30
0.0
1001
ACAD
1000
DSTYLE
1002
{
1070
    77
1070
     0
1070
    41
1040
10.0
1070
   140
1040
30.0
1070
   147
1040
6.599999999999997
1070
   279
1070
     2
1070
   342
1005
30D
1070
   371
1070
    18
1070
   372
1070
    18
1002
}
  0
LEADER
  5
8A8F
330
1F
100
AcDbEntity
  8
実形
100
AcDbLeader
  3
ISO-25
 76
     2
 10
1360.761941409254
 20
1251.676284994672
 30
0.0
 10
1404.695295895998
 20
1231.322187045171
 30
0.0
1001
ACAD
1000
DSTYLE
1002
{
1070
    77
1070
     0
1070
    41
1040
10.0
1070
   140
1040
30.0
1070
   147
1040
6.599999999999997
1070
   279
1070
     2
1070
   342
1005
30D
1070
   371
1070
    18
1070
   372
1070
    18
1002
}
  0
LINE
  5
8AC6
330
1F
100
AcDbEntity
  8
実形
100
AcDbLine
 10
1358.771034014624
 20
1179.58039079075
 30
0.0
 11
1358.771034014624
 21
901.580390790751
 31
0.0
  0
ARC
  5
8AC7
330
1F
100
AcDbEntity
  8
実形
100
AcDbCircle
 10
1346.771034014624
 20
1179.58039079075
 30
0.0
 40
12.0
100
AcDbArc
 50
0.0000000000000509
 51
89.99999999999969
  0
ARC
  5
8AC8
330
1F
100
AcDbEntity
  8
実形
100
AcDbCircle
 10
1346.771034014624
 20
1263.580390790751
 30
0.0
 40
12.0
100
AcDbArc
 50
269.9999999999998
 51
0.0000000000000382
  0
TEXT
  5
8B0F
330
1F
100
AcDbEntity
  8
実形
100
AcDbText
 10
1384.325101199004
 20
1592.653629688669
 30
0.0
 40
30.0
  1
25φ
 11
1384.325101199004
 21
1588.653629688669
 31
0.0
100
AcDbText
 73
     1
  0
LEADER
  5
8B10
330
1F
100
AcDbEntity
  8
実形
100
AcDbLeader
  3
ISO-25
 76
     2
 10
1298.413783910477
 20
1518.692397318374
 30
0.0
 10
1386.968552587958
 20
1575.511613582405
 30
0.0
1001
ACAD
1000
DSTYLE
1002
{
1070
    77
1070
     0
1070
    41
1040
10.0
1070
   140
1040
30.0
1070
   147
1040
6.599999999999997
1070
   279
1070
     2
1070
   342
1005
30D
1070
   371
1070
    18
1070
   372
1070
    18
1002
}
  0
TEXT
  5
8B19
330
1F
100
AcDbEntity
  8
実形
100
AcDbText
 10
837.3473199145882
 20
756.972656066322
 30
0.0
 40
30.0
  1
25φ
 11
837.3473199145882
 21
752.9726560663219
 31
0.0
100
AcDbText
 73
     1
  0
LEADER
  5
8B1A
330
1F
100
AcDbEntity
  8
実形
100
AcDbLeader
  3
ISO-25
 76
     2
 10
947.7317186906777
 20
906.9883148950893
 30
0.0
 10
899.4385406744914
 20
798.3562889114
 30
0.0
1001
ACAD
1000
DSTYLE
1002
{
1070
    77
1070
     0
1070
    41
1040
10.0
1070
   140
1040
30.0
1070
   147
1040
6.599999999999997
1070
   279
1070
     2
1070
   342
1005
30D
1070
   371
1070
    18
1070
   372
1070
    18
1002
}
  0
LINE
  5
8B9E
330
1F
100
AcDbEntity
  8
実形
 62
     0
100
AcDbLine
 10
159.0
 20
4.0
 30
0.0
 11
159.0
 21
2024.0
 31
0.0
  0
TEXT
  5
8BBA
330
1F
100
AcDbEntity
  8
実形
100
AcDbText
 10
255.3839175204648
 20
60.08511374856698
 30
0.0
 40
30.0
  1
※実寸には製造上の誤差が多少生ずる場合があります。
 72
     4
 11
693.3839175204647
 21
75.08511374856698
 31
0.0
100
AcDbText
  0
TEXT
  5
8BBB
330
1F
100
AcDbEntity
  8
実形
100
AcDbText
 10
255.0091367510504
 20
120.0003643961654
 30
0.0
 40
30.0
  1
※前辺糸面（内側、外側、表面、裏面）
 72
     4
 11
567.0091367510504
 21
135.0003643961654
 31
0.0
100
AcDbText
  0
VIEWPORT
  5
2E
102
{ACAD_XDICTIONARY
360
8BF2
102
}
330
1B
100
AcDbEntity
 67
     1
  8
0
100
AcDbViewport
 10
144.7270812988281
 20
101.2295806407928
 30
0.0
 40
411.6736216682419
 41
222.1517806396485
 68
     1
 69
     1
 12
144.7270812988281
 22
101.2295806407928
 13
0.0
 23
0.0
 14
10.0
 24
10.0
 15
10.0
 25
10.0
 16
0.0
 26
0.0
 36
1.0
 17
0.0
 27
0.0
 37
0.0
 42
50.0
 43
0.0
 44
0.0
 45
222.1517806396485
 50
0.0
 51
0.0
 72
   100
 90
    32800
  1

281
     0
 71
     1
 74
     0
110
0.0
120
0.0
130
0.0
111
1.0
121
0.0
131
0.0
112
0.0
122
1.0
132
0.0
 79
     0
146
0.0
  0
VIEWPORT
  5
30
102
{ACAD_XDICTIONARY
360
8BF4
102
}
330
1B
100
AcDbEntity
 67
     1
  8
0
100
AcDbViewport
 10
139.2237563133239
 20
101.2295821905136
 30
0.0
 40
222.7580101013184
 41
161.9673315048218
 68
     2
 69
     2
 12
210.0
 22
148.5
 13
0.0
 23
0.0
 14
10.0
 24
10.0
 15
10.0
 25
10.0
 16
0.0
 26
0.0
 36
1.0
 17
0.0
 27
0.0
 37
0.0
 42
50.0
 43
0.0
 44
0.0
 45
309.0686705647124
 50
0.0
 51
0.0
 72
   100
 90
    32864
  1

281
     0
 71
     1
 74
     0
110
0.0
120
0.0
130
0.0
111
1.0
121
0.0
131
0.0
112
0.0
122
1.0
132
0.0
 79
     0
146
0.0
  0
ENDSEC
  0
SECTION
  2
OBJECTS
  0
DICTIONARY
  5
C
330
0
100
AcDbDictionary
281
     1
  3
ACAD_COLOR
350
22AD
  3
ACAD_GROUP
350
D
  3
ACAD_LAYOUT
350
1A
  3
ACAD_MATERIAL
350
22AC
  3
ACAD_MLINESTYLE
350
17
  3
ACAD_PLOTSETTINGS
350
19
  3
ACAD_PLOTSTYLENAME
350
E
  3
ACAD_TABLESTYLE
350
22AE
  3
AcadDim
350
124
  3
ACDBHEADERROUNDTRIPXREC
350
8BEB
  3
AcDbVariableDictionary
350
1589
  3
DWGPROPS
350
8BEA
  0
DICTIONARY
  5
24C4
330
2
100
AcDbDictionary
280
     1
281
     1
  3
ACAD_LAYERFILTERS
360
6C37
  3
ACAD_LAYERSTATES
360
24C5
  3
ACLYDICTIONARY
360
6C36
  0
DICTIONARY
  5
2396
330
1F
100
AcDbDictionary
280
     1
281
     1
  3
ACAD_SORTENTS
360
2397
  0
DICTIONARY
  5
313E
330
313C
100
AcDbDictionary
280
     1
281
     1
  3
ACAD_SORTENTS
360
313F
  0
DICTIONARY
  5
3848
330
3846
100
AcDbDictionary
280
     1
281
     1
  3
ACAD_SORTENTS
360
3849
  0
DICTIONARY
  5
6B89
330
6B87
100
AcDbDictionary
280
     1
281
     1
  3
ACAD_SORTENTS
360
6B8A
  0
DICTIONARY
  5
6C02
330
6C00
100
AcDbDictionary
280
     1
281
     1
  3
ACAD_SORTENTS
360
6C03
  0
DICTIONARY
  5
8338
330
82EF
100
AcDbDictionary
280
     1
281
     1
  3
ACAD_SORTENTS
360
8339
  0
DICTIONARY
  5
8BF2
330
2E
100
AcDbDictionary
280
     1
281
     1
  3
ACAD_XREC_ROUNDTRIP
360
8BF3
  0
DICTIONARY
  5
8BF4
330
30
100
AcDbDictionary
280
     1
281
     1
  3
ACAD_XREC_ROUNDTRIP
360
8BF5
  0
DICTIONARY
  5
22AD
102
{ACAD_REACTORS
330
C
102
}
330
C
100
AcDbDictionary
281
     1
  0
DICTIONARY
  5
D
102
{ACAD_REACTORS
330
C
102
}
330
C
100
AcDbDictionary
281
     1
  0
DICTIONARY
  5
1A
102
{ACAD_REACTORS
330
C
102
}
330
C
100
AcDbDictionary
281
     1
  3
Model
350
22
  3
ﾚｲｱｳﾄ1
350
1E
  3
ﾚｲｱｳﾄ2
350
26
  0
DICTIONARY
  5
22AC
102
{ACAD_REACTORS
330
C
102
}
330
C
100
AcDbDictionary
281
     1
  0
DICTIONARY
  5
17
102
{ACAD_REACTORS
330
C
102
}
330
C
100
AcDbDictionary
281
     1
  3
Standard
350
18
  0
DICTIONARY
  5
19
102
{ACAD_REACTORS
330
C
102
}
330
C
100
AcDbDictionary
281
     1
  0
ACDBDICTIONARYWDFLT
  5
E
102
{ACAD_REACTORS
330
C
102
}
330
C
100
AcDbDictionary
281
     1
  3
Normal
350
F
100
AcDbDictionaryWithDefault
340
F
  0
DICTIONARY
  5
22AE
102
{ACAD_REACTORS
330
C
102
}
330
C
100
AcDbDictionary
281
     1
  3
Standard
350
22AF
  0
XRECORD
  5
124
102
{ACAD_REACTORS
330
C
102
}
330
C
100
AcDbXrecord
280
     1
 90
   990106
  3

 60
     0
 61
     0
 62
     1
 63
     3
 64
     0
 65
     0
 66
     0
 67
     3
 68
     1
 69
     0
 70
     0
 71
     0
 72
     0
 40
30.0
170
     0
  0
DICTIONARY
  5
8BEB
102
{ACAD_REACTORS
330
C
102
}
330
C
100
AcDbDictionary
281
     1
  0
DICTIONARY
  5
1589
102
{ACAD_REACTORS
330
C
102
}
330
C
100
AcDbDictionary
281
     1
  3
CTABLESTYLE
350
22B5
  3
DIMASSOC
350
8BD0
  3
PROJECTNAME
350
8BD1
  3
SORTENTS
350
158A
  0
XRECORD
  5
8BEA
102
{ACAD_REACTORS
330
C
102
}
330
C
100
AcDbXrecord
280
     1
  1
DWGPROPS COOKIE
  2

  3

  4

  6

  7

  8

  9

300
=
301
=
302
=
303
=
304
=
305
=
306
=
307
=
308
=
309
=
 40
2.340363009259259
 41
2451673.575802199
 42
2458820.602658715
  1

 90
        0
  0
DICTIONARY
  5
6C37
102
{ACAD_REACTORS
330
24C4
102
}
330
24C4
100
AcDbDictionary
281
     1
  0
DICTIONARY
  5
24C5
102
{ACAD_REACTORS
330
24C4
102
}
330
24C4
100
AcDbDictionary
281
     1
  0
DICTIONARY
  5
6C36
102
{ACAD_REACTORS
330
24C4
102
}
330
24C4
100
AcDbDictionary
281
     1
1001
ACAD
1000
<All
  0
SORTENTSTABLE
  5
2397
102
{ACAD_REACTORS
330
2396
102
}
330
2396
100
AcDbSortentsTable
330
1F
331
5692
  5
5BFC
331
634F
  5
7591
331
68D6
  5
8356
331
516F
  5
5650
331
1B88
  5
1B95
331
1B98
  5
381F
331
837D
  5
8696
331
8385
  5
8935
331
8805
  5
8A4C
331
635E
  5
8345
331
6366
  5
834D
331
5A69
  5
634C
331
5E30
  5
6480
331
56AA
  5
5DB2
331
6357
  5
833D
331
8A4C
  5
89E9
331
56C2
  5
5E31
331
5C01
  5
6356
331
1B90
  5
1B9D
331
5C29
  5
635A
331
868D
  5
89E7
331
1BA8
  5
517C
331
1B71
  5
1B87
331
5580
  5
59FA
331
8346
  5
8367
331
5489
  5
56E6
331
834E
  5
837C
331
517D
  5
56C5
331
8366
  5
85C9
331
5FAF
  5
6C18
331
869A
  5
5267
331
8AC8
  5
5660
331
5E68
  5
68BC
331
56DA
  5
5F2A
331
8695
  5
8A08
331
56E2
  5
604B
331
835E
  5
85C7
331
89E5
  5
8695
331
5693
  5
5C2A
331
836E
  5
868C
331
5640
  5
59FB
331
5648
  5
59FC
331
1B99
  5
383D
331
5394
  5
56E2
331
837E
  5
8697
331
53BC
  5
56E3
331
8386
  5
8954
331
635F
  5
8346
331
8806
  5
8A4D
331
5E31
  5
6495
331
6350
  5
76E2
331
5A6A
  5
634E
331
56AB
  5
5DB3
331
56C3
  5
5E3A
331
8A4D
  5
56AE
331
8A8D
  5
8AC7
331
1B91
  5
1BA1
331
868E
  5
8A07
331
272
  5
1B86
331
5B10
  5
6364
331
1B72
  5
1B88
331
527D
  5
56DD
331
8347
  5
836F
331
834F
  5
8383
331
5F98
  5
6C17
331
54B2
  5
56E7
331
5A71
  5
635E
331
517E
  5
56C7
331
8367
  5
85F7
331
8696
  5
567A
331
56E3
  5
604C
331
5C52
  5
635C
331
568C
  5
5ACB
331
6349
  5
6C1A
331
89E6
  5
8803
331
836F
  5
8690
331
5169
  5
5460
331
5694
  5
5C2B
331
1B8A
  5
1B96
331
5FE0
  5
6C19
331
51A6
  5
56C8
331
5375
  5
56E1
331
837F
  5
8698
331
6358
  5
833F
331
523E
  5
56DB
331
6360
  5
8347
331
6351
  5
78FB
331
64D9
  5
6360
331
56AC
  5
5DC7
331
5E3A
  5
64D9
331
5E42
  5
6519
331
56C4
  5
5E42
331
1B92
  5
1BA2
331
8A8E
  5
8AC8
331
1BA2
  5
3845
331
868F
  5
8A09
331
8AC6
  5
5678
331
53DB
  5
56E4
331
8340
  5
835A
331
1B73
  5
1B8C
331
8348
  5
8370
331
56DC
  5
5F37
331
8697
  5
56A8
331
89E7
  5
836E
331
8368
  5
85F8
331
634A
  5
6C1B
331
516A
  5
568E
331
1B7B
  5
1B8E
331
5695
  5
5C3E
331
5DC3
  5
634D
331
8A07
  5
89CD
331
1B8B
  5
1B97
331
54DB
  5
56E8
331
5A9A
  5
6361
331
8380
  5
869A
331
6359
  5
8340
331
6361
  5
8348
331
6352
  5
79B3
331
56AD
  5
5DC8
331
8A47
  5
89EA
331
5E43
  5
65C5
331
56C5
  5
5E44
331
8A8F
  5
8B0F
331
9C
  5
9C
331
1B93
  5
1BA6
331
8AC7
  5
5679
331
5267
  5
56DC
331
8341
  5
835B
331
1B74
  5
1B8D
331
5833
  5
604D
331
5F4A
  5
6B8D
331
8349
  5
8371
331
52A7
  5
56DE
331
8A08
  5
89E8
331
8690
  5
8A0C
331
56DD
  5
5F4A
331
8B0F
  5
8B10
331
8359
  5
8542
331
8369
  5
85F9
331
568E
  5
5ACC
331
634B
  5
6C24
331
89E8
  5
8699
331
1B7C
  5
1B8F
331
5DC4
  5
6351
331
516B
  5
56C0
331
1B84
  5
1B91
331
1B8C
  5
1B98
331
51E0
  5
56C9
331
5F2A
  5
68D6
331
5504
  5
56E9
331
8381
  5
8802
331
5ADB
  5
6363
331
635A
  5
8341
331
6362
  5
8349
331
833F
  5
8359
331
5A6D
  5
6358
331
56A6
  5
5D6F
331
6353
  5
7D4D
331
56AE
  5
5DCB
331
8A48
  5
89E3
331
5E44
  5
65CE
331
56C6
  5
5E5F
331
1B94
  5
1BA7
331
8B9E
  5
1B81
331
8342
  5
835C
331
5164
  5
517E
331
834A
  5
8372
331
8352
  5
8384
331
8A31
  5
8AC6
331
7F52
  5
5695
331
8691
  5
8A1A
331
56DE
  5
5F98
331
8B10
  5
8B19
331
68B3
  5
8353
331
835A
  5
85C6
331
56E6
  5
56C2
331
604C
  5
6350
331
89E9
  5
8362
331
634C
  5
6D9A
331
836A
  5
868B
331
568F
  5
5ACD
331
516C
  5
56A9
331
5DC5
  5
6359
331
1B85
  5
1B92
331
1B8D
  5
1B99
331
837A
  5
8692
331
8382
  5
8804
331
5201
  5
56DA
331
635B
  5
8343
331
552D
  5
58E6
331
8802
  5
8A48
331
6363
  5
834A
331
5650
  5
59FD
331
5658
  5
5A17
331
6354
  5
7DF4
331
6D9B
  5
1B7F
331
5BFE
  5
6355
331
78FB
  5
8357
331
853A
  5
8955
331
5660
  5
5A36
331
56AF
  5
5DCD
331
79B3
  5
8358
331
8542
  5
89CB
331
5668
  5
5A69
331
56C7
  5
5E68
331
65BC
  5
834E
331
1B95
  5
1BA8
331
5165
  5
5658
331
8343
  5
835D
331
834B
  5
8373
331
8353
  5
8385
331
8A0A
  5
89FA
331
8A1A
  5
8A8F
331
5670
  5
5A6B
331
8692
  5
8A31
331
5678
  5
5A99
331
56DF
  5
5FAE
331
5C3E
  5
6365
331
7F53
  5
56C1
331
604D
  5
6353
331
56E7
  5
56C3
331
5690
  5
5ADB
331
634D
  5
6E28
331
68BC
  5
8354
331
8B19
  5
8B1A
331
5DC6
  5
635B
331
516D
  5
5580
331
1B86
  5
1B93
331
1B8E
  5
1B9B
331
837B
  5
8693
331
5ACD
  5
6362
331
8383
  5
8805
331
8803
  5
8A49
331
6364
  5
834B
331
6355
  5
7F52
331
8373
  5
8691
331
56A8
  5
5DAC
331
56C0
  5
5E30
331
5BFF
  5
6354
331
56C8
  5
5F05
331
1B96
  5
37FF
331
7DF4
  5
5557
331
868B
  5
89CC
331
65C5
  5
834F
331
1BA6
  5
3A9C
331
8344
  5
835E
331
5166
  5
56A7
331
5437
  5
56E5
331
834C
  5
8377
331
58E6
  5
604E
331
8354
  5
8386
331
8A0B
  5
89E4
331
8698
  5
56AF
331
8693
  5
568D
331
56E0
  5
5FAF
331
56E8
  5
56C4
331
5C47
  5
6366
331
604E
  5
634F
331
5691
  5
5B10
331
634E
  5
703C
331
8B1A
  5
8B9E
331
516E
  5
5648
331
1B7F
  5
1B90
331
5DC7
  5
635D
331
1B87
  5
1B94
331
1B8F
  5
1B9C
331
837C
  5
8694
331
8384
  5
8806
331
635D
  5
8344
331
8804
  5
8A4B
331
6365
  5
834C
331
5557
  5
59F9
331
56A9
  5
5DAF
331
6356
  5
7F53
331
5C00
  5
6357
331
8A4B
  5
56AB
331
56C9
  5
5F29
331
A0
  5
1B7C
331
1B97
  5
3800
331
7DF5
  5
5504
331
5E5F
  5
68B3
331
868C
  5
89E5
331
1BA7
  5
3DA9
331
5167
  5
56AA
331
8345
  5
8363
331
834D
  5
8378
331
533B
  5
56DF
331
8355
  5
853A
331
8A0C
  5
8A8E
331
8365
  5
85C8
331
8699
  5
8A47
331
8694
  5
89E6
331
56E1
  5
5FE0
331
65CE
  5
8352
331
5C50
  5
6445
331
604F
  5
6352
  0
SORTENTSTABLE
  5
313F
102
{ACAD_REACTORS
330
313E
102
}
330
313E
100
AcDbSortentsTable
330
313C
  0
SORTENTSTABLE
  5
3849
102
{ACAD_REACTORS
330
3848
102
}
330
3848
100
AcDbSortentsTable
330
3846
  0
SORTENTSTABLE
  5
6B8A
102
{ACAD_REACTORS
330
6B89
102
}
330
6B89
100
AcDbSortentsTable
330
6B87
  0
SORTENTSTABLE
  5
6C03
102
{ACAD_REACTORS
330
6C02
102
}
330
6C02
100
AcDbSortentsTable
330
6C00
  0
SORTENTSTABLE
  5
8339
102
{ACAD_REACTORS
330
8338
102
}
330
8338
100
AcDbSortentsTable
330
82EF
  0
XRECORD
  5
8BF3
102
{ACAD_REACTORS
330
8BF2
102
}
330
8BF2
100
AcDbXrecord
280
     1
102
SHADEPLOT
 70
     0
  0
XRECORD
  5
8BF5
102
{ACAD_REACTORS
330
8BF4
102
}
330
8BF4
100
AcDbXrecord
280
     1
102
SHADEPLOT
 70
     0
  0
LAYOUT
  5
22
102
{ACAD_XDICTIONARY
360
8BEE
102
}
102
{ACAD_REACTORS
330
1A
102
}
330
1A
100
AcDbPlotSettings
  1

  2
EPSON PM-800C
  4
A4
  6

 40
3.757083177566528
 41
14.7637300491333
 42
3.757080078125
 43
3.757080078125
 44
209.9733276367186
 45
296.9683227539062
 46
0.0
 47
0.0
 48
0.0
 49
0.0
140
0.0
141
0.0
142
1.0
143
10.0
 70
 11952
 72
     1
 73
     1
 74
     2
  7

 75
    20
147
0.1
148
0.0
149
0.0
100
AcDbLayout
  1
Model
 70
     1
 71
     0
 10
0.0
 20
0.0
 11
12.0
 21
9.0
 12
0.0
 22
0.0
 32
0.0
 14
0.0
 24
0.0
 34
0.0
 15
0.0
 25
0.0
 35
0.0
146
0.0
 13
0.0
 23
0.0
 33
0.0
 16
1.0
 26
0.0
 36
0.0
 17
0.0
 27
1.0
 37
0.0
 76
     0
330
1F
  0
LAYOUT
  5
1E
102
{ACAD_XDICTIONARY
360
8BEC
102
}
102
{ACAD_REACTORS
330
1A
102
}
330
1A
100
AcDbPlotSettings
  1

  2
EPSON PM-800C
  4
A4
  6

 40
3.757083177566528
 41
14.7637300491333
 42
3.757080078125
 43
3.757080078125
 44
209.9733276367186
 45
296.9683227539062
 46
0.0
 47
0.0
 48
0.0
 49
0.0
140
0.0
141
0.0
142
1.0
143
1.0
 70
   688
 72
     1
 73
     1
 74
     5
  7

 75
    16
147
1.0
148
0.0
149
0.0
100
AcDbLayout
  1
ﾚｲｱｳﾄ1
 70
     1
 71
     1
 10
-3.757080078125
 20
-3.757083177566528
 11
293.2112426757813
 21
206.2162444591522
 12
0.0
 22
0.0
 32
0.0
 14
27.8447512626648
 24
20.24591643810271
 34
0.0
 15
250.6027613639831
 25
182.2132479429245
 35
0.0
146
0.0
 13
0.0
 23
0.0
 33
0.0
 16
1.0
 26
0.0
 36
0.0
 17
0.0
 27
1.0
 37
0.0
 76
     0
330
1B
331
2E
  0
LAYOUT
  5
26
102
{ACAD_XDICTIONARY
360
8BF0
102
}
102
{ACAD_REACTORS
330
1A
102
}
330
1A
100
AcDbPlotSettings
  1

  2
EPSON PM-800C
  4

  6

 40
0.0
 41
0.0
 42
0.0
 43
0.0
 44
0.0
 45
0.0
 46
0.0
 47
0.0
 48
0.0
 49
0.0
140
0.0
141
0.0
142
1.0
143
1.0
 70
   688
 72
     0
 73
     0
 74
     5
  7

 75
    16
147
1.0
148
0.0
149
0.0
100
AcDbLayout
  1
ﾚｲｱｳﾄ2
 70
     1
 71
     2
 10
0.0
 20
0.0
 11
12.0
 21
9.0
 12
0.0
 22
0.0
 32
0.0
 14
0.0
 24
0.0
 34
0.0
 15
0.0
 25
0.0
 35
0.0
146
0.0
 13
0.0
 23
0.0
 33
0.0
 16
1.0
 26
0.0
 36
0.0
 17
0.0
 27
1.0
 37
0.0
 76
     0
330
23
  0
MLINESTYLE
  5
18
102
{ACAD_REACTORS
330
17
102
}
330
17
100
AcDbMlineStyle
  2
STANDARD
 70
     0
  3

 62
   256
 51
90.0
 52
90.0
 71
     2
 49
0.5
 62
   256
  6
BYLAYER
 49
-0.5
 62
   256
  6
BYLAYER
  0
ACDBPLACEHOLDER
  5
F
102
{ACAD_REACTORS
330
E
102
}
330
E
  0
TABLESTYLE
  5
22AF
102
{ACAD_REACTORS
330
22AE
102
}
330
22AE
100
AcDbTableStyle
  3
Standard
 70
     0
 71
     0
 40
1.5
 41
1.5
280
     0
281
     0
  7
Standard
140
4.5
170
     2
 62
     0
 63
     7
283
     0
274
    -2
284
     1
 64
     0
275
    -2
285
     1
 65
     0
276
    -2
286
     1
 66
     0
277
    -2
287
     1
 67
     0
278
    -2
288
     1
 68
     0
279
    -2
289
     1
 69
     0
  7
Standard
140
6.0
170
     5
 62
     0
 63
     7
283
     0
274
    -2
284
     1
 64
     0
275
    -2
285
     1
 65
     0
276
    -2
286
     1
 66
     0
277
    -2
287
     1
 67
     0
278
    -2
288
     1
 68
     0
279
    -2
289
     1
 69
     0
  7
Standard
140
4.5
170
     5
 62
     0
 63
     7
283
     0
274
    -2
284
     1
 64
     0
275
    -2
285
     1
 65
     0
276
    -2
286
     1
 66
     0
277
    -2
287
     1
 67
     0
278
    -2
288
     1
 68
     0
279
    -2
289
     1
 69
     0
  0
DICTIONARYVAR
  5
22B5
102
{ACAD_REACTORS
330
1589
102
}
330
1589
100
DictionaryVariables
280
     0
  1
STANDARD
  0
DICTIONARYVAR
  5
8BD0
102
{ACAD_REACTORS
330
1589
102
}
330
1589
100
DictionaryVariables
280
     0
  1
1
  0
DICTIONARYVAR
  5
8BD1
102
{ACAD_REACTORS
330
1589
102
}
330
1589
100
DictionaryVariables
280
     0
  1

  0
DICTIONARYVAR
  5
158A
102
{ACAD_REACTORS
330
1589
102
}
330
1589
100
DictionaryVariables
280
     0
  1
96
  0
DICTIONARY
  5
8BEE
330
22
100
AcDbDictionary
280
     1
281
     1
  3
ACAD_XREC_ROUNDTRIP
360
8BEF
  0
DICTIONARY
  5
8BEC
330
1E
100
AcDbDictionary
280
     1
281
     1
  3
ACAD_XREC_ROUNDTRIP
360
8BED
  0
DICTIONARY
  5
8BF0
330
26
100
AcDbDictionary
280
     1
281
     1
  3
ACAD_XREC_ROUNDTRIP
360
8BF1
  0
XRECORD
  5
8BEF
102
{ACAD_REACTORS
330
8BEE
102
}
330
8BEE
100
AcDbXrecord
280
     1
102
SHADEPLOT
 70
     0
102
SHADEPLOTRESLEVEL
 70
     2
102
SHADEPLOTCUSTOMDPI
 70
   300
  0
XRECORD
  5
8BED
102
{ACAD_REACTORS
330
8BEC
102
}
330
8BEC
100
AcDbXrecord
280
     1
102
SHADEPLOT
 70
     0
102
SHADEPLOTRESLEVEL
 70
     2
102
SHADEPLOTCUSTOMDPI
 70
   300
  0
XRECORD
  5
8BF1
102
{ACAD_REACTORS
330
8BF0
102
}
330
8BF0
100
AcDbXrecord
280
     1
102
SHADEPLOT
 70
     0
102
SHADEPLOTRESLEVEL
 70
     2
102
SHADEPLOTCUSTOMDPI
 70
   300
  0
ENDSEC
  0
EOF
