  0
SECTION
  2
HEADER
  9
$ACADVER
  1
AC1015
  9
$ACADMAINTVER
 70
    20
  9
$DWGCODEPAGE
  3
ANSI_932
  9
$INSBASE
 10
0.0
 20
0.0
 30
0.0
  9
$EXTMIN
 10
174.0
 20
3.999999999999089
 30
0.0
  9
$EXTMAX
 10
2834.0
 20
2024.0
 30
0.0
  9
$LIMMIN
 10
54.0
 20
4.0
  9
$LIMMAX
 10
2834.0
 20
2024.0
  9
$ORTHOMODE
 70
     1
  9
$REGENMODE
 70
     1
  9
$FILLMODE
 70
     1
  9
$QTEXTMODE
 70
     0
  9
$MIRRTEXT
 70
     1
  9
$LTSCALE
 40
4.0
  9
$ATTMODE
 70
     1
  9
$TEXTSIZE
 40
30.0
  9
$TRACEWID
 40
1.0
  9
$TEXTSTYLE
  7
Standard
  9
$CLAYER
  8
実形
  9
$CELTYPE
  6
ByLayer
  9
$CECOLOR
 62
     3
  9
$CELTSCALE
 40
1.0
  9
$DISPSILH
 70
     0
  9
$DIMSCALE
 40
1.0
  9
$DIMASZ
 40
10.0
  9
$DIMEXO
 40
65.0
  9
$DIMDLI
 40
3.75
  9
$DIMRND
 40
0.0
  9
$DIMDLE
 40
0.0
  9
$DIMEXE
 40
0.0
  9
$DIMTP
 40
0.0
  9
$DIMTM
 40
0.0
  9
$DIMTXT
 40
30.0
  9
$DIMCEN
 40
2.5
  9
$DIMTSZ
 40
0.0
  9
$DIMTOL
 70
     0
  9
$DIMLIM
 70
     0
  9
$DIMTIH
 70
     0
  9
$DIMTOH
 70
     0
  9
$DIMSE1
 70
     0
  9
$DIMSE2
 70
     0
  9
$DIMTAD
 70
     1
  9
$DIMZIN
 70
     8
  9
$DIMBLK
  1
Dot
  9
$DIMASO
 70
     1
  9
$DIMSHO
 70
     1
  9
$DIMPOST
  1

  9
$DIMAPOST
  1

  9
$DIMALT
 70
     0
  9
$DIMALTD
 70
     3
  9
$DIMALTF
 40
0.03937007874016
  9
$DIMLFAC
 40
1.0
  9
$DIMTOFL
 70
     1
  9
$DIMTVP
 40
0.0
  9
$DIMTIX
 70
     0
  9
$DIMSOXD
 70
     0
  9
$DIMSAH
 70
     0
  9
$DIMBLK1
  1

  9
$DIMBLK2
  1

  9
$DIMSTYLE
  2
ISO-25
  9
$DIMCLRD
 70
     0
  9
$DIMCLRE
 70
     0
  9
$DIMCLRT
 70
     0
  9
$DIMTFAC
 40
1.0
  9
$DIMGAP
 40
6.599999999999997
  9
$DIMJUST
 70
     0
  9
$DIMSD1
 70
     0
  9
$DIMSD2
 70
     0
  9
$DIMTOLJ
 70
     0
  9
$DIMTZIN
 70
     8
  9
$DIMALTZ
 70
     0
  9
$DIMALTTZ
 70
     0
  9
$DIMUPT
 70
     0
  9
$DIMDEC
 70
     2
  9
$DIMTDEC
 70
     2
  9
$DIMALTU
 70
     2
  9
$DIMALTTD
 70
     3
  9
$DIMTXSTY
  7
Standard
  9
$DIMAUNIT
 70
     0
  9
$DIMADEC
 70
     0
  9
$DIMALTRND
 40
0.0
  9
$DIMAZIN
 70
     0
  9
$DIMDSEP
 70
    46
  9
$DIMATFIT
 70
     3
  9
$DIMFRAC
 70
     0
  9
$DIMLDRBLK
  1
Open30
  9
$DIMLUNIT
 70
     2
  9
$DIMLWD
 70
    18
  9
$DIMLWE
 70
    18
  9
$DIMTMOVE
 70
     2
  9
$LUNITS
 70
     2
  9
$LUPREC
 70
     2
  9
$SKETCHINC
 40
1.0
  9
$FILLETRAD
 40
10.0
  9
$AUNITS
 70
     0
  9
$AUPREC
 70
     0
  9
$MENU
  1
.
  9
$ELEVATION
 40
0.0
  9
$PELEVATION
 40
0.0
  9
$THICKNESS
 40
0.0
  9
$LIMCHECK
 70
     1
  9
$CHAMFERA
 40
10.0
  9
$CHAMFERB
 40
10.0
  9
$CHAMFERC
 40
20.0
  9
$CHAMFERD
 40
0.0
  9
$SKPOLY
 70
     0
  9
$TDCREATE
 40
2451673.575802199
  9
$TDUCREATE
 40
2451673.200802199
  9
$TDUPDATE
 40
2458820.603379086
  9
$TDUUPDATE
 40
2458820.228379086
  9
$TDINDWG
 40
2.1940285417
  9
$TDUSRTIMER
 40
2.1940277315
  9
$USRTIMER
 70
     1
  9
$ANGBASE
 50
0.0
  9
$ANGDIR
 70
     0
  9
$PDMODE
 70
     0
  9
$PDSIZE
 40
0.0
  9
$PLINEWID
 40
0.0
  9
$SPLFRAME
 70
     0
  9
$SPLINETYPE
 70
     6
  9
$SPLINESEGS
 70
     8
  9
$HANDSEED
  5
849F
  9
$SURFTAB1
 70
     6
  9
$SURFTAB2
 70
     6
  9
$SURFTYPE
 70
     6
  9
$SURFU
 70
     6
  9
$SURFV
 70
     6
  9
$UCSBASE
  2

  9
$UCSNAME
  2

  9
$UCSORG
 10
0.0
 20
0.0
 30
0.0
  9
$UCSXDIR
 10
1.0
 20
0.0
 30
0.0
  9
$UCSYDIR
 10
0.0
 20
1.0
 30
0.0
  9
$UCSORTHOREF
  2

  9
$UCSORTHOVIEW
 70
     0
  9
$UCSORGTOP
 10
0.0
 20
0.0
 30
0.0
  9
$UCSORGBOTTOM
 10
0.0
 20
0.0
 30
0.0
  9
$UCSORGLEFT
 10
0.0
 20
0.0
 30
0.0
  9
$UCSORGRIGHT
 10
0.0
 20
0.0
 30
0.0
  9
$UCSORGFRONT
 10
0.0
 20
0.0
 30
0.0
  9
$UCSORGBACK
 10
0.0
 20
0.0
 30
0.0
  9
$PUCSBASE
  2

  9
$PUCSNAME
  2

  9
$PUCSORG
 10
0.0
 20
0.0
 30
0.0
  9
$PUCSXDIR
 10
1.0
 20
0.0
 30
0.0
  9
$PUCSYDIR
 10
0.0
 20
1.0
 30
0.0
  9
$PUCSORTHOREF
  2

  9
$PUCSORTHOVIEW
 70
     0
  9
$PUCSORGTOP
 10
0.0
 20
0.0
 30
0.0
  9
$PUCSORGBOTTOM
 10
0.0
 20
0.0
 30
0.0
  9
$PUCSORGLEFT
 10
0.0
 20
0.0
 30
0.0
  9
$PUCSORGRIGHT
 10
0.0
 20
0.0
 30
0.0
  9
$PUCSORGFRONT
 10
0.0
 20
0.0
 30
0.0
  9
$PUCSORGBACK
 10
0.0
 20
0.0
 30
0.0
  9
$USERI1
 70
     0
  9
$USERI2
 70
     0
  9
$USERI3
 70
     0
  9
$USERI4
 70
     0
  9
$USERI5
 70
     0
  9
$USERR1
 40
0.0
  9
$USERR2
 40
0.0
  9
$USERR3
 40
0.0
  9
$USERR4
 40
0.0
  9
$USERR5
 40
0.0
  9
$WORLDVIEW
 70
     1
  9
$SHADEDGE
 70
     3
  9
$SHADEDIF
 70
    70
  9
$TILEMODE
 70
     1
  9
$MAXACTVP
 70
    64
  9
$PINSBASE
 10
0.0
 20
0.0
 30
0.0
  9
$PLIMCHECK
 70
     0
  9
$PEXTMIN
 10
27.8447512626648
 20
20.24591643810271
 30
0.0
  9
$PEXTMAX
 10
250.6027613639831
 20
182.2132479429245
 30
0.0
  9
$PLIMMIN
 10
-3.757080078125
 20
-3.757083177566528
  9
$PLIMMAX
 10
293.2112426757813
 20
206.2162444591522
  9
$UNITMODE
 70
     0
  9
$VISRETAIN
 70
     1
  9
$PLINEGEN
 70
     0
  9
$PSLTSCALE
 70
     1
  9
$TREEDEPTH
 70
  3020
  9
$CMLSTYLE
  2
Standard
  9
$CMLJUST
 70
     0
  9
$CMLSCALE
 40
20.0
  9
$PROXYGRAPHICS
 70
     1
  9
$MEASUREMENT
 70
     1
  9
$CELWEIGHT
370
    -1
  9
$ENDCAPS
280
     0
  9
$JOINSTYLE
280
     0
  9
$LWDISPLAY
290
     0
  9
$INSUNITS
 70
     4
  9
$HYPERLINKBASE
  1

  9
$STYLESHEET
  1

  9
$XEDIT
290
     1
  9
$CEPSNTYPE
380
     0
  9
$PSTYLEMODE
290
     1
  9
$FINGERPRINTGUID
  2
{C8EA1F16-24C9-11D4-9416-CE0A3B32152F}
  9
$VERSIONGUID
  2
{CA4453A3-5CE0-4B3C-AEFE-554931B7BA0D}
  9
$EXTNAMES
290
     1
  9
$PSVPSCALE
 40
0.0
  9
$OLESTARTUP
290
     0
  0
ENDSEC
  0
SECTION
  2
CLASSES
  0
CLASS
  1
ACDBDICTIONARYWDFLT
  2
AcDbDictionaryWithDefault
  3
ObjectDBX Classes
 90
        0
280
     0
281
     0
  0
CLASS
  1
ACDBPLACEHOLDER
  2
AcDbPlaceHolder
  3
ObjectDBX Classes
 90
        0
280
     0
281
     0
  0
CLASS
  1
LAYOUT
  2
AcDbLayout
  3
ObjectDBX Classes
 90
        0
280
     0
281
     0
  0
CLASS
  1
DICTIONARYVAR
  2
AcDbDictionaryVar
  3
ObjectDBX Classes
 90
        0
280
     0
281
     0
  0
CLASS
  1
TABLESTYLE
  2
AcDbTableStyle
  3
ObjectDBX Classes
 90
     2047
280
     0
281
     0
  0
CLASS
  1
SORTENTSTABLE
  2
AcDbSortentsTable
  3
ObjectDBX Classes
 90
        0
280
     0
281
     0
  0
ENDSEC
  0
SECTION
  2
TABLES
  0
TABLE
  2
VPORT
  5
8
330
0
100
AcDbSymbolTable
 70
     3
  0
VPORT
  5
8492
330
8
100
AcDbSymbolTableRecord
100
AcDbViewportTableRecord
  2
*Active
 70
     0
 10
0.0
 20
0.0
 11
1.0
 21
1.0
 12
1587.274364683401
 22
876.6210172884944
 13
0.0
 23
0.0
 14
10.0
 24
10.0
 15
10.0
 25
10.0
 16
0.0
 26
0.0
 36
1.0
 17
0.0
 27
0.0
 37
0.0
 40
2751.165819703903
 41
1.29038112522686
 42
50.0
 43
0.0
 44
0.0
 50
0.0
 51
0.0
 71
     0
 72
   100
 73
     1
 74
     3
 75
     0
 76
     0
 77
     0
 78
     0
281
     0
 65
     1
110
0.0
120
0.0
130
0.0
111
1.0
121
0.0
131
0.0
112
0.0
122
1.0
132
0.0
 79
     0
146
0.0
  0
ENDTAB
  0
TABLE
  2
LTYPE
  5
5
330
0
100
AcDbSymbolTable
 70
    46
  0
LTYPE
  5
14
330
5
100
AcDbSymbolTableRecord
100
AcDbLinetypeTableRecord
  2
ByBlock
 70
     0
  3

 72
    65
 73
     0
 40
0.0
  0
LTYPE
  5
15
330
5
100
AcDbSymbolTableRecord
100
AcDbLinetypeTableRecord
  2
ByLayer
 70
     0
  3

 72
    65
 73
     0
 40
0.0
  0
LTYPE
  5
16
330
5
100
AcDbSymbolTableRecord
100
AcDbLinetypeTableRecord
  2
Continuous
 70
     0
  3
Solid line
 72
    65
 73
     0
 40
0.0
  0
LTYPE
  5
34
330
5
100
AcDbSymbolTableRecord
100
AcDbLinetypeTableRecord
  2
ACAD_ISO02W100
 70
     0
  3
ISO dash __ __ __ __ __ __ __ __ __ __ __ __ __
 72
    65
 73
     2
 40
15.0
 49
12.0
 74
     0
 49
-3.0
 74
     0
  0
LTYPE
  5
35
330
5
100
AcDbSymbolTableRecord
100
AcDbLinetypeTableRecord
  2
ACAD_ISO03W100
 70
     0
  3
ISO dash space __    __    __    __    __    __
 72
    65
 73
     2
 40
30.0
 49
12.0
 74
     0
 49
-18.0
 74
     0
  0
LTYPE
  5
36
330
5
100
AcDbSymbolTableRecord
100
AcDbLinetypeTableRecord
  2
ACAD_ISO04W100
 70
     0
  3
ISO long-dash dot ____ . ____ . ____ . ____ . _
 72
    65
 73
     4
 40
30.0
 49
24.0
 74
     0
 49
-3.0
 74
     0
 49
0.0
 74
     0
 49
-3.0
 74
     0
  0
LTYPE
  5
37
330
5
100
AcDbSymbolTableRecord
100
AcDbLinetypeTableRecord
  2
ACAD_ISO05W100
 70
     0
  3
ISO long-dash double-dot ____ .. ____ .. ____ .
 72
    65
 73
     6
 40
34.0
 49
24.0
 74
     0
 49
-3.0
 74
     0
 49
0.5
 74
     0
 49
-3.0
 74
     0
 49
0.5
 74
     0
 49
-3.0
 74
     0
  0
LTYPE
  5
38
330
5
100
AcDbSymbolTableRecord
100
AcDbLinetypeTableRecord
  2
ACAD_ISO06W100
 70
     0
  3
ISO long-dash triple-dot ____ ... ____ ... ____
 72
    65
 73
     8
 40
37.5
 49
24.0
 74
     0
 49
-3.0
 74
     0
 49
0.5
 74
     0
 49
-3.0
 74
     0
 49
0.5
 74
     0
 49
-3.0
 74
     0
 49
0.5
 74
     0
 49
-3.0
 74
     0
  0
LTYPE
  5
39
330
5
100
AcDbSymbolTableRecord
100
AcDbLinetypeTableRecord
  2
ACAD_ISO07W100
 70
     0
  3
ISO dot . . . . . . . . . . . . . . . . . . . .
 72
    65
 73
     2
 40
3.0
 49
0.0
 74
     0
 49
-3.0
 74
     0
  0
LTYPE
  5
3A
330
5
100
AcDbSymbolTableRecord
100
AcDbLinetypeTableRecord
  2
ACAD_ISO08W100
 70
     0
  3
ISO long-dash short-dash ____ __ ____ __ ____ _
 72
    65
 73
     4
 40
36.0
 49
24.0
 74
     0
 49
-3.0
 74
     0
 49
6.0
 74
     0
 49
-3.0
 74
     0
  0
LTYPE
  5
3B
330
5
100
AcDbSymbolTableRecord
100
AcDbLinetypeTableRecord
  2
ACAD_ISO09W100
 70
     0
  3
ISO long-dash double-short-dash ____ __ __ ____
 72
    65
 73
     6
 40
45.0
 49
24.0
 74
     0
 49
-3.0
 74
     0
 49
6.0
 74
     0
 49
-3.0
 74
     0
 49
6.0
 74
     0
 49
-3.0
 74
     0
  0
LTYPE
  5
3C
330
5
100
AcDbSymbolTableRecord
100
AcDbLinetypeTableRecord
  2
ACAD_ISO10W100
 70
     0
  3
ISO dash dot __ . __ . __ . __ . __ . __ . __ .
 72
    65
 73
     4
 40
18.0
 49
12.0
 74
     0
 49
-3.0
 74
     0
 49
0.0
 74
     0
 49
-3.0
 74
     0
  0
LTYPE
  5
3D
330
5
100
AcDbSymbolTableRecord
100
AcDbLinetypeTableRecord
  2
ACAD_ISO11W100
 70
     0
  3
ISO double-dash dot __ __ . __ __ . __ __ . __ 
 72
    65
 73
     6
 40
33.0
 49
12.0
 74
     0
 49
-3.0
 74
     0
 49
12.0
 74
     0
 49
-3.0
 74
     0
 49
0.0
 74
     0
 49
-3.0
 74
     0
  0
LTYPE
  5
3E
330
5
100
AcDbSymbolTableRecord
100
AcDbLinetypeTableRecord
  2
ACAD_ISO12W100
 70
     0
  3
ISO dash double-dot __ . . __ . . __ . . __ . .
 72
    65
 73
     6
 40
21.0
 49
12.0
 74
     0
 49
-3.0
 74
     0
 49
0.0
 74
     0
 49
-3.0
 74
     0
 49
0.0
 74
     0
 49
-3.0
 74
     0
  0
LTYPE
  5
3F
330
5
100
AcDbSymbolTableRecord
100
AcDbLinetypeTableRecord
  2
ACAD_ISO13W100
 70
     0
  3
ISO double-dash double-dot __ __ . . __ __ . . 
 72
    65
 73
     8
 40
36.0
 49
12.0
 74
     0
 49
-3.0
 74
     0
 49
12.0
 74
     0
 49
-3.0
 74
     0
 49
0.0
 74
     0
 49
-3.0
 74
     0
 49
0.0
 74
     0
 49
-3.0
 74
     0
  0
LTYPE
  5
40
330
5
100
AcDbSymbolTableRecord
100
AcDbLinetypeTableRecord
  2
ACAD_ISO14W100
 70
     0
  3
ISO dash triple-dot __ . . . __ . . . __ . . . 
 72
    65
 73
     8
 40
24.0
 49
12.0
 74
     0
 49
-3.0
 74
     0
 49
0.0
 74
     0
 49
-3.0
 74
     0
 49
0.0
 74
     0
 49
-3.0
 74
     0
 49
0.0
 74
     0
 49
-3.0
 74
     0
  0
LTYPE
  5
41
330
5
100
AcDbSymbolTableRecord
100
AcDbLinetypeTableRecord
  2
ACAD_ISO15W100
 70
     0
  3
ISO double-dash triple-dot __ __ . . . __ __ . 
 72
    65
 73
    10
 40
39.0
 49
12.0
 74
     0
 49
-3.0
 74
     0
 49
12.0
 74
     0
 49
-3.0
 74
     0
 49
0.0
 74
     0
 49
-3.0
 74
     0
 49
0.0
 74
     0
 49
-3.0
 74
     0
 49
0.0
 74
     0
 49
-3.0
 74
     0
  0
LTYPE
  5
42
330
5
100
AcDbSymbolTableRecord
100
AcDbLinetypeTableRecord
  2
BATTING
 70
     0
  3
Batting SSSSSSSSSSSSSSSSSSSSSSSSSSSSSSSSSSSSSSS
 72
    65
 73
     4
 40
10.16254
 49
0.00254
 74
     0
 49
-2.54
 74
     4
 75
   134
340
33
 46
2.54
 50
0.0
 44
-2.54
 45
0.0
 49
-5.08
 74
     4
 75
   134
340
33
 46
2.54
 50
180.0
 44
2.54
 45
0.0
 49
-2.54
 74
     0
  0
LTYPE
  5
43
330
5
100
AcDbSymbolTableRecord
100
AcDbLinetypeTableRecord
  2
BORDER
 70
     0
  3
Border __ __ . __ __ . __ __ . __ __ . __ __ .
 72
    65
 73
     6
 40
44.45
 49
12.7
 74
     0
 49
-6.349999999999998
 74
     0
 49
12.7
 74
     0
 49
-6.349999999999998
 74
     0
 49
0.0
 74
     0
 49
-6.349999999999998
 74
     0
  0
LTYPE
  5
44
330
5
100
AcDbSymbolTableRecord
100
AcDbLinetypeTableRecord
  2
BORDER2
 70
     0
  3
Border (.5x) __.__.__.__.__.__.__.__.__.__.__.
 72
    65
 73
     6
 40
22.225
 49
6.349999999999998
 74
     0
 49
-3.174999999999998
 74
     0
 49
6.349999999999998
 74
     0
 49
-3.174999999999998
 74
     0
 49
0.0
 74
     0
 49
-3.174999999999998
 74
     0
  0
LTYPE
  5
45
330
5
100
AcDbSymbolTableRecord
100
AcDbLinetypeTableRecord
  2
BORDERX2
 70
     0
  3
Border (2x) ____  ____  .  ____  ____  .  ___
 72
    65
 73
     6
 40
88.9
 49
25.4
 74
     0
 49
-12.7
 74
     0
 49
25.4
 74
     0
 49
-12.7
 74
     0
 49
0.0
 74
     0
 49
-12.7
 74
     0
  0
LTYPE
  5
46
330
5
100
AcDbSymbolTableRecord
100
AcDbLinetypeTableRecord
  2
CENTER
 70
     0
  3
Center ____ _ ____ _ ____ _ ____ _ ____ _ ____
 72
    65
 73
     4
 40
50.8
 49
31.75
 74
     0
 49
-6.349999999999998
 74
     0
 49
6.349999999999998
 74
     0
 49
-6.349999999999998
 74
     0
  0
LTYPE
  5
47
330
5
100
AcDbSymbolTableRecord
100
AcDbLinetypeTableRecord
  2
CENTER2
 70
     0
  3
Center (.5x) ___ _ ___ _ ___ _ ___ _ ___ _ ___
 72
    65
 73
     4
 40
28.575
 49
19.05
 74
     0
 49
-3.174999999999998
 74
     0
 49
3.174999999999998
 74
     0
 49
-3.174999999999998
 74
     0
  0
LTYPE
  5
48
330
5
100
AcDbSymbolTableRecord
100
AcDbLinetypeTableRecord
  2
CENTERX2
 70
     0
  3
Center (2x) ________  __  ________  __  _____
 72
    65
 73
     4
 40
101.6
 49
63.5
 74
     0
 49
-12.7
 74
     0
 49
12.7
 74
     0
 49
-12.7
 74
     0
  0
LTYPE
  5
49
330
5
100
AcDbSymbolTableRecord
100
AcDbLinetypeTableRecord
  2
DASHDOT
 70
     0
  3
Dash dot __ . __ . __ . __ . __ . __ . __ . __
 72
    65
 73
     4
 40
25.4
 49
12.7
 74
     0
 49
-6.349999999999998
 74
     0
 49
0.0
 74
     0
 49
-6.349999999999998
 74
     0
  0
LTYPE
  5
4A
330
5
100
AcDbSymbolTableRecord
100
AcDbLinetypeTableRecord
  2
DASHDOT2
 70
     0
  3
Dash dot (.5x) _._._._._._._._._._._._._._._.
 72
    65
 73
     4
 40
12.7
 49
6.349999999999998
 74
     0
 49
-3.174999999999998
 74
     0
 49
0.0
 74
     0
 49
-3.174999999999998
 74
     0
  0
LTYPE
  5
4B
330
5
100
AcDbSymbolTableRecord
100
AcDbLinetypeTableRecord
  2
DASHDOTX2
 70
     0
  3
Dash dot (2x) ____  .  ____  .  ____  .  ___
 72
    65
 73
     4
 40
50.8
 49
25.4
 74
     0
 49
-12.7
 74
     0
 49
0.0
 74
     0
 49
-12.7
 74
     0
  0
LTYPE
  5
4C
330
5
100
AcDbSymbolTableRecord
100
AcDbLinetypeTableRecord
  2
DASHED
 70
     0
  3
Dashed __ __ __ __ __ __ __ __ __ __ __ __ __ _
 72
    65
 73
     2
 40
19.05
 49
12.7
 74
     0
 49
-6.349999999999998
 74
     0
  0
LTYPE
  5
4D
330
5
100
AcDbSymbolTableRecord
100
AcDbLinetypeTableRecord
  2
DASHED2
 70
     0
  3
Dashed (.5x) _ _ _ _ _ _ _ _ _ _ _ _ _ _ _ _ _
 72
    65
 73
     2
 40
9.524999999999996
 49
6.349999999999998
 74
     0
 49
-3.174999999999998
 74
     0
  0
LTYPE
  5
4E
330
5
100
AcDbSymbolTableRecord
100
AcDbLinetypeTableRecord
  2
DASHEDX2
 70
     0
  3
Dashed (2x) ____  ____  ____  ____  ____  ___
 72
    65
 73
     2
 40
38.1
 49
25.4
 74
     0
 49
-12.7
 74
     0
  0
LTYPE
  5
4F
330
5
100
AcDbSymbolTableRecord
100
AcDbLinetypeTableRecord
  2
DIVIDE
 70
     0
  3
Divide ____ . . ____ . . ____ . . ____ . . ____
 72
    65
 73
     6
 40
31.75
 49
12.7
 74
     0
 49
-6.349999999999998
 74
     0
 49
0.0
 74
     0
 49
-6.349999999999998
 74
     0
 49
0.0
 74
     0
 49
-6.349999999999998
 74
     0
  0
LTYPE
  5
50
330
5
100
AcDbSymbolTableRecord
100
AcDbLinetypeTableRecord
  2
DIVIDE2
 70
     0
  3
Divide (.5x) __..__..__..__..__..__..__..__.._
 72
    65
 73
     6
 40
15.875
 49
6.349999999999998
 74
     0
 49
-3.174999999999998
 74
     0
 49
0.0
 74
     0
 49
-3.174999999999998
 74
     0
 49
0.0
 74
     0
 49
-3.174999999999998
 74
     0
  0
LTYPE
  5
51
330
5
100
AcDbSymbolTableRecord
100
AcDbLinetypeTableRecord
  2
DIVIDEX2
 70
     0
  3
Divide (2x) ________  .  .  ________  .  .  _
 72
    65
 73
     6
 40
63.49999999999999
 49
25.4
 74
     0
 49
-12.7
 74
     0
 49
0.0
 74
     0
 49
-12.7
 74
     0
 49
0.0
 74
     0
 49
-12.7
 74
     0
  0
LTYPE
  5
52
330
5
100
AcDbSymbolTableRecord
100
AcDbLinetypeTableRecord
  2
DOT
 70
     0
  3
Dot . . . . . . . . . . . . . . . . . . . . . .
 72
    65
 73
     2
 40
6.349999999999998
 49
0.0
 74
     0
 49
-6.349999999999998
 74
     0
  0
LTYPE
  5
53
330
5
100
AcDbSymbolTableRecord
100
AcDbLinetypeTableRecord
  2
DOT2
 70
     0
  3
Dot (.5x) .....................................
 72
    65
 73
     2
 40
3.174999999999998
 49
0.0
 74
     0
 49
-3.174999999999998
 74
     0
  0
LTYPE
  5
54
330
5
100
AcDbSymbolTableRecord
100
AcDbLinetypeTableRecord
  2
DOTX2
 70
     0
  3
Dot (2x) .  .  .  .  .  .  .  .  .  .  .  .  . 
 72
    65
 73
     2
 40
12.7
 49
0.0
 74
     0
 49
-12.7
 74
     0
  0
LTYPE
  5
55
330
5
100
AcDbSymbolTableRecord
100
AcDbLinetypeTableRecord
  2
FENCELINE1
 70
     0
  3
Fenceline circle ----0-----0----0-----0----0---
 72
    65
 73
     4
 40
36.83
 49
6.349999999999998
 74
     0
 49
-2.54
 74
     4
 75
   133
340
33
 46
2.54
 50
0.0
 44
-2.54
 45
0.0
 49
-2.54
 74
     0
 49
25.4
 74
     0
  0
LTYPE
  5
56
330
5
100
AcDbSymbolTableRecord
100
AcDbLinetypeTableRecord
  2
FENCELINE2
 70
     0
  3
Fenceline square ----[]-----[]----[]-----[]----
 72
    65
 73
     4
 40
36.83
 49
6.349999999999998
 74
     0
 49
-2.54
 74
     4
 75
   132
340
33
 46
2.54
 50
0.0
 44
-2.54
 45
0.0
 49
-2.54
 74
     0
 49
25.4
 74
     0
  0
LTYPE
  5
57
330
5
100
AcDbSymbolTableRecord
100
AcDbLinetypeTableRecord
  2
GAS_LINE
 70
     0
  3
Gas line ----GAS----GAS----GAS----GAS----GAS---
 72
    65
 73
     3
 40
24.13
 49
12.7
 74
     0
 49
-5.08
 74
     2
 75
     0
340
11
 46
2.54
 50
0.0
 44
-2.54
 45
-1.27
  9
GAS
 49
-6.349999999999998
 74
     0
  0
LTYPE
  5
58
330
5
100
AcDbSymbolTableRecord
100
AcDbLinetypeTableRecord
  2
HIDDEN
 70
     0
  3
Hidden __ __ __ __ __ __ __ __ __ __ __ __ __ _
 72
    65
 73
     2
 40
9.524999999999996
 49
6.349999999999998
 74
     0
 49
-3.174999999999998
 74
     0
  0
LTYPE
  5
59
330
5
100
AcDbSymbolTableRecord
100
AcDbLinetypeTableRecord
  2
HIDDEN2
 70
     0
  3
Hidden (.5x) _ _ _ _ _ _ _ _ _ _ _ _ _ _ _ _ _
 72
    65
 73
     2
 40
4.762499999999998
 49
3.174999999999998
 74
     0
 49
-1.587499999999999
 74
     0
  0
LTYPE
  5
5A
330
5
100
AcDbSymbolTableRecord
100
AcDbLinetypeTableRecord
  2
HIDDENX2
 70
     0
  3
Hidden (2x) ____ ____ ____ ____ ____ ____ ____
 72
    65
 73
     2
 40
19.05
 49
12.7
 74
     0
 49
-6.349999999999998
 74
     0
  0
LTYPE
  5
5B
330
5
100
AcDbSymbolTableRecord
100
AcDbLinetypeTableRecord
  2
HOT_WATER_SUPPLY
 70
     0
  3
Hot water supply ---- HW ---- HW ---- HW ----
 72
    65
 73
     3
 40
22.86
 49
12.7
 74
     0
 49
-5.08
 74
     2
 75
     0
340
11
 46
2.54
 50
0.0
 44
-2.54
 45
-1.27
  9
HW
 49
-5.08
 74
     0
  0
LTYPE
  5
5C
330
5
100
AcDbSymbolTableRecord
100
AcDbLinetypeTableRecord
  2
PHANTOM
 70
     0
  3
Phantom ______  __  __  ______  __  __  ______
 72
    65
 73
     6
 40
63.5
 49
31.75
 74
     0
 49
-6.349999999999998
 74
     0
 49
6.349999999999998
 74
     0
 49
-6.349999999999998
 74
     0
 49
6.349999999999998
 74
     0
 49
-6.349999999999998
 74
     0
  0
LTYPE
  5
5D
330
5
100
AcDbSymbolTableRecord
100
AcDbLinetypeTableRecord
  2
PHANTOM2
 70
     0
  3
Phantom (.5x) ___ _ _ ___ _ _ ___ _ _ ___ _ _
 72
    65
 73
     6
 40
31.75
 49
15.875
 74
     0
 49
-3.174999999999998
 74
     0
 49
3.174999999999998
 74
     0
 49
-3.174999999999998
 74
     0
 49
3.174999999999998
 74
     0
 49
-3.174999999999998
 74
     0
  0
LTYPE
  5
5E
330
5
100
AcDbSymbolTableRecord
100
AcDbLinetypeTableRecord
  2
PHANTOMX2
 70
     0
  3
Phantom (2x) ____________    ____    ____   _
 72
    65
 73
     6
 40
127.0
 49
63.5
 74
     0
 49
-12.7
 74
     0
 49
12.7
 74
     0
 49
-12.7
 74
     0
 49
12.7
 74
     0
 49
-12.7
 74
     0
  0
LTYPE
  5
5F
330
5
100
AcDbSymbolTableRecord
100
AcDbLinetypeTableRecord
  2
TRACKS
 70
     0
  3
Tracks -|-|-|-|-|-|-|-|-|-|-|-|-|-|-|-|-|-|-|-|
 72
    65
 73
     2
 40
7.62
 49
3.81
 74
     4
 75
   130
340
33
 46
6.349999999999998
 50
0.0
 44
0.0
 45
0.0
 49
3.81
 74
     0
  0
LTYPE
  5
60
330
5
100
AcDbSymbolTableRecord
100
AcDbLinetypeTableRecord
  2
ZIGZAG
 70
     0
  3
Zig zag /\/\/\/\/\/\/\/\/\/\/\/\/\/\/\/\/\/\/\/
 72
    65
 73
     4
 40
20.32254
 49
0.00254
 74
     0
 49
-5.08
 74
     4
 75
   131
340
33
 46
5.08
 50
0.0
 44
-5.08
 45
0.0
 49
-10.16
 74
     4
 75
   131
340
33
 46
5.08
 50
180.0
 44
5.08
 45
0.0
 49
-5.08
 74
     0
  0
ENDTAB
  0
TABLE
  2
LAYER
  5
2
102
{ACAD_XDICTIONARY
360
24C4
102
}
330
0
100
AcDbSymbolTable
 70
     9
  0
LAYER
  5
10
330
2
100
AcDbSymbolTableRecord
100
AcDbLayerTableRecord
  2
0
 70
     0
 62
     7
  6
Continuous
290
     0
370
    -3
390
F
  0
LAYER
  5
C3
330
2
100
AcDbSymbolTableRecord
100
AcDbLayerTableRecord
  2
Defpoints
 70
     0
 62
     7
  6
Continuous
290
     0
370
    -3
390
F
  0
LAYER
  5
256
330
2
100
AcDbSymbolTableRecord
100
AcDbLayerTableRecord
  2
センター
 70
     0
 62
     7
  6
CENTER2
370
    18
390
F
  0
LAYER
  5
268
330
2
100
AcDbSymbolTableRecord
100
AcDbLayerTableRecord
  2
実形
 70
     0
 62
     7
  6
Continuous
370
    -3
390
F
  0
LAYER
  5
269
330
2
100
AcDbSymbolTableRecord
100
AcDbLayerTableRecord
  2
補助
 70
     0
 62
     4
  6
Continuous
370
    -3
390
F
  0
LAYER
  5
26A
330
2
100
AcDbSymbolTableRecord
100
AcDbLayerTableRecord
  2
寸法
 70
     0
 62
     7
  6
Continuous
370
    18
390
F
  0
LAYER
  5
26B
330
2
100
AcDbSymbolTableRecord
100
AcDbLayerTableRecord
  2
ハッチング
 70
     0
 62
     7
  6
Continuous
370
    18
390
F
  0
LAYER
  5
26D
330
2
100
AcDbSymbolTableRecord
100
AcDbLayerTableRecord
  2
枠
 70
     0
 62
     7
  6
Continuous
370
    -3
390
F
  0
LAYER
  5
1B3D
330
2
100
AcDbSymbolTableRecord
100
AcDbLayerTableRecord
  2
Cen
 70
     0
 62
     7
  6
CENTER2
290
     0
370
    15
390
F
  0
ENDTAB
  0
TABLE
  2
STYLE
  5
3
330
0
100
AcDbSymbolTable
 70
     3
  0
STYLE
  5
11
330
3
100
AcDbSymbolTableRecord
100
AcDbTextStyleTableRecord
  2
Standard
 70
     0
 40
0.0
 41
1.0
 50
0.0
 71
     0
 42
30.0
  3
txt.shx
  4
bigfont.shx
  0
STYLE
  5
33
330
3
100
AcDbSymbolTableRecord
100
AcDbTextStyleTableRecord
  2

 70
     1
 40
0.0
 41
1.0
 50
0.0
 71
     0
 42
2.5
  3
ltypeshp.shx
  4

  0
STYLE
  5
35E2
330
3
100
AcDbSymbolTableRecord
100
AcDbTextStyleTableRecord
  2
ms明朝
 70
     0
 40
0.0
 41
1.0
 50
0.0
 71
     0
 42
25.0
  3
MS Mincho.ttf
  4

1001
ACAD
1000
MS Mincho
1071
    32785
  0
ENDTAB
  0
TABLE
  2
VIEW
  5
6
330
0
100
AcDbSymbolTable
 70
     0
  0
ENDTAB
  0
TABLE
  2
UCS
  5
7
330
0
100
AcDbSymbolTable
 70
     0
  0
ENDTAB
  0
TABLE
  2
APPID
  5
9
330
0
100
AcDbSymbolTable
 70
     2
  0
APPID
  5
12
330
9
100
AcDbSymbolTableRecord
100
AcDbRegAppTableRecord
  2
ACAD
 70
     0
  0
APPID
  5
24C3
330
9
100
AcDbSymbolTableRecord
100
AcDbRegAppTableRecord
  2
ACAD_PSEXT
 70
     0
  0
ENDTAB
  0
TABLE
  2
DIMSTYLE
  5
A
330
0
100
AcDbSymbolTable
 70
     1
100
AcDbDimStyleTable
 71
     1
340
27
  0
DIMSTYLE
105
27
102
{ACAD_REACTORS
330
517E
330
51A6
330
51E0
330
5201
330
523E
330
5267
330
527D
330
52A7
330
533B
330
5375
330
5394
330
53BC
330
53DB
330
5437
330
5460
330
5489
330
54B2
330
54DB
330
5504
330
552D
330
5557
330
5580
330
5833
330
58E6
330
5A71
330
5A9A
330
5ACD
330
5ADB
330
5B10
330
5F4A
330
5F98
330
5FAF
330
5FE0
330
5F2A
330
635B
330
635D
330
635E
330
635F
330
6360
330
6362
330
6363
330
6364
330
6365
330
6366
330
7C59
330
7C1D
330
7C1E
330
7C1F
330
7C20
330
7C21
330
7C22
330
7C26
330
7C39
330
7C3A
330
7C3B
330
7C4E
330
8100
330
8101
330
8102
330
8103
330
8104
330
82EE
330
82EF
330
835B
102
}
330
A
100
AcDbSymbolTableRecord
100
AcDbDimStyleTableRecord
  2
ISO-25
 70
     0
 41
35.0
 42
65.0
 43
3.75
 44
0.0
 73
     0
 74
     0
 77
     1
 78
     8
140
25.0
141
2.5
143
0.03937007874016
147
6.25
171
     3
172
     1
271
     2
272
     2
274
     3
283
     0
284
     8
340
11
341
DA
342
D0
371
    15
372
    15
  0
ENDTAB
  0
TABLE
  2
BLOCK_RECORD
  5
1
330
0
100
AcDbSymbolTable
 70
    74
  0
BLOCK_RECORD
  5
1F
102
{ACAD_XDICTIONARY
360
2396
102
}
330
1
100
AcDbSymbolTableRecord
100
AcDbBlockTableRecord
  2
*Model_Space
340
22
  0
BLOCK_RECORD
  5
1B
330
1
100
AcDbSymbolTableRecord
100
AcDbBlockTableRecord
  2
*Paper_Space
340
1E
  0
BLOCK_RECORD
  5
23
330
1
100
AcDbSymbolTableRecord
100
AcDbBlockTableRecord
  2
*Paper_Space0
340
26
  0
BLOCK_RECORD
  5
D0
330
1
100
AcDbSymbolTableRecord
100
AcDbBlockTableRecord
  2
_DotSmall
340
0
  0
BLOCK_RECORD
  5
D4
330
1
100
AcDbSymbolTableRecord
100
AcDbBlockTableRecord
  2
_Origin2
340
0
  0
BLOCK_RECORD
  5
DA
330
1
100
AcDbSymbolTableRecord
100
AcDbBlockTableRecord
  2
_Open30
340
0
  0
BLOCK_RECORD
  5
2D6
330
1
100
AcDbSymbolTableRecord
100
AcDbBlockTableRecord
  2
A$C6CAC4411
340
0
  0
BLOCK_RECORD
  5
30D
330
1
100
AcDbSymbolTableRecord
100
AcDbBlockTableRecord
  2
_Dot
340
0
102
{BLKREFS
331
7801
331
7802
331
780A
331
780B
331
7813
331
7814
331
787F
331
7880
331
788F
331
7890
331
7898
331
7899
331
78A1
331
78A2
331
78AA
331
78AB
331
79B7
331
79B8
331
79C0
331
79C1
331
79C9
331
79CA
331
79D5
331
79D6
331
79E0
331
79E1
331
79F4
331
79F5
331
79FD
331
79FE
331
7A3A
331
7A3B
331
7A42
331
7A43
331
7A4B
331
7A4C
331
7A57
331
7A58
331
7F95
331
7F96
331
7F9E
331
7F9F
331
7FA7
331
7FA8
331
7FCC
331
7FCD
331
7FD5
331
7FD6
331
7FDD
331
7FDE
331
7FE6
331
7FE7
331
7FEF
331
7FF0
331
7FF9
331
7FFA
331
8002
331
8003
331
800A
331
800B
331
8013
331
8014
331
801C
331
801D
331
8025
331
8026
331
802F
331
8030
331
8038
331
8039
331
8040
331
8041
331
8049
331
804A
331
8052
331
8053
331
805B
331
805C
331
8064
331
8065
331
806E
331
806F
331
8077
331
8078
331
807F
331
8080
331
8145
331
8146
331
814E
331
814F
331
8157
331
8158
331
8160
331
8161
331
8169
331
816A
331
82A7
331
82A8
331
831B
331
831C
331
8341
331
8342
331
836B
331
836C
331
8374
331
8375
331
837E
331
837F
331
8386
331
8387
331
838F
331
8390
331
8399
331
839A
331
83A2
331
83A3
331
83AD
331
83AE
331
83B8
331
83B9
331
83C1
331
83C2
331
83CC
331
83CD
331
83D7
331
83D8
331
83E1
331
83E2
102
}
  0
BLOCK_RECORD
  5
313C
102
{ACAD_XDICTIONARY
360
313E
102
}
330
1
100
AcDbSymbolTableRecord
100
AcDbBlockTableRecord
  2
A$C6850087C
340
0
  0
BLOCK_RECORD
  5
3846
102
{ACAD_XDICTIONARY
360
3848
102
}
330
1
100
AcDbSymbolTableRecord
100
AcDbBlockTableRecord
  2
A$C71387EE1
340
0
  0
BLOCK_RECORD
  5
517F
330
1
100
AcDbSymbolTableRecord
100
AcDbBlockTableRecord
  2
*D8
340
0
  0
BLOCK_RECORD
  5
51A7
330
1
100
AcDbSymbolTableRecord
100
AcDbBlockTableRecord
  2
*D9
340
0
  0
BLOCK_RECORD
  5
51E1
330
1
100
AcDbSymbolTableRecord
100
AcDbBlockTableRecord
  2
*D10
340
0
  0
BLOCK_RECORD
  5
5202
330
1
100
AcDbSymbolTableRecord
100
AcDbBlockTableRecord
  2
*D11
340
0
  0
BLOCK_RECORD
  5
523F
330
1
100
AcDbSymbolTableRecord
100
AcDbBlockTableRecord
  2
*D12
340
0
  0
BLOCK_RECORD
  5
5268
330
1
100
AcDbSymbolTableRecord
100
AcDbBlockTableRecord
  2
*D13
340
0
  0
BLOCK_RECORD
  5
527E
330
1
100
AcDbSymbolTableRecord
100
AcDbBlockTableRecord
  2
*D14
340
0
  0
BLOCK_RECORD
  5
52A8
330
1
100
AcDbSymbolTableRecord
100
AcDbBlockTableRecord
  2
*D15
340
0
  0
BLOCK_RECORD
  5
533C
330
1
100
AcDbSymbolTableRecord
100
AcDbBlockTableRecord
  2
*D16
340
0
  0
BLOCK_RECORD
  5
5376
330
1
100
AcDbSymbolTableRecord
100
AcDbBlockTableRecord
  2
*D17
340
0
  0
BLOCK_RECORD
  5
5395
330
1
100
AcDbSymbolTableRecord
100
AcDbBlockTableRecord
  2
*D18
340
0
  0
BLOCK_RECORD
  5
53BD
330
1
100
AcDbSymbolTableRecord
100
AcDbBlockTableRecord
  2
*D19
340
0
  0
BLOCK_RECORD
  5
53DC
330
1
100
AcDbSymbolTableRecord
100
AcDbBlockTableRecord
  2
*D20
340
0
  0
BLOCK_RECORD
  5
5438
330
1
100
AcDbSymbolTableRecord
100
AcDbBlockTableRecord
  2
*D21
340
0
  0
BLOCK_RECORD
  5
5461
330
1
100
AcDbSymbolTableRecord
100
AcDbBlockTableRecord
  2
*D22
340
0
  0
BLOCK_RECORD
  5
548A
330
1
100
AcDbSymbolTableRecord
100
AcDbBlockTableRecord
  2
*D23
340
0
  0
BLOCK_RECORD
  5
54B3
330
1
100
AcDbSymbolTableRecord
100
AcDbBlockTableRecord
  2
*D24
340
0
  0
BLOCK_RECORD
  5
54DC
330
1
100
AcDbSymbolTableRecord
100
AcDbBlockTableRecord
  2
*D25
340
0
  0
BLOCK_RECORD
  5
5505
330
1
100
AcDbSymbolTableRecord
100
AcDbBlockTableRecord
  2
*D26
340
0
  0
BLOCK_RECORD
  5
552E
330
1
100
AcDbSymbolTableRecord
100
AcDbBlockTableRecord
  2
*D27
340
0
  0
BLOCK_RECORD
  5
5558
330
1
100
AcDbSymbolTableRecord
100
AcDbBlockTableRecord
  2
*D28
340
0
  0
BLOCK_RECORD
  5
5581
330
1
100
AcDbSymbolTableRecord
100
AcDbBlockTableRecord
  2
*D29
340
0
  0
BLOCK_RECORD
  5
5834
330
1
100
AcDbSymbolTableRecord
100
AcDbBlockTableRecord
  2
*D30
340
0
  0
BLOCK_RECORD
  5
58E7
330
1
100
AcDbSymbolTableRecord
100
AcDbBlockTableRecord
  2
*D31
340
0
  0
BLOCK_RECORD
  5
5A72
330
1
100
AcDbSymbolTableRecord
100
AcDbBlockTableRecord
  2
*D32
340
0
  0
BLOCK_RECORD
  5
5A9B
330
1
100
AcDbSymbolTableRecord
100
AcDbBlockTableRecord
  2
*D33
340
0
  0
BLOCK_RECORD
  5
5ACE
330
1
100
AcDbSymbolTableRecord
100
AcDbBlockTableRecord
  2
*D34
340
0
  0
BLOCK_RECORD
  5
5ADC
330
1
100
AcDbSymbolTableRecord
100
AcDbBlockTableRecord
  2
*D35
340
0
  0
BLOCK_RECORD
  5
5B11
330
1
100
AcDbSymbolTableRecord
100
AcDbBlockTableRecord
  2
*D36
340
0
  0
BLOCK_RECORD
  5
5F2B
330
1
100
AcDbSymbolTableRecord
100
AcDbBlockTableRecord
  2
*D37
340
0
  0
BLOCK_RECORD
  5
5F4B
330
1
100
AcDbSymbolTableRecord
100
AcDbBlockTableRecord
  2
*D38
340
0
  0
BLOCK_RECORD
  5
5F99
330
1
100
AcDbSymbolTableRecord
100
AcDbBlockTableRecord
  2
*D39
340
0
  0
BLOCK_RECORD
  5
5FB0
330
1
100
AcDbSymbolTableRecord
100
AcDbBlockTableRecord
  2
*D40
340
0
  0
BLOCK_RECORD
  5
5FE1
330
1
100
AcDbSymbolTableRecord
100
AcDbBlockTableRecord
  2
*D41
340
0
  0
BLOCK_RECORD
  5
6367
330
1
100
AcDbSymbolTableRecord
100
AcDbBlockTableRecord
  2
*D42
340
0
  0
BLOCK_RECORD
  5
6373
330
1
100
AcDbSymbolTableRecord
100
AcDbBlockTableRecord
  2
*D43
340
0
  0
BLOCK_RECORD
  5
6381
330
1
100
AcDbSymbolTableRecord
100
AcDbBlockTableRecord
  2
*D44
340
0
  0
BLOCK_RECORD
  5
638D
330
1
100
AcDbSymbolTableRecord
100
AcDbBlockTableRecord
  2
*D45
340
0
  0
BLOCK_RECORD
  5
6399
330
1
100
AcDbSymbolTableRecord
100
AcDbBlockTableRecord
  2
*D46
340
0
  0
BLOCK_RECORD
  5
63A7
330
1
100
AcDbSymbolTableRecord
100
AcDbBlockTableRecord
  2
*D47
340
0
  0
BLOCK_RECORD
  5
63B3
330
1
100
AcDbSymbolTableRecord
100
AcDbBlockTableRecord
  2
*D48
340
0
  0
BLOCK_RECORD
  5
63BF
330
1
100
AcDbSymbolTableRecord
100
AcDbBlockTableRecord
  2
*D49
340
0
  0
BLOCK_RECORD
  5
63CB
330
1
100
AcDbSymbolTableRecord
100
AcDbBlockTableRecord
  2
*D50
340
0
  0
BLOCK_RECORD
  5
63D7
330
1
100
AcDbSymbolTableRecord
100
AcDbBlockTableRecord
  2
*D51
340
0
  0
BLOCK_RECORD
  5
6B87
102
{ACAD_XDICTIONARY
360
6B89
102
}
330
1
100
AcDbSymbolTableRecord
100
AcDbBlockTableRecord
  2
A$C47AF373A
340
0
  0
BLOCK_RECORD
  5
6C00
102
{ACAD_XDICTIONARY
360
6C02
102
}
330
1
100
AcDbSymbolTableRecord
100
AcDbBlockTableRecord
  2
A$C2B9560D8
340
0
  0
BLOCK_RECORD
  5
7C60
330
1
100
AcDbSymbolTableRecord
100
AcDbBlockTableRecord
  2
*D54
340
0
  0
BLOCK_RECORD
  5
7C92
330
1
100
AcDbSymbolTableRecord
100
AcDbBlockTableRecord
  2
*D55
340
0
  0
BLOCK_RECORD
  5
7C9E
330
1
100
AcDbSymbolTableRecord
100
AcDbBlockTableRecord
  2
*D56
340
0
  0
BLOCK_RECORD
  5
7CAA
330
1
100
AcDbSymbolTableRecord
100
AcDbBlockTableRecord
  2
*D57
340
0
  0
BLOCK_RECORD
  5
7CB6
330
1
100
AcDbSymbolTableRecord
100
AcDbBlockTableRecord
  2
*D58
340
0
  0
BLOCK_RECORD
  5
7CC2
330
1
100
AcDbSymbolTableRecord
100
AcDbBlockTableRecord
  2
*D59
340
0
  0
BLOCK_RECORD
  5
7CCE
330
1
100
AcDbSymbolTableRecord
100
AcDbBlockTableRecord
  2
*D60
340
0
  0
BLOCK_RECORD
  5
7CDA
330
1
100
AcDbSymbolTableRecord
100
AcDbBlockTableRecord
  2
*D61
340
0
  0
BLOCK_RECORD
  5
7CE8
330
1
100
AcDbSymbolTableRecord
100
AcDbBlockTableRecord
  2
*D62
340
0
  0
BLOCK_RECORD
  5
7CF6
330
1
100
AcDbSymbolTableRecord
100
AcDbBlockTableRecord
  2
*D63
340
0
  0
BLOCK_RECORD
  5
7D02
330
1
100
AcDbSymbolTableRecord
100
AcDbBlockTableRecord
  2
*D64
340
0
  0
BLOCK_RECORD
  5
7D10
330
1
100
AcDbSymbolTableRecord
100
AcDbBlockTableRecord
  2
*D65
340
0
  0
BLOCK_RECORD
  5
8105
330
1
100
AcDbSymbolTableRecord
100
AcDbBlockTableRecord
  2
*D66
340
0
  0
BLOCK_RECORD
  5
8111
330
1
100
AcDbSymbolTableRecord
100
AcDbBlockTableRecord
  2
*D67
340
0
  0
BLOCK_RECORD
  5
811D
330
1
100
AcDbSymbolTableRecord
100
AcDbBlockTableRecord
  2
*D68
340
0
  0
BLOCK_RECORD
  5
8129
330
1
100
AcDbSymbolTableRecord
100
AcDbBlockTableRecord
  2
*D69
340
0
  0
BLOCK_RECORD
  5
8135
330
1
100
AcDbSymbolTableRecord
100
AcDbBlockTableRecord
  2
*D70
340
0
  0
BLOCK_RECORD
  5
82F4
330
1
100
AcDbSymbolTableRecord
100
AcDbBlockTableRecord
  2
*D71
340
0
  0
BLOCK_RECORD
  5
8300
330
1
100
AcDbSymbolTableRecord
100
AcDbBlockTableRecord
  2
*D72
340
0
  0
BLOCK_RECORD
  5
835C
330
1
100
AcDbSymbolTableRecord
100
AcDbBlockTableRecord
  2
*D73
340
0
  0
ENDTAB
  0
ENDSEC
  0
SECTION
  2
BLOCKS
  0
BLOCK
  5
20
330
1F
100
AcDbEntity
  8
0
100
AcDbBlockBegin
  2
*Model_Space
 70
     0
 10
0.0
 20
0.0
 30
0.0
  3
*Model_Space
  1

  0
ENDBLK
  5
21
330
1F
100
AcDbEntity
  8
0
100
AcDbBlockEnd
  0
BLOCK
  5
1C
330
1B
100
AcDbEntity
 67
     1
  8
0
100
AcDbBlockBegin
  2
*Paper_Space
 70
     0
 10
0.0
 20
0.0
 30
0.0
  3
*Paper_Space
  1

  0
ENDBLK
  5
1D
330
1B
100
AcDbEntity
 67
     1
  8
0
100
AcDbBlockEnd
  0
BLOCK
  5
24
330
23
100
AcDbEntity
  8
0
100
AcDbBlockBegin
  2
*Paper_Space0
 70
     0
 10
0.0
 20
0.0
 30
0.0
  3
*Paper_Space0
  1

  0
ENDBLK
  5
25
330
23
100
AcDbEntity
  8
0
100
AcDbBlockEnd
  0
BLOCK
  5
D2
330
D0
100
AcDbEntity
  8
0
100
AcDbBlockBegin
  2
_DotSmall
 70
     0
 10
0.0
 20
0.0
 30
0.0
  3
_DotSmall
  1

  0
LWPOLYLINE
  5
D1
330
D0
100
AcDbEntity
  8
0
 62
     0
100
AcDbPolyline
 90
        2
 70
     1
 43
0.5
 10
-0.0625
 20
0.0
 42
1.0
 10
0.0625
 20
0.0
 42
1.0
  0
ENDBLK
  5
D3
330
D0
100
AcDbEntity
  8
0
100
AcDbBlockEnd
  0
BLOCK
  5
D8
330
D4
100
AcDbEntity
  8
0
100
AcDbBlockBegin
  2
_Origin2
 70
     0
 10
0.0
 20
0.0
 30
0.0
  3
_Origin2
  1

  0
CIRCLE
  5
D5
330
D4
100
AcDbEntity
  8
0
 62
     0
370
    -2
100
AcDbCircle
 10
0.0
 20
0.0
 30
0.0
 40
0.5
  0
CIRCLE
  5
D6
330
D4
100
AcDbEntity
  8
0
 62
     0
370
    -2
100
AcDbCircle
 10
0.0
 20
0.0
 30
0.0
 40
0.25
  0
LINE
  5
D7
330
D4
100
AcDbEntity
  8
0
 62
     0
370
    -2
100
AcDbLine
 10
-0.5
 20
0.0
 30
0.0
 11
-1.0
 21
0.0
 31
0.0
  0
ENDBLK
  5
D9
330
D4
100
AcDbEntity
  8
0
100
AcDbBlockEnd
  0
BLOCK
  5
DE
330
DA
100
AcDbEntity
  8
0
100
AcDbBlockBegin
  2
_Open30
 70
     0
 10
0.0
 20
0.0
 30
0.0
  3
_Open30
  1

  0
LINE
  5
DB
330
DA
100
AcDbEntity
  8
0
 62
     0
370
    -2
100
AcDbLine
 10
-1.0
 20
0.26794919
 30
0.0
 11
0.0
 21
0.0
 31
0.0
  0
LINE
  5
DC
330
DA
100
AcDbEntity
  8
0
 62
     0
370
    -2
100
AcDbLine
 10
0.0
 20
0.0
 30
0.0
 11
-1.0
 21
-0.26794919
 31
0.0
  0
LINE
  5
DD
330
DA
100
AcDbEntity
  8
0
 62
     0
370
    -2
100
AcDbLine
 10
0.0
 20
0.0
 30
0.0
 11
-1.0
 21
0.0
 31
0.0
  0
ENDBLK
  5
DF
330
DA
100
AcDbEntity
  8
0
100
AcDbBlockEnd
  0
BLOCK
  5
2E7
330
2D6
100
AcDbEntity
  8
0
100
AcDbBlockBegin
  2
A$C6CAC4411
 70
     0
 10
0.0
 20
0.0
 30
0.0
  3
A$C6CAC4411
  1

  0
TEXT
  5
2D7
330
2D6
100
AcDbEntity
  8
0
100
AcDbText
 10
176.2557717918098
 20
0.0000022116982912
 30
0.0
 40
40.0
  1
中外交易株式会社
 72
     4
 11
364.2557717918098
 21
20.0000022116983
 31
0.0
100
AcDbText
  0
LINE
  5
2D8
330
2D6
100
AcDbEntity
  8
0
100
AcDbLine
 10
-0.0000028735375963
 20
52.5000022116983
 30
0.0
 11
599.9999971264624
 21
52.5000022116983
 31
0.0
  0
HATCH
  5
2D9
330
2D6
100
AcDbEntity
  8
実形
100
AcDbHatch
 10
0.0
 20
0.0
 30
0.0
210
0.0
220
0.0
230
1.0
  2
SOLID
 70
     1
 71
     1
 91
        3
 92
        1
 93
        4
 72
     2
 10
133.1661954404576
 20
20.0000022116983
 40
20.0
 50
11.6477236670758
 51
342.6561058784691
 73
     1
 72
     1
 10
152.2568494677857
 20
14.03787769028346
 11
128.1661954404576
 21
14.03787769028349
 72
     1
 10
128.1661954404576
 20
14.03787769028349
 11
128.1661954404576
 21
24.0378776902835
 72
     1
 10
128.1661954404576
 20
24.0378776902835
 11
152.7543439394721
 21
24.0378776902835
 97
        4
330
2DF
330
2DC
330
2E0
330
2DD
 92
        1
 93
        4
 72
     2
 10
64.25577179180982
 20
20.0000022116983
 40
20.0
 50
11.6477236670758
 51
342.6561058784691
 73
     1
 72
     1
 10
83.34642581913795
 20
14.03787769028346
 11
59.25577179180981
 21
14.03787769028349
 72
     1
 10
59.25577179180981
 20
14.03787769028349
 11
59.25577179180981
 21
24.0378776902835
 72
     1
 10
59.25577179180981
 20
24.0378776902835
 11
83.84392029082437
 21
24.0378776902835
 97
        4
330
2DE
330
2DB
330
2E1
330
2DA
 92
        1
 93
        5
 72
     1
 10
121.6418911694018
 20
40.0000022116983
 11
86.64189116940177
 21
40.0000022116983
 72
     1
 10
86.64189116940177
 20
40.0000022116983
 11
86.64189116940177
 21
0.0000022116983018
 72
     1
 10
86.64189116940177
 20
0.0000022116983018
 11
121.6418911694018
 21
0.0000022116983018
 72
     1
 10
121.6418911694018
 20
0.0000022116983018
 11
86.64189116940177
 21
20.0000022116983
 72
     1
 10
86.64189116940177
 20
20.0000022116983
 11
121.6418911694018
 21
40.0000022116983
 97
        5
330
2E2
330
2E3
330
2E5
330
2E6
330
2E4
 75
     0
 76
     1
 98
        1
 10
-2184.000002873538
 20
-16.4999977883017
  0
LINE
  5
2DA
102
{ACAD_REACTORS
330
2D9
102
}
330
2D6
100
AcDbEntity
  8
実形
370
     5
100
AcDbLine
 10
83.84392029082437
 20
24.0378776902835
 30
0.0
 11
59.25577179180981
 21
24.0378776902835
 31
0.0
  0
LINE
  5
2DB
102
{ACAD_REACTORS
330
2D9
102
}
330
2D6
100
AcDbEntity
  8
実形
370
     5
100
AcDbLine
 10
59.25577179180981
 20
14.03787769028349
 30
0.0
 11
83.34642581913795
 21
14.03787769028346
 31
0.0
  0
LINE
  5
2DC
102
{ACAD_REACTORS
330
2D9
102
}
330
2D6
100
AcDbEntity
  8
実形
370
     5
100
AcDbLine
 10
128.1661954404576
 20
14.03787769028349
 30
0.0
 11
152.2568494677857
 21
14.03787769028346
 31
0.0
  0
LINE
  5
2DD
102
{ACAD_REACTORS
330
2D9
102
}
330
2D6
100
AcDbEntity
  8
実形
370
     5
100
AcDbLine
 10
152.7543439394721
 20
24.0378776902835
 30
0.0
 11
128.1661954404576
 21
24.0378776902835
 31
0.0
  0
ARC
  5
2DE
102
{ACAD_REACTORS
330
2D9
102
}
330
2D6
100
AcDbEntity
  8
実形
370
     5
100
AcDbCircle
 10
64.25577179180982
 20
20.0000022116983
 30
0.0
 40
20.0
100
AcDbArc
 50
11.6477236670758
 51
342.6561058784691
  0
ARC
  5
2DF
102
{ACAD_REACTORS
330
2D9
102
}
330
2D6
100
AcDbEntity
  8
実形
370
     5
100
AcDbCircle
 10
133.1661954404576
 20
20.0000022116983
 30
0.0
 40
20.0
100
AcDbArc
 50
11.6477236670758
 51
342.6561058784691
  0
LINE
  5
2E0
102
{ACAD_REACTORS
330
2D9
102
}
330
2D6
100
AcDbEntity
  8
実形
370
     5
100
AcDbLine
 10
128.1661954404576
 20
24.0378776902835
 30
0.0
 11
128.1661954404576
 21
14.03787769028349
 31
0.0
  0
LINE
  5
2E1
102
{ACAD_REACTORS
330
2D9
102
}
330
2D6
100
AcDbEntity
  8
実形
370
     5
100
AcDbLine
 10
59.25577179180981
 20
24.0378776902835
 30
0.0
 11
59.25577179180981
 21
14.03787769028349
 31
0.0
  0
LINE
  5
2E2
102
{ACAD_REACTORS
330
2D9
102
}
330
2D6
100
AcDbEntity
  8
実形
370
     5
100
AcDbLine
 10
121.6418911694018
 20
40.0000022116983
 30
0.0
 11
86.64189116940177
 21
40.0000022116983
 31
0.0
  0
LINE
  5
2E3
102
{ACAD_REACTORS
330
2D9
102
}
330
2D6
100
AcDbEntity
  8
実形
370
     5
100
AcDbLine
 10
86.64189116940177
 20
40.0000022116983
 30
0.0
 11
86.64189116940177
 21
0.0000022116983018
 31
0.0
  0
LINE
  5
2E4
102
{ACAD_REACTORS
330
2D9
102
}
330
2D6
100
AcDbEntity
  8
実形
370
     5
100
AcDbLine
 10
86.64189116940177
 20
20.0000022116983
 30
0.0
 11
121.6418911694018
 21
40.0000022116983
 31
0.0
  0
LINE
  5
2E5
102
{ACAD_REACTORS
330
2D9
102
}
330
2D6
100
AcDbEntity
  8
実形
370
     5
100
AcDbLine
 10
86.64189116940177
 20
0.0000022116983018
 30
0.0
 11
121.6418911694018
 21
0.0000022116983018
 31
0.0
  0
LINE
  5
2E6
102
{ACAD_REACTORS
330
2D9
102
}
330
2D6
100
AcDbEntity
  8
実形
370
     5
100
AcDbLine
 10
121.6418911694018
 20
0.0000022116983018
 30
0.0
 11
86.64189116940177
 21
20.0000022116983
 31
0.0
  0
ENDBLK
  5
2E8
330
2D6
100
AcDbEntity
  8
0
100
AcDbBlockEnd
  0
BLOCK
  5
310
330
30D
100
AcDbEntity
  8
0
100
AcDbBlockBegin
  2
_Dot
 70
     0
 10
0.0
 20
0.0
 30
0.0
  3
_Dot
  1

  0
LWPOLYLINE
  5
30E
330
30D
100
AcDbEntity
  8
0
 62
     0
100
AcDbPolyline
 90
        2
 70
     1
 43
0.5
 10
-0.25
 20
0.0
 42
1.0
 10
0.25
 20
0.0
 42
1.0
  0
LINE
  5
30F
330
30D
100
AcDbEntity
  8
0
 62
     0
370
    -2
100
AcDbLine
 10
-0.5
 20
0.0
 30
0.0
 11
-1.0
 21
0.0
 31
0.0
  0
ENDBLK
  5
311
330
30D
100
AcDbEntity
  8
0
100
AcDbBlockEnd
  0
BLOCK
  5
3140
330
313C
100
AcDbEntity
  8
0
100
AcDbBlockBegin
  2
A$C6850087C
 70
     0
 10
0.0
 20
0.0
 30
0.0
  3
A$C6850087C
  1

  0
TEXT
  5
313D
330
313C
100
AcDbEntity
  8
実形
 62
     0
 48
20.0
100
AcDbText
 10
0.0
 20
0.0
 30
0.0
 40
40.0
  1
平面図
100
AcDbText
  0
ENDBLK
  5
3141
330
313C
100
AcDbEntity
  8
0
100
AcDbBlockEnd
  0
BLOCK
  5
384A
330
3846
100
AcDbEntity
  8
0
 62
     1
100
AcDbBlockBegin
  2
A$C71387EE1
 70
     0
 10
0.0
 20
0.0
 30
0.0
  3
A$C71387EE1
  1

  0
HATCH
  5
3847
330
3846
100
AcDbEntity
  8
実形
 62
     0
100
AcDbHatch
 10
0.0
 20
0.0
 30
0.0
210
0.0
220
0.0
230
1.0
  2
SOLID
 70
     1
 71
     0
 91
        1
 92
        7
 72
     1
 73
     1
 93
        2
 10
4.552685078746208
 20
-0.0000011660104065
 42
-1.0
 10
4.54872920619573
 20
9.101406589272301
 42
-1.0
 97
        0
 75
     0
 76
     1
 47
0.1166526434546944
 98
        1
 10
6.651066248680989
 20
3.151407247997667
  0
ENDBLK
  5
384B
330
3846
100
AcDbEntity
  8
0
 62
     1
100
AcDbBlockEnd
  0
BLOCK
  5
5189
330
517F
100
AcDbEntity
  8
0
 62
     1
100
AcDbBlockBegin
  2
*D8
 70
     1
 10
0.0
 20
0.0
 30
0.0
  3
*D8
  1

  0
LINE
  5
8034
330
517F
100
AcDbEntity
  8
実形
 62
     0
370
    18
100
AcDbLine
 10
858.7710340146243
 20
1625.843636991219
 30
0.0
 11
858.7710340146243
 21
1657.385179135495
 31
0.0
  0
LINE
  5
8035
330
517F
100
AcDbEntity
  8
実形
 62
     0
370
    18
100
AcDbLine
 10
898.7710340146241
 20
1625.843636991219
 30
0.0
 11
898.7710340146241
 21
1657.385179135495
 31
0.0
  0
LINE
  5
8036
330
517F
100
AcDbEntity
  8
実形
 62
     0
370
    18
100
AcDbLine
 10
868.7710340146239
 20
1657.385179135495
 30
0.0
 11
888.771034014624
 21
1657.385179135495
 31
0.0
  0
MTEXT
  5
8037
330
517F
100
AcDbEntity
  8
実形
 62
     0
100
AcDbMText
 10
822.8304222143343
 20
1679.635714362135
 30
0.0
 40
30.0
 41
0.0
 71
     5
 72
     1
  1
20
 73
     1
 44
1.0
1001
ACAD
1000
MTEXTBEGIN
1070
    73
1070
     1
1070
    44
1040
1.0
1070
    74
1070
     0
1000
MTEXTEND
  0
INSERT
  5
8038
330
517F
100
AcDbEntity
  8
実形
 62
     0
370
    18
100
AcDbBlockReference
  2
_Dot
 10
858.7710340146243
 20
1657.385179135495
 30
0.0
 41
10.0
 42
10.0
 43
10.0
 50
180.0
  0
INSERT
  5
8039
330
517F
100
AcDbEntity
  8
実形
 62
     0
370
    18
100
AcDbBlockReference
  2
_Dot
 10
898.7710340146241
 20
1657.385179135495
 30
0.0
 41
10.0
 42
10.0
 43
10.0
  0
POINT
  5
803A
330
517F
100
AcDbEntity
  8
Defpoints
 62
     0
100
AcDbPoint
 10
858.7710340146243
 20
1560.84363699122
 30
0.0
  0
POINT
  5
803B
330
517F
100
AcDbEntity
  8
Defpoints
 62
     0
100
AcDbPoint
 10
898.7710340146241
 20
1560.84363699122
 30
0.0
  0
POINT
  5
803C
330
517F
100
AcDbEntity
  8
Defpoints
 62
     0
100
AcDbPoint
 10
898.7710340146241
 20
1657.385179135495
 30
0.0
  0
ENDBLK
  5
518A
330
517F
100
AcDbEntity
  8
0
 62
     1
100
AcDbBlockEnd
  0
BLOCK
  5
51B1
330
51A7
100
AcDbEntity
  8
0
 62
     1
100
AcDbBlockBegin
  2
*D9
 70
     1
 10
0.0
 20
0.0
 30
0.0
  3
*D9
  1

  0
LINE
  5
802B
330
51A7
100
AcDbEntity
  8
実形
 62
     0
370
    18
100
AcDbLine
 10
898.7710340146241
 20
1625.843636991219
 30
0.0
 11
898.7710340146241
 21
1657.385179135495
 31
0.0
  0
LINE
  5
802C
330
51A7
100
AcDbEntity
  8
実形
 62
     0
370
    18
100
AcDbLine
 10
948.7710340146239
 20
1625.843636991219
 30
0.0
 11
948.7710340146239
 21
1657.385179135495
 31
0.0
  0
LINE
  5
802D
330
51A7
100
AcDbEntity
  8
実形
 62
     0
370
    18
100
AcDbLine
 10
908.7710340146239
 20
1657.385179135495
 30
0.0
 11
938.771034014624
 21
1657.385179135495
 31
0.0
  0
MTEXT
  5
802E
330
51A7
100
AcDbEntity
  8
実形
 62
     0
100
AcDbMText
 10
921.2868215322739
 20
1602.887772882064
 30
0.0
 40
30.0
 41
0.0
 71
     5
 72
     1
  1
25
 73
     1
 44
1.0
1001
ACAD
1000
MTEXTBEGIN
1070
    73
1070
     1
1070
    44
1040
1.0
1070
    74
1070
     0
1000
MTEXTEND
  0
INSERT
  5
802F
330
51A7
100
AcDbEntity
  8
実形
 62
     0
370
    18
100
AcDbBlockReference
  2
_Dot
 10
898.7710340146241
 20
1657.385179135495
 30
0.0
 41
10.0
 42
10.0
 43
10.0
 50
180.0
  0
INSERT
  5
8030
330
51A7
100
AcDbEntity
  8
実形
 62
     0
370
    18
100
AcDbBlockReference
  2
_Dot
 10
948.7710340146239
 20
1657.385179135495
 30
0.0
 41
10.0
 42
10.0
 43
10.0
  0
POINT
  5
8031
330
51A7
100
AcDbEntity
  8
Defpoints
 62
     0
100
AcDbPoint
 10
898.7710340146241
 20
1560.84363699122
 30
0.0
  0
POINT
  5
8032
330
51A7
100
AcDbEntity
  8
Defpoints
 62
     0
100
AcDbPoint
 10
948.7710340146239
 20
1560.84363699122
 30
0.0
  0
POINT
  5
8033
330
51A7
100
AcDbEntity
  8
Defpoints
 62
     0
100
AcDbPoint
 10
948.7710340146239
 20
1657.385179135495
 30
0.0
  0
ENDBLK
  5
51B2
330
51A7
100
AcDbEntity
  8
0
 62
     1
100
AcDbBlockEnd
  0
BLOCK
  5
51EB
330
51E1
100
AcDbEntity
  8
0
 62
     1
100
AcDbBlockBegin
  2
*D10
 70
     1
 10
0.0
 20
0.0
 30
0.0
  3
*D10
  1

  0
LINE
  5
8022
330
51E1
100
AcDbEntity
  8
実形
 62
     0
370
    18
100
AcDbLine
 10
948.7710340146239
 20
1625.843636991219
 30
0.0
 11
948.7710340146239
 21
1657.385179135495
 31
0.0
  0
LINE
  5
8023
330
51E1
100
AcDbEntity
  8
実形
 62
     0
370
    18
100
AcDbLine
 10
1028.771034014624
 20
1625.843636991219
 30
0.0
 11
1028.771034014624
 21
1657.385179135495
 31
0.0
  0
LINE
  5
8024
330
51E1
100
AcDbEntity
  8
実形
 62
     0
370
    18
100
AcDbLine
 10
958.7710340146239
 20
1657.385179135495
 30
0.0
 11
1018.771034014624
 21
1657.385179135495
 31
0.0
  0
INSERT
  5
8025
330
51E1
100
AcDbEntity
  8
実形
 62
     0
370
    18
100
AcDbBlockReference
  2
_Dot
 10
948.7710340146239
 20
1657.385179135495
 30
0.0
 41
10.0
 42
10.0
 43
10.0
 50
180.0
  0
INSERT
  5
8026
330
51E1
100
AcDbEntity
  8
実形
 62
     0
370
    18
100
AcDbBlockReference
  2
_Dot
 10
1028.771034014624
 20
1657.385179135495
 30
0.0
 41
10.0
 42
10.0
 43
10.0
  0
MTEXT
  5
8027
330
51E1
100
AcDbEntity
  8
実形
 62
     0
100
AcDbMText
 10
988.771034014624
 20
1678.985179135495
 30
0.0
 40
30.0
 41
0.0
 71
     5
 72
     1
  1
40
 73
     1
 44
1.0
1001
ACAD
1000
MTEXTBEGIN
1070
    73
1070
     1
1070
    44
1040
1.0
1070
    74
1070
     0
1000
MTEXTEND
  0
POINT
  5
8028
330
51E1
100
AcDbEntity
  8
Defpoints
 62
     0
100
AcDbPoint
 10
948.7710340146239
 20
1560.84363699122
 30
0.0
  0
POINT
  5
8029
330
51E1
100
AcDbEntity
  8
Defpoints
 62
     0
100
AcDbPoint
 10
1028.771034014624
 20
1560.84363699122
 30
0.0
  0
POINT
  5
802A
330
51E1
100
AcDbEntity
  8
Defpoints
 62
     0
100
AcDbPoint
 10
1028.771034014624
 20
1657.385179135495
 30
0.0
  0
ENDBLK
  5
51EC
330
51E1
100
AcDbEntity
  8
0
 62
     1
100
AcDbBlockEnd
  0
BLOCK
  5
520C
330
5202
100
AcDbEntity
  8
0
 62
     1
100
AcDbBlockBegin
  2
*D11
 70
     1
 10
0.0
 20
0.0
 30
0.0
  3
*D11
  1

  0
LINE
  5
8019
330
5202
100
AcDbEntity
  8
実形
 62
     0
370
    18
100
AcDbLine
 10
1028.771034014624
 20
1625.843636991219
 30
0.0
 11
1028.771034014624
 21
1657.385179135495
 31
0.0
  0
LINE
  5
801A
330
5202
100
AcDbEntity
  8
実形
 62
     0
370
    18
100
AcDbLine
 10
1108.771034014624
 20
1625.843636991219
 30
0.0
 11
1108.771034014624
 21
1657.385179135495
 31
0.0
  0
LINE
  5
801B
330
5202
100
AcDbEntity
  8
実形
 62
     0
370
    18
100
AcDbLine
 10
1038.771034014624
 20
1657.385179135495
 30
0.0
 11
1098.771034014624
 21
1657.385179135495
 31
0.0
  0
INSERT
  5
801C
330
5202
100
AcDbEntity
  8
実形
 62
     0
370
    18
100
AcDbBlockReference
  2
_Dot
 10
1028.771034014624
 20
1657.385179135495
 30
0.0
 41
10.0
 42
10.0
 43
10.0
 50
180.0
  0
INSERT
  5
801D
330
5202
100
AcDbEntity
  8
実形
 62
     0
370
    18
100
AcDbBlockReference
  2
_Dot
 10
1108.771034014624
 20
1657.385179135495
 30
0.0
 41
10.0
 42
10.0
 43
10.0
  0
MTEXT
  5
801E
330
5202
100
AcDbEntity
  8
実形
 62
     0
100
AcDbMText
 10
1068.771034014624
 20
1678.985179135495
 30
0.0
 40
30.0
 41
0.0
 71
     5
 72
     1
  1
40
 73
     1
 44
1.0
1001
ACAD
1000
MTEXTBEGIN
1070
    73
1070
     1
1070
    44
1040
1.0
1070
    74
1070
     0
1000
MTEXTEND
  0
POINT
  5
801F
330
5202
100
AcDbEntity
  8
Defpoints
 62
     0
100
AcDbPoint
 10
1028.771034014624
 20
1560.84363699122
 30
0.0
  0
POINT
  5
8020
330
5202
100
AcDbEntity
  8
Defpoints
 62
     0
100
AcDbPoint
 10
1108.771034014624
 20
1560.84363699122
 30
0.0
  0
POINT
  5
8021
330
5202
100
AcDbEntity
  8
Defpoints
 62
     0
100
AcDbPoint
 10
1108.771034014624
 20
1657.385179135495
 30
0.0
  0
ENDBLK
  5
520D
330
5202
100
AcDbEntity
  8
0
 62
     1
100
AcDbBlockEnd
  0
BLOCK
  5
5249
330
523F
100
AcDbEntity
  8
0
 62
     1
100
AcDbBlockBegin
  2
*D12
 70
     1
 10
0.0
 20
0.0
 30
0.0
  3
*D12
  1

  0
LINE
  5
8010
330
523F
100
AcDbEntity
  8
実形
 62
     0
370
    18
100
AcDbLine
 10
1108.771034014624
 20
1625.843636991219
 30
0.0
 11
1108.771034014624
 21
1657.385179135495
 31
0.0
  0
LINE
  5
8011
330
523F
100
AcDbEntity
  8
実形
 62
     0
370
    18
100
AcDbLine
 10
1188.771034014624
 20
1625.843636991219
 30
0.0
 11
1188.771034014624
 21
1657.385179135495
 31
0.0
  0
LINE
  5
8012
330
523F
100
AcDbEntity
  8
実形
 62
     0
370
    18
100
AcDbLine
 10
1118.771034014624
 20
1657.385179135495
 30
0.0
 11
1178.771034014624
 21
1657.385179135495
 31
0.0
  0
INSERT
  5
8013
330
523F
100
AcDbEntity
  8
実形
 62
     0
370
    18
100
AcDbBlockReference
  2
_Dot
 10
1108.771034014624
 20
1657.385179135495
 30
0.0
 41
10.0
 42
10.0
 43
10.0
 50
180.0
  0
INSERT
  5
8014
330
523F
100
AcDbEntity
  8
実形
 62
     0
370
    18
100
AcDbBlockReference
  2
_Dot
 10
1188.771034014624
 20
1657.385179135495
 30
0.0
 41
10.0
 42
10.0
 43
10.0
  0
MTEXT
  5
8015
330
523F
100
AcDbEntity
  8
実形
 62
     0
100
AcDbMText
 10
1148.771034014624
 20
1678.985179135495
 30
0.0
 40
30.0
 41
0.0
 71
     5
 72
     1
  1
40
 73
     1
 44
1.0
1001
ACAD
1000
MTEXTBEGIN
1070
    73
1070
     1
1070
    44
1040
1.0
1070
    74
1070
     0
1000
MTEXTEND
  0
POINT
  5
8016
330
523F
100
AcDbEntity
  8
Defpoints
 62
     0
100
AcDbPoint
 10
1108.771034014624
 20
1560.84363699122
 30
0.0
  0
POINT
  5
8017
330
523F
100
AcDbEntity
  8
Defpoints
 62
     0
100
AcDbPoint
 10
1188.771034014624
 20
1560.84363699122
 30
0.0
  0
POINT
  5
8018
330
523F
100
AcDbEntity
  8
Defpoints
 62
     0
100
AcDbPoint
 10
1188.771034014624
 20
1657.385179135495
 30
0.0
  0
ENDBLK
  5
524A
330
523F
100
AcDbEntity
  8
0
 62
     1
100
AcDbBlockEnd
  0
BLOCK
  5
5272
330
5268
100
AcDbEntity
  8
0
 62
     1
100
AcDbBlockBegin
  2
*D13
 70
     1
 10
0.0
 20
0.0
 30
0.0
  3
*D13
  1

  0
LINE
  5
8007
330
5268
100
AcDbEntity
  8
実形
 62
     0
370
    18
100
AcDbLine
 10
1188.771034014624
 20
1625.843636991219
 30
0.0
 11
1188.771034014624
 21
1657.385179135495
 31
0.0
  0
LINE
  5
8008
330
5268
100
AcDbEntity
  8
実形
 62
     0
370
    18
100
AcDbLine
 10
1268.771034014624
 20
1625.843636991219
 30
0.0
 11
1268.771034014624
 21
1657.385179135495
 31
0.0
  0
LINE
  5
8009
330
5268
100
AcDbEntity
  8
実形
 62
     0
370
    18
100
AcDbLine
 10
1198.771034014624
 20
1657.385179135495
 30
0.0
 11
1258.771034014624
 21
1657.385179135495
 31
0.0
  0
INSERT
  5
800A
330
5268
100
AcDbEntity
  8
実形
 62
     0
370
    18
100
AcDbBlockReference
  2
_Dot
 10
1188.771034014624
 20
1657.385179135495
 30
0.0
 41
10.0
 42
10.0
 43
10.0
 50
180.0
  0
INSERT
  5
800B
330
5268
100
AcDbEntity
  8
実形
 62
     0
370
    18
100
AcDbBlockReference
  2
_Dot
 10
1268.771034014624
 20
1657.385179135495
 30
0.0
 41
10.0
 42
10.0
 43
10.0
  0
MTEXT
  5
800C
330
5268
100
AcDbEntity
  8
実形
 62
     0
100
AcDbMText
 10
1228.771034014624
 20
1678.985179135495
 30
0.0
 40
30.0
 41
0.0
 71
     5
 72
     1
  1
40
 73
     1
 44
1.0
1001
ACAD
1000
MTEXTBEGIN
1070
    73
1070
     1
1070
    44
1040
1.0
1070
    74
1070
     0
1000
MTEXTEND
  0
POINT
  5
800D
330
5268
100
AcDbEntity
  8
Defpoints
 62
     0
100
AcDbPoint
 10
1188.771034014624
 20
1560.84363699122
 30
0.0
  0
POINT
  5
800E
330
5268
100
AcDbEntity
  8
Defpoints
 62
     0
100
AcDbPoint
 10
1268.771034014624
 20
1560.84363699122
 30
0.0
  0
POINT
  5
800F
330
5268
100
AcDbEntity
  8
Defpoints
 62
     0
100
AcDbPoint
 10
1268.771034014624
 20
1657.385179135495
 30
0.0
  0
ENDBLK
  5
5273
330
5268
100
AcDbEntity
  8
0
 62
     1
100
AcDbBlockEnd
  0
BLOCK
  5
5288
330
527E
100
AcDbEntity
  8
0
 62
     1
100
AcDbBlockBegin
  2
*D14
 70
     1
 10
0.0
 20
0.0
 30
0.0
  3
*D14
  1

  0
LINE
  5
7FFE
330
527E
100
AcDbEntity
  8
実形
 62
     0
370
    18
100
AcDbLine
 10
1268.771034014624
 20
1625.843636991219
 30
0.0
 11
1268.771034014624
 21
1657.385179135495
 31
0.0
  0
LINE
  5
7FFF
330
527E
100
AcDbEntity
  8
実形
 62
     0
370
    18
100
AcDbLine
 10
1318.771034014624
 20
1625.843636991219
 30
0.0
 11
1318.771034014624
 21
1657.385179135495
 31
0.0
  0
LINE
  5
8000
330
527E
100
AcDbEntity
  8
実形
 62
     0
370
    18
100
AcDbLine
 10
1278.771034014624
 20
1657.385179135495
 30
0.0
 11
1308.771034014624
 21
1657.385179135495
 31
0.0
  0
MTEXT
  5
8001
330
527E
100
AcDbEntity
  8
実形
 62
     0
100
AcDbMText
 10
1295.353832290871
 20
1604.14329783098
 30
0.0
 40
30.0
 41
0.0
 71
     5
 72
     1
  1
25
 73
     1
 44
1.0
1001
ACAD
1000
MTEXTBEGIN
1070
    73
1070
     1
1070
    44
1040
1.0
1070
    74
1070
     0
1000
MTEXTEND
  0
INSERT
  5
8002
330
527E
100
AcDbEntity
  8
実形
 62
     0
370
    18
100
AcDbBlockReference
  2
_Dot
 10
1268.771034014624
 20
1657.385179135495
 30
0.0
 41
10.0
 42
10.0
 43
10.0
 50
180.0
  0
INSERT
  5
8003
330
527E
100
AcDbEntity
  8
実形
 62
     0
370
    18
100
AcDbBlockReference
  2
_Dot
 10
1318.771034014624
 20
1657.385179135495
 30
0.0
 41
10.0
 42
10.0
 43
10.0
  0
POINT
  5
8004
330
527E
100
AcDbEntity
  8
Defpoints
 62
     0
100
AcDbPoint
 10
1268.771034014624
 20
1560.84363699122
 30
0.0
  0
POINT
  5
8005
330
527E
100
AcDbEntity
  8
Defpoints
 62
     0
100
AcDbPoint
 10
1318.771034014624
 20
1560.84363699122
 30
0.0
  0
POINT
  5
8006
330
527E
100
AcDbEntity
  8
Defpoints
 62
     0
100
AcDbPoint
 10
1318.771034014624
 20
1657.385179135495
 30
0.0
  0
ENDBLK
  5
5289
330
527E
100
AcDbEntity
  8
0
 62
     1
100
AcDbBlockEnd
  0
BLOCK
  5
52B2
330
52A8
100
AcDbEntity
  8
0
 62
     1
100
AcDbBlockBegin
  2
*D15
 70
     1
 10
0.0
 20
0.0
 30
0.0
  3
*D15
  1

  0
LINE
  5
7FF5
330
52A8
100
AcDbEntity
  8
実形
 62
     0
370
    18
100
AcDbLine
 10
1318.771034014624
 20
1625.843636991219
 30
0.0
 11
1318.771034014624
 21
1657.385179135495
 31
0.0
  0
LINE
  5
7FF6
330
52A8
100
AcDbEntity
  8
実形
 62
     0
370
    18
100
AcDbLine
 10
1358.771034014624
 20
1625.843636991219
 30
0.0
 11
1358.771034014624
 21
1657.385179135495
 31
0.0
  0
LINE
  5
7FF7
330
52A8
100
AcDbEntity
  8
実形
 62
     0
370
    18
100
AcDbLine
 10
1328.771034014624
 20
1657.385179135495
 30
0.0
 11
1348.771034014624
 21
1657.385179135495
 31
0.0
  0
MTEXT
  5
7FF8
330
52A8
100
AcDbEntity
  8
実形
 62
     0
100
AcDbMText
 10
1394.004490709541
 20
1701.857247380782
 30
0.0
 40
30.0
 41
0.0
 71
     5
 72
     1
  1
20
 73
     1
 44
1.0
1001
ACAD
1000
MTEXTBEGIN
1070
    73
1070
     1
1070
    44
1040
1.0
1070
    74
1070
     0
1000
MTEXTEND
  0
INSERT
  5
7FF9
330
52A8
100
AcDbEntity
  8
実形
 62
     0
370
    18
100
AcDbBlockReference
  2
_Dot
 10
1318.771034014624
 20
1657.385179135495
 30
0.0
 41
10.0
 42
10.0
 43
10.0
 50
180.0
  0
INSERT
  5
7FFA
330
52A8
100
AcDbEntity
  8
実形
 62
     0
370
    18
100
AcDbBlockReference
  2
_Dot
 10
1358.771034014624
 20
1657.385179135495
 30
0.0
 41
10.0
 42
10.0
 43
10.0
  0
POINT
  5
7FFB
330
52A8
100
AcDbEntity
  8
Defpoints
 62
     0
100
AcDbPoint
 10
1318.771034014624
 20
1560.84363699122
 30
0.0
  0
POINT
  5
7FFC
330
52A8
100
AcDbEntity
  8
Defpoints
 62
     0
100
AcDbPoint
 10
1358.771034014624
 20
1560.84363699122
 30
0.0
  0
POINT
  5
7FFD
330
52A8
100
AcDbEntity
  8
Defpoints
 62
     0
100
AcDbPoint
 10
1358.771034014624
 20
1657.385179135495
 30
0.0
  0
ENDBLK
  5
52B3
330
52A8
100
AcDbEntity
  8
0
 62
     1
100
AcDbBlockEnd
  0
BLOCK
  5
5346
330
533C
100
AcDbEntity
  8
0
 62
     1
100
AcDbBlockBegin
  2
*D16
 70
     1
 10
0.0
 20
0.0
 30
0.0
  3
*D16
  1

  0
LINE
  5
7FEC
330
533C
100
AcDbEntity
  8
実形
 62
     0
370
    18
100
AcDbLine
 10
858.7710340146243
 20
1625.843636991219
 30
0.0
 11
858.7710340146243
 21
1796.07967287009
 31
0.0
  0
LINE
  5
7FED
330
533C
100
AcDbEntity
  8
実形
 62
     0
370
    18
100
AcDbLine
 10
1358.771034014624
 20
1625.843636991219
 30
0.0
 11
1358.771034014624
 21
1796.07967287009
 31
0.0
  0
LINE
  5
7FEE
330
533C
100
AcDbEntity
  8
実形
 62
     0
370
    18
100
AcDbLine
 10
868.7710340146239
 20
1796.07967287009
 30
0.0
 11
1348.771034014624
 21
1796.07967287009
 31
0.0
  0
INSERT
  5
7FEF
330
533C
100
AcDbEntity
  8
実形
 62
     0
370
    18
100
AcDbBlockReference
  2
_Dot
 10
858.7710340146243
 20
1796.07967287009
 30
0.0
 41
10.0
 42
10.0
 43
10.0
 50
180.0
  0
INSERT
  5
7FF0
330
533C
100
AcDbEntity
  8
実形
 62
     0
370
    18
100
AcDbBlockReference
  2
_Dot
 10
1358.771034014624
 20
1796.07967287009
 30
0.0
 41
10.0
 42
10.0
 43
10.0
  0
MTEXT
  5
7FF1
330
533C
100
AcDbEntity
  8
実形
 62
     0
100
AcDbMText
 10
1108.771034014624
 20
1817.67967287009
 30
0.0
 40
30.0
 41
0.0
 71
     5
 72
     1
  1
250
 73
     1
 44
1.0
1001
ACAD
1000
MTEXTBEGIN
1070
    73
1070
     1
1070
    44
1040
1.0
1070
    74
1070
     0
1000
MTEXTEND
  0
POINT
  5
7FF2
330
533C
100
AcDbEntity
  8
Defpoints
 62
     0
100
AcDbPoint
 10
858.7710340146243
 20
1560.84363699122
 30
0.0
  0
POINT
  5
7FF3
330
533C
100
AcDbEntity
  8
Defpoints
 62
     0
100
AcDbPoint
 10
1358.771034014624
 20
1560.84363699122
 30
0.0
  0
POINT
  5
7FF4
330
533C
100
AcDbEntity
  8
Defpoints
 62
     0
100
AcDbPoint
 10
1358.771034014624
 20
1796.07967287009
 30
0.0
  0
ENDBLK
  5
5347
330
533C
100
AcDbEntity
  8
0
 62
     1
100
AcDbBlockEnd
  0
BLOCK
  5
5380
330
5376
100
AcDbEntity
  8
0
 62
     1
100
AcDbBlockBegin
  2
*D17
 70
     1
 10
0.0
 20
0.0
 30
0.0
  3
*D17
  1

  0
LINE
  5
8073
330
5376
100
AcDbEntity
  8
実形
 62
     0
370
    18
100
AcDbLine
 10
752.9424506651629
 20
1565.759223040568
 30
0.0
 11
722.2887743570717
 21
1565.759223040568
 31
0.0
  0
LINE
  5
8074
330
5376
100
AcDbEntity
  8
実形
 62
     0
370
    18
100
AcDbLine
 10
753.3502058085249
 20
1525.759223040568
 30
0.0
 11
722.2887743570717
 21
1525.759223040568
 31
0.0
  0
LINE
  5
8075
330
5376
100
AcDbEntity
  8
実形
 62
     0
370
    18
100
AcDbLine
 10
722.2887743570717
 20
1555.759223040568
 30
0.0
 11
722.2887743570717
 21
1535.759223040568
 31
0.0
  0
MTEXT
  5
8076
330
5376
100
AcDbEntity
  8
実形
 62
     0
100
AcDbMText
 10
693.5458459594245
 20
1535.71997590773
 30
0.0
 40
30.0
 41
0.0
 71
     5
 72
     1
  1
20
 11
0.0000000000000001
 21
1.0
 31
0.0
 73
     1
 44
1.0
1001
ACAD
1000
MTEXTBEGIN
1070
    73
1070
     1
1070
    44
1040
1.0
1070
    74
1070
     0
1000
MTEXTEND
  0
INSERT
  5
8077
330
5376
100
AcDbEntity
  8
実形
 62
     0
370
    18
100
AcDbBlockReference
  2
_Dot
 10
722.2887743570717
 20
1565.759223040568
 30
0.0
 41
10.0
 42
10.0
 43
10.0
 50
90.0
  0
INSERT
  5
8078
330
5376
100
AcDbEntity
  8
実形
 62
     0
370
    18
100
AcDbBlockReference
  2
_Dot
 10
722.2887743570717
 20
1525.759223040568
 30
0.0
 41
10.0
 42
10.0
 43
10.0
 50
270.0
  0
POINT
  5
8079
330
5376
100
AcDbEntity
  8
Defpoints
 62
     0
100
AcDbPoint
 10
817.942450665163
 20
1565.759223040568
 30
0.0
  0
POINT
  5
807A
330
5376
100
AcDbEntity
  8
Defpoints
 62
     0
100
AcDbPoint
 10
818.3502058085251
 20
1525.759223040568
 30
0.0
  0
POINT
  5
807B
330
5376
100
AcDbEntity
  8
Defpoints
 62
     0
100
AcDbPoint
 10
722.2887743570717
 20
1525.759223040568
 30
0.0
  0
ENDBLK
  5
5381
330
5376
100
AcDbEntity
  8
0
 62
     1
100
AcDbBlockEnd
  0
BLOCK
  5
539F
330
5395
100
AcDbEntity
  8
0
 62
     1
100
AcDbBlockBegin
  2
*D18
 70
     1
 10
0.0
 20
0.0
 30
0.0
  3
*D18
  1

  0
LINE
  5
806A
330
5395
100
AcDbEntity
  8
実形
 62
     0
370
    18
100
AcDbLine
 10
753.3502058085249
 20
1525.759223040568
 30
0.0
 11
722.2887743570717
 21
1525.759223040568
 31
0.0
  0
LINE
  5
806B
330
5395
100
AcDbEntity
  8
実形
 62
     0
370
    18
100
AcDbLine
 10
753.3502058085249
 20
1481.759223040568
 30
0.0
 11
722.2887743570717
 21
1481.759223040568
 31
0.0
  0
LINE
  5
806C
330
5395
100
AcDbEntity
  8
実形
 62
     0
370
    18
100
AcDbLine
 10
722.2887743570717
 20
1515.759223040568
 30
0.0
 11
722.2887743570717
 21
1491.759223040568
 31
0.0
  0
MTEXT
  5
806D
330
5395
100
AcDbEntity
  8
実形
 62
     0
100
AcDbMText
 10
783.9032377873027
 20
1507.01860564224
 30
0.0
 40
30.0
 41
0.0
 71
     5
 72
     1
  1
22
 11
0.0000000000000001
 21
1.0
 31
0.0
 73
     1
 44
1.0
1001
ACAD
1000
MTEXTBEGIN
1070
    73
1070
     1
1070
    44
1040
1.0
1070
    74
1070
     0
1000
MTEXTEND
  0
INSERT
  5
806E
330
5395
100
AcDbEntity
  8
実形
 62
     0
370
    18
100
AcDbBlockReference
  2
_Dot
 10
722.2887743570717
 20
1525.759223040568
 30
0.0
 41
10.0
 42
10.0
 43
10.0
 50
90.0
  0
INSERT
  5
806F
330
5395
100
AcDbEntity
  8
実形
 62
     0
370
    18
100
AcDbBlockReference
  2
_Dot
 10
722.2887743570717
 20
1481.759223040568
 30
0.0
 41
10.0
 42
10.0
 43
10.0
 50
270.0
  0
POINT
  5
8070
330
5395
100
AcDbEntity
  8
Defpoints
 62
     0
100
AcDbPoint
 10
818.3502058085251
 20
1525.759223040568
 30
0.0
  0
POINT
  5
8071
330
5395
100
AcDbEntity
  8
Defpoints
 62
     0
100
AcDbPoint
 10
818.3502058085251
 20
1481.759223040568
 30
0.0
  0
POINT
  5
8072
330
5395
100
AcDbEntity
  8
Defpoints
 62
     0
100
AcDbPoint
 10
722.2887743570717
 20
1481.759223040568
 30
0.0
  0
ENDBLK
  5
53A0
330
5395
100
AcDbEntity
  8
0
 62
     1
100
AcDbBlockEnd
  0
BLOCK
  5
53C7
330
53BD
100
AcDbEntity
  8
0
 62
     1
100
AcDbBlockBegin
  2
*D19
 70
     1
 10
0.0
 20
0.0
 30
0.0
  3
*D19
  1

  0
LINE
  5
7F92
330
53BD
100
AcDbEntity
  8
実形
 62
     0
370
    18
100
AcDbLine
 10
752.0228547387342
 20
1565.759223040568
 30
0.0
 11
555.3174060899785
 21
1565.759223040568
 31
0.0
  0
LINE
  5
7F93
330
53BD
100
AcDbEntity
  8
実形
 62
     0
370
    18
100
AcDbLine
 10
720.6471586503377
 20
757.759223040568
 30
0.0
 11
555.3174060899781
 21
757.759223040568
 31
0.0
  0
LINE
  5
7F94
330
53BD
100
AcDbEntity
  8
実形
 62
     0
370
    18
100
AcDbLine
 10
555.3174060899785
 20
1555.759223040568
 30
0.0
 11
555.3174060899781
 21
767.759223040568
 31
0.0
  0
INSERT
  5
7F95
330
53BD
100
AcDbEntity
  8
実形
 62
     0
370
    18
100
AcDbBlockReference
  2
_Dot
 10
555.3174060899785
 20
1565.759223040568
 30
0.0
 41
10.0
 42
10.0
 43
10.0
 50
90.0
  0
INSERT
  5
7F96
330
53BD
100
AcDbEntity
  8
実形
 62
     0
370
    18
100
AcDbBlockReference
  2
_Dot
 10
555.3174060899781
 20
757.759223040568
 30
0.0
 41
10.0
 42
10.0
 43
10.0
 50
270.0
  0
MTEXT
  5
7F97
330
53BD
100
AcDbEntity
  8
実形
 62
     0
100
AcDbMText
 10
533.7174060899782
 20
1161.759223040568
 30
0.0
 40
30.0
 41
0.0
 71
     5
 72
     1
  1
404
 11
0.0000000000000001
 21
1.0
 31
0.0
 73
     1
 44
1.0
1001
ACAD
1000
MTEXTBEGIN
1070
    73
1070
     1
1070
    44
1040
1.0
1070
    74
1070
     0
1000
MTEXTEND
  0
POINT
  5
7F98
330
53BD
100
AcDbEntity
  8
Defpoints
 62
     0
100
AcDbPoint
 10
817.0228547387342
 20
1565.759223040568
 30
0.0
  0
POINT
  5
7F99
330
53BD
100
AcDbEntity
  8
Defpoints
 62
     0
100
AcDbPoint
 10
785.6471586503374
 20
757.7592230405679
 30
0.0
  0
POINT
  5
7F9A
330
53BD
100
AcDbEntity
  8
Defpoints
 62
     0
100
AcDbPoint
 10
555.3174060899781
 20
757.759223040568
 30
0.0
  0
ENDBLK
  5
53C8
330
53BD
100
AcDbEntity
  8
0
 62
     1
100
AcDbBlockEnd
  0
BLOCK
  5
53E6
330
53DC
100
AcDbEntity
  8
0
 62
     1
100
AcDbBlockBegin
  2
*D20
 70
     1
 10
0.0
 20
0.0
 30
0.0
  3
*D20
  1

  0
LINE
  5
807C
330
53DC
100
AcDbEntity
  8
実形
 62
     0
370
    18
100
AcDbLine
 10
753.3502058085249
 20
1481.759223040568
 30
0.0
 11
722.2887743570717
 21
1481.759223040568
 31
0.0
  0
LINE
  5
807D
330
53DC
100
AcDbEntity
  8
実形
 62
     0
370
    18
100
AcDbLine
 10
753.3502058085249
 20
1401.759223040568
 30
0.0
 11
722.2887743570717
 21
1401.759223040568
 31
0.0
  0
LINE
  5
807E
330
53DC
100
AcDbEntity
  8
実形
 62
     0
370
    18
100
AcDbLine
 10
722.2887743570717
 20
1471.759223040568
 30
0.0
 11
722.2887743570717
 21
1411.759223040568
 31
0.0
  0
INSERT
  5
807F
330
53DC
100
AcDbEntity
  8
実形
 62
     0
370
    18
100
AcDbBlockReference
  2
_Dot
 10
722.2887743570717
 20
1481.759223040568
 30
0.0
 41
10.0
 42
10.0
 43
10.0
 50
90.0
  0
INSERT
  5
8080
330
53DC
100
AcDbEntity
  8
実形
 62
     0
370
    18
100
AcDbBlockReference
  2
_Dot
 10
722.2887743570717
 20
1401.759223040568
 30
0.0
 41
10.0
 42
10.0
 43
10.0
 50
270.0
  0
MTEXT
  5
8081
330
53DC
100
AcDbEntity
  8
実形
 62
     0
100
AcDbMText
 10
700.6887743570715
 20
1441.759223040568
 30
0.0
 40
30.0
 41
0.0
 71
     5
 72
     1
  1
40
 11
0.0000000000000001
 21
1.0
 31
0.0
 73
     1
 44
1.0
1001
ACAD
1000
MTEXTBEGIN
1070
    73
1070
     1
1070
    44
1040
1.0
1070
    74
1070
     0
1000
MTEXTEND
  0
POINT
  5
8082
330
53DC
100
AcDbEntity
  8
Defpoints
 62
     0
100
AcDbPoint
 10
818.3502058085251
 20
1481.759223040568
 30
0.0
  0
POINT
  5
8083
330
53DC
100
AcDbEntity
  8
Defpoints
 62
     0
100
AcDbPoint
 10
818.3502058085251
 20
1401.759223040568
 30
0.0
  0
POINT
  5
8084
330
53DC
100
AcDbEntity
  8
Defpoints
 62
     0
100
AcDbPoint
 10
722.2887743570717
 20
1401.759223040568
 30
0.0
  0
ENDBLK
  5
53E7
330
53DC
100
AcDbEntity
  8
0
 62
     1
100
AcDbBlockEnd
  0
BLOCK
  5
5442
330
5438
100
AcDbEntity
  8
0
 62
     1
100
AcDbBlockBegin
  2
*D21
 70
     1
 10
0.0
 20
0.0
 30
0.0
  3
*D21
  1

  0
LINE
  5
8046
330
5438
100
AcDbEntity
  8
実形
 62
     0
370
    18
100
AcDbLine
 10
753.3502058085249
 20
1401.759223040568
 30
0.0
 11
722.2887743570717
 21
1401.759223040568
 31
0.0
  0
LINE
  5
8047
330
5438
100
AcDbEntity
  8
実形
 62
     0
370
    18
100
AcDbLine
 10
753.3502058085249
 20
1321.759223040568
 30
0.0
 11
722.2887743570717
 21
1321.759223040568
 31
0.0
  0
LINE
  5
8048
330
5438
100
AcDbEntity
  8
実形
 62
     0
370
    18
100
AcDbLine
 10
722.2887743570717
 20
1391.759223040567
 30
0.0
 11
722.2887743570717
 21
1331.759223040568
 31
0.0
  0
INSERT
  5
8049
330
5438
100
AcDbEntity
  8
実形
 62
     0
370
    18
100
AcDbBlockReference
  2
_Dot
 10
722.2887743570717
 20
1401.759223040568
 30
0.0
 41
10.0
 42
10.0
 43
10.0
 50
90.0
  0
INSERT
  5
804A
330
5438
100
AcDbEntity
  8
実形
 62
     0
370
    18
100
AcDbBlockReference
  2
_Dot
 10
722.2887743570717
 20
1321.759223040568
 30
0.0
 41
10.0
 42
10.0
 43
10.0
 50
270.0
  0
MTEXT
  5
804B
330
5438
100
AcDbEntity
  8
実形
 62
     0
100
AcDbMText
 10
700.6887743570715
 20
1361.759223040568
 30
0.0
 40
30.0
 41
0.0
 71
     5
 72
     1
  1
40
 11
0.0000000000000001
 21
1.0
 31
0.0
 73
     1
 44
1.0
1001
ACAD
1000
MTEXTBEGIN
1070
    73
1070
     1
1070
    44
1040
1.0
1070
    74
1070
     0
1000
MTEXTEND
  0
POINT
  5
804C
330
5438
100
AcDbEntity
  8
Defpoints
 62
     0
100
AcDbPoint
 10
818.3502058085251
 20
1401.759223040568
 30
0.0
  0
POINT
  5
804D
330
5438
100
AcDbEntity
  8
Defpoints
 62
     0
100
AcDbPoint
 10
818.3502058085251
 20
1321.759223040568
 30
0.0
  0
POINT
  5
804E
330
5438
100
AcDbEntity
  8
Defpoints
 62
     0
100
AcDbPoint
 10
722.2887743570717
 20
1321.759223040568
 30
0.0
  0
ENDBLK
  5
5443
330
5438
100
AcDbEntity
  8
0
 62
     1
100
AcDbBlockEnd
  0
BLOCK
  5
546B
330
5461
100
AcDbEntity
  8
0
 62
     1
100
AcDbBlockBegin
  2
*D22
 70
     1
 10
0.0
 20
0.0
 30
0.0
  3
*D22
  1

  0
LINE
  5
8061
330
5461
100
AcDbEntity
  8
実形
 62
     0
370
    18
100
AcDbLine
 10
753.350205808525
 20
1321.759223040568
 30
0.0
 11
722.288774357072
 21
1321.759223040568
 31
0.0
  0
LINE
  5
8062
330
5461
100
AcDbEntity
  8
実形
 62
     0
370
    18
100
AcDbLine
 10
753.350205808525
 20
1241.759223040568
 30
0.0
 11
722.2887743570717
 21
1241.759223040568
 31
0.0
  0
LINE
  5
8063
330
5461
100
AcDbEntity
  8
実形
 62
     0
370
    18
100
AcDbLine
 10
722.288774357072
 20
1311.759223040568
 30
0.0
 11
722.2887743570717
 21
1251.759223040568
 31
0.0
  0
INSERT
  5
8064
330
5461
100
AcDbEntity
  8
実形
 62
     0
370
    18
100
AcDbBlockReference
  2
_Dot
 10
722.288774357072
 20
1321.759223040568
 30
0.0
 41
10.0
 42
10.0
 43
10.0
 50
90.0
  0
INSERT
  5
8065
330
5461
100
AcDbEntity
  8
実形
 62
     0
370
    18
100
AcDbBlockReference
  2
_Dot
 10
722.2887743570717
 20
1241.759223040568
 30
0.0
 41
10.0
 42
10.0
 43
10.0
 50
270.0
  0
MTEXT
  5
8066
330
5461
100
AcDbEntity
  8
実形
 62
     0
100
AcDbMText
 10
700.6887743570716
 20
1281.759223040568
 30
0.0
 40
30.0
 41
0.0
 71
     5
 72
     1
  1
40
 11
0.0000000000000001
 21
1.0
 31
0.0
 73
     1
 44
1.0
1001
ACAD
1000
MTEXTBEGIN
1070
    73
1070
     1
1070
    44
1040
1.0
1070
    74
1070
     0
1000
MTEXTEND
  0
POINT
  5
8067
330
5461
100
AcDbEntity
  8
Defpoints
 62
     0
100
AcDbPoint
 10
818.3502058085251
 20
1321.759223040568
 30
0.0
  0
POINT
  5
8068
330
5461
100
AcDbEntity
  8
Defpoints
 62
     0
100
AcDbPoint
 10
818.3502058085251
 20
1241.759223040568
 30
0.0
  0
POINT
  5
8069
330
5461
100
AcDbEntity
  8
Defpoints
 62
     0
100
AcDbPoint
 10
722.2887743570717
 20
1241.759223040568
 30
0.0
  0
ENDBLK
  5
546C
330
5461
100
AcDbEntity
  8
0
 62
     1
100
AcDbBlockEnd
  0
BLOCK
  5
5494
330
548A
100
AcDbEntity
  8
0
 62
     1
100
AcDbBlockBegin
  2
*D23
 70
     1
 10
0.0
 20
0.0
 30
0.0
  3
*D23
  1

  0
LINE
  5
8058
330
548A
100
AcDbEntity
  8
実形
 62
     0
370
    18
100
AcDbLine
 10
753.3502058085249
 20
1241.759223040568
 30
0.0
 11
722.2887743570717
 21
1241.759223040568
 31
0.0
  0
LINE
  5
8059
330
548A
100
AcDbEntity
  8
実形
 62
     0
370
    18
100
AcDbLine
 10
753.3502058085249
 20
1161.759223040568
 30
0.0
 11
722.2887743570717
 21
1161.759223040568
 31
0.0
  0
LINE
  5
805A
330
548A
100
AcDbEntity
  8
実形
 62
     0
370
    18
100
AcDbLine
 10
722.2887743570717
 20
1231.759223040568
 30
0.0
 11
722.2887743570717
 21
1171.759223040568
 31
0.0
  0
INSERT
  5
805B
330
548A
100
AcDbEntity
  8
実形
 62
     0
370
    18
100
AcDbBlockReference
  2
_Dot
 10
722.2887743570717
 20
1241.759223040568
 30
0.0
 41
10.0
 42
10.0
 43
10.0
 50
90.0
  0
INSERT
  5
805C
330
548A
100
AcDbEntity
  8
実形
 62
     0
370
    18
100
AcDbBlockReference
  2
_Dot
 10
722.2887743570717
 20
1161.759223040568
 30
0.0
 41
10.0
 42
10.0
 43
10.0
 50
270.0
  0
MTEXT
  5
805D
330
548A
100
AcDbEntity
  8
実形
 62
     0
100
AcDbMText
 10
700.6887743570716
 20
1201.759223040568
 30
0.0
 40
30.0
 41
0.0
 71
     5
 72
     1
  1
40
 11
0.0000000000000001
 21
1.0
 31
0.0
 73
     1
 44
1.0
1001
ACAD
1000
MTEXTBEGIN
1070
    73
1070
     1
1070
    44
1040
1.0
1070
    74
1070
     0
1000
MTEXTEND
  0
POINT
  5
805E
330
548A
100
AcDbEntity
  8
Defpoints
 62
     0
100
AcDbPoint
 10
818.3502058085251
 20
1241.759223040568
 30
0.0
  0
POINT
  5
805F
330
548A
100
AcDbEntity
  8
Defpoints
 62
     0
100
AcDbPoint
 10
818.3502058085251
 20
1161.759223040568
 30
0.0
  0
POINT
  5
8060
330
548A
100
AcDbEntity
  8
Defpoints
 62
     0
100
AcDbPoint
 10
722.2887743570717
 20
1161.759223040568
 30
0.0
  0
ENDBLK
  5
5495
330
548A
100
AcDbEntity
  8
0
 62
     1
100
AcDbBlockEnd
  0
BLOCK
  5
54BD
330
54B3
100
AcDbEntity
  8
0
 62
     1
100
AcDbBlockBegin
  2
*D24
 70
     1
 10
0.0
 20
0.0
 30
0.0
  3
*D24
  1

  0
LINE
  5
804F
330
54B3
100
AcDbEntity
  8
実形
 62
     0
370
    18
100
AcDbLine
 10
753.3502058085249
 20
1161.759223040568
 30
0.0
 11
722.2887743570717
 21
1161.759223040568
 31
0.0
  0
LINE
  5
8050
330
54B3
100
AcDbEntity
  8
実形
 62
     0
370
    18
100
AcDbLine
 10
753.3502058085249
 20
1081.759223040568
 30
0.0
 11
722.2887743570717
 21
1081.759223040568
 31
0.0
  0
LINE
  5
8051
330
54B3
100
AcDbEntity
  8
実形
 62
     0
370
    18
100
AcDbLine
 10
722.2887743570717
 20
1151.759223040568
 30
0.0
 11
722.2887743570717
 21
1091.759223040568
 31
0.0
  0
INSERT
  5
8052
330
54B3
100
AcDbEntity
  8
実形
 62
     0
370
    18
100
AcDbBlockReference
  2
_Dot
 10
722.2887743570717
 20
1161.759223040568
 30
0.0
 41
10.0
 42
10.0
 43
10.0
 50
90.0
  0
INSERT
  5
8053
330
54B3
100
AcDbEntity
  8
実形
 62
     0
370
    18
100
AcDbBlockReference
  2
_Dot
 10
722.2887743570717
 20
1081.759223040568
 30
0.0
 41
10.0
 42
10.0
 43
10.0
 50
270.0
  0
MTEXT
  5
8054
330
54B3
100
AcDbEntity
  8
実形
 62
     0
100
AcDbMText
 10
700.6887743570716
 20
1121.759223040568
 30
0.0
 40
30.0
 41
0.0
 71
     5
 72
     1
  1
40
 11
0.0000000000000001
 21
1.0
 31
0.0
 73
     1
 44
1.0
1001
ACAD
1000
MTEXTBEGIN
1070
    73
1070
     1
1070
    44
1040
1.0
1070
    74
1070
     0
1000
MTEXTEND
  0
POINT
  5
8055
330
54B3
100
AcDbEntity
  8
Defpoints
 62
     0
100
AcDbPoint
 10
818.3502058085251
 20
1161.759223040568
 30
0.0
  0
POINT
  5
8056
330
54B3
100
AcDbEntity
  8
Defpoints
 62
     0
100
AcDbPoint
 10
818.3502058085251
 20
1081.759223040568
 30
0.0
  0
POINT
  5
8057
330
54B3
100
AcDbEntity
  8
Defpoints
 62
     0
100
AcDbPoint
 10
722.2887743570717
 20
1081.759223040568
 30
0.0
  0
ENDBLK
  5
54BE
330
54B3
100
AcDbEntity
  8
0
 62
     1
100
AcDbBlockEnd
  0
BLOCK
  5
54E6
330
54DC
100
AcDbEntity
  8
0
 62
     1
100
AcDbBlockBegin
  2
*D25
 70
     1
 10
0.0
 20
0.0
 30
0.0
  3
*D25
  1

  0
LINE
  5
7FA4
330
54DC
100
AcDbEntity
  8
実形
 62
     0
370
    18
100
AcDbLine
 10
753.3502058085249
 20
1081.759223040568
 30
0.0
 11
722.2887743570717
 21
1081.759223040568
 31
0.0
  0
LINE
  5
7FA5
330
54DC
100
AcDbEntity
  8
実形
 62
     0
370
    18
100
AcDbLine
 10
753.3502058085249
 20
1001.759223040568
 30
0.0
 11
722.2887743570717
 21
1001.759223040568
 31
0.0
  0
LINE
  5
7FA6
330
54DC
100
AcDbEntity
  8
実形
 62
     0
370
    18
100
AcDbLine
 10
722.2887743570717
 20
1071.759223040568
 30
0.0
 11
722.2887743570717
 21
1011.759223040568
 31
0.0
  0
INSERT
  5
7FA7
330
54DC
100
AcDbEntity
  8
実形
 62
     0
370
    18
100
AcDbBlockReference
  2
_Dot
 10
722.2887743570717
 20
1081.759223040568
 30
0.0
 41
10.0
 42
10.0
 43
10.0
 50
90.0
  0
INSERT
  5
7FA8
330
54DC
100
AcDbEntity
  8
実形
 62
     0
370
    18
100
AcDbBlockReference
  2
_Dot
 10
722.2887743570717
 20
1001.759223040568
 30
0.0
 41
10.0
 42
10.0
 43
10.0
 50
270.0
  0
MTEXT
  5
7FA9
330
54DC
100
AcDbEntity
  8
実形
 62
     0
100
AcDbMText
 10
700.6887743570716
 20
1041.759223040568
 30
0.0
 40
30.0
 41
0.0
 71
     5
 72
     1
  1
40
 11
0.0000000000000001
 21
1.0
 31
0.0
 73
     1
 44
1.0
1001
ACAD
1000
MTEXTBEGIN
1070
    73
1070
     1
1070
    44
1040
1.0
1070
    74
1070
     0
1000
MTEXTEND
  0
POINT
  5
7FAA
330
54DC
100
AcDbEntity
  8
Defpoints
 62
     0
100
AcDbPoint
 10
818.3502058085251
 20
1081.759223040568
 30
0.0
  0
POINT
  5
7FAB
330
54DC
100
AcDbEntity
  8
Defpoints
 62
     0
100
AcDbPoint
 10
818.3502058085251
 20
1001.759223040568
 30
0.0
  0
POINT
  5
7FAC
330
54DC
100
AcDbEntity
  8
Defpoints
 62
     0
100
AcDbPoint
 10
722.2887743570717
 20
1001.759223040568
 30
0.0
  0
ENDBLK
  5
54E7
330
54DC
100
AcDbEntity
  8
0
 62
     1
100
AcDbBlockEnd
  0
BLOCK
  5
550F
330
5505
100
AcDbEntity
  8
0
 62
     1
100
AcDbBlockBegin
  2
*D26
 70
     1
 10
0.0
 20
0.0
 30
0.0
  3
*D26
  1

  0
LINE
  5
7FE3
330
5505
100
AcDbEntity
  8
実形
 62
     0
370
    18
100
AcDbLine
 10
753.3502058085249
 20
1001.759223040568
 30
0.0
 11
722.2887743570717
 21
1001.759223040568
 31
0.0
  0
LINE
  5
7FE4
330
5505
100
AcDbEntity
  8
実形
 62
     0
370
    18
100
AcDbLine
 10
753.3502058085249
 20
921.7592230405683
 30
0.0
 11
722.2887743570717
 21
921.7592230405683
 31
0.0
  0
LINE
  5
7FE5
330
5505
100
AcDbEntity
  8
実形
 62
     0
370
    18
100
AcDbLine
 10
722.2887743570717
 20
991.7592230405679
 30
0.0
 11
722.2887743570717
 21
931.7592230405683
 31
0.0
  0
INSERT
  5
7FE6
330
5505
100
AcDbEntity
  8
実形
 62
     0
370
    18
100
AcDbBlockReference
  2
_Dot
 10
722.2887743570717
 20
1001.759223040568
 30
0.0
 41
10.0
 42
10.0
 43
10.0
 50
90.0
  0
INSERT
  5
7FE7
330
5505
100
AcDbEntity
  8
実形
 62
     0
370
    18
100
AcDbBlockReference
  2
_Dot
 10
722.2887743570717
 20
921.7592230405683
 30
0.0
 41
10.0
 42
10.0
 43
10.0
 50
270.0
  0
MTEXT
  5
7FE8
330
5505
100
AcDbEntity
  8
実形
 62
     0
100
AcDbMText
 10
700.6887743570716
 20
961.7592230405682
 30
0.0
 40
30.0
 41
0.0
 71
     5
 72
     1
  1
40
 11
0.0000000000000001
 21
1.0
 31
0.0
 73
     1
 44
1.0
1001
ACAD
1000
MTEXTBEGIN
1070
    73
1070
     1
1070
    44
1040
1.0
1070
    74
1070
     0
1000
MTEXTEND
  0
POINT
  5
7FE9
330
5505
100
AcDbEntity
  8
Defpoints
 62
     0
100
AcDbPoint
 10
818.3502058085251
 20
1001.759223040568
 30
0.0
  0
POINT
  5
7FEA
330
5505
100
AcDbEntity
  8
Defpoints
 62
     0
100
AcDbPoint
 10
818.3502058085251
 20
921.759223040568
 30
0.0
  0
POINT
  5
7FEB
330
5505
100
AcDbEntity
  8
Defpoints
 62
     0
100
AcDbPoint
 10
722.2887743570717
 20
921.7592230405683
 30
0.0
  0
ENDBLK
  5
5510
330
5505
100
AcDbEntity
  8
0
 62
     1
100
AcDbBlockEnd
  0
BLOCK
  5
5538
330
552E
100
AcDbEntity
  8
0
 62
     1
100
AcDbBlockBegin
  2
*D27
 70
     1
 10
0.0
 20
0.0
 30
0.0
  3
*D27
  1

  0
LINE
  5
7FDA
330
552E
100
AcDbEntity
  8
実形
 62
     0
370
    18
100
AcDbLine
 10
753.3502058085249
 20
921.759223040568
 30
0.0
 11
722.2887743570717
 21
921.759223040568
 31
0.0
  0
LINE
  5
7FDB
330
552E
100
AcDbEntity
  8
実形
 62
     0
370
    18
100
AcDbLine
 10
753.3502058085249
 20
841.7592230405681
 30
0.0
 11
722.2887743570717
 21
841.7592230405681
 31
0.0
  0
LINE
  5
7FDC
330
552E
100
AcDbEntity
  8
実形
 62
     0
370
    18
100
AcDbLine
 10
722.2887743570717
 20
911.7592230405682
 30
0.0
 11
722.2887743570717
 21
851.7592230405679
 31
0.0
  0
INSERT
  5
7FDD
330
552E
100
AcDbEntity
  8
実形
 62
     0
370
    18
100
AcDbBlockReference
  2
_Dot
 10
722.2887743570717
 20
921.759223040568
 30
0.0
 41
10.0
 42
10.0
 43
10.0
 50
90.0
  0
INSERT
  5
7FDE
330
552E
100
AcDbEntity
  8
実形
 62
     0
370
    18
100
AcDbBlockReference
  2
_Dot
 10
722.2887743570717
 20
841.7592230405681
 30
0.0
 41
10.0
 42
10.0
 43
10.0
 50
270.0
  0
MTEXT
  5
7FDF
330
552E
100
AcDbEntity
  8
実形
 62
     0
100
AcDbMText
 10
700.6887743570715
 20
881.7592230405683
 30
0.0
 40
30.0
 41
0.0
 71
     5
 72
     1
  1
40
 11
0.0000000000000001
 21
1.0
 31
0.0
 73
     1
 44
1.0
1001
ACAD
1000
MTEXTBEGIN
1070
    73
1070
     1
1070
    44
1040
1.0
1070
    74
1070
     0
1000
MTEXTEND
  0
POINT
  5
7FE0
330
552E
100
AcDbEntity
  8
Defpoints
 62
     0
100
AcDbPoint
 10
818.3502058085251
 20
921.759223040568
 30
0.0
  0
POINT
  5
7FE1
330
552E
100
AcDbEntity
  8
Defpoints
 62
     0
100
AcDbPoint
 10
818.3502058085251
 20
841.7592230405681
 30
0.0
  0
POINT
  5
7FE2
330
552E
100
AcDbEntity
  8
Defpoints
 62
     0
100
AcDbPoint
 10
722.2887743570717
 20
841.7592230405681
 30
0.0
  0
ENDBLK
  5
5539
330
552E
100
AcDbEntity
  8
0
 62
     1
100
AcDbBlockEnd
  0
BLOCK
  5
5562
330
5558
100
AcDbEntity
  8
0
 62
     1
100
AcDbBlockBegin
  2
*D28
 70
     1
 10
0.0
 20
0.0
 30
0.0
  3
*D28
  1

  0
LINE
  5
7FD1
330
5558
100
AcDbEntity
  8
実形
 62
     0
370
    18
100
AcDbLine
 10
753.3502058085253
 20
841.7592230405681
 30
0.0
 11
722.288774357072
 21
841.7592230405681
 31
0.0
  0
LINE
  5
7FD2
330
5558
100
AcDbEntity
  8
実形
 62
     0
370
    18
100
AcDbLine
 10
753.3502058085253
 20
797.759223040568
 30
0.0
 11
722.288774357072
 21
797.759223040568
 31
0.0
  0
LINE
  5
7FD3
330
5558
100
AcDbEntity
  8
実形
 62
     0
370
    18
100
AcDbLine
 10
722.288774357072
 20
831.7592230405679
 30
0.0
 11
722.288774357072
 21
807.7592230405681
 31
0.0
  0
MTEXT
  5
7FD4
330
5558
100
AcDbEntity
  8
実形
 62
     0
100
AcDbMText
 10
781.1468038694856
 20
815.3031289296523
 30
0.0
 40
30.0
 41
0.0
 71
     5
 72
     1
  1
22
 11
0.0000000000000001
 21
1.0
 31
0.0
 73
     1
 44
1.0
1001
ACAD
1000
MTEXTBEGIN
1070
    73
1070
     1
1070
    44
1040
1.0
1070
    74
1070
     0
1000
MTEXTEND
  0
INSERT
  5
7FD5
330
5558
100
AcDbEntity
  8
実形
 62
     0
370
    18
100
AcDbBlockReference
  2
_Dot
 10
722.288774357072
 20
841.7592230405681
 30
0.0
 41
10.0
 42
10.0
 43
10.0
 50
90.0
  0
INSERT
  5
7FD6
330
5558
100
AcDbEntity
  8
実形
 62
     0
370
    18
100
AcDbBlockReference
  2
_Dot
 10
722.288774357072
 20
797.759223040568
 30
0.0
 41
10.0
 42
10.0
 43
10.0
 50
270.0
  0
POINT
  5
7FD7
330
5558
100
AcDbEntity
  8
Defpoints
 62
     0
100
AcDbPoint
 10
818.3502058085252
 20
841.7592230405679
 30
0.0
  0
POINT
  5
7FD8
330
5558
100
AcDbEntity
  8
Defpoints
 62
     0
100
AcDbPoint
 10
818.3502058085252
 20
797.7592230405678
 30
0.0
  0
POINT
  5
7FD9
330
5558
100
AcDbEntity
  8
Defpoints
 62
     0
100
AcDbPoint
 10
722.288774357072
 20
797.759223040568
 30
0.0
  0
ENDBLK
  5
5563
330
5558
100
AcDbEntity
  8
0
 62
     1
100
AcDbBlockEnd
  0
BLOCK
  5
558B
330
5581
100
AcDbEntity
  8
0
 62
     1
100
AcDbBlockBegin
  2
*D29
 70
     1
 10
0.0
 20
0.0
 30
0.0
  3
*D29
  1

  0
LINE
  5
7FC8
330
5581
100
AcDbEntity
  8
実形
 62
     0
370
    18
100
AcDbLine
 10
753.3502058085249
 20
797.759223040568
 30
0.0
 11
722.2887743570721
 21
797.759223040568
 31
0.0
  0
LINE
  5
7FC9
330
5581
100
AcDbEntity
  8
実形
 62
     0
370
    18
100
AcDbLine
 10
752.8885014543484
 20
757.759223040568
 30
0.0
 11
722.288774357072
 21
757.759223040568
 31
0.0
  0
LINE
  5
7FCA
330
5581
100
AcDbEntity
  8
実形
 62
     0
370
    18
100
AcDbLine
 10
722.2887743570721
 20
787.7592230405682
 30
0.0
 11
722.288774357072
 21
767.759223040568
 31
0.0
  0
MTEXT
  5
7FCB
330
5581
100
AcDbEntity
  8
実形
 62
     0
100
AcDbMText
 10
691.619571820267
 20
788.2843518961126
 30
0.0
 40
30.0
 41
0.0
 71
     5
 72
     1
  1
20
 11
0.0000000000000001
 21
1.0
 31
0.0
 73
     1
 44
1.0
1001
ACAD
1000
MTEXTBEGIN
1070
    73
1070
     1
1070
    44
1040
1.0
1070
    74
1070
     0
1000
MTEXTEND
  0
INSERT
  5
7FCC
330
5581
100
AcDbEntity
  8
実形
 62
     0
370
    18
100
AcDbBlockReference
  2
_Dot
 10
722.2887743570721
 20
797.759223040568
 30
0.0
 41
10.0
 42
10.0
 43
10.0
 50
90.0
  0
INSERT
  5
7FCD
330
5581
100
AcDbEntity
  8
実形
 62
     0
370
    18
100
AcDbBlockReference
  2
_Dot
 10
722.288774357072
 20
757.759223040568
 30
0.0
 41
10.0
 42
10.0
 43
10.0
 50
270.0
  0
POINT
  5
7FCE
330
5581
100
AcDbEntity
  8
Defpoints
 62
     0
100
AcDbPoint
 10
818.3502058085251
 20
797.7592230405678
 30
0.0
  0
POINT
  5
7FCF
330
5581
100
AcDbEntity
  8
Defpoints
 62
     0
100
AcDbPoint
 10
817.8885014543483
 20
757.7592230405679
 30
0.0
  0
POINT
  5
7FD0
330
5581
100
AcDbEntity
  8
Defpoints
 62
     0
100
AcDbPoint
 10
722.288774357072
 20
757.759223040568
 30
0.0
  0
ENDBLK
  5
558C
330
5581
100
AcDbEntity
  8
0
 62
     1
100
AcDbBlockEnd
  0
BLOCK
  5
583E
330
5834
100
AcDbEntity
  8
0
 62
     1
100
AcDbBlockBegin
  2
*D30
 70
     1
 10
0.0
 20
0.0
 30
0.0
  3
*D30
  1

  0
LINE
  5
803D
330
5834
100
AcDbEntity
  8
実形
 62
     0
370
    18
100
AcDbLine
 10
898.7710340146241
 20
1706.370102653695
 30
0.0
 11
898.7710340146241
 21
1733.584460819133
 31
0.0
  0
LINE
  5
803E
330
5834
100
AcDbEntity
  8
実形
 62
     0
370
    18
100
AcDbLine
 10
1318.771034014624
 20
1706.370102653695
 30
0.0
 11
1318.771034014624
 21
1733.584460819133
 31
0.0
  0
LINE
  5
803F
330
5834
100
AcDbEntity
  8
実形
 62
     0
370
    18
100
AcDbLine
 10
908.7710340146239
 20
1733.584460819133
 30
0.0
 11
1308.771034014624
 21
1733.584460819133
 31
0.0
  0
INSERT
  5
8040
330
5834
100
AcDbEntity
  8
実形
 62
     0
370
    18
100
AcDbBlockReference
  2
_Dot
 10
898.7710340146241
 20
1733.584460819133
 30
0.0
 41
10.0
 42
10.0
 43
10.0
 50
180.0
  0
INSERT
  5
8041
330
5834
100
AcDbEntity
  8
実形
 62
     0
370
    18
100
AcDbBlockReference
  2
_Dot
 10
1318.771034014624
 20
1733.584460819133
 30
0.0
 41
10.0
 42
10.0
 43
10.0
  0
MTEXT
  5
8042
330
5834
100
AcDbEntity
  8
実形
 62
     0
100
AcDbMText
 10
1108.771034014624
 20
1755.184460819133
 30
0.0
 40
30.0
 41
0.0
 71
     5
 72
     1
  1
210
 73
     1
 44
1.0
1001
ACAD
1000
MTEXTBEGIN
1070
    73
1070
     1
1070
    44
1040
1.0
1070
    74
1070
     0
1000
MTEXTEND
  0
POINT
  5
8043
330
5834
100
AcDbEntity
  8
Defpoints
 62
     0
100
AcDbPoint
 10
898.7710340146241
 20
1641.370102653695
 30
0.0
  0
POINT
  5
8044
330
5834
100
AcDbEntity
  8
Defpoints
 62
     0
100
AcDbPoint
 10
1318.771034014624
 20
1641.370102653695
 30
0.0
  0
POINT
  5
8045
330
5834
100
AcDbEntity
  8
Defpoints
 62
     0
100
AcDbPoint
 10
1318.771034014624
 20
1733.584460819133
 30
0.0
  0
ENDBLK
  5
583F
330
5834
100
AcDbEntity
  8
0
 62
     1
100
AcDbBlockEnd
  0
BLOCK
  5
58F1
330
58E7
100
AcDbEntity
  8
0
 62
     1
100
AcDbBlockBegin
  2
*D31
 70
     1
 10
0.0
 20
0.0
 30
0.0
  3
*D31
  1

  0
LINE
  5
7F9B
330
58E7
100
AcDbEntity
  8
実形
 62
     0
370
    18
100
AcDbLine
 10
657.2887743570718
 20
1525.759223040568
 30
0.0
 11
619.6233729757953
 21
1525.759223040568
 31
0.0
  0
LINE
  5
7F9C
330
58E7
100
AcDbEntity
  8
実形
 62
     0
370
    18
100
AcDbLine
 10
644.9660216467328
 20
797.759223040568
 30
0.0
 11
619.6233729757949
 21
797.759223040568
 31
0.0
  0
LINE
  5
7F9D
330
58E7
100
AcDbEntity
  8
実形
 62
     0
370
    18
100
AcDbLine
 10
619.6233729757953
 20
1515.759223040568
 30
0.0
 11
619.6233729757949
 21
807.7592230405681
 31
0.0
  0
INSERT
  5
7F9E
330
58E7
100
AcDbEntity
  8
実形
 62
     0
370
    18
100
AcDbBlockReference
  2
_Dot
 10
619.6233729757953
 20
1525.759223040568
 30
0.0
 41
10.0
 42
10.0
 43
10.0
 50
90.0
  0
INSERT
  5
7F9F
330
58E7
100
AcDbEntity
  8
実形
 62
     0
370
    18
100
AcDbBlockReference
  2
_Dot
 10
619.6233729757949
 20
797.759223040568
 30
0.0
 41
10.0
 42
10.0
 43
10.0
 50
270.0
  0
MTEXT
  5
7FA0
330
58E7
100
AcDbEntity
  8
実形
 62
     0
100
AcDbMText
 10
598.0233729757949
 20
1161.759223040568
 30
0.0
 40
30.0
 41
0.0
 71
     5
 72
     1
  1
364
 11
0.0000000000000001
 21
1.0
 31
0.0
 73
     1
 44
1.0
1001
ACAD
1000
MTEXTBEGIN
1070
    73
1070
     1
1070
    44
1040
1.0
1070
    74
1070
     0
1000
MTEXTEND
  0
POINT
  5
7FA1
330
58E7
100
AcDbEntity
  8
Defpoints
 62
     0
100
AcDbPoint
 10
722.2887743570717
 20
1525.759223040568
 30
0.0
  0
POINT
  5
7FA2
330
58E7
100
AcDbEntity
  8
Defpoints
 62
     0
100
AcDbPoint
 10
709.9660216467327
 20
797.759223040568
 30
0.0
  0
POINT
  5
7FA3
330
58E7
100
AcDbEntity
  8
Defpoints
 62
     0
100
AcDbPoint
 10
619.6233729757949
 20
797.759223040568
 30
0.0
  0
ENDBLK
  5
58F2
330
58E7
100
AcDbEntity
  8
0
 62
     1
100
AcDbBlockEnd
  0
BLOCK
  5
5A7C
330
5A72
100
AcDbEntity
  8
0
 62
     1
100
AcDbBlockBegin
  2
*D32
 70
     1
 10
0.0
 20
0.0
 30
0.0
  3
*D32
  1

  0
LINE
  5
79B4
330
5A72
100
AcDbEntity
  8
実形
 62
     0
370
    18
100
AcDbLine
 10
428.0956210721633
 20
542.6687844154765
 30
0.0
 11
428.0956210721633
 21
585.4946261266432
 31
0.0
  0
LINE
  5
79B5
330
5A72
100
AcDbEntity
  8
実形
 62
     0
370
    18
100
AcDbLine
 10
628.0956210721632
 20
542.6687844154765
 30
0.0
 11
628.0956210721632
 21
585.4946261266432
 31
0.0
  0
LINE
  5
79B6
330
5A72
100
AcDbEntity
  8
実形
 62
     0
370
    18
100
AcDbLine
 10
438.0956210721633
 20
585.4946261266432
 30
0.0
 11
618.0956210721632
 21
585.4946261266432
 31
0.0
  0
INSERT
  5
79B7
330
5A72
100
AcDbEntity
  8
実形
 62
     0
370
    18
100
AcDbBlockReference
  2
_Dot
 10
428.0956210721633
 20
585.4946261266432
 30
0.0
 41
10.0
 42
10.0
 43
10.0
 50
180.0
  0
INSERT
  5
79B8
330
5A72
100
AcDbEntity
  8
実形
 62
     0
370
    18
100
AcDbBlockReference
  2
_Dot
 10
628.0956210721632
 20
585.4946261266432
 30
0.0
 41
10.0
 42
10.0
 43
10.0
  0
MTEXT
  5
79B9
330
5A72
100
AcDbEntity
  8
実形
 62
     0
100
AcDbMText
 10
528.0956210721633
 20
607.0946261266432
 30
0.0
 40
30.0
 41
0.0
 71
     5
 72
     1
  1
20
 73
     1
 44
1.0
1001
ACAD
1000
MTEXTBEGIN
1070
    73
1070
     1
1070
    44
1040
1.0
1070
    74
1070
     0
1000
MTEXTEND
  0
POINT
  5
79BA
330
5A72
100
AcDbEntity
  8
Defpoints
 62
     0
100
AcDbPoint
 10
428.0956210721633
 20
477.6687844154767
 30
0.0
  0
POINT
  5
79BB
330
5A72
100
AcDbEntity
  8
Defpoints
 62
     0
100
AcDbPoint
 10
628.0956210721632
 20
477.6687844154767
 30
0.0
  0
POINT
  5
79BC
330
5A72
100
AcDbEntity
  8
Defpoints
 62
     0
100
AcDbPoint
 10
628.0956210721632
 20
585.4946261266432
 30
0.0
  0
ENDBLK
  5
5A7D
330
5A72
100
AcDbEntity
  8
0
 62
     1
100
AcDbBlockEnd
  0
BLOCK
  5
5AA7
330
5A9B
100
AcDbEntity
  8
0
 62
     1
100
AcDbBlockBegin
  2
*D33
 70
     1
 10
0.0
 20
0.0
 30
0.0
  3
*D33
  1

  0
LINE
  5
79DA
330
5A9B
100
AcDbEntity
  8
実形
 62
     0
370
    18
100
AcDbLine
 10
388.7882238024922
 20
477.6687844154767
 30
0.0
 11
352.2427827729607
 21
477.6687844154767
 31
0.0
  0
LINE
  5
79DB
330
5A9B
100
AcDbEntity
  8
実形
 62
     0
370
    18
100
AcDbLine
 10
388.7882238024922
 20
465.6687844154767
 30
0.0
 11
352.2427827729607
 21
465.6687844154767
 31
0.0
  0
LINE
  5
79DC
330
5A9B
100
AcDbEntity
  8
実形
 62
     0
370
    18
100
AcDbLine
 10
352.2427827729607
 20
487.6687844154766
 30
0.0
 11
352.2427827729607
 21
497.6687844154766
 31
0.0
  0
LINE
  5
79DD
330
5A9B
100
AcDbEntity
  8
実形
 62
     0
370
    18
100
AcDbLine
 10
352.2427827729607
 20
455.6687844154766
 30
0.0
 11
352.2427827729607
 21
445.6687844154767
 31
0.0
  0
MTEXT
  5
79DE
330
5A9B
100
AcDbEntity
  8
実形
 62
     0
100
AcDbMText
 10
327.3427827729606
 20
514.5501612175811
 30
0.0
 40
30.0
 41
0.0
 71
     5
 72
     1
  1
1.2
 11
0.0000000000000001
 21
1.0
 31
0.0
 73
     1
 44
1.0
1001
ACAD
1000
MTEXTBEGIN
1070
    73
1070
     1
1070
    44
1040
1.0
1070
    74
1070
     0
1000
MTEXTEND
  0
LINE
  5
79DF
330
5A9B
100
AcDbEntity
  8
実形
 62
     0
370
    18
100
AcDbLine
 10
352.2427827729607
 20
477.6687844154767
 30
0.0
 11
352.2427827729607
 21
465.6687844154767
 31
0.0
  0
INSERT
  5
79E0
330
5A9B
100
AcDbEntity
  8
実形
 62
     0
370
    18
100
AcDbBlockReference
  2
_Dot
 10
352.2427827729607
 20
477.6687844154767
 30
0.0
 41
10.0
 42
10.0
 43
10.0
 50
270.0
  0
INSERT
  5
79E1
330
5A9B
100
AcDbEntity
  8
実形
 62
     0
370
    18
100
AcDbBlockReference
  2
_Dot
 10
352.2427827729607
 20
465.6687844154767
 30
0.0
 41
10.0
 42
10.0
 43
10.0
 50
90.0
  0
POINT
  5
79E2
330
5A9B
100
AcDbEntity
  8
Defpoints
 62
     0
100
AcDbPoint
 10
453.7882238024922
 20
477.6687844154767
 30
0.0
  0
POINT
  5
79E3
330
5A9B
100
AcDbEntity
  8
Defpoints
 62
     0
100
AcDbPoint
 10
453.7882238024922
 20
465.6687844154767
 30
0.0
  0
POINT
  5
79E4
330
5A9B
100
AcDbEntity
  8
Defpoints
 62
     0
100
AcDbPoint
 10
352.2427827729607
 20
465.6687844154767
 30
0.0
  0
ENDBLK
  5
5AA8
330
5A9B
100
AcDbEntity
  8
0
 62
     1
100
AcDbBlockEnd
  0
BLOCK
  5
5AD8
330
5ACE
100
AcDbEntity
  8
0
 62
     3
100
AcDbBlockBegin
  2
*D34
 70
     1
 10
0.0
 20
0.0
 30
0.0
  3
*D34
  1

  0
LINE
  5
79C6
330
5ACE
100
AcDbEntity
  8
実形
 62
     0
370
    18
100
AcDbLine
 10
353.0956210721634
 20
465.6687844154767
 30
0.0
 11
352.2427827729608
 21
465.6687844154767
 31
0.0
  0
LINE
  5
79C7
330
5ACE
100
AcDbEntity
  8
実形
 62
     0
370
    18
100
AcDbLine
 10
353.0956210721634
 20
339.6687844154769
 30
0.0
 11
352.2427827729607
 21
339.6687844154769
 31
0.0
  0
LINE
  5
79C8
330
5ACE
100
AcDbEntity
  8
実形
 62
     0
370
    18
100
AcDbLine
 10
352.2427827729608
 20
455.6687844154766
 30
0.0
 11
352.2427827729607
 21
349.6687844154769
 31
0.0
  0
INSERT
  5
79C9
330
5ACE
100
AcDbEntity
  8
実形
 62
     0
370
    18
100
AcDbBlockReference
  2
_Dot
 10
352.2427827729608
 20
465.6687844154767
 30
0.0
 41
10.0
 42
10.0
 43
10.0
 50
90.0
  0
INSERT
  5
79CA
330
5ACE
100
AcDbEntity
  8
実形
 62
     0
370
    18
100
AcDbBlockReference
  2
_Dot
 10
352.2427827729607
 20
339.6687844154769
 30
0.0
 41
10.0
 42
10.0
 43
10.0
 50
270.0
  0
MTEXT
  5
79CB
330
5ACE
100
AcDbEntity
  8
実形
 62
     0
100
AcDbMText
 10
330.6427827729606
 20
402.6687844154769
 30
0.0
 40
30.0
 41
0.0
 71
     5
 72
     1
  1
12.6
 11
0.0000000000000001
 21
1.0
 31
0.0
 73
     1
 44
1.0
1001
ACAD
1000
MTEXTBEGIN
1070
    73
1070
     1
1070
    44
1040
1.0
1070
    74
1070
     0
1000
MTEXTEND
  0
POINT
  5
79CC
330
5ACE
100
AcDbEntity
  8
Defpoints
 62
     0
100
AcDbPoint
 10
418.0956210721633
 20
465.6687844154767
 30
0.0
  0
POINT
  5
79CD
330
5ACE
100
AcDbEntity
  8
Defpoints
 62
     0
100
AcDbPoint
 10
418.0956210721633
 20
339.6687844154769
 30
0.0
  0
POINT
  5
79CE
330
5ACE
100
AcDbEntity
  8
Defpoints
 62
     0
100
AcDbPoint
 10
352.2427827729607
 20
339.6687844154769
 30
0.0
  0
ENDBLK
  5
5AD9
330
5ACE
100
AcDbEntity
  8
0
 62
     3
100
AcDbBlockEnd
  0
BLOCK
  5
5AE6
330
5ADC
100
AcDbEntity
  8
0
 62
     3
100
AcDbBlockBegin
  2
*D35
 70
     1
 10
0.0
 20
0.0
 30
0.0
  3
*D35
  1

  0
LINE
  5
79BD
330
5ADC
100
AcDbEntity
  8
実形
 62
     0
370
    18
100
AcDbLine
 10
353.0956210721634
 20
477.6687844154767
 30
0.0
 11
252.0109291795234
 21
477.6687844154767
 31
0.0
  0
LINE
  5
79BE
330
5ADC
100
AcDbEntity
  8
実形
 62
     0
370
    18
100
AcDbLine
 10
353.0956210721634
 20
327.6687844154768
 30
0.0
 11
252.0109291795234
 21
327.6687844154768
 31
0.0
  0
LINE
  5
79BF
330
5ADC
100
AcDbEntity
  8
実形
 62
     0
370
    18
100
AcDbLine
 10
252.0109291795234
 20
467.6687844154766
 30
0.0
 11
252.0109291795234
 21
337.6687844154767
 31
0.0
  0
INSERT
  5
79C0
330
5ADC
100
AcDbEntity
  8
実形
 62
     0
370
    18
100
AcDbBlockReference
  2
_Dot
 10
252.0109291795234
 20
477.6687844154767
 30
0.0
 41
10.0
 42
10.0
 43
10.0
 50
90.0
  0
INSERT
  5
79C1
330
5ADC
100
AcDbEntity
  8
実形
 62
     0
370
    18
100
AcDbBlockReference
  2
_Dot
 10
252.0109291795234
 20
327.6687844154768
 30
0.0
 41
10.0
 42
10.0
 43
10.0
 50
270.0
  0
MTEXT
  5
79C2
330
5ADC
100
AcDbEntity
  8
実形
 62
     0
100
AcDbMText
 10
230.4109291795233
 20
402.6687844154769
 30
0.0
 40
30.0
 41
0.0
 71
     5
 72
     1
  1
15
 11
0.0000000000000001
 21
1.0
 31
0.0
 73
     1
 44
1.0
1001
ACAD
1000
MTEXTBEGIN
1070
    73
1070
     1
1070
    44
1040
1.0
1070
    74
1070
     0
1000
MTEXTEND
  0
POINT
  5
79C3
330
5ADC
100
AcDbEntity
  8
Defpoints
 62
     0
100
AcDbPoint
 10
418.0956210721633
 20
477.6687844154767
 30
0.0
  0
POINT
  5
79C4
330
5ADC
100
AcDbEntity
  8
Defpoints
 62
     0
100
AcDbPoint
 10
418.0956210721633
 20
327.6687844154767
 30
0.0
  0
POINT
  5
79C5
330
5ADC
100
AcDbEntity
  8
Defpoints
 62
     0
100
AcDbPoint
 10
252.0109291795234
 20
327.6687844154768
 30
0.0
  0
ENDBLK
  5
5AE7
330
5ADC
100
AcDbEntity
  8
0
 62
     3
100
AcDbBlockEnd
  0
BLOCK
  5
5B1D
330
5B11
100
AcDbEntity
  8
0
 62
     3
100
AcDbBlockBegin
  2
*D36
 70
     1
 10
0.0
 20
0.0
 30
0.0
  3
*D36
  1

  0
LINE
  5
79CF
330
5B11
100
AcDbEntity
  8
実形
 62
     0
370
    18
100
AcDbLine
 10
387.4901129309638
 20
339.6687844154768
 30
0.0
 11
352.2427827729607
 21
339.6687844154769
 31
0.0
  0
LINE
  5
79D0
330
5B11
100
AcDbEntity
  8
実形
 62
     0
370
    18
100
AcDbLine
 10
389.1453763708141
 20
327.6687844154767
 30
0.0
 11
352.2427827729607
 21
327.6687844154768
 31
0.0
  0
LINE
  5
79D1
330
5B11
100
AcDbEntity
  8
実形
 62
     0
370
    18
100
AcDbLine
 10
352.2427827729607
 20
349.6687844154769
 30
0.0
 11
352.2427827729607
 21
359.6687844154768
 31
0.0
  0
LINE
  5
79D2
330
5B11
100
AcDbEntity
  8
実形
 62
     0
370
    18
100
AcDbLine
 10
352.2427827729607
 20
317.6687844154768
 30
0.0
 11
352.2427827729607
 21
307.6687844154768
 31
0.0
  0
MTEXT
  5
79D3
330
5B11
100
AcDbEntity
  8
実形
 62
     0
100
AcDbMText
 10
327.3427827729606
 20
291.0148636725971
 30
0.0
 40
30.0
 41
0.0
 71
     5
 72
     1
  1
1.2
 11
0.0000000000000001
 21
1.0
 31
0.0
 73
     1
 44
1.0
1001
ACAD
1000
MTEXTBEGIN
1070
    73
1070
     1
1070
    44
1040
1.0
1070
    74
1070
     0
1000
MTEXTEND
  0
LINE
  5
79D4
330
5B11
100
AcDbEntity
  8
実形
 62
     0
370
    18
100
AcDbLine
 10
352.2427827729607
 20
339.6687844154769
 30
0.0
 11
352.2427827729607
 21
327.6687844154768
 31
0.0
  0
INSERT
  5
79D5
330
5B11
100
AcDbEntity
  8
実形
 62
     0
370
    18
100
AcDbBlockReference
  2
_Dot
 10
352.2427827729607
 20
339.6687844154769
 30
0.0
 41
10.0
 42
10.0
 43
10.0
 50
270.0
  0
INSERT
  5
79D6
330
5B11
100
AcDbEntity
  8
実形
 62
     0
370
    18
100
AcDbBlockReference
  2
_Dot
 10
352.2427827729607
 20
327.6687844154768
 30
0.0
 41
10.0
 42
10.0
 43
10.0
 50
90.0
  0
POINT
  5
79D7
330
5B11
100
AcDbEntity
  8
Defpoints
 62
     0
100
AcDbPoint
 10
452.4901129309636
 20
339.6687844154768
 30
0.0
  0
POINT
  5
79D8
330
5B11
100
AcDbEntity
  8
Defpoints
 62
     0
100
AcDbPoint
 10
454.145376370814
 20
327.6687844154767
 30
0.0
  0
POINT
  5
79D9
330
5B11
100
AcDbEntity
  8
Defpoints
 62
     0
100
AcDbPoint
 10
352.2427827729607
 20
327.6687844154768
 30
0.0
  0
ENDBLK
  5
5B1E
330
5B11
100
AcDbEntity
  8
0
 62
     3
100
AcDbBlockEnd
  0
BLOCK
  5
5F35
330
5F2B
100
AcDbEntity
  8
0
 62
     3
100
AcDbBlockBegin
  2
*D37
 70
     1
 10
0.0
 20
0.0
 30
0.0
  3
*D37
  1

  0
LINE
  5
79FA
330
5F2B
100
AcDbEntity
  8
実形
 62
     0
370
    18
100
AcDbLine
 10
628.0956210721634
 20
288.4040832798037
 30
0.0
 11
628.0956210721634
 21
249.7575464485617
 31
0.0
  0
LINE
  5
79FB
330
5F2B
100
AcDbEntity
  8
実形
 62
     0
370
    18
100
AcDbLine
 10
878.0956210721631
 20
286.9745793713796
 30
0.0
 11
878.0956210721631
 21
249.7575464485617
 31
0.0
  0
LINE
  5
79FC
330
5F2B
100
AcDbEntity
  8
実形
 62
     0
370
    18
100
AcDbLine
 10
638.0956210721635
 20
249.7575464485617
 30
0.0
 11
868.0956210721634
 21
249.7575464485617
 31
0.0
  0
INSERT
  5
79FD
330
5F2B
100
AcDbEntity
  8
実形
 62
     0
370
    18
100
AcDbBlockReference
  2
_Dot
 10
628.0956210721634
 20
249.7575464485617
 30
0.0
 41
10.0
 42
10.0
 43
10.0
 50
180.0
  0
INSERT
  5
79FE
330
5F2B
100
AcDbEntity
  8
実形
 62
     0
370
    18
100
AcDbBlockReference
  2
_Dot
 10
878.0956210721631
 20
249.7575464485617
 30
0.0
 41
10.0
 42
10.0
 43
10.0
  0
MTEXT
  5
79FF
330
5F2B
100
AcDbEntity
  8
実形
 62
     0
100
AcDbMText
 10
753.0956210721633
 20
271.3575464485617
 30
0.0
 40
30.0
 41
0.0
 71
     5
 72
     1
  1
25
 73
     1
 44
1.0
1001
ACAD
1000
MTEXTBEGIN
1070
    73
1070
     1
1070
    44
1040
1.0
1070
    74
1070
     0
1000
MTEXTEND
  0
POINT
  5
7A00
330
5F2B
100
AcDbEntity
  8
Defpoints
 62
     0
100
AcDbPoint
 10
628.0956210721634
 20
353.4040832798037
 30
0.0
  0
POINT
  5
7A01
330
5F2B
100
AcDbEntity
  8
Defpoints
 62
     0
100
AcDbPoint
 10
878.0956210721631
 20
351.9745793713795
 30
0.0
  0
POINT
  5
7A02
330
5F2B
100
AcDbEntity
  8
Defpoints
 62
     0
100
AcDbPoint
 10
878.0956210721631
 20
249.7575464485617
 30
0.0
  0
ENDBLK
  5
5F36
330
5F2B
100
AcDbEntity
  8
0
 62
     3
100
AcDbBlockEnd
  0
BLOCK
  5
5F55
330
5F4B
100
AcDbEntity
  8
0
 62
     3
100
AcDbBlockBegin
  2
*D38
 70
     1
 10
0.0
 20
0.0
 30
0.0
  3
*D38
  1

  0
LINE
  5
77FE
330
5F4B
100
AcDbEntity
  8
実形
 62
     0
370
    18
100
AcDbLine
 10
838.0956210721635
 20
372.1251455729616
 30
0.0
 11
838.0956210721635
 21
400.8833310174122
 31
0.0
  0
LINE
  5
77FF
330
5F4B
100
AcDbEntity
  8
実形
 62
     0
370
    18
100
AcDbLine
 10
918.0956210721634
 20
372.1251455729616
 30
0.0
 11
918.0956210721634
 21
400.8833310174122
 31
0.0
  0
LINE
  5
7800
330
5F4B
100
AcDbEntity
  8
実形
 62
     0
370
    18
100
AcDbLine
 10
848.0956210721632
 20
400.8833310174122
 30
0.0
 11
908.0956210721634
 21
400.8833310174122
 31
0.0
  0
INSERT
  5
7801
330
5F4B
100
AcDbEntity
  8
実形
 62
     0
370
    18
100
AcDbBlockReference
  2
_Dot
 10
838.0956210721635
 20
400.8833310174122
 30
0.0
 41
10.0
 42
10.0
 43
10.0
 50
180.0
  0
INSERT
  5
7802
330
5F4B
100
AcDbEntity
  8
実形
 62
     0
370
    18
100
AcDbBlockReference
  2
_Dot
 10
918.0956210721634
 20
400.8833310174122
 30
0.0
 41
10.0
 42
10.0
 43
10.0
  0
MTEXT
  5
7803
330
5F4B
100
AcDbEntity
  8
実形
 62
     0
100
AcDbMText
 10
878.0956210721631
 20
422.4833310174124
 30
0.0
 40
30.0
 41
0.0
 71
     5
 72
     1
  1
8
 73
     1
 44
1.0
1001
ACAD
1000
MTEXTBEGIN
1070
    73
1070
     1
1070
    44
1040
1.0
1070
    74
1070
     0
1000
MTEXTEND
  0
POINT
  5
7804
330
5F4B
100
AcDbEntity
  8
Defpoints
 62
     0
100
AcDbPoint
 10
838.0956210721635
 20
307.1251455729617
 30
0.0
  0
POINT
  5
7805
330
5F4B
100
AcDbEntity
  8
Defpoints
 62
     0
100
AcDbPoint
 10
918.0956210721634
 20
307.1251455729616
 30
0.0
  0
POINT
  5
7806
330
5F4B
100
AcDbEntity
  8
Defpoints
 62
     0
100
AcDbPoint
 10
918.0956210721634
 20
400.8833310174122
 30
0.0
  0
ENDBLK
  5
5F56
330
5F4B
100
AcDbEntity
  8
0
 62
     3
100
AcDbBlockEnd
  0
BLOCK
  5
5FA3
330
5F99
100
AcDbEntity
  8
0
 62
     3
100
AcDbBlockBegin
  2
*D39
 70
     1
 10
0.0
 20
0.0
 30
0.0
  3
*D39
  1

  0
LINE
  5
7807
330
5F99
100
AcDbEntity
  8
実形
 62
     0
370
    18
100
AcDbLine
 10
1238.095621072163
 20
372.1251455729616
 30
0.0
 11
1238.095621072163
 21
400.8833310174122
 31
0.0
  0
LINE
  5
7808
330
5F99
100
AcDbEntity
  8
実形
 62
     0
370
    18
100
AcDbLine
 10
1318.095621072163
 20
372.1251455729616
 30
0.0
 11
1318.095621072163
 21
400.8833310174122
 31
0.0
  0
LINE
  5
7809
330
5F99
100
AcDbEntity
  8
実形
 62
     0
370
    18
100
AcDbLine
 10
1248.095621072163
 20
400.8833310174122
 30
0.0
 11
1308.095621072163
 21
400.8833310174122
 31
0.0
  0
INSERT
  5
780A
330
5F99
100
AcDbEntity
  8
実形
 62
     0
370
    18
100
AcDbBlockReference
  2
_Dot
 10
1238.095621072163
 20
400.8833310174122
 30
0.0
 41
10.0
 42
10.0
 43
10.0
 50
180.0
  0
INSERT
  5
780B
330
5F99
100
AcDbEntity
  8
実形
 62
     0
370
    18
100
AcDbBlockReference
  2
_Dot
 10
1318.095621072163
 20
400.8833310174122
 30
0.0
 41
10.0
 42
10.0
 43
10.0
  0
MTEXT
  5
780C
330
5F99
100
AcDbEntity
  8
実形
 62
     0
100
AcDbMText
 10
1278.095621072163
 20
422.4833310174124
 30
0.0
 40
30.0
 41
0.0
 71
     5
 72
     1
  1
8
 73
     1
 44
1.0
1001
ACAD
1000
MTEXTBEGIN
1070
    73
1070
     1
1070
    44
1040
1.0
1070
    74
1070
     0
1000
MTEXTEND
  0
POINT
  5
780D
330
5F99
100
AcDbEntity
  8
Defpoints
 62
     0
100
AcDbPoint
 10
1238.095621072163
 20
307.1251455729617
 30
0.0
  0
POINT
  5
780E
330
5F99
100
AcDbEntity
  8
Defpoints
 62
     0
100
AcDbPoint
 10
1318.095621072163
 20
307.1251455729616
 30
0.0
  0
POINT
  5
780F
330
5F99
100
AcDbEntity
  8
Defpoints
 62
     0
100
AcDbPoint
 10
1318.095621072163
 20
400.8833310174122
 30
0.0
  0
ENDBLK
  5
5FA4
330
5F99
100
AcDbEntity
  8
0
 62
     3
100
AcDbBlockEnd
  0
BLOCK
  5
5FBA
330
5FB0
100
AcDbEntity
  8
0
 62
     3
100
AcDbBlockBegin
  2
*D40
 70
     1
 10
0.0
 20
0.0
 30
0.0
  3
*D40
  1

  0
LINE
  5
7810
330
5FB0
100
AcDbEntity
  8
実形
 62
     0
370
    18
100
AcDbLine
 10
878.0956210721631
 20
262.6687844154771
 30
0.0
 11
878.0956210721631
 21
249.7575464485617
 31
0.0
  0
LINE
  5
7811
330
5FB0
100
AcDbEntity
  8
実形
 62
     0
370
    18
100
AcDbLine
 10
1278.095621072163
 20
286.737049604204
 30
0.0
 11
1278.095621072163
 21
249.7575464485617
 31
0.0
  0
LINE
  5
7812
330
5FB0
100
AcDbEntity
  8
実形
 62
     0
370
    18
100
AcDbLine
 10
888.0956210721633
 20
249.7575464485617
 30
0.0
 11
1268.095621072163
 21
249.7575464485617
 31
0.0
  0
INSERT
  5
7813
330
5FB0
100
AcDbEntity
  8
実形
 62
     0
370
    18
100
AcDbBlockReference
  2
_Dot
 10
878.0956210721631
 20
249.7575464485617
 30
0.0
 41
10.0
 42
10.0
 43
10.0
 50
180.0
  0
INSERT
  5
7814
330
5FB0
100
AcDbEntity
  8
実形
 62
     0
370
    18
100
AcDbBlockReference
  2
_Dot
 10
1278.095621072163
 20
249.7575464485617
 30
0.0
 41
10.0
 42
10.0
 43
10.0
  0
MTEXT
  5
7815
330
5FB0
100
AcDbEntity
  8
実形
 62
     0
100
AcDbMText
 10
1078.095621072163
 20
271.3575464485617
 30
0.0
 40
30.0
 41
0.0
 71
     5
 72
     1
  1
40
 73
     1
 44
1.0
1001
ACAD
1000
MTEXTBEGIN
1070
    73
1070
     1
1070
    44
1040
1.0
1070
    74
1070
     0
1000
MTEXTEND
  0
POINT
  5
7816
330
5FB0
100
AcDbEntity
  8
Defpoints
 62
     0
100
AcDbPoint
 10
878.0956210721631
 20
327.6687844154772
 30
0.0
  0
POINT
  5
7817
330
5FB0
100
AcDbEntity
  8
Defpoints
 62
     0
100
AcDbPoint
 10
1278.095621072163
 20
351.737049604204
 30
0.0
  0
POINT
  5
7818
330
5FB0
100
AcDbEntity
  8
Defpoints
 62
     0
100
AcDbPoint
 10
1278.095621072163
 20
249.7575464485617
 30
0.0
  0
ENDBLK
  5
5FBB
330
5FB0
100
AcDbEntity
  8
0
 62
     3
100
AcDbBlockEnd
  0
BLOCK
  5
5FED
330
5FE1
100
AcDbEntity
  8
0
 62
     3
100
AcDbBlockBegin
  2
*D41
 70
     1
 10
0.0
 20
0.0
 30
0.0
  3
*D41
  1

  0
LINE
  5
79EE
330
5FE1
100
AcDbEntity
  8
実形
 62
     0
370
    18
100
AcDbLine
 10
616.0956210721638
 20
287.9180329716728
 30
0.0
 11
616.0956210721638
 21
249.7575464485617
 31
0.0
  0
LINE
  5
79EF
330
5FE1
100
AcDbEntity
  8
実形
 62
     0
370
    18
100
AcDbLine
 10
628.0956210721634
 20
280.6687844154768
 30
0.0
 11
628.0956210721634
 21
249.7575464485617
 31
0.0
  0
LINE
  5
79F0
330
5FE1
100
AcDbEntity
  8
実形
 62
     0
370
    18
100
AcDbLine
 10
606.0956210721638
 20
249.7575464485617
 30
0.0
 11
596.0956210721637
 21
249.7575464485617
 31
0.0
  0
LINE
  5
79F1
330
5FE1
100
AcDbEntity
  8
実形
 62
     0
370
    18
100
AcDbLine
 10
638.0956210721635
 20
249.7575464485617
 30
0.0
 11
648.0956210721634
 21
249.7575464485617
 31
0.0
  0
MTEXT
  5
79F2
330
5FE1
100
AcDbEntity
  8
実形
 62
     0
100
AcDbMText
 10
574.1003742185166
 20
274.325613877294
 30
0.0
 40
30.0
 41
0.0
 71
     5
 72
     1
  1
1.2
 73
     1
 44
1.0
1001
ACAD
1000
MTEXTBEGIN
1070
    73
1070
     1
1070
    44
1040
1.0
1070
    74
1070
     0
1000
MTEXTEND
  0
LINE
  5
79F3
330
5FE1
100
AcDbEntity
  8
実形
 62
     0
370
    18
100
AcDbLine
 10
616.0956210721638
 20
249.7575464485617
 30
0.0
 11
628.0956210721634
 21
249.7575464485617
 31
0.0
  0
INSERT
  5
79F4
330
5FE1
100
AcDbEntity
  8
実形
 62
     0
370
    18
100
AcDbBlockReference
  2
_Dot
 10
616.0956210721638
 20
249.7575464485617
 30
0.0
 41
10.0
 42
10.0
 43
10.0
  0
INSERT
  5
79F5
330
5FE1
100
AcDbEntity
  8
実形
 62
     0
370
    18
100
AcDbBlockReference
  2
_Dot
 10
628.0956210721634
 20
249.7575464485617
 30
0.0
 41
10.0
 42
10.0
 43
10.0
 50
180.0
  0
POINT
  5
79F6
330
5FE1
100
AcDbEntity
  8
Defpoints
 62
     0
100
AcDbPoint
 10
616.0956210721638
 20
352.9180329716728
 30
0.0
  0
POINT
  5
79F7
330
5FE1
100
AcDbEntity
  8
Defpoints
 62
     0
100
AcDbPoint
 10
628.0956210721634
 20
345.6687844154769
 30
0.0
  0
POINT
  5
79F8
330
5FE1
100
AcDbEntity
  8
Defpoints
 62
     0
100
AcDbPoint
 10
628.0956210721634
 20
249.7575464485617
 30
0.0
  0
ENDBLK
  5
5FEE
330
5FE1
100
AcDbEntity
  8
0
 62
     3
100
AcDbBlockEnd
  0
BLOCK
  5
6371
330
6367
100
AcDbEntity
  8
0
 62
     3
100
AcDbBlockBegin
  2
*D42
 70
     1
 10
0.0
 20
0.0
 30
0.0
  3
*D42
  1

  0
LINE
  5
82A4
330
6367
100
AcDbEntity
  8
実形
 62
     0
370
    18
100
AcDbLine
 10
1769.88465810737
 20
504.8161778742369
 30
0.0
 11
1769.88465810737
 21
547.6420195854033
 31
0.0
  0
LINE
  5
82A5
330
6367
100
AcDbEntity
  8
実形
 62
     0
370
    18
100
AcDbLine
 10
1969.88465810737
 20
504.8161778742369
 30
0.0
 11
1969.88465810737
 21
547.6420195854033
 31
0.0
  0
LINE
  5
82A6
330
6367
100
AcDbEntity
  8
実形
 62
     0
370
    18
100
AcDbLine
 10
1779.88465810737
 20
547.6420195854033
 30
0.0
 11
1959.88465810737
 21
547.6420195854033
 31
0.0
  0
INSERT
  5
82A7
330
6367
100
AcDbEntity
  8
実形
 62
     0
370
    18
100
AcDbBlockReference
  2
_Dot
 10
1769.88465810737
 20
547.6420195854033
 30
0.0
 41
10.0
 42
10.0
 43
10.0
 50
180.0
  0
INSERT
  5
82A8
330
6367
100
AcDbEntity
  8
実形
 62
     0
370
    18
100
AcDbBlockReference
  2
_Dot
 10
1969.88465810737
 20
547.6420195854033
 30
0.0
 41
10.0
 42
10.0
 43
10.0
  0
MTEXT
  5
82A9
330
6367
100
AcDbEntity
  8
実形
 62
     0
100
AcDbMText
 10
1869.88465810737
 20
569.2420195854033
 30
0.0
 40
30.0
 41
0.0
 71
     5
 72
     1
  1
20
 73
     1
 44
1.0
1001
ACAD
1000
MTEXTBEGIN
1070
    73
1070
     1
1070
    44
1040
1.0
1070
    74
1070
     0
1000
MTEXTEND
  0
POINT
  5
82AA
330
6367
100
AcDbEntity
  8
Defpoints
 62
     0
100
AcDbPoint
 10
1769.88465810737
 20
439.8161778742369
 30
0.0
  0
POINT
  5
82AB
330
6367
100
AcDbEntity
  8
Defpoints
 62
     0
100
AcDbPoint
 10
1969.88465810737
 20
439.8161778742369
 30
0.0
  0
POINT
  5
82AC
330
6367
100
AcDbEntity
  8
Defpoints
 62
     0
100
AcDbPoint
 10
1969.88465810737
 20
547.6420195854033
 30
0.0
  0
ENDBLK
  5
6372
330
6367
100
AcDbEntity
  8
0
 62
     3
100
AcDbBlockEnd
  0
BLOCK
  5
637F
330
6373
100
AcDbEntity
  8
0
 62
     3
100
AcDbBlockBegin
  2
*D43
 70
     1
 10
0.0
 20
0.0
 30
0.0
  3
*D43
  1

  0
LINE
  5
7A34
330
6373
100
AcDbEntity
  8
実形
 62
     0
370
    18
100
AcDbLine
 10
1744.293911053244
 20
477.6687844154767
 30
0.0
 11
1707.748470023713
 21
477.6687844154767
 31
0.0
  0
LINE
  5
7A35
330
6373
100
AcDbEntity
  8
実形
 62
     0
370
    18
100
AcDbLine
 10
1744.293911053244
 20
465.6687844154767
 30
0.0
 11
1707.748470023713
 21
465.6687844154767
 31
0.0
  0
LINE
  5
7A36
330
6373
100
AcDbEntity
  8
実形
 62
     0
370
    18
100
AcDbLine
 10
1707.748470023713
 20
487.6687844154766
 30
0.0
 11
1707.748470023713
 21
497.6687844154766
 31
0.0
  0
LINE
  5
7A37
330
6373
100
AcDbEntity
  8
実形
 62
     0
370
    18
100
AcDbLine
 10
1707.748470023713
 20
455.6687844154766
 30
0.0
 11
1707.748470023713
 21
445.6687844154767
 31
0.0
  0
MTEXT
  5
7A38
330
6373
100
AcDbEntity
  8
実形
 62
     0
100
AcDbMText
 10
1682.848470023713
 20
514.5501612175811
 30
0.0
 40
30.0
 41
0.0
 71
     5
 72
     1
  1
1.2
 11
0.0000000000000001
 21
1.0
 31
0.0
 73
     1
 44
1.0
1001
ACAD
1000
MTEXTBEGIN
1070
    73
1070
     1
1070
    44
1040
1.0
1070
    74
1070
     0
1000
MTEXTEND
  0
LINE
  5
7A39
330
6373
100
AcDbEntity
  8
実形
 62
     0
370
    18
100
AcDbLine
 10
1707.748470023713
 20
477.6687844154767
 30
0.0
 11
1707.748470023713
 21
465.6687844154767
 31
0.0
  0
INSERT
  5
7A3A
330
6373
100
AcDbEntity
  8
実形
 62
     0
370
    18
100
AcDbBlockReference
  2
_Dot
 10
1707.748470023713
 20
477.6687844154767
 30
0.0
 41
10.0
 42
10.0
 43
10.0
 50
270.0
  0
INSERT
  5
7A3B
330
6373
100
AcDbEntity
  8
実形
 62
     0
370
    18
100
AcDbBlockReference
  2
_Dot
 10
1707.748470023713
 20
465.6687844154767
 30
0.0
 41
10.0
 42
10.0
 43
10.0
 50
90.0
  0
POINT
  5
7A3C
330
6373
100
AcDbEntity
  8
Defpoints
 62
     0
100
AcDbPoint
 10
1809.293911053244
 20
477.6687844154767
 30
0.0
  0
POINT
  5
7A3D
330
6373
100
AcDbEntity
  8
Defpoints
 62
     0
100
AcDbPoint
 10
1809.293911053244
 20
465.6687844154767
 30
0.0
  0
POINT
  5
7A3E
330
6373
100
AcDbEntity
  8
Defpoints
 62
     0
100
AcDbPoint
 10
1707.748470023713
 20
465.6687844154767
 30
0.0
  0
ENDBLK
  5
6380
330
6373
100
AcDbEntity
  8
0
 62
     3
100
AcDbBlockEnd
  0
BLOCK
  5
638B
330
6381
100
AcDbEntity
  8
0
 62
     3
100
AcDbBlockBegin
  2
*D44
 70
     1
 10
0.0
 20
0.0
 30
0.0
  3
*D44
  1

  0
LINE
  5
7A3F
330
6381
100
AcDbEntity
  8
実形
 62
     0
370
    18
100
AcDbLine
 10
1708.601308322915
 20
465.6687844154767
 30
0.0
 11
1707.748470023713
 21
465.6687844154767
 31
0.0
  0
LINE
  5
7A40
330
6381
100
AcDbEntity
  8
実形
 62
     0
370
    18
100
AcDbLine
 10
1708.601308322915
 20
339.6687844154769
 30
0.0
 11
1707.748470023713
 21
339.6687844154769
 31
0.0
  0
LINE
  5
7A41
330
6381
100
AcDbEntity
  8
実形
 62
     0
370
    18
100
AcDbLine
 10
1707.748470023713
 20
455.6687844154766
 30
0.0
 11
1707.748470023713
 21
349.6687844154769
 31
0.0
  0
INSERT
  5
7A42
330
6381
100
AcDbEntity
  8
実形
 62
     0
370
    18
100
AcDbBlockReference
  2
_Dot
 10
1707.748470023713
 20
465.6687844154767
 30
0.0
 41
10.0
 42
10.0
 43
10.0
 50
90.0
  0
INSERT
  5
7A43
330
6381
100
AcDbEntity
  8
実形
 62
     0
370
    18
100
AcDbBlockReference
  2
_Dot
 10
1707.748470023713
 20
339.6687844154769
 30
0.0
 41
10.0
 42
10.0
 43
10.0
 50
270.0
  0
MTEXT
  5
7A44
330
6381
100
AcDbEntity
  8
実形
 62
     0
100
AcDbMText
 10
1686.148470023713
 20
402.6687844154769
 30
0.0
 40
30.0
 41
0.0
 71
     5
 72
     1
  1
12.6
 11
0.0000000000000001
 21
1.0
 31
0.0
 73
     1
 44
1.0
1001
ACAD
1000
MTEXTBEGIN
1070
    73
1070
     1
1070
    44
1040
1.0
1070
    74
1070
     0
1000
MTEXTEND
  0
POINT
  5
7A45
330
6381
100
AcDbEntity
  8
Defpoints
 62
     0
100
AcDbPoint
 10
1773.601308322915
 20
465.6687844154767
 30
0.0
  0
POINT
  5
7A46
330
6381
100
AcDbEntity
  8
Defpoints
 62
     0
100
AcDbPoint
 10
1773.601308322915
 20
339.6687844154769
 30
0.0
  0
POINT
  5
7A47
330
6381
100
AcDbEntity
  8
Defpoints
 62
     0
100
AcDbPoint
 10
1707.748470023713
 20
339.6687844154769
 30
0.0
  0
ENDBLK
  5
638C
330
6381
100
AcDbEntity
  8
0
 62
     3
100
AcDbBlockEnd
  0
BLOCK
  5
6397
330
638D
100
AcDbEntity
  8
0
 62
     3
100
AcDbBlockBegin
  2
*D45
 70
     1
 10
0.0
 20
0.0
 30
0.0
  3
*D45
  1

  0
LINE
  5
7A48
330
638D
100
AcDbEntity
  8
実形
 62
     0
370
    18
100
AcDbLine
 10
1708.601308322915
 20
477.6687844154767
 30
0.0
 11
1607.516616430275
 21
477.6687844154767
 31
0.0
  0
LINE
  5
7A49
330
638D
100
AcDbEntity
  8
実形
 62
     0
370
    18
100
AcDbLine
 10
1708.601308322915
 20
327.6687844154767
 30
0.0
 11
1607.516616430275
 21
327.6687844154768
 31
0.0
  0
LINE
  5
7A4A
330
638D
100
AcDbEntity
  8
実形
 62
     0
370
    18
100
AcDbLine
 10
1607.516616430275
 20
467.6687844154766
 30
0.0
 11
1607.516616430275
 21
337.6687844154767
 31
0.0
  0
INSERT
  5
7A4B
330
638D
100
AcDbEntity
  8
実形
 62
     0
370
    18
100
AcDbBlockReference
  2
_Dot
 10
1607.516616430275
 20
477.6687844154767
 30
0.0
 41
10.0
 42
10.0
 43
10.0
 50
90.0
  0
INSERT
  5
7A4C
330
638D
100
AcDbEntity
  8
実形
 62
     0
370
    18
100
AcDbBlockReference
  2
_Dot
 10
1607.516616430275
 20
327.6687844154768
 30
0.0
 41
10.0
 42
10.0
 43
10.0
 50
270.0
  0
MTEXT
  5
7A4D
330
638D
100
AcDbEntity
  8
実形
 62
     0
100
AcDbMText
 10
1585.916616430275
 20
402.6687844154769
 30
0.0
 40
30.0
 41
0.0
 71
     5
 72
     1
  1
15
 11
0.0000000000000001
 21
1.0
 31
0.0
 73
     1
 44
1.0
1001
ACAD
1000
MTEXTBEGIN
1070
    73
1070
     1
1070
    44
1040
1.0
1070
    74
1070
     0
1000
MTEXTEND
  0
POINT
  5
7A4E
330
638D
100
AcDbEntity
  8
Defpoints
 62
     0
100
AcDbPoint
 10
1773.601308322915
 20
477.6687844154767
 30
0.0
  0
POINT
  5
7A4F
330
638D
100
AcDbEntity
  8
Defpoints
 62
     0
100
AcDbPoint
 10
1773.601308322915
 20
327.6687844154767
 30
0.0
  0
POINT
  5
7A50
330
638D
100
AcDbEntity
  8
Defpoints
 62
     0
100
AcDbPoint
 10
1607.516616430275
 20
327.6687844154768
 30
0.0
  0
ENDBLK
  5
6398
330
638D
100
AcDbEntity
  8
0
 62
     3
100
AcDbBlockEnd
  0
BLOCK
  5
63A5
330
6399
100
AcDbEntity
  8
0
 62
     3
100
AcDbBlockBegin
  2
*D46
 70
     1
 10
0.0
 20
0.0
 30
0.0
  3
*D46
  1

  0
LINE
  5
7A51
330
6399
100
AcDbEntity
  8
実形
 62
     0
370
    18
100
AcDbLine
 10
1742.995800181716
 20
339.6687844154768
 30
0.0
 11
1707.748470023713
 21
339.6687844154768
 31
0.0
  0
LINE
  5
7A52
330
6399
100
AcDbEntity
  8
実形
 62
     0
370
    18
100
AcDbLine
 10
1744.651063621566
 20
327.6687844154767
 30
0.0
 11
1707.748470023713
 21
327.6687844154767
 31
0.0
  0
LINE
  5
7A53
330
6399
100
AcDbEntity
  8
実形
 62
     0
370
    18
100
AcDbLine
 10
1707.748470023713
 20
349.6687844154769
 30
0.0
 11
1707.748470023713
 21
359.6687844154768
 31
0.0
  0
LINE
  5
7A54
330
6399
100
AcDbEntity
  8
実形
 62
     0
370
    18
100
AcDbLine
 10
1707.748470023713
 20
317.6687844154767
 30
0.0
 11
1707.748470023713
 21
307.6687844154767
 31
0.0
  0
MTEXT
  5
7A55
330
6399
100
AcDbEntity
  8
実形
 62
     0
100
AcDbMText
 10
1682.848470023713
 20
291.0148636725971
 30
0.0
 40
30.0
 41
0.0
 71
     5
 72
     1
  1
1.2
 11
0.0000000000000001
 21
1.0
 31
0.0
 73
     1
 44
1.0
1001
ACAD
1000
MTEXTBEGIN
1070
    73
1070
     1
1070
    44
1040
1.0
1070
    74
1070
     0
1000
MTEXTEND
  0
LINE
  5
7A56
330
6399
100
AcDbEntity
  8
実形
 62
     0
370
    18
100
AcDbLine
 10
1707.748470023713
 20
339.6687844154768
 30
0.0
 11
1707.748470023713
 21
327.6687844154767
 31
0.0
  0
INSERT
  5
7A57
330
6399
100
AcDbEntity
  8
実形
 62
     0
370
    18
100
AcDbBlockReference
  2
_Dot
 10
1707.748470023713
 20
339.6687844154768
 30
0.0
 41
10.0
 42
10.0
 43
10.0
 50
270.0
  0
INSERT
  5
7A58
330
6399
100
AcDbEntity
  8
実形
 62
     0
370
    18
100
AcDbBlockReference
  2
_Dot
 10
1707.748470023713
 20
327.6687844154767
 30
0.0
 41
10.0
 42
10.0
 43
10.0
 50
90.0
  0
POINT
  5
7A59
330
6399
100
AcDbEntity
  8
Defpoints
 62
     0
100
AcDbPoint
 10
1807.995800181716
 20
339.6687844154768
 30
0.0
  0
POINT
  5
7A5A
330
6399
100
AcDbEntity
  8
Defpoints
 62
     0
100
AcDbPoint
 10
1809.651063621566
 20
327.6687844154767
 30
0.0
  0
POINT
  5
7A5B
330
6399
100
AcDbEntity
  8
Defpoints
 62
     0
100
AcDbPoint
 10
1707.748470023713
 20
327.6687844154767
 30
0.0
  0
ENDBLK
  5
63A6
330
6399
100
AcDbEntity
  8
0
 62
     3
100
AcDbBlockEnd
  0
BLOCK
  5
63B1
330
63A7
100
AcDbEntity
  8
0
 62
     3
100
AcDbBlockBegin
  2
*D47
 70
     1
 10
0.0
 20
0.0
 30
0.0
  3
*D47
  1

  0
LINE
  5
7895
330
63A7
100
AcDbEntity
  8
実形
 62
     0
370
    18
100
AcDbLine
 10
1969.88465810737
 20
288.4040832798028
 30
0.0
 11
1969.88465810737
 21
249.7575464485608
 31
0.0
  0
LINE
  5
7896
330
63A7
100
AcDbEntity
  8
実形
 62
     0
370
    18
100
AcDbLine
 10
2189.88465810737
 20
286.9745793713786
 30
0.0
 11
2189.88465810737
 21
249.7575464485608
 31
0.0
  0
LINE
  5
7897
330
63A7
100
AcDbEntity
  8
実形
 62
     0
370
    18
100
AcDbLine
 10
1979.88465810737
 20
249.7575464485608
 30
0.0
 11
2179.88465810737
 21
249.7575464485608
 31
0.0
  0
INSERT
  5
7898
330
63A7
100
AcDbEntity
  8
実形
 62
     0
370
    18
100
AcDbBlockReference
  2
_Dot
 10
1969.88465810737
 20
249.7575464485608
 30
0.0
 41
10.0
 42
10.0
 43
10.0
 50
180.0
  0
INSERT
  5
7899
330
63A7
100
AcDbEntity
  8
実形
 62
     0
370
    18
100
AcDbBlockReference
  2
_Dot
 10
2189.88465810737
 20
249.7575464485608
 30
0.0
 41
10.0
 42
10.0
 43
10.0
  0
MTEXT
  5
789A
330
63A7
100
AcDbEntity
  8
実形
 62
     0
100
AcDbMText
 10
2079.884658107371
 20
271.3575464485608
 30
0.0
 40
30.0
 41
0.0
 71
     5
 72
     1
  1
22
 73
     1
 44
1.0
1001
ACAD
1000
MTEXTBEGIN
1070
    73
1070
     1
1070
    44
1040
1.0
1070
    74
1070
     0
1000
MTEXTEND
  0
POINT
  5
789B
330
63A7
100
AcDbEntity
  8
Defpoints
 62
     0
100
AcDbPoint
 10
1969.88465810737
 20
353.4040832798027
 30
0.0
  0
POINT
  5
789C
330
63A7
100
AcDbEntity
  8
Defpoints
 62
     0
100
AcDbPoint
 10
2189.88465810737
 20
351.9745793713787
 30
0.0
  0
POINT
  5
789D
330
63A7
100
AcDbEntity
  8
Defpoints
 62
     0
100
AcDbPoint
 10
2189.88465810737
 20
249.7575464485608
 30
0.0
  0
ENDBLK
  5
63B2
330
63A7
100
AcDbEntity
  8
0
 62
     3
100
AcDbBlockEnd
  0
BLOCK
  5
63BD
330
63B3
100
AcDbEntity
  8
0
 62
     3
100
AcDbBlockBegin
  2
*D48
 70
     1
 10
0.0
 20
0.0
 30
0.0
  3
*D48
  1

  0
LINE
  5
789E
330
63B3
100
AcDbEntity
  8
実形
 62
     0
370
    18
100
AcDbLine
 10
2149.88465810737
 20
372.1251455729608
 30
0.0
 11
2149.88465810737
 21
400.8833310174114
 31
0.0
  0
LINE
  5
789F
330
63B3
100
AcDbEntity
  8
実形
 62
     0
370
    18
100
AcDbLine
 10
2229.884658107371
 20
372.1251455729607
 30
0.0
 11
2229.884658107371
 21
400.8833310174114
 31
0.0
  0
LINE
  5
78A0
330
63B3
100
AcDbEntity
  8
実形
 62
     0
370
    18
100
AcDbLine
 10
2159.884658107371
 20
400.8833310174114
 30
0.0
 11
2219.88465810737
 21
400.8833310174114
 31
0.0
  0
INSERT
  5
78A1
330
63B3
100
AcDbEntity
  8
実形
 62
     0
370
    18
100
AcDbBlockReference
  2
_Dot
 10
2149.88465810737
 20
400.8833310174114
 30
0.0
 41
10.0
 42
10.0
 43
10.0
 50
180.0
  0
INSERT
  5
78A2
330
63B3
100
AcDbEntity
  8
実形
 62
     0
370
    18
100
AcDbBlockReference
  2
_Dot
 10
2229.884658107371
 20
400.8833310174114
 30
0.0
 41
10.0
 42
10.0
 43
10.0
  0
MTEXT
  5
78A3
330
63B3
100
AcDbEntity
  8
実形
 62
     0
100
AcDbMText
 10
2189.88465810737
 20
422.4833310174113
 30
0.0
 40
30.0
 41
0.0
 71
     5
 72
     1
  1
8
 73
     1
 44
1.0
1001
ACAD
1000
MTEXTBEGIN
1070
    73
1070
     1
1070
    44
1040
1.0
1070
    74
1070
     0
1000
MTEXTEND
  0
POINT
  5
78A4
330
63B3
100
AcDbEntity
  8
Defpoints
 62
     0
100
AcDbPoint
 10
2149.88465810737
 20
307.1251455729608
 30
0.0
  0
POINT
  5
78A5
330
63B3
100
AcDbEntity
  8
Defpoints
 62
     0
100
AcDbPoint
 10
2229.884658107371
 20
307.1251455729607
 30
0.0
  0
POINT
  5
78A6
330
63B3
100
AcDbEntity
  8
Defpoints
 62
     0
100
AcDbPoint
 10
2229.884658107371
 20
400.8833310174114
 30
0.0
  0
ENDBLK
  5
63BE
330
63B3
100
AcDbEntity
  8
0
 62
     3
100
AcDbBlockEnd
  0
BLOCK
  5
63C9
330
63BF
100
AcDbEntity
  8
0
 62
     3
100
AcDbBlockBegin
  2
*D49
 70
     1
 10
0.0
 20
0.0
 30
0.0
  3
*D49
  1

  0
LINE
  5
78A7
330
63BF
100
AcDbEntity
  8
実形
 62
     0
370
    18
100
AcDbLine
 10
2549.88465810737
 20
372.1251455729608
 30
0.0
 11
2549.88465810737
 21
400.8833310174114
 31
0.0
  0
LINE
  5
78A8
330
63BF
100
AcDbEntity
  8
実形
 62
     0
370
    18
100
AcDbLine
 10
2629.88465810737
 20
372.1251455729607
 30
0.0
 11
2629.88465810737
 21
400.8833310174114
 31
0.0
  0
LINE
  5
78A9
330
63BF
100
AcDbEntity
  8
実形
 62
     0
370
    18
100
AcDbLine
 10
2559.884658107371
 20
400.8833310174114
 30
0.0
 11
2619.88465810737
 21
400.8833310174114
 31
0.0
  0
INSERT
  5
78AA
330
63BF
100
AcDbEntity
  8
実形
 62
     0
370
    18
100
AcDbBlockReference
  2
_Dot
 10
2549.88465810737
 20
400.8833310174114
 30
0.0
 41
10.0
 42
10.0
 43
10.0
 50
180.0
  0
INSERT
  5
78AB
330
63BF
100
AcDbEntity
  8
実形
 62
     0
370
    18
100
AcDbBlockReference
  2
_Dot
 10
2629.88465810737
 20
400.8833310174114
 30
0.0
 41
10.0
 42
10.0
 43
10.0
  0
MTEXT
  5
78AC
330
63BF
100
AcDbEntity
  8
実形
 62
     0
100
AcDbMText
 10
2589.884658107371
 20
422.4833310174113
 30
0.0
 40
30.0
 41
0.0
 71
     5
 72
     1
  1
8
 73
     1
 44
1.0
1001
ACAD
1000
MTEXTBEGIN
1070
    73
1070
     1
1070
    44
1040
1.0
1070
    74
1070
     0
1000
MTEXTEND
  0
POINT
  5
78AD
330
63BF
100
AcDbEntity
  8
Defpoints
 62
     0
100
AcDbPoint
 10
2549.88465810737
 20
307.1251455729608
 30
0.0
  0
POINT
  5
78AE
330
63BF
100
AcDbEntity
  8
Defpoints
 62
     0
100
AcDbPoint
 10
2629.88465810737
 20
307.1251455729607
 30
0.0
  0
POINT
  5
78AF
330
63BF
100
AcDbEntity
  8
Defpoints
 62
     0
100
AcDbPoint
 10
2629.88465810737
 20
400.8833310174114
 30
0.0
  0
ENDBLK
  5
63CA
330
63BF
100
AcDbEntity
  8
0
 62
     3
100
AcDbBlockEnd
  0
BLOCK
  5
63D5
330
63CB
100
AcDbEntity
  8
0
 62
     3
100
AcDbBlockBegin
  2
*D50
 70
     1
 10
0.0
 20
0.0
 30
0.0
  3
*D50
  1

  0
LINE
  5
788C
330
63CB
100
AcDbEntity
  8
実形
 62
     0
370
    18
100
AcDbLine
 10
2189.88465810737
 20
262.6687844154762
 30
0.0
 11
2189.88465810737
 21
249.7575464485608
 31
0.0
  0
LINE
  5
788D
330
63CB
100
AcDbEntity
  8
実形
 62
     0
370
    18
100
AcDbLine
 10
2589.884658107371
 20
286.7370496042031
 30
0.0
 11
2589.884658107371
 21
249.7575464485608
 31
0.0
  0
LINE
  5
788E
330
63CB
100
AcDbEntity
  8
実形
 62
     0
370
    18
100
AcDbLine
 10
2199.88465810737
 20
249.7575464485608
 30
0.0
 11
2579.884658107371
 21
249.7575464485608
 31
0.0
  0
INSERT
  5
788F
330
63CB
100
AcDbEntity
  8
実形
 62
     0
370
    18
100
AcDbBlockReference
  2
_Dot
 10
2189.88465810737
 20
249.7575464485608
 30
0.0
 41
10.0
 42
10.0
 43
10.0
 50
180.0
  0
INSERT
  5
7890
330
63CB
100
AcDbEntity
  8
実形
 62
     0
370
    18
100
AcDbBlockReference
  2
_Dot
 10
2589.884658107371
 20
249.7575464485608
 30
0.0
 41
10.0
 42
10.0
 43
10.0
  0
MTEXT
  5
7891
330
63CB
100
AcDbEntity
  8
実形
 62
     0
100
AcDbMText
 10
2389.884658107371
 20
271.3575464485608
 30
0.0
 40
30.0
 41
0.0
 71
     5
 72
     1
  1
40
 73
     1
 44
1.0
1001
ACAD
1000
MTEXTBEGIN
1070
    73
1070
     1
1070
    44
1040
1.0
1070
    74
1070
     0
1000
MTEXTEND
  0
POINT
  5
7892
330
63CB
100
AcDbEntity
  8
Defpoints
 62
     0
100
AcDbPoint
 10
2189.88465810737
 20
327.6687844154762
 30
0.0
  0
POINT
  5
7893
330
63CB
100
AcDbEntity
  8
Defpoints
 62
     0
100
AcDbPoint
 10
2589.884658107371
 20
351.7370496042031
 30
0.0
  0
POINT
  5
7894
330
63CB
100
AcDbEntity
  8
Defpoints
 62
     0
100
AcDbPoint
 10
2589.884658107371
 20
249.7575464485608
 30
0.0
  0
ENDBLK
  5
63D6
330
63CB
100
AcDbEntity
  8
0
 62
     3
100
AcDbBlockEnd
  0
BLOCK
  5
63E3
330
63D7
100
AcDbEntity
  8
0
 62
     3
100
AcDbBlockBegin
  2
*D51
 70
     1
 10
0.0
 20
0.0
 30
0.0
  3
*D51
  1

  0
LINE
  5
7879
330
63D7
100
AcDbEntity
  8
実形
 62
     0
370
    18
100
AcDbLine
 10
1957.884658107371
 20
287.9180329716719
 30
0.0
 11
1957.884658107371
 21
249.7575464485608
 31
0.0
  0
LINE
  5
787A
330
63D7
100
AcDbEntity
  8
実形
 62
     0
370
    18
100
AcDbLine
 10
1969.88465810737
 20
280.6687844154759
 30
0.0
 11
1969.88465810737
 21
249.7575464485608
 31
0.0
  0
LINE
  5
787B
330
63D7
100
AcDbEntity
  8
実形
 62
     0
370
    18
100
AcDbLine
 10
1947.884658107371
 20
249.7575464485608
 30
0.0
 11
1937.884658107371
 21
249.7575464485608
 31
0.0
  0
LINE
  5
787C
330
63D7
100
AcDbEntity
  8
実形
 62
     0
370
    18
100
AcDbLine
 10
1979.88465810737
 20
249.7575464485608
 30
0.0
 11
1989.88465810737
 21
249.7575464485608
 31
0.0
  0
MTEXT
  5
787D
330
63D7
100
AcDbEntity
  8
実形
 62
     0
100
AcDbMText
 10
1915.889411253724
 20
274.3256138772931
 30
0.0
 40
30.0
 41
0.0
 71
     5
 72
     1
  1
1.2
 73
     1
 44
1.0
1001
ACAD
1000
MTEXTBEGIN
1070
    73
1070
     1
1070
    44
1040
1.0
1070
    74
1070
     0
1000
MTEXTEND
  0
LINE
  5
787E
330
63D7
100
AcDbEntity
  8
実形
 62
     0
370
    18
100
AcDbLine
 10
1957.884658107371
 20
249.7575464485608
 30
0.0
 11
1969.88465810737
 21
249.7575464485608
 31
0.0
  0
INSERT
  5
787F
330
63D7
100
AcDbEntity
  8
実形
 62
     0
370
    18
100
AcDbBlockReference
  2
_Dot
 10
1957.884658107371
 20
249.7575464485608
 30
0.0
 41
10.0
 42
10.0
 43
10.0
  0
INSERT
  5
7880
330
63D7
100
AcDbEntity
  8
実形
 62
     0
370
    18
100
AcDbBlockReference
  2
_Dot
 10
1969.88465810737
 20
249.7575464485608
 30
0.0
 41
10.0
 42
10.0
 43
10.0
 50
180.0
  0
POINT
  5
7881
330
63D7
100
AcDbEntity
  8
Defpoints
 62
     0
100
AcDbPoint
 10
1957.884658107371
 20
352.9180329716719
 30
0.0
  0
POINT
  5
7882
330
63D7
100
AcDbEntity
  8
Defpoints
 62
     0
100
AcDbPoint
 10
1969.88465810737
 20
345.6687844154759
 30
0.0
  0
POINT
  5
7883
330
63D7
100
AcDbEntity
  8
Defpoints
 62
     0
100
AcDbPoint
 10
1969.88465810737
 20
249.7575464485608
 30
0.0
  0
ENDBLK
  5
63E4
330
63D7
100
AcDbEntity
  8
0
 62
     3
100
AcDbBlockEnd
  0
BLOCK
  5
6B8B
330
6B87
100
AcDbEntity
  8
0
 62
     3
100
AcDbBlockBegin
  2
A$C47AF373A
 70
     0
 10
0.0
 20
0.0
 30
0.0
  3
A$C47AF373A
  1

  0
LINE
  5
6B88
330
6B87
100
AcDbEntity
  8
枠
 62
     0
100
AcDbLine
 10
-0.0000111344452307
 20
0.0000048001220421
 30
0.0
 11
-0.0000111344452307
 21
2020.000004800122
 31
0.0
  0
ENDBLK
  5
6B8C
330
6B87
100
AcDbEntity
  8
0
 62
     3
100
AcDbBlockEnd
  0
BLOCK
  5
6C04
330
6C00
100
AcDbEntity
  8
0
 62
     3
100
AcDbBlockBegin
  2
A$C2B9560D8
 70
     0
 10
0.0
 20
0.0
 30
0.0
  3
A$C2B9560D8
  1

  0
LINE
  5
6C01
330
6C00
100
AcDbEntity
  8
枠
 62
     0
100
AcDbLine
 10
-0.0000103150450741
 20
2020.000004800122
 30
0.0
 11
-0.0000103150450741
 21
0.0000048001220421
 31
0.0
  0
ENDBLK
  5
6C05
330
6C00
100
AcDbEntity
  8
0
 62
     3
100
AcDbBlockEnd
  0
BLOCK
  5
7C6C
330
7C60
100
AcDbEntity
  8
0
 62
     3
100
AcDbBlockBegin
  2
*D54
 70
     1
 10
0.0
 20
0.0
 30
0.0
  3
*D54
  1

  0
LINE
  5
83DC
330
7C60
100
AcDbEntity
  8
実形
 62
     0
370
    18
100
AcDbLine
 10
1926.418968141132
 20
1513.759223040568
 30
0.0
 11
1961.249525000896
 21
1513.759223040568
 31
0.0
  0
LINE
  5
83DD
330
7C60
100
AcDbEntity
  8
実形
 62
     0
370
    18
100
AcDbLine
 10
1926.489326374543
 20
1525.759223040568
 30
0.0
 11
1961.249525000896
 21
1525.759223040568
 31
0.0
  0
LINE
  5
83DE
330
7C60
100
AcDbEntity
  8
実形
 62
     0
370
    18
100
AcDbLine
 10
1961.249525000896
 20
1503.759223040568
 30
0.0
 11
1961.249525000896
 21
1493.759223040569
 31
0.0
  0
LINE
  5
83DF
330
7C60
100
AcDbEntity
  8
実形
 62
     0
370
    18
100
AcDbLine
 10
1961.249525000896
 20
1535.759223040568
 30
0.0
 11
1961.249525000896
 21
1545.759223040568
 31
0.0
  0
LINE
  5
83E0
330
7C60
100
AcDbEntity
  8
実形
 62
     0
370
    18
100
AcDbLine
 10
1961.249525000896
 20
1513.759223040568
 30
0.0
 11
1961.249525000896
 21
1525.759223040568
 31
0.0
  0
INSERT
  5
83E1
330
7C60
100
AcDbEntity
  8
実形
 62
     0
370
    18
100
AcDbBlockReference
  2
_Dot
 10
1961.249525000896
 20
1513.759223040568
 30
0.0
 41
10.0
 42
10.0
 43
10.0
 50
90.0
  0
INSERT
  5
83E2
330
7C60
100
AcDbEntity
  8
実形
 62
     0
370
    18
100
AcDbBlockReference
  2
_Dot
 10
1961.249525000896
 20
1525.759223040568
 30
0.0
 41
10.0
 42
10.0
 43
10.0
 50
270.0
  0
POINT
  5
83E3
330
7C60
100
AcDbEntity
  8
Defpoints
 62
     0
100
AcDbPoint
 10
1861.418968141132
 20
1513.759223040568
 30
0.0
  0
POINT
  5
83E4
330
7C60
100
AcDbEntity
  8
Defpoints
 62
     0
100
AcDbPoint
 10
1861.489326374544
 20
1525.759223040568
 30
0.0
  0
POINT
  5
83E5
330
7C60
100
AcDbEntity
  8
Defpoints
 62
     0
100
AcDbPoint
 10
1961.249525000896
 20
1525.759223040568
 30
0.0
  0
ENDBLK
  5
7C6D
330
7C60
100
AcDbEntity
  8
0
 62
     3
100
AcDbBlockEnd
  0
BLOCK
  5
7C9C
330
7C92
100
AcDbEntity
  8
0
 62
     3
100
AcDbBlockBegin
  2
*D55
 70
     1
 10
0.0
 20
0.0
 30
0.0
  3
*D55
  1

  0
LINE
  5
8371
330
7C92
100
AcDbEntity
  8
実形
 62
     0
370
    18
100
AcDbLine
 10
1957.969217749405
 20
1565.759223040568
 30
0.0
 11
2026.792320098807
 21
1565.759223040568
 31
0.0
  0
LINE
  5
8372
330
7C92
100
AcDbEntity
  8
実形
 62
     0
370
    18
100
AcDbLine
 10
1957.969217749405
 20
757.7592230405679
 30
0.0
 11
2026.792320098806
 21
757.7592230405679
 31
0.0
  0
LINE
  5
8373
330
7C92
100
AcDbEntity
  8
実形
 62
     0
370
    18
100
AcDbLine
 10
2026.792320098807
 20
1555.759223040568
 30
0.0
 11
2026.792320098806
 21
767.7592230405679
 31
0.0
  0
INSERT
  5
8374
330
7C92
100
AcDbEntity
  8
実形
 62
     0
370
    18
100
AcDbBlockReference
  2
_Dot
 10
2026.792320098807
 20
1565.759223040568
 30
0.0
 41
10.0
 42
10.0
 43
10.0
 50
90.0
  0
INSERT
  5
8375
330
7C92
100
AcDbEntity
  8
実形
 62
     0
370
    18
100
AcDbBlockReference
  2
_Dot
 10
2026.792320098806
 20
757.7592230405679
 30
0.0
 41
10.0
 42
10.0
 43
10.0
 50
270.0
  0
MTEXT
  5
8376
330
7C92
100
AcDbEntity
  8
実形
 62
     0
100
AcDbMText
 10
2005.192320098807
 20
1161.759223040568
 30
0.0
 40
30.0
 41
0.0
 71
     5
 72
     1
  1
404
 11
0.0000000000000001
 21
1.0
 31
0.0
 73
     1
 44
1.0
1001
ACAD
1000
MTEXTBEGIN
1070
    73
1070
     1
1070
    44
1040
1.0
1070
    74
1070
     0
1000
MTEXTEND
  0
POINT
  5
8377
330
7C92
100
AcDbEntity
  8
Defpoints
 62
     0
100
AcDbPoint
 10
1892.969217749405
 20
1565.759223040568
 30
0.0
  0
POINT
  5
8378
330
7C92
100
AcDbEntity
  8
Defpoints
 62
     0
100
AcDbPoint
 10
1892.969217749405
 20
757.7592230405679
 30
0.0
  0
POINT
  5
8379
330
7C92
100
AcDbEntity
  8
Defpoints
 62
     0
100
AcDbPoint
 10
2026.792320098806
 20
757.7592230405679
 30
0.0
  0
ENDBLK
  5
7C9D
330
7C92
100
AcDbEntity
  8
0
 62
     3
100
AcDbBlockEnd
  0
BLOCK
  5
7CA8
330
7C9E
100
AcDbEntity
  8
0
 62
     3
100
AcDbBlockBegin
  2
*D56
 70
     1
 10
0.0
 20
0.0
 30
0.0
  3
*D56
  1

  0
LINE
  5
837A
330
7C9E
100
AcDbEntity
  8
実形
 62
     0
370
    18
100
AcDbLine
 10
1935.92836178292
 20
797.7592230405676
 30
0.0
 11
1961.249525000896
 21
797.7592230405676
 31
0.0
  0
LINE
  5
837B
330
7C9E
100
AcDbEntity
  8
実形
 62
     0
370
    18
100
AcDbLine
 10
1927.696942185231
 20
757.7592230405679
 30
0.0
 11
1961.249525000896
 21
757.7592230405679
 31
0.0
  0
LINE
  5
837C
330
7C9E
100
AcDbEntity
  8
実形
 62
     0
370
    18
100
AcDbLine
 10
1961.249525000896
 20
787.7592230405674
 30
0.0
 11
1961.249525000896
 21
767.7592230405679
 31
0.0
  0
MTEXT
  5
837D
330
7C9E
100
AcDbEntity
  8
実形
 62
     0
100
AcDbMText
 10
1942.556280761977
 20
717.1993737952497
 30
0.0
 40
30.0
 41
0.0
 71
     5
 72
     1
  1
20
 11
0.0000000000000001
 21
1.0
 31
0.0
 73
     1
 44
1.0
1001
ACAD
1000
MTEXTBEGIN
1070
    73
1070
     1
1070
    44
1040
1.0
1070
    74
1070
     0
1000
MTEXTEND
  0
INSERT
  5
837E
330
7C9E
100
AcDbEntity
  8
実形
 62
     0
370
    18
100
AcDbBlockReference
  2
_Dot
 10
1961.249525000896
 20
797.7592230405676
 30
0.0
 41
10.0
 42
10.0
 43
10.0
 50
90.0
  0
INSERT
  5
837F
330
7C9E
100
AcDbEntity
  8
実形
 62
     0
370
    18
100
AcDbBlockReference
  2
_Dot
 10
1961.249525000896
 20
757.7592230405679
 30
0.0
 41
10.0
 42
10.0
 43
10.0
 50
270.0
  0
POINT
  5
8380
330
7C9E
100
AcDbEntity
  8
Defpoints
 62
     0
100
AcDbPoint
 10
1870.928361782921
 20
797.7592230405676
 30
0.0
  0
POINT
  5
8381
330
7C9E
100
AcDbEntity
  8
Defpoints
 62
     0
100
AcDbPoint
 10
1862.696942185231
 20
757.7592230405679
 30
0.0
  0
POINT
  5
8382
330
7C9E
100
AcDbEntity
  8
Defpoints
 62
     0
100
AcDbPoint
 10
1961.249525000896
 20
757.7592230405679
 30
0.0
  0
ENDBLK
  5
7CA9
330
7C9E
100
AcDbEntity
  8
0
 62
     3
100
AcDbBlockEnd
  0
BLOCK
  5
7CB4
330
7CAA
100
AcDbEntity
  8
0
 62
     3
100
AcDbBlockBegin
  2
*D57
 70
     1
 10
0.0
 20
0.0
 30
0.0
  3
*D57
  1

  0
LINE
  5
8383
330
7CAA
100
AcDbEntity
  8
実形
 62
     0
370
    18
100
AcDbLine
 10
1960.454288773083
 20
1525.759223040568
 30
0.0
 11
1961.249525000895
 21
1525.759223040568
 31
0.0
  0
LINE
  5
8384
330
7CAA
100
AcDbEntity
  8
実形
 62
     0
370
    18
100
AcDbLine
 10
1953.822056788423
 20
797.7592230405676
 30
0.0
 11
1961.249525000895
 21
797.7592230405676
 31
0.0
  0
LINE
  5
8385
330
7CAA
100
AcDbEntity
  8
実形
 62
     0
370
    18
100
AcDbLine
 10
1961.249525000895
 20
1515.759223040568
 30
0.0
 11
1961.249525000895
 21
807.7592230405674
 31
0.0
  0
INSERT
  5
8386
330
7CAA
100
AcDbEntity
  8
実形
 62
     0
370
    18
100
AcDbBlockReference
  2
_Dot
 10
1961.249525000895
 20
1525.759223040568
 30
0.0
 41
10.0
 42
10.0
 43
10.0
 50
90.0
  0
INSERT
  5
8387
330
7CAA
100
AcDbEntity
  8
実形
 62
     0
370
    18
100
AcDbBlockReference
  2
_Dot
 10
1961.249525000895
 20
797.7592230405676
 30
0.0
 41
10.0
 42
10.0
 43
10.0
 50
270.0
  0
MTEXT
  5
8388
330
7CAA
100
AcDbEntity
  8
実形
 62
     0
100
AcDbMText
 10
1939.649525000895
 20
1161.759223040568
 30
0.0
 40
30.0
 41
0.0
 71
     5
 72
     1
  1
352
 11
0.0000000000000001
 21
1.0
 31
0.0
 73
     1
 44
1.0
1001
ACAD
1000
MTEXTBEGIN
1070
    73
1070
     1
1070
    44
1040
1.0
1070
    74
1070
     0
1000
MTEXTEND
  0
POINT
  5
8389
330
7CAA
100
AcDbEntity
  8
Defpoints
 62
     0
100
AcDbPoint
 10
1895.454288773083
 20
1525.759223040568
 30
0.0
  0
POINT
  5
838A
330
7CAA
100
AcDbEntity
  8
Defpoints
 62
     0
100
AcDbPoint
 10
1888.822056788423
 20
797.7592230405676
 30
0.0
  0
POINT
  5
838B
330
7CAA
100
AcDbEntity
  8
Defpoints
 62
     0
100
AcDbPoint
 10
1961.249525000895
 20
797.7592230405676
 30
0.0
  0
ENDBLK
  5
7CB5
330
7CAA
100
AcDbEntity
  8
0
 62
     3
100
AcDbBlockEnd
  0
BLOCK
  5
7CC0
330
7CB6
100
AcDbEntity
  8
0
 62
     3
100
AcDbBlockBegin
  2
*D58
 70
     1
 10
0.0
 20
0.0
 30
0.0
  3
*D58
  1

  0
LINE
  5
838C
330
7CB6
100
AcDbEntity
  8
実形
 62
     0
370
    18
100
AcDbLine
 10
1629.62547870423
 20
1513.759223040568
 30
0.0
 11
1675.826018271261
 21
1513.759223040568
 31
0.0
  0
LINE
  5
838D
330
7CB6
100
AcDbEntity
  8
実形
 62
     0
370
    18
100
AcDbLine
 10
1629.62547870423
 20
809.7592230405679
 30
0.0
 11
1675.826018271261
 21
809.7592230405679
 31
0.0
  0
LINE
  5
838E
330
7CB6
100
AcDbEntity
  8
実形
 62
     0
370
    18
100
AcDbLine
 10
1675.826018271261
 20
1503.759223040568
 30
0.0
 11
1675.826018271261
 21
819.7592230405678
 31
0.0
  0
INSERT
  5
838F
330
7CB6
100
AcDbEntity
  8
実形
 62
     0
370
    18
100
AcDbBlockReference
  2
_Dot
 10
1675.826018271261
 20
1513.759223040568
 30
0.0
 41
10.0
 42
10.0
 43
10.0
 50
90.0
  0
INSERT
  5
8390
330
7CB6
100
AcDbEntity
  8
実形
 62
     0
370
    18
100
AcDbBlockReference
  2
_Dot
 10
1675.826018271261
 20
809.7592230405679
 30
0.0
 41
10.0
 42
10.0
 43
10.0
 50
270.0
  0
MTEXT
  5
8391
330
7CB6
100
AcDbEntity
  8
実形
 62
     0
100
AcDbMText
 10
1654.226018271261
 20
1161.759223040568
 30
0.0
 40
30.0
 41
0.0
 71
     5
 72
     1
  1
352
 11
0.0000000000000001
 21
1.0
 31
0.0
 73
     1
 44
1.0
1001
ACAD
1000
MTEXTBEGIN
1070
    73
1070
     1
1070
    44
1040
1.0
1070
    74
1070
     0
1000
MTEXTEND
  0
POINT
  5
8392
330
7CB6
100
AcDbEntity
  8
Defpoints
 62
     0
100
AcDbPoint
 10
1564.62547870423
 20
1513.759223040568
 30
0.0
  0
POINT
  5
8393
330
7CB6
100
AcDbEntity
  8
Defpoints
 62
     0
100
AcDbPoint
 10
1564.62547870423
 20
809.7592230405679
 30
0.0
  0
POINT
  5
8394
330
7CB6
100
AcDbEntity
  8
Defpoints
 62
     0
100
AcDbPoint
 10
1675.826018271261
 20
809.7592230405679
 30
0.0
  0
ENDBLK
  5
7CC1
330
7CB6
100
AcDbEntity
  8
0
 62
     3
100
AcDbBlockEnd
  0
BLOCK
  5
7CCC
330
7CC2
100
AcDbEntity
  8
0
 62
     3
100
AcDbBlockBegin
  2
*D59
 70
     1
 10
0.0
 20
0.0
 30
0.0
  3
*D59
  1

  0
LINE
  5
8395
330
7CC2
100
AcDbEntity
  8
実形
 62
     0
370
    18
100
AcDbLine
 10
1629.62547870423
 20
1565.759223040568
 30
0.0
 11
1675.826018271261
 21
1565.759223040568
 31
0.0
  0
LINE
  5
8396
330
7CC2
100
AcDbEntity
  8
実形
 62
     0
370
    18
100
AcDbLine
 10
1629.62547870423
 20
757.7592230405679
 30
0.0
 11
1675.826018271261
 21
757.7592230405679
 31
0.0
  0
LINE
  5
8397
330
7CC2
100
AcDbEntity
  8
実形
 62
     0
370
    18
100
AcDbLine
 10
1675.826018271261
 20
1555.759223040568
 30
0.0
 11
1675.826018271261
 21
767.7592230405679
 31
0.0
  0
MTEXT
  5
8398
330
7CC2
100
AcDbEntity
  8
実形
 62
     0
100
AcDbMText
 10
1658.886011297077
 20
1608.45829157715
 30
0.0
 40
30.0
 41
0.0
 71
     5
 72
     1
  1
20
 11
0.0000000000000001
 21
1.0
 31
0.0
 73
     1
 44
1.0
1001
ACAD
1000
MTEXTBEGIN
1070
    73
1070
     1
1070
    44
1040
1.0
1070
    74
1070
     0
1000
MTEXTEND
  0
INSERT
  5
8399
330
7CC2
100
AcDbEntity
  8
実形
 62
     0
370
    18
100
AcDbBlockReference
  2
_Dot
 10
1675.826018271261
 20
1565.759223040568
 30
0.0
 41
10.0
 42
10.0
 43
10.0
 50
90.0
  0
INSERT
  5
839A
330
7CC2
100
AcDbEntity
  8
実形
 62
     0
370
    18
100
AcDbBlockReference
  2
_Dot
 10
1675.826018271261
 20
757.7592230405679
 30
0.0
 41
10.0
 42
10.0
 43
10.0
 50
270.0
  0
POINT
  5
839B
330
7CC2
100
AcDbEntity
  8
Defpoints
 62
     0
100
AcDbPoint
 10
1564.62547870423
 20
1565.759223040568
 30
0.0
  0
POINT
  5
839C
330
7CC2
100
AcDbEntity
  8
Defpoints
 62
     0
100
AcDbPoint
 10
1564.625478704229
 20
757.7592230405679
 30
0.0
  0
POINT
  5
839D
330
7CC2
100
AcDbEntity
  8
Defpoints
 62
     0
100
AcDbPoint
 10
1675.826018271261
 20
757.7592230405679
 30
0.0
  0
ENDBLK
  5
7CCD
330
7CC2
100
AcDbEntity
  8
0
 62
     3
100
AcDbBlockEnd
  0
BLOCK
  5
7CD8
330
7CCE
100
AcDbEntity
  8
0
 62
     3
100
AcDbBlockBegin
  2
*D60
 70
     1
 10
0.0
 20
0.0
 30
0.0
  3
*D60
  1

  0
LINE
  5
839E
330
7CCE
100
AcDbEntity
  8
実形
 62
     0
370
    18
100
AcDbLine
 10
1629.62547870423
 20
1525.759223040568
 30
0.0
 11
1675.826018271261
 21
1525.759223040568
 31
0.0
  0
LINE
  5
839F
330
7CCE
100
AcDbEntity
  8
実形
 62
     0
370
    18
100
AcDbLine
 10
1629.62547870423
 20
797.7592230405678
 30
0.0
 11
1675.826018271261
 21
797.7592230405678
 31
0.0
  0
LINE
  5
83A0
330
7CCE
100
AcDbEntity
  8
実形
 62
     0
370
    18
100
AcDbLine
 10
1675.826018271261
 20
1515.759223040568
 30
0.0
 11
1675.826018271261
 21
807.7592230405681
 31
0.0
  0
MTEXT
  5
83A1
330
7CCE
100
AcDbEntity
  8
実形
 62
     0
100
AcDbMText
 10
1653.988990161749
 20
720.0986130909658
 30
0.0
 40
30.0
 41
0.0
 71
     5
 72
     1
  1
20
 11
0.0000000000000001
 21
1.0
 31
0.0
 73
     1
 44
1.0
1001
ACAD
1000
MTEXTBEGIN
1070
    73
1070
     1
1070
    44
1040
1.0
1070
    74
1070
     0
1000
MTEXTEND
  0
INSERT
  5
83A2
330
7CCE
100
AcDbEntity
  8
実形
 62
     0
370
    18
100
AcDbBlockReference
  2
_Dot
 10
1675.826018271261
 20
1525.759223040568
 30
0.0
 41
10.0
 42
10.0
 43
10.0
 50
90.0
  0
INSERT
  5
83A3
330
7CCE
100
AcDbEntity
  8
実形
 62
     0
370
    18
100
AcDbBlockReference
  2
_Dot
 10
1675.826018271261
 20
797.7592230405678
 30
0.0
 41
10.0
 42
10.0
 43
10.0
 50
270.0
  0
POINT
  5
83A4
330
7CCE
100
AcDbEntity
  8
Defpoints
 62
     0
100
AcDbPoint
 10
1564.62547870423
 20
1525.759223040568
 30
0.0
  0
POINT
  5
83A5
330
7CCE
100
AcDbEntity
  8
Defpoints
 62
     0
100
AcDbPoint
 10
1564.62547870423
 20
797.7592230405678
 30
0.0
  0
POINT
  5
83A6
330
7CCE
100
AcDbEntity
  8
Defpoints
 62
     0
100
AcDbPoint
 10
1675.826018271261
 20
797.7592230405678
 30
0.0
  0
ENDBLK
  5
7CD9
330
7CCE
100
AcDbEntity
  8
0
 62
     3
100
AcDbBlockEnd
  0
BLOCK
  5
7CE6
330
7CDA
100
AcDbEntity
  8
0
 62
     3
100
AcDbBlockBegin
  2
*D61
 70
     1
 10
0.0
 20
0.0
 30
0.0
  3
*D61
  1

  0
LINE
  5
83A7
330
7CDA
100
AcDbEntity
  8
実形
 62
     0
370
    18
100
AcDbLine
 10
1821.570358046311
 20
691.1432538814079
 30
0.0
 11
1821.570358046311
 21
667.0740218893372
 31
0.0
  0
LINE
  5
83A8
330
7CDA
100
AcDbEntity
  8
実形
 62
     0
370
    18
100
AcDbLine
 10
1851.57035804631
 20
692.2981631212643
 30
0.0
 11
1851.57035804631
 21
667.0740218893372
 31
0.0
  0
LINE
  5
83A9
330
7CDA
100
AcDbEntity
  8
実形
 62
     0
370
    18
100
AcDbLine
 10
1811.57035804631
 20
667.0740218893372
 30
0.0
 11
1801.57035804631
 21
667.0740218893372
 31
0.0
  0
LINE
  5
83AA
330
7CDA
100
AcDbEntity
  8
実形
 62
     0
370
    18
100
AcDbLine
 10
1861.57035804631
 20
667.0740218893372
 30
0.0
 11
1871.57035804631
 21
667.0740218893372
 31
0.0
  0
MTEXT
  5
83AB
330
7CDA
100
AcDbEntity
  8
実形
 62
     0
100
AcDbMText
 10
1838.025560786389
 20
636.5960105308186
 30
0.0
 40
30.0
 41
0.0
 71
     5
 72
     1
  1
15
 73
     1
 44
1.0
1001
ACAD
1000
MTEXTBEGIN
1070
    73
1070
     1
1070
    44
1040
1.0
1070
    74
1070
     0
1000
MTEXTEND
  0
LINE
  5
83AC
330
7CDA
100
AcDbEntity
  8
実形
 62
     0
370
    18
100
AcDbLine
 10
1821.570358046311
 20
667.0740218893372
 30
0.0
 11
1851.57035804631
 21
667.0740218893372
 31
0.0
  0
INSERT
  5
83AD
330
7CDA
100
AcDbEntity
  8
実形
 62
     0
370
    18
100
AcDbBlockReference
  2
_Dot
 10
1821.570358046311
 20
667.0740218893372
 30
0.0
 41
10.0
 42
10.0
 43
10.0
  0
INSERT
  5
83AE
330
7CDA
100
AcDbEntity
  8
実形
 62
     0
370
    18
100
AcDbBlockReference
  2
_Dot
 10
1851.57035804631
 20
667.0740218893372
 30
0.0
 41
10.0
 42
10.0
 43
10.0
 50
180.0
  0
POINT
  5
83AF
330
7CDA
100
AcDbEntity
  8
Defpoints
 62
     0
100
AcDbPoint
 10
1821.570358046311
 20
756.1432538814077
 30
0.0
  0
POINT
  5
83B0
330
7CDA
100
AcDbEntity
  8
Defpoints
 62
     0
100
AcDbPoint
 10
1851.57035804631
 20
757.2981631212643
 30
0.0
  0
POINT
  5
83B1
330
7CDA
100
AcDbEntity
  8
Defpoints
 62
     0
100
AcDbPoint
 10
1851.57035804631
 20
667.0740218893372
 30
0.0
  0
ENDBLK
  5
7CE7
330
7CDA
100
AcDbEntity
  8
0
 62
     3
100
AcDbBlockEnd
  0
BLOCK
  5
7CF4
330
7CE8
100
AcDbEntity
  8
0
 62
     3
100
AcDbBlockBegin
  2
*D62
 70
     1
 10
0.0
 20
0.0
 30
0.0
  3
*D62
  1

  0
LINE
  5
83B2
330
7CE8
100
AcDbEntity
  8
実形
 62
     0
370
    18
100
AcDbLine
 10
1926.418968141132
 20
809.7592230405675
 30
0.0
 11
1961.249525000896
 21
809.7592230405675
 31
0.0
  0
LINE
  5
83B3
330
7CE8
100
AcDbEntity
  8
実形
 62
     0
370
    18
100
AcDbLine
 10
1926.076922756456
 20
797.7592230405678
 30
0.0
 11
1961.249525000896
 21
797.7592230405678
 31
0.0
  0
LINE
  5
83B4
330
7CE8
100
AcDbEntity
  8
実形
 62
     0
370
    18
100
AcDbLine
 10
1961.249525000896
 20
819.7592230405675
 30
0.0
 11
1961.249525000896
 21
829.7592230405676
 31
0.0
  0
LINE
  5
83B5
330
7CE8
100
AcDbEntity
  8
実形
 62
     0
370
    18
100
AcDbLine
 10
1961.249525000896
 20
787.7592230405679
 30
0.0
 11
1961.249525000896
 21
777.7592230405679
 31
0.0
  0
MTEXT
  5
83B6
330
7CE8
100
AcDbEntity
  8
実形
 62
     0
100
AcDbMText
 10
1904.765896881136
 20
804.7339087848579
 30
0.0
 40
25.0
 41
0.0
 71
     5
 72
     1
  1
6
 11
0.0000000000000001
 21
1.0
 31
0.0
 73
     1
 44
1.0
1001
ACAD
1000
MTEXTBEGIN
1070
    73
1070
     1
1070
    44
1040
1.0
1070
    74
1070
     0
1000
MTEXTEND
  0
LINE
  5
83B7
330
7CE8
100
AcDbEntity
  8
実形
 62
     0
370
    18
100
AcDbLine
 10
1961.249525000896
 20
809.7592230405675
 30
0.0
 11
1961.249525000896
 21
797.7592230405678
 31
0.0
  0
INSERT
  5
83B8
330
7CE8
100
AcDbEntity
  8
実形
 62
     0
370
    18
100
AcDbBlockReference
  2
_Dot
 10
1961.249525000896
 20
809.7592230405675
 30
0.0
 41
10.0
 42
10.0
 43
10.0
 50
270.0
  0
INSERT
  5
83B9
330
7CE8
100
AcDbEntity
  8
実形
 62
     0
370
    18
100
AcDbBlockReference
  2
_Dot
 10
1961.249525000896
 20
797.7592230405678
 30
0.0
 41
10.0
 42
10.0
 43
10.0
 50
90.0
  0
POINT
  5
83BA
330
7CE8
100
AcDbEntity
  8
Defpoints
 62
     0
100
AcDbPoint
 10
1861.418968141132
 20
809.7592230405675
 30
0.0
  0
POINT
  5
83BB
330
7CE8
100
AcDbEntity
  8
Defpoints
 62
     0
100
AcDbPoint
 10
1861.076922756456
 20
797.7592230405678
 30
0.0
  0
POINT
  5
83BC
330
7CE8
100
AcDbEntity
  8
Defpoints
 62
     0
100
AcDbPoint
 10
1961.249525000896
 20
797.7592230405678
 30
0.0
  0
ENDBLK
  5
7CF5
330
7CE8
100
AcDbEntity
  8
0
 62
     3
100
AcDbBlockEnd
  0
BLOCK
  5
7D00
330
7CF6
100
AcDbEntity
  8
0
 62
     3
100
AcDbBlockBegin
  2
*D63
 70
     1
 10
0.0
 20
0.0
 30
0.0
  3
*D63
  1

  0
LINE
  5
83BD
330
7CF6
100
AcDbEntity
  8
実形
 62
     0
370
    18
100
AcDbLine
 10
1927.489256681749
 20
1525.759223040568
 30
0.0
 11
1961.249525000896
 21
1525.759223040568
 31
0.0
  0
LINE
  5
83BE
330
7CF6
100
AcDbEntity
  8
実形
 62
     0
370
    18
100
AcDbLine
 10
1925.802531397689
 20
1565.759223040568
 30
0.0
 11
1961.249525000896
 21
1565.759223040568
 31
0.0
  0
LINE
  5
83BF
330
7CF6
100
AcDbEntity
  8
実形
 62
     0
370
    18
100
AcDbLine
 10
1961.249525000896
 20
1535.759223040568
 30
0.0
 11
1961.249525000896
 21
1555.759223040568
 31
0.0
  0
MTEXT
  5
83C0
330
7CF6
100
AcDbEntity
  8
実形
 62
     0
100
AcDbMText
 10
1942.556280761977
 20
1606.319072285886
 30
0.0
 40
30.0
 41
0.0
 71
     5
 72
     1
  1
20
 11
0.0000000000000001
 21
1.0
 31
0.0
 73
     1
 44
1.0
1001
ACAD
1000
MTEXTBEGIN
1070
    73
1070
     1
1070
    44
1040
1.0
1070
    74
1070
     0
1000
MTEXTEND
  0
INSERT
  5
83C1
330
7CF6
100
AcDbEntity
  8
実形
 62
     0
370
    18
100
AcDbBlockReference
  2
_Dot
 10
1961.249525000896
 20
1525.759223040568
 30
0.0
 41
10.0
 42
10.0
 43
10.0
 50
270.0
  0
INSERT
  5
83C2
330
7CF6
100
AcDbEntity
  8
実形
 62
     0
370
    18
100
AcDbBlockReference
  2
_Dot
 10
1961.249525000896
 20
1565.759223040568
 30
0.0
 41
10.0
 42
10.0
 43
10.0
 50
90.0
  0
POINT
  5
83C3
330
7CF6
100
AcDbEntity
  8
Defpoints
 62
     0
100
AcDbPoint
 10
1862.489256681749
 20
1525.759223040568
 30
0.0
  0
POINT
  5
83C4
330
7CF6
100
AcDbEntity
  8
Defpoints
 62
     0
100
AcDbPoint
 10
1860.802531397689
 20
1565.759223040568
 30
0.0
  0
POINT
  5
83C5
330
7CF6
100
AcDbEntity
  8
Defpoints
 62
     0
100
AcDbPoint
 10
1961.249525000896
 20
1565.759223040568
 30
0.0
  0
ENDBLK
  5
7D01
330
7CF6
100
AcDbEntity
  8
0
 62
     3
100
AcDbBlockEnd
  0
BLOCK
  5
7D0E
330
7D02
100
AcDbEntity
  8
0
 62
     3
100
AcDbBlockBegin
  2
*D64
 70
     1
 10
0.0
 20
0.0
 30
0.0
  3
*D64
  1

  0
LINE
  5
83C6
330
7D02
100
AcDbEntity
  8
実形
 62
     0
370
    18
100
AcDbLine
 10
1821.570358046311
 20
1632.375192199728
 30
0.0
 11
1821.570358046311
 21
1656.444424191799
 31
0.0
  0
LINE
  5
83C7
330
7D02
100
AcDbEntity
  8
実形
 62
     0
370
    18
100
AcDbLine
 10
1851.57035804631
 20
1631.220282959872
 30
0.0
 11
1851.57035804631
 21
1656.444424191799
 31
0.0
  0
LINE
  5
83C8
330
7D02
100
AcDbEntity
  8
実形
 62
     0
370
    18
100
AcDbLine
 10
1811.57035804631
 20
1656.444424191799
 30
0.0
 11
1801.57035804631
 21
1656.444424191799
 31
0.0
  0
LINE
  5
83C9
330
7D02
100
AcDbEntity
  8
実形
 62
     0
370
    18
100
AcDbLine
 10
1861.57035804631
 20
1656.444424191799
 30
0.0
 11
1871.57035804631
 21
1656.444424191799
 31
0.0
  0
MTEXT
  5
83CA
330
7D02
100
AcDbEntity
  8
実形
 62
     0
100
AcDbMText
 10
1838.025560786389
 20
1686.922435550317
 30
0.0
 40
30.0
 41
0.0
 71
     5
 72
     1
  1
15
 73
     1
 44
1.0
1001
ACAD
1000
MTEXTBEGIN
1070
    73
1070
     1
1070
    44
1040
1.0
1070
    74
1070
     0
1000
MTEXTEND
  0
LINE
  5
83CB
330
7D02
100
AcDbEntity
  8
実形
 62
     0
370
    18
100
AcDbLine
 10
1821.570358046311
 20
1656.444424191799
 30
0.0
 11
1851.57035804631
 21
1656.444424191799
 31
0.0
  0
INSERT
  5
83CC
330
7D02
100
AcDbEntity
  8
実形
 62
     0
370
    18
100
AcDbBlockReference
  2
_Dot
 10
1821.570358046311
 20
1656.444424191799
 30
0.0
 41
10.0
 42
10.0
 43
10.0
  0
INSERT
  5
83CD
330
7D02
100
AcDbEntity
  8
実形
 62
     0
370
    18
100
AcDbBlockReference
  2
_Dot
 10
1851.57035804631
 20
1656.444424191799
 30
0.0
 41
10.0
 42
10.0
 43
10.0
 50
180.0
  0
POINT
  5
83CE
330
7D02
100
AcDbEntity
  8
Defpoints
 62
     0
100
AcDbPoint
 10
1821.570358046311
 20
1567.375192199728
 30
0.0
  0
POINT
  5
83CF
330
7D02
100
AcDbEntity
  8
Defpoints
 62
     0
100
AcDbPoint
 10
1851.57035804631
 20
1566.220282959871
 30
0.0
  0
POINT
  5
83D0
330
7D02
100
AcDbEntity
  8
Defpoints
 62
     0
100
AcDbPoint
 10
1851.57035804631
 20
1656.444424191799
 30
0.0
  0
ENDBLK
  5
7D0F
330
7D02
100
AcDbEntity
  8
0
 62
     3
100
AcDbBlockEnd
  0
BLOCK
  5
7D1C
330
7D10
100
AcDbEntity
  8
0
 62
     3
100
AcDbBlockBegin
  2
*D65
 70
     1
 10
0.0
 20
0.0
 30
0.0
  3
*D65
  1

  0
LINE
  5
83D1
330
7D10
100
AcDbEntity
  8
実形
 62
     0
370
    18
100
AcDbLine
 10
1926.418968141132
 20
1513.759223040568
 30
0.0
 11
1961.249525000896
 21
1513.759223040568
 31
0.0
  0
LINE
  5
83D2
330
7D10
100
AcDbEntity
  8
実形
 62
     0
370
    18
100
AcDbLine
 10
1926.145925469464
 20
1525.759223040568
 30
0.0
 11
1961.249525000896
 21
1525.759223040568
 31
0.0
  0
LINE
  5
83D3
330
7D10
100
AcDbEntity
  8
実形
 62
     0
370
    18
100
AcDbLine
 10
1961.249525000896
 20
1503.759223040568
 30
0.0
 11
1961.249525000896
 21
1493.759223040568
 31
0.0
  0
LINE
  5
83D4
330
7D10
100
AcDbEntity
  8
実形
 62
     0
370
    18
100
AcDbLine
 10
1961.249525000896
 20
1535.759223040568
 30
0.0
 11
1961.249525000896
 21
1545.759223040568
 31
0.0
  0
MTEXT
  5
83D5
330
7D10
100
AcDbEntity
  8
実形
 62
     0
100
AcDbMText
 10
1903.383806296113
 20
1520.131317903164
 30
0.0
 40
25.0
 41
0.0
 71
     5
 72
     1
  1
6
 11
0.0000000000000001
 21
1.0
 31
0.0
 73
     1
 44
1.0
1001
ACAD
1000
MTEXTBEGIN
1070
    73
1070
     1
1070
    44
1040
1.0
1070
    74
1070
     0
1000
MTEXTEND
  0
LINE
  5
83D6
330
7D10
100
AcDbEntity
  8
実形
 62
     0
370
    18
100
AcDbLine
 10
1961.249525000896
 20
1513.759223040568
 30
0.0
 11
1961.249525000896
 21
1525.759223040568
 31
0.0
  0
INSERT
  5
83D7
330
7D10
100
AcDbEntity
  8
実形
 62
     0
370
    18
100
AcDbBlockReference
  2
_Dot
 10
1961.249525000896
 20
1513.759223040568
 30
0.0
 41
10.0
 42
10.0
 43
10.0
 50
90.0
  0
INSERT
  5
83D8
330
7D10
100
AcDbEntity
  8
実形
 62
     0
370
    18
100
AcDbBlockReference
  2
_Dot
 10
1961.249525000896
 20
1525.759223040568
 30
0.0
 41
10.0
 42
10.0
 43
10.0
 50
270.0
  0
POINT
  5
83D9
330
7D10
100
AcDbEntity
  8
Defpoints
 62
     0
100
AcDbPoint
 10
1861.418968141132
 20
1513.759223040568
 30
0.0
  0
POINT
  5
83DA
330
7D10
100
AcDbEntity
  8
Defpoints
 62
     0
100
AcDbPoint
 10
1861.145925469464
 20
1525.759223040568
 30
0.0
  0
POINT
  5
83DB
330
7D10
100
AcDbEntity
  8
Defpoints
 62
     0
100
AcDbPoint
 10
1961.249525000896
 20
1525.759223040568
 30
0.0
  0
ENDBLK
  5
7D1D
330
7D10
100
AcDbEntity
  8
0
 62
     3
100
AcDbBlockEnd
  0
BLOCK
  5
810F
330
8105
100
AcDbEntity
  8
0
 62
     3
100
AcDbBlockBegin
  2
*D66
 70
     1
 10
0.0
 20
0.0
 30
0.0
  3
*D66
  1

  0
LINE
  5
8141
330
8105
100
AcDbEntity
  8
実形
 62
     0
370
    18
100
AcDbLine
 10
910.7710340146242
 20
631.6154900242191
 30
0.0
 11
910.7710340146242
 21
581.7761970494935
 31
0.0
  0
LINE
  5
8142
330
8105
100
AcDbEntity
  8
実形
 62
     0
370
    18
100
AcDbLine
 10
1306.771034014624
 20
631.6154900242191
 30
0.0
 11
1306.771034014624
 21
581.7761970494935
 31
0.0
  0
LINE
  5
8143
330
8105
100
AcDbEntity
  8
実形
 62
     0
370
    18
100
AcDbLine
 10
920.7710340146244
 20
581.7761970494935
 30
0.0
 11
1296.771034014624
 21
581.7761970494935
 31
0.0
  0
MTEXT
  5
8144
330
8105
100
AcDbEntity
  8
実形
 62
     0
100
AcDbMText
 10
1109.205356699319
 20
603.3761970494935
 30
0.0
 40
30.0
 41
0.0
 71
     5
 72
     1
  1
198
 73
     1
 44
1.0
1001
ACAD
1000
MTEXTBEGIN
1070
    73
1070
     1
1070
    44
1040
1.0
1070
    74
1070
     0
1000
MTEXTEND
  0
INSERT
  5
8145
330
8105
100
AcDbEntity
  8
実形
 62
     0
370
    18
100
AcDbBlockReference
  2
_Dot
 10
910.7710340146242
 20
581.7761970494935
 30
0.0
 41
10.0
 42
10.0
 43
10.0
 50
180.0
  0
INSERT
  5
8146
330
8105
100
AcDbEntity
  8
実形
 62
     0
370
    18
100
AcDbBlockReference
  2
_Dot
 10
1306.771034014624
 20
581.7761970494935
 30
0.0
 41
10.0
 42
10.0
 43
10.0
  0
POINT
  5
8147
330
8105
100
AcDbEntity
  8
Defpoints
 62
     0
100
AcDbPoint
 10
910.7710340146242
 20
696.615490024219
 30
0.0
  0
POINT
  5
8148
330
8105
100
AcDbEntity
  8
Defpoints
 62
     0
100
AcDbPoint
 10
1306.771034014624
 20
696.615490024219
 30
0.0
  0
POINT
  5
8149
330
8105
100
AcDbEntity
  8
Defpoints
 62
     0
100
AcDbPoint
 10
1306.771034014624
 20
581.7761970494935
 30
0.0
  0
ENDBLK
  5
8110
330
8105
100
AcDbEntity
  8
0
 62
     3
100
AcDbBlockEnd
  0
BLOCK
  5
811B
330
8111
100
AcDbEntity
  8
0
 62
     3
100
AcDbBlockBegin
  2
*D67
 70
     1
 10
0.0
 20
0.0
 30
0.0
  3
*D67
  1

  0
LINE
  5
814A
330
8111
100
AcDbEntity
  8
実形
 62
     0
370
    18
100
AcDbLine
 10
898.7710340146241
 20
631.6154900242191
 30
0.0
 11
898.7710340146241
 21
581.7761970494935
 31
0.0
  0
LINE
  5
814B
330
8111
100
AcDbEntity
  8
実形
 62
     0
370
    18
100
AcDbLine
 10
1318.771034014624
 20
631.6154900242191
 30
0.0
 11
1318.771034014624
 21
581.7761970494935
 31
0.0
  0
LINE
  5
814C
330
8111
100
AcDbEntity
  8
実形
 62
     0
370
    18
100
AcDbLine
 10
908.7710340146243
 20
581.7761970494935
 30
0.0
 11
1308.771034014624
 21
581.7761970494935
 31
0.0
  0
MTEXT
  5
814D
330
8111
100
AcDbEntity
  8
実形
 62
     0
100
AcDbMText
 10
1312.448027638127
 20
658.5344019312409
 30
0.0
 40
30.0
 41
0.0
 71
     5
 72
     1
  1
6
 73
     1
 44
1.0
1001
ACAD
1000
MTEXTBEGIN
1070
    73
1070
     1
1070
    44
1040
1.0
1070
    74
1070
     0
1000
MTEXTEND
  0
INSERT
  5
814E
330
8111
100
AcDbEntity
  8
実形
 62
     0
370
    18
100
AcDbBlockReference
  2
_Dot
 10
898.7710340146241
 20
581.7761970494935
 30
0.0
 41
10.0
 42
10.0
 43
10.0
 50
180.0
  0
INSERT
  5
814F
330
8111
100
AcDbEntity
  8
実形
 62
     0
370
    18
100
AcDbBlockReference
  2
_Dot
 10
1318.771034014624
 20
581.7761970494935
 30
0.0
 41
10.0
 42
10.0
 43
10.0
  0
POINT
  5
8150
330
8111
100
AcDbEntity
  8
Defpoints
 62
     0
100
AcDbPoint
 10
898.7710340146241
 20
696.615490024219
 30
0.0
  0
POINT
  5
8151
330
8111
100
AcDbEntity
  8
Defpoints
 62
     0
100
AcDbPoint
 10
1318.771034014624
 20
696.615490024219
 30
0.0
  0
POINT
  5
8152
330
8111
100
AcDbEntity
  8
Defpoints
 62
     0
100
AcDbPoint
 10
1318.771034014624
 20
581.7761970494935
 30
0.0
  0
ENDBLK
  5
811C
330
8111
100
AcDbEntity
  8
0
 62
     3
100
AcDbBlockEnd
  0
BLOCK
  5
8127
330
811D
100
AcDbEntity
  8
0
 62
     3
100
AcDbBlockBegin
  2
*D68
 70
     1
 10
0.0
 20
0.0
 30
0.0
  3
*D68
  1

  0
LINE
  5
8153
330
811D
100
AcDbEntity
  8
実形
 62
     0
370
    18
100
AcDbLine
 10
898.0826962644341
 20
576.6876240071074
 30
0.0
 11
898.0826962644341
 21
581.7761970494935
 31
0.0
  0
LINE
  5
8154
330
811D
100
AcDbEntity
  8
実形
 62
     0
370
    18
100
AcDbLine
 10
1304.271034014624
 20
580.8767455479187
 30
0.0
 11
1304.271034014624
 21
581.7761970494935
 31
0.0
  0
LINE
  5
8155
330
811D
100
AcDbEntity
  8
実形
 62
     0
370
    18
100
AcDbLine
 10
908.0826962644341
 20
581.7761970494935
 30
0.0
 11
1294.271034014624
 21
581.7761970494935
 31
0.0
  0
MTEXT
  5
8156
330
811D
100
AcDbEntity
  8
実形
 62
     0
100
AcDbMText
 10
903.4829687759977
 20
655.8828868774529
 30
0.0
 40
30.0
 41
0.0
 71
     5
 72
     1
  1
6
 73
     1
 44
1.0
1001
ACAD
1000
MTEXTBEGIN
1070
    73
1070
     1
1070
    44
1040
1.0
1070
    74
1070
     0
1000
MTEXTEND
  0
INSERT
  5
8157
330
811D
100
AcDbEntity
  8
実形
 62
     0
370
    18
100
AcDbBlockReference
  2
_Dot
 10
898.0826962644341
 20
581.7761970494935
 30
0.0
 41
10.0
 42
10.0
 43
10.0
 50
180.0
  0
INSERT
  5
8158
330
811D
100
AcDbEntity
  8
実形
 62
     0
370
    18
100
AcDbBlockReference
  2
_Dot
 10
1304.271034014624
 20
581.7761970494935
 30
0.0
 41
10.0
 42
10.0
 43
10.0
  0
POINT
  5
8159
330
811D
100
AcDbEntity
  8
Defpoints
 62
     0
100
AcDbPoint
 10
898.0826962644341
 20
641.6876240071074
 30
0.0
  0
POINT
  5
815A
330
811D
100
AcDbEntity
  8
Defpoints
 62
     0
100
AcDbPoint
 10
1304.271034014624
 20
645.8767455479187
 30
0.0
  0
POINT
  5
815B
330
811D
100
AcDbEntity
  8
Defpoints
 62
     0
100
AcDbPoint
 10
1304.271034014624
 20
581.7761970494935
 30
0.0
  0
ENDBLK
  5
8128
330
811D
100
AcDbEntity
  8
0
 62
     3
100
AcDbBlockEnd
  0
BLOCK
  5
8133
330
8129
100
AcDbEntity
  8
0
 62
     3
100
AcDbBlockBegin
  2
*D69
 70
     1
 10
0.0
 20
0.0
 30
0.0
  3
*D69
  1

  0
LINE
  5
815C
330
8129
100
AcDbEntity
  8
実形
 62
     0
370
    18
100
AcDbLine
 10
1318.771034014624
 20
630.365687451836
 30
0.0
 11
1318.771034014624
 21
581.7761970494935
 31
0.0
  0
LINE
  5
815D
330
8129
100
AcDbEntity
  8
実形
 62
     0
370
    18
100
AcDbLine
 10
1358.771034014624
 20
630.3656874518362
 30
0.0
 11
1358.771034014624
 21
581.7761970494935
 31
0.0
  0
LINE
  5
815E
330
8129
100
AcDbEntity
  8
実形
 62
     0
370
    18
100
AcDbLine
 10
1328.771034014624
 20
581.7761970494935
 30
0.0
 11
1348.771034014624
 21
581.7761970494935
 31
0.0
  0
MTEXT
  5
815F
330
8129
100
AcDbEntity
  8
実形
 62
     0
100
AcDbMText
 10
1396.501054352438
 20
605.7253183657726
 30
0.0
 40
30.0
 41
0.0
 71
     5
 72
     1
  1
20
 73
     1
 44
1.0
1001
ACAD
1000
MTEXTBEGIN
1070
    73
1070
     1
1070
    44
1040
1.0
1070
    74
1070
     0
1000
MTEXTEND
  0
INSERT
  5
8160
330
8129
100
AcDbEntity
  8
実形
 62
     0
370
    18
100
AcDbBlockReference
  2
_Dot
 10
1318.771034014624
 20
581.7761970494935
 30
0.0
 41
10.0
 42
10.0
 43
10.0
 50
180.0
  0
INSERT
  5
8161
330
8129
100
AcDbEntity
  8
実形
 62
     0
370
    18
100
AcDbBlockReference
  2
_Dot
 10
1358.771034014624
 20
581.7761970494935
 30
0.0
 41
10.0
 42
10.0
 43
10.0
  0
POINT
  5
8162
330
8129
100
AcDbEntity
  8
Defpoints
 62
     0
100
AcDbPoint
 10
1318.771034014624
 20
695.3656874518359
 30
0.0
  0
POINT
  5
8163
330
8129
100
AcDbEntity
  8
Defpoints
 62
     0
100
AcDbPoint
 10
1358.771034014624
 20
695.3656874518363
 30
0.0
  0
POINT
  5
8164
330
8129
100
AcDbEntity
  8
Defpoints
 62
     0
100
AcDbPoint
 10
1358.771034014624
 20
581.7761970494935
 30
0.0
  0
ENDBLK
  5
8134
330
8129
100
AcDbEntity
  8
0
 62
     3
100
AcDbBlockEnd
  0
BLOCK
  5
813F
330
8135
100
AcDbEntity
  8
0
 62
     3
100
AcDbBlockBegin
  2
*D70
 70
     1
 10
0.0
 20
0.0
 30
0.0
  3
*D70
  1

  0
LINE
  5
8165
330
8135
100
AcDbEntity
  8
実形
 62
     0
370
    18
100
AcDbLine
 10
858.7710340146236
 20
630.365687451836
 30
0.0
 11
858.7710340146236
 21
581.7761970494935
 31
0.0
  0
LINE
  5
8166
330
8135
100
AcDbEntity
  8
実形
 62
     0
370
    18
100
AcDbLine
 10
898.7710340146241
 20
630.3656874518362
 30
0.0
 11
898.7710340146241
 21
581.7761970494935
 31
0.0
  0
LINE
  5
8167
330
8135
100
AcDbEntity
  8
実形
 62
     0
370
    18
100
AcDbLine
 10
868.7710340146237
 20
581.7761970494935
 30
0.0
 11
888.7710340146242
 21
581.7761970494935
 31
0.0
  0
MTEXT
  5
8168
330
8135
100
AcDbEntity
  8
実形
 62
     0
100
AcDbMText
 10
819.6403534577875
 20
604.698150384595
 30
0.0
 40
30.0
 41
0.0
 71
     5
 72
     1
  1
20
 73
     1
 44
1.0
1001
ACAD
1000
MTEXTBEGIN
1070
    73
1070
     1
1070
    44
1040
1.0
1070
    74
1070
     0
1000
MTEXTEND
  0
INSERT
  5
8169
330
8135
100
AcDbEntity
  8
実形
 62
     0
370
    18
100
AcDbBlockReference
  2
_Dot
 10
858.7710340146236
 20
581.7761970494935
 30
0.0
 41
10.0
 42
10.0
 43
10.0
 50
180.0
  0
INSERT
  5
816A
330
8135
100
AcDbEntity
  8
実形
 62
     0
370
    18
100
AcDbBlockReference
  2
_Dot
 10
898.7710340146241
 20
581.7761970494935
 30
0.0
 41
10.0
 42
10.0
 43
10.0
  0
POINT
  5
816B
330
8135
100
AcDbEntity
  8
Defpoints
 62
     0
100
AcDbPoint
 10
858.7710340146236
 20
695.3656874518359
 30
0.0
  0
POINT
  5
816C
330
8135
100
AcDbEntity
  8
Defpoints
 62
     0
100
AcDbPoint
 10
898.7710340146241
 20
695.3656874518363
 30
0.0
  0
POINT
  5
816D
330
8135
100
AcDbEntity
  8
Defpoints
 62
     0
100
AcDbPoint
 10
898.7710340146241
 20
581.7761970494935
 30
0.0
  0
ENDBLK
  5
8140
330
8135
100
AcDbEntity
  8
0
 62
     3
100
AcDbBlockEnd
  0
BLOCK
  5
82FE
330
82F4
100
AcDbEntity
  8
0
 62
     3
100
AcDbBlockBegin
  2
*D71
 70
     1
 10
0.0
 20
0.0
 30
0.0
  3
*D71
  1

  0
LINE
  5
8318
330
82F4
100
AcDbEntity
  8
実形
 62
     0
370
    18
100
AcDbLine
 10
1496.128647434989
 20
1191.759223040568
 30
0.0
 11
1544.102903920704
 21
1191.759223040568
 31
0.0
  0
LINE
  5
8319
330
82F4
100
AcDbEntity
  8
実形
 62
     0
370
    18
100
AcDbLine
 10
1496.128647434989
 20
1131.759223040568
 30
0.0
 11
1544.102903920704
 21
1131.759223040567
 31
0.0
  0
LINE
  5
831A
330
82F4
100
AcDbEntity
  8
実形
 62
     0
370
    18
100
AcDbLine
 10
1544.102903920704
 20
1181.759223040568
 30
0.0
 11
1544.102903920704
 21
1141.759223040567
 31
0.0
  0
INSERT
  5
831B
330
82F4
100
AcDbEntity
  8
実形
 62
     0
370
    18
100
AcDbBlockReference
  2
_Dot
 10
1544.102903920704
 20
1191.759223040568
 30
0.0
 41
10.0
 42
10.0
 43
10.0
 50
90.0
  0
INSERT
  5
831C
330
82F4
100
AcDbEntity
  8
実形
 62
     0
370
    18
100
AcDbBlockReference
  2
_Dot
 10
1544.102903920704
 20
1131.759223040567
 30
0.0
 41
10.0
 42
10.0
 43
10.0
 50
270.0
  0
MTEXT
  5
831D
330
82F4
100
AcDbEntity
  8
実形
 62
     0
100
AcDbMText
 10
1522.502903920704
 20
1161.759223040568
 30
0.0
 40
30.0
 41
0.0
 71
     5
 72
     1
  1
30
 11
0.0000000000000001
 21
1.0
 31
0.0
 73
     1
 44
1.0
1001
ACAD
1000
MTEXTBEGIN
1070
    73
1070
     1
1070
    44
1040
1.0
1070
    74
1070
     0
1000
MTEXTEND
  0
POINT
  5
831E
330
82F4
100
AcDbEntity
  8
Defpoints
 62
     0
100
AcDbPoint
 10
1431.128647434989
 20
1191.759223040568
 30
0.0
  0
POINT
  5
831F
330
82F4
100
AcDbEntity
  8
Defpoints
 62
     0
100
AcDbPoint
 10
1431.128647434989
 20
1131.759223040568
 30
0.0
  0
POINT
  5
8320
330
82F4
100
AcDbEntity
  8
Defpoints
 62
     0
100
AcDbPoint
 10
1544.102903920704
 20
1131.759223040567
 30
0.0
  0
ENDBLK
  5
82FF
330
82F4
100
AcDbEntity
  8
0
 62
     3
100
AcDbBlockEnd
  0
BLOCK
  5
830A
330
8300
100
AcDbEntity
  8
0
 62
     3
100
AcDbBlockBegin
  2
*D72
 70
     1
 10
0.0
 20
0.0
 30
0.0
  3
*D72
  1

  0
LINE
  5
833E
330
8300
100
AcDbEntity
  8
実形
 62
     0
370
    18
100
AcDbLine
 10
1496.647914276826
 20
1513.759223040568
 30
0.0
 11
1544.102903920704
 21
1513.759223040568
 31
0.0
  0
LINE
  5
833F
330
8300
100
AcDbEntity
  8
実形
 62
     0
370
    18
100
AcDbLine
 10
1496.128647434989
 20
1191.759223040568
 30
0.0
 11
1544.102903920704
 21
1191.759223040568
 31
0.0
  0
LINE
  5
8340
330
8300
100
AcDbEntity
  8
実形
 62
     0
370
    18
100
AcDbLine
 10
1544.102903920704
 20
1503.759223040568
 30
0.0
 11
1544.102903920704
 21
1201.759223040568
 31
0.0
  0
INSERT
  5
8341
330
8300
100
AcDbEntity
  8
実形
 62
     0
370
    18
100
AcDbBlockReference
  2
_Dot
 10
1544.102903920704
 20
1513.759223040568
 30
0.0
 41
10.0
 42
10.0
 43
10.0
 50
90.0
  0
INSERT
  5
8342
330
8300
100
AcDbEntity
  8
実形
 62
     0
370
    18
100
AcDbBlockReference
  2
_Dot
 10
1544.102903920704
 20
1191.759223040568
 30
0.0
 41
10.0
 42
10.0
 43
10.0
 50
270.0
  0
MTEXT
  5
8343
330
8300
100
AcDbEntity
  8
実形
 62
     0
100
AcDbMText
 10
1522.502903920704
 20
1352.759223040568
 30
0.0
 40
30.0
 41
0.0
 71
     5
 72
     1
  1
161
 11
0.0000000000000001
 21
1.0
 31
0.0
 73
     1
 44
1.0
1001
ACAD
1000
MTEXTBEGIN
1070
    73
1070
     1
1070
    44
1040
1.0
1070
    74
1070
     0
1000
MTEXTEND
  0
POINT
  5
8344
330
8300
100
AcDbEntity
  8
Defpoints
 62
     0
100
AcDbPoint
 10
1431.647914276826
 20
1513.759223040568
 30
0.0
  0
POINT
  5
8345
330
8300
100
AcDbEntity
  8
Defpoints
 62
     0
100
AcDbPoint
 10
1431.128647434989
 20
1191.759223040568
 30
0.0
  0
POINT
  5
8346
330
8300
100
AcDbEntity
  8
Defpoints
 62
     0
100
AcDbPoint
 10
1544.102903920704
 20
1191.759223040568
 30
0.0
  0
ENDBLK
  5
830B
330
8300
100
AcDbEntity
  8
0
 62
     3
100
AcDbBlockEnd
  0
BLOCK
  5
8366
330
835C
100
AcDbEntity
  8
0
 62
     3
100
AcDbBlockBegin
  2
*D73
 70
     1
 10
0.0
 20
0.0
 30
0.0
  3
*D73
  1

  0
LINE
  5
8368
330
835C
100
AcDbEntity
  8
実形
 62
     0
370
    18
100
AcDbLine
 10
1496.128647434989
 20
1131.759223040568
 30
0.0
 11
1543.583637078868
 21
1131.759223040567
 31
0.0
  0
LINE
  5
8369
330
835C
100
AcDbEntity
  8
実形
 62
     0
370
    18
100
AcDbLine
 10
1495.609380593152
 20
809.7592230405682
 30
0.0
 11
1543.583637078868
 21
809.7592230405682
 31
0.0
  0
LINE
  5
836A
330
835C
100
AcDbEntity
  8
実形
 62
     0
370
    18
100
AcDbLine
 10
1543.583637078868
 20
1121.759223040568
 30
0.0
 11
1543.583637078868
 21
819.7592230405682
 31
0.0
  0
INSERT
  5
836B
330
835C
100
AcDbEntity
  8
実形
 62
     0
370
    18
100
AcDbBlockReference
  2
_Dot
 10
1543.583637078868
 20
1131.759223040567
 30
0.0
 41
10.0
 42
10.0
 43
10.0
 50
90.0
  0
INSERT
  5
836C
330
835C
100
AcDbEntity
  8
実形
 62
     0
370
    18
100
AcDbBlockReference
  2
_Dot
 10
1543.583637078868
 20
809.7592230405682
 30
0.0
 41
10.0
 42
10.0
 43
10.0
 50
270.0
  0
MTEXT
  5
836D
330
835C
100
AcDbEntity
  8
実形
 62
     0
100
AcDbMText
 10
1521.983637078868
 20
970.7592230405683
 30
0.0
 40
30.0
 41
0.0
 71
     5
 72
     1
  1
161
 11
0.0000000000000001
 21
1.0
 31
0.0
 73
     1
 44
1.0
1001
ACAD
1000
MTEXTBEGIN
1070
    73
1070
     1
1070
    44
1040
1.0
1070
    74
1070
     0
1000
MTEXTEND
  0
POINT
  5
836E
330
835C
100
AcDbEntity
  8
Defpoints
 62
     0
100
AcDbPoint
 10
1431.128647434989
 20
1131.759223040568
 30
0.0
  0
POINT
  5
836F
330
835C
100
AcDbEntity
  8
Defpoints
 62
     0
100
AcDbPoint
 10
1430.609380593152
 20
809.7592230405682
 30
0.0
  0
POINT
  5
8370
330
835C
100
AcDbEntity
  8
Defpoints
 62
     0
100
AcDbPoint
 10
1543.583637078868
 20
809.7592230405682
 30
0.0
  0
ENDBLK
  5
8367
330
835C
100
AcDbEntity
  8
0
 62
     3
100
AcDbBlockEnd
  0
ENDSEC
  0
SECTION
  2
ENTITIES
  0
LINE
  5
9C
330
1F
100
AcDbEntity
  8
枠
 62
     0
100
AcDbLine
 10
174.0
 20
3.999999999999089
 30
0.0
 11
2834.0
 21
3.999999999999089
 31
0.0
  0
LINE
  5
A0
330
1F
100
AcDbEntity
  8
枠
 62
     0
100
AcDbLine
 10
2834.0
 20
2023.999999999999
 30
0.0
 11
174.0
 21
2023.999999999999
 31
0.0
  0
LINE
  5
272
330
1F
100
AcDbEntity
  8
実形
 62
     0
100
AcDbLine
 10
2234.0
 20
133.9999999999991
 30
0.0
 11
2234.0
 21
198.9999999999991
 31
0.0
  0
LINE
  5
1B71
330
1F
100
AcDbEntity
  8
枠
 62
     0
100
AcDbLine
 10
2834.0
 20
1959.0
 30
0.0
 11
2114.0
 21
1959.0
 31
0.0
  0
LINE
  5
1B72
330
1F
100
AcDbEntity
  8
枠
 62
     0
100
AcDbLine
 10
2834.0
 20
1893.999999999999
 30
0.0
 11
2114.0
 21
1893.999999999999
 31
0.0
  0
LINE
  5
1B73
330
1F
100
AcDbEntity
  8
枠
 62
     0
100
AcDbLine
 10
1944.0
 20
2023.999999999999
 30
0.0
 11
2834.0
 21
2023.999999999999
 31
0.0
  0
LINE
  5
1B74
330
1F
100
AcDbEntity
  8
枠
 62
     0
100
AcDbLine
 10
2114.0
 20
1893.999999999999
 30
0.0
 11
2114.0
 21
2024.0
 31
0.0
  0
TEXT
  5
1B7B
330
1F
100
AcDbEntity
  8
枠
 62
     0
100
AcDbText
 10
2671.5
 20
1976.5
 30
0.0
 40
30.0
  1
仕上げ
 72
     4
 11
2721.5
 21
1991.5
 31
0.0
100
AcDbText
  0
LINE
  5
1B7C
330
1F
100
AcDbEntity
  8
枠
 62
     0
100
AcDbLine
 10
2609.0
 20
1893.999999999999
 30
0.0
 11
2609.0
 21
2024.0
 31
0.0
  0
TEXT
  5
1B7F
330
1F
100
AcDbEntity
  8
枠
 62
     0
100
AcDbText
 10
2217.0
 20
1976.499999999999
 30
0.0
 40
30.0
  1
材質
 72
     4
 11
2249.0
 21
1991.499999999999
 31
0.0
100
AcDbText
  0
LINE
  5
1B84
330
1F
100
AcDbEntity
  8
実形
 62
     0
100
AcDbLine
 10
2114.0
 20
68.99999999999909
 30
0.0
 11
2834.0
 21
68.99999999999909
 31
0.0
  0
LINE
  5
1B85
330
1F
100
AcDbEntity
  8
実形
 62
     0
100
AcDbLine
 10
2114.0
 20
198.9999999999991
 30
0.0
 11
2834.0
 21
198.9999999999991
 31
0.0
  0
LINE
  5
1B86
330
1F
100
AcDbEntity
  8
実形
 62
     0
100
AcDbLine
 10
2114.0
 20
133.9999999999991
 30
0.0
 11
2834.0
 21
133.9999999999991
 31
0.0
  0
LINE
  5
1B87
330
1F
100
AcDbEntity
  8
実形
 62
     0
100
AcDbLine
 10
2114.0
 20
3.999999999999089
 30
0.0
 11
2114.0
 21
198.9999999999991
 31
0.0
  0
TEXT
  5
1B88
330
1F
100
AcDbEntity
  8
実形
 62
     0
100
AcDbText
 10
2348.696488962811
 20
18.07604737211385
 30
0.0
 40
35.0
  1
中外交易株式会社
  7
ms明朝
 72
     4
 11
2553.496488962812
 21
36.07604737211385
 31
0.0
100
AcDbText
  0
LINE
  5
1B8A
330
1F
100
AcDbEntity
  8
実形
 62
     0
100
AcDbLine
 10
2234.0
 20
68.99999999999909
 30
0.0
 11
2834.0
 21
68.99999999999909
 31
0.0
  0
LINE
  5
1B8B
102
{ACAD_REACTORS
330
1B98
102
}
330
1F
100
AcDbEntity
  8
実形
 62
     0
370
     5
100
AcDbLine
 10
2257.843923164362
 20
40.53787547858428
 30
0.0
 11
2233.255774665348
 21
40.53787547858428
 31
0.0
  0
LINE
  5
1B8C
102
{ACAD_REACTORS
330
1B98
102
}
330
1F
100
AcDbEntity
  8
実形
 62
     0
370
     5
100
AcDbLine
 10
2233.255774665348
 20
40.53787547858428
 30
0.0
 11
2233.255774665348
 21
30.53787547858429
 31
0.0
  0
LINE
  5
1B8D
102
{ACAD_REACTORS
330
1B98
102
}
330
1F
100
AcDbEntity
  8
枠
 62
     0
370
     5
100
AcDbLine
 10
2233.255774665348
 20
30.53787547858429
 30
0.0
 11
2257.346428692676
 21
30.53787547858429
 31
0.0
  0
LINE
  5
1B8E
102
{ACAD_REACTORS
330
1B98
102
}
330
1F
100
AcDbEntity
  8
実形
 62
     0
370
     5
100
AcDbLine
 10
2260.641894042939
 20
56.49999999999909
 30
0.0
 11
2260.641894042939
 21
16.49999999999909
 31
0.0
  0
LINE
  5
1B8F
102
{ACAD_REACTORS
330
1B98
102
}
330
1F
100
AcDbEntity
  8
枠
 62
     0
370
     5
100
AcDbLine
 10
2260.641894042939
 20
16.49999999999909
 30
0.0
 11
2295.641894042939
 21
16.49999999999909
 31
0.0
  0
LINE
  5
1B90
102
{ACAD_REACTORS
330
1B98
102
}
330
1F
100
AcDbEntity
  8
枠
 62
     0
370
     5
100
AcDbLine
 10
2295.641894042939
 20
16.49999999999909
 30
0.0
 11
2260.641894042939
 21
36.49999999999909
 31
0.0
  0
LINE
  5
1B91
102
{ACAD_REACTORS
330
1B98
102
}
330
1F
100
AcDbEntity
  8
実形
 62
     0
370
     5
100
AcDbLine
 10
2260.641894042939
 20
36.49999999999909
 30
0.0
 11
2295.641894042939
 21
56.49999999999909
 31
0.0
  0
LINE
  5
1B92
102
{ACAD_REACTORS
330
1B98
102
}
330
1F
100
AcDbEntity
  8
実形
 62
     0
370
     5
100
AcDbLine
 10
2295.641894042939
 20
56.49999999999909
 30
0.0
 11
2260.641894042939
 21
56.49999999999909
 31
0.0
  0
LINE
  5
1B93
102
{ACAD_REACTORS
330
1B98
102
}
330
1F
100
AcDbEntity
  8
実形
 62
     0
370
     5
100
AcDbLine
 10
2326.75434681301
 20
40.53787547858428
 30
0.0
 11
2302.166198313996
 21
40.53787547858428
 31
0.0
  0
LINE
  5
1B94
102
{ACAD_REACTORS
330
1B98
102
}
330
1F
100
AcDbEntity
  8
実形
 62
     0
370
     5
100
AcDbLine
 10
2302.166198313996
 20
40.53787547858428
 30
0.0
 11
2302.166198313996
 21
30.53787547858429
 31
0.0
  0
LINE
  5
1B95
102
{ACAD_REACTORS
330
1B98
102
}
330
1F
100
AcDbEntity
  8
枠
 62
     0
370
     5
100
AcDbLine
 10
2302.166198313996
 20
30.53787547858429
 30
0.0
 11
2326.256852341323
 21
30.53787547858429
 31
0.0
  0
ARC
  5
1B96
102
{ACAD_REACTORS
330
1B98
102
}
330
1F
100
AcDbEntity
  8
実形
 62
     0
370
     5
100
AcDbCircle
 10
2238.255774665347
 20
36.49999999999909
 30
0.0
 40
20.0
100
AcDbArc
 50
11.64772366708617
 51
342.6561058784773
  0
ARC
  5
1B97
102
{ACAD_REACTORS
330
1B98
102
}
330
1F
100
AcDbEntity
  8
実形
 62
     0
370
     5
100
AcDbCircle
 10
2307.166198313995
 20
36.49999999999909
 30
0.0
 40
20.0
100
AcDbArc
 50
11.64772366708617
 51
342.6561058784773
  0
HATCH
  5
1B98
330
1F
100
AcDbEntity
  8
実形
 62
     0
100
AcDbHatch
 10
0.0
 20
0.0
 30
0.0
210
0.0
220
0.0
230
1.0
  2
SOLID
 70
     1
 71
     1
 91
        3
 92
        1
 93
        4
 72
     2
 10
2307.166198313995
 20
36.49999999999909
 40
20.0
 50
11.64772366708617
 51
342.6561058784773
 73
     1
 72
     1
 10
2326.256852341323
 20
30.53787547858429
 11
2302.166198313996
 21
30.53787547858429
 72
     1
 10
2302.166198313996
 20
30.53787547858429
 11
2302.166198313996
 21
40.53787547858428
 72
     1
 10
2302.166198313996
 20
40.53787547858428
 11
2326.75434681301
 21
40.53787547858428
 97
        4
330
1B97
330
1B95
330
1B94
330
1B93
 92
        1
 93
        4
 72
     2
 10
2238.255774665347
 20
36.49999999999909
 40
20.0
 50
11.64772366708617
 51
342.6561058784773
 73
     1
 72
     1
 10
2257.346428692676
 20
30.53787547858429
 11
2233.255774665348
 21
30.53787547858429
 72
     1
 10
2233.255774665348
 20
30.53787547858429
 11
2233.255774665348
 21
40.53787547858428
 72
     1
 10
2233.255774665348
 20
40.53787547858428
 11
2257.843923164362
 21
40.53787547858428
 97
        4
330
1B96
330
1B8D
330
1B8C
330
1B8B
 92
        1
 93
        5
 72
     1
 10
2295.641894042939
 20
56.49999999999909
 11
2260.641894042939
 21
56.49999999999909
 72
     1
 10
2260.641894042939
 20
56.49999999999909
 11
2260.641894042939
 21
16.49999999999909
 72
     1
 10
2260.641894042939
 20
16.49999999999909
 11
2295.641894042939
 21
16.49999999999909
 72
     1
 10
2295.641894042939
 20
16.49999999999909
 11
2260.641894042939
 21
36.49999999999909
 72
     1
 10
2260.641894042939
 20
36.49999999999909
 11
2295.641894042939
 21
56.49999999999909
 97
        5
330
1B92
330
1B8E
330
1B8F
330
1B90
330
1B91
 75
     0
 76
     1
 98
        1
 10
-10.0
 20
-0.0000000000009095
  0
LINE
  5
1B99
330
1F
100
AcDbEntity
  8
実形
 62
     0
100
AcDbLine
 10
2234.0
 20
68.99999999999909
 30
0.0
 11
2234.0
 21
198.9999999999991
 31
0.0
  0
LINE
  5
1BA2
330
1F
100
AcDbEntity
  8
枠
 62
     0
100
AcDbLine
 10
2384.0
 20
1893.999999999999
 30
0.0
 11
2384.0
 21
2024.0
 31
0.0
  0
TEXT
  5
1BA6
330
1F
100
AcDbEntity
  8
枠
 62
     0
100
AcDbText
 10
2466.5
 20
1977.5
 30
0.0
 40
30.0
  1
厚さ
 72
     4
 11
2496.5
 21
1991.5
 31
0.0
100
AcDbText
  0
TEXT
  5
1BA7
330
1F
100
AcDbEntity
  8
実形
 62
     0
100
AcDbText
 10
2435.5
 20
1911.500000000001
 30
0.0
 40
30.0
  1
1.2ｍｍ
 72
     4
 11
2496.5
 21
1926.500000000001
 31
0.0
100
AcDbText
  0
TEXT
  5
1BA8
330
1F
100
AcDbEntity
  8
実形
 62
     0
100
AcDbText
 10
2166.5
 20
1911.5
 30
0.0
 40
30.0
  1
SUS304
 72
     4
 11
2249.0
 21
1926.5
 31
0.0
100
AcDbText
  0
LINE
  5
5164
330
1F
100
AcDbEntity
  8
実形
100
AcDbLine
 10
920.771034014624
 20
1565.759223040567
 30
0.0
 11
1296.771034014624
 21
1565.759223040568
 31
0.0
  0
LINE
  5
5165
330
1F
100
AcDbEntity
  8
実形
100
AcDbLine
 10
1358.771034014624
 20
1503.759223040568
 30
0.0
 11
1358.771034014624
 21
1203.759223040568
 31
0.0
  0
LINE
  5
5166
330
1F
100
AcDbEntity
  8
実形
100
AcDbLine
 10
1296.771034014624
 20
757.7592230405679
 30
0.0
 11
920.771034014624
 21
757.7592230405679
 31
0.0
  0
LINE
  5
5167
330
1F
100
AcDbEntity
  8
実形
100
AcDbLine
 10
858.7710340146239
 20
819.7592230405678
 30
0.0
 11
858.7710340146239
 21
1119.759223040568
 31
0.0
  0
LINE
  5
5169
330
1F
100
AcDbEntity
  8
実形
100
AcDbLine
 10
910.7710340146239
 20
1525.759223040568
 30
0.0
 11
1306.771034014624
 21
1525.759223040568
 31
0.0
  0
LINE
  5
516A
330
1F
100
AcDbEntity
  8
実形
100
AcDbLine
 10
1318.771034014624
 20
1513.759223040568
 30
0.0
 11
1318.771034014624
 21
809.7592230405679
 31
0.0
  0
LINE
  5
516B
330
1F
100
AcDbEntity
  8
実形
100
AcDbLine
 10
898.7710340146241
 20
809.7592230405679
 30
0.0
 11
898.7710340146241
 21
1513.759223040568
 31
0.0
  0
LINE
  5
516C
330
1F
100
AcDbEntity
  8
実形
100
AcDbLine
 10
1306.771034014624
 20
797.7592230405678
 30
0.0
 11
910.7710340146239
 21
797.7592230405678
 31
0.0
  0
LINE
  5
516D
330
1F
100
AcDbEntity
  8
実形
  6
CENTER2
 48
0.8
100
AcDbLine
 10
936.0767009752873
 20
1481.759223040568
 30
0.0
 11
1153.105161809597
 21
1481.759223040568
 31
0.0
  0
LINE
  5
516E
330
1F
100
AcDbEntity
  8
実形
  6
CENTER2
 48
0.8
100
AcDbLine
 10
936.0767009752873
 20
1401.759223040568
 30
0.0
 11
1153.105161809597
 21
1401.759223040568
 31
0.0
  0
LINE
  5
516F
330
1F
100
AcDbEntity
  8
実形
  6
CENTER2
 48
0.8
100
AcDbLine
 10
844.3063003984516
 20
1401.759223040568
 30
0.0
 11
1379.208754798989
 21
1401.759223040568
 31
0.0
  0
CIRCLE
  5
517D
330
1F
100
AcDbEntity
  8
実形
100
AcDbCircle
 10
948.7710340146239
 20
1481.759223040568
 30
0.0
 40
8.0
  0
DIMENSION
  5
517E
330
1F
100
AcDbEntity
  8
実形
100
AcDbDimension
  2
*D8
 10
898.7710340146241
 20
1657.385179135495
 30
0.0
 11
822.8304222143343
 21
1679.635714362135
 31
0.0
 70
   160
  1
20
 71
     5
 42
40.0
  3
ISO-25
100
AcDbAlignedDimension
 13
858.7710340146243
 23
1560.84363699122
 33
0.0
 14
898.7710340146241
 24
1560.84363699122
 34
0.0
100
AcDbRotatedDimension
1001
ACAD
1000
DSTYLE
1002
{
1070
    41
1040
10.0
1070
   140
1040
30.0
1070
   147
1040
6.599999999999997
1070
   279
1070
     2
1070
   342
1005
30D
1070
   371
1070
    18
1070
   372
1070
    18
1002
}
  0
DIMENSION
  5
51A6
330
1F
100
AcDbEntity
  8
実形
100
AcDbDimension
  2
*D9
 10
948.7710340146239
 20
1657.385179135495
 30
0.0
 11
921.2868215322739
 21
1602.887772882064
 31
0.0
 70
   160
  1
25
 71
     5
 42
50.0
  3
ISO-25
100
AcDbAlignedDimension
 13
898.7710340146241
 23
1560.84363699122
 33
0.0
 14
948.7710340146239
 24
1560.84363699122
 34
0.0
100
AcDbRotatedDimension
1001
ACAD
1000
DSTYLE
1002
{
1070
    41
1040
10.0
1070
   140
1040
30.0
1070
   147
1040
6.599999999999997
1070
   279
1070
     2
1070
   342
1005
30D
1070
   371
1070
    18
1070
   372
1070
    18
1002
}
  0
DIMENSION
  5
51E0
330
1F
100
AcDbEntity
  8
実形
100
AcDbDimension
  2
*D10
 10
1028.771034014624
 20
1657.385179135495
 30
0.0
 11
988.771034014624
 21
1678.985179135495
 31
0.0
 70
    32
  1
40
 71
     5
 42
80.0
  3
ISO-25
100
AcDbAlignedDimension
 13
948.7710340146239
 23
1560.84363699122
 33
0.0
 14
1028.771034014624
 24
1560.84363699122
 34
0.0
100
AcDbRotatedDimension
1001
ACAD
1000
DSTYLE
1002
{
1070
    41
1040
10.0
1070
   140
1040
30.0
1070
   147
1040
6.599999999999997
1070
   279
1070
     2
1070
   342
1005
30D
1070
   371
1070
    18
1070
   372
1070
    18
1002
}
  0
DIMENSION
  5
5201
330
1F
100
AcDbEntity
  8
実形
100
AcDbDimension
  2
*D11
 10
1108.771034014624
 20
1657.385179135495
 30
0.0
 11
1068.771034014624
 21
1678.985179135495
 31
0.0
 70
    32
  1
40
 71
     5
 42
80.0
  3
ISO-25
100
AcDbAlignedDimension
 13
1028.771034014624
 23
1560.84363699122
 33
0.0
 14
1108.771034014624
 24
1560.84363699122
 34
0.0
100
AcDbRotatedDimension
1001
ACAD
1000
DSTYLE
1002
{
1070
    41
1040
10.0
1070
   140
1040
30.0
1070
   147
1040
6.599999999999997
1070
   279
1070
     2
1070
   342
1005
30D
1070
   371
1070
    18
1070
   372
1070
    18
1002
}
  0
DIMENSION
  5
523E
330
1F
100
AcDbEntity
  8
実形
100
AcDbDimension
  2
*D12
 10
1188.771034014624
 20
1657.385179135495
 30
0.0
 11
1148.771034014624
 21
1678.985179135495
 31
0.0
 70
    32
  1
40
 71
     5
 42
80.0
  3
ISO-25
100
AcDbAlignedDimension
 13
1108.771034014624
 23
1560.84363699122
 33
0.0
 14
1188.771034014624
 24
1560.84363699122
 34
0.0
100
AcDbRotatedDimension
1001
ACAD
1000
DSTYLE
1002
{
1070
    41
1040
10.0
1070
   140
1040
30.0
1070
   147
1040
6.599999999999997
1070
   279
1070
     2
1070
   342
1005
30D
1070
   371
1070
    18
1070
   372
1070
    18
1002
}
  0
DIMENSION
  5
5267
330
1F
100
AcDbEntity
  8
実形
100
AcDbDimension
  2
*D13
 10
1268.771034014624
 20
1657.385179135495
 30
0.0
 11
1228.771034014624
 21
1678.985179135495
 31
0.0
 70
    32
  1
40
 71
     5
 42
80.0
  3
ISO-25
100
AcDbAlignedDimension
 13
1188.771034014624
 23
1560.84363699122
 33
0.0
 14
1268.771034014624
 24
1560.84363699122
 34
0.0
100
AcDbRotatedDimension
1001
ACAD
1000
DSTYLE
1002
{
1070
    41
1040
10.0
1070
   140
1040
30.0
1070
   147
1040
6.599999999999997
1070
   279
1070
     2
1070
   342
1005
30D
1070
   371
1070
    18
1070
   372
1070
    18
1002
}
  0
DIMENSION
  5
527D
330
1F
100
AcDbEntity
  8
実形
100
AcDbDimension
  2
*D14
 10
1318.771034014624
 20
1657.385179135495
 30
0.0
 11
1295.353832290871
 21
1604.14329783098
 31
0.0
 70
   160
  1
25
 71
     5
 42
50.00000000000023
  3
ISO-25
100
AcDbAlignedDimension
 13
1268.771034014624
 23
1560.84363699122
 33
0.0
 14
1318.771034014624
 24
1560.84363699122
 34
0.0
100
AcDbRotatedDimension
1001
ACAD
1000
DSTYLE
1002
{
1070
    41
1040
10.0
1070
   140
1040
30.0
1070
   147
1040
6.599999999999997
1070
   279
1070
     2
1070
   342
1005
30D
1070
   371
1070
    18
1070
   372
1070
    18
1002
}
  0
DIMENSION
  5
52A7
330
1F
100
AcDbEntity
  8
実形
100
AcDbDimension
  2
*D15
 10
1358.771034014624
 20
1657.385179135495
 30
0.0
 11
1394.004490709541
 21
1701.857247380782
 31
0.0
 70
   160
  1
20
 71
     5
 42
39.99999999999977
  3
ISO-25
100
AcDbAlignedDimension
 13
1318.771034014624
 23
1560.84363699122
 33
0.0
 14
1358.771034014624
 24
1560.84363699122
 34
0.0
100
AcDbRotatedDimension
1001
ACAD
1000
DSTYLE
1002
{
1070
    41
1040
10.0
1070
   140
1040
30.0
1070
   147
1040
6.599999999999997
1070
   279
1070
     2
1070
   342
1005
30D
1070
   371
1070
    18
1070
   372
1070
    18
1002
}
  0
DIMENSION
  5
533B
330
1F
100
AcDbEntity
  8
実形
100
AcDbDimension
  2
*D16
 10
1358.771034014624
 20
1796.07967287009
 30
0.0
 11
1108.771034014624
 21
1817.67967287009
 31
0.0
 70
    32
  1
250
 71
     5
 42
500.0
  3
ISO-25
100
AcDbAlignedDimension
 13
858.7710340146243
 23
1560.84363699122
 33
0.0
 14
1358.771034014624
 24
1560.84363699122
 34
0.0
100
AcDbRotatedDimension
1001
ACAD
1000
DSTYLE
1002
{
1070
    41
1040
10.0
1070
   140
1040
30.0
1070
   147
1040
6.599999999999997
1070
   279
1070
     2
1070
   342
1005
30D
1070
   371
1070
    18
1070
   372
1070
    18
1002
}
  0
DIMENSION
  5
5375
330
1F
100
AcDbEntity
  8
実形
100
AcDbDimension
  2
*D17
 10
722.2887743570717
 20
1525.759223040568
 30
0.0
 11
693.5458459594245
 21
1535.71997590773
 31
0.0
 70
   160
  1
20
 71
     5
 42
40.0
  3
ISO-25
100
AcDbAlignedDimension
 13
817.942450665163
 23
1565.759223040568
 33
0.0
 14
818.3502058085251
 24
1525.759223040568
 34
0.0
 50
90.0
100
AcDbRotatedDimension
1001
ACAD
1000
DSTYLE
1002
{
1070
    41
1040
10.0
1070
   140
1040
30.0
1070
   147
1040
6.599999999999997
1070
   279
1070
     2
1070
   342
1005
30D
1070
   371
1070
    18
1070
   372
1070
    18
1002
}
  0
DIMENSION
  5
5394
330
1F
100
AcDbEntity
  8
実形
100
AcDbDimension
  2
*D18
 10
722.2887743570717
 20
1481.759223040568
 30
0.0
 11
783.9032377873027
 21
1507.01860564224
 31
0.0
 70
   160
  1
22
 71
     5
 42
43.99999999999977
  3
ISO-25
100
AcDbAlignedDimension
 13
818.3502058085251
 23
1525.759223040568
 33
0.0
 14
818.3502058085251
 24
1481.759223040568
 34
0.0
 50
90.0
100
AcDbRotatedDimension
1001
ACAD
1000
DSTYLE
1002
{
1070
    41
1040
10.0
1070
   140
1040
30.0
1070
   147
1040
6.599999999999997
1070
   279
1070
     2
1070
   342
1005
30D
1070
   371
1070
    18
1070
   372
1070
    18
1002
}
  0
DIMENSION
  5
53BC
330
1F
100
AcDbEntity
  8
実形
100
AcDbDimension
  2
*D19
 10
555.3174060899781
 20
757.759223040568
 30
0.0
 11
533.7174060899782
 21
1161.759223040568
 31
0.0
 70
    32
  1
404
 71
     5
 42
808.0
  3
ISO-25
100
AcDbAlignedDimension
 13
817.0228547387342
 23
1565.759223040568
 33
0.0
 14
785.6471586503374
 24
757.7592230405679
 34
0.0
 50
90.0
100
AcDbRotatedDimension
1001
ACAD
1000
DSTYLE
1002
{
1070
    41
1040
10.0
1070
   140
1040
30.0
1070
   147
1040
6.599999999999997
1070
   279
1070
     2
1070
   342
1005
30D
1070
   371
1070
    18
1070
   372
1070
    18
1002
}
  0
DIMENSION
  5
53DB
330
1F
100
AcDbEntity
  8
実形
100
AcDbDimension
  2
*D20
 10
722.2887743570717
 20
1401.759223040568
 30
0.0
 11
700.6887743570715
 21
1441.759223040568
 31
0.0
 70
    32
  1
40
 71
     5
 42
80.0
  3
ISO-25
100
AcDbAlignedDimension
 13
818.3502058085251
 23
1481.759223040568
 33
0.0
 14
818.3502058085251
 24
1401.759223040568
 34
0.0
 50
90.0
100
AcDbRotatedDimension
1001
ACAD
1000
DSTYLE
1002
{
1070
    41
1040
10.0
1070
   140
1040
30.0
1070
   147
1040
6.599999999999997
1070
   279
1070
     2
1070
   342
1005
30D
1070
   371
1070
    18
1070
   372
1070
    18
1002
}
  0
DIMENSION
  5
5437
330
1F
100
AcDbEntity
  8
実形
100
AcDbDimension
  2
*D21
 10
722.2887743570717
 20
1321.759223040568
 30
0.0
 11
700.6887743570715
 21
1361.759223040568
 31
0.0
 70
    32
  1
40
 71
     5
 42
80.0
  3
ISO-25
100
AcDbAlignedDimension
 13
818.3502058085251
 23
1401.759223040568
 33
0.0
 14
818.3502058085251
 24
1321.759223040568
 34
0.0
 50
90.0
100
AcDbRotatedDimension
1001
ACAD
1000
DSTYLE
1002
{
1070
    41
1040
10.0
1070
   140
1040
30.0
1070
   147
1040
6.599999999999997
1070
   279
1070
     2
1070
   342
1005
30D
1070
   371
1070
    18
1070
   372
1070
    18
1002
}
  0
DIMENSION
  5
5460
330
1F
100
AcDbEntity
  8
実形
100
AcDbDimension
  2
*D22
 10
722.2887743570717
 20
1241.759223040568
 30
0.0
 11
700.6887743570716
 21
1281.759223040568
 31
0.0
 70
    32
  1
40
 71
     5
 42
80.0
  3
ISO-25
100
AcDbAlignedDimension
 13
818.3502058085251
 23
1321.759223040568
 33
0.0
 14
818.3502058085251
 24
1241.759223040568
 34
0.0
 50
90.0
100
AcDbRotatedDimension
1001
ACAD
1000
DSTYLE
1002
{
1070
    41
1040
10.0
1070
   140
1040
30.0
1070
   147
1040
6.599999999999997
1070
   279
1070
     2
1070
   342
1005
30D
1070
   371
1070
    18
1070
   372
1070
    18
1002
}
  0
DIMENSION
  5
5489
330
1F
100
AcDbEntity
  8
実形
100
AcDbDimension
  2
*D23
 10
722.2887743570717
 20
1161.759223040568
 30
0.0
 11
700.6887743570716
 21
1201.759223040568
 31
0.0
 70
    32
  1
40
 71
     5
 42
80.0
  3
ISO-25
100
AcDbAlignedDimension
 13
818.3502058085251
 23
1241.759223040568
 33
0.0
 14
818.3502058085251
 24
1161.759223040568
 34
0.0
 50
90.0
100
AcDbRotatedDimension
1001
ACAD
1000
DSTYLE
1002
{
1070
    41
1040
10.0
1070
   140
1040
30.0
1070
   147
1040
6.599999999999997
1070
   279
1070
     2
1070
   342
1005
30D
1070
   371
1070
    18
1070
   372
1070
    18
1002
}
  0
DIMENSION
  5
54B2
330
1F
100
AcDbEntity
  8
実形
100
AcDbDimension
  2
*D24
 10
722.2887743570717
 20
1081.759223040568
 30
0.0
 11
700.6887743570716
 21
1121.759223040568
 31
0.0
 70
    32
  1
40
 71
     5
 42
80.0
  3
ISO-25
100
AcDbAlignedDimension
 13
818.3502058085251
 23
1161.759223040568
 33
0.0
 14
818.3502058085251
 24
1081.759223040568
 34
0.0
 50
90.0
100
AcDbRotatedDimension
1001
ACAD
1000
DSTYLE
1002
{
1070
    41
1040
10.0
1070
   140
1040
30.0
1070
   147
1040
6.599999999999997
1070
   279
1070
     2
1070
   342
1005
30D
1070
   371
1070
    18
1070
   372
1070
    18
1002
}
  0
DIMENSION
  5
54DB
330
1F
100
AcDbEntity
  8
実形
100
AcDbDimension
  2
*D25
 10
722.2887743570717
 20
1001.759223040568
 30
0.0
 11
700.6887743570716
 21
1041.759223040568
 31
0.0
 70
    32
  1
40
 71
     5
 42
80.0
  3
ISO-25
100
AcDbAlignedDimension
 13
818.3502058085251
 23
1081.759223040568
 33
0.0
 14
818.3502058085251
 24
1001.759223040568
 34
0.0
 50
90.0
100
AcDbRotatedDimension
1001
ACAD
1000
DSTYLE
1002
{
1070
    41
1040
10.0
1070
   140
1040
30.0
1070
   147
1040
6.599999999999997
1070
   279
1070
     2
1070
   342
1005
30D
1070
   371
1070
    18
1070
   372
1070
    18
1002
}
  0
DIMENSION
  5
5504
330
1F
100
AcDbEntity
  8
実形
100
AcDbDimension
  2
*D26
 10
722.2887743570717
 20
921.7592230405683
 30
0.0
 11
700.6887743570716
 21
961.7592230405682
 31
0.0
 70
    32
  1
40
 71
     5
 42
79.9999999999999
  3
ISO-25
100
AcDbAlignedDimension
 13
818.3502058085251
 23
1001.759223040568
 33
0.0
 14
818.3502058085251
 24
921.759223040568
 34
0.0
 50
90.0
100
AcDbRotatedDimension
1001
ACAD
1000
DSTYLE
1002
{
1070
    41
1040
10.0
1070
   140
1040
30.0
1070
   147
1040
6.599999999999997
1070
   279
1070
     2
1070
   342
1005
30D
1070
   371
1070
    18
1070
   372
1070
    18
1002
}
  0
DIMENSION
  5
552D
330
1F
100
AcDbEntity
  8
実形
100
AcDbDimension
  2
*D27
 10
722.2887743570717
 20
841.7592230405681
 30
0.0
 11
700.6887743570715
 21
881.7592230405683
 31
0.0
 70
    32
  1
40
 71
     5
 42
80.0
  3
ISO-25
100
AcDbAlignedDimension
 13
818.3502058085251
 23
921.759223040568
 33
0.0
 14
818.3502058085251
 24
841.7592230405681
 34
0.0
 50
90.0
100
AcDbRotatedDimension
1001
ACAD
1000
DSTYLE
1002
{
1070
    41
1040
10.0
1070
   140
1040
30.0
1070
   147
1040
6.599999999999997
1070
   279
1070
     2
1070
   342
1005
30D
1070
   371
1070
    18
1070
   372
1070
    18
1002
}
  0
DIMENSION
  5
5557
330
1F
100
AcDbEntity
  8
実形
100
AcDbDimension
  2
*D28
 10
722.288774357072
 20
797.759223040568
 30
0.0
 11
781.1468038694856
 21
815.3031289296523
 31
0.0
 70
   160
  1
22
 71
     5
 42
43.99999999999988
  3
ISO-25
100
AcDbAlignedDimension
 13
818.3502058085252
 23
841.7592230405679
 33
0.0
 14
818.3502058085252
 24
797.7592230405678
 34
0.0
 50
90.0
100
AcDbRotatedDimension
1001
ACAD
1000
DSTYLE
1002
{
1070
    41
1040
10.0
1070
   140
1040
30.0
1070
   147
1040
6.599999999999997
1070
   279
1070
     2
1070
   342
1005
30D
1070
   371
1070
    18
1070
   372
1070
    18
1002
}
  0
DIMENSION
  5
5580
330
1F
100
AcDbEntity
  8
実形
100
AcDbDimension
  2
*D29
 10
722.288774357072
 20
757.759223040568
 30
0.0
 11
691.619571820267
 21
788.2843518961126
 31
0.0
 70
   160
  1
20
 71
     5
 42
40.0
  3
ISO-25
100
AcDbAlignedDimension
 13
818.3502058085251
 23
797.7592230405678
 33
0.0
 14
817.8885014543483
 24
757.7592230405679
 34
0.0
 50
90.0
100
AcDbRotatedDimension
1001
ACAD
1000
DSTYLE
1002
{
1070
    41
1040
10.0
1070
   140
1040
30.0
1070
   147
1040
6.599999999999997
1070
   279
1070
     2
1070
   342
1005
30D
1070
   371
1070
    18
1070
   372
1070
    18
1002
}
  0
CIRCLE
  5
5640
330
1F
100
AcDbEntity
  8
実形
100
AcDbCircle
 10
948.7710340146239
 20
1401.759223040567
 30
0.0
 40
8.0
  0
CIRCLE
  5
5648
330
1F
100
AcDbEntity
  8
実形
100
AcDbCircle
 10
948.7710340146239
 20
1321.759223040567
 30
0.0
 40
8.0
  0
CIRCLE
  5
5650
330
1F
100
AcDbEntity
  8
実形
100
AcDbCircle
 10
948.7710340146239
 20
1241.759223040567
 30
0.0
 40
8.0
  0
CIRCLE
  5
5658
330
1F
100
AcDbEntity
  8
実形
100
AcDbCircle
 10
948.7710340146239
 20
1161.759223040568
 30
0.0
 40
8.0
  0
CIRCLE
  5
5660
330
1F
100
AcDbEntity
  8
実形
100
AcDbCircle
 10
948.7710340146239
 20
1081.759223040568
 30
0.0
 40
8.0
  0
CIRCLE
  5
5668
330
1F
100
AcDbEntity
  8
実形
100
AcDbCircle
 10
948.7710340146239
 20
1001.759223040568
 30
0.0
 40
8.0
  0
CIRCLE
  5
5670
330
1F
100
AcDbEntity
  8
実形
100
AcDbCircle
 10
948.7710340146243
 20
921.7592230405678
 30
0.0
 40
8.0
  0
CIRCLE
  5
5678
330
1F
100
AcDbEntity
  8
実形
100
AcDbCircle
 10
948.7710340146239
 20
841.7592230405674
 30
0.0
 40
8.0
  0
CIRCLE
  5
568C
330
1F
100
AcDbEntity
  8
実形
100
AcDbCircle
 10
1028.771034014624
 20
1481.759223040568
 30
0.0
 40
8.0
  0
CIRCLE
  5
568E
330
1F
100
AcDbEntity
  8
実形
100
AcDbCircle
 10
1028.771034014624
 20
1401.759223040567
 30
0.0
 40
8.0
  0
CIRCLE
  5
568F
330
1F
100
AcDbEntity
  8
実形
100
AcDbCircle
 10
1028.771034014624
 20
1321.759223040567
 30
0.0
 40
8.0
  0
CIRCLE
  5
5690
330
1F
100
AcDbEntity
  8
実形
100
AcDbCircle
 10
1028.771034014624
 20
1241.759223040567
 30
0.0
 40
8.0
  0
CIRCLE
  5
5691
330
1F
100
AcDbEntity
  8
実形
100
AcDbCircle
 10
1028.771034014624
 20
1161.759223040568
 30
0.0
 40
8.0
  0
CIRCLE
  5
5692
330
1F
100
AcDbEntity
  8
実形
100
AcDbCircle
 10
1028.771034014624
 20
1081.759223040568
 30
0.0
 40
8.0
  0
CIRCLE
  5
5693
330
1F
100
AcDbEntity
  8
実形
100
AcDbCircle
 10
1028.771034014624
 20
1001.759223040568
 30
0.0
 40
8.0
  0
CIRCLE
  5
5694
330
1F
100
AcDbEntity
  8
実形
100
AcDbCircle
 10
1028.771034014624
 20
921.7592230405678
 30
0.0
 40
8.0
  0
CIRCLE
  5
5695
330
1F
100
AcDbEntity
  8
実形
100
AcDbCircle
 10
1028.771034014624
 20
841.7592230405674
 30
0.0
 40
8.0
  0
CIRCLE
  5
56A6
330
1F
100
AcDbEntity
  8
実形
100
AcDbCircle
 10
1108.771034014624
 20
1481.759223040568
 30
0.0
 40
8.0
  0
CIRCLE
  5
56A8
330
1F
100
AcDbEntity
  8
実形
100
AcDbCircle
 10
1108.771034014624
 20
1401.759223040567
 30
0.0
 40
8.0
  0
CIRCLE
  5
56A9
330
1F
100
AcDbEntity
  8
実形
100
AcDbCircle
 10
1108.771034014624
 20
1321.759223040567
 30
0.0
 40
8.0
  0
CIRCLE
  5
56AA
330
1F
100
AcDbEntity
  8
実形
100
AcDbCircle
 10
1108.771034014624
 20
1241.759223040567
 30
0.0
 40
8.0
  0
CIRCLE
  5
56AB
330
1F
100
AcDbEntity
  8
実形
100
AcDbCircle
 10
1108.771034014624
 20
1161.759223040568
 30
0.0
 40
8.0
  0
CIRCLE
  5
56AC
330
1F
100
AcDbEntity
  8
実形
100
AcDbCircle
 10
1108.771034014624
 20
1081.759223040568
 30
0.0
 40
8.0
  0
CIRCLE
  5
56AD
330
1F
100
AcDbEntity
  8
実形
100
AcDbCircle
 10
1108.771034014624
 20
1001.759223040568
 30
0.0
 40
8.0
  0
CIRCLE
  5
56AE
330
1F
100
AcDbEntity
  8
実形
100
AcDbCircle
 10
1108.771034014624
 20
921.7592230405678
 30
0.0
 40
8.0
  0
CIRCLE
  5
56AF
330
1F
100
AcDbEntity
  8
実形
100
AcDbCircle
 10
1108.771034014624
 20
841.7592230405674
 30
0.0
 40
8.0
  0
CIRCLE
  5
56C0
330
1F
100
AcDbEntity
  8
実形
100
AcDbCircle
 10
1188.771034014624
 20
1481.759223040568
 30
0.0
 40
8.0
  0
CIRCLE
  5
56C2
330
1F
100
AcDbEntity
  8
実形
100
AcDbCircle
 10
1188.771034014624
 20
1401.759223040567
 30
0.0
 40
8.0
  0
CIRCLE
  5
56C3
330
1F
100
AcDbEntity
  8
実形
100
AcDbCircle
 10
1188.771034014624
 20
1321.759223040567
 30
0.0
 40
8.0
  0
CIRCLE
  5
56C4
330
1F
100
AcDbEntity
  8
実形
100
AcDbCircle
 10
1188.771034014624
 20
1241.759223040567
 30
0.0
 40
8.0
  0
CIRCLE
  5
56C5
330
1F
100
AcDbEntity
  8
実形
100
AcDbCircle
 10
1188.771034014624
 20
1161.759223040568
 30
0.0
 40
8.0
  0
CIRCLE
  5
56C6
330
1F
100
AcDbEntity
  8
実形
100
AcDbCircle
 10
1188.771034014624
 20
1081.759223040568
 30
0.0
 40
8.0
  0
CIRCLE
  5
56C7
330
1F
100
AcDbEntity
  8
実形
100
AcDbCircle
 10
1188.771034014624
 20
1001.759223040568
 30
0.0
 40
8.0
  0
CIRCLE
  5
56C8
330
1F
100
AcDbEntity
  8
実形
100
AcDbCircle
 10
1188.771034014624
 20
921.7592230405678
 30
0.0
 40
8.0
  0
CIRCLE
  5
56C9
330
1F
100
AcDbEntity
  8
実形
100
AcDbCircle
 10
1188.771034014624
 20
841.7592230405674
 30
0.0
 40
8.0
  0
CIRCLE
  5
56DA
330
1F
100
AcDbEntity
  8
実形
100
AcDbCircle
 10
1268.771034014624
 20
1481.759223040568
 30
0.0
 40
8.0
  0
CIRCLE
  5
56DC
330
1F
100
AcDbEntity
  8
実形
100
AcDbCircle
 10
1268.771034014624
 20
1401.759223040567
 30
0.0
 40
8.0
  0
CIRCLE
  5
56DD
330
1F
100
AcDbEntity
  8
実形
100
AcDbCircle
 10
1268.771034014624
 20
1321.759223040567
 30
0.0
 40
8.0
  0
CIRCLE
  5
56DE
330
1F
100
AcDbEntity
  8
実形
100
AcDbCircle
 10
1268.771034014624
 20
1241.759223040567
 30
0.0
 40
8.0
  0
CIRCLE
  5
56DF
330
1F
100
AcDbEntity
  8
実形
100
AcDbCircle
 10
1268.771034014624
 20
1161.759223040568
 30
0.0
 40
8.0
  0
CIRCLE
  5
56E0
330
1F
100
AcDbEntity
  8
実形
100
AcDbCircle
 10
1268.771034014624
 20
1081.759223040568
 30
0.0
 40
8.0
  0
CIRCLE
  5
56E1
330
1F
100
AcDbEntity
  8
実形
100
AcDbCircle
 10
1268.771034014624
 20
1001.759223040568
 30
0.0
 40
8.0
  0
CIRCLE
  5
56E2
330
1F
100
AcDbEntity
  8
実形
100
AcDbCircle
 10
1268.771034014624
 20
921.7592230405678
 30
0.0
 40
8.0
  0
CIRCLE
  5
56E3
330
1F
100
AcDbEntity
  8
実形
100
AcDbCircle
 10
1268.771034014624
 20
841.7592230405674
 30
0.0
 40
8.0
  0
LINE
  5
56E6
330
1F
100
AcDbEntity
  8
実形
  6
CENTER2
 48
0.8
100
AcDbLine
 10
948.7710340146239
 20
1353.329426082097
 30
0.0
 11
948.7710340146239
 21
1553.507419723135
 31
0.0
  0
LINE
  5
56E7
330
1F
100
AcDbEntity
  8
実形
  6
CENTER2
 48
0.8
100
AcDbLine
 10
1028.771034014624
 20
1353.329426082097
 30
0.0
 11
1028.771034014624
 21
1553.507419723135
 31
0.0
  0
LINE
  5
56E8
330
1F
100
AcDbEntity
  8
実形
  6
CENTER2
 48
0.8
100
AcDbLine
 10
1108.771034014624
 20
744.7717117804422
 30
0.0
 11
1108.771034014624
 21
1570.458169879892
 31
0.0
  0
DIMENSION
  5
5833
330
1F
100
AcDbEntity
  8
実形
100
AcDbDimension
  2
*D30
 10
1318.771034014624
 20
1733.584460819133
 30
0.0
 11
1108.771034014624
 21
1755.184460819133
 31
0.0
 70
    32
  1
210
 71
     5
 42
420.0
  3
ISO-25
100
AcDbAlignedDimension
 13
898.7710340146241
 23
1641.370102653695
 33
0.0
 14
1318.771034014624
 24
1641.370102653695
 34
0.0
100
AcDbRotatedDimension
1001
ACAD
1000
DSTYLE
1002
{
1070
    41
1040
10.0
1070
   140
1040
30.0
1070
   147
1040
6.599999999999997
1070
   279
1070
     2
1070
   342
1005
30D
1070
   371
1070
    18
1070
   372
1070
    18
1002
}
  0
DIMENSION
  5
58E6
330
1F
100
AcDbEntity
  8
実形
100
AcDbDimension
  2
*D31
 10
619.6233729757949
 20
797.759223040568
 30
0.0
 11
598.0233729757949
 21
1161.759223040568
 31
0.0
 70
    32
  1
364
 71
     5
 42
728.0
  3
ISO-25
100
AcDbAlignedDimension
 13
722.2887743570717
 23
1525.759223040568
 33
0.0
 14
709.9660216467327
 24
797.759223040568
 34
0.0
 50
90.0
100
AcDbRotatedDimension
1001
ACAD
1000
DSTYLE
1002
{
1070
    41
1040
10.0
1070
   140
1040
30.0
1070
   147
1040
6.599999999999997
1070
   279
1070
     2
1070
   342
1005
30D
1070
   371
1070
    18
1070
   372
1070
    18
1002
}
  0
LINE
  5
5A69
330
1F
100
AcDbEntity
  8
実形
100
AcDbLine
 10
428.0956210721633
 20
477.6687844154767
 30
0.0
 11
618.0956210721632
 21
477.6687844154767
 31
0.0
  0
LINE
  5
5A6A
330
1F
100
AcDbEntity
  8
実形
100
AcDbLine
 10
628.0956210721632
 20
467.6687844154766
 30
0.0
 11
628.0956210721632
 21
343.6687844154767
 31
0.0
  0
LINE
  5
5A6D
330
1F
100
AcDbEntity
  8
実形
100
AcDbLine
 10
632.0956210721632
 20
339.6687844154767
 30
0.0
 11
838.0956210721631
 21
339.6687844154767
 31
0.0
  0
DIMENSION
  5
5A71
330
1F
100
AcDbEntity
  8
実形
100
AcDbDimension
  2
*D32
 10
628.0956210721632
 20
585.4946261266432
 30
0.0
 11
528.0956210721633
 21
607.0946261266432
 31
0.0
 70
    32
  1
20
 71
     5
 42
200.0
  3
ISO-25
100
AcDbAlignedDimension
 13
428.0956210721633
 23
477.6687844154767
 33
0.0
 14
628.0956210721632
 24
477.6687844154767
 34
0.0
100
AcDbRotatedDimension
1001
ACAD
1000
DSTYLE
1002
{
1070
    41
1040
10.0
1070
   140
1040
30.0
1070
   147
1040
6.599999999999997
1070
   279
1070
     2
1070
   342
1005
30D
1070
   371
1070
    18
1070
   372
1070
    18
1002
}
  0
DIMENSION
  5
5A9A
330
1F
100
AcDbEntity
  8
実形
100
AcDbDimension
  2
*D33
 10
352.2427827729607
 20
465.6687844154767
 30
0.0
 11
327.3427827729606
 21
514.5501612175811
 31
0.0
 70
   160
  1
1.2
 71
     5
 42
12.0
  3
ISO-25
100
AcDbAlignedDimension
 13
453.7882238024922
 23
477.6687844154767
 33
0.0
 14
453.7882238024922
 24
465.6687844154767
 34
0.0
 50
90.0
100
AcDbRotatedDimension
1001
ACAD
1000
DSTYLE
1002
{
1070
    41
1040
10.0
1070
   140
1040
30.0
1070
   147
1040
6.599999999999997
1070
   279
1070
     2
1070
   342
1005
30D
1070
   371
1070
    18
1070
   372
1070
    18
1002
}
  0
DIMENSION
  5
5ACD
330
1F
100
AcDbEntity
  8
実形
100
AcDbDimension
  2
*D34
 10
352.2427827729607
 20
339.6687844154769
 30
0.0
 11
330.6427827729606
 21
402.6687844154769
 31
0.0
 70
    32
  1
12.6
 71
     5
 42
125.9999999999998
  3
ISO-25
100
AcDbAlignedDimension
 13
418.0956210721633
 23
465.6687844154767
 33
0.0
 14
418.0956210721633
 24
339.6687844154769
 34
0.0
 50
90.0
100
AcDbRotatedDimension
1001
ACAD
1000
DSTYLE
1002
{
1070
    41
1040
10.0
1070
   140
1040
30.0
1070
   147
1040
6.599999999999997
1070
   279
1070
     2
1070
   342
1005
30D
1070
   371
1070
    18
1070
   372
1070
    18
1002
}
  0
DIMENSION
  5
5ADB
330
1F
100
AcDbEntity
  8
実形
100
AcDbDimension
  2
*D35
 10
252.0109291795234
 20
327.6687844154768
 30
0.0
 11
230.4109291795233
 21
402.6687844154769
 31
0.0
 70
    32
  1
15
 71
     5
 42
150.0
  3
ISO-25
100
AcDbAlignedDimension
 13
418.0956210721633
 23
477.6687844154767
 33
0.0
 14
418.0956210721633
 24
327.6687844154767
 34
0.0
 50
90.0
100
AcDbRotatedDimension
1001
ACAD
1000
DSTYLE
1002
{
1070
    41
1040
10.0
1070
   140
1040
30.0
1070
   147
1040
6.599999999999997
1070
   279
1070
     2
1070
   342
1005
30D
1070
   371
1070
    18
1070
   372
1070
    18
1002
}
  0
DIMENSION
  5
5B10
330
1F
100
AcDbEntity
  8
実形
100
AcDbDimension
  2
*D36
 10
352.2427827729607
 20
327.6687844154768
 30
0.0
 11
327.3427827729606
 21
291.0148636725971
 31
0.0
 70
   160
  1
1.2
 71
     5
 42
12.00000000000011
  3
ISO-25
100
AcDbAlignedDimension
 13
452.4901129309636
 23
339.6687844154768
 33
0.0
 14
454.145376370814
 24
327.6687844154767
 34
0.0
 50
90.0
100
AcDbRotatedDimension
1001
ACAD
1000
DSTYLE
1002
{
1070
    41
1040
10.0
1070
   140
1040
30.0
1070
   147
1040
6.599999999999997
1070
   279
1070
     2
1070
   342
1005
30D
1070
   371
1070
    18
1070
   372
1070
    18
1002
}
  0
LINE
  5
5BFE
330
1F
100
AcDbEntity
  8
実形
100
AcDbLine
 10
838.0956210721631
 20
339.6687844154767
 30
0.0
 11
838.0956210721631
 21
327.6687844154767
 31
0.0
  0
LINE
  5
5BFF
330
1F
100
AcDbEntity
  8
実形
100
AcDbLine
 10
918.0956210721634
 20
339.6687844154767
 30
0.0
 11
918.0956210721634
 21
327.6687844154767
 31
0.0
  0
LINE
  5
5C00
330
1F
100
AcDbEntity
  8
実形
100
AcDbLine
 10
1238.095621072163
 20
339.6687844154767
 30
0.0
 11
1238.095621072163
 21
327.6687844154767
 31
0.0
  0
LINE
  5
5C01
330
1F
100
AcDbEntity
  8
実形
100
AcDbLine
 10
1318.095621072163
 20
340.2114184609818
 30
0.0
 11
1318.095621072163
 21
328.2114184609818
 31
0.0
  0
LINE
  5
5C29
330
1F
100
AcDbEntity
  8
実形
100
AcDbLine
 10
918.0956210721634
 20
339.6687844154767
 30
0.0
 11
1238.095621072163
 21
339.6687844154767
 31
0.0
  0
TEXT
  5
5C3E
330
1F
100
AcDbEntity
  8
実形
100
AcDbText
 10
1402.737556999324
 20
1390.292764532148
 30
0.0
 40
30.0
  1
A
 72
     4
 11
1412.737556999324
 21
1405.292764532148
 31
0.0
100
AcDbText
  0
TEXT
  5
5C47
330
1F
100
AcDbEntity
  8
実形
100
AcDbText
 10
1411.250990288472
 20
1389.646016710694
 30
0.0
 40
30.0
  1
´
 72
     4
 11
1425.250990288472
 21
1417.646016710694
 31
0.0
100
AcDbText
  0
TEXT
  5
5C50
330
1F
100
AcDbEntity
  8
実形
100
AcDbText
 10
239.8980591847084
 20
617.9075789672893
 30
0.0
 40
40.0
  1
A-A´断面
 72
     4
 11
366.564725851375
 21
637.9075789672892
 31
0.0
100
AcDbText
  0
LINE
  5
5C52
330
1F
100
AcDbEntity
  8
実形
100
AcDbLine
 10
1318.095621072163
 20
340.2114184609818
 30
0.0
 11
1460.956452473681
 21
340.2114184609818
 31
0.0
  0
ARC
  5
5DAF
330
1F
100
AcDbEntity
  8
実形
100
AcDbCircle
 10
910.7710340146239
 20
1513.759223040568
 30
0.0
 40
12.0
100
AcDbArc
 50
90.0
 51
180.0
  0
ARC
  5
5DB0
330
1F
100
AcDbEntity
  8
実形
100
AcDbCircle
 10
1306.771034014624
 20
1513.759223040568
 30
0.0
 40
12.0
100
AcDbArc
 50
0.0
 51
90.0
  0
ARC
  5
5DB3
330
1F
100
AcDbEntity
  8
実形
100
AcDbCircle
 10
910.7710340146239
 20
809.7592230405679
 30
0.0
 40
12.0
100
AcDbArc
 50
180.0
 51
270.0
  0
ARC
  5
5DB4
330
1F
100
AcDbEntity
  8
実形
100
AcDbCircle
 10
1306.771034014624
 20
809.7592230405679
 30
0.0
 40
12.0
100
AcDbArc
 50
270.0
 51
0.0
  0
LINE
  5
5DC3
330
1F
100
AcDbEntity
  8
実形
100
AcDbLine
 10
428.0956210721633
 20
465.6687844154767
 30
0.0
 11
612.0956210721632
 21
465.6687844154767
 31
0.0
  0
LINE
  5
5DC4
330
1F
100
AcDbEntity
  8
実形
100
AcDbLine
 10
616.0956210721632
 20
461.6687844154767
 30
0.0
 11
616.0956210721638
 21
337.6687844154767
 31
0.0
  0
LINE
  5
5DC5
330
1F
100
AcDbEntity
  8
実形
100
AcDbLine
 10
626.0956210721637
 20
327.6687844154767
 30
0.0
 11
838.0956210721631
 21
327.6687844154767
 31
0.0
  0
LINE
  5
5DC6
330
1F
100
AcDbEntity
  8
実形
100
AcDbLine
 10
918.0956210721634
 20
327.6687844154767
 30
0.0
 11
1238.095621072163
 21
327.6687844154767
 31
0.0
  0
LINE
  5
5DC7
330
1F
100
AcDbEntity
  8
実形
100
AcDbLine
 10
1318.095621072163
 20
328.2114184609818
 30
0.0
 11
1460.956452473681
 21
328.2114184609816
 31
0.0
  0
TEXT
  5
5E30
330
1F
100
AcDbEntity
  8
実形
 48
20.0
100
AcDbText
 10
982.3998768247493
 20
692.3999119557318
 30
0.0
 40
30.0
  1
8φ
100
AcDbText
  0
LEADER
  5
5E31
330
1F
100
AcDbEntity
  8
実形
100
AcDbLeader
  3
ISO-25
 76
     2
 10
1096.022669825141
 20
818.908355780748
 30
0.0
 10
1015.290684782811
 20
716.2823688638582
 30
0.0
1001
ACAD
1000
DSTYLE
1002
{
1070
    77
1070
     0
1070
    41
1040
10.0
1070
   140
1040
30.0
1070
   147
1040
6.599999999999997
1070
   279
1070
     2
1070
   342
1005
30D
1070
   371
1070
    18
1070
   372
1070
    18
1002
}
  0
TEXT
  5
5E3A
330
1F
100
AcDbEntity
  8
実形
100
AcDbText
 10
1409.422373154168
 20
701.0105637411871
 30
0.0
 40
30.0
  1
6R
 72
     2
 11
1459.422373154168
 21
697.0105637411871
 31
0.0
100
AcDbText
 73
     1
  0
TEXT
  5
5E42
330
1F
100
AcDbEntity
  8
実形
100
AcDbText
 10
1287.883512927705
 20
689.7805326099077
 30
0.0
 40
30.0
  1
6R
 72
     2
 11
1337.883512927705
 21
685.7805326099077
 31
0.0
100
AcDbText
 73
     1
  0
LEADER
  5
5E43
330
1F
100
AcDbEntity
  8
実形
100
AcDbLeader
  3
ISO-25
 76
     2
 10
1309.555145906933
 20
752.1492839303305
 30
0.0
 10
1322.742120957129
 20
723.8520787054167
 30
0.0
1001
ACAD
1000
DSTYLE
1002
{
1070
    77
1070
     0
1070
    41
1040
10.0
1070
   140
1040
30.0
1070
   147
1040
6.599999999999997
1070
   279
1070
     2
1070
   342
1005
30D
1070
   371
1070
    18
1070
   372
1070
    18
1002
}
  0
LEADER
  5
5E44
330
1F
100
AcDbEntity
  8
実形
100
AcDbLeader
  3
ISO-25
 76
     2
 10
1322.734480594786
 20
795.6300526604759
 30
0.0
 10
1402.750290839854
 20
730.5311219604782
 30
0.0
1001
ACAD
1000
DSTYLE
1002
{
1070
    77
1070
     0
1070
    41
1040
10.0
1070
   140
1040
30.0
1070
   147
1040
6.599999999999997
1070
   279
1070
     2
1070
   342
1005
30D
1070
   371
1070
    18
1070
   372
1070
    18
1002
}
  0
TEXT
  5
5E5F
330
1F
100
AcDbEntity
  8
実形
 62
     0
100
AcDbText
 10
2136.666666666667
 20
83.99999999999909
 30
0.0
 40
35.0
  1
品番
 72
     4
 11
2174.0
 21
101.4999999999991
 31
0.0
100
AcDbText
  0
TEXT
  5
5E68
330
1F
100
AcDbEntity
  8
実形
 62
     0
100
AcDbText
 10
2136.666666666667
 20
148.9999999999991
 30
0.0
 40
35.0
  1
名称
 72
     4
 11
2174.0
 21
166.4999999999991
 31
0.0
100
AcDbText
  0
DIMENSION
  5
5F2A
330
1F
100
AcDbEntity
  8
実形
100
AcDbDimension
  2
*D37
 10
878.0956210721631
 20
249.7575464485617
 30
0.0
 11
753.0956210721633
 21
271.3575464485617
 31
0.0
 70
    32
  1
25
 71
     5
 42
249.9999999999998
  3
ISO-25
100
AcDbAlignedDimension
 13
628.0956210721634
 23
353.4040832798037
 33
0.0
 14
878.0956210721631
 24
351.9745793713795
 34
0.0
100
AcDbRotatedDimension
1001
ACAD
1000
DSTYLE
1002
{
1070
    41
1040
10.0
1070
   140
1040
30.0
1070
   147
1040
6.599999999999997
1070
   279
1070
     2
1070
   342
1005
30D
1070
   371
1070
    18
1070
   372
1070
    18
1002
}
  0
DIMENSION
  5
5F4A
330
1F
100
AcDbEntity
  8
実形
100
AcDbDimension
  2
*D38
 10
918.0956210721634
 20
400.8833310174122
 30
0.0
 11
878.0956210721631
 21
422.4833310174124
 31
0.0
 70
    32
  1
8
 71
     5
 42
79.9999999999999
  3
ISO-25
100
AcDbAlignedDimension
 13
838.0956210721635
 23
307.1251455729617
 33
0.0
 14
918.0956210721634
 24
307.1251455729616
 34
0.0
100
AcDbRotatedDimension
1001
ACAD
1000
DSTYLE
1002
{
1070
    41
1040
10.0
1070
   140
1040
30.0
1070
   147
1040
6.599999999999997
1070
   279
1070
     2
1070
   342
1005
30D
1070
   371
1070
    18
1070
   372
1070
    18
1002
}
  0
DIMENSION
  5
5F98
330
1F
100
AcDbEntity
  8
実形
100
AcDbDimension
  2
*D39
 10
1318.095621072163
 20
400.8833310174122
 30
0.0
 11
1278.095621072163
 21
422.4833310174124
 31
0.0
 70
    32
  1
8
 71
     5
 42
80.0
  3
ISO-25
100
AcDbAlignedDimension
 13
1238.095621072163
 23
307.1251455729617
 33
0.0
 14
1318.095621072163
 24
307.1251455729616
 34
0.0
100
AcDbRotatedDimension
1001
ACAD
1000
DSTYLE
1002
{
1070
    41
1040
10.0
1070
   140
1040
30.0
1070
   147
1040
6.599999999999997
1070
   279
1070
     2
1070
   342
1005
30D
1070
   371
1070
    18
1070
   372
1070
    18
1002
}
  0
DIMENSION
  5
5FAF
330
1F
100
AcDbEntity
  8
実形
100
AcDbDimension
  2
*D40
 10
1278.095621072163
 20
249.7575464485617
 30
0.0
 11
1078.095621072163
 21
271.3575464485617
 31
0.0
 70
    32
  1
40
 71
     5
 42
400.0
  3
ISO-25
100
AcDbAlignedDimension
 13
878.0956210721631
 23
327.6687844154772
 33
0.0
 14
1278.095621072163
 24
351.737049604204
 34
0.0
100
AcDbRotatedDimension
1001
ACAD
1000
DSTYLE
1002
{
1070
    41
1040
10.0
1070
   140
1040
30.0
1070
   147
1040
6.599999999999997
1070
   279
1070
     2
1070
   342
1005
30D
1070
   371
1070
    18
1070
   372
1070
    18
1002
}
  0
DIMENSION
  5
5FE0
330
1F
100
AcDbEntity
  8
実形
100
AcDbDimension
  2
*D41
 10
628.0956210721634
 20
249.7575464485617
 30
0.0
 11
574.1003742185166
 21
274.325613877294
 31
0.0
 70
   160
  1
1.2
 71
     5
 42
11.99999999999977
  3
ISO-25
100
AcDbAlignedDimension
 13
616.0956210721638
 23
352.9180329716728
 33
0.0
 14
628.0956210721634
 24
345.6687844154769
 34
0.0
100
AcDbRotatedDimension
1001
ACAD
1000
DSTYLE
1002
{
1070
    41
1040
10.0
1070
   140
1040
30.0
1070
   147
1040
6.599999999999997
1070
   279
1070
     2
1070
   342
1005
30D
1070
   371
1070
    18
1070
   372
1070
    18
1002
}
  0
ARC
  5
604C
330
1F
100
AcDbEntity
  8
実形
100
AcDbCircle
 10
618.0956210721632
 20
467.6687844154766
 30
0.0
 40
10.0
100
AcDbArc
 50
0.0000000000001018
 51
90.0
  0
ARC
  5
604D
330
1F
100
AcDbEntity
  8
実形
100
AcDbCircle
 10
612.0956210721632
 20
461.6687844154767
 30
0.0
 40
4.0
100
AcDbArc
 50
0.0000000000002672
 51
90.0
  0
ARC
  5
604E
330
1F
100
AcDbEntity
  8
実形
100
AcDbCircle
 10
632.0956210721632
 20
343.6687844154767
 30
0.0
 40
4.0
100
AcDbArc
 50
180.0000000000001
 51
269.9999999999999
  0
ARC
  5
604F
330
1F
100
AcDbEntity
  8
実形
100
AcDbCircle
 10
626.0956210721637
 20
337.6687844154767
 30
0.0
 40
10.0
100
AcDbArc
 50
180.0000000000002
 51
269.9999999999999
  0
LINE
  5
6349
330
1F
100
AcDbEntity
  8
実形
100
AcDbLine
 10
1769.88465810737
 20
477.6687844154756
 30
0.0
 11
1959.88465810737
 21
477.6687844154756
 31
0.0
  0
LINE
  5
634A
330
1F
100
AcDbEntity
  8
実形
100
AcDbLine
 10
1769.88465810737
 20
465.6687844154758
 30
0.0
 11
1953.88465810737
 21
465.6687844154758
 31
0.0
  0
LINE
  5
634B
330
1F
100
AcDbEntity
  8
実形
100
AcDbLine
 10
1969.88465810737
 20
467.6687844154757
 30
0.0
 11
1969.88465810737
 21
343.6687844154759
 31
0.0
  0
ARC
  5
634C
330
1F
100
AcDbEntity
  8
実形
100
AcDbCircle
 10
1973.88465810737
 20
343.6687844154759
 30
0.0
 40
4.0
100
AcDbArc
 50
180.0
 51
270.0
  0
ARC
  5
634D
330
1F
100
AcDbEntity
  8
実形
100
AcDbCircle
 10
1959.88465810737
 20
467.6687844154757
 30
0.0
 40
10.0
100
AcDbArc
 50
0.0
 51
90.0
  0
LINE
  5
634E
330
1F
100
AcDbEntity
  8
実形
100
AcDbLine
 10
1957.88465810737
 20
461.6687844154758
 30
0.0
 11
1957.884658107371
 21
337.6687844154758
 31
0.0
  0
ARC
  5
634F
330
1F
100
AcDbEntity
  8
実形
100
AcDbCircle
 10
1967.884658107371
 20
337.6687844154758
 30
0.0
 40
10.0
100
AcDbArc
 50
180.0
 51
270.0
  0
ARC
  5
6350
330
1F
100
AcDbEntity
  8
実形
100
AcDbCircle
 10
1953.88465810737
 20
461.6687844154758
 30
0.0
 40
4.0
100
AcDbArc
 50
0.0
 51
90.0
  0
LINE
  5
6351
330
1F
100
AcDbEntity
  8
実形
100
AcDbLine
 10
2229.884658107371
 20
339.6687844154758
 30
0.0
 11
2229.884658107371
 21
327.6687844154758
 31
0.0
  0
LINE
  5
6352
330
1F
100
AcDbEntity
  8
実形
100
AcDbLine
 10
2149.88465810737
 20
339.6687844154758
 30
0.0
 11
2149.88465810737
 21
327.6687844154758
 31
0.0
  0
LINE
  5
6353
330
1F
100
AcDbEntity
  8
実形
100
AcDbLine
 10
2629.88465810737
 20
340.2114184609809
 30
0.0
 11
2629.88465810737
 21
328.2114184609809
 31
0.0
  0
LINE
  5
6354
330
1F
100
AcDbEntity
  8
実形
100
AcDbLine
 10
2549.88465810737
 20
339.6687844154758
 30
0.0
 11
2549.88465810737
 21
327.6687844154758
 31
0.0
  0
LINE
  5
6355
330
1F
100
AcDbEntity
  8
実形
100
AcDbLine
 10
1973.88465810737
 20
339.6687844154758
 30
0.0
 11
2149.88465810737
 21
339.6687844154758
 31
0.0
  0
LINE
  5
6356
330
1F
100
AcDbEntity
  8
実形
100
AcDbLine
 10
1967.884658107371
 20
327.6687844154758
 30
0.0
 11
2149.88465810737
 21
327.6687844154758
 31
0.0
  0
LINE
  5
6357
330
1F
100
AcDbEntity
  8
実形
100
AcDbLine
 10
2229.884658107371
 20
339.6687844154758
 30
0.0
 11
2549.88465810737
 21
339.6687844154758
 31
0.0
  0
LINE
  5
6358
330
1F
100
AcDbEntity
  8
実形
100
AcDbLine
 10
2229.884658107371
 20
327.6687844154758
 30
0.0
 11
2549.88465810737
 21
327.6687844154758
 31
0.0
  0
LINE
  5
6359
330
1F
100
AcDbEntity
  8
実形
100
AcDbLine
 10
2629.88465810737
 20
340.2114184609809
 30
0.0
 11
2690.06650362859
 21
340.211418460981
 31
0.0
  0
LINE
  5
635A
330
1F
100
AcDbEntity
  8
実形
100
AcDbLine
 10
2629.88465810737
 20
328.2114184609809
 30
0.0
 11
2690.06650362859
 21
328.211418460981
 31
0.0
  0
DIMENSION
  5
635B
330
1F
100
AcDbEntity
  8
実形
100
AcDbDimension
  2
*D42
 10
1969.88465810737
 20
547.6420195854033
 30
0.0
 11
1869.88465810737
 21
569.2420195854033
 31
0.0
 70
    32
  1
20
 71
     5
 42
200.0
  3
ISO-25
100
AcDbAlignedDimension
 13
1769.88465810737
 23
439.8161778742369
 33
0.0
 14
1969.88465810737
 24
439.8161778742369
 34
0.0
100
AcDbRotatedDimension
1001
ACAD
1000
DSTYLE
1002
{
1070
    41
1040
10.0
1070
   140
1040
30.0
1070
   147
1040
6.599999999999997
1070
   279
1070
     2
1070
   342
1005
30D
1070
   371
1070
    18
1070
   372
1070
    18
1002
}
  0
DIMENSION
  5
635D
330
1F
100
AcDbEntity
  8
実形
100
AcDbDimension
  2
*D43
 10
1707.748470023713
 20
465.6687844154767
 30
0.0
 11
1682.848470023713
 21
514.5501612175811
 31
0.0
 70
   160
  1
1.2
 71
     5
 42
12.0
  3
ISO-25
100
AcDbAlignedDimension
 13
1809.293911053244
 23
477.6687844154767
 33
0.0
 14
1809.293911053244
 24
465.6687844154767
 34
0.0
 50
90.0
100
AcDbRotatedDimension
1001
ACAD
1000
DSTYLE
1002
{
1070
    41
1040
10.0
1070
   140
1040
30.0
1070
   147
1040
6.599999999999997
1070
   279
1070
     2
1070
   342
1005
30D
1070
   371
1070
    18
1070
   372
1070
    18
1002
}
  0
DIMENSION
  5
635E
330
1F
100
AcDbEntity
  8
実形
100
AcDbDimension
  2
*D44
 10
1707.748470023713
 20
339.6687844154769
 30
0.0
 11
1686.148470023713
 21
402.6687844154769
 31
0.0
 70
    32
  1
12.6
 71
     5
 42
125.9999999999998
  3
ISO-25
100
AcDbAlignedDimension
 13
1773.601308322915
 23
465.6687844154767
 33
0.0
 14
1773.601308322915
 24
339.6687844154769
 34
0.0
 50
90.0
100
AcDbRotatedDimension
1001
ACAD
1000
DSTYLE
1002
{
1070
    41
1040
10.0
1070
   140
1040
30.0
1070
   147
1040
6.599999999999997
1070
   279
1070
     2
1070
   342
1005
30D
1070
   371
1070
    18
1070
   372
1070
    18
1002
}
  0
DIMENSION
  5
635F
330
1F
100
AcDbEntity
  8
実形
100
AcDbDimension
  2
*D45
 10
1607.516616430275
 20
327.6687844154768
 30
0.0
 11
1585.916616430275
 21
402.6687844154769
 31
0.0
 70
    32
  1
15
 71
     5
 42
150.0
  3
ISO-25
100
AcDbAlignedDimension
 13
1773.601308322915
 23
477.6687844154767
 33
0.0
 14
1773.601308322915
 24
327.6687844154767
 34
0.0
 50
90.0
100
AcDbRotatedDimension
1001
ACAD
1000
DSTYLE
1002
{
1070
    41
1040
10.0
1070
   140
1040
30.0
1070
   147
1040
6.599999999999997
1070
   279
1070
     2
1070
   342
1005
30D
1070
   371
1070
    18
1070
   372
1070
    18
1002
}
  0
DIMENSION
  5
6360
330
1F
100
AcDbEntity
  8
実形
100
AcDbDimension
  2
*D46
 10
1707.748470023713
 20
327.6687844154767
 30
0.0
 11
1682.848470023713
 21
291.0148636725971
 31
0.0
 70
   160
  1
1.2
 71
     5
 42
12.00000000000011
  3
ISO-25
100
AcDbAlignedDimension
 13
1807.995800181716
 23
339.6687844154768
 33
0.0
 14
1809.651063621566
 24
327.6687844154767
 34
0.0
 50
90.0
100
AcDbRotatedDimension
1001
ACAD
1000
DSTYLE
1002
{
1070
    41
1040
10.0
1070
   140
1040
30.0
1070
   147
1040
6.599999999999997
1070
   279
1070
     2
1070
   342
1005
30D
1070
   371
1070
    18
1070
   372
1070
    18
1002
}
  0
TEXT
  5
6361
330
1F
100
AcDbEntity
  8
実形
100
AcDbText
 10
1475.885546371152
 20
558.2208627242311
 30
0.0
 40
40.0
  1
B-B\M+1814C断面
 72
     4
 11
1602.552213037819
 21
578.2208627242312
 31
0.0
100
AcDbText
  0
DIMENSION
  5
6362
330
1F
100
AcDbEntity
  8
実形
100
AcDbDimension
  2
*D47
 10
2189.88465810737
 20
249.7575464485608
 30
0.0
 11
2079.884658107371
 21
271.3575464485608
 31
0.0
 70
    32
  1
22
 71
     5
 42
220.0
  3
ISO-25
100
AcDbAlignedDimension
 13
1969.88465810737
 23
353.4040832798027
 33
0.0
 14
2189.88465810737
 24
351.9745793713787
 34
0.0
100
AcDbRotatedDimension
1001
ACAD
1000
DSTYLE
1002
{
1070
    41
1040
10.0
1070
   140
1040
30.0
1070
   147
1040
6.599999999999997
1070
   279
1070
     2
1070
   342
1005
30D
1070
   371
1070
    18
1070
   372
1070
    18
1002
}
  0
DIMENSION
  5
6363
330
1F
100
AcDbEntity
  8
実形
100
AcDbDimension
  2
*D48
 10
2229.884658107371
 20
400.8833310174114
 30
0.0
 11
2189.88465810737
 21
422.4833310174113
 31
0.0
 70
    32
  1
8
 71
     5
 42
80.0
  3
ISO-25
100
AcDbAlignedDimension
 13
2149.88465810737
 23
307.1251455729608
 33
0.0
 14
2229.884658107371
 24
307.1251455729607
 34
0.0
100
AcDbRotatedDimension
1001
ACAD
1000
DSTYLE
1002
{
1070
    41
1040
10.0
1070
   140
1040
30.0
1070
   147
1040
6.599999999999997
1070
   279
1070
     2
1070
   342
1005
30D
1070
   371
1070
    18
1070
   372
1070
    18
1002
}
  0
DIMENSION
  5
6364
330
1F
100
AcDbEntity
  8
実形
100
AcDbDimension
  2
*D49
 10
2629.88465810737
 20
400.8833310174114
 30
0.0
 11
2589.884658107371
 21
422.4833310174113
 31
0.0
 70
    32
  1
8
 71
     5
 42
80.0
  3
ISO-25
100
AcDbAlignedDimension
 13
2549.88465810737
 23
307.1251455729608
 33
0.0
 14
2629.88465810737
 24
307.1251455729607
 34
0.0
100
AcDbRotatedDimension
1001
ACAD
1000
DSTYLE
1002
{
1070
    41
1040
10.0
1070
   140
1040
30.0
1070
   147
1040
6.599999999999997
1070
   279
1070
     2
1070
   342
1005
30D
1070
   371
1070
    18
1070
   372
1070
    18
1002
}
  0
DIMENSION
  5
6365
330
1F
100
AcDbEntity
  8
実形
100
AcDbDimension
  2
*D50
 10
2589.884658107371
 20
249.7575464485608
 30
0.0
 11
2389.884658107371
 21
271.3575464485608
 31
0.0
 70
    32
  1
40
 71
     5
 42
400.0
  3
ISO-25
100
AcDbAlignedDimension
 13
2189.88465810737
 23
327.6687844154762
 33
0.0
 14
2589.884658107371
 24
351.7370496042031
 34
0.0
100
AcDbRotatedDimension
1001
ACAD
1000
DSTYLE
1002
{
1070
    41
1040
10.0
1070
   140
1040
30.0
1070
   147
1040
6.599999999999997
1070
   279
1070
     2
1070
   342
1005
30D
1070
   371
1070
    18
1070
   372
1070
    18
1002
}
  0
DIMENSION
  5
6366
330
1F
100
AcDbEntity
  8
実形
100
AcDbDimension
  2
*D51
 10
1969.88465810737
 20
249.7575464485608
 30
0.0
 11
1915.889411253724
 21
274.3256138772931
 31
0.0
 70
   160
  1
1.2
 71
     5
 42
11.99999999999954
  3
ISO-25
100
AcDbAlignedDimension
 13
1957.884658107371
 23
352.9180329716719
 33
0.0
 14
1969.88465810737
 24
345.6687844154759
 34
0.0
100
AcDbRotatedDimension
1001
ACAD
1000
DSTYLE
1002
{
1070
    41
1040
10.0
1070
   140
1040
30.0
1070
   147
1040
6.599999999999997
1070
   279
1070
     2
1070
   342
1005
30D
1070
   371
1070
    18
1070
   372
1070
    18
1002
}
  0
LINE
  5
64D9
330
1F
100
AcDbEntity
  8
実形
100
AcDbLine
 10
428.0956210721633
 20
477.6687844154767
 30
0.0
 11
428.0956210721633
 21
465.6687844154767
 31
0.0
  0
TEXT
  5
65BC
330
1F
100
AcDbEntity
  8
実形
100
AcDbText
 10
1099.100408691905
 20
1582.76800583055
 30
0.0
 40
30.0
  1
B
 72
     4
 11
1109.100408691905
 21
1597.76800583055
 31
0.0
100
AcDbText
  0
TEXT
  5
65C5
330
1F
100
AcDbEntity
  8
実形
100
AcDbText
 10
1099.354423929162
 20
700.3769464712473
 30
0.0
 40
30.0
  1
B
 72
     4
 11
1109.354423929162
 21
715.3769464712472
 31
0.0
100
AcDbText
  0
TEXT
  5
65CE
330
1F
100
AcDbEntity
  8
実形
100
AcDbText
 10
1115.688482252386
 20
703.0236727768042
 30
0.0
 40
30.0
  1
´
 72
     4
 11
1129.688482252386
 21
731.0236727768042
 31
0.0
100
AcDbText
  0
TEXT
  5
68B3
330
1F
100
AcDbEntity
  8
実形
 62
     0
100
AcDbText
 10
2653.5
 20
1911.500000000001
 30
0.0
 40
30.0
  1
電解研磨
 72
     4
 11
2721.5
 21
1926.500000000001
 31
0.0
100
AcDbText
  0
TEXT
  5
68BC
330
1F
100
AcDbEntity
  8
実形
100
AcDbText
 10
2299.789398498288
 20
84.38934528773049
 30
0.0
 40
35.0
  1
RaS250-404MT
  7
ms明朝
 72
     4
 11
2453.389398498288
 21
101.4893452877305
 31
0.0
100
AcDbText
  0
TEXT
  5
68D6
330
1F
100
AcDbEntity
  8
実形
100
AcDbText
 10
2295.707342985361
 20
148.5823867076031
 30
0.0
 40
35.0
  1
水切トレー
  7
ms明朝
 72
     4
 11
2423.707342985361
 21
166.782386707603
 31
0.0
100
AcDbText
  0
LINE
  5
6D9B
330
1F
100
AcDbEntity
  8
実形
 62
     0
100
AcDbLine
 10
2834.0
 20
4.0
 30
0.0
 11
2834.0
 21
2024.0
 31
0.0
  0
LINE
  5
76E2
330
1F
100
AcDbEntity
  8
実形
 62
     0
100
AcDbLine
 10
174.0
 20
2024.0
 30
0.0
 11
174.0
 21
4.0
 31
0.0
  0
LINE
  5
78FB
330
1F
100
AcDbEntity
  8
実形
100
AcDbLine
 10
1769.88465810737
 20
477.6687844154756
 30
0.0
 11
1769.88465810737
 21
465.6687844154758
 31
0.0
  0
TEXT
  5
79B3
330
1F
100
AcDbEntity
  8
実形
100
AcDbText
 10
812.5236759016116
 20
1389.008983384579
 30
0.0
 40
30.0
  1
A
 72
     4
 11
822.5236759016116
 21
1404.008983384579
 31
0.0
100
AcDbText
  0
LINE
  5
7C15
330
1F
100
AcDbEntity
  8
実形
100
AcDbLine
 10
1821.570358046311
 20
757.7592230405679
 30
0.0
 11
1829.670962754277
 21
757.7592230405683
 31
0.0
  0
LINE
  5
7C16
330
1F
100
AcDbEntity
  8
実形
100
AcDbLine
 10
1829.670962754277
 20
797.7592230405678
 30
0.0
 11
1843.47035804631
 21
797.7592230405678
 31
0.0
  0
LINE
  5
7C17
330
1F
100
AcDbEntity
  8
実形
100
AcDbLine
 10
1851.57035804631
 20
789.6592230405681
 30
0.0
 11
1851.570358046311
 21
1426.662883129523
 31
0.0
  0
LINE
  5
7C18
330
1F
100
AcDbEntity
  8
実形
100
AcDbLine
 10
1843.47035804631
 20
797.7592230405678
 30
0.0
 11
1843.47035804631
 21
809.7592230405675
 31
0.0
  0
LINE
  5
7C19
330
1F
100
AcDbEntity
  8
実形
100
AcDbLine
 10
1821.570358046311
 20
757.7592230405679
 30
0.0
 11
1821.570358046311
 21
797.7592230405678
 31
0.0
  0
LINE
  5
7C1A
330
1F
100
AcDbEntity
  8
実形
100
AcDbLine
 10
1821.57035804631
 20
809.7592230405675
 30
0.0
 11
1821.570358046311
 21
1131.759223040568
 31
0.0
  0
LINE
  5
7C1B
330
1F
100
AcDbEntity
  8
実形
100
AcDbLine
 10
1829.670962754277
 20
757.7592230405679
 30
0.0
 11
1829.670962754277
 21
789.6592230405681
 31
0.0
  0
LINE
  5
7C1C
330
1F
100
AcDbEntity
  8
実形
100
AcDbLine
 10
1829.670962754277
 20
809.7592230405675
 30
0.0
 11
1829.670962754277
 21
1131.759223040568
 31
0.0
  0
DIMENSION
  5
7C1D
330
1F
100
AcDbEntity
  8
実形
100
AcDbDimension
  2
*D55
 10
2026.792320098806
 20
757.7592230405679
 30
0.0
 11
2005.192320098807
 21
1161.759223040568
 31
0.0
 70
    32
  1
404
 71
     5
 42
808.0000000000003
  3
ISO-25
100
AcDbAlignedDimension
 13
1892.969217749405
 23
1565.759223040568
 33
0.0
 14
1892.969217749405
 24
757.7592230405679
 34
0.0
 50
90.0
100
AcDbRotatedDimension
1001
ACAD
1000
DSTYLE
1002
{
1070
    41
1040
10.0
1070
   140
1040
30.0
1070
   147
1040
6.599999999999997
1070
   279
1070
     2
1070
   342
1005
30D
1070
   371
1070
    18
1070
   372
1070
    18
1002
}
  0
DIMENSION
  5
7C1E
330
1F
100
AcDbEntity
  8
実形
100
AcDbDimension
  2
*D56
 10
1961.249525000896
 20
757.7592230405679
 30
0.0
 11
1942.556280761977
 21
717.1993737952497
 31
0.0
 70
   160
  1
20
 71
     5
 42
39.99999999999966
  3
ISO-25
100
AcDbAlignedDimension
 13
1870.928361782921
 23
797.7592230405676
 33
0.0
 14
1862.696942185231
 24
757.7592230405679
 34
0.0
 50
90.0
100
AcDbRotatedDimension
1001
ACAD
1000
DSTYLE
1002
{
1070
    41
1040
10.0
1070
   140
1040
30.0
1070
   147
1040
6.599999999999997
1070
   279
1070
     2
1070
   342
1005
30D
1070
   371
1070
    18
1070
   372
1070
    18
1002
}
  0
DIMENSION
  5
7C1F
330
1F
100
AcDbEntity
  8
実形
100
AcDbDimension
  2
*D57
 10
1961.249525000895
 20
797.7592230405676
 30
0.0
 11
1939.649525000895
 21
1161.759223040568
 31
0.0
 70
    32
  1
352
 71
     5
 42
728.0000000000008
  3
ISO-25
100
AcDbAlignedDimension
 13
1895.454288773083
 23
1525.759223040568
 33
0.0
 14
1888.822056788423
 24
797.7592230405676
 34
0.0
 50
90.0
100
AcDbRotatedDimension
1001
ACAD
1000
DSTYLE
1002
{
1070
    41
1040
10.0
1070
   140
1040
30.0
1070
   147
1040
6.599999999999997
1070
   279
1070
     2
1070
   342
1005
30D
1070
   371
1070
    18
1070
   372
1070
    18
1002
}
  0
DIMENSION
  5
7C20
330
1F
100
AcDbEntity
  8
実形
100
AcDbDimension
  2
*D58
 10
1675.826018271261
 20
809.7592230405679
 30
0.0
 11
1654.226018271261
 21
1161.759223040568
 31
0.0
 70
    32
  1
352
 71
     5
 42
703.9999999999999
  3
ISO-25
100
AcDbAlignedDimension
 13
1564.62547870423
 23
1513.759223040568
 33
0.0
 14
1564.62547870423
 24
809.7592230405679
 34
0.0
 50
90.0
100
AcDbRotatedDimension
1001
ACAD
1000
DSTYLE
1002
{
1070
    41
1040
10.0
1070
   140
1040
30.0
1070
   147
1040
6.599999999999997
1070
   279
1070
     2
1070
   342
1005
30D
1070
   371
1070
    18
1070
   372
1070
    18
1002
}
  0
DIMENSION
  5
7C21
330
1F
100
AcDbEntity
  8
実形
100
AcDbDimension
  2
*D59
 10
1675.826018271261
 20
757.7592230405679
 30
0.0
 11
1658.886011297077
 21
1608.45829157715
 31
0.0
 70
   160
  1
20
 71
     5
 42
808.0000000000001
  3
ISO-25
100
AcDbAlignedDimension
 13
1564.62547870423
 23
1565.759223040568
 33
0.0
 14
1564.625478704229
 24
757.7592230405679
 34
0.0
 50
90.0
100
AcDbRotatedDimension
1001
ACAD
1000
DSTYLE
1002
{
1070
    41
1040
10.0
1070
   140
1040
30.0
1070
   147
1040
6.599999999999997
1070
   279
1070
     2
1070
   342
1005
30D
1070
   371
1070
    18
1070
   372
1070
    18
1002
}
  0
DIMENSION
  5
7C22
330
1F
100
AcDbEntity
  8
実形
100
AcDbDimension
  2
*D60
 10
1675.826018271261
 20
797.7592230405678
 30
0.0
 11
1653.988990161749
 21
720.0986130909658
 31
0.0
 70
   160
  1
20
 71
     5
 42
728.0000000000001
  3
ISO-25
100
AcDbAlignedDimension
 13
1564.62547870423
 23
1525.759223040568
 33
0.0
 14
1564.62547870423
 24
797.7592230405678
 34
0.0
 50
90.0
100
AcDbRotatedDimension
1001
ACAD
1000
DSTYLE
1002
{
1070
    41
1040
10.0
1070
   140
1040
30.0
1070
   147
1040
6.599999999999997
1070
   279
1070
     2
1070
   342
1005
30D
1070
   371
1070
    18
1070
   372
1070
    18
1002
}
  0
LINE
  5
7C23
330
1F
100
AcDbEntity
  8
実形
100
AcDbLine
 10
1821.570358046311
 20
809.7592230405677
 30
0.0
 11
1851.57035804631
 21
809.7592230405675
 31
0.0
  0
LINE
  5
7C24
330
1F
100
AcDbEntity
  8
実形
100
AcDbLine
 10
1821.570358046311
 20
797.7592230405678
 30
0.0
 11
1843.47035804631
 21
797.7592230405678
 31
0.0
  0
LINE
  5
7C25
330
1F
100
AcDbEntity
  8
実形
100
AcDbLine
 10
1829.670962754278
 20
789.6592230405681
 30
0.0
 11
1851.57035804631
 21
789.6592230405681
 31
0.0
  0
DIMENSION
  5
7C26
330
1F
100
AcDbEntity
  8
実形
100
AcDbDimension
  2
*D61
 10
1851.57035804631
 20
667.0740218893372
 30
0.0
 11
1838.025560786389
 21
636.5960105308186
 31
0.0
 70
   160
  1
15
 71
     5
 42
29.99999999999977
  3
ISO-25
100
AcDbAlignedDimension
 13
1821.570358046311
 23
756.1432538814077
 33
0.0
 14
1851.57035804631
 24
757.2981631212643
 34
0.0
100
AcDbRotatedDimension
1001
ACAD
1000
DSTYLE
1002
{
1070
    41
1040
10.0
1070
   140
1040
30.0
1070
   147
1040
6.599999999999997
1070
   279
1070
     2
1070
   342
1005
30D
1070
   371
1070
    18
1070
   372
1070
    18
1002
}
  0
LINE
  5
7C27
330
1F
100
AcDbEntity
  8
実形
100
AcDbLine
 10
1821.570358046311
 20
737.1462970701358
 30
0.0
 11
1821.570358046311
 21
707.090060101424
 31
0.0
  0
LINE
  5
7C28
330
1F
100
AcDbEntity
  8
実形
100
AcDbLine
 10
1821.570358046311
 20
707.090060101424
 30
0.0
 11
1829.670962754277
 21
707.090060101424
 31
0.0
  0
LINE
  5
7C29
330
1F
100
AcDbEntity
  8
実形
100
AcDbLine
 10
1829.670962754277
 20
707.090060101424
 30
0.0
 11
1829.670962754277
 21
737.1462970701358
 31
0.0
  0
TEXT
  5
7C2D
330
1F
100
AcDbEntity
  8
実形
100
AcDbText
 10
1818.415344101476
 20
710.4408834433481
 30
0.0
 40
7.0
  1
●
 50
180.0
 71
     2
 72
     2
 11
1824.482010768143
 21
711.3742167766814
 31
0.0
100
AcDbText
 73
     1
  0
TEXT
  5
7C2E
330
1F
100
AcDbEntity
  8
実形
100
AcDbText
 10
1825.765718783795
 20
710.4408834433481
 30
0.0
 40
7.0
  1
●
 50
180.0
 71
     2
 72
     2
 11
1831.832385450462
 21
711.3742167766814
 31
0.0
100
AcDbText
 73
     1
  0
TEXT
  5
7C32
330
1F
100
AcDbEntity
  8
実形
100
AcDbText
 10
1761.374250278071
 20
696.3248214220524
 30
0.0
 40
25.0
  1
1.2
 72
     4
 11
1782.207583611404
 21
708.8248214220524
 31
0.0
100
AcDbText
  0
DIMENSION
  5
7C39
330
1F
100
AcDbEntity
  8
実形
100
AcDbDimension
  2
*D62
 10
1961.249525000896
 20
797.7592230405678
 30
0.0
 11
1904.765896881136
 21
804.7339087848579
 31
0.0
 70
   160
  1
6
 71
     5
 42
11.99999999999954
  3
ISO-25
100
AcDbAlignedDimension
 13
1861.418968141132
 23
809.7592230405675
 33
0.0
 14
1861.076922756456
 24
797.7592230405678
 34
0.0
 50
90.0
100
AcDbRotatedDimension
1001
ACAD
1000
DSTYLE
1002
{
1070
    41
1040
10.0
1070
   140
1040
25.0
1070
   147
1040
6.599999999999997
1070
   279
1070
     2
1070
   342
1005
30D
1070
   371
1070
    18
1070
   372
1070
    18
1002
}
  0
DIMENSION
  5
7C3A
330
1F
100
AcDbEntity
  8
実形
100
AcDbDimension
  2
*D63
 10
1961.249525000896
 20
1565.759223040568
 30
0.0
 11
1942.556280761977
 21
1606.319072285886
 31
0.0
 70
   160
  1
20
 71
     5
 42
39.99999999999955
  3
ISO-25
100
AcDbAlignedDimension
 13
1862.489256681749
 23
1525.759223040568
 33
0.0
 14
1860.802531397689
 24
1565.759223040568
 34
0.0
 50
270.0
100
AcDbRotatedDimension
1001
ACAD
1000
DSTYLE
1002
{
1070
    41
1040
10.0
1070
   140
1040
30.0
1070
   147
1040
6.599999999999997
1070
   279
1070
     2
1070
   342
1005
30D
1070
   371
1070
    18
1070
   372
1070
    18
1002
}
  0
DIMENSION
  5
7C3B
330
1F
100
AcDbEntity
  8
実形
100
AcDbDimension
  2
*D64
 10
1851.57035804631
 20
1656.444424191799
 30
0.0
 11
1838.025560786389
 21
1686.922435550317
 31
0.0
 70
   160
  1
15
 71
     5
 42
29.99999999999977
  3
ISO-25
100
AcDbAlignedDimension
 13
1821.570358046311
 23
1567.375192199728
 33
0.0
 14
1851.57035804631
 24
1566.220282959871
 34
0.0
100
AcDbRotatedDimension
1001
ACAD
1000
DSTYLE
1002
{
1070
    41
1040
10.0
1070
   140
1040
30.0
1070
   147
1040
6.599999999999997
1070
   279
1070
     2
1070
   342
1005
30D
1070
   371
1070
    18
1070
   372
1070
    18
1002
}
  0
LINE
  5
7C3C
330
1F
100
AcDbEntity
  8
実形
100
AcDbLine
 10
1821.570358046311
 20
1586.372149011
 30
0.0
 11
1821.570358046311
 21
1616.428385979712
 31
0.0
  0
LINE
  5
7C3D
330
1F
100
AcDbEntity
  8
実形
100
AcDbLine
 10
1821.570358046311
 20
1616.428385979712
 30
0.0
 11
1829.670962754277
 21
1616.428385979712
 31
0.0
  0
LINE
  5
7C3E
330
1F
100
AcDbEntity
  8
実形
100
AcDbLine
 10
1829.670962754277
 20
1616.428385979712
 30
0.0
 11
1829.670962754277
 21
1586.372149011
 31
0.0
  0
TEXT
  5
7C42
330
1F
100
AcDbEntity
  8
実形
100
AcDbText
 10
1818.415344101476
 20
1613.077562637787
 30
0.0
 40
7.0
  1
●
 72
     2
 11
1824.482010768143
 21
1612.144229304454
 31
0.0
100
AcDbText
 73
     1
  0
TEXT
  5
7C43
330
1F
100
AcDbEntity
  8
実形
100
AcDbText
 10
1825.765718783795
 20
1613.077562637787
 30
0.0
 40
7.0
  1
●
 72
     2
 11
1831.832385450462
 21
1612.144229304454
 31
0.0
100
AcDbText
 73
     1
  0
TEXT
  5
7C47
330
1F
100
AcDbEntity
  8
実形
100
AcDbText
 10
1761.374250278071
 20
1599.312784112759
 30
0.0
 40
25.0
  1
1.2
 72
     4
 11
1782.207583611404
 21
1611.812784112759
 31
0.0
100
AcDbText
  0
DIMENSION
  5
7C4E
330
1F
100
AcDbEntity
  8
実形
100
AcDbDimension
  2
*D65
 10
1961.249525000896
 20
1525.759223040568
 30
0.0
 11
1903.383806296113
 21
1520.131317903164
 31
0.0
 70
   160
  1
6
 71
     5
 42
11.99999999999954
  3
ISO-25
100
AcDbAlignedDimension
 13
1861.418968141132
 23
1513.759223040568
 33
0.0
 14
1861.145925469464
 24
1525.759223040568
 34
0.0
 50
270.0
100
AcDbRotatedDimension
1001
ACAD
1000
DSTYLE
1002
{
1070
    41
1040
10.0
1070
   140
1040
25.0
1070
   147
1040
6.599999999999997
1070
   279
1070
     2
1070
   342
1005
30D
1070
   371
1070
    18
1070
   372
1070
    18
1002
}
  0
LINE
  5
7C4F
330
1F
100
AcDbEntity
  8
実形
100
AcDbLine
 10
1829.670962754277
 20
1525.759223040568
 30
0.0
 11
1843.47035804631
 21
1525.759223040568
 31
0.0
  0
LINE
  5
7C50
330
1F
100
AcDbEntity
  8
実形
100
AcDbLine
 10
1851.57035804631
 20
1533.859223040568
 30
0.0
 11
1851.570358046311
 21
896.855562951613
 31
0.0
  0
LINE
  5
7C51
330
1F
100
AcDbEntity
  8
実形
100
AcDbLine
 10
1843.47035804631
 20
1525.759223040568
 30
0.0
 11
1843.47035804631
 21
1513.759223040568
 31
0.0
  0
LINE
  5
7C52
330
1F
100
AcDbEntity
  8
実形
100
AcDbLine
 10
1821.570358046311
 20
1565.759223040568
 30
0.0
 11
1821.570358046311
 21
1525.759223040568
 31
0.0
  0
LINE
  5
7C53
330
1F
100
AcDbEntity
  8
実形
100
AcDbLine
 10
1821.57035804631
 20
1513.759223040568
 30
0.0
 11
1821.57035804631
 21
1191.759223040568
 31
0.0
  0
LINE
  5
7C54
330
1F
100
AcDbEntity
  8
実形
100
AcDbLine
 10
1829.670962754277
 20
1565.759223040568
 30
0.0
 11
1829.670962754277
 21
1533.859223040568
 31
0.0
  0
LINE
  5
7C55
330
1F
100
AcDbEntity
  8
実形
100
AcDbLine
 10
1829.670962754277
 20
1513.759223040568
 30
0.0
 11
1829.670962754278
 21
1191.759223040568
 31
0.0
  0
LINE
  5
7C56
330
1F
100
AcDbEntity
  8
実形
100
AcDbLine
 10
1821.570358046311
 20
1513.759223040568
 30
0.0
 11
1851.57035804631
 21
1513.759223040568
 31
0.0
  0
LINE
  5
7C57
330
1F
100
AcDbEntity
  8
実形
100
AcDbLine
 10
1821.570358046311
 20
1525.759223040568
 30
0.0
 11
1843.47035804631
 21
1525.759223040568
 31
0.0
  0
LINE
  5
7C58
330
1F
100
AcDbEntity
  8
実形
100
AcDbLine
 10
1829.670962754278
 20
1533.859223040568
 30
0.0
 11
1851.57035804631
 21
1533.859223040568
 31
0.0
  0
DIMENSION
  5
7C59
330
1F
100
AcDbEntity
  8
実形
100
AcDbDimension
  2
*D54
 10
1961.249525000896
 20
1525.759223040568
 30
0.0
 11
1937.926701471982
 21
1491.729620018122
 31
0.0
 70
   160
  1
 
 71
     5
 42
11.99999999999954
  3
ISO-25
100
AcDbAlignedDimension
 13
1861.418968141132
 23
1513.759223040568
 33
0.0
 14
1861.489326374544
 24
1525.759223040568
 34
0.0
 50
270.0
100
AcDbRotatedDimension
1001
ACAD
1000
DSTYLE
1002
{
1070
    41
1040
10.0
1070
   140
1040
30.0
1070
   147
1040
6.599999999999997
1070
   279
1070
     2
1070
   342
1005
30D
1070
   371
1070
    18
1070
   372
1070
    18
1002
}
  0
LINE
  5
7C5A
330
1F
100
AcDbEntity
  8
実形
100
AcDbLine
 10
1821.570358046311
 20
1565.759223040568
 30
0.0
 11
1829.670962754277
 21
1565.759223040568
 31
0.0
  0
TEXT
  5
7C5B
330
1F
100
AcDbEntity
  8
実形
100
AcDbText
 10
1613.865523019722
 20
797.8581519541902
 30
0.0
 40
25.0
  1
6
 50
90.0
 72
     4
 11
1601.365523019722
 21
806.1914852875236
 31
0.0
100
AcDbText
  0
TEXT
  5
7C5C
330
1F
100
AcDbEntity
  8
実形
100
AcDbText
 10
1620.146348158139
 20
1512.151685394346
 30
0.0
 40
25.0
  1
6
 50
90.0
 72
     4
 11
1607.646348158139
 21
1520.485018727679
 31
0.0
100
AcDbText
  0
LINE
  5
7F81
330
1F
100
AcDbEntity
  8
実形
100
AcDbLine
 10
1318.771034014624
 20
1513.759223040568
 30
0.0
 11
1348.771034014624
 21
1513.759223040568
 31
0.0
  0
LINE
  5
7F82
330
1F
100
AcDbEntity
  8
実形
100
AcDbLine
 10
1306.771034014624
 20
1525.759223040568
 30
0.0
 11
1306.771034014624
 21
1555.759223040568
 31
0.0
  0
LINE
  5
7F83
330
1F
100
AcDbEntity
  8
実形
100
AcDbLine
 10
910.7710340146239
 20
1525.759223040568
 30
0.0
 11
910.7710340146239
 21
1555.759223040567
 31
0.0
  0
LINE
  5
7F84
330
1F
100
AcDbEntity
  8
実形
100
AcDbLine
 10
898.7710340146241
 20
1513.759223040568
 30
0.0
 11
868.7710340146239
 21
1513.759223040568
 31
0.0
  0
LINE
  5
7F85
330
1F
100
AcDbEntity
  8
実形
100
AcDbLine
 10
1318.771034014624
 20
809.7592230405679
 30
0.0
 11
1348.771034014624
 21
809.7592230405679
 31
0.0
  0
LINE
  5
7F86
330
1F
100
AcDbEntity
  8
実形
100
AcDbLine
 10
1306.771034014624
 20
797.7592230405678
 30
0.0
 11
1306.771034014624
 21
767.7592230405679
 31
0.0
  0
LINE
  5
7F87
330
1F
100
AcDbEntity
  8
実形
100
AcDbLine
 10
910.7710340146239
 20
797.7592230405678
 30
0.0
 11
910.7710340146239
 21
767.7592230405679
 31
0.0
  0
LINE
  5
7F88
330
1F
100
AcDbEntity
  8
実形
100
AcDbLine
 10
898.7710340146241
 20
809.7592230405679
 30
0.0
 11
868.7710340146239
 21
809.7592230405679
 31
0.0
  0
ARC
  5
7F8A
330
1F
100
AcDbEntity
  8
実形
100
AcDbCircle
 10
1348.771034014624
 20
1503.759223040568
 30
0.0
 40
10.0
100
AcDbArc
 50
0.0
 51
90.0
  0
ARC
  5
7F8B
330
1F
100
AcDbEntity
  8
実形
100
AcDbCircle
 10
1296.771034014624
 20
1555.759223040568
 30
0.0
 40
10.0
100
AcDbArc
 50
0.0
 51
90.0
  0
ARC
  5
7F8C
330
1F
100
AcDbEntity
  8
実形
100
AcDbCircle
 10
1348.771034014624
 20
819.7592230405678
 30
0.0
 40
10.0
100
AcDbArc
 50
270.0
 51
0.0
  0
ARC
  5
7F8D
330
1F
100
AcDbEntity
  8
実形
100
AcDbCircle
 10
1296.771034014624
 20
767.7592230405679
 30
0.0
 40
10.0
100
AcDbArc
 50
270.0
 51
0.0
  0
ARC
  5
7F8E
330
1F
100
AcDbEntity
  8
実形
100
AcDbCircle
 10
920.771034014624
 20
767.7592230405679
 30
0.0
 40
10.0
100
AcDbArc
 50
180.0
 51
270.0
  0
ARC
  5
7F8F
330
1F
100
AcDbEntity
  8
実形
100
AcDbCircle
 10
868.7710340146239
 20
819.7592230405678
 30
0.0
 40
10.0
100
AcDbArc
 50
180.0
 51
270.0
  0
ARC
  5
7F90
330
1F
100
AcDbEntity
  8
実形
100
AcDbCircle
 10
920.771034014624
 20
1555.759223040567
 30
0.0
 40
10.0
100
AcDbArc
 50
90.00000000000005
 51
180.0
  0
ARC
  5
7F91
330
1F
100
AcDbEntity
  8
実形
100
AcDbCircle
 10
868.7710340146239
 20
1503.759223040568
 30
0.0
 40
10.0
100
AcDbArc
 50
90.0
 51
180.0
  0
DIMENSION
  5
8100
330
1F
100
AcDbEntity
  8
実形
100
AcDbDimension
  2
*D66
 10
1306.771034014624
 20
581.7761970494935
 30
0.0
 11
1109.205356699319
 21
603.3761970494935
 31
0.0
 70
   160
  1
198
 71
     5
 42
395.9999999999995
  3
ISO-25
100
AcDbAlignedDimension
 13
910.7710340146242
 23
696.615490024219
 33
0.0
 14
1306.771034014624
 24
696.615490024219
 34
0.0
100
AcDbRotatedDimension
1001
ACAD
1000
DSTYLE
1002
{
1070
    41
1040
10.0
1070
   140
1040
30.0
1070
   147
1040
6.599999999999997
1070
   279
1070
     2
1070
   342
1005
30D
1070
   371
1070
    18
1070
   372
1070
    18
1002
}
  0
DIMENSION
  5
8101
330
1F
100
AcDbEntity
  8
実形
100
AcDbDimension
  2
*D67
 10
1318.771034014624
 20
581.7761970494935
 30
0.0
 11
1312.448027638127
 21
658.5344019312409
 31
0.0
 70
   160
  1
6
 71
     5
 42
419.9999999999994
  3
ISO-25
100
AcDbAlignedDimension
 13
898.7710340146241
 23
696.615490024219
 33
0.0
 14
1318.771034014624
 24
696.615490024219
 34
0.0
100
AcDbRotatedDimension
1001
ACAD
1000
DSTYLE
1002
{
1070
    41
1040
10.0
1070
   140
1040
30.0
1070
   147
1040
6.599999999999997
1070
   279
1070
     2
1070
   342
1005
30D
1070
   371
1070
    18
1070
   372
1070
    18
1002
}
  0
DIMENSION
  5
8102
330
1F
100
AcDbEntity
  8
実形
100
AcDbDimension
  2
*D68
 10
1304.271034014624
 20
581.7761970494935
 30
0.0
 11
903.4829687759977
 21
655.8828868774529
 31
0.0
 70
   160
  1
6
 71
     5
 42
406.1883377501896
  3
ISO-25
100
AcDbAlignedDimension
 13
898.0826962644341
 23
641.6876240071074
 33
0.0
 14
1304.271034014624
 24
645.8767455479187
 34
0.0
100
AcDbRotatedDimension
1001
ACAD
1000
DSTYLE
1002
{
1070
    41
1040
10.0
1070
   140
1040
30.0
1070
   147
1040
6.599999999999997
1070
   279
1070
     2
1070
   342
1005
30D
1070
   371
1070
    18
1070
   372
1070
    18
1002
}
  0
DIMENSION
  5
8103
330
1F
100
AcDbEntity
  8
実形
100
AcDbDimension
  2
*D69
 10
1358.771034014624
 20
581.7761970494935
 30
0.0
 11
1396.501054352438
 21
605.7253183657726
 31
0.0
 70
   160
  1
20
 71
     5
 42
40.00000000000068
  3
ISO-25
100
AcDbAlignedDimension
 13
1318.771034014624
 23
695.3656874518359
 33
0.0
 14
1358.771034014624
 24
695.3656874518363
 34
0.0
100
AcDbRotatedDimension
1001
ACAD
1000
DSTYLE
1002
{
1070
    41
1040
10.0
1070
   140
1040
30.0
1070
   147
1040
6.599999999999997
1070
   279
1070
     2
1070
   342
1005
30D
1070
   371
1070
    18
1070
   372
1070
    18
1002
}
  0
DIMENSION
  5
8104
330
1F
100
AcDbEntity
  8
実形
100
AcDbDimension
  2
*D70
 10
898.7710340146241
 20
581.7761970494935
 30
0.0
 11
819.6403534577875
 21
604.698150384595
 31
0.0
 70
   160
  1
20
 71
     5
 42
40.00000000000068
  3
ISO-25
100
AcDbAlignedDimension
 13
858.7710340146236
 23
695.3656874518359
 33
0.0
 14
898.7710340146241
 24
695.3656874518363
 34
0.0
100
AcDbRotatedDimension
1001
ACAD
1000
DSTYLE
1002
{
1070
    41
1040
10.0
1070
   140
1040
30.0
1070
   147
1040
6.599999999999997
1070
   279
1070
     2
1070
   342
1005
30D
1070
   371
1070
    18
1070
   372
1070
    18
1002
}
  0
ARC
  5
82E6
330
1F
100
AcDbEntity
  8
実形
100
AcDbCircle
 10
1346.771034014624
 20
1203.759223040568
 30
0.0
 40
12.0
100
AcDbArc
 50
270.0
 51
0.0
  0
ARC
  5
82E7
330
1F
100
AcDbEntity
  8
実形
100
AcDbCircle
 10
1346.771034014624
 20
1119.759223040568
 30
0.0
 40
12.0
100
AcDbArc
 50
0.0
 51
90.0
  0
ARC
  5
82E8
330
1F
100
AcDbEntity
  8
実形
100
AcDbCircle
 10
870.7710340146237
 20
1203.759223040568
 30
0.0
 40
12.0
100
AcDbArc
 50
180.0
 51
270.0
  0
LINE
  5
82E9
330
1F
100
AcDbEntity
  8
実形
100
AcDbLine
 10
870.7710340146237
 20
1191.759223040568
 30
0.0
 11
898.7710340146245
 21
1191.759223040568
 31
0.0
  0
LINE
  5
82EA
330
1F
100
AcDbEntity
  8
実形
100
AcDbLine
 10
1318.771034014624
 20
1191.759223040568
 30
0.0
 11
1346.771034014624
 21
1191.759223040568
 31
0.0
  0
LINE
  5
82EB
330
1F
100
AcDbEntity
  8
実形
100
AcDbLine
 10
870.7710340146242
 20
1131.759223040568
 30
0.0
 11
898.7710340146245
 21
1131.759223040568
 31
0.0
  0
ARC
  5
82EC
330
1F
100
AcDbEntity
  8
実形
100
AcDbCircle
 10
870.7710340146244
 20
1119.759223040568
 30
0.0
 40
12.0
100
AcDbArc
 50
90.0
 51
180.0
  0
LINE
  5
82ED
330
1F
100
AcDbEntity
  8
実形
100
AcDbLine
 10
1318.771034014624
 20
1131.759223040568
 30
0.0
 11
1346.771034014624
 21
1131.759223040567
 31
0.0
  0
DIMENSION
  5
82EE
330
1F
100
AcDbEntity
  8
実形
100
AcDbDimension
  2
*D71
 10
1544.102903920704
 20
1131.759223040567
 30
0.0
 11
1522.502903920704
 21
1161.759223040568
 31
0.0
 70
    32
  1
30
 71
     5
 42
60.00000000000023
  3
ISO-25
100
AcDbAlignedDimension
 13
1431.128647434989
 23
1191.759223040568
 33
0.0
 14
1431.128647434989
 24
1131.759223040568
 34
0.0
 50
90.0
100
AcDbRotatedDimension
1001
ACAD
1000
DSTYLE
1002
{
1070
    41
1040
10.0
1070
   140
1040
30.0
1070
   147
1040
6.599999999999997
1070
   279
1070
     2
1070
   342
1005
30D
1070
   371
1070
    18
1070
   372
1070
    18
1002
}
  0
DIMENSION
  5
82EF
330
1F
100
AcDbEntity
  8
実形
100
AcDbDimension
  2
*D72
 10
1544.102903920704
 20
1191.759223040568
 30
0.0
 11
1522.502903920704
 21
1352.759223040568
 31
0.0
 70
    32
  1
161
 71
     5
 42
321.9999999999998
  3
ISO-25
100
AcDbAlignedDimension
 13
1431.647914276826
 23
1513.759223040568
 33
0.0
 14
1431.128647434989
 24
1191.759223040568
 34
0.0
 50
90.0
100
AcDbRotatedDimension
1001
ACAD
1000
DSTYLE
1002
{
1070
    41
1040
10.0
1070
   140
1040
30.0
1070
   147
1040
6.599999999999997
1070
   279
1070
     2
1070
   342
1005
30D
1070
   371
1070
    18
1070
   372
1070
    18
1002
}
  0
TEXT
  5
82F1
330
1F
100
AcDbEntity
  8
実形
100
AcDbText
 10
1446.996013968226
 20
1139.554317320768
 30
0.0
 40
28.0
  1
6R
 50
90.0
 72
     4
 11
1432.996013968226
 21
1162.887650654101
 31
0.0
100
AcDbText
  0
LEADER
  5
82F2
330
1F
100
AcDbEntity
  8
実形
100
AcDbLeader
  3
ISO-25
 76
     2
 10
1360.761941409254
 20
1128.207216219342
 30
0.0
 10
1404.695295895998
 20
1147.09647081101
 30
0.0
1001
ACAD
1000
DSTYLE
1002
{
1070
    77
1070
     0
1070
    41
1040
10.0
1070
   140
1040
30.0
1070
   147
1040
6.599999999999997
1070
   279
1070
     2
1070
   342
1005
30D
1070
   371
1070
    18
1070
   372
1070
    18
1002
}
  0
LEADER
  5
82F3
330
1F
100
AcDbEntity
  8
実形
100
AcDbLeader
  3
ISO-25
 76
     2
 10
1360.761941409254
 20
1191.855117244489
 30
0.0
 10
1404.695295895998
 20
1171.501019294988
 30
0.0
1001
ACAD
1000
DSTYLE
1002
{
1070
    77
1070
     0
1070
    41
1040
10.0
1070
   140
1040
30.0
1070
   147
1040
6.599999999999997
1070
   279
1070
     2
1070
   342
1005
30D
1070
   371
1070
    18
1070
   372
1070
    18
1002
}
  0
DIMENSION
  5
835B
330
1F
100
AcDbEntity
  8
実形
100
AcDbDimension
  2
*D73
 10
1543.583637078868
 20
809.7592230405682
 30
0.0
 11
1521.983637078868
 21
970.7592230405683
 31
0.0
 70
    32
  1
161
 71
     5
 42
321.9999999999997
  3
ISO-25
100
AcDbAlignedDimension
 13
1431.128647434989
 23
1131.759223040568
 33
0.0
 14
1430.609380593152
 24
809.7592230405682
 34
0.0
 50
90.0
100
AcDbRotatedDimension
1001
ACAD
1000
DSTYLE
1002
{
1070
    41
1040
10.0
1070
   140
1040
30.0
1070
   147
1040
6.599999999999997
1070
   279
1070
     2
1070
   342
1005
30D
1070
   371
1070
    18
1070
   372
1070
    18
1002
}
  0
LINE
  5
83E6
330
1F
100
AcDbEntity
  8
実形
100
AcDbLine
 10
1358.771034014624
 20
1119.759223040568
 30
0.0
 11
1358.771034014624
 21
819.7592230405678
 31
0.0
  0
LINE
  5
83E7
330
1F
100
AcDbEntity
  8
実形
100
AcDbLine
 10
858.7710340146239
 20
1203.759223040568
 30
0.0
 11
858.7710340146239
 21
1503.759223040568
 31
0.0
  0
LINE
  5
83E8
330
1F
100
AcDbEntity
  8
実形
100
AcDbLine
 10
1821.57035804631
 20
1191.759223040568
 30
0.0
 11
1843.47035804631
 21
1191.759223040568
 31
0.0
  0
LINE
  5
83E9
330
1F
100
AcDbEntity
  8
実形
100
AcDbLine
 10
1821.57035804631
 20
1131.759223040568
 30
0.0
 11
1843.47035804631
 21
1131.759223040568
 31
0.0
  0
LINE
  5
83EA
330
1F
100
AcDbEntity
  8
実形
100
AcDbLine
 10
1843.47035804631
 20
1191.759223040568
 30
0.0
 11
1843.47035804631
 21
1131.759223040568
 31
0.0
  0
LINE
  5
83EB
330
1F
100
AcDbEntity
  8
実形
100
AcDbLine
 10
1829.670962754277
 20
1131.759223040568
 30
0.0
 11
1829.670962754277
 21
896.855562951613
 31
0.0
  0
LINE
  5
83EC
330
1F
100
AcDbEntity
  8
実形
100
AcDbLine
 10
1829.670962754277
 20
1191.759223040568
 30
0.0
 11
1829.670962754277
 21
1426.662883129523
 31
0.0
  0
LINE
  5
83ED
330
1F
100
AcDbEntity
  8
実形
100
AcDbLine
 10
1821.57035804631
 20
1131.759223040568
 30
0.0
 11
1821.570358046311
 21
896.855562951613
 31
0.0
  0
LINE
  5
83EE
330
1F
100
AcDbEntity
  8
実形
100
AcDbLine
 10
1821.570358046311
 20
1191.759223040568
 30
0.0
 11
1821.570358046311
 21
1426.662883129523
 31
0.0
  0
TEXT
  5
8456
330
1F
100
AcDbEntity
  8
実形
100
AcDbText
 10
270.3839175204648
 20
60.08511374856789
 30
0.0
 40
30.0
  1
※実寸には製造上の誤差が多少生ずる場合があります。
 72
     4
 11
708.3839175204648
 21
75.08511374856789
 31
0.0
100
AcDbText
  0
TEXT
  5
8457
330
1F
100
AcDbEntity
  8
実形
100
AcDbText
 10
270.0091367510504
 20
120.0003643961663
 30
0.0
 40
30.0
  1
※前辺糸面（内側、外側、表面、裏面）
 72
     4
 11
582.0091367510504
 21
135.0003643961663
 31
0.0
100
AcDbText
  0
VIEWPORT
  5
2E
102
{ACAD_XDICTIONARY
360
849B
102
}
330
1B
100
AcDbEntity
 67
     1
  8
0
100
AcDbViewport
 10
144.7270812988281
 20
101.2295806407928
 30
0.0
 40
411.6736216682419
 41
222.1517806396485
 68
     1
 69
     1
 12
144.7270812988281
 22
101.2295806407928
 13
0.0
 23
0.0
 14
10.0
 24
10.0
 15
10.0
 25
10.0
 16
0.0
 26
0.0
 36
1.0
 17
0.0
 27
0.0
 37
0.0
 42
50.0
 43
0.0
 44
0.0
 45
222.1517806396485
 50
0.0
 51
0.0
 72
   100
 90
    32800
  1

281
     0
 71
     1
 74
     0
110
0.0
120
0.0
130
0.0
111
1.0
121
0.0
131
0.0
112
0.0
122
1.0
132
0.0
 79
     0
146
0.0
  0
VIEWPORT
  5
30
102
{ACAD_XDICTIONARY
360
849D
102
}
330
1B
100
AcDbEntity
 67
     1
  8
0
100
AcDbViewport
 10
139.2237563133239
 20
101.2295821905136
 30
0.0
 40
222.7580101013184
 41
161.9673315048218
 68
     2
 69
     2
 12
210.0
 22
148.5
 13
0.0
 23
0.0
 14
10.0
 24
10.0
 15
10.0
 25
10.0
 16
0.0
 26
0.0
 36
1.0
 17
0.0
 27
0.0
 37
0.0
 42
50.0
 43
0.0
 44
0.0
 45
309.0686705647124
 50
0.0
 51
0.0
 72
   100
 90
    32864
  1

281
     0
 71
     1
 74
     0
110
0.0
120
0.0
130
0.0
111
1.0
121
0.0
131
0.0
112
0.0
122
1.0
132
0.0
 79
     0
146
0.0
  0
ENDSEC
  0
SECTION
  2
OBJECTS
  0
DICTIONARY
  5
C
330
0
100
AcDbDictionary
281
     1
  3
ACAD_COLOR
350
22AD
  3
ACAD_GROUP
350
D
  3
ACAD_LAYOUT
350
1A
  3
ACAD_MATERIAL
350
22AC
  3
ACAD_MLINESTYLE
350
17
  3
ACAD_PLOTSETTINGS
350
19
  3
ACAD_PLOTSTYLENAME
350
E
  3
ACAD_TABLESTYLE
350
22AE
  3
AcadDim
350
124
  3
ACDBHEADERROUNDTRIPXREC
350
8494
  3
AcDbVariableDictionary
350
1589
  3
DWGPROPS
350
8493
  0
DICTIONARY
  5
24C4
330
2
100
AcDbDictionary
280
     1
281
     1
  3
ACAD_LAYERFILTERS
360
6C37
  3
ACAD_LAYERSTATES
360
24C5
  3
ACLYDICTIONARY
360
6C36
  0
DICTIONARY
  5
2396
330
1F
100
AcDbDictionary
280
     1
281
     1
  3
ACAD_SORTENTS
360
2397
  0
DICTIONARY
  5
313E
330
313C
100
AcDbDictionary
280
     1
281
     1
  3
ACAD_SORTENTS
360
313F
  0
DICTIONARY
  5
3848
330
3846
100
AcDbDictionary
280
     1
281
     1
  3
ACAD_SORTENTS
360
3849
  0
DICTIONARY
  5
6B89
330
6B87
100
AcDbDictionary
280
     1
281
     1
  3
ACAD_SORTENTS
360
6B8A
  0
DICTIONARY
  5
6C02
330
6C00
100
AcDbDictionary
280
     1
281
     1
  3
ACAD_SORTENTS
360
6C03
  0
DICTIONARY
  5
849B
330
2E
100
AcDbDictionary
280
     1
281
     1
  3
ACAD_XREC_ROUNDTRIP
360
849C
  0
DICTIONARY
  5
849D
330
30
100
AcDbDictionary
280
     1
281
     1
  3
ACAD_XREC_ROUNDTRIP
360
849E
  0
DICTIONARY
  5
22AD
102
{ACAD_REACTORS
330
C
102
}
330
C
100
AcDbDictionary
281
     1
  0
DICTIONARY
  5
D
102
{ACAD_REACTORS
330
C
102
}
330
C
100
AcDbDictionary
281
     1
  0
DICTIONARY
  5
1A
102
{ACAD_REACTORS
330
C
102
}
330
C
100
AcDbDictionary
281
     1
  3
Model
350
22
  3
ﾚｲｱｳﾄ1
350
1E
  3
ﾚｲｱｳﾄ2
350
26
  0
DICTIONARY
  5
22AC
102
{ACAD_REACTORS
330
C
102
}
330
C
100
AcDbDictionary
281
     1
  0
DICTIONARY
  5
17
102
{ACAD_REACTORS
330
C
102
}
330
C
100
AcDbDictionary
281
     1
  3
Standard
350
18
  0
DICTIONARY
  5
19
102
{ACAD_REACTORS
330
C
102
}
330
C
100
AcDbDictionary
281
     1
  0
ACDBDICTIONARYWDFLT
  5
E
102
{ACAD_REACTORS
330
C
102
}
330
C
100
AcDbDictionary
281
     1
  3
Normal
350
F
100
AcDbDictionaryWithDefault
340
F
  0
DICTIONARY
  5
22AE
102
{ACAD_REACTORS
330
C
102
}
330
C
100
AcDbDictionary
281
     1
  3
Standard
350
22AF
  0
XRECORD
  5
124
102
{ACAD_REACTORS
330
C
102
}
330
C
100
AcDbXrecord
280
     1
 90
   990106
  3

 60
     0
 61
     0
 62
     1
 63
     3
 64
     0
 65
     0
 66
     0
 67
     3
 68
     1
 69
     0
 70
     0
 71
     0
 72
     0
 40
30.0
170
     0
  0
DICTIONARY
  5
8494
102
{ACAD_REACTORS
330
C
102
}
330
C
100
AcDbDictionary
281
     1
  0
DICTIONARY
  5
1589
102
{ACAD_REACTORS
330
C
102
}
330
C
100
AcDbDictionary
281
     1
  3
CTABLESTYLE
350
22B5
  3
DIMASSOC
350
846C
  3
PROJECTNAME
350
846D
  3
SORTENTS
350
158A
  0
XRECORD
  5
8493
102
{ACAD_REACTORS
330
C
102
}
330
C
100
AcDbXrecord
280
     1
  1
DWGPROPS COOKIE
  2

  3

  4

  6

  7

  8

  9

300
=
301
=
302
=
303
=
304
=
305
=
306
=
307
=
308
=
309
=
 40
2.194027962962962
 41
2451673.575802199
 42
2458820.603379086
  1

 90
        0
  0
DICTIONARY
  5
6C37
102
{ACAD_REACTORS
330
24C4
102
}
330
24C4
100
AcDbDictionary
281
     1
  0
DICTIONARY
  5
24C5
102
{ACAD_REACTORS
330
24C4
102
}
330
24C4
100
AcDbDictionary
281
     1
  0
DICTIONARY
  5
6C36
102
{ACAD_REACTORS
330
24C4
102
}
330
24C4
100
AcDbDictionary
281
     1
1001
ACAD
1000
<All
  0
SORTENTSTABLE
  5
2397
102
{ACAD_REACTORS
330
2396
102
}
330
2396
100
AcDbSortentsTable
330
1F
331
516D
  5
53BC
331
7F8E
  5
8210
331
82E6
  5
82ED
331
1B86
  5
1B92
331
56E3
  5
5E30
331
7C17
  5
7C22
331
5C52
  5
604F
331
568C
  5
56E4
331
83EE
  5
7C26
331
1B8E
  5
1B99
331
7C39
  5
7C46
331
5694
  5
59F9
331
51E0
  5
5695
331
5F2A
  5
6360
331
5504
  5
56C7
331
8101
  5
82E8
331
635A
  5
6C1A
331
82E9
  5
82F1
331
1B96
  5
1BA8
331
6349
  5
6365
331
56AC
  5
5A69
331
1BA6
  5
3845
331
7C47
  5
7C5A
331
6351
  5
65C5
331
56C4
  5
5B10
331
64D9
  5
634E
331
7C57
  5
7F87
331
5E3A
  5
6359
331
5ADB
  5
6351
331
6362
  5
76E2
331
7F87
  5
8104
331
5166
  5
5640
331
7C5A
  5
7F8B
331
7C1A
  5
7C25
331
7C22
  5
7C2F
331
82F1
  5
83E9
331
5E42
  5
635A
331
516E
  5
53DB
331
7F8F
  5
5678
331
1B7F
  5
1B8F
331
56DC
  5
5DC3
331
1B87
  5
1B93
331
7C28
  5
7C3B
331
82E7
  5
82EE
331
1B8F
  5
1B9B
331
5695
  5
59FA
331
7C3A
  5
7C47
331
5201
  5
56A6
331
8102
  5
82E9
331
635B
  5
6D9A
331
552D
  5
56C8
331
82EA
  5
82F2
331
5DB3
  5
567A
331
634A
  5
6366
331
A0
  5
1B7C
331
1B97
  5
37FF
331
5DC3
  5
5E44
331
56AD
  5
5A6B
331
7C50
  5
7C5D
331
6352
  5
65CE
331
1BA7
  5
3A9C
331
56C5
  5
5BFC
331
6363
  5
78FB
331
5167
  5
5660
331
7C5B
  5
7F8C
331
7C1B
  5
7C27
331
7C23
  5
7C30
331
79B3
  5
7C1F
331
82F2
  5
83EA
331
7F88
  5
82E6
331
5E43
  5
635B
331
56DD
  5
5DC4
331
516F
  5
5460
331
83E8
  5
83ED
331
1B88
  5
1B94
331
7C29
  5
7C42
331
568E
  5
56E5
331
1B98
  5
3800
331
7C3B
  5
7C4B
331
5ACD
  5
6350
331
8103
  5
82EA
331
82EB
  5
82F3
331
835B
  5
83EC
331
1B90
  5
1B9C
331
5A6D
  5
5FE0
331
5DB4
  5
5580
331
634B
  5
6445
331
56A6
  5
59FB
331
56AE
  5
5A99
331
1BA8
  5
3DA9
331
6353
  5
68B3
331
7C51
  5
7C5F
331
5DC4
  5
5F29
331
1B71
  5
1B86
331
56C6
  5
5C2A
331
76E2
  5
1B7B
331
7F81
  5
7F8E
331
6364
  5
79B3
331
5437
  5
56C1
331
7C5C
  5
7F8D
331
7C1C
  5
7C28
331
7C24
  5
7C31
331
58E6
  5
5E3A
331
82F3
  5
83EB
331
5E44
  5
635C
331
5640
  5
56DB
331
56DE
  5
5DC5
331
56E6
  5
568C
331
5648
  5
56DC
331
83E9
  5
83EE
331
568F
  5
56E6
331
68B3
  5
7C1A
331
1B99
  5
381F
331
7C3C
  5
7C4C
331
8104
  5
82EB
331
635D
  5
6E28
331
82EC
  5
835B
331
1B91
  5
1B9D
331
604C
  5
5F05
331
7C32
  5
7C45
331
5650
  5
56DD
331
7C42
  5
7C58
331
5658
  5
56DE
331
634C
  5
6446
331
5BFE
  5
5F98
331
5DC5
  5
604C
331
5660
  5
56DF
331
7C52
  5
7E92
331
272
  5
1B81
331
56AF
  5
5ACB
331
6354
  5
68BC
331
6D9B
  5
1B7F
331
5668
  5
56E1
331
7F82
  5
7F8F
331
1B72
  5
1B87
331
56C7
  5
5C2B
331
6365
  5
7C15
331
5557
  5
56C9
331
5460
  5
56C2
331
533B
  5
56AB
331
7C1D
  5
7C2A
331
7C25
  5
7C32
331
5169
  5
52A7
331
65BC
  5
7C17
331
78FB
  5
7C1E
331
7F8A
  5
5504
331
5670
  5
56E2
331
5678
  5
56E3
331
56DF
  5
5DC7
331
5C3E
  5
6353
331
83EA
  5
7C5E
331
1B8A
  5
1B95
331
56E7
  5
568D
331
5690
  5
56E7
331
7C3D
  5
7C50
331
635E
  5
6E31
331
82ED
  5
83E6
331
1B92
  5
1BA1
331
604D
  5
5F37
331
68BC
  5
7C1B
331
56A8
  5
59FC
331
1BA2
  5
383D
331
7C43
  5
7C59
331
634D
  5
6480
331
56C0
  5
5ACC
331
5BFF
  5
5F4A
331
6355
  5
68D6
331
7C53
  5
7E93
331
5DC6
  5
604E
331
7F83
  5
7F90
331
1B73
  5
1B88
331
56C8
  5
5C3E
331
5580
  5
56DA
331
6366
  5
7C16
331
5489
  5
56C3
331
7C1E
  5
7C2B
331
517D
  5
568F
331
7C26
  5
7C36
331
7F90
  5
517E
331
516A
  5
5557
331
7F8B
  5
5267
331
1B7B
  5
1B8D
331
65C5
  5
7C18
331
56E0
  5
5DC8
331
1B8B
  5
1B96
331
56E8
  5
568E
331
5C47
  5
6354
331
83EB
  5
7F82
331
5691
  5
56E8
331
5FAF
  5
6363
331
5DAF
  5
5394
331
5394
  5
56AE
331
7C3E
  5
7C57
331
7C4E
  5
7C5B
331
53BC
  5
56AF
331
635F
  5
703B
331
82EE
  5
83E7
331
604E
  5
5E68
331
9C
  5
9C
331
1B93
  5
1BA2
331
634E
  5
6495
331
56A9
  5
59FD
331
5C00
  5
5FAF
331
7C54
  5
7E95
331
5DC7
  5
634C
331
6356
  5
6B8D
331
56C9
  5
5D6F
331
7F84
  5
7F91
331
1B74
  5
1B8C
331
5B10
  5
6352
331
527D
  5
56A9
331
517E
  5
5693
331
5F98
  5
6362
331
7C1F
  5
7C2C
331
7C27
  5
7C37
331
7F91
  5
8100
331
83E6
  5
54B2
331
1B7C
  5
1B8E
331
516B
  5
5679
331
7F8C
  5
54DB
331
1B84
  5
1B90
331
56E1
  5
5DCB
331
7C15
  5
7C20
331
5C50
  5
6355
331
5E5F
  5
635D
331
83EC
  5
7C29
331
1B8C
  5
1B97
331
65CE
  5
7C19
331
7C2D
  5
7C43
331
5375
  5
56AD
331
54B2
  5
56C4
331
5A71
  5
634D
331
5692
  5
56E9
331
51A6
  5
5694
331
5FE0
  5
6364
331
7C4F
  5
7C5C
331
523E
  5
56A7
331
6358
  5
6C18
331
82EF
  5
83E8
331
1B94
  5
1BA6
331
5A69
  5
5E42
331
5DB0
  5
5638
331
604F
  5
5F2A
331
56AA
  5
5A17
331
68D6
  5
7C1C
331
634F
  5
64D9
331
5E30
  5
6357
331
56C2
  5
5ACD
331
5C01
  5
5FAE
331
6357
  5
6C17
331
7C55
  5
7F81
331
53DB
  5
56C0
331
6360
  5
703C
331
7F85
  5
8101
331
5164
  5
517C
331
5C29
  5
604D
331
7C58
  5
7F88
331
7C18
  5
7C23
331
7C20
  5
7C2D
331
83E7
  5
5668
331
516C
  5
5658
331
7F8D
  5
8103
331
56DA
  5
5DC1
331
56E2
  5
5DCD
331
7C16
  5
7C21
331
1B85
  5
1B91
331
1B8D
  5
1B98
331
7C2E
  5
7C44
331
83ED
  5
7E94
331
5E68
  5
635E
331
5693
  5
58E6
331
5A9A
  5
634F
331
54DB
  5
56C5
331
8100
  5
82E7
331
6359
  5
6C19
331
82E8
  5
82EF
331
1B95
  5
1BA7
331
5A6A
  5
5E5F
331
6350
  5
6519
331
56AB
  5
5A36
331
5E31
  5
6358
331
7C56
  5
7F86
331
56C3
  5
5ADB
331
5267
  5
56A8
331
6361
  5
7591
331
5165
  5
5489
331
7F86
  5
8102
331
7C59
  5
7F8A
331
5833
  5
5E31
331
5F4A
  5
6361
331
52A7
  5
56AA
331
7C19
  5
7C24
331
7C21
  5
7C2E
  0
SORTENTSTABLE
  5
313F
102
{ACAD_REACTORS
330
313E
102
}
330
313E
100
AcDbSortentsTable
330
313C
  0
SORTENTSTABLE
  5
3849
102
{ACAD_REACTORS
330
3848
102
}
330
3848
100
AcDbSortentsTable
330
3846
  0
SORTENTSTABLE
  5
6B8A
102
{ACAD_REACTORS
330
6B89
102
}
330
6B89
100
AcDbSortentsTable
330
6B87
  0
SORTENTSTABLE
  5
6C03
102
{ACAD_REACTORS
330
6C02
102
}
330
6C02
100
AcDbSortentsTable
330
6C00
  0
XRECORD
  5
849C
102
{ACAD_REACTORS
330
849B
102
}
330
849B
100
AcDbXrecord
280
     1
102
SHADEPLOT
 70
     0
  0
XRECORD
  5
849E
102
{ACAD_REACTORS
330
849D
102
}
330
849D
100
AcDbXrecord
280
     1
102
SHADEPLOT
 70
     0
  0
LAYOUT
  5
22
102
{ACAD_XDICTIONARY
360
8497
102
}
102
{ACAD_REACTORS
330
1A
102
}
330
1A
100
AcDbPlotSettings
  1

  2
EPSON PM-800C
  4
A4
  6

 40
3.757083177566528
 41
14.7637300491333
 42
3.757080078125
 43
3.757080078125
 44
209.9733276367186
 45
296.9683227539062
 46
0.0
 47
0.0
 48
0.0
 49
0.0
140
0.0
141
0.0
142
1.0
143
10.0
 70
 11952
 72
     1
 73
     1
 74
     2
  7

 75
    20
147
0.1
148
0.0
149
0.0
100
AcDbLayout
  1
Model
 70
     1
 71
     0
 10
0.0
 20
0.0
 11
12.0
 21
9.0
 12
0.0
 22
0.0
 32
0.0
 14
0.0
 24
0.0
 34
0.0
 15
0.0
 25
0.0
 35
0.0
146
0.0
 13
0.0
 23
0.0
 33
0.0
 16
1.0
 26
0.0
 36
0.0
 17
0.0
 27
1.0
 37
0.0
 76
     0
330
1F
  0
LAYOUT
  5
1E
102
{ACAD_XDICTIONARY
360
8495
102
}
102
{ACAD_REACTORS
330
1A
102
}
330
1A
100
AcDbPlotSettings
  1

  2
EPSON PM-800C
  4
A4
  6

 40
3.757083177566528
 41
14.7637300491333
 42
3.757080078125
 43
3.757080078125
 44
209.9733276367186
 45
296.9683227539062
 46
0.0
 47
0.0
 48
0.0
 49
0.0
140
0.0
141
0.0
142
1.0
143
1.0
 70
   688
 72
     1
 73
     1
 74
     5
  7

 75
    16
147
1.0
148
0.0
149
0.0
100
AcDbLayout
  1
ﾚｲｱｳﾄ1
 70
     1
 71
     1
 10
-3.757080078125
 20
-3.757083177566528
 11
293.2112426757813
 21
206.2162444591522
 12
0.0
 22
0.0
 32
0.0
 14
27.8447512626648
 24
20.24591643810271
 34
0.0
 15
250.6027613639831
 25
182.2132479429245
 35
0.0
146
0.0
 13
0.0
 23
0.0
 33
0.0
 16
1.0
 26
0.0
 36
0.0
 17
0.0
 27
1.0
 37
0.0
 76
     0
330
1B
331
2E
  0
LAYOUT
  5
26
102
{ACAD_XDICTIONARY
360
8499
102
}
102
{ACAD_REACTORS
330
1A
102
}
330
1A
100
AcDbPlotSettings
  1

  2
EPSON PM-800C
  4

  6

 40
0.0
 41
0.0
 42
0.0
 43
0.0
 44
0.0
 45
0.0
 46
0.0
 47
0.0
 48
0.0
 49
0.0
140
0.0
141
0.0
142
1.0
143
1.0
 70
   688
 72
     0
 73
     0
 74
     5
  7

 75
    16
147
1.0
148
0.0
149
0.0
100
AcDbLayout
  1
ﾚｲｱｳﾄ2
 70
     1
 71
     2
 10
0.0
 20
0.0
 11
12.0
 21
9.0
 12
0.0
 22
0.0
 32
0.0
 14
0.0
 24
0.0
 34
0.0
 15
0.0
 25
0.0
 35
0.0
146
0.0
 13
0.0
 23
0.0
 33
0.0
 16
1.0
 26
0.0
 36
0.0
 17
0.0
 27
1.0
 37
0.0
 76
     0
330
23
  0
MLINESTYLE
  5
18
102
{ACAD_REACTORS
330
17
102
}
330
17
100
AcDbMlineStyle
  2
STANDARD
 70
     0
  3

 62
   256
 51
90.0
 52
90.0
 71
     2
 49
0.5
 62
   256
  6
BYLAYER
 49
-0.5
 62
   256
  6
BYLAYER
  0
ACDBPLACEHOLDER
  5
F
102
{ACAD_REACTORS
330
E
102
}
330
E
  0
TABLESTYLE
  5
22AF
102
{ACAD_REACTORS
330
22AE
102
}
330
22AE
100
AcDbTableStyle
  3
Standard
 70
     0
 71
     0
 40
1.5
 41
1.5
280
     0
281
     0
  7
Standard
140
4.5
170
     2
 62
     0
 63
     7
283
     0
274
    -2
284
     1
 64
     0
275
    -2
285
     1
 65
     0
276
    -2
286
     1
 66
     0
277
    -2
287
     1
 67
     0
278
    -2
288
     1
 68
     0
279
    -2
289
     1
 69
     0
  7
Standard
140
6.0
170
     5
 62
     0
 63
     7
283
     0
274
    -2
284
     1
 64
     0
275
    -2
285
     1
 65
     0
276
    -2
286
     1
 66
     0
277
    -2
287
     1
 67
     0
278
    -2
288
     1
 68
     0
279
    -2
289
     1
 69
     0
  7
Standard
140
4.5
170
     5
 62
     0
 63
     7
283
     0
274
    -2
284
     1
 64
     0
275
    -2
285
     1
 65
     0
276
    -2
286
     1
 66
     0
277
    -2
287
     1
 67
     0
278
    -2
288
     1
 68
     0
279
    -2
289
     1
 69
     0
  0
DICTIONARYVAR
  5
22B5
102
{ACAD_REACTORS
330
1589
102
}
330
1589
100
DictionaryVariables
280
     0
  1
STANDARD
  0
DICTIONARYVAR
  5
846C
102
{ACAD_REACTORS
330
1589
102
}
330
1589
100
DictionaryVariables
280
     0
  1
1
  0
DICTIONARYVAR
  5
846D
102
{ACAD_REACTORS
330
1589
102
}
330
1589
100
DictionaryVariables
280
     0
  1

  0
DICTIONARYVAR
  5
158A
102
{ACAD_REACTORS
330
1589
102
}
330
1589
100
DictionaryVariables
280
     0
  1
96
  0
DICTIONARY
  5
8497
330
22
100
AcDbDictionary
280
     1
281
     1
  3
ACAD_XREC_ROUNDTRIP
360
8498
  0
DICTIONARY
  5
8495
330
1E
100
AcDbDictionary
280
     1
281
     1
  3
ACAD_XREC_ROUNDTRIP
360
8496
  0
DICTIONARY
  5
8499
330
26
100
AcDbDictionary
280
     1
281
     1
  3
ACAD_XREC_ROUNDTRIP
360
849A
  0
XRECORD
  5
8498
102
{ACAD_REACTORS
330
8497
102
}
330
8497
100
AcDbXrecord
280
     1
102
SHADEPLOT
 70
     0
102
SHADEPLOTRESLEVEL
 70
     2
102
SHADEPLOTCUSTOMDPI
 70
   300
  0
XRECORD
  5
8496
102
{ACAD_REACTORS
330
8495
102
}
330
8495
100
AcDbXrecord
280
     1
102
SHADEPLOT
 70
     0
102
SHADEPLOTRESLEVEL
 70
     2
102
SHADEPLOTCUSTOMDPI
 70
   300
  0
XRECORD
  5
849A
102
{ACAD_REACTORS
330
8499
102
}
330
8499
100
AcDbXrecord
280
     1
102
SHADEPLOT
 70
     0
102
SHADEPLOTRESLEVEL
 70
     2
102
SHADEPLOTCUSTOMDPI
 70
   300
  0
ENDSEC
  0
EOF
