  0
SECTION
  2
HEADER
  9
$ACADVER
  1
AC1015
  9
$ACADMAINTVER
 70
    20
  9
$DWGCODEPAGE
  3
ANSI_932
  9
$INSBASE
 10
0.0
 20
0.0
 30
0.0
  9
$EXTMIN
 10
174.0
 20
3.999999999999089
 30
0.0
  9
$EXTMAX
 10
2834.0
 20
2024.0
 30
0.0
  9
$LIMMIN
 10
54.0
 20
4.0
  9
$LIMMAX
 10
2834.0
 20
2024.0
  9
$ORTHOMODE
 70
     1
  9
$REGENMODE
 70
     1
  9
$FILLMODE
 70
     1
  9
$QTEXTMODE
 70
     0
  9
$MIRRTEXT
 70
     1
  9
$LTSCALE
 40
4.0
  9
$ATTMODE
 70
     1
  9
$TEXTSIZE
 40
30.0
  9
$TRACEWID
 40
1.0
  9
$TEXTSTYLE
  7
Standard
  9
$CLAYER
  8
実形
  9
$CELTYPE
  6
ByLayer
  9
$CECOLOR
 62
     3
  9
$CELTSCALE
 40
1.0
  9
$DISPSILH
 70
     0
  9
$DIMSCALE
 40
1.0
  9
$DIMASZ
 40
10.0
  9
$DIMEXO
 40
65.0
  9
$DIMDLI
 40
3.75
  9
$DIMRND
 40
0.0
  9
$DIMDLE
 40
0.0
  9
$DIMEXE
 40
0.0
  9
$DIMTP
 40
0.0
  9
$DIMTM
 40
0.0
  9
$DIMTXT
 40
30.0
  9
$DIMCEN
 40
2.5
  9
$DIMTSZ
 40
0.0
  9
$DIMTOL
 70
     0
  9
$DIMLIM
 70
     0
  9
$DIMTIH
 70
     0
  9
$DIMTOH
 70
     0
  9
$DIMSE1
 70
     0
  9
$DIMSE2
 70
     0
  9
$DIMTAD
 70
     1
  9
$DIMZIN
 70
     8
  9
$DIMBLK
  1
Dot
  9
$DIMASO
 70
     1
  9
$DIMSHO
 70
     1
  9
$DIMPOST
  1

  9
$DIMAPOST
  1

  9
$DIMALT
 70
     0
  9
$DIMALTD
 70
     3
  9
$DIMALTF
 40
0.03937007874016
  9
$DIMLFAC
 40
1.0
  9
$DIMTOFL
 70
     1
  9
$DIMTVP
 40
0.0
  9
$DIMTIX
 70
     0
  9
$DIMSOXD
 70
     0
  9
$DIMSAH
 70
     0
  9
$DIMBLK1
  1

  9
$DIMBLK2
  1

  9
$DIMSTYLE
  2
ISO-25
  9
$DIMCLRD
 70
     0
  9
$DIMCLRE
 70
     0
  9
$DIMCLRT
 70
     0
  9
$DIMTFAC
 40
1.0
  9
$DIMGAP
 40
6.599999999999997
  9
$DIMJUST
 70
     0
  9
$DIMSD1
 70
     0
  9
$DIMSD2
 70
     0
  9
$DIMTOLJ
 70
     0
  9
$DIMTZIN
 70
     8
  9
$DIMALTZ
 70
     0
  9
$DIMALTTZ
 70
     0
  9
$DIMUPT
 70
     0
  9
$DIMDEC
 70
     2
  9
$DIMTDEC
 70
     2
  9
$DIMALTU
 70
     2
  9
$DIMALTTD
 70
     3
  9
$DIMTXSTY
  7
Standard
  9
$DIMAUNIT
 70
     0
  9
$DIMADEC
 70
     0
  9
$DIMALTRND
 40
0.0
  9
$DIMAZIN
 70
     0
  9
$DIMDSEP
 70
    46
  9
$DIMATFIT
 70
     3
  9
$DIMFRAC
 70
     0
  9
$DIMLDRBLK
  1
Open30
  9
$DIMLUNIT
 70
     2
  9
$DIMLWD
 70
    18
  9
$DIMLWE
 70
    18
  9
$DIMTMOVE
 70
     2
  9
$LUNITS
 70
     2
  9
$LUPREC
 70
     2
  9
$SKETCHINC
 40
1.0
  9
$FILLETRAD
 40
10.0
  9
$AUNITS
 70
     0
  9
$AUPREC
 70
     0
  9
$MENU
  1
.
  9
$ELEVATION
 40
0.0
  9
$PELEVATION
 40
0.0
  9
$THICKNESS
 40
0.0
  9
$LIMCHECK
 70
     1
  9
$CHAMFERA
 40
10.0
  9
$CHAMFERB
 40
10.0
  9
$CHAMFERC
 40
20.0
  9
$CHAMFERD
 40
0.0
  9
$SKPOLY
 70
     0
  9
$TDCREATE
 40
2451673.575802199
  9
$TDUCREATE
 40
2451673.200802199
  9
$TDUPDATE
 40
2458820.604873820
  9
$TDUUPDATE
 40
2458820.229873819
  9
$TDINDWG
 40
2.6918807407
  9
$TDUSRTIMER
 40
2.6918799306
  9
$USRTIMER
 70
     1
  9
$ANGBASE
 50
0.0
  9
$ANGDIR
 70
     0
  9
$PDMODE
 70
     0
  9
$PDSIZE
 40
0.0
  9
$PLINEWID
 40
0.0
  9
$SPLFRAME
 70
     0
  9
$SPLINETYPE
 70
     6
  9
$SPLINESEGS
 70
     8
  9
$HANDSEED
  5
95C7
  9
$SURFTAB1
 70
     6
  9
$SURFTAB2
 70
     6
  9
$SURFTYPE
 70
     6
  9
$SURFU
 70
     6
  9
$SURFV
 70
     6
  9
$UCSBASE
  2

  9
$UCSNAME
  2

  9
$UCSORG
 10
0.0
 20
0.0
 30
0.0
  9
$UCSXDIR
 10
1.0
 20
0.0
 30
0.0
  9
$UCSYDIR
 10
0.0
 20
1.0
 30
0.0
  9
$UCSORTHOREF
  2

  9
$UCSORTHOVIEW
 70
     0
  9
$UCSORGTOP
 10
0.0
 20
0.0
 30
0.0
  9
$UCSORGBOTTOM
 10
0.0
 20
0.0
 30
0.0
  9
$UCSORGLEFT
 10
0.0
 20
0.0
 30
0.0
  9
$UCSORGRIGHT
 10
0.0
 20
0.0
 30
0.0
  9
$UCSORGFRONT
 10
0.0
 20
0.0
 30
0.0
  9
$UCSORGBACK
 10
0.0
 20
0.0
 30
0.0
  9
$PUCSBASE
  2

  9
$PUCSNAME
  2

  9
$PUCSORG
 10
0.0
 20
0.0
 30
0.0
  9
$PUCSXDIR
 10
1.0
 20
0.0
 30
0.0
  9
$PUCSYDIR
 10
0.0
 20
1.0
 30
0.0
  9
$PUCSORTHOREF
  2

  9
$PUCSORTHOVIEW
 70
     0
  9
$PUCSORGTOP
 10
0.0
 20
0.0
 30
0.0
  9
$PUCSORGBOTTOM
 10
0.0
 20
0.0
 30
0.0
  9
$PUCSORGLEFT
 10
0.0
 20
0.0
 30
0.0
  9
$PUCSORGRIGHT
 10
0.0
 20
0.0
 30
0.0
  9
$PUCSORGFRONT
 10
0.0
 20
0.0
 30
0.0
  9
$PUCSORGBACK
 10
0.0
 20
0.0
 30
0.0
  9
$USERI1
 70
     0
  9
$USERI2
 70
     0
  9
$USERI3
 70
     0
  9
$USERI4
 70
     0
  9
$USERI5
 70
     0
  9
$USERR1
 40
0.0
  9
$USERR2
 40
0.0
  9
$USERR3
 40
0.0
  9
$USERR4
 40
0.0
  9
$USERR5
 40
0.0
  9
$WORLDVIEW
 70
     1
  9
$SHADEDGE
 70
     3
  9
$SHADEDIF
 70
    70
  9
$TILEMODE
 70
     1
  9
$MAXACTVP
 70
    64
  9
$PINSBASE
 10
0.0
 20
0.0
 30
0.0
  9
$PLIMCHECK
 70
     0
  9
$PEXTMIN
 10
27.8447512626648
 20
20.24591643810271
 30
0.0
  9
$PEXTMAX
 10
250.6027613639831
 20
182.2132479429245
 30
0.0
  9
$PLIMMIN
 10
-3.757080078125
 20
-3.757083177566528
  9
$PLIMMAX
 10
293.2112426757813
 20
206.2162444591522
  9
$UNITMODE
 70
     0
  9
$VISRETAIN
 70
     1
  9
$PLINEGEN
 70
     0
  9
$PSLTSCALE
 70
     1
  9
$TREEDEPTH
 70
  3020
  9
$CMLSTYLE
  2
Standard
  9
$CMLJUST
 70
     0
  9
$CMLSCALE
 40
20.0
  9
$PROXYGRAPHICS
 70
     1
  9
$MEASUREMENT
 70
     1
  9
$CELWEIGHT
370
    -1
  9
$ENDCAPS
280
     0
  9
$JOINSTYLE
280
     0
  9
$LWDISPLAY
290
     0
  9
$INSUNITS
 70
     4
  9
$HYPERLINKBASE
  1

  9
$STYLESHEET
  1

  9
$XEDIT
290
     1
  9
$CEPSNTYPE
380
     0
  9
$PSTYLEMODE
290
     1
  9
$FINGERPRINTGUID
  2
{C8EA1F16-24C9-11D4-9416-CE0A3B32152F}
  9
$VERSIONGUID
  2
{1C5FC54A-8B8C-4D53-8103-271C0C3056FF}
  9
$EXTNAMES
290
     1
  9
$PSVPSCALE
 40
0.0
  9
$OLESTARTUP
290
     0
  0
ENDSEC
  0
SECTION
  2
CLASSES
  0
CLASS
  1
ACDBDICTIONARYWDFLT
  2
AcDbDictionaryWithDefault
  3
ObjectDBX Classes
 90
        0
280
     0
281
     0
  0
CLASS
  1
ACDBPLACEHOLDER
  2
AcDbPlaceHolder
  3
ObjectDBX Classes
 90
        0
280
     0
281
     0
  0
CLASS
  1
LAYOUT
  2
AcDbLayout
  3
ObjectDBX Classes
 90
        0
280
     0
281
     0
  0
CLASS
  1
DICTIONARYVAR
  2
AcDbDictionaryVar
  3
ObjectDBX Classes
 90
        0
280
     0
281
     0
  0
CLASS
  1
TABLESTYLE
  2
AcDbTableStyle
  3
ObjectDBX Classes
 90
     2047
280
     0
281
     0
  0
CLASS
  1
SORTENTSTABLE
  2
AcDbSortentsTable
  3
ObjectDBX Classes
 90
        0
280
     0
281
     0
  0
ENDSEC
  0
SECTION
  2
TABLES
  0
TABLE
  2
VPORT
  5
8
330
0
100
AcDbSymbolTable
 70
     2
  0
VPORT
  5
95BA
330
8
100
AcDbSymbolTableRecord
100
AcDbViewportTableRecord
  2
*Active
 70
     0
 10
0.0
 20
0.0
 11
1.0
 21
1.0
 12
1556.140678567828
 22
1076.974259194837
 13
0.0
 23
0.0
 14
10.0
 24
10.0
 15
10.0
 25
10.0
 16
0.0
 26
0.0
 36
1.0
 17
0.0
 27
0.0
 37
0.0
 40
2380.096825290269
 41
1.29038112522686
 42
50.0
 43
0.0
 44
0.0
 50
0.0
 51
0.0
 71
     0
 72
   100
 73
     1
 74
     3
 75
     0
 76
     0
 77
     0
 78
     0
281
     0
 65
     1
110
0.0
120
0.0
130
0.0
111
1.0
121
0.0
131
0.0
112
0.0
122
1.0
132
0.0
 79
     0
146
0.0
  0
ENDTAB
  0
TABLE
  2
LTYPE
  5
5
330
0
100
AcDbSymbolTable
 70
    46
  0
LTYPE
  5
14
330
5
100
AcDbSymbolTableRecord
100
AcDbLinetypeTableRecord
  2
ByBlock
 70
     0
  3

 72
    65
 73
     0
 40
0.0
  0
LTYPE
  5
15
330
5
100
AcDbSymbolTableRecord
100
AcDbLinetypeTableRecord
  2
ByLayer
 70
     0
  3

 72
    65
 73
     0
 40
0.0
  0
LTYPE
  5
16
330
5
100
AcDbSymbolTableRecord
100
AcDbLinetypeTableRecord
  2
Continuous
 70
     0
  3
Solid line
 72
    65
 73
     0
 40
0.0
  0
LTYPE
  5
34
330
5
100
AcDbSymbolTableRecord
100
AcDbLinetypeTableRecord
  2
ACAD_ISO02W100
 70
     0
  3
ISO dash __ __ __ __ __ __ __ __ __ __ __ __ __
 72
    65
 73
     2
 40
15.0
 49
12.0
 74
     0
 49
-3.0
 74
     0
  0
LTYPE
  5
35
330
5
100
AcDbSymbolTableRecord
100
AcDbLinetypeTableRecord
  2
ACAD_ISO03W100
 70
     0
  3
ISO dash space __    __    __    __    __    __
 72
    65
 73
     2
 40
30.0
 49
12.0
 74
     0
 49
-18.0
 74
     0
  0
LTYPE
  5
36
330
5
100
AcDbSymbolTableRecord
100
AcDbLinetypeTableRecord
  2
ACAD_ISO04W100
 70
     0
  3
ISO long-dash dot ____ . ____ . ____ . ____ . _
 72
    65
 73
     4
 40
30.0
 49
24.0
 74
     0
 49
-3.0
 74
     0
 49
0.0
 74
     0
 49
-3.0
 74
     0
  0
LTYPE
  5
37
330
5
100
AcDbSymbolTableRecord
100
AcDbLinetypeTableRecord
  2
ACAD_ISO05W100
 70
     0
  3
ISO long-dash double-dot ____ .. ____ .. ____ .
 72
    65
 73
     6
 40
34.0
 49
24.0
 74
     0
 49
-3.0
 74
     0
 49
0.5
 74
     0
 49
-3.0
 74
     0
 49
0.5
 74
     0
 49
-3.0
 74
     0
  0
LTYPE
  5
38
330
5
100
AcDbSymbolTableRecord
100
AcDbLinetypeTableRecord
  2
ACAD_ISO06W100
 70
     0
  3
ISO long-dash triple-dot ____ ... ____ ... ____
 72
    65
 73
     8
 40
37.5
 49
24.0
 74
     0
 49
-3.0
 74
     0
 49
0.5
 74
     0
 49
-3.0
 74
     0
 49
0.5
 74
     0
 49
-3.0
 74
     0
 49
0.5
 74
     0
 49
-3.0
 74
     0
  0
LTYPE
  5
39
330
5
100
AcDbSymbolTableRecord
100
AcDbLinetypeTableRecord
  2
ACAD_ISO07W100
 70
     0
  3
ISO dot . . . . . . . . . . . . . . . . . . . .
 72
    65
 73
     2
 40
3.0
 49
0.0
 74
     0
 49
-3.0
 74
     0
  0
LTYPE
  5
3A
330
5
100
AcDbSymbolTableRecord
100
AcDbLinetypeTableRecord
  2
ACAD_ISO08W100
 70
     0
  3
ISO long-dash short-dash ____ __ ____ __ ____ _
 72
    65
 73
     4
 40
36.0
 49
24.0
 74
     0
 49
-3.0
 74
     0
 49
6.0
 74
     0
 49
-3.0
 74
     0
  0
LTYPE
  5
3B
330
5
100
AcDbSymbolTableRecord
100
AcDbLinetypeTableRecord
  2
ACAD_ISO09W100
 70
     0
  3
ISO long-dash double-short-dash ____ __ __ ____
 72
    65
 73
     6
 40
45.0
 49
24.0
 74
     0
 49
-3.0
 74
     0
 49
6.0
 74
     0
 49
-3.0
 74
     0
 49
6.0
 74
     0
 49
-3.0
 74
     0
  0
LTYPE
  5
3C
330
5
100
AcDbSymbolTableRecord
100
AcDbLinetypeTableRecord
  2
ACAD_ISO10W100
 70
     0
  3
ISO dash dot __ . __ . __ . __ . __ . __ . __ .
 72
    65
 73
     4
 40
18.0
 49
12.0
 74
     0
 49
-3.0
 74
     0
 49
0.0
 74
     0
 49
-3.0
 74
     0
  0
LTYPE
  5
3D
330
5
100
AcDbSymbolTableRecord
100
AcDbLinetypeTableRecord
  2
ACAD_ISO11W100
 70
     0
  3
ISO double-dash dot __ __ . __ __ . __ __ . __ 
 72
    65
 73
     6
 40
33.0
 49
12.0
 74
     0
 49
-3.0
 74
     0
 49
12.0
 74
     0
 49
-3.0
 74
     0
 49
0.0
 74
     0
 49
-3.0
 74
     0
  0
LTYPE
  5
3E
330
5
100
AcDbSymbolTableRecord
100
AcDbLinetypeTableRecord
  2
ACAD_ISO12W100
 70
     0
  3
ISO dash double-dot __ . . __ . . __ . . __ . .
 72
    65
 73
     6
 40
21.0
 49
12.0
 74
     0
 49
-3.0
 74
     0
 49
0.0
 74
     0
 49
-3.0
 74
     0
 49
0.0
 74
     0
 49
-3.0
 74
     0
  0
LTYPE
  5
3F
330
5
100
AcDbSymbolTableRecord
100
AcDbLinetypeTableRecord
  2
ACAD_ISO13W100
 70
     0
  3
ISO double-dash double-dot __ __ . . __ __ . . 
 72
    65
 73
     8
 40
36.0
 49
12.0
 74
     0
 49
-3.0
 74
     0
 49
12.0
 74
     0
 49
-3.0
 74
     0
 49
0.0
 74
     0
 49
-3.0
 74
     0
 49
0.0
 74
     0
 49
-3.0
 74
     0
  0
LTYPE
  5
40
330
5
100
AcDbSymbolTableRecord
100
AcDbLinetypeTableRecord
  2
ACAD_ISO14W100
 70
     0
  3
ISO dash triple-dot __ . . . __ . . . __ . . . 
 72
    65
 73
     8
 40
24.0
 49
12.0
 74
     0
 49
-3.0
 74
     0
 49
0.0
 74
     0
 49
-3.0
 74
     0
 49
0.0
 74
     0
 49
-3.0
 74
     0
 49
0.0
 74
     0
 49
-3.0
 74
     0
  0
LTYPE
  5
41
330
5
100
AcDbSymbolTableRecord
100
AcDbLinetypeTableRecord
  2
ACAD_ISO15W100
 70
     0
  3
ISO double-dash triple-dot __ __ . . . __ __ . 
 72
    65
 73
    10
 40
39.0
 49
12.0
 74
     0
 49
-3.0
 74
     0
 49
12.0
 74
     0
 49
-3.0
 74
     0
 49
0.0
 74
     0
 49
-3.0
 74
     0
 49
0.0
 74
     0
 49
-3.0
 74
     0
 49
0.0
 74
     0
 49
-3.0
 74
     0
  0
LTYPE
  5
42
330
5
100
AcDbSymbolTableRecord
100
AcDbLinetypeTableRecord
  2
BATTING
 70
     0
  3
Batting SSSSSSSSSSSSSSSSSSSSSSSSSSSSSSSSSSSSSSS
 72
    65
 73
     4
 40
10.16254
 49
0.00254
 74
     0
 49
-2.54
 74
     4
 75
   134
340
33
 46
2.54
 50
0.0
 44
-2.54
 45
0.0
 49
-5.08
 74
     4
 75
   134
340
33
 46
2.54
 50
180.0
 44
2.54
 45
0.0
 49
-2.54
 74
     0
  0
LTYPE
  5
43
330
5
100
AcDbSymbolTableRecord
100
AcDbLinetypeTableRecord
  2
BORDER
 70
     0
  3
Border __ __ . __ __ . __ __ . __ __ . __ __ .
 72
    65
 73
     6
 40
44.45
 49
12.7
 74
     0
 49
-6.349999999999998
 74
     0
 49
12.7
 74
     0
 49
-6.349999999999998
 74
     0
 49
0.0
 74
     0
 49
-6.349999999999998
 74
     0
  0
LTYPE
  5
44
330
5
100
AcDbSymbolTableRecord
100
AcDbLinetypeTableRecord
  2
BORDER2
 70
     0
  3
Border (.5x) __.__.__.__.__.__.__.__.__.__.__.
 72
    65
 73
     6
 40
22.225
 49
6.349999999999998
 74
     0
 49
-3.174999999999998
 74
     0
 49
6.349999999999998
 74
     0
 49
-3.174999999999998
 74
     0
 49
0.0
 74
     0
 49
-3.174999999999998
 74
     0
  0
LTYPE
  5
45
330
5
100
AcDbSymbolTableRecord
100
AcDbLinetypeTableRecord
  2
BORDERX2
 70
     0
  3
Border (2x) ____  ____  .  ____  ____  .  ___
 72
    65
 73
     6
 40
88.9
 49
25.4
 74
     0
 49
-12.7
 74
     0
 49
25.4
 74
     0
 49
-12.7
 74
     0
 49
0.0
 74
     0
 49
-12.7
 74
     0
  0
LTYPE
  5
46
330
5
100
AcDbSymbolTableRecord
100
AcDbLinetypeTableRecord
  2
CENTER
 70
     0
  3
Center ____ _ ____ _ ____ _ ____ _ ____ _ ____
 72
    65
 73
     4
 40
50.8
 49
31.75
 74
     0
 49
-6.349999999999998
 74
     0
 49
6.349999999999998
 74
     0
 49
-6.349999999999998
 74
     0
  0
LTYPE
  5
47
330
5
100
AcDbSymbolTableRecord
100
AcDbLinetypeTableRecord
  2
CENTER2
 70
     0
  3
Center (.5x) ___ _ ___ _ ___ _ ___ _ ___ _ ___
 72
    65
 73
     4
 40
28.575
 49
19.05
 74
     0
 49
-3.174999999999998
 74
     0
 49
3.174999999999998
 74
     0
 49
-3.174999999999998
 74
     0
  0
LTYPE
  5
48
330
5
100
AcDbSymbolTableRecord
100
AcDbLinetypeTableRecord
  2
CENTERX2
 70
     0
  3
Center (2x) ________  __  ________  __  _____
 72
    65
 73
     4
 40
101.6
 49
63.5
 74
     0
 49
-12.7
 74
     0
 49
12.7
 74
     0
 49
-12.7
 74
     0
  0
LTYPE
  5
49
330
5
100
AcDbSymbolTableRecord
100
AcDbLinetypeTableRecord
  2
DASHDOT
 70
     0
  3
Dash dot __ . __ . __ . __ . __ . __ . __ . __
 72
    65
 73
     4
 40
25.4
 49
12.7
 74
     0
 49
-6.349999999999998
 74
     0
 49
0.0
 74
     0
 49
-6.349999999999998
 74
     0
  0
LTYPE
  5
4A
330
5
100
AcDbSymbolTableRecord
100
AcDbLinetypeTableRecord
  2
DASHDOT2
 70
     0
  3
Dash dot (.5x) _._._._._._._._._._._._._._._.
 72
    65
 73
     4
 40
12.7
 49
6.349999999999998
 74
     0
 49
-3.174999999999998
 74
     0
 49
0.0
 74
     0
 49
-3.174999999999998
 74
     0
  0
LTYPE
  5
4B
330
5
100
AcDbSymbolTableRecord
100
AcDbLinetypeTableRecord
  2
DASHDOTX2
 70
     0
  3
Dash dot (2x) ____  .  ____  .  ____  .  ___
 72
    65
 73
     4
 40
50.8
 49
25.4
 74
     0
 49
-12.7
 74
     0
 49
0.0
 74
     0
 49
-12.7
 74
     0
  0
LTYPE
  5
4C
330
5
100
AcDbSymbolTableRecord
100
AcDbLinetypeTableRecord
  2
DASHED
 70
     0
  3
Dashed __ __ __ __ __ __ __ __ __ __ __ __ __ _
 72
    65
 73
     2
 40
19.05
 49
12.7
 74
     0
 49
-6.349999999999998
 74
     0
  0
LTYPE
  5
4D
330
5
100
AcDbSymbolTableRecord
100
AcDbLinetypeTableRecord
  2
DASHED2
 70
     0
  3
Dashed (.5x) _ _ _ _ _ _ _ _ _ _ _ _ _ _ _ _ _
 72
    65
 73
     2
 40
9.524999999999996
 49
6.349999999999998
 74
     0
 49
-3.174999999999998
 74
     0
  0
LTYPE
  5
4E
330
5
100
AcDbSymbolTableRecord
100
AcDbLinetypeTableRecord
  2
DASHEDX2
 70
     0
  3
Dashed (2x) ____  ____  ____  ____  ____  ___
 72
    65
 73
     2
 40
38.1
 49
25.4
 74
     0
 49
-12.7
 74
     0
  0
LTYPE
  5
4F
330
5
100
AcDbSymbolTableRecord
100
AcDbLinetypeTableRecord
  2
DIVIDE
 70
     0
  3
Divide ____ . . ____ . . ____ . . ____ . . ____
 72
    65
 73
     6
 40
31.75
 49
12.7
 74
     0
 49
-6.349999999999998
 74
     0
 49
0.0
 74
     0
 49
-6.349999999999998
 74
     0
 49
0.0
 74
     0
 49
-6.349999999999998
 74
     0
  0
LTYPE
  5
50
330
5
100
AcDbSymbolTableRecord
100
AcDbLinetypeTableRecord
  2
DIVIDE2
 70
     0
  3
Divide (.5x) __..__..__..__..__..__..__..__.._
 72
    65
 73
     6
 40
15.875
 49
6.349999999999998
 74
     0
 49
-3.174999999999998
 74
     0
 49
0.0
 74
     0
 49
-3.174999999999998
 74
     0
 49
0.0
 74
     0
 49
-3.174999999999998
 74
     0
  0
LTYPE
  5
51
330
5
100
AcDbSymbolTableRecord
100
AcDbLinetypeTableRecord
  2
DIVIDEX2
 70
     0
  3
Divide (2x) ________  .  .  ________  .  .  _
 72
    65
 73
     6
 40
63.49999999999999
 49
25.4
 74
     0
 49
-12.7
 74
     0
 49
0.0
 74
     0
 49
-12.7
 74
     0
 49
0.0
 74
     0
 49
-12.7
 74
     0
  0
LTYPE
  5
52
330
5
100
AcDbSymbolTableRecord
100
AcDbLinetypeTableRecord
  2
DOT
 70
     0
  3
Dot . . . . . . . . . . . . . . . . . . . . . .
 72
    65
 73
     2
 40
6.349999999999998
 49
0.0
 74
     0
 49
-6.349999999999998
 74
     0
  0
LTYPE
  5
53
330
5
100
AcDbSymbolTableRecord
100
AcDbLinetypeTableRecord
  2
DOT2
 70
     0
  3
Dot (.5x) .....................................
 72
    65
 73
     2
 40
3.174999999999998
 49
0.0
 74
     0
 49
-3.174999999999998
 74
     0
  0
LTYPE
  5
54
330
5
100
AcDbSymbolTableRecord
100
AcDbLinetypeTableRecord
  2
DOTX2
 70
     0
  3
Dot (2x) .  .  .  .  .  .  .  .  .  .  .  .  . 
 72
    65
 73
     2
 40
12.7
 49
0.0
 74
     0
 49
-12.7
 74
     0
  0
LTYPE
  5
55
330
5
100
AcDbSymbolTableRecord
100
AcDbLinetypeTableRecord
  2
FENCELINE1
 70
     0
  3
Fenceline circle ----0-----0----0-----0----0---
 72
    65
 73
     4
 40
36.83
 49
6.349999999999998
 74
     0
 49
-2.54
 74
     4
 75
   133
340
33
 46
2.54
 50
0.0
 44
-2.54
 45
0.0
 49
-2.54
 74
     0
 49
25.4
 74
     0
  0
LTYPE
  5
56
330
5
100
AcDbSymbolTableRecord
100
AcDbLinetypeTableRecord
  2
FENCELINE2
 70
     0
  3
Fenceline square ----[]-----[]----[]-----[]----
 72
    65
 73
     4
 40
36.83
 49
6.349999999999998
 74
     0
 49
-2.54
 74
     4
 75
   132
340
33
 46
2.54
 50
0.0
 44
-2.54
 45
0.0
 49
-2.54
 74
     0
 49
25.4
 74
     0
  0
LTYPE
  5
57
330
5
100
AcDbSymbolTableRecord
100
AcDbLinetypeTableRecord
  2
GAS_LINE
 70
     0
  3
Gas line ----GAS----GAS----GAS----GAS----GAS---
 72
    65
 73
     3
 40
24.13
 49
12.7
 74
     0
 49
-5.08
 74
     2
 75
     0
340
11
 46
2.54
 50
0.0
 44
-2.54
 45
-1.27
  9
GAS
 49
-6.349999999999998
 74
     0
  0
LTYPE
  5
58
330
5
100
AcDbSymbolTableRecord
100
AcDbLinetypeTableRecord
  2
HIDDEN
 70
     0
  3
Hidden __ __ __ __ __ __ __ __ __ __ __ __ __ _
 72
    65
 73
     2
 40
9.524999999999996
 49
6.349999999999998
 74
     0
 49
-3.174999999999998
 74
     0
  0
LTYPE
  5
59
330
5
100
AcDbSymbolTableRecord
100
AcDbLinetypeTableRecord
  2
HIDDEN2
 70
     0
  3
Hidden (.5x) _ _ _ _ _ _ _ _ _ _ _ _ _ _ _ _ _
 72
    65
 73
     2
 40
4.762499999999998
 49
3.174999999999998
 74
     0
 49
-1.587499999999999
 74
     0
  0
LTYPE
  5
5A
330
5
100
AcDbSymbolTableRecord
100
AcDbLinetypeTableRecord
  2
HIDDENX2
 70
     0
  3
Hidden (2x) ____ ____ ____ ____ ____ ____ ____
 72
    65
 73
     2
 40
19.05
 49
12.7
 74
     0
 49
-6.349999999999998
 74
     0
  0
LTYPE
  5
5B
330
5
100
AcDbSymbolTableRecord
100
AcDbLinetypeTableRecord
  2
HOT_WATER_SUPPLY
 70
     0
  3
Hot water supply ---- HW ---- HW ---- HW ----
 72
    65
 73
     3
 40
22.86
 49
12.7
 74
     0
 49
-5.08
 74
     2
 75
     0
340
11
 46
2.54
 50
0.0
 44
-2.54
 45
-1.27
  9
HW
 49
-5.08
 74
     0
  0
LTYPE
  5
5C
330
5
100
AcDbSymbolTableRecord
100
AcDbLinetypeTableRecord
  2
PHANTOM
 70
     0
  3
Phantom ______  __  __  ______  __  __  ______
 72
    65
 73
     6
 40
63.5
 49
31.75
 74
     0
 49
-6.349999999999998
 74
     0
 49
6.349999999999998
 74
     0
 49
-6.349999999999998
 74
     0
 49
6.349999999999998
 74
     0
 49
-6.349999999999998
 74
     0
  0
LTYPE
  5
5D
330
5
100
AcDbSymbolTableRecord
100
AcDbLinetypeTableRecord
  2
PHANTOM2
 70
     0
  3
Phantom (.5x) ___ _ _ ___ _ _ ___ _ _ ___ _ _
 72
    65
 73
     6
 40
31.75
 49
15.875
 74
     0
 49
-3.174999999999998
 74
     0
 49
3.174999999999998
 74
     0
 49
-3.174999999999998
 74
     0
 49
3.174999999999998
 74
     0
 49
-3.174999999999998
 74
     0
  0
LTYPE
  5
5E
330
5
100
AcDbSymbolTableRecord
100
AcDbLinetypeTableRecord
  2
PHANTOMX2
 70
     0
  3
Phantom (2x) ____________    ____    ____   _
 72
    65
 73
     6
 40
127.0
 49
63.5
 74
     0
 49
-12.7
 74
     0
 49
12.7
 74
     0
 49
-12.7
 74
     0
 49
12.7
 74
     0
 49
-12.7
 74
     0
  0
LTYPE
  5
5F
330
5
100
AcDbSymbolTableRecord
100
AcDbLinetypeTableRecord
  2
TRACKS
 70
     0
  3
Tracks -|-|-|-|-|-|-|-|-|-|-|-|-|-|-|-|-|-|-|-|
 72
    65
 73
     2
 40
7.62
 49
3.81
 74
     4
 75
   130
340
33
 46
6.349999999999998
 50
0.0
 44
0.0
 45
0.0
 49
3.81
 74
     0
  0
LTYPE
  5
60
330
5
100
AcDbSymbolTableRecord
100
AcDbLinetypeTableRecord
  2
ZIGZAG
 70
     0
  3
Zig zag /\/\/\/\/\/\/\/\/\/\/\/\/\/\/\/\/\/\/\/
 72
    65
 73
     4
 40
20.32254
 49
0.00254
 74
     0
 49
-5.08
 74
     4
 75
   131
340
33
 46
5.08
 50
0.0
 44
-5.08
 45
0.0
 49
-10.16
 74
     4
 75
   131
340
33
 46
5.08
 50
180.0
 44
5.08
 45
0.0
 49
-5.08
 74
     0
  0
ENDTAB
  0
TABLE
  2
LAYER
  5
2
102
{ACAD_XDICTIONARY
360
24C4
102
}
330
0
100
AcDbSymbolTable
 70
     9
  0
LAYER
  5
10
330
2
100
AcDbSymbolTableRecord
100
AcDbLayerTableRecord
  2
0
 70
     0
 62
     7
  6
Continuous
290
     0
370
    -3
390
F
  0
LAYER
  5
C3
330
2
100
AcDbSymbolTableRecord
100
AcDbLayerTableRecord
  2
Defpoints
 70
     0
 62
     7
  6
Continuous
290
     0
370
    -3
390
F
  0
LAYER
  5
256
330
2
100
AcDbSymbolTableRecord
100
AcDbLayerTableRecord
  2
センター
 70
     0
 62
     7
  6
CENTER2
370
    18
390
F
  0
LAYER
  5
268
330
2
100
AcDbSymbolTableRecord
100
AcDbLayerTableRecord
  2
実形
 70
     0
 62
     7
  6
Continuous
370
    -3
390
F
  0
LAYER
  5
269
330
2
100
AcDbSymbolTableRecord
100
AcDbLayerTableRecord
  2
補助
 70
     0
 62
     4
  6
Continuous
370
    -3
390
F
  0
LAYER
  5
26A
330
2
100
AcDbSymbolTableRecord
100
AcDbLayerTableRecord
  2
寸法
 70
     0
 62
     7
  6
Continuous
370
    18
390
F
  0
LAYER
  5
26B
330
2
100
AcDbSymbolTableRecord
100
AcDbLayerTableRecord
  2
ハッチング
 70
     0
 62
     7
  6
Continuous
370
    18
390
F
  0
LAYER
  5
26D
330
2
100
AcDbSymbolTableRecord
100
AcDbLayerTableRecord
  2
枠
 70
     0
 62
     7
  6
Continuous
370
    -3
390
F
  0
LAYER
  5
1B3D
330
2
100
AcDbSymbolTableRecord
100
AcDbLayerTableRecord
  2
Cen
 70
     0
 62
     7
  6
CENTER2
290
     0
370
    15
390
F
  0
ENDTAB
  0
TABLE
  2
STYLE
  5
3
330
0
100
AcDbSymbolTable
 70
     3
  0
STYLE
  5
11
330
3
100
AcDbSymbolTableRecord
100
AcDbTextStyleTableRecord
  2
Standard
 70
     0
 40
0.0
 41
1.0
 50
0.0
 71
     0
 42
30.0
  3
txt.shx
  4
bigfont.shx
  0
STYLE
  5
33
330
3
100
AcDbSymbolTableRecord
100
AcDbTextStyleTableRecord
  2

 70
     1
 40
0.0
 41
1.0
 50
0.0
 71
     0
 42
2.5
  3
ltypeshp.shx
  4

  0
STYLE
  5
35E2
330
3
100
AcDbSymbolTableRecord
100
AcDbTextStyleTableRecord
  2
ms明朝
 70
     0
 40
0.0
 41
1.0
 50
0.0
 71
     0
 42
25.0
  3
MS Mincho.ttf
  4

1001
ACAD
1000
MS Mincho
1071
    32785
  0
ENDTAB
  0
TABLE
  2
VIEW
  5
6
330
0
100
AcDbSymbolTable
 70
     0
  0
ENDTAB
  0
TABLE
  2
UCS
  5
7
330
0
100
AcDbSymbolTable
 70
     0
  0
ENDTAB
  0
TABLE
  2
APPID
  5
9
330
0
100
AcDbSymbolTable
 70
     2
  0
APPID
  5
12
330
9
100
AcDbSymbolTableRecord
100
AcDbRegAppTableRecord
  2
ACAD
 70
     0
  0
APPID
  5
24C3
330
9
100
AcDbSymbolTableRecord
100
AcDbRegAppTableRecord
  2
ACAD_PSEXT
 70
     0
  0
ENDTAB
  0
TABLE
  2
DIMSTYLE
  5
A
330
0
100
AcDbSymbolTable
 70
     1
100
AcDbDimStyleTable
 71
     1
340
27
  0
DIMSTYLE
105
27
102
{ACAD_REACTORS
330
5375
330
5394
330
53BC
330
53DB
330
5437
330
5460
330
54B2
330
5504
330
552D
330
5557
330
5580
330
5833
330
58E6
330
5A71
330
5A9A
330
5ACD
330
5ADB
330
5B10
330
5F4A
330
5F98
330
5FAF
330
5FE0
330
5F2A
330
635B
330
635D
330
635E
330
635F
330
6360
330
6362
330
6363
330
6364
330
6365
330
6366
330
7F27
330
7F50
330
7F79
330
82FF
330
8300
330
8301
330
8308
330
831B
330
831C
330
831D
330
8330
330
833B
330
8302
330
8303
330
8304
330
517E
330
51A6
330
51E0
330
5201
330
523E
330
5267
330
527D
330
52A7
330
533B
330
879C
330
879D
330
879E
330
879F
330
87A0
330
898E
330
898F
330
8990
330
8903
330
8904
330
8905
102
}
330
A
100
AcDbSymbolTableRecord
100
AcDbDimStyleTableRecord
  2
ISO-25
 70
     0
 41
35.0
 42
65.0
 43
3.75
 44
0.0
 73
     0
 74
     0
 77
     1
 78
     8
140
25.0
141
2.5
143
0.03937007874016
147
6.25
171
     3
172
     1
271
     2
272
     2
274
     3
283
     0
284
     8
340
11
341
DA
342
D0
371
    15
372
    15
  0
ENDTAB
  0
TABLE
  2
BLOCK_RECORD
  5
1
330
0
100
AcDbSymbolTable
 70
    79
  0
BLOCK_RECORD
  5
1F
102
{ACAD_XDICTIONARY
360
2396
102
}
330
1
100
AcDbSymbolTableRecord
100
AcDbBlockTableRecord
  2
*Model_Space
340
22
  0
BLOCK_RECORD
  5
1B
330
1
100
AcDbSymbolTableRecord
100
AcDbBlockTableRecord
  2
*Paper_Space
340
1E
  0
BLOCK_RECORD
  5
23
330
1
100
AcDbSymbolTableRecord
100
AcDbBlockTableRecord
  2
*Paper_Space0
340
26
  0
BLOCK_RECORD
  5
D0
330
1
100
AcDbSymbolTableRecord
100
AcDbBlockTableRecord
  2
_DotSmall
340
0
  0
BLOCK_RECORD
  5
D4
330
1
100
AcDbSymbolTableRecord
100
AcDbBlockTableRecord
  2
_Origin2
340
0
  0
BLOCK_RECORD
  5
DA
330
1
100
AcDbSymbolTableRecord
100
AcDbBlockTableRecord
  2
_Open30
340
0
  0
BLOCK_RECORD
  5
2D6
330
1
100
AcDbSymbolTableRecord
100
AcDbBlockTableRecord
  2
A$C6CAC4411
340
0
  0
BLOCK_RECORD
  5
30D
330
1
100
AcDbSymbolTableRecord
100
AcDbBlockTableRecord
  2
_Dot
340
0
102
{BLKREFS
331
88D8
331
88D9
331
88E4
331
88E5
331
88F0
331
88F1
331
9275
331
9276
331
927E
331
927F
331
9287
331
9288
331
9290
331
9291
331
929C
331
929D
331
92A4
331
92A5
331
92B0
331
92B1
331
92BB
331
92BC
331
92CC
331
92CD
331
92DE
331
92DF
331
92E7
331
92E8
331
92F3
331
92F4
331
92FE
331
92FF
331
9306
331
9307
331
930F
331
9310
331
9318
331
9319
331
9321
331
9322
331
932D
331
932E
331
9374
331
9375
331
937D
331
937E
331
9386
331
9387
331
938F
331
9390
331
9399
331
939A
331
93A2
331
93A3
331
93AB
331
93AC
331
93B4
331
93B5
331
93BD
331
93BE
331
93C6
331
93C7
331
93CE
331
93CF
331
93D7
331
93D8
331
93E1
331
93E2
331
93EA
331
93EB
331
93F2
331
93F3
331
93FC
331
93FD
331
9405
331
9406
331
940D
331
940E
331
9416
331
9417
331
941F
331
9420
331
9428
331
9429
331
9432
331
9433
331
943B
331
943C
331
9443
331
9444
331
944C
331
944D
331
9455
331
9456
331
945E
331
945F
331
9467
331
9468
331
9470
331
9471
331
947A
331
947B
331
9482
331
9483
331
948B
331
948C
331
9495
331
9496
331
949E
331
949F
331
94A6
331
94A7
331
94AF
331
94B0
331
94B8
331
94B9
331
94C4
331
94C5
331
94CC
331
94CD
331
94D8
331
94D9
331
94E1
331
94E2
331
94EA
331
94EB
331
94F2
331
94F3
331
94FB
331
94FC
331
9507
331
9508
331
9511
331
9512
331
951C
331
951D
102
}
  0
BLOCK_RECORD
  5
313C
102
{ACAD_XDICTIONARY
360
313E
102
}
330
1
100
AcDbSymbolTableRecord
100
AcDbBlockTableRecord
  2
A$C6850087C
340
0
  0
BLOCK_RECORD
  5
3846
102
{ACAD_XDICTIONARY
360
3848
102
}
330
1
100
AcDbSymbolTableRecord
100
AcDbBlockTableRecord
  2
A$C71387EE1
340
0
  0
BLOCK_RECORD
  5
517F
330
1
100
AcDbSymbolTableRecord
100
AcDbBlockTableRecord
  2
*D8
340
0
  0
BLOCK_RECORD
  5
51A7
330
1
100
AcDbSymbolTableRecord
100
AcDbBlockTableRecord
  2
*D9
340
0
  0
BLOCK_RECORD
  5
51E1
330
1
100
AcDbSymbolTableRecord
100
AcDbBlockTableRecord
  2
*D10
340
0
  0
BLOCK_RECORD
  5
5202
330
1
100
AcDbSymbolTableRecord
100
AcDbBlockTableRecord
  2
*D11
340
0
  0
BLOCK_RECORD
  5
523F
330
1
100
AcDbSymbolTableRecord
100
AcDbBlockTableRecord
  2
*D12
340
0
  0
BLOCK_RECORD
  5
5268
330
1
100
AcDbSymbolTableRecord
100
AcDbBlockTableRecord
  2
*D13
340
0
  0
BLOCK_RECORD
  5
527E
330
1
100
AcDbSymbolTableRecord
100
AcDbBlockTableRecord
  2
*D14
340
0
  0
BLOCK_RECORD
  5
52A8
330
1
100
AcDbSymbolTableRecord
100
AcDbBlockTableRecord
  2
*D15
340
0
  0
BLOCK_RECORD
  5
533C
330
1
100
AcDbSymbolTableRecord
100
AcDbBlockTableRecord
  2
*D16
340
0
  0
BLOCK_RECORD
  5
5376
330
1
100
AcDbSymbolTableRecord
100
AcDbBlockTableRecord
  2
*D17
340
0
  0
BLOCK_RECORD
  5
5395
330
1
100
AcDbSymbolTableRecord
100
AcDbBlockTableRecord
  2
*D18
340
0
  0
BLOCK_RECORD
  5
53BD
330
1
100
AcDbSymbolTableRecord
100
AcDbBlockTableRecord
  2
*D19
340
0
  0
BLOCK_RECORD
  5
53DC
330
1
100
AcDbSymbolTableRecord
100
AcDbBlockTableRecord
  2
*D20
340
0
  0
BLOCK_RECORD
  5
5438
330
1
100
AcDbSymbolTableRecord
100
AcDbBlockTableRecord
  2
*D21
340
0
  0
BLOCK_RECORD
  5
5461
330
1
100
AcDbSymbolTableRecord
100
AcDbBlockTableRecord
  2
*D22
340
0
  0
BLOCK_RECORD
  5
54B3
330
1
100
AcDbSymbolTableRecord
100
AcDbBlockTableRecord
  2
*D23
340
0
  0
BLOCK_RECORD
  5
5505
330
1
100
AcDbSymbolTableRecord
100
AcDbBlockTableRecord
  2
*D24
340
0
  0
BLOCK_RECORD
  5
552E
330
1
100
AcDbSymbolTableRecord
100
AcDbBlockTableRecord
  2
*D25
340
0
  0
BLOCK_RECORD
  5
5558
330
1
100
AcDbSymbolTableRecord
100
AcDbBlockTableRecord
  2
*D26
340
0
  0
BLOCK_RECORD
  5
5581
330
1
100
AcDbSymbolTableRecord
100
AcDbBlockTableRecord
  2
*D27
340
0
  0
BLOCK_RECORD
  5
5834
330
1
100
AcDbSymbolTableRecord
100
AcDbBlockTableRecord
  2
*D28
340
0
  0
BLOCK_RECORD
  5
58E7
330
1
100
AcDbSymbolTableRecord
100
AcDbBlockTableRecord
  2
*D29
340
0
  0
BLOCK_RECORD
  5
5A72
330
1
100
AcDbSymbolTableRecord
100
AcDbBlockTableRecord
  2
*D30
340
0
  0
BLOCK_RECORD
  5
5A9B
330
1
100
AcDbSymbolTableRecord
100
AcDbBlockTableRecord
  2
*D31
340
0
  0
BLOCK_RECORD
  5
5ACE
330
1
100
AcDbSymbolTableRecord
100
AcDbBlockTableRecord
  2
*D32
340
0
  0
BLOCK_RECORD
  5
5ADC
330
1
100
AcDbSymbolTableRecord
100
AcDbBlockTableRecord
  2
*D33
340
0
  0
BLOCK_RECORD
  5
5B11
330
1
100
AcDbSymbolTableRecord
100
AcDbBlockTableRecord
  2
*D34
340
0
  0
BLOCK_RECORD
  5
5F2B
330
1
100
AcDbSymbolTableRecord
100
AcDbBlockTableRecord
  2
*D35
340
0
  0
BLOCK_RECORD
  5
5F4B
330
1
100
AcDbSymbolTableRecord
100
AcDbBlockTableRecord
  2
*D36
340
0
  0
BLOCK_RECORD
  5
5F99
330
1
100
AcDbSymbolTableRecord
100
AcDbBlockTableRecord
  2
*D37
340
0
  0
BLOCK_RECORD
  5
5FB0
330
1
100
AcDbSymbolTableRecord
100
AcDbBlockTableRecord
  2
*D38
340
0
  0
BLOCK_RECORD
  5
5FE1
330
1
100
AcDbSymbolTableRecord
100
AcDbBlockTableRecord
  2
*D39
340
0
  0
BLOCK_RECORD
  5
6367
330
1
100
AcDbSymbolTableRecord
100
AcDbBlockTableRecord
  2
*D40
340
0
  0
BLOCK_RECORD
  5
6373
330
1
100
AcDbSymbolTableRecord
100
AcDbBlockTableRecord
  2
*D41
340
0
  0
BLOCK_RECORD
  5
6381
330
1
100
AcDbSymbolTableRecord
100
AcDbBlockTableRecord
  2
*D42
340
0
  0
BLOCK_RECORD
  5
638D
330
1
100
AcDbSymbolTableRecord
100
AcDbBlockTableRecord
  2
*D43
340
0
  0
BLOCK_RECORD
  5
6399
330
1
100
AcDbSymbolTableRecord
100
AcDbBlockTableRecord
  2
*D44
340
0
  0
BLOCK_RECORD
  5
63A7
330
1
100
AcDbSymbolTableRecord
100
AcDbBlockTableRecord
  2
*D45
340
0
  0
BLOCK_RECORD
  5
63B3
330
1
100
AcDbSymbolTableRecord
100
AcDbBlockTableRecord
  2
*D46
340
0
  0
BLOCK_RECORD
  5
63BF
330
1
100
AcDbSymbolTableRecord
100
AcDbBlockTableRecord
  2
*D47
340
0
  0
BLOCK_RECORD
  5
63CB
330
1
100
AcDbSymbolTableRecord
100
AcDbBlockTableRecord
  2
*D48
340
0
  0
BLOCK_RECORD
  5
63D7
330
1
100
AcDbSymbolTableRecord
100
AcDbBlockTableRecord
  2
*D49
340
0
  0
BLOCK_RECORD
  5
6B87
102
{ACAD_XDICTIONARY
360
6B89
102
}
330
1
100
AcDbSymbolTableRecord
100
AcDbBlockTableRecord
  2
A$C47AF373A
340
0
  0
BLOCK_RECORD
  5
6C00
102
{ACAD_XDICTIONARY
360
6C02
102
}
330
1
100
AcDbSymbolTableRecord
100
AcDbBlockTableRecord
  2
A$C2B9560D8
340
0
  0
BLOCK_RECORD
  5
7F28
330
1
100
AcDbSymbolTableRecord
100
AcDbBlockTableRecord
  2
*D52
340
0
  0
BLOCK_RECORD
  5
7F51
330
1
100
AcDbSymbolTableRecord
100
AcDbBlockTableRecord
  2
*D53
340
0
  0
BLOCK_RECORD
  5
7F7A
330
1
100
AcDbSymbolTableRecord
100
AcDbBlockTableRecord
  2
*D54
340
0
  0
BLOCK_RECORD
  5
8340
330
1
100
AcDbSymbolTableRecord
100
AcDbBlockTableRecord
  2
*D55
340
0
  0
BLOCK_RECORD
  5
834C
330
1
100
AcDbSymbolTableRecord
100
AcDbBlockTableRecord
  2
*D56
340
0
  0
BLOCK_RECORD
  5
8358
330
1
100
AcDbSymbolTableRecord
100
AcDbBlockTableRecord
  2
*D57
340
0
  0
BLOCK_RECORD
  5
8364
330
1
100
AcDbSymbolTableRecord
100
AcDbBlockTableRecord
  2
*D58
340
0
  0
BLOCK_RECORD
  5
8370
330
1
100
AcDbSymbolTableRecord
100
AcDbBlockTableRecord
  2
*D59
340
0
  0
BLOCK_RECORD
  5
837C
330
1
100
AcDbSymbolTableRecord
100
AcDbBlockTableRecord
  2
*D60
340
0
  0
BLOCK_RECORD
  5
8388
330
1
100
AcDbSymbolTableRecord
100
AcDbBlockTableRecord
  2
*D61
340
0
  0
BLOCK_RECORD
  5
8396
330
1
100
AcDbSymbolTableRecord
100
AcDbBlockTableRecord
  2
*D62
340
0
  0
BLOCK_RECORD
  5
83A4
330
1
100
AcDbSymbolTableRecord
100
AcDbBlockTableRecord
  2
*D63
340
0
  0
BLOCK_RECORD
  5
83B0
330
1
100
AcDbSymbolTableRecord
100
AcDbBlockTableRecord
  2
*D64
340
0
  0
BLOCK_RECORD
  5
83BE
330
1
100
AcDbSymbolTableRecord
100
AcDbBlockTableRecord
  2
*D65
340
0
  0
BLOCK_RECORD
  5
83CC
330
1
100
AcDbSymbolTableRecord
100
AcDbBlockTableRecord
  2
*D66
340
0
  0
BLOCK_RECORD
  5
87A1
330
1
100
AcDbSymbolTableRecord
100
AcDbBlockTableRecord
  2
*D67
340
0
  0
BLOCK_RECORD
  5
87AD
330
1
100
AcDbSymbolTableRecord
100
AcDbBlockTableRecord
  2
*D68
340
0
  0
BLOCK_RECORD
  5
87B9
330
1
100
AcDbSymbolTableRecord
100
AcDbBlockTableRecord
  2
*D69
340
0
  0
BLOCK_RECORD
  5
87C5
330
1
100
AcDbSymbolTableRecord
100
AcDbBlockTableRecord
  2
*D70
340
0
  0
BLOCK_RECORD
  5
87D1
330
1
100
AcDbSymbolTableRecord
100
AcDbBlockTableRecord
  2
*D71
340
0
  0
BLOCK_RECORD
  5
88D3
330
1
100
AcDbSymbolTableRecord
100
AcDbBlockTableRecord
  2
*D72
340
0
  0
BLOCK_RECORD
  5
88DF
330
1
100
AcDbSymbolTableRecord
100
AcDbBlockTableRecord
  2
*D73
340
0
  0
BLOCK_RECORD
  5
88EB
330
1
100
AcDbSymbolTableRecord
100
AcDbBlockTableRecord
  2
*D74
340
0
  0
BLOCK_RECORD
  5
88F7
102
{ACAD_XDICTIONARY
360
8909
102
}
330
1
100
AcDbSymbolTableRecord
100
AcDbBlockTableRecord
  2
A$C1D121720
340
0
  0
BLOCK_RECORD
  5
8994
330
1
100
AcDbSymbolTableRecord
100
AcDbBlockTableRecord
  2
*D76
340
0
  0
BLOCK_RECORD
  5
89A0
330
1
100
AcDbSymbolTableRecord
100
AcDbBlockTableRecord
  2
*D77
340
0
  0
BLOCK_RECORD
  5
89AC
330
1
100
AcDbSymbolTableRecord
100
AcDbBlockTableRecord
  2
*D78
340
0
  0
ENDTAB
  0
ENDSEC
  0
SECTION
  2
BLOCKS
  0
BLOCK
  5
20
330
1F
100
AcDbEntity
  8
0
100
AcDbBlockBegin
  2
*Model_Space
 70
     0
 10
0.0
 20
0.0
 30
0.0
  3
*Model_Space
  1

  0
ENDBLK
  5
21
330
1F
100
AcDbEntity
  8
0
100
AcDbBlockEnd
  0
BLOCK
  5
1C
330
1B
100
AcDbEntity
 67
     1
  8
0
100
AcDbBlockBegin
  2
*Paper_Space
 70
     0
 10
0.0
 20
0.0
 30
0.0
  3
*Paper_Space
  1

  0
ENDBLK
  5
1D
330
1B
100
AcDbEntity
 67
     1
  8
0
100
AcDbBlockEnd
  0
BLOCK
  5
24
330
23
100
AcDbEntity
  8
0
100
AcDbBlockBegin
  2
*Paper_Space0
 70
     0
 10
0.0
 20
0.0
 30
0.0
  3
*Paper_Space0
  1

  0
ENDBLK
  5
25
330
23
100
AcDbEntity
  8
0
100
AcDbBlockEnd
  0
BLOCK
  5
D2
330
D0
100
AcDbEntity
  8
0
100
AcDbBlockBegin
  2
_DotSmall
 70
     0
 10
0.0
 20
0.0
 30
0.0
  3
_DotSmall
  1

  0
LWPOLYLINE
  5
D1
330
D0
100
AcDbEntity
  8
0
 62
     0
100
AcDbPolyline
 90
        2
 70
     1
 43
0.5
 10
-0.0625
 20
0.0
 42
1.0
 10
0.0625
 20
0.0
 42
1.0
  0
ENDBLK
  5
D3
330
D0
100
AcDbEntity
  8
0
100
AcDbBlockEnd
  0
BLOCK
  5
D8
330
D4
100
AcDbEntity
  8
0
100
AcDbBlockBegin
  2
_Origin2
 70
     0
 10
0.0
 20
0.0
 30
0.0
  3
_Origin2
  1

  0
CIRCLE
  5
D5
330
D4
100
AcDbEntity
  8
0
 62
     0
370
    -2
100
AcDbCircle
 10
0.0
 20
0.0
 30
0.0
 40
0.5
  0
CIRCLE
  5
D6
330
D4
100
AcDbEntity
  8
0
 62
     0
370
    -2
100
AcDbCircle
 10
0.0
 20
0.0
 30
0.0
 40
0.25
  0
LINE
  5
D7
330
D4
100
AcDbEntity
  8
0
 62
     0
370
    -2
100
AcDbLine
 10
-0.5
 20
0.0
 30
0.0
 11
-1.0
 21
0.0
 31
0.0
  0
ENDBLK
  5
D9
330
D4
100
AcDbEntity
  8
0
100
AcDbBlockEnd
  0
BLOCK
  5
DE
330
DA
100
AcDbEntity
  8
0
100
AcDbBlockBegin
  2
_Open30
 70
     0
 10
0.0
 20
0.0
 30
0.0
  3
_Open30
  1

  0
LINE
  5
DB
330
DA
100
AcDbEntity
  8
0
 62
     0
370
    -2
100
AcDbLine
 10
-1.0
 20
0.26794919
 30
0.0
 11
0.0
 21
0.0
 31
0.0
  0
LINE
  5
DC
330
DA
100
AcDbEntity
  8
0
 62
     0
370
    -2
100
AcDbLine
 10
0.0
 20
0.0
 30
0.0
 11
-1.0
 21
-0.26794919
 31
0.0
  0
LINE
  5
DD
330
DA
100
AcDbEntity
  8
0
 62
     0
370
    -2
100
AcDbLine
 10
0.0
 20
0.0
 30
0.0
 11
-1.0
 21
0.0
 31
0.0
  0
ENDBLK
  5
DF
330
DA
100
AcDbEntity
  8
0
100
AcDbBlockEnd
  0
BLOCK
  5
2E7
330
2D6
100
AcDbEntity
  8
0
100
AcDbBlockBegin
  2
A$C6CAC4411
 70
     0
 10
0.0
 20
0.0
 30
0.0
  3
A$C6CAC4411
  1

  0
TEXT
  5
2D7
330
2D6
100
AcDbEntity
  8
0
100
AcDbText
 10
176.2557717918098
 20
0.0000022116982912
 30
0.0
 40
40.0
  1
中外交易株式会社
 72
     4
 11
364.2557717918098
 21
20.0000022116983
 31
0.0
100
AcDbText
  0
LINE
  5
2D8
330
2D6
100
AcDbEntity
  8
0
100
AcDbLine
 10
-0.0000028735375963
 20
52.5000022116983
 30
0.0
 11
599.9999971264624
 21
52.5000022116983
 31
0.0
  0
HATCH
  5
2D9
330
2D6
100
AcDbEntity
  8
実形
100
AcDbHatch
 10
0.0
 20
0.0
 30
0.0
210
0.0
220
0.0
230
1.0
  2
SOLID
 70
     1
 71
     1
 91
        3
 92
        1
 93
        4
 72
     2
 10
133.1661954404576
 20
20.0000022116983
 40
20.0
 50
11.6477236670758
 51
342.6561058784691
 73
     1
 72
     1
 10
152.2568494677857
 20
14.03787769028346
 11
128.1661954404576
 21
14.03787769028349
 72
     1
 10
128.1661954404576
 20
14.03787769028349
 11
128.1661954404576
 21
24.0378776902835
 72
     1
 10
128.1661954404576
 20
24.0378776902835
 11
152.7543439394721
 21
24.0378776902835
 97
        4
330
2DF
330
2DC
330
2E0
330
2DD
 92
        1
 93
        4
 72
     2
 10
64.25577179180982
 20
20.0000022116983
 40
20.0
 50
11.6477236670758
 51
342.6561058784691
 73
     1
 72
     1
 10
83.34642581913795
 20
14.03787769028346
 11
59.25577179180981
 21
14.03787769028349
 72
     1
 10
59.25577179180981
 20
14.03787769028349
 11
59.25577179180981
 21
24.0378776902835
 72
     1
 10
59.25577179180981
 20
24.0378776902835
 11
83.84392029082437
 21
24.0378776902835
 97
        4
330
2DE
330
2DB
330
2E1
330
2DA
 92
        1
 93
        5
 72
     1
 10
121.6418911694018
 20
40.0000022116983
 11
86.64189116940177
 21
40.0000022116983
 72
     1
 10
86.64189116940177
 20
40.0000022116983
 11
86.64189116940177
 21
0.0000022116983018
 72
     1
 10
86.64189116940177
 20
0.0000022116983018
 11
121.6418911694018
 21
0.0000022116983018
 72
     1
 10
121.6418911694018
 20
0.0000022116983018
 11
86.64189116940177
 21
20.0000022116983
 72
     1
 10
86.64189116940177
 20
20.0000022116983
 11
121.6418911694018
 21
40.0000022116983
 97
        5
330
2E2
330
2E3
330
2E5
330
2E6
330
2E4
 75
     0
 76
     1
 98
        1
 10
-2184.000002873538
 20
-16.4999977883017
  0
LINE
  5
2DA
102
{ACAD_REACTORS
330
2D9
102
}
330
2D6
100
AcDbEntity
  8
実形
370
     5
100
AcDbLine
 10
83.84392029082437
 20
24.0378776902835
 30
0.0
 11
59.25577179180981
 21
24.0378776902835
 31
0.0
  0
LINE
  5
2DB
102
{ACAD_REACTORS
330
2D9
102
}
330
2D6
100
AcDbEntity
  8
実形
370
     5
100
AcDbLine
 10
59.25577179180981
 20
14.03787769028349
 30
0.0
 11
83.34642581913795
 21
14.03787769028346
 31
0.0
  0
LINE
  5
2DC
102
{ACAD_REACTORS
330
2D9
102
}
330
2D6
100
AcDbEntity
  8
実形
370
     5
100
AcDbLine
 10
128.1661954404576
 20
14.03787769028349
 30
0.0
 11
152.2568494677857
 21
14.03787769028346
 31
0.0
  0
LINE
  5
2DD
102
{ACAD_REACTORS
330
2D9
102
}
330
2D6
100
AcDbEntity
  8
実形
370
     5
100
AcDbLine
 10
152.7543439394721
 20
24.0378776902835
 30
0.0
 11
128.1661954404576
 21
24.0378776902835
 31
0.0
  0
ARC
  5
2DE
102
{ACAD_REACTORS
330
2D9
102
}
330
2D6
100
AcDbEntity
  8
実形
370
     5
100
AcDbCircle
 10
64.25577179180982
 20
20.0000022116983
 30
0.0
 40
20.0
100
AcDbArc
 50
11.6477236670758
 51
342.6561058784691
  0
ARC
  5
2DF
102
{ACAD_REACTORS
330
2D9
102
}
330
2D6
100
AcDbEntity
  8
実形
370
     5
100
AcDbCircle
 10
133.1661954404576
 20
20.0000022116983
 30
0.0
 40
20.0
100
AcDbArc
 50
11.6477236670758
 51
342.6561058784691
  0
LINE
  5
2E0
102
{ACAD_REACTORS
330
2D9
102
}
330
2D6
100
AcDbEntity
  8
実形
370
     5
100
AcDbLine
 10
128.1661954404576
 20
24.0378776902835
 30
0.0
 11
128.1661954404576
 21
14.03787769028349
 31
0.0
  0
LINE
  5
2E1
102
{ACAD_REACTORS
330
2D9
102
}
330
2D6
100
AcDbEntity
  8
実形
370
     5
100
AcDbLine
 10
59.25577179180981
 20
24.0378776902835
 30
0.0
 11
59.25577179180981
 21
14.03787769028349
 31
0.0
  0
LINE
  5
2E2
102
{ACAD_REACTORS
330
2D9
102
}
330
2D6
100
AcDbEntity
  8
実形
370
     5
100
AcDbLine
 10
121.6418911694018
 20
40.0000022116983
 30
0.0
 11
86.64189116940177
 21
40.0000022116983
 31
0.0
  0
LINE
  5
2E3
102
{ACAD_REACTORS
330
2D9
102
}
330
2D6
100
AcDbEntity
  8
実形
370
     5
100
AcDbLine
 10
86.64189116940177
 20
40.0000022116983
 30
0.0
 11
86.64189116940177
 21
0.0000022116983018
 31
0.0
  0
LINE
  5
2E4
102
{ACAD_REACTORS
330
2D9
102
}
330
2D6
100
AcDbEntity
  8
実形
370
     5
100
AcDbLine
 10
86.64189116940177
 20
20.0000022116983
 30
0.0
 11
121.6418911694018
 21
40.0000022116983
 31
0.0
  0
LINE
  5
2E5
102
{ACAD_REACTORS
330
2D9
102
}
330
2D6
100
AcDbEntity
  8
実形
370
     5
100
AcDbLine
 10
86.64189116940177
 20
0.0000022116983018
 30
0.0
 11
121.6418911694018
 21
0.0000022116983018
 31
0.0
  0
LINE
  5
2E6
102
{ACAD_REACTORS
330
2D9
102
}
330
2D6
100
AcDbEntity
  8
実形
370
     5
100
AcDbLine
 10
121.6418911694018
 20
0.0000022116983018
 30
0.0
 11
86.64189116940177
 21
20.0000022116983
 31
0.0
  0
ENDBLK
  5
2E8
330
2D6
100
AcDbEntity
  8
0
100
AcDbBlockEnd
  0
BLOCK
  5
310
330
30D
100
AcDbEntity
  8
0
100
AcDbBlockBegin
  2
_Dot
 70
     0
 10
0.0
 20
0.0
 30
0.0
  3
_Dot
  1

  0
LWPOLYLINE
  5
30E
330
30D
100
AcDbEntity
  8
0
 62
     0
100
AcDbPolyline
 90
        2
 70
     1
 43
0.5
 10
-0.25
 20
0.0
 42
1.0
 10
0.25
 20
0.0
 42
1.0
  0
LINE
  5
30F
330
30D
100
AcDbEntity
  8
0
 62
     0
370
    -2
100
AcDbLine
 10
-0.5
 20
0.0
 30
0.0
 11
-1.0
 21
0.0
 31
0.0
  0
ENDBLK
  5
311
330
30D
100
AcDbEntity
  8
0
100
AcDbBlockEnd
  0
BLOCK
  5
3140
330
313C
100
AcDbEntity
  8
0
100
AcDbBlockBegin
  2
A$C6850087C
 70
     0
 10
0.0
 20
0.0
 30
0.0
  3
A$C6850087C
  1

  0
TEXT
  5
313D
330
313C
100
AcDbEntity
  8
実形
 62
     0
 48
20.0
100
AcDbText
 10
0.0
 20
0.0
 30
0.0
 40
40.0
  1
平面図
100
AcDbText
  0
ENDBLK
  5
3141
330
313C
100
AcDbEntity
  8
0
100
AcDbBlockEnd
  0
BLOCK
  5
384A
330
3846
100
AcDbEntity
  8
0
 62
     1
100
AcDbBlockBegin
  2
A$C71387EE1
 70
     0
 10
0.0
 20
0.0
 30
0.0
  3
A$C71387EE1
  1

  0
HATCH
  5
3847
330
3846
100
AcDbEntity
  8
実形
 62
     0
100
AcDbHatch
 10
0.0
 20
0.0
 30
0.0
210
0.0
220
0.0
230
1.0
  2
SOLID
 70
     1
 71
     0
 91
        1
 92
        7
 72
     1
 73
     1
 93
        2
 10
4.552685078746208
 20
-0.0000011660104065
 42
-1.0
 10
4.54872920619573
 20
9.101406589272301
 42
-1.0
 97
        0
 75
     0
 76
     1
 47
0.1166526434546944
 98
        1
 10
6.651066248680989
 20
3.151407247997667
  0
ENDBLK
  5
384B
330
3846
100
AcDbEntity
  8
0
 62
     1
100
AcDbBlockEnd
  0
BLOCK
  5
5189
330
517F
100
AcDbEntity
  8
0
 62
     1
100
AcDbBlockBegin
  2
*D8
 70
     1
 10
0.0
 20
0.0
 30
0.0
  3
*D8
  1

  0
LINE
  5
9437
330
517F
100
AcDbEntity
  8
実形
 62
     0
370
    18
100
AcDbLine
 10
858.7710340146243
 20
1705.843636991218
 30
0.0
 11
858.7710340146243
 21
1737.385179135495
 31
0.0
  0
LINE
  5
9438
330
517F
100
AcDbEntity
  8
実形
 62
     0
370
    18
100
AcDbLine
 10
898.7710340146241
 20
1705.843636991218
 30
0.0
 11
898.7710340146241
 21
1737.385179135495
 31
0.0
  0
LINE
  5
9439
330
517F
100
AcDbEntity
  8
実形
 62
     0
370
    18
100
AcDbLine
 10
868.7710340146239
 20
1737.385179135495
 30
0.0
 11
888.771034014624
 21
1737.385179135495
 31
0.0
  0
MTEXT
  5
943A
330
517F
100
AcDbEntity
  8
実形
 62
     0
100
AcDbMText
 10
822.8304222143343
 20
1759.635714362135
 30
0.0
 40
30.0
 41
0.0
 71
     5
 72
     1
  1
20
 73
     1
 44
1.0
1001
ACAD
1000
MTEXTBEGIN
1070
    73
1070
     1
1070
    44
1040
1.0
1070
    74
1070
     0
1000
MTEXTEND
  0
INSERT
  5
943B
330
517F
100
AcDbEntity
  8
実形
 62
     0
370
    18
100
AcDbBlockReference
  2
_Dot
 10
858.7710340146243
 20
1737.385179135495
 30
0.0
 41
10.0
 42
10.0
 43
10.0
 50
180.0
  0
INSERT
  5
943C
330
517F
100
AcDbEntity
  8
実形
 62
     0
370
    18
100
AcDbBlockReference
  2
_Dot
 10
898.7710340146241
 20
1737.385179135495
 30
0.0
 41
10.0
 42
10.0
 43
10.0
  0
POINT
  5
943D
330
517F
100
AcDbEntity
  8
Defpoints
 62
     0
100
AcDbPoint
 10
858.7710340146243
 20
1640.84363699122
 30
0.0
  0
POINT
  5
943E
330
517F
100
AcDbEntity
  8
Defpoints
 62
     0
100
AcDbPoint
 10
898.7710340146241
 20
1640.84363699122
 30
0.0
  0
POINT
  5
943F
330
517F
100
AcDbEntity
  8
Defpoints
 62
     0
100
AcDbPoint
 10
898.7710340146241
 20
1737.385179135495
 30
0.0
  0
ENDBLK
  5
518A
330
517F
100
AcDbEntity
  8
0
 62
     1
100
AcDbBlockEnd
  0
BLOCK
  5
51B1
330
51A7
100
AcDbEntity
  8
0
 62
     1
100
AcDbBlockBegin
  2
*D9
 70
     1
 10
0.0
 20
0.0
 30
0.0
  3
*D9
  1

  0
LINE
  5
942E
330
51A7
100
AcDbEntity
  8
実形
 62
     0
370
    18
100
AcDbLine
 10
898.7710340146241
 20
1705.843636991218
 30
0.0
 11
898.7710340146241
 21
1737.385179135495
 31
0.0
  0
LINE
  5
942F
330
51A7
100
AcDbEntity
  8
実形
 62
     0
370
    18
100
AcDbLine
 10
948.7710340146239
 20
1705.843636991218
 30
0.0
 11
948.7710340146239
 21
1737.385179135495
 31
0.0
  0
LINE
  5
9430
330
51A7
100
AcDbEntity
  8
実形
 62
     0
370
    18
100
AcDbLine
 10
908.7710340146239
 20
1737.385179135495
 30
0.0
 11
938.771034014624
 21
1737.385179135495
 31
0.0
  0
MTEXT
  5
9431
330
51A7
100
AcDbEntity
  8
実形
 62
     0
100
AcDbMText
 10
921.2868215322739
 20
1682.887772882064
 30
0.0
 40
30.0
 41
0.0
 71
     5
 72
     1
  1
25
 73
     1
 44
1.0
1001
ACAD
1000
MTEXTBEGIN
1070
    73
1070
     1
1070
    44
1040
1.0
1070
    74
1070
     0
1000
MTEXTEND
  0
INSERT
  5
9432
330
51A7
100
AcDbEntity
  8
実形
 62
     0
370
    18
100
AcDbBlockReference
  2
_Dot
 10
898.7710340146241
 20
1737.385179135495
 30
0.0
 41
10.0
 42
10.0
 43
10.0
 50
180.0
  0
INSERT
  5
9433
330
51A7
100
AcDbEntity
  8
実形
 62
     0
370
    18
100
AcDbBlockReference
  2
_Dot
 10
948.7710340146239
 20
1737.385179135495
 30
0.0
 41
10.0
 42
10.0
 43
10.0
  0
POINT
  5
9434
330
51A7
100
AcDbEntity
  8
Defpoints
 62
     0
100
AcDbPoint
 10
898.7710340146241
 20
1640.84363699122
 30
0.0
  0
POINT
  5
9435
330
51A7
100
AcDbEntity
  8
Defpoints
 62
     0
100
AcDbPoint
 10
948.7710340146239
 20
1640.84363699122
 30
0.0
  0
POINT
  5
9436
330
51A7
100
AcDbEntity
  8
Defpoints
 62
     0
100
AcDbPoint
 10
948.7710340146239
 20
1737.385179135495
 30
0.0
  0
ENDBLK
  5
51B2
330
51A7
100
AcDbEntity
  8
0
 62
     1
100
AcDbBlockEnd
  0
BLOCK
  5
51EB
330
51E1
100
AcDbEntity
  8
0
 62
     1
100
AcDbBlockBegin
  2
*D10
 70
     1
 10
0.0
 20
0.0
 30
0.0
  3
*D10
  1

  0
LINE
  5
9425
330
51E1
100
AcDbEntity
  8
実形
 62
     0
370
    18
100
AcDbLine
 10
948.7710340146239
 20
1705.843636991218
 30
0.0
 11
948.7710340146239
 21
1737.385179135495
 31
0.0
  0
LINE
  5
9426
330
51E1
100
AcDbEntity
  8
実形
 62
     0
370
    18
100
AcDbLine
 10
1028.771034014624
 20
1705.843636991218
 30
0.0
 11
1028.771034014624
 21
1737.385179135495
 31
0.0
  0
LINE
  5
9427
330
51E1
100
AcDbEntity
  8
実形
 62
     0
370
    18
100
AcDbLine
 10
958.7710340146239
 20
1737.385179135495
 30
0.0
 11
1018.771034014624
 21
1737.385179135495
 31
0.0
  0
INSERT
  5
9428
330
51E1
100
AcDbEntity
  8
実形
 62
     0
370
    18
100
AcDbBlockReference
  2
_Dot
 10
948.7710340146239
 20
1737.385179135495
 30
0.0
 41
10.0
 42
10.0
 43
10.0
 50
180.0
  0
INSERT
  5
9429
330
51E1
100
AcDbEntity
  8
実形
 62
     0
370
    18
100
AcDbBlockReference
  2
_Dot
 10
1028.771034014624
 20
1737.385179135495
 30
0.0
 41
10.0
 42
10.0
 43
10.0
  0
MTEXT
  5
942A
330
51E1
100
AcDbEntity
  8
実形
 62
     0
100
AcDbMText
 10
988.771034014624
 20
1758.985179135495
 30
0.0
 40
30.0
 41
0.0
 71
     5
 72
     1
  1
40
 73
     1
 44
1.0
1001
ACAD
1000
MTEXTBEGIN
1070
    73
1070
     1
1070
    44
1040
1.0
1070
    74
1070
     0
1000
MTEXTEND
  0
POINT
  5
942B
330
51E1
100
AcDbEntity
  8
Defpoints
 62
     0
100
AcDbPoint
 10
948.7710340146239
 20
1640.84363699122
 30
0.0
  0
POINT
  5
942C
330
51E1
100
AcDbEntity
  8
Defpoints
 62
     0
100
AcDbPoint
 10
1028.771034014624
 20
1640.84363699122
 30
0.0
  0
POINT
  5
942D
330
51E1
100
AcDbEntity
  8
Defpoints
 62
     0
100
AcDbPoint
 10
1028.771034014624
 20
1737.385179135495
 30
0.0
  0
ENDBLK
  5
51EC
330
51E1
100
AcDbEntity
  8
0
 62
     1
100
AcDbBlockEnd
  0
BLOCK
  5
520C
330
5202
100
AcDbEntity
  8
0
 62
     1
100
AcDbBlockBegin
  2
*D11
 70
     1
 10
0.0
 20
0.0
 30
0.0
  3
*D11
  1

  0
LINE
  5
941C
330
5202
100
AcDbEntity
  8
実形
 62
     0
370
    18
100
AcDbLine
 10
1028.771034014624
 20
1705.843636991218
 30
0.0
 11
1028.771034014624
 21
1737.385179135495
 31
0.0
  0
LINE
  5
941D
330
5202
100
AcDbEntity
  8
実形
 62
     0
370
    18
100
AcDbLine
 10
1108.771034014624
 20
1705.843636991218
 30
0.0
 11
1108.771034014624
 21
1737.385179135495
 31
0.0
  0
LINE
  5
941E
330
5202
100
AcDbEntity
  8
実形
 62
     0
370
    18
100
AcDbLine
 10
1038.771034014624
 20
1737.385179135495
 30
0.0
 11
1098.771034014624
 21
1737.385179135495
 31
0.0
  0
INSERT
  5
941F
330
5202
100
AcDbEntity
  8
実形
 62
     0
370
    18
100
AcDbBlockReference
  2
_Dot
 10
1028.771034014624
 20
1737.385179135495
 30
0.0
 41
10.0
 42
10.0
 43
10.0
 50
180.0
  0
INSERT
  5
9420
330
5202
100
AcDbEntity
  8
実形
 62
     0
370
    18
100
AcDbBlockReference
  2
_Dot
 10
1108.771034014624
 20
1737.385179135495
 30
0.0
 41
10.0
 42
10.0
 43
10.0
  0
MTEXT
  5
9421
330
5202
100
AcDbEntity
  8
実形
 62
     0
100
AcDbMText
 10
1068.771034014624
 20
1758.985179135495
 30
0.0
 40
30.0
 41
0.0
 71
     5
 72
     1
  1
40
 73
     1
 44
1.0
1001
ACAD
1000
MTEXTBEGIN
1070
    73
1070
     1
1070
    44
1040
1.0
1070
    74
1070
     0
1000
MTEXTEND
  0
POINT
  5
9422
330
5202
100
AcDbEntity
  8
Defpoints
 62
     0
100
AcDbPoint
 10
1028.771034014624
 20
1640.84363699122
 30
0.0
  0
POINT
  5
9423
330
5202
100
AcDbEntity
  8
Defpoints
 62
     0
100
AcDbPoint
 10
1108.771034014624
 20
1640.84363699122
 30
0.0
  0
POINT
  5
9424
330
5202
100
AcDbEntity
  8
Defpoints
 62
     0
100
AcDbPoint
 10
1108.771034014624
 20
1737.385179135495
 30
0.0
  0
ENDBLK
  5
520D
330
5202
100
AcDbEntity
  8
0
 62
     1
100
AcDbBlockEnd
  0
BLOCK
  5
5249
330
523F
100
AcDbEntity
  8
0
 62
     1
100
AcDbBlockBegin
  2
*D12
 70
     1
 10
0.0
 20
0.0
 30
0.0
  3
*D12
  1

  0
LINE
  5
9413
330
523F
100
AcDbEntity
  8
実形
 62
     0
370
    18
100
AcDbLine
 10
1108.771034014624
 20
1705.843636991218
 30
0.0
 11
1108.771034014624
 21
1737.385179135495
 31
0.0
  0
LINE
  5
9414
330
523F
100
AcDbEntity
  8
実形
 62
     0
370
    18
100
AcDbLine
 10
1188.771034014624
 20
1705.843636991218
 30
0.0
 11
1188.771034014624
 21
1737.385179135495
 31
0.0
  0
LINE
  5
9415
330
523F
100
AcDbEntity
  8
実形
 62
     0
370
    18
100
AcDbLine
 10
1118.771034014624
 20
1737.385179135495
 30
0.0
 11
1178.771034014624
 21
1737.385179135495
 31
0.0
  0
INSERT
  5
9416
330
523F
100
AcDbEntity
  8
実形
 62
     0
370
    18
100
AcDbBlockReference
  2
_Dot
 10
1108.771034014624
 20
1737.385179135495
 30
0.0
 41
10.0
 42
10.0
 43
10.0
 50
180.0
  0
INSERT
  5
9417
330
523F
100
AcDbEntity
  8
実形
 62
     0
370
    18
100
AcDbBlockReference
  2
_Dot
 10
1188.771034014624
 20
1737.385179135495
 30
0.0
 41
10.0
 42
10.0
 43
10.0
  0
MTEXT
  5
9418
330
523F
100
AcDbEntity
  8
実形
 62
     0
100
AcDbMText
 10
1148.771034014624
 20
1758.985179135495
 30
0.0
 40
30.0
 41
0.0
 71
     5
 72
     1
  1
40
 73
     1
 44
1.0
1001
ACAD
1000
MTEXTBEGIN
1070
    73
1070
     1
1070
    44
1040
1.0
1070
    74
1070
     0
1000
MTEXTEND
  0
POINT
  5
9419
330
523F
100
AcDbEntity
  8
Defpoints
 62
     0
100
AcDbPoint
 10
1108.771034014624
 20
1640.84363699122
 30
0.0
  0
POINT
  5
941A
330
523F
100
AcDbEntity
  8
Defpoints
 62
     0
100
AcDbPoint
 10
1188.771034014624
 20
1640.84363699122
 30
0.0
  0
POINT
  5
941B
330
523F
100
AcDbEntity
  8
Defpoints
 62
     0
100
AcDbPoint
 10
1188.771034014624
 20
1737.385179135495
 30
0.0
  0
ENDBLK
  5
524A
330
523F
100
AcDbEntity
  8
0
 62
     1
100
AcDbBlockEnd
  0
BLOCK
  5
5272
330
5268
100
AcDbEntity
  8
0
 62
     1
100
AcDbBlockBegin
  2
*D13
 70
     1
 10
0.0
 20
0.0
 30
0.0
  3
*D13
  1

  0
LINE
  5
940A
330
5268
100
AcDbEntity
  8
実形
 62
     0
370
    18
100
AcDbLine
 10
1188.771034014624
 20
1705.843636991218
 30
0.0
 11
1188.771034014624
 21
1737.385179135495
 31
0.0
  0
LINE
  5
940B
330
5268
100
AcDbEntity
  8
実形
 62
     0
370
    18
100
AcDbLine
 10
1268.771034014624
 20
1705.843636991218
 30
0.0
 11
1268.771034014624
 21
1737.385179135495
 31
0.0
  0
LINE
  5
940C
330
5268
100
AcDbEntity
  8
実形
 62
     0
370
    18
100
AcDbLine
 10
1198.771034014624
 20
1737.385179135495
 30
0.0
 11
1258.771034014624
 21
1737.385179135495
 31
0.0
  0
INSERT
  5
940D
330
5268
100
AcDbEntity
  8
実形
 62
     0
370
    18
100
AcDbBlockReference
  2
_Dot
 10
1188.771034014624
 20
1737.385179135495
 30
0.0
 41
10.0
 42
10.0
 43
10.0
 50
180.0
  0
INSERT
  5
940E
330
5268
100
AcDbEntity
  8
実形
 62
     0
370
    18
100
AcDbBlockReference
  2
_Dot
 10
1268.771034014624
 20
1737.385179135495
 30
0.0
 41
10.0
 42
10.0
 43
10.0
  0
MTEXT
  5
940F
330
5268
100
AcDbEntity
  8
実形
 62
     0
100
AcDbMText
 10
1228.771034014624
 20
1758.985179135495
 30
0.0
 40
30.0
 41
0.0
 71
     5
 72
     1
  1
40
 73
     1
 44
1.0
1001
ACAD
1000
MTEXTBEGIN
1070
    73
1070
     1
1070
    44
1040
1.0
1070
    74
1070
     0
1000
MTEXTEND
  0
POINT
  5
9410
330
5268
100
AcDbEntity
  8
Defpoints
 62
     0
100
AcDbPoint
 10
1188.771034014624
 20
1640.84363699122
 30
0.0
  0
POINT
  5
9411
330
5268
100
AcDbEntity
  8
Defpoints
 62
     0
100
AcDbPoint
 10
1268.771034014624
 20
1640.84363699122
 30
0.0
  0
POINT
  5
9412
330
5268
100
AcDbEntity
  8
Defpoints
 62
     0
100
AcDbPoint
 10
1268.771034014624
 20
1737.385179135495
 30
0.0
  0
ENDBLK
  5
5273
330
5268
100
AcDbEntity
  8
0
 62
     1
100
AcDbBlockEnd
  0
BLOCK
  5
5288
330
527E
100
AcDbEntity
  8
0
 62
     1
100
AcDbBlockBegin
  2
*D14
 70
     1
 10
0.0
 20
0.0
 30
0.0
  3
*D14
  1

  0
LINE
  5
9401
330
527E
100
AcDbEntity
  8
実形
 62
     0
370
    18
100
AcDbLine
 10
1268.771034014624
 20
1705.843636991218
 30
0.0
 11
1268.771034014624
 21
1737.385179135495
 31
0.0
  0
LINE
  5
9402
330
527E
100
AcDbEntity
  8
実形
 62
     0
370
    18
100
AcDbLine
 10
1318.771034014624
 20
1705.843636991218
 30
0.0
 11
1318.771034014624
 21
1737.385179135495
 31
0.0
  0
LINE
  5
9403
330
527E
100
AcDbEntity
  8
実形
 62
     0
370
    18
100
AcDbLine
 10
1278.771034014624
 20
1737.385179135495
 30
0.0
 11
1308.771034014624
 21
1737.385179135495
 31
0.0
  0
MTEXT
  5
9404
330
527E
100
AcDbEntity
  8
実形
 62
     0
100
AcDbMText
 10
1295.353832290871
 20
1684.14329783098
 30
0.0
 40
30.0
 41
0.0
 71
     5
 72
     1
  1
25
 73
     1
 44
1.0
1001
ACAD
1000
MTEXTBEGIN
1070
    73
1070
     1
1070
    44
1040
1.0
1070
    74
1070
     0
1000
MTEXTEND
  0
INSERT
  5
9405
330
527E
100
AcDbEntity
  8
実形
 62
     0
370
    18
100
AcDbBlockReference
  2
_Dot
 10
1268.771034014624
 20
1737.385179135495
 30
0.0
 41
10.0
 42
10.0
 43
10.0
 50
180.0
  0
INSERT
  5
9406
330
527E
100
AcDbEntity
  8
実形
 62
     0
370
    18
100
AcDbBlockReference
  2
_Dot
 10
1318.771034014624
 20
1737.385179135495
 30
0.0
 41
10.0
 42
10.0
 43
10.0
  0
POINT
  5
9407
330
527E
100
AcDbEntity
  8
Defpoints
 62
     0
100
AcDbPoint
 10
1268.771034014624
 20
1640.84363699122
 30
0.0
  0
POINT
  5
9408
330
527E
100
AcDbEntity
  8
Defpoints
 62
     0
100
AcDbPoint
 10
1318.771034014624
 20
1640.84363699122
 30
0.0
  0
POINT
  5
9409
330
527E
100
AcDbEntity
  8
Defpoints
 62
     0
100
AcDbPoint
 10
1318.771034014624
 20
1737.385179135495
 30
0.0
  0
ENDBLK
  5
5289
330
527E
100
AcDbEntity
  8
0
 62
     1
100
AcDbBlockEnd
  0
BLOCK
  5
52B2
330
52A8
100
AcDbEntity
  8
0
 62
     1
100
AcDbBlockBegin
  2
*D15
 70
     1
 10
0.0
 20
0.0
 30
0.0
  3
*D15
  1

  0
LINE
  5
93F8
330
52A8
100
AcDbEntity
  8
実形
 62
     0
370
    18
100
AcDbLine
 10
1318.771034014624
 20
1705.843636991218
 30
0.0
 11
1318.771034014624
 21
1737.385179135495
 31
0.0
  0
LINE
  5
93F9
330
52A8
100
AcDbEntity
  8
実形
 62
     0
370
    18
100
AcDbLine
 10
1358.771034014624
 20
1705.843636991218
 30
0.0
 11
1358.771034014624
 21
1737.385179135495
 31
0.0
  0
LINE
  5
93FA
330
52A8
100
AcDbEntity
  8
実形
 62
     0
370
    18
100
AcDbLine
 10
1328.771034014624
 20
1737.385179135495
 30
0.0
 11
1348.771034014624
 21
1737.385179135495
 31
0.0
  0
MTEXT
  5
93FB
330
52A8
100
AcDbEntity
  8
実形
 62
     0
100
AcDbMText
 10
1394.004490709541
 20
1781.857247380781
 30
0.0
 40
30.0
 41
0.0
 71
     5
 72
     1
  1
20
 73
     1
 44
1.0
1001
ACAD
1000
MTEXTBEGIN
1070
    73
1070
     1
1070
    44
1040
1.0
1070
    74
1070
     0
1000
MTEXTEND
  0
INSERT
  5
93FC
330
52A8
100
AcDbEntity
  8
実形
 62
     0
370
    18
100
AcDbBlockReference
  2
_Dot
 10
1318.771034014624
 20
1737.385179135495
 30
0.0
 41
10.0
 42
10.0
 43
10.0
 50
180.0
  0
INSERT
  5
93FD
330
52A8
100
AcDbEntity
  8
実形
 62
     0
370
    18
100
AcDbBlockReference
  2
_Dot
 10
1358.771034014624
 20
1737.385179135495
 30
0.0
 41
10.0
 42
10.0
 43
10.0
  0
POINT
  5
93FE
330
52A8
100
AcDbEntity
  8
Defpoints
 62
     0
100
AcDbPoint
 10
1318.771034014624
 20
1640.84363699122
 30
0.0
  0
POINT
  5
93FF
330
52A8
100
AcDbEntity
  8
Defpoints
 62
     0
100
AcDbPoint
 10
1358.771034014624
 20
1640.84363699122
 30
0.0
  0
POINT
  5
9400
330
52A8
100
AcDbEntity
  8
Defpoints
 62
     0
100
AcDbPoint
 10
1358.771034014624
 20
1737.385179135495
 30
0.0
  0
ENDBLK
  5
52B3
330
52A8
100
AcDbEntity
  8
0
 62
     1
100
AcDbBlockEnd
  0
BLOCK
  5
5346
330
533C
100
AcDbEntity
  8
0
 62
     1
100
AcDbBlockBegin
  2
*D16
 70
     1
 10
0.0
 20
0.0
 30
0.0
  3
*D16
  1

  0
LINE
  5
93EF
330
533C
100
AcDbEntity
  8
実形
 62
     0
370
    18
100
AcDbLine
 10
858.7710340146243
 20
1705.843636991218
 30
0.0
 11
858.7710340146243
 21
1876.07967287009
 31
0.0
  0
LINE
  5
93F0
330
533C
100
AcDbEntity
  8
実形
 62
     0
370
    18
100
AcDbLine
 10
1358.771034014624
 20
1705.843636991218
 30
0.0
 11
1358.771034014624
 21
1876.07967287009
 31
0.0
  0
LINE
  5
93F1
330
533C
100
AcDbEntity
  8
実形
 62
     0
370
    18
100
AcDbLine
 10
868.7710340146239
 20
1876.07967287009
 30
0.0
 11
1348.771034014624
 21
1876.07967287009
 31
0.0
  0
INSERT
  5
93F2
330
533C
100
AcDbEntity
  8
実形
 62
     0
370
    18
100
AcDbBlockReference
  2
_Dot
 10
858.7710340146243
 20
1876.07967287009
 30
0.0
 41
10.0
 42
10.0
 43
10.0
 50
180.0
  0
INSERT
  5
93F3
330
533C
100
AcDbEntity
  8
実形
 62
     0
370
    18
100
AcDbBlockReference
  2
_Dot
 10
1358.771034014624
 20
1876.07967287009
 30
0.0
 41
10.0
 42
10.0
 43
10.0
  0
MTEXT
  5
93F4
330
533C
100
AcDbEntity
  8
実形
 62
     0
100
AcDbMText
 10
1108.771034014624
 20
1897.67967287009
 30
0.0
 40
30.0
 41
0.0
 71
     5
 72
     1
  1
250
 73
     1
 44
1.0
1001
ACAD
1000
MTEXTBEGIN
1070
    73
1070
     1
1070
    44
1040
1.0
1070
    74
1070
     0
1000
MTEXTEND
  0
POINT
  5
93F5
330
533C
100
AcDbEntity
  8
Defpoints
 62
     0
100
AcDbPoint
 10
858.7710340146243
 20
1640.84363699122
 30
0.0
  0
POINT
  5
93F6
330
533C
100
AcDbEntity
  8
Defpoints
 62
     0
100
AcDbPoint
 10
1358.771034014624
 20
1640.84363699122
 30
0.0
  0
POINT
  5
93F7
330
533C
100
AcDbEntity
  8
Defpoints
 62
     0
100
AcDbPoint
 10
1358.771034014624
 20
1876.07967287009
 30
0.0
  0
ENDBLK
  5
5347
330
533C
100
AcDbEntity
  8
0
 62
     1
100
AcDbBlockEnd
  0
BLOCK
  5
5380
330
5376
100
AcDbEntity
  8
0
 62
     1
100
AcDbBlockBegin
  2
*D17
 70
     1
 10
0.0
 20
0.0
 30
0.0
  3
*D17
  1

  0
LINE
  5
93E6
330
5376
100
AcDbEntity
  8
実形
 62
     0
370
    18
100
AcDbLine
 10
752.9424506651629
 20
1645.759223040568
 30
0.0
 11
722.2887743570717
 21
1645.759223040568
 31
0.0
  0
LINE
  5
93E7
330
5376
100
AcDbEntity
  8
実形
 62
     0
370
    18
100
AcDbLine
 10
753.3502058085249
 20
1605.759223040568
 30
0.0
 11
722.2887743570717
 21
1605.759223040568
 31
0.0
  0
LINE
  5
93E8
330
5376
100
AcDbEntity
  8
実形
 62
     0
370
    18
100
AcDbLine
 10
722.2887743570717
 20
1635.759223040568
 30
0.0
 11
722.2887743570717
 21
1615.759223040568
 31
0.0
  0
MTEXT
  5
93E9
330
5376
100
AcDbEntity
  8
実形
 62
     0
100
AcDbMText
 10
693.5458459594245
 20
1615.71997590773
 30
0.0
 40
30.0
 41
0.0
 71
     5
 72
     1
  1
20
 11
0.0000000000000001
 21
1.0
 31
0.0
 73
     1
 44
1.0
1001
ACAD
1000
MTEXTBEGIN
1070
    73
1070
     1
1070
    44
1040
1.0
1070
    74
1070
     0
1000
MTEXTEND
  0
INSERT
  5
93EA
330
5376
100
AcDbEntity
  8
実形
 62
     0
370
    18
100
AcDbBlockReference
  2
_Dot
 10
722.2887743570717
 20
1645.759223040568
 30
0.0
 41
10.0
 42
10.0
 43
10.0
 50
90.0
  0
INSERT
  5
93EB
330
5376
100
AcDbEntity
  8
実形
 62
     0
370
    18
100
AcDbBlockReference
  2
_Dot
 10
722.2887743570717
 20
1605.759223040568
 30
0.0
 41
10.0
 42
10.0
 43
10.0
 50
270.0
  0
POINT
  5
93EC
330
5376
100
AcDbEntity
  8
Defpoints
 62
     0
100
AcDbPoint
 10
817.942450665163
 20
1645.759223040568
 30
0.0
  0
POINT
  5
93ED
330
5376
100
AcDbEntity
  8
Defpoints
 62
     0
100
AcDbPoint
 10
818.3502058085251
 20
1605.759223040568
 30
0.0
  0
POINT
  5
93EE
330
5376
100
AcDbEntity
  8
Defpoints
 62
     0
100
AcDbPoint
 10
722.2887743570717
 20
1605.759223040568
 30
0.0
  0
ENDBLK
  5
5381
330
5376
100
AcDbEntity
  8
0
 62
     1
100
AcDbBlockEnd
  0
BLOCK
  5
539F
330
5395
100
AcDbEntity
  8
0
 62
     1
100
AcDbBlockBegin
  2
*D18
 70
     1
 10
0.0
 20
0.0
 30
0.0
  3
*D18
  1

  0
LINE
  5
9476
330
5395
100
AcDbEntity
  8
実形
 62
     0
370
    18
100
AcDbLine
 10
753.3502058085249
 20
1605.759223040568
 30
0.0
 11
722.2887743570717
 21
1605.759223040568
 31
0.0
  0
LINE
  5
9477
330
5395
100
AcDbEntity
  8
実形
 62
     0
370
    18
100
AcDbLine
 10
753.3502058085249
 20
1561.759223040568
 30
0.0
 11
722.2887743570717
 21
1561.759223040568
 31
0.0
  0
LINE
  5
9478
330
5395
100
AcDbEntity
  8
実形
 62
     0
370
    18
100
AcDbLine
 10
722.2887743570717
 20
1595.759223040568
 30
0.0
 11
722.2887743570717
 21
1571.759223040568
 31
0.0
  0
MTEXT
  5
9479
330
5395
100
AcDbEntity
  8
実形
 62
     0
100
AcDbMText
 10
783.9032377873027
 20
1587.245775589128
 30
0.0
 40
30.0
 41
0.0
 71
     5
 72
     1
  1
22
 11
0.0000000000000001
 21
1.0
 31
0.0
 73
     1
 44
1.0
1001
ACAD
1000
MTEXTBEGIN
1070
    73
1070
     1
1070
    44
1040
1.0
1070
    74
1070
     0
1000
MTEXTEND
  0
INSERT
  5
947A
330
5395
100
AcDbEntity
  8
実形
 62
     0
370
    18
100
AcDbBlockReference
  2
_Dot
 10
722.2887743570717
 20
1605.759223040568
 30
0.0
 41
10.0
 42
10.0
 43
10.0
 50
90.0
  0
INSERT
  5
947B
330
5395
100
AcDbEntity
  8
実形
 62
     0
370
    18
100
AcDbBlockReference
  2
_Dot
 10
722.2887743570717
 20
1561.759223040568
 30
0.0
 41
10.0
 42
10.0
 43
10.0
 50
270.0
  0
POINT
  5
947C
330
5395
100
AcDbEntity
  8
Defpoints
 62
     0
100
AcDbPoint
 10
818.3502058085251
 20
1605.759223040568
 30
0.0
  0
POINT
  5
947D
330
5395
100
AcDbEntity
  8
Defpoints
 62
     0
100
AcDbPoint
 10
818.3502058085251
 20
1561.759223040568
 30
0.0
  0
POINT
  5
947E
330
5395
100
AcDbEntity
  8
Defpoints
 62
     0
100
AcDbPoint
 10
722.2887743570717
 20
1561.759223040568
 30
0.0
  0
ENDBLK
  5
53A0
330
5395
100
AcDbEntity
  8
0
 62
     1
100
AcDbBlockEnd
  0
BLOCK
  5
53C7
330
53BD
100
AcDbEntity
  8
0
 62
     1
100
AcDbBlockBegin
  2
*D19
 70
     1
 10
0.0
 20
0.0
 30
0.0
  3
*D19
  1

  0
LINE
  5
9383
330
53BD
100
AcDbEntity
  8
実形
 62
     0
370
    18
100
AcDbLine
 10
752.0228547387342
 20
1645.759223040568
 30
0.0
 11
555.3174060899781
 21
1645.759223040568
 31
0.0
  0
LINE
  5
9384
330
53BD
100
AcDbEntity
  8
実形
 62
     0
370
    18
100
AcDbLine
 10
720.6471586503377
 20
757.759223040568
 30
0.0
 11
555.317406089978
 21
757.759223040568
 31
0.0
  0
LINE
  5
9385
330
53BD
100
AcDbEntity
  8
実形
 62
     0
370
    18
100
AcDbLine
 10
555.3174060899781
 20
1635.759223040568
 30
0.0
 11
555.317406089978
 21
767.759223040568
 31
0.0
  0
INSERT
  5
9386
330
53BD
100
AcDbEntity
  8
実形
 62
     0
370
    18
100
AcDbBlockReference
  2
_Dot
 10
555.3174060899781
 20
1645.759223040568
 30
0.0
 41
10.0
 42
10.0
 43
10.0
 50
90.0
  0
INSERT
  5
9387
330
53BD
100
AcDbEntity
  8
実形
 62
     0
370
    18
100
AcDbBlockReference
  2
_Dot
 10
555.317406089978
 20
757.759223040568
 30
0.0
 41
10.0
 42
10.0
 43
10.0
 50
270.0
  0
MTEXT
  5
9388
330
53BD
100
AcDbEntity
  8
実形
 62
     0
100
AcDbMText
 10
533.717406089978
 20
1201.759223040568
 30
0.0
 40
30.0
 41
0.0
 71
     5
 72
     1
  1
444
 11
0.0000000000000001
 21
1.0
 31
0.0
 73
     1
 44
1.0
1001
ACAD
1000
MTEXTBEGIN
1070
    73
1070
     1
1070
    44
1040
1.0
1070
    74
1070
     0
1000
MTEXTEND
  0
POINT
  5
9389
330
53BD
100
AcDbEntity
  8
Defpoints
 62
     0
100
AcDbPoint
 10
817.0228547387342
 20
1645.759223040568
 30
0.0
  0
POINT
  5
938A
330
53BD
100
AcDbEntity
  8
Defpoints
 62
     0
100
AcDbPoint
 10
785.6471586503374
 20
757.7592230405679
 30
0.0
  0
POINT
  5
938B
330
53BD
100
AcDbEntity
  8
Defpoints
 62
     0
100
AcDbPoint
 10
555.317406089978
 20
757.759223040568
 30
0.0
  0
ENDBLK
  5
53C8
330
53BD
100
AcDbEntity
  8
0
 62
     1
100
AcDbBlockEnd
  0
BLOCK
  5
53E6
330
53DC
100
AcDbEntity
  8
0
 62
     1
100
AcDbBlockBegin
  2
*D20
 70
     1
 10
0.0
 20
0.0
 30
0.0
  3
*D20
  1

  0
LINE
  5
946D
330
53DC
100
AcDbEntity
  8
実形
 62
     0
370
    18
100
AcDbLine
 10
753.3502058085249
 20
1561.759223040568
 30
0.0
 11
722.2887743570717
 21
1561.759223040568
 31
0.0
  0
LINE
  5
946E
330
53DC
100
AcDbEntity
  8
実形
 62
     0
370
    18
100
AcDbLine
 10
753.3502058085249
 20
1481.759223040568
 30
0.0
 11
722.2887743570717
 21
1481.759223040568
 31
0.0
  0
LINE
  5
946F
330
53DC
100
AcDbEntity
  8
実形
 62
     0
370
    18
100
AcDbLine
 10
722.2887743570717
 20
1551.759223040568
 30
0.0
 11
722.2887743570717
 21
1491.759223040568
 31
0.0
  0
INSERT
  5
9470
330
53DC
100
AcDbEntity
  8
実形
 62
     0
370
    18
100
AcDbBlockReference
  2
_Dot
 10
722.2887743570717
 20
1561.759223040568
 30
0.0
 41
10.0
 42
10.0
 43
10.0
 50
90.0
  0
INSERT
  5
9471
330
53DC
100
AcDbEntity
  8
実形
 62
     0
370
    18
100
AcDbBlockReference
  2
_Dot
 10
722.2887743570717
 20
1481.759223040568
 30
0.0
 41
10.0
 42
10.0
 43
10.0
 50
270.0
  0
MTEXT
  5
9472
330
53DC
100
AcDbEntity
  8
実形
 62
     0
100
AcDbMText
 10
700.6887743570715
 20
1521.759223040568
 30
0.0
 40
30.0
 41
0.0
 71
     5
 72
     1
  1
40
 11
0.0000000000000001
 21
1.0
 31
0.0
 73
     1
 44
1.0
1001
ACAD
1000
MTEXTBEGIN
1070
    73
1070
     1
1070
    44
1040
1.0
1070
    74
1070
     0
1000
MTEXTEND
  0
POINT
  5
9473
330
53DC
100
AcDbEntity
  8
Defpoints
 62
     0
100
AcDbPoint
 10
818.3502058085251
 20
1561.759223040568
 30
0.0
  0
POINT
  5
9474
330
53DC
100
AcDbEntity
  8
Defpoints
 62
     0
100
AcDbPoint
 10
818.3502058085251
 20
1481.759223040568
 30
0.0
  0
POINT
  5
9475
330
53DC
100
AcDbEntity
  8
Defpoints
 62
     0
100
AcDbPoint
 10
722.2887743570717
 20
1481.759223040568
 30
0.0
  0
ENDBLK
  5
53E7
330
53DC
100
AcDbEntity
  8
0
 62
     1
100
AcDbBlockEnd
  0
BLOCK
  5
5442
330
5438
100
AcDbEntity
  8
0
 62
     1
100
AcDbBlockBegin
  2
*D21
 70
     1
 10
0.0
 20
0.0
 30
0.0
  3
*D21
  1

  0
LINE
  5
9464
330
5438
100
AcDbEntity
  8
実形
 62
     0
370
    18
100
AcDbLine
 10
753.3502058085249
 20
1481.759223040568
 30
0.0
 11
722.2887743570717
 21
1481.759223040568
 31
0.0
  0
LINE
  5
9465
330
5438
100
AcDbEntity
  8
実形
 62
     0
370
    18
100
AcDbLine
 10
753.3502058085249
 20
1401.759223040568
 30
0.0
 11
722.2887743570717
 21
1401.759223040568
 31
0.0
  0
LINE
  5
9466
330
5438
100
AcDbEntity
  8
実形
 62
     0
370
    18
100
AcDbLine
 10
722.2887743570717
 20
1471.759223040568
 30
0.0
 11
722.2887743570717
 21
1411.759223040568
 31
0.0
  0
INSERT
  5
9467
330
5438
100
AcDbEntity
  8
実形
 62
     0
370
    18
100
AcDbBlockReference
  2
_Dot
 10
722.2887743570717
 20
1481.759223040568
 30
0.0
 41
10.0
 42
10.0
 43
10.0
 50
90.0
  0
INSERT
  5
9468
330
5438
100
AcDbEntity
  8
実形
 62
     0
370
    18
100
AcDbBlockReference
  2
_Dot
 10
722.2887743570717
 20
1401.759223040568
 30
0.0
 41
10.0
 42
10.0
 43
10.0
 50
270.0
  0
MTEXT
  5
9469
330
5438
100
AcDbEntity
  8
実形
 62
     0
100
AcDbMText
 10
700.6887743570715
 20
1441.759223040568
 30
0.0
 40
30.0
 41
0.0
 71
     5
 72
     1
  1
40
 11
0.0000000000000001
 21
1.0
 31
0.0
 73
     1
 44
1.0
1001
ACAD
1000
MTEXTBEGIN
1070
    73
1070
     1
1070
    44
1040
1.0
1070
    74
1070
     0
1000
MTEXTEND
  0
POINT
  5
946A
330
5438
100
AcDbEntity
  8
Defpoints
 62
     0
100
AcDbPoint
 10
818.3502058085251
 20
1481.759223040568
 30
0.0
  0
POINT
  5
946B
330
5438
100
AcDbEntity
  8
Defpoints
 62
     0
100
AcDbPoint
 10
818.3502058085251
 20
1401.759223040568
 30
0.0
  0
POINT
  5
946C
330
5438
100
AcDbEntity
  8
Defpoints
 62
     0
100
AcDbPoint
 10
722.2887743570717
 20
1401.759223040568
 30
0.0
  0
ENDBLK
  5
5443
330
5438
100
AcDbEntity
  8
0
 62
     1
100
AcDbBlockEnd
  0
BLOCK
  5
546B
330
5461
100
AcDbEntity
  8
0
 62
     1
100
AcDbBlockBegin
  2
*D22
 70
     1
 10
0.0
 20
0.0
 30
0.0
  3
*D22
  1

  0
LINE
  5
9440
330
5461
100
AcDbEntity
  8
実形
 62
     0
370
    18
100
AcDbLine
 10
753.350205808525
 20
1401.759223040568
 30
0.0
 11
722.2887743570717
 21
1401.759223040568
 31
0.0
  0
LINE
  5
9441
330
5461
100
AcDbEntity
  8
実形
 62
     0
370
    18
100
AcDbLine
 10
753.350205808525
 20
1321.759223040568
 30
0.0
 11
722.2887743570717
 21
1321.759223040568
 31
0.0
  0
LINE
  5
9442
330
5461
100
AcDbEntity
  8
実形
 62
     0
370
    18
100
AcDbLine
 10
722.2887743570717
 20
1391.759223040567
 30
0.0
 11
722.2887743570717
 21
1331.759223040568
 31
0.0
  0
INSERT
  5
9443
330
5461
100
AcDbEntity
  8
実形
 62
     0
370
    18
100
AcDbBlockReference
  2
_Dot
 10
722.2887743570717
 20
1401.759223040568
 30
0.0
 41
10.0
 42
10.0
 43
10.0
 50
90.0
  0
INSERT
  5
9444
330
5461
100
AcDbEntity
  8
実形
 62
     0
370
    18
100
AcDbBlockReference
  2
_Dot
 10
722.2887743570717
 20
1321.759223040568
 30
0.0
 41
10.0
 42
10.0
 43
10.0
 50
270.0
  0
MTEXT
  5
9445
330
5461
100
AcDbEntity
  8
実形
 62
     0
100
AcDbMText
 10
700.6887743570716
 20
1361.759223040568
 30
0.0
 40
30.0
 41
0.0
 71
     5
 72
     1
  1
40
 11
0.0000000000000001
 21
1.0
 31
0.0
 73
     1
 44
1.0
1001
ACAD
1000
MTEXTBEGIN
1070
    73
1070
     1
1070
    44
1040
1.0
1070
    74
1070
     0
1000
MTEXTEND
  0
POINT
  5
9446
330
5461
100
AcDbEntity
  8
Defpoints
 62
     0
100
AcDbPoint
 10
818.3502058085251
 20
1401.759223040568
 30
0.0
  0
POINT
  5
9447
330
5461
100
AcDbEntity
  8
Defpoints
 62
     0
100
AcDbPoint
 10
818.3502058085251
 20
1321.759223040568
 30
0.0
  0
POINT
  5
9448
330
5461
100
AcDbEntity
  8
Defpoints
 62
     0
100
AcDbPoint
 10
722.2887743570717
 20
1321.759223040568
 30
0.0
  0
ENDBLK
  5
546C
330
5461
100
AcDbEntity
  8
0
 62
     1
100
AcDbBlockEnd
  0
BLOCK
  5
54BD
330
54B3
100
AcDbEntity
  8
0
 62
     1
100
AcDbBlockBegin
  2
*D23
 70
     1
 10
0.0
 20
0.0
 30
0.0
  3
*D23
  1

  0
LINE
  5
945B
330
54B3
100
AcDbEntity
  8
実形
 62
     0
370
    18
100
AcDbLine
 10
753.3502058085249
 20
1161.759223040568
 30
0.0
 11
722.2887743570717
 21
1161.759223040568
 31
0.0
  0
LINE
  5
945C
330
54B3
100
AcDbEntity
  8
実形
 62
     0
370
    18
100
AcDbLine
 10
753.3502058085249
 20
1081.759223040568
 30
0.0
 11
722.2887743570717
 21
1081.759223040568
 31
0.0
  0
LINE
  5
945D
330
54B3
100
AcDbEntity
  8
実形
 62
     0
370
    18
100
AcDbLine
 10
722.2887743570717
 20
1151.759223040568
 30
0.0
 11
722.2887743570717
 21
1091.759223040568
 31
0.0
  0
INSERT
  5
945E
330
54B3
100
AcDbEntity
  8
実形
 62
     0
370
    18
100
AcDbBlockReference
  2
_Dot
 10
722.2887743570717
 20
1161.759223040568
 30
0.0
 41
10.0
 42
10.0
 43
10.0
 50
90.0
  0
INSERT
  5
945F
330
54B3
100
AcDbEntity
  8
実形
 62
     0
370
    18
100
AcDbBlockReference
  2
_Dot
 10
722.2887743570717
 20
1081.759223040568
 30
0.0
 41
10.0
 42
10.0
 43
10.0
 50
270.0
  0
MTEXT
  5
9460
330
54B3
100
AcDbEntity
  8
実形
 62
     0
100
AcDbMText
 10
700.6887743570716
 20
1121.759223040568
 30
0.0
 40
30.0
 41
0.0
 71
     5
 72
     1
  1
40
 11
0.0000000000000001
 21
1.0
 31
0.0
 73
     1
 44
1.0
1001
ACAD
1000
MTEXTBEGIN
1070
    73
1070
     1
1070
    44
1040
1.0
1070
    74
1070
     0
1000
MTEXTEND
  0
POINT
  5
9461
330
54B3
100
AcDbEntity
  8
Defpoints
 62
     0
100
AcDbPoint
 10
818.3502058085251
 20
1161.759223040568
 30
0.0
  0
POINT
  5
9462
330
54B3
100
AcDbEntity
  8
Defpoints
 62
     0
100
AcDbPoint
 10
818.3502058085251
 20
1081.759223040568
 30
0.0
  0
POINT
  5
9463
330
54B3
100
AcDbEntity
  8
Defpoints
 62
     0
100
AcDbPoint
 10
722.2887743570717
 20
1081.759223040568
 30
0.0
  0
ENDBLK
  5
54BE
330
54B3
100
AcDbEntity
  8
0
 62
     1
100
AcDbBlockEnd
  0
BLOCK
  5
550F
330
5505
100
AcDbEntity
  8
0
 62
     1
100
AcDbBlockBegin
  2
*D24
 70
     1
 10
0.0
 20
0.0
 30
0.0
  3
*D24
  1

  0
LINE
  5
93D4
330
5505
100
AcDbEntity
  8
実形
 62
     0
370
    18
100
AcDbLine
 10
753.3502058085249
 20
1001.759223040568
 30
0.0
 11
722.2887743570717
 21
1001.759223040568
 31
0.0
  0
LINE
  5
93D5
330
5505
100
AcDbEntity
  8
実形
 62
     0
370
    18
100
AcDbLine
 10
753.3502058085249
 20
921.7592230405683
 30
0.0
 11
722.2887743570717
 21
921.7592230405683
 31
0.0
  0
LINE
  5
93D6
330
5505
100
AcDbEntity
  8
実形
 62
     0
370
    18
100
AcDbLine
 10
722.2887743570717
 20
991.7592230405679
 30
0.0
 11
722.2887743570717
 21
931.7592230405683
 31
0.0
  0
INSERT
  5
93D7
330
5505
100
AcDbEntity
  8
実形
 62
     0
370
    18
100
AcDbBlockReference
  2
_Dot
 10
722.2887743570717
 20
1001.759223040568
 30
0.0
 41
10.0
 42
10.0
 43
10.0
 50
90.0
  0
INSERT
  5
93D8
330
5505
100
AcDbEntity
  8
実形
 62
     0
370
    18
100
AcDbBlockReference
  2
_Dot
 10
722.2887743570717
 20
921.7592230405683
 30
0.0
 41
10.0
 42
10.0
 43
10.0
 50
270.0
  0
MTEXT
  5
93D9
330
5505
100
AcDbEntity
  8
実形
 62
     0
100
AcDbMText
 10
700.6887743570716
 20
961.7592230405682
 30
0.0
 40
30.0
 41
0.0
 71
     5
 72
     1
  1
40
 11
0.0000000000000001
 21
1.0
 31
0.0
 73
     1
 44
1.0
1001
ACAD
1000
MTEXTBEGIN
1070
    73
1070
     1
1070
    44
1040
1.0
1070
    74
1070
     0
1000
MTEXTEND
  0
POINT
  5
93DA
330
5505
100
AcDbEntity
  8
Defpoints
 62
     0
100
AcDbPoint
 10
818.3502058085251
 20
1001.759223040568
 30
0.0
  0
POINT
  5
93DB
330
5505
100
AcDbEntity
  8
Defpoints
 62
     0
100
AcDbPoint
 10
818.3502058085251
 20
921.759223040568
 30
0.0
  0
POINT
  5
93DC
330
5505
100
AcDbEntity
  8
Defpoints
 62
     0
100
AcDbPoint
 10
722.2887743570717
 20
921.7592230405683
 30
0.0
  0
ENDBLK
  5
5510
330
5505
100
AcDbEntity
  8
0
 62
     1
100
AcDbBlockEnd
  0
BLOCK
  5
5538
330
552E
100
AcDbEntity
  8
0
 62
     1
100
AcDbBlockBegin
  2
*D25
 70
     1
 10
0.0
 20
0.0
 30
0.0
  3
*D25
  1

  0
LINE
  5
93CB
330
552E
100
AcDbEntity
  8
実形
 62
     0
370
    18
100
AcDbLine
 10
753.3502058085249
 20
921.759223040568
 30
0.0
 11
722.2887743570717
 21
921.759223040568
 31
0.0
  0
LINE
  5
93CC
330
552E
100
AcDbEntity
  8
実形
 62
     0
370
    18
100
AcDbLine
 10
753.3502058085249
 20
841.7592230405681
 30
0.0
 11
722.2887743570717
 21
841.7592230405681
 31
0.0
  0
LINE
  5
93CD
330
552E
100
AcDbEntity
  8
実形
 62
     0
370
    18
100
AcDbLine
 10
722.2887743570717
 20
911.7592230405682
 30
0.0
 11
722.2887743570717
 21
851.7592230405679
 31
0.0
  0
INSERT
  5
93CE
330
552E
100
AcDbEntity
  8
実形
 62
     0
370
    18
100
AcDbBlockReference
  2
_Dot
 10
722.2887743570717
 20
921.759223040568
 30
0.0
 41
10.0
 42
10.0
 43
10.0
 50
90.0
  0
INSERT
  5
93CF
330
552E
100
AcDbEntity
  8
実形
 62
     0
370
    18
100
AcDbBlockReference
  2
_Dot
 10
722.2887743570717
 20
841.7592230405681
 30
0.0
 41
10.0
 42
10.0
 43
10.0
 50
270.0
  0
MTEXT
  5
93D0
330
552E
100
AcDbEntity
  8
実形
 62
     0
100
AcDbMText
 10
700.6887743570715
 20
881.7592230405683
 30
0.0
 40
30.0
 41
0.0
 71
     5
 72
     1
  1
40
 11
0.0000000000000001
 21
1.0
 31
0.0
 73
     1
 44
1.0
1001
ACAD
1000
MTEXTBEGIN
1070
    73
1070
     1
1070
    44
1040
1.0
1070
    74
1070
     0
1000
MTEXTEND
  0
POINT
  5
93D1
330
552E
100
AcDbEntity
  8
Defpoints
 62
     0
100
AcDbPoint
 10
818.3502058085251
 20
921.759223040568
 30
0.0
  0
POINT
  5
93D2
330
552E
100
AcDbEntity
  8
Defpoints
 62
     0
100
AcDbPoint
 10
818.3502058085251
 20
841.7592230405681
 30
0.0
  0
POINT
  5
93D3
330
552E
100
AcDbEntity
  8
Defpoints
 62
     0
100
AcDbPoint
 10
722.2887743570717
 20
841.7592230405681
 30
0.0
  0
ENDBLK
  5
5539
330
552E
100
AcDbEntity
  8
0
 62
     1
100
AcDbBlockEnd
  0
BLOCK
  5
5562
330
5558
100
AcDbEntity
  8
0
 62
     1
100
AcDbBlockBegin
  2
*D26
 70
     1
 10
0.0
 20
0.0
 30
0.0
  3
*D26
  1

  0
LINE
  5
93C2
330
5558
100
AcDbEntity
  8
実形
 62
     0
370
    18
100
AcDbLine
 10
753.3502058085253
 20
841.7592230405681
 30
0.0
 11
722.288774357072
 21
841.7592230405681
 31
0.0
  0
LINE
  5
93C3
330
5558
100
AcDbEntity
  8
実形
 62
     0
370
    18
100
AcDbLine
 10
753.3502058085253
 20
797.759223040568
 30
0.0
 11
722.288774357072
 21
797.759223040568
 31
0.0
  0
LINE
  5
93C4
330
5558
100
AcDbEntity
  8
実形
 62
     0
370
    18
100
AcDbLine
 10
722.288774357072
 20
831.7592230405679
 30
0.0
 11
722.288774357072
 21
807.7592230405681
 31
0.0
  0
MTEXT
  5
93C5
330
5558
100
AcDbEntity
  8
実形
 62
     0
100
AcDbMText
 10
781.1468038694856
 20
813.7561970869574
 30
0.0
 40
30.0
 41
0.0
 71
     5
 72
     1
  1
22
 11
0.0000000000000001
 21
1.0
 31
0.0
 73
     1
 44
1.0
1001
ACAD
1000
MTEXTBEGIN
1070
    73
1070
     1
1070
    44
1040
1.0
1070
    74
1070
     0
1000
MTEXTEND
  0
INSERT
  5
93C6
330
5558
100
AcDbEntity
  8
実形
 62
     0
370
    18
100
AcDbBlockReference
  2
_Dot
 10
722.288774357072
 20
841.7592230405681
 30
0.0
 41
10.0
 42
10.0
 43
10.0
 50
90.0
  0
INSERT
  5
93C7
330
5558
100
AcDbEntity
  8
実形
 62
     0
370
    18
100
AcDbBlockReference
  2
_Dot
 10
722.288774357072
 20
797.759223040568
 30
0.0
 41
10.0
 42
10.0
 43
10.0
 50
270.0
  0
POINT
  5
93C8
330
5558
100
AcDbEntity
  8
Defpoints
 62
     0
100
AcDbPoint
 10
818.3502058085252
 20
841.7592230405679
 30
0.0
  0
POINT
  5
93C9
330
5558
100
AcDbEntity
  8
Defpoints
 62
     0
100
AcDbPoint
 10
818.3502058085252
 20
797.7592230405678
 30
0.0
  0
POINT
  5
93CA
330
5558
100
AcDbEntity
  8
Defpoints
 62
     0
100
AcDbPoint
 10
722.288774357072
 20
797.759223040568
 30
0.0
  0
ENDBLK
  5
5563
330
5558
100
AcDbEntity
  8
0
 62
     1
100
AcDbBlockEnd
  0
BLOCK
  5
558B
330
5581
100
AcDbEntity
  8
0
 62
     1
100
AcDbBlockBegin
  2
*D27
 70
     1
 10
0.0
 20
0.0
 30
0.0
  3
*D27
  1

  0
LINE
  5
93B9
330
5581
100
AcDbEntity
  8
実形
 62
     0
370
    18
100
AcDbLine
 10
753.3502058085249
 20
797.759223040568
 30
0.0
 11
722.2887743570721
 21
797.759223040568
 31
0.0
  0
LINE
  5
93BA
330
5581
100
AcDbEntity
  8
実形
 62
     0
370
    18
100
AcDbLine
 10
752.8885014543484
 20
757.759223040568
 30
0.0
 11
722.288774357072
 21
757.759223040568
 31
0.0
  0
LINE
  5
93BB
330
5581
100
AcDbEntity
  8
実形
 62
     0
370
    18
100
AcDbLine
 10
722.2887743570721
 20
787.7592230405682
 30
0.0
 11
722.288774357072
 21
767.759223040568
 31
0.0
  0
MTEXT
  5
93BC
330
5581
100
AcDbEntity
  8
実形
 62
     0
100
AcDbMText
 10
691.619571820267
 20
788.2843518961126
 30
0.0
 40
30.0
 41
0.0
 71
     5
 72
     1
  1
20
 11
0.0000000000000001
 21
1.0
 31
0.0
 73
     1
 44
1.0
1001
ACAD
1000
MTEXTBEGIN
1070
    73
1070
     1
1070
    44
1040
1.0
1070
    74
1070
     0
1000
MTEXTEND
  0
INSERT
  5
93BD
330
5581
100
AcDbEntity
  8
実形
 62
     0
370
    18
100
AcDbBlockReference
  2
_Dot
 10
722.2887743570721
 20
797.759223040568
 30
0.0
 41
10.0
 42
10.0
 43
10.0
 50
90.0
  0
INSERT
  5
93BE
330
5581
100
AcDbEntity
  8
実形
 62
     0
370
    18
100
AcDbBlockReference
  2
_Dot
 10
722.288774357072
 20
757.759223040568
 30
0.0
 41
10.0
 42
10.0
 43
10.0
 50
270.0
  0
POINT
  5
93BF
330
5581
100
AcDbEntity
  8
Defpoints
 62
     0
100
AcDbPoint
 10
818.3502058085251
 20
797.7592230405678
 30
0.0
  0
POINT
  5
93C0
330
5581
100
AcDbEntity
  8
Defpoints
 62
     0
100
AcDbPoint
 10
817.8885014543483
 20
757.7592230405679
 30
0.0
  0
POINT
  5
93C1
330
5581
100
AcDbEntity
  8
Defpoints
 62
     0
100
AcDbPoint
 10
722.288774357072
 20
757.759223040568
 30
0.0
  0
ENDBLK
  5
558C
330
5581
100
AcDbEntity
  8
0
 62
     1
100
AcDbBlockEnd
  0
BLOCK
  5
583E
330
5834
100
AcDbEntity
  8
0
 62
     1
100
AcDbBlockBegin
  2
*D28
 70
     1
 10
0.0
 20
0.0
 30
0.0
  3
*D28
  1

  0
LINE
  5
947F
330
5834
100
AcDbEntity
  8
実形
 62
     0
370
    18
100
AcDbLine
 10
898.7710340146241
 20
1786.370102653695
 30
0.0
 11
898.7710340146241
 21
1813.584460819132
 31
0.0
  0
LINE
  5
9480
330
5834
100
AcDbEntity
  8
実形
 62
     0
370
    18
100
AcDbLine
 10
1318.771034014624
 20
1786.370102653695
 30
0.0
 11
1318.771034014624
 21
1813.584460819132
 31
0.0
  0
LINE
  5
9481
330
5834
100
AcDbEntity
  8
実形
 62
     0
370
    18
100
AcDbLine
 10
908.7710340146239
 20
1813.584460819132
 30
0.0
 11
1308.771034014624
 21
1813.584460819132
 31
0.0
  0
INSERT
  5
9482
330
5834
100
AcDbEntity
  8
実形
 62
     0
370
    18
100
AcDbBlockReference
  2
_Dot
 10
898.7710340146241
 20
1813.584460819132
 30
0.0
 41
10.0
 42
10.0
 43
10.0
 50
180.0
  0
INSERT
  5
9483
330
5834
100
AcDbEntity
  8
実形
 62
     0
370
    18
100
AcDbBlockReference
  2
_Dot
 10
1318.771034014624
 20
1813.584460819132
 30
0.0
 41
10.0
 42
10.0
 43
10.0
  0
MTEXT
  5
9484
330
5834
100
AcDbEntity
  8
実形
 62
     0
100
AcDbMText
 10
1108.771034014624
 20
1835.184460819133
 30
0.0
 40
30.0
 41
0.0
 71
     5
 72
     1
  1
210
 73
     1
 44
1.0
1001
ACAD
1000
MTEXTBEGIN
1070
    73
1070
     1
1070
    44
1040
1.0
1070
    74
1070
     0
1000
MTEXTEND
  0
POINT
  5
9485
330
5834
100
AcDbEntity
  8
Defpoints
 62
     0
100
AcDbPoint
 10
898.7710340146241
 20
1721.370102653694
 30
0.0
  0
POINT
  5
9486
330
5834
100
AcDbEntity
  8
Defpoints
 62
     0
100
AcDbPoint
 10
1318.771034014624
 20
1721.370102653694
 30
0.0
  0
POINT
  5
9487
330
5834
100
AcDbEntity
  8
Defpoints
 62
     0
100
AcDbPoint
 10
1318.771034014624
 20
1813.584460819132
 30
0.0
  0
ENDBLK
  5
583F
330
5834
100
AcDbEntity
  8
0
 62
     1
100
AcDbBlockEnd
  0
BLOCK
  5
58F1
330
58E7
100
AcDbEntity
  8
0
 62
     1
100
AcDbBlockBegin
  2
*D29
 70
     1
 10
0.0
 20
0.0
 30
0.0
  3
*D29
  1

  0
LINE
  5
937A
330
58E7
100
AcDbEntity
  8
実形
 62
     0
370
    18
100
AcDbLine
 10
657.2887743570718
 20
1605.759223040568
 30
0.0
 11
619.6233729757949
 21
1605.759223040568
 31
0.0
  0
LINE
  5
937B
330
58E7
100
AcDbEntity
  8
実形
 62
     0
370
    18
100
AcDbLine
 10
644.9660216467328
 20
797.759223040568
 30
0.0
 11
619.6233729757947
 21
797.759223040568
 31
0.0
  0
LINE
  5
937C
330
58E7
100
AcDbEntity
  8
実形
 62
     0
370
    18
100
AcDbLine
 10
619.6233729757949
 20
1595.759223040568
 30
0.0
 11
619.6233729757947
 21
807.7592230405681
 31
0.0
  0
INSERT
  5
937D
330
58E7
100
AcDbEntity
  8
実形
 62
     0
370
    18
100
AcDbBlockReference
  2
_Dot
 10
619.6233729757949
 20
1605.759223040568
 30
0.0
 41
10.0
 42
10.0
 43
10.0
 50
90.0
  0
INSERT
  5
937E
330
58E7
100
AcDbEntity
  8
実形
 62
     0
370
    18
100
AcDbBlockReference
  2
_Dot
 10
619.6233729757947
 20
797.759223040568
 30
0.0
 41
10.0
 42
10.0
 43
10.0
 50
270.0
  0
MTEXT
  5
937F
330
58E7
100
AcDbEntity
  8
実形
 62
     0
100
AcDbMText
 10
598.0233729757947
 20
1201.759223040568
 30
0.0
 40
30.0
 41
0.0
 71
     5
 72
     1
  1
404
 11
0.0000000000000001
 21
1.0
 31
0.0
 73
     1
 44
1.0
1001
ACAD
1000
MTEXTBEGIN
1070
    73
1070
     1
1070
    44
1040
1.0
1070
    74
1070
     0
1000
MTEXTEND
  0
POINT
  5
9380
330
58E7
100
AcDbEntity
  8
Defpoints
 62
     0
100
AcDbPoint
 10
722.2887743570717
 20
1605.759223040568
 30
0.0
  0
POINT
  5
9381
330
58E7
100
AcDbEntity
  8
Defpoints
 62
     0
100
AcDbPoint
 10
709.9660216467327
 20
797.759223040568
 30
0.0
  0
POINT
  5
9382
330
58E7
100
AcDbEntity
  8
Defpoints
 62
     0
100
AcDbPoint
 10
619.6233729757947
 20
797.759223040568
 30
0.0
  0
ENDBLK
  5
58F2
330
58E7
100
AcDbEntity
  8
0
 62
     1
100
AcDbBlockEnd
  0
BLOCK
  5
5A7C
330
5A72
100
AcDbEntity
  8
0
 62
     1
100
AcDbBlockBegin
  2
*D30
 70
     1
 10
0.0
 20
0.0
 30
0.0
  3
*D30
  1

  0
LINE
  5
938C
330
5A72
100
AcDbEntity
  8
実形
 62
     0
370
    18
100
AcDbLine
 10
481.2262290892939
 20
513.3378185481269
 30
0.0
 11
481.2262290892939
 21
546.1636602592935
 31
0.0
  0
LINE
  5
938D
330
5A72
100
AcDbEntity
  8
実形
 62
     0
370
    18
100
AcDbLine
 10
681.2262290892939
 20
513.3378185481269
 30
0.0
 11
681.2262290892939
 21
546.1636602592935
 31
0.0
  0
LINE
  5
938E
330
5A72
100
AcDbEntity
  8
実形
 62
     0
370
    18
100
AcDbLine
 10
491.2262290892939
 20
546.1636602592935
 30
0.0
 11
671.2262290892939
 21
546.1636602592935
 31
0.0
  0
INSERT
  5
938F
330
5A72
100
AcDbEntity
  8
実形
 62
     0
370
    18
100
AcDbBlockReference
  2
_Dot
 10
481.2262290892939
 20
546.1636602592935
 30
0.0
 41
10.0
 42
10.0
 43
10.0
 50
180.0
  0
INSERT
  5
9390
330
5A72
100
AcDbEntity
  8
実形
 62
     0
370
    18
100
AcDbBlockReference
  2
_Dot
 10
681.2262290892939
 20
546.1636602592935
 30
0.0
 41
10.0
 42
10.0
 43
10.0
  0
MTEXT
  5
9391
330
5A72
100
AcDbEntity
  8
実形
 62
     0
100
AcDbMText
 10
581.2262290892939
 20
567.7636602592935
 30
0.0
 40
30.0
 41
0.0
 71
     5
 72
     1
  1
20
 73
     1
 44
1.0
1001
ACAD
1000
MTEXTBEGIN
1070
    73
1070
     1
1070
    44
1040
1.0
1070
    74
1070
     0
1000
MTEXTEND
  0
POINT
  5
9392
330
5A72
100
AcDbEntity
  8
Defpoints
 62
     0
100
AcDbPoint
 10
481.2262290892939
 20
448.3378185481269
 30
0.0
  0
POINT
  5
9393
330
5A72
100
AcDbEntity
  8
Defpoints
 62
     0
100
AcDbPoint
 10
681.2262290892939
 20
448.3378185481269
 30
0.0
  0
POINT
  5
9394
330
5A72
100
AcDbEntity
  8
Defpoints
 62
     0
100
AcDbPoint
 10
681.2262290892939
 20
546.1636602592935
 30
0.0
  0
ENDBLK
  5
5A7D
330
5A72
100
AcDbEntity
  8
0
 62
     1
100
AcDbBlockEnd
  0
BLOCK
  5
5AA7
330
5A9B
100
AcDbEntity
  8
0
 62
     1
100
AcDbBlockBegin
  2
*D31
 70
     1
 10
0.0
 20
0.0
 30
0.0
  3
*D31
  1

  0
LINE
  5
92F8
330
5A9B
100
AcDbEntity
  8
実形
 62
     0
370
    18
100
AcDbLine
 10
441.9188318196228
 20
448.3378185481269
 30
0.0
 11
405.3733907900913
 21
448.3378185481269
 31
0.0
  0
LINE
  5
92F9
330
5A9B
100
AcDbEntity
  8
実形
 62
     0
370
    18
100
AcDbLine
 10
441.9188318196228
 20
436.3378185481269
 30
0.0
 11
405.3733907900913
 21
436.3378185481269
 31
0.0
  0
LINE
  5
92FA
330
5A9B
100
AcDbEntity
  8
実形
 62
     0
370
    18
100
AcDbLine
 10
405.3733907900913
 20
458.337818548127
 30
0.0
 11
405.3733907900913
 21
468.3378185481268
 31
0.0
  0
LINE
  5
92FB
330
5A9B
100
AcDbEntity
  8
実形
 62
     0
370
    18
100
AcDbLine
 10
405.3733907900913
 20
426.3378185481268
 30
0.0
 11
405.3733907900913
 21
416.3378185481269
 31
0.0
  0
MTEXT
  5
92FC
330
5A9B
100
AcDbEntity
  8
実形
 62
     0
100
AcDbMText
 10
380.4733907900914
 20
485.2191953502314
 30
0.0
 40
30.0
 41
0.0
 71
     5
 72
     1
  1
1.2
 11
0.0000000000000001
 21
1.0
 31
0.0
 73
     1
 44
1.0
1001
ACAD
1000
MTEXTBEGIN
1070
    73
1070
     1
1070
    44
1040
1.0
1070
    74
1070
     0
1000
MTEXTEND
  0
LINE
  5
92FD
330
5A9B
100
AcDbEntity
  8
実形
 62
     0
370
    18
100
AcDbLine
 10
405.3733907900913
 20
448.3378185481269
 30
0.0
 11
405.3733907900913
 21
436.3378185481269
 31
0.0
  0
INSERT
  5
92FE
330
5A9B
100
AcDbEntity
  8
実形
 62
     0
370
    18
100
AcDbBlockReference
  2
_Dot
 10
405.3733907900913
 20
448.3378185481269
 30
0.0
 41
10.0
 42
10.0
 43
10.0
 50
270.0
  0
INSERT
  5
92FF
330
5A9B
100
AcDbEntity
  8
実形
 62
     0
370
    18
100
AcDbBlockReference
  2
_Dot
 10
405.3733907900913
 20
436.3378185481269
 30
0.0
 41
10.0
 42
10.0
 43
10.0
 50
90.0
  0
POINT
  5
9300
330
5A9B
100
AcDbEntity
  8
Defpoints
 62
     0
100
AcDbPoint
 10
506.9188318196228
 20
448.3378185481269
 30
0.0
  0
POINT
  5
9301
330
5A9B
100
AcDbEntity
  8
Defpoints
 62
     0
100
AcDbPoint
 10
506.9188318196228
 20
436.3378185481269
 30
0.0
  0
POINT
  5
9302
330
5A9B
100
AcDbEntity
  8
Defpoints
 62
     0
100
AcDbPoint
 10
405.3733907900913
 20
436.3378185481269
 30
0.0
  0
ENDBLK
  5
5AA8
330
5A9B
100
AcDbEntity
  8
0
 62
     1
100
AcDbBlockEnd
  0
BLOCK
  5
5AD8
330
5ACE
100
AcDbEntity
  8
0
 62
     3
100
AcDbBlockBegin
  2
*D32
 70
     1
 10
0.0
 20
0.0
 30
0.0
  3
*D32
  1

  0
LINE
  5
92E4
330
5ACE
100
AcDbEntity
  8
実形
 62
     0
370
    18
100
AcDbLine
 10
406.2262290892939
 20
436.3378185481269
 30
0.0
 11
405.3733907900913
 21
436.3378185481269
 31
0.0
  0
LINE
  5
92E5
330
5ACE
100
AcDbEntity
  8
実形
 62
     0
370
    18
100
AcDbLine
 10
406.2262290892939
 20
310.3378185481271
 30
0.0
 11
405.3733907900913
 21
310.3378185481271
 31
0.0
  0
LINE
  5
92E6
330
5ACE
100
AcDbEntity
  8
実形
 62
     0
370
    18
100
AcDbLine
 10
405.3733907900913
 20
426.3378185481268
 30
0.0
 11
405.3733907900913
 21
320.3378185481271
 31
0.0
  0
INSERT
  5
92E7
330
5ACE
100
AcDbEntity
  8
実形
 62
     0
370
    18
100
AcDbBlockReference
  2
_Dot
 10
405.3733907900913
 20
436.3378185481269
 30
0.0
 41
10.0
 42
10.0
 43
10.0
 50
90.0
  0
INSERT
  5
92E8
330
5ACE
100
AcDbEntity
  8
実形
 62
     0
370
    18
100
AcDbBlockReference
  2
_Dot
 10
405.3733907900913
 20
310.3378185481271
 30
0.0
 41
10.0
 42
10.0
 43
10.0
 50
270.0
  0
MTEXT
  5
92E9
330
5ACE
100
AcDbEntity
  8
実形
 62
     0
100
AcDbMText
 10
383.7733907900913
 20
373.3378185481272
 30
0.0
 40
30.0
 41
0.0
 71
     5
 72
     1
  1
12.6
 11
0.0000000000000001
 21
1.0
 31
0.0
 73
     1
 44
1.0
1001
ACAD
1000
MTEXTBEGIN
1070
    73
1070
     1
1070
    44
1040
1.0
1070
    74
1070
     0
1000
MTEXTEND
  0
POINT
  5
92EA
330
5ACE
100
AcDbEntity
  8
Defpoints
 62
     0
100
AcDbPoint
 10
471.2262290892939
 20
436.3378185481269
 30
0.0
  0
POINT
  5
92EB
330
5ACE
100
AcDbEntity
  8
Defpoints
 62
     0
100
AcDbPoint
 10
471.2262290892939
 20
310.3378185481271
 30
0.0
  0
POINT
  5
92EC
330
5ACE
100
AcDbEntity
  8
Defpoints
 62
     0
100
AcDbPoint
 10
405.3733907900913
 20
310.3378185481271
 30
0.0
  0
ENDBLK
  5
5AD9
330
5ACE
100
AcDbEntity
  8
0
 62
     3
100
AcDbBlockEnd
  0
BLOCK
  5
5AE6
330
5ADC
100
AcDbEntity
  8
0
 62
     3
100
AcDbBlockBegin
  2
*D33
 70
     1
 10
0.0
 20
0.0
 30
0.0
  3
*D33
  1

  0
LINE
  5
92DB
330
5ADC
100
AcDbEntity
  8
実形
 62
     0
370
    18
100
AcDbLine
 10
406.2262290892939
 20
448.3378185481269
 30
0.0
 11
305.1415371966542
 21
448.3378185481269
 31
0.0
  0
LINE
  5
92DC
330
5ADC
100
AcDbEntity
  8
実形
 62
     0
370
    18
100
AcDbLine
 10
406.2262290892939
 20
298.3378185481269
 30
0.0
 11
305.1415371966542
 21
298.3378185481269
 31
0.0
  0
LINE
  5
92DD
330
5ADC
100
AcDbEntity
  8
実形
 62
     0
370
    18
100
AcDbLine
 10
305.1415371966542
 20
438.3378185481269
 30
0.0
 11
305.1415371966542
 21
308.337818548127
 31
0.0
  0
INSERT
  5
92DE
330
5ADC
100
AcDbEntity
  8
実形
 62
     0
370
    18
100
AcDbBlockReference
  2
_Dot
 10
305.1415371966542
 20
448.3378185481269
 30
0.0
 41
10.0
 42
10.0
 43
10.0
 50
90.0
  0
INSERT
  5
92DF
330
5ADC
100
AcDbEntity
  8
実形
 62
     0
370
    18
100
AcDbBlockReference
  2
_Dot
 10
305.1415371966542
 20
298.3378185481269
 30
0.0
 41
10.0
 42
10.0
 43
10.0
 50
270.0
  0
MTEXT
  5
92E0
330
5ADC
100
AcDbEntity
  8
実形
 62
     0
100
AcDbMText
 10
283.541537196654
 20
373.3378185481271
 30
0.0
 40
30.0
 41
0.0
 71
     5
 72
     1
  1
15
 11
0.0000000000000001
 21
1.0
 31
0.0
 73
     1
 44
1.0
1001
ACAD
1000
MTEXTBEGIN
1070
    73
1070
     1
1070
    44
1040
1.0
1070
    74
1070
     0
1000
MTEXTEND
  0
POINT
  5
92E1
330
5ADC
100
AcDbEntity
  8
Defpoints
 62
     0
100
AcDbPoint
 10
471.2262290892939
 20
448.3378185481269
 30
0.0
  0
POINT
  5
92E2
330
5ADC
100
AcDbEntity
  8
Defpoints
 62
     0
100
AcDbPoint
 10
471.2262290892939
 20
298.3378185481269
 30
0.0
  0
POINT
  5
92E3
330
5ADC
100
AcDbEntity
  8
Defpoints
 62
     0
100
AcDbPoint
 10
305.1415371966542
 20
298.3378185481269
 30
0.0
  0
ENDBLK
  5
5AE7
330
5ADC
100
AcDbEntity
  8
0
 62
     3
100
AcDbBlockEnd
  0
BLOCK
  5
5B1D
330
5B11
100
AcDbEntity
  8
0
 62
     3
100
AcDbBlockBegin
  2
*D34
 70
     1
 10
0.0
 20
0.0
 30
0.0
  3
*D34
  1

  0
LINE
  5
92ED
330
5B11
100
AcDbEntity
  8
実形
 62
     0
370
    18
100
AcDbLine
 10
440.6207209480943
 20
310.3378185481271
 30
0.0
 11
405.3733907900913
 21
310.3378185481271
 31
0.0
  0
LINE
  5
92EE
330
5B11
100
AcDbEntity
  8
実形
 62
     0
370
    18
100
AcDbLine
 10
442.2759843879448
 20
298.3378185481269
 30
0.0
 11
405.3733907900913
 21
298.3378185481269
 31
0.0
  0
LINE
  5
92EF
330
5B11
100
AcDbEntity
  8
実形
 62
     0
370
    18
100
AcDbLine
 10
405.3733907900913
 20
320.3378185481271
 30
0.0
 11
405.3733907900913
 21
330.3378185481272
 31
0.0
  0
LINE
  5
92F0
330
5B11
100
AcDbEntity
  8
実形
 62
     0
370
    18
100
AcDbLine
 10
405.3733907900913
 20
288.3378185481269
 30
0.0
 11
405.3733907900913
 21
278.337818548127
 31
0.0
  0
MTEXT
  5
92F1
330
5B11
100
AcDbEntity
  8
実形
 62
     0
100
AcDbMText
 10
380.4733907900914
 20
261.6838978052474
 30
0.0
 40
30.0
 41
0.0
 71
     5
 72
     1
  1
1.2
 11
0.0000000000000001
 21
1.0
 31
0.0
 73
     1
 44
1.0
1001
ACAD
1000
MTEXTBEGIN
1070
    73
1070
     1
1070
    44
1040
1.0
1070
    74
1070
     0
1000
MTEXTEND
  0
LINE
  5
92F2
330
5B11
100
AcDbEntity
  8
実形
 62
     0
370
    18
100
AcDbLine
 10
405.3733907900913
 20
310.3378185481271
 30
0.0
 11
405.3733907900913
 21
298.3378185481269
 31
0.0
  0
INSERT
  5
92F3
330
5B11
100
AcDbEntity
  8
実形
 62
     0
370
    18
100
AcDbBlockReference
  2
_Dot
 10
405.3733907900913
 20
310.3378185481271
 30
0.0
 41
10.0
 42
10.0
 43
10.0
 50
270.0
  0
INSERT
  5
92F4
330
5B11
100
AcDbEntity
  8
実形
 62
     0
370
    18
100
AcDbBlockReference
  2
_Dot
 10
405.3733907900913
 20
298.3378185481269
 30
0.0
 41
10.0
 42
10.0
 43
10.0
 50
90.0
  0
POINT
  5
92F5
330
5B11
100
AcDbEntity
  8
Defpoints
 62
     0
100
AcDbPoint
 10
505.6207209480944
 20
310.3378185481271
 30
0.0
  0
POINT
  5
92F6
330
5B11
100
AcDbEntity
  8
Defpoints
 62
     0
100
AcDbPoint
 10
507.2759843879447
 20
298.3378185481269
 30
0.0
  0
POINT
  5
92F7
330
5B11
100
AcDbEntity
  8
Defpoints
 62
     0
100
AcDbPoint
 10
405.3733907900913
 20
298.3378185481269
 30
0.0
  0
ENDBLK
  5
5B1E
330
5B11
100
AcDbEntity
  8
0
 62
     3
100
AcDbBlockEnd
  0
BLOCK
  5
5F35
330
5F2B
100
AcDbEntity
  8
0
 62
     3
100
AcDbBlockBegin
  2
*D35
 70
     1
 10
0.0
 20
0.0
 30
0.0
  3
*D35
  1

  0
LINE
  5
931E
330
5F2B
100
AcDbEntity
  8
実形
 62
     0
370
    18
100
AcDbLine
 10
681.2262290892943
 20
259.073117412454
 30
0.0
 11
681.2262290892943
 21
220.426580581212
 31
0.0
  0
LINE
  5
931F
330
5F2B
100
AcDbEntity
  8
実形
 62
     0
370
    18
100
AcDbLine
 10
931.226229089294
 20
257.6436135040298
 30
0.0
 11
931.226229089294
 21
220.426580581212
 31
0.0
  0
LINE
  5
9320
330
5F2B
100
AcDbEntity
  8
実形
 62
     0
370
    18
100
AcDbLine
 10
691.2262290892942
 20
220.426580581212
 30
0.0
 11
921.2262290892939
 21
220.426580581212
 31
0.0
  0
INSERT
  5
9321
330
5F2B
100
AcDbEntity
  8
実形
 62
     0
370
    18
100
AcDbBlockReference
  2
_Dot
 10
681.2262290892943
 20
220.426580581212
 30
0.0
 41
10.0
 42
10.0
 43
10.0
 50
180.0
  0
INSERT
  5
9322
330
5F2B
100
AcDbEntity
  8
実形
 62
     0
370
    18
100
AcDbBlockReference
  2
_Dot
 10
931.226229089294
 20
220.426580581212
 30
0.0
 41
10.0
 42
10.0
 43
10.0
  0
MTEXT
  5
9323
330
5F2B
100
AcDbEntity
  8
実形
 62
     0
100
AcDbMText
 10
806.2262290892942
 20
242.026580581212
 30
0.0
 40
30.0
 41
0.0
 71
     5
 72
     1
  1
25
 73
     1
 44
1.0
1001
ACAD
1000
MTEXTBEGIN
1070
    73
1070
     1
1070
    44
1040
1.0
1070
    74
1070
     0
1000
MTEXTEND
  0
POINT
  5
9324
330
5F2B
100
AcDbEntity
  8
Defpoints
 62
     0
100
AcDbPoint
 10
681.2262290892943
 20
324.0731174124539
 30
0.0
  0
POINT
  5
9325
330
5F2B
100
AcDbEntity
  8
Defpoints
 62
     0
100
AcDbPoint
 10
931.226229089294
 20
322.6436135040298
 30
0.0
  0
POINT
  5
9326
330
5F2B
100
AcDbEntity
  8
Defpoints
 62
     0
100
AcDbPoint
 10
931.226229089294
 20
220.426580581212
 30
0.0
  0
ENDBLK
  5
5F36
330
5F2B
100
AcDbEntity
  8
0
 62
     3
100
AcDbBlockEnd
  0
BLOCK
  5
5F55
330
5F4B
100
AcDbEntity
  8
0
 62
     3
100
AcDbBlockBegin
  2
*D36
 70
     1
 10
0.0
 20
0.0
 30
0.0
  3
*D36
  1

  0
LINE
  5
930C
330
5F4B
100
AcDbEntity
  8
実形
 62
     0
370
    18
100
AcDbLine
 10
891.2262290892941
 20
342.7941797056119
 30
0.0
 11
891.2262290892941
 21
371.5523651500626
 31
0.0
  0
LINE
  5
930D
330
5F4B
100
AcDbEntity
  8
実形
 62
     0
370
    18
100
AcDbLine
 10
971.2262290892939
 20
342.7941797056119
 30
0.0
 11
971.2262290892939
 21
371.5523651500626
 31
0.0
  0
LINE
  5
930E
330
5F4B
100
AcDbEntity
  8
実形
 62
     0
370
    18
100
AcDbLine
 10
901.2262290892939
 20
371.5523651500626
 30
0.0
 11
961.2262290892939
 21
371.5523651500626
 31
0.0
  0
INSERT
  5
930F
330
5F4B
100
AcDbEntity
  8
実形
 62
     0
370
    18
100
AcDbBlockReference
  2
_Dot
 10
891.2262290892941
 20
371.5523651500626
 30
0.0
 41
10.0
 42
10.0
 43
10.0
 50
180.0
  0
INSERT
  5
9310
330
5F4B
100
AcDbEntity
  8
実形
 62
     0
370
    18
100
AcDbBlockReference
  2
_Dot
 10
971.2262290892939
 20
371.5523651500626
 30
0.0
 41
10.0
 42
10.0
 43
10.0
  0
MTEXT
  5
9311
330
5F4B
100
AcDbEntity
  8
実形
 62
     0
100
AcDbMText
 10
931.226229089294
 20
393.1523651500626
 30
0.0
 40
30.0
 41
0.0
 71
     5
 72
     1
  1
8
 73
     1
 44
1.0
1001
ACAD
1000
MTEXTBEGIN
1070
    73
1070
     1
1070
    44
1040
1.0
1070
    74
1070
     0
1000
MTEXTEND
  0
POINT
  5
9312
330
5F4B
100
AcDbEntity
  8
Defpoints
 62
     0
100
AcDbPoint
 10
891.2262290892941
 20
277.7941797056119
 30
0.0
  0
POINT
  5
9313
330
5F4B
100
AcDbEntity
  8
Defpoints
 62
     0
100
AcDbPoint
 10
971.2262290892939
 20
277.7941797056119
 30
0.0
  0
POINT
  5
9314
330
5F4B
100
AcDbEntity
  8
Defpoints
 62
     0
100
AcDbPoint
 10
971.2262290892939
 20
371.5523651500626
 30
0.0
  0
ENDBLK
  5
5F56
330
5F4B
100
AcDbEntity
  8
0
 62
     3
100
AcDbBlockEnd
  0
BLOCK
  5
5FA3
330
5F99
100
AcDbEntity
  8
0
 62
     3
100
AcDbBlockBegin
  2
*D37
 70
     1
 10
0.0
 20
0.0
 30
0.0
  3
*D37
  1

  0
LINE
  5
9303
330
5F99
100
AcDbEntity
  8
実形
 62
     0
370
    18
100
AcDbLine
 10
1291.226229089294
 20
342.7941797056119
 30
0.0
 11
1291.226229089294
 21
371.5523651500626
 31
0.0
  0
LINE
  5
9304
330
5F99
100
AcDbEntity
  8
実形
 62
     0
370
    18
100
AcDbLine
 10
1371.226229089294
 20
342.7941797056119
 30
0.0
 11
1371.226229089294
 21
371.5523651500626
 31
0.0
  0
LINE
  5
9305
330
5F99
100
AcDbEntity
  8
実形
 62
     0
370
    18
100
AcDbLine
 10
1301.226229089294
 20
371.5523651500626
 30
0.0
 11
1361.226229089294
 21
371.5523651500626
 31
0.0
  0
INSERT
  5
9306
330
5F99
100
AcDbEntity
  8
実形
 62
     0
370
    18
100
AcDbBlockReference
  2
_Dot
 10
1291.226229089294
 20
371.5523651500626
 30
0.0
 41
10.0
 42
10.0
 43
10.0
 50
180.0
  0
INSERT
  5
9307
330
5F99
100
AcDbEntity
  8
実形
 62
     0
370
    18
100
AcDbBlockReference
  2
_Dot
 10
1371.226229089294
 20
371.5523651500626
 30
0.0
 41
10.0
 42
10.0
 43
10.0
  0
MTEXT
  5
9308
330
5F99
100
AcDbEntity
  8
実形
 62
     0
100
AcDbMText
 10
1331.226229089294
 20
393.1523651500626
 30
0.0
 40
30.0
 41
0.0
 71
     5
 72
     1
  1
8
 73
     1
 44
1.0
1001
ACAD
1000
MTEXTBEGIN
1070
    73
1070
     1
1070
    44
1040
1.0
1070
    74
1070
     0
1000
MTEXTEND
  0
POINT
  5
9309
330
5F99
100
AcDbEntity
  8
Defpoints
 62
     0
100
AcDbPoint
 10
1291.226229089294
 20
277.7941797056119
 30
0.0
  0
POINT
  5
930A
330
5F99
100
AcDbEntity
  8
Defpoints
 62
     0
100
AcDbPoint
 10
1371.226229089294
 20
277.7941797056119
 30
0.0
  0
POINT
  5
930B
330
5F99
100
AcDbEntity
  8
Defpoints
 62
     0
100
AcDbPoint
 10
1371.226229089294
 20
371.5523651500626
 30
0.0
  0
ENDBLK
  5
5FA4
330
5F99
100
AcDbEntity
  8
0
 62
     3
100
AcDbBlockEnd
  0
BLOCK
  5
5FBA
330
5FB0
100
AcDbEntity
  8
0
 62
     3
100
AcDbBlockBegin
  2
*D38
 70
     1
 10
0.0
 20
0.0
 30
0.0
  3
*D38
  1

  0
LINE
  5
9315
330
5FB0
100
AcDbEntity
  8
実形
 62
     0
370
    18
100
AcDbLine
 10
931.226229089294
 20
233.3378185481274
 30
0.0
 11
931.226229089294
 21
220.426580581212
 31
0.0
  0
LINE
  5
9316
330
5FB0
100
AcDbEntity
  8
実形
 62
     0
370
    18
100
AcDbLine
 10
1331.226229089294
 20
257.4060837368543
 30
0.0
 11
1331.226229089294
 21
220.426580581212
 31
0.0
  0
LINE
  5
9317
330
5FB0
100
AcDbEntity
  8
実形
 62
     0
370
    18
100
AcDbLine
 10
941.226229089294
 20
220.426580581212
 30
0.0
 11
1321.226229089294
 21
220.426580581212
 31
0.0
  0
INSERT
  5
9318
330
5FB0
100
AcDbEntity
  8
実形
 62
     0
370
    18
100
AcDbBlockReference
  2
_Dot
 10
931.226229089294
 20
220.426580581212
 30
0.0
 41
10.0
 42
10.0
 43
10.0
 50
180.0
  0
INSERT
  5
9319
330
5FB0
100
AcDbEntity
  8
実形
 62
     0
370
    18
100
AcDbBlockReference
  2
_Dot
 10
1331.226229089294
 20
220.426580581212
 30
0.0
 41
10.0
 42
10.0
 43
10.0
  0
MTEXT
  5
931A
330
5FB0
100
AcDbEntity
  8
実形
 62
     0
100
AcDbMText
 10
1131.226229089294
 20
242.026580581212
 30
0.0
 40
30.0
 41
0.0
 71
     5
 72
     1
  1
40
 73
     1
 44
1.0
1001
ACAD
1000
MTEXTBEGIN
1070
    73
1070
     1
1070
    44
1040
1.0
1070
    74
1070
     0
1000
MTEXTEND
  0
POINT
  5
931B
330
5FB0
100
AcDbEntity
  8
Defpoints
 62
     0
100
AcDbPoint
 10
931.226229089294
 20
298.3378185481273
 30
0.0
  0
POINT
  5
931C
330
5FB0
100
AcDbEntity
  8
Defpoints
 62
     0
100
AcDbPoint
 10
1331.226229089294
 20
322.4060837368543
 30
0.0
  0
POINT
  5
931D
330
5FB0
100
AcDbEntity
  8
Defpoints
 62
     0
100
AcDbPoint
 10
1331.226229089294
 20
220.426580581212
 30
0.0
  0
ENDBLK
  5
5FBB
330
5FB0
100
AcDbEntity
  8
0
 62
     3
100
AcDbBlockEnd
  0
BLOCK
  5
5FED
330
5FE1
100
AcDbEntity
  8
0
 62
     3
100
AcDbBlockBegin
  2
*D39
 70
     1
 10
0.0
 20
0.0
 30
0.0
  3
*D39
  1

  0
LINE
  5
9327
330
5FE1
100
AcDbEntity
  8
実形
 62
     0
370
    18
100
AcDbLine
 10
669.2262290892945
 20
258.5870671043231
 30
0.0
 11
669.2262290892945
 21
220.426580581212
 31
0.0
  0
LINE
  5
9328
330
5FE1
100
AcDbEntity
  8
実形
 62
     0
370
    18
100
AcDbLine
 10
681.2262290892943
 20
251.3378185481271
 30
0.0
 11
681.2262290892943
 21
220.426580581212
 31
0.0
  0
LINE
  5
9329
330
5FE1
100
AcDbEntity
  8
実形
 62
     0
370
    18
100
AcDbLine
 10
659.2262290892945
 20
220.426580581212
 30
0.0
 11
649.2262290892945
 21
220.426580581212
 31
0.0
  0
LINE
  5
932A
330
5FE1
100
AcDbEntity
  8
実形
 62
     0
370
    18
100
AcDbLine
 10
691.2262290892942
 20
220.426580581212
 30
0.0
 11
701.2262290892943
 21
220.426580581212
 31
0.0
  0
MTEXT
  5
932B
330
5FE1
100
AcDbEntity
  8
実形
 62
     0
100
AcDbMText
 10
627.2309822356474
 20
244.9946480099443
 30
0.0
 40
30.0
 41
0.0
 71
     5
 72
     1
  1
1.2
 73
     1
 44
1.0
1001
ACAD
1000
MTEXTBEGIN
1070
    73
1070
     1
1070
    44
1040
1.0
1070
    74
1070
     0
1000
MTEXTEND
  0
LINE
  5
932C
330
5FE1
100
AcDbEntity
  8
実形
 62
     0
370
    18
100
AcDbLine
 10
669.2262290892945
 20
220.426580581212
 30
0.0
 11
681.2262290892943
 21
220.426580581212
 31
0.0
  0
INSERT
  5
932D
330
5FE1
100
AcDbEntity
  8
実形
 62
     0
370
    18
100
AcDbBlockReference
  2
_Dot
 10
669.2262290892945
 20
220.426580581212
 30
0.0
 41
10.0
 42
10.0
 43
10.0
  0
INSERT
  5
932E
330
5FE1
100
AcDbEntity
  8
実形
 62
     0
370
    18
100
AcDbBlockReference
  2
_Dot
 10
681.2262290892943
 20
220.426580581212
 30
0.0
 41
10.0
 42
10.0
 43
10.0
 50
180.0
  0
POINT
  5
932F
330
5FE1
100
AcDbEntity
  8
Defpoints
 62
     0
100
AcDbPoint
 10
669.2262290892945
 20
323.5870671043231
 30
0.0
  0
POINT
  5
9330
330
5FE1
100
AcDbEntity
  8
Defpoints
 62
     0
100
AcDbPoint
 10
681.2262290892943
 20
316.3378185481271
 30
0.0
  0
POINT
  5
9331
330
5FE1
100
AcDbEntity
  8
Defpoints
 62
     0
100
AcDbPoint
 10
681.2262290892943
 20
220.426580581212
 30
0.0
  0
ENDBLK
  5
5FEE
330
5FE1
100
AcDbEntity
  8
0
 62
     3
100
AcDbBlockEnd
  0
BLOCK
  5
6371
330
6367
100
AcDbEntity
  8
0
 62
     3
100
AcDbBlockBegin
  2
*D40
 70
     1
 10
0.0
 20
0.0
 30
0.0
  3
*D40
  1

  0
LINE
  5
94C9
330
6367
100
AcDbEntity
  8
実形
 62
     0
370
    18
100
AcDbLine
 10
1878.153355282236
 20
513.3378185481261
 30
0.0
 11
1878.153355282236
 21
556.1636602592925
 31
0.0
  0
LINE
  5
94CA
330
6367
100
AcDbEntity
  8
実形
 62
     0
370
    18
100
AcDbLine
 10
2078.153355282237
 20
513.3378185481261
 30
0.0
 11
2078.153355282237
 21
556.1636602592925
 31
0.0
  0
LINE
  5
94CB
330
6367
100
AcDbEntity
  8
実形
 62
     0
370
    18
100
AcDbLine
 10
1888.153355282236
 20
556.1636602592925
 30
0.0
 11
2068.153355282237
 21
556.1636602592925
 31
0.0
  0
INSERT
  5
94CC
330
6367
100
AcDbEntity
  8
実形
 62
     0
370
    18
100
AcDbBlockReference
  2
_Dot
 10
1878.153355282236
 20
556.1636602592925
 30
0.0
 41
10.0
 42
10.0
 43
10.0
 50
180.0
  0
INSERT
  5
94CD
330
6367
100
AcDbEntity
  8
実形
 62
     0
370
    18
100
AcDbBlockReference
  2
_Dot
 10
2078.153355282237
 20
556.1636602592925
 30
0.0
 41
10.0
 42
10.0
 43
10.0
  0
MTEXT
  5
94CE
330
6367
100
AcDbEntity
  8
実形
 62
     0
100
AcDbMText
 10
1978.153355282237
 20
577.7636602592925
 30
0.0
 40
30.0
 41
0.0
 71
     5
 72
     1
  1
20
 73
     1
 44
1.0
1001
ACAD
1000
MTEXTBEGIN
1070
    73
1070
     1
1070
    44
1040
1.0
1070
    74
1070
     0
1000
MTEXTEND
  0
POINT
  5
94CF
330
6367
100
AcDbEntity
  8
Defpoints
 62
     0
100
AcDbPoint
 10
1878.153355282236
 20
448.3378185481259
 30
0.0
  0
POINT
  5
94D0
330
6367
100
AcDbEntity
  8
Defpoints
 62
     0
100
AcDbPoint
 10
2078.153355282237
 20
448.3378185481259
 30
0.0
  0
POINT
  5
94D1
330
6367
100
AcDbEntity
  8
Defpoints
 62
     0
100
AcDbPoint
 10
2078.153355282237
 20
556.1636602592925
 30
0.0
  0
ENDBLK
  5
6372
330
6367
100
AcDbEntity
  8
0
 62
     3
100
AcDbBlockEnd
  0
BLOCK
  5
637F
330
6373
100
AcDbEntity
  8
0
 62
     3
100
AcDbBlockBegin
  2
*D41
 70
     1
 10
0.0
 20
0.0
 30
0.0
  3
*D41
  1

  0
LINE
  5
92B5
330
6373
100
AcDbEntity
  8
実形
 62
     0
370
    18
100
AcDbLine
 10
1858.895046835058
 20
448.3378185481269
 30
0.0
 11
1822.349605805526
 21
448.3378185481269
 31
0.0
  0
LINE
  5
92B6
330
6373
100
AcDbEntity
  8
実形
 62
     0
370
    18
100
AcDbLine
 10
1858.895046835058
 20
436.3378185481269
 30
0.0
 11
1822.349605805526
 21
436.3378185481269
 31
0.0
  0
LINE
  5
92B7
330
6373
100
AcDbEntity
  8
実形
 62
     0
370
    18
100
AcDbLine
 10
1822.349605805526
 20
458.337818548127
 30
0.0
 11
1822.349605805526
 21
468.3378185481269
 31
0.0
  0
LINE
  5
92B8
330
6373
100
AcDbEntity
  8
実形
 62
     0
370
    18
100
AcDbLine
 10
1822.349605805526
 20
426.3378185481269
 30
0.0
 11
1822.349605805526
 21
416.3378185481269
 31
0.0
  0
MTEXT
  5
92B9
330
6373
100
AcDbEntity
  8
実形
 62
     0
100
AcDbMText
 10
1797.449605805526
 20
485.2191953502314
 30
0.0
 40
30.0
 41
0.0
 71
     5
 72
     1
  1
1.2
 11
0.0000000000000001
 21
1.0
 31
0.0
 73
     1
 44
1.0
1001
ACAD
1000
MTEXTBEGIN
1070
    73
1070
     1
1070
    44
1040
1.0
1070
    74
1070
     0
1000
MTEXTEND
  0
LINE
  5
92BA
330
6373
100
AcDbEntity
  8
実形
 62
     0
370
    18
100
AcDbLine
 10
1822.349605805526
 20
448.3378185481269
 30
0.0
 11
1822.349605805526
 21
436.3378185481269
 31
0.0
  0
INSERT
  5
92BB
330
6373
100
AcDbEntity
  8
実形
 62
     0
370
    18
100
AcDbBlockReference
  2
_Dot
 10
1822.349605805526
 20
448.3378185481269
 30
0.0
 41
10.0
 42
10.0
 43
10.0
 50
270.0
  0
INSERT
  5
92BC
330
6373
100
AcDbEntity
  8
実形
 62
     0
370
    18
100
AcDbBlockReference
  2
_Dot
 10
1822.349605805526
 20
436.3378185481269
 30
0.0
 41
10.0
 42
10.0
 43
10.0
 50
90.0
  0
POINT
  5
92BD
330
6373
100
AcDbEntity
  8
Defpoints
 62
     0
100
AcDbPoint
 10
1923.895046835058
 20
448.3378185481269
 30
0.0
  0
POINT
  5
92BE
330
6373
100
AcDbEntity
  8
Defpoints
 62
     0
100
AcDbPoint
 10
1923.895046835058
 20
436.3378185481269
 30
0.0
  0
POINT
  5
92BF
330
6373
100
AcDbEntity
  8
Defpoints
 62
     0
100
AcDbPoint
 10
1822.349605805526
 20
436.3378185481269
 30
0.0
  0
ENDBLK
  5
6380
330
6373
100
AcDbEntity
  8
0
 62
     3
100
AcDbBlockEnd
  0
BLOCK
  5
638B
330
6381
100
AcDbEntity
  8
0
 62
     3
100
AcDbBlockBegin
  2
*D42
 70
     1
 10
0.0
 20
0.0
 30
0.0
  3
*D42
  1

  0
LINE
  5
928D
330
6381
100
AcDbEntity
  8
実形
 62
     0
370
    18
100
AcDbLine
 10
1823.202444104729
 20
436.3378185481269
 30
0.0
 11
1822.349605805526
 21
436.3378185481269
 31
0.0
  0
LINE
  5
928E
330
6381
100
AcDbEntity
  8
実形
 62
     0
370
    18
100
AcDbLine
 10
1823.202444104729
 20
310.3378185481271
 30
0.0
 11
1822.349605805526
 21
310.3378185481271
 31
0.0
  0
LINE
  5
928F
330
6381
100
AcDbEntity
  8
実形
 62
     0
370
    18
100
AcDbLine
 10
1822.349605805526
 20
426.3378185481268
 30
0.0
 11
1822.349605805526
 21
320.3378185481271
 31
0.0
  0
INSERT
  5
9290
330
6381
100
AcDbEntity
  8
実形
 62
     0
370
    18
100
AcDbBlockReference
  2
_Dot
 10
1822.349605805526
 20
436.3378185481269
 30
0.0
 41
10.0
 42
10.0
 43
10.0
 50
90.0
  0
INSERT
  5
9291
330
6381
100
AcDbEntity
  8
実形
 62
     0
370
    18
100
AcDbBlockReference
  2
_Dot
 10
1822.349605805526
 20
310.3378185481271
 30
0.0
 41
10.0
 42
10.0
 43
10.0
 50
270.0
  0
MTEXT
  5
9292
330
6381
100
AcDbEntity
  8
実形
 62
     0
100
AcDbMText
 10
1800.749605805526
 20
373.3378185481273
 30
0.0
 40
30.0
 41
0.0
 71
     5
 72
     1
  1
12.6
 11
0.0000000000000001
 21
1.0
 31
0.0
 73
     1
 44
1.0
1001
ACAD
1000
MTEXTBEGIN
1070
    73
1070
     1
1070
    44
1040
1.0
1070
    74
1070
     0
1000
MTEXTEND
  0
POINT
  5
9293
330
6381
100
AcDbEntity
  8
Defpoints
 62
     0
100
AcDbPoint
 10
1888.202444104729
 20
436.3378185481269
 30
0.0
  0
POINT
  5
9294
330
6381
100
AcDbEntity
  8
Defpoints
 62
     0
100
AcDbPoint
 10
1888.202444104729
 20
310.3378185481271
 30
0.0
  0
POINT
  5
9295
330
6381
100
AcDbEntity
  8
Defpoints
 62
     0
100
AcDbPoint
 10
1822.349605805526
 20
310.3378185481271
 30
0.0
  0
ENDBLK
  5
638C
330
6381
100
AcDbEntity
  8
0
 62
     3
100
AcDbBlockEnd
  0
BLOCK
  5
6397
330
638D
100
AcDbEntity
  8
0
 62
     3
100
AcDbBlockBegin
  2
*D43
 70
     1
 10
0.0
 20
0.0
 30
0.0
  3
*D43
  1

  0
LINE
  5
9284
330
638D
100
AcDbEntity
  8
実形
 62
     0
370
    18
100
AcDbLine
 10
1823.202444104729
 20
448.3378185481269
 30
0.0
 11
1722.117752212089
 21
448.3378185481269
 31
0.0
  0
LINE
  5
9285
330
638D
100
AcDbEntity
  8
実形
 62
     0
370
    18
100
AcDbLine
 10
1823.202444104729
 20
298.3378185481269
 30
0.0
 11
1722.117752212089
 21
298.3378185481269
 31
0.0
  0
LINE
  5
9286
330
638D
100
AcDbEntity
  8
実形
 62
     0
370
    18
100
AcDbLine
 10
1722.117752212089
 20
438.3378185481269
 30
0.0
 11
1722.117752212089
 21
308.337818548127
 31
0.0
  0
INSERT
  5
9287
330
638D
100
AcDbEntity
  8
実形
 62
     0
370
    18
100
AcDbBlockReference
  2
_Dot
 10
1722.117752212089
 20
448.3378185481269
 30
0.0
 41
10.0
 42
10.0
 43
10.0
 50
90.0
  0
INSERT
  5
9288
330
638D
100
AcDbEntity
  8
実形
 62
     0
370
    18
100
AcDbBlockReference
  2
_Dot
 10
1722.117752212089
 20
298.3378185481269
 30
0.0
 41
10.0
 42
10.0
 43
10.0
 50
270.0
  0
MTEXT
  5
9289
330
638D
100
AcDbEntity
  8
実形
 62
     0
100
AcDbMText
 10
1700.517752212089
 20
373.3378185481273
 30
0.0
 40
30.0
 41
0.0
 71
     5
 72
     1
  1
15
 11
0.0000000000000001
 21
1.0
 31
0.0
 73
     1
 44
1.0
1001
ACAD
1000
MTEXTBEGIN
1070
    73
1070
     1
1070
    44
1040
1.0
1070
    74
1070
     0
1000
MTEXTEND
  0
POINT
  5
928A
330
638D
100
AcDbEntity
  8
Defpoints
 62
     0
100
AcDbPoint
 10
1888.202444104729
 20
448.3378185481269
 30
0.0
  0
POINT
  5
928B
330
638D
100
AcDbEntity
  8
Defpoints
 62
     0
100
AcDbPoint
 10
1888.202444104729
 20
298.3378185481269
 30
0.0
  0
POINT
  5
928C
330
638D
100
AcDbEntity
  8
Defpoints
 62
     0
100
AcDbPoint
 10
1722.117752212089
 20
298.3378185481269
 30
0.0
  0
ENDBLK
  5
6398
330
638D
100
AcDbEntity
  8
0
 62
     3
100
AcDbBlockEnd
  0
BLOCK
  5
63A5
330
6399
100
AcDbEntity
  8
0
 62
     3
100
AcDbBlockBegin
  2
*D44
 70
     1
 10
0.0
 20
0.0
 30
0.0
  3
*D44
  1

  0
LINE
  5
9296
330
6399
100
AcDbEntity
  8
実形
 62
     0
370
    18
100
AcDbLine
 10
1857.596935963529
 20
310.3378185481271
 30
0.0
 11
1822.349605805526
 21
310.3378185481271
 31
0.0
  0
LINE
  5
9297
330
6399
100
AcDbEntity
  8
実形
 62
     0
370
    18
100
AcDbLine
 10
1859.252199403379
 20
298.3378185481269
 30
0.0
 11
1822.349605805526
 21
298.3378185481269
 31
0.0
  0
LINE
  5
9298
330
6399
100
AcDbEntity
  8
実形
 62
     0
370
    18
100
AcDbLine
 10
1822.349605805526
 20
320.3378185481271
 30
0.0
 11
1822.349605805526
 21
330.3378185481272
 31
0.0
  0
LINE
  5
9299
330
6399
100
AcDbEntity
  8
実形
 62
     0
370
    18
100
AcDbLine
 10
1822.349605805526
 20
288.3378185481269
 30
0.0
 11
1822.349605805526
 21
278.337818548127
 31
0.0
  0
MTEXT
  5
929A
330
6399
100
AcDbEntity
  8
実形
 62
     0
100
AcDbMText
 10
1797.449605805526
 20
261.6838978052474
 30
0.0
 40
30.0
 41
0.0
 71
     5
 72
     1
  1
1.2
 11
0.0000000000000001
 21
1.0
 31
0.0
 73
     1
 44
1.0
1001
ACAD
1000
MTEXTBEGIN
1070
    73
1070
     1
1070
    44
1040
1.0
1070
    74
1070
     0
1000
MTEXTEND
  0
LINE
  5
929B
330
6399
100
AcDbEntity
  8
実形
 62
     0
370
    18
100
AcDbLine
 10
1822.349605805526
 20
310.3378185481271
 30
0.0
 11
1822.349605805526
 21
298.3378185481269
 31
0.0
  0
INSERT
  5
929C
330
6399
100
AcDbEntity
  8
実形
 62
     0
370
    18
100
AcDbBlockReference
  2
_Dot
 10
1822.349605805526
 20
310.3378185481271
 30
0.0
 41
10.0
 42
10.0
 43
10.0
 50
270.0
  0
INSERT
  5
929D
330
6399
100
AcDbEntity
  8
実形
 62
     0
370
    18
100
AcDbBlockReference
  2
_Dot
 10
1822.349605805526
 20
298.3378185481269
 30
0.0
 41
10.0
 42
10.0
 43
10.0
 50
90.0
  0
POINT
  5
929E
330
6399
100
AcDbEntity
  8
Defpoints
 62
     0
100
AcDbPoint
 10
1922.596935963529
 20
310.3378185481271
 30
0.0
  0
POINT
  5
929F
330
6399
100
AcDbEntity
  8
Defpoints
 62
     0
100
AcDbPoint
 10
1924.25219940338
 20
298.3378185481269
 30
0.0
  0
POINT
  5
92A0
330
6399
100
AcDbEntity
  8
Defpoints
 62
     0
100
AcDbPoint
 10
1822.349605805526
 20
298.3378185481269
 30
0.0
  0
ENDBLK
  5
63A6
330
6399
100
AcDbEntity
  8
0
 62
     3
100
AcDbBlockEnd
  0
BLOCK
  5
63B1
330
63A7
100
AcDbEntity
  8
0
 62
     3
100
AcDbBlockBegin
  2
*D45
 70
     1
 10
0.0
 20
0.0
 30
0.0
  3
*D45
  1

  0
LINE
  5
92A1
330
63A7
100
AcDbEntity
  8
実形
 62
     0
370
    18
100
AcDbLine
 10
2078.153355282237
 20
259.073117412453
 30
0.0
 11
2078.153355282237
 21
220.4265805812111
 31
0.0
  0
LINE
  5
92A2
330
63A7
100
AcDbEntity
  8
実形
 62
     0
370
    18
100
AcDbLine
 10
2298.153355282237
 20
257.6436135040289
 30
0.0
 11
2298.153355282237
 21
220.4265805812111
 31
0.0
  0
LINE
  5
92A3
330
63A7
100
AcDbEntity
  8
実形
 62
     0
370
    18
100
AcDbLine
 10
2088.153355282237
 20
220.4265805812111
 30
0.0
 11
2288.153355282236
 21
220.4265805812111
 31
0.0
  0
INSERT
  5
92A4
330
63A7
100
AcDbEntity
  8
実形
 62
     0
370
    18
100
AcDbBlockReference
  2
_Dot
 10
2078.153355282237
 20
220.4265805812111
 30
0.0
 41
10.0
 42
10.0
 43
10.0
 50
180.0
  0
INSERT
  5
92A5
330
63A7
100
AcDbEntity
  8
実形
 62
     0
370
    18
100
AcDbBlockReference
  2
_Dot
 10
2298.153355282237
 20
220.4265805812111
 30
0.0
 41
10.0
 42
10.0
 43
10.0
  0
MTEXT
  5
92A6
330
63A7
100
AcDbEntity
  8
実形
 62
     0
100
AcDbMText
 10
2188.153355282237
 20
242.026580581211
 30
0.0
 40
30.0
 41
0.0
 71
     5
 72
     1
  1
22
 73
     1
 44
1.0
1001
ACAD
1000
MTEXTBEGIN
1070
    73
1070
     1
1070
    44
1040
1.0
1070
    74
1070
     0
1000
MTEXTEND
  0
POINT
  5
92A7
330
63A7
100
AcDbEntity
  8
Defpoints
 62
     0
100
AcDbPoint
 10
2078.153355282237
 20
324.073117412453
 30
0.0
  0
POINT
  5
92A8
330
63A7
100
AcDbEntity
  8
Defpoints
 62
     0
100
AcDbPoint
 10
2298.153355282237
 20
322.6436135040289
 30
0.0
  0
POINT
  5
92A9
330
63A7
100
AcDbEntity
  8
Defpoints
 62
     0
100
AcDbPoint
 10
2298.153355282237
 20
220.4265805812111
 30
0.0
  0
ENDBLK
  5
63B2
330
63A7
100
AcDbEntity
  8
0
 62
     3
100
AcDbBlockEnd
  0
BLOCK
  5
63BD
330
63B3
100
AcDbEntity
  8
0
 62
     3
100
AcDbBlockBegin
  2
*D46
 70
     1
 10
0.0
 20
0.0
 30
0.0
  3
*D46
  1

  0
LINE
  5
927B
330
63B3
100
AcDbEntity
  8
実形
 62
     0
370
    18
100
AcDbLine
 10
2258.153355282237
 20
342.7941797056111
 30
0.0
 11
2258.153355282237
 21
371.5523651500616
 31
0.0
  0
LINE
  5
927C
330
63B3
100
AcDbEntity
  8
実形
 62
     0
370
    18
100
AcDbLine
 10
2338.153355282237
 20
342.794179705611
 30
0.0
 11
2338.153355282237
 21
371.5523651500616
 31
0.0
  0
LINE
  5
927D
330
63B3
100
AcDbEntity
  8
実形
 62
     0
370
    18
100
AcDbLine
 10
2268.153355282237
 20
371.5523651500616
 30
0.0
 11
2328.153355282237
 21
371.5523651500616
 31
0.0
  0
INSERT
  5
927E
330
63B3
100
AcDbEntity
  8
実形
 62
     0
370
    18
100
AcDbBlockReference
  2
_Dot
 10
2258.153355282237
 20
371.5523651500616
 30
0.0
 41
10.0
 42
10.0
 43
10.0
 50
180.0
  0
INSERT
  5
927F
330
63B3
100
AcDbEntity
  8
実形
 62
     0
370
    18
100
AcDbBlockReference
  2
_Dot
 10
2338.153355282237
 20
371.5523651500616
 30
0.0
 41
10.0
 42
10.0
 43
10.0
  0
MTEXT
  5
9280
330
63B3
100
AcDbEntity
  8
実形
 62
     0
100
AcDbMText
 10
2298.153355282237
 20
393.1523651500616
 30
0.0
 40
30.0
 41
0.0
 71
     5
 72
     1
  1
8
 73
     1
 44
1.0
1001
ACAD
1000
MTEXTBEGIN
1070
    73
1070
     1
1070
    44
1040
1.0
1070
    74
1070
     0
1000
MTEXTEND
  0
POINT
  5
9281
330
63B3
100
AcDbEntity
  8
Defpoints
 62
     0
100
AcDbPoint
 10
2258.153355282237
 20
277.7941797056111
 30
0.0
  0
POINT
  5
9282
330
63B3
100
AcDbEntity
  8
Defpoints
 62
     0
100
AcDbPoint
 10
2338.153355282237
 20
277.794179705611
 30
0.0
  0
POINT
  5
9283
330
63B3
100
AcDbEntity
  8
Defpoints
 62
     0
100
AcDbPoint
 10
2338.153355282237
 20
371.5523651500616
 30
0.0
  0
ENDBLK
  5
63BE
330
63B3
100
AcDbEntity
  8
0
 62
     3
100
AcDbBlockEnd
  0
BLOCK
  5
63C9
330
63BF
100
AcDbEntity
  8
0
 62
     3
100
AcDbBlockBegin
  2
*D47
 70
     1
 10
0.0
 20
0.0
 30
0.0
  3
*D47
  1

  0
LINE
  5
92C9
330
63BF
100
AcDbEntity
  8
実形
 62
     0
370
    18
100
AcDbLine
 10
2658.153355282237
 20
342.7941797056111
 30
0.0
 11
2658.153355282237
 21
371.5523651500616
 31
0.0
  0
LINE
  5
92CA
330
63BF
100
AcDbEntity
  8
実形
 62
     0
370
    18
100
AcDbLine
 10
2738.153355282237
 20
342.794179705611
 30
0.0
 11
2738.153355282237
 21
371.5523651500616
 31
0.0
  0
LINE
  5
92CB
330
63BF
100
AcDbEntity
  8
実形
 62
     0
370
    18
100
AcDbLine
 10
2668.153355282238
 20
371.5523651500616
 30
0.0
 11
2728.153355282237
 21
371.5523651500616
 31
0.0
  0
INSERT
  5
92CC
330
63BF
100
AcDbEntity
  8
実形
 62
     0
370
    18
100
AcDbBlockReference
  2
_Dot
 10
2658.153355282237
 20
371.5523651500616
 30
0.0
 41
10.0
 42
10.0
 43
10.0
 50
180.0
  0
INSERT
  5
92CD
330
63BF
100
AcDbEntity
  8
実形
 62
     0
370
    18
100
AcDbBlockReference
  2
_Dot
 10
2738.153355282237
 20
371.5523651500616
 30
0.0
 41
10.0
 42
10.0
 43
10.0
  0
MTEXT
  5
92CE
330
63BF
100
AcDbEntity
  8
実形
 62
     0
100
AcDbMText
 10
2698.153355282237
 20
393.1523651500616
 30
0.0
 40
30.0
 41
0.0
 71
     5
 72
     1
  1
8
 73
     1
 44
1.0
1001
ACAD
1000
MTEXTBEGIN
1070
    73
1070
     1
1070
    44
1040
1.0
1070
    74
1070
     0
1000
MTEXTEND
  0
POINT
  5
92CF
330
63BF
100
AcDbEntity
  8
Defpoints
 62
     0
100
AcDbPoint
 10
2658.153355282237
 20
277.7941797056111
 30
0.0
  0
POINT
  5
92D0
330
63BF
100
AcDbEntity
  8
Defpoints
 62
     0
100
AcDbPoint
 10
2738.153355282237
 20
277.794179705611
 30
0.0
  0
POINT
  5
92D1
330
63BF
100
AcDbEntity
  8
Defpoints
 62
     0
100
AcDbPoint
 10
2738.153355282237
 20
371.5523651500616
 30
0.0
  0
ENDBLK
  5
63CA
330
63BF
100
AcDbEntity
  8
0
 62
     3
100
AcDbBlockEnd
  0
BLOCK
  5
63D5
330
63CB
100
AcDbEntity
  8
0
 62
     3
100
AcDbBlockBegin
  2
*D48
 70
     1
 10
0.0
 20
0.0
 30
0.0
  3
*D48
  1

  0
LINE
  5
9272
330
63CB
100
AcDbEntity
  8
実形
 62
     0
370
    18
100
AcDbLine
 10
2298.153355282237
 20
233.3378185481265
 30
0.0
 11
2298.153355282237
 21
220.4265805812111
 31
0.0
  0
LINE
  5
9273
330
63CB
100
AcDbEntity
  8
実形
 62
     0
370
    18
100
AcDbLine
 10
2698.153355282237
 20
257.4060837368534
 30
0.0
 11
2698.153355282237
 21
220.4265805812111
 31
0.0
  0
LINE
  5
9274
330
63CB
100
AcDbEntity
  8
実形
 62
     0
370
    18
100
AcDbLine
 10
2308.153355282237
 20
220.4265805812111
 30
0.0
 11
2688.153355282237
 21
220.4265805812111
 31
0.0
  0
INSERT
  5
9275
330
63CB
100
AcDbEntity
  8
実形
 62
     0
370
    18
100
AcDbBlockReference
  2
_Dot
 10
2298.153355282237
 20
220.4265805812111
 30
0.0
 41
10.0
 42
10.0
 43
10.0
 50
180.0
  0
INSERT
  5
9276
330
63CB
100
AcDbEntity
  8
実形
 62
     0
370
    18
100
AcDbBlockReference
  2
_Dot
 10
2698.153355282237
 20
220.4265805812111
 30
0.0
 41
10.0
 42
10.0
 43
10.0
  0
MTEXT
  5
9277
330
63CB
100
AcDbEntity
  8
実形
 62
     0
100
AcDbMText
 10
2498.153355282237
 20
242.026580581211
 30
0.0
 40
30.0
 41
0.0
 71
     5
 72
     1
  1
40
 73
     1
 44
1.0
1001
ACAD
1000
MTEXTBEGIN
1070
    73
1070
     1
1070
    44
1040
1.0
1070
    74
1070
     0
1000
MTEXTEND
  0
POINT
  5
9278
330
63CB
100
AcDbEntity
  8
Defpoints
 62
     0
100
AcDbPoint
 10
2298.153355282237
 20
298.3378185481265
 30
0.0
  0
POINT
  5
9279
330
63CB
100
AcDbEntity
  8
Defpoints
 62
     0
100
AcDbPoint
 10
2698.153355282237
 20
322.4060837368534
 30
0.0
  0
POINT
  5
927A
330
63CB
100
AcDbEntity
  8
Defpoints
 62
     0
100
AcDbPoint
 10
2698.153355282237
 20
220.4265805812111
 30
0.0
  0
ENDBLK
  5
63D6
330
63CB
100
AcDbEntity
  8
0
 62
     3
100
AcDbBlockEnd
  0
BLOCK
  5
63E3
330
63D7
100
AcDbEntity
  8
0
 62
     3
100
AcDbBlockBegin
  2
*D49
 70
     1
 10
0.0
 20
0.0
 30
0.0
  3
*D49
  1

  0
LINE
  5
92AA
330
63D7
100
AcDbEntity
  8
実形
 62
     0
370
    18
100
AcDbLine
 10
2066.153355282237
 20
258.5870671043222
 30
0.0
 11
2066.153355282237
 21
220.4265805812111
 31
0.0
  0
LINE
  5
92AB
330
63D7
100
AcDbEntity
  8
実形
 62
     0
370
    18
100
AcDbLine
 10
2078.153355282237
 20
251.3378185481262
 30
0.0
 11
2078.153355282237
 21
220.4265805812111
 31
0.0
  0
LINE
  5
92AC
330
63D7
100
AcDbEntity
  8
実形
 62
     0
370
    18
100
AcDbLine
 10
2056.153355282237
 20
220.4265805812111
 30
0.0
 11
2046.153355282237
 21
220.4265805812111
 31
0.0
  0
LINE
  5
92AD
330
63D7
100
AcDbEntity
  8
実形
 62
     0
370
    18
100
AcDbLine
 10
2088.153355282237
 20
220.4265805812111
 30
0.0
 11
2098.153355282237
 21
220.4265805812111
 31
0.0
  0
MTEXT
  5
92AE
330
63D7
100
AcDbEntity
  8
実形
 62
     0
100
AcDbMText
 10
2024.15810842859
 20
244.9946480099434
 30
0.0
 40
30.0
 41
0.0
 71
     5
 72
     1
  1
1.2
 73
     1
 44
1.0
1001
ACAD
1000
MTEXTBEGIN
1070
    73
1070
     1
1070
    44
1040
1.0
1070
    74
1070
     0
1000
MTEXTEND
  0
LINE
  5
92AF
330
63D7
100
AcDbEntity
  8
実形
 62
     0
370
    18
100
AcDbLine
 10
2066.153355282237
 20
220.4265805812111
 30
0.0
 11
2078.153355282237
 21
220.4265805812111
 31
0.0
  0
INSERT
  5
92B0
330
63D7
100
AcDbEntity
  8
実形
 62
     0
370
    18
100
AcDbBlockReference
  2
_Dot
 10
2066.153355282237
 20
220.4265805812111
 30
0.0
 41
10.0
 42
10.0
 43
10.0
  0
INSERT
  5
92B1
330
63D7
100
AcDbEntity
  8
実形
 62
     0
370
    18
100
AcDbBlockReference
  2
_Dot
 10
2078.153355282237
 20
220.4265805812111
 30
0.0
 41
10.0
 42
10.0
 43
10.0
 50
180.0
  0
POINT
  5
92B2
330
63D7
100
AcDbEntity
  8
Defpoints
 62
     0
100
AcDbPoint
 10
2066.153355282237
 20
323.5870671043222
 30
0.0
  0
POINT
  5
92B3
330
63D7
100
AcDbEntity
  8
Defpoints
 62
     0
100
AcDbPoint
 10
2078.153355282237
 20
316.3378185481262
 30
0.0
  0
POINT
  5
92B4
330
63D7
100
AcDbEntity
  8
Defpoints
 62
     0
100
AcDbPoint
 10
2078.153355282237
 20
220.4265805812111
 30
0.0
  0
ENDBLK
  5
63E4
330
63D7
100
AcDbEntity
  8
0
 62
     3
100
AcDbBlockEnd
  0
BLOCK
  5
6B8B
330
6B87
100
AcDbEntity
  8
0
 62
     3
100
AcDbBlockBegin
  2
A$C47AF373A
 70
     0
 10
0.0
 20
0.0
 30
0.0
  3
A$C47AF373A
  1

  0
LINE
  5
6B88
330
6B87
100
AcDbEntity
  8
枠
 62
     0
100
AcDbLine
 10
-0.0000111344452307
 20
0.0000048001220421
 30
0.0
 11
-0.0000111344452307
 21
2020.000004800122
 31
0.0
  0
ENDBLK
  5
6B8C
330
6B87
100
AcDbEntity
  8
0
 62
     3
100
AcDbBlockEnd
  0
BLOCK
  5
6C04
330
6C00
100
AcDbEntity
  8
0
 62
     3
100
AcDbBlockBegin
  2
A$C2B9560D8
 70
     0
 10
0.0
 20
0.0
 30
0.0
  3
A$C2B9560D8
  1

  0
LINE
  5
6C01
330
6C00
100
AcDbEntity
  8
枠
 62
     0
100
AcDbLine
 10
-0.0000103150450741
 20
2020.000004800122
 30
0.0
 11
-0.0000103150450741
 21
0.0000048001220421
 31
0.0
  0
ENDBLK
  5
6C05
330
6C00
100
AcDbEntity
  8
0
 62
     3
100
AcDbBlockEnd
  0
BLOCK
  5
7F32
330
7F28
100
AcDbEntity
  8
0
 62
     3
100
AcDbBlockBegin
  2
*D52
 70
     1
 10
0.0
 20
0.0
 30
0.0
  3
*D52
  1

  0
LINE
  5
9452
330
7F28
100
AcDbEntity
  8
実形
 62
     0
370
    18
100
AcDbLine
 10
753.3502058085249
 20
1241.759223040568
 30
0.0
 11
722.2887743570717
 21
1241.759223040568
 31
0.0
  0
LINE
  5
9453
330
7F28
100
AcDbEntity
  8
実形
 62
     0
370
    18
100
AcDbLine
 10
753.3502058085249
 20
1161.759223040568
 30
0.0
 11
722.2887743570717
 21
1161.759223040568
 31
0.0
  0
LINE
  5
9454
330
7F28
100
AcDbEntity
  8
実形
 62
     0
370
    18
100
AcDbLine
 10
722.2887743570717
 20
1231.759223040568
 30
0.0
 11
722.2887743570717
 21
1171.759223040568
 31
0.0
  0
INSERT
  5
9455
330
7F28
100
AcDbEntity
  8
実形
 62
     0
370
    18
100
AcDbBlockReference
  2
_Dot
 10
722.2887743570717
 20
1241.759223040568
 30
0.0
 41
10.0
 42
10.0
 43
10.0
 50
90.0
  0
INSERT
  5
9456
330
7F28
100
AcDbEntity
  8
実形
 62
     0
370
    18
100
AcDbBlockReference
  2
_Dot
 10
722.2887743570717
 20
1161.759223040568
 30
0.0
 41
10.0
 42
10.0
 43
10.0
 50
270.0
  0
MTEXT
  5
9457
330
7F28
100
AcDbEntity
  8
実形
 62
     0
100
AcDbMText
 10
700.6887743570716
 20
1201.759223040568
 30
0.0
 40
30.0
 41
0.0
 71
     5
 72
     1
  1
40
 11
0.0000000000000001
 21
1.0
 31
0.0
 73
     1
 44
1.0
1001
ACAD
1000
MTEXTBEGIN
1070
    73
1070
     1
1070
    44
1040
1.0
1070
    74
1070
     0
1000
MTEXTEND
  0
POINT
  5
9458
330
7F28
100
AcDbEntity
  8
Defpoints
 62
     0
100
AcDbPoint
 10
818.3502058085251
 20
1241.759223040568
 30
0.0
  0
POINT
  5
9459
330
7F28
100
AcDbEntity
  8
Defpoints
 62
     0
100
AcDbPoint
 10
818.3502058085251
 20
1161.759223040568
 30
0.0
  0
POINT
  5
945A
330
7F28
100
AcDbEntity
  8
Defpoints
 62
     0
100
AcDbPoint
 10
722.2887743570717
 20
1161.759223040568
 30
0.0
  0
ENDBLK
  5
7F33
330
7F28
100
AcDbEntity
  8
0
 62
     3
100
AcDbBlockEnd
  0
BLOCK
  5
7F5B
330
7F51
100
AcDbEntity
  8
0
 62
     3
100
AcDbBlockBegin
  2
*D53
 70
     1
 10
0.0
 20
0.0
 30
0.0
  3
*D53
  1

  0
LINE
  5
9449
330
7F51
100
AcDbEntity
  8
実形
 62
     0
370
    18
100
AcDbLine
 10
753.3502058085249
 20
1321.759223040568
 30
0.0
 11
722.2887743570717
 21
1321.759223040568
 31
0.0
  0
LINE
  5
944A
330
7F51
100
AcDbEntity
  8
実形
 62
     0
370
    18
100
AcDbLine
 10
753.3502058085249
 20
1241.759223040568
 30
0.0
 11
722.2887743570717
 21
1241.759223040568
 31
0.0
  0
LINE
  5
944B
330
7F51
100
AcDbEntity
  8
実形
 62
     0
370
    18
100
AcDbLine
 10
722.2887743570717
 20
1311.759223040568
 30
0.0
 11
722.2887743570717
 21
1251.759223040568
 31
0.0
  0
INSERT
  5
944C
330
7F51
100
AcDbEntity
  8
実形
 62
     0
370
    18
100
AcDbBlockReference
  2
_Dot
 10
722.2887743570717
 20
1321.759223040568
 30
0.0
 41
10.0
 42
10.0
 43
10.0
 50
90.0
  0
INSERT
  5
944D
330
7F51
100
AcDbEntity
  8
実形
 62
     0
370
    18
100
AcDbBlockReference
  2
_Dot
 10
722.2887743570717
 20
1241.759223040568
 30
0.0
 41
10.0
 42
10.0
 43
10.0
 50
270.0
  0
MTEXT
  5
944E
330
7F51
100
AcDbEntity
  8
実形
 62
     0
100
AcDbMText
 10
700.6887743570716
 20
1281.759223040568
 30
0.0
 40
30.0
 41
0.0
 71
     5
 72
     1
  1
40
 11
0.0000000000000001
 21
1.0
 31
0.0
 73
     1
 44
1.0
1001
ACAD
1000
MTEXTBEGIN
1070
    73
1070
     1
1070
    44
1040
1.0
1070
    74
1070
     0
1000
MTEXTEND
  0
POINT
  5
944F
330
7F51
100
AcDbEntity
  8
Defpoints
 62
     0
100
AcDbPoint
 10
818.3502058085251
 20
1321.759223040568
 30
0.0
  0
POINT
  5
9450
330
7F51
100
AcDbEntity
  8
Defpoints
 62
     0
100
AcDbPoint
 10
818.3502058085251
 20
1241.759223040568
 30
0.0
  0
POINT
  5
9451
330
7F51
100
AcDbEntity
  8
Defpoints
 62
     0
100
AcDbPoint
 10
722.2887743570717
 20
1241.759223040568
 30
0.0
  0
ENDBLK
  5
7F5C
330
7F51
100
AcDbEntity
  8
0
 62
     3
100
AcDbBlockEnd
  0
BLOCK
  5
7F84
330
7F7A
100
AcDbEntity
  8
0
 62
     3
100
AcDbBlockBegin
  2
*D54
 70
     1
 10
0.0
 20
0.0
 30
0.0
  3
*D54
  1

  0
LINE
  5
9371
330
7F7A
100
AcDbEntity
  8
実形
 62
     0
370
    18
100
AcDbLine
 10
753.3502058085249
 20
1081.759223040568
 30
0.0
 11
722.2887743570717
 21
1081.759223040568
 31
0.0
  0
LINE
  5
9372
330
7F7A
100
AcDbEntity
  8
実形
 62
     0
370
    18
100
AcDbLine
 10
753.3502058085249
 20
1001.759223040568
 30
0.0
 11
722.2887743570717
 21
1001.759223040568
 31
0.0
  0
LINE
  5
9373
330
7F7A
100
AcDbEntity
  8
実形
 62
     0
370
    18
100
AcDbLine
 10
722.2887743570717
 20
1071.759223040568
 30
0.0
 11
722.2887743570717
 21
1011.759223040568
 31
0.0
  0
INSERT
  5
9374
330
7F7A
100
AcDbEntity
  8
実形
 62
     0
370
    18
100
AcDbBlockReference
  2
_Dot
 10
722.2887743570717
 20
1081.759223040568
 30
0.0
 41
10.0
 42
10.0
 43
10.0
 50
90.0
  0
INSERT
  5
9375
330
7F7A
100
AcDbEntity
  8
実形
 62
     0
370
    18
100
AcDbBlockReference
  2
_Dot
 10
722.2887743570717
 20
1001.759223040568
 30
0.0
 41
10.0
 42
10.0
 43
10.0
 50
270.0
  0
MTEXT
  5
9376
330
7F7A
100
AcDbEntity
  8
実形
 62
     0
100
AcDbMText
 10
700.6887743570716
 20
1041.759223040568
 30
0.0
 40
30.0
 41
0.0
 71
     5
 72
     1
  1
40
 11
0.0000000000000001
 21
1.0
 31
0.0
 73
     1
 44
1.0
1001
ACAD
1000
MTEXTBEGIN
1070
    73
1070
     1
1070
    44
1040
1.0
1070
    74
1070
     0
1000
MTEXTEND
  0
POINT
  5
9377
330
7F7A
100
AcDbEntity
  8
Defpoints
 62
     0
100
AcDbPoint
 10
818.3502058085251
 20
1081.759223040568
 30
0.0
  0
POINT
  5
9378
330
7F7A
100
AcDbEntity
  8
Defpoints
 62
     0
100
AcDbPoint
 10
818.3502058085251
 20
1001.759223040568
 30
0.0
  0
POINT
  5
9379
330
7F7A
100
AcDbEntity
  8
Defpoints
 62
     0
100
AcDbPoint
 10
722.2887743570717
 20
1001.759223040568
 30
0.0
  0
ENDBLK
  5
7F85
330
7F7A
100
AcDbEntity
  8
0
 62
     3
100
AcDbBlockEnd
  0
BLOCK
  5
834A
330
8340
100
AcDbEntity
  8
0
 62
     3
100
AcDbBlockBegin
  2
*D55
 70
     1
 10
0.0
 20
0.0
 30
0.0
  3
*D55
  1

  0
LINE
  5
94B5
330
8340
100
AcDbEntity
  8
実形
 62
     0
370
    18
100
AcDbLine
 10
2000.538635682686
 20
1645.759223040568
 30
0.0
 11
2069.361738032088
 21
1645.759223040568
 31
0.0
  0
LINE
  5
94B6
330
8340
100
AcDbEntity
  8
実形
 62
     0
370
    18
100
AcDbLine
 10
2000.538635682686
 20
757.7592230405679
 30
0.0
 11
2069.361738032087
 21
757.7592230405679
 31
0.0
  0
LINE
  5
94B7
330
8340
100
AcDbEntity
  8
実形
 62
     0
370
    18
100
AcDbLine
 10
2069.361738032088
 20
1635.759223040568
 30
0.0
 11
2069.361738032087
 21
767.7592230405679
 31
0.0
  0
INSERT
  5
94B8
330
8340
100
AcDbEntity
  8
実形
 62
     0
370
    18
100
AcDbBlockReference
  2
_Dot
 10
2069.361738032088
 20
1645.759223040568
 30
0.0
 41
10.0
 42
10.0
 43
10.0
 50
90.0
  0
INSERT
  5
94B9
330
8340
100
AcDbEntity
  8
実形
 62
     0
370
    18
100
AcDbBlockReference
  2
_Dot
 10
2069.361738032087
 20
757.7592230405679
 30
0.0
 41
10.0
 42
10.0
 43
10.0
 50
270.0
  0
MTEXT
  5
94BA
330
8340
100
AcDbEntity
  8
実形
 62
     0
100
AcDbMText
 10
2047.761738032087
 20
1201.759223040568
 30
0.0
 40
30.0
 41
0.0
 71
     5
 72
     1
  1
444
 11
0.0000000000000001
 21
1.0
 31
0.0
 73
     1
 44
1.0
1001
ACAD
1000
MTEXTBEGIN
1070
    73
1070
     1
1070
    44
1040
1.0
1070
    74
1070
     0
1000
MTEXTEND
  0
POINT
  5
94BB
330
8340
100
AcDbEntity
  8
Defpoints
 62
     0
100
AcDbPoint
 10
1935.538635682686
 20
1645.759223040568
 30
0.0
  0
POINT
  5
94BC
330
8340
100
AcDbEntity
  8
Defpoints
 62
     0
100
AcDbPoint
 10
1935.538635682686
 20
757.7592230405679
 30
0.0
  0
POINT
  5
94BD
330
8340
100
AcDbEntity
  8
Defpoints
 62
     0
100
AcDbPoint
 10
2069.361738032087
 20
757.7592230405679
 30
0.0
  0
ENDBLK
  5
834B
330
8340
100
AcDbEntity
  8
0
 62
     3
100
AcDbBlockEnd
  0
BLOCK
  5
8356
330
834C
100
AcDbEntity
  8
0
 62
     3
100
AcDbBlockBegin
  2
*D56
 70
     1
 10
0.0
 20
0.0
 30
0.0
  3
*D56
  1

  0
LINE
  5
94DD
330
834C
100
AcDbEntity
  8
実形
 62
     0
370
    18
100
AcDbLine
 10
1970.05867461503
 20
797.7592230405676
 30
0.0
 11
2003.818942934177
 21
797.7592230405676
 31
0.0
  0
LINE
  5
94DE
330
834C
100
AcDbEntity
  8
実形
 62
     0
370
    18
100
AcDbLine
 10
1970.913221601026
 20
757.7592230405679
 30
0.0
 11
2003.818942934177
 21
757.7592230405679
 31
0.0
  0
LINE
  5
94DF
330
834C
100
AcDbEntity
  8
実形
 62
     0
370
    18
100
AcDbLine
 10
2003.818942934177
 20
787.7592230405674
 30
0.0
 11
2003.818942934177
 21
767.7592230405679
 31
0.0
  0
MTEXT
  5
94E0
330
834C
100
AcDbEntity
  8
実形
 62
     0
100
AcDbMText
 10
1985.125698695258
 20
724.5071247977266
 30
0.0
 40
30.0
 41
0.0
 71
     5
 72
     1
  1
20
 11
0.0000000000000001
 21
1.0
 31
0.0
 73
     1
 44
1.0
1001
ACAD
1000
MTEXTBEGIN
1070
    73
1070
     1
1070
    44
1040
1.0
1070
    74
1070
     0
1000
MTEXTEND
  0
INSERT
  5
94E1
330
834C
100
AcDbEntity
  8
実形
 62
     0
370
    18
100
AcDbBlockReference
  2
_Dot
 10
2003.818942934177
 20
797.7592230405676
 30
0.0
 41
10.0
 42
10.0
 43
10.0
 50
90.0
  0
INSERT
  5
94E2
330
834C
100
AcDbEntity
  8
実形
 62
     0
370
    18
100
AcDbBlockReference
  2
_Dot
 10
2003.818942934177
 20
757.7592230405679
 30
0.0
 41
10.0
 42
10.0
 43
10.0
 50
270.0
  0
POINT
  5
94E3
330
834C
100
AcDbEntity
  8
Defpoints
 62
     0
100
AcDbPoint
 10
1905.05867461503
 20
797.7592230405676
 30
0.0
  0
POINT
  5
94E4
330
834C
100
AcDbEntity
  8
Defpoints
 62
     0
100
AcDbPoint
 10
1905.913221601027
 20
757.7592230405679
 30
0.0
  0
POINT
  5
94E5
330
834C
100
AcDbEntity
  8
Defpoints
 62
     0
100
AcDbPoint
 10
2003.818942934177
 20
757.7592230405679
 30
0.0
  0
ENDBLK
  5
8357
330
834C
100
AcDbEntity
  8
0
 62
     3
100
AcDbBlockEnd
  0
BLOCK
  5
8362
330
8358
100
AcDbEntity
  8
0
 62
     3
100
AcDbBlockBegin
  2
*D57
 70
     1
 10
0.0
 20
0.0
 30
0.0
  3
*D57
  1

  0
LINE
  5
94AC
330
8358
100
AcDbEntity
  8
実形
 62
     0
370
    18
100
AcDbLine
 10
2003.023706706363
 20
1605.759223040568
 30
0.0
 11
2003.818942934176
 21
1605.759223040568
 31
0.0
  0
LINE
  5
94AD
330
8358
100
AcDbEntity
  8
実形
 62
     0
370
    18
100
AcDbLine
 10
1996.391474721703
 20
797.7592230405676
 30
0.0
 11
2003.818942934176
 21
797.7592230405676
 31
0.0
  0
LINE
  5
94AE
330
8358
100
AcDbEntity
  8
実形
 62
     0
370
    18
100
AcDbLine
 10
2003.818942934176
 20
1595.759223040568
 30
0.0
 11
2003.818942934176
 21
807.7592230405674
 31
0.0
  0
INSERT
  5
94AF
330
8358
100
AcDbEntity
  8
実形
 62
     0
370
    18
100
AcDbBlockReference
  2
_Dot
 10
2003.818942934176
 20
1605.759223040568
 30
0.0
 41
10.0
 42
10.0
 43
10.0
 50
90.0
  0
INSERT
  5
94B0
330
8358
100
AcDbEntity
  8
実形
 62
     0
370
    18
100
AcDbBlockReference
  2
_Dot
 10
2003.818942934176
 20
797.7592230405676
 30
0.0
 41
10.0
 42
10.0
 43
10.0
 50
270.0
  0
MTEXT
  5
94B1
330
8358
100
AcDbEntity
  8
実形
 62
     0
100
AcDbMText
 10
1982.218942934176
 20
1201.759223040568
 30
0.0
 40
30.0
 41
0.0
 71
     5
 72
     1
  1
392
 11
0.0000000000000001
 21
1.0
 31
0.0
 73
     1
 44
1.0
1001
ACAD
1000
MTEXTBEGIN
1070
    73
1070
     1
1070
    44
1040
1.0
1070
    74
1070
     0
1000
MTEXTEND
  0
POINT
  5
94B2
330
8358
100
AcDbEntity
  8
Defpoints
 62
     0
100
AcDbPoint
 10
1938.023706706363
 20
1605.759223040568
 30
0.0
  0
POINT
  5
94B3
330
8358
100
AcDbEntity
  8
Defpoints
 62
     0
100
AcDbPoint
 10
1931.391474721703
 20
797.7592230405676
 30
0.0
  0
POINT
  5
94B4
330
8358
100
AcDbEntity
  8
Defpoints
 62
     0
100
AcDbPoint
 10
2003.818942934176
 20
797.7592230405676
 30
0.0
  0
ENDBLK
  5
8363
330
8358
100
AcDbEntity
  8
0
 62
     3
100
AcDbBlockEnd
  0
BLOCK
  5
836E
330
8364
100
AcDbEntity
  8
0
 62
     3
100
AcDbBlockBegin
  2
*D58
 70
     1
 10
0.0
 20
0.0
 30
0.0
  3
*D58
  1

  0
LINE
  5
94A3
330
8364
100
AcDbEntity
  8
実形
 62
     0
370
    18
100
AcDbLine
 10
1672.194896637511
 20
1593.759223040568
 30
0.0
 11
1718.395436204542
 21
1593.759223040568
 31
0.0
  0
LINE
  5
94A4
330
8364
100
AcDbEntity
  8
実形
 62
     0
370
    18
100
AcDbLine
 10
1672.19489663751
 20
809.7592230405679
 30
0.0
 11
1718.395436204542
 21
809.7592230405679
 31
0.0
  0
LINE
  5
94A5
330
8364
100
AcDbEntity
  8
実形
 62
     0
370
    18
100
AcDbLine
 10
1718.395436204542
 20
1583.759223040568
 30
0.0
 11
1718.395436204542
 21
819.7592230405678
 31
0.0
  0
INSERT
  5
94A6
330
8364
100
AcDbEntity
  8
実形
 62
     0
370
    18
100
AcDbBlockReference
  2
_Dot
 10
1718.395436204542
 20
1593.759223040568
 30
0.0
 41
10.0
 42
10.0
 43
10.0
 50
90.0
  0
INSERT
  5
94A7
330
8364
100
AcDbEntity
  8
実形
 62
     0
370
    18
100
AcDbBlockReference
  2
_Dot
 10
1718.395436204542
 20
809.7592230405679
 30
0.0
 41
10.0
 42
10.0
 43
10.0
 50
270.0
  0
MTEXT
  5
94A8
330
8364
100
AcDbEntity
  8
実形
 62
     0
100
AcDbMText
 10
1696.795436204541
 20
1201.759223040568
 30
0.0
 40
30.0
 41
0.0
 71
     5
 72
     1
  1
392
 11
0.0000000000000001
 21
1.0
 31
0.0
 73
     1
 44
1.0
1001
ACAD
1000
MTEXTBEGIN
1070
    73
1070
     1
1070
    44
1040
1.0
1070
    74
1070
     0
1000
MTEXTEND
  0
POINT
  5
94A9
330
8364
100
AcDbEntity
  8
Defpoints
 62
     0
100
AcDbPoint
 10
1607.19489663751
 20
1593.759223040568
 30
0.0
  0
POINT
  5
94AA
330
8364
100
AcDbEntity
  8
Defpoints
 62
     0
100
AcDbPoint
 10
1607.19489663751
 20
809.7592230405679
 30
0.0
  0
POINT
  5
94AB
330
8364
100
AcDbEntity
  8
Defpoints
 62
     0
100
AcDbPoint
 10
1718.395436204542
 20
809.7592230405679
 30
0.0
  0
ENDBLK
  5
836F
330
8364
100
AcDbEntity
  8
0
 62
     3
100
AcDbBlockEnd
  0
BLOCK
  5
837A
330
8370
100
AcDbEntity
  8
0
 62
     3
100
AcDbBlockBegin
  2
*D59
 70
     1
 10
0.0
 20
0.0
 30
0.0
  3
*D59
  1

  0
LINE
  5
949A
330
8370
100
AcDbEntity
  8
実形
 62
     0
370
    18
100
AcDbLine
 10
1672.19489663751
 20
1645.759223040568
 30
0.0
 11
1718.395436204542
 21
1645.759223040568
 31
0.0
  0
LINE
  5
949B
330
8370
100
AcDbEntity
  8
実形
 62
     0
370
    18
100
AcDbLine
 10
1672.19489663751
 20
757.7592230405679
 30
0.0
 11
1718.395436204542
 21
757.7592230405679
 31
0.0
  0
LINE
  5
949C
330
8370
100
AcDbEntity
  8
実形
 62
     0
370
    18
100
AcDbLine
 10
1718.395436204542
 20
1635.759223040568
 30
0.0
 11
1718.395436204542
 21
767.7592230405679
 31
0.0
  0
MTEXT
  5
949D
330
8370
100
AcDbEntity
  8
実形
 62
     0
100
AcDbMText
 10
1701.455429230357
 20
1680.361225671233
 30
0.0
 40
30.0
 41
0.0
 71
     5
 72
     1
  1
20
 11
0.0000000000000001
 21
1.0
 31
0.0
 73
     1
 44
1.0
1001
ACAD
1000
MTEXTBEGIN
1070
    73
1070
     1
1070
    44
1040
1.0
1070
    74
1070
     0
1000
MTEXTEND
  0
INSERT
  5
949E
330
8370
100
AcDbEntity
  8
実形
 62
     0
370
    18
100
AcDbBlockReference
  2
_Dot
 10
1718.395436204542
 20
1645.759223040568
 30
0.0
 41
10.0
 42
10.0
 43
10.0
 50
90.0
  0
INSERT
  5
949F
330
8370
100
AcDbEntity
  8
実形
 62
     0
370
    18
100
AcDbBlockReference
  2
_Dot
 10
1718.395436204542
 20
757.7592230405679
 30
0.0
 41
10.0
 42
10.0
 43
10.0
 50
270.0
  0
POINT
  5
94A0
330
8370
100
AcDbEntity
  8
Defpoints
 62
     0
100
AcDbPoint
 10
1607.19489663751
 20
1645.759223040568
 30
0.0
  0
POINT
  5
94A1
330
8370
100
AcDbEntity
  8
Defpoints
 62
     0
100
AcDbPoint
 10
1607.19489663751
 20
757.7592230405679
 30
0.0
  0
POINT
  5
94A2
330
8370
100
AcDbEntity
  8
Defpoints
 62
     0
100
AcDbPoint
 10
1718.395436204542
 20
757.7592230405679
 30
0.0
  0
ENDBLK
  5
837B
330
8370
100
AcDbEntity
  8
0
 62
     3
100
AcDbBlockEnd
  0
BLOCK
  5
8386
330
837C
100
AcDbEntity
  8
0
 62
     3
100
AcDbBlockBegin
  2
*D60
 70
     1
 10
0.0
 20
0.0
 30
0.0
  3
*D60
  1

  0
LINE
  5
9491
330
837C
100
AcDbEntity
  8
実形
 62
     0
370
    18
100
AcDbLine
 10
1672.19489663751
 20
1605.759223040568
 30
0.0
 11
1718.395436204542
 21
1605.759223040568
 31
0.0
  0
LINE
  5
9492
330
837C
100
AcDbEntity
  8
実形
 62
     0
370
    18
100
AcDbLine
 10
1672.19489663751
 20
797.7592230405678
 30
0.0
 11
1718.395436204542
 21
797.7592230405678
 31
0.0
  0
LINE
  5
9493
330
837C
100
AcDbEntity
  8
実形
 62
     0
370
    18
100
AcDbLine
 10
1718.395436204542
 20
1595.759223040568
 30
0.0
 11
1718.395436204542
 21
807.7592230405681
 31
0.0
  0
MTEXT
  5
9494
330
837C
100
AcDbEntity
  8
実形
 62
     0
100
AcDbMText
 10
1696.55840809503
 20
710.0986130909658
 30
0.0
 40
30.0
 41
0.0
 71
     5
 72
     1
  1
20
 11
0.0000000000000001
 21
1.0
 31
0.0
 73
     1
 44
1.0
1001
ACAD
1000
MTEXTBEGIN
1070
    73
1070
     1
1070
    44
1040
1.0
1070
    74
1070
     0
1000
MTEXTEND
  0
INSERT
  5
9495
330
837C
100
AcDbEntity
  8
実形
 62
     0
370
    18
100
AcDbBlockReference
  2
_Dot
 10
1718.395436204542
 20
1605.759223040568
 30
0.0
 41
10.0
 42
10.0
 43
10.0
 50
90.0
  0
INSERT
  5
9496
330
837C
100
AcDbEntity
  8
実形
 62
     0
370
    18
100
AcDbBlockReference
  2
_Dot
 10
1718.395436204542
 20
797.7592230405678
 30
0.0
 41
10.0
 42
10.0
 43
10.0
 50
270.0
  0
POINT
  5
9497
330
837C
100
AcDbEntity
  8
Defpoints
 62
     0
100
AcDbPoint
 10
1607.19489663751
 20
1605.759223040568
 30
0.0
  0
POINT
  5
9498
330
837C
100
AcDbEntity
  8
Defpoints
 62
     0
100
AcDbPoint
 10
1607.19489663751
 20
797.7592230405678
 30
0.0
  0
POINT
  5
9499
330
837C
100
AcDbEntity
  8
Defpoints
 62
     0
100
AcDbPoint
 10
1718.395436204542
 20
797.7592230405678
 30
0.0
  0
ENDBLK
  5
8387
330
837C
100
AcDbEntity
  8
0
 62
     3
100
AcDbBlockEnd
  0
BLOCK
  5
8394
330
8388
100
AcDbEntity
  8
0
 62
     3
100
AcDbBlockBegin
  2
*D61
 70
     1
 10
0.0
 20
0.0
 30
0.0
  3
*D61
  1

  0
LINE
  5
94BE
330
8388
100
AcDbEntity
  8
実形
 62
     0
370
    18
100
AcDbLine
 10
1864.139775979591
 20
691.1432538814079
 30
0.0
 11
1864.139775979591
 21
667.0740218893372
 31
0.0
  0
LINE
  5
94BF
330
8388
100
AcDbEntity
  8
実形
 62
     0
370
    18
100
AcDbLine
 10
1894.139775979591
 20
692.2981631212643
 30
0.0
 11
1894.139775979591
 21
667.0740218893372
 31
0.0
  0
LINE
  5
94C0
330
8388
100
AcDbEntity
  8
実形
 62
     0
370
    18
100
AcDbLine
 10
1854.139775979591
 20
667.0740218893372
 30
0.0
 11
1844.139775979591
 21
667.0740218893372
 31
0.0
  0
LINE
  5
94C1
330
8388
100
AcDbEntity
  8
実形
 62
     0
370
    18
100
AcDbLine
 10
1904.13977597959
 20
667.0740218893372
 30
0.0
 11
1914.139775979591
 21
667.0740218893372
 31
0.0
  0
MTEXT
  5
94C2
330
8388
100
AcDbEntity
  8
実形
 62
     0
100
AcDbMText
 10
1880.59497871967
 20
636.5960105308186
 30
0.0
 40
30.0
 41
0.0
 71
     5
 72
     1
  1
15
 73
     1
 44
1.0
1001
ACAD
1000
MTEXTBEGIN
1070
    73
1070
     1
1070
    44
1040
1.0
1070
    74
1070
     0
1000
MTEXTEND
  0
LINE
  5
94C3
330
8388
100
AcDbEntity
  8
実形
 62
     0
370
    18
100
AcDbLine
 10
1864.139775979591
 20
667.0740218893372
 30
0.0
 11
1894.139775979591
 21
667.0740218893372
 31
0.0
  0
INSERT
  5
94C4
330
8388
100
AcDbEntity
  8
実形
 62
     0
370
    18
100
AcDbBlockReference
  2
_Dot
 10
1864.139775979591
 20
667.0740218893372
 30
0.0
 41
10.0
 42
10.0
 43
10.0
  0
INSERT
  5
94C5
330
8388
100
AcDbEntity
  8
実形
 62
     0
370
    18
100
AcDbBlockReference
  2
_Dot
 10
1894.139775979591
 20
667.0740218893372
 30
0.0
 41
10.0
 42
10.0
 43
10.0
 50
180.0
  0
POINT
  5
94C6
330
8388
100
AcDbEntity
  8
Defpoints
 62
     0
100
AcDbPoint
 10
1864.139775979591
 20
756.1432538814077
 30
0.0
  0
POINT
  5
94C7
330
8388
100
AcDbEntity
  8
Defpoints
 62
     0
100
AcDbPoint
 10
1894.139775979591
 20
757.2981631212643
 30
0.0
  0
POINT
  5
94C8
330
8388
100
AcDbEntity
  8
Defpoints
 62
     0
100
AcDbPoint
 10
1894.139775979591
 20
667.0740218893372
 30
0.0
  0
ENDBLK
  5
8395
330
8388
100
AcDbEntity
  8
0
 62
     3
100
AcDbBlockEnd
  0
BLOCK
  5
83A2
330
8396
100
AcDbEntity
  8
0
 62
     3
100
AcDbBlockBegin
  2
*D62
 70
     1
 10
0.0
 20
0.0
 30
0.0
  3
*D62
  1

  0
LINE
  5
94D2
330
8396
100
AcDbEntity
  8
実形
 62
     0
370
    18
100
AcDbLine
 10
1968.988386074413
 20
809.7592230405675
 30
0.0
 11
2003.818942934177
 21
809.7592230405675
 31
0.0
  0
LINE
  5
94D3
330
8396
100
AcDbEntity
  8
実形
 62
     0
370
    18
100
AcDbLine
 10
1968.893235807794
 20
797.7592230405678
 30
0.0
 11
2003.818942934177
 21
797.7592230405678
 31
0.0
  0
LINE
  5
94D4
330
8396
100
AcDbEntity
  8
実形
 62
     0
370
    18
100
AcDbLine
 10
2003.818942934177
 20
819.7592230405675
 30
0.0
 11
2003.818942934177
 21
829.7592230405676
 31
0.0
  0
LINE
  5
94D5
330
8396
100
AcDbEntity
  8
実形
 62
     0
370
    18
100
AcDbLine
 10
2003.818942934177
 20
787.7592230405679
 30
0.0
 11
2003.818942934177
 21
777.7592230405679
 31
0.0
  0
MTEXT
  5
94D6
330
8396
100
AcDbEntity
  8
実形
 62
     0
100
AcDbMText
 10
1949.345203458666
 20
804.8594969781651
 30
0.0
 40
25.0
 41
0.0
 71
     5
 72
     1
  1
6
 11
0.0000000000000001
 21
1.0
 31
0.0
 73
     1
 44
1.0
1001
ACAD
1000
MTEXTBEGIN
1070
    73
1070
     1
1070
    44
1040
1.0
1070
    74
1070
     0
1000
MTEXTEND
  0
LINE
  5
94D7
330
8396
100
AcDbEntity
  8
実形
 62
     0
370
    18
100
AcDbLine
 10
2003.818942934177
 20
809.7592230405675
 30
0.0
 11
2003.818942934177
 21
797.7592230405678
 31
0.0
  0
INSERT
  5
94D8
330
8396
100
AcDbEntity
  8
実形
 62
     0
370
    18
100
AcDbBlockReference
  2
_Dot
 10
2003.818942934177
 20
809.7592230405675
 30
0.0
 41
10.0
 42
10.0
 43
10.0
 50
270.0
  0
INSERT
  5
94D9
330
8396
100
AcDbEntity
  8
実形
 62
     0
370
    18
100
AcDbBlockReference
  2
_Dot
 10
2003.818942934177
 20
797.7592230405678
 30
0.0
 41
10.0
 42
10.0
 43
10.0
 50
90.0
  0
POINT
  5
94DA
330
8396
100
AcDbEntity
  8
Defpoints
 62
     0
100
AcDbPoint
 10
1903.988386074413
 20
809.7592230405675
 30
0.0
  0
POINT
  5
94DB
330
8396
100
AcDbEntity
  8
Defpoints
 62
     0
100
AcDbPoint
 10
1903.893235807794
 20
797.7592230405678
 30
0.0
  0
POINT
  5
94DC
330
8396
100
AcDbEntity
  8
Defpoints
 62
     0
100
AcDbPoint
 10
2003.818942934177
 20
797.7592230405678
 30
0.0
  0
ENDBLK
  5
83A3
330
8396
100
AcDbEntity
  8
0
 62
     3
100
AcDbBlockEnd
  0
BLOCK
  5
83AE
330
83A4
100
AcDbEntity
  8
0
 62
     3
100
AcDbBlockBegin
  2
*D63
 70
     1
 10
0.0
 20
0.0
 30
0.0
  3
*D63
  1

  0
LINE
  5
94E6
330
83A4
100
AcDbEntity
  8
実形
 62
     0
370
    18
100
AcDbLine
 10
1987.446961751304
 20
1605.759223040568
 30
0.0
 11
2003.818942934177
 21
1605.759223040568
 31
0.0
  0
LINE
  5
94E7
330
83A4
100
AcDbEntity
  8
実形
 62
     0
370
    18
100
AcDbLine
 10
1968.748395283508
 20
1645.759223040568
 30
0.0
 11
2003.818942934177
 21
1645.759223040568
 31
0.0
  0
LINE
  5
94E8
330
83A4
100
AcDbEntity
  8
実形
 62
     0
370
    18
100
AcDbLine
 10
2003.818942934177
 20
1615.759223040569
 30
0.0
 11
2003.818942934177
 21
1635.759223040568
 31
0.0
  0
MTEXT
  5
94E9
330
83A4
100
AcDbEntity
  8
実形
 62
     0
100
AcDbMText
 10
1985.125698695258
 20
1686.319072285886
 30
0.0
 40
30.0
 41
0.0
 71
     5
 72
     1
  1
20
 11
0.0000000000000001
 21
1.0
 31
0.0
 73
     1
 44
1.0
1001
ACAD
1000
MTEXTBEGIN
1070
    73
1070
     1
1070
    44
1040
1.0
1070
    74
1070
     0
1000
MTEXTEND
  0
INSERT
  5
94EA
330
83A4
100
AcDbEntity
  8
実形
 62
     0
370
    18
100
AcDbBlockReference
  2
_Dot
 10
2003.818942934177
 20
1605.759223040568
 30
0.0
 41
10.0
 42
10.0
 43
10.0
 50
270.0
  0
INSERT
  5
94EB
330
83A4
100
AcDbEntity
  8
実形
 62
     0
370
    18
100
AcDbBlockReference
  2
_Dot
 10
2003.818942934177
 20
1645.759223040568
 30
0.0
 41
10.0
 42
10.0
 43
10.0
 50
90.0
  0
POINT
  5
94EC
330
83A4
100
AcDbEntity
  8
Defpoints
 62
     0
100
AcDbPoint
 10
1922.446961751304
 20
1605.759223040568
 30
0.0
  0
POINT
  5
94ED
330
83A4
100
AcDbEntity
  8
Defpoints
 62
     0
100
AcDbPoint
 10
1903.748395283508
 20
1645.759223040568
 30
0.0
  0
POINT
  5
94EE
330
83A4
100
AcDbEntity
  8
Defpoints
 62
     0
100
AcDbPoint
 10
2003.818942934177
 20
1645.759223040568
 30
0.0
  0
ENDBLK
  5
83AF
330
83A4
100
AcDbEntity
  8
0
 62
     3
100
AcDbBlockEnd
  0
BLOCK
  5
83BC
330
83B0
100
AcDbEntity
  8
0
 62
     3
100
AcDbBlockBegin
  2
*D64
 70
     1
 10
0.0
 20
0.0
 30
0.0
  3
*D64
  1

  0
LINE
  5
9516
330
83B0
100
AcDbEntity
  8
実形
 62
     0
370
    18
100
AcDbLine
 10
1864.139775979591
 20
1712.375192199728
 30
0.0
 11
1864.139775979591
 21
1736.444424191799
 31
0.0
  0
LINE
  5
9517
330
83B0
100
AcDbEntity
  8
実形
 62
     0
370
    18
100
AcDbLine
 10
1894.139775979591
 20
1711.220282959871
 30
0.0
 11
1894.139775979591
 21
1736.444424191799
 31
0.0
  0
LINE
  5
9518
330
83B0
100
AcDbEntity
  8
実形
 62
     0
370
    18
100
AcDbLine
 10
1854.139775979591
 20
1736.444424191799
 30
0.0
 11
1844.139775979591
 21
1736.444424191799
 31
0.0
  0
LINE
  5
9519
330
83B0
100
AcDbEntity
  8
実形
 62
     0
370
    18
100
AcDbLine
 10
1904.13977597959
 20
1736.444424191799
 30
0.0
 11
1914.139775979591
 21
1736.444424191799
 31
0.0
  0
MTEXT
  5
951A
330
83B0
100
AcDbEntity
  8
実形
 62
     0
100
AcDbMText
 10
1880.59497871967
 20
1766.922435550317
 30
0.0
 40
30.0
 41
0.0
 71
     5
 72
     1
  1
15
 73
     1
 44
1.0
1001
ACAD
1000
MTEXTBEGIN
1070
    73
1070
     1
1070
    44
1040
1.0
1070
    74
1070
     0
1000
MTEXTEND
  0
LINE
  5
951B
330
83B0
100
AcDbEntity
  8
実形
 62
     0
370
    18
100
AcDbLine
 10
1864.139775979591
 20
1736.444424191799
 30
0.0
 11
1894.139775979591
 21
1736.444424191799
 31
0.0
  0
INSERT
  5
951C
330
83B0
100
AcDbEntity
  8
実形
 62
     0
370
    18
100
AcDbBlockReference
  2
_Dot
 10
1864.139775979591
 20
1736.444424191799
 30
0.0
 41
10.0
 42
10.0
 43
10.0
  0
INSERT
  5
951D
330
83B0
100
AcDbEntity
  8
実形
 62
     0
370
    18
100
AcDbBlockReference
  2
_Dot
 10
1894.139775979591
 20
1736.444424191799
 30
0.0
 41
10.0
 42
10.0
 43
10.0
 50
180.0
  0
POINT
  5
951E
330
83B0
100
AcDbEntity
  8
Defpoints
 62
     0
100
AcDbPoint
 10
1864.139775979591
 20
1647.375192199728
 30
0.0
  0
POINT
  5
951F
330
83B0
100
AcDbEntity
  8
Defpoints
 62
     0
100
AcDbPoint
 10
1894.139775979591
 20
1646.220282959871
 30
0.0
  0
POINT
  5
9520
330
83B0
100
AcDbEntity
  8
Defpoints
 62
     0
100
AcDbPoint
 10
1894.139775979591
 20
1736.444424191799
 30
0.0
  0
ENDBLK
  5
83BD
330
83B0
100
AcDbEntity
  8
0
 62
     3
100
AcDbBlockEnd
  0
BLOCK
  5
83CA
330
83BE
100
AcDbEntity
  8
0
 62
     3
100
AcDbBlockBegin
  2
*D65
 70
     1
 10
0.0
 20
0.0
 30
0.0
  3
*D65
  1

  0
LINE
  5
950C
330
83BE
100
AcDbEntity
  8
実形
 62
     0
370
    18
100
AcDbLine
 10
1968.988386074413
 20
1593.759223040568
 30
0.0
 11
2003.818942934177
 21
1593.759223040568
 31
0.0
  0
LINE
  5
950D
330
83BE
100
AcDbEntity
  8
実形
 62
     0
370
    18
100
AcDbLine
 10
1969.881643165219
 20
1605.759223040568
 30
0.0
 11
2003.818942934177
 21
1605.759223040568
 31
0.0
  0
LINE
  5
950E
330
83BE
100
AcDbEntity
  8
実形
 62
     0
370
    18
100
AcDbLine
 10
2003.818942934177
 20
1583.759223040568
 30
0.0
 11
2003.818942934177
 21
1573.759223040568
 31
0.0
  0
LINE
  5
950F
330
83BE
100
AcDbEntity
  8
実形
 62
     0
370
    18
100
AcDbLine
 10
2003.818942934177
 20
1615.759223040568
 30
0.0
 11
2003.818942934177
 21
1625.759223040568
 31
0.0
  0
LINE
  5
9510
330
83BE
100
AcDbEntity
  8
実形
 62
     0
370
    18
100
AcDbLine
 10
2003.818942934177
 20
1593.759223040568
 30
0.0
 11
2003.818942934177
 21
1605.759223040568
 31
0.0
  0
INSERT
  5
9511
330
83BE
100
AcDbEntity
  8
実形
 62
     0
370
    18
100
AcDbBlockReference
  2
_Dot
 10
2003.818942934177
 20
1593.759223040568
 30
0.0
 41
10.0
 42
10.0
 43
10.0
 50
90.0
  0
INSERT
  5
9512
330
83BE
100
AcDbEntity
  8
実形
 62
     0
370
    18
100
AcDbBlockReference
  2
_Dot
 10
2003.818942934177
 20
1605.759223040568
 30
0.0
 41
10.0
 42
10.0
 43
10.0
 50
270.0
  0
POINT
  5
9513
330
83BE
100
AcDbEntity
  8
Defpoints
 62
     0
100
AcDbPoint
 10
1903.988386074413
 20
1593.759223040568
 30
0.0
  0
POINT
  5
9514
330
83BE
100
AcDbEntity
  8
Defpoints
 62
     0
100
AcDbPoint
 10
1904.881643165219
 20
1605.759223040568
 30
0.0
  0
POINT
  5
9515
330
83BE
100
AcDbEntity
  8
Defpoints
 62
     0
100
AcDbPoint
 10
2003.818942934177
 20
1605.759223040568
 30
0.0
  0
ENDBLK
  5
83CB
330
83BE
100
AcDbEntity
  8
0
 62
     3
100
AcDbBlockEnd
  0
BLOCK
  5
83D8
330
83CC
100
AcDbEntity
  8
0
 62
     3
100
AcDbBlockBegin
  2
*D66
 70
     1
 10
0.0
 20
0.0
 30
0.0
  3
*D66
  1

  0
LINE
  5
9501
330
83CC
100
AcDbEntity
  8
実形
 62
     0
370
    18
100
AcDbLine
 10
1968.988386074413
 20
1593.759223040569
 30
0.0
 11
2003.818942934177
 21
1593.759223040569
 31
0.0
  0
LINE
  5
9502
330
83CC
100
AcDbEntity
  8
実形
 62
     0
370
    18
100
AcDbLine
 10
1968.748395283508
 20
1605.759223040568
 30
0.0
 11
2003.818942934177
 21
1605.759223040568
 31
0.0
  0
LINE
  5
9503
330
83CC
100
AcDbEntity
  8
実形
 62
     0
370
    18
100
AcDbLine
 10
2003.818942934177
 20
1583.759223040568
 30
0.0
 11
2003.818942934177
 21
1573.759223040569
 31
0.0
  0
LINE
  5
9504
330
83CC
100
AcDbEntity
  8
実形
 62
     0
370
    18
100
AcDbLine
 10
2003.818942934177
 20
1615.759223040568
 30
0.0
 11
2003.818942934177
 21
1625.759223040568
 31
0.0
  0
MTEXT
  5
9505
330
83CC
100
AcDbEntity
  8
実形
 62
     0
100
AcDbMText
 10
1947.378377420245
 20
1599.694673478639
 30
0.0
 40
25.0
 41
0.0
 71
     5
 72
     1
  1
6
 11
0.0000000000000001
 21
1.0
 31
0.0
 73
     1
 44
1.0
1001
ACAD
1000
MTEXTBEGIN
1070
    73
1070
     1
1070
    44
1040
1.0
1070
    74
1070
     0
1000
MTEXTEND
  0
LINE
  5
9506
330
83CC
100
AcDbEntity
  8
実形
 62
     0
370
    18
100
AcDbLine
 10
2003.818942934177
 20
1593.759223040569
 30
0.0
 11
2003.818942934177
 21
1605.759223040568
 31
0.0
  0
INSERT
  5
9507
330
83CC
100
AcDbEntity
  8
実形
 62
     0
370
    18
100
AcDbBlockReference
  2
_Dot
 10
2003.818942934177
 20
1593.759223040569
 30
0.0
 41
10.0
 42
10.0
 43
10.0
 50
90.0
  0
INSERT
  5
9508
330
83CC
100
AcDbEntity
  8
実形
 62
     0
370
    18
100
AcDbBlockReference
  2
_Dot
 10
2003.818942934177
 20
1605.759223040568
 30
0.0
 41
10.0
 42
10.0
 43
10.0
 50
270.0
  0
POINT
  5
9509
330
83CC
100
AcDbEntity
  8
Defpoints
 62
     0
100
AcDbPoint
 10
1903.988386074413
 20
1593.759223040569
 30
0.0
  0
POINT
  5
950A
330
83CC
100
AcDbEntity
  8
Defpoints
 62
     0
100
AcDbPoint
 10
1903.748395283508
 20
1605.759223040568
 30
0.0
  0
POINT
  5
950B
330
83CC
100
AcDbEntity
  8
Defpoints
 62
     0
100
AcDbPoint
 10
2003.818942934177
 20
1605.759223040568
 30
0.0
  0
ENDBLK
  5
83D9
330
83CC
100
AcDbEntity
  8
0
 62
     3
100
AcDbBlockEnd
  0
BLOCK
  5
87AB
330
87A1
100
AcDbEntity
  8
0
 62
     3
100
AcDbBlockBegin
  2
*D67
 70
     1
 10
0.0
 20
0.0
 30
0.0
  3
*D67
  1

  0
LINE
  5
93A7
330
87A1
100
AcDbEntity
  8
実形
 62
     0
370
    18
100
AcDbLine
 10
910.7710340146239
 20
631.6154900242191
 30
0.0
 11
910.7710340146239
 21
581.7761970494935
 31
0.0
  0
LINE
  5
93A8
330
87A1
100
AcDbEntity
  8
実形
 62
     0
370
    18
100
AcDbLine
 10
1306.771034014623
 20
631.6154900242191
 30
0.0
 11
1306.771034014623
 21
581.7761970494935
 31
0.0
  0
LINE
  5
93A9
330
87A1
100
AcDbEntity
  8
実形
 62
     0
370
    18
100
AcDbLine
 10
920.771034014624
 20
581.7761970494935
 30
0.0
 11
1296.771034014623
 21
581.7761970494935
 31
0.0
  0
MTEXT
  5
93AA
330
87A1
100
AcDbEntity
  8
実形
 62
     0
100
AcDbMText
 10
1109.205356699319
 20
603.3761970494935
 30
0.0
 40
30.0
 41
0.0
 71
     5
 72
     1
  1
198
 73
     1
 44
1.0
1001
ACAD
1000
MTEXTBEGIN
1070
    73
1070
     1
1070
    44
1040
1.0
1070
    74
1070
     0
1000
MTEXTEND
  0
INSERT
  5
93AB
330
87A1
100
AcDbEntity
  8
実形
 62
     0
370
    18
100
AcDbBlockReference
  2
_Dot
 10
910.7710340146239
 20
581.7761970494935
 30
0.0
 41
10.0
 42
10.0
 43
10.0
 50
180.0
  0
INSERT
  5
93AC
330
87A1
100
AcDbEntity
  8
実形
 62
     0
370
    18
100
AcDbBlockReference
  2
_Dot
 10
1306.771034014623
 20
581.7761970494935
 30
0.0
 41
10.0
 42
10.0
 43
10.0
  0
POINT
  5
93AD
330
87A1
100
AcDbEntity
  8
Defpoints
 62
     0
100
AcDbPoint
 10
910.7710340146239
 20
696.615490024219
 30
0.0
  0
POINT
  5
93AE
330
87A1
100
AcDbEntity
  8
Defpoints
 62
     0
100
AcDbPoint
 10
1306.771034014623
 20
696.615490024219
 30
0.0
  0
POINT
  5
93AF
330
87A1
100
AcDbEntity
  8
Defpoints
 62
     0
100
AcDbPoint
 10
1306.771034014623
 20
581.7761970494935
 30
0.0
  0
ENDBLK
  5
87AC
330
87A1
100
AcDbEntity
  8
0
 62
     3
100
AcDbBlockEnd
  0
BLOCK
  5
87B7
330
87AD
100
AcDbEntity
  8
0
 62
     3
100
AcDbBlockBegin
  2
*D68
 70
     1
 10
0.0
 20
0.0
 30
0.0
  3
*D68
  1

  0
LINE
  5
939E
330
87AD
100
AcDbEntity
  8
実形
 62
     0
370
    18
100
AcDbLine
 10
898.7710340146241
 20
631.6154900242191
 30
0.0
 11
898.7710340146241
 21
581.7761970494935
 31
0.0
  0
LINE
  5
939F
330
87AD
100
AcDbEntity
  8
実形
 62
     0
370
    18
100
AcDbLine
 10
1318.771034014624
 20
631.6154900242191
 30
0.0
 11
1318.771034014624
 21
581.7761970494935
 31
0.0
  0
LINE
  5
93A0
330
87AD
100
AcDbEntity
  8
実形
 62
     0
370
    18
100
AcDbLine
 10
908.7710340146239
 20
581.7761970494935
 30
0.0
 11
1308.771034014623
 21
581.7761970494935
 31
0.0
  0
MTEXT
  5
93A1
330
87AD
100
AcDbEntity
  8
実形
 62
     0
100
AcDbMText
 10
1312.448027638127
 20
658.5344019312409
 30
0.0
 40
30.0
 41
0.0
 71
     5
 72
     1
  1
6
 73
     1
 44
1.0
1001
ACAD
1000
MTEXTBEGIN
1070
    73
1070
     1
1070
    44
1040
1.0
1070
    74
1070
     0
1000
MTEXTEND
  0
INSERT
  5
93A2
330
87AD
100
AcDbEntity
  8
実形
 62
     0
370
    18
100
AcDbBlockReference
  2
_Dot
 10
898.7710340146241
 20
581.7761970494935
 30
0.0
 41
10.0
 42
10.0
 43
10.0
 50
180.0
  0
INSERT
  5
93A3
330
87AD
100
AcDbEntity
  8
実形
 62
     0
370
    18
100
AcDbBlockReference
  2
_Dot
 10
1318.771034014624
 20
581.7761970494935
 30
0.0
 41
10.0
 42
10.0
 43
10.0
  0
POINT
  5
93A4
330
87AD
100
AcDbEntity
  8
Defpoints
 62
     0
100
AcDbPoint
 10
898.7710340146241
 20
696.615490024219
 30
0.0
  0
POINT
  5
93A5
330
87AD
100
AcDbEntity
  8
Defpoints
 62
     0
100
AcDbPoint
 10
1318.771034014624
 20
696.615490024219
 30
0.0
  0
POINT
  5
93A6
330
87AD
100
AcDbEntity
  8
Defpoints
 62
     0
100
AcDbPoint
 10
1318.771034014624
 20
581.7761970494935
 30
0.0
  0
ENDBLK
  5
87B8
330
87AD
100
AcDbEntity
  8
0
 62
     3
100
AcDbBlockEnd
  0
BLOCK
  5
87C3
330
87B9
100
AcDbEntity
  8
0
 62
     3
100
AcDbBlockBegin
  2
*D69
 70
     1
 10
0.0
 20
0.0
 30
0.0
  3
*D69
  1

  0
LINE
  5
9395
330
87B9
100
AcDbEntity
  8
実形
 62
     0
370
    18
100
AcDbLine
 10
898.0826962644339
 20
576.6876240071074
 30
0.0
 11
898.0826962644339
 21
581.7761970494935
 31
0.0
  0
LINE
  5
9396
330
87B9
100
AcDbEntity
  8
実形
 62
     0
370
    18
100
AcDbLine
 10
1304.271034014623
 20
580.8767455479187
 30
0.0
 11
1304.271034014623
 21
581.7761970494935
 31
0.0
  0
LINE
  5
9397
330
87B9
100
AcDbEntity
  8
実形
 62
     0
370
    18
100
AcDbLine
 10
908.0826962644341
 20
581.7761970494935
 30
0.0
 11
1294.271034014623
 21
581.7761970494935
 31
0.0
  0
MTEXT
  5
9398
330
87B9
100
AcDbEntity
  8
実形
 62
     0
100
AcDbMText
 10
903.4829687759973
 20
655.8828868774529
 30
0.0
 40
30.0
 41
0.0
 71
     5
 72
     1
  1
6
 73
     1
 44
1.0
1001
ACAD
1000
MTEXTBEGIN
1070
    73
1070
     1
1070
    44
1040
1.0
1070
    74
1070
     0
1000
MTEXTEND
  0
INSERT
  5
9399
330
87B9
100
AcDbEntity
  8
実形
 62
     0
370
    18
100
AcDbBlockReference
  2
_Dot
 10
898.0826962644339
 20
581.7761970494935
 30
0.0
 41
10.0
 42
10.0
 43
10.0
 50
180.0
  0
INSERT
  5
939A
330
87B9
100
AcDbEntity
  8
実形
 62
     0
370
    18
100
AcDbBlockReference
  2
_Dot
 10
1304.271034014623
 20
581.7761970494935
 30
0.0
 41
10.0
 42
10.0
 43
10.0
  0
POINT
  5
939B
330
87B9
100
AcDbEntity
  8
Defpoints
 62
     0
100
AcDbPoint
 10
898.0826962644339
 20
641.6876240071074
 30
0.0
  0
POINT
  5
939C
330
87B9
100
AcDbEntity
  8
Defpoints
 62
     0
100
AcDbPoint
 10
1304.271034014623
 20
645.8767455479187
 30
0.0
  0
POINT
  5
939D
330
87B9
100
AcDbEntity
  8
Defpoints
 62
     0
100
AcDbPoint
 10
1304.271034014623
 20
581.7761970494935
 30
0.0
  0
ENDBLK
  5
87C4
330
87B9
100
AcDbEntity
  8
0
 62
     3
100
AcDbBlockEnd
  0
BLOCK
  5
87CF
330
87C5
100
AcDbEntity
  8
0
 62
     3
100
AcDbBlockBegin
  2
*D70
 70
     1
 10
0.0
 20
0.0
 30
0.0
  3
*D70
  1

  0
LINE
  5
93DD
330
87C5
100
AcDbEntity
  8
実形
 62
     0
370
    18
100
AcDbLine
 10
1318.771034014624
 20
630.365687451836
 30
0.0
 11
1318.771034014624
 21
581.7761970494935
 31
0.0
  0
LINE
  5
93DE
330
87C5
100
AcDbEntity
  8
実形
 62
     0
370
    18
100
AcDbLine
 10
1358.771034014624
 20
630.3656874518362
 30
0.0
 11
1358.771034014624
 21
581.7761970494935
 31
0.0
  0
LINE
  5
93DF
330
87C5
100
AcDbEntity
  8
実形
 62
     0
370
    18
100
AcDbLine
 10
1328.771034014623
 20
581.7761970494935
 30
0.0
 11
1348.771034014624
 21
581.7761970494935
 31
0.0
  0
MTEXT
  5
93E0
330
87C5
100
AcDbEntity
  8
実形
 62
     0
100
AcDbMText
 10
1396.501054352438
 20
605.7253183657726
 30
0.0
 40
30.0
 41
0.0
 71
     5
 72
     1
  1
20
 73
     1
 44
1.0
1001
ACAD
1000
MTEXTBEGIN
1070
    73
1070
     1
1070
    44
1040
1.0
1070
    74
1070
     0
1000
MTEXTEND
  0
INSERT
  5
93E1
330
87C5
100
AcDbEntity
  8
実形
 62
     0
370
    18
100
AcDbBlockReference
  2
_Dot
 10
1318.771034014624
 20
581.7761970494935
 30
0.0
 41
10.0
 42
10.0
 43
10.0
 50
180.0
  0
INSERT
  5
93E2
330
87C5
100
AcDbEntity
  8
実形
 62
     0
370
    18
100
AcDbBlockReference
  2
_Dot
 10
1358.771034014624
 20
581.7761970494935
 30
0.0
 41
10.0
 42
10.0
 43
10.0
  0
POINT
  5
93E3
330
87C5
100
AcDbEntity
  8
Defpoints
 62
     0
100
AcDbPoint
 10
1318.771034014624
 20
695.3656874518359
 30
0.0
  0
POINT
  5
93E4
330
87C5
100
AcDbEntity
  8
Defpoints
 62
     0
100
AcDbPoint
 10
1358.771034014624
 20
695.3656874518363
 30
0.0
  0
POINT
  5
93E5
330
87C5
100
AcDbEntity
  8
Defpoints
 62
     0
100
AcDbPoint
 10
1358.771034014624
 20
581.7761970494935
 30
0.0
  0
ENDBLK
  5
87D0
330
87C5
100
AcDbEntity
  8
0
 62
     3
100
AcDbBlockEnd
  0
BLOCK
  5
87DB
330
87D1
100
AcDbEntity
  8
0
 62
     3
100
AcDbBlockBegin
  2
*D71
 70
     1
 10
0.0
 20
0.0
 30
0.0
  3
*D71
  1

  0
LINE
  5
93B0
330
87D1
100
AcDbEntity
  8
実形
 62
     0
370
    18
100
AcDbLine
 10
858.7710340146234
 20
630.365687451836
 30
0.0
 11
858.7710340146234
 21
581.7761970494935
 31
0.0
  0
LINE
  5
93B1
330
87D1
100
AcDbEntity
  8
実形
 62
     0
370
    18
100
AcDbLine
 10
898.7710340146241
 20
630.3656874518362
 30
0.0
 11
898.7710340146241
 21
581.7761970494935
 31
0.0
  0
LINE
  5
93B2
330
87D1
100
AcDbEntity
  8
実形
 62
     0
370
    18
100
AcDbLine
 10
868.7710340146233
 20
581.7761970494935
 30
0.0
 11
888.771034014624
 21
581.7761970494935
 31
0.0
  0
MTEXT
  5
93B3
330
87D1
100
AcDbEntity
  8
実形
 62
     0
100
AcDbMText
 10
819.6403534577873
 20
604.698150384595
 30
0.0
 40
30.0
 41
0.0
 71
     5
 72
     1
  1
20
 73
     1
 44
1.0
1001
ACAD
1000
MTEXTBEGIN
1070
    73
1070
     1
1070
    44
1040
1.0
1070
    74
1070
     0
1000
MTEXTEND
  0
INSERT
  5
93B4
330
87D1
100
AcDbEntity
  8
実形
 62
     0
370
    18
100
AcDbBlockReference
  2
_Dot
 10
858.7710340146234
 20
581.7761970494935
 30
0.0
 41
10.0
 42
10.0
 43
10.0
 50
180.0
  0
INSERT
  5
93B5
330
87D1
100
AcDbEntity
  8
実形
 62
     0
370
    18
100
AcDbBlockReference
  2
_Dot
 10
898.7710340146241
 20
581.7761970494935
 30
0.0
 41
10.0
 42
10.0
 43
10.0
  0
POINT
  5
93B6
330
87D1
100
AcDbEntity
  8
Defpoints
 62
     0
100
AcDbPoint
 10
858.7710340146234
 20
695.3656874518359
 30
0.0
  0
POINT
  5
93B7
330
87D1
100
AcDbEntity
  8
Defpoints
 62
     0
100
AcDbPoint
 10
898.7710340146241
 20
695.3656874518363
 30
0.0
  0
POINT
  5
93B8
330
87D1
100
AcDbEntity
  8
Defpoints
 62
     0
100
AcDbPoint
 10
898.7710340146241
 20
581.7761970494935
 30
0.0
  0
ENDBLK
  5
87DC
330
87D1
100
AcDbEntity
  8
0
 62
     3
100
AcDbBlockEnd
  0
BLOCK
  5
88D4
330
88D3
100
AcDbEntity
  8
0
 62
     3
100
AcDbBlockBegin
  2
*D72
 70
     1
 10
0.0
 20
0.0
 30
0.0
  3
*D72
  1

  0
LINE
  5
88D5
330
88D3
100
AcDbEntity
  8
実形
 62
     0
370
    18
100
AcDbLine
 10
1496.128647434989
 20
1251.580390790751
 30
0.0
 11
1544.102903920704
 21
1251.580390790751
 31
0.0
  0
LINE
  5
88D6
330
88D3
100
AcDbEntity
  8
実形
 62
     0
370
    18
100
AcDbLine
 10
1496.128647434989
 20
1191.580390790751
 30
0.0
 11
1544.102903920704
 21
1191.58039079075
 31
0.0
  0
LINE
  5
88D7
330
88D3
100
AcDbEntity
  8
実形
 62
     0
370
    18
100
AcDbLine
 10
1544.102903920704
 20
1241.580390790751
 30
0.0
 11
1544.102903920704
 21
1201.58039079075
 31
0.0
  0
INSERT
  5
88D8
330
88D3
100
AcDbEntity
  8
実形
 62
     0
370
    18
100
AcDbBlockReference
  2
_Dot
 10
1544.102903920704
 20
1251.580390790751
 30
0.0
 41
10.0
 42
10.0
 43
10.0
 50
90.0
  0
INSERT
  5
88D9
330
88D3
100
AcDbEntity
  8
実形
 62
     0
370
    18
100
AcDbBlockReference
  2
_Dot
 10
1544.102903920704
 20
1191.58039079075
 30
0.0
 41
10.0
 42
10.0
 43
10.0
 50
270.0
  0
MTEXT
  5
88DA
330
88D3
100
AcDbEntity
  8
実形
 62
     0
100
AcDbMText
 10
1522.502903920704
 20
1221.580390790751
 30
0.0
 40
30.0
 41
0.0
 71
     5
 72
     1
  1
30
 11
0.0000000000000001
 21
1.0
 31
0.0
 73
     1
 44
1.0
1001
ACAD
1000
MTEXTBEGIN
1070
    73
1070
     1
1070
    44
1040
1.0
1070
    74
1070
     0
1000
MTEXTEND
  0
POINT
  5
88DB
330
88D3
100
AcDbEntity
  8
Defpoints
 62
     0
100
AcDbPoint
 10
1431.128647434989
 20
1251.580390790751
 30
0.0
  0
POINT
  5
88DC
330
88D3
100
AcDbEntity
  8
Defpoints
 62
     0
100
AcDbPoint
 10
1431.128647434989
 20
1191.580390790751
 30
0.0
  0
POINT
  5
88DD
330
88D3
100
AcDbEntity
  8
Defpoints
 62
     0
100
AcDbPoint
 10
1544.102903920704
 20
1191.58039079075
 30
0.0
  0
ENDBLK
  5
88DE
330
88D3
100
AcDbEntity
  8
0
 62
     3
100
AcDbBlockEnd
  0
BLOCK
  5
88E0
330
88DF
100
AcDbEntity
  8
0
 62
     3
100
AcDbBlockBegin
  2
*D73
 70
     1
 10
0.0
 20
0.0
 30
0.0
  3
*D73
  1

  0
LINE
  5
88E1
330
88DF
100
AcDbEntity
  8
実形
 62
     0
370
    18
100
AcDbLine
 10
1495.848633410622
 20
1553.580390790751
 30
0.0
 11
1544.102903920704
 21
1553.580390790751
 31
0.0
  0
LINE
  5
88E2
330
88DF
100
AcDbEntity
  8
実形
 62
     0
370
    18
100
AcDbLine
 10
1496.128647434989
 20
1251.580390790751
 30
0.0
 11
1544.102903920704
 21
1251.580390790751
 31
0.0
  0
LINE
  5
88E3
330
88DF
100
AcDbEntity
  8
実形
 62
     0
370
    18
100
AcDbLine
 10
1544.102903920704
 20
1543.580390790751
 30
0.0
 11
1544.102903920704
 21
1261.580390790751
 31
0.0
  0
INSERT
  5
88E4
330
88DF
100
AcDbEntity
  8
実形
 62
     0
370
    18
100
AcDbBlockReference
  2
_Dot
 10
1544.102903920704
 20
1553.580390790751
 30
0.0
 41
10.0
 42
10.0
 43
10.0
 50
90.0
  0
INSERT
  5
88E5
330
88DF
100
AcDbEntity
  8
実形
 62
     0
370
    18
100
AcDbBlockReference
  2
_Dot
 10
1544.102903920704
 20
1251.580390790751
 30
0.0
 41
10.0
 42
10.0
 43
10.0
 50
270.0
  0
MTEXT
  5
88E6
330
88DF
100
AcDbEntity
  8
実形
 62
     0
100
AcDbMText
 10
1522.502903920704
 20
1402.580390790751
 30
0.0
 40
30.0
 41
0.0
 71
     5
 72
     1
  1
151
 11
0.0000000000000001
 21
1.0
 31
0.0
 73
     1
 44
1.0
1001
ACAD
1000
MTEXTBEGIN
1070
    73
1070
     1
1070
    44
1040
1.0
1070
    74
1070
     0
1000
MTEXTEND
  0
POINT
  5
88E7
330
88DF
100
AcDbEntity
  8
Defpoints
 62
     0
100
AcDbPoint
 10
1430.848633410622
 20
1553.580390790751
 30
0.0
  0
POINT
  5
88E8
330
88DF
100
AcDbEntity
  8
Defpoints
 62
     0
100
AcDbPoint
 10
1431.128647434989
 20
1251.580390790751
 30
0.0
  0
POINT
  5
88E9
330
88DF
100
AcDbEntity
  8
Defpoints
 62
     0
100
AcDbPoint
 10
1544.102903920704
 20
1251.580390790751
 30
0.0
  0
ENDBLK
  5
88EA
330
88DF
100
AcDbEntity
  8
0
 62
     3
100
AcDbBlockEnd
  0
BLOCK
  5
88EC
330
88EB
100
AcDbEntity
  8
0
 62
     3
100
AcDbBlockBegin
  2
*D74
 70
     1
 10
0.0
 20
0.0
 30
0.0
  3
*D74
  1

  0
LINE
  5
88ED
330
88EB
100
AcDbEntity
  8
実形
 62
     0
370
    18
100
AcDbLine
 10
1496.128647434989
 20
1191.580390790751
 30
0.0
 11
1544.102903920704
 21
1191.58039079075
 31
0.0
  0
LINE
  5
88EE
330
88EB
100
AcDbEntity
  8
実形
 62
     0
370
    18
100
AcDbLine
 10
1496.128647434989
 20
889.5803907907511
 30
0.0
 11
1544.102903920704
 21
889.5803907907511
 31
0.0
  0
LINE
  5
88EF
330
88EB
100
AcDbEntity
  8
実形
 62
     0
370
    18
100
AcDbLine
 10
1544.102903920704
 20
1181.58039079075
 30
0.0
 11
1544.102903920704
 21
899.5803907907511
 31
0.0
  0
INSERT
  5
88F0
330
88EB
100
AcDbEntity
  8
実形
 62
     0
370
    18
100
AcDbBlockReference
  2
_Dot
 10
1544.102903920704
 20
1191.58039079075
 30
0.0
 41
10.0
 42
10.0
 43
10.0
 50
90.0
  0
INSERT
  5
88F1
330
88EB
100
AcDbEntity
  8
実形
 62
     0
370
    18
100
AcDbBlockReference
  2
_Dot
 10
1544.102903920704
 20
889.5803907907511
 30
0.0
 41
10.0
 42
10.0
 43
10.0
 50
270.0
  0
MTEXT
  5
88F2
330
88EB
100
AcDbEntity
  8
実形
 62
     0
100
AcDbMText
 10
1522.502903920704
 20
1040.580390790751
 30
0.0
 40
30.0
 41
0.0
 71
     5
 72
     1
  1
151
 11
0.0000000000000001
 21
1.0
 31
0.0
 73
     1
 44
1.0
1001
ACAD
1000
MTEXTBEGIN
1070
    73
1070
     1
1070
    44
1040
1.0
1070
    74
1070
     0
1000
MTEXTEND
  0
POINT
  5
88F3
330
88EB
100
AcDbEntity
  8
Defpoints
 62
     0
100
AcDbPoint
 10
1431.128647434989
 20
1191.580390790751
 30
0.0
  0
POINT
  5
88F4
330
88EB
100
AcDbEntity
  8
Defpoints
 62
     0
100
AcDbPoint
 10
1431.128647434989
 20
889.5803907907511
 30
0.0
  0
POINT
  5
88F5
330
88EB
100
AcDbEntity
  8
Defpoints
 62
     0
100
AcDbPoint
 10
1544.102903920704
 20
889.5803907907511
 30
0.0
  0
ENDBLK
  5
88F6
330
88EB
100
AcDbEntity
  8
0
 62
     3
100
AcDbBlockEnd
  0
BLOCK
  5
890B
330
88F7
100
AcDbEntity
  8
0
 62
     3
100
AcDbBlockBegin
  2
A$C1D121720
 70
     0
 10
0.0
 20
0.0
 30
0.0
  3
A$C1D121720
  1

  0
ARC
  5
88F8
330
88F7
100
AcDbEntity
  8
実形
100
AcDbCircle
 10
28.0
 20
42.0
 30
0.0
 40
12.0
100
AcDbArc
 50
270.0
 51
0.0
  0
ARC
  5
88F9
330
88F7
100
AcDbEntity
  8
実形
100
AcDbCircle
 10
28.0
 20
-42.00000000000023
 30
0.0
 40
12.0
100
AcDbArc
 50
0.0
 51
90.0
  0
ARC
  5
88FA
330
88F7
100
AcDbEntity
  8
実形
100
AcDbCircle
 10
-448.0000000000003
 20
42.00000000000023
 30
0.0
 40
12.0
100
AcDbArc
 50
180.0
 51
270.0
  0
LINE
  5
88FB
330
88F7
100
AcDbEntity
  8
実形
100
AcDbLine
 10
540.4863495042527
 20
30.0
 30
0.0
 11
540.4863495042519
 21
-30.0
 31
0.0
  0
LINE
  5
88FC
330
88F7
100
AcDbEntity
  8
実形
100
AcDbLine
 10
-448.0000000000003
 20
30.00000000000023
 30
0.0
 11
-419.9999999999998
 21
30.00000000000023
 31
0.0
  0
LINE
  5
88FD
330
88F7
100
AcDbEntity
  8
実形
100
AcDbLine
 10
-0.0000000000002274
 20
30.00000000000046
 30
0.0
 11
28.0
 21
30.0
 31
0.0
  0
LINE
  5
88FE
330
88F7
100
AcDbEntity
  8
実形
100
AcDbLine
 10
518.5863495042524
 20
30.0
 30
0.0
 11
540.4863495042527
 21
30.0
 31
0.0
  0
LINE
  5
88FF
330
88F7
100
AcDbEntity
  8
実形
100
AcDbLine
 10
-448.0000000000002
 20
-29.99999999999977
 30
0.0
 11
-419.9999999999998
 21
-29.99999999999955
 31
0.0
  0
ARC
  5
8900
330
88F7
100
AcDbEntity
  8
実形
100
AcDbCircle
 10
-448.0
 20
-41.99999999999977
 30
0.0
 40
12.0
100
AcDbArc
 50
90.0
 51
180.0
  0
LINE
  5
8901
330
88F7
100
AcDbEntity
  8
実形
100
AcDbLine
 10
-0.0000000000002274
 20
-29.99999999999977
 30
0.0
 11
28.0
 21
-30.00000000000023
 31
0.0
  0
LINE
  5
8902
330
88F7
100
AcDbEntity
  8
実形
100
AcDbLine
 10
518.5863495042517
 20
-30.0
 30
0.0
 11
540.4863495042517
 21
-30.0
 31
0.0
  0
DIMENSION
  5
8903
330
88F7
100
AcDbEntity
  8
実形
100
AcDbDimension
  2
*D72
 10
225.3318699060801
 20
-30.00000000000023
 30
0.0
 11
203.73186990608
 21
0.0000000000002274
 31
0.0
 12
-1318.771034014624
 22
-1221.580390790751
 32
0.0
  1
30
 71
     5
 42
60.00000000000023
  3
ISO-25
100
AcDbAlignedDimension
 13
112.3576134203649
 23
30.00000000000023
 33
0.0
 14
112.3576134203649
 24
-30.0
 34
0.0
 50
90.0
100
AcDbRotatedDimension
1001
ACAD
1000
DSTYLE
1002
{
1070
    41
1040
10.0
1070
   140
1040
30.0
1070
   147
1040
6.599999999999997
1070
   279
1070
     2
1070
   342
1005
30D
1070
   371
1070
    18
1070
   372
1070
    18
1002
}
  0
DIMENSION
  5
8904
330
88F7
100
AcDbEntity
  8
実形
100
AcDbDimension
  2
*D73
 10
225.3318699060801
 20
30.0
 30
0.0
 11
203.73186990608
 21
181.0000000000002
 31
0.0
 12
-1318.771034014624
 22
-1221.580390790751
 32
0.0
  1
151
 71
     5
 42
301.9999999999998
  3
ISO-25
100
AcDbAlignedDimension
 13
112.0775993959978
 23
332.0
 33
0.0
 14
112.3576134203647
 24
30.00000000000023
 34
0.0
 50
90.0
100
AcDbRotatedDimension
1001
ACAD
1000
DSTYLE
1002
{
1070
    41
1040
10.0
1070
   140
1040
30.0
1070
   147
1040
6.599999999999997
1070
   279
1070
     2
1070
   342
1005
30D
1070
   371
1070
    18
1070
   372
1070
    18
1002
}
  0
DIMENSION
  5
8905
330
88F7
100
AcDbEntity
  8
実形
100
AcDbDimension
  2
*D74
 10
225.3318699060801
 20
-331.9999999999998
 30
0.0
 11
203.73186990608
 21
-180.9999999999995
 31
0.0
 12
-1318.771034014624
 22
-1221.580390790751
 32
0.0
  1
151
 71
     5
 42
301.9999999999996
  3
ISO-25
100
AcDbAlignedDimension
 13
112.3576134203649
 23
-30.0
 33
0.0
 14
112.3576134203654
 24
-331.9999999999998
 34
0.0
 50
90.0
100
AcDbRotatedDimension
1001
ACAD
1000
DSTYLE
1002
{
1070
    41
1040
10.0
1070
   140
1040
30.0
1070
   147
1040
6.599999999999997
1070
   279
1070
     2
1070
   342
1005
30D
1070
   371
1070
    18
1070
   372
1070
    18
1002
}
  0
TEXT
  5
8906
330
88F7
100
AcDbEntity
  8
実形
100
AcDbText
 10
119.309261757101
 20
-22.20490571980061
 30
0.0
 40
28.0
  1
6R
 50
90.0
 72
     4
 11
105.309261757101
 21
1.12842761353272
 31
0.0
100
AcDbText
  0
LEADER
  5
8907
330
88F7
100
AcDbEntity
  8
実形
100
AcDbLeader
  3
ISO-25
 76
     2
 10
41.99090739463009
 20
-33.55200682122563
 30
0.0
 10
85.92426188137414
 20
-14.66275222955778
 30
0.0
1001
ACAD
1000
DSTYLE
1002
{
1070
    77
1070
     0
1070
    41
1040
10.0
1070
   140
1040
30.0
1070
   147
1040
6.599999999999997
1070
   279
1070
     2
1070
   342
1005
30D
1070
   371
1070
    18
1070
   372
1070
    18
1002
}
  0
LEADER
  5
8908
330
88F7
100
AcDbEntity
  8
実形
100
AcDbLeader
  3
ISO-25
 76
     2
 10
41.99090739463009
 20
30.09589420392126
 30
0.0
 10
85.92426188137414
 20
9.741796254420249
 30
0.0
1001
ACAD
1000
DSTYLE
1002
{
1070
    77
1070
     0
1070
    41
1040
10.0
1070
   140
1040
30.0
1070
   147
1040
6.599999999999997
1070
   279
1070
     2
1070
   342
1005
30D
1070
   371
1070
    18
1070
   372
1070
    18
1002
}
  0
ENDBLK
  5
890C
330
88F7
100
AcDbEntity
  8
0
 62
     3
100
AcDbBlockEnd
  0
BLOCK
  5
899E
330
8994
100
AcDbEntity
  8
0
 62
     3
100
AcDbBlockBegin
  2
*D76
 70
     1
 10
0.0
 20
0.0
 30
0.0
  3
*D76
  1

  0
LINE
  5
94F8
330
8994
100
AcDbEntity
  8
実形
 62
     0
370
    18
100
AcDbLine
 10
1496.128647434989
 20
1231.759223040568
 30
0.0
 11
1544.102903920704
 21
1231.759223040568
 31
0.0
  0
LINE
  5
94F9
330
8994
100
AcDbEntity
  8
実形
 62
     0
370
    18
100
AcDbLine
 10
1496.128647434989
 20
1171.759223040568
 30
0.0
 11
1544.102903920704
 21
1171.759223040568
 31
0.0
  0
LINE
  5
94FA
330
8994
100
AcDbEntity
  8
実形
 62
     0
370
    18
100
AcDbLine
 10
1544.102903920704
 20
1221.759223040568
 30
0.0
 11
1544.102903920704
 21
1181.759223040568
 31
0.0
  0
INSERT
  5
94FB
330
8994
100
AcDbEntity
  8
実形
 62
     0
370
    18
100
AcDbBlockReference
  2
_Dot
 10
1544.102903920704
 20
1231.759223040568
 30
0.0
 41
10.0
 42
10.0
 43
10.0
 50
90.0
  0
INSERT
  5
94FC
330
8994
100
AcDbEntity
  8
実形
 62
     0
370
    18
100
AcDbBlockReference
  2
_Dot
 10
1544.102903920704
 20
1171.759223040568
 30
0.0
 41
10.0
 42
10.0
 43
10.0
 50
270.0
  0
MTEXT
  5
94FD
330
8994
100
AcDbEntity
  8
実形
 62
     0
100
AcDbMText
 10
1522.502903920704
 20
1201.759223040568
 30
0.0
 40
30.0
 41
0.0
 71
     5
 72
     1
  1
30
 11
0.0000000000000001
 21
1.0
 31
0.0
 73
     1
 44
1.0
1001
ACAD
1000
MTEXTBEGIN
1070
    73
1070
     1
1070
    44
1040
1.0
1070
    74
1070
     0
1000
MTEXTEND
  0
POINT
  5
94FE
330
8994
100
AcDbEntity
  8
Defpoints
 62
     0
100
AcDbPoint
 10
1431.128647434989
 20
1231.759223040568
 30
0.0
  0
POINT
  5
94FF
330
8994
100
AcDbEntity
  8
Defpoints
 62
     0
100
AcDbPoint
 10
1431.128647434989
 20
1171.759223040568
 30
0.0
  0
POINT
  5
9500
330
8994
100
AcDbEntity
  8
Defpoints
 62
     0
100
AcDbPoint
 10
1544.102903920704
 20
1171.759223040568
 30
0.0
  0
ENDBLK
  5
899F
330
8994
100
AcDbEntity
  8
0
 62
     3
100
AcDbBlockEnd
  0
BLOCK
  5
89AA
330
89A0
100
AcDbEntity
  8
0
 62
     3
100
AcDbBlockBegin
  2
*D77
 70
     1
 10
0.0
 20
0.0
 30
0.0
  3
*D77
  1

  0
LINE
  5
94EF
330
89A0
100
AcDbEntity
  8
実形
 62
     0
370
    18
100
AcDbLine
 10
1495.848633410622
 20
1593.759223040568
 30
0.0
 11
1544.102903920704
 21
1593.759223040567
 31
0.0
  0
LINE
  5
94F0
330
89A0
100
AcDbEntity
  8
実形
 62
     0
370
    18
100
AcDbLine
 10
1496.128647434989
 20
1231.759223040568
 30
0.0
 11
1544.102903920704
 21
1231.759223040568
 31
0.0
  0
LINE
  5
94F1
330
89A0
100
AcDbEntity
  8
実形
 62
     0
370
    18
100
AcDbLine
 10
1544.102903920704
 20
1583.759223040567
 30
0.0
 11
1544.102903920704
 21
1241.759223040568
 31
0.0
  0
INSERT
  5
94F2
330
89A0
100
AcDbEntity
  8
実形
 62
     0
370
    18
100
AcDbBlockReference
  2
_Dot
 10
1544.102903920704
 20
1593.759223040567
 30
0.0
 41
10.0
 42
10.0
 43
10.0
 50
90.0
  0
INSERT
  5
94F3
330
89A0
100
AcDbEntity
  8
実形
 62
     0
370
    18
100
AcDbBlockReference
  2
_Dot
 10
1544.102903920704
 20
1231.759223040568
 30
0.0
 41
10.0
 42
10.0
 43
10.0
 50
270.0
  0
MTEXT
  5
94F4
330
89A0
100
AcDbEntity
  8
実形
 62
     0
100
AcDbMText
 10
1522.502903920704
 20
1412.759223040568
 30
0.0
 40
30.0
 41
0.0
 71
     5
 72
     1
  1
181
 11
0.0000000000000001
 21
1.0
 31
0.0
 73
     1
 44
1.0
1001
ACAD
1000
MTEXTBEGIN
1070
    73
1070
     1
1070
    44
1040
1.0
1070
    74
1070
     0
1000
MTEXTEND
  0
POINT
  5
94F5
330
89A0
100
AcDbEntity
  8
Defpoints
 62
     0
100
AcDbPoint
 10
1430.848633410622
 20
1593.759223040568
 30
0.0
  0
POINT
  5
94F6
330
89A0
100
AcDbEntity
  8
Defpoints
 62
     0
100
AcDbPoint
 10
1431.128647434989
 20
1231.759223040568
 30
0.0
  0
POINT
  5
94F7
330
89A0
100
AcDbEntity
  8
Defpoints
 62
     0
100
AcDbPoint
 10
1544.102903920704
 20
1231.759223040568
 30
0.0
  0
ENDBLK
  5
89AB
330
89A0
100
AcDbEntity
  8
0
 62
     3
100
AcDbBlockEnd
  0
BLOCK
  5
89B6
330
89AC
100
AcDbEntity
  8
0
 62
     3
100
AcDbBlockBegin
  2
*D78
 70
     1
 10
0.0
 20
0.0
 30
0.0
  3
*D78
  1

  0
LINE
  5
9488
330
89AC
100
AcDbEntity
  8
実形
 62
     0
370
    18
100
AcDbLine
 10
1496.128647434989
 20
1171.759223040568
 30
0.0
 11
1544.102903920704
 21
1171.759223040568
 31
0.0
  0
LINE
  5
9489
330
89AC
100
AcDbEntity
  8
実形
 62
     0
370
    18
100
AcDbLine
 10
1496.128647434989
 20
809.7592230405679
 30
0.0
 11
1544.102903920704
 21
809.7592230405679
 31
0.0
  0
LINE
  5
948A
330
89AC
100
AcDbEntity
  8
実形
 62
     0
370
    18
100
AcDbLine
 10
1544.102903920704
 20
1161.759223040568
 30
0.0
 11
1544.102903920704
 21
819.7592230405678
 31
0.0
  0
INSERT
  5
948B
330
89AC
100
AcDbEntity
  8
実形
 62
     0
370
    18
100
AcDbBlockReference
  2
_Dot
 10
1544.102903920704
 20
1171.759223040568
 30
0.0
 41
10.0
 42
10.0
 43
10.0
 50
90.0
  0
INSERT
  5
948C
330
89AC
100
AcDbEntity
  8
実形
 62
     0
370
    18
100
AcDbBlockReference
  2
_Dot
 10
1544.102903920704
 20
809.7592230405679
 30
0.0
 41
10.0
 42
10.0
 43
10.0
 50
270.0
  0
MTEXT
  5
948D
330
89AC
100
AcDbEntity
  8
実形
 62
     0
100
AcDbMText
 10
1522.502903920704
 20
990.7592230405679
 30
0.0
 40
30.0
 41
0.0
 71
     5
 72
     1
  1
181
 11
0.0000000000000001
 21
1.0
 31
0.0
 73
     1
 44
1.0
1001
ACAD
1000
MTEXTBEGIN
1070
    73
1070
     1
1070
    44
1040
1.0
1070
    74
1070
     0
1000
MTEXTEND
  0
POINT
  5
948E
330
89AC
100
AcDbEntity
  8
Defpoints
 62
     0
100
AcDbPoint
 10
1431.128647434989
 20
1171.759223040568
 30
0.0
  0
POINT
  5
948F
330
89AC
100
AcDbEntity
  8
Defpoints
 62
     0
100
AcDbPoint
 10
1431.128647434989
 20
809.7592230405679
 30
0.0
  0
POINT
  5
9490
330
89AC
100
AcDbEntity
  8
Defpoints
 62
     0
100
AcDbPoint
 10
1544.102903920704
 20
809.7592230405679
 30
0.0
  0
ENDBLK
  5
89B7
330
89AC
100
AcDbEntity
  8
0
 62
     3
100
AcDbBlockEnd
  0
ENDSEC
  0
SECTION
  2
ENTITIES
  0
LINE
  5
9C
330
1F
100
AcDbEntity
  8
枠
 62
     0
100
AcDbLine
 10
174.0
 20
3.999999999999089
 30
0.0
 11
2834.0
 21
3.999999999999089
 31
0.0
  0
LINE
  5
A0
330
1F
100
AcDbEntity
  8
枠
 62
     0
100
AcDbLine
 10
2834.0
 20
2023.999999999999
 30
0.0
 11
174.0
 21
2023.999999999999
 31
0.0
  0
LINE
  5
272
330
1F
100
AcDbEntity
  8
実形
 62
     0
100
AcDbLine
 10
2234.0
 20
133.9999999999991
 30
0.0
 11
2234.0
 21
198.9999999999991
 31
0.0
  0
LINE
  5
1B71
330
1F
100
AcDbEntity
  8
枠
 62
     0
100
AcDbLine
 10
2834.0
 20
1959.0
 30
0.0
 11
2114.0
 21
1959.0
 31
0.0
  0
LINE
  5
1B72
330
1F
100
AcDbEntity
  8
枠
 62
     0
100
AcDbLine
 10
2834.0
 20
1893.999999999999
 30
0.0
 11
2114.0
 21
1893.999999999999
 31
0.0
  0
LINE
  5
1B73
330
1F
100
AcDbEntity
  8
枠
 62
     0
100
AcDbLine
 10
1944.0
 20
2023.999999999999
 30
0.0
 11
2834.0
 21
2023.999999999999
 31
0.0
  0
LINE
  5
1B74
330
1F
100
AcDbEntity
  8
枠
 62
     0
100
AcDbLine
 10
2114.0
 20
1893.999999999999
 30
0.0
 11
2114.0
 21
2024.0
 31
0.0
  0
TEXT
  5
1B7B
330
1F
100
AcDbEntity
  8
枠
 62
     0
100
AcDbText
 10
2671.5
 20
1976.5
 30
0.0
 40
30.0
  1
仕上げ
 72
     4
 11
2721.5
 21
1991.5
 31
0.0
100
AcDbText
  0
LINE
  5
1B7C
330
1F
100
AcDbEntity
  8
枠
 62
     0
100
AcDbLine
 10
2609.0
 20
1893.999999999999
 30
0.0
 11
2609.0
 21
2024.0
 31
0.0
  0
TEXT
  5
1B7F
330
1F
100
AcDbEntity
  8
枠
 62
     0
100
AcDbText
 10
2217.0
 20
1976.499999999999
 30
0.0
 40
30.0
  1
材質
 72
     4
 11
2249.0
 21
1991.499999999999
 31
0.0
100
AcDbText
  0
LINE
  5
1B84
330
1F
100
AcDbEntity
  8
実形
 62
     0
100
AcDbLine
 10
2114.0
 20
68.99999999999909
 30
0.0
 11
2834.0
 21
68.99999999999909
 31
0.0
  0
LINE
  5
1B85
330
1F
100
AcDbEntity
  8
実形
 62
     0
100
AcDbLine
 10
2114.0
 20
198.9999999999991
 30
0.0
 11
2834.0
 21
198.9999999999991
 31
0.0
  0
LINE
  5
1B86
330
1F
100
AcDbEntity
  8
実形
 62
     0
100
AcDbLine
 10
2114.0
 20
133.9999999999991
 30
0.0
 11
2834.0
 21
133.9999999999991
 31
0.0
  0
LINE
  5
1B87
330
1F
100
AcDbEntity
  8
実形
 62
     0
100
AcDbLine
 10
2114.0
 20
3.999999999999089
 30
0.0
 11
2114.0
 21
198.9999999999991
 31
0.0
  0
TEXT
  5
1B88
330
1F
100
AcDbEntity
  8
実形
 62
     0
100
AcDbText
 10
2344.675666122872
 20
18.49999999999909
 30
0.0
 40
35.0
  1
中外交易株式会社
  7
ms明朝
 72
     4
 11
2549.475666122872
 21
36.49999999999909
 31
0.0
100
AcDbText
  0
LINE
  5
1B8A
330
1F
100
AcDbEntity
  8
実形
 62
     0
100
AcDbLine
 10
2234.0
 20
68.99999999999909
 30
0.0
 11
2834.0
 21
68.99999999999909
 31
0.0
  0
LINE
  5
1B8B
102
{ACAD_REACTORS
330
1B98
102
}
330
1F
100
AcDbEntity
  8
実形
 62
     0
370
     5
100
AcDbLine
 10
2257.843923164362
 20
40.53787547858428
 30
0.0
 11
2233.255774665348
 21
40.53787547858428
 31
0.0
  0
LINE
  5
1B8C
102
{ACAD_REACTORS
330
1B98
102
}
330
1F
100
AcDbEntity
  8
実形
 62
     0
370
     5
100
AcDbLine
 10
2233.255774665348
 20
40.53787547858428
 30
0.0
 11
2233.255774665348
 21
30.53787547858429
 31
0.0
  0
LINE
  5
1B8D
102
{ACAD_REACTORS
330
1B98
102
}
330
1F
100
AcDbEntity
  8
枠
 62
     0
370
     5
100
AcDbLine
 10
2233.255774665348
 20
30.53787547858429
 30
0.0
 11
2257.346428692676
 21
30.53787547858429
 31
0.0
  0
LINE
  5
1B8E
102
{ACAD_REACTORS
330
1B98
102
}
330
1F
100
AcDbEntity
  8
実形
 62
     0
370
     5
100
AcDbLine
 10
2260.641894042939
 20
56.49999999999909
 30
0.0
 11
2260.641894042939
 21
16.49999999999909
 31
0.0
  0
LINE
  5
1B8F
102
{ACAD_REACTORS
330
1B98
102
}
330
1F
100
AcDbEntity
  8
枠
 62
     0
370
     5
100
AcDbLine
 10
2260.641894042939
 20
16.49999999999909
 30
0.0
 11
2295.641894042939
 21
16.49999999999909
 31
0.0
  0
LINE
  5
1B90
102
{ACAD_REACTORS
330
1B98
102
}
330
1F
100
AcDbEntity
  8
枠
 62
     0
370
     5
100
AcDbLine
 10
2295.641894042939
 20
16.49999999999909
 30
0.0
 11
2260.641894042939
 21
36.49999999999909
 31
0.0
  0
LINE
  5
1B91
102
{ACAD_REACTORS
330
1B98
102
}
330
1F
100
AcDbEntity
  8
実形
 62
     0
370
     5
100
AcDbLine
 10
2260.641894042939
 20
36.49999999999909
 30
0.0
 11
2295.641894042939
 21
56.49999999999909
 31
0.0
  0
LINE
  5
1B92
102
{ACAD_REACTORS
330
1B98
102
}
330
1F
100
AcDbEntity
  8
実形
 62
     0
370
     5
100
AcDbLine
 10
2295.641894042939
 20
56.49999999999909
 30
0.0
 11
2260.641894042939
 21
56.49999999999909
 31
0.0
  0
LINE
  5
1B93
102
{ACAD_REACTORS
330
1B98
102
}
330
1F
100
AcDbEntity
  8
実形
 62
     0
370
     5
100
AcDbLine
 10
2326.75434681301
 20
40.53787547858428
 30
0.0
 11
2302.166198313996
 21
40.53787547858428
 31
0.0
  0
LINE
  5
1B94
102
{ACAD_REACTORS
330
1B98
102
}
330
1F
100
AcDbEntity
  8
実形
 62
     0
370
     5
100
AcDbLine
 10
2302.166198313996
 20
40.53787547858428
 30
0.0
 11
2302.166198313996
 21
30.53787547858429
 31
0.0
  0
LINE
  5
1B95
102
{ACAD_REACTORS
330
1B98
102
}
330
1F
100
AcDbEntity
  8
枠
 62
     0
370
     5
100
AcDbLine
 10
2302.166198313996
 20
30.53787547858429
 30
0.0
 11
2326.256852341323
 21
30.53787547858429
 31
0.0
  0
ARC
  5
1B96
102
{ACAD_REACTORS
330
1B98
102
}
330
1F
100
AcDbEntity
  8
実形
 62
     0
370
     5
100
AcDbCircle
 10
2238.255774665347
 20
36.49999999999909
 30
0.0
 40
20.0
100
AcDbArc
 50
11.64772366708617
 51
342.6561058784773
  0
ARC
  5
1B97
102
{ACAD_REACTORS
330
1B98
102
}
330
1F
100
AcDbEntity
  8
実形
 62
     0
370
     5
100
AcDbCircle
 10
2307.166198313995
 20
36.49999999999909
 30
0.0
 40
20.0
100
AcDbArc
 50
11.64772366708617
 51
342.6561058784773
  0
HATCH
  5
1B98
330
1F
100
AcDbEntity
  8
実形
 62
     0
100
AcDbHatch
 10
0.0
 20
0.0
 30
0.0
210
0.0
220
0.0
230
1.0
  2
SOLID
 70
     1
 71
     1
 91
        3
 92
        1
 93
        4
 72
     2
 10
2307.166198313995
 20
36.49999999999909
 40
20.0
 50
11.64772366708617
 51
342.6561058784773
 73
     1
 72
     1
 10
2326.256852341323
 20
30.53787547858429
 11
2302.166198313996
 21
30.53787547858429
 72
     1
 10
2302.166198313996
 20
30.53787547858429
 11
2302.166198313996
 21
40.53787547858428
 72
     1
 10
2302.166198313996
 20
40.53787547858428
 11
2326.75434681301
 21
40.53787547858428
 97
        4
330
1B97
330
1B95
330
1B94
330
1B93
 92
        1
 93
        4
 72
     2
 10
2238.255774665347
 20
36.49999999999909
 40
20.0
 50
11.64772366708617
 51
342.6561058784773
 73
     1
 72
     1
 10
2257.346428692676
 20
30.53787547858429
 11
2233.255774665348
 21
30.53787547858429
 72
     1
 10
2233.255774665348
 20
30.53787547858429
 11
2233.255774665348
 21
40.53787547858428
 72
     1
 10
2233.255774665348
 20
40.53787547858428
 11
2257.843923164362
 21
40.53787547858428
 97
        4
330
1B96
330
1B8D
330
1B8C
330
1B8B
 92
        1
 93
        5
 72
     1
 10
2295.641894042939
 20
56.49999999999909
 11
2260.641894042939
 21
56.49999999999909
 72
     1
 10
2260.641894042939
 20
56.49999999999909
 11
2260.641894042939
 21
16.49999999999909
 72
     1
 10
2260.641894042939
 20
16.49999999999909
 11
2295.641894042939
 21
16.49999999999909
 72
     1
 10
2295.641894042939
 20
16.49999999999909
 11
2260.641894042939
 21
36.49999999999909
 72
     1
 10
2260.641894042939
 20
36.49999999999909
 11
2295.641894042939
 21
56.49999999999909
 97
        5
330
1B92
330
1B8E
330
1B8F
330
1B90
330
1B91
 75
     0
 76
     1
 98
        1
 10
-10.0
 20
-0.0000000000009095
  0
LINE
  5
1B99
330
1F
100
AcDbEntity
  8
実形
 62
     0
100
AcDbLine
 10
2234.0
 20
68.99999999999909
 30
0.0
 11
2234.0
 21
198.9999999999991
 31
0.0
  0
LINE
  5
1BA2
330
1F
100
AcDbEntity
  8
枠
 62
     0
100
AcDbLine
 10
2384.0
 20
1893.999999999999
 30
0.0
 11
2384.0
 21
2024.0
 31
0.0
  0
TEXT
  5
1BA6
330
1F
100
AcDbEntity
  8
枠
 62
     0
100
AcDbText
 10
2466.5
 20
1977.5
 30
0.0
 40
30.0
  1
厚さ
 72
     4
 11
2496.5
 21
1991.5
 31
0.0
100
AcDbText
  0
TEXT
  5
1BA7
330
1F
100
AcDbEntity
  8
実形
 62
     0
100
AcDbText
 10
2435.5
 20
1911.500000000001
 30
0.0
 40
30.0
  1
1.2ｍｍ
 72
     4
 11
2496.5
 21
1926.500000000001
 31
0.0
100
AcDbText
  0
TEXT
  5
1BA8
330
1F
100
AcDbEntity
  8
実形
 62
     0
100
AcDbText
 10
2166.5
 20
1911.5
 30
0.0
 40
30.0
  1
SUS304
 72
     4
 11
2249.0
 21
1926.5
 31
0.0
100
AcDbText
  0
LINE
  5
5164
330
1F
100
AcDbEntity
  8
実形
100
AcDbLine
 10
920.7710340146242
 20
1645.759223040568
 30
0.0
 11
1296.771034014624
 21
1645.759223040568
 31
0.0
  0
LINE
  5
5165
330
1F
100
AcDbEntity
  8
実形
100
AcDbLine
 10
1358.771034014624
 20
1583.759223040568
 30
0.0
 11
1358.771034014624
 21
1243.759223040568
 31
0.0
  0
LINE
  5
5166
330
1F
100
AcDbEntity
  8
実形
100
AcDbLine
 10
1296.771034014624
 20
757.7592230405679
 30
0.0
 11
920.771034014624
 21
757.7592230405679
 31
0.0
  0
LINE
  5
5167
330
1F
100
AcDbEntity
  8
実形
100
AcDbLine
 10
858.7710340146243
 20
829.759223040568
 30
0.0
 11
858.7710340146243
 21
1159.759223040568
 31
0.0
  0
LINE
  5
5169
330
1F
100
AcDbEntity
  8
実形
100
AcDbLine
 10
910.7710340146239
 20
1605.759223040568
 30
0.0
 11
1306.771034014624
 21
1605.759223040568
 31
0.0
  0
LINE
  5
516A
330
1F
100
AcDbEntity
  8
実形
100
AcDbLine
 10
1318.771034014624
 20
1593.759223040568
 30
0.0
 11
1318.771034014624
 21
809.7592230405679
 31
0.0
  0
LINE
  5
516B
330
1F
100
AcDbEntity
  8
実形
100
AcDbLine
 10
898.7710340146241
 20
809.7592230405679
 30
0.0
 11
898.7710340146241
 21
1593.759223040568
 31
0.0
  0
LINE
  5
516C
330
1F
100
AcDbEntity
  8
実形
100
AcDbLine
 10
1306.771034014624
 20
797.7592230405678
 30
0.0
 11
910.7710340146239
 21
797.7592230405678
 31
0.0
  0
LINE
  5
516D
330
1F
100
AcDbEntity
  8
実形
  6
CENTER2
 48
0.8
100
AcDbLine
 10
936.0767009752873
 20
1561.759223040568
 30
0.0
 11
1153.105161809597
 21
1561.759223040568
 31
0.0
  0
LINE
  5
516E
330
1F
100
AcDbEntity
  8
実形
  6
CENTER2
 48
0.8
100
AcDbLine
 10
936.0767009752873
 20
1481.759223040568
 30
0.0
 11
1153.105161809597
 21
1481.759223040568
 31
0.0
  0
LINE
  5
516F
330
1F
100
AcDbEntity
  8
実形
  6
CENTER2
 48
0.8
100
AcDbLine
 10
844.3063003984516
 20
1481.759223040568
 30
0.0
 11
1379.208754798989
 21
1481.759223040568
 31
0.0
  0
CIRCLE
  5
517D
330
1F
100
AcDbEntity
  8
実形
100
AcDbCircle
 10
948.7710340146239
 20
1561.759223040568
 30
0.0
 40
8.0
  0
DIMENSION
  5
517E
330
1F
100
AcDbEntity
  8
実形
100
AcDbDimension
  2
*D8
 10
898.7710340146241
 20
1737.385179135495
 30
0.0
 11
822.8304222143343
 21
1759.635714362135
 31
0.0
 70
   160
  1
20
 71
     5
 42
40.0
  3
ISO-25
100
AcDbAlignedDimension
 13
858.7710340146243
 23
1640.84363699122
 33
0.0
 14
898.7710340146241
 24
1640.84363699122
 34
0.0
100
AcDbRotatedDimension
1001
ACAD
1000
DSTYLE
1002
{
1070
    41
1040
10.0
1070
   140
1040
30.0
1070
   147
1040
6.599999999999997
1070
   279
1070
     2
1070
   342
1005
30D
1070
   371
1070
    18
1070
   372
1070
    18
1002
}
  0
DIMENSION
  5
51A6
330
1F
100
AcDbEntity
  8
実形
100
AcDbDimension
  2
*D9
 10
948.7710340146239
 20
1737.385179135495
 30
0.0
 11
921.2868215322739
 21
1682.887772882064
 31
0.0
 70
   160
  1
25
 71
     5
 42
50.0
  3
ISO-25
100
AcDbAlignedDimension
 13
898.7710340146241
 23
1640.84363699122
 33
0.0
 14
948.7710340146239
 24
1640.84363699122
 34
0.0
100
AcDbRotatedDimension
1001
ACAD
1000
DSTYLE
1002
{
1070
    41
1040
10.0
1070
   140
1040
30.0
1070
   147
1040
6.599999999999997
1070
   279
1070
     2
1070
   342
1005
30D
1070
   371
1070
    18
1070
   372
1070
    18
1002
}
  0
DIMENSION
  5
51E0
330
1F
100
AcDbEntity
  8
実形
100
AcDbDimension
  2
*D10
 10
1028.771034014624
 20
1737.385179135495
 30
0.0
 11
988.771034014624
 21
1758.985179135495
 31
0.0
 70
    32
  1
40
 71
     5
 42
80.0
  3
ISO-25
100
AcDbAlignedDimension
 13
948.7710340146239
 23
1640.84363699122
 33
0.0
 14
1028.771034014624
 24
1640.84363699122
 34
0.0
100
AcDbRotatedDimension
1001
ACAD
1000
DSTYLE
1002
{
1070
    41
1040
10.0
1070
   140
1040
30.0
1070
   147
1040
6.599999999999997
1070
   279
1070
     2
1070
   342
1005
30D
1070
   371
1070
    18
1070
   372
1070
    18
1002
}
  0
DIMENSION
  5
5201
330
1F
100
AcDbEntity
  8
実形
100
AcDbDimension
  2
*D11
 10
1108.771034014624
 20
1737.385179135495
 30
0.0
 11
1068.771034014624
 21
1758.985179135495
 31
0.0
 70
    32
  1
40
 71
     5
 42
80.0
  3
ISO-25
100
AcDbAlignedDimension
 13
1028.771034014624
 23
1640.84363699122
 33
0.0
 14
1108.771034014624
 24
1640.84363699122
 34
0.0
100
AcDbRotatedDimension
1001
ACAD
1000
DSTYLE
1002
{
1070
    41
1040
10.0
1070
   140
1040
30.0
1070
   147
1040
6.599999999999997
1070
   279
1070
     2
1070
   342
1005
30D
1070
   371
1070
    18
1070
   372
1070
    18
1002
}
  0
DIMENSION
  5
523E
330
1F
100
AcDbEntity
  8
実形
100
AcDbDimension
  2
*D12
 10
1188.771034014624
 20
1737.385179135495
 30
0.0
 11
1148.771034014624
 21
1758.985179135495
 31
0.0
 70
    32
  1
40
 71
     5
 42
80.0
  3
ISO-25
100
AcDbAlignedDimension
 13
1108.771034014624
 23
1640.84363699122
 33
0.0
 14
1188.771034014624
 24
1640.84363699122
 34
0.0
100
AcDbRotatedDimension
1001
ACAD
1000
DSTYLE
1002
{
1070
    41
1040
10.0
1070
   140
1040
30.0
1070
   147
1040
6.599999999999997
1070
   279
1070
     2
1070
   342
1005
30D
1070
   371
1070
    18
1070
   372
1070
    18
1002
}
  0
DIMENSION
  5
5267
330
1F
100
AcDbEntity
  8
実形
100
AcDbDimension
  2
*D13
 10
1268.771034014624
 20
1737.385179135495
 30
0.0
 11
1228.771034014624
 21
1758.985179135495
 31
0.0
 70
    32
  1
40
 71
     5
 42
80.0
  3
ISO-25
100
AcDbAlignedDimension
 13
1188.771034014624
 23
1640.84363699122
 33
0.0
 14
1268.771034014624
 24
1640.84363699122
 34
0.0
100
AcDbRotatedDimension
1001
ACAD
1000
DSTYLE
1002
{
1070
    41
1040
10.0
1070
   140
1040
30.0
1070
   147
1040
6.599999999999997
1070
   279
1070
     2
1070
   342
1005
30D
1070
   371
1070
    18
1070
   372
1070
    18
1002
}
  0
DIMENSION
  5
527D
330
1F
100
AcDbEntity
  8
実形
100
AcDbDimension
  2
*D14
 10
1318.771034014624
 20
1737.385179135495
 30
0.0
 11
1295.353832290871
 21
1684.14329783098
 31
0.0
 70
   160
  1
25
 71
     5
 42
50.00000000000023
  3
ISO-25
100
AcDbAlignedDimension
 13
1268.771034014624
 23
1640.84363699122
 33
0.0
 14
1318.771034014624
 24
1640.84363699122
 34
0.0
100
AcDbRotatedDimension
1001
ACAD
1000
DSTYLE
1002
{
1070
    41
1040
10.0
1070
   140
1040
30.0
1070
   147
1040
6.599999999999997
1070
   279
1070
     2
1070
   342
1005
30D
1070
   371
1070
    18
1070
   372
1070
    18
1002
}
  0
DIMENSION
  5
52A7
330
1F
100
AcDbEntity
  8
実形
100
AcDbDimension
  2
*D15
 10
1358.771034014624
 20
1737.385179135495
 30
0.0
 11
1394.004490709541
 21
1781.857247380781
 31
0.0
 70
   160
  1
20
 71
     5
 42
39.99999999999977
  3
ISO-25
100
AcDbAlignedDimension
 13
1318.771034014624
 23
1640.84363699122
 33
0.0
 14
1358.771034014624
 24
1640.84363699122
 34
0.0
100
AcDbRotatedDimension
1001
ACAD
1000
DSTYLE
1002
{
1070
    41
1040
10.0
1070
   140
1040
30.0
1070
   147
1040
6.599999999999997
1070
   279
1070
     2
1070
   342
1005
30D
1070
   371
1070
    18
1070
   372
1070
    18
1002
}
  0
DIMENSION
  5
533B
330
1F
100
AcDbEntity
  8
実形
100
AcDbDimension
  2
*D16
 10
1358.771034014624
 20
1876.07967287009
 30
0.0
 11
1108.771034014624
 21
1897.67967287009
 31
0.0
 70
    32
  1
250
 71
     5
 42
500.0
  3
ISO-25
100
AcDbAlignedDimension
 13
858.7710340146243
 23
1640.84363699122
 33
0.0
 14
1358.771034014624
 24
1640.84363699122
 34
0.0
100
AcDbRotatedDimension
1001
ACAD
1000
DSTYLE
1002
{
1070
    41
1040
10.0
1070
   140
1040
30.0
1070
   147
1040
6.599999999999997
1070
   279
1070
     2
1070
   342
1005
30D
1070
   371
1070
    18
1070
   372
1070
    18
1002
}
  0
DIMENSION
  5
5375
330
1F
100
AcDbEntity
  8
実形
100
AcDbDimension
  2
*D17
 10
722.2887743570717
 20
1605.759223040568
 30
0.0
 11
693.5458459594245
 21
1615.71997590773
 31
0.0
 70
   160
  1
20
 71
     5
 42
40.0
  3
ISO-25
100
AcDbAlignedDimension
 13
817.942450665163
 23
1645.759223040568
 33
0.0
 14
818.3502058085251
 24
1605.759223040568
 34
0.0
 50
90.0
100
AcDbRotatedDimension
1001
ACAD
1000
DSTYLE
1002
{
1070
    41
1040
10.0
1070
   140
1040
30.0
1070
   147
1040
6.599999999999997
1070
   279
1070
     2
1070
   342
1005
30D
1070
   371
1070
    18
1070
   372
1070
    18
1002
}
  0
DIMENSION
  5
5394
330
1F
100
AcDbEntity
  8
実形
100
AcDbDimension
  2
*D18
 10
722.2887743570717
 20
1561.759223040568
 30
0.0
 11
783.9032377873027
 21
1587.245775589128
 31
0.0
 70
   160
  1
22
 71
     5
 42
43.99999999999977
  3
ISO-25
100
AcDbAlignedDimension
 13
818.3502058085251
 23
1605.759223040568
 33
0.0
 14
818.3502058085251
 24
1561.759223040568
 34
0.0
 50
90.0
100
AcDbRotatedDimension
1001
ACAD
1000
DSTYLE
1002
{
1070
    41
1040
10.0
1070
   140
1040
30.0
1070
   147
1040
6.599999999999997
1070
   279
1070
     2
1070
   342
1005
30D
1070
   371
1070
    18
1070
   372
1070
    18
1002
}
  0
DIMENSION
  5
53BC
330
1F
100
AcDbEntity
  8
実形
100
AcDbDimension
  2
*D19
 10
555.317406089978
 20
757.759223040568
 30
0.0
 11
533.717406089978
 21
1201.759223040568
 31
0.0
 70
    32
  1
444
 71
     5
 42
888.0
  3
ISO-25
100
AcDbAlignedDimension
 13
817.0228547387342
 23
1645.759223040568
 33
0.0
 14
785.6471586503374
 24
757.7592230405679
 34
0.0
 50
90.0
100
AcDbRotatedDimension
1001
ACAD
1000
DSTYLE
1002
{
1070
    41
1040
10.0
1070
   140
1040
30.0
1070
   147
1040
6.599999999999997
1070
   279
1070
     2
1070
   342
1005
30D
1070
   371
1070
    18
1070
   372
1070
    18
1002
}
  0
DIMENSION
  5
53DB
330
1F
100
AcDbEntity
  8
実形
100
AcDbDimension
  2
*D20
 10
722.2887743570717
 20
1481.759223040568
 30
0.0
 11
700.6887743570715
 21
1521.759223040568
 31
0.0
 70
    32
  1
40
 71
     5
 42
80.0
  3
ISO-25
100
AcDbAlignedDimension
 13
818.3502058085251
 23
1561.759223040568
 33
0.0
 14
818.3502058085251
 24
1481.759223040568
 34
0.0
 50
90.0
100
AcDbRotatedDimension
1001
ACAD
1000
DSTYLE
1002
{
1070
    41
1040
10.0
1070
   140
1040
30.0
1070
   147
1040
6.599999999999997
1070
   279
1070
     2
1070
   342
1005
30D
1070
   371
1070
    18
1070
   372
1070
    18
1002
}
  0
DIMENSION
  5
5437
330
1F
100
AcDbEntity
  8
実形
100
AcDbDimension
  2
*D21
 10
722.2887743570717
 20
1401.759223040568
 30
0.0
 11
700.6887743570715
 21
1441.759223040568
 31
0.0
 70
    32
  1
40
 71
     5
 42
80.0
  3
ISO-25
100
AcDbAlignedDimension
 13
818.3502058085251
 23
1481.759223040568
 33
0.0
 14
818.3502058085251
 24
1401.759223040568
 34
0.0
 50
90.0
100
AcDbRotatedDimension
1001
ACAD
1000
DSTYLE
1002
{
1070
    41
1040
10.0
1070
   140
1040
30.0
1070
   147
1040
6.599999999999997
1070
   279
1070
     2
1070
   342
1005
30D
1070
   371
1070
    18
1070
   372
1070
    18
1002
}
  0
DIMENSION
  5
5460
330
1F
100
AcDbEntity
  8
実形
100
AcDbDimension
  2
*D22
 10
722.2887743570717
 20
1321.759223040568
 30
0.0
 11
700.6887743570716
 21
1361.759223040568
 31
0.0
 70
    32
  1
40
 71
     5
 42
80.0
  3
ISO-25
100
AcDbAlignedDimension
 13
818.3502058085251
 23
1401.759223040568
 33
0.0
 14
818.3502058085251
 24
1321.759223040568
 34
0.0
 50
90.0
100
AcDbRotatedDimension
1001
ACAD
1000
DSTYLE
1002
{
1070
    41
1040
10.0
1070
   140
1040
30.0
1070
   147
1040
6.599999999999997
1070
   279
1070
     2
1070
   342
1005
30D
1070
   371
1070
    18
1070
   372
1070
    18
1002
}
  0
DIMENSION
  5
54B2
330
1F
100
AcDbEntity
  8
実形
100
AcDbDimension
  2
*D23
 10
722.2887743570717
 20
1081.759223040568
 30
0.0
 11
700.6887743570716
 21
1121.759223040568
 31
0.0
 70
    32
  1
40
 71
     5
 42
80.0
  3
ISO-25
100
AcDbAlignedDimension
 13
818.3502058085251
 23
1161.759223040568
 33
0.0
 14
818.3502058085251
 24
1081.759223040568
 34
0.0
 50
90.0
100
AcDbRotatedDimension
1001
ACAD
1000
DSTYLE
1002
{
1070
    41
1040
10.0
1070
   140
1040
30.0
1070
   147
1040
6.599999999999997
1070
   279
1070
     2
1070
   342
1005
30D
1070
   371
1070
    18
1070
   372
1070
    18
1002
}
  0
DIMENSION
  5
5504
330
1F
100
AcDbEntity
  8
実形
100
AcDbDimension
  2
*D24
 10
722.2887743570717
 20
921.7592230405683
 30
0.0
 11
700.6887743570716
 21
961.7592230405682
 31
0.0
 70
    32
  1
40
 71
     5
 42
79.9999999999999
  3
ISO-25
100
AcDbAlignedDimension
 13
818.3502058085251
 23
1001.759223040568
 33
0.0
 14
818.3502058085251
 24
921.759223040568
 34
0.0
 50
90.0
100
AcDbRotatedDimension
1001
ACAD
1000
DSTYLE
1002
{
1070
    41
1040
10.0
1070
   140
1040
30.0
1070
   147
1040
6.599999999999997
1070
   279
1070
     2
1070
   342
1005
30D
1070
   371
1070
    18
1070
   372
1070
    18
1002
}
  0
DIMENSION
  5
552D
330
1F
100
AcDbEntity
  8
実形
100
AcDbDimension
  2
*D25
 10
722.2887743570717
 20
841.7592230405681
 30
0.0
 11
700.6887743570715
 21
881.7592230405683
 31
0.0
 70
    32
  1
40
 71
     5
 42
80.0
  3
ISO-25
100
AcDbAlignedDimension
 13
818.3502058085251
 23
921.759223040568
 33
0.0
 14
818.3502058085251
 24
841.7592230405681
 34
0.0
 50
90.0
100
AcDbRotatedDimension
1001
ACAD
1000
DSTYLE
1002
{
1070
    41
1040
10.0
1070
   140
1040
30.0
1070
   147
1040
6.599999999999997
1070
   279
1070
     2
1070
   342
1005
30D
1070
   371
1070
    18
1070
   372
1070
    18
1002
}
  0
DIMENSION
  5
5557
330
1F
100
AcDbEntity
  8
実形
100
AcDbDimension
  2
*D26
 10
722.288774357072
 20
797.759223040568
 30
0.0
 11
781.1468038694856
 21
813.7561970869574
 31
0.0
 70
   160
  1
22
 71
     5
 42
43.99999999999988
  3
ISO-25
100
AcDbAlignedDimension
 13
818.3502058085252
 23
841.7592230405679
 33
0.0
 14
818.3502058085252
 24
797.7592230405678
 34
0.0
 50
90.0
100
AcDbRotatedDimension
1001
ACAD
1000
DSTYLE
1002
{
1070
    41
1040
10.0
1070
   140
1040
30.0
1070
   147
1040
6.599999999999997
1070
   279
1070
     2
1070
   342
1005
30D
1070
   371
1070
    18
1070
   372
1070
    18
1002
}
  0
DIMENSION
  5
5580
330
1F
100
AcDbEntity
  8
実形
100
AcDbDimension
  2
*D27
 10
722.288774357072
 20
757.759223040568
 30
0.0
 11
691.619571820267
 21
788.2843518961126
 31
0.0
 70
   160
  1
20
 71
     5
 42
40.0
  3
ISO-25
100
AcDbAlignedDimension
 13
818.3502058085251
 23
797.7592230405678
 33
0.0
 14
817.8885014543483
 24
757.7592230405679
 34
0.0
 50
90.0
100
AcDbRotatedDimension
1001
ACAD
1000
DSTYLE
1002
{
1070
    41
1040
10.0
1070
   140
1040
30.0
1070
   147
1040
6.599999999999997
1070
   279
1070
     2
1070
   342
1005
30D
1070
   371
1070
    18
1070
   372
1070
    18
1002
}
  0
CIRCLE
  5
5640
330
1F
100
AcDbEntity
  8
実形
100
AcDbCircle
 10
948.7710340146239
 20
1481.759223040567
 30
0.0
 40
8.0
  0
CIRCLE
  5
5648
330
1F
100
AcDbEntity
  8
実形
100
AcDbCircle
 10
948.7710340146239
 20
1401.759223040567
 30
0.0
 40
8.0
  0
CIRCLE
  5
5650
330
1F
100
AcDbEntity
  8
実形
100
AcDbCircle
 10
948.7710340146239
 20
1321.759223040567
 30
0.0
 40
8.0
  0
CIRCLE
  5
5658
330
1F
100
AcDbEntity
  8
実形
100
AcDbCircle
 10
948.7710340146239
 20
1161.759223040568
 30
0.0
 40
8.0
  0
CIRCLE
  5
5660
330
1F
100
AcDbEntity
  8
実形
100
AcDbCircle
 10
948.7710340146239
 20
1081.759223040568
 30
0.0
 40
8.0
  0
CIRCLE
  5
5668
330
1F
100
AcDbEntity
  8
実形
100
AcDbCircle
 10
948.7710340146239
 20
1001.759223040568
 30
0.0
 40
8.0
  0
CIRCLE
  5
5670
330
1F
100
AcDbEntity
  8
実形
100
AcDbCircle
 10
948.7710340146243
 20
921.7592230405678
 30
0.0
 40
8.0
  0
CIRCLE
  5
5678
330
1F
100
AcDbEntity
  8
実形
100
AcDbCircle
 10
948.7710340146239
 20
841.7592230405674
 30
0.0
 40
8.0
  0
CIRCLE
  5
568C
330
1F
100
AcDbEntity
  8
実形
100
AcDbCircle
 10
1028.771034014624
 20
1561.759223040568
 30
0.0
 40
8.0
  0
CIRCLE
  5
568E
330
1F
100
AcDbEntity
  8
実形
100
AcDbCircle
 10
1028.771034014624
 20
1481.759223040567
 30
0.0
 40
8.0
  0
CIRCLE
  5
568F
330
1F
100
AcDbEntity
  8
実形
100
AcDbCircle
 10
1028.771034014624
 20
1401.759223040567
 30
0.0
 40
8.0
  0
CIRCLE
  5
5690
330
1F
100
AcDbEntity
  8
実形
100
AcDbCircle
 10
1028.771034014624
 20
1321.759223040567
 30
0.0
 40
8.0
  0
CIRCLE
  5
5691
330
1F
100
AcDbEntity
  8
実形
100
AcDbCircle
 10
1028.771034014624
 20
1161.759223040568
 30
0.0
 40
8.0
  0
CIRCLE
  5
5692
330
1F
100
AcDbEntity
  8
実形
100
AcDbCircle
 10
1028.771034014624
 20
1081.759223040568
 30
0.0
 40
8.0
  0
CIRCLE
  5
5693
330
1F
100
AcDbEntity
  8
実形
100
AcDbCircle
 10
1028.771034014624
 20
1001.759223040568
 30
0.0
 40
8.0
  0
CIRCLE
  5
5694
330
1F
100
AcDbEntity
  8
実形
100
AcDbCircle
 10
1028.771034014624
 20
921.7592230405678
 30
0.0
 40
8.0
  0
CIRCLE
  5
5695
330
1F
100
AcDbEntity
  8
実形
100
AcDbCircle
 10
1028.771034014624
 20
841.7592230405674
 30
0.0
 40
8.0
  0
CIRCLE
  5
56A6
330
1F
100
AcDbEntity
  8
実形
100
AcDbCircle
 10
1108.771034014624
 20
1561.759223040568
 30
0.0
 40
8.0
  0
CIRCLE
  5
56A8
330
1F
100
AcDbEntity
  8
実形
100
AcDbCircle
 10
1108.771034014624
 20
1481.759223040567
 30
0.0
 40
8.0
  0
CIRCLE
  5
56A9
330
1F
100
AcDbEntity
  8
実形
100
AcDbCircle
 10
1108.771034014624
 20
1401.759223040567
 30
0.0
 40
8.0
  0
CIRCLE
  5
56AA
330
1F
100
AcDbEntity
  8
実形
100
AcDbCircle
 10
1108.771034014624
 20
1321.759223040567
 30
0.0
 40
8.0
  0
CIRCLE
  5
56AB
330
1F
100
AcDbEntity
  8
実形
100
AcDbCircle
 10
1108.771034014624
 20
1161.759223040568
 30
0.0
 40
8.0
  0
CIRCLE
  5
56AC
330
1F
100
AcDbEntity
  8
実形
100
AcDbCircle
 10
1108.771034014624
 20
1081.759223040568
 30
0.0
 40
8.0
  0
CIRCLE
  5
56AD
330
1F
100
AcDbEntity
  8
実形
100
AcDbCircle
 10
1108.771034014624
 20
1001.759223040568
 30
0.0
 40
8.0
  0
CIRCLE
  5
56AE
330
1F
100
AcDbEntity
  8
実形
100
AcDbCircle
 10
1108.771034014624
 20
921.7592230405678
 30
0.0
 40
8.0
  0
CIRCLE
  5
56AF
330
1F
100
AcDbEntity
  8
実形
100
AcDbCircle
 10
1108.771034014624
 20
841.7592230405674
 30
0.0
 40
8.0
  0
CIRCLE
  5
56C0
330
1F
100
AcDbEntity
  8
実形
100
AcDbCircle
 10
1188.771034014624
 20
1561.759223040568
 30
0.0
 40
8.0
  0
CIRCLE
  5
56C2
330
1F
100
AcDbEntity
  8
実形
100
AcDbCircle
 10
1188.771034014624
 20
1481.759223040567
 30
0.0
 40
8.0
  0
CIRCLE
  5
56C3
330
1F
100
AcDbEntity
  8
実形
100
AcDbCircle
 10
1188.771034014624
 20
1401.759223040567
 30
0.0
 40
8.0
  0
CIRCLE
  5
56C4
330
1F
100
AcDbEntity
  8
実形
100
AcDbCircle
 10
1188.771034014624
 20
1321.759223040567
 30
0.0
 40
8.0
  0
CIRCLE
  5
56C5
330
1F
100
AcDbEntity
  8
実形
100
AcDbCircle
 10
1188.771034014624
 20
1161.759223040568
 30
0.0
 40
8.0
  0
CIRCLE
  5
56C6
330
1F
100
AcDbEntity
  8
実形
100
AcDbCircle
 10
1188.771034014624
 20
1081.759223040568
 30
0.0
 40
8.0
  0
CIRCLE
  5
56C7
330
1F
100
AcDbEntity
  8
実形
100
AcDbCircle
 10
1188.771034014624
 20
1001.759223040568
 30
0.0
 40
8.0
  0
CIRCLE
  5
56C8
330
1F
100
AcDbEntity
  8
実形
100
AcDbCircle
 10
1188.771034014624
 20
921.7592230405678
 30
0.0
 40
8.0
  0
CIRCLE
  5
56C9
330
1F
100
AcDbEntity
  8
実形
100
AcDbCircle
 10
1188.771034014624
 20
841.7592230405674
 30
0.0
 40
8.0
  0
CIRCLE
  5
56DA
330
1F
100
AcDbEntity
  8
実形
100
AcDbCircle
 10
1268.771034014624
 20
1561.759223040568
 30
0.0
 40
8.0
  0
CIRCLE
  5
56DC
330
1F
100
AcDbEntity
  8
実形
100
AcDbCircle
 10
1268.771034014624
 20
1481.759223040567
 30
0.0
 40
8.0
  0
CIRCLE
  5
56DD
330
1F
100
AcDbEntity
  8
実形
100
AcDbCircle
 10
1268.771034014624
 20
1401.759223040567
 30
0.0
 40
8.0
  0
CIRCLE
  5
56DE
330
1F
100
AcDbEntity
  8
実形
100
AcDbCircle
 10
1268.771034014624
 20
1321.759223040567
 30
0.0
 40
8.0
  0
CIRCLE
  5
56DF
330
1F
100
AcDbEntity
  8
実形
100
AcDbCircle
 10
1268.771034014624
 20
1161.759223040568
 30
0.0
 40
8.0
  0
CIRCLE
  5
56E0
330
1F
100
AcDbEntity
  8
実形
100
AcDbCircle
 10
1268.771034014624
 20
1081.759223040568
 30
0.0
 40
8.0
  0
CIRCLE
  5
56E1
330
1F
100
AcDbEntity
  8
実形
100
AcDbCircle
 10
1268.771034014624
 20
1001.759223040568
 30
0.0
 40
8.0
  0
CIRCLE
  5
56E2
330
1F
100
AcDbEntity
  8
実形
100
AcDbCircle
 10
1268.771034014624
 20
921.7592230405678
 30
0.0
 40
8.0
  0
CIRCLE
  5
56E3
330
1F
100
AcDbEntity
  8
実形
100
AcDbCircle
 10
1268.771034014624
 20
841.7592230405674
 30
0.0
 40
8.0
  0
LINE
  5
56E6
330
1F
100
AcDbEntity
  8
実形
  6
CENTER2
 48
0.8
100
AcDbLine
 10
948.7710340146239
 20
1433.329426082097
 30
0.0
 11
948.7710340146239
 21
1633.507419723135
 31
0.0
  0
LINE
  5
56E7
330
1F
100
AcDbEntity
  8
実形
  6
CENTER2
 48
0.8
100
AcDbLine
 10
1028.771034014624
 20
1433.329426082097
 30
0.0
 11
1028.771034014624
 21
1633.507419723135
 31
0.0
  0
LINE
  5
56E8
330
1F
100
AcDbEntity
  8
実形
  6
CENTER2
 48
0.8
100
AcDbLine
 10
1108.771034014624
 20
744.7717117804422
 30
0.0
 11
1108.771034014624
 21
1650.458169879892
 31
0.0
  0
DIMENSION
  5
5833
330
1F
100
AcDbEntity
  8
実形
100
AcDbDimension
  2
*D28
 10
1318.771034014624
 20
1813.584460819132
 30
0.0
 11
1108.771034014624
 21
1835.184460819133
 31
0.0
 70
    32
  1
210
 71
     5
 42
420.0
  3
ISO-25
100
AcDbAlignedDimension
 13
898.7710340146241
 23
1721.370102653694
 33
0.0
 14
1318.771034014624
 24
1721.370102653694
 34
0.0
100
AcDbRotatedDimension
1001
ACAD
1000
DSTYLE
1002
{
1070
    41
1040
10.0
1070
   140
1040
30.0
1070
   147
1040
6.599999999999997
1070
   279
1070
     2
1070
   342
1005
30D
1070
   371
1070
    18
1070
   372
1070
    18
1002
}
  0
DIMENSION
  5
58E6
330
1F
100
AcDbEntity
  8
実形
100
AcDbDimension
  2
*D29
 10
619.6233729757947
 20
797.759223040568
 30
0.0
 11
598.0233729757947
 21
1201.759223040568
 31
0.0
 70
    32
  1
404
 71
     5
 42
808.0
  3
ISO-25
100
AcDbAlignedDimension
 13
722.2887743570717
 23
1605.759223040568
 33
0.0
 14
709.9660216467327
 24
797.759223040568
 34
0.0
 50
90.0
100
AcDbRotatedDimension
1001
ACAD
1000
DSTYLE
1002
{
1070
    41
1040
10.0
1070
   140
1040
30.0
1070
   147
1040
6.599999999999997
1070
   279
1070
     2
1070
   342
1005
30D
1070
   371
1070
    18
1070
   372
1070
    18
1002
}
  0
LINE
  5
5A69
330
1F
100
AcDbEntity
  8
実形
100
AcDbLine
 10
481.2262290892939
 20
448.3378185481269
 30
0.0
 11
671.2262290892939
 21
448.3378185481269
 31
0.0
  0
LINE
  5
5A6A
330
1F
100
AcDbEntity
  8
実形
100
AcDbLine
 10
681.2262290892939
 20
438.3378185481269
 30
0.0
 11
681.2262290892939
 21
314.337818548127
 31
0.0
  0
LINE
  5
5A6D
330
1F
100
AcDbEntity
  8
実形
100
AcDbLine
 10
685.2262290892939
 20
310.337818548127
 30
0.0
 11
891.226229089294
 21
310.337818548127
 31
0.0
  0
DIMENSION
  5
5A71
330
1F
100
AcDbEntity
  8
実形
100
AcDbDimension
  2
*D30
 10
681.2262290892939
 20
546.1636602592935
 30
0.0
 11
581.2262290892939
 21
567.7636602592935
 31
0.0
 70
    32
  1
20
 71
     5
 42
200.0
  3
ISO-25
100
AcDbAlignedDimension
 13
481.2262290892939
 23
448.3378185481269
 33
0.0
 14
681.2262290892939
 24
448.3378185481269
 34
0.0
100
AcDbRotatedDimension
1001
ACAD
1000
DSTYLE
1002
{
1070
    41
1040
10.0
1070
   140
1040
30.0
1070
   147
1040
6.599999999999997
1070
   279
1070
     2
1070
   342
1005
30D
1070
   371
1070
    18
1070
   372
1070
    18
1002
}
  0
DIMENSION
  5
5A9A
330
1F
100
AcDbEntity
  8
実形
100
AcDbDimension
  2
*D31
 10
405.3733907900913
 20
436.3378185481269
 30
0.0
 11
380.4733907900914
 21
485.2191953502314
 31
0.0
 70
   160
  1
1.2
 71
     5
 42
12.0
  3
ISO-25
100
AcDbAlignedDimension
 13
506.9188318196228
 23
448.3378185481269
 33
0.0
 14
506.9188318196228
 24
436.3378185481269
 34
0.0
 50
90.0
100
AcDbRotatedDimension
1001
ACAD
1000
DSTYLE
1002
{
1070
    41
1040
10.0
1070
   140
1040
30.0
1070
   147
1040
6.599999999999997
1070
   279
1070
     2
1070
   342
1005
30D
1070
   371
1070
    18
1070
   372
1070
    18
1002
}
  0
DIMENSION
  5
5ACD
330
1F
100
AcDbEntity
  8
実形
100
AcDbDimension
  2
*D32
 10
405.3733907900913
 20
310.3378185481271
 30
0.0
 11
383.7733907900913
 21
373.3378185481272
 31
0.0
 70
    32
  1
12.6
 71
     5
 42
125.9999999999998
  3
ISO-25
100
AcDbAlignedDimension
 13
471.2262290892939
 23
436.3378185481269
 33
0.0
 14
471.2262290892939
 24
310.3378185481271
 34
0.0
 50
90.0
100
AcDbRotatedDimension
1001
ACAD
1000
DSTYLE
1002
{
1070
    41
1040
10.0
1070
   140
1040
30.0
1070
   147
1040
6.599999999999997
1070
   279
1070
     2
1070
   342
1005
30D
1070
   371
1070
    18
1070
   372
1070
    18
1002
}
  0
DIMENSION
  5
5ADB
330
1F
100
AcDbEntity
  8
実形
100
AcDbDimension
  2
*D33
 10
305.1415371966542
 20
298.3378185481269
 30
0.0
 11
283.541537196654
 21
373.3378185481271
 31
0.0
 70
    32
  1
15
 71
     5
 42
150.0
  3
ISO-25
100
AcDbAlignedDimension
 13
471.2262290892939
 23
448.3378185481269
 33
0.0
 14
471.2262290892939
 24
298.3378185481269
 34
0.0
 50
90.0
100
AcDbRotatedDimension
1001
ACAD
1000
DSTYLE
1002
{
1070
    41
1040
10.0
1070
   140
1040
30.0
1070
   147
1040
6.599999999999997
1070
   279
1070
     2
1070
   342
1005
30D
1070
   371
1070
    18
1070
   372
1070
    18
1002
}
  0
DIMENSION
  5
5B10
330
1F
100
AcDbEntity
  8
実形
100
AcDbDimension
  2
*D34
 10
405.3733907900913
 20
298.3378185481269
 30
0.0
 11
380.4733907900914
 21
261.6838978052474
 31
0.0
 70
   160
  1
1.2
 71
     5
 42
12.00000000000011
  3
ISO-25
100
AcDbAlignedDimension
 13
505.6207209480944
 23
310.3378185481271
 33
0.0
 14
507.2759843879447
 24
298.3378185481269
 34
0.0
 50
90.0
100
AcDbRotatedDimension
1001
ACAD
1000
DSTYLE
1002
{
1070
    41
1040
10.0
1070
   140
1040
30.0
1070
   147
1040
6.599999999999997
1070
   279
1070
     2
1070
   342
1005
30D
1070
   371
1070
    18
1070
   372
1070
    18
1002
}
  0
LINE
  5
5BFE
330
1F
100
AcDbEntity
  8
実形
100
AcDbLine
 10
891.226229089294
 20
310.337818548127
 30
0.0
 11
891.226229089294
 21
298.3378185481269
 31
0.0
  0
LINE
  5
5BFF
330
1F
100
AcDbEntity
  8
実形
100
AcDbLine
 10
971.2262290892939
 20
310.337818548127
 30
0.0
 11
971.2262290892939
 21
298.3378185481269
 31
0.0
  0
LINE
  5
5C00
330
1F
100
AcDbEntity
  8
実形
100
AcDbLine
 10
1291.226229089294
 20
310.337818548127
 30
0.0
 11
1291.226229089294
 21
298.3378185481269
 31
0.0
  0
LINE
  5
5C01
330
1F
100
AcDbEntity
  8
実形
100
AcDbLine
 10
1371.226229089294
 20
310.8804525936321
 30
0.0
 11
1371.226229089294
 21
298.8804525936321
 31
0.0
  0
LINE
  5
5C29
330
1F
100
AcDbEntity
  8
実形
100
AcDbLine
 10
971.2262290892939
 20
310.337818548127
 30
0.0
 11
1291.226229089294
 21
310.337818548127
 31
0.0
  0
TEXT
  5
5C3E
330
1F
100
AcDbEntity
  8
実形
100
AcDbText
 10
1402.737556999324
 20
1470.292764532148
 30
0.0
 40
30.0
  1
A
 72
     4
 11
1412.737556999324
 21
1485.292764532148
 31
0.0
100
AcDbText
  0
TEXT
  5
5C47
330
1F
100
AcDbEntity
  8
実形
100
AcDbText
 10
1411.250990288472
 20
1469.646016710694
 30
0.0
 40
30.0
  1
´
 72
     4
 11
1425.250990288472
 21
1497.646016710694
 31
0.0
100
AcDbText
  0
TEXT
  5
5C50
330
1F
100
AcDbEntity
  8
実形
100
AcDbText
 10
293.0286672018391
 20
578.5766130999395
 30
0.0
 40
40.0
  1
A-A´断面
 72
     4
 11
419.6953338685057
 21
598.5766130999395
 31
0.0
100
AcDbText
  0
LINE
  5
5C52
330
1F
100
AcDbEntity
  8
実形
100
AcDbLine
 10
1371.226229089294
 20
310.8804525936321
 30
0.0
 11
1455.882251809598
 21
310.8804525936321
 31
0.0
  0
ARC
  5
5DAF
330
1F
100
AcDbEntity
  8
実形
100
AcDbCircle
 10
910.7710340146239
 20
1593.759223040568
 30
0.0
 40
12.0
100
AcDbArc
 50
90.0
 51
180.0
  0
ARC
  5
5DB0
330
1F
100
AcDbEntity
  8
実形
100
AcDbCircle
 10
1306.771034014624
 20
1593.759223040568
 30
0.0
 40
12.0
100
AcDbArc
 50
0.0
 51
90.0
  0
ARC
  5
5DB3
330
1F
100
AcDbEntity
  8
実形
100
AcDbCircle
 10
910.7710340146239
 20
809.7592230405679
 30
0.0
 40
12.0
100
AcDbArc
 50
180.0
 51
270.0
  0
ARC
  5
5DB4
330
1F
100
AcDbEntity
  8
実形
100
AcDbCircle
 10
1306.771034014624
 20
809.7592230405679
 30
0.0
 40
12.0
100
AcDbArc
 50
270.0
 51
0.0
  0
LINE
  5
5DC3
330
1F
100
AcDbEntity
  8
実形
100
AcDbLine
 10
481.2262290892939
 20
436.3378185481269
 30
0.0
 11
665.2262290892942
 21
436.3378185481269
 31
0.0
  0
LINE
  5
5DC4
330
1F
100
AcDbEntity
  8
実形
100
AcDbLine
 10
669.2262290892942
 20
432.3378185481269
 30
0.0
 11
669.2262290892945
 21
308.337818548127
 31
0.0
  0
LINE
  5
5DC5
330
1F
100
AcDbEntity
  8
実形
100
AcDbLine
 10
679.2262290892945
 20
298.3378185481269
 30
0.0
 11
891.226229089294
 21
298.3378185481269
 31
0.0
  0
LINE
  5
5DC6
330
1F
100
AcDbEntity
  8
実形
100
AcDbLine
 10
971.2262290892939
 20
298.3378185481269
 30
0.0
 11
1291.226229089294
 21
298.3378185481269
 31
0.0
  0
LINE
  5
5DC7
330
1F
100
AcDbEntity
  8
実形
100
AcDbLine
 10
1371.226229089294
 20
298.8804525936321
 30
0.0
 11
1455.882251809598
 21
298.880452593632
 31
0.0
  0
TEXT
  5
5E30
330
1F
100
AcDbEntity
  8
実形
 48
20.0
100
AcDbText
 10
982.3998768247493
 20
692.3999119557318
 30
0.0
 40
30.0
  1
8φ
100
AcDbText
  0
LEADER
  5
5E31
330
1F
100
AcDbEntity
  8
実形
100
AcDbLeader
  3
ISO-25
 76
     2
 10
1096.022669825141
 20
828.9083557807478
 30
0.0
 10
1015.290684782811
 20
716.2823688638582
 30
0.0
1001
ACAD
1000
DSTYLE
1002
{
1070
    77
1070
     0
1070
    41
1040
10.0
1070
   140
1040
30.0
1070
   147
1040
6.599999999999997
1070
   279
1070
     2
1070
   342
1005
30D
1070
   371
1070
    18
1070
   372
1070
    18
1002
}
  0
TEXT
  5
5E3A
330
1F
100
AcDbEntity
  8
実形
100
AcDbText
 10
1419.655081337538
 20
711.452567867821
 30
0.0
 40
30.0
  1
6R
 72
     2
 11
1469.655081337538
 21
707.452567867821
 31
0.0
100
AcDbText
 73
     1
  0
LEADER
  5
5E43
330
1F
100
AcDbEntity
  8
実形
100
AcDbLeader
  3
ISO-25
 76
     2
 10
1320.200137915689
 20
753.9539105362819
 30
0.0
 10
1391.958162381996
 20
728.374159439727
 30
0.0
1001
ACAD
1000
DSTYLE
1002
{
1070
    77
1070
     0
1070
    41
1040
10.0
1070
   140
1040
30.0
1070
   147
1040
6.599999999999997
1070
   279
1070
     2
1070
   342
1005
30D
1070
   371
1070
    18
1070
   372
1070
    18
1002
}
  0
LEADER
  5
5E44
330
1F
100
AcDbEntity
  8
実形
100
AcDbLeader
  3
ISO-25
 76
     2
 10
1328.103047608192
 20
793.4584131385918
 30
0.0
 10
1401.190473127885
 20
736.0657971936189
 30
0.0
1001
ACAD
1000
DSTYLE
1002
{
1070
    77
1070
     0
1070
    41
1040
10.0
1070
   140
1040
30.0
1070
   147
1040
6.599999999999997
1070
   279
1070
     2
1070
   342
1005
30D
1070
   371
1070
    18
1070
   372
1070
    18
1002
}
  0
TEXT
  5
5E5F
330
1F
100
AcDbEntity
  8
実形
 62
     0
100
AcDbText
 10
2136.666666666667
 20
83.99999999999909
 30
0.0
 40
35.0
  1
品番
 72
     4
 11
2174.0
 21
101.4999999999991
 31
0.0
100
AcDbText
  0
TEXT
  5
5E68
330
1F
100
AcDbEntity
  8
実形
 62
     0
100
AcDbText
 10
2136.666666666667
 20
148.9999999999991
 30
0.0
 40
35.0
  1
名称
 72
     4
 11
2174.0
 21
166.4999999999991
 31
0.0
100
AcDbText
  0
DIMENSION
  5
5F2A
330
1F
100
AcDbEntity
  8
実形
100
AcDbDimension
  2
*D35
 10
931.226229089294
 20
220.426580581212
 30
0.0
 11
806.2262290892942
 21
242.026580581212
 31
0.0
 70
    32
  1
25
 71
     5
 42
249.9999999999998
  3
ISO-25
100
AcDbAlignedDimension
 13
681.2262290892943
 23
324.0731174124539
 33
0.0
 14
931.226229089294
 24
322.6436135040298
 34
0.0
100
AcDbRotatedDimension
1001
ACAD
1000
DSTYLE
1002
{
1070
    41
1040
10.0
1070
   140
1040
30.0
1070
   147
1040
6.599999999999997
1070
   279
1070
     2
1070
   342
1005
30D
1070
   371
1070
    18
1070
   372
1070
    18
1002
}
  0
DIMENSION
  5
5F4A
330
1F
100
AcDbEntity
  8
実形
100
AcDbDimension
  2
*D36
 10
971.2262290892939
 20
371.5523651500626
 30
0.0
 11
931.226229089294
 21
393.1523651500626
 31
0.0
 70
    32
  1
8
 71
     5
 42
79.9999999999999
  3
ISO-25
100
AcDbAlignedDimension
 13
891.2262290892941
 23
277.7941797056119
 33
0.0
 14
971.2262290892939
 24
277.7941797056119
 34
0.0
100
AcDbRotatedDimension
1001
ACAD
1000
DSTYLE
1002
{
1070
    41
1040
10.0
1070
   140
1040
30.0
1070
   147
1040
6.599999999999997
1070
   279
1070
     2
1070
   342
1005
30D
1070
   371
1070
    18
1070
   372
1070
    18
1002
}
  0
DIMENSION
  5
5F98
330
1F
100
AcDbEntity
  8
実形
100
AcDbDimension
  2
*D37
 10
1371.226229089294
 20
371.5523651500626
 30
0.0
 11
1331.226229089294
 21
393.1523651500626
 31
0.0
 70
    32
  1
8
 71
     5
 42
80.0
  3
ISO-25
100
AcDbAlignedDimension
 13
1291.226229089294
 23
277.7941797056119
 33
0.0
 14
1371.226229089294
 24
277.7941797056119
 34
0.0
100
AcDbRotatedDimension
1001
ACAD
1000
DSTYLE
1002
{
1070
    41
1040
10.0
1070
   140
1040
30.0
1070
   147
1040
6.599999999999997
1070
   279
1070
     2
1070
   342
1005
30D
1070
   371
1070
    18
1070
   372
1070
    18
1002
}
  0
DIMENSION
  5
5FAF
330
1F
100
AcDbEntity
  8
実形
100
AcDbDimension
  2
*D38
 10
1331.226229089294
 20
220.426580581212
 30
0.0
 11
1131.226229089294
 21
242.026580581212
 31
0.0
 70
    32
  1
40
 71
     5
 42
400.0
  3
ISO-25
100
AcDbAlignedDimension
 13
931.226229089294
 23
298.3378185481273
 33
0.0
 14
1331.226229089294
 24
322.4060837368543
 34
0.0
100
AcDbRotatedDimension
1001
ACAD
1000
DSTYLE
1002
{
1070
    41
1040
10.0
1070
   140
1040
30.0
1070
   147
1040
6.599999999999997
1070
   279
1070
     2
1070
   342
1005
30D
1070
   371
1070
    18
1070
   372
1070
    18
1002
}
  0
DIMENSION
  5
5FE0
330
1F
100
AcDbEntity
  8
実形
100
AcDbDimension
  2
*D39
 10
681.2262290892943
 20
220.426580581212
 30
0.0
 11
627.2309822356474
 21
244.9946480099443
 31
0.0
 70
   160
  1
1.2
 71
     5
 42
11.99999999999977
  3
ISO-25
100
AcDbAlignedDimension
 13
669.2262290892945
 23
323.5870671043231
 33
0.0
 14
681.2262290892943
 24
316.3378185481271
 34
0.0
100
AcDbRotatedDimension
1001
ACAD
1000
DSTYLE
1002
{
1070
    41
1040
10.0
1070
   140
1040
30.0
1070
   147
1040
6.599999999999997
1070
   279
1070
     2
1070
   342
1005
30D
1070
   371
1070
    18
1070
   372
1070
    18
1002
}
  0
ARC
  5
604C
330
1F
100
AcDbEntity
  8
実形
100
AcDbCircle
 10
671.2262290892939
 20
438.3378185481269
 30
0.0
 40
10.0
100
AcDbArc
 50
0.0000000000001018
 51
90.0
  0
ARC
  5
604D
330
1F
100
AcDbEntity
  8
実形
100
AcDbCircle
 10
665.2262290892942
 20
432.3378185481269
 30
0.0
 40
4.0
100
AcDbArc
 50
0.0000000000002672
 51
90.0
  0
ARC
  5
604E
330
1F
100
AcDbEntity
  8
実形
100
AcDbCircle
 10
685.2262290892939
 20
314.337818548127
 30
0.0
 40
4.0
100
AcDbArc
 50
180.0000000000001
 51
269.9999999999999
  0
ARC
  5
604F
330
1F
100
AcDbEntity
  8
実形
100
AcDbCircle
 10
679.2262290892945
 20
308.337818548127
 30
0.0
 40
10.0
100
AcDbArc
 50
180.0000000000002
 51
269.9999999999999
  0
LINE
  5
6349
330
1F
100
AcDbEntity
  8
実形
100
AcDbLine
 10
1878.153355282236
 20
448.3378185481259
 30
0.0
 11
2068.153355282237
 21
448.3378185481259
 31
0.0
  0
LINE
  5
634A
330
1F
100
AcDbEntity
  8
実形
100
AcDbLine
 10
1878.153355282236
 20
436.3378185481259
 30
0.0
 11
2062.153355282237
 21
436.3378185481259
 31
0.0
  0
LINE
  5
634B
330
1F
100
AcDbEntity
  8
実形
100
AcDbLine
 10
2078.153355282237
 20
438.3378185481261
 30
0.0
 11
2078.153355282237
 21
314.3378185481261
 31
0.0
  0
ARC
  5
634C
330
1F
100
AcDbEntity
  8
実形
100
AcDbCircle
 10
2082.153355282237
 20
314.3378185481261
 30
0.0
 40
4.0
100
AcDbArc
 50
180.0
 51
270.0
  0
ARC
  5
634D
330
1F
100
AcDbEntity
  8
実形
100
AcDbCircle
 10
2068.153355282237
 20
438.3378185481261
 30
0.0
 40
10.0
100
AcDbArc
 50
0.0
 51
90.0
  0
LINE
  5
634E
330
1F
100
AcDbEntity
  8
実形
100
AcDbLine
 10
2066.153355282237
 20
432.3378185481259
 30
0.0
 11
2066.153355282237
 21
308.3378185481261
 31
0.0
  0
ARC
  5
634F
330
1F
100
AcDbEntity
  8
実形
100
AcDbCircle
 10
2076.153355282237
 20
308.3378185481261
 30
0.0
 40
10.0
100
AcDbArc
 50
180.0
 51
270.0
  0
ARC
  5
6350
330
1F
100
AcDbEntity
  8
実形
100
AcDbCircle
 10
2062.153355282237
 20
432.3378185481259
 30
0.0
 40
4.0
100
AcDbArc
 50
0.0
 51
90.0
  0
LINE
  5
6351
330
1F
100
AcDbEntity
  8
実形
100
AcDbLine
 10
2338.153355282237
 20
310.3378185481261
 30
0.0
 11
2338.153355282237
 21
298.3378185481261
 31
0.0
  0
LINE
  5
6352
330
1F
100
AcDbEntity
  8
実形
100
AcDbLine
 10
2258.153355282237
 20
310.3378185481261
 30
0.0
 11
2258.153355282237
 21
298.3378185481261
 31
0.0
  0
LINE
  5
6353
330
1F
100
AcDbEntity
  8
実形
100
AcDbLine
 10
2738.153355282237
 20
310.8804525936311
 30
0.0
 11
2738.153355282237
 21
298.8804525936312
 31
0.0
  0
LINE
  5
6354
330
1F
100
AcDbEntity
  8
実形
100
AcDbLine
 10
2658.153355282237
 20
310.3378185481261
 30
0.0
 11
2658.153355282237
 21
298.3378185481261
 31
0.0
  0
LINE
  5
6355
330
1F
100
AcDbEntity
  8
実形
100
AcDbLine
 10
2082.153355282237
 20
310.3378185481261
 30
0.0
 11
2258.153355282237
 21
310.3378185481261
 31
0.0
  0
LINE
  5
6356
330
1F
100
AcDbEntity
  8
実形
100
AcDbLine
 10
2076.153355282237
 20
298.3378185481261
 30
0.0
 11
2258.153355282237
 21
298.3378185481261
 31
0.0
  0
LINE
  5
6357
330
1F
100
AcDbEntity
  8
実形
100
AcDbLine
 10
2338.153355282237
 20
310.3378185481261
 30
0.0
 11
2658.153355282237
 21
310.3378185481261
 31
0.0
  0
LINE
  5
6358
330
1F
100
AcDbEntity
  8
実形
100
AcDbLine
 10
2338.153355282237
 20
298.3378185481261
 30
0.0
 11
2658.153355282237
 21
298.3378185481261
 31
0.0
  0
LINE
  5
6359
330
1F
100
AcDbEntity
  8
実形
100
AcDbLine
 10
2738.153355282237
 20
310.8804525936311
 30
0.0
 11
2798.335200803456
 21
310.8804525936311
 31
0.0
  0
LINE
  5
635A
330
1F
100
AcDbEntity
  8
実形
100
AcDbLine
 10
2738.153355282237
 20
298.8804525936312
 30
0.0
 11
2798.335200803456
 21
298.8804525936312
 31
0.0
  0
DIMENSION
  5
635B
330
1F
100
AcDbEntity
  8
実形
100
AcDbDimension
  2
*D40
 10
2078.153355282237
 20
556.1636602592925
 30
0.0
 11
1978.153355282237
 21
577.7636602592925
 31
0.0
 70
    32
  1
20
 71
     5
 42
200.0
  3
ISO-25
100
AcDbAlignedDimension
 13
1878.153355282236
 23
448.3378185481259
 33
0.0
 14
2078.153355282237
 24
448.3378185481259
 34
0.0
100
AcDbRotatedDimension
1001
ACAD
1000
DSTYLE
1002
{
1070
    41
1040
10.0
1070
   140
1040
30.0
1070
   147
1040
6.599999999999997
1070
   279
1070
     2
1070
   342
1005
30D
1070
   371
1070
    18
1070
   372
1070
    18
1002
}
  0
DIMENSION
  5
635D
330
1F
100
AcDbEntity
  8
実形
100
AcDbDimension
  2
*D41
 10
1822.349605805526
 20
436.3378185481269
 30
0.0
 11
1797.449605805526
 21
485.2191953502314
 31
0.0
 70
   160
  1
1.2
 71
     5
 42
12.0
  3
ISO-25
100
AcDbAlignedDimension
 13
1923.895046835058
 23
448.3378185481269
 33
0.0
 14
1923.895046835058
 24
436.3378185481269
 34
0.0
 50
90.0
100
AcDbRotatedDimension
1001
ACAD
1000
DSTYLE
1002
{
1070
    41
1040
10.0
1070
   140
1040
30.0
1070
   147
1040
6.599999999999997
1070
   279
1070
     2
1070
   342
1005
30D
1070
   371
1070
    18
1070
   372
1070
    18
1002
}
  0
DIMENSION
  5
635E
330
1F
100
AcDbEntity
  8
実形
100
AcDbDimension
  2
*D42
 10
1822.349605805526
 20
310.3378185481271
 30
0.0
 11
1800.749605805526
 21
373.3378185481273
 31
0.0
 70
    32
  1
12.6
 71
     5
 42
125.9999999999998
  3
ISO-25
100
AcDbAlignedDimension
 13
1888.202444104729
 23
436.3378185481269
 33
0.0
 14
1888.202444104729
 24
310.3378185481271
 34
0.0
 50
90.0
100
AcDbRotatedDimension
1001
ACAD
1000
DSTYLE
1002
{
1070
    41
1040
10.0
1070
   140
1040
30.0
1070
   147
1040
6.599999999999997
1070
   279
1070
     2
1070
   342
1005
30D
1070
   371
1070
    18
1070
   372
1070
    18
1002
}
  0
DIMENSION
  5
635F
330
1F
100
AcDbEntity
  8
実形
100
AcDbDimension
  2
*D43
 10
1722.117752212089
 20
298.3378185481269
 30
0.0
 11
1700.517752212089
 21
373.3378185481273
 31
0.0
 70
    32
  1
15
 71
     5
 42
150.0
  3
ISO-25
100
AcDbAlignedDimension
 13
1888.202444104729
 23
448.3378185481269
 33
0.0
 14
1888.202444104729
 24
298.3378185481269
 34
0.0
 50
90.0
100
AcDbRotatedDimension
1001
ACAD
1000
DSTYLE
1002
{
1070
    41
1040
10.0
1070
   140
1040
30.0
1070
   147
1040
6.599999999999997
1070
   279
1070
     2
1070
   342
1005
30D
1070
   371
1070
    18
1070
   372
1070
    18
1002
}
  0
DIMENSION
  5
6360
330
1F
100
AcDbEntity
  8
実形
100
AcDbDimension
  2
*D44
 10
1822.349605805526
 20
298.3378185481269
 30
0.0
 11
1797.449605805526
 21
261.6838978052474
 31
0.0
 70
   160
  1
1.2
 71
     5
 42
12.00000000000011
  3
ISO-25
100
AcDbAlignedDimension
 13
1922.596935963529
 23
310.3378185481271
 33
0.0
 14
1924.25219940338
 24
298.3378185481269
 34
0.0
 50
90.0
100
AcDbRotatedDimension
1001
ACAD
1000
DSTYLE
1002
{
1070
    41
1040
10.0
1070
   140
1040
30.0
1070
   147
1040
6.599999999999997
1070
   279
1070
     2
1070
   342
1005
30D
1070
   371
1070
    18
1070
   372
1070
    18
1002
}
  0
TEXT
  5
6361
330
1F
100
AcDbEntity
  8
実形
100
AcDbText
 10
1584.154243546018
 20
532.7129101969108
 30
0.0
 40
40.0
  1
B-B\M+1814C断面
 72
     4
 11
1710.820910212685
 21
552.7129101969108
 31
0.0
100
AcDbText
  0
DIMENSION
  5
6362
330
1F
100
AcDbEntity
  8
実形
100
AcDbDimension
  2
*D45
 10
2298.153355282237
 20
220.4265805812111
 30
0.0
 11
2188.153355282237
 21
242.026580581211
 31
0.0
 70
    32
  1
22
 71
     5
 42
220.0
  3
ISO-25
100
AcDbAlignedDimension
 13
2078.153355282237
 23
324.073117412453
 33
0.0
 14
2298.153355282237
 24
322.6436135040289
 34
0.0
100
AcDbRotatedDimension
1001
ACAD
1000
DSTYLE
1002
{
1070
    41
1040
10.0
1070
   140
1040
30.0
1070
   147
1040
6.599999999999997
1070
   279
1070
     2
1070
   342
1005
30D
1070
   371
1070
    18
1070
   372
1070
    18
1002
}
  0
DIMENSION
  5
6363
330
1F
100
AcDbEntity
  8
実形
100
AcDbDimension
  2
*D46
 10
2338.153355282237
 20
371.5523651500616
 30
0.0
 11
2298.153355282237
 21
393.1523651500616
 31
0.0
 70
    32
  1
8
 71
     5
 42
80.0
  3
ISO-25
100
AcDbAlignedDimension
 13
2258.153355282237
 23
277.7941797056111
 33
0.0
 14
2338.153355282237
 24
277.794179705611
 34
0.0
100
AcDbRotatedDimension
1001
ACAD
1000
DSTYLE
1002
{
1070
    41
1040
10.0
1070
   140
1040
30.0
1070
   147
1040
6.599999999999997
1070
   279
1070
     2
1070
   342
1005
30D
1070
   371
1070
    18
1070
   372
1070
    18
1002
}
  0
DIMENSION
  5
6364
330
1F
100
AcDbEntity
  8
実形
100
AcDbDimension
  2
*D47
 10
2738.153355282237
 20
371.5523651500616
 30
0.0
 11
2698.153355282237
 21
393.1523651500616
 31
0.0
 70
    32
  1
8
 71
     5
 42
80.0
  3
ISO-25
100
AcDbAlignedDimension
 13
2658.153355282237
 23
277.7941797056111
 33
0.0
 14
2738.153355282237
 24
277.794179705611
 34
0.0
100
AcDbRotatedDimension
1001
ACAD
1000
DSTYLE
1002
{
1070
    41
1040
10.0
1070
   140
1040
30.0
1070
   147
1040
6.599999999999997
1070
   279
1070
     2
1070
   342
1005
30D
1070
   371
1070
    18
1070
   372
1070
    18
1002
}
  0
DIMENSION
  5
6365
330
1F
100
AcDbEntity
  8
実形
100
AcDbDimension
  2
*D48
 10
2698.153355282237
 20
220.4265805812111
 30
0.0
 11
2498.153355282237
 21
242.026580581211
 31
0.0
 70
    32
  1
40
 71
     5
 42
400.0
  3
ISO-25
100
AcDbAlignedDimension
 13
2298.153355282237
 23
298.3378185481265
 33
0.0
 14
2698.153355282237
 24
322.4060837368534
 34
0.0
100
AcDbRotatedDimension
1001
ACAD
1000
DSTYLE
1002
{
1070
    41
1040
10.0
1070
   140
1040
30.0
1070
   147
1040
6.599999999999997
1070
   279
1070
     2
1070
   342
1005
30D
1070
   371
1070
    18
1070
   372
1070
    18
1002
}
  0
DIMENSION
  5
6366
330
1F
100
AcDbEntity
  8
実形
100
AcDbDimension
  2
*D49
 10
2078.153355282237
 20
220.4265805812111
 30
0.0
 11
2024.15810842859
 21
244.9946480099434
 31
0.0
 70
   160
  1
1.2
 71
     5
 42
11.99999999999954
  3
ISO-25
100
AcDbAlignedDimension
 13
2066.153355282237
 23
323.5870671043222
 33
0.0
 14
2078.153355282237
 24
316.3378185481262
 34
0.0
100
AcDbRotatedDimension
1001
ACAD
1000
DSTYLE
1002
{
1070
    41
1040
10.0
1070
   140
1040
30.0
1070
   147
1040
6.599999999999997
1070
   279
1070
     2
1070
   342
1005
30D
1070
   371
1070
    18
1070
   372
1070
    18
1002
}
  0
LINE
  5
64D9
330
1F
100
AcDbEntity
  8
実形
100
AcDbLine
 10
481.2262290892939
 20
448.3378185481269
 30
0.0
 11
481.2262290892939
 21
436.3378185481269
 31
0.0
  0
TEXT
  5
65BC
330
1F
100
AcDbEntity
  8
実形
100
AcDbText
 10
1099.100408691905
 20
1662.76800583055
 30
0.0
 40
30.0
  1
B
 72
     4
 11
1109.100408691905
 21
1677.76800583055
 31
0.0
100
AcDbText
  0
TEXT
  5
65C5
330
1F
100
AcDbEntity
  8
実形
100
AcDbText
 10
1099.354423929162
 20
700.3769464712473
 30
0.0
 40
30.0
  1
B
 72
     4
 11
1109.354423929162
 21
715.3769464712472
 31
0.0
100
AcDbText
  0
TEXT
  5
65CE
330
1F
100
AcDbEntity
  8
実形
100
AcDbText
 10
1115.688482252386
 20
703.0236727768042
 30
0.0
 40
30.0
  1
´
 72
     4
 11
1129.688482252386
 21
731.0236727768042
 31
0.0
100
AcDbText
  0
TEXT
  5
68B3
330
1F
100
AcDbEntity
  8
実形
 62
     0
100
AcDbText
 10
2653.5
 20
1911.500000000001
 30
0.0
 40
30.0
  1
電解研磨
 72
     4
 11
2721.5
 21
1926.500000000001
 31
0.0
100
AcDbText
  0
TEXT
  5
68BC
330
1F
100
AcDbEntity
  8
実形
100
AcDbText
 10
2298.807151428191
 20
84.68238670760309
 30
0.0
 40
35.0
  1
RaS250-444MT
  7
ms明朝
 72
     4
 11
2452.407151428191
 21
101.7823867076031
 31
0.0
100
AcDbText
  0
TEXT
  5
68D6
330
1F
100
AcDbEntity
  8
実形
100
AcDbText
 10
2295.707342985361
 20
148.5823867076031
 30
0.0
 40
35.0
  1
水切トレー
  7
ms明朝
 72
     4
 11
2423.707342985361
 21
166.782386707603
 31
0.0
100
AcDbText
  0
LINE
  5
6D9B
330
1F
100
AcDbEntity
  8
実形
 62
     0
100
AcDbLine
 10
2834.0
 20
4.0
 30
0.0
 11
2834.0
 21
2024.0
 31
0.0
  0
LINE
  5
76E2
330
1F
100
AcDbEntity
  8
実形
 62
     0
100
AcDbLine
 10
174.0
 20
2024.0
 30
0.0
 11
174.0
 21
4.0
 31
0.0
  0
LINE
  5
78FB
330
1F
100
AcDbEntity
  8
実形
100
AcDbLine
 10
1878.153355282236
 20
448.3378185481259
 30
0.0
 11
1878.153355282236
 21
436.3378185481259
 31
0.0
  0
TEXT
  5
79B3
330
1F
100
AcDbEntity
  8
実形
100
AcDbText
 10
812.5236759016116
 20
1469.008983384579
 30
0.0
 40
30.0
  1
A
 72
     4
 11
822.5236759016116
 21
1484.008983384579
 31
0.0
100
AcDbText
  0
CIRCLE
  5
7F0E
330
1F
100
AcDbEntity
  8
実形
100
AcDbCircle
 10
948.7710340146239
 20
1241.759223040568
 30
0.0
 40
8.0
  0
CIRCLE
  5
7F0F
330
1F
100
AcDbEntity
  8
実形
100
AcDbCircle
 10
1028.771034014624
 20
1241.759223040568
 30
0.0
 40
8.0
  0
CIRCLE
  5
7F10
330
1F
100
AcDbEntity
  8
実形
100
AcDbCircle
 10
1108.771034014624
 20
1241.759223040568
 30
0.0
 40
8.0
  0
CIRCLE
  5
7F11
330
1F
100
AcDbEntity
  8
実形
100
AcDbCircle
 10
1188.771034014624
 20
1241.759223040568
 30
0.0
 40
8.0
  0
CIRCLE
  5
7F12
330
1F
100
AcDbEntity
  8
実形
100
AcDbCircle
 10
1268.771034014624
 20
1241.759223040568
 30
0.0
 40
8.0
  0
DIMENSION
  5
7F27
330
1F
100
AcDbEntity
  8
実形
100
AcDbDimension
  2
*D52
 10
722.2887743570717
 20
1161.759223040568
 30
0.0
 11
700.6887743570716
 21
1201.759223040568
 31
0.0
 70
    32
  1
40
 71
     5
 42
80.0
  3
ISO-25
100
AcDbAlignedDimension
 13
818.3502058085251
 23
1241.759223040568
 33
0.0
 14
818.3502058085251
 24
1161.759223040568
 34
0.0
 50
90.0
100
AcDbRotatedDimension
1001
ACAD
1000
DSTYLE
1002
{
1070
    41
1040
10.0
1070
   140
1040
30.0
1070
   147
1040
6.599999999999997
1070
   279
1070
     2
1070
   342
1005
30D
1070
   371
1070
    18
1070
   372
1070
    18
1002
}
  0
DIMENSION
  5
7F50
330
1F
100
AcDbEntity
  8
実形
100
AcDbDimension
  2
*D53
 10
722.2887743570717
 20
1241.759223040568
 30
0.0
 11
700.6887743570716
 21
1281.759223040568
 31
0.0
 70
    32
  1
40
 71
     5
 42
80.0
  3
ISO-25
100
AcDbAlignedDimension
 13
818.3502058085251
 23
1321.759223040568
 33
0.0
 14
818.3502058085251
 24
1241.759223040568
 34
0.0
 50
90.0
100
AcDbRotatedDimension
1001
ACAD
1000
DSTYLE
1002
{
1070
    41
1040
10.0
1070
   140
1040
30.0
1070
   147
1040
6.599999999999997
1070
   279
1070
     2
1070
   342
1005
30D
1070
   371
1070
    18
1070
   372
1070
    18
1002
}
  0
DIMENSION
  5
7F79
330
1F
100
AcDbEntity
  8
実形
100
AcDbDimension
  2
*D54
 10
722.2887743570717
 20
1001.759223040568
 30
0.0
 11
700.6887743570716
 21
1041.759223040568
 31
0.0
 70
    32
  1
40
 71
     5
 42
79.9999999999999
  3
ISO-25
100
AcDbAlignedDimension
 13
818.3502058085251
 23
1081.759223040568
 33
0.0
 14
818.3502058085251
 24
1001.759223040568
 34
0.0
 50
90.0
100
AcDbRotatedDimension
1001
ACAD
1000
DSTYLE
1002
{
1070
    41
1040
10.0
1070
   140
1040
30.0
1070
   147
1040
6.599999999999997
1070
   279
1070
     2
1070
   342
1005
30D
1070
   371
1070
    18
1070
   372
1070
    18
1002
}
  0
LINE
  5
82F7
330
1F
100
AcDbEntity
  8
実形
100
AcDbLine
 10
1864.139775979591
 20
757.7592230405679
 30
0.0
 11
1872.240380687558
 21
757.7592230405683
 31
0.0
  0
LINE
  5
82F8
330
1F
100
AcDbEntity
  8
実形
100
AcDbLine
 10
1872.240380687558
 20
797.7592230405678
 30
0.0
 11
1886.039775979591
 21
797.7592230405678
 31
0.0
  0
LINE
  5
82F9
330
1F
100
AcDbEntity
  8
実形
100
AcDbLine
 10
1894.139775979591
 20
789.6592230405681
 30
0.0
 11
1894.139775979591
 21
1496.662883129523
 31
0.0
  0
LINE
  5
82FA
330
1F
100
AcDbEntity
  8
実形
100
AcDbLine
 10
1886.039775979591
 20
797.7592230405678
 30
0.0
 11
1886.03977597959
 21
809.7592230405675
 31
0.0
  0
LINE
  5
82FB
330
1F
100
AcDbEntity
  8
実形
100
AcDbLine
 10
1864.139775979591
 20
757.7592230405679
 30
0.0
 11
1864.139775979591
 21
797.7592230405678
 31
0.0
  0
LINE
  5
82FC
330
1F
100
AcDbEntity
  8
実形
100
AcDbLine
 10
1864.139775979591
 20
809.7592230405675
 30
0.0
 11
1864.139775979591
 21
1171.759223040568
 31
0.0
  0
LINE
  5
82FD
330
1F
100
AcDbEntity
  8
実形
100
AcDbLine
 10
1872.240380687557
 20
757.7592230405679
 30
0.0
 11
1872.240380687558
 21
789.6592230405681
 31
0.0
  0
LINE
  5
82FE
330
1F
100
AcDbEntity
  8
実形
100
AcDbLine
 10
1872.240380687557
 20
809.7592230405675
 30
0.0
 11
1872.240380687557
 21
1171.759223040568
 31
0.0
  0
DIMENSION
  5
82FF
330
1F
100
AcDbEntity
  8
実形
100
AcDbDimension
  2
*D55
 10
2069.361738032087
 20
757.7592230405679
 30
0.0
 11
2047.761738032087
 21
1201.759223040568
 31
0.0
 70
    32
  1
444
 71
     5
 42
888.0000000000004
  3
ISO-25
100
AcDbAlignedDimension
 13
1935.538635682686
 23
1645.759223040568
 33
0.0
 14
1935.538635682686
 24
757.7592230405679
 34
0.0
 50
90.0
100
AcDbRotatedDimension
1001
ACAD
1000
DSTYLE
1002
{
1070
    41
1040
10.0
1070
   140
1040
30.0
1070
   147
1040
6.599999999999997
1070
   279
1070
     2
1070
   342
1005
30D
1070
   371
1070
    18
1070
   372
1070
    18
1002
}
  0
DIMENSION
  5
8300
330
1F
100
AcDbEntity
  8
実形
100
AcDbDimension
  2
*D56
 10
2003.818942934177
 20
757.7592230405679
 30
0.0
 11
1985.125698695258
 21
724.5071247977266
 31
0.0
 70
   160
  1
20
 71
     5
 42
39.99999999999966
  3
ISO-25
100
AcDbAlignedDimension
 13
1905.05867461503
 23
797.7592230405676
 33
0.0
 14
1905.913221601027
 24
757.7592230405679
 34
0.0
 50
90.0
100
AcDbRotatedDimension
1001
ACAD
1000
DSTYLE
1002
{
1070
    41
1040
10.0
1070
   140
1040
30.0
1070
   147
1040
6.599999999999997
1070
   279
1070
     2
1070
   342
1005
30D
1070
   371
1070
    18
1070
   372
1070
    18
1002
}
  0
DIMENSION
  5
8301
330
1F
100
AcDbEntity
  8
実形
100
AcDbDimension
  2
*D57
 10
2003.818942934176
 20
797.7592230405676
 30
0.0
 11
1982.218942934176
 21
1201.759223040568
 31
0.0
 70
    32
  1
392
 71
     5
 42
808.0000000000008
  3
ISO-25
100
AcDbAlignedDimension
 13
1938.023706706363
 23
1605.759223040568
 33
0.0
 14
1931.391474721703
 24
797.7592230405676
 34
0.0
 50
90.0
100
AcDbRotatedDimension
1001
ACAD
1000
DSTYLE
1002
{
1070
    41
1040
10.0
1070
   140
1040
30.0
1070
   147
1040
6.599999999999997
1070
   279
1070
     2
1070
   342
1005
30D
1070
   371
1070
    18
1070
   372
1070
    18
1002
}
  0
DIMENSION
  5
8302
330
1F
100
AcDbEntity
  8
実形
100
AcDbDimension
  2
*D58
 10
1718.395436204542
 20
809.7592230405679
 30
0.0
 11
1696.795436204541
 21
1201.759223040568
 31
0.0
 70
    32
  1
392
 71
     5
 42
784.0000000000003
  3
ISO-25
100
AcDbAlignedDimension
 13
1607.19489663751
 23
1593.759223040568
 33
0.0
 14
1607.19489663751
 24
809.7592230405679
 34
0.0
 50
90.0
100
AcDbRotatedDimension
1001
ACAD
1000
DSTYLE
1002
{
1070
    41
1040
10.0
1070
   140
1040
30.0
1070
   147
1040
6.599999999999997
1070
   279
1070
     2
1070
   342
1005
30D
1070
   371
1070
    18
1070
   372
1070
    18
1002
}
  0
DIMENSION
  5
8303
330
1F
100
AcDbEntity
  8
実形
100
AcDbDimension
  2
*D59
 10
1718.395436204542
 20
757.7592230405679
 30
0.0
 11
1701.455429230357
 21
1680.361225671233
 31
0.0
 70
   160
  1
20
 71
     5
 42
888.0
  3
ISO-25
100
AcDbAlignedDimension
 13
1607.19489663751
 23
1645.759223040568
 33
0.0
 14
1607.19489663751
 24
757.7592230405679
 34
0.0
 50
90.0
100
AcDbRotatedDimension
1001
ACAD
1000
DSTYLE
1002
{
1070
    41
1040
10.0
1070
   140
1040
30.0
1070
   147
1040
6.599999999999997
1070
   279
1070
     2
1070
   342
1005
30D
1070
   371
1070
    18
1070
   372
1070
    18
1002
}
  0
DIMENSION
  5
8304
330
1F
100
AcDbEntity
  8
実形
100
AcDbDimension
  2
*D60
 10
1718.395436204542
 20
797.7592230405678
 30
0.0
 11
1696.55840809503
 21
710.0986130909658
 31
0.0
 70
   160
  1
20
 71
     5
 42
807.9999999999996
  3
ISO-25
100
AcDbAlignedDimension
 13
1607.19489663751
 23
1605.759223040568
 33
0.0
 14
1607.19489663751
 24
797.7592230405678
 34
0.0
 50
90.0
100
AcDbRotatedDimension
1001
ACAD
1000
DSTYLE
1002
{
1070
    41
1040
10.0
1070
   140
1040
30.0
1070
   147
1040
6.599999999999997
1070
   279
1070
     2
1070
   342
1005
30D
1070
   371
1070
    18
1070
   372
1070
    18
1002
}
  0
LINE
  5
8305
330
1F
100
AcDbEntity
  8
実形
100
AcDbLine
 10
1864.139775979591
 20
809.7592230405677
 30
0.0
 11
1894.139775979591
 21
809.7592230405675
 31
0.0
  0
LINE
  5
8306
330
1F
100
AcDbEntity
  8
実形
100
AcDbLine
 10
1864.139775979591
 20
797.7592230405678
 30
0.0
 11
1886.039775979591
 21
797.7592230405678
 31
0.0
  0
LINE
  5
8307
330
1F
100
AcDbEntity
  8
実形
100
AcDbLine
 10
1872.240380687558
 20
789.6592230405681
 30
0.0
 11
1894.139775979591
 21
789.6592230405681
 31
0.0
  0
DIMENSION
  5
8308
330
1F
100
AcDbEntity
  8
実形
100
AcDbDimension
  2
*D61
 10
1894.139775979591
 20
667.0740218893372
 30
0.0
 11
1880.59497871967
 21
636.5960105308186
 31
0.0
 70
   160
  1
15
 71
     5
 42
29.99999999999977
  3
ISO-25
100
AcDbAlignedDimension
 13
1864.139775979591
 23
756.1432538814077
 33
0.0
 14
1894.139775979591
 24
757.2981631212643
 34
0.0
100
AcDbRotatedDimension
1001
ACAD
1000
DSTYLE
1002
{
1070
    41
1040
10.0
1070
   140
1040
30.0
1070
   147
1040
6.599999999999997
1070
   279
1070
     2
1070
   342
1005
30D
1070
   371
1070
    18
1070
   372
1070
    18
1002
}
  0
LINE
  5
8309
330
1F
100
AcDbEntity
  8
実形
100
AcDbLine
 10
1864.139775979591
 20
737.1462970701358
 30
0.0
 11
1864.139775979591
 21
707.090060101424
 31
0.0
  0
LINE
  5
830A
330
1F
100
AcDbEntity
  8
実形
100
AcDbLine
 10
1864.139775979591
 20
707.090060101424
 30
0.0
 11
1872.240380687557
 21
707.090060101424
 31
0.0
  0
LINE
  5
830B
330
1F
100
AcDbEntity
  8
実形
100
AcDbLine
 10
1872.240380687557
 20
707.090060101424
 30
0.0
 11
1872.240380687557
 21
737.1462970701358
 31
0.0
  0
TEXT
  5
830F
330
1F
100
AcDbEntity
  8
実形
100
AcDbText
 10
1860.984762034756
 20
710.4408834433481
 30
0.0
 40
7.0
  1
●
 50
180.0
 71
     2
 72
     2
 11
1867.051428701423
 21
711.3742167766814
 31
0.0
100
AcDbText
 73
     1
  0
TEXT
  5
8310
330
1F
100
AcDbEntity
  8
実形
100
AcDbText
 10
1868.335136717075
 20
710.4408834433481
 30
0.0
 40
7.0
  1
●
 50
180.0
 71
     2
 72
     2
 11
1874.401803383742
 21
711.3742167766814
 31
0.0
100
AcDbText
 73
     1
  0
TEXT
  5
8314
330
1F
100
AcDbEntity
  8
実形
100
AcDbText
 10
1803.943668211351
 20
696.3248214220524
 30
0.0
 40
25.0
  1
1.2
 72
     4
 11
1824.777001544684
 21
708.8248214220524
 31
0.0
100
AcDbText
  0
DIMENSION
  5
831B
330
1F
100
AcDbEntity
  8
実形
100
AcDbDimension
  2
*D62
 10
2003.818942934177
 20
797.7592230405678
 30
0.0
 11
1949.345203458666
 21
804.8594969781651
 31
0.0
 70
   160
  1
6
 71
     5
 42
11.99999999999954
  3
ISO-25
100
AcDbAlignedDimension
 13
1903.988386074413
 23
809.7592230405675
 33
0.0
 14
1903.893235807794
 24
797.7592230405678
 34
0.0
 50
90.0
100
AcDbRotatedDimension
1001
ACAD
1000
DSTYLE
1002
{
1070
    41
1040
10.0
1070
   140
1040
25.0
1070
   147
1040
6.599999999999997
1070
   279
1070
     2
1070
   342
1005
30D
1070
   371
1070
    18
1070
   372
1070
    18
1002
}
  0
DIMENSION
  5
831C
330
1F
100
AcDbEntity
  8
実形
100
AcDbDimension
  2
*D63
 10
2003.818942934177
 20
1645.759223040568
 30
0.0
 11
1985.125698695258
 21
1686.319072285886
 31
0.0
 70
   160
  1
20
 71
     5
 42
39.99999999999955
  3
ISO-25
100
AcDbAlignedDimension
 13
1922.446961751304
 23
1605.759223040568
 33
0.0
 14
1903.748395283508
 24
1645.759223040568
 34
0.0
 50
270.0
100
AcDbRotatedDimension
1001
ACAD
1000
DSTYLE
1002
{
1070
    41
1040
10.0
1070
   140
1040
30.0
1070
   147
1040
6.599999999999997
1070
   279
1070
     2
1070
   342
1005
30D
1070
   371
1070
    18
1070
   372
1070
    18
1002
}
  0
DIMENSION
  5
831D
330
1F
100
AcDbEntity
  8
実形
100
AcDbDimension
  2
*D64
 10
1894.139775979591
 20
1736.444424191799
 30
0.0
 11
1880.59497871967
 21
1766.922435550317
 31
0.0
 70
   160
  1
15
 71
     5
 42
29.99999999999977
  3
ISO-25
100
AcDbAlignedDimension
 13
1864.139775979591
 23
1647.375192199728
 33
0.0
 14
1894.139775979591
 24
1646.220282959871
 34
0.0
100
AcDbRotatedDimension
1001
ACAD
1000
DSTYLE
1002
{
1070
    41
1040
10.0
1070
   140
1040
30.0
1070
   147
1040
6.599999999999997
1070
   279
1070
     2
1070
   342
1005
30D
1070
   371
1070
    18
1070
   372
1070
    18
1002
}
  0
LINE
  5
831E
330
1F
100
AcDbEntity
  8
実形
100
AcDbLine
 10
1864.139775979591
 20
1666.372149011
 30
0.0
 11
1864.139775979591
 21
1696.428385979712
 31
0.0
  0
LINE
  5
831F
330
1F
100
AcDbEntity
  8
実形
100
AcDbLine
 10
1864.139775979591
 20
1696.428385979712
 30
0.0
 11
1872.240380687557
 21
1696.428385979712
 31
0.0
  0
LINE
  5
8320
330
1F
100
AcDbEntity
  8
実形
100
AcDbLine
 10
1872.240380687557
 20
1696.428385979712
 30
0.0
 11
1872.240380687557
 21
1666.372149011
 31
0.0
  0
TEXT
  5
8324
330
1F
100
AcDbEntity
  8
実形
100
AcDbText
 10
1860.984762034756
 20
1693.077562637787
 30
0.0
 40
7.0
  1
●
 72
     2
 11
1867.051428701423
 21
1692.144229304454
 31
0.0
100
AcDbText
 73
     1
  0
TEXT
  5
8325
330
1F
100
AcDbEntity
  8
実形
100
AcDbText
 10
1868.335136717075
 20
1693.077562637787
 30
0.0
 40
7.0
  1
●
 72
     2
 11
1874.401803383742
 21
1692.144229304454
 31
0.0
100
AcDbText
 73
     1
  0
TEXT
  5
8329
330
1F
100
AcDbEntity
  8
実形
100
AcDbText
 10
1803.943668211351
 20
1679.312784112759
 30
0.0
 40
25.0
  1
1.2
 72
     4
 11
1824.777001544684
 21
1691.812784112759
 31
0.0
100
AcDbText
  0
DIMENSION
  5
8330
330
1F
100
AcDbEntity
  8
実形
100
AcDbDimension
  2
*D65
 10
2003.818942934177
 20
1605.759223040568
 30
0.0
 11
1980.496119405262
 21
1561.729620018122
 31
0.0
 70
   160
  1
 
 71
     5
 42
11.99999999999954
  3
ISO-25
100
AcDbAlignedDimension
 13
1903.988386074413
 23
1593.759223040568
 33
0.0
 14
1904.881643165219
 24
1605.759223040568
 34
0.0
 50
270.0
100
AcDbRotatedDimension
1001
ACAD
1000
DSTYLE
1002
{
1070
    41
1040
10.0
1070
   140
1040
30.0
1070
   147
1040
6.599999999999997
1070
   279
1070
     2
1070
   342
1005
30D
1070
   371
1070
    18
1070
   372
1070
    18
1002
}
  0
LINE
  5
8331
330
1F
100
AcDbEntity
  8
実形
100
AcDbLine
 10
1872.240380687558
 20
1605.759223040568
 30
0.0
 11
1886.039775979591
 21
1605.759223040568
 31
0.0
  0
LINE
  5
8332
330
1F
100
AcDbEntity
  8
実形
100
AcDbLine
 10
1894.139775979591
 20
1613.859223040568
 30
0.0
 11
1894.139775979591
 21
896.855562951613
 31
0.0
  0
LINE
  5
8333
330
1F
100
AcDbEntity
  8
実形
100
AcDbLine
 10
1886.039775979591
 20
1605.759223040568
 30
0.0
 11
1886.03977597959
 21
1593.759223040569
 31
0.0
  0
LINE
  5
8334
330
1F
100
AcDbEntity
  8
実形
100
AcDbLine
 10
1864.139775979591
 20
1645.759223040568
 30
0.0
 11
1864.139775979591
 21
1605.759223040568
 31
0.0
  0
LINE
  5
8335
330
1F
100
AcDbEntity
  8
実形
100
AcDbLine
 10
1864.139775979591
 20
1593.759223040569
 30
0.0
 11
1864.139775979591
 21
1231.759223040568
 31
0.0
  0
LINE
  5
8336
330
1F
100
AcDbEntity
  8
実形
100
AcDbLine
 10
1872.240380687557
 20
1645.759223040568
 30
0.0
 11
1872.240380687558
 21
1613.859223040568
 31
0.0
  0
LINE
  5
8337
330
1F
100
AcDbEntity
  8
実形
100
AcDbLine
 10
1872.240380687557
 20
1593.759223040569
 30
0.0
 11
1872.240380687557
 21
1231.759223040568
 31
0.0
  0
LINE
  5
8338
330
1F
100
AcDbEntity
  8
実形
100
AcDbLine
 10
1864.139775979591
 20
1593.759223040568
 30
0.0
 11
1894.139775979591
 21
1593.759223040569
 31
0.0
  0
LINE
  5
8339
330
1F
100
AcDbEntity
  8
実形
100
AcDbLine
 10
1864.139775979591
 20
1605.759223040568
 30
0.0
 11
1886.039775979591
 21
1605.759223040568
 31
0.0
  0
LINE
  5
833A
330
1F
100
AcDbEntity
  8
実形
100
AcDbLine
 10
1872.240380687558
 20
1613.859223040568
 30
0.0
 11
1894.139775979591
 21
1613.859223040568
 31
0.0
  0
DIMENSION
  5
833B
330
1F
100
AcDbEntity
  8
実形
100
AcDbDimension
  2
*D66
 10
2003.818942934177
 20
1605.759223040568
 30
0.0
 11
1947.378377420245
 21
1599.694673478639
 31
0.0
 70
   160
  1
6
 71
     5
 42
11.99999999999954
  3
ISO-25
100
AcDbAlignedDimension
 13
1903.988386074413
 23
1593.759223040569
 33
0.0
 14
1903.748395283508
 24
1605.759223040568
 34
0.0
 50
270.0
100
AcDbRotatedDimension
1001
ACAD
1000
DSTYLE
1002
{
1070
    41
1040
10.0
1070
   140
1040
25.0
1070
   147
1040
6.599999999999997
1070
   279
1070
     2
1070
   342
1005
30D
1070
   371
1070
    18
1070
   372
1070
    18
1002
}
  0
LINE
  5
833C
330
1F
100
AcDbEntity
  8
実形
100
AcDbLine
 10
1864.139775979591
 20
1645.759223040568
 30
0.0
 11
1872.240380687557
 21
1645.759223040568
 31
0.0
  0
TEXT
  5
85BA
330
1F
100
AcDbEntity
  8
実形
100
AcDbText
 10
1658.467106687333
 20
1592.274976337591
 30
0.0
 40
25.0
  1
6
 50
90.0
 72
     4
 11
1645.967106687333
 21
1600.608309670924
 31
0.0
100
AcDbText
  0
TEXT
  5
85C2
330
1F
100
AcDbEntity
  8
実形
100
AcDbText
 10
1656.802943412639
 20
787.4653739224084
 30
0.0
 40
25.0
  1
6
 50
90.0
 72
     4
 11
1644.302943412639
 21
795.7987072557417
 31
0.0
100
AcDbText
  0
LINE
  5
86A3
330
1F
100
AcDbEntity
  8
実形
100
AcDbLine
 10
1318.771034014624
 20
809.7592230405679
 30
0.0
 11
1348.771034014624
 21
809.7592230405679
 31
0.0
  0
LINE
  5
86A4
330
1F
100
AcDbEntity
  8
実形
100
AcDbLine
 10
1306.771034014624
 20
797.7592230405678
 30
0.0
 11
1306.771034014624
 21
767.7592230405679
 31
0.0
  0
LINE
  5
86A5
330
1F
100
AcDbEntity
  8
実形
100
AcDbLine
 10
1318.771034014624
 20
1593.759223040568
 30
0.0
 11
1348.771034014624
 21
1593.759223040568
 31
0.0
  0
LINE
  5
86A6
330
1F
100
AcDbEntity
  8
実形
100
AcDbLine
 10
1306.771034014624
 20
1605.759223040568
 30
0.0
 11
1306.771034014624
 21
1635.759223040568
 31
0.0
  0
LINE
  5
86A7
330
1F
100
AcDbEntity
  8
実形
100
AcDbLine
 10
910.7710340146239
 20
1605.759223040568
 30
0.0
 11
910.7710340146242
 21
1635.759223040568
 31
0.0
  0
LINE
  5
86A8
330
1F
100
AcDbEntity
  8
実形
100
AcDbLine
 10
898.7710340146241
 20
1593.759223040568
 30
0.0
 11
868.7710340146239
 21
1593.759223040568
 31
0.0
  0
LINE
  5
86A9
330
1F
100
AcDbEntity
  8
実形
100
AcDbLine
 10
910.7710340146239
 20
797.7592230405678
 30
0.0
 11
910.7710340146239
 21
767.7592230405679
 31
0.0
  0
LINE
  5
86AA
330
1F
100
AcDbEntity
  8
実形
100
AcDbLine
 10
898.7710340146241
 20
809.7592230405679
 30
0.0
 11
868.7710340146239
 21
809.7592230405679
 31
0.0
  0
ARC
  5
86AB
330
1F
100
AcDbEntity
  8
実形
100
AcDbCircle
 10
1296.771034014624
 20
767.7592230405679
 30
0.0
 40
10.0
100
AcDbArc
 50
270.0
 51
0.0
  0
ARC
  5
86AC
330
1F
100
AcDbEntity
  8
実形
100
AcDbCircle
 10
1335.994858271535
 20
828.6473109121123
 30
0.0
 40
22.80330085889915
100
AcDbArc
 50
304.0749889047826
 51
2.794908741061413
  0
ARC
  5
86AD
330
1F
100
AcDbEntity
  8
実形
100
AcDbCircle
 10
1348.771034014624
 20
1583.759223040568
 30
0.0
 40
10.0
100
AcDbArc
 50
0.0
 51
90.0
  0
ARC
  5
86AE
330
1F
100
AcDbEntity
  8
実形
100
AcDbCircle
 10
1296.771034014624
 20
1635.759223040568
 30
0.0
 40
10.0
100
AcDbArc
 50
0.0
 51
90.0
  0
ARC
  5
86AF
330
1F
100
AcDbEntity
  8
実形
100
AcDbCircle
 10
920.7710340146242
 20
1635.759223040568
 30
0.0
 40
10.0
100
AcDbArc
 50
89.99999999999996
 51
180.0
  0
ARC
  5
86B0
330
1F
100
AcDbEntity
  8
実形
100
AcDbCircle
 10
868.7710340146239
 20
1583.759223040568
 30
0.0
 40
10.0
100
AcDbArc
 50
90.0
 51
180.0
  0
ARC
  5
86B1
330
1F
100
AcDbEntity
  8
実形
100
AcDbCircle
 10
920.771034014624
 20
767.7592230405679
 30
0.0
 40
10.0
100
AcDbArc
 50
180.0
 51
270.0
  0
ARC
  5
86B2
330
1F
100
AcDbEntity
  8
実形
100
AcDbCircle
 10
881.5472097577126
 20
828.6473109121123
 30
0.0
 40
22.80330085889915
100
AcDbArc
 50
177.2050912589385
 51
235.9250110952174
  0
DIMENSION
  5
879C
330
1F
100
AcDbEntity
  8
実形
100
AcDbDimension
  2
*D67
 10
1306.771034014623
 20
581.7761970494935
 30
0.0
 11
1109.205356699319
 21
603.3761970494935
 31
0.0
 70
   160
  1
198
 71
     5
 42
395.9999999999995
  3
ISO-25
100
AcDbAlignedDimension
 13
910.7710340146239
 23
696.615490024219
 33
0.0
 14
1306.771034014623
 24
696.615490024219
 34
0.0
100
AcDbRotatedDimension
1001
ACAD
1000
DSTYLE
1002
{
1070
    41
1040
10.0
1070
   140
1040
30.0
1070
   147
1040
6.599999999999997
1070
   279
1070
     2
1070
   342
1005
30D
1070
   371
1070
    18
1070
   372
1070
    18
1002
}
  0
DIMENSION
  5
879D
330
1F
100
AcDbEntity
  8
実形
100
AcDbDimension
  2
*D68
 10
1318.771034014624
 20
581.7761970494935
 30
0.0
 11
1312.448027638127
 21
658.5344019312409
 31
0.0
 70
   160
  1
6
 71
     5
 42
419.9999999999994
  3
ISO-25
100
AcDbAlignedDimension
 13
898.7710340146241
 23
696.615490024219
 33
0.0
 14
1318.771034014624
 24
696.615490024219
 34
0.0
100
AcDbRotatedDimension
1001
ACAD
1000
DSTYLE
1002
{
1070
    41
1040
10.0
1070
   140
1040
30.0
1070
   147
1040
6.599999999999997
1070
   279
1070
     2
1070
   342
1005
30D
1070
   371
1070
    18
1070
   372
1070
    18
1002
}
  0
DIMENSION
  5
879E
330
1F
100
AcDbEntity
  8
実形
100
AcDbDimension
  2
*D69
 10
1304.271034014623
 20
581.7761970494935
 30
0.0
 11
903.4829687759973
 21
655.8828868774529
 31
0.0
 70
   160
  1
6
 71
     5
 42
406.1883377501896
  3
ISO-25
100
AcDbAlignedDimension
 13
898.0826962644339
 23
641.6876240071074
 33
0.0
 14
1304.271034014623
 24
645.8767455479187
 34
0.0
100
AcDbRotatedDimension
1001
ACAD
1000
DSTYLE
1002
{
1070
    41
1040
10.0
1070
   140
1040
30.0
1070
   147
1040
6.599999999999997
1070
   279
1070
     2
1070
   342
1005
30D
1070
   371
1070
    18
1070
   372
1070
    18
1002
}
  0
DIMENSION
  5
879F
330
1F
100
AcDbEntity
  8
実形
100
AcDbDimension
  2
*D70
 10
1358.771034014624
 20
581.7761970494935
 30
0.0
 11
1396.501054352438
 21
605.7253183657726
 31
0.0
 70
   160
  1
20
 71
     5
 42
40.00000000000068
  3
ISO-25
100
AcDbAlignedDimension
 13
1318.771034014624
 23
695.3656874518359
 33
0.0
 14
1358.771034014624
 24
695.3656874518363
 34
0.0
100
AcDbRotatedDimension
1001
ACAD
1000
DSTYLE
1002
{
1070
    41
1040
10.0
1070
   140
1040
30.0
1070
   147
1040
6.599999999999997
1070
   279
1070
     2
1070
   342
1005
30D
1070
   371
1070
    18
1070
   372
1070
    18
1002
}
  0
DIMENSION
  5
87A0
330
1F
100
AcDbEntity
  8
実形
100
AcDbDimension
  2
*D71
 10
898.7710340146241
 20
581.7761970494935
 30
0.0
 11
819.6403534577873
 21
604.698150384595
 31
0.0
 70
   160
  1
20
 71
     5
 42
40.00000000000068
  3
ISO-25
100
AcDbAlignedDimension
 13
858.7710340146234
 23
695.3656874518359
 33
0.0
 14
898.7710340146241
 24
695.3656874518363
 34
0.0
100
AcDbRotatedDimension
1001
ACAD
1000
DSTYLE
1002
{
1070
    41
1040
10.0
1070
   140
1040
30.0
1070
   147
1040
6.599999999999997
1070
   279
1070
     2
1070
   342
1005
30D
1070
   371
1070
    18
1070
   372
1070
    18
1002
}
  0
ARC
  5
8983
330
1F
100
AcDbEntity
  8
実形
100
AcDbCircle
 10
1346.771034014624
 20
1243.759223040568
 30
0.0
 40
12.0
100
AcDbArc
 50
270.0
 51
0.0
  0
ARC
  5
8984
330
1F
100
AcDbEntity
  8
実形
100
AcDbCircle
 10
1346.771034014624
 20
1159.759223040568
 30
0.0
 40
12.0
100
AcDbArc
 50
0.0
 51
90.0
  0
ARC
  5
8985
330
1F
100
AcDbEntity
  8
実形
100
AcDbCircle
 10
870.7710340146237
 20
1243.759223040568
 30
0.0
 40
12.0
100
AcDbArc
 50
180.0
 51
270.0
  0
LINE
  5
8987
330
1F
100
AcDbEntity
  8
実形
100
AcDbLine
 10
870.7710340146237
 20
1231.759223040568
 30
0.0
 11
898.7710340146241
 21
1231.759223040568
 31
0.0
  0
LINE
  5
8988
330
1F
100
AcDbEntity
  8
実形
100
AcDbLine
 10
1318.771034014624
 20
1231.759223040568
 30
0.0
 11
1346.771034014624
 21
1231.759223040568
 31
0.0
  0
LINE
  5
8989
330
1F
100
AcDbEntity
  8
実形
100
AcDbLine
 10
1864.139775979591
 20
1231.759223040568
 30
0.0
 11
1886.039775979591
 21
1231.759223040568
 31
0.0
  0
LINE
  5
898A
330
1F
100
AcDbEntity
  8
実形
100
AcDbLine
 10
870.771034014624
 20
1171.759223040568
 30
0.0
 11
898.7710340146241
 21
1171.759223040568
 31
0.0
  0
ARC
  5
898B
330
1F
100
AcDbEntity
  8
実形
100
AcDbCircle
 10
870.771034014624
 20
1159.759223040568
 30
0.0
 40
12.0
100
AcDbArc
 50
90.0
 51
180.0
  0
LINE
  5
898C
330
1F
100
AcDbEntity
  8
実形
100
AcDbLine
 10
1318.771034014624
 20
1171.759223040568
 30
0.0
 11
1346.771034014624
 21
1171.759223040568
 31
0.0
  0
LINE
  5
898D
330
1F
100
AcDbEntity
  8
実形
100
AcDbLine
 10
1864.139775979591
 20
1171.759223040568
 30
0.0
 11
1886.039775979591
 21
1171.759223040568
 31
0.0
  0
DIMENSION
  5
898E
330
1F
100
AcDbEntity
  8
実形
100
AcDbDimension
  2
*D76
 10
1544.102903920704
 20
1171.759223040568
 30
0.0
 11
1522.502903920704
 21
1201.759223040568
 31
0.0
 70
    32
  1
30
 71
     5
 42
60.00000000000023
  3
ISO-25
100
AcDbAlignedDimension
 13
1431.128647434989
 23
1231.759223040568
 33
0.0
 14
1431.128647434989
 24
1171.759223040568
 34
0.0
 50
90.0
100
AcDbRotatedDimension
1001
ACAD
1000
DSTYLE
1002
{
1070
    41
1040
10.0
1070
   140
1040
30.0
1070
   147
1040
6.599999999999997
1070
   279
1070
     2
1070
   342
1005
30D
1070
   371
1070
    18
1070
   372
1070
    18
1002
}
  0
DIMENSION
  5
898F
330
1F
100
AcDbEntity
  8
実形
100
AcDbDimension
  2
*D77
 10
1544.102903920704
 20
1231.759223040568
 30
0.0
 11
1522.502903920704
 21
1412.759223040568
 31
0.0
 70
    32
  1
181
 71
     5
 42
361.9999999999996
  3
ISO-25
100
AcDbAlignedDimension
 13
1430.848633410622
 23
1593.759223040568
 33
0.0
 14
1431.128647434989
 24
1231.759223040568
 34
0.0
 50
90.0
100
AcDbRotatedDimension
1001
ACAD
1000
DSTYLE
1002
{
1070
    41
1040
10.0
1070
   140
1040
30.0
1070
   147
1040
6.599999999999997
1070
   279
1070
     2
1070
   342
1005
30D
1070
   371
1070
    18
1070
   372
1070
    18
1002
}
  0
DIMENSION
  5
8990
330
1F
100
AcDbEntity
  8
実形
100
AcDbDimension
  2
*D78
 10
1544.102903920704
 20
809.7592230405679
 30
0.0
 11
1522.502903920704
 21
990.7592230405679
 31
0.0
 70
    32
  1
181
 71
     5
 42
361.9999999999998
  3
ISO-25
100
AcDbAlignedDimension
 13
1431.128647434989
 23
1171.759223040568
 33
0.0
 14
1431.128647434989
 24
809.7592230405679
 34
0.0
 50
90.0
100
AcDbRotatedDimension
1001
ACAD
1000
DSTYLE
1002
{
1070
    41
1040
10.0
1070
   140
1040
30.0
1070
   147
1040
6.599999999999997
1070
   279
1070
     2
1070
   342
1005
30D
1070
   371
1070
    18
1070
   372
1070
    18
1002
}
  0
TEXT
  5
8991
330
1F
100
AcDbEntity
  8
実形
100
AcDbText
 10
1438.080295771725
 20
1179.554317320768
 30
0.0
 40
28.0
  1
6R
 50
90.0
 72
     4
 11
1424.080295771725
 21
1202.887650654101
 31
0.0
100
AcDbText
  0
LEADER
  5
8992
330
1F
100
AcDbEntity
  8
実形
100
AcDbLeader
  3
ISO-25
 76
     2
 10
1360.761941409254
 20
1168.207216219342
 30
0.0
 10
1404.695295895998
 20
1187.09647081101
 30
0.0
1001
ACAD
1000
DSTYLE
1002
{
1070
    77
1070
     0
1070
    41
1040
10.0
1070
   140
1040
30.0
1070
   147
1040
6.599999999999997
1070
   279
1070
     2
1070
   342
1005
30D
1070
   371
1070
    18
1070
   372
1070
    18
1002
}
  0
LEADER
  5
8993
330
1F
100
AcDbEntity
  8
実形
100
AcDbLeader
  3
ISO-25
 76
     2
 10
1360.761941409254
 20
1231.855117244489
 30
0.0
 10
1404.695295895998
 20
1211.501019294988
 30
0.0
1001
ACAD
1000
DSTYLE
1002
{
1070
    77
1070
     0
1070
    41
1040
10.0
1070
   140
1040
30.0
1070
   147
1040
6.599999999999997
1070
   279
1070
     2
1070
   342
1005
30D
1070
   371
1070
    18
1070
   372
1070
    18
1002
}
  0
LINE
  5
89D3
330
1F
100
AcDbEntity
  8
実形
100
AcDbLine
 10
1886.039775979591
 20
1231.759223040568
 30
0.0
 11
1886.039775979591
 21
1171.759223040568
 31
0.0
  0
LINE
  5
89D4
330
1F
100
AcDbEntity
  8
実形
100
AcDbLine
 10
1872.240380687557
 20
1171.759223040568
 30
0.0
 11
1872.240380687557
 21
896.855562951613
 31
0.0
  0
LINE
  5
89D5
330
1F
100
AcDbEntity
  8
実形
100
AcDbLine
 10
1872.240380687557
 20
1231.759223040568
 30
0.0
 11
1872.240380687557
 21
1496.662883129523
 31
0.0
  0
LINE
  5
89D6
330
1F
100
AcDbEntity
  8
実形
100
AcDbLine
 10
1864.139775979591
 20
1171.759223040568
 30
0.0
 11
1864.139775979591
 21
896.855562951613
 31
0.0
  0
LINE
  5
89D7
330
1F
100
AcDbEntity
  8
実形
100
AcDbLine
 10
1864.139775979591
 20
1231.759223040568
 30
0.0
 11
1864.139775979591
 21
1496.662883129523
 31
0.0
  0
LINE
  5
8A4D
330
1F
100
AcDbEntity
  8
実形
100
AcDbLine
 10
1358.771034014624
 20
1159.759223040568
 30
0.0
 11
1358.771034014624
 21
829.759223040568
 31
0.0
  0
LINE
  5
8A4E
330
1F
100
AcDbEntity
  8
実形
100
AcDbLine
 10
858.7710340146243
 20
1243.759223040568
 30
0.0
 11
858.7710340146243
 21
1583.759223040568
 31
0.0
  0
LEADER
  5
90B4
330
1F
100
AcDbEntity
  8
実形
100
AcDbLeader
  3
ISO-25
 76
     2
 10
1364.705988675177
 20
804.6860114564733
 30
0.0
 10
1405.806621859767
 20
745.2957567549609
 30
0.0
1001
ACAD
1000
DSTYLE
1002
{
1070
    77
1070
     0
1070
    41
1040
10.0
1070
   140
1040
30.0
1070
   147
1040
6.599999999999997
1070
   279
1070
     2
1070
   342
1005
30D
1070
   371
1070
    18
1070
   372
1070
    18
1002
}
  0
TEXT
  5
90BE
330
1F
100
AcDbEntity
  8
実形
100
AcDbText
 10
1404.188387758891
 20
1660.185395334866
 30
0.0
 40
30.0
  1
6R
 72
     2
 11
1454.188387758891
 21
1656.185395334866
 31
0.0
100
AcDbText
 73
     1
  0
LEADER
  5
90BF
330
1F
100
AcDbEntity
  8
実形
100
AcDbLeader
  3
ISO-25
 76
     2
 10
1320.176748097027
 20
1645.71477492035
 30
0.0
 10
1396.941236403747
 20
1663.808051441739
 30
0.0
1001
ACAD
1000
DSTYLE
1002
{
1070
    77
1070
     0
1070
    41
1040
10.0
1070
   140
1040
30.0
1070
   147
1040
6.599999999999997
1070
   279
1070
     2
1070
   342
1005
30D
1070
   371
1070
    18
1070
   372
1070
    18
1002
}
  0
LEADER
  5
90C9
330
1F
100
AcDbEntity
  8
実形
100
AcDbLeader
  3
ISO-25
 76
     2
 10
1331.926326646638
 20
1613.998978065987
 30
0.0
 10
1398.14909274925
 20
1657.16651811747
 30
0.0
1001
ACAD
1000
DSTYLE
1002
{
1070
    77
1070
     0
1070
    41
1040
10.0
1070
   140
1040
30.0
1070
   147
1040
6.599999999999997
1070
   279
1070
     2
1070
   342
1005
30D
1070
   371
1070
    18
1070
   372
1070
    18
1002
}
  0
LEADER
  5
90D1
330
1F
100
AcDbEntity
  8
実形
100
AcDbLeader
  3
ISO-25
 76
     2
 10
1367.762537238315
 20
1605.776363853993
 30
0.0
 10
1404.792319252172
 20
1652.940088864449
 30
0.0
1001
ACAD
1000
DSTYLE
1002
{
1070
    77
1070
     0
1070
    41
1040
10.0
1070
   140
1040
30.0
1070
   147
1040
6.599999999999997
1070
   279
1070
     2
1070
   342
1005
30D
1070
   371
1070
    18
1070
   372
1070
    18
1002
}
  0
TEXT
  5
958B
330
1F
100
AcDbEntity
  8
実形
100
AcDbText
 10
270.3839175204648
 20
60.08511374856789
 30
0.0
 40
30.0
  1
※実寸には製造上の誤差が多少生ずる場合があります。
 72
     4
 11
708.3839175204648
 21
75.08511374856789
 31
0.0
100
AcDbText
  0
TEXT
  5
958C
330
1F
100
AcDbEntity
  8
実形
100
AcDbText
 10
270.0091367510504
 20
120.0003643961663
 30
0.0
 40
30.0
  1
※前辺糸面（内側、外側、表面、裏面）
 72
     4
 11
582.0091367510504
 21
135.0003643961663
 31
0.0
100
AcDbText
  0
VIEWPORT
  5
2E
102
{ACAD_XDICTIONARY
360
95C3
102
}
330
1B
100
AcDbEntity
 67
     1
  8
0
100
AcDbViewport
 10
144.7270812988281
 20
101.2295806407928
 30
0.0
 40
411.6736216682419
 41
222.1517806396485
 68
     1
 69
     1
 12
144.7270812988281
 22
101.2295806407928
 13
0.0
 23
0.0
 14
10.0
 24
10.0
 15
10.0
 25
10.0
 16
0.0
 26
0.0
 36
1.0
 17
0.0
 27
0.0
 37
0.0
 42
50.0
 43
0.0
 44
0.0
 45
222.1517806396485
 50
0.0
 51
0.0
 72
   100
 90
    32800
  1

281
     0
 71
     1
 74
     0
110
0.0
120
0.0
130
0.0
111
1.0
121
0.0
131
0.0
112
0.0
122
1.0
132
0.0
 79
     0
146
0.0
  0
VIEWPORT
  5
30
102
{ACAD_XDICTIONARY
360
95C5
102
}
330
1B
100
AcDbEntity
 67
     1
  8
0
100
AcDbViewport
 10
139.2237563133239
 20
101.2295821905136
 30
0.0
 40
222.7580101013184
 41
161.9673315048218
 68
     2
 69
     2
 12
210.0
 22
148.5
 13
0.0
 23
0.0
 14
10.0
 24
10.0
 15
10.0
 25
10.0
 16
0.0
 26
0.0
 36
1.0
 17
0.0
 27
0.0
 37
0.0
 42
50.0
 43
0.0
 44
0.0
 45
309.0686705647124
 50
0.0
 51
0.0
 72
   100
 90
    32864
  1

281
     0
 71
     1
 74
     0
110
0.0
120
0.0
130
0.0
111
1.0
121
0.0
131
0.0
112
0.0
122
1.0
132
0.0
 79
     0
146
0.0
  0
ENDSEC
  0
SECTION
  2
OBJECTS
  0
DICTIONARY
  5
C
330
0
100
AcDbDictionary
281
     1
  3
ACAD_COLOR
350
22AD
  3
ACAD_GROUP
350
D
  3
ACAD_LAYOUT
350
1A
  3
ACAD_MATERIAL
350
22AC
  3
ACAD_MLINESTYLE
350
17
  3
ACAD_PLOTSETTINGS
350
19
  3
ACAD_PLOTSTYLENAME
350
E
  3
ACAD_TABLESTYLE
350
22AE
  3
AcadDim
350
124
  3
ACDBHEADERROUNDTRIPXREC
350
95BC
  3
AcDbVariableDictionary
350
1589
  3
DWGPROPS
350
95BB
  0
DICTIONARY
  5
24C4
330
2
100
AcDbDictionary
280
     1
281
     1
  3
ACAD_LAYERFILTERS
360
6C37
  3
ACAD_LAYERSTATES
360
24C5
  3
ACLYDICTIONARY
360
6C36
  0
DICTIONARY
  5
2396
330
1F
100
AcDbDictionary
280
     1
281
     1
  3
ACAD_SORTENTS
360
2397
  0
DICTIONARY
  5
313E
330
313C
100
AcDbDictionary
280
     1
281
     1
  3
ACAD_SORTENTS
360
313F
  0
DICTIONARY
  5
3848
330
3846
100
AcDbDictionary
280
     1
281
     1
  3
ACAD_SORTENTS
360
3849
  0
DICTIONARY
  5
6B89
330
6B87
100
AcDbDictionary
280
     1
281
     1
  3
ACAD_SORTENTS
360
6B8A
  0
DICTIONARY
  5
6C02
330
6C00
100
AcDbDictionary
280
     1
281
     1
  3
ACAD_SORTENTS
360
6C03
  0
DICTIONARY
  5
8909
330
88F7
100
AcDbDictionary
280
     1
281
     1
  3
ACAD_SORTENTS
360
890A
  0
DICTIONARY
  5
95C3
330
2E
100
AcDbDictionary
280
     1
281
     1
  3
ACAD_XREC_ROUNDTRIP
360
95C4
  0
DICTIONARY
  5
95C5
330
30
100
AcDbDictionary
280
     1
281
     1
  3
ACAD_XREC_ROUNDTRIP
360
95C6
  0
DICTIONARY
  5
22AD
102
{ACAD_REACTORS
330
C
102
}
330
C
100
AcDbDictionary
281
     1
  0
DICTIONARY
  5
D
102
{ACAD_REACTORS
330
C
102
}
330
C
100
AcDbDictionary
281
     1
  0
DICTIONARY
  5
1A
102
{ACAD_REACTORS
330
C
102
}
330
C
100
AcDbDictionary
281
     1
  3
Model
350
22
  3
ﾚｲｱｳﾄ1
350
1E
  3
ﾚｲｱｳﾄ2
350
26
  0
DICTIONARY
  5
22AC
102
{ACAD_REACTORS
330
C
102
}
330
C
100
AcDbDictionary
281
     1
  0
DICTIONARY
  5
17
102
{ACAD_REACTORS
330
C
102
}
330
C
100
AcDbDictionary
281
     1
  3
Standard
350
18
  0
DICTIONARY
  5
19
102
{ACAD_REACTORS
330
C
102
}
330
C
100
AcDbDictionary
281
     1
  0
ACDBDICTIONARYWDFLT
  5
E
102
{ACAD_REACTORS
330
C
102
}
330
C
100
AcDbDictionary
281
     1
  3
Normal
350
F
100
AcDbDictionaryWithDefault
340
F
  0
DICTIONARY
  5
22AE
102
{ACAD_REACTORS
330
C
102
}
330
C
100
AcDbDictionary
281
     1
  3
Standard
350
22AF
  0
XRECORD
  5
124
102
{ACAD_REACTORS
330
C
102
}
330
C
100
AcDbXrecord
280
     1
 90
   990106
  3

 60
     0
 61
     0
 62
     1
 63
     3
 64
     0
 65
     0
 66
     0
 67
     3
 68
     1
 69
     0
 70
     0
 71
     0
 72
     0
 40
30.0
170
     0
  0
DICTIONARY
  5
95BC
102
{ACAD_REACTORS
330
C
102
}
330
C
100
AcDbDictionary
281
     1
  0
DICTIONARY
  5
1589
102
{ACAD_REACTORS
330
C
102
}
330
C
100
AcDbDictionary
281
     1
  3
CTABLESTYLE
350
22B5
  3
DIMASSOC
350
95A1
  3
PROJECTNAME
350
95A2
  3
SORTENTS
350
158A
  0
XRECORD
  5
95BB
102
{ACAD_REACTORS
330
C
102
}
330
C
100
AcDbXrecord
280
     1
  1
DWGPROPS COOKIE
  2

  3

  4

  6

  7

  8

  9

300
=
301
=
302
=
303
=
304
=
305
=
306
=
307
=
308
=
309
=
 40
2.691879930555555
 41
2451673.575802199
 42
2458820.60487382
  1

 90
        0
  0
DICTIONARY
  5
6C37
102
{ACAD_REACTORS
330
24C4
102
}
330
24C4
100
AcDbDictionary
281
     1
  0
DICTIONARY
  5
24C5
102
{ACAD_REACTORS
330
24C4
102
}
330
24C4
100
AcDbDictionary
281
     1
  0
DICTIONARY
  5
6C36
102
{ACAD_REACTORS
330
24C4
102
}
330
24C4
100
AcDbDictionary
281
     1
1001
ACAD
1000
<All
  0
SORTENTSTABLE
  5
2397
102
{ACAD_REACTORS
330
2396
102
}
330
2396
100
AcDbSortentsTable
330
1F
331
5557
  5
56C8
331
6363
  5
76E2
331
8332
  5
833E
331
833A
  5
86A9
331
65BC
  5
7F0F
331
5C3E
  5
6352
331
78FB
  5
82F7
331
85BA
  5
86AC
331
1B7C
  5
1B8E
331
79B3
  5
82F8
331
516B
  5
5678
331
85C2
  5
86AD
331
1B84
  5
1B90
331
56E1
  5
5DC8
331
1B8C
  5
1B97
331
5692
  5
56E8
331
8993
  5
8A4E
331
5460
  5
56C3
331
82FB
  5
8305
331
8303
  5
830F
331
830B
  5
8323
331
5ACD
  5
634F
331
68BC
  5
7F27
331
604D
  5
5F2A
331
86AA
  5
88D2
331
634D
  5
6446
331
86B2
  5
5670
331
1B94
  5
1BA6
331
5BFF
  5
5F37
331
5DC6
  5
604D
331
6355
  5
68BC
331
56AA
  5
59FD
331
56C2
  5
5ACC
331
5164
  5
517C
331
517D
  5
568E
331
879C
  5
8983
331
898C
  5
8993
331
5580
  5
56C9
331
6364
  5
78FB
331
831B
  5
8327
331
8333
  5
85BA
331
833B
  5
86AA
331
56DA
  5
5D6F
331
65C5
  5
7F10
331
5C47
  5
6353
331
516C
  5
5650
331
1B85
  5
1B91
331
56E2
  5
5DCB
331
86A3
  5
86AE
331
1B8D
  5
1B98
331
5DAF
  5
5375
331
5693
  5
56E9
331
527D
  5
56AA
331
58E6
  5
5E31
331
82FC
  5
8306
331
8304
  5
8310
331
635D
  5
6D9A
331
604E
  5
5E5F
331
86AB
  5
86B0
331
1B95
  5
1BA7
331
5DC7
  5
604F
331
634E
  5
6480
331
5C00
  5
5FAE
331
56AB
  5
5A17
331
8314
  5
8326
331
6356
  5
68D6
331
8983
  5
898B
331
89D3
  5
833F
331
56C3
  5
5ACD
331
8324
  5
8339
331
5165
  5
5460
331
517E
  5
568F
331
879D
  5
8984
331
51A6
  5
5693
331
898D
  5
89D3
331
831C
  5
8328
331
6365
  5
79B3
331
8334
  5
85C2
331
833C
  5
86AB
331
516D
  5
5394
331
5E5F
  5
635C
331
5C50
  5
6354
331
65CE
  5
7F11
331
1B86
  5
1B92
331
56E3
  5
5DCD
331
1B8E
  5
1B99
331
86A4
  5
86AF
331
568C
  5
56E3
331
5694
  5
58E6
331
523E
  5
56A6
331
54B2
  5
56C4
331
82FD
  5
8308
331
8305
  5
8311
331
635E
  5
6E28
331
5A69
  5
5E3A
331
5DB0
  5
5580
331
86AC
  5
54DB
331
604F
  5
5F29
331
634F
  5
6495
331
68D6
  5
7F50
331
1B96
  5
1BA8
331
5C01
  5
5F98
331
5E30
  5
6356
331
56AC
  5
5A36
331
6357
  5
6B8D
331
8984
  5
898C
331
5C29
  5
604C
331
1BA6
  5
3845
331
8325
  5
833A
331
89D4
  5
86A6
331
56C4
  5
5ADB
331
5166
  5
5640
331
879E
  5
8985
331
898E
  5
89D4
331
6366
  5
7F0E
331
831D
  5
832C
331
8335
  5
869F
331
53DB
  5
56C1
331
56DC
  5
5DC1
331
1B7F
  5
1B8F
331
516E
  5
53BC
331
5E68
  5
635D
331
1B87
  5
1B93
331
7F0E
  5
82F9
331
86A5
  5
86B1
331
1B8F
  5
1B9B
331
5695
  5
59F9
331
5267
  5
56A8
331
52A7
  5
56AB
331
5FAF
  5
6362
331
82FE
  5
8309
331
8306
  5
8312
331
635F
  5
6E31
331
5A6A
  5
5E44
331
86AD
  5
54B2
331
1B97
  5
37FF
331
5E31
  5
6357
331
6350
  5
64D9
331
A0
  5
1B7C
331
56AD
  5
5A69
331
8985
  5
898D
331
1BA7
  5
3A9C
331
89D5
  5
830A
331
56C5
  5
5B10
331
5167
  5
5658
331
879F
  5
8987
331
51E0
  5
5694
331
898F
  5
89D5
331
5394
  5
56AF
331
831E
  5
832D
331
53BC
  5
56C0
331
5B10
  5
6351
331
7F27
  5
82FE
331
8336
  5
86A1
331
5833
  5
5E30
331
5F98
  5
6361
331
8A4D
  5
5489
331
516F
  5
53DB
331
56DD
  5
5DC3
331
5C52
  5
604E
331
7F0F
  5
82FA
331
1B88
  5
1B94
331
1B98
  5
3800
331
86A6
  5
86B2
331
568E
  5
56E4
331
5A71
  5
634C
331
5FE0
  5
6363
331
82FF
  5
830B
331
5504
  5
56C5
331
6358
  5
6C17
331
5375
  5
56AE
331
8307
  5
8313
331
830F
  5
8324
331
6349
  5
6364
331
86AE
  5
879C
331
1B90
  5
1B9C
331
56A6
  5
59FA
331
6351
  5
6519
331
82F7
  5
8301
331
56AE
  5
5A6B
331
5E3A
  5
6358
331
64D9
  5
634D
331
1BA8
  5
3DA9
331
89D6
  5
86A0
331
1B71
  5
1B86
331
56C6
  5
5BFC
331
87A0
  5
8988
331
8988
  5
898F
331
5201
  5
5695
331
6360
  5
703B
331
831F
  5
8331
331
8337
  5
86A5
331
7F50
  5
82FF
331
8A4E
  5
5660
331
56DE
  5
5DC4
331
5640
  5
56DA
331
56E6
  5
567A
331
5648
  5
56DB
331
568F
  5
56E5
331
86A7
  5
879D
331
1B99
  5
381F
331
8990
  5
89D6
331
82F8
  5
8302
331
5A9A
  5
634E
331
8300
  5
830C
331
552D
  5
56C7
331
6359
  5
6C18
331
8308
  5
8317
331
7F10
  5
82FB
331
5DB3
  5
5679
331
5650
  5
56DC
331
5DC3
  5
5E42
331
634A
  5
6365
331
86AF
  5
51E0
331
1B91
  5
1B9D
331
8310
  5
8325
331
5658
  5
56DD
331
6352
  5
65C5
331
56AF
  5
5A99
331
8987
  5
898E
331
272
  5
1B81
331
8320
  5
8338
331
5660
  5
56DE
331
5668
  5
56DF
331
89D7
  5
8307
331
1B72
  5
1B87
331
56C7
  5
5C2A
331
8989
  5
8990
331
6361
  5
703C
331
8330
  5
833C
331
8338
  5
86A7
331
5F4A
  5
6360
331
5E43
  5
635A
331
5670
  5
56E1
331
5169
  5
5267
331
5678
  5
56E2
331
56DF
  5
5DC5
331
1B8A
  5
1B95
331
56E7
  5
568C
331
5690
  5
56E6
331
8991
  5
89D7
331
7F79
  5
8300
331
82F9
  5
8303
331
8301
  5
830D
331
5F2A
  5
635E
331
635A
  5
6C19
331
8309
  5
8318
331
5A6D
  5
5FAF
331
5DB4
  5
5557
331
7F11
  5
82FC
331
86A8
  5
879E
331
634B
  5
6366
331
86B0
  5
879F
331
1B92
  5
1BA1
331
5DC4
  5
5F05
331
56A8
  5
59FB
331
6353
  5
65CE
331
1BA2
  5
383D
331
56C0
  5
5ACB
331
76E2
  5
1B7B
331
1B73
  5
1B88
331
56C8
  5
5C2B
331
898A
  5
8991
331
5ADB
  5
6350
331
6362
  5
7591
331
8331
  5
833D
331
8339
  5
86A8
331
5437
  5
56C2
331
5E44
  5
635B
331
8329
  5
833B
331
1B7B
  5
1B8D
331
516A
  5
552D
331
56E0
  5
5DC7
331
68B3
  5
7F12
331
1B8B
  5
1B96
331
56E8
  5
568D
331
5691
  5
56E7
331
8992
  5
8A4D
331
82FA
  5
8304
331
8302
  5
830E
331
830A
  5
831C
331
635B
  5
6C1A
331
7F12
  5
82FD
331
604C
  5
5E68
331
86A9
  5
87A0
331
1B93
  5
1BA2
331
9C
  5
9C
331
5DC5
  5
5FE0
331
634C
  5
6445
331
86B1
  5
88B3
331
5BFE
  5
5F4A
331
6D9B
  5
1B7F
331
6354
  5
68B3
331
56A9
  5
59FC
331
1B74
  5
1B8C
331
56C9
  5
5C3E
331
533B
  5
56AD
331
898B
  5
8992
  0
SORTENTSTABLE
  5
313F
102
{ACAD_REACTORS
330
313E
102
}
330
313E
100
AcDbSortentsTable
330
313C
  0
SORTENTSTABLE
  5
3849
102
{ACAD_REACTORS
330
3848
102
}
330
3848
100
AcDbSortentsTable
330
3846
  0
SORTENTSTABLE
  5
6B8A
102
{ACAD_REACTORS
330
6B89
102
}
330
6B89
100
AcDbSortentsTable
330
6B87
  0
SORTENTSTABLE
  5
6C03
102
{ACAD_REACTORS
330
6C02
102
}
330
6C02
100
AcDbSortentsTable
330
6C00
  0
SORTENTSTABLE
  5
890A
102
{ACAD_REACTORS
330
8909
102
}
330
8909
100
AcDbSortentsTable
330
88F7
  0
XRECORD
  5
95C4
102
{ACAD_REACTORS
330
95C3
102
}
330
95C3
100
AcDbXrecord
280
     1
102
SHADEPLOT
 70
     0
  0
XRECORD
  5
95C6
102
{ACAD_REACTORS
330
95C5
102
}
330
95C5
100
AcDbXrecord
280
     1
102
SHADEPLOT
 70
     0
  0
LAYOUT
  5
22
102
{ACAD_XDICTIONARY
360
95BF
102
}
102
{ACAD_REACTORS
330
1A
102
}
330
1A
100
AcDbPlotSettings
  1

  2
EPSON PM-800C
  4
A4
  6

 40
3.757083177566528
 41
14.7637300491333
 42
3.757080078125
 43
3.757080078125
 44
209.9733276367186
 45
296.9683227539062
 46
0.0
 47
0.0
 48
0.0
 49
0.0
140
0.0
141
0.0
142
1.0
143
10.0
 70
 11952
 72
     1
 73
     1
 74
     2
  7

 75
    20
147
0.1
148
0.0
149
0.0
100
AcDbLayout
  1
Model
 70
     1
 71
     0
 10
0.0
 20
0.0
 11
12.0
 21
9.0
 12
0.0
 22
0.0
 32
0.0
 14
0.0
 24
0.0
 34
0.0
 15
0.0
 25
0.0
 35
0.0
146
0.0
 13
0.0
 23
0.0
 33
0.0
 16
1.0
 26
0.0
 36
0.0
 17
0.0
 27
1.0
 37
0.0
 76
     0
330
1F
  0
LAYOUT
  5
1E
102
{ACAD_XDICTIONARY
360
95BD
102
}
102
{ACAD_REACTORS
330
1A
102
}
330
1A
100
AcDbPlotSettings
  1

  2
EPSON PM-800C
  4
A4
  6

 40
3.757083177566528
 41
14.7637300491333
 42
3.757080078125
 43
3.757080078125
 44
209.9733276367186
 45
296.9683227539062
 46
0.0
 47
0.0
 48
0.0
 49
0.0
140
0.0
141
0.0
142
1.0
143
1.0
 70
   688
 72
     1
 73
     1
 74
     5
  7

 75
    16
147
1.0
148
0.0
149
0.0
100
AcDbLayout
  1
ﾚｲｱｳﾄ1
 70
     1
 71
     1
 10
-3.757080078125
 20
-3.757083177566528
 11
293.2112426757813
 21
206.2162444591522
 12
0.0
 22
0.0
 32
0.0
 14
27.8447512626648
 24
20.24591643810271
 34
0.0
 15
250.6027613639831
 25
182.2132479429245
 35
0.0
146
0.0
 13
0.0
 23
0.0
 33
0.0
 16
1.0
 26
0.0
 36
0.0
 17
0.0
 27
1.0
 37
0.0
 76
     0
330
1B
331
2E
  0
LAYOUT
  5
26
102
{ACAD_XDICTIONARY
360
95C1
102
}
102
{ACAD_REACTORS
330
1A
102
}
330
1A
100
AcDbPlotSettings
  1

  2
EPSON PM-800C
  4

  6

 40
0.0
 41
0.0
 42
0.0
 43
0.0
 44
0.0
 45
0.0
 46
0.0
 47
0.0
 48
0.0
 49
0.0
140
0.0
141
0.0
142
1.0
143
1.0
 70
   688
 72
     0
 73
     0
 74
     5
  7

 75
    16
147
1.0
148
0.0
149
0.0
100
AcDbLayout
  1
ﾚｲｱｳﾄ2
 70
     1
 71
     2
 10
0.0
 20
0.0
 11
12.0
 21
9.0
 12
0.0
 22
0.0
 32
0.0
 14
0.0
 24
0.0
 34
0.0
 15
0.0
 25
0.0
 35
0.0
146
0.0
 13
0.0
 23
0.0
 33
0.0
 16
1.0
 26
0.0
 36
0.0
 17
0.0
 27
1.0
 37
0.0
 76
     0
330
23
  0
MLINESTYLE
  5
18
102
{ACAD_REACTORS
330
17
102
}
330
17
100
AcDbMlineStyle
  2
STANDARD
 70
     0
  3

 62
   256
 51
90.0
 52
90.0
 71
     2
 49
0.5
 62
   256
  6
BYLAYER
 49
-0.5
 62
   256
  6
BYLAYER
  0
ACDBPLACEHOLDER
  5
F
102
{ACAD_REACTORS
330
E
102
}
330
E
  0
TABLESTYLE
  5
22AF
102
{ACAD_REACTORS
330
22AE
102
}
330
22AE
100
AcDbTableStyle
  3
Standard
 70
     0
 71
     0
 40
1.5
 41
1.5
280
     0
281
     0
  7
Standard
140
4.5
170
     2
 62
     0
 63
     7
283
     0
274
    -2
284
     1
 64
     0
275
    -2
285
     1
 65
     0
276
    -2
286
     1
 66
     0
277
    -2
287
     1
 67
     0
278
    -2
288
     1
 68
     0
279
    -2
289
     1
 69
     0
  7
Standard
140
6.0
170
     5
 62
     0
 63
     7
283
     0
274
    -2
284
     1
 64
     0
275
    -2
285
     1
 65
     0
276
    -2
286
     1
 66
     0
277
    -2
287
     1
 67
     0
278
    -2
288
     1
 68
     0
279
    -2
289
     1
 69
     0
  7
Standard
140
4.5
170
     5
 62
     0
 63
     7
283
     0
274
    -2
284
     1
 64
     0
275
    -2
285
     1
 65
     0
276
    -2
286
     1
 66
     0
277
    -2
287
     1
 67
     0
278
    -2
288
     1
 68
     0
279
    -2
289
     1
 69
     0
  0
DICTIONARYVAR
  5
22B5
102
{ACAD_REACTORS
330
1589
102
}
330
1589
100
DictionaryVariables
280
     0
  1
STANDARD
  0
DICTIONARYVAR
  5
95A1
102
{ACAD_REACTORS
330
1589
102
}
330
1589
100
DictionaryVariables
280
     0
  1
1
  0
DICTIONARYVAR
  5
95A2
102
{ACAD_REACTORS
330
1589
102
}
330
1589
100
DictionaryVariables
280
     0
  1

  0
DICTIONARYVAR
  5
158A
102
{ACAD_REACTORS
330
1589
102
}
330
1589
100
DictionaryVariables
280
     0
  1
96
  0
DICTIONARY
  5
95BF
330
22
100
AcDbDictionary
280
     1
281
     1
  3
ACAD_XREC_ROUNDTRIP
360
95C0
  0
DICTIONARY
  5
95BD
330
1E
100
AcDbDictionary
280
     1
281
     1
  3
ACAD_XREC_ROUNDTRIP
360
95BE
  0
DICTIONARY
  5
95C1
330
26
100
AcDbDictionary
280
     1
281
     1
  3
ACAD_XREC_ROUNDTRIP
360
95C2
  0
XRECORD
  5
95C0
102
{ACAD_REACTORS
330
95BF
102
}
330
95BF
100
AcDbXrecord
280
     1
102
SHADEPLOT
 70
     0
102
SHADEPLOTRESLEVEL
 70
     2
102
SHADEPLOTCUSTOMDPI
 70
   300
  0
XRECORD
  5
95BE
102
{ACAD_REACTORS
330
95BD
102
}
330
95BD
100
AcDbXrecord
280
     1
102
SHADEPLOT
 70
     0
102
SHADEPLOTRESLEVEL
 70
     2
102
SHADEPLOTCUSTOMDPI
 70
   300
  0
XRECORD
  5
95C2
102
{ACAD_REACTORS
330
95C1
102
}
330
95C1
100
AcDbXrecord
280
     1
102
SHADEPLOT
 70
     0
102
SHADEPLOTRESLEVEL
 70
     2
102
SHADEPLOTCUSTOMDPI
 70
   300
  0
ENDSEC
  0
EOF
