  0
SECTION
  2
HEADER
  9
$ACADVER
  1
AC1015
  9
$ACADMAINTVER
 70
    20
  9
$DWGCODEPAGE
  3
ANSI_932
  9
$INSBASE
 10
0.0
 20
0.0
 30
0.0
  9
$EXTMIN
 10
23.54451067602031
 20
0.0
 30
0.0
  9
$EXTMAX
 10
554.0
 20
404.0
 30
0.0
  9
$LIMMIN
 10
0.0
 20
0.0
  9
$LIMMAX
 10
594.0
 20
420.0
  9
$ORTHOMODE
 70
     1
  9
$REGENMODE
 70
     1
  9
$FILLMODE
 70
     1
  9
$QTEXTMODE
 70
     0
  9
$MIRRTEXT
 70
     1
  9
$LTSCALE
 40
2.0
  9
$ATTMODE
 70
     1
  9
$TEXTSIZE
 40
7.5
  9
$TRACEWID
 40
1.0
  9
$TEXTSTYLE
  7
Standard
  9
$CLAYER
  8
実形
  9
$CELTYPE
  6
ByLayer
  9
$CECOLOR
 62
   256
  9
$CELTSCALE
 40
1.0
  9
$DISPSILH
 70
     0
  9
$DIMSCALE
 40
1.0
  9
$DIMASZ
 40
2.5
  9
$DIMEXO
 40
10.0
  9
$DIMDLI
 40
3.75
  9
$DIMRND
 40
0.0
  9
$DIMDLE
 40
0.0
  9
$DIMEXE
 40
1.25
  9
$DIMTP
 40
0.0
  9
$DIMTM
 40
0.0
  9
$DIMTXT
 40
6.0
  9
$DIMCEN
 40
2.5
  9
$DIMTSZ
 40
0.0
  9
$DIMTOL
 70
     0
  9
$DIMLIM
 70
     0
  9
$DIMTIH
 70
     0
  9
$DIMTOH
 70
     0
  9
$DIMSE1
 70
     0
  9
$DIMSE2
 70
     0
  9
$DIMTAD
 70
     1
  9
$DIMZIN
 70
     8
  9
$DIMBLK
  1
Dot
  9
$DIMASO
 70
     1
  9
$DIMSHO
 70
     1
  9
$DIMPOST
  1

  9
$DIMAPOST
  1

  9
$DIMALT
 70
     0
  9
$DIMALTD
 70
     3
  9
$DIMALTF
 40
0.03937007874016
  9
$DIMLFAC
 40
1.0
  9
$DIMTOFL
 70
     1
  9
$DIMTVP
 40
0.0
  9
$DIMTIX
 70
     0
  9
$DIMSOXD
 70
     0
  9
$DIMSAH
 70
     0
  9
$DIMBLK1
  1

  9
$DIMBLK2
  1

  9
$DIMSTYLE
  2
ISO-25
  9
$DIMCLRD
 70
     0
  9
$DIMCLRE
 70
     0
  9
$DIMCLRT
 70
     0
  9
$DIMTFAC
 40
1.0
  9
$DIMGAP
 40
2.0
  9
$DIMJUST
 70
     0
  9
$DIMSD1
 70
     0
  9
$DIMSD2
 70
     0
  9
$DIMTOLJ
 70
     0
  9
$DIMTZIN
 70
     8
  9
$DIMALTZ
 70
     0
  9
$DIMALTTZ
 70
     0
  9
$DIMUPT
 70
     0
  9
$DIMDEC
 70
     2
  9
$DIMTDEC
 70
     2
  9
$DIMALTU
 70
     2
  9
$DIMALTTD
 70
     3
  9
$DIMTXSTY
  7
Standard
  9
$DIMAUNIT
 70
     0
  9
$DIMADEC
 70
     0
  9
$DIMALTRND
 40
0.0
  9
$DIMAZIN
 70
     0
  9
$DIMDSEP
 70
    46
  9
$DIMATFIT
 70
     2
  9
$DIMFRAC
 70
     0
  9
$DIMLDRBLK
  1

  9
$DIMLUNIT
 70
     2
  9
$DIMLWD
 70
    -2
  9
$DIMLWE
 70
    -2
  9
$DIMTMOVE
 70
     2
  9
$LUNITS
 70
     2
  9
$LUPREC
 70
     2
  9
$SKETCHINC
 40
1.0
  9
$FILLETRAD
 40
110.0
  9
$AUNITS
 70
     0
  9
$AUPREC
 70
     2
  9
$MENU
  1
.
  9
$ELEVATION
 40
0.0
  9
$PELEVATION
 40
0.0
  9
$THICKNESS
 40
0.0
  9
$LIMCHECK
 70
     0
  9
$CHAMFERA
 40
10.0
  9
$CHAMFERB
 40
10.0
  9
$CHAMFERC
 40
20.0
  9
$CHAMFERD
 40
0.0
  9
$SKPOLY
 70
     0
  9
$TDCREATE
 40
2451867.627719908
  9
$TDUCREATE
 40
2451867.252730903
  9
$TDUPDATE
 40
2458810.588043982
  9
$TDUUPDATE
 40
2458810.213043982
  9
$TDINDWG
 40
0.3793661574
  9
$TDUSRTIMER
 40
0.3793661574
  9
$USRTIMER
 70
     1
  9
$ANGBASE
 50
0.0
  9
$ANGDIR
 70
     0
  9
$PDMODE
 70
     0
  9
$PDSIZE
 40
0.0
  9
$PLINEWID
 40
0.0
  9
$SPLFRAME
 70
     0
  9
$SPLINETYPE
 70
     6
  9
$SPLINESEGS
 70
     8
  9
$HANDSEED
  5
6AF
  9
$SURFTAB1
 70
     6
  9
$SURFTAB2
 70
     6
  9
$SURFTYPE
 70
     6
  9
$SURFU
 70
     6
  9
$SURFV
 70
     6
  9
$UCSBASE
  2

  9
$UCSNAME
  2

  9
$UCSORG
 10
0.0
 20
0.0
 30
0.0
  9
$UCSXDIR
 10
1.0
 20
0.0
 30
0.0
  9
$UCSYDIR
 10
0.0
 20
1.0
 30
0.0
  9
$UCSORTHOREF
  2

  9
$UCSORTHOVIEW
 70
     0
  9
$UCSORGTOP
 10
0.0
 20
0.0
 30
0.0
  9
$UCSORGBOTTOM
 10
0.0
 20
0.0
 30
0.0
  9
$UCSORGLEFT
 10
0.0
 20
0.0
 30
0.0
  9
$UCSORGRIGHT
 10
0.0
 20
0.0
 30
0.0
  9
$UCSORGFRONT
 10
0.0
 20
0.0
 30
0.0
  9
$UCSORGBACK
 10
0.0
 20
0.0
 30
0.0
  9
$PUCSBASE
  2

  9
$PUCSNAME
  2

  9
$PUCSORG
 10
0.0
 20
0.0
 30
0.0
  9
$PUCSXDIR
 10
1.0
 20
0.0
 30
0.0
  9
$PUCSYDIR
 10
0.0
 20
1.0
 30
0.0
  9
$PUCSORTHOREF
  2

  9
$PUCSORTHOVIEW
 70
     0
  9
$PUCSORGTOP
 10
0.0
 20
0.0
 30
0.0
  9
$PUCSORGBOTTOM
 10
0.0
 20
0.0
 30
0.0
  9
$PUCSORGLEFT
 10
0.0
 20
0.0
 30
0.0
  9
$PUCSORGRIGHT
 10
0.0
 20
0.0
 30
0.0
  9
$PUCSORGFRONT
 10
0.0
 20
0.0
 30
0.0
  9
$PUCSORGBACK
 10
0.0
 20
0.0
 30
0.0
  9
$USERI1
 70
     0
  9
$USERI2
 70
     0
  9
$USERI3
 70
     0
  9
$USERI4
 70
     0
  9
$USERI5
 70
     0
  9
$USERR1
 40
0.0
  9
$USERR2
 40
0.0
  9
$USERR3
 40
0.0
  9
$USERR4
 40
0.0
  9
$USERR5
 40
0.0
  9
$WORLDVIEW
 70
     1
  9
$SHADEDGE
 70
     3
  9
$SHADEDIF
 70
    70
  9
$TILEMODE
 70
     1
  9
$MAXACTVP
 70
    64
  9
$PINSBASE
 10
0.0
 20
0.0
 30
0.0
  9
$PLIMCHECK
 70
     0
  9
$PEXTMIN
 10
1.000000000000000E+20
 20
1.000000000000000E+20
 30
1.000000000000000E+20
  9
$PEXTMAX
 10
-1.000000000000000E+20
 20
-1.000000000000000E+20
 30
-1.000000000000000E+20
  9
$PLIMMIN
 10
0.0
 20
0.0
  9
$PLIMMAX
 10
420.0
 20
297.0
  9
$UNITMODE
 70
     0
  9
$VISRETAIN
 70
     1
  9
$PLINEGEN
 70
     0
  9
$PSLTSCALE
 70
     1
  9
$TREEDEPTH
 70
  3020
  9
$CMLSTYLE
  2
Standard
  9
$CMLJUST
 70
     0
  9
$CMLSCALE
 40
20.0
  9
$PROXYGRAPHICS
 70
     1
  9
$MEASUREMENT
 70
     1
  9
$CELWEIGHT
370
    -1
  9
$ENDCAPS
280
     0
  9
$JOINSTYLE
280
     0
  9
$LWDISPLAY
290
     0
  9
$INSUNITS
 70
     4
  9
$HYPERLINKBASE
  1

  9
$STYLESHEET
  1

  9
$XEDIT
290
     1
  9
$CEPSNTYPE
380
     0
  9
$PSTYLEMODE
290
     1
  9
$FINGERPRINTGUID
  2
{1DDDC126-BD5C-11D4-9416-8C18788C832C}
  9
$VERSIONGUID
  2
{F160ECAE-1864-754C-AD4E-FB05D9A296BA}
  9
$EXTNAMES
290
     1
  9
$PSVPSCALE
 40
0.0
  9
$OLESTARTUP
290
     0
  0
ENDSEC
  0
SECTION
  2
CLASSES
  0
CLASS
  1
ACDBDICTIONARYWDFLT
  2
AcDbDictionaryWithDefault
  3
ObjectDBX Classes
 90
        0
280
     0
281
     0
  0
CLASS
  1
ACDBPLACEHOLDER
  2
AcDbPlaceHolder
  3
ObjectDBX Classes
 90
        0
280
     0
281
     0
  0
CLASS
  1
LAYOUT
  2
AcDbLayout
  3
ObjectDBX Classes
 90
        0
280
     0
281
     0
  0
CLASS
  1
TABLESTYLE
  2
AcDbTableStyle
  3
ObjectDBX Classes
 90
     4095
280
     0
281
     0
  0
CLASS
  1
SORTENTSTABLE
  2
AcDbSortentsTable
  3
ObjectDBX Classes
 90
        0
280
     0
281
     0
  0
CLASS
  1
DICTIONARYVAR
  2
AcDbDictionaryVar
  3
ObjectDBX Classes
 90
        0
280
     0
281
     0
  0
CLASS
  1
MATERIAL
  2
AcDbMaterial
  3
ObjectDBX Classes
 90
     1153
280
     0
281
     0
  0
CLASS
  1
VISUALSTYLE
  2
AcDbVisualStyle
  3
ObjectDBX Classes
 90
     4095
280
     0
281
     0
  0
CLASS
  1
SCALE
  2
AcDbScale
  3
ObjectDBX Classes
 90
     1153
280
     0
281
     0
  0
CLASS
  1
MLEADERSTYLE
  2
AcDbMLeaderStyle
  3
ACDB_MLEADERSTYLE_CLASS
 90
     4095
280
     0
281
     0
  0
CLASS
  1
ACDBSECTIONVIEWSTYLE
  2
AcDbSectionViewStyle
  3
ObjectDBX Classes
 90
     1025
280
     0
281
     0
  0
CLASS
  1
ACDBDETAILVIEWSTYLE
  2
AcDbDetailViewStyle
  3
ObjectDBX Classes
 90
     1025
280
     0
281
     0
  0
CLASS
  1
CELLSTYLEMAP
  2
AcDbCellStyleMap
  3
ObjectDBX Classes
 90
     1152
280
     0
281
     0
  0
ENDSEC
  0
SECTION
  2
TABLES
  0
TABLE
  2
VPORT
  5
8
330
0
100
AcDbSymbolTable
 70
     1
  0
VPORT
  5
5E9
330
8
100
AcDbSymbolTableRecord
100
AcDbViewportTableRecord
  2
*Active
 70
     0
 10
0.0
 20
0.0
 11
1.0
 21
1.0
 12
361.8973569694565
 22
156.9252738542063
 13
0.0
 23
0.0
 14
10.0
 24
10.0
 15
10.0
 25
10.0
 16
0.0
 26
0.0
 36
1.0
 17
0.0
 27
0.0
 37
0.0
 40
787.6068255050815
 41
2.211805555555555
 42
50.0
 43
0.0
 44
0.0
 50
0.0
 51
0.0
 71
     0
 72
   100
 73
     1
 74
     3
 75
     0
 76
     0
 77
     0
 78
     0
281
     0
 65
     1
110
0.0
120
0.0
130
0.0
111
1.0
121
0.0
131
0.0
112
0.0
122
1.0
132
0.0
 79
     0
146
0.0
1001
ACAD_NAV_VCDISPLAY
1070
     3
  0
ENDTAB
  0
TABLE
  2
LTYPE
  5
5
330
0
100
AcDbSymbolTable
 70
    46
  0
LTYPE
  5
14
330
5
100
AcDbSymbolTableRecord
100
AcDbLinetypeTableRecord
  2
ByBlock
 70
     0
  3

 72
    65
 73
     0
 40
0.0
  0
LTYPE
  5
15
330
5
100
AcDbSymbolTableRecord
100
AcDbLinetypeTableRecord
  2
ByLayer
 70
     0
  3

 72
    65
 73
     0
 40
0.0
  0
LTYPE
  5
16
330
5
100
AcDbSymbolTableRecord
100
AcDbLinetypeTableRecord
  2
Continuous
 70
     0
  3
Solid line
 72
    65
 73
     0
 40
0.0
  0
LTYPE
  5
83
330
5
100
AcDbSymbolTableRecord
100
AcDbLinetypeTableRecord
  2
ACAD_ISO02W100
 70
     0
  3
ISO dash __ __ __ __ __ __ __ __ __ __ __ __ __
 72
    65
 73
     2
 40
15.0
 49
12.0
 74
     0
 49
-3.0
 74
     0
  0
LTYPE
  5
84
330
5
100
AcDbSymbolTableRecord
100
AcDbLinetypeTableRecord
  2
ACAD_ISO03W100
 70
     0
  3
ISO dash space __    __    __    __    __    __
 72
    65
 73
     2
 40
30.0
 49
12.0
 74
     0
 49
-18.0
 74
     0
  0
LTYPE
  5
85
330
5
100
AcDbSymbolTableRecord
100
AcDbLinetypeTableRecord
  2
ACAD_ISO04W100
 70
     0
  3
ISO long-dash dot ____ . ____ . ____ . ____ . _
 72
    65
 73
     4
 40
30.0
 49
24.0
 74
     0
 49
-3.0
 74
     0
 49
0.0
 74
     0
 49
-3.0
 74
     0
  0
LTYPE
  5
86
330
5
100
AcDbSymbolTableRecord
100
AcDbLinetypeTableRecord
  2
ACAD_ISO05W100
 70
     0
  3
ISO long-dash double-dot ____ .. ____ .. ____ .
 72
    65
 73
     6
 40
34.0
 49
24.0
 74
     0
 49
-3.0
 74
     0
 49
0.5
 74
     0
 49
-3.0
 74
     0
 49
0.5
 74
     0
 49
-3.0
 74
     0
  0
LTYPE
  5
87
330
5
100
AcDbSymbolTableRecord
100
AcDbLinetypeTableRecord
  2
ACAD_ISO06W100
 70
     0
  3
ISO long-dash triple-dot ____ ... ____ ... ____
 72
    65
 73
     8
 40
37.5
 49
24.0
 74
     0
 49
-3.0
 74
     0
 49
0.5
 74
     0
 49
-3.0
 74
     0
 49
0.5
 74
     0
 49
-3.0
 74
     0
 49
0.5
 74
     0
 49
-3.0
 74
     0
  0
LTYPE
  5
88
330
5
100
AcDbSymbolTableRecord
100
AcDbLinetypeTableRecord
  2
ACAD_ISO07W100
 70
     0
  3
ISO dot . . . . . . . . . . . . . . . . . . . .
 72
    65
 73
     2
 40
3.0
 49
0.0
 74
     0
 49
-3.0
 74
     0
  0
LTYPE
  5
89
330
5
100
AcDbSymbolTableRecord
100
AcDbLinetypeTableRecord
  2
ACAD_ISO08W100
 70
     0
  3
ISO long-dash short-dash ____ __ ____ __ ____ _
 72
    65
 73
     4
 40
36.0
 49
24.0
 74
     0
 49
-3.0
 74
     0
 49
6.0
 74
     0
 49
-3.0
 74
     0
  0
LTYPE
  5
8A
330
5
100
AcDbSymbolTableRecord
100
AcDbLinetypeTableRecord
  2
ACAD_ISO09W100
 70
     0
  3
ISO long-dash double-short-dash ____ __ __ ____
 72
    65
 73
     6
 40
45.0
 49
24.0
 74
     0
 49
-3.0
 74
     0
 49
6.0
 74
     0
 49
-3.0
 74
     0
 49
6.0
 74
     0
 49
-3.0
 74
     0
  0
LTYPE
  5
8B
330
5
100
AcDbSymbolTableRecord
100
AcDbLinetypeTableRecord
  2
ACAD_ISO10W100
 70
     0
  3
ISO dash dot __ . __ . __ . __ . __ . __ . __ .
 72
    65
 73
     4
 40
18.0
 49
12.0
 74
     0
 49
-3.0
 74
     0
 49
0.0
 74
     0
 49
-3.0
 74
     0
  0
LTYPE
  5
8C
330
5
100
AcDbSymbolTableRecord
100
AcDbLinetypeTableRecord
  2
ACAD_ISO11W100
 70
     0
  3
ISO double-dash dot __ __ . __ __ . __ __ . __ 
 72
    65
 73
     6
 40
33.0
 49
12.0
 74
     0
 49
-3.0
 74
     0
 49
12.0
 74
     0
 49
-3.0
 74
     0
 49
0.0
 74
     0
 49
-3.0
 74
     0
  0
LTYPE
  5
8D
330
5
100
AcDbSymbolTableRecord
100
AcDbLinetypeTableRecord
  2
ACAD_ISO12W100
 70
     0
  3
ISO dash double-dot __ . . __ . . __ . . __ . .
 72
    65
 73
     6
 40
21.0
 49
12.0
 74
     0
 49
-3.0
 74
     0
 49
0.0
 74
     0
 49
-3.0
 74
     0
 49
0.0
 74
     0
 49
-3.0
 74
     0
  0
LTYPE
  5
8E
330
5
100
AcDbSymbolTableRecord
100
AcDbLinetypeTableRecord
  2
ACAD_ISO13W100
 70
     0
  3
ISO double-dash double-dot __ __ . . __ __ . . 
 72
    65
 73
     8
 40
36.0
 49
12.0
 74
     0
 49
-3.0
 74
     0
 49
12.0
 74
     0
 49
-3.0
 74
     0
 49
0.0
 74
     0
 49
-3.0
 74
     0
 49
0.0
 74
     0
 49
-3.0
 74
     0
  0
LTYPE
  5
8F
330
5
100
AcDbSymbolTableRecord
100
AcDbLinetypeTableRecord
  2
ACAD_ISO14W100
 70
     0
  3
ISO dash triple-dot __ . . . __ . . . __ . . . 
 72
    65
 73
     8
 40
24.0
 49
12.0
 74
     0
 49
-3.0
 74
     0
 49
0.0
 74
     0
 49
-3.0
 74
     0
 49
0.0
 74
     0
 49
-3.0
 74
     0
 49
0.0
 74
     0
 49
-3.0
 74
     0
  0
LTYPE
  5
90
330
5
100
AcDbSymbolTableRecord
100
AcDbLinetypeTableRecord
  2
ACAD_ISO15W100
 70
     0
  3
ISO double-dash triple-dot __ __ . . . __ __ . 
 72
    65
 73
    10
 40
39.0
 49
12.0
 74
     0
 49
-3.0
 74
     0
 49
12.0
 74
     0
 49
-3.0
 74
     0
 49
0.0
 74
     0
 49
-3.0
 74
     0
 49
0.0
 74
     0
 49
-3.0
 74
     0
 49
0.0
 74
     0
 49
-3.0
 74
     0
  0
LTYPE
  5
91
330
5
100
AcDbSymbolTableRecord
100
AcDbLinetypeTableRecord
  2
BATTING
 70
     0
  3
Batting SSSSSSSSSSSSSSSSSSSSSSSSSSSSSSSSSSSSSSS
 72
    65
 73
     4
 40
10.16254
 49
0.00254
 74
     0
 49
-2.54
 74
     4
 75
   134
340
82
 46
2.54
 50
0.0
 44
-2.54
 45
0.0
 49
-5.08
 74
     4
 75
   134
340
82
 46
2.54
 50
180.0
 44
2.54
 45
0.0
 49
-2.54
 74
     0
  0
LTYPE
  5
92
330
5
100
AcDbSymbolTableRecord
100
AcDbLinetypeTableRecord
  2
BORDER
 70
     0
  3
Border __ __ . __ __ . __ __ . __ __ . __ __ .
 72
    65
 73
     6
 40
44.45
 49
12.7
 74
     0
 49
-6.349999999999999
 74
     0
 49
12.7
 74
     0
 49
-6.349999999999999
 74
     0
 49
0.0
 74
     0
 49
-6.349999999999999
 74
     0
  0
LTYPE
  5
93
330
5
100
AcDbSymbolTableRecord
100
AcDbLinetypeTableRecord
  2
BORDER2
 70
     0
  3
Border (.5x) __.__.__.__.__.__.__.__.__.__.__.
 72
    65
 73
     6
 40
22.225
 49
6.349999999999999
 74
     0
 49
-3.174999999999999
 74
     0
 49
6.349999999999999
 74
     0
 49
-3.174999999999999
 74
     0
 49
0.0
 74
     0
 49
-3.174999999999999
 74
     0
  0
LTYPE
  5
94
330
5
100
AcDbSymbolTableRecord
100
AcDbLinetypeTableRecord
  2
BORDERX2
 70
     0
  3
Border (2x) ____  ____  .  ____  ____  .  ___
 72
    65
 73
     6
 40
88.9
 49
25.4
 74
     0
 49
-12.7
 74
     0
 49
25.4
 74
     0
 49
-12.7
 74
     0
 49
0.0
 74
     0
 49
-12.7
 74
     0
  0
LTYPE
  5
95
330
5
100
AcDbSymbolTableRecord
100
AcDbLinetypeTableRecord
  2
CENTER
 70
     0
  3
Center ____ _ ____ _ ____ _ ____ _ ____ _ ____
 72
    65
 73
     4
 40
50.8
 49
31.75
 74
     0
 49
-6.349999999999999
 74
     0
 49
6.349999999999999
 74
     0
 49
-6.349999999999999
 74
     0
  0
LTYPE
  5
96
330
5
100
AcDbSymbolTableRecord
100
AcDbLinetypeTableRecord
  2
CENTER2
 70
     0
  3
Center (.5x) ___ _ ___ _ ___ _ ___ _ ___ _ ___
 72
    65
 73
     4
 40
28.575
 49
19.05
 74
     0
 49
-3.174999999999999
 74
     0
 49
3.174999999999999
 74
     0
 49
-3.174999999999999
 74
     0
  0
LTYPE
  5
97
330
5
100
AcDbSymbolTableRecord
100
AcDbLinetypeTableRecord
  2
CENTERX2
 70
     0
  3
Center (2x) ________  __  ________  __  _____
 72
    65
 73
     4
 40
101.6
 49
63.5
 74
     0
 49
-12.7
 74
     0
 49
12.7
 74
     0
 49
-12.7
 74
     0
  0
LTYPE
  5
98
330
5
100
AcDbSymbolTableRecord
100
AcDbLinetypeTableRecord
  2
DASHDOT
 70
     0
  3
Dash dot __ . __ . __ . __ . __ . __ . __ . __
 72
    65
 73
     4
 40
25.4
 49
12.7
 74
     0
 49
-6.349999999999999
 74
     0
 49
0.0
 74
     0
 49
-6.349999999999999
 74
     0
  0
LTYPE
  5
99
330
5
100
AcDbSymbolTableRecord
100
AcDbLinetypeTableRecord
  2
DASHDOT2
 70
     0
  3
Dash dot (.5x) _._._._._._._._._._._._._._._.
 72
    65
 73
     4
 40
12.7
 49
6.349999999999999
 74
     0
 49
-3.174999999999999
 74
     0
 49
0.0
 74
     0
 49
-3.174999999999999
 74
     0
  0
LTYPE
  5
9A
330
5
100
AcDbSymbolTableRecord
100
AcDbLinetypeTableRecord
  2
DASHDOTX2
 70
     0
  3
Dash dot (2x) ____  .  ____  .  ____  .  ___
 72
    65
 73
     4
 40
50.8
 49
25.4
 74
     0
 49
-12.7
 74
     0
 49
0.0
 74
     0
 49
-12.7
 74
     0
  0
LTYPE
  5
9B
330
5
100
AcDbSymbolTableRecord
100
AcDbLinetypeTableRecord
  2
DASHED
 70
     0
  3
Dashed __ __ __ __ __ __ __ __ __ __ __ __ __ _
 72
    65
 73
     2
 40
19.05
 49
12.7
 74
     0
 49
-6.349999999999999
 74
     0
  0
LTYPE
  5
9C
330
5
100
AcDbSymbolTableRecord
100
AcDbLinetypeTableRecord
  2
DASHED2
 70
     0
  3
Dashed (.5x) _ _ _ _ _ _ _ _ _ _ _ _ _ _ _ _ _
 72
    65
 73
     2
 40
9.524999999999998
 49
6.349999999999999
 74
     0
 49
-3.174999999999999
 74
     0
  0
LTYPE
  5
9D
330
5
100
AcDbSymbolTableRecord
100
AcDbLinetypeTableRecord
  2
DASHEDX2
 70
     0
  3
Dashed (2x) ____  ____  ____  ____  ____  ___
 72
    65
 73
     2
 40
38.1
 49
25.4
 74
     0
 49
-12.7
 74
     0
  0
LTYPE
  5
9E
330
5
100
AcDbSymbolTableRecord
100
AcDbLinetypeTableRecord
  2
DIVIDE
 70
     0
  3
Divide ____ . . ____ . . ____ . . ____ . . ____
 72
    65
 73
     6
 40
31.75
 49
12.7
 74
     0
 49
-6.349999999999999
 74
     0
 49
0.0
 74
     0
 49
-6.349999999999999
 74
     0
 49
0.0
 74
     0
 49
-6.349999999999999
 74
     0
  0
LTYPE
  5
9F
330
5
100
AcDbSymbolTableRecord
100
AcDbLinetypeTableRecord
  2
DIVIDE2
 70
     0
  3
Divide (.5x) __..__..__..__..__..__..__..__.._
 72
    65
 73
     6
 40
15.875
 49
6.349999999999999
 74
     0
 49
-3.174999999999999
 74
     0
 49
0.0
 74
     0
 49
-3.174999999999999
 74
     0
 49
0.0
 74
     0
 49
-3.174999999999999
 74
     0
  0
LTYPE
  5
A0
330
5
100
AcDbSymbolTableRecord
100
AcDbLinetypeTableRecord
  2
DIVIDEX2
 70
     0
  3
Divide (2x) ________  .  .  ________  .  .  _
 72
    65
 73
     6
 40
63.49999999999999
 49
25.4
 74
     0
 49
-12.7
 74
     0
 49
0.0
 74
     0
 49
-12.7
 74
     0
 49
0.0
 74
     0
 49
-12.7
 74
     0
  0
LTYPE
  5
A1
330
5
100
AcDbSymbolTableRecord
100
AcDbLinetypeTableRecord
  2
DOT
 70
     0
  3
Dot . . . . . . . . . . . . . . . . . . . . . .
 72
    65
 73
     2
 40
6.349999999999999
 49
0.0
 74
     0
 49
-6.349999999999999
 74
     0
  0
LTYPE
  5
A2
330
5
100
AcDbSymbolTableRecord
100
AcDbLinetypeTableRecord
  2
DOT2
 70
     0
  3
Dot (.5x) .....................................
 72
    65
 73
     2
 40
3.174999999999999
 49
0.0
 74
     0
 49
-3.174999999999999
 74
     0
  0
LTYPE
  5
A3
330
5
100
AcDbSymbolTableRecord
100
AcDbLinetypeTableRecord
  2
DOTX2
 70
     0
  3
Dot (2x) .  .  .  .  .  .  .  .  .  .  .  .  . 
 72
    65
 73
     2
 40
12.7
 49
0.0
 74
     0
 49
-12.7
 74
     0
  0
LTYPE
  5
A4
330
5
100
AcDbSymbolTableRecord
100
AcDbLinetypeTableRecord
  2
FENCELINE1
 70
     0
  3
Fenceline circle ----0-----0----0-----0----0---
 72
    65
 73
     4
 40
36.83
 49
6.349999999999999
 74
     0
 49
-2.54
 74
     4
 75
   133
340
82
 46
2.54
 50
0.0
 44
-2.54
 45
0.0
 49
-2.54
 74
     0
 49
25.4
 74
     0
  0
LTYPE
  5
A5
330
5
100
AcDbSymbolTableRecord
100
AcDbLinetypeTableRecord
  2
FENCELINE2
 70
     0
  3
Fenceline square ----[]-----[]----[]-----[]----
 72
    65
 73
     4
 40
36.83
 49
6.349999999999999
 74
     0
 49
-2.54
 74
     4
 75
   132
340
82
 46
2.54
 50
0.0
 44
-2.54
 45
0.0
 49
-2.54
 74
     0
 49
25.4
 74
     0
  0
LTYPE
  5
A6
330
5
100
AcDbSymbolTableRecord
100
AcDbLinetypeTableRecord
  2
GAS_LINE
 70
     0
  3
Gas line ----GAS----GAS----GAS----GAS----GAS---
 72
    65
 73
     3
 40
24.13
 49
12.7
 74
     0
 49
-5.08
 74
     2
 75
     0
340
11
 46
2.54
 50
0.0
 44
-2.54
 45
-1.27
  9
GAS
 49
-6.349999999999999
 74
     0
  0
LTYPE
  5
A7
330
5
100
AcDbSymbolTableRecord
100
AcDbLinetypeTableRecord
  2
HIDDEN
 70
     0
  3
Hidden __ __ __ __ __ __ __ __ __ __ __ __ __ _
 72
    65
 73
     2
 40
9.524999999999998
 49
6.349999999999999
 74
     0
 49
-3.174999999999999
 74
     0
  0
LTYPE
  5
A8
330
5
100
AcDbSymbolTableRecord
100
AcDbLinetypeTableRecord
  2
HIDDEN2
 70
     0
  3
Hidden (.5x) _ _ _ _ _ _ _ _ _ _ _ _ _ _ _ _ _
 72
    65
 73
     2
 40
4.762499999999999
 49
3.174999999999999
 74
     0
 49
-1.587499999999999
 74
     0
  0
LTYPE
  5
A9
330
5
100
AcDbSymbolTableRecord
100
AcDbLinetypeTableRecord
  2
HIDDENX2
 70
     0
  3
Hidden (2x) ____ ____ ____ ____ ____ ____ ____
 72
    65
 73
     2
 40
19.05
 49
12.7
 74
     0
 49
-6.349999999999999
 74
     0
  0
LTYPE
  5
AA
330
5
100
AcDbSymbolTableRecord
100
AcDbLinetypeTableRecord
  2
HOT_WATER_SUPPLY
 70
     0
  3
Hot water supply ---- HW ---- HW ---- HW ----
 72
    65
 73
     3
 40
22.86
 49
12.7
 74
     0
 49
-5.08
 74
     2
 75
     0
340
11
 46
2.54
 50
0.0
 44
-2.54
 45
-1.27
  9
HW
 49
-5.08
 74
     0
  0
LTYPE
  5
AB
330
5
100
AcDbSymbolTableRecord
100
AcDbLinetypeTableRecord
  2
PHANTOM
 70
     0
  3
Phantom ______  __  __  ______  __  __  ______
 72
    65
 73
     6
 40
63.5
 49
31.75
 74
     0
 49
-6.349999999999999
 74
     0
 49
6.349999999999999
 74
     0
 49
-6.349999999999999
 74
     0
 49
6.349999999999999
 74
     0
 49
-6.349999999999999
 74
     0
  0
LTYPE
  5
AC
330
5
100
AcDbSymbolTableRecord
100
AcDbLinetypeTableRecord
  2
PHANTOM2
 70
     0
  3
Phantom (.5x) ___ _ _ ___ _ _ ___ _ _ ___ _ _
 72
    65
 73
     6
 40
31.75
 49
15.875
 74
     0
 49
-3.174999999999999
 74
     0
 49
3.174999999999999
 74
     0
 49
-3.174999999999999
 74
     0
 49
3.174999999999999
 74
     0
 49
-3.174999999999999
 74
     0
  0
LTYPE
  5
AD
330
5
100
AcDbSymbolTableRecord
100
AcDbLinetypeTableRecord
  2
PHANTOMX2
 70
     0
  3
Phantom (2x) ____________    ____    ____   _
 72
    65
 73
     6
 40
127.0
 49
63.5
 74
     0
 49
-12.7
 74
     0
 49
12.7
 74
     0
 49
-12.7
 74
     0
 49
12.7
 74
     0
 49
-12.7
 74
     0
  0
LTYPE
  5
AE
330
5
100
AcDbSymbolTableRecord
100
AcDbLinetypeTableRecord
  2
TRACKS
 70
     0
  3
Tracks -|-|-|-|-|-|-|-|-|-|-|-|-|-|-|-|-|-|-|-|
 72
    65
 73
     2
 40
7.62
 49
3.81
 74
     4
 75
   130
340
82
 46
6.349999999999999
 50
0.0
 44
0.0
 45
0.0
 49
3.81
 74
     0
  0
LTYPE
  5
AF
330
5
100
AcDbSymbolTableRecord
100
AcDbLinetypeTableRecord
  2
ZIGZAG
 70
     0
  3
Zig zag /\/\/\/\/\/\/\/\/\/\/\/\/\/\/\/\/\/\/\/
 72
    65
 73
     4
 40
20.32254
 49
0.00254
 74
     0
 49
-5.08
 74
     4
 75
   131
340
82
 46
5.08
 50
0.0
 44
-5.08
 45
0.0
 49
-10.16
 74
     4
 75
   131
340
82
 46
5.08
 50
180.0
 44
5.08
 45
0.0
 49
-5.08
 74
     0
  0
ENDTAB
  0
TABLE
  2
LAYER
  5
2
102
{ACAD_XDICTIONARY
360
5AA
102
}
330
0
100
AcDbSymbolTable
 70
     5
  0
LAYER
  5
10
102
{ACAD_XDICTIONARY
360
63A
102
}
330
2
100
AcDbSymbolTableRecord
100
AcDbLayerTableRecord
  2
0
 70
     0
 62
     7
  6
Continuous
370
    -3
390
F
  0
LAYER
  5
BB
102
{ACAD_XDICTIONARY
360
63C
102
}
330
2
100
AcDbSymbolTableRecord
100
AcDbLayerTableRecord
  2
実形
 70
     0
 62
     7
  6
Continuous
370
    -3
390
F
  0
LAYER
  5
E6
102
{ACAD_XDICTIONARY
360
63E
102
}
330
2
100
AcDbSymbolTableRecord
100
AcDbLayerTableRecord
  2
枠
 70
     0
 62
     7
  6
Continuous
370
    -3
390
F
  0
LAYER
  5
21C
330
2
100
AcDbSymbolTableRecord
100
AcDbLayerTableRecord
  2
Defpoints
 70
     0
 62
     7
  6
Continuous
290
     0
370
    -3
390
F
  0
LAYER
  5
458
102
{ACAD_XDICTIONARY
360
640
102
}
330
2
100
AcDbSymbolTableRecord
100
AcDbLayerTableRecord
  2
Cen
 70
     0
 62
     7
  6
CENTER2
370
    15
390
F
  0
ENDTAB
  0
TABLE
  2
STYLE
  5
3
330
0
100
AcDbSymbolTable
 70
     2
  0
STYLE
  5
11
330
3
100
AcDbSymbolTableRecord
100
AcDbTextStyleTableRecord
  2
Standard
 70
     0
 40
0.0
 41
1.0
 50
0.0
 71
     0
 42
7.5
  3
txt.shx
  4
bigfont.shx
  0
STYLE
  5
82
330
3
100
AcDbSymbolTableRecord
100
AcDbTextStyleTableRecord
  2

 70
     1
 40
0.0
 41
1.0
 50
0.0
 71
     0
 42
2.5
  3
ltypeshp.shx
  4

  0
ENDTAB
  0
TABLE
  2
VIEW
  5
6
330
0
100
AcDbSymbolTable
 70
     0
  0
ENDTAB
  0
TABLE
  2
UCS
  5
7
330
0
100
AcDbSymbolTable
 70
     0
  0
ENDTAB
  0
TABLE
  2
APPID
  5
9
330
0
100
AcDbSymbolTable
 70
     3
  0
APPID
  5
12
330
9
100
AcDbSymbolTableRecord
100
AcDbRegAppTableRecord
  2
ACAD
 70
     0
  0
APPID
  5
64A
330
9
100
AcDbSymbolTableRecord
100
AcDbRegAppTableRecord
  2
ACAD_NAV_VCDISPLAY
 70
     0
  0
APPID
  5
6A8
330
9
100
AcDbSymbolTableRecord
100
AcDbRegAppTableRecord
  2
ACAD_MLEADERVER
 70
     0
  0
ENDTAB
  0
TABLE
  2
DIMSTYLE
  5
A
330
0
100
AcDbSymbolTable
 70
     3
100
AcDbDimStyleTable
 71
     3
340
27
340
3A5
340
44C
  0
DIMSTYLE
105
27
102
{ACAD_REACTORS
330
21B
330
229
330
285
330
292
330
2AC
330
2CB
330
2F3
330
309
330
316
330
32C
102
}
330
A
100
AcDbSymbolTableRecord
100
AcDbDimStyleTableRecord
  2
ISO-25
 70
     0
 41
2.5
 42
10.0
 43
3.75
 44
1.25
 73
     0
 74
     0
 77
     1
 78
     8
140
6.0
141
2.5
143
0.03937007874016
147
2.0
171
     3
172
     1
271
     2
272
     2
274
     3
279
     2
283
     0
284
     8
289
     2
340
11
342
216
  0
DIMSTYLE
105
3A5
102
{ACAD_REACTORS
330
3A6
330
43C
102
}
330
A
100
AcDbSymbolTableRecord
100
AcDbDimStyleTableRecord
  2
ISO-25$4
 70
     0
 41
7.0
 42
10.0
 43
3.75
 44
1.25
 77
     2
 78
     8
140
6.0
141
0.0
143
0.03937007874016
147
2.0
171
     3
172
     1
173
     1
271
     2
272
     2
274
     3
279
     1
283
     0
284
     8
340
11
343
216
344
B5
  0
DIMSTYLE
105
44C
102
{ACAD_REACTORS
330
44D
330
44F
330
452
330
454
330
456
102
}
330
A
100
AcDbSymbolTableRecord
100
AcDbDimStyleTableRecord
  2
ISO-25$7
 70
     0
 41
7.0
 42
10.0
 43
3.75
 44
1.25
 73
     0
 74
     0
 77
     1
 78
     8
140
6.0
141
2.5
143
0.03937007874016
147
2.0
171
     3
172
     1
271
     2
272
     2
274
     3
279
     2
283
     0
284
     8
289
     2
340
11
341
B5
342
216
  0
ENDTAB
  0
TABLE
  2
BLOCK_RECORD
  5
1
330
0
100
AcDbSymbolTable
 70
    17
  0
BLOCK_RECORD
  5
1F
102
{ACAD_XDICTIONARY
360
5AE
102
}
330
1
100
AcDbSymbolTableRecord
100
AcDbBlockTableRecord
  2
*Model_Space
340
22
  0
BLOCK_RECORD
  5
1B
330
1
100
AcDbSymbolTableRecord
100
AcDbBlockTableRecord
  2
*Paper_Space
340
1E
  0
BLOCK_RECORD
  5
23
330
1
100
AcDbSymbolTableRecord
100
AcDbBlockTableRecord
  2
*Paper_Space0
340
26
  0
BLOCK_RECORD
  5
B1
330
1
100
AcDbSymbolTableRecord
100
AcDbBlockTableRecord
  2
_DotSmall
340
0
  0
BLOCK_RECORD
  5
B5
330
1
100
AcDbSymbolTableRecord
100
AcDbBlockTableRecord
  2
_Open30
340
0
102
{BLKREFS
331
5A1
331
5A7
102
}
  0
BLOCK_RECORD
  5
216
330
1
100
AcDbSymbolTableRecord
100
AcDbBlockTableRecord
  2
_Dot
340
0
102
{BLKREFS
331
547
331
548
331
550
331
551
331
559
331
55A
331
562
331
563
331
56B
331
56C
331
574
331
575
331
57D
331
57E
331
586
331
587
331
58F
331
590
331
598
331
599
102
}
  0
BLOCK_RECORD
  5
21D
330
1
100
AcDbSymbolTableRecord
100
AcDbBlockTableRecord
  2
*D4
340
0
  0
BLOCK_RECORD
  5
22A
330
1
100
AcDbSymbolTableRecord
100
AcDbBlockTableRecord
  2
*D5
340
0
  0
BLOCK_RECORD
  5
286
330
1
100
AcDbSymbolTableRecord
100
AcDbBlockTableRecord
  2
*D6
340
0
  0
BLOCK_RECORD
  5
293
330
1
100
AcDbSymbolTableRecord
100
AcDbBlockTableRecord
  2
*D7
340
0
  0
BLOCK_RECORD
  5
2AD
330
1
100
AcDbSymbolTableRecord
100
AcDbBlockTableRecord
  2
*D8
340
0
  0
BLOCK_RECORD
  5
2CC
330
1
100
AcDbSymbolTableRecord
100
AcDbBlockTableRecord
  2
*D9
340
0
  0
BLOCK_RECORD
  5
2F4
330
1
100
AcDbSymbolTableRecord
100
AcDbBlockTableRecord
  2
*D10
340
0
  0
BLOCK_RECORD
  5
30A
330
1
100
AcDbSymbolTableRecord
100
AcDbBlockTableRecord
  2
*D11
340
0
  0
BLOCK_RECORD
  5
317
330
1
100
AcDbSymbolTableRecord
100
AcDbBlockTableRecord
  2
*D12
340
0
  0
BLOCK_RECORD
  5
32D
330
1
100
AcDbSymbolTableRecord
100
AcDbBlockTableRecord
  2
*D13
340
0
  0
BLOCK_RECORD
  5
3A7
330
1
100
AcDbSymbolTableRecord
100
AcDbBlockTableRecord
  2
*D14
340
0
  0
BLOCK_RECORD
  5
43D
330
1
100
AcDbSymbolTableRecord
100
AcDbBlockTableRecord
  2
*D15
340
0
  0
BLOCK_RECORD
  5
459
330
1
100
AcDbSymbolTableRecord
100
AcDbBlockTableRecord
  2
A$C46266766
340
0
  0
ENDTAB
  0
ENDSEC
  0
SECTION
  2
BLOCKS
  0
BLOCK
  5
20
330
1F
100
AcDbEntity
  8
0
100
AcDbBlockBegin
  2
*Model_Space
 70
     0
 10
0.0
 20
0.0
 30
0.0
  3
*Model_Space
  1

  0
ENDBLK
  5
21
330
1F
100
AcDbEntity
  8
0
100
AcDbBlockEnd
  0
BLOCK
  5
1C
330
1B
100
AcDbEntity
 67
     1
  8
0
100
AcDbBlockBegin
  2
*Paper_Space
 70
     0
 10
0.0
 20
0.0
 30
0.0
  3
*Paper_Space
  1

  0
ENDBLK
  5
1D
330
1B
100
AcDbEntity
 67
     1
  8
0
100
AcDbBlockEnd
  0
BLOCK
  5
24
330
23
100
AcDbEntity
 67
     1
  8
0
100
AcDbBlockBegin
  2
*Paper_Space0
 70
     0
 10
0.0
 20
0.0
 30
0.0
  3
*Paper_Space0
  1

  0
ENDBLK
  5
25
330
23
100
AcDbEntity
 67
     1
  8
0
100
AcDbBlockEnd
  0
BLOCK
  5
B3
330
B1
100
AcDbEntity
  8
0
100
AcDbBlockBegin
  2
_DotSmall
 70
     0
 10
0.0
 20
0.0
 30
0.0
  3
_DotSmall
  1

  0
LWPOLYLINE
  5
B2
330
B1
100
AcDbEntity
  8
0
 62
     0
100
AcDbPolyline
 90
        2
 70
     1
 43
0.5
 10
-0.0625
 20
0.0
 42
1.0
 10
0.0625
 20
0.0
 42
1.0
  0
ENDBLK
  5
B4
330
B1
100
AcDbEntity
  8
0
100
AcDbBlockEnd
  0
BLOCK
  5
B9
330
B5
100
AcDbEntity
  8
0
100
AcDbBlockBegin
  2
_Open30
 70
     0
 10
0.0
 20
0.0
 30
0.0
  3
_Open30
  1

  0
LINE
  5
B6
330
B5
100
AcDbEntity
  8
0
 62
     0
370
    -2
100
AcDbLine
 10
-1.0
 20
0.26794919
 30
0.0
 11
0.0
 21
0.0
 31
0.0
  0
LINE
  5
B7
330
B5
100
AcDbEntity
  8
0
 62
     0
370
    -2
100
AcDbLine
 10
0.0
 20
0.0
 30
0.0
 11
-1.0
 21
-0.26794919
 31
0.0
  0
LINE
  5
B8
330
B5
100
AcDbEntity
  8
0
 62
     0
370
    -2
100
AcDbLine
 10
0.0
 20
0.0
 30
0.0
 11
-1.0
 21
0.0
 31
0.0
  0
ENDBLK
  5
BA
330
B5
100
AcDbEntity
  8
0
100
AcDbBlockEnd
  0
BLOCK
  5
219
330
216
100
AcDbEntity
  8
0
100
AcDbBlockBegin
  2
_Dot
 70
     0
 10
0.0
 20
0.0
 30
0.0
  3
_Dot
  1

  0
LWPOLYLINE
  5
217
330
216
100
AcDbEntity
  8
実形
 62
     0
100
AcDbPolyline
 90
        2
 70
     1
 43
0.5
 10
-0.25
 20
0.0
 42
1.0
 10
0.25
 20
0.0
 42
1.0
  0
LINE
  5
218
330
216
100
AcDbEntity
  8
実形
 62
     0
370
    -2
100
AcDbLine
 10
-0.5
 20
0.0
 30
0.0
 11
-1.0
 21
0.0
 31
0.0
  0
ENDBLK
  5
21A
330
216
100
AcDbEntity
  8
0
100
AcDbBlockEnd
  0
BLOCK
  5
227
330
21D
100
AcDbEntity
  8
0
100
AcDbBlockBegin
  2
*D4
 70
     1
 10
0.0
 20
0.0
 30
0.0
  3
*D4
  1

  0
LINE
  5
544
330
21D
100
AcDbEntity
  8
実形
 62
     0
370
    -2
100
AcDbLine
 10
502.5153503457597
 20
373.9725168045562
 30
0.0
 11
544.0157283199024
 21
373.9725168045562
 31
0.0
  0
LINE
  5
545
330
21D
100
AcDbEntity
  8
実形
 62
     0
370
    -2
100
AcDbLine
 10
502.5153503457597
 20
123.9725168045561
 30
0.0
 11
544.0157283199023
 21
123.9725168045561
 31
0.0
  0
LINE
  5
546
330
21D
100
AcDbEntity
  8
実形
 62
     0
370
    -2
100
AcDbLine
 10
542.7657283199024
 20
371.4725168045561
 30
0.0
 11
542.7657283199023
 21
126.4725168045561
 31
0.0
  0
INSERT
  5
547
330
21D
100
AcDbEntity
  8
実形
 62
     0
370
    -2
100
AcDbBlockReference
  2
_Dot
 10
542.7657283199024
 20
373.9725168045562
 30
0.0
 41
2.5
 42
2.5
 43
2.5
 50
90.0
  0
INSERT
  5
548
330
21D
100
AcDbEntity
  8
実形
 62
     0
370
    -2
100
AcDbBlockReference
  2
_Dot
 10
542.7657283199023
 20
123.9725168045561
 30
0.0
 41
2.5
 42
2.5
 43
2.5
 50
270.0
  0
MTEXT
  5
549
330
21D
100
AcDbEntity
  8
実形
 62
     0
100
AcDbMText
 10
537.7657283199023
 20
248.9725168045562
 30
0.0
 40
6.0
 41
0.0
 71
     5
 72
     1
  1
250
 11
0.0000000000000001
 21
1.0
 31
0.0
 73
     1
 44
1.0
1001
ACAD
1000
MTEXTBEGIN
1070
    73
1070
     1
1070
    44
1040
1.0
1070
    74
1070
     0
1000
MTEXTEND
  0
POINT
  5
54A
330
21D
100
AcDbEntity
  8
Defpoints
 62
     0
100
AcDbPoint
 10
492.5153503457598
 20
373.9725168045562
 30
0.0
  0
POINT
  5
54B
330
21D
100
AcDbEntity
  8
Defpoints
 62
     0
100
AcDbPoint
 10
492.5153503457598
 20
123.9725168045561
 30
0.0
  0
POINT
  5
54C
330
21D
100
AcDbEntity
  8
Defpoints
 62
     0
100
AcDbPoint
 10
542.7657283199023
 20
123.9725168045561
 30
0.0
  0
ENDBLK
  5
228
330
21D
100
AcDbEntity
  8
0
100
AcDbBlockEnd
  0
BLOCK
  5
234
330
22A
100
AcDbEntity
  8
0
100
AcDbBlockBegin
  2
*D5
 70
     1
 10
0.0
 20
0.0
 30
0.0
  3
*D5
  1

  0
LINE
  5
54D
330
22A
100
AcDbEntity
  8
実形
 62
     0
370
    -2
100
AcDbLine
 10
42.51535034575977
 20
113.9725168045561
 30
0.0
 11
42.51535034575977
 21
75.68585187221959
 31
0.0
  0
LINE
  5
54E
330
22A
100
AcDbEntity
  8
実形
 62
     0
370
    -2
100
AcDbLine
 10
492.5153503457598
 20
113.9725168045561
 30
0.0
 11
492.5153503457598
 21
75.68585187221959
 31
0.0
  0
LINE
  5
54F
330
22A
100
AcDbEntity
  8
実形
 62
     0
370
    -2
100
AcDbLine
 10
45.01535034575977
 20
76.93585187221959
 30
0.0
 11
490.0153503457597
 21
76.93585187221959
 31
0.0
  0
INSERT
  5
550
330
22A
100
AcDbEntity
  8
実形
 62
     0
370
    -2
100
AcDbBlockReference
  2
_Dot
 10
42.51535034575977
 20
76.93585187221959
 30
0.0
 41
2.5
 42
2.5
 43
2.5
 50
180.0
  0
INSERT
  5
551
330
22A
100
AcDbEntity
  8
実形
 62
     0
370
    -2
100
AcDbBlockReference
  2
_Dot
 10
492.5153503457598
 20
76.93585187221959
 30
0.0
 41
2.5
 42
2.5
 43
2.5
  0
MTEXT
  5
552
330
22A
100
AcDbEntity
  8
実形
 62
     0
100
AcDbMText
 10
267.5153503457598
 20
81.93585187221959
 30
0.0
 40
6.0
 41
0.0
 71
     5
 72
     1
  1
450
 73
     1
 44
1.0
1001
ACAD
1000
MTEXTBEGIN
1070
    73
1070
     1
1070
    44
1040
1.0
1070
    74
1070
     0
1000
MTEXTEND
  0
POINT
  5
553
330
22A
100
AcDbEntity
  8
Defpoints
 62
     0
100
AcDbPoint
 10
42.51535034575977
 20
123.9725168045561
 30
0.0
  0
POINT
  5
554
330
22A
100
AcDbEntity
  8
Defpoints
 62
     0
100
AcDbPoint
 10
492.5153503457598
 20
123.9725168045561
 30
0.0
  0
POINT
  5
555
330
22A
100
AcDbEntity
  8
Defpoints
 62
     0
100
AcDbPoint
 10
492.5153503457598
 20
76.93585187221959
 30
0.0
  0
ENDBLK
  5
235
330
22A
100
AcDbEntity
  8
0
100
AcDbBlockEnd
  0
BLOCK
  5
290
330
286
100
AcDbEntity
  8
0
100
AcDbBlockBegin
  2
*D6
 70
     1
 10
0.0
 20
0.0
 30
0.0
  3
*D6
  1

  0
LINE
  5
556
330
286
100
AcDbEntity
  8
実形
 62
     0
370
    -2
100
AcDbLine
 10
42.51535034575977
 20
113.9725168045561
 30
0.0
 11
42.51535034575977
 21
97.21584438205173
 31
0.0
  0
LINE
  5
557
330
286
100
AcDbEntity
  8
実形
 62
     0
370
    -2
100
AcDbLine
 10
96.51535034575978
 20
113.9725168045561
 30
0.0
 11
96.51535034575978
 21
97.21584438205173
 31
0.0
  0
LINE
  5
558
330
286
100
AcDbEntity
  8
実形
 62
     0
370
    -2
100
AcDbLine
 10
45.01535034575977
 20
98.46584438205173
 30
0.0
 11
94.01535034575976
 21
98.46584438205173
 31
0.0
  0
INSERT
  5
559
330
286
100
AcDbEntity
  8
実形
 62
     0
370
    -2
100
AcDbBlockReference
  2
_Dot
 10
42.51535034575977
 20
98.46584438205173
 30
0.0
 41
2.5
 42
2.5
 43
2.5
 50
180.0
  0
INSERT
  5
55A
330
286
100
AcDbEntity
  8
実形
 62
     0
370
    -2
100
AcDbBlockReference
  2
_Dot
 10
96.51535034575978
 20
98.46584438205173
 30
0.0
 41
2.5
 42
2.5
 43
2.5
  0
MTEXT
  5
55B
330
286
100
AcDbEntity
  8
実形
 62
     0
100
AcDbMText
 10
69.51535034575977
 20
103.4658443820517
 30
0.0
 40
6.0
 41
0.0
 71
     5
 72
     1
  1
54
 73
     1
 44
1.0
1001
ACAD
1000
MTEXTBEGIN
1070
    73
1070
     1
1070
    44
1040
1.0
1070
    74
1070
     0
1000
MTEXTEND
  0
POINT
  5
55C
330
286
100
AcDbEntity
  8
Defpoints
 62
     0
100
AcDbPoint
 10
42.51535034575977
 20
123.9725168045561
 30
0.0
  0
POINT
  5
55D
330
286
100
AcDbEntity
  8
Defpoints
 62
     0
100
AcDbPoint
 10
96.51535034575978
 20
123.9725168045561
 30
0.0
  0
POINT
  5
55E
330
286
100
AcDbEntity
  8
Defpoints
 62
     0
100
AcDbPoint
 10
96.51535034575978
 20
98.46584438205173
 30
0.0
  0
ENDBLK
  5
291
330
286
100
AcDbEntity
  8
0
100
AcDbBlockEnd
  0
BLOCK
  5
29D
330
293
100
AcDbEntity
  8
0
100
AcDbBlockBegin
  2
*D7
 70
     1
 10
0.0
 20
0.0
 30
0.0
  3
*D7
  1

  0
LINE
  5
55F
330
293
100
AcDbEntity
  8
実形
 62
     0
370
    -2
100
AcDbLine
 10
96.51535034575978
 20
113.9725168045561
 30
0.0
 11
96.51535034575978
 21
97.21584438205173
 31
0.0
  0
LINE
  5
560
330
293
100
AcDbEntity
  8
実形
 62
     0
370
    -2
100
AcDbLine
 10
438.5153503457598
 20
113.9725168045561
 30
0.0
 11
438.5153503457598
 21
97.21584438205173
 31
0.0
  0
LINE
  5
561
330
293
100
AcDbEntity
  8
実形
 62
     0
370
    -2
100
AcDbLine
 10
99.01535034575978
 20
98.46584438205173
 30
0.0
 11
436.0153503457597
 21
98.46584438205173
 31
0.0
  0
INSERT
  5
562
330
293
100
AcDbEntity
  8
実形
 62
     0
370
    -2
100
AcDbBlockReference
  2
_Dot
 10
96.51535034575978
 20
98.46584438205173
 30
0.0
 41
2.5
 42
2.5
 43
2.5
 50
180.0
  0
INSERT
  5
563
330
293
100
AcDbEntity
  8
実形
 62
     0
370
    -2
100
AcDbBlockReference
  2
_Dot
 10
438.5153503457598
 20
98.46584438205173
 30
0.0
 41
2.5
 42
2.5
 43
2.5
  0
MTEXT
  5
564
330
293
100
AcDbEntity
  8
実形
 62
     0
100
AcDbMText
 10
267.5153503457598
 20
103.4658443820517
 30
0.0
 40
6.0
 41
0.0
 71
     5
 72
     1
  1
38×9=342
 73
     1
 44
1.0
1001
ACAD
1000
MTEXTBEGIN
1070
    73
1070
     1
1070
    44
1040
1.0
1070
    74
1070
     0
1000
MTEXTEND
  0
POINT
  5
565
330
293
100
AcDbEntity
  8
Defpoints
 62
     0
100
AcDbPoint
 10
96.51535034575978
 20
123.9725168045561
 30
0.0
  0
POINT
  5
566
330
293
100
AcDbEntity
  8
Defpoints
 62
     0
100
AcDbPoint
 10
438.5153503457598
 20
123.9725168045561
 30
0.0
  0
POINT
  5
567
330
293
100
AcDbEntity
  8
Defpoints
 62
     0
100
AcDbPoint
 10
438.5153503457598
 20
98.46584438205173
 30
0.0
  0
ENDBLK
  5
29E
330
293
100
AcDbEntity
  8
0
100
AcDbBlockEnd
  0
BLOCK
  5
2B7
330
2AD
100
AcDbEntity
  8
0
100
AcDbBlockBegin
  2
*D8
 70
     1
 10
0.0
 20
0.0
 30
0.0
  3
*D8
  1

  0
LINE
  5
568
330
2AD
100
AcDbEntity
  8
実形
 62
     0
370
    -2
100
AcDbLine
 10
96.51535034575978
 20
113.9725168045561
 30
0.0
 11
96.51535034575978
 21
103.9824131576488
 31
0.0
  0
LINE
  5
569
330
2AD
100
AcDbEntity
  8
実形
 62
     0
370
    -2
100
AcDbLine
 10
134.5153503457597
 20
113.9725168045561
 30
0.0
 11
134.5153503457597
 21
103.9824131576488
 31
0.0
  0
LINE
  5
56A
330
2AD
100
AcDbEntity
  8
実形
 62
     0
370
    -2
100
AcDbLine
 10
99.01535034575978
 20
105.2324131576488
 30
0.0
 11
132.0153503457597
 21
105.2324131576488
 31
0.0
  0
INSERT
  5
56B
330
2AD
100
AcDbEntity
  8
実形
 62
     0
370
    -2
100
AcDbBlockReference
  2
_Dot
 10
96.51535034575978
 20
105.2324131576488
 30
0.0
 41
2.5
 42
2.5
 43
2.5
 50
180.0
  0
INSERT
  5
56C
330
2AD
100
AcDbEntity
  8
実形
 62
     0
370
    -2
100
AcDbBlockReference
  2
_Dot
 10
134.5153503457597
 20
105.2324131576488
 30
0.0
 41
2.5
 42
2.5
 43
2.5
  0
MTEXT
  5
56D
330
2AD
100
AcDbEntity
  8
実形
 62
     0
100
AcDbMText
 10
115.5153503457597
 20
110.2324131576488
 30
0.0
 40
6.0
 41
0.0
 71
     5
 72
     1
  1
38
 73
     1
 44
1.0
1001
ACAD
1000
MTEXTBEGIN
1070
    73
1070
     1
1070
    44
1040
1.0
1070
    74
1070
     0
1000
MTEXTEND
  0
POINT
  5
56E
330
2AD
100
AcDbEntity
  8
Defpoints
 62
     0
100
AcDbPoint
 10
96.51535034575978
 20
123.9725168045561
 30
0.0
  0
POINT
  5
56F
330
2AD
100
AcDbEntity
  8
Defpoints
 62
     0
100
AcDbPoint
 10
134.5153503457597
 20
123.9725168045561
 30
0.0
  0
POINT
  5
570
330
2AD
100
AcDbEntity
  8
Defpoints
 62
     0
100
AcDbPoint
 10
134.5153503457597
 20
105.2324131576488
 30
0.0
  0
ENDBLK
  5
2B8
330
2AD
100
AcDbEntity
  8
0
100
AcDbBlockEnd
  0
BLOCK
  5
2D6
330
2CC
100
AcDbEntity
  8
0
100
AcDbBlockBegin
  2
*D9
 70
     1
 10
0.0
 20
0.0
 30
0.0
  3
*D9
  1

  0
LINE
  5
571
330
2CC
100
AcDbEntity
  8
実形
 62
     0
370
    -2
100
AcDbLine
 10
438.5153503457598
 20
113.9725168045561
 30
0.0
 11
438.5153503457598
 21
97.21584438205173
 31
0.0
  0
LINE
  5
572
330
2CC
100
AcDbEntity
  8
実形
 62
     0
370
    -2
100
AcDbLine
 10
492.5153503457598
 20
113.9725168045561
 30
0.0
 11
492.5153503457598
 21
97.21584438205173
 31
0.0
  0
LINE
  5
573
330
2CC
100
AcDbEntity
  8
実形
 62
     0
370
    -2
100
AcDbLine
 10
441.0153503457597
 20
98.46584438205173
 30
0.0
 11
490.0153503457597
 21
98.46584438205173
 31
0.0
  0
INSERT
  5
574
330
2CC
100
AcDbEntity
  8
実形
 62
     0
370
    -2
100
AcDbBlockReference
  2
_Dot
 10
438.5153503457598
 20
98.46584438205173
 30
0.0
 41
2.5
 42
2.5
 43
2.5
 50
180.0
  0
INSERT
  5
575
330
2CC
100
AcDbEntity
  8
実形
 62
     0
370
    -2
100
AcDbBlockReference
  2
_Dot
 10
492.5153503457598
 20
98.46584438205173
 30
0.0
 41
2.5
 42
2.5
 43
2.5
  0
MTEXT
  5
576
330
2CC
100
AcDbEntity
  8
実形
 62
     0
100
AcDbMText
 10
465.5153503457597
 20
103.4658443820517
 30
0.0
 40
6.0
 41
0.0
 71
     5
 72
     1
  1
54
 73
     1
 44
1.0
1001
ACAD
1000
MTEXTBEGIN
1070
    73
1070
     1
1070
    44
1040
1.0
1070
    74
1070
     0
1000
MTEXTEND
  0
POINT
  5
577
330
2CC
100
AcDbEntity
  8
Defpoints
 62
     0
100
AcDbPoint
 10
438.5153503457598
 20
123.9725168045561
 30
0.0
  0
POINT
  5
578
330
2CC
100
AcDbEntity
  8
Defpoints
 62
     0
100
AcDbPoint
 10
492.5153503457598
 20
123.9725168045561
 30
0.0
  0
POINT
  5
579
330
2CC
100
AcDbEntity
  8
Defpoints
 62
     0
100
AcDbPoint
 10
492.5153503457598
 20
98.46584438205173
 30
0.0
  0
ENDBLK
  5
2D7
330
2CC
100
AcDbEntity
  8
0
100
AcDbBlockEnd
  0
BLOCK
  5
2FE
330
2F4
100
AcDbEntity
  8
0
100
AcDbBlockBegin
  2
*D10
 70
     1
 10
0.0
 20
0.0
 30
0.0
  3
*D10
  1

  0
LINE
  5
57A
330
2F4
100
AcDbEntity
  8
実形
 62
     0
370
    -2
100
AcDbLine
 10
502.5153503457597
 20
373.9725168045562
 30
0.0
 11
522.4687168271361
 21
373.9725168045562
 31
0.0
  0
LINE
  5
57B
330
2F4
100
AcDbEntity
  8
実形
 62
     0
370
    -2
100
AcDbLine
 10
502.5153503457597
 20
331.9725168045561
 30
0.0
 11
522.4687168271361
 21
331.9725168045561
 31
0.0
  0
LINE
  5
57C
330
2F4
100
AcDbEntity
  8
実形
 62
     0
370
    -2
100
AcDbLine
 10
521.2187168271362
 20
371.4725168045561
 30
0.0
 11
521.2187168271362
 21
334.4725168045562
 31
0.0
  0
INSERT
  5
57D
330
2F4
100
AcDbEntity
  8
実形
 62
     0
370
    -2
100
AcDbBlockReference
  2
_Dot
 10
521.2187168271362
 20
373.9725168045562
 30
0.0
 41
2.5
 42
2.5
 43
2.5
 50
90.0
  0
INSERT
  5
57E
330
2F4
100
AcDbEntity
  8
実形
 62
     0
370
    -2
100
AcDbBlockReference
  2
_Dot
 10
521.2187168271362
 20
331.9725168045561
 30
0.0
 41
2.5
 42
2.5
 43
2.5
 50
270.0
  0
MTEXT
  5
57F
330
2F4
100
AcDbEntity
  8
実形
 62
     0
100
AcDbMText
 10
516.218716827136
 20
352.9725168045562
 30
0.0
 40
6.0
 41
0.0
 71
     5
 72
     1
  1
42
 11
0.0000000000000001
 21
1.0
 31
0.0
 73
     1
 44
1.0
1001
ACAD
1000
MTEXTBEGIN
1070
    73
1070
     1
1070
    44
1040
1.0
1070
    74
1070
     0
1000
MTEXTEND
  0
POINT
  5
580
330
2F4
100
AcDbEntity
  8
Defpoints
 62
     0
100
AcDbPoint
 10
492.5153503457598
 20
373.9725168045562
 30
0.0
  0
POINT
  5
581
330
2F4
100
AcDbEntity
  8
Defpoints
 62
     0
100
AcDbPoint
 10
492.5153503457598
 20
331.9725168045561
 30
0.0
  0
POINT
  5
582
330
2F4
100
AcDbEntity
  8
Defpoints
 62
     0
100
AcDbPoint
 10
521.2187168271362
 20
331.9725168045561
 30
0.0
  0
ENDBLK
  5
2FF
330
2F4
100
AcDbEntity
  8
0
100
AcDbBlockEnd
  0
BLOCK
  5
314
330
30A
100
AcDbEntity
  8
0
100
AcDbBlockBegin
  2
*D11
 70
     1
 10
0.0
 20
0.0
 30
0.0
  3
*D11
  1

  0
LINE
  5
583
330
30A
100
AcDbEntity
  8
実形
 62
     0
370
    -2
100
AcDbLine
 10
502.5153503457597
 20
331.9725168045561
 30
0.0
 11
522.4687168271363
 21
331.9725168045561
 31
0.0
  0
LINE
  5
584
330
30A
100
AcDbEntity
  8
実形
 62
     0
370
    -2
100
AcDbLine
 10
502.5153503457597
 20
171.9725168045561
 30
0.0
 11
522.4687168271361
 21
171.9725168045561
 31
0.0
  0
LINE
  5
585
330
30A
100
AcDbEntity
  8
実形
 62
     0
370
    -2
100
AcDbLine
 10
521.2187168271363
 20
329.4725168045562
 30
0.0
 11
521.2187168271362
 21
174.4725168045561
 31
0.0
  0
INSERT
  5
586
330
30A
100
AcDbEntity
  8
実形
 62
     0
370
    -2
100
AcDbBlockReference
  2
_Dot
 10
521.2187168271363
 20
331.9725168045561
 30
0.0
 41
2.5
 42
2.5
 43
2.5
 50
90.0
  0
INSERT
  5
587
330
30A
100
AcDbEntity
  8
実形
 62
     0
370
    -2
100
AcDbBlockReference
  2
_Dot
 10
521.2187168271362
 20
171.9725168045561
 30
0.0
 41
2.5
 42
2.5
 43
2.5
 50
270.0
  0
MTEXT
  5
588
330
30A
100
AcDbEntity
  8
実形
 62
     0
100
AcDbMText
 10
516.2187168271361
 20
251.9725168045562
 30
0.0
 40
6.0
 41
0.0
 71
     5
 72
     1
  1
40×4=160
 11
0.0000000000000001
 21
1.0
 31
0.0
 73
     1
 44
1.0
1001
ACAD
1000
MTEXTBEGIN
1070
    73
1070
     1
1070
    44
1040
1.0
1070
    74
1070
     0
1000
MTEXTEND
  0
POINT
  5
589
330
30A
100
AcDbEntity
  8
Defpoints
 62
     0
100
AcDbPoint
 10
492.5153503457598
 20
331.9725168045561
 30
0.0
  0
POINT
  5
58A
330
30A
100
AcDbEntity
  8
Defpoints
 62
     0
100
AcDbPoint
 10
492.5153503457598
 20
171.9725168045561
 30
0.0
  0
POINT
  5
58B
330
30A
100
AcDbEntity
  8
Defpoints
 62
     0
100
AcDbPoint
 10
521.2187168271362
 20
171.9725168045561
 30
0.0
  0
ENDBLK
  5
315
330
30A
100
AcDbEntity
  8
0
100
AcDbBlockEnd
  0
BLOCK
  5
321
330
317
100
AcDbEntity
  8
0
100
AcDbBlockBegin
  2
*D12
 70
     1
 10
0.0
 20
0.0
 30
0.0
  3
*D12
  1

  0
LINE
  5
58C
330
317
100
AcDbEntity
  8
実形
 62
     0
370
    -2
100
AcDbLine
 10
502.5153503457597
 20
171.9725168045561
 30
0.0
 11
522.4687168271361
 21
171.9725168045561
 31
0.0
  0
LINE
  5
58D
330
317
100
AcDbEntity
  8
実形
 62
     0
370
    -2
100
AcDbLine
 10
502.5153503457597
 20
123.9725168045561
 30
0.0
 11
522.4687168271361
 21
123.9725168045561
 31
0.0
  0
LINE
  5
58E
330
317
100
AcDbEntity
  8
実形
 62
     0
370
    -2
100
AcDbLine
 10
521.2187168271362
 20
169.4725168045561
 30
0.0
 11
521.2187168271362
 21
126.4725168045561
 31
0.0
  0
INSERT
  5
58F
330
317
100
AcDbEntity
  8
実形
 62
     0
370
    -2
100
AcDbBlockReference
  2
_Dot
 10
521.2187168271362
 20
171.9725168045561
 30
0.0
 41
2.5
 42
2.5
 43
2.5
 50
90.0
  0
INSERT
  5
590
330
317
100
AcDbEntity
  8
実形
 62
     0
370
    -2
100
AcDbBlockReference
  2
_Dot
 10
521.2187168271362
 20
123.9725168045561
 30
0.0
 41
2.5
 42
2.5
 43
2.5
 50
270.0
  0
MTEXT
  5
591
330
317
100
AcDbEntity
  8
実形
 62
     0
100
AcDbMText
 10
516.2187168271361
 20
147.9725168045562
 30
0.0
 40
6.0
 41
0.0
 71
     5
 72
     1
  1
48
 11
0.0000000000000001
 21
1.0
 31
0.0
 73
     1
 44
1.0
1001
ACAD
1000
MTEXTBEGIN
1070
    73
1070
     1
1070
    44
1040
1.0
1070
    74
1070
     0
1000
MTEXTEND
  0
POINT
  5
592
330
317
100
AcDbEntity
  8
Defpoints
 62
     0
100
AcDbPoint
 10
492.5153503457598
 20
171.9725168045561
 30
0.0
  0
POINT
  5
593
330
317
100
AcDbEntity
  8
Defpoints
 62
     0
100
AcDbPoint
 10
492.5153503457598
 20
123.9725168045561
 30
0.0
  0
POINT
  5
594
330
317
100
AcDbEntity
  8
Defpoints
 62
     0
100
AcDbPoint
 10
521.2187168271362
 20
123.9725168045561
 30
0.0
  0
ENDBLK
  5
322
330
317
100
AcDbEntity
  8
0
100
AcDbBlockEnd
  0
BLOCK
  5
337
330
32D
100
AcDbEntity
  8
0
100
AcDbBlockBegin
  2
*D13
 70
     1
 10
0.0
 20
0.0
 30
0.0
  3
*D13
  1

  0
LINE
  5
595
330
32D
100
AcDbEntity
  8
実形
 62
     0
370
    -2
100
AcDbLine
 10
502.5153503457596
 20
331.9725168045561
 30
0.0
 11
514.1305182064484
 21
331.9725168045561
 31
0.0
  0
LINE
  5
596
330
32D
100
AcDbEntity
  8
実形
 62
     0
370
    -2
100
AcDbLine
 10
502.5153503457597
 20
291.9725168045561
 30
0.0
 11
514.1305182064484
 21
291.9725168045561
 31
0.0
  0
LINE
  5
597
330
32D
100
AcDbEntity
  8
実形
 62
     0
370
    -2
100
AcDbLine
 10
512.8805182064484
 20
329.4725168045562
 30
0.0
 11
512.8805182064484
 21
294.4725168045561
 31
0.0
  0
INSERT
  5
598
330
32D
100
AcDbEntity
  8
実形
 62
     0
370
    -2
100
AcDbBlockReference
  2
_Dot
 10
512.8805182064484
 20
331.9725168045561
 30
0.0
 41
2.5
 42
2.5
 43
2.5
 50
90.0
  0
INSERT
  5
599
330
32D
100
AcDbEntity
  8
実形
 62
     0
370
    -2
100
AcDbBlockReference
  2
_Dot
 10
512.8805182064484
 20
291.9725168045561
 30
0.0
 41
2.5
 42
2.5
 43
2.5
 50
270.0
  0
MTEXT
  5
59A
330
32D
100
AcDbEntity
  8
実形
 62
     0
100
AcDbMText
 10
507.8805182064483
 20
311.9725168045562
 30
0.0
 40
6.0
 41
0.0
 71
     5
 72
     1
  1
40
 11
0.0000000000000001
 21
1.0
 31
0.0
 73
     1
 44
1.0
1001
ACAD
1000
MTEXTBEGIN
1070
    73
1070
     1
1070
    44
1040
1.0
1070
    74
1070
     0
1000
MTEXTEND
  0
POINT
  5
59B
330
32D
100
AcDbEntity
  8
Defpoints
 62
     0
100
AcDbPoint
 10
492.5153503457597
 20
331.9725168045561
 30
0.0
  0
POINT
  5
59C
330
32D
100
AcDbEntity
  8
Defpoints
 62
     0
100
AcDbPoint
 10
492.5153503457598
 20
291.9725168045561
 30
0.0
  0
POINT
  5
59D
330
32D
100
AcDbEntity
  8
Defpoints
 62
     0
100
AcDbPoint
 10
512.8805182064484
 20
291.9725168045561
 30
0.0
  0
ENDBLK
  5
338
330
32D
100
AcDbEntity
  8
0
100
AcDbBlockEnd
  0
BLOCK
  5
3AE
330
3A7
100
AcDbEntity
  8
0
100
AcDbBlockBegin
  2
*D14
 70
     1
 10
0.0
 20
0.0
 30
0.0
  3
*D14
  1

  0
LINE
  5
59E
330
3A7
100
AcDbEntity
  8
実形
 62
     0
370
    -2
100
AcDbLine
 10
81.9082491083688
 20
351.2894719074815
 30
0.0
 11
69.90824910836876
 21
351.2894719074815
 31
0.0
  0
LINE
  5
59F
330
3A7
100
AcDbEntity
  8
実形
 62
     0
370
    -2
100
AcDbLine
 10
69.90824910836876
 20
351.2894719074815
 30
0.0
 11
49.7180891392573
 21
366.5761512706084
 31
0.0
  0
MTEXT
  5
5A0
330
3A7
100
AcDbEntity
  8
実形
 62
     0
100
AcDbMText
 10
76.90824910836877
 20
356.2894719074815
 30
0.0
 40
6.0
 41
0.0
 71
     5
 72
     1
  1
R8
 73
     1
 44
1.0
1001
ACAD
1000
MTEXTBEGIN
1070
    73
1070
     1
1070
    44
1040
1.0
1070
    74
1070
     0
1000
MTEXTEND
  0
INSERT
  5
5A1
330
3A7
100
AcDbEntity
  8
実形
 62
     0
370
    -2
100
AcDbBlockReference
  2
_Open30
 10
44.13726069373973
 20
370.801592532974
 30
0.0
 41
7.0
 42
7.0
 43
7.0
 50
142.8693570166555
  0
POINT
  5
5A2
330
3A7
100
AcDbEntity
  8
Defpoints
 62
     0
100
AcDbPoint
 10
44.13726069373973
 20
370.801592532974
 30
0.0
  0
POINT
  5
5A3
330
3A7
100
AcDbEntity
  8
Defpoints
 62
     0
100
AcDbPoint
 10
50.5153503457598
 20
365.9725168045562
 30
0.0
  0
ENDBLK
  5
3AF
330
3A7
100
AcDbEntity
  8
0
100
AcDbBlockEnd
  0
BLOCK
  5
444
330
43D
100
AcDbEntity
  8
0
100
AcDbBlockBegin
  2
*D15
 70
     1
 10
0.0
 20
0.0
 30
0.0
  3
*D15
  1

  0
LINE
  5
5A4
330
43D
100
AcDbEntity
  8
実形
 62
     0
370
    -2
100
AcDbLine
 10
122.8641413183271
 20
182.1252439575269
 30
0.0
 11
103.8641413183271
 21
182.1252439575269
 31
0.0
  0
LINE
  5
5A5
330
43D
100
AcDbEntity
  8
実形
 62
     0
370
    -2
100
AcDbLine
 10
103.8641413183271
 20
182.1252439575269
 30
0.0
 11
82.03519504151227
 21
158.8622797639958
 31
0.0
  0
MTEXT
  5
5A6
330
43D
100
AcDbEntity
  8
実形
 62
     0
100
AcDbMText
 10
114.3641413183271
 20
187.1252439575269
 30
0.0
 40
6.0
 41
0.0
 71
     5
 72
     1
  1
R110
 73
     1
 44
1.0
1001
ACAD
1000
MTEXTBEGIN
1070
    73
1070
     1
1070
    44
1040
1.0
1070
    74
1070
     0
1000
MTEXTEND
  0
INSERT
  5
5A7
330
43D
100
AcDbEntity
  8
実形
 62
     0
370
    -2
100
AcDbBlockReference
  2
_Open30
 10
77.2452815742333
 20
153.757700547647
 30
0.0
 41
7.0
 42
7.0
 43
7.0
 50
226.8215127963011
  0
POINT
  5
5A8
330
43D
100
AcDbEntity
  8
Defpoints
 62
     0
100
AcDbPoint
 10
77.2452815742333
 20
153.757700547647
 30
0.0
  0
POINT
  5
5A9
330
43D
100
AcDbEntity
  8
Defpoints
 62
     0
100
AcDbPoint
 10
152.5153503457597
 20
233.9725168045561
 30
0.0
  0
ENDBLK
  5
445
330
43D
100
AcDbEntity
  8
0
100
AcDbBlockEnd
  0
BLOCK
  5
476
330
459
100
AcDbEntity
  8
0
100
AcDbBlockBegin
  2
A$C46266766
 70
     0
 10
0.0
 20
0.0
 30
0.0
  3
A$C46266766
  1

  0
LINE
  5
45A
330
459
100
AcDbEntity
  8
0
100
AcDbLine
 10
0.0000035075399865
 20
129.9999991862328
 30
0.0
 11
720.0000035075399
 21
129.9999991862328
 31
0.0
  0
LINE
  5
45B
330
459
100
AcDbEntity
  8
0
100
AcDbLine
 10
0.0000035075399865
 20
194.9999991862328
 30
0.0
 11
720.0000035075399
 21
194.9999991862328
 31
0.0
  0
LINE
  5
45C
330
459
100
AcDbEntity
  8
0
100
AcDbLine
 10
0.0000035075399865
 20
64.9999991862328
 30
0.0
 11
720.0000035075399
 21
64.9999991862328
 31
0.0
  0
TEXT
  5
45D
330
459
100
AcDbEntity
  8
実形
100
AcDbText
 10
22.66667017420665
 20
144.9999991862328
 30
0.0
 40
35.0
  1
品番
 72
     4
 11
60.00000350753999
 21
162.4999991862328
 31
0.0
100
AcDbText
  0
TEXT
  5
45E
330
459
100
AcDbEntity
  8
実形
100
AcDbText
 10
22.66667017420664
 20
79.9999991862328
 30
0.0
 40
35.0
  1
尺度
 72
     4
 11
60.00000350753999
 21
97.49999918623281
 31
0.0
100
AcDbText
  0
LINE
  5
45F
330
459
100
AcDbEntity
  8
0
100
AcDbLine
 10
0.0000035075399865
 20
-0.0000008137672012
 30
0.0
 11
0.0000035075399865
 21
194.9999991862328
 31
0.0
  0
TEXT
  5
460
330
459
100
AcDbEntity
  8
0
100
AcDbText
 10
233.3333368408733
 20
144.9999991862328
 30
0.0
 40
35.0
  1
YME366-366S
 72
     4
 11
420.0000035075399
 21
162.4999991862328
 31
0.0
100
AcDbText
  0
LINE
  5
461
330
459
100
AcDbEntity
  8
0
100
AcDbLine
 10
120.00000350754
 20
64.9999991862328
 30
0.0
 11
720.0000035075399
 21
64.9999991862328
 31
0.0
  0
TEXT
  5
462
330
459
100
AcDbEntity
  8
0
100
AcDbText
 10
236.2557781728874
 20
12.49999918623279
 30
0.0
 40
40.0
  1
中外交易株式会社
 72
     4
 11
424.2557781728874
 21
32.4999991862328
 31
0.0
100
AcDbText
  0
LINE
  5
463
330
459
100
AcDbEntity
  8
0
100
AcDbLine
 10
120.00000350754
 20
64.9999991862328
 30
0.0
 11
120.00000350754
 21
194.9999991862328
 31
0.0
  0
HATCH
  5
464
330
459
100
AcDbEntity
  8
実形
100
AcDbHatch
 10
0.0
 20
0.0
 30
0.0
210
0.0
220
0.0
230
1.0
  2
SOLID
 70
     1
 71
     1
 91
        3
 92
        1
 93
        4
 72
     2
 10
193.1662018215352
 20
32.4999991862328
 40
20.0
 50
11.64772366707613
 51
342.6561058784706
 73
     1
 72
     1
 10
212.2568558488633
 20
26.53787466481799
 11
188.1662018215352
 21
26.53787466481799
 72
     1
 10
188.1662018215352
 20
26.53787466481799
 11
188.1662018215352
 21
36.53787466481799
 72
     1
 10
188.1662018215352
 20
36.53787466481799
 11
212.7543503205497
 21
36.53787466481799
 97
        4
330
465
330
467
330
468
330
469
 92
        1
 93
        4
 72
     2
 10
124.2557781728874
 20
32.4999991862328
 40
20.0
 50
11.64772366707613
 51
342.6561058784706
 73
     1
 72
     1
 10
143.3464322002155
 20
26.53787466481799
 11
119.2557781728874
 21
26.53787466481799
 72
     1
 10
119.2557781728874
 20
26.53787466481799
 11
119.2557781728874
 21
36.53787466481799
 72
     1
 10
119.2557781728874
 20
36.53787466481799
 11
143.8439266719019
 21
36.53787466481799
 97
        4
330
466
330
46F
330
470
330
471
 92
        1
 93
        5
 72
     1
 10
181.6418975504793
 20
52.4999991862328
 11
146.6418975504794
 21
52.4999991862328
 72
     1
 10
146.6418975504794
 20
52.4999991862328
 11
146.6418975504794
 21
12.4999991862328
 72
     1
 10
146.6418975504794
 20
12.4999991862328
 11
181.6418975504793
 21
12.4999991862328
 72
     1
 10
181.6418975504793
 20
12.4999991862328
 11
146.6418975504794
 21
32.4999991862328
 72
     1
 10
146.6418975504794
 20
32.4999991862328
 11
181.6418975504793
 21
52.4999991862328
 97
        5
330
46A
330
46E
330
46D
330
46C
330
46B
 75
     0
 76
     1
 98
        1
 10
-2123.99999649246
 20
-4.000000813767201
  0
ARC
  5
465
102
{ACAD_REACTORS
330
464
102
}
330
459
100
AcDbEntity
  8
実形
370
     5
100
AcDbCircle
 10
193.1662018215352
 20
32.4999991862328
 30
0.0
 40
20.0
100
AcDbArc
 50
11.6477236670758
 51
342.6561058784732
  0
ARC
  5
466
102
{ACAD_REACTORS
330
464
102
}
330
459
100
AcDbEntity
  8
実形
370
     5
100
AcDbCircle
 10
124.2557781728874
 20
32.4999991862328
 30
0.0
 40
20.0
100
AcDbArc
 50
11.6477236670758
 51
342.6561058784732
  0
LINE
  5
467
102
{ACAD_REACTORS
330
464
102
}
330
459
100
AcDbEntity
  8
実形
370
     5
100
AcDbLine
 10
188.1662018215352
 20
26.53787466481799
 30
0.0
 11
212.2568558488633
 21
26.53787466481799
 31
0.0
  0
LINE
  5
468
102
{ACAD_REACTORS
330
464
102
}
330
459
100
AcDbEntity
  8
実形
370
     5
100
AcDbLine
 10
188.1662018215352
 20
36.53787466481799
 30
0.0
 11
188.1662018215352
 21
26.53787466481799
 31
0.0
  0
LINE
  5
469
102
{ACAD_REACTORS
330
464
102
}
330
459
100
AcDbEntity
  8
実形
370
     5
100
AcDbLine
 10
212.7543503205497
 20
36.53787466481799
 30
0.0
 11
188.1662018215352
 21
36.53787466481799
 31
0.0
  0
LINE
  5
46A
102
{ACAD_REACTORS
330
464
102
}
330
459
100
AcDbEntity
  8
実形
370
     5
100
AcDbLine
 10
181.6418975504793
 20
52.4999991862328
 30
0.0
 11
146.6418975504794
 21
52.4999991862328
 31
0.0
  0
LINE
  5
46B
102
{ACAD_REACTORS
330
464
102
}
330
459
100
AcDbEntity
  8
実形
370
     5
100
AcDbLine
 10
146.6418975504794
 20
32.4999991862328
 30
0.0
 11
181.6418975504793
 21
52.4999991862328
 31
0.0
  0
LINE
  5
46C
102
{ACAD_REACTORS
330
464
102
}
330
459
100
AcDbEntity
  8
実形
370
     5
100
AcDbLine
 10
181.6418975504793
 20
12.4999991862328
 30
0.0
 11
146.6418975504794
 21
32.4999991862328
 31
0.0
  0
LINE
  5
46D
102
{ACAD_REACTORS
330
464
102
}
330
459
100
AcDbEntity
  8
実形
370
     5
100
AcDbLine
 10
146.6418975504794
 20
12.4999991862328
 30
0.0
 11
181.6418975504793
 21
12.4999991862328
 31
0.0
  0
LINE
  5
46E
102
{ACAD_REACTORS
330
464
102
}
330
459
100
AcDbEntity
  8
実形
370
     5
100
AcDbLine
 10
146.6418975504794
 20
52.4999991862328
 30
0.0
 11
146.6418975504794
 21
12.4999991862328
 31
0.0
  0
LINE
  5
46F
102
{ACAD_REACTORS
330
464
102
}
330
459
100
AcDbEntity
  8
実形
370
     5
100
AcDbLine
 10
119.2557781728874
 20
26.53787466481799
 30
0.0
 11
143.3464322002155
 21
26.53787466481799
 31
0.0
  0
LINE
  5
470
102
{ACAD_REACTORS
330
464
102
}
330
459
100
AcDbEntity
  8
実形
370
     5
100
AcDbLine
 10
119.2557781728874
 20
36.53787466481799
 30
0.0
 11
119.2557781728874
 21
26.53787466481799
 31
0.0
  0
LINE
  5
471
102
{ACAD_REACTORS
330
464
102
}
330
459
100
AcDbEntity
  8
実形
370
     5
100
AcDbLine
 10
143.8439266719019
 20
36.53787466481799
 30
0.0
 11
119.2557781728874
 21
36.53787466481799
 31
0.0
  0
TEXT
  5
472
330
459
100
AcDbEntity
  8
0
100
AcDbText
 10
366.9166701742067
 20
79.9999991862328
 30
0.0
 40
35.0
  1
1：10
 72
     4
 11
420.0000035075399
 21
97.49999918623281
 31
0.0
100
AcDbText
  0
LINE
  5
473
330
459
100
AcDbEntity
  8
0
100
AcDbLine
 10
720.0000035075399
 20
-0.0000008137672012
 30
0.0
 11
720.0000035075399
 21
64.9999991862328
 31
0.0
  0
LINE
  5
474
330
459
100
AcDbEntity
  8
0
100
AcDbLine
 10
720.0000035075399
 20
129.9999991862328
 30
0.0
 11
720.0000035075399
 21
194.9999991862328
 31
0.0
  0
LINE
  5
475
330
459
100
AcDbEntity
  8
Cen
100
AcDbLine
 10
720.0000035075399
 20
64.9999991862328
 30
0.0
 11
720.0000035075399
 21
129.9999991862328
 31
0.0
  0
ENDBLK
  5
477
330
459
100
AcDbEntity
  8
0
100
AcDbBlockEnd
  0
ENDSEC
  0
SECTION
  2
ENTITIES
  0
LINE
  5
2E
330
1F
100
AcDbEntity
  8
枠
100
AcDbLine
 10
23.54451067602031
 20
0.0
 30
0.0
 11
554.0
 21
0.0
 31
0.0
  0
LINE
  5
2F
330
1F
100
AcDbEntity
  8
枠
100
AcDbLine
 10
554.0
 20
0.0
 30
0.0
 11
554.0
 21
404.0
 31
0.0
  0
LINE
  5
4B
330
1F
100
AcDbEntity
  8
枠
100
AcDbLine
 10
554.0
 20
404.0
 30
0.0
 11
23.54451067602031
 21
404.0
 31
0.0
  0
LINE
  5
4D
330
1F
100
AcDbEntity
  8
枠
100
AcDbLine
 10
434.0
 20
0.0
 30
0.0
 11
434.0
 21
39.0
 31
0.0
  0
LINE
  5
4E
330
1F
100
AcDbEntity
  8
枠
100
AcDbLine
 10
434.0
 20
13.0
 30
0.0
 11
554.0
 21
13.0
 31
0.0
  0
LINE
  5
4F
330
1F
100
AcDbEntity
  8
枠
100
AcDbLine
 10
434.0
 20
26.0
 30
0.0
 11
554.0
 21
26.0
 31
0.0
  0
LINE
  5
50
330
1F
100
AcDbEntity
  8
枠
100
AcDbLine
 10
434.0
 20
39.0
 30
0.0
 11
554.0
 21
39.0
 31
0.0
  0
HATCH
  5
D0
330
1F
100
AcDbEntity
  8
枠
100
AcDbHatch
 10
0.0
 20
0.0
 30
0.0
210
0.0
220
0.0
230
1.0
  2
SOLID
 70
     1
 71
     1
 91
        3
 92
        1
 93
        4
 72
     2
 10
460.6332396627985
 20
6.5
 40
4.0
 50
11.647723667075
 51
342.6561058784685
 73
     1
 72
     1
 10
464.4513704682649
 20
5.307575095717027
 11
459.6332396627985
 21
5.307575095717027
 72
     1
 10
459.6332396627985
 20
5.307575095717027
 11
459.6332396627985
 21
7.307575095717027
 72
     1
 10
459.6332396627985
 20
7.307575095717027
 11
464.5508693626015
 21
7.307575095717027
 97
        4
330
D1
330
D3
330
D4
330
D5
 92
        1
 93
        4
 72
     2
 10
446.8511549330696
 20
6.5
 40
4.0
 50
11.647723667075
 51
342.6561058784685
 73
     1
 72
     1
 10
450.6692857385351
 20
5.307575095717027
 11
445.8511549330697
 21
5.307575095717027
 72
     1
 10
445.8511549330697
 20
5.307575095717027
 11
445.8511549330697
 21
7.307575095717027
 72
     1
 10
445.8511549330697
 20
7.307575095717027
 11
450.7687846328726
 21
7.307575095717027
 97
        4
330
D2
330
DB
330
DC
330
DD
 92
        1
 93
        5
 72
     1
 10
458.3283788085882
 20
10.5
 11
451.3283788085882
 21
10.5
 72
     1
 10
451.3283788085882
 20
10.5
 11
451.3283788085882
 21
2.5
 72
     1
 10
451.3283788085882
 20
2.5
 11
458.3283788085882
 21
2.5
 72
     1
 10
458.3283788085882
 20
2.5
 11
451.3283788085882
 21
6.5
 72
     1
 10
451.3283788085882
 20
6.5
 11
458.3283788085882
 21
10.5
 97
        5
330
D6
330
DA
330
D9
330
D8
330
D7
 75
     0
 76
     1
 98
        1
 10
-2.799999999999727
 20
-0.8000000000000113
  0
ARC
  5
D1
102
{ACAD_REACTORS
330
D0
102
}
330
1F
100
AcDbEntity
  8
枠
370
     5
100
AcDbCircle
 10
460.6332396627985
 20
6.5
 30
0.0
 40
4.0
100
AcDbArc
 50
11.647723667075
 51
342.6561058784685
  0
ARC
  5
D2
102
{ACAD_REACTORS
330
D0
102
}
330
1F
100
AcDbEntity
  8
枠
370
     5
100
AcDbCircle
 10
446.8511549330696
 20
6.5
 30
0.0
 40
4.0
100
AcDbArc
 50
11.647723667075
 51
342.6561058784685
  0
LINE
  5
D3
102
{ACAD_REACTORS
330
D0
102
}
330
1F
100
AcDbEntity
  8
枠
370
     5
100
AcDbLine
 10
459.6332396627985
 20
5.307575095717027
 30
0.0
 11
464.4513704682649
 21
5.307575095717027
 31
0.0
  0
LINE
  5
D4
102
{ACAD_REACTORS
330
D0
102
}
330
1F
100
AcDbEntity
  8
枠
370
     5
100
AcDbLine
 10
459.6332396627985
 20
7.307575095717027
 30
0.0
 11
459.6332396627985
 21
5.307575095717027
 31
0.0
  0
LINE
  5
D5
102
{ACAD_REACTORS
330
D0
102
}
330
1F
100
AcDbEntity
  8
枠
370
     5
100
AcDbLine
 10
464.5508693626015
 20
7.307575095717027
 30
0.0
 11
459.6332396627985
 21
7.307575095717027
 31
0.0
  0
LINE
  5
D6
102
{ACAD_REACTORS
330
D0
102
}
330
1F
100
AcDbEntity
  8
枠
370
     5
100
AcDbLine
 10
458.3283788085882
 20
10.5
 30
0.0
 11
451.3283788085882
 21
10.5
 31
0.0
  0
LINE
  5
D7
102
{ACAD_REACTORS
330
D0
102
}
330
1F
100
AcDbEntity
  8
枠
370
     5
100
AcDbLine
 10
451.3283788085882
 20
6.5
 30
0.0
 11
458.3283788085882
 21
10.5
 31
0.0
  0
LINE
  5
D8
102
{ACAD_REACTORS
330
D0
102
}
330
1F
100
AcDbEntity
  8
枠
370
     5
100
AcDbLine
 10
458.3283788085882
 20
2.5
 30
0.0
 11
451.3283788085882
 21
6.5
 31
0.0
  0
LINE
  5
D9
102
{ACAD_REACTORS
330
D0
102
}
330
1F
100
AcDbEntity
  8
枠
370
     5
100
AcDbLine
 10
451.3283788085882
 20
2.5
 30
0.0
 11
458.3283788085882
 21
2.5
 31
0.0
  0
LINE
  5
DA
102
{ACAD_REACTORS
330
D0
102
}
330
1F
100
AcDbEntity
  8
枠
370
     5
100
AcDbLine
 10
451.3283788085882
 20
10.5
 30
0.0
 11
451.3283788085882
 21
2.5
 31
0.0
  0
LINE
  5
DB
102
{ACAD_REACTORS
330
D0
102
}
330
1F
100
AcDbEntity
  8
枠
370
     5
100
AcDbLine
 10
445.8511549330697
 20
5.307575095717027
 30
0.0
 11
450.6692857385351
 21
5.307575095717027
 31
0.0
  0
LINE
  5
DC
102
{ACAD_REACTORS
330
D0
102
}
330
1F
100
AcDbEntity
  8
枠
370
     5
100
AcDbLine
 10
445.8511549330697
 20
7.307575095717027
 30
0.0
 11
445.8511549330697
 21
5.307575095717027
 31
0.0
  0
LINE
  5
DD
102
{ACAD_REACTORS
330
D0
102
}
330
1F
100
AcDbEntity
  8
枠
370
     5
100
AcDbLine
 10
450.7687846328726
 20
7.307575095717027
 30
0.0
 11
445.8511549330697
 21
7.307575095717027
 31
0.0
  0
TEXT
  5
DE
330
1F
100
AcDbEntity
  8
枠
100
AcDbText
 10
469.2511549330696
 20
2.5
 30
0.0
 40
8.0
  1
中外交易株式会社
 72
     4
 11
506.8511549330696
 21
6.5
 31
0.0
100
AcDbText
  0
LINE
  5
DF
330
1F
100
AcDbEntity
  8
枠
100
AcDbLine
 10
434.0
 20
39.0
 30
0.0
 11
554.0
 21
39.0
 31
0.0
  0
TEXT
  5
ED
330
1F
100
AcDbEntity
  8
0
100
AcDbText
 10
468.1666666666666
 20
42.25
 30
0.0
 40
6.5
  1
PRS250-450AK
 72
     4
 11
505.0
 21
45.49999999999999
 31
0.0
100
AcDbText
  0
TEXT
  5
EE
330
1F
100
AcDbEntity
  8
0
100
AcDbText
 10
451.2083333333333
 20
16.25
 30
0.0
 40
6.5
  1
H=105　GRMシンク用
 72
     4
 11
494.0
 21
19.5
 31
0.0
100
AcDbText
  0
LINE
  5
102
330
1F
100
AcDbEntity
  8
実形
100
AcDbLine
 10
42.51535034575977
 20
365.9725168045561
 30
0.0
 11
42.51535034575977
 21
233.9725168045561
 31
0.0
  0
LINE
  5
103
330
1F
100
AcDbEntity
  8
実形
100
AcDbLine
 10
152.5153503457597
 20
123.9725168045561
 30
0.0
 11
382.5153503457597
 21
123.9725168045561
 31
0.0
  0
LINE
  5
104
330
1F
100
AcDbEntity
  8
実形
100
AcDbLine
 10
492.5153503457598
 20
233.9725168045561
 30
0.0
 11
492.5153503457597
 21
365.9725168045562
 31
0.0
  0
LINE
  5
105
330
1F
100
AcDbEntity
  8
実形
100
AcDbLine
 10
484.5153503457597
 20
373.9725168045562
 30
0.0
 11
50.51535034575977
 21
373.9725168045561
 31
0.0
  0
ARC
  5
106
330
1F
100
AcDbEntity
  8
実形
100
AcDbCircle
 10
50.51535034575977
 20
365.9725168045561
 30
0.0
 40
8.0
100
AcDbArc
 50
90.0
 51
180.0
  0
ARC
  5
107
330
1F
100
AcDbEntity
  8
実形
100
AcDbCircle
 10
484.5153503457597
 20
365.9725168045562
 30
0.0
 40
8.0
100
AcDbArc
 50
0.0
 51
90.0
  0
ARC
  5
108
330
1F
100
AcDbEntity
  8
実形
100
AcDbCircle
 10
152.5153503457597
 20
233.9725168045561
 30
0.0
 40
110.0
100
AcDbArc
 50
180.0
 51
270.0
  0
ARC
  5
109
330
1F
100
AcDbEntity
  8
実形
100
AcDbCircle
 10
382.5153503457597
 20
233.9725168045561
 30
0.0
 40
110.0
100
AcDbArc
 50
270.0
 51
0.0000000000000127
  0
LINE
  5
10A
330
1F
100
AcDbEntity
  8
実形
100
AcDbLine
 10
484.5153503457597
 20
369.9725168045562
 30
0.0
 11
50.51535034575977
 21
369.9725168045561
 31
0.0
  0
ARC
  5
10B
330
1F
100
AcDbEntity
  8
実形
100
AcDbCircle
 10
484.5153503457597
 20
365.9725168045562
 30
0.0
 40
4.0
100
AcDbArc
 50
0.0
 51
90.0
  0
LINE
  5
10C
330
1F
100
AcDbEntity
  8
実形
100
AcDbLine
 10
488.5153503457598
 20
233.9725168045561
 30
0.0
 11
488.5153503457597
 21
250.7225168045561
 31
0.0
  0
ARC
  5
10E
330
1F
100
AcDbEntity
  8
実形
100
AcDbCircle
 10
382.5153503457597
 20
233.9725168045561
 30
0.0
 40
106.0
100
AcDbArc
 50
270.0
 51
300.626133606193
  0
LINE
  5
10F
330
1F
100
AcDbEntity
  8
実形
100
AcDbLine
 10
152.5153503457597
 20
127.9725168045561
 30
0.0
 11
382.5153503457597
 21
127.9725168045561
 31
0.0
  0
ARC
  5
110
330
1F
100
AcDbEntity
  8
実形
100
AcDbCircle
 10
152.5153503457597
 20
233.9725168045561
 30
0.0
 40
106.0
100
AcDbArc
 50
180.0
 51
191.2888154228278
  0
LINE
  5
111
330
1F
100
AcDbEntity
  8
実形
100
AcDbLine
 10
46.51535034575977
 20
365.9725168045561
 30
0.0
 11
46.51535034575977
 21
333.9725168045561
 31
0.0
  0
ARC
  5
112
330
1F
100
AcDbEntity
  8
実形
100
AcDbCircle
 10
50.51535034575977
 20
365.9725168045561
 30
0.0
 40
4.0
100
AcDbArc
 50
90.0
 51
180.0
  0
ELLIPSE
  5
11E
330
1F
100
AcDbEntity
  8
実形
100
AcDbEllipse
 10
43.51535034575976
 20
331.9725168045561
 30
0.0
 11
0.0
 21
-2.0
 31
0.0
210
0.0
220
0.0
230
1.0
 40
0.5
 41
0.0
 42
6.283185307179586
  0
ELLIPSE
  5
120
330
1F
100
AcDbEntity
  8
実形
100
AcDbEllipse
 10
96.51535034575978
 20
141.1321502671179
 30
0.0
 11
2.0
 21
-0.0000000000000004
 31
0.0
210
0.0
220
0.0
230
1.0
 40
0.5
 41
0.0
 42
6.283185307179586
  0
ELLIPSE
  5
122
330
1F
100
AcDbEntity
  8
実形
100
AcDbEllipse
 10
491.5153503457597
 20
331.9725168045561
 30
0.0
 11
0.0
 21
-2.0
 31
0.0
210
0.0
220
0.0
230
1.0
 40
0.5
 41
0.0
 42
6.283185307179586
  0
ELLIPSE
  5
124
330
1F
100
AcDbEntity
  8
実形
100
AcDbEllipse
 10
63.87866378208787
 20
171.9725168045561
 30
0.0
 11
0.0
 21
-2.0
 31
0.0
210
0.0
220
0.0
230
1.0
 40
0.5
 41
0.0
 42
6.283185307179586
  0
ELLIPSE
  5
125
330
1F
100
AcDbEntity
  8
実形
100
AcDbEllipse
 10
471.1034485683501
 20
171.9725168045561
 30
0.0
 11
0.0
 21
-2.0
 31
0.0
210
0.0
220
0.0
230
1.0
 40
0.5
 41
0.0
 42
6.283185307179586
  0
ELLIPSE
  5
126
330
1F
100
AcDbEntity
  8
実形
100
AcDbEllipse
 10
438.5153503457598
 20
141.1674951418935
 30
0.0
 11
2.0
 21
-0.0000000000000004
 31
0.0
210
0.0
220
0.0
230
1.0
 40
0.5
 41
0.0
 42
6.283185307179586
  0
CIRCLE
  5
127
330
1F
100
AcDbEntity
  8
実形
100
AcDbCircle
 10
96.51535034575978
 20
367.9725168045561
 30
0.0
 40
2.0
  0
CIRCLE
  5
128
330
1F
100
AcDbEntity
  8
実形
100
AcDbCircle
 10
438.5153503457598
 20
367.9725168045561
 30
0.0
 40
2.0
  0
LINE
  5
129
330
1F
100
AcDbEntity
  8
実形
100
AcDbLine
 10
98.51535034575977
 20
367.9725168045561
 30
0.0
 11
98.51535034575977
 21
141.1321502671179
 31
0.0
  0
LINE
  5
12A
330
1F
100
AcDbEntity
  8
実形
100
AcDbLine
 10
94.51535034575977
 20
367.9725168045561
 30
0.0
 11
94.51535034575977
 21
141.1321502671179
 31
0.0
  0
LINE
  5
12C
330
1F
100
AcDbEntity
  8
実形
100
AcDbLine
 10
440.5153503457597
 20
367.9725168045561
 30
0.0
 11
440.5153503457597
 21
141.1674951418935
 31
0.0
  0
LINE
  5
12D
330
1F
100
AcDbEntity
  8
実形
100
AcDbLine
 10
436.5153503457597
 20
367.9725168045561
 30
0.0
 11
436.5153503457597
 21
141.1674951418935
 31
0.0
  0
LINE
  5
12E
330
1F
100
AcDbEntity
  8
実形
100
AcDbLine
 10
43.51535034575976
 20
333.9725168045561
 30
0.0
 11
94.51535034575977
 21
333.9725168045561
 31
0.0
  0
LINE
  5
12F
330
1F
100
AcDbEntity
  8
実形
100
AcDbLine
 10
491.5153503457597
 20
329.9725168045562
 30
0.0
 11
440.5153503457597
 21
329.9725168045562
 31
0.0
  0
LINE
  5
130
330
1F
100
AcDbEntity
  8
実形
100
AcDbLine
 10
63.87866378208787
 20
173.9725168045561
 30
0.0
 11
94.51535034575977
 21
173.9725168045561
 31
0.0
  0
LINE
  5
131
330
1F
100
AcDbEntity
  8
実形
100
AcDbLine
 10
471.1034485683501
 20
169.9725168045561
 30
0.0
 11
440.5153503457598
 21
169.9725168045561
 31
0.0
  0
CIRCLE
  5
132
330
1F
100
AcDbEntity
  8
実形
100
AcDbCircle
 10
134.5153503457597
 20
368.7225168045561
 30
0.0
 40
1.25
  0
CIRCLE
  5
133
330
1F
100
AcDbEntity
  8
実形
100
AcDbCircle
 10
134.5153503457597
 20
130.7619979469513
 30
0.0
 40
1.25
  0
CIRCLE
  5
134
330
1F
100
AcDbEntity
  8
実形
100
AcDbCircle
 10
172.5153503457597
 20
368.7225168045561
 30
0.0
 40
1.25
  0
CIRCLE
  5
135
330
1F
100
AcDbEntity
  8
実形
100
AcDbCircle
 10
210.5153503457598
 20
368.7225168045561
 30
0.0
 40
1.25
  0
CIRCLE
  5
136
330
1F
100
AcDbEntity
  8
実形
100
AcDbCircle
 10
248.5153503457598
 20
368.7225168045561
 30
0.0
 40
1.25
  0
CIRCLE
  5
137
330
1F
100
AcDbEntity
  8
実形
100
AcDbCircle
 10
286.5153503457598
 20
368.7225168045561
 30
0.0
 40
1.25
  0
CIRCLE
  5
138
330
1F
100
AcDbEntity
  8
実形
100
AcDbCircle
 10
324.5153503457598
 20
368.7225168045561
 30
0.0
 40
1.25
  0
CIRCLE
  5
139
330
1F
100
AcDbEntity
  8
実形
100
AcDbCircle
 10
362.5153503457598
 20
368.7225168045561
 30
0.0
 40
1.25
  0
CIRCLE
  5
13A
330
1F
100
AcDbEntity
  8
実形
100
AcDbCircle
 10
400.5153503457597
 20
368.7225168045561
 30
0.0
 40
1.25
  0
CIRCLE
  5
13B
330
1F
100
AcDbEntity
  8
実形
100
AcDbCircle
 10
400.5153503457597
 20
130.7619979469513
 30
0.0
 40
1.25
  0
CIRCLE
  5
13C
330
1F
100
AcDbEntity
  8
実形
100
AcDbCircle
 10
362.5153503457598
 20
129.2225168045561
 30
0.0
 40
1.25
  0
CIRCLE
  5
13D
330
1F
100
AcDbEntity
  8
実形
100
AcDbCircle
 10
172.5153503457596
 20
129.2225168045561
 30
0.0
 40
1.25
  0
CIRCLE
  5
13E
330
1F
100
AcDbEntity
  8
実形
100
AcDbCircle
 10
210.5153503457596
 20
129.2225168045561
 30
0.0
 40
1.25
  0
CIRCLE
  5
13F
330
1F
100
AcDbEntity
  8
実形
100
AcDbCircle
 10
248.5153503457596
 20
129.2225168045561
 30
0.0
 40
1.25
  0
CIRCLE
  5
140
330
1F
100
AcDbEntity
  8
実形
100
AcDbCircle
 10
286.5153503457597
 20
129.2225168045561
 30
0.0
 40
1.25
  0
CIRCLE
  5
141
330
1F
100
AcDbEntity
  8
実形
100
AcDbCircle
 10
324.5153503457597
 20
129.2225168045561
 30
0.0
 40
1.25
  0
LINE
  5
143
330
1F
100
AcDbEntity
  8
実形
100
AcDbLine
 10
135.7653503457598
 20
368.7225168045561
 30
0.0
 11
135.7653503457598
 21
130.7619979469513
 31
0.0
  0
LINE
  5
144
330
1F
100
AcDbEntity
  8
実形
100
AcDbLine
 10
133.2653503457597
 20
368.7225168045561
 30
0.0
 11
133.2653503457597
 21
130.7619979469513
 31
0.0
  0
LINE
  5
145
330
1F
100
AcDbEntity
  8
実形
100
AcDbLine
 10
401.7653503457597
 20
368.7225168045561
 30
0.0
 11
401.7653503457597
 21
130.7619979469513
 31
0.0
  0
LINE
  5
146
330
1F
100
AcDbEntity
  8
実形
100
AcDbLine
 10
399.2653503457598
 20
368.7225168045561
 30
0.0
 11
399.2653503457598
 21
130.7619979469513
 31
0.0
  0
LINE
  5
147
330
1F
100
AcDbEntity
  8
実形
100
AcDbLine
 10
173.7653503457597
 20
368.7225168045561
 30
0.0
 11
173.7653503457597
 21
129.2225168045561
 31
0.0
  0
LINE
  5
148
330
1F
100
AcDbEntity
  8
実形
100
AcDbLine
 10
171.2653503457597
 20
368.7225168045561
 30
0.0
 11
171.2653503457597
 21
129.2225168045561
 31
0.0
  0
LINE
  5
149
330
1F
100
AcDbEntity
  8
実形
100
AcDbLine
 10
211.7653503457598
 20
368.7225168045561
 30
0.0
 11
211.7653503457598
 21
129.2225168045561
 31
0.0
  0
LINE
  5
14A
330
1F
100
AcDbEntity
  8
実形
100
AcDbLine
 10
209.2653503457598
 20
368.7225168045561
 30
0.0
 11
209.2653503457598
 21
129.2225168045561
 31
0.0
  0
LINE
  5
14B
330
1F
100
AcDbEntity
  8
実形
100
AcDbLine
 10
249.7653503457598
 20
368.7225168045561
 30
0.0
 11
249.7653503457598
 21
129.2225168045561
 31
0.0
  0
LINE
  5
14C
330
1F
100
AcDbEntity
  8
実形
100
AcDbLine
 10
247.2653503457598
 20
368.7225168045561
 30
0.0
 11
247.2653503457598
 21
129.2225168045561
 31
0.0
  0
LINE
  5
14D
330
1F
100
AcDbEntity
  8
実形
100
AcDbLine
 10
287.7653503457598
 20
368.7225168045561
 30
0.0
 11
287.7653503457598
 21
129.2225168045561
 31
0.0
  0
LINE
  5
14E
330
1F
100
AcDbEntity
  8
実形
100
AcDbLine
 10
285.2653503457598
 20
368.7225168045561
 30
0.0
 11
285.2653503457598
 21
129.2225168045561
 31
0.0
  0
LINE
  5
14F
330
1F
100
AcDbEntity
  8
実形
100
AcDbLine
 10
325.7653503457598
 20
368.7225168045561
 30
0.0
 11
325.7653503457598
 21
129.2225168045561
 31
0.0
  0
LINE
  5
150
330
1F
100
AcDbEntity
  8
実形
100
AcDbLine
 10
323.2653503457598
 20
368.7225168045561
 30
0.0
 11
323.2653503457598
 21
129.2225168045561
 31
0.0
  0
LINE
  5
151
330
1F
100
AcDbEntity
  8
実形
100
AcDbLine
 10
363.7653503457598
 20
368.7225168045561
 30
0.0
 11
363.7653503457598
 21
129.2225168045561
 31
0.0
  0
LINE
  5
152
330
1F
100
AcDbEntity
  8
実形
100
AcDbLine
 10
361.2653503457598
 20
368.7225168045561
 30
0.0
 11
361.2653503457598
 21
129.2225168045561
 31
0.0
  0
LINE
  5
153
330
1F
100
AcDbEntity
  8
実形
100
AcDbLine
 10
43.21105029365151
 20
293.2225168045561
 30
0.0
 11
94.51535034575977
 21
293.2225168045562
 31
0.0
  0
LINE
  5
154
330
1F
100
AcDbEntity
  8
実形
100
AcDbLine
 10
43.21105029365151
 20
290.7225168045561
 30
0.0
 11
94.51535034575977
 21
290.7225168045561
 31
0.0
  0
LINE
  5
155
330
1F
100
AcDbEntity
  8
実形
100
AcDbLine
 10
43.21105029365151
 20
253.2225168045561
 30
0.0
 11
94.51535034575977
 21
253.2225168045561
 31
0.0
  0
LINE
  5
156
330
1F
100
AcDbEntity
  8
実形
100
AcDbLine
 10
43.21105029365151
 20
250.7225168045561
 30
0.0
 11
94.51535034575977
 21
250.7225168045561
 31
0.0
  0
LINE
  5
157
330
1F
100
AcDbEntity
  8
実形
100
AcDbLine
 10
45.75689300658711
 20
213.2225168045561
 30
0.0
 11
94.51535034575977
 21
213.2225168045561
 31
0.0
  0
LINE
  5
158
330
1F
100
AcDbEntity
  8
実形
100
AcDbLine
 10
45.75689300658711
 20
210.7225168045561
 30
0.0
 11
94.51535034575977
 21
210.7225168045561
 31
0.0
  0
ELLIPSE
  5
15A
330
1F
100
AcDbEntity
  8
実形
100
AcDbEllipse
 10
43.21105029365151
 20
291.9725168045561
 30
0.0
 11
0.0
 21
1.25
 31
0.0
210
0.0
220
0.0
230
1.0
 40
0.5565599583133917
 41
0.0
 42
6.283185307179586
  0
ELLIPSE
  5
15B
330
1F
100
AcDbEntity
  8
実形
100
AcDbEllipse
 10
43.21105029365151
 20
251.9725168045561
 30
0.0
 11
0.0
 21
1.25
 31
0.0
210
0.0
220
0.0
230
1.0
 40
0.5565599583133917
 41
0.0
 42
6.283185307179586
  0
ELLIPSE
  5
15C
330
1F
100
AcDbEntity
  8
実形
100
AcDbEllipse
 10
45.75689300658711
 20
211.9725168045561
 30
0.0
 11
0.0
 21
1.25
 31
0.0
210
0.0
220
0.0
230
1.0
 40
0.5565599583133917
 41
0.0
 42
6.283185307179586
  0
ELLIPSE
  5
160
330
1F
100
AcDbEntity
  8
実形
100
AcDbEllipse
 10
489.2738076849324
 20
211.9725168045561
 30
0.0
 11
0.0
 21
1.25
 31
0.0
210
0.0
220
0.0
230
-1.0
 40
0.5565599583133917
 41
0.0
 42
6.283185307179586
  0
ELLIPSE
  5
161
330
1F
100
AcDbEntity
  8
実形
100
AcDbEllipse
 10
491.819650397868
 20
251.9725168045561
 30
0.0
 11
0.0
 21
1.25
 31
0.0
210
0.0
220
0.0
230
-1.0
 40
0.5565599583133917
 41
0.0
 42
6.283185307179586
  0
ELLIPSE
  5
162
330
1F
100
AcDbEntity
  8
実形
100
AcDbEllipse
 10
491.819650397868
 20
291.9725168045561
 30
0.0
 11
0.0
 21
1.25
 31
0.0
210
0.0
220
0.0
230
-1.0
 40
0.5565599583133917
 41
0.0
 42
6.283185307179586
  0
ELLIPSE
  5
164
330
1F
100
AcDbEntity
  8
実形
100
AcDbEllipse
 10
58.01535034575977
 20
331.9725168045561
 30
0.0
 11
0.0
 21
-2.0
 31
0.0
210
0.0
220
0.0
230
1.0
 40
0.5
 41
0.0
 42
3.141592653589793
  0
LINE
  5
165
330
1F
100
AcDbEntity
  8
実形
100
AcDbLine
 10
46.51535034575977
 20
329.9725168045561
 30
0.0
 11
46.51535034575977
 21
293.2225168045562
 31
0.0
  0
ELLIPSE
  5
167
330
1F
100
AcDbEntity
  8
実形
100
AcDbEllipse
 10
61.81965039786803
 20
291.9725168045561
 30
0.0
 11
0.0
 21
1.25
 31
0.0
210
0.0
220
0.0
230
1.0
 40
0.5565599583133917
 41
3.141592653589793
 42
6.283185307179586
  0
ELLIPSE
  5
168
330
1F
100
AcDbEntity
  8
実形
100
AcDbEllipse
 10
61.81965039786803
 20
251.9725168045561
 30
0.0
 11
0.0
 21
1.25
 31
0.0
210
0.0
220
0.0
230
1.0
 40
0.5565599583133917
 41
3.141592653589793
 42
6.283185307179586
  0
ELLIPSE
  5
16F
330
1F
100
AcDbEntity
  8
実形
100
AcDbEllipse
 10
64.36549311080364
 20
211.9725168045561
 30
0.0
 11
0.0
 21
1.25
 31
0.0
210
0.0
220
0.0
230
1.0
 40
0.5565599583133917
 41
3.141592653589793
 42
6.283185307179586
  0
ELLIPSE
  5
171
330
1F
100
AcDbEntity
  8
実形
100
AcDbEllipse
 10
83.87866378208787
 20
171.9725168045561
 30
0.0
 11
0.0
 21
-2.0
 31
0.0
210
0.0
220
0.0
230
1.0
 40
0.5
 41
0.0
 42
3.141592653589793
  0
ARC
  5
172
330
1F
100
AcDbEntity
  8
実形
100
AcDbCircle
 10
152.5153503457597
 20
233.9725168045561
 30
0.0
 40
106.0
100
AcDbArc
 50
192.6702488267812
 51
214.474384609838
  0
ARC
  5
173
330
1F
100
AcDbEntity
  8
実形
100
AcDbCircle
 10
152.5153503457597
 20
233.9725168045561
 30
0.0
 40
106.0
100
AcDbArc
 50
217.1406415255345
 51
236.8269339778106
  0
LINE
  5
174
330
1F
100
AcDbEntity
  8
実形
100
AcDbLine
 10
46.51535034575977
 20
250.7225168045561
 30
0.0
 11
46.51535034575977
 21
233.9725168045561
 31
0.0
  0
LINE
  5
175
330
1F
100
AcDbEntity
  8
実形
100
AcDbLine
 10
46.51535034575977
 20
290.7225168045562
 30
0.0
 11
46.51535034575977
 21
253.2225168045561
 31
0.0
  0
ELLIPSE
  5
178
330
1F
100
AcDbEntity
  8
実形
100
AcDbEllipse
 10
477.0167620046782
 20
331.9725168045561
 30
0.0
 11
0.0
 21
-2.0
 31
0.0
210
0.0
220
0.0
230
-1.0
 40
0.5
 41
0.0
 42
3.141592653589793
  0
ELLIPSE
  5
179
330
1F
100
AcDbEntity
  8
実形
100
AcDbEllipse
 10
473.2124619525699
 20
291.9725168045561
 30
0.0
 11
0.0
 21
1.25
 31
0.0
210
0.0
220
0.0
230
-1.0
 40
0.5565599583133917
 41
3.141592653589793
 42
6.283185307179586
  0
ELLIPSE
  5
17A
330
1F
100
AcDbEntity
  8
実形
100
AcDbEllipse
 10
473.2124619525699
 20
251.9725168045561
 30
0.0
 11
0.0
 21
1.25
 31
0.0
210
0.0
220
0.0
230
-1.0
 40
0.5565599583133917
 41
3.141592653589793
 42
6.283185307179586
  0
ELLIPSE
  5
17B
330
1F
100
AcDbEntity
  8
実形
100
AcDbEllipse
 10
470.6666192396343
 20
211.9725168045561
 30
0.0
 11
0.0
 21
1.25
 31
0.0
210
0.0
220
0.0
230
-1.0
 40
0.5565599583133917
 41
3.141592653589793
 42
6.283185307179586
  0
ELLIPSE
  5
17C
330
1F
100
AcDbEntity
  8
実形
100
AcDbEllipse
 10
451.1534485683501
 20
171.9725168045561
 30
0.0
 11
0.0
 21
-2.0
 31
0.0
210
0.0
220
0.0
230
-1.0
 40
0.5
 41
0.0
 42
3.141592653589793
  0
ARC
  5
17D
330
1F
100
AcDbEntity
  8
実形
100
AcDbCircle
 10
382.5153503457597
 20
233.9725168045561
 30
0.0
 40
106.0
100
AcDbArc
 50
325.525615390162
 51
347.3297511732188
  0
LINE
  5
17E
330
1F
100
AcDbEntity
  8
実形
100
AcDbLine
 10
488.5153503457597
 20
333.9725168045561
 30
0.0
 11
488.5153503457597
 21
365.9725168045562
 31
0.0
  0
LINE
  5
17F
330
1F
100
AcDbEntity
  8
実形
100
AcDbLine
 10
488.5153503457598
 20
293.2225168045562
 30
0.0
 11
488.5153503457597
 21
329.9725168045562
 31
0.0
  0
LINE
  5
180
330
1F
100
AcDbEntity
  8
実形
100
AcDbLine
 10
488.5153503457597
 20
253.2225168045562
 30
0.0
 11
488.5153503457598
 21
290.7225168045562
 31
0.0
  0
ARC
  5
181
330
1F
100
AcDbEntity
  8
実形
100
AcDbCircle
 10
382.5153503457597
 20
233.9725168045561
 30
0.0
 40
106.0
100
AcDbArc
 50
348.7111845771722
 51
0.0000000000000127
  0
ELLIPSE
  5
184
330
1F
100
AcDbEntity
  8
実形
100
AcDbEllipse
 10
96.51535034575978
 20
159.1321502671179
 30
0.0
 11
2.0
 21
-0.0000000000000004
 31
0.0
210
0.0
220
0.0
230
1.0
 40
0.5
 41
0.0
 42
3.141592653589793
  0
ARC
  5
185
330
1F
100
AcDbEntity
  8
実形
100
AcDbCircle
 10
152.5153503457597
 20
233.9725168045561
 30
0.0
 40
106.0
100
AcDbArc
 50
239.373866393807
 51
270.0
  0
ELLIPSE
  5
188
330
1F
100
AcDbEntity
  8
実形
100
AcDbEllipse
 10
438.5153503457598
 20
159.1674951418934
 30
0.0
 11
2.0
 21
-0.0000000000000004
 31
0.0
210
0.0
220
0.0
230
1.0
 40
0.5
 41
0.0
 42
3.141592653589793
  0
ARC
  5
189
330
1F
100
AcDbEntity
  8
実形
100
AcDbCircle
 10
382.5153503457597
 20
233.9725168045561
 30
0.0
 40
106.0
100
AcDbArc
 50
303.1730660221894
 51
322.8593584744655
  0
LINE
  5
1B2
330
1F
100
AcDbEntity
  8
実形
100
AcDbLine
 10
98.51535034575977
 20
333.9725168045561
 30
0.0
 11
133.2653503457597
 21
333.9725168045561
 31
0.0
  0
LINE
  5
1B3
330
1F
100
AcDbEntity
  8
実形
100
AcDbLine
 10
94.51535034575977
 20
329.9725168045561
 30
0.0
 11
43.51535034575976
 21
329.9725168045561
 31
0.0
  0
LINE
  5
1B4
330
1F
100
AcDbEntity
  8
実形
100
AcDbLine
 10
98.51535034575977
 20
293.2225168045562
 30
0.0
 11
133.2653503457597
 21
293.2225168045562
 31
0.0
  0
LINE
  5
1B5
330
1F
100
AcDbEntity
  8
実形
100
AcDbLine
 10
98.51535034575977
 20
290.7225168045561
 30
0.0
 11
133.2653503457597
 21
290.7225168045561
 31
0.0
  0
LINE
  5
1B6
330
1F
100
AcDbEntity
  8
実形
100
AcDbLine
 10
98.51535034575977
 20
250.7225168045561
 30
0.0
 11
133.2653503457597
 21
250.7225168045561
 31
0.0
  0
LINE
  5
1B7
330
1F
100
AcDbEntity
  8
実形
100
AcDbLine
 10
98.51535034575977
 20
253.2225168045561
 30
0.0
 11
133.2653503457597
 21
253.2225168045561
 31
0.0
  0
LINE
  5
1B8
330
1F
100
AcDbEntity
  8
実形
100
AcDbLine
 10
98.51535034575977
 20
213.2225168045561
 30
0.0
 11
133.2653503457597
 21
213.2225168045561
 31
0.0
  0
LINE
  5
1B9
330
1F
100
AcDbEntity
  8
実形
100
AcDbLine
 10
98.51535034575977
 20
210.7225168045561
 30
0.0
 11
133.2653503457597
 21
210.7225168045562
 31
0.0
  0
LINE
  5
1BA
330
1F
100
AcDbEntity
  8
実形
100
AcDbLine
 10
98.51535034575977
 20
173.9725168045561
 30
0.0
 11
133.2653503457597
 21
173.9725168045561
 31
0.0
  0
LINE
  5
1BB
330
1F
100
AcDbEntity
  8
実形
100
AcDbLine
 10
94.51535034575977
 20
169.9725168045561
 30
0.0
 11
63.87866378208787
 21
169.9725168045561
 31
0.0
  0
LINE
  5
1BC
330
1F
100
AcDbEntity
  8
実形
100
AcDbLine
 10
133.2653503457597
 20
169.9725168045561
 30
0.0
 11
98.51535034575977
 21
169.9725168045561
 31
0.0
  0
LINE
  5
1BD
330
1F
100
AcDbEntity
  8
実形
100
AcDbLine
 10
135.7653503457598
 20
173.9725168045561
 30
0.0
 11
171.2653503457597
 21
173.9725168045561
 31
0.0
  0
LINE
  5
1BE
330
1F
100
AcDbEntity
  8
実形
100
AcDbLine
 10
135.7653503457598
 20
210.7225168045562
 30
0.0
 11
171.2653503457597
 21
210.7225168045562
 31
0.0
  0
LINE
  5
1BF
330
1F
100
AcDbEntity
  8
実形
100
AcDbLine
 10
135.7653503457598
 20
213.2225168045561
 30
0.0
 11
171.2653503457597
 21
213.2225168045561
 31
0.0
  0
LINE
  5
1C0
330
1F
100
AcDbEntity
  8
実形
100
AcDbLine
 10
135.7653503457598
 20
250.7225168045561
 30
0.0
 11
171.2653503457597
 21
250.7225168045561
 31
0.0
  0
LINE
  5
1C1
330
1F
100
AcDbEntity
  8
実形
100
AcDbLine
 10
135.7653503457598
 20
253.2225168045561
 30
0.0
 11
171.2653503457597
 21
253.2225168045562
 31
0.0
  0
LINE
  5
1C2
330
1F
100
AcDbEntity
  8
実形
100
AcDbLine
 10
135.7653503457598
 20
290.7225168045561
 30
0.0
 11
171.2653503457597
 21
290.7225168045562
 31
0.0
  0
LINE
  5
1C3
330
1F
100
AcDbEntity
  8
実形
100
AcDbLine
 10
135.7653503457598
 20
293.2225168045562
 30
0.0
 11
171.2653503457597
 21
293.2225168045562
 31
0.0
  0
LINE
  5
1C4
330
1F
100
AcDbEntity
  8
実形
100
AcDbLine
 10
133.2653503457597
 20
329.9725168045561
 30
0.0
 11
98.51535034575977
 21
329.9725168045561
 31
0.0
  0
LINE
  5
1C5
330
1F
100
AcDbEntity
  8
実形
100
AcDbLine
 10
135.7653503457598
 20
333.9725168045561
 30
0.0
 11
171.2653503457597
 21
333.9725168045561
 31
0.0
  0
LINE
  5
1C6
330
1F
100
AcDbEntity
  8
実形
100
AcDbLine
 10
173.7653503457597
 20
333.9725168045561
 30
0.0
 11
209.2653503457598
 21
333.9725168045561
 31
0.0
  0
LINE
  5
1C7
330
1F
100
AcDbEntity
  8
実形
100
AcDbLine
 10
171.2653503457597
 20
329.9725168045562
 30
0.0
 11
135.7653503457598
 21
329.9725168045561
 31
0.0
  0
LINE
  5
1C8
330
1F
100
AcDbEntity
  8
実形
100
AcDbLine
 10
173.7653503457597
 20
293.2225168045562
 30
0.0
 11
209.2653503457598
 21
293.2225168045562
 31
0.0
  0
LINE
  5
1C9
330
1F
100
AcDbEntity
  8
実形
100
AcDbLine
 10
173.7653503457597
 20
290.7225168045562
 30
0.0
 11
209.2653503457598
 21
290.7225168045562
 31
0.0
  0
LINE
  5
1CA
330
1F
100
AcDbEntity
  8
実形
100
AcDbLine
 10
171.2653503457597
 20
169.9725168045561
 30
0.0
 11
135.7653503457598
 21
169.9725168045561
 31
0.0
  0
LINE
  5
1CB
330
1F
100
AcDbEntity
  8
実形
100
AcDbLine
 10
173.7653503457597
 20
173.9725168045561
 30
0.0
 11
209.2653503457598
 21
173.9725168045561
 31
0.0
  0
LINE
  5
1CC
330
1F
100
AcDbEntity
  8
実形
100
AcDbLine
 10
173.7653503457597
 20
210.7225168045562
 30
0.0
 11
209.2653503457598
 21
210.7225168045562
 31
0.0
  0
LINE
  5
1CD
330
1F
100
AcDbEntity
  8
実形
100
AcDbLine
 10
173.7653503457597
 20
213.2225168045561
 30
0.0
 11
209.2653503457598
 21
213.2225168045561
 31
0.0
  0
LINE
  5
1CE
330
1F
100
AcDbEntity
  8
実形
100
AcDbLine
 10
173.7653503457597
 20
250.7225168045561
 30
0.0
 11
209.2653503457598
 21
250.7225168045562
 31
0.0
  0
LINE
  5
1CF
330
1F
100
AcDbEntity
  8
実形
100
AcDbLine
 10
173.7653503457597
 20
253.2225168045562
 30
0.0
 11
209.2653503457598
 21
253.2225168045562
 31
0.0
  0
LINE
  5
1D0
330
1F
100
AcDbEntity
  8
実形
100
AcDbLine
 10
211.7653503457598
 20
333.9725168045561
 30
0.0
 11
247.2653503457598
 21
333.9725168045562
 31
0.0
  0
LINE
  5
1D1
330
1F
100
AcDbEntity
  8
実形
100
AcDbLine
 10
209.2653503457598
 20
329.9725168045562
 30
0.0
 11
173.7653503457597
 21
329.9725168045562
 31
0.0
  0
LINE
  5
1D2
330
1F
100
AcDbEntity
  8
実形
100
AcDbLine
 10
211.7653503457598
 20
293.2225168045562
 30
0.0
 11
247.2653503457598
 21
293.2225168045562
 31
0.0
  0
LINE
  5
1D3
330
1F
100
AcDbEntity
  8
実形
100
AcDbLine
 10
211.7653503457598
 20
290.7225168045562
 30
0.0
 11
247.2653503457598
 21
290.7225168045562
 31
0.0
  0
LINE
  5
1D4
330
1F
100
AcDbEntity
  8
実形
100
AcDbLine
 10
211.7653503457598
 20
253.2225168045562
 30
0.0
 11
247.2653503457598
 21
253.2225168045562
 31
0.0
  0
LINE
  5
1D5
330
1F
100
AcDbEntity
  8
実形
100
AcDbLine
 10
211.7653503457598
 20
250.7225168045562
 30
0.0
 11
247.2653503457598
 21
250.7225168045562
 31
0.0
  0
LINE
  5
1D6
330
1F
100
AcDbEntity
  8
実形
100
AcDbLine
 10
209.2653503457598
 20
169.972516804556
 30
0.0
 11
173.7653503457597
 21
169.9725168045561
 31
0.0
  0
LINE
  5
1D7
330
1F
100
AcDbEntity
  8
実形
100
AcDbLine
 10
211.7653503457598
 20
173.9725168045561
 30
0.0
 11
247.2653503457598
 21
173.9725168045561
 31
0.0
  0
LINE
  5
1D8
330
1F
100
AcDbEntity
  8
実形
100
AcDbLine
 10
211.7653503457598
 20
210.7225168045562
 30
0.0
 11
247.2653503457598
 21
210.7225168045562
 31
0.0
  0
LINE
  5
1D9
330
1F
100
AcDbEntity
  8
実形
100
AcDbLine
 10
211.7653503457598
 20
213.2225168045561
 30
0.0
 11
247.2653503457598
 21
213.2225168045561
 31
0.0
  0
LINE
  5
1DA
330
1F
100
AcDbEntity
  8
実形
100
AcDbLine
 10
247.2653503457598
 20
169.972516804556
 30
0.0
 11
211.7653503457598
 21
169.972516804556
 31
0.0
  0
LINE
  5
1DB
330
1F
100
AcDbEntity
  8
実形
100
AcDbLine
 10
249.7653503457598
 20
173.9725168045561
 30
0.0
 11
285.2653503457598
 21
173.9725168045561
 31
0.0
  0
LINE
  5
1DC
330
1F
100
AcDbEntity
  8
実形
100
AcDbLine
 10
249.7653503457598
 20
210.7225168045562
 30
0.0
 11
285.2653503457598
 21
210.7225168045562
 31
0.0
  0
LINE
  5
1DD
330
1F
100
AcDbEntity
  8
実形
100
AcDbLine
 10
249.7653503457598
 20
213.2225168045561
 30
0.0
 11
285.2653503457598
 21
213.2225168045561
 31
0.0
  0
LINE
  5
1DE
330
1F
100
AcDbEntity
  8
実形
100
AcDbLine
 10
249.7653503457598
 20
250.7225168045562
 30
0.0
 11
285.2653503457598
 21
250.7225168045562
 31
0.0
  0
LINE
  5
1DF
330
1F
100
AcDbEntity
  8
実形
100
AcDbLine
 10
249.7653503457598
 20
253.2225168045562
 30
0.0
 11
285.2653503457598
 21
253.2225168045561
 31
0.0
  0
LINE
  5
1E0
330
1F
100
AcDbEntity
  8
実形
100
AcDbLine
 10
249.7653503457598
 20
290.7225168045562
 30
0.0
 11
285.2653503457598
 21
290.7225168045562
 31
0.0
  0
LINE
  5
1E1
330
1F
100
AcDbEntity
  8
実形
100
AcDbLine
 10
249.7653503457598
 20
293.2225168045562
 30
0.0
 11
285.2653503457598
 21
293.2225168045562
 31
0.0
  0
LINE
  5
1E2
330
1F
100
AcDbEntity
  8
実形
100
AcDbLine
 10
247.2653503457598
 20
329.9725168045562
 30
0.0
 11
211.7653503457598
 21
329.9725168045562
 31
0.0
  0
LINE
  5
1E3
330
1F
100
AcDbEntity
  8
実形
100
AcDbLine
 10
249.7653503457598
 20
333.9725168045562
 30
0.0
 11
285.2653503457598
 21
333.9725168045562
 31
0.0
  0
LINE
  5
1E4
330
1F
100
AcDbEntity
  8
実形
100
AcDbLine
 10
285.2653503457598
 20
169.9725168045561
 30
0.0
 11
249.7653503457598
 21
169.972516804556
 31
0.0
  0
LINE
  5
1E5
330
1F
100
AcDbEntity
  8
実形
100
AcDbLine
 10
287.7653503457598
 20
173.9725168045561
 30
0.0
 11
323.2653503457598
 21
173.9725168045561
 31
0.0
  0
LINE
  5
1E6
330
1F
100
AcDbEntity
  8
実形
100
AcDbLine
 10
287.7653503457598
 20
210.7225168045562
 30
0.0
 11
323.2653503457597
 21
210.7225168045562
 31
0.0
  0
LINE
  5
1E7
330
1F
100
AcDbEntity
  8
実形
100
AcDbLine
 10
287.7653503457598
 20
213.2225168045561
 30
0.0
 11
323.2653503457597
 21
213.2225168045561
 31
0.0
  0
LINE
  5
1E8
330
1F
100
AcDbEntity
  8
実形
100
AcDbLine
 10
287.7653503457598
 20
250.7225168045562
 30
0.0
 11
323.2653503457598
 21
250.7225168045562
 31
0.0
  0
LINE
  5
1E9
330
1F
100
AcDbEntity
  8
実形
100
AcDbLine
 10
287.7653503457598
 20
253.2225168045561
 30
0.0
 11
323.2653503457598
 21
253.2225168045561
 31
0.0
  0
LINE
  5
1EA
330
1F
100
AcDbEntity
  8
実形
100
AcDbLine
 10
287.7653503457598
 20
290.7225168045562
 30
0.0
 11
323.2653503457598
 21
290.7225168045561
 31
0.0
  0
LINE
  5
1EB
330
1F
100
AcDbEntity
  8
実形
100
AcDbLine
 10
287.7653503457598
 20
293.2225168045562
 30
0.0
 11
323.2653503457598
 21
293.2225168045561
 31
0.0
  0
LINE
  5
1EC
330
1F
100
AcDbEntity
  8
実形
100
AcDbLine
 10
285.2653503457598
 20
329.9725168045562
 30
0.0
 11
249.7653503457598
 21
329.9725168045562
 31
0.0
  0
LINE
  5
1ED
330
1F
100
AcDbEntity
  8
実形
100
AcDbLine
 10
287.7653503457598
 20
333.9725168045562
 30
0.0
 11
323.2653503457598
 21
333.9725168045562
 31
0.0
  0
LINE
  5
1EE
330
1F
100
AcDbEntity
  8
実形
100
AcDbLine
 10
323.2653503457598
 20
169.9725168045561
 30
0.0
 11
287.7653503457598
 21
169.9725168045561
 31
0.0
  0
LINE
  5
1EF
330
1F
100
AcDbEntity
  8
実形
100
AcDbLine
 10
325.7653503457598
 20
173.9725168045561
 30
0.0
 11
361.2653503457597
 21
173.9725168045561
 31
0.0
  0
LINE
  5
1F0
330
1F
100
AcDbEntity
  8
実形
100
AcDbLine
 10
325.7653503457597
 20
210.7225168045562
 30
0.0
 11
361.2653503457597
 21
210.7225168045562
 31
0.0
  0
LINE
  5
1F1
330
1F
100
AcDbEntity
  8
実形
100
AcDbLine
 10
325.7653503457597
 20
213.2225168045561
 30
0.0
 11
361.2653503457597
 21
213.2225168045561
 31
0.0
  0
LINE
  5
1F2
330
1F
100
AcDbEntity
  8
実形
100
AcDbLine
 10
325.7653503457598
 20
250.7225168045562
 30
0.0
 11
361.2653503457597
 21
250.7225168045562
 31
0.0
  0
LINE
  5
1F3
330
1F
100
AcDbEntity
  8
実形
100
AcDbLine
 10
325.7653503457598
 20
253.2225168045561
 30
0.0
 11
361.2653503457597
 21
253.2225168045562
 31
0.0
  0
LINE
  5
1F4
330
1F
100
AcDbEntity
  8
実形
100
AcDbLine
 10
325.7653503457598
 20
290.7225168045561
 30
0.0
 11
361.2653503457597
 21
290.7225168045561
 31
0.0
  0
LINE
  5
1F5
330
1F
100
AcDbEntity
  8
実形
100
AcDbLine
 10
325.7653503457598
 20
293.2225168045561
 30
0.0
 11
361.2653503457597
 21
293.2225168045561
 31
0.0
  0
LINE
  5
1F6
330
1F
100
AcDbEntity
  8
実形
100
AcDbLine
 10
323.2653503457598
 20
329.9725168045562
 30
0.0
 11
287.7653503457598
 21
329.9725168045562
 31
0.0
  0
LINE
  5
1F7
330
1F
100
AcDbEntity
  8
実形
100
AcDbLine
 10
325.7653503457598
 20
333.9725168045562
 30
0.0
 11
361.2653503457598
 21
333.9725168045562
 31
0.0
  0
LINE
  5
1F8
330
1F
100
AcDbEntity
  8
実形
100
AcDbLine
 10
436.5153503457597
 20
169.9725168045561
 30
0.0
 11
401.7653503457597
 21
169.9725168045561
 31
0.0
  0
LINE
  5
1F9
330
1F
100
AcDbEntity
  8
実形
100
AcDbLine
 10
440.5153503457598
 20
173.9725168045561
 30
0.0
 11
471.1034485683501
 21
173.9725168045561
 31
0.0
  0
LINE
  5
1FA
330
1F
100
AcDbEntity
  8
実形
100
AcDbLine
 10
440.5153503457598
 20
210.7225168045562
 30
0.0
 11
489.2738076849324
 21
210.7225168045562
 31
0.0
  0
LINE
  5
1FB
330
1F
100
AcDbEntity
  8
実形
100
AcDbLine
 10
440.5153503457598
 20
213.2225168045562
 30
0.0
 11
489.2738076849324
 21
213.2225168045561
 31
0.0
  0
LINE
  5
1FC
330
1F
100
AcDbEntity
  8
実形
100
AcDbLine
 10
440.5153503457598
 20
250.7225168045562
 30
0.0
 11
491.819650397868
 21
250.7225168045561
 31
0.0
  0
LINE
  5
1FD
330
1F
100
AcDbEntity
  8
実形
100
AcDbLine
 10
440.5153503457598
 20
253.2225168045561
 30
0.0
 11
491.819650397868
 21
253.2225168045562
 31
0.0
  0
LINE
  5
1FE
330
1F
100
AcDbEntity
  8
実形
100
AcDbLine
 10
440.5153503457598
 20
290.7225168045562
 30
0.0
 11
491.819650397868
 21
290.7225168045562
 31
0.0
  0
LINE
  5
1FF
330
1F
100
AcDbEntity
  8
実形
100
AcDbLine
 10
440.5153503457598
 20
293.2225168045562
 30
0.0
 11
491.819650397868
 21
293.2225168045562
 31
0.0
  0
LINE
  5
200
330
1F
100
AcDbEntity
  8
実形
100
AcDbLine
 10
436.5153503457597
 20
329.9725168045562
 30
0.0
 11
401.7653503457597
 21
329.9725168045562
 31
0.0
  0
LINE
  5
201
330
1F
100
AcDbEntity
  8
実形
100
AcDbLine
 10
440.5153503457597
 20
333.9725168045561
 30
0.0
 11
491.5153503457597
 21
333.9725168045561
 31
0.0
  0
LINE
  5
202
330
1F
100
AcDbEntity
  8
実形
100
AcDbLine
 10
401.7653503457597
 20
333.9725168045561
 30
0.0
 11
436.5153503457597
 21
333.9725168045561
 31
0.0
  0
LINE
  5
203
330
1F
100
AcDbEntity
  8
実形
100
AcDbLine
 10
399.2653503457598
 20
329.9725168045562
 30
0.0
 11
363.7653503457598
 21
329.9725168045562
 31
0.0
  0
LINE
  5
204
330
1F
100
AcDbEntity
  8
実形
100
AcDbLine
 10
401.7653503457597
 20
293.2225168045562
 30
0.0
 11
436.5153503457597
 21
293.2225168045562
 31
0.0
  0
LINE
  5
205
330
1F
100
AcDbEntity
  8
実形
100
AcDbLine
 10
401.7653503457597
 20
290.7225168045562
 30
0.0
 11
436.5153503457597
 21
290.7225168045562
 31
0.0
  0
LINE
  5
206
330
1F
100
AcDbEntity
  8
実形
100
AcDbLine
 10
401.7653503457597
 20
253.2225168045562
 30
0.0
 11
436.5153503457597
 21
253.2225168045561
 31
0.0
  0
LINE
  5
207
330
1F
100
AcDbEntity
  8
実形
100
AcDbLine
 10
401.7653503457597
 20
250.7225168045562
 30
0.0
 11
436.5153503457597
 21
250.7225168045562
 31
0.0
  0
LINE
  5
208
330
1F
100
AcDbEntity
  8
実形
100
AcDbLine
 10
401.7653503457597
 20
213.2225168045562
 30
0.0
 11
436.5153503457597
 21
213.2225168045562
 31
0.0
  0
LINE
  5
209
330
1F
100
AcDbEntity
  8
実形
100
AcDbLine
 10
401.7653503457597
 20
210.7225168045562
 30
0.0
 11
436.5153503457597
 21
210.7225168045562
 31
0.0
  0
LINE
  5
20A
330
1F
100
AcDbEntity
  8
実形
100
AcDbLine
 10
401.7653503457597
 20
173.9725168045561
 30
0.0
 11
436.5153503457597
 21
173.9725168045561
 31
0.0
  0
LINE
  5
20B
330
1F
100
AcDbEntity
  8
実形
100
AcDbLine
 10
399.2653503457598
 20
169.9725168045561
 30
0.0
 11
363.7653503457597
 21
169.9725168045561
 31
0.0
  0
LINE
  5
20C
330
1F
100
AcDbEntity
  8
実形
100
AcDbLine
 10
363.7653503457598
 20
333.9725168045562
 30
0.0
 11
399.2653503457598
 21
333.9725168045561
 31
0.0
  0
LINE
  5
20D
330
1F
100
AcDbEntity
  8
実形
100
AcDbLine
 10
361.2653503457598
 20
329.9725168045562
 30
0.0
 11
325.7653503457598
 21
329.9725168045562
 31
0.0
  0
LINE
  5
20E
330
1F
100
AcDbEntity
  8
実形
100
AcDbLine
 10
363.7653503457597
 20
293.2225168045561
 30
0.0
 11
399.2653503457598
 21
293.2225168045562
 31
0.0
  0
LINE
  5
20F
330
1F
100
AcDbEntity
  8
実形
100
AcDbLine
 10
363.7653503457597
 20
290.7225168045561
 30
0.0
 11
399.2653503457598
 21
290.7225168045562
 31
0.0
  0
LINE
  5
210
330
1F
100
AcDbEntity
  8
実形
100
AcDbLine
 10
363.7653503457597
 20
253.2225168045562
 30
0.0
 11
399.2653503457598
 21
253.2225168045562
 31
0.0
  0
LINE
  5
211
330
1F
100
AcDbEntity
  8
実形
100
AcDbLine
 10
363.7653503457597
 20
250.7225168045562
 30
0.0
 11
399.2653503457598
 21
250.7225168045562
 31
0.0
  0
LINE
  5
212
330
1F
100
AcDbEntity
  8
実形
100
AcDbLine
 10
363.7653503457597
 20
213.2225168045561
 30
0.0
 11
399.2653503457598
 21
213.2225168045562
 31
0.0
  0
LINE
  5
213
330
1F
100
AcDbEntity
  8
実形
100
AcDbLine
 10
363.7653503457597
 20
210.7225168045562
 30
0.0
 11
399.2653503457598
 21
210.7225168045562
 31
0.0
  0
LINE
  5
214
330
1F
100
AcDbEntity
  8
実形
100
AcDbLine
 10
363.7653503457597
 20
173.9725168045561
 30
0.0
 11
399.2653503457598
 21
173.9725168045561
 31
0.0
  0
LINE
  5
215
330
1F
100
AcDbEntity
  8
実形
100
AcDbLine
 10
361.2653503457597
 20
169.9725168045561
 30
0.0
 11
325.7653503457598
 21
169.9725168045561
 31
0.0
  0
DIMENSION
  5
21B
330
1F
100
AcDbEntity
  8
実形
100
AcDbDimension
  2
*D4
 10
542.7657283199023
 20
123.9725168045561
 30
0.0
 11
537.7657283199023
 21
248.9725168045562
 31
0.0
 70
    32
 71
     5
 42
250.0
  3
ISO-25
100
AcDbAlignedDimension
 13
492.5153503457598
 23
373.9725168045562
 33
0.0
 14
492.5153503457598
 24
123.9725168045561
 34
0.0
 50
90.0
100
AcDbRotatedDimension
  0
DIMENSION
  5
229
330
1F
100
AcDbEntity
  8
実形
100
AcDbDimension
  2
*D5
 10
492.5153503457598
 20
76.93585187221959
 30
0.0
 11
267.5153503457598
 21
81.93585187221959
 31
0.0
 70
    32
 71
     5
 42
450.0
  3
ISO-25
100
AcDbAlignedDimension
 13
42.51535034575977
 23
123.9725168045561
 33
0.0
 14
492.5153503457598
 24
123.9725168045561
 34
0.0
100
AcDbRotatedDimension
  0
DIMENSION
  5
285
330
1F
100
AcDbEntity
  8
実形
100
AcDbDimension
  2
*D6
 10
96.51535034575978
 20
98.46584438205173
 30
0.0
 11
69.51535034575977
 21
103.4658443820517
 31
0.0
 70
    32
 71
     5
 42
54.0
  3
ISO-25
100
AcDbAlignedDimension
 13
42.51535034575977
 23
123.9725168045561
 33
0.0
 14
96.51535034575978
 24
123.9725168045561
 34
0.0
100
AcDbRotatedDimension
  0
DIMENSION
  5
292
330
1F
100
AcDbEntity
  8
実形
100
AcDbDimension
  2
*D7
 10
438.5153503457598
 20
98.46584438205173
 30
0.0
 11
267.5153503457598
 21
103.4658443820517
 31
0.0
 70
    32
  1
38×9=342
 71
     5
 42
342.0
  3
ISO-25
100
AcDbAlignedDimension
 13
96.51535034575978
 23
123.9725168045561
 33
0.0
 14
438.5153503457598
 24
123.9725168045561
 34
0.0
100
AcDbRotatedDimension
  0
DIMENSION
  5
2AC
330
1F
100
AcDbEntity
  8
実形
100
AcDbDimension
  2
*D8
 10
134.5153503457597
 20
105.2324131576488
 30
0.0
 11
115.5153503457597
 21
110.2324131576488
 31
0.0
 70
    32
 71
     5
 42
38.0
  3
ISO-25
100
AcDbAlignedDimension
 13
96.51535034575978
 23
123.9725168045561
 33
0.0
 14
134.5153503457597
 24
123.9725168045561
 34
0.0
100
AcDbRotatedDimension
  0
DIMENSION
  5
2CB
330
1F
100
AcDbEntity
  8
実形
100
AcDbDimension
  2
*D9
 10
492.5153503457598
 20
98.46584438205173
 30
0.0
 11
465.5153503457597
 21
103.4658443820517
 31
0.0
 70
    32
 71
     5
 42
54.0
  3
ISO-25
100
AcDbAlignedDimension
 13
438.5153503457598
 23
123.9725168045561
 33
0.0
 14
492.5153503457598
 24
123.9725168045561
 34
0.0
100
AcDbRotatedDimension
  0
DIMENSION
  5
2F3
330
1F
100
AcDbEntity
  8
実形
100
AcDbDimension
  2
*D10
 10
521.2187168271362
 20
331.9725168045561
 30
0.0
 11
516.218716827136
 21
352.9725168045562
 31
0.0
 70
    32
 71
     5
 42
42.0
  3
ISO-25
100
AcDbAlignedDimension
 13
492.5153503457598
 23
373.9725168045562
 33
0.0
 14
492.5153503457598
 24
331.9725168045561
 34
0.0
 50
90.0
100
AcDbRotatedDimension
  0
DIMENSION
  5
309
330
1F
100
AcDbEntity
  8
実形
100
AcDbDimension
  2
*D11
 10
521.2187168271362
 20
171.9725168045561
 30
0.0
 11
516.2187168271361
 21
251.9725168045562
 31
0.0
 70
    32
  1
40×4=160
 71
     5
 42
160.0
  3
ISO-25
100
AcDbAlignedDimension
 13
492.5153503457598
 23
331.9725168045561
 33
0.0
 14
492.5153503457598
 24
171.9725168045561
 34
0.0
 50
90.0
100
AcDbRotatedDimension
  0
DIMENSION
  5
316
330
1F
100
AcDbEntity
  8
実形
100
AcDbDimension
  2
*D12
 10
521.2187168271362
 20
123.9725168045561
 30
0.0
 11
516.2187168271361
 21
147.9725168045562
 31
0.0
 70
    32
 71
     5
 42
48.0
  3
ISO-25
100
AcDbAlignedDimension
 13
492.5153503457598
 23
171.9725168045561
 33
0.0
 14
492.5153503457598
 24
123.9725168045561
 34
0.0
 50
90.0
100
AcDbRotatedDimension
  0
DIMENSION
  5
32C
330
1F
100
AcDbEntity
  8
実形
100
AcDbDimension
  2
*D13
 10
512.8805182064484
 20
291.9725168045561
 30
0.0
 11
507.8805182064483
 21
311.9725168045562
 31
0.0
 70
    32
 71
     5
 42
40.00000000000006
  3
ISO-25
100
AcDbAlignedDimension
 13
492.5153503457597
 23
331.9725168045561
 33
0.0
 14
492.5153503457598
 24
291.9725168045561
 34
0.0
 50
90.0
100
AcDbRotatedDimension
  0
DIMENSION
  5
3A6
330
1F
100
AcDbEntity
  8
実形
100
AcDbDimension
  2
*D14
 10
50.5153503457598
 20
365.9725168045562
 30
0.0
 11
69.90824910836876
 21
351.2894719074815
 31
0.0
 70
   164
 71
     5
 42
8.0
  3
ISO-25$4
100
AcDbRadialDimension
 15
44.13726069373973
 25
370.801592532974
 35
0.0
 40
0.0
1001
ACAD
1000
DSTYLE
1002
{
1070
   288
1070
     1
1002
}
  0
DIMENSION
  5
43C
330
1F
100
AcDbEntity
  8
実形
100
AcDbDimension
  2
*D15
 10
152.5153503457597
 20
233.9725168045561
 30
0.0
 11
103.8641413183271
 21
182.1252439575269
 31
0.0
 70
   164
 71
     5
 42
109.9999999999999
  3
ISO-25$4
100
AcDbRadialDimension
 15
77.2452815742333
 25
153.757700547647
 35
0.0
 40
0.0
1001
ACAD
1000
DSTYLE
1002
{
1070
   288
1070
     1
1002
}
  0
LEADER
  5
44D
330
1F
100
AcDbEntity
  8
実形
100
AcDbLeader
  3
ISO-25$7
 76
     2
 10
444.7548897063131
 20
334.0654777093928
 30
0.0
 10
457.0674667505638
 20
350.0591866755546
 30
0.0
213
0.0
223
-3.75
233
0.0
1001
ACAD
1000
DSTYLE
1002
{
1070
   147
1040
2.0
1070
    77
1070
     0
1002
}
  0
LEADER
  5
44F
330
1F
100
AcDbEntity
  8
実形
100
AcDbLeader
  3
ISO-25$7
 76
     2
 10
444.7548897063131
 20
293.3844965514386
 30
0.0
 10
457.0674667505638
 20
309.3782055176005
 30
0.0
213
0.0
223
-3.75
233
0.0
1001
ACAD
1000
DSTYLE
1002
{
1070
   147
1040
2.0
1070
    77
1070
     0
1002
}
  0
TEXT
  5
450
330
1F
100
AcDbEntity
  8
実形
100
AcDbText
 10
458.1870496079488
 20
349.4240313002615
 30
0.0
 40
6.0
  1
φ4
 11
458.1870496079488
 21
352.4240313002615
 31
0.0
100
AcDbText
 73
     2
  0
TEXT
  5
451
330
1F
100
AcDbEntity
  8
実形
100
AcDbText
 10
458.1870496079488
 20
308.3386202181744
 30
0.0
 40
6.0
  1
φ2.5
 11
458.1870496079488
 21
311.3386202181744
 31
0.0
100
AcDbText
 73
     2
  0
LEADER
  5
452
330
1F
100
AcDbEntity
  8
実形
100
AcDbLeader
  3
ISO-25$7
 76
     2
 10
436.5962250205436
 20
163.225284780795
 30
0.0
 10
425.0149198173189
 20
152.1674437945165
 30
0.0
213
0.0
223
-3.75
233
0.0
1001
ACAD
1000
DSTYLE
1002
{
1070
   147
1040
2.0
1070
    77
1070
     0
1002
}
  0
TEXT
  5
453
330
1F
100
AcDbEntity
  8
実形
100
AcDbText
 10
367.6344947865814
 20
147.6712898075478
 30
0.0
 40
6.0
  1
φ2.5
 11
367.6344947865814
 21
150.6712898075478
 31
0.0
100
AcDbText
 73
     2
  0
LEADER
  5
454
330
1F
100
AcDbEntity
  8
実形
100
AcDbLeader
  3
ISO-25$7
 76
     2
 10
399.375178423936
 20
163.225284780795
 30
0.0
 10
389.2155414453942
 20
153.3082491542075
 30
0.0
213
0.0
223
-3.75
233
0.0
1001
ACAD
1000
DSTYLE
1002
{
1070
   147
1040
2.0
1070
    77
1070
     0
1002
}
  0
TEXT
  5
455
330
1F
100
AcDbEntity
  8
実形
100
AcDbText
 10
411.5507478251779
 20
147.6712898075478
 30
0.0
 40
6.0
  1
φ4
 11
411.5507478251779
 21
150.6712898075478
 31
0.0
100
AcDbText
 73
     2
  0
LEADER
  5
456
330
1F
100
AcDbEntity
  8
実形
100
AcDbLeader
  3
ISO-25$7
 76
     2
 10
488.1255485280985
 20
233.6471226608458
 30
0.0
 10
471.7371230055714
 20
233.6471226608458
 30
0.0
213
0.0
223
-3.75
233
0.0
1001
ACAD
1000
DSTYLE
1002
{
1070
   147
1040
2.0
1070
    77
1070
     0
1002
}
  0
TEXT
  5
457
330
1F
100
AcDbEntity
  8
実形
100
AcDbText
 10
457.1780669215702
 20
230.7015007126461
 30
0.0
 40
6.0
  1
φ4
 11
457.1780669215702
 21
233.7015007126461
 31
0.0
100
AcDbText
 73
     2
  0
LINE
  5
478
330
1F
100
AcDbEntity
  8
枠
100
AcDbLine
 10
434.0
 20
52.0
 30
0.0
 11
554.0
 21
52.0
 31
0.0
  0
LINE
  5
479
330
1F
100
AcDbEntity
  8
枠
100
AcDbLine
 10
434.0
 20
13.0
 30
0.0
 11
434.0
 21
52.0
 31
0.0
  0
TEXT
  5
481
330
1F
100
AcDbEntity
  8
枠
100
AcDbText
 10
438.0666666666666
 20
42.25
 30
0.0
 40
6.5
  1
品番
 72
     4
 11
445.0
 21
45.49999999999999
 31
0.0
100
AcDbText
  0
TEXT
  5
482
330
1F
100
AcDbEntity
  8
枠
100
AcDbText
 10
438.0666666666666
 20
29.25
 30
0.0
 40
6.5
  1
材質
 72
     4
 11
445.0
 21
32.5
 31
0.0
100
AcDbText
  0
TEXT
  5
483
330
1F
100
AcDbEntity
  8
0
100
AcDbText
 10
463.125
 20
29.25
 30
0.0
 40
6.5
  1
SUS304
 72
     4
 11
481.0
 21
32.5
 31
0.0
100
AcDbText
  0
LINE
  5
484
330
1F
100
AcDbEntity
  8
枠
100
AcDbLine
 10
456.0
 20
26.0
 30
0.0
 11
456.0
 21
52.0
 31
0.0
  0
LINE
  5
48F
330
1F
100
AcDbEntity
  8
枠
100
AcDbLine
 10
506.0
 20
26.0
 30
0.0
 11
506.0
 21
39.0
 31
0.0
  0
LINE
  5
490
330
1F
100
AcDbEntity
  8
枠
100
AcDbLine
 10
528.0
 20
26.0
 30
0.0
 11
528.0
 21
39.0
 31
0.0
  0
TEXT
  5
498
330
1F
100
AcDbEntity
  8
枠
100
AcDbText
 10
510.0666666666667
 20
29.25
 30
0.0
 40
6.5
  1
尺度
 72
     4
 11
517.0
 21
32.5
 31
0.0
100
AcDbText
  0
TEXT
  5
499
330
1F
100
AcDbEntity
  8
0
100
AcDbText
 10
532.7666666666666
 20
29.25
 30
0.0
 40
6.5
  1
1：2
 72
     4
 11
541.0
 21
32.5
 31
0.0
100
AcDbText
  0
LINE
  5
5B6
330
1F
100
AcDbEntity
  8
実形
100
AcDbLine
 10
23.54451067602031
 20
403.9999999999999
 30
0.0
 11
23.54451067602031
 21
0.0
 31
0.0
  0
ENDSEC
  0
SECTION
  2
OBJECTS
  0
DICTIONARY
  5
C
330
0
100
AcDbDictionary
281
     1
  3
ACAD_CIP_PREVIOUS_PRODUCT_INFO
350
639
  3
ACAD_COLOR
350
53D
  3
ACAD_DETAILVIEWSTYLE
350
632
  3
ACAD_GROUP
350
D
  3
ACAD_LAYOUT
350
1A
  3
ACAD_MATERIAL
350
53C
  3
ACAD_MLEADERSTYLE
350
62E
  3
ACAD_MLINESTYLE
350
17
  3
ACAD_PLOTSETTINGS
350
19
  3
ACAD_PLOTSTYLENAME
350
E
  3
ACAD_SCALELIST
350
61C
  3
ACAD_SECTIONVIEWSTYLE
350
630
  3
ACAD_TABLESTYLE
350
53E
  3
ACAD_VISUALSTYLE
350
603
  3
ACDB_RECOMPOSE_DATA
350
664
  3
AcDbVariableDictionary
350
5C8
  3
AcDsDecomposeData
350
66B
  3
DWGPROPS
350
665
  0
DICTIONARY
  5
5AA
330
2
100
AcDbDictionary
280
     1
281
     1
  3
ACAD_LAYERFILTERS
360
5AC
  3
ACAD_LAYERSTATES
360
645
  3
ACLYDICTIONARY
360
5AB
  0
DICTIONARY
  5
63A
330
10
100
AcDbDictionary
280
     1
281
     1
  3
ADSK_XREC_LAYER_RECONCILED
360
63B
  0
DICTIONARY
  5
63C
330
BB
100
AcDbDictionary
280
     1
281
     1
  3
ADSK_XREC_LAYER_RECONCILED
360
63D
  0
DICTIONARY
  5
63E
330
E6
100
AcDbDictionary
280
     1
281
     1
  3
ADSK_XREC_LAYER_RECONCILED
360
63F
  0
DICTIONARY
  5
640
330
458
100
AcDbDictionary
280
     1
281
     1
  3
ADSK_XREC_LAYER_RECONCILED
360
641
  0
DICTIONARY
  5
5AE
330
1F
100
AcDbDictionary
280
     1
281
     1
  3
ACAD_SORTENTS
360
5AF
  0
XRECORD
  5
639
102
{ACAD_REACTORS
330
C
102
}
330
C
100
AcDbXrecord
280
     1
300
ACDLT
300
2019
300
ACDLT_F_S
  0
DICTIONARY
  5
53D
102
{ACAD_REACTORS
330
C
102
}
330
C
100
AcDbDictionary
281
     1
  0
DICTIONARY
  5
632
102
{ACAD_REACTORS
330
C
102
}
330
C
100
AcDbDictionary
281
     1
  3
Metric50
350
633
  0
DICTIONARY
  5
D
102
{ACAD_REACTORS
330
C
102
}
330
C
100
AcDbDictionary
281
     1
  0
DICTIONARY
  5
1A
102
{ACAD_REACTORS
330
C
102
}
330
C
100
AcDbDictionary
281
     1
  3
Model
350
22
  3
\U+FF9A\U+FF72\U+FF71\U+FF73\U+FF841
350
1E
  3
\U+FF9A\U+FF72\U+FF71\U+FF73\U+FF842
350
26
  0
DICTIONARY
  5
53C
102
{ACAD_REACTORS
330
C
102
}
330
C
100
AcDbDictionary
281
     1
  3
ByBlock
350
5F3
  3
ByLayer
350
5EB
  3
Global
350
5FB
  0
DICTIONARY
  5
62E
102
{ACAD_REACTORS
330
C
102
}
330
C
100
AcDbDictionary
281
     1
  3
Standard
350
62F
  0
DICTIONARY
  5
17
102
{ACAD_REACTORS
330
C
102
}
330
C
100
AcDbDictionary
281
     1
  3
Standard
350
18
  0
DICTIONARY
  5
19
102
{ACAD_REACTORS
330
C
102
}
330
C
100
AcDbDictionary
281
     1
  0
ACDBDICTIONARYWDFLT
  5
E
102
{ACAD_REACTORS
330
C
102
}
330
C
100
AcDbDictionary
281
     1
  3
Normal
350
F
100
AcDbDictionaryWithDefault
340
F
  0
DICTIONARY
  5
61C
102
{ACAD_REACTORS
330
C
102
}
330
C
100
AcDbDictionary
281
     1
  3
A0
350
61D
  3
A1
350
61E
  3
A2
350
61F
  3
A3
350
620
  3
A4
350
621
  3
A5
350
622
  3
A6
350
623
  3
A7
350
624
  3
A8
350
625
  3
A9
350
626
  3
B0
350
627
  3
B1
350
628
  3
B2
350
629
  3
B3
350
62A
  3
B4
350
62B
  3
B5
350
62C
  3
B6
350
62D
  0
DICTIONARY
  5
630
102
{ACAD_REACTORS
330
C
102
}
330
C
100
AcDbDictionary
281
     1
  3
Metric50
350
631
  0
DICTIONARY
  5
53E
102
{ACAD_REACTORS
330
C
102
}
330
C
100
AcDbDictionary
281
     1
  3
Standard
350
53F
  0
DICTIONARY
  5
603
102
{ACAD_REACTORS
330
C
102
}
330
C
100
AcDbDictionary
281
     1
  3
2dWireframe
350
609
  3
Basic
350
608
  3
Brighten
350
60F
  3
ColorChange
350
613
  3
Conceptual
350
60C
  3
Dim
350
60E
  3
EdgeColorOff
350
61B
  3
Facepattern
350
612
  3
Flat
350
604
  3
FlatWithEdges
350
605
  3
Gouraud
350
606
  3
GouraudWithEdges
350
607
  3
Hidden
350
60B
  3
JitterOff
350
619
  3
Linepattern
350
611
  3
OverhangOff
350
61A
  3
Realistic
350
60D
  3
Shaded
350
618
  3
Shaded with edges
350
617
  3
Shades of Gray
350
614
  3
Sketchy
350
615
  3
Thicken
350
610
  3
Wireframe
350
60A
  3
X-Ray
350
616
  0
XRECORD
  5
664
102
{ACAD_REACTORS
330
C
102
}
330
C
100
AcDbXrecord
280
     1
 90
        1
330
53F
  0
DICTIONARY
  5
5C8
102
{ACAD_REACTORS
330
C
102
}
330
C
100
AcDbDictionary
281
     1
  3
CANNOSCALE
350
654
  3
CMLEADERSTYLE
350
650
  3
CTABLESTYLE
350
5C9
  3
CVIEWDETAILSTYLE
350
651
  3
CVIEWSECTIONSTYLE
350
652
  3
DIMASSOC
350
661
  3
INDEXCTL
350
65F
  3
LAYEREVAL
350
656
  3
LAYERNOTIFY
350
657
  3
LIGHTINGUNITS
350
655
  3
MSLTSCALE
350
653
  3
SORTENTS
350
65E
  3
XCLIPFRAME
350
660
  0
DICTIONARY
  5
66B
102
{ACAD_REACTORS
330
C
102
}
330
C
100
AcDbDictionary
281
     1
  3
AcDsRecords
350
66D
  3
AcDsSchemas
350
66C
1001
ACAD
1070
     2
  0
XRECORD
  5
665
102
{ACAD_REACTORS
330
C
102
}
330
C
100
AcDbXrecord
280
     1
  1
DWGPROPS COOKIE
  2

  3

  4

  6

  7

  8
yanagihori
  9

300
=
301
=
302
=
303
=
304
=
305
=
306
=
307
=
308
=
309
=
 40
0.3793661574074074
 41
2451867.627719908
 42
2458810.588043982
  1

 90
        0
  0
DICTIONARY
  5
5AC
102
{ACAD_REACTORS
330
5AA
102
}
330
5AA
100
AcDbDictionary
281
     1
  0
DICTIONARY
  5
645
102
{ACAD_REACTORS
330
5AA
102
}
330
5AA
100
AcDbDictionary
281
     1
  0
DICTIONARY
  5
5AB
102
{ACAD_REACTORS
330
5AA
102
}
330
5AA
100
AcDbDictionary
281
     1
1001
ACAD
1000
<All
  0
XRECORD
  5
63B
102
{ACAD_REACTORS
330
63A
102
}
330
63A
100
AcDbXrecord
280
     1
290
     1
  0
XRECORD
  5
63D
102
{ACAD_REACTORS
330
63C
102
}
330
63C
100
AcDbXrecord
280
     1
290
     1
  0
XRECORD
  5
63F
102
{ACAD_REACTORS
330
63E
102
}
330
63E
100
AcDbXrecord
280
     1
290
     1
  0
XRECORD
  5
641
102
{ACAD_REACTORS
330
640
102
}
330
640
100
AcDbXrecord
280
     1
290
     1
  0
SORTENTSTABLE
  5
5AF
102
{ACAD_REACTORS
330
5AE
102
}
330
5AE
100
AcDbSortentsTable
330
1F
331
4B
  5
D0
331
4D
  5
D1
331
4E
  5
D2
331
4F
  5
D3
331
50
  5
D4
331
D0
  5
D5
331
D1
  5
D6
331
D2
  5
D7
331
D3
  5
D8
331
D4
  5
D9
331
D5
  5
DA
331
D6
  5
DB
331
D7
  5
DC
331
D8
  5
DD
331
D9
  5
DE
331
DA
  5
DF
331
DB
  5
ED
331
DC
  5
EE
331
DD
  5
102
331
DE
  5
103
331
DF
  5
104
331
ED
  5
105
331
EE
  5
106
331
102
  5
107
331
103
  5
108
331
104
  5
109
331
105
  5
10A
331
106
  5
10B
331
107
  5
10C
331
108
  5
10E
331
109
  5
10F
331
10A
  5
110
331
10B
  5
111
331
10C
  5
112
331
10E
  5
11E
331
10F
  5
120
331
110
  5
122
331
111
  5
124
331
112
  5
125
331
11E
  5
126
331
120
  5
127
331
122
  5
128
331
124
  5
129
331
125
  5
12A
331
126
  5
12C
331
127
  5
12D
331
128
  5
12E
331
129
  5
12F
331
12A
  5
130
331
12C
  5
131
331
12D
  5
132
331
12E
  5
133
331
12F
  5
134
331
130
  5
135
331
131
  5
136
331
132
  5
137
331
133
  5
138
331
134
  5
139
331
135
  5
13A
331
136
  5
13B
331
137
  5
13C
331
138
  5
13D
331
139
  5
13E
331
13A
  5
13F
331
13B
  5
140
331
13C
  5
141
331
13D
  5
143
331
13E
  5
144
331
13F
  5
145
331
140
  5
146
331
141
  5
147
331
143
  5
148
331
144
  5
149
331
145
  5
14A
331
146
  5
14B
331
147
  5
14C
331
148
  5
14D
331
149
  5
14E
331
14A
  5
14F
331
14B
  5
150
331
14C
  5
151
331
14D
  5
152
331
14E
  5
153
331
14F
  5
154
331
150
  5
155
331
151
  5
156
331
152
  5
157
331
153
  5
158
331
154
  5
15A
331
155
  5
15B
331
156
  5
15C
331
157
  5
160
331
158
  5
161
331
15A
  5
162
331
15B
  5
164
331
15C
  5
165
331
160
  5
167
331
161
  5
168
331
162
  5
16F
331
164
  5
171
331
165
  5
172
331
167
  5
173
331
168
  5
174
331
16F
  5
175
331
171
  5
178
331
172
  5
179
331
173
  5
17A
331
174
  5
17B
331
175
  5
17C
331
178
  5
17D
331
179
  5
17E
331
17A
  5
17F
331
17B
  5
180
331
17C
  5
181
331
17D
  5
184
331
17E
  5
185
331
17F
  5
188
331
180
  5
189
331
181
  5
1B2
331
184
  5
1B3
331
185
  5
1B4
331
188
  5
1B5
331
189
  5
1B6
331
1B2
  5
1B7
331
1B3
  5
1B8
331
1B4
  5
1B9
331
1B5
  5
1BA
331
1B6
  5
1BB
331
1B7
  5
1BC
331
1B8
  5
1BD
331
1B9
  5
1BE
331
1BA
  5
1BF
331
1BB
  5
1C0
331
1BC
  5
1C1
331
1BD
  5
1C2
331
1BE
  5
1C3
331
1BF
  5
1C4
331
1C0
  5
1C5
331
1C1
  5
1C6
331
1C2
  5
1C7
331
1C3
  5
1C8
331
1C4
  5
1C9
331
1C5
  5
1CA
331
1C6
  5
1CB
331
1C7
  5
1CC
331
1C8
  5
1CD
331
1C9
  5
1CE
331
1CA
  5
1CF
331
1CB
  5
1D0
331
1CC
  5
1D1
331
1CD
  5
1D2
331
1CE
  5
1D3
331
1CF
  5
1D4
331
1D0
  5
1D5
331
1D1
  5
1D6
331
1D2
  5
1D7
331
1D3
  5
1D8
331
1D4
  5
1D9
331
1D5
  5
1DA
331
1D6
  5
1DB
331
1D7
  5
1DC
331
1D8
  5
1DD
331
1D9
  5
1DE
331
1DA
  5
1DF
331
1DB
  5
1E0
331
1DC
  5
1E1
331
1DD
  5
1E2
331
1DE
  5
1E3
331
1DF
  5
1E4
331
1E0
  5
1E5
331
1E1
  5
1E6
331
1E2
  5
1E7
331
1E3
  5
1E8
331
1E4
  5
1E9
331
1E5
  5
1EA
331
1E6
  5
1EB
331
1E7
  5
1EC
331
1E8
  5
1ED
331
1E9
  5
1EE
331
1EA
  5
1EF
331
1EB
  5
1F0
331
1EC
  5
1F1
331
1ED
  5
1F2
331
1EE
  5
1F3
331
1EF
  5
1F4
331
1F0
  5
1F5
331
1F1
  5
1F6
331
1F2
  5
1F7
331
1F3
  5
1F8
331
1F4
  5
1F9
331
1F5
  5
1FA
331
1F6
  5
1FB
331
1F7
  5
1FC
331
1F8
  5
1FD
331
1F9
  5
1FE
331
1FA
  5
1FF
331
1FB
  5
200
331
1FC
  5
201
331
1FD
  5
202
331
1FE
  5
203
331
1FF
  5
204
331
200
  5
205
331
201
  5
206
331
202
  5
207
331
203
  5
208
331
204
  5
209
331
205
  5
20A
331
206
  5
20B
331
207
  5
20C
331
208
  5
20D
331
209
  5
20E
331
20A
  5
20F
331
20B
  5
210
331
20C
  5
211
331
20D
  5
212
331
20E
  5
213
331
20F
  5
214
331
210
  5
215
331
211
  5
21B
331
212
  5
229
331
213
  5
285
331
214
  5
292
331
215
  5
2AC
331
21B
  5
2CB
331
229
  5
2F3
331
285
  5
309
331
292
  5
316
331
2AC
  5
32C
331
2CB
  5
3A6
331
2F3
  5
43C
331
309
  5
44D
331
316
  5
44F
331
32C
  5
450
331
3A6
  5
451
331
43C
  5
452
331
44D
  5
453
331
44F
  5
454
331
450
  5
455
331
451
  5
456
331
452
  5
457
331
453
  5
478
331
454
  5
479
331
455
  5
481
331
456
  5
482
331
457
  5
483
331
478
  5
484
331
479
  5
48F
331
481
  5
490
331
482
  5
498
331
483
  5
499
331
484
  5
5AD
331
48F
  5
5B0
331
490
  5
5B1
331
498
  5
5B2
331
499
  5
5B3
  0
ACDBDETAILVIEWSTYLE
  5
633
102
{ACAD_XDICTIONARY
360
6AD
102
}
102
{ACAD_REACTORS
330
632
102
}
330
632
100
AcDbModelDocViewStyle
 70
     0
  3
Metric50
290
     0
100
AcDbDetailViewStyle
 70
     0
 71
     0
 90
        3
 71
     1
340
11
 40
5.0
340
0
 40
5.0
300

 40
0.0
280
     1
 71
     2
340
16
 90
       25
 71
     3
340
11
 40
5.0
 90
        0
 40
15.0
 90
        1
300
%<\AcVar ViewDetailId>% (%<\AcVar ViewScale \f "%sn">%)
 71
     4
340
16
 90
       25
340
16
 90
       25
280
     0
  0
LAYOUT
  5
22
102
{ACAD_XDICTIONARY
360
670
102
}
102
{ACAD_REACTORS
330
1A
102
}
330
1A
100
AcDbPlotSettings
  1

  2
EPSON PM-800C
  4
A4
  6

 40
3.757083177566528
 41
14.7637300491333
 42
3.757080078125
 43
3.757080078125
 44
209.9733276367187
 45
296.9683227539062
 46
0.0
 47
0.0
 48
0.0
 49
0.0
140
0.0
141
0.0
142
1.0
143
2.0
 70
 11952
 72
     1
 73
     1
 74
     2
  7

 75
    17
147
0.5
148
0.0
149
0.0
100
AcDbLayout
  1
Model
 70
     1
 71
     0
 10
0.0
 20
0.0
 11
12.0
 21
9.0
 12
0.0
 22
0.0
 32
0.0
 14
0.0
 24
0.0
 34
0.0
 15
0.0
 25
0.0
 35
0.0
146
0.0
 13
0.0
 23
0.0
 33
0.0
 16
1.0
 26
0.0
 36
0.0
 17
0.0
 27
1.0
 37
0.0
 76
     0
330
1F
331
5E9
  0
LAYOUT
  5
1E
102
{ACAD_XDICTIONARY
360
66E
102
}
102
{ACAD_REACTORS
330
1A
102
}
330
1A
100
AcDbPlotSettings
  1

  2
EPSON PM-800C
  4

  6

 40
0.0
 41
0.0
 42
0.0
 43
0.0
 44
0.0
 45
0.0
 46
0.0
 47
0.0
 48
0.0
 49
0.0
140
0.0
141
0.0
142
1.0
143
1.0
 70
   688
 72
     0
 73
     0
 74
     5
  7

 75
    16
147
1.0
148
0.0
149
0.0
100
AcDbLayout
  1
\U+FF9A\U+FF72\U+FF71\U+FF73\U+FF841
 70
     1
 71
     1
 10
0.0
 20
0.0
 11
420.0
 21
297.0
 12
0.0
 22
0.0
 32
0.0
 14
1.000000000000000E+20
 24
1.000000000000000E+20
 34
1.000000000000000E+20
 15
-1.000000000000000E+20
 25
-1.000000000000000E+20
 35
-1.000000000000000E+20
146
0.0
 13
0.0
 23
0.0
 33
0.0
 16
1.0
 26
0.0
 36
0.0
 17
0.0
 27
1.0
 37
0.0
 76
     0
330
1B
  0
LAYOUT
  5
26
102
{ACAD_XDICTIONARY
360
672
102
}
102
{ACAD_REACTORS
330
1A
102
}
330
1A
100
AcDbPlotSettings
  1

  2
EPSON PM-800C
  4

  6

 40
0.0
 41
0.0
 42
0.0
 43
0.0
 44
0.0
 45
0.0
 46
0.0
 47
0.0
 48
0.0
 49
0.0
140
0.0
141
0.0
142
1.0
143
1.0
 70
   688
 72
     0
 73
     0
 74
     5
  7

 75
    16
147
1.0
148
0.0
149
0.0
100
AcDbLayout
  1
\U+FF9A\U+FF72\U+FF71\U+FF73\U+FF842
 70
     1
 71
     2
 10
0.0
 20
0.0
 11
12.0
 21
9.0
 12
0.0
 22
0.0
 32
0.0
 14
0.0
 24
0.0
 34
0.0
 15
0.0
 25
0.0
 35
0.0
146
0.0
 13
0.0
 23
0.0
 33
0.0
 16
1.0
 26
0.0
 36
0.0
 17
0.0
 27
1.0
 37
0.0
 76
     0
330
23
  0
MATERIAL
  5
5F3
102
{ACAD_XDICTIONARY
360
5F4
102
}
102
{ACAD_REACTORS
330
53C
102
}
330
53C
100
AcDbMaterial
  1
ByBlock
 72
     0
 43
0.0008202099737533
 43
0.0
 43
0.0
 43
0.0
 43
0.0
 43
0.0008202099737533
 43
0.0
 43
0.0
 43
0.0
 43
0.0
 43
1.0
 43
0.0
 43
0.0
 43
0.0
 43
0.0
 43
1.0
 77
     0
 47
0.0008202099737533
 47
0.0
 47
0.0
 47
0.0
 47
0.0
 47
0.0008202099737533
 47
0.0
 47
0.0
 47
0.0
 47
0.0
 47
1.0
 47
0.0
 47
0.0
 47
0.0
 47
0.0
 47
1.0
171
     0
 49
0.0008202099737533
 49
0.0
 49
0.0
 49
0.0
 49
0.0
 49
0.0008202099737533
 49
0.0
 49
0.0
 49
0.0
 49
0.0
 49
1.0
 49
0.0
 49
0.0
 49
0.0
 49
0.0
 49
1.0
175
     0
142
0.0008202099737533
142
0.0
142
0.0
142
0.0
142
0.0
142
0.0008202099737533
142
0.0
142
0.0
142
0.0
142
0.0
142
1.0
142
0.0
142
0.0
142
0.0
142
0.0
142
1.0
179
     0
144
0.0008202099737533
144
0.0
144
0.0
144
0.0
144
0.0
144
0.0008202099737533
144
0.0
144
0.0
144
0.0
144
0.0
144
1.0
144
0.0
144
0.0
144
0.0
144
0.0
144
1.0
147
0.0008202099737533
147
0.0
147
0.0
147
0.0
147
0.0
147
0.0008202099737533
147
0.0
147
0.0
147
0.0
147
0.0
147
1.0
147
0.0
147
0.0
147
0.0
147
0.0
147
1.0
  0
MATERIAL
  5
5EB
102
{ACAD_XDICTIONARY
360
5EC
102
}
102
{ACAD_REACTORS
330
53C
102
}
330
53C
100
AcDbMaterial
  1
ByLayer
 72
     0
 43
0.0008202099737533
 43
0.0
 43
0.0
 43
0.0
 43
0.0
 43
0.0008202099737533
 43
0.0
 43
0.0
 43
0.0
 43
0.0
 43
1.0
 43
0.0
 43
0.0
 43
0.0
 43
0.0
 43
1.0
 77
     0
 47
0.0008202099737533
 47
0.0
 47
0.0
 47
0.0
 47
0.0
 47
0.0008202099737533
 47
0.0
 47
0.0
 47
0.0
 47
0.0
 47
1.0
 47
0.0
 47
0.0
 47
0.0
 47
0.0
 47
1.0
171
     0
 49
0.0008202099737533
 49
0.0
 49
0.0
 49
0.0
 49
0.0
 49
0.0008202099737533
 49
0.0
 49
0.0
 49
0.0
 49
0.0
 49
1.0
 49
0.0
 49
0.0
 49
0.0
 49
0.0
 49
1.0
175
     0
142
0.0008202099737533
142
0.0
142
0.0
142
0.0
142
0.0
142
0.0008202099737533
142
0.0
142
0.0
142
0.0
142
0.0
142
1.0
142
0.0
142
0.0
142
0.0
142
0.0
142
1.0
179
     0
144
0.0008202099737533
144
0.0
144
0.0
144
0.0
144
0.0
144
0.0008202099737533
144
0.0
144
0.0
144
0.0
144
0.0
144
1.0
144
0.0
144
0.0
144
0.0
144
0.0
144
1.0
147
0.0008202099737533
147
0.0
147
0.0
147
0.0
147
0.0
147
0.0008202099737533
147
0.0
147
0.0
147
0.0
147
0.0
147
1.0
147
0.0
147
0.0
147
0.0
147
0.0
147
1.0
  0
MATERIAL
  5
5FB
102
{ACAD_XDICTIONARY
360
5FC
102
}
102
{ACAD_REACTORS
330
53C
102
}
330
53C
100
AcDbMaterial
  1
Global
 72
     0
 43
0.0008202099737533
 43
0.0
 43
0.0
 43
0.0
 43
0.0
 43
0.0008202099737533
 43
0.0
 43
0.0
 43
0.0
 43
0.0
 43
1.0
 43
0.0
 43
0.0
 43
0.0
 43
0.0
 43
1.0
 77
     0
 47
0.0008202099737533
 47
0.0
 47
0.0
 47
0.0
 47
0.0
 47
0.0008202099737533
 47
0.0
 47
0.0
 47
0.0
 47
0.0
 47
1.0
 47
0.0
 47
0.0
 47
0.0
 47
0.0
 47
1.0
171
     0
 49
0.0008202099737533
 49
0.0
 49
0.0
 49
0.0
 49
0.0
 49
0.0008202099737533
 49
0.0
 49
0.0
 49
0.0
 49
0.0
 49
1.0
 49
0.0
 49
0.0
 49
0.0
 49
0.0
 49
1.0
175
     0
142
0.0008202099737533
142
0.0
142
0.0
142
0.0
142
0.0
142
0.0008202099737533
142
0.0
142
0.0
142
0.0
142
0.0
142
1.0
142
0.0
142
0.0
142
0.0
142
0.0
142
1.0
179
     0
144
0.0008202099737533
144
0.0
144
0.0
144
0.0
144
0.0
144
0.0008202099737533
144
0.0
144
0.0
144
0.0
144
0.0
144
1.0
144
0.0
144
0.0
144
0.0
144
0.0
144
1.0
147
0.0008202099737533
147
0.0
147
0.0
147
0.0
147
0.0
147
0.0008202099737533
147
0.0
147
0.0
147
0.0
147
0.0
147
1.0
147
0.0
147
0.0
147
0.0
147
0.0
147
1.0
  0
MLEADERSTYLE
  5
62F
102
{ACAD_XDICTIONARY
360
6A9
102
}
102
{ACAD_REACTORS
330
62E
102
}
330
62E
100
AcDbMLeaderStyle
170
     2
171
     1
172
     0
 90
        2
 40
0.0
 41
0.0
173
     1
 91
-1056964608
340
14
 92
       -2
290
     1
 42
2.0
291
     1
 43
0.36
  3
Standard
 44
4.0
300

342
11
174
     1
178
     6
175
     1
176
     0
 93
-1056964608
 45
4.0
292
     0
297
     0
 46
4.0
 94
-1056964608
 47
1.0
 49
1.0
140
1.0
293
     1
141
0.0
294
     1
177
     0
142
1.0
295
     0
296
     0
143
0.125
1001
ACAD_MLEADERVER
1070
     2
  0
MLINESTYLE
  5
18
102
{ACAD_REACTORS
330
17
102
}
330
17
100
AcDbMlineStyle
  2
STANDARD
 70
     0
  3

 62
   256
 51
90.0
 52
90.0
 71
     2
 49
0.5
 62
   256
  6
BYLAYER
 49
-0.5
 62
   256
  6
BYLAYER
  0
ACDBPLACEHOLDER
  5
F
102
{ACAD_REACTORS
330
E
102
}
330
E
  0
SCALE
  5
61D
102
{ACAD_REACTORS
330
61C
102
}
330
61C
100
AcDbScale
 70
     0
300
1:1
140
1.0
141
1.0
290
     1
  0
SCALE
  5
61E
102
{ACAD_REACTORS
330
61C
102
}
330
61C
100
AcDbScale
 70
     0
300
1:2
140
1.0
141
2.0
290
     0
  0
SCALE
  5
61F
102
{ACAD_REACTORS
330
61C
102
}
330
61C
100
AcDbScale
 70
     0
300
1:4
140
1.0
141
4.0
290
     0
  0
SCALE
  5
620
102
{ACAD_REACTORS
330
61C
102
}
330
61C
100
AcDbScale
 70
     0
300
1:5
140
1.0
141
5.0
290
     0
  0
SCALE
  5
621
102
{ACAD_REACTORS
330
61C
102
}
330
61C
100
AcDbScale
 70
     0
300
1:8
140
1.0
141
8.0
290
     0
  0
SCALE
  5
622
102
{ACAD_REACTORS
330
61C
102
}
330
61C
100
AcDbScale
 70
     0
300
1:10
140
1.0
141
10.0
290
     0
  0
SCALE
  5
623
102
{ACAD_REACTORS
330
61C
102
}
330
61C
100
AcDbScale
 70
     0
300
1:16
140
1.0
141
16.0
290
     0
  0
SCALE
  5
624
102
{ACAD_REACTORS
330
61C
102
}
330
61C
100
AcDbScale
 70
     0
300
1:20
140
1.0
141
20.0
290
     0
  0
SCALE
  5
625
102
{ACAD_REACTORS
330
61C
102
}
330
61C
100
AcDbScale
 70
     0
300
1:30
140
1.0
141
30.0
290
     0
  0
SCALE
  5
626
102
{ACAD_REACTORS
330
61C
102
}
330
61C
100
AcDbScale
 70
     0
300
1:40
140
1.0
141
40.0
290
     0
  0
SCALE
  5
627
102
{ACAD_REACTORS
330
61C
102
}
330
61C
100
AcDbScale
 70
     0
300
1:50
140
1.0
141
50.0
290
     0
  0
SCALE
  5
628
102
{ACAD_REACTORS
330
61C
102
}
330
61C
100
AcDbScale
 70
     0
300
1:100
140
1.0
141
100.0
290
     0
  0
SCALE
  5
629
102
{ACAD_REACTORS
330
61C
102
}
330
61C
100
AcDbScale
 70
     0
300
2:1
140
2.0
141
1.0
290
     0
  0
SCALE
  5
62A
102
{ACAD_REACTORS
330
61C
102
}
330
61C
100
AcDbScale
 70
     0
300
4:1
140
4.0
141
1.0
290
     0
  0
SCALE
  5
62B
102
{ACAD_REACTORS
330
61C
102
}
330
61C
100
AcDbScale
 70
     0
300
8:1
140
8.0
141
1.0
290
     0
  0
SCALE
  5
62C
102
{ACAD_REACTORS
330
61C
102
}
330
61C
100
AcDbScale
 70
     0
300
10:1
140
10.0
141
1.0
290
     0
  0
SCALE
  5
62D
102
{ACAD_REACTORS
330
61C
102
}
330
61C
100
AcDbScale
 70
     0
300
100:1
140
100.0
141
1.0
290
     0
  0
ACDBSECTIONVIEWSTYLE
  5
631
102
{ACAD_XDICTIONARY
360
6AB
102
}
102
{ACAD_REACTORS
330
630
102
}
330
630
100
AcDbModelDocViewStyle
 70
     0
  3
Metric50
290
     0
100
AcDbSectionViewStyle
 70
     0
 71
     0
 90
      102
 71
     1
340
11
 40
5.0
340
0
340
0
 40
5.0
300
I, O, Q, S, X, Z
 40
10.0
 90
        0
 40
2.5
 90
        0
 71
     2
340
16
 90
       25
340
16
 90
       50
 40
5.0
 40
2.5
 40
5.0
 71
     3
340
11
 40
5.0
 90
        0
 40
15.0
 90
        1
300
%<\AcVar ViewSectionStartId>%-%<\AcVar ViewSectionEndId>% (%<\AcVar ViewScale \f "%sn">%)
 71
     4
300
ANSI31
 40
1.0
 90
        0
290
     0
290
     0
 90
        6
 40
0.0
 40
1.570796326794896
 40
0.2617993877991494
 40
1.308996938995747
 40
-0.2617993877991494
 40
1.832595714594046
  0
TABLESTYLE
  5
53F
102
{ACAD_XDICTIONARY
360
662
102
}
102
{ACAD_REACTORS
330
53E
102
}
330
53E
100
AcDbTableStyle
  3
Standard
 70
     0
 71
     0
 40
1.5
 41
1.5
280
     0
281
     0
  7
Standard
140
4.5
170
     2
 62
     0
 63
     7
283
     0
274
    -2
284
     1
 64
     0
275
    -2
285
     1
 65
     0
276
    -2
286
     1
 66
     0
277
    -2
287
     1
 67
     0
278
    -2
288
     1
 68
     0
279
    -2
289
     1
 69
     0
  7
Standard
140
6.0
170
     5
 62
     0
 63
     7
283
     0
274
    -2
284
     1
 64
     0
275
    -2
285
     1
 65
     0
276
    -2
286
     1
 66
     0
277
    -2
287
     1
 67
     0
278
    -2
288
     1
 68
     0
279
    -2
289
     1
 69
     0
  7
Standard
140
4.5
170
     5
 62
     0
 63
     7
283
     0
274
    -2
284
     1
 64
     0
275
    -2
285
     1
 65
     0
276
    -2
286
     1
 66
     0
277
    -2
287
     1
 67
     0
278
    -2
288
     1
 68
     0
279
    -2
289
     1
 69
     0
  0
VISUALSTYLE
  5
609
102
{ACAD_XDICTIONARY
360
682
102
}
102
{ACAD_REACTORS
330
603
102
}
330
603
100
AcDbVisualStyle
  2
2dWireframe
 70
     4
 71
     0
 72
     2
 73
     0
 90
        0
 40
-0.6
 41
-30.0
 62
     5
 63
     7
 74
     1
 91
        4
 64
     7
 65
   257
 75
     1
175
     1
 42
1.0
 92
        0
 66
   257
 43
1.0
 76
     1
 77
     6
 78
     2
 67
     7
 79
     5
170
     0
171
     0
290
     0
174
     0
 93
        1
 44
0.0
173
     0
291
     0
 45
0.0
1001
ACAD
1000
AcDbSavedByObjectVersion
1070
     0
  0
VISUALSTYLE
  5
608
102
{ACAD_XDICTIONARY
360
680
102
}
102
{ACAD_REACTORS
330
603
102
}
330
603
100
AcDbVisualStyle
  2
Basic
 70
     7
 71
     1
 72
     0
 73
     1
 90
        0
 40
-0.6
 41
-30.0
 62
     5
 63
     7
 74
     0
 91
        4
 64
     7
 65
   257
 75
     1
175
     1
 42
1.0
 92
        8
 66
     7
 43
1.0
 76
     1
 77
     6
 78
     2
 67
     7
 79
     5
170
     0
171
     0
290
     0
174
     0
 93
        1
 44
0.0
173
     0
291
     1
 45
0.0
1001
ACAD
1000
AcDbSavedByObjectVersion
1070
     0
  0
VISUALSTYLE
  5
60F
102
{ACAD_XDICTIONARY
360
68E
102
}
102
{ACAD_REACTORS
330
603
102
}
330
603
100
AcDbVisualStyle
  2
Brighten
 70
    12
 71
     2
 72
     2
 73
     0
 90
        0
 40
-0.6
 41
-30.0
 62
     5
 63
     7
 74
     1
 91
        4
 64
     7
 65
   257
 75
     1
175
     1
 42
1.0
 92
        8
 66
     7
 43
1.0
 76
     1
 77
     6
 78
     2
 67
     7
 79
     5
170
     0
171
     0
290
     0
174
     0
 93
        1
 44
50.0
173
     0
291
     1
 45
0.0
1001
ACAD
1000
AcDbSavedByObjectVersion
1070
     0
  0
VISUALSTYLE
  5
613
102
{ACAD_XDICTIONARY
360
696
102
}
102
{ACAD_REACTORS
330
603
102
}
330
603
100
AcDbVisualStyle
  2
ColorChange
 70
    16
 71
     2
 72
     2
 73
     3
 90
        0
 40
-0.6
 41
-30.0
 62
     5
 63
     8
 74
     1
 91
        4
 64
     7
 65
   257
 75
     1
175
     1
 42
1.0
 92
        8
 66
     8
 43
1.0
 76
     1
 77
     6
 78
     2
 67
     7
 79
     5
170
     0
171
     0
290
     0
174
     0
 93
        1
 44
0.0
173
     0
291
     1
 45
0.0
1001
ACAD
1000
AcDbSavedByObjectVersion
1070
     0
  0
VISUALSTYLE
  5
60C
102
{ACAD_XDICTIONARY
360
688
102
}
102
{ACAD_REACTORS
330
603
102
}
330
603
100
AcDbVisualStyle
  2
Conceptual
 70
     9
 71
     3
 72
     2
 73
     0
 90
        0
 40
-0.6
 41
-30.0
 62
     5
 63
     7
 74
     2
 91
        2
 64
     7
 65
   257
 75
     1
175
     1
 42
179.0
 92
        8
 66
     7
 43
1.0
 76
     1
 77
     6
 78
     2
 67
     7
 79
     3
170
     0
171
     0
290
     0
174
     0
 93
        1
 44
0.0
173
     0
291
     0
 45
0.0
1001
ACAD
1000
AcDbSavedByObjectVersion
1070
     0
  0
VISUALSTYLE
  5
60E
102
{ACAD_XDICTIONARY
360
68C
102
}
102
{ACAD_REACTORS
330
603
102
}
330
603
100
AcDbVisualStyle
  2
Dim
 70
    11
 71
     2
 72
     2
 73
     0
 90
        0
 40
-0.6
 41
-30.0
 62
     5
 63
     7
 74
     1
 91
        4
 64
     7
 65
   257
 75
     1
175
     1
 42
1.0
 92
        8
 66
     7
 43
1.0
 76
     1
 77
     6
 78
     2
 67
     7
 79
     5
170
     0
171
     0
290
     0
174
     0
 93
        1
 44
-50.0
173
     0
291
     1
 45
0.0
1001
ACAD
1000
AcDbSavedByObjectVersion
1070
     0
  0
VISUALSTYLE
  5
61B
102
{ACAD_XDICTIONARY
360
6A6
102
}
102
{ACAD_REACTORS
330
603
102
}
330
603
100
AcDbVisualStyle
  2
EdgeColorOff
 70
    22
 71
     2
 72
     2
 73
     0
 90
        0
 40
-0.6
 41
-30.0
 62
     5
 63
     7
 74
     1
 91
        4
 64
     7
 65
   257
 75
     1
175
     1
 42
1.0
 92
        8
 66
     7
 43
1.0
 76
     1
 77
     6
 78
     2
 67
     7
 79
     5
170
     0
171
     0
290
     0
174
     0
 93
        1
 44
0.0
173
     0
291
     1
 45
0.0
1001
ACAD
1000
AcDbSavedByObjectVersion
1070
     0
  0
VISUALSTYLE
  5
612
102
{ACAD_XDICTIONARY
360
694
102
}
102
{ACAD_REACTORS
330
603
102
}
330
603
100
AcDbVisualStyle
  2
Facepattern
 70
    15
 71
     2
 72
     2
 73
     0
 90
        0
 40
-0.6
 41
-30.0
 62
     5
 63
     7
 74
     1
 91
        4
 64
     7
 65
   257
 75
     1
175
     1
 42
1.0
 92
        8
 66
     7
 43
1.0
 76
     1
 77
     6
 78
     2
 67
     7
 79
     5
170
     0
171
     0
290
     0
174
     0
 93
        1
 44
0.0
173
     0
291
     1
 45
0.0
1001
ACAD
1000
AcDbSavedByObjectVersion
1070
     0
  0
VISUALSTYLE
  5
604
102
{ACAD_XDICTIONARY
360
678
102
}
102
{ACAD_REACTORS
330
603
102
}
330
603
100
AcDbVisualStyle
  2
Flat
 70
     0
 71
     2
 72
     1
 73
     1
 90
        2
 40
-0.6
 41
30.0
 62
     5
 63
     7
 74
     0
 91
        0
 64
     7
 65
   257
 75
     1
175
     1
 42
1.0
 92
        8
 66
     7
 43
1.0
 76
     1
 77
     6
 78
     2
 67
     7
 79
     5
170
     0
171
     0
290
     0
174
     0
 93
       13
 44
0.0
173
     0
291
     1
 45
0.0
1001
ACAD
1000
AcDbSavedByObjectVersion
1070
     0
  0
VISUALSTYLE
  5
605
102
{ACAD_XDICTIONARY
360
67A
102
}
102
{ACAD_REACTORS
330
603
102
}
330
603
100
AcDbVisualStyle
  2
FlatWithEdges
 70
     1
 71
     2
 72
     1
 73
     1
 90
        2
 40
-0.6
 41
30.0
 62
     5
 63
     7
 74
     1
 91
        0
 64
     7
 65
   257
 75
     1
175
     1
 42
1.0
 92
        0
 66
   257
 43
1.0
 76
     1
 77
     6
 78
     2
 67
     7
 79
     5
170
     0
171
     0
290
     0
174
     0
 93
       13
 44
0.0
173
     0
291
     1
 45
0.0
1001
ACAD
1000
AcDbSavedByObjectVersion
1070
     0
  0
VISUALSTYLE
  5
606
102
{ACAD_XDICTIONARY
360
67C
102
}
102
{ACAD_REACTORS
330
603
102
}
330
603
100
AcDbVisualStyle
  2
Gouraud
 70
     2
 71
     2
 72
     2
 73
     1
 90
        2
 40
-0.6
 41
30.0
 62
     5
 63
     7
 74
     0
 91
        0
 64
     7
 65
   257
 75
     1
175
     1
 42
1.0
 92
        0
 66
     7
 43
1.0
 76
     1
 77
     6
 78
     2
 67
     7
 79
     5
170
     0
171
     0
290
     0
174
     0
 93
       13
 44
0.0
173
     0
291
     1
 45
0.0
1001
ACAD
1000
AcDbSavedByObjectVersion
1070
     0
  0
VISUALSTYLE
  5
607
102
{ACAD_XDICTIONARY
360
67E
102
}
102
{ACAD_REACTORS
330
603
102
}
330
603
100
AcDbVisualStyle
  2
GouraudWithEdges
 70
     3
 71
     2
 72
     2
 73
     1
 90
        2
 40
-0.6
 41
30.0
 62
     5
 63
     7
 74
     1
 91
        0
 64
     7
 65
   257
 75
     1
175
     1
 42
1.0
 92
        0
 66
   257
 43
1.0
 76
     1
 77
     6
 78
     2
 67
     7
 79
     5
170
     0
171
     0
290
     0
174
     0
 93
       13
 44
0.0
173
     0
291
     1
 45
0.0
1001
ACAD
1000
AcDbSavedByObjectVersion
1070
     0
  0
VISUALSTYLE
  5
60B
102
{ACAD_XDICTIONARY
360
686
102
}
102
{ACAD_REACTORS
330
603
102
}
330
603
100
AcDbVisualStyle
  2
Hidden
 70
     6
 71
     1
 72
     2
 73
     2
 90
        0
 40
-0.6
 41
-30.0
 62
     5
 63
     7
 74
     2
 91
        2
 64
     7
 65
   257
 75
     2
175
     1
 42
40.0
 92
        0
 66
   257
 43
1.0
 76
     1
 77
     6
 78
     2
 67
     7
 79
     3
170
     0
171
     0
290
     0
174
     0
 93
        1
 44
0.0
173
     0
291
     0
 45
0.0
1001
ACAD
1000
AcDbSavedByObjectVersion
1070
     0
  0
VISUALSTYLE
  5
619
102
{ACAD_XDICTIONARY
360
6A2
102
}
102
{ACAD_REACTORS
330
603
102
}
330
603
100
AcDbVisualStyle
  2
JitterOff
 70
    20
 71
     2
 72
     2
 73
     0
 90
        0
 40
-0.6
 41
-30.0
 62
     5
 63
     7
 74
     1
 91
        4
 64
     7
 65
   257
 75
     1
175
     1
 42
1.0
 92
       10
 66
     7
 43
1.0
 76
     1
 77
     6
 78
     2
 67
     7
 79
     5
170
     0
171
     0
290
     0
174
     0
 93
        1
 44
0.0
173
     0
291
     1
 45
0.0
1001
ACAD
1000
AcDbSavedByObjectVersion
1070
     0
  0
VISUALSTYLE
  5
611
102
{ACAD_XDICTIONARY
360
692
102
}
102
{ACAD_REACTORS
330
603
102
}
330
603
100
AcDbVisualStyle
  2
Linepattern
 70
    14
 71
     2
 72
     2
 73
     0
 90
        0
 40
-0.6
 41
-30.0
 62
     5
 63
     7
 74
     1
 91
        4
 64
     7
 65
   257
 75
     7
175
     7
 42
1.0
 92
        8
 66
     7
 43
1.0
 76
     1
 77
     6
 78
     2
 67
     7
 79
     5
170
     0
171
     0
290
     0
174
     0
 93
        1
 44
0.0
173
     0
291
     1
 45
0.0
1001
ACAD
1000
AcDbSavedByObjectVersion
1070
     0
  0
VISUALSTYLE
  5
61A
102
{ACAD_XDICTIONARY
360
6A4
102
}
102
{ACAD_REACTORS
330
603
102
}
330
603
100
AcDbVisualStyle
  2
OverhangOff
 70
    21
 71
     2
 72
     2
 73
     0
 90
        0
 40
-0.6
 41
-30.0
 62
     5
 63
     7
 74
     1
 91
        4
 64
     7
 65
   257
 75
     1
175
     1
 42
1.0
 92
        9
 66
     7
 43
1.0
 76
     1
 77
     6
 78
     2
 67
     7
 79
     5
170
     0
171
     0
290
     0
174
     0
 93
        1
 44
0.0
173
     0
291
     1
 45
0.0
1001
ACAD
1000
AcDbSavedByObjectVersion
1070
     0
  0
VISUALSTYLE
  5
60D
102
{ACAD_XDICTIONARY
360
68A
102
}
102
{ACAD_REACTORS
330
603
102
}
330
603
100
AcDbVisualStyle
  2
Realistic
 70
     8
 71
     2
 72
     3
 73
     0
 90
        2
 40
-0.6
 41
30.0
 62
     5
 63
     7
 74
     0
 91
        0
 64
     7
 65
   257
 75
     1
175
     1
 42
1.0
 92
        8
 66
   257
 43
1.0
 76
     1
 77
     6
 78
     2
 67
     7
 79
     3
170
     0
171
     0
290
     0
174
     0
 93
       13
 44
0.0
173
     0
291
     0
 45
0.0
1001
ACAD
1000
AcDbSavedByObjectVersion
1070
     0
  0
VISUALSTYLE
  5
618
102
{ACAD_XDICTIONARY
360
6A0
102
}
102
{ACAD_REACTORS
330
603
102
}
330
603
100
AcDbVisualStyle
  2
Shaded
 70
    27
 71
     2
 72
     2
 73
     1
 90
        2
 40
-0.6
 41
30.0
 62
     5
 63
     7
 74
     0
 91
        4
 64
     7
 65
   257
 75
     1
175
     1
 42
1.0
 92
        8
 66
   257
 43
1.0
 76
     1
 77
     6
 78
     2
 67
     8
 79
     3
170
     0
171
     0
290
     0
174
     0
 93
        5
 44
0.0
173
     0
291
     0
 45
0.0
1001
ACAD
1000
AcDbSavedByObjectVersion
1070
     0
  0
VISUALSTYLE
  5
617
102
{ACAD_XDICTIONARY
360
69E
102
}
102
{ACAD_REACTORS
330
603
102
}
330
603
100
AcDbVisualStyle
  2
Shaded with edges
 70
    26
 71
     2
 72
     2
 73
     1
 90
        2
 40
-0.6
 41
30.0
 62
     5
 63
     7
 74
     1
 91
        2
 64
     7
 65
   257
 75
     2
175
     1
 42
1.0
 92
        8
 66
   257
 43
1.0
 76
     1
 77
     6
 78
     2
 67
     7
 79
     3
170
     0
171
     0
290
     0
174
     0
 93
        5
 44
0.0
173
     0
291
     0
 45
0.0
1001
ACAD
1000
AcDbSavedByObjectVersion
1070
     0
  0
VISUALSTYLE
  5
614
102
{ACAD_XDICTIONARY
360
698
102
}
102
{ACAD_REACTORS
330
603
102
}
330
603
100
AcDbVisualStyle
  2
Shades of Gray
 70
    23
 71
     2
 72
     2
 73
     3
 90
        0
 40
-0.6
 41
-30.0
 62
     5
 63
     7
 74
     2
 91
        2
 64
     7
 65
     7
 75
     1
175
     1
 42
40.0
 92
        8
 66
     7
 43
1.0
 76
     1
 77
     6
 78
     2
 67
     7
 79
     3
170
     0
171
     0
290
     0
174
     0
 93
        1
 44
0.0
173
     0
291
     0
 45
0.0
1001
ACAD
1000
AcDbSavedByObjectVersion
1070
     0
  0
VISUALSTYLE
  5
615
102
{ACAD_XDICTIONARY
360
69A
102
}
102
{ACAD_REACTORS
330
603
102
}
330
603
100
AcDbVisualStyle
  2
Sketchy
 70
    24
 71
     1
 72
     2
 73
     2
 90
        0
 40
-0.6
 41
-30.0
 62
     5
 63
     7
 74
     2
 91
        2
 64
     7
 65
     7
 75
     1
175
     1
 42
40.0
 92
       11
 66
     7
 43
1.0
 76
     1
 77
     6
 78
     2
 67
     7
 79
     6
170
     0
171
     0
290
     0
174
     0
 93
        1
 44
0.0
173
     0
291
     0
 45
0.0
1001
ACAD
1000
AcDbSavedByObjectVersion
1070
     0
  0
VISUALSTYLE
  5
610
102
{ACAD_XDICTIONARY
360
690
102
}
102
{ACAD_REACTORS
330
603
102
}
330
603
100
AcDbVisualStyle
  2
Thicken
 70
    13
 71
     2
 72
     2
 73
     0
 90
        0
 40
-0.6
 41
-30.0
 62
     5
 63
     7
 74
     1
 91
        4
 64
     7
 65
   257
 75
     1
175
     1
 42
1.0
 92
       12
 66
     7
 43
1.0
 76
     1
 77
     6
 78
     2
 67
     7
 79
     5
170
     0
171
     0
290
     0
174
     0
 93
        1
 44
0.0
173
     0
291
     1
 45
0.0
1001
ACAD
1000
AcDbSavedByObjectVersion
1070
     0
  0
VISUALSTYLE
  5
60A
102
{ACAD_XDICTIONARY
360
684
102
}
102
{ACAD_REACTORS
330
603
102
}
330
603
100
AcDbVisualStyle
  2
Wireframe
 70
     5
 71
     0
 72
     2
 73
     0
 90
        0
 40
-0.6
 41
-30.0
 62
     5
 63
     7
 74
     1
 91
        4
 64
     7
 65
   257
 75
     1
175
     1
 42
1.0
 92
        0
 66
   257
 43
1.0
 76
     1
 77
     6
 78
     2
 67
     7
 79
     3
170
     0
171
     0
290
     0
174
     0
 93
        1
 44
0.0
173
     0
291
     0
 45
0.0
1001
ACAD
1000
AcDbSavedByObjectVersion
1070
     0
  0
VISUALSTYLE
  5
616
102
{ACAD_XDICTIONARY
360
69C
102
}
102
{ACAD_REACTORS
330
603
102
}
330
603
100
AcDbVisualStyle
  2
X-Ray
 70
    25
 71
     2
 72
     2
 73
     1
 90
        1
 40
0.5
 41
-30.0
 62
     5
 63
     7
 74
     1
 91
        0
 64
     7
 65
   257
 75
     1
175
     1
 42
1.0
 92
        8
 66
     7
 43
1.0
 76
     1
 77
     6
 78
     2
 67
     7
 79
     3
170
     0
171
     0
290
     0
174
     0
 93
       13
 44
0.0
173
     0
291
     0
 45
0.0
1001
ACAD
1000
AcDbSavedByObjectVersion
1070
     0
  0
DICTIONARYVAR
  5
654
102
{ACAD_REACTORS
330
5C8
102
}
330
5C8
100
DictionaryVariables
280
     0
  1
1:1
  0
DICTIONARYVAR
  5
650
102
{ACAD_REACTORS
330
5C8
102
}
330
5C8
100
DictionaryVariables
280
     0
  1
STANDARD
  0
DICTIONARYVAR
  5
5C9
102
{ACAD_REACTORS
330
5C8
102
}
330
5C8
100
DictionaryVariables
280
     0
  1
STANDARD
  0
DICTIONARYVAR
  5
651
102
{ACAD_REACTORS
330
5C8
102
}
330
5C8
100
DictionaryVariables
280
     0
  1
Metric50
  0
DICTIONARYVAR
  5
652
102
{ACAD_REACTORS
330
5C8
102
}
330
5C8
100
DictionaryVariables
280
     0
  1
Metric50
  0
DICTIONARYVAR
  5
661
102
{ACAD_REACTORS
330
5C8
102
}
330
5C8
100
DictionaryVariables
280
     0
  1
1
  0
DICTIONARYVAR
  5
65F
102
{ACAD_REACTORS
330
5C8
102
}
330
5C8
100
DictionaryVariables
280
     0
  1
0
  0
DICTIONARYVAR
  5
656
102
{ACAD_REACTORS
330
5C8
102
}
330
5C8
100
DictionaryVariables
280
     0
  1
1
  0
DICTIONARYVAR
  5
657
102
{ACAD_REACTORS
330
5C8
102
}
330
5C8
100
DictionaryVariables
280
     0
  1
15
  0
DICTIONARYVAR
  5
655
102
{ACAD_REACTORS
330
5C8
102
}
330
5C8
100
DictionaryVariables
280
     0
  1
0
  0
DICTIONARYVAR
  5
653
102
{ACAD_REACTORS
330
5C8
102
}
330
5C8
100
DictionaryVariables
280
     0
  1
0
  0
DICTIONARYVAR
  5
65E
102
{ACAD_REACTORS
330
5C8
102
}
330
5C8
100
DictionaryVariables
280
     0
  1
127
  0
DICTIONARYVAR
  5
660
102
{ACAD_REACTORS
330
5C8
102
}
330
5C8
100
DictionaryVariables
280
     0
  1
0
  0
DICTIONARY
  5
66D
102
{ACAD_REACTORS
330
66B
102
}
330
66B
100
AcDbDictionary
281
     1
  0
DICTIONARY
  5
66C
102
{ACAD_REACTORS
330
66B
102
}
330
66B
100
AcDbDictionary
281
     1
  3
1805154828000
350
666
  3
1805154828016
350
667
  3
1805154828032
350
668
  3
1805154828048
350
669
  3
1805154828064
350
66A
  0
DICTIONARY
  5
6AD
330
633
100
AcDbDictionary
280
     1
281
     1
  3
ACAD_XREC_ROUNDTRIP
360
6AE
  0
DICTIONARY
  5
670
330
22
100
AcDbDictionary
280
     1
281
     1
  3
ACAD_XREC_ROUNDTRIP
360
671
  0
DICTIONARY
  5
66E
330
1E
100
AcDbDictionary
280
     1
281
     1
  3
ACAD_XREC_ROUNDTRIP
360
66F
  0
DICTIONARY
  5
672
330
26
100
AcDbDictionary
280
     1
281
     1
  3
ACAD_XREC_ROUNDTRIP
360
673
  0
DICTIONARY
  5
5F4
330
5F3
100
AcDbDictionary
280
     1
281
     1
  3
ACAD_XREC_ROUNDTRIP
360
676
  3
BUMPTILE
360
5F6
  3
DIFFUSETILE
360
5F5
  3
OPACITYTILE
360
5F9
  3
REFLECTIONTILE
360
5F8
  3
REFRACTIONTILE
360
5FA
  3
SPECULARTILE
360
5F7
  0
DICTIONARY
  5
5EC
330
5EB
100
AcDbDictionary
280
     1
281
     1
  3
ACAD_XREC_ROUNDTRIP
360
675
  3
BUMPTILE
360
5EE
  3
DIFFUSETILE
360
5ED
  3
OPACITYTILE
360
5F1
  3
REFLECTIONTILE
360
5F0
  3
REFRACTIONTILE
360
5F2
  3
SPECULARTILE
360
5EF
  0
DICTIONARY
  5
5FC
330
5FB
100
AcDbDictionary
280
     1
281
     1
  3
ACAD_XREC_ROUNDTRIP
360
677
  3
BUMPTILE
360
5FE
  3
DIFFUSETILE
360
5FD
  3
OPACITYTILE
360
601
  3
REFLECTIONTILE
360
600
  3
REFRACTIONTILE
360
602
  3
SPECULARTILE
360
5FF
  0
DICTIONARY
  5
6A9
330
62F
100
AcDbDictionary
280
     1
281
     1
  3
ACAD_XREC_ROUNDTRIP
360
6AA
  0
DICTIONARY
  5
6AB
330
631
100
AcDbDictionary
280
     1
281
     1
  3
ACAD_XREC_ROUNDTRIP
360
6AC
  0
DICTIONARY
  5
662
330
53F
100
AcDbDictionary
280
     1
281
     1
  3
ACAD_ROUNDTRIP_2008_TABLESTYLE_CELLSTYLEMAP
360
663
  3
ACAD_XREC_ROUNDTRIP
360
674
  0
DICTIONARY
  5
682
330
609
100
AcDbDictionary
280
     1
281
     1
  3
ACAD_XREC_ROUNDTRIP
360
683
  0
DICTIONARY
  5
680
330
608
100
AcDbDictionary
280
     1
281
     1
  3
ACAD_XREC_ROUNDTRIP
360
681
  0
DICTIONARY
  5
68E
330
60F
100
AcDbDictionary
280
     1
281
     1
  3
ACAD_XREC_ROUNDTRIP
360
68F
  0
DICTIONARY
  5
696
330
613
100
AcDbDictionary
280
     1
281
     1
  3
ACAD_XREC_ROUNDTRIP
360
697
  0
DICTIONARY
  5
688
330
60C
100
AcDbDictionary
280
     1
281
     1
  3
ACAD_XREC_ROUNDTRIP
360
689
  0
DICTIONARY
  5
68C
330
60E
100
AcDbDictionary
280
     1
281
     1
  3
ACAD_XREC_ROUNDTRIP
360
68D
  0
DICTIONARY
  5
6A6
330
61B
100
AcDbDictionary
280
     1
281
     1
  3
ACAD_XREC_ROUNDTRIP
360
6A7
  0
DICTIONARY
  5
694
330
612
100
AcDbDictionary
280
     1
281
     1
  3
ACAD_XREC_ROUNDTRIP
360
695
  0
DICTIONARY
  5
678
330
604
100
AcDbDictionary
280
     1
281
     1
  3
ACAD_XREC_ROUNDTRIP
360
679
  0
DICTIONARY
  5
67A
330
605
100
AcDbDictionary
280
     1
281
     1
  3
ACAD_XREC_ROUNDTRIP
360
67B
  0
DICTIONARY
  5
67C
330
606
100
AcDbDictionary
280
     1
281
     1
  3
ACAD_XREC_ROUNDTRIP
360
67D
  0
DICTIONARY
  5
67E
330
607
100
AcDbDictionary
280
     1
281
     1
  3
ACAD_XREC_ROUNDTRIP
360
67F
  0
DICTIONARY
  5
686
330
60B
100
AcDbDictionary
280
     1
281
     1
  3
ACAD_XREC_ROUNDTRIP
360
687
  0
DICTIONARY
  5
6A2
330
619
100
AcDbDictionary
280
     1
281
     1
  3
ACAD_XREC_ROUNDTRIP
360
6A3
  0
DICTIONARY
  5
692
330
611
100
AcDbDictionary
280
     1
281
     1
  3
ACAD_XREC_ROUNDTRIP
360
693
  0
DICTIONARY
  5
6A4
330
61A
100
AcDbDictionary
280
     1
281
     1
  3
ACAD_XREC_ROUNDTRIP
360
6A5
  0
DICTIONARY
  5
68A
330
60D
100
AcDbDictionary
280
     1
281
     1
  3
ACAD_XREC_ROUNDTRIP
360
68B
  0
DICTIONARY
  5
6A0
330
618
100
AcDbDictionary
280
     1
281
     1
  3
ACAD_XREC_ROUNDTRIP
360
6A1
  0
DICTIONARY
  5
69E
330
617
100
AcDbDictionary
280
     1
281
     1
  3
ACAD_XREC_ROUNDTRIP
360
69F
  0
DICTIONARY
  5
698
330
614
100
AcDbDictionary
280
     1
281
     1
  3
ACAD_XREC_ROUNDTRIP
360
699
  0
DICTIONARY
  5
69A
330
615
100
AcDbDictionary
280
     1
281
     1
  3
ACAD_XREC_ROUNDTRIP
360
69B
  0
DICTIONARY
  5
690
330
610
100
AcDbDictionary
280
     1
281
     1
  3
ACAD_XREC_ROUNDTRIP
360
691
  0
DICTIONARY
  5
684
330
60A
100
AcDbDictionary
280
     1
281
     1
  3
ACAD_XREC_ROUNDTRIP
360
685
  0
DICTIONARY
  5
69C
330
616
100
AcDbDictionary
280
     1
281
     1
  3
ACAD_XREC_ROUNDTRIP
360
69D
  0
XRECORD
  5
666
102
{ACAD_REACTORS
330
66C
102
}
330
66C
100
AcDbXrecord
280
     1
  1
AcDb_Thumbnail_Schema
102
{ATTRRECORD
341
667
  2
AcDbDs::TreatedAsObjectData
280
     1
291
     1
102
ATTRRECORD}
102
{ATTRRECORD
341
668
  2
AcDbDs::Legacy
280
     1
291
     1
102
ATTRRECORD}
  2
AcDbDs::ID
280
    10
 91
        8
102
{ATTRRECORD
341
669
  2
AcDs:Indexable
280
     1
291
     1
102
ATTRRECORD}
102
{ATTRRECORD
341
66A
  2
AcDbDs::HandleAttribute
280
     7
282
     1
102
ATTRRECORD}
  2
Thumbnail_Data
280
    15
 91
        0
  0
XRECORD
  5
667
102
{ACAD_REACTORS
330
66C
102
}
330
66C
100
AcDbXrecord
280
     1
  1
AcDbDs::TreatedAsObjectDataSchema
  2
AcDbDs::TreatedAsObjectData
280
     1
 91
        0
  0
XRECORD
  5
668
102
{ACAD_REACTORS
330
66C
102
}
330
66C
100
AcDbXrecord
280
     1
  1
AcDbDs::LegacySchema
  2
AcDbDs::Legacy
280
     1
 91
        0
  0
XRECORD
  5
669
102
{ACAD_REACTORS
330
66C
102
}
330
66C
100
AcDbXrecord
280
     1
  1
AcDbDs::IndexedPropertySchema
  2
AcDs:Indexable
280
     1
 91
        0
  0
XRECORD
  5
66A
102
{ACAD_REACTORS
330
66C
102
}
330
66C
100
AcDbXrecord
280
     1
  1
AcDbDs::HandleAttributeSchema
  2
AcDbDs::HandleAttribute
280
     7
 91
        1
284
     1
  0
XRECORD
  5
6AE
102
{ACAD_REACTORS
330
6AD
102
}
330
6AD
100
AcDbXrecord
280
     1
102
DISPLAYNAME
  1
Metric50
102
FLAGS
 90
        0
  0
XRECORD
  5
671
102
{ACAD_REACTORS
330
670
102
}
330
670
100
AcDbXrecord
280
     1
102
SHADEPLOT
 70
     0
102
SHADEPLOTRESLEVEL
 70
     2
102
SHADEPLOTCUSTOMDPI
 70
   300
  0
XRECORD
  5
66F
102
{ACAD_REACTORS
330
66E
102
}
330
66E
100
AcDbXrecord
280
     1
102
SHADEPLOT
 70
     0
102
SHADEPLOTRESLEVEL
 70
     2
102
SHADEPLOTCUSTOMDPI
 70
   300
  0
XRECORD
  5
673
102
{ACAD_REACTORS
330
672
102
}
330
672
100
AcDbXrecord
280
     1
102
SHADEPLOT
 70
     0
102
SHADEPLOTRESLEVEL
 70
     2
102
SHADEPLOTCUSTOMDPI
 70
   300
  0
XRECORD
  5
676
102
{ACAD_REACTORS
330
5F4
102
}
330
5F4
100
AcDbXrecord
280
     1
102
MATERIAL
148
0.0
149
0.0
149
0.0
 93
        0
 94
      127
282
     0
 72
     0
 77
     0
171
     0
175
     0
179
     0
273
     0
  0
XRECORD
  5
5F6
102
{ACAD_REACTORS
330
5F4
102
}
330
5F4
100
AcDbXrecord
280
     1
270
     1
271
     1
  0
XRECORD
  5
5F5
102
{ACAD_REACTORS
330
5F4
102
}
330
5F4
100
AcDbXrecord
280
     1
270
     1
271
     1
  0
XRECORD
  5
5F9
102
{ACAD_REACTORS
330
5F4
102
}
330
5F4
100
AcDbXrecord
280
     1
270
     1
271
     1
  0
XRECORD
  5
5F8
102
{ACAD_REACTORS
330
5F4
102
}
330
5F4
100
AcDbXrecord
280
     1
270
     1
271
     1
  0
XRECORD
  5
5FA
102
{ACAD_REACTORS
330
5F4
102
}
330
5F4
100
AcDbXrecord
280
     1
270
     1
271
     1
  0
XRECORD
  5
5F7
102
{ACAD_REACTORS
330
5F4
102
}
330
5F4
100
AcDbXrecord
280
     1
270
     1
271
     1
  0
XRECORD
  5
675
102
{ACAD_REACTORS
330
5EC
102
}
330
5EC
100
AcDbXrecord
280
     1
102
MATERIAL
148
0.0
149
0.0
149
0.0
 93
        0
 94
      127
282
     0
 72
     0
 77
     0
171
     0
175
     0
179
     0
273
     0
  0
XRECORD
  5
5EE
102
{ACAD_REACTORS
330
5EC
102
}
330
5EC
100
AcDbXrecord
280
     1
270
     1
271
     1
  0
XRECORD
  5
5ED
102
{ACAD_REACTORS
330
5EC
102
}
330
5EC
100
AcDbXrecord
280
     1
270
     1
271
     1
  0
XRECORD
  5
5F1
102
{ACAD_REACTORS
330
5EC
102
}
330
5EC
100
AcDbXrecord
280
     1
270
     1
271
     1
  0
XRECORD
  5
5F0
102
{ACAD_REACTORS
330
5EC
102
}
330
5EC
100
AcDbXrecord
280
     1
270
     1
271
     1
  0
XRECORD
  5
5F2
102
{ACAD_REACTORS
330
5EC
102
}
330
5EC
100
AcDbXrecord
280
     1
270
     1
271
     1
  0
XRECORD
  5
5EF
102
{ACAD_REACTORS
330
5EC
102
}
330
5EC
100
AcDbXrecord
280
     1
270
     1
271
     1
  0
XRECORD
  5
677
102
{ACAD_REACTORS
330
5FC
102
}
330
5FC
100
AcDbXrecord
280
     1
102
MATERIAL
148
0.0
149
0.0
149
0.0
 93
        0
 94
      127
282
     0
 72
     0
 77
     0
171
     0
175
     0
179
     0
273
     0
  0
XRECORD
  5
5FE
102
{ACAD_REACTORS
330
5FC
102
}
330
5FC
100
AcDbXrecord
280
     1
270
     1
271
     1
  0
XRECORD
  5
5FD
102
{ACAD_REACTORS
330
5FC
102
}
330
5FC
100
AcDbXrecord
280
     1
270
     1
271
     1
  0
XRECORD
  5
601
102
{ACAD_REACTORS
330
5FC
102
}
330
5FC
100
AcDbXrecord
280
     1
270
     1
271
     1
  0
XRECORD
  5
600
102
{ACAD_REACTORS
330
5FC
102
}
330
5FC
100
AcDbXrecord
280
     1
270
     1
271
     1
  0
XRECORD
  5
602
102
{ACAD_REACTORS
330
5FC
102
}
330
5FC
100
AcDbXrecord
280
     1
270
     1
271
     1
  0
XRECORD
  5
5FF
102
{ACAD_REACTORS
330
5FC
102
}
330
5FC
100
AcDbXrecord
280
     1
270
     1
271
     1
  0
XRECORD
  5
6AA
102
{ACAD_REACTORS
330
6A9
102
}
330
6A9
100
AcDbXrecord
280
     1
102
ACAD_ROUNDTRIP_2012_MLEADER_STYLE
298
     1
  0
XRECORD
  5
6AC
102
{ACAD_REACTORS
330
6AB
102
}
330
6AB
100
AcDbXrecord
280
     1
102
DISPLAYNAME
  1
Metric50
102
FLAGS
 90
        0
  0
CELLSTYLEMAP
  5
663
102
{ACAD_REACTORS
330
662
102
}
330
662
100
AcDbCellStyleMap
 90
        3
300
CELLSTYLE
  1
TABLEFORMAT_BEGIN
 90
        5
170
     1
 91
        0
 92
    32768
 62
   257
 93
        1
300
CONTENTFORMAT
  1
CONTENTFORMAT_BEGIN
 90
        0
 91
        0
 92
        4
 93
        0
300

 40
0.0
140
1.0
 94
        5
 62
     0
340
11
144
6.0
309
CONTENTFORMAT_END
171
     1
301
MARGIN
  1
CELLMARGIN_BEGIN
 40
1.5
 40
1.5
 40
1.5
 40
1.5
 40
0.18
 40
0.18
309
CELLMARGIN_END
 94
        6
 95
        1
302
GRIDFORMAT
  1
GRIDFORMAT_BEGIN
 90
        0
 91
        1
 62
     0
 92
       -2
340
0
 93
        0
 40
0.045
309
GRIDFORMAT_END
 95
        2
302
GRIDFORMAT
  1
GRIDFORMAT_BEGIN
 90
        0
 91
        1
 62
     0
 92
       -2
340
0
 93
        0
 40
0.045
309
GRIDFORMAT_END
 95
        4
302
GRIDFORMAT
  1
GRIDFORMAT_BEGIN
 90
        0
 91
        1
 62
     0
 92
       -2
340
0
 93
        0
 40
0.045
309
GRIDFORMAT_END
 95
        8
302
GRIDFORMAT
  1
GRIDFORMAT_BEGIN
 90
        0
 91
        1
 62
     0
 92
       -2
340
0
 93
        0
 40
0.045
309
GRIDFORMAT_END
 95
       16
302
GRIDFORMAT
  1
GRIDFORMAT_BEGIN
 90
        0
 91
        1
 62
     0
 92
       -2
340
0
 93
        0
 40
0.045
309
GRIDFORMAT_END
 95
       32
302
GRIDFORMAT
  1
GRIDFORMAT_BEGIN
 90
        0
 91
        1
 62
     0
 92
       -2
340
0
 93
        0
 40
0.045
309
GRIDFORMAT_END
309
TABLEFORMAT_END
  1
CELLSTYLE_BEGIN
 90
        1
 91
        1
300
_TITLE
309
CELLSTYLE_END
300
CELLSTYLE
  1
TABLEFORMAT_BEGIN
 90
        5
170
     1
 91
        0
 92
        0
 62
   257
 93
        1
300
CONTENTFORMAT
  1
CONTENTFORMAT_BEGIN
 90
        0
 91
        0
 92
        4
 93
        0
300

 40
0.0
140
1.0
 94
        5
 62
     0
340
11
144
4.5
309
CONTENTFORMAT_END
171
     1
301
MARGIN
  1
CELLMARGIN_BEGIN
 40
1.5
 40
1.5
 40
1.5
 40
1.5
 40
0.18
 40
0.18
309
CELLMARGIN_END
 94
        6
 95
        1
302
GRIDFORMAT
  1
GRIDFORMAT_BEGIN
 90
        0
 91
        1
 62
     0
 92
       -2
340
0
 93
        0
 40
0.045
309
GRIDFORMAT_END
 95
        2
302
GRIDFORMAT
  1
GRIDFORMAT_BEGIN
 90
        0
 91
        1
 62
     0
 92
       -2
340
0
 93
        0
 40
0.045
309
GRIDFORMAT_END
 95
        4
302
GRIDFORMAT
  1
GRIDFORMAT_BEGIN
 90
        0
 91
        1
 62
     0
 92
       -2
340
0
 93
        0
 40
0.045
309
GRIDFORMAT_END
 95
        8
302
GRIDFORMAT
  1
GRIDFORMAT_BEGIN
 90
        0
 91
        1
 62
     0
 92
       -2
340
0
 93
        0
 40
0.045
309
GRIDFORMAT_END
 95
       16
302
GRIDFORMAT
  1
GRIDFORMAT_BEGIN
 90
        0
 91
        1
 62
     0
 92
       -2
340
0
 93
        0
 40
0.045
309
GRIDFORMAT_END
 95
       32
302
GRIDFORMAT
  1
GRIDFORMAT_BEGIN
 90
        0
 91
        1
 62
     0
 92
       -2
340
0
 93
        0
 40
0.045
309
GRIDFORMAT_END
309
TABLEFORMAT_END
  1
CELLSTYLE_BEGIN
 90
        2
 91
        1
300
_HEADER
309
CELLSTYLE_END
300
CELLSTYLE
  1
TABLEFORMAT_BEGIN
 90
        5
170
     1
 91
        0
 92
        0
 62
   257
 93
        1
300
CONTENTFORMAT
  1
CONTENTFORMAT_BEGIN
 90
        0
 91
        0
 92
        4
 93
        0
300

 40
0.0
140
1.0
 94
        2
 62
     0
340
11
144
4.5
309
CONTENTFORMAT_END
171
     1
301
MARGIN
  1
CELLMARGIN_BEGIN
 40
1.5
 40
1.5
 40
1.5
 40
1.5
 40
0.18
 40
0.18
309
CELLMARGIN_END
 94
        6
 95
        1
302
GRIDFORMAT
  1
GRIDFORMAT_BEGIN
 90
        0
 91
        1
 62
     0
 92
       -2
340
0
 93
        0
 40
0.045
309
GRIDFORMAT_END
 95
        2
302
GRIDFORMAT
  1
GRIDFORMAT_BEGIN
 90
        0
 91
        1
 62
     0
 92
       -2
340
0
 93
        0
 40
0.045
309
GRIDFORMAT_END
 95
        4
302
GRIDFORMAT
  1
GRIDFORMAT_BEGIN
 90
        0
 91
        1
 62
     0
 92
       -2
340
0
 93
        0
 40
0.045
309
GRIDFORMAT_END
 95
        8
302
GRIDFORMAT
  1
GRIDFORMAT_BEGIN
 90
        0
 91
        1
 62
     0
 92
       -2
340
0
 93
        0
 40
0.045
309
GRIDFORMAT_END
 95
       16
302
GRIDFORMAT
  1
GRIDFORMAT_BEGIN
 90
        0
 91
        1
 62
     0
 92
       -2
340
0
 93
        0
 40
0.045
309
GRIDFORMAT_END
 95
       32
302
GRIDFORMAT
  1
GRIDFORMAT_BEGIN
 90
        0
 91
        1
 62
     0
 92
       -2
340
0
 93
        0
 40
0.045
309
GRIDFORMAT_END
309
TABLEFORMAT_END
  1
CELLSTYLE_BEGIN
 90
        3
 91
        2
300
_DATA
309
CELLSTYLE_END
  0
XRECORD
  5
674
102
{ACAD_REACTORS
330
662
102
}
330
662
100
AcDbXrecord
280
     1
102
ACAD_ROUNDTRIP_PRE2007_TABLESTYLE
 90
        4
 91
        0
  1

 92
        4
 93
        0
  2

 94
        4
 95
        0
  3

  0
XRECORD
  5
683
102
{ACAD_REACTORS
330
682
102
}
330
682
100
AcDbXrecord
280
     1
102
RTVSPost2010Prop28
280
     1
102
RTVSPost2010PropOp28
 70
     1
102
RTVSPost2010Prop29
280
     1
102
RTVSPost2010PropOp29
 70
     1
102
RTVSPost2010Prop30
280
     0
102
RTVSPost2010PropOp30
 70
     1
102
RTVSPost2010Prop31
280
     0
102
RTVSPost2010PropOp31
 70
     1
102
RTVSPost2010Prop32
280
     0
102
RTVSPost2010PropOp32
 70
     1
102
RTVSPost2010Prop33
280
     0
102
RTVSPost2010PropOp33
 70
     1
102
RTVSPost2010Prop34
280
     0
102
RTVSPost2010PropOp34
 70
     1
102
RTVSPost2010Prop35
280
     0
102
RTVSPost2010PropOp35
 70
     1
102
RTVSPost2010Prop36
280
     0
102
RTVSPost2010PropOp36
 70
     1
102
RTVSPost2010Prop37
 90
       50
102
RTVSPost2010PropOp37
 70
     1
102
RTVSPost2010Prop38
140
0.0
102
RTVSPost2010PropOp38
 70
     1
102
RTVSPost2010Prop39
140
1.0
102
RTVSPost2010PropOp39
 70
     1
102
RTVSPost2010Prop40
 90
        0
102
RTVSPost2010PropOp40
 70
     1
102
RTVSPost2010Prop41ColorIndex
 90
       18
102
RTVSPost2010Prop41ColorRGB
 90
        0
102
RTVSPost2010PropOp41
 70
     1
102
RTVSPost2010Prop42
 90
       50
102
RTVSPost2010PropOp42
 70
     1
102
RTVSPost2010Prop43
 90
        3
102
RTVSPost2010PropOp43
 70
     1
102
RTVSPost2010Prop44ColorIndex
 90
        5
102
RTVSPost2010Prop44ColorRGB
 90
      255
102
RTVSPost2010PropOp44
 70
     1
102
RTVSPost2010Prop45
280
     0
102
RTVSPost2010PropOp45
 70
     1
102
RTVSPost2010Prop46
 90
       50
102
RTVSPost2010PropOp46
 70
     1
102
RTVSPost2010Prop47
 90
       50
102
RTVSPost2010PropOp47
 70
     1
102
RTVSPost2010Prop48
 90
       50
102
RTVSPost2010PropOp48
 70
     1
102
RTVSPost2010Prop49
280
     0
102
RTVSPost2010PropOp49
 70
     1
102
RTVSPost2010Prop50
 90
       50
102
RTVSPost2010PropOp50
 70
     1
102
RTVSPost2010Prop51ColorIndex
 90
      256
102
RTVSPost2010Prop51ColorRGB
 90
-16777216
102
RTVSPost2010PropOp51
 70
     0
102
RTVSPost2010Prop52
140
1.0
102
RTVSPost2010PropOp52
 70
     0
102
RTVSPost2010Prop53
 90
        2
102
RTVSPost2010PropOp53
 70
     1
102
RTVSPost2010Prop54
  1
strokes_ogs.tif
102
RTVSPost2010PropOp54
 70
     1
102
RTVSPost2010Prop55
280
     0
102
RTVSPost2010PropOp55
 70
     1
102
RTVSPost2010Prop56
140
1.0
102
RTVSPost2010PropOp56
 70
     1
102
RTVSPost2010Prop57
140
1.0
102
RTVSPost2010PropOp57
 70
     1
102
RTVSPropertyOp0
 70
     1
102
RTVSPropertyOp1
 70
     1
102
RTVSPropertyOp2
 70
     1
102
RTVSPropertyOp3
 70
     1
102
RTVSPropertyOp4
 70
     1
102
RTVSPropertyOp5
 70
     1
102
RTVSPropertyOp6
 70
     1
102
RTVSPropertyOp7
 70
     1
102
RTVSPropertyOp8
 70
     1
102
RTVSPropertyOp9
 70
     1
102
RTVSPropertyOp10
 70
     1
102
RTVSPropertyOp11
 70
     1
102
RTVSPropertyOp12
 70
     1
102
RTVSPropertyOp13
 70
     1
102
RTVSPropertyOp14
 70
     1
102
RTVSPropertyOp15
 70
     1
102
RTVSPropertyOp16
 70
     1
102
RTVSPropertyOp17
 70
     1
102
RTVSPropertyOp18
 70
     1
102
RTVSPropertyOp19
 70
     1
102
RTVSPropertyOp20
 70
     1
102
RTVSPropertyOp21
 70
     1
102
RTVSPropertyOp22
 70
     1
102
RTVSPropertyOp23
 70
     1
102
RTVSPropertyOp24
 70
     1
102
RTVSPropertyOp25
 70
     1
102
RTVSPropertyOp26
 70
     1
102
RTVSPropertyOp27
 70
     1
102
RTVSPropertyOp28
 70
     1
102
RTVSPropertyOp29
 70
     1
102
RTVSPropertyOp30
 70
     1
102
RTVSPropertyOp31
 70
     1
102
RTVSPropertyOp32
 70
     1
102
RTVSPropertyOp33
 70
     1
102
RTVSPropertyOp34
 70
     1
102
RTVSPropertyOp35
 70
     1
102
RTVSPropertyOp36
 70
     1
102
RTVSPropertyOp37
 70
     1
102
RTVSPropertyOp38
 70
     1
102
RTVSPropertyOp39
 70
     1
102
RTVSPropertyOp40
 70
     1
102
RTVSPropertyOp41
 70
     1
102
RTVSPropertyOp42
 70
     1
102
RTVSPropertyOp43
 70
     1
102
RTVSPropertyOp44
 70
     1
102
RTVSPropertyOp45
 70
     1
102
RTVSPropertyOp46
 70
     1
102
RTVSPropertyOp47
 70
     1
102
RTVSPropertyOp48
 70
     1
102
RTVSPropertyOp49
 70
     1
102
RTVSPropertyOp50
 70
     1
102
RTVSPropertyOp51
 70
     0
102
RTVSPropertyOp52
 70
     0
102
RTVSPropertyOp53
 70
     1
102
RTVSPropertyOp54
 70
     1
102
RTVSPropertyOp55
 70
     1
102
RTVSPropertyOp56
 70
     1
102
RTVSPropertyOp57
 70
     1
102
RTVSPropertyOp58
 70
     1
102
RTVSPropertyOp59
 70
     1
102
RTVSPropertyOp60
 70
     1
102
RTVSPropertyOp61
 70
     1
102
RTVSPropertyOp62
 70
     1
  0
XRECORD
  5
681
102
{ACAD_REACTORS
330
680
102
}
330
680
100
AcDbXrecord
280
     1
102
RTVSPost2010Prop28
280
     0
102
RTVSPost2010PropOp28
 70
     1
102
RTVSPost2010Prop29
280
     1
102
RTVSPost2010PropOp29
 70
     1
102
RTVSPost2010Prop30
280
     1
102
RTVSPost2010PropOp30
 70
     1
102
RTVSPost2010Prop31
280
     0
102
RTVSPost2010PropOp31
 70
     1
102
RTVSPost2010Prop32
280
     0
102
RTVSPost2010PropOp32
 70
     1
102
RTVSPost2010Prop33
280
     0
102
RTVSPost2010PropOp33
 70
     1
102
RTVSPost2010Prop34
280
     0
102
RTVSPost2010PropOp34
 70
     1
102
RTVSPost2010Prop35
280
     0
102
RTVSPost2010PropOp35
 70
     1
102
RTVSPost2010Prop36
280
     0
102
RTVSPost2010PropOp36
 70
     1
102
RTVSPost2010Prop37
 90
       50
102
RTVSPost2010PropOp37
 70
     1
102
RTVSPost2010Prop38
140
0.0
102
RTVSPost2010PropOp38
 70
     1
102
RTVSPost2010Prop39
140
1.0
102
RTVSPost2010PropOp39
 70
     1
102
RTVSPost2010Prop40
 90
        0
102
RTVSPost2010PropOp40
 70
     1
102
RTVSPost2010Prop41ColorIndex
 90
       18
102
RTVSPost2010Prop41ColorRGB
 90
        0
102
RTVSPost2010PropOp41
 70
     1
102
RTVSPost2010Prop42
 90
       50
102
RTVSPost2010PropOp42
 70
     1
102
RTVSPost2010Prop43
 90
        3
102
RTVSPost2010PropOp43
 70
     1
102
RTVSPost2010Prop44ColorIndex
 90
        5
102
RTVSPost2010Prop44ColorRGB
 90
      255
102
RTVSPost2010PropOp44
 70
     1
102
RTVSPost2010Prop45
280
     0
102
RTVSPost2010PropOp45
 70
     1
102
RTVSPost2010Prop46
 90
       50
102
RTVSPost2010PropOp46
 70
     1
102
RTVSPost2010Prop47
 90
       50
102
RTVSPost2010PropOp47
 70
     1
102
RTVSPost2010Prop48
 90
       50
102
RTVSPost2010PropOp48
 70
     1
102
RTVSPost2010Prop49
280
     0
102
RTVSPost2010PropOp49
 70
     1
102
RTVSPost2010Prop50
 90
       50
102
RTVSPost2010PropOp50
 70
     1
102
RTVSPost2010Prop51ColorIndex
 90
      256
102
RTVSPost2010Prop51ColorRGB
 90
-16777216
102
RTVSPost2010PropOp51
 70
     0
102
RTVSPost2010Prop52
140
1.0
102
RTVSPost2010PropOp52
 70
     0
102
RTVSPost2010Prop53
 90
        2
102
RTVSPost2010PropOp53
 70
     1
102
RTVSPost2010Prop54
  1
strokes_ogs.tif
102
RTVSPost2010PropOp54
 70
     1
102
RTVSPost2010Prop55
280
     0
102
RTVSPost2010PropOp55
 70
     1
102
RTVSPost2010Prop56
140
1.0
102
RTVSPost2010PropOp56
 70
     1
102
RTVSPost2010Prop57
140
1.0
102
RTVSPost2010PropOp57
 70
     1
102
RTVSPropertyOp0
 70
     1
102
RTVSPropertyOp1
 70
     1
102
RTVSPropertyOp2
 70
     1
102
RTVSPropertyOp3
 70
     1
102
RTVSPropertyOp4
 70
     1
102
RTVSPropertyOp5
 70
     1
102
RTVSPropertyOp6
 70
     1
102
RTVSPropertyOp7
 70
     1
102
RTVSPropertyOp8
 70
     1
102
RTVSPropertyOp9
 70
     1
102
RTVSPropertyOp10
 70
     1
102
RTVSPropertyOp11
 70
     1
102
RTVSPropertyOp12
 70
     1
102
RTVSPropertyOp13
 70
     1
102
RTVSPropertyOp14
 70
     1
102
RTVSPropertyOp15
 70
     1
102
RTVSPropertyOp16
 70
     1
102
RTVSPropertyOp17
 70
     1
102
RTVSPropertyOp18
 70
     1
102
RTVSPropertyOp19
 70
     1
102
RTVSPropertyOp20
 70
     1
102
RTVSPropertyOp21
 70
     1
102
RTVSPropertyOp22
 70
     1
102
RTVSPropertyOp23
 70
     1
102
RTVSPropertyOp24
 70
     1
102
RTVSPropertyOp25
 70
     1
102
RTVSPropertyOp26
 70
     1
102
RTVSPropertyOp27
 70
     1
102
RTVSPropertyOp28
 70
     1
102
RTVSPropertyOp29
 70
     1
102
RTVSPropertyOp30
 70
     1
102
RTVSPropertyOp31
 70
     1
102
RTVSPropertyOp32
 70
     1
102
RTVSPropertyOp33
 70
     1
102
RTVSPropertyOp34
 70
     1
102
RTVSPropertyOp35
 70
     1
102
RTVSPropertyOp36
 70
     1
102
RTVSPropertyOp37
 70
     1
102
RTVSPropertyOp38
 70
     1
102
RTVSPropertyOp39
 70
     1
102
RTVSPropertyOp40
 70
     1
102
RTVSPropertyOp41
 70
     1
102
RTVSPropertyOp42
 70
     1
102
RTVSPropertyOp43
 70
     1
102
RTVSPropertyOp44
 70
     1
102
RTVSPropertyOp45
 70
     1
102
RTVSPropertyOp46
 70
     1
102
RTVSPropertyOp47
 70
     1
102
RTVSPropertyOp48
 70
     1
102
RTVSPropertyOp49
 70
     1
102
RTVSPropertyOp50
 70
     1
102
RTVSPropertyOp51
 70
     0
102
RTVSPropertyOp52
 70
     0
102
RTVSPropertyOp53
 70
     1
102
RTVSPropertyOp54
 70
     1
102
RTVSPropertyOp55
 70
     1
102
RTVSPropertyOp56
 70
     1
102
RTVSPropertyOp57
 70
     1
102
RTVSPropertyOp58
 70
     1
102
RTVSPropertyOp59
 70
     1
102
RTVSPropertyOp60
 70
     1
102
RTVSPropertyOp61
 70
     1
102
RTVSPropertyOp62
 70
     1
  0
XRECORD
  5
68F
102
{ACAD_REACTORS
330
68E
102
}
330
68E
100
AcDbXrecord
280
     1
102
RTVSPost2010Prop28
280
     0
102
RTVSPost2010PropOp28
 70
     1
102
RTVSPost2010Prop29
280
     1
102
RTVSPost2010PropOp29
 70
     1
102
RTVSPost2010Prop30
280
     1
102
RTVSPost2010PropOp30
 70
     1
102
RTVSPost2010Prop31
280
     0
102
RTVSPost2010PropOp31
 70
     1
102
RTVSPost2010Prop32
280
     0
102
RTVSPost2010PropOp32
 70
     1
102
RTVSPost2010Prop33
280
     0
102
RTVSPost2010PropOp33
 70
     1
102
RTVSPost2010Prop34
280
     0
102
RTVSPost2010PropOp34
 70
     1
102
RTVSPost2010Prop35
280
     0
102
RTVSPost2010PropOp35
 70
     1
102
RTVSPost2010Prop36
280
     0
102
RTVSPost2010PropOp36
 70
     1
102
RTVSPost2010Prop37
 90
       50
102
RTVSPost2010PropOp37
 70
     1
102
RTVSPost2010Prop38
140
0.0
102
RTVSPost2010PropOp38
 70
     1
102
RTVSPost2010Prop39
140
1.0
102
RTVSPost2010PropOp39
 70
     1
102
RTVSPost2010Prop40
 90
        0
102
RTVSPost2010PropOp40
 70
     1
102
RTVSPost2010Prop41ColorIndex
 90
       18
102
RTVSPost2010Prop41ColorRGB
 90
        0
102
RTVSPost2010PropOp41
 70
     1
102
RTVSPost2010Prop42
 90
       50
102
RTVSPost2010PropOp42
 70
     1
102
RTVSPost2010Prop43
 90
        3
102
RTVSPost2010PropOp43
 70
     1
102
RTVSPost2010Prop44ColorIndex
 90
        5
102
RTVSPost2010Prop44ColorRGB
 90
      255
102
RTVSPost2010PropOp44
 70
     1
102
RTVSPost2010Prop45
280
     0
102
RTVSPost2010PropOp45
 70
     1
102
RTVSPost2010Prop46
 90
       50
102
RTVSPost2010PropOp46
 70
     1
102
RTVSPost2010Prop47
 90
       50
102
RTVSPost2010PropOp47
 70
     1
102
RTVSPost2010Prop48
 90
       50
102
RTVSPost2010PropOp48
 70
     1
102
RTVSPost2010Prop49
280
     0
102
RTVSPost2010PropOp49
 70
     1
102
RTVSPost2010Prop50
 90
       50
102
RTVSPost2010PropOp50
 70
     1
102
RTVSPost2010Prop51ColorIndex
 90
      256
102
RTVSPost2010Prop51ColorRGB
 90
-16777216
102
RTVSPost2010PropOp51
 70
     0
102
RTVSPost2010Prop52
140
1.0
102
RTVSPost2010PropOp52
 70
     0
102
RTVSPost2010Prop53
 90
        2
102
RTVSPost2010PropOp53
 70
     1
102
RTVSPost2010Prop54
  1
strokes_ogs.tif
102
RTVSPost2010PropOp54
 70
     1
102
RTVSPost2010Prop55
280
     0
102
RTVSPost2010PropOp55
 70
     1
102
RTVSPost2010Prop56
140
1.0
102
RTVSPost2010PropOp56
 70
     1
102
RTVSPost2010Prop57
140
1.0
102
RTVSPost2010PropOp57
 70
     1
102
RTVSPropertyOp0
 70
     1
102
RTVSPropertyOp1
 70
     1
102
RTVSPropertyOp2
 70
     1
102
RTVSPropertyOp3
 70
     1
102
RTVSPropertyOp4
 70
     1
102
RTVSPropertyOp5
 70
     1
102
RTVSPropertyOp6
 70
     1
102
RTVSPropertyOp7
 70
     1
102
RTVSPropertyOp8
 70
     1
102
RTVSPropertyOp9
 70
     1
102
RTVSPropertyOp10
 70
     1
102
RTVSPropertyOp11
 70
     1
102
RTVSPropertyOp12
 70
     1
102
RTVSPropertyOp13
 70
     1
102
RTVSPropertyOp14
 70
     1
102
RTVSPropertyOp15
 70
     1
102
RTVSPropertyOp16
 70
     1
102
RTVSPropertyOp17
 70
     1
102
RTVSPropertyOp18
 70
     1
102
RTVSPropertyOp19
 70
     1
102
RTVSPropertyOp20
 70
     1
102
RTVSPropertyOp21
 70
     1
102
RTVSPropertyOp22
 70
     1
102
RTVSPropertyOp23
 70
     1
102
RTVSPropertyOp24
 70
     1
102
RTVSPropertyOp25
 70
     1
102
RTVSPropertyOp26
 70
     1
102
RTVSPropertyOp27
 70
     1
102
RTVSPropertyOp28
 70
     1
102
RTVSPropertyOp29
 70
     1
102
RTVSPropertyOp30
 70
     1
102
RTVSPropertyOp31
 70
     1
102
RTVSPropertyOp32
 70
     1
102
RTVSPropertyOp33
 70
     1
102
RTVSPropertyOp34
 70
     1
102
RTVSPropertyOp35
 70
     1
102
RTVSPropertyOp36
 70
     1
102
RTVSPropertyOp37
 70
     1
102
RTVSPropertyOp38
 70
     1
102
RTVSPropertyOp39
 70
     1
102
RTVSPropertyOp40
 70
     1
102
RTVSPropertyOp41
 70
     1
102
RTVSPropertyOp42
 70
     1
102
RTVSPropertyOp43
 70
     1
102
RTVSPropertyOp44
 70
     1
102
RTVSPropertyOp45
 70
     1
102
RTVSPropertyOp46
 70
     1
102
RTVSPropertyOp47
 70
     1
102
RTVSPropertyOp48
 70
     1
102
RTVSPropertyOp49
 70
     1
102
RTVSPropertyOp50
 70
     1
102
RTVSPropertyOp51
 70
     0
102
RTVSPropertyOp52
 70
     0
102
RTVSPropertyOp53
 70
     1
102
RTVSPropertyOp54
 70
     1
102
RTVSPropertyOp55
 70
     1
102
RTVSPropertyOp56
 70
     1
102
RTVSPropertyOp57
 70
     1
102
RTVSPropertyOp58
 70
     1
102
RTVSPropertyOp59
 70
     1
102
RTVSPropertyOp60
 70
     1
102
RTVSPropertyOp61
 70
     1
102
RTVSPropertyOp62
 70
     1
  0
XRECORD
  5
697
102
{ACAD_REACTORS
330
696
102
}
330
696
100
AcDbXrecord
280
     1
102
RTVSPost2010Prop28
280
     0
102
RTVSPost2010PropOp28
 70
     1
102
RTVSPost2010Prop29
280
     1
102
RTVSPost2010PropOp29
 70
     1
102
RTVSPost2010Prop30
280
     1
102
RTVSPost2010PropOp30
 70
     1
102
RTVSPost2010Prop31
280
     0
102
RTVSPost2010PropOp31
 70
     1
102
RTVSPost2010Prop32
280
     0
102
RTVSPost2010PropOp32
 70
     1
102
RTVSPost2010Prop33
280
     0
102
RTVSPost2010PropOp33
 70
     1
102
RTVSPost2010Prop34
280
     0
102
RTVSPost2010PropOp34
 70
     1
102
RTVSPost2010Prop35
280
     0
102
RTVSPost2010PropOp35
 70
     1
102
RTVSPost2010Prop36
280
     0
102
RTVSPost2010PropOp36
 70
     1
102
RTVSPost2010Prop37
 90
       50
102
RTVSPost2010PropOp37
 70
     1
102
RTVSPost2010Prop38
140
0.0
102
RTVSPost2010PropOp38
 70
     1
102
RTVSPost2010Prop39
140
1.0
102
RTVSPost2010PropOp39
 70
     1
102
RTVSPost2010Prop40
 90
        0
102
RTVSPost2010PropOp40
 70
     1
102
RTVSPost2010Prop41ColorIndex
 90
       18
102
RTVSPost2010Prop41ColorRGB
 90
        0
102
RTVSPost2010PropOp41
 70
     1
102
RTVSPost2010Prop42
 90
       50
102
RTVSPost2010PropOp42
 70
     1
102
RTVSPost2010Prop43
 90
        3
102
RTVSPost2010PropOp43
 70
     1
102
RTVSPost2010Prop44ColorIndex
 90
        5
102
RTVSPost2010Prop44ColorRGB
 90
      255
102
RTVSPost2010PropOp44
 70
     1
102
RTVSPost2010Prop45
280
     0
102
RTVSPost2010PropOp45
 70
     1
102
RTVSPost2010Prop46
 90
       50
102
RTVSPost2010PropOp46
 70
     1
102
RTVSPost2010Prop47
 90
       50
102
RTVSPost2010PropOp47
 70
     1
102
RTVSPost2010Prop48
 90
       50
102
RTVSPost2010PropOp48
 70
     1
102
RTVSPost2010Prop49
280
     0
102
RTVSPost2010PropOp49
 70
     1
102
RTVSPost2010Prop50
 90
       50
102
RTVSPost2010PropOp50
 70
     1
102
RTVSPost2010Prop51ColorIndex
 90
      256
102
RTVSPost2010Prop51ColorRGB
 90
-16777216
102
RTVSPost2010PropOp51
 70
     0
102
RTVSPost2010Prop52
140
1.0
102
RTVSPost2010PropOp52
 70
     0
102
RTVSPost2010Prop53
 90
        2
102
RTVSPost2010PropOp53
 70
     1
102
RTVSPost2010Prop54
  1
strokes_ogs.tif
102
RTVSPost2010PropOp54
 70
     1
102
RTVSPost2010Prop55
280
     0
102
RTVSPost2010PropOp55
 70
     1
102
RTVSPost2010Prop56
140
1.0
102
RTVSPost2010PropOp56
 70
     1
102
RTVSPost2010Prop57
140
1.0
102
RTVSPost2010PropOp57
 70
     1
102
RTVSPropertyOp0
 70
     1
102
RTVSPropertyOp1
 70
     1
102
RTVSPropertyOp2
 70
     1
102
RTVSPropertyOp3
 70
     1
102
RTVSPropertyOp4
 70
     1
102
RTVSPropertyOp5
 70
     1
102
RTVSPropertyOp6
 70
     1
102
RTVSPropertyOp7
 70
     1
102
RTVSPropertyOp8
 70
     1
102
RTVSPropertyOp9
 70
     1
102
RTVSPropertyOp10
 70
     1
102
RTVSPropertyOp11
 70
     1
102
RTVSPropertyOp12
 70
     1
102
RTVSPropertyOp13
 70
     1
102
RTVSPropertyOp14
 70
     1
102
RTVSPropertyOp15
 70
     1
102
RTVSPropertyOp16
 70
     1
102
RTVSPropertyOp17
 70
     1
102
RTVSPropertyOp18
 70
     1
102
RTVSPropertyOp19
 70
     1
102
RTVSPropertyOp20
 70
     1
102
RTVSPropertyOp21
 70
     1
102
RTVSPropertyOp22
 70
     1
102
RTVSPropertyOp23
 70
     1
102
RTVSPropertyOp24
 70
     1
102
RTVSPropertyOp25
 70
     1
102
RTVSPropertyOp26
 70
     1
102
RTVSPropertyOp27
 70
     1
102
RTVSPropertyOp28
 70
     1
102
RTVSPropertyOp29
 70
     1
102
RTVSPropertyOp30
 70
     1
102
RTVSPropertyOp31
 70
     1
102
RTVSPropertyOp32
 70
     1
102
RTVSPropertyOp33
 70
     1
102
RTVSPropertyOp34
 70
     1
102
RTVSPropertyOp35
 70
     1
102
RTVSPropertyOp36
 70
     1
102
RTVSPropertyOp37
 70
     1
102
RTVSPropertyOp38
 70
     1
102
RTVSPropertyOp39
 70
     1
102
RTVSPropertyOp40
 70
     1
102
RTVSPropertyOp41
 70
     1
102
RTVSPropertyOp42
 70
     1
102
RTVSPropertyOp43
 70
     1
102
RTVSPropertyOp44
 70
     1
102
RTVSPropertyOp45
 70
     1
102
RTVSPropertyOp46
 70
     1
102
RTVSPropertyOp47
 70
     1
102
RTVSPropertyOp48
 70
     1
102
RTVSPropertyOp49
 70
     1
102
RTVSPropertyOp50
 70
     1
102
RTVSPropertyOp51
 70
     0
102
RTVSPropertyOp52
 70
     0
102
RTVSPropertyOp53
 70
     1
102
RTVSPropertyOp54
 70
     1
102
RTVSPropertyOp55
 70
     1
102
RTVSPropertyOp56
 70
     1
102
RTVSPropertyOp57
 70
     1
102
RTVSPropertyOp58
 70
     1
102
RTVSPropertyOp59
 70
     1
102
RTVSPropertyOp60
 70
     1
102
RTVSPropertyOp61
 70
     1
102
RTVSPropertyOp62
 70
     1
  0
XRECORD
  5
689
102
{ACAD_REACTORS
330
688
102
}
330
688
100
AcDbXrecord
280
     1
102
RTVSPost2010Prop28
280
     0
102
RTVSPost2010PropOp28
 70
     1
102
RTVSPost2010Prop29
280
     1
102
RTVSPost2010PropOp29
 70
     1
102
RTVSPost2010Prop30
280
     1
102
RTVSPost2010PropOp30
 70
     1
102
RTVSPost2010Prop31
280
     0
102
RTVSPost2010PropOp31
 70
     1
102
RTVSPost2010Prop32
280
     0
102
RTVSPost2010PropOp32
 70
     1
102
RTVSPost2010Prop33
280
     0
102
RTVSPost2010PropOp33
 70
     1
102
RTVSPost2010Prop34
280
     0
102
RTVSPost2010PropOp34
 70
     1
102
RTVSPost2010Prop35
280
     0
102
RTVSPost2010PropOp35
 70
     1
102
RTVSPost2010Prop36
280
     0
102
RTVSPost2010PropOp36
 70
     1
102
RTVSPost2010Prop37
 90
       50
102
RTVSPost2010PropOp37
 70
     1
102
RTVSPost2010Prop38
140
0.0
102
RTVSPost2010PropOp38
 70
     1
102
RTVSPost2010Prop39
140
1.0
102
RTVSPost2010PropOp39
 70
     1
102
RTVSPost2010Prop40
 90
        0
102
RTVSPost2010PropOp40
 70
     1
102
RTVSPost2010Prop41ColorIndex
 90
       18
102
RTVSPost2010Prop41ColorRGB
 90
        0
102
RTVSPost2010PropOp41
 70
     1
102
RTVSPost2010Prop42
 90
       50
102
RTVSPost2010PropOp42
 70
     1
102
RTVSPost2010Prop43
 90
        3
102
RTVSPost2010PropOp43
 70
     1
102
RTVSPost2010Prop44ColorIndex
 90
        5
102
RTVSPost2010Prop44ColorRGB
 90
      255
102
RTVSPost2010PropOp44
 70
     1
102
RTVSPost2010Prop45
280
     0
102
RTVSPost2010PropOp45
 70
     1
102
RTVSPost2010Prop46
 90
       50
102
RTVSPost2010PropOp46
 70
     1
102
RTVSPost2010Prop47
 90
       50
102
RTVSPost2010PropOp47
 70
     1
102
RTVSPost2010Prop48
 90
       50
102
RTVSPost2010PropOp48
 70
     1
102
RTVSPost2010Prop49
280
     0
102
RTVSPost2010PropOp49
 70
     1
102
RTVSPost2010Prop50
 90
       50
102
RTVSPost2010PropOp50
 70
     1
102
RTVSPost2010Prop51ColorIndex
 90
      256
102
RTVSPost2010Prop51ColorRGB
 90
-16777216
102
RTVSPost2010PropOp51
 70
     0
102
RTVSPost2010Prop52
140
1.0
102
RTVSPost2010PropOp52
 70
     0
102
RTVSPost2010Prop53
 90
        2
102
RTVSPost2010PropOp53
 70
     1
102
RTVSPost2010Prop54
  1
strokes_ogs.tif
102
RTVSPost2010PropOp54
 70
     1
102
RTVSPost2010Prop55
280
     0
102
RTVSPost2010PropOp55
 70
     1
102
RTVSPost2010Prop56
140
1.0
102
RTVSPost2010PropOp56
 70
     1
102
RTVSPost2010Prop57
140
1.0
102
RTVSPost2010PropOp57
 70
     1
102
RTVSPropertyOp0
 70
     1
102
RTVSPropertyOp1
 70
     1
102
RTVSPropertyOp2
 70
     1
102
RTVSPropertyOp3
 70
     1
102
RTVSPropertyOp4
 70
     1
102
RTVSPropertyOp5
 70
     1
102
RTVSPropertyOp6
 70
     1
102
RTVSPropertyOp7
 70
     1
102
RTVSPropertyOp8
 70
     1
102
RTVSPropertyOp9
 70
     1
102
RTVSPropertyOp10
 70
     1
102
RTVSPropertyOp11
 70
     1
102
RTVSPropertyOp12
 70
     1
102
RTVSPropertyOp13
 70
     1
102
RTVSPropertyOp14
 70
     1
102
RTVSPropertyOp15
 70
     1
102
RTVSPropertyOp16
 70
     1
102
RTVSPropertyOp17
 70
     1
102
RTVSPropertyOp18
 70
     1
102
RTVSPropertyOp19
 70
     1
102
RTVSPropertyOp20
 70
     1
102
RTVSPropertyOp21
 70
     1
102
RTVSPropertyOp22
 70
     1
102
RTVSPropertyOp23
 70
     1
102
RTVSPropertyOp24
 70
     1
102
RTVSPropertyOp25
 70
     1
102
RTVSPropertyOp26
 70
     1
102
RTVSPropertyOp27
 70
     1
102
RTVSPropertyOp28
 70
     1
102
RTVSPropertyOp29
 70
     1
102
RTVSPropertyOp30
 70
     1
102
RTVSPropertyOp31
 70
     1
102
RTVSPropertyOp32
 70
     1
102
RTVSPropertyOp33
 70
     1
102
RTVSPropertyOp34
 70
     1
102
RTVSPropertyOp35
 70
     1
102
RTVSPropertyOp36
 70
     1
102
RTVSPropertyOp37
 70
     1
102
RTVSPropertyOp38
 70
     1
102
RTVSPropertyOp39
 70
     1
102
RTVSPropertyOp40
 70
     1
102
RTVSPropertyOp41
 70
     1
102
RTVSPropertyOp42
 70
     1
102
RTVSPropertyOp43
 70
     1
102
RTVSPropertyOp44
 70
     1
102
RTVSPropertyOp45
 70
     1
102
RTVSPropertyOp46
 70
     1
102
RTVSPropertyOp47
 70
     1
102
RTVSPropertyOp48
 70
     1
102
RTVSPropertyOp49
 70
     1
102
RTVSPropertyOp50
 70
     1
102
RTVSPropertyOp51
 70
     0
102
RTVSPropertyOp52
 70
     0
102
RTVSPropertyOp53
 70
     1
102
RTVSPropertyOp54
 70
     1
102
RTVSPropertyOp55
 70
     1
102
RTVSPropertyOp56
 70
     1
102
RTVSPropertyOp57
 70
     1
102
RTVSPropertyOp58
 70
     1
102
RTVSPropertyOp59
 70
     1
102
RTVSPropertyOp60
 70
     1
102
RTVSPropertyOp61
 70
     1
102
RTVSPropertyOp62
 70
     1
  0
XRECORD
  5
68D
102
{ACAD_REACTORS
330
68C
102
}
330
68C
100
AcDbXrecord
280
     1
102
RTVSPost2010Prop28
280
     0
102
RTVSPost2010PropOp28
 70
     1
102
RTVSPost2010Prop29
280
     1
102
RTVSPost2010PropOp29
 70
     1
102
RTVSPost2010Prop30
280
     1
102
RTVSPost2010PropOp30
 70
     1
102
RTVSPost2010Prop31
280
     0
102
RTVSPost2010PropOp31
 70
     1
102
RTVSPost2010Prop32
280
     0
102
RTVSPost2010PropOp32
 70
     1
102
RTVSPost2010Prop33
280
     0
102
RTVSPost2010PropOp33
 70
     1
102
RTVSPost2010Prop34
280
     0
102
RTVSPost2010PropOp34
 70
     1
102
RTVSPost2010Prop35
280
     0
102
RTVSPost2010PropOp35
 70
     1
102
RTVSPost2010Prop36
280
     0
102
RTVSPost2010PropOp36
 70
     1
102
RTVSPost2010Prop37
 90
       50
102
RTVSPost2010PropOp37
 70
     1
102
RTVSPost2010Prop38
140
0.0
102
RTVSPost2010PropOp38
 70
     1
102
RTVSPost2010Prop39
140
1.0
102
RTVSPost2010PropOp39
 70
     1
102
RTVSPost2010Prop40
 90
        0
102
RTVSPost2010PropOp40
 70
     1
102
RTVSPost2010Prop41ColorIndex
 90
       18
102
RTVSPost2010Prop41ColorRGB
 90
        0
102
RTVSPost2010PropOp41
 70
     1
102
RTVSPost2010Prop42
 90
       50
102
RTVSPost2010PropOp42
 70
     1
102
RTVSPost2010Prop43
 90
        3
102
RTVSPost2010PropOp43
 70
     1
102
RTVSPost2010Prop44ColorIndex
 90
        5
102
RTVSPost2010Prop44ColorRGB
 90
      255
102
RTVSPost2010PropOp44
 70
     1
102
RTVSPost2010Prop45
280
     0
102
RTVSPost2010PropOp45
 70
     1
102
RTVSPost2010Prop46
 90
       50
102
RTVSPost2010PropOp46
 70
     1
102
RTVSPost2010Prop47
 90
       50
102
RTVSPost2010PropOp47
 70
     1
102
RTVSPost2010Prop48
 90
       50
102
RTVSPost2010PropOp48
 70
     1
102
RTVSPost2010Prop49
280
     0
102
RTVSPost2010PropOp49
 70
     1
102
RTVSPost2010Prop50
 90
       50
102
RTVSPost2010PropOp50
 70
     1
102
RTVSPost2010Prop51ColorIndex
 90
      256
102
RTVSPost2010Prop51ColorRGB
 90
-16777216
102
RTVSPost2010PropOp51
 70
     0
102
RTVSPost2010Prop52
140
1.0
102
RTVSPost2010PropOp52
 70
     0
102
RTVSPost2010Prop53
 90
        2
102
RTVSPost2010PropOp53
 70
     1
102
RTVSPost2010Prop54
  1
strokes_ogs.tif
102
RTVSPost2010PropOp54
 70
     1
102
RTVSPost2010Prop55
280
     0
102
RTVSPost2010PropOp55
 70
     1
102
RTVSPost2010Prop56
140
1.0
102
RTVSPost2010PropOp56
 70
     1
102
RTVSPost2010Prop57
140
1.0
102
RTVSPost2010PropOp57
 70
     1
102
RTVSPropertyOp0
 70
     1
102
RTVSPropertyOp1
 70
     1
102
RTVSPropertyOp2
 70
     1
102
RTVSPropertyOp3
 70
     1
102
RTVSPropertyOp4
 70
     1
102
RTVSPropertyOp5
 70
     1
102
RTVSPropertyOp6
 70
     1
102
RTVSPropertyOp7
 70
     1
102
RTVSPropertyOp8
 70
     1
102
RTVSPropertyOp9
 70
     1
102
RTVSPropertyOp10
 70
     1
102
RTVSPropertyOp11
 70
     1
102
RTVSPropertyOp12
 70
     1
102
RTVSPropertyOp13
 70
     1
102
RTVSPropertyOp14
 70
     1
102
RTVSPropertyOp15
 70
     1
102
RTVSPropertyOp16
 70
     1
102
RTVSPropertyOp17
 70
     1
102
RTVSPropertyOp18
 70
     1
102
RTVSPropertyOp19
 70
     1
102
RTVSPropertyOp20
 70
     1
102
RTVSPropertyOp21
 70
     1
102
RTVSPropertyOp22
 70
     1
102
RTVSPropertyOp23
 70
     1
102
RTVSPropertyOp24
 70
     1
102
RTVSPropertyOp25
 70
     1
102
RTVSPropertyOp26
 70
     1
102
RTVSPropertyOp27
 70
     1
102
RTVSPropertyOp28
 70
     1
102
RTVSPropertyOp29
 70
     1
102
RTVSPropertyOp30
 70
     1
102
RTVSPropertyOp31
 70
     1
102
RTVSPropertyOp32
 70
     1
102
RTVSPropertyOp33
 70
     1
102
RTVSPropertyOp34
 70
     1
102
RTVSPropertyOp35
 70
     1
102
RTVSPropertyOp36
 70
     1
102
RTVSPropertyOp37
 70
     1
102
RTVSPropertyOp38
 70
     1
102
RTVSPropertyOp39
 70
     1
102
RTVSPropertyOp40
 70
     1
102
RTVSPropertyOp41
 70
     1
102
RTVSPropertyOp42
 70
     1
102
RTVSPropertyOp43
 70
     1
102
RTVSPropertyOp44
 70
     1
102
RTVSPropertyOp45
 70
     1
102
RTVSPropertyOp46
 70
     1
102
RTVSPropertyOp47
 70
     1
102
RTVSPropertyOp48
 70
     1
102
RTVSPropertyOp49
 70
     1
102
RTVSPropertyOp50
 70
     1
102
RTVSPropertyOp51
 70
     0
102
RTVSPropertyOp52
 70
     0
102
RTVSPropertyOp53
 70
     1
102
RTVSPropertyOp54
 70
     1
102
RTVSPropertyOp55
 70
     1
102
RTVSPropertyOp56
 70
     1
102
RTVSPropertyOp57
 70
     1
102
RTVSPropertyOp58
 70
     1
102
RTVSPropertyOp59
 70
     1
102
RTVSPropertyOp60
 70
     1
102
RTVSPropertyOp61
 70
     1
102
RTVSPropertyOp62
 70
     1
  0
XRECORD
  5
6A7
102
{ACAD_REACTORS
330
6A6
102
}
330
6A6
100
AcDbXrecord
280
     1
102
RTVSPost2010Prop28
280
     0
102
RTVSPost2010PropOp28
 70
     0
102
RTVSPost2010Prop29
280
     1
102
RTVSPost2010PropOp29
 70
     0
102
RTVSPost2010Prop30
280
     1
102
RTVSPost2010PropOp30
 70
     0
102
RTVSPost2010Prop31
280
     0
102
RTVSPost2010PropOp31
 70
     0
102
RTVSPost2010Prop32
280
     0
102
RTVSPost2010PropOp32
 70
     0
102
RTVSPost2010Prop33
280
     0
102
RTVSPost2010PropOp33
 70
     0
102
RTVSPost2010Prop34
280
     0
102
RTVSPost2010PropOp34
 70
     0
102
RTVSPost2010Prop35
280
     0
102
RTVSPost2010PropOp35
 70
     0
102
RTVSPost2010Prop36
280
     0
102
RTVSPost2010PropOp36
 70
     0
102
RTVSPost2010Prop37
 90
       50
102
RTVSPost2010PropOp37
 70
     0
102
RTVSPost2010Prop38
140
0.0
102
RTVSPost2010PropOp38
 70
     0
102
RTVSPost2010Prop39
140
1.0
102
RTVSPost2010PropOp39
 70
     0
102
RTVSPost2010Prop40
 90
        0
102
RTVSPost2010PropOp40
 70
     0
102
RTVSPost2010Prop41ColorIndex
 90
       18
102
RTVSPost2010Prop41ColorRGB
 90
        0
102
RTVSPost2010PropOp41
 70
     0
102
RTVSPost2010Prop42
 90
       50
102
RTVSPost2010PropOp42
 70
     0
102
RTVSPost2010Prop43
 90
        3
102
RTVSPost2010PropOp43
 70
     0
102
RTVSPost2010Prop44ColorIndex
 90
        5
102
RTVSPost2010Prop44ColorRGB
 90
      255
102
RTVSPost2010PropOp44
 70
     0
102
RTVSPost2010Prop45
280
     0
102
RTVSPost2010PropOp45
 70
     0
102
RTVSPost2010Prop46
 90
       50
102
RTVSPost2010PropOp46
 70
     0
102
RTVSPost2010Prop47
 90
       50
102
RTVSPost2010PropOp47
 70
     0
102
RTVSPost2010Prop48
 90
       50
102
RTVSPost2010PropOp48
 70
     0
102
RTVSPost2010Prop49
280
     0
102
RTVSPost2010PropOp49
 70
     0
102
RTVSPost2010Prop50
 90
       50
102
RTVSPost2010PropOp50
 70
     0
102
RTVSPost2010Prop51ColorIndex
 90
      256
102
RTVSPost2010Prop51ColorRGB
 90
-16777216
102
RTVSPost2010PropOp51
 70
     0
102
RTVSPost2010Prop52
140
1.0
102
RTVSPost2010PropOp52
 70
     0
102
RTVSPost2010Prop53
 90
        2
102
RTVSPost2010PropOp53
 70
     0
102
RTVSPost2010Prop54
  1
strokes_ogs.tif
102
RTVSPost2010PropOp54
 70
     0
102
RTVSPost2010Prop55
280
     0
102
RTVSPost2010PropOp55
 70
     0
102
RTVSPost2010Prop56
140
1.0
102
RTVSPost2010PropOp56
 70
     0
102
RTVSPost2010Prop57
140
1.0
102
RTVSPost2010PropOp57
 70
     0
102
RTVSPropertyOp0
 70
     0
102
RTVSPropertyOp1
 70
     0
102
RTVSPropertyOp2
 70
     0
102
RTVSPropertyOp3
 70
     0
102
RTVSPropertyOp4
 70
     0
102
RTVSPropertyOp5
 70
     0
102
RTVSPropertyOp6
 70
     0
102
RTVSPropertyOp7
 70
     0
102
RTVSPropertyOp8
 70
     0
102
RTVSPropertyOp9
 70
     0
102
RTVSPropertyOp10
 70
     0
102
RTVSPropertyOp11
 70
     0
102
RTVSPropertyOp12
 70
     0
102
RTVSPropertyOp13
 70
     0
102
RTVSPropertyOp14
 70
     2
102
RTVSPropertyOp15
 70
     0
102
RTVSPropertyOp16
 70
     0
102
RTVSPropertyOp17
 70
     0
102
RTVSPropertyOp18
 70
     0
102
RTVSPropertyOp19
 70
     0
102
RTVSPropertyOp20
 70
     0
102
RTVSPropertyOp21
 70
     0
102
RTVSPropertyOp22
 70
     0
102
RTVSPropertyOp23
 70
     0
102
RTVSPropertyOp24
 70
     0
102
RTVSPropertyOp25
 70
     0
102
RTVSPropertyOp26
 70
     0
102
RTVSPropertyOp27
 70
     0
102
RTVSPropertyOp28
 70
     0
102
RTVSPropertyOp29
 70
     0
102
RTVSPropertyOp30
 70
     0
102
RTVSPropertyOp31
 70
     0
102
RTVSPropertyOp32
 70
     0
102
RTVSPropertyOp33
 70
     0
102
RTVSPropertyOp34
 70
     0
102
RTVSPropertyOp35
 70
     0
102
RTVSPropertyOp36
 70
     0
102
RTVSPropertyOp37
 70
     0
102
RTVSPropertyOp38
 70
     0
102
RTVSPropertyOp39
 70
     0
102
RTVSPropertyOp40
 70
     0
102
RTVSPropertyOp41
 70
     0
102
RTVSPropertyOp42
 70
     0
102
RTVSPropertyOp43
 70
     0
102
RTVSPropertyOp44
 70
     0
102
RTVSPropertyOp45
 70
     0
102
RTVSPropertyOp46
 70
     0
102
RTVSPropertyOp47
 70
     0
102
RTVSPropertyOp48
 70
     0
102
RTVSPropertyOp49
 70
     0
102
RTVSPropertyOp50
 70
     0
102
RTVSPropertyOp51
 70
     0
102
RTVSPropertyOp52
 70
     0
102
RTVSPropertyOp53
 70
     0
102
RTVSPropertyOp54
 70
     0
102
RTVSPropertyOp55
 70
     0
102
RTVSPropertyOp56
 70
     0
102
RTVSPropertyOp57
 70
     0
102
RTVSPropertyOp58
 70
     1
102
RTVSPropertyOp59
 70
     1
102
RTVSPropertyOp60
 70
     1
102
RTVSPropertyOp61
 70
     1
102
RTVSPropertyOp62
 70
     1
  0
XRECORD
  5
695
102
{ACAD_REACTORS
330
694
102
}
330
694
100
AcDbXrecord
280
     1
102
RTVSPost2010Prop28
280
     0
102
RTVSPost2010PropOp28
 70
     1
102
RTVSPost2010Prop29
280
     1
102
RTVSPost2010PropOp29
 70
     1
102
RTVSPost2010Prop30
280
     1
102
RTVSPost2010PropOp30
 70
     1
102
RTVSPost2010Prop31
280
     0
102
RTVSPost2010PropOp31
 70
     1
102
RTVSPost2010Prop32
280
     0
102
RTVSPost2010PropOp32
 70
     1
102
RTVSPost2010Prop33
280
     0
102
RTVSPost2010PropOp33
 70
     1
102
RTVSPost2010Prop34
280
     0
102
RTVSPost2010PropOp34
 70
     1
102
RTVSPost2010Prop35
280
     0
102
RTVSPost2010PropOp35
 70
     1
102
RTVSPost2010Prop36
280
     0
102
RTVSPost2010PropOp36
 70
     1
102
RTVSPost2010Prop37
 90
       50
102
RTVSPost2010PropOp37
 70
     1
102
RTVSPost2010Prop38
140
0.0
102
RTVSPost2010PropOp38
 70
     1
102
RTVSPost2010Prop39
140
1.0
102
RTVSPost2010PropOp39
 70
     1
102
RTVSPost2010Prop40
 90
        0
102
RTVSPost2010PropOp40
 70
     1
102
RTVSPost2010Prop41ColorIndex
 90
       18
102
RTVSPost2010Prop41ColorRGB
 90
        0
102
RTVSPost2010PropOp41
 70
     1
102
RTVSPost2010Prop42
 90
       50
102
RTVSPost2010PropOp42
 70
     1
102
RTVSPost2010Prop43
 90
        3
102
RTVSPost2010PropOp43
 70
     1
102
RTVSPost2010Prop44ColorIndex
 90
        5
102
RTVSPost2010Prop44ColorRGB
 90
      255
102
RTVSPost2010PropOp44
 70
     1
102
RTVSPost2010Prop45
280
     0
102
RTVSPost2010PropOp45
 70
     1
102
RTVSPost2010Prop46
 90
       50
102
RTVSPost2010PropOp46
 70
     1
102
RTVSPost2010Prop47
 90
       50
102
RTVSPost2010PropOp47
 70
     1
102
RTVSPost2010Prop48
 90
       50
102
RTVSPost2010PropOp48
 70
     1
102
RTVSPost2010Prop49
280
     0
102
RTVSPost2010PropOp49
 70
     1
102
RTVSPost2010Prop50
 90
       50
102
RTVSPost2010PropOp50
 70
     1
102
RTVSPost2010Prop51ColorIndex
 90
      256
102
RTVSPost2010Prop51ColorRGB
 90
-16777216
102
RTVSPost2010PropOp51
 70
     0
102
RTVSPost2010Prop52
140
1.0
102
RTVSPost2010PropOp52
 70
     0
102
RTVSPost2010Prop53
 90
        2
102
RTVSPost2010PropOp53
 70
     1
102
RTVSPost2010Prop54
  1
strokes_ogs.tif
102
RTVSPost2010PropOp54
 70
     1
102
RTVSPost2010Prop55
280
     0
102
RTVSPost2010PropOp55
 70
     1
102
RTVSPost2010Prop56
140
1.0
102
RTVSPost2010PropOp56
 70
     1
102
RTVSPost2010Prop57
140
1.0
102
RTVSPost2010PropOp57
 70
     1
102
RTVSPropertyOp0
 70
     1
102
RTVSPropertyOp1
 70
     1
102
RTVSPropertyOp2
 70
     1
102
RTVSPropertyOp3
 70
     1
102
RTVSPropertyOp4
 70
     1
102
RTVSPropertyOp5
 70
     1
102
RTVSPropertyOp6
 70
     1
102
RTVSPropertyOp7
 70
     1
102
RTVSPropertyOp8
 70
     1
102
RTVSPropertyOp9
 70
     1
102
RTVSPropertyOp10
 70
     1
102
RTVSPropertyOp11
 70
     1
102
RTVSPropertyOp12
 70
     1
102
RTVSPropertyOp13
 70
     1
102
RTVSPropertyOp14
 70
     1
102
RTVSPropertyOp15
 70
     1
102
RTVSPropertyOp16
 70
     1
102
RTVSPropertyOp17
 70
     1
102
RTVSPropertyOp18
 70
     1
102
RTVSPropertyOp19
 70
     1
102
RTVSPropertyOp20
 70
     1
102
RTVSPropertyOp21
 70
     1
102
RTVSPropertyOp22
 70
     1
102
RTVSPropertyOp23
 70
     1
102
RTVSPropertyOp24
 70
     1
102
RTVSPropertyOp25
 70
     1
102
RTVSPropertyOp26
 70
     1
102
RTVSPropertyOp27
 70
     1
102
RTVSPropertyOp28
 70
     1
102
RTVSPropertyOp29
 70
     1
102
RTVSPropertyOp30
 70
     1
102
RTVSPropertyOp31
 70
     1
102
RTVSPropertyOp32
 70
     1
102
RTVSPropertyOp33
 70
     1
102
RTVSPropertyOp34
 70
     1
102
RTVSPropertyOp35
 70
     1
102
RTVSPropertyOp36
 70
     1
102
RTVSPropertyOp37
 70
     1
102
RTVSPropertyOp38
 70
     1
102
RTVSPropertyOp39
 70
     1
102
RTVSPropertyOp40
 70
     1
102
RTVSPropertyOp41
 70
     1
102
RTVSPropertyOp42
 70
     1
102
RTVSPropertyOp43
 70
     1
102
RTVSPropertyOp44
 70
     1
102
RTVSPropertyOp45
 70
     1
102
RTVSPropertyOp46
 70
     1
102
RTVSPropertyOp47
 70
     1
102
RTVSPropertyOp48
 70
     1
102
RTVSPropertyOp49
 70
     1
102
RTVSPropertyOp50
 70
     1
102
RTVSPropertyOp51
 70
     0
102
RTVSPropertyOp52
 70
     0
102
RTVSPropertyOp53
 70
     1
102
RTVSPropertyOp54
 70
     1
102
RTVSPropertyOp55
 70
     1
102
RTVSPropertyOp56
 70
     1
102
RTVSPropertyOp57
 70
     1
102
RTVSPropertyOp58
 70
     1
102
RTVSPropertyOp59
 70
     1
102
RTVSPropertyOp60
 70
     1
102
RTVSPropertyOp61
 70
     1
102
RTVSPropertyOp62
 70
     1
  0
XRECORD
  5
679
102
{ACAD_REACTORS
330
678
102
}
330
678
100
AcDbXrecord
280
     1
102
RTVSPost2010Prop28
280
     0
102
RTVSPost2010PropOp28
 70
     1
102
RTVSPost2010Prop29
280
     1
102
RTVSPost2010PropOp29
 70
     1
102
RTVSPost2010Prop30
280
     1
102
RTVSPost2010PropOp30
 70
     1
102
RTVSPost2010Prop31
280
     0
102
RTVSPost2010PropOp31
 70
     1
102
RTVSPost2010Prop32
280
     0
102
RTVSPost2010PropOp32
 70
     1
102
RTVSPost2010Prop33
280
     0
102
RTVSPost2010PropOp33
 70
     1
102
RTVSPost2010Prop34
280
     0
102
RTVSPost2010PropOp34
 70
     1
102
RTVSPost2010Prop35
280
     0
102
RTVSPost2010PropOp35
 70
     1
102
RTVSPost2010Prop36
280
     0
102
RTVSPost2010PropOp36
 70
     1
102
RTVSPost2010Prop37
 90
       50
102
RTVSPost2010PropOp37
 70
     1
102
RTVSPost2010Prop38
140
0.0
102
RTVSPost2010PropOp38
 70
     1
102
RTVSPost2010Prop39
140
1.0
102
RTVSPost2010PropOp39
 70
     1
102
RTVSPost2010Prop40
 90
        0
102
RTVSPost2010PropOp40
 70
     1
102
RTVSPost2010Prop41ColorIndex
 90
       18
102
RTVSPost2010Prop41ColorRGB
 90
        0
102
RTVSPost2010PropOp41
 70
     1
102
RTVSPost2010Prop42
 90
       50
102
RTVSPost2010PropOp42
 70
     1
102
RTVSPost2010Prop43
 90
        3
102
RTVSPost2010PropOp43
 70
     1
102
RTVSPost2010Prop44ColorIndex
 90
        5
102
RTVSPost2010Prop44ColorRGB
 90
      255
102
RTVSPost2010PropOp44
 70
     1
102
RTVSPost2010Prop45
280
     0
102
RTVSPost2010PropOp45
 70
     1
102
RTVSPost2010Prop46
 90
       50
102
RTVSPost2010PropOp46
 70
     1
102
RTVSPost2010Prop47
 90
       50
102
RTVSPost2010PropOp47
 70
     1
102
RTVSPost2010Prop48
 90
       50
102
RTVSPost2010PropOp48
 70
     1
102
RTVSPost2010Prop49
280
     0
102
RTVSPost2010PropOp49
 70
     1
102
RTVSPost2010Prop50
 90
       50
102
RTVSPost2010PropOp50
 70
     1
102
RTVSPost2010Prop51ColorIndex
 90
      256
102
RTVSPost2010Prop51ColorRGB
 90
-16777216
102
RTVSPost2010PropOp51
 70
     0
102
RTVSPost2010Prop52
140
1.0
102
RTVSPost2010PropOp52
 70
     0
102
RTVSPost2010Prop53
 90
        2
102
RTVSPost2010PropOp53
 70
     1
102
RTVSPost2010Prop54
  1
strokes_ogs.tif
102
RTVSPost2010PropOp54
 70
     1
102
RTVSPost2010Prop55
280
     0
102
RTVSPost2010PropOp55
 70
     1
102
RTVSPost2010Prop56
140
1.0
102
RTVSPost2010PropOp56
 70
     1
102
RTVSPost2010Prop57
140
1.0
102
RTVSPost2010PropOp57
 70
     1
102
RTVSPropertyOp0
 70
     1
102
RTVSPropertyOp1
 70
     1
102
RTVSPropertyOp2
 70
     1
102
RTVSPropertyOp3
 70
     1
102
RTVSPropertyOp4
 70
     1
102
RTVSPropertyOp5
 70
     1
102
RTVSPropertyOp6
 70
     1
102
RTVSPropertyOp7
 70
     1
102
RTVSPropertyOp8
 70
     1
102
RTVSPropertyOp9
 70
     1
102
RTVSPropertyOp10
 70
     1
102
RTVSPropertyOp11
 70
     1
102
RTVSPropertyOp12
 70
     1
102
RTVSPropertyOp13
 70
     1
102
RTVSPropertyOp14
 70
     1
102
RTVSPropertyOp15
 70
     1
102
RTVSPropertyOp16
 70
     1
102
RTVSPropertyOp17
 70
     1
102
RTVSPropertyOp18
 70
     1
102
RTVSPropertyOp19
 70
     1
102
RTVSPropertyOp20
 70
     1
102
RTVSPropertyOp21
 70
     1
102
RTVSPropertyOp22
 70
     1
102
RTVSPropertyOp23
 70
     1
102
RTVSPropertyOp24
 70
     1
102
RTVSPropertyOp25
 70
     1
102
RTVSPropertyOp26
 70
     1
102
RTVSPropertyOp27
 70
     1
102
RTVSPropertyOp28
 70
     1
102
RTVSPropertyOp29
 70
     1
102
RTVSPropertyOp30
 70
     1
102
RTVSPropertyOp31
 70
     1
102
RTVSPropertyOp32
 70
     1
102
RTVSPropertyOp33
 70
     1
102
RTVSPropertyOp34
 70
     1
102
RTVSPropertyOp35
 70
     1
102
RTVSPropertyOp36
 70
     1
102
RTVSPropertyOp37
 70
     1
102
RTVSPropertyOp38
 70
     1
102
RTVSPropertyOp39
 70
     1
102
RTVSPropertyOp40
 70
     1
102
RTVSPropertyOp41
 70
     1
102
RTVSPropertyOp42
 70
     1
102
RTVSPropertyOp43
 70
     1
102
RTVSPropertyOp44
 70
     1
102
RTVSPropertyOp45
 70
     1
102
RTVSPropertyOp46
 70
     1
102
RTVSPropertyOp47
 70
     1
102
RTVSPropertyOp48
 70
     1
102
RTVSPropertyOp49
 70
     1
102
RTVSPropertyOp50
 70
     1
102
RTVSPropertyOp51
 70
     0
102
RTVSPropertyOp52
 70
     0
102
RTVSPropertyOp53
 70
     1
102
RTVSPropertyOp54
 70
     1
102
RTVSPropertyOp55
 70
     1
102
RTVSPropertyOp56
 70
     1
102
RTVSPropertyOp57
 70
     1
102
RTVSPropertyOp58
 70
     1
102
RTVSPropertyOp59
 70
     1
102
RTVSPropertyOp60
 70
     1
102
RTVSPropertyOp61
 70
     1
102
RTVSPropertyOp62
 70
     1
  0
XRECORD
  5
67B
102
{ACAD_REACTORS
330
67A
102
}
330
67A
100
AcDbXrecord
280
     1
102
RTVSPost2010Prop28
280
     0
102
RTVSPost2010PropOp28
 70
     1
102
RTVSPost2010Prop29
280
     1
102
RTVSPost2010PropOp29
 70
     1
102
RTVSPost2010Prop30
280
     1
102
RTVSPost2010PropOp30
 70
     1
102
RTVSPost2010Prop31
280
     0
102
RTVSPost2010PropOp31
 70
     1
102
RTVSPost2010Prop32
280
     0
102
RTVSPost2010PropOp32
 70
     1
102
RTVSPost2010Prop33
280
     0
102
RTVSPost2010PropOp33
 70
     1
102
RTVSPost2010Prop34
280
     0
102
RTVSPost2010PropOp34
 70
     1
102
RTVSPost2010Prop35
280
     0
102
RTVSPost2010PropOp35
 70
     1
102
RTVSPost2010Prop36
280
     0
102
RTVSPost2010PropOp36
 70
     1
102
RTVSPost2010Prop37
 90
       50
102
RTVSPost2010PropOp37
 70
     1
102
RTVSPost2010Prop38
140
0.0
102
RTVSPost2010PropOp38
 70
     1
102
RTVSPost2010Prop39
140
1.0
102
RTVSPost2010PropOp39
 70
     1
102
RTVSPost2010Prop40
 90
        0
102
RTVSPost2010PropOp40
 70
     1
102
RTVSPost2010Prop41ColorIndex
 90
       18
102
RTVSPost2010Prop41ColorRGB
 90
        0
102
RTVSPost2010PropOp41
 70
     1
102
RTVSPost2010Prop42
 90
       50
102
RTVSPost2010PropOp42
 70
     1
102
RTVSPost2010Prop43
 90
        3
102
RTVSPost2010PropOp43
 70
     1
102
RTVSPost2010Prop44ColorIndex
 90
        5
102
RTVSPost2010Prop44ColorRGB
 90
      255
102
RTVSPost2010PropOp44
 70
     1
102
RTVSPost2010Prop45
280
     0
102
RTVSPost2010PropOp45
 70
     1
102
RTVSPost2010Prop46
 90
       50
102
RTVSPost2010PropOp46
 70
     1
102
RTVSPost2010Prop47
 90
       50
102
RTVSPost2010PropOp47
 70
     1
102
RTVSPost2010Prop48
 90
       50
102
RTVSPost2010PropOp48
 70
     1
102
RTVSPost2010Prop49
280
     0
102
RTVSPost2010PropOp49
 70
     1
102
RTVSPost2010Prop50
 90
       50
102
RTVSPost2010PropOp50
 70
     1
102
RTVSPost2010Prop51ColorIndex
 90
      256
102
RTVSPost2010Prop51ColorRGB
 90
-16777216
102
RTVSPost2010PropOp51
 70
     0
102
RTVSPost2010Prop52
140
1.0
102
RTVSPost2010PropOp52
 70
     0
102
RTVSPost2010Prop53
 90
        2
102
RTVSPost2010PropOp53
 70
     1
102
RTVSPost2010Prop54
  1
strokes_ogs.tif
102
RTVSPost2010PropOp54
 70
     1
102
RTVSPost2010Prop55
280
     0
102
RTVSPost2010PropOp55
 70
     1
102
RTVSPost2010Prop56
140
1.0
102
RTVSPost2010PropOp56
 70
     1
102
RTVSPost2010Prop57
140
1.0
102
RTVSPost2010PropOp57
 70
     1
102
RTVSPropertyOp0
 70
     1
102
RTVSPropertyOp1
 70
     1
102
RTVSPropertyOp2
 70
     1
102
RTVSPropertyOp3
 70
     1
102
RTVSPropertyOp4
 70
     1
102
RTVSPropertyOp5
 70
     1
102
RTVSPropertyOp6
 70
     1
102
RTVSPropertyOp7
 70
     1
102
RTVSPropertyOp8
 70
     1
102
RTVSPropertyOp9
 70
     1
102
RTVSPropertyOp10
 70
     1
102
RTVSPropertyOp11
 70
     1
102
RTVSPropertyOp12
 70
     1
102
RTVSPropertyOp13
 70
     1
102
RTVSPropertyOp14
 70
     1
102
RTVSPropertyOp15
 70
     1
102
RTVSPropertyOp16
 70
     1
102
RTVSPropertyOp17
 70
     1
102
RTVSPropertyOp18
 70
     1
102
RTVSPropertyOp19
 70
     1
102
RTVSPropertyOp20
 70
     1
102
RTVSPropertyOp21
 70
     1
102
RTVSPropertyOp22
 70
     1
102
RTVSPropertyOp23
 70
     1
102
RTVSPropertyOp24
 70
     1
102
RTVSPropertyOp25
 70
     1
102
RTVSPropertyOp26
 70
     1
102
RTVSPropertyOp27
 70
     1
102
RTVSPropertyOp28
 70
     1
102
RTVSPropertyOp29
 70
     1
102
RTVSPropertyOp30
 70
     1
102
RTVSPropertyOp31
 70
     1
102
RTVSPropertyOp32
 70
     1
102
RTVSPropertyOp33
 70
     1
102
RTVSPropertyOp34
 70
     1
102
RTVSPropertyOp35
 70
     1
102
RTVSPropertyOp36
 70
     1
102
RTVSPropertyOp37
 70
     1
102
RTVSPropertyOp38
 70
     1
102
RTVSPropertyOp39
 70
     1
102
RTVSPropertyOp40
 70
     1
102
RTVSPropertyOp41
 70
     1
102
RTVSPropertyOp42
 70
     1
102
RTVSPropertyOp43
 70
     1
102
RTVSPropertyOp44
 70
     1
102
RTVSPropertyOp45
 70
     1
102
RTVSPropertyOp46
 70
     1
102
RTVSPropertyOp47
 70
     1
102
RTVSPropertyOp48
 70
     1
102
RTVSPropertyOp49
 70
     1
102
RTVSPropertyOp50
 70
     1
102
RTVSPropertyOp51
 70
     0
102
RTVSPropertyOp52
 70
     0
102
RTVSPropertyOp53
 70
     1
102
RTVSPropertyOp54
 70
     1
102
RTVSPropertyOp55
 70
     1
102
RTVSPropertyOp56
 70
     1
102
RTVSPropertyOp57
 70
     1
102
RTVSPropertyOp58
 70
     1
102
RTVSPropertyOp59
 70
     1
102
RTVSPropertyOp60
 70
     1
102
RTVSPropertyOp61
 70
     1
102
RTVSPropertyOp62
 70
     1
  0
XRECORD
  5
67D
102
{ACAD_REACTORS
330
67C
102
}
330
67C
100
AcDbXrecord
280
     1
102
RTVSPost2010Prop28
280
     0
102
RTVSPost2010PropOp28
 70
     1
102
RTVSPost2010Prop29
280
     1
102
RTVSPost2010PropOp29
 70
     1
102
RTVSPost2010Prop30
280
     1
102
RTVSPost2010PropOp30
 70
     1
102
RTVSPost2010Prop31
280
     0
102
RTVSPost2010PropOp31
 70
     1
102
RTVSPost2010Prop32
280
     0
102
RTVSPost2010PropOp32
 70
     1
102
RTVSPost2010Prop33
280
     0
102
RTVSPost2010PropOp33
 70
     1
102
RTVSPost2010Prop34
280
     0
102
RTVSPost2010PropOp34
 70
     1
102
RTVSPost2010Prop35
280
     0
102
RTVSPost2010PropOp35
 70
     1
102
RTVSPost2010Prop36
280
     0
102
RTVSPost2010PropOp36
 70
     1
102
RTVSPost2010Prop37
 90
       50
102
RTVSPost2010PropOp37
 70
     1
102
RTVSPost2010Prop38
140
0.0
102
RTVSPost2010PropOp38
 70
     1
102
RTVSPost2010Prop39
140
1.0
102
RTVSPost2010PropOp39
 70
     1
102
RTVSPost2010Prop40
 90
        0
102
RTVSPost2010PropOp40
 70
     1
102
RTVSPost2010Prop41ColorIndex
 90
       18
102
RTVSPost2010Prop41ColorRGB
 90
        0
102
RTVSPost2010PropOp41
 70
     1
102
RTVSPost2010Prop42
 90
       50
102
RTVSPost2010PropOp42
 70
     1
102
RTVSPost2010Prop43
 90
        3
102
RTVSPost2010PropOp43
 70
     1
102
RTVSPost2010Prop44ColorIndex
 90
        5
102
RTVSPost2010Prop44ColorRGB
 90
      255
102
RTVSPost2010PropOp44
 70
     1
102
RTVSPost2010Prop45
280
     0
102
RTVSPost2010PropOp45
 70
     1
102
RTVSPost2010Prop46
 90
       50
102
RTVSPost2010PropOp46
 70
     1
102
RTVSPost2010Prop47
 90
       50
102
RTVSPost2010PropOp47
 70
     1
102
RTVSPost2010Prop48
 90
       50
102
RTVSPost2010PropOp48
 70
     1
102
RTVSPost2010Prop49
280
     0
102
RTVSPost2010PropOp49
 70
     1
102
RTVSPost2010Prop50
 90
       50
102
RTVSPost2010PropOp50
 70
     1
102
RTVSPost2010Prop51ColorIndex
 90
      256
102
RTVSPost2010Prop51ColorRGB
 90
-16777216
102
RTVSPost2010PropOp51
 70
     0
102
RTVSPost2010Prop52
140
1.0
102
RTVSPost2010PropOp52
 70
     0
102
RTVSPost2010Prop53
 90
        2
102
RTVSPost2010PropOp53
 70
     1
102
RTVSPost2010Prop54
  1
strokes_ogs.tif
102
RTVSPost2010PropOp54
 70
     1
102
RTVSPost2010Prop55
280
     0
102
RTVSPost2010PropOp55
 70
     1
102
RTVSPost2010Prop56
140
1.0
102
RTVSPost2010PropOp56
 70
     1
102
RTVSPost2010Prop57
140
1.0
102
RTVSPost2010PropOp57
 70
     1
102
RTVSPropertyOp0
 70
     1
102
RTVSPropertyOp1
 70
     1
102
RTVSPropertyOp2
 70
     1
102
RTVSPropertyOp3
 70
     1
102
RTVSPropertyOp4
 70
     1
102
RTVSPropertyOp5
 70
     1
102
RTVSPropertyOp6
 70
     1
102
RTVSPropertyOp7
 70
     1
102
RTVSPropertyOp8
 70
     1
102
RTVSPropertyOp9
 70
     1
102
RTVSPropertyOp10
 70
     1
102
RTVSPropertyOp11
 70
     1
102
RTVSPropertyOp12
 70
     1
102
RTVSPropertyOp13
 70
     1
102
RTVSPropertyOp14
 70
     1
102
RTVSPropertyOp15
 70
     1
102
RTVSPropertyOp16
 70
     1
102
RTVSPropertyOp17
 70
     1
102
RTVSPropertyOp18
 70
     1
102
RTVSPropertyOp19
 70
     1
102
RTVSPropertyOp20
 70
     1
102
RTVSPropertyOp21
 70
     1
102
RTVSPropertyOp22
 70
     1
102
RTVSPropertyOp23
 70
     1
102
RTVSPropertyOp24
 70
     1
102
RTVSPropertyOp25
 70
     1
102
RTVSPropertyOp26
 70
     1
102
RTVSPropertyOp27
 70
     1
102
RTVSPropertyOp28
 70
     1
102
RTVSPropertyOp29
 70
     1
102
RTVSPropertyOp30
 70
     1
102
RTVSPropertyOp31
 70
     1
102
RTVSPropertyOp32
 70
     1
102
RTVSPropertyOp33
 70
     1
102
RTVSPropertyOp34
 70
     1
102
RTVSPropertyOp35
 70
     1
102
RTVSPropertyOp36
 70
     1
102
RTVSPropertyOp37
 70
     1
102
RTVSPropertyOp38
 70
     1
102
RTVSPropertyOp39
 70
     1
102
RTVSPropertyOp40
 70
     1
102
RTVSPropertyOp41
 70
     1
102
RTVSPropertyOp42
 70
     1
102
RTVSPropertyOp43
 70
     1
102
RTVSPropertyOp44
 70
     1
102
RTVSPropertyOp45
 70
     1
102
RTVSPropertyOp46
 70
     1
102
RTVSPropertyOp47
 70
     1
102
RTVSPropertyOp48
 70
     1
102
RTVSPropertyOp49
 70
     1
102
RTVSPropertyOp50
 70
     1
102
RTVSPropertyOp51
 70
     0
102
RTVSPropertyOp52
 70
     0
102
RTVSPropertyOp53
 70
     1
102
RTVSPropertyOp54
 70
     1
102
RTVSPropertyOp55
 70
     1
102
RTVSPropertyOp56
 70
     1
102
RTVSPropertyOp57
 70
     1
102
RTVSPropertyOp58
 70
     1
102
RTVSPropertyOp59
 70
     1
102
RTVSPropertyOp60
 70
     1
102
RTVSPropertyOp61
 70
     1
102
RTVSPropertyOp62
 70
     1
  0
XRECORD
  5
67F
102
{ACAD_REACTORS
330
67E
102
}
330
67E
100
AcDbXrecord
280
     1
102
RTVSPost2010Prop28
280
     0
102
RTVSPost2010PropOp28
 70
     1
102
RTVSPost2010Prop29
280
     1
102
RTVSPost2010PropOp29
 70
     1
102
RTVSPost2010Prop30
280
     1
102
RTVSPost2010PropOp30
 70
     1
102
RTVSPost2010Prop31
280
     0
102
RTVSPost2010PropOp31
 70
     1
102
RTVSPost2010Prop32
280
     0
102
RTVSPost2010PropOp32
 70
     1
102
RTVSPost2010Prop33
280
     0
102
RTVSPost2010PropOp33
 70
     1
102
RTVSPost2010Prop34
280
     0
102
RTVSPost2010PropOp34
 70
     1
102
RTVSPost2010Prop35
280
     0
102
RTVSPost2010PropOp35
 70
     1
102
RTVSPost2010Prop36
280
     0
102
RTVSPost2010PropOp36
 70
     1
102
RTVSPost2010Prop37
 90
       50
102
RTVSPost2010PropOp37
 70
     1
102
RTVSPost2010Prop38
140
0.0
102
RTVSPost2010PropOp38
 70
     1
102
RTVSPost2010Prop39
140
1.0
102
RTVSPost2010PropOp39
 70
     1
102
RTVSPost2010Prop40
 90
        0
102
RTVSPost2010PropOp40
 70
     1
102
RTVSPost2010Prop41ColorIndex
 90
       18
102
RTVSPost2010Prop41ColorRGB
 90
        0
102
RTVSPost2010PropOp41
 70
     1
102
RTVSPost2010Prop42
 90
       50
102
RTVSPost2010PropOp42
 70
     1
102
RTVSPost2010Prop43
 90
        3
102
RTVSPost2010PropOp43
 70
     1
102
RTVSPost2010Prop44ColorIndex
 90
        5
102
RTVSPost2010Prop44ColorRGB
 90
      255
102
RTVSPost2010PropOp44
 70
     1
102
RTVSPost2010Prop45
280
     0
102
RTVSPost2010PropOp45
 70
     1
102
RTVSPost2010Prop46
 90
       50
102
RTVSPost2010PropOp46
 70
     1
102
RTVSPost2010Prop47
 90
       50
102
RTVSPost2010PropOp47
 70
     1
102
RTVSPost2010Prop48
 90
       50
102
RTVSPost2010PropOp48
 70
     1
102
RTVSPost2010Prop49
280
     0
102
RTVSPost2010PropOp49
 70
     1
102
RTVSPost2010Prop50
 90
       50
102
RTVSPost2010PropOp50
 70
     1
102
RTVSPost2010Prop51ColorIndex
 90
      256
102
RTVSPost2010Prop51ColorRGB
 90
-16777216
102
RTVSPost2010PropOp51
 70
     0
102
RTVSPost2010Prop52
140
1.0
102
RTVSPost2010PropOp52
 70
     0
102
RTVSPost2010Prop53
 90
        2
102
RTVSPost2010PropOp53
 70
     1
102
RTVSPost2010Prop54
  1
strokes_ogs.tif
102
RTVSPost2010PropOp54
 70
     1
102
RTVSPost2010Prop55
280
     0
102
RTVSPost2010PropOp55
 70
     1
102
RTVSPost2010Prop56
140
1.0
102
RTVSPost2010PropOp56
 70
     1
102
RTVSPost2010Prop57
140
1.0
102
RTVSPost2010PropOp57
 70
     1
102
RTVSPropertyOp0
 70
     1
102
RTVSPropertyOp1
 70
     1
102
RTVSPropertyOp2
 70
     1
102
RTVSPropertyOp3
 70
     1
102
RTVSPropertyOp4
 70
     1
102
RTVSPropertyOp5
 70
     1
102
RTVSPropertyOp6
 70
     1
102
RTVSPropertyOp7
 70
     1
102
RTVSPropertyOp8
 70
     1
102
RTVSPropertyOp9
 70
     1
102
RTVSPropertyOp10
 70
     1
102
RTVSPropertyOp11
 70
     1
102
RTVSPropertyOp12
 70
     1
102
RTVSPropertyOp13
 70
     1
102
RTVSPropertyOp14
 70
     1
102
RTVSPropertyOp15
 70
     1
102
RTVSPropertyOp16
 70
     1
102
RTVSPropertyOp17
 70
     1
102
RTVSPropertyOp18
 70
     1
102
RTVSPropertyOp19
 70
     1
102
RTVSPropertyOp20
 70
     1
102
RTVSPropertyOp21
 70
     1
102
RTVSPropertyOp22
 70
     1
102
RTVSPropertyOp23
 70
     1
102
RTVSPropertyOp24
 70
     1
102
RTVSPropertyOp25
 70
     1
102
RTVSPropertyOp26
 70
     1
102
RTVSPropertyOp27
 70
     1
102
RTVSPropertyOp28
 70
     1
102
RTVSPropertyOp29
 70
     1
102
RTVSPropertyOp30
 70
     1
102
RTVSPropertyOp31
 70
     1
102
RTVSPropertyOp32
 70
     1
102
RTVSPropertyOp33
 70
     1
102
RTVSPropertyOp34
 70
     1
102
RTVSPropertyOp35
 70
     1
102
RTVSPropertyOp36
 70
     1
102
RTVSPropertyOp37
 70
     1
102
RTVSPropertyOp38
 70
     1
102
RTVSPropertyOp39
 70
     1
102
RTVSPropertyOp40
 70
     1
102
RTVSPropertyOp41
 70
     1
102
RTVSPropertyOp42
 70
     1
102
RTVSPropertyOp43
 70
     1
102
RTVSPropertyOp44
 70
     1
102
RTVSPropertyOp45
 70
     1
102
RTVSPropertyOp46
 70
     1
102
RTVSPropertyOp47
 70
     1
102
RTVSPropertyOp48
 70
     1
102
RTVSPropertyOp49
 70
     1
102
RTVSPropertyOp50
 70
     1
102
RTVSPropertyOp51
 70
     0
102
RTVSPropertyOp52
 70
     0
102
RTVSPropertyOp53
 70
     1
102
RTVSPropertyOp54
 70
     1
102
RTVSPropertyOp55
 70
     1
102
RTVSPropertyOp56
 70
     1
102
RTVSPropertyOp57
 70
     1
102
RTVSPropertyOp58
 70
     1
102
RTVSPropertyOp59
 70
     1
102
RTVSPropertyOp60
 70
     1
102
RTVSPropertyOp61
 70
     1
102
RTVSPropertyOp62
 70
     1
  0
XRECORD
  5
687
102
{ACAD_REACTORS
330
686
102
}
330
686
100
AcDbXrecord
280
     1
102
RTVSPost2010Prop28
280
     0
102
RTVSPost2010PropOp28
 70
     1
102
RTVSPost2010Prop29
280
     1
102
RTVSPost2010PropOp29
 70
     1
102
RTVSPost2010Prop30
280
     1
102
RTVSPost2010PropOp30
 70
     1
102
RTVSPost2010Prop31
280
     0
102
RTVSPost2010PropOp31
 70
     1
102
RTVSPost2010Prop32
280
     0
102
RTVSPost2010PropOp32
 70
     1
102
RTVSPost2010Prop33
280
     0
102
RTVSPost2010PropOp33
 70
     1
102
RTVSPost2010Prop34
280
     0
102
RTVSPost2010PropOp34
 70
     1
102
RTVSPost2010Prop35
280
     0
102
RTVSPost2010PropOp35
 70
     1
102
RTVSPost2010Prop36
280
     0
102
RTVSPost2010PropOp36
 70
     1
102
RTVSPost2010Prop37
 90
       50
102
RTVSPost2010PropOp37
 70
     1
102
RTVSPost2010Prop38
140
0.0
102
RTVSPost2010PropOp38
 70
     1
102
RTVSPost2010Prop39
140
1.0
102
RTVSPost2010PropOp39
 70
     1
102
RTVSPost2010Prop40
 90
        0
102
RTVSPost2010PropOp40
 70
     1
102
RTVSPost2010Prop41ColorIndex
 90
       18
102
RTVSPost2010Prop41ColorRGB
 90
        0
102
RTVSPost2010PropOp41
 70
     1
102
RTVSPost2010Prop42
 90
       50
102
RTVSPost2010PropOp42
 70
     1
102
RTVSPost2010Prop43
 90
        3
102
RTVSPost2010PropOp43
 70
     1
102
RTVSPost2010Prop44ColorIndex
 90
        5
102
RTVSPost2010Prop44ColorRGB
 90
      255
102
RTVSPost2010PropOp44
 70
     1
102
RTVSPost2010Prop45
280
     0
102
RTVSPost2010PropOp45
 70
     1
102
RTVSPost2010Prop46
 90
       50
102
RTVSPost2010PropOp46
 70
     1
102
RTVSPost2010Prop47
 90
       50
102
RTVSPost2010PropOp47
 70
     1
102
RTVSPost2010Prop48
 90
       50
102
RTVSPost2010PropOp48
 70
     1
102
RTVSPost2010Prop49
280
     0
102
RTVSPost2010PropOp49
 70
     1
102
RTVSPost2010Prop50
 90
       50
102
RTVSPost2010PropOp50
 70
     1
102
RTVSPost2010Prop51ColorIndex
 90
      256
102
RTVSPost2010Prop51ColorRGB
 90
-16777216
102
RTVSPost2010PropOp51
 70
     0
102
RTVSPost2010Prop52
140
1.0
102
RTVSPost2010PropOp52
 70
     0
102
RTVSPost2010Prop53
 90
        2
102
RTVSPost2010PropOp53
 70
     1
102
RTVSPost2010Prop54
  1
strokes_ogs.tif
102
RTVSPost2010PropOp54
 70
     1
102
RTVSPost2010Prop55
280
     0
102
RTVSPost2010PropOp55
 70
     1
102
RTVSPost2010Prop56
140
1.0
102
RTVSPost2010PropOp56
 70
     1
102
RTVSPost2010Prop57
140
1.0
102
RTVSPost2010PropOp57
 70
     1
102
RTVSPropertyOp0
 70
     1
102
RTVSPropertyOp1
 70
     1
102
RTVSPropertyOp2
 70
     1
102
RTVSPropertyOp3
 70
     1
102
RTVSPropertyOp4
 70
     1
102
RTVSPropertyOp5
 70
     1
102
RTVSPropertyOp6
 70
     1
102
RTVSPropertyOp7
 70
     1
102
RTVSPropertyOp8
 70
     1
102
RTVSPropertyOp9
 70
     1
102
RTVSPropertyOp10
 70
     1
102
RTVSPropertyOp11
 70
     1
102
RTVSPropertyOp12
 70
     1
102
RTVSPropertyOp13
 70
     1
102
RTVSPropertyOp14
 70
     1
102
RTVSPropertyOp15
 70
     1
102
RTVSPropertyOp16
 70
     1
102
RTVSPropertyOp17
 70
     1
102
RTVSPropertyOp18
 70
     1
102
RTVSPropertyOp19
 70
     1
102
RTVSPropertyOp20
 70
     1
102
RTVSPropertyOp21
 70
     1
102
RTVSPropertyOp22
 70
     1
102
RTVSPropertyOp23
 70
     1
102
RTVSPropertyOp24
 70
     1
102
RTVSPropertyOp25
 70
     1
102
RTVSPropertyOp26
 70
     1
102
RTVSPropertyOp27
 70
     1
102
RTVSPropertyOp28
 70
     1
102
RTVSPropertyOp29
 70
     1
102
RTVSPropertyOp30
 70
     1
102
RTVSPropertyOp31
 70
     1
102
RTVSPropertyOp32
 70
     1
102
RTVSPropertyOp33
 70
     1
102
RTVSPropertyOp34
 70
     1
102
RTVSPropertyOp35
 70
     1
102
RTVSPropertyOp36
 70
     1
102
RTVSPropertyOp37
 70
     1
102
RTVSPropertyOp38
 70
     1
102
RTVSPropertyOp39
 70
     1
102
RTVSPropertyOp40
 70
     1
102
RTVSPropertyOp41
 70
     1
102
RTVSPropertyOp42
 70
     1
102
RTVSPropertyOp43
 70
     1
102
RTVSPropertyOp44
 70
     1
102
RTVSPropertyOp45
 70
     1
102
RTVSPropertyOp46
 70
     1
102
RTVSPropertyOp47
 70
     1
102
RTVSPropertyOp48
 70
     1
102
RTVSPropertyOp49
 70
     1
102
RTVSPropertyOp50
 70
     1
102
RTVSPropertyOp51
 70
     0
102
RTVSPropertyOp52
 70
     0
102
RTVSPropertyOp53
 70
     1
102
RTVSPropertyOp54
 70
     1
102
RTVSPropertyOp55
 70
     1
102
RTVSPropertyOp56
 70
     1
102
RTVSPropertyOp57
 70
     1
102
RTVSPropertyOp58
 70
     1
102
RTVSPropertyOp59
 70
     1
102
RTVSPropertyOp60
 70
     1
102
RTVSPropertyOp61
 70
     1
102
RTVSPropertyOp62
 70
     1
  0
XRECORD
  5
6A3
102
{ACAD_REACTORS
330
6A2
102
}
330
6A2
100
AcDbXrecord
280
     1
102
RTVSPost2010Prop28
280
     0
102
RTVSPost2010PropOp28
 70
     0
102
RTVSPost2010Prop29
280
     1
102
RTVSPost2010PropOp29
 70
     0
102
RTVSPost2010Prop30
280
     1
102
RTVSPost2010PropOp30
 70
     0
102
RTVSPost2010Prop31
280
     0
102
RTVSPost2010PropOp31
 70
     0
102
RTVSPost2010Prop32
280
     0
102
RTVSPost2010PropOp32
 70
     0
102
RTVSPost2010Prop33
280
     0
102
RTVSPost2010PropOp33
 70
     0
102
RTVSPost2010Prop34
280
     0
102
RTVSPost2010PropOp34
 70
     0
102
RTVSPost2010Prop35
280
     0
102
RTVSPost2010PropOp35
 70
     0
102
RTVSPost2010Prop36
280
     0
102
RTVSPost2010PropOp36
 70
     0
102
RTVSPost2010Prop37
 90
       50
102
RTVSPost2010PropOp37
 70
     0
102
RTVSPost2010Prop38
140
0.0
102
RTVSPost2010PropOp38
 70
     0
102
RTVSPost2010Prop39
140
1.0
102
RTVSPost2010PropOp39
 70
     0
102
RTVSPost2010Prop40
 90
        0
102
RTVSPost2010PropOp40
 70
     0
102
RTVSPost2010Prop41ColorIndex
 90
       18
102
RTVSPost2010Prop41ColorRGB
 90
        0
102
RTVSPost2010PropOp41
 70
     0
102
RTVSPost2010Prop42
 90
       50
102
RTVSPost2010PropOp42
 70
     0
102
RTVSPost2010Prop43
 90
        3
102
RTVSPost2010PropOp43
 70
     0
102
RTVSPost2010Prop44ColorIndex
 90
        5
102
RTVSPost2010Prop44ColorRGB
 90
      255
102
RTVSPost2010PropOp44
 70
     0
102
RTVSPost2010Prop45
280
     0
102
RTVSPost2010PropOp45
 70
     0
102
RTVSPost2010Prop46
 90
       50
102
RTVSPost2010PropOp46
 70
     0
102
RTVSPost2010Prop47
 90
       50
102
RTVSPost2010PropOp47
 70
     0
102
RTVSPost2010Prop48
 90
       50
102
RTVSPost2010PropOp48
 70
     0
102
RTVSPost2010Prop49
280
     0
102
RTVSPost2010PropOp49
 70
     0
102
RTVSPost2010Prop50
 90
       50
102
RTVSPost2010PropOp50
 70
     0
102
RTVSPost2010Prop51ColorIndex
 90
      256
102
RTVSPost2010Prop51ColorRGB
 90
-16777216
102
RTVSPost2010PropOp51
 70
     0
102
RTVSPost2010Prop52
140
1.0
102
RTVSPost2010PropOp52
 70
     0
102
RTVSPost2010Prop53
 90
        2
102
RTVSPost2010PropOp53
 70
     0
102
RTVSPost2010Prop54
  1
strokes_ogs.tif
102
RTVSPost2010PropOp54
 70
     0
102
RTVSPost2010Prop55
280
     0
102
RTVSPost2010PropOp55
 70
     0
102
RTVSPost2010Prop56
140
1.0
102
RTVSPost2010PropOp56
 70
     0
102
RTVSPost2010Prop57
140
1.0
102
RTVSPost2010PropOp57
 70
     0
102
RTVSPropertyOp0
 70
     0
102
RTVSPropertyOp1
 70
     0
102
RTVSPropertyOp2
 70
     0
102
RTVSPropertyOp3
 70
     0
102
RTVSPropertyOp4
 70
     0
102
RTVSPropertyOp5
 70
     0
102
RTVSPropertyOp6
 70
     0
102
RTVSPropertyOp7
 70
     0
102
RTVSPropertyOp8
 70
     0
102
RTVSPropertyOp9
 70
     0
102
RTVSPropertyOp10
 70
     0
102
RTVSPropertyOp11
 70
     0
102
RTVSPropertyOp12
 70
     0
102
RTVSPropertyOp13
 70
     0
102
RTVSPropertyOp14
 70
     2
102
RTVSPropertyOp15
 70
     0
102
RTVSPropertyOp16
 70
     0
102
RTVSPropertyOp17
 70
     0
102
RTVSPropertyOp18
 70
     0
102
RTVSPropertyOp19
 70
     0
102
RTVSPropertyOp20
 70
     0
102
RTVSPropertyOp21
 70
     0
102
RTVSPropertyOp22
 70
     0
102
RTVSPropertyOp23
 70
     0
102
RTVSPropertyOp24
 70
     0
102
RTVSPropertyOp25
 70
     0
102
RTVSPropertyOp26
 70
     0
102
RTVSPropertyOp27
 70
     0
102
RTVSPropertyOp28
 70
     0
102
RTVSPropertyOp29
 70
     0
102
RTVSPropertyOp30
 70
     0
102
RTVSPropertyOp31
 70
     0
102
RTVSPropertyOp32
 70
     0
102
RTVSPropertyOp33
 70
     0
102
RTVSPropertyOp34
 70
     0
102
RTVSPropertyOp35
 70
     0
102
RTVSPropertyOp36
 70
     0
102
RTVSPropertyOp37
 70
     0
102
RTVSPropertyOp38
 70
     0
102
RTVSPropertyOp39
 70
     0
102
RTVSPropertyOp40
 70
     0
102
RTVSPropertyOp41
 70
     0
102
RTVSPropertyOp42
 70
     0
102
RTVSPropertyOp43
 70
     0
102
RTVSPropertyOp44
 70
     0
102
RTVSPropertyOp45
 70
     0
102
RTVSPropertyOp46
 70
     0
102
RTVSPropertyOp47
 70
     0
102
RTVSPropertyOp48
 70
     0
102
RTVSPropertyOp49
 70
     0
102
RTVSPropertyOp50
 70
     0
102
RTVSPropertyOp51
 70
     0
102
RTVSPropertyOp52
 70
     0
102
RTVSPropertyOp53
 70
     0
102
RTVSPropertyOp54
 70
     0
102
RTVSPropertyOp55
 70
     0
102
RTVSPropertyOp56
 70
     0
102
RTVSPropertyOp57
 70
     0
102
RTVSPropertyOp58
 70
     1
102
RTVSPropertyOp59
 70
     1
102
RTVSPropertyOp60
 70
     1
102
RTVSPropertyOp61
 70
     1
102
RTVSPropertyOp62
 70
     1
  0
XRECORD
  5
693
102
{ACAD_REACTORS
330
692
102
}
330
692
100
AcDbXrecord
280
     1
102
RTVSPost2010Prop28
280
     0
102
RTVSPost2010PropOp28
 70
     1
102
RTVSPost2010Prop29
280
     1
102
RTVSPost2010PropOp29
 70
     1
102
RTVSPost2010Prop30
280
     1
102
RTVSPost2010PropOp30
 70
     1
102
RTVSPost2010Prop31
280
     0
102
RTVSPost2010PropOp31
 70
     1
102
RTVSPost2010Prop32
280
     0
102
RTVSPost2010PropOp32
 70
     1
102
RTVSPost2010Prop33
280
     0
102
RTVSPost2010PropOp33
 70
     1
102
RTVSPost2010Prop34
280
     0
102
RTVSPost2010PropOp34
 70
     1
102
RTVSPost2010Prop35
280
     0
102
RTVSPost2010PropOp35
 70
     1
102
RTVSPost2010Prop36
280
     0
102
RTVSPost2010PropOp36
 70
     1
102
RTVSPost2010Prop37
 90
       50
102
RTVSPost2010PropOp37
 70
     1
102
RTVSPost2010Prop38
140
0.0
102
RTVSPost2010PropOp38
 70
     1
102
RTVSPost2010Prop39
140
1.0
102
RTVSPost2010PropOp39
 70
     1
102
RTVSPost2010Prop40
 90
        0
102
RTVSPost2010PropOp40
 70
     1
102
RTVSPost2010Prop41ColorIndex
 90
       18
102
RTVSPost2010Prop41ColorRGB
 90
        0
102
RTVSPost2010PropOp41
 70
     1
102
RTVSPost2010Prop42
 90
       50
102
RTVSPost2010PropOp42
 70
     1
102
RTVSPost2010Prop43
 90
        3
102
RTVSPost2010PropOp43
 70
     1
102
RTVSPost2010Prop44ColorIndex
 90
        5
102
RTVSPost2010Prop44ColorRGB
 90
      255
102
RTVSPost2010PropOp44
 70
     1
102
RTVSPost2010Prop45
280
     0
102
RTVSPost2010PropOp45
 70
     1
102
RTVSPost2010Prop46
 90
       50
102
RTVSPost2010PropOp46
 70
     1
102
RTVSPost2010Prop47
 90
       50
102
RTVSPost2010PropOp47
 70
     1
102
RTVSPost2010Prop48
 90
       50
102
RTVSPost2010PropOp48
 70
     1
102
RTVSPost2010Prop49
280
     0
102
RTVSPost2010PropOp49
 70
     1
102
RTVSPost2010Prop50
 90
       50
102
RTVSPost2010PropOp50
 70
     1
102
RTVSPost2010Prop51ColorIndex
 90
      256
102
RTVSPost2010Prop51ColorRGB
 90
-16777216
102
RTVSPost2010PropOp51
 70
     0
102
RTVSPost2010Prop52
140
1.0
102
RTVSPost2010PropOp52
 70
     0
102
RTVSPost2010Prop53
 90
        2
102
RTVSPost2010PropOp53
 70
     1
102
RTVSPost2010Prop54
  1
strokes_ogs.tif
102
RTVSPost2010PropOp54
 70
     1
102
RTVSPost2010Prop55
280
     0
102
RTVSPost2010PropOp55
 70
     1
102
RTVSPost2010Prop56
140
1.0
102
RTVSPost2010PropOp56
 70
     1
102
RTVSPost2010Prop57
140
1.0
102
RTVSPost2010PropOp57
 70
     1
102
RTVSPropertyOp0
 70
     1
102
RTVSPropertyOp1
 70
     1
102
RTVSPropertyOp2
 70
     1
102
RTVSPropertyOp3
 70
     1
102
RTVSPropertyOp4
 70
     1
102
RTVSPropertyOp5
 70
     1
102
RTVSPropertyOp6
 70
     1
102
RTVSPropertyOp7
 70
     1
102
RTVSPropertyOp8
 70
     1
102
RTVSPropertyOp9
 70
     1
102
RTVSPropertyOp10
 70
     1
102
RTVSPropertyOp11
 70
     1
102
RTVSPropertyOp12
 70
     1
102
RTVSPropertyOp13
 70
     1
102
RTVSPropertyOp14
 70
     1
102
RTVSPropertyOp15
 70
     1
102
RTVSPropertyOp16
 70
     1
102
RTVSPropertyOp17
 70
     1
102
RTVSPropertyOp18
 70
     1
102
RTVSPropertyOp19
 70
     1
102
RTVSPropertyOp20
 70
     1
102
RTVSPropertyOp21
 70
     1
102
RTVSPropertyOp22
 70
     1
102
RTVSPropertyOp23
 70
     1
102
RTVSPropertyOp24
 70
     1
102
RTVSPropertyOp25
 70
     1
102
RTVSPropertyOp26
 70
     1
102
RTVSPropertyOp27
 70
     1
102
RTVSPropertyOp28
 70
     1
102
RTVSPropertyOp29
 70
     1
102
RTVSPropertyOp30
 70
     1
102
RTVSPropertyOp31
 70
     1
102
RTVSPropertyOp32
 70
     1
102
RTVSPropertyOp33
 70
     1
102
RTVSPropertyOp34
 70
     1
102
RTVSPropertyOp35
 70
     1
102
RTVSPropertyOp36
 70
     1
102
RTVSPropertyOp37
 70
     1
102
RTVSPropertyOp38
 70
     1
102
RTVSPropertyOp39
 70
     1
102
RTVSPropertyOp40
 70
     1
102
RTVSPropertyOp41
 70
     1
102
RTVSPropertyOp42
 70
     1
102
RTVSPropertyOp43
 70
     1
102
RTVSPropertyOp44
 70
     1
102
RTVSPropertyOp45
 70
     1
102
RTVSPropertyOp46
 70
     1
102
RTVSPropertyOp47
 70
     1
102
RTVSPropertyOp48
 70
     1
102
RTVSPropertyOp49
 70
     1
102
RTVSPropertyOp50
 70
     1
102
RTVSPropertyOp51
 70
     0
102
RTVSPropertyOp52
 70
     0
102
RTVSPropertyOp53
 70
     1
102
RTVSPropertyOp54
 70
     1
102
RTVSPropertyOp55
 70
     1
102
RTVSPropertyOp56
 70
     1
102
RTVSPropertyOp57
 70
     1
102
RTVSPropertyOp58
 70
     1
102
RTVSPropertyOp59
 70
     1
102
RTVSPropertyOp60
 70
     1
102
RTVSPropertyOp61
 70
     1
102
RTVSPropertyOp62
 70
     1
  0
XRECORD
  5
6A5
102
{ACAD_REACTORS
330
6A4
102
}
330
6A4
100
AcDbXrecord
280
     1
102
RTVSPost2010Prop28
280
     0
102
RTVSPost2010PropOp28
 70
     0
102
RTVSPost2010Prop29
280
     1
102
RTVSPost2010PropOp29
 70
     0
102
RTVSPost2010Prop30
280
     1
102
RTVSPost2010PropOp30
 70
     0
102
RTVSPost2010Prop31
280
     0
102
RTVSPost2010PropOp31
 70
     0
102
RTVSPost2010Prop32
280
     0
102
RTVSPost2010PropOp32
 70
     0
102
RTVSPost2010Prop33
280
     0
102
RTVSPost2010PropOp33
 70
     0
102
RTVSPost2010Prop34
280
     0
102
RTVSPost2010PropOp34
 70
     0
102
RTVSPost2010Prop35
280
     0
102
RTVSPost2010PropOp35
 70
     0
102
RTVSPost2010Prop36
280
     0
102
RTVSPost2010PropOp36
 70
     0
102
RTVSPost2010Prop37
 90
       50
102
RTVSPost2010PropOp37
 70
     0
102
RTVSPost2010Prop38
140
0.0
102
RTVSPost2010PropOp38
 70
     0
102
RTVSPost2010Prop39
140
1.0
102
RTVSPost2010PropOp39
 70
     0
102
RTVSPost2010Prop40
 90
        0
102
RTVSPost2010PropOp40
 70
     0
102
RTVSPost2010Prop41ColorIndex
 90
       18
102
RTVSPost2010Prop41ColorRGB
 90
        0
102
RTVSPost2010PropOp41
 70
     0
102
RTVSPost2010Prop42
 90
       50
102
RTVSPost2010PropOp42
 70
     0
102
RTVSPost2010Prop43
 90
        3
102
RTVSPost2010PropOp43
 70
     0
102
RTVSPost2010Prop44ColorIndex
 90
        5
102
RTVSPost2010Prop44ColorRGB
 90
      255
102
RTVSPost2010PropOp44
 70
     0
102
RTVSPost2010Prop45
280
     0
102
RTVSPost2010PropOp45
 70
     0
102
RTVSPost2010Prop46
 90
       50
102
RTVSPost2010PropOp46
 70
     0
102
RTVSPost2010Prop47
 90
       50
102
RTVSPost2010PropOp47
 70
     0
102
RTVSPost2010Prop48
 90
       50
102
RTVSPost2010PropOp48
 70
     0
102
RTVSPost2010Prop49
280
     0
102
RTVSPost2010PropOp49
 70
     0
102
RTVSPost2010Prop50
 90
       50
102
RTVSPost2010PropOp50
 70
     0
102
RTVSPost2010Prop51ColorIndex
 90
      256
102
RTVSPost2010Prop51ColorRGB
 90
-16777216
102
RTVSPost2010PropOp51
 70
     0
102
RTVSPost2010Prop52
140
1.0
102
RTVSPost2010PropOp52
 70
     0
102
RTVSPost2010Prop53
 90
        2
102
RTVSPost2010PropOp53
 70
     0
102
RTVSPost2010Prop54
  1
strokes_ogs.tif
102
RTVSPost2010PropOp54
 70
     0
102
RTVSPost2010Prop55
280
     0
102
RTVSPost2010PropOp55
 70
     0
102
RTVSPost2010Prop56
140
1.0
102
RTVSPost2010PropOp56
 70
     0
102
RTVSPost2010Prop57
140
1.0
102
RTVSPost2010PropOp57
 70
     0
102
RTVSPropertyOp0
 70
     0
102
RTVSPropertyOp1
 70
     0
102
RTVSPropertyOp2
 70
     0
102
RTVSPropertyOp3
 70
     0
102
RTVSPropertyOp4
 70
     0
102
RTVSPropertyOp5
 70
     0
102
RTVSPropertyOp6
 70
     0
102
RTVSPropertyOp7
 70
     0
102
RTVSPropertyOp8
 70
     0
102
RTVSPropertyOp9
 70
     0
102
RTVSPropertyOp10
 70
     0
102
RTVSPropertyOp11
 70
     0
102
RTVSPropertyOp12
 70
     0
102
RTVSPropertyOp13
 70
     0
102
RTVSPropertyOp14
 70
     2
102
RTVSPropertyOp15
 70
     0
102
RTVSPropertyOp16
 70
     0
102
RTVSPropertyOp17
 70
     0
102
RTVSPropertyOp18
 70
     0
102
RTVSPropertyOp19
 70
     0
102
RTVSPropertyOp20
 70
     0
102
RTVSPropertyOp21
 70
     0
102
RTVSPropertyOp22
 70
     0
102
RTVSPropertyOp23
 70
     0
102
RTVSPropertyOp24
 70
     0
102
RTVSPropertyOp25
 70
     0
102
RTVSPropertyOp26
 70
     0
102
RTVSPropertyOp27
 70
     0
102
RTVSPropertyOp28
 70
     0
102
RTVSPropertyOp29
 70
     0
102
RTVSPropertyOp30
 70
     0
102
RTVSPropertyOp31
 70
     0
102
RTVSPropertyOp32
 70
     0
102
RTVSPropertyOp33
 70
     0
102
RTVSPropertyOp34
 70
     0
102
RTVSPropertyOp35
 70
     0
102
RTVSPropertyOp36
 70
     0
102
RTVSPropertyOp37
 70
     0
102
RTVSPropertyOp38
 70
     0
102
RTVSPropertyOp39
 70
     0
102
RTVSPropertyOp40
 70
     0
102
RTVSPropertyOp41
 70
     0
102
RTVSPropertyOp42
 70
     0
102
RTVSPropertyOp43
 70
     0
102
RTVSPropertyOp44
 70
     0
102
RTVSPropertyOp45
 70
     0
102
RTVSPropertyOp46
 70
     0
102
RTVSPropertyOp47
 70
     0
102
RTVSPropertyOp48
 70
     0
102
RTVSPropertyOp49
 70
     0
102
RTVSPropertyOp50
 70
     0
102
RTVSPropertyOp51
 70
     0
102
RTVSPropertyOp52
 70
     0
102
RTVSPropertyOp53
 70
     0
102
RTVSPropertyOp54
 70
     0
102
RTVSPropertyOp55
 70
     0
102
RTVSPropertyOp56
 70
     0
102
RTVSPropertyOp57
 70
     0
102
RTVSPropertyOp58
 70
     1
102
RTVSPropertyOp59
 70
     1
102
RTVSPropertyOp60
 70
     1
102
RTVSPropertyOp61
 70
     1
102
RTVSPropertyOp62
 70
     1
  0
XRECORD
  5
68B
102
{ACAD_REACTORS
330
68A
102
}
330
68A
100
AcDbXrecord
280
     1
102
RTVSPost2010Prop28
280
     0
102
RTVSPost2010PropOp28
 70
     1
102
RTVSPost2010Prop29
280
     1
102
RTVSPost2010PropOp29
 70
     1
102
RTVSPost2010Prop30
280
     1
102
RTVSPost2010PropOp30
 70
     1
102
RTVSPost2010Prop31
280
     0
102
RTVSPost2010PropOp31
 70
     1
102
RTVSPost2010Prop32
280
     0
102
RTVSPost2010PropOp32
 70
     1
102
RTVSPost2010Prop33
280
     0
102
RTVSPost2010PropOp33
 70
     1
102
RTVSPost2010Prop34
280
     0
102
RTVSPost2010PropOp34
 70
     1
102
RTVSPost2010Prop35
280
     0
102
RTVSPost2010PropOp35
 70
     1
102
RTVSPost2010Prop36
280
     0
102
RTVSPost2010PropOp36
 70
     1
102
RTVSPost2010Prop37
 90
       50
102
RTVSPost2010PropOp37
 70
     1
102
RTVSPost2010Prop38
140
0.0
102
RTVSPost2010PropOp38
 70
     1
102
RTVSPost2010Prop39
140
1.0
102
RTVSPost2010PropOp39
 70
     1
102
RTVSPost2010Prop40
 90
        0
102
RTVSPost2010PropOp40
 70
     1
102
RTVSPost2010Prop41ColorIndex
 90
       18
102
RTVSPost2010Prop41ColorRGB
 90
        0
102
RTVSPost2010PropOp41
 70
     1
102
RTVSPost2010Prop42
 90
       50
102
RTVSPost2010PropOp42
 70
     1
102
RTVSPost2010Prop43
 90
        3
102
RTVSPost2010PropOp43
 70
     1
102
RTVSPost2010Prop44ColorIndex
 90
        5
102
RTVSPost2010Prop44ColorRGB
 90
      255
102
RTVSPost2010PropOp44
 70
     1
102
RTVSPost2010Prop45
280
     0
102
RTVSPost2010PropOp45
 70
     1
102
RTVSPost2010Prop46
 90
       50
102
RTVSPost2010PropOp46
 70
     1
102
RTVSPost2010Prop47
 90
       50
102
RTVSPost2010PropOp47
 70
     1
102
RTVSPost2010Prop48
 90
       50
102
RTVSPost2010PropOp48
 70
     1
102
RTVSPost2010Prop49
280
     0
102
RTVSPost2010PropOp49
 70
     1
102
RTVSPost2010Prop50
 90
       50
102
RTVSPost2010PropOp50
 70
     1
102
RTVSPost2010Prop51ColorIndex
 90
      256
102
RTVSPost2010Prop51ColorRGB
 90
-16777216
102
RTVSPost2010PropOp51
 70
     0
102
RTVSPost2010Prop52
140
1.0
102
RTVSPost2010PropOp52
 70
     0
102
RTVSPost2010Prop53
 90
        2
102
RTVSPost2010PropOp53
 70
     1
102
RTVSPost2010Prop54
  1
strokes_ogs.tif
102
RTVSPost2010PropOp54
 70
     1
102
RTVSPost2010Prop55
280
     0
102
RTVSPost2010PropOp55
 70
     1
102
RTVSPost2010Prop56
140
1.0
102
RTVSPost2010PropOp56
 70
     1
102
RTVSPost2010Prop57
140
1.0
102
RTVSPost2010PropOp57
 70
     1
102
RTVSPropertyOp0
 70
     1
102
RTVSPropertyOp1
 70
     1
102
RTVSPropertyOp2
 70
     1
102
RTVSPropertyOp3
 70
     1
102
RTVSPropertyOp4
 70
     1
102
RTVSPropertyOp5
 70
     1
102
RTVSPropertyOp6
 70
     1
102
RTVSPropertyOp7
 70
     1
102
RTVSPropertyOp8
 70
     1
102
RTVSPropertyOp9
 70
     1
102
RTVSPropertyOp10
 70
     1
102
RTVSPropertyOp11
 70
     1
102
RTVSPropertyOp12
 70
     1
102
RTVSPropertyOp13
 70
     1
102
RTVSPropertyOp14
 70
     1
102
RTVSPropertyOp15
 70
     1
102
RTVSPropertyOp16
 70
     1
102
RTVSPropertyOp17
 70
     1
102
RTVSPropertyOp18
 70
     1
102
RTVSPropertyOp19
 70
     1
102
RTVSPropertyOp20
 70
     1
102
RTVSPropertyOp21
 70
     1
102
RTVSPropertyOp22
 70
     1
102
RTVSPropertyOp23
 70
     1
102
RTVSPropertyOp24
 70
     1
102
RTVSPropertyOp25
 70
     1
102
RTVSPropertyOp26
 70
     1
102
RTVSPropertyOp27
 70
     1
102
RTVSPropertyOp28
 70
     1
102
RTVSPropertyOp29
 70
     1
102
RTVSPropertyOp30
 70
     1
102
RTVSPropertyOp31
 70
     1
102
RTVSPropertyOp32
 70
     1
102
RTVSPropertyOp33
 70
     1
102
RTVSPropertyOp34
 70
     1
102
RTVSPropertyOp35
 70
     1
102
RTVSPropertyOp36
 70
     1
102
RTVSPropertyOp37
 70
     1
102
RTVSPropertyOp38
 70
     1
102
RTVSPropertyOp39
 70
     1
102
RTVSPropertyOp40
 70
     1
102
RTVSPropertyOp41
 70
     1
102
RTVSPropertyOp42
 70
     1
102
RTVSPropertyOp43
 70
     1
102
RTVSPropertyOp44
 70
     1
102
RTVSPropertyOp45
 70
     1
102
RTVSPropertyOp46
 70
     1
102
RTVSPropertyOp47
 70
     1
102
RTVSPropertyOp48
 70
     1
102
RTVSPropertyOp49
 70
     1
102
RTVSPropertyOp50
 70
     1
102
RTVSPropertyOp51
 70
     0
102
RTVSPropertyOp52
 70
     0
102
RTVSPropertyOp53
 70
     1
102
RTVSPropertyOp54
 70
     1
102
RTVSPropertyOp55
 70
     1
102
RTVSPropertyOp56
 70
     1
102
RTVSPropertyOp57
 70
     1
102
RTVSPropertyOp58
 70
     1
102
RTVSPropertyOp59
 70
     1
102
RTVSPropertyOp60
 70
     1
102
RTVSPropertyOp61
 70
     1
102
RTVSPropertyOp62
 70
     1
  0
XRECORD
  5
6A1
102
{ACAD_REACTORS
330
6A0
102
}
330
6A0
100
AcDbXrecord
280
     1
102
RTVSPost2010Prop28
280
     0
102
RTVSPost2010PropOp28
 70
     1
102
RTVSPost2010Prop29
280
     1
102
RTVSPost2010PropOp29
 70
     1
102
RTVSPost2010Prop30
280
     1
102
RTVSPost2010PropOp30
 70
     1
102
RTVSPost2010Prop31
280
     0
102
RTVSPost2010PropOp31
 70
     1
102
RTVSPost2010Prop32
280
     0
102
RTVSPost2010PropOp32
 70
     1
102
RTVSPost2010Prop33
280
     0
102
RTVSPost2010PropOp33
 70
     1
102
RTVSPost2010Prop34
280
     0
102
RTVSPost2010PropOp34
 70
     1
102
RTVSPost2010Prop35
280
     0
102
RTVSPost2010PropOp35
 70
     1
102
RTVSPost2010Prop36
280
     0
102
RTVSPost2010PropOp36
 70
     1
102
RTVSPost2010Prop37
 90
       50
102
RTVSPost2010PropOp37
 70
     1
102
RTVSPost2010Prop38
140
0.0
102
RTVSPost2010PropOp38
 70
     1
102
RTVSPost2010Prop39
140
1.0
102
RTVSPost2010PropOp39
 70
     1
102
RTVSPost2010Prop40
 90
        0
102
RTVSPost2010PropOp40
 70
     1
102
RTVSPost2010Prop41ColorIndex
 90
       18
102
RTVSPost2010Prop41ColorRGB
 90
        0
102
RTVSPost2010PropOp41
 70
     1
102
RTVSPost2010Prop42
 90
       50
102
RTVSPost2010PropOp42
 70
     1
102
RTVSPost2010Prop43
 90
        3
102
RTVSPost2010PropOp43
 70
     1
102
RTVSPost2010Prop44ColorIndex
 90
        5
102
RTVSPost2010Prop44ColorRGB
 90
      255
102
RTVSPost2010PropOp44
 70
     1
102
RTVSPost2010Prop45
280
     0
102
RTVSPost2010PropOp45
 70
     1
102
RTVSPost2010Prop46
 90
       50
102
RTVSPost2010PropOp46
 70
     1
102
RTVSPost2010Prop47
 90
       50
102
RTVSPost2010PropOp47
 70
     1
102
RTVSPost2010Prop48
 90
       50
102
RTVSPost2010PropOp48
 70
     1
102
RTVSPost2010Prop49
280
     0
102
RTVSPost2010PropOp49
 70
     1
102
RTVSPost2010Prop50
 90
       50
102
RTVSPost2010PropOp50
 70
     1
102
RTVSPost2010Prop51ColorIndex
 90
      256
102
RTVSPost2010Prop51ColorRGB
 90
-16777216
102
RTVSPost2010PropOp51
 70
     0
102
RTVSPost2010Prop52
140
1.0
102
RTVSPost2010PropOp52
 70
     0
102
RTVSPost2010Prop53
 90
        2
102
RTVSPost2010PropOp53
 70
     1
102
RTVSPost2010Prop54
  1
strokes_ogs.tif
102
RTVSPost2010PropOp54
 70
     1
102
RTVSPost2010Prop55
280
     0
102
RTVSPost2010PropOp55
 70
     1
102
RTVSPost2010Prop56
140
1.0
102
RTVSPost2010PropOp56
 70
     1
102
RTVSPost2010Prop57
140
1.0
102
RTVSPost2010PropOp57
 70
     1
102
RTVSPropertyOp0
 70
     1
102
RTVSPropertyOp1
 70
     1
102
RTVSPropertyOp2
 70
     1
102
RTVSPropertyOp3
 70
     1
102
RTVSPropertyOp4
 70
     1
102
RTVSPropertyOp5
 70
     1
102
RTVSPropertyOp6
 70
     1
102
RTVSPropertyOp7
 70
     1
102
RTVSPropertyOp8
 70
     1
102
RTVSPropertyOp9
 70
     1
102
RTVSPropertyOp10
 70
     1
102
RTVSPropertyOp11
 70
     1
102
RTVSPropertyOp12
 70
     1
102
RTVSPropertyOp13
 70
     1
102
RTVSPropertyOp14
 70
     1
102
RTVSPropertyOp15
 70
     1
102
RTVSPropertyOp16
 70
     1
102
RTVSPropertyOp17
 70
     1
102
RTVSPropertyOp18
 70
     1
102
RTVSPropertyOp19
 70
     1
102
RTVSPropertyOp20
 70
     1
102
RTVSPropertyOp21
 70
     1
102
RTVSPropertyOp22
 70
     1
102
RTVSPropertyOp23
 70
     1
102
RTVSPropertyOp24
 70
     1
102
RTVSPropertyOp25
 70
     1
102
RTVSPropertyOp26
 70
     1
102
RTVSPropertyOp27
 70
     1
102
RTVSPropertyOp28
 70
     1
102
RTVSPropertyOp29
 70
     1
102
RTVSPropertyOp30
 70
     1
102
RTVSPropertyOp31
 70
     1
102
RTVSPropertyOp32
 70
     1
102
RTVSPropertyOp33
 70
     1
102
RTVSPropertyOp34
 70
     1
102
RTVSPropertyOp35
 70
     1
102
RTVSPropertyOp36
 70
     1
102
RTVSPropertyOp37
 70
     1
102
RTVSPropertyOp38
 70
     1
102
RTVSPropertyOp39
 70
     1
102
RTVSPropertyOp40
 70
     1
102
RTVSPropertyOp41
 70
     1
102
RTVSPropertyOp42
 70
     1
102
RTVSPropertyOp43
 70
     1
102
RTVSPropertyOp44
 70
     1
102
RTVSPropertyOp45
 70
     1
102
RTVSPropertyOp46
 70
     1
102
RTVSPropertyOp47
 70
     1
102
RTVSPropertyOp48
 70
     1
102
RTVSPropertyOp49
 70
     1
102
RTVSPropertyOp50
 70
     1
102
RTVSPropertyOp51
 70
     0
102
RTVSPropertyOp52
 70
     0
102
RTVSPropertyOp53
 70
     1
102
RTVSPropertyOp54
 70
     1
102
RTVSPropertyOp55
 70
     1
102
RTVSPropertyOp56
 70
     1
102
RTVSPropertyOp57
 70
     1
102
RTVSPropertyOp58
 70
     1
102
RTVSPropertyOp59
 70
     1
102
RTVSPropertyOp60
 70
     1
102
RTVSPropertyOp61
 70
     1
102
RTVSPropertyOp62
 70
     1
  0
XRECORD
  5
69F
102
{ACAD_REACTORS
330
69E
102
}
330
69E
100
AcDbXrecord
280
     1
102
RTVSPost2010Prop28
280
     0
102
RTVSPost2010PropOp28
 70
     1
102
RTVSPost2010Prop29
280
     1
102
RTVSPost2010PropOp29
 70
     1
102
RTVSPost2010Prop30
280
     1
102
RTVSPost2010PropOp30
 70
     1
102
RTVSPost2010Prop31
280
     0
102
RTVSPost2010PropOp31
 70
     1
102
RTVSPost2010Prop32
280
     0
102
RTVSPost2010PropOp32
 70
     1
102
RTVSPost2010Prop33
280
     0
102
RTVSPost2010PropOp33
 70
     1
102
RTVSPost2010Prop34
280
     0
102
RTVSPost2010PropOp34
 70
     1
102
RTVSPost2010Prop35
280
     0
102
RTVSPost2010PropOp35
 70
     1
102
RTVSPost2010Prop36
280
     0
102
RTVSPost2010PropOp36
 70
     1
102
RTVSPost2010Prop37
 90
       50
102
RTVSPost2010PropOp37
 70
     1
102
RTVSPost2010Prop38
140
0.0
102
RTVSPost2010PropOp38
 70
     1
102
RTVSPost2010Prop39
140
1.0
102
RTVSPost2010PropOp39
 70
     1
102
RTVSPost2010Prop40
 90
        0
102
RTVSPost2010PropOp40
 70
     1
102
RTVSPost2010Prop41ColorIndex
 90
       18
102
RTVSPost2010Prop41ColorRGB
 90
        0
102
RTVSPost2010PropOp41
 70
     1
102
RTVSPost2010Prop42
 90
       50
102
RTVSPost2010PropOp42
 70
     1
102
RTVSPost2010Prop43
 90
        3
102
RTVSPost2010PropOp43
 70
     1
102
RTVSPost2010Prop44ColorIndex
 90
        5
102
RTVSPost2010Prop44ColorRGB
 90
      255
102
RTVSPost2010PropOp44
 70
     1
102
RTVSPost2010Prop45
280
     0
102
RTVSPost2010PropOp45
 70
     1
102
RTVSPost2010Prop46
 90
       50
102
RTVSPost2010PropOp46
 70
     1
102
RTVSPost2010Prop47
 90
       50
102
RTVSPost2010PropOp47
 70
     1
102
RTVSPost2010Prop48
 90
       50
102
RTVSPost2010PropOp48
 70
     1
102
RTVSPost2010Prop49
280
     0
102
RTVSPost2010PropOp49
 70
     1
102
RTVSPost2010Prop50
 90
       50
102
RTVSPost2010PropOp50
 70
     1
102
RTVSPost2010Prop51ColorIndex
 90
      256
102
RTVSPost2010Prop51ColorRGB
 90
-16777216
102
RTVSPost2010PropOp51
 70
     0
102
RTVSPost2010Prop52
140
1.0
102
RTVSPost2010PropOp52
 70
     0
102
RTVSPost2010Prop53
 90
        2
102
RTVSPost2010PropOp53
 70
     1
102
RTVSPost2010Prop54
  1
strokes_ogs.tif
102
RTVSPost2010PropOp54
 70
     1
102
RTVSPost2010Prop55
280
     0
102
RTVSPost2010PropOp55
 70
     1
102
RTVSPost2010Prop56
140
1.0
102
RTVSPost2010PropOp56
 70
     1
102
RTVSPost2010Prop57
140
1.0
102
RTVSPost2010PropOp57
 70
     1
102
RTVSPropertyOp0
 70
     1
102
RTVSPropertyOp1
 70
     1
102
RTVSPropertyOp2
 70
     1
102
RTVSPropertyOp3
 70
     1
102
RTVSPropertyOp4
 70
     1
102
RTVSPropertyOp5
 70
     1
102
RTVSPropertyOp6
 70
     1
102
RTVSPropertyOp7
 70
     1
102
RTVSPropertyOp8
 70
     1
102
RTVSPropertyOp9
 70
     1
102
RTVSPropertyOp10
 70
     1
102
RTVSPropertyOp11
 70
     1
102
RTVSPropertyOp12
 70
     1
102
RTVSPropertyOp13
 70
     1
102
RTVSPropertyOp14
 70
     1
102
RTVSPropertyOp15
 70
     1
102
RTVSPropertyOp16
 70
     1
102
RTVSPropertyOp17
 70
     1
102
RTVSPropertyOp18
 70
     1
102
RTVSPropertyOp19
 70
     1
102
RTVSPropertyOp20
 70
     1
102
RTVSPropertyOp21
 70
     1
102
RTVSPropertyOp22
 70
     1
102
RTVSPropertyOp23
 70
     1
102
RTVSPropertyOp24
 70
     1
102
RTVSPropertyOp25
 70
     1
102
RTVSPropertyOp26
 70
     1
102
RTVSPropertyOp27
 70
     1
102
RTVSPropertyOp28
 70
     1
102
RTVSPropertyOp29
 70
     1
102
RTVSPropertyOp30
 70
     1
102
RTVSPropertyOp31
 70
     1
102
RTVSPropertyOp32
 70
     1
102
RTVSPropertyOp33
 70
     1
102
RTVSPropertyOp34
 70
     1
102
RTVSPropertyOp35
 70
     1
102
RTVSPropertyOp36
 70
     1
102
RTVSPropertyOp37
 70
     1
102
RTVSPropertyOp38
 70
     1
102
RTVSPropertyOp39
 70
     1
102
RTVSPropertyOp40
 70
     1
102
RTVSPropertyOp41
 70
     1
102
RTVSPropertyOp42
 70
     1
102
RTVSPropertyOp43
 70
     1
102
RTVSPropertyOp44
 70
     1
102
RTVSPropertyOp45
 70
     1
102
RTVSPropertyOp46
 70
     1
102
RTVSPropertyOp47
 70
     1
102
RTVSPropertyOp48
 70
     1
102
RTVSPropertyOp49
 70
     1
102
RTVSPropertyOp50
 70
     1
102
RTVSPropertyOp51
 70
     0
102
RTVSPropertyOp52
 70
     0
102
RTVSPropertyOp53
 70
     1
102
RTVSPropertyOp54
 70
     1
102
RTVSPropertyOp55
 70
     1
102
RTVSPropertyOp56
 70
     1
102
RTVSPropertyOp57
 70
     1
102
RTVSPropertyOp58
 70
     1
102
RTVSPropertyOp59
 70
     1
102
RTVSPropertyOp60
 70
     1
102
RTVSPropertyOp61
 70
     1
102
RTVSPropertyOp62
 70
     1
  0
XRECORD
  5
699
102
{ACAD_REACTORS
330
698
102
}
330
698
100
AcDbXrecord
280
     1
102
RTVSPost2010Prop28
280
     0
102
RTVSPost2010PropOp28
 70
     1
102
RTVSPost2010Prop29
280
     1
102
RTVSPost2010PropOp29
 70
     1
102
RTVSPost2010Prop30
280
     1
102
RTVSPost2010PropOp30
 70
     1
102
RTVSPost2010Prop31
280
     0
102
RTVSPost2010PropOp31
 70
     1
102
RTVSPost2010Prop32
280
     0
102
RTVSPost2010PropOp32
 70
     1
102
RTVSPost2010Prop33
280
     0
102
RTVSPost2010PropOp33
 70
     1
102
RTVSPost2010Prop34
280
     0
102
RTVSPost2010PropOp34
 70
     1
102
RTVSPost2010Prop35
280
     0
102
RTVSPost2010PropOp35
 70
     1
102
RTVSPost2010Prop36
280
     0
102
RTVSPost2010PropOp36
 70
     1
102
RTVSPost2010Prop37
 90
       50
102
RTVSPost2010PropOp37
 70
     1
102
RTVSPost2010Prop38
140
0.0
102
RTVSPost2010PropOp38
 70
     1
102
RTVSPost2010Prop39
140
1.0
102
RTVSPost2010PropOp39
 70
     1
102
RTVSPost2010Prop40
 90
        0
102
RTVSPost2010PropOp40
 70
     1
102
RTVSPost2010Prop41ColorIndex
 90
       18
102
RTVSPost2010Prop41ColorRGB
 90
        0
102
RTVSPost2010PropOp41
 70
     1
102
RTVSPost2010Prop42
 90
       50
102
RTVSPost2010PropOp42
 70
     1
102
RTVSPost2010Prop43
 90
        3
102
RTVSPost2010PropOp43
 70
     1
102
RTVSPost2010Prop44ColorIndex
 90
        5
102
RTVSPost2010Prop44ColorRGB
 90
      255
102
RTVSPost2010PropOp44
 70
     1
102
RTVSPost2010Prop45
280
     0
102
RTVSPost2010PropOp45
 70
     1
102
RTVSPost2010Prop46
 90
       50
102
RTVSPost2010PropOp46
 70
     1
102
RTVSPost2010Prop47
 90
       50
102
RTVSPost2010PropOp47
 70
     1
102
RTVSPost2010Prop48
 90
       50
102
RTVSPost2010PropOp48
 70
     1
102
RTVSPost2010Prop49
280
     0
102
RTVSPost2010PropOp49
 70
     1
102
RTVSPost2010Prop50
 90
       50
102
RTVSPost2010PropOp50
 70
     1
102
RTVSPost2010Prop51ColorIndex
 90
      256
102
RTVSPost2010Prop51ColorRGB
 90
-16777216
102
RTVSPost2010PropOp51
 70
     0
102
RTVSPost2010Prop52
140
1.0
102
RTVSPost2010PropOp52
 70
     0
102
RTVSPost2010Prop53
 90
        2
102
RTVSPost2010PropOp53
 70
     1
102
RTVSPost2010Prop54
  1
strokes_ogs.tif
102
RTVSPost2010PropOp54
 70
     1
102
RTVSPost2010Prop55
280
     0
102
RTVSPost2010PropOp55
 70
     1
102
RTVSPost2010Prop56
140
1.0
102
RTVSPost2010PropOp56
 70
     1
102
RTVSPost2010Prop57
140
1.0
102
RTVSPost2010PropOp57
 70
     1
102
RTVSPropertyOp0
 70
     1
102
RTVSPropertyOp1
 70
     1
102
RTVSPropertyOp2
 70
     1
102
RTVSPropertyOp3
 70
     1
102
RTVSPropertyOp4
 70
     1
102
RTVSPropertyOp5
 70
     1
102
RTVSPropertyOp6
 70
     1
102
RTVSPropertyOp7
 70
     1
102
RTVSPropertyOp8
 70
     1
102
RTVSPropertyOp9
 70
     1
102
RTVSPropertyOp10
 70
     1
102
RTVSPropertyOp11
 70
     1
102
RTVSPropertyOp12
 70
     1
102
RTVSPropertyOp13
 70
     1
102
RTVSPropertyOp14
 70
     1
102
RTVSPropertyOp15
 70
     1
102
RTVSPropertyOp16
 70
     1
102
RTVSPropertyOp17
 70
     1
102
RTVSPropertyOp18
 70
     1
102
RTVSPropertyOp19
 70
     1
102
RTVSPropertyOp20
 70
     1
102
RTVSPropertyOp21
 70
     1
102
RTVSPropertyOp22
 70
     1
102
RTVSPropertyOp23
 70
     1
102
RTVSPropertyOp24
 70
     1
102
RTVSPropertyOp25
 70
     1
102
RTVSPropertyOp26
 70
     1
102
RTVSPropertyOp27
 70
     1
102
RTVSPropertyOp28
 70
     1
102
RTVSPropertyOp29
 70
     1
102
RTVSPropertyOp30
 70
     1
102
RTVSPropertyOp31
 70
     1
102
RTVSPropertyOp32
 70
     1
102
RTVSPropertyOp33
 70
     1
102
RTVSPropertyOp34
 70
     1
102
RTVSPropertyOp35
 70
     1
102
RTVSPropertyOp36
 70
     1
102
RTVSPropertyOp37
 70
     1
102
RTVSPropertyOp38
 70
     1
102
RTVSPropertyOp39
 70
     1
102
RTVSPropertyOp40
 70
     1
102
RTVSPropertyOp41
 70
     1
102
RTVSPropertyOp42
 70
     1
102
RTVSPropertyOp43
 70
     1
102
RTVSPropertyOp44
 70
     1
102
RTVSPropertyOp45
 70
     1
102
RTVSPropertyOp46
 70
     1
102
RTVSPropertyOp47
 70
     1
102
RTVSPropertyOp48
 70
     1
102
RTVSPropertyOp49
 70
     1
102
RTVSPropertyOp50
 70
     1
102
RTVSPropertyOp51
 70
     0
102
RTVSPropertyOp52
 70
     0
102
RTVSPropertyOp53
 70
     1
102
RTVSPropertyOp54
 70
     1
102
RTVSPropertyOp55
 70
     1
102
RTVSPropertyOp56
 70
     1
102
RTVSPropertyOp57
 70
     1
102
RTVSPropertyOp58
 70
     1
102
RTVSPropertyOp59
 70
     1
102
RTVSPropertyOp60
 70
     1
102
RTVSPropertyOp61
 70
     1
102
RTVSPropertyOp62
 70
     1
  0
XRECORD
  5
69B
102
{ACAD_REACTORS
330
69A
102
}
330
69A
100
AcDbXrecord
280
     1
102
RTVSPost2010Prop28
280
     0
102
RTVSPost2010PropOp28
 70
     1
102
RTVSPost2010Prop29
280
     1
102
RTVSPost2010PropOp29
 70
     1
102
RTVSPost2010Prop30
280
     1
102
RTVSPost2010PropOp30
 70
     1
102
RTVSPost2010Prop31
280
     0
102
RTVSPost2010PropOp31
 70
     1
102
RTVSPost2010Prop32
280
     0
102
RTVSPost2010PropOp32
 70
     1
102
RTVSPost2010Prop33
280
     0
102
RTVSPost2010PropOp33
 70
     1
102
RTVSPost2010Prop34
280
     0
102
RTVSPost2010PropOp34
 70
     1
102
RTVSPost2010Prop35
280
     0
102
RTVSPost2010PropOp35
 70
     1
102
RTVSPost2010Prop36
280
     0
102
RTVSPost2010PropOp36
 70
     1
102
RTVSPost2010Prop37
 90
       50
102
RTVSPost2010PropOp37
 70
     1
102
RTVSPost2010Prop38
140
0.0
102
RTVSPost2010PropOp38
 70
     1
102
RTVSPost2010Prop39
140
1.0
102
RTVSPost2010PropOp39
 70
     1
102
RTVSPost2010Prop40
 90
        0
102
RTVSPost2010PropOp40
 70
     1
102
RTVSPost2010Prop41ColorIndex
 90
       18
102
RTVSPost2010Prop41ColorRGB
 90
        0
102
RTVSPost2010PropOp41
 70
     1
102
RTVSPost2010Prop42
 90
       50
102
RTVSPost2010PropOp42
 70
     1
102
RTVSPost2010Prop43
 90
        3
102
RTVSPost2010PropOp43
 70
     1
102
RTVSPost2010Prop44ColorIndex
 90
        5
102
RTVSPost2010Prop44ColorRGB
 90
      255
102
RTVSPost2010PropOp44
 70
     1
102
RTVSPost2010Prop45
280
     0
102
RTVSPost2010PropOp45
 70
     1
102
RTVSPost2010Prop46
 90
       50
102
RTVSPost2010PropOp46
 70
     1
102
RTVSPost2010Prop47
 90
       50
102
RTVSPost2010PropOp47
 70
     1
102
RTVSPost2010Prop48
 90
       50
102
RTVSPost2010PropOp48
 70
     1
102
RTVSPost2010Prop49
280
     0
102
RTVSPost2010PropOp49
 70
     1
102
RTVSPost2010Prop50
 90
       50
102
RTVSPost2010PropOp50
 70
     1
102
RTVSPost2010Prop51ColorIndex
 90
      256
102
RTVSPost2010Prop51ColorRGB
 90
-16777216
102
RTVSPost2010PropOp51
 70
     0
102
RTVSPost2010Prop52
140
1.0
102
RTVSPost2010PropOp52
 70
     0
102
RTVSPost2010Prop53
 90
        2
102
RTVSPost2010PropOp53
 70
     1
102
RTVSPost2010Prop54
  1
strokes_ogs.tif
102
RTVSPost2010PropOp54
 70
     1
102
RTVSPost2010Prop55
280
     0
102
RTVSPost2010PropOp55
 70
     1
102
RTVSPost2010Prop56
140
1.0
102
RTVSPost2010PropOp56
 70
     1
102
RTVSPost2010Prop57
140
1.0
102
RTVSPost2010PropOp57
 70
     1
102
RTVSPropertyOp0
 70
     1
102
RTVSPropertyOp1
 70
     1
102
RTVSPropertyOp2
 70
     1
102
RTVSPropertyOp3
 70
     1
102
RTVSPropertyOp4
 70
     1
102
RTVSPropertyOp5
 70
     1
102
RTVSPropertyOp6
 70
     1
102
RTVSPropertyOp7
 70
     1
102
RTVSPropertyOp8
 70
     1
102
RTVSPropertyOp9
 70
     1
102
RTVSPropertyOp10
 70
     1
102
RTVSPropertyOp11
 70
     1
102
RTVSPropertyOp12
 70
     1
102
RTVSPropertyOp13
 70
     1
102
RTVSPropertyOp14
 70
     1
102
RTVSPropertyOp15
 70
     1
102
RTVSPropertyOp16
 70
     1
102
RTVSPropertyOp17
 70
     1
102
RTVSPropertyOp18
 70
     1
102
RTVSPropertyOp19
 70
     1
102
RTVSPropertyOp20
 70
     1
102
RTVSPropertyOp21
 70
     1
102
RTVSPropertyOp22
 70
     1
102
RTVSPropertyOp23
 70
     1
102
RTVSPropertyOp24
 70
     1
102
RTVSPropertyOp25
 70
     1
102
RTVSPropertyOp26
 70
     1
102
RTVSPropertyOp27
 70
     1
102
RTVSPropertyOp28
 70
     1
102
RTVSPropertyOp29
 70
     1
102
RTVSPropertyOp30
 70
     1
102
RTVSPropertyOp31
 70
     1
102
RTVSPropertyOp32
 70
     1
102
RTVSPropertyOp33
 70
     1
102
RTVSPropertyOp34
 70
     1
102
RTVSPropertyOp35
 70
     1
102
RTVSPropertyOp36
 70
     1
102
RTVSPropertyOp37
 70
     1
102
RTVSPropertyOp38
 70
     1
102
RTVSPropertyOp39
 70
     1
102
RTVSPropertyOp40
 70
     1
102
RTVSPropertyOp41
 70
     1
102
RTVSPropertyOp42
 70
     1
102
RTVSPropertyOp43
 70
     1
102
RTVSPropertyOp44
 70
     1
102
RTVSPropertyOp45
 70
     1
102
RTVSPropertyOp46
 70
     1
102
RTVSPropertyOp47
 70
     1
102
RTVSPropertyOp48
 70
     1
102
RTVSPropertyOp49
 70
     1
102
RTVSPropertyOp50
 70
     1
102
RTVSPropertyOp51
 70
     0
102
RTVSPropertyOp52
 70
     0
102
RTVSPropertyOp53
 70
     1
102
RTVSPropertyOp54
 70
     1
102
RTVSPropertyOp55
 70
     1
102
RTVSPropertyOp56
 70
     1
102
RTVSPropertyOp57
 70
     1
102
RTVSPropertyOp58
 70
     1
102
RTVSPropertyOp59
 70
     1
102
RTVSPropertyOp60
 70
     1
102
RTVSPropertyOp61
 70
     1
102
RTVSPropertyOp62
 70
     1
  0
XRECORD
  5
691
102
{ACAD_REACTORS
330
690
102
}
330
690
100
AcDbXrecord
280
     1
102
RTVSPost2010Prop28
280
     0
102
RTVSPost2010PropOp28
 70
     1
102
RTVSPost2010Prop29
280
     1
102
RTVSPost2010PropOp29
 70
     1
102
RTVSPost2010Prop30
280
     1
102
RTVSPost2010PropOp30
 70
     1
102
RTVSPost2010Prop31
280
     0
102
RTVSPost2010PropOp31
 70
     1
102
RTVSPost2010Prop32
280
     0
102
RTVSPost2010PropOp32
 70
     1
102
RTVSPost2010Prop33
280
     0
102
RTVSPost2010PropOp33
 70
     1
102
RTVSPost2010Prop34
280
     0
102
RTVSPost2010PropOp34
 70
     1
102
RTVSPost2010Prop35
280
     0
102
RTVSPost2010PropOp35
 70
     1
102
RTVSPost2010Prop36
280
     0
102
RTVSPost2010PropOp36
 70
     1
102
RTVSPost2010Prop37
 90
       50
102
RTVSPost2010PropOp37
 70
     1
102
RTVSPost2010Prop38
140
0.0
102
RTVSPost2010PropOp38
 70
     1
102
RTVSPost2010Prop39
140
1.0
102
RTVSPost2010PropOp39
 70
     1
102
RTVSPost2010Prop40
 90
        0
102
RTVSPost2010PropOp40
 70
     1
102
RTVSPost2010Prop41ColorIndex
 90
       18
102
RTVSPost2010Prop41ColorRGB
 90
        0
102
RTVSPost2010PropOp41
 70
     1
102
RTVSPost2010Prop42
 90
       50
102
RTVSPost2010PropOp42
 70
     1
102
RTVSPost2010Prop43
 90
        3
102
RTVSPost2010PropOp43
 70
     1
102
RTVSPost2010Prop44ColorIndex
 90
        5
102
RTVSPost2010Prop44ColorRGB
 90
      255
102
RTVSPost2010PropOp44
 70
     1
102
RTVSPost2010Prop45
280
     0
102
RTVSPost2010PropOp45
 70
     1
102
RTVSPost2010Prop46
 90
       50
102
RTVSPost2010PropOp46
 70
     1
102
RTVSPost2010Prop47
 90
       50
102
RTVSPost2010PropOp47
 70
     1
102
RTVSPost2010Prop48
 90
       50
102
RTVSPost2010PropOp48
 70
     1
102
RTVSPost2010Prop49
280
     0
102
RTVSPost2010PropOp49
 70
     1
102
RTVSPost2010Prop50
 90
       50
102
RTVSPost2010PropOp50
 70
     1
102
RTVSPost2010Prop51ColorIndex
 90
      256
102
RTVSPost2010Prop51ColorRGB
 90
-16777216
102
RTVSPost2010PropOp51
 70
     0
102
RTVSPost2010Prop52
140
1.0
102
RTVSPost2010PropOp52
 70
     0
102
RTVSPost2010Prop53
 90
        2
102
RTVSPost2010PropOp53
 70
     1
102
RTVSPost2010Prop54
  1
strokes_ogs.tif
102
RTVSPost2010PropOp54
 70
     1
102
RTVSPost2010Prop55
280
     0
102
RTVSPost2010PropOp55
 70
     1
102
RTVSPost2010Prop56
140
1.0
102
RTVSPost2010PropOp56
 70
     1
102
RTVSPost2010Prop57
140
1.0
102
RTVSPost2010PropOp57
 70
     1
102
RTVSPropertyOp0
 70
     1
102
RTVSPropertyOp1
 70
     1
102
RTVSPropertyOp2
 70
     1
102
RTVSPropertyOp3
 70
     1
102
RTVSPropertyOp4
 70
     1
102
RTVSPropertyOp5
 70
     1
102
RTVSPropertyOp6
 70
     1
102
RTVSPropertyOp7
 70
     1
102
RTVSPropertyOp8
 70
     1
102
RTVSPropertyOp9
 70
     1
102
RTVSPropertyOp10
 70
     1
102
RTVSPropertyOp11
 70
     1
102
RTVSPropertyOp12
 70
     1
102
RTVSPropertyOp13
 70
     1
102
RTVSPropertyOp14
 70
     1
102
RTVSPropertyOp15
 70
     1
102
RTVSPropertyOp16
 70
     1
102
RTVSPropertyOp17
 70
     1
102
RTVSPropertyOp18
 70
     1
102
RTVSPropertyOp19
 70
     1
102
RTVSPropertyOp20
 70
     1
102
RTVSPropertyOp21
 70
     1
102
RTVSPropertyOp22
 70
     1
102
RTVSPropertyOp23
 70
     1
102
RTVSPropertyOp24
 70
     1
102
RTVSPropertyOp25
 70
     1
102
RTVSPropertyOp26
 70
     1
102
RTVSPropertyOp27
 70
     1
102
RTVSPropertyOp28
 70
     1
102
RTVSPropertyOp29
 70
     1
102
RTVSPropertyOp30
 70
     1
102
RTVSPropertyOp31
 70
     1
102
RTVSPropertyOp32
 70
     1
102
RTVSPropertyOp33
 70
     1
102
RTVSPropertyOp34
 70
     1
102
RTVSPropertyOp35
 70
     1
102
RTVSPropertyOp36
 70
     1
102
RTVSPropertyOp37
 70
     1
102
RTVSPropertyOp38
 70
     1
102
RTVSPropertyOp39
 70
     1
102
RTVSPropertyOp40
 70
     1
102
RTVSPropertyOp41
 70
     1
102
RTVSPropertyOp42
 70
     1
102
RTVSPropertyOp43
 70
     1
102
RTVSPropertyOp44
 70
     1
102
RTVSPropertyOp45
 70
     1
102
RTVSPropertyOp46
 70
     1
102
RTVSPropertyOp47
 70
     1
102
RTVSPropertyOp48
 70
     1
102
RTVSPropertyOp49
 70
     1
102
RTVSPropertyOp50
 70
     1
102
RTVSPropertyOp51
 70
     0
102
RTVSPropertyOp52
 70
     0
102
RTVSPropertyOp53
 70
     1
102
RTVSPropertyOp54
 70
     1
102
RTVSPropertyOp55
 70
     1
102
RTVSPropertyOp56
 70
     1
102
RTVSPropertyOp57
 70
     1
102
RTVSPropertyOp58
 70
     1
102
RTVSPropertyOp59
 70
     1
102
RTVSPropertyOp60
 70
     1
102
RTVSPropertyOp61
 70
     1
102
RTVSPropertyOp62
 70
     1
  0
XRECORD
  5
685
102
{ACAD_REACTORS
330
684
102
}
330
684
100
AcDbXrecord
280
     1
102
RTVSPost2010Prop28
280
     0
102
RTVSPost2010PropOp28
 70
     1
102
RTVSPost2010Prop29
280
     1
102
RTVSPost2010PropOp29
 70
     1
102
RTVSPost2010Prop30
280
     1
102
RTVSPost2010PropOp30
 70
     1
102
RTVSPost2010Prop31
280
     0
102
RTVSPost2010PropOp31
 70
     1
102
RTVSPost2010Prop32
280
     0
102
RTVSPost2010PropOp32
 70
     1
102
RTVSPost2010Prop33
280
     0
102
RTVSPost2010PropOp33
 70
     1
102
RTVSPost2010Prop34
280
     0
102
RTVSPost2010PropOp34
 70
     1
102
RTVSPost2010Prop35
280
     0
102
RTVSPost2010PropOp35
 70
     1
102
RTVSPost2010Prop36
280
     0
102
RTVSPost2010PropOp36
 70
     1
102
RTVSPost2010Prop37
 90
       50
102
RTVSPost2010PropOp37
 70
     1
102
RTVSPost2010Prop38
140
0.0
102
RTVSPost2010PropOp38
 70
     1
102
RTVSPost2010Prop39
140
1.0
102
RTVSPost2010PropOp39
 70
     1
102
RTVSPost2010Prop40
 90
        0
102
RTVSPost2010PropOp40
 70
     1
102
RTVSPost2010Prop41ColorIndex
 90
       18
102
RTVSPost2010Prop41ColorRGB
 90
        0
102
RTVSPost2010PropOp41
 70
     1
102
RTVSPost2010Prop42
 90
       50
102
RTVSPost2010PropOp42
 70
     1
102
RTVSPost2010Prop43
 90
        3
102
RTVSPost2010PropOp43
 70
     1
102
RTVSPost2010Prop44ColorIndex
 90
        5
102
RTVSPost2010Prop44ColorRGB
 90
      255
102
RTVSPost2010PropOp44
 70
     1
102
RTVSPost2010Prop45
280
     0
102
RTVSPost2010PropOp45
 70
     1
102
RTVSPost2010Prop46
 90
       50
102
RTVSPost2010PropOp46
 70
     1
102
RTVSPost2010Prop47
 90
       50
102
RTVSPost2010PropOp47
 70
     1
102
RTVSPost2010Prop48
 90
       50
102
RTVSPost2010PropOp48
 70
     1
102
RTVSPost2010Prop49
280
     0
102
RTVSPost2010PropOp49
 70
     1
102
RTVSPost2010Prop50
 90
       50
102
RTVSPost2010PropOp50
 70
     1
102
RTVSPost2010Prop51ColorIndex
 90
      256
102
RTVSPost2010Prop51ColorRGB
 90
-16777216
102
RTVSPost2010PropOp51
 70
     0
102
RTVSPost2010Prop52
140
1.0
102
RTVSPost2010PropOp52
 70
     0
102
RTVSPost2010Prop53
 90
        2
102
RTVSPost2010PropOp53
 70
     1
102
RTVSPost2010Prop54
  1
strokes_ogs.tif
102
RTVSPost2010PropOp54
 70
     1
102
RTVSPost2010Prop55
280
     0
102
RTVSPost2010PropOp55
 70
     1
102
RTVSPost2010Prop56
140
1.0
102
RTVSPost2010PropOp56
 70
     1
102
RTVSPost2010Prop57
140
1.0
102
RTVSPost2010PropOp57
 70
     1
102
RTVSPropertyOp0
 70
     1
102
RTVSPropertyOp1
 70
     1
102
RTVSPropertyOp2
 70
     1
102
RTVSPropertyOp3
 70
     1
102
RTVSPropertyOp4
 70
     1
102
RTVSPropertyOp5
 70
     1
102
RTVSPropertyOp6
 70
     1
102
RTVSPropertyOp7
 70
     1
102
RTVSPropertyOp8
 70
     1
102
RTVSPropertyOp9
 70
     1
102
RTVSPropertyOp10
 70
     1
102
RTVSPropertyOp11
 70
     1
102
RTVSPropertyOp12
 70
     1
102
RTVSPropertyOp13
 70
     1
102
RTVSPropertyOp14
 70
     1
102
RTVSPropertyOp15
 70
     1
102
RTVSPropertyOp16
 70
     1
102
RTVSPropertyOp17
 70
     1
102
RTVSPropertyOp18
 70
     1
102
RTVSPropertyOp19
 70
     1
102
RTVSPropertyOp20
 70
     1
102
RTVSPropertyOp21
 70
     1
102
RTVSPropertyOp22
 70
     1
102
RTVSPropertyOp23
 70
     1
102
RTVSPropertyOp24
 70
     1
102
RTVSPropertyOp25
 70
     1
102
RTVSPropertyOp26
 70
     1
102
RTVSPropertyOp27
 70
     1
102
RTVSPropertyOp28
 70
     1
102
RTVSPropertyOp29
 70
     1
102
RTVSPropertyOp30
 70
     1
102
RTVSPropertyOp31
 70
     1
102
RTVSPropertyOp32
 70
     1
102
RTVSPropertyOp33
 70
     1
102
RTVSPropertyOp34
 70
     1
102
RTVSPropertyOp35
 70
     1
102
RTVSPropertyOp36
 70
     1
102
RTVSPropertyOp37
 70
     1
102
RTVSPropertyOp38
 70
     1
102
RTVSPropertyOp39
 70
     1
102
RTVSPropertyOp40
 70
     1
102
RTVSPropertyOp41
 70
     1
102
RTVSPropertyOp42
 70
     1
102
RTVSPropertyOp43
 70
     1
102
RTVSPropertyOp44
 70
     1
102
RTVSPropertyOp45
 70
     1
102
RTVSPropertyOp46
 70
     1
102
RTVSPropertyOp47
 70
     1
102
RTVSPropertyOp48
 70
     1
102
RTVSPropertyOp49
 70
     1
102
RTVSPropertyOp50
 70
     1
102
RTVSPropertyOp51
 70
     0
102
RTVSPropertyOp52
 70
     0
102
RTVSPropertyOp53
 70
     1
102
RTVSPropertyOp54
 70
     1
102
RTVSPropertyOp55
 70
     1
102
RTVSPropertyOp56
 70
     1
102
RTVSPropertyOp57
 70
     1
102
RTVSPropertyOp58
 70
     1
102
RTVSPropertyOp59
 70
     1
102
RTVSPropertyOp60
 70
     1
102
RTVSPropertyOp61
 70
     1
102
RTVSPropertyOp62
 70
     1
  0
XRECORD
  5
69D
102
{ACAD_REACTORS
330
69C
102
}
330
69C
100
AcDbXrecord
280
     1
102
RTVSPost2010Prop28
280
     0
102
RTVSPost2010PropOp28
 70
     1
102
RTVSPost2010Prop29
280
     1
102
RTVSPost2010PropOp29
 70
     1
102
RTVSPost2010Prop30
280
     1
102
RTVSPost2010PropOp30
 70
     1
102
RTVSPost2010Prop31
280
     0
102
RTVSPost2010PropOp31
 70
     1
102
RTVSPost2010Prop32
280
     0
102
RTVSPost2010PropOp32
 70
     1
102
RTVSPost2010Prop33
280
     0
102
RTVSPost2010PropOp33
 70
     1
102
RTVSPost2010Prop34
280
     0
102
RTVSPost2010PropOp34
 70
     1
102
RTVSPost2010Prop35
280
     0
102
RTVSPost2010PropOp35
 70
     1
102
RTVSPost2010Prop36
280
     0
102
RTVSPost2010PropOp36
 70
     1
102
RTVSPost2010Prop37
 90
       50
102
RTVSPost2010PropOp37
 70
     1
102
RTVSPost2010Prop38
140
0.0
102
RTVSPost2010PropOp38
 70
     1
102
RTVSPost2010Prop39
140
1.0
102
RTVSPost2010PropOp39
 70
     1
102
RTVSPost2010Prop40
 90
        0
102
RTVSPost2010PropOp40
 70
     1
102
RTVSPost2010Prop41ColorIndex
 90
       18
102
RTVSPost2010Prop41ColorRGB
 90
        0
102
RTVSPost2010PropOp41
 70
     1
102
RTVSPost2010Prop42
 90
       50
102
RTVSPost2010PropOp42
 70
     1
102
RTVSPost2010Prop43
 90
        3
102
RTVSPost2010PropOp43
 70
     1
102
RTVSPost2010Prop44ColorIndex
 90
        5
102
RTVSPost2010Prop44ColorRGB
 90
      255
102
RTVSPost2010PropOp44
 70
     1
102
RTVSPost2010Prop45
280
     0
102
RTVSPost2010PropOp45
 70
     1
102
RTVSPost2010Prop46
 90
       50
102
RTVSPost2010PropOp46
 70
     1
102
RTVSPost2010Prop47
 90
       50
102
RTVSPost2010PropOp47
 70
     1
102
RTVSPost2010Prop48
 90
       50
102
RTVSPost2010PropOp48
 70
     1
102
RTVSPost2010Prop49
280
     0
102
RTVSPost2010PropOp49
 70
     1
102
RTVSPost2010Prop50
 90
       50
102
RTVSPost2010PropOp50
 70
     1
102
RTVSPost2010Prop51ColorIndex
 90
      256
102
RTVSPost2010Prop51ColorRGB
 90
-16777216
102
RTVSPost2010PropOp51
 70
     0
102
RTVSPost2010Prop52
140
1.0
102
RTVSPost2010PropOp52
 70
     0
102
RTVSPost2010Prop53
 90
        2
102
RTVSPost2010PropOp53
 70
     1
102
RTVSPost2010Prop54
  1
strokes_ogs.tif
102
RTVSPost2010PropOp54
 70
     1
102
RTVSPost2010Prop55
280
     0
102
RTVSPost2010PropOp55
 70
     1
102
RTVSPost2010Prop56
140
1.0
102
RTVSPost2010PropOp56
 70
     1
102
RTVSPost2010Prop57
140
1.0
102
RTVSPost2010PropOp57
 70
     1
102
RTVSPropertyOp0
 70
     1
102
RTVSPropertyOp1
 70
     1
102
RTVSPropertyOp2
 70
     1
102
RTVSPropertyOp3
 70
     1
102
RTVSPropertyOp4
 70
     1
102
RTVSPropertyOp5
 70
     1
102
RTVSPropertyOp6
 70
     1
102
RTVSPropertyOp7
 70
     1
102
RTVSPropertyOp8
 70
     1
102
RTVSPropertyOp9
 70
     1
102
RTVSPropertyOp10
 70
     1
102
RTVSPropertyOp11
 70
     1
102
RTVSPropertyOp12
 70
     1
102
RTVSPropertyOp13
 70
     1
102
RTVSPropertyOp14
 70
     1
102
RTVSPropertyOp15
 70
     1
102
RTVSPropertyOp16
 70
     1
102
RTVSPropertyOp17
 70
     1
102
RTVSPropertyOp18
 70
     1
102
RTVSPropertyOp19
 70
     1
102
RTVSPropertyOp20
 70
     1
102
RTVSPropertyOp21
 70
     1
102
RTVSPropertyOp22
 70
     1
102
RTVSPropertyOp23
 70
     1
102
RTVSPropertyOp24
 70
     1
102
RTVSPropertyOp25
 70
     1
102
RTVSPropertyOp26
 70
     1
102
RTVSPropertyOp27
 70
     1
102
RTVSPropertyOp28
 70
     1
102
RTVSPropertyOp29
 70
     1
102
RTVSPropertyOp30
 70
     1
102
RTVSPropertyOp31
 70
     1
102
RTVSPropertyOp32
 70
     1
102
RTVSPropertyOp33
 70
     1
102
RTVSPropertyOp34
 70
     1
102
RTVSPropertyOp35
 70
     1
102
RTVSPropertyOp36
 70
     1
102
RTVSPropertyOp37
 70
     1
102
RTVSPropertyOp38
 70
     1
102
RTVSPropertyOp39
 70
     1
102
RTVSPropertyOp40
 70
     1
102
RTVSPropertyOp41
 70
     1
102
RTVSPropertyOp42
 70
     1
102
RTVSPropertyOp43
 70
     1
102
RTVSPropertyOp44
 70
     1
102
RTVSPropertyOp45
 70
     1
102
RTVSPropertyOp46
 70
     1
102
RTVSPropertyOp47
 70
     1
102
RTVSPropertyOp48
 70
     1
102
RTVSPropertyOp49
 70
     1
102
RTVSPropertyOp50
 70
     1
102
RTVSPropertyOp51
 70
     0
102
RTVSPropertyOp52
 70
     0
102
RTVSPropertyOp53
 70
     1
102
RTVSPropertyOp54
 70
     1
102
RTVSPropertyOp55
 70
     1
102
RTVSPropertyOp56
 70
     1
102
RTVSPropertyOp57
 70
     1
102
RTVSPropertyOp58
 70
     1
102
RTVSPropertyOp59
 70
     1
102
RTVSPropertyOp60
 70
     1
102
RTVSPropertyOp61
 70
     1
102
RTVSPropertyOp62
 70
     1
  0
ENDSEC
  0
EOF
