  0
SECTION
  2
HEADER
  9
$ACADVER
  1
AC1015
  9
$ACADMAINTVER
 70
    20
  9
$DWGCODEPAGE
  3
ANSI_932
  9
$INSBASE
 10
0.0
 20
0.0
 30
0.0
  9
$EXTMIN
 10
37.75335519575901
 20
0.0
 30
0.0
  9
$EXTMAX
 10
891.0
 20
630.0
 30
0.0
  9
$LIMMIN
 10
0.0
 20
0.0
  9
$LIMMAX
 10
891.0
 20
630.0
  9
$ORTHOMODE
 70
     1
  9
$REGENMODE
 70
     1
  9
$FILLMODE
 70
     1
  9
$QTEXTMODE
 70
     0
  9
$MIRRTEXT
 70
     1
  9
$LTSCALE
 40
3.0
  9
$ATTMODE
 70
     1
  9
$TEXTSIZE
 40
8.0
  9
$TRACEWID
 40
1.0
  9
$TEXTSTYLE
  7
Standard
  9
$CLAYER
  8
実形
  9
$CELTYPE
  6
ByLayer
  9
$CECOLOR
 62
   256
  9
$CELTSCALE
 40
1.0
  9
$DISPSILH
 70
     0
  9
$DIMSCALE
 40
1.0
  9
$DIMASZ
 40
15.0
  9
$DIMEXO
 40
20.0
  9
$DIMDLI
 40
3.75
  9
$DIMRND
 40
0.0
  9
$DIMDLE
 40
0.0
  9
$DIMEXE
 40
0.0
  9
$DIMTP
 40
0.0
  9
$DIMTM
 40
0.0
  9
$DIMTXT
 40
9.0
  9
$DIMCEN
 40
0.0
  9
$DIMTSZ
 40
0.0
  9
$DIMTOL
 70
     0
  9
$DIMLIM
 70
     0
  9
$DIMTIH
 70
     0
  9
$DIMTOH
 70
     0
  9
$DIMSE1
 70
     0
  9
$DIMSE2
 70
     0
  9
$DIMTAD
 70
     1
  9
$DIMZIN
 70
     8
  9
$DIMBLK
  1
DotSmall
  9
$DIMASO
 70
     1
  9
$DIMSHO
 70
     1
  9
$DIMPOST
  1

  9
$DIMAPOST
  1

  9
$DIMALT
 70
     0
  9
$DIMALTD
 70
     3
  9
$DIMALTF
 40
0.03937007874016
  9
$DIMLFAC
 40
1.0
  9
$DIMTOFL
 70
     0
  9
$DIMTVP
 40
0.0
  9
$DIMTIX
 70
     0
  9
$DIMSOXD
 70
     0
  9
$DIMSAH
 70
     0
  9
$DIMBLK1
  1

  9
$DIMBLK2
  1

  9
$DIMSTYLE
  2
ISO-25
  9
$DIMCLRD
 70
     0
  9
$DIMCLRE
 70
     0
  9
$DIMCLRT
 70
     0
  9
$DIMTFAC
 40
1.0
  9
$DIMGAP
 40
3.0
  9
$DIMJUST
 70
     0
  9
$DIMSD1
 70
     0
  9
$DIMSD2
 70
     0
  9
$DIMTOLJ
 70
     0
  9
$DIMTZIN
 70
     8
  9
$DIMALTZ
 70
     0
  9
$DIMALTTZ
 70
     0
  9
$DIMUPT
 70
     0
  9
$DIMDEC
 70
     2
  9
$DIMTDEC
 70
     2
  9
$DIMALTU
 70
     2
  9
$DIMALTTD
 70
     3
  9
$DIMTXSTY
  7
Standard
  9
$DIMAUNIT
 70
     0
  9
$DIMADEC
 70
     0
  9
$DIMALTRND
 40
0.0
  9
$DIMAZIN
 70
     0
  9
$DIMDSEP
 70
    46
  9
$DIMATFIT
 70
     3
  9
$DIMFRAC
 70
     0
  9
$DIMLDRBLK
  1
Open30
  9
$DIMLUNIT
 70
     2
  9
$DIMLWD
 70
    -1
  9
$DIMLWE
 70
    -1
  9
$DIMTMOVE
 70
     2
  9
$LUNITS
 70
     2
  9
$LUPREC
 70
     2
  9
$SKETCHINC
 40
1.0
  9
$FILLETRAD
 40
10.0
  9
$AUNITS
 70
     0
  9
$AUPREC
 70
     2
  9
$MENU
  1
.
  9
$ELEVATION
 40
0.0
  9
$PELEVATION
 40
0.0
  9
$THICKNESS
 40
0.0
  9
$LIMCHECK
 70
     0
  9
$CHAMFERA
 40
3.0
  9
$CHAMFERB
 40
3.0
  9
$CHAMFERC
 40
20.0
  9
$CHAMFERD
 40
0.0
  9
$SKPOLY
 70
     0
  9
$TDCREATE
 40
2451738.551931250
  9
$TDUCREATE
 40
2451738.176931250
  9
$TDUPDATE
 40
2458813.797348646
  9
$TDUUPDATE
 40
2458813.422348646
  9
$TDINDWG
 40
0.4931156597
  9
$TDUSRTIMER
 40
0.4931156597
  9
$USRTIMER
 70
     1
  9
$ANGBASE
 50
0.0
  9
$ANGDIR
 70
     0
  9
$PDMODE
 70
     0
  9
$PDSIZE
 40
0.0
  9
$PLINEWID
 40
0.0
  9
$SPLFRAME
 70
     0
  9
$SPLINETYPE
 70
     6
  9
$SPLINESEGS
 70
     8
  9
$HANDSEED
  5
A57
  9
$SURFTAB1
 70
     6
  9
$SURFTAB2
 70
     6
  9
$SURFTYPE
 70
     6
  9
$SURFU
 70
     6
  9
$SURFV
 70
     6
  9
$UCSBASE
  2

  9
$UCSNAME
  2

  9
$UCSORG
 10
0.0
 20
0.0
 30
0.0
  9
$UCSXDIR
 10
1.0
 20
0.0
 30
0.0
  9
$UCSYDIR
 10
0.0
 20
1.0
 30
0.0
  9
$UCSORTHOREF
  2

  9
$UCSORTHOVIEW
 70
     0
  9
$UCSORGTOP
 10
0.0
 20
0.0
 30
0.0
  9
$UCSORGBOTTOM
 10
0.0
 20
0.0
 30
0.0
  9
$UCSORGLEFT
 10
0.0
 20
0.0
 30
0.0
  9
$UCSORGRIGHT
 10
0.0
 20
0.0
 30
0.0
  9
$UCSORGFRONT
 10
0.0
 20
0.0
 30
0.0
  9
$UCSORGBACK
 10
0.0
 20
0.0
 30
0.0
  9
$PUCSBASE
  2

  9
$PUCSNAME
  2

  9
$PUCSORG
 10
0.0
 20
0.0
 30
0.0
  9
$PUCSXDIR
 10
1.0
 20
0.0
 30
0.0
  9
$PUCSYDIR
 10
0.0
 20
1.0
 30
0.0
  9
$PUCSORTHOREF
  2

  9
$PUCSORTHOVIEW
 70
     0
  9
$PUCSORGTOP
 10
0.0
 20
0.0
 30
0.0
  9
$PUCSORGBOTTOM
 10
0.0
 20
0.0
 30
0.0
  9
$PUCSORGLEFT
 10
0.0
 20
0.0
 30
0.0
  9
$PUCSORGRIGHT
 10
0.0
 20
0.0
 30
0.0
  9
$PUCSORGFRONT
 10
0.0
 20
0.0
 30
0.0
  9
$PUCSORGBACK
 10
0.0
 20
0.0
 30
0.0
  9
$USERI1
 70
     0
  9
$USERI2
 70
     0
  9
$USERI3
 70
     0
  9
$USERI4
 70
     0
  9
$USERI5
 70
     0
  9
$USERR1
 40
0.0
  9
$USERR2
 40
0.0
  9
$USERR3
 40
0.0
  9
$USERR4
 40
0.0
  9
$USERR5
 40
0.0
  9
$WORLDVIEW
 70
     1
  9
$SHADEDGE
 70
     3
  9
$SHADEDIF
 70
    70
  9
$TILEMODE
 70
     1
  9
$MAXACTVP
 70
    64
  9
$PINSBASE
 10
0.0
 20
0.0
 30
0.0
  9
$PLIMCHECK
 70
     0
  9
$PEXTMIN
 10
1.000000000000000E+20
 20
1.000000000000000E+20
 30
1.000000000000000E+20
  9
$PEXTMAX
 10
-1.000000000000000E+20
 20
-1.000000000000000E+20
 30
-1.000000000000000E+20
  9
$PLIMMIN
 10
0.0
 20
0.0
  9
$PLIMMAX
 10
420.0
 20
297.0
  9
$UNITMODE
 70
     0
  9
$VISRETAIN
 70
     1
  9
$PLINEGEN
 70
     0
  9
$PSLTSCALE
 70
     1
  9
$TREEDEPTH
 70
  3020
  9
$CMLSTYLE
  2
Standard
  9
$CMLJUST
 70
     0
  9
$CMLSCALE
 40
20.0
  9
$PROXYGRAPHICS
 70
     1
  9
$MEASUREMENT
 70
     1
  9
$CELWEIGHT
370
    -1
  9
$ENDCAPS
280
     0
  9
$JOINSTYLE
280
     0
  9
$LWDISPLAY
290
     0
  9
$INSUNITS
 70
     4
  9
$HYPERLINKBASE
  1

  9
$STYLESHEET
  1

  9
$XEDIT
290
     1
  9
$CEPSNTYPE
380
     0
  9
$PSTYLEMODE
290
     1
  9
$FINGERPRINTGUID
  2
{7EBAE006-57F4-11D4-9416-C846DAB0BD2C}
  9
$VERSIONGUID
  2
{691C3585-3791-4080-B1F2-8F119926807A}
  9
$EXTNAMES
290
     1
  9
$PSVPSCALE
 40
0.0
  9
$OLESTARTUP
290
     0
  0
ENDSEC
  0
SECTION
  2
CLASSES
  0
CLASS
  1
ACDBDICTIONARYWDFLT
  2
AcDbDictionaryWithDefault
  3
ObjectDBX Classes
 90
        0
280
     0
281
     0
  0
CLASS
  1
ACDBPLACEHOLDER
  2
AcDbPlaceHolder
  3
ObjectDBX Classes
 90
        0
280
     0
281
     0
  0
CLASS
  1
LAYOUT
  2
AcDbLayout
  3
ObjectDBX Classes
 90
        0
280
     0
281
     0
  0
CLASS
  1
DICTIONARYVAR
  2
AcDbDictionaryVar
  3
ObjectDBX Classes
 90
        0
280
     0
281
     0
  0
CLASS
  1
TABLESTYLE
  2
AcDbTableStyle
  3
ObjectDBX Classes
 90
     2047
280
     0
281
     0
  0
CLASS
  1
SORTENTSTABLE
  2
AcDbSortentsTable
  3
ObjectDBX Classes
 90
        0
280
     0
281
     0
  0
ENDSEC
  0
SECTION
  2
TABLES
  0
TABLE
  2
VPORT
  5
8
330
0
100
AcDbSymbolTable
 70
     2
  0
VPORT
  5
A4F
330
8
100
AcDbSymbolTableRecord
100
AcDbViewportTableRecord
  2
*Active
 70
     0
 10
0.0
 20
0.0
 11
1.0
 21
1.0
 12
430.2503718135361
 22
297.4936535331269
 13
0.0
 23
0.0
 14
10.0
 24
10.0
 15
10.0
 25
10.0
 16
0.0
 26
0.0
 36
1.0
 17
0.0
 27
0.0
 37
0.0
 40
794.5061791214552
 41
1.29038112522686
 42
50.0
 43
0.0
 44
0.0
 50
0.0
 51
0.0
 71
     0
 72
   100
 73
     1
 74
     3
 75
     0
 76
     0
 77
     0
 78
     0
281
     0
 65
     1
110
0.0
120
0.0
130
0.0
111
1.0
121
0.0
131
0.0
112
0.0
122
1.0
132
0.0
 79
     0
146
0.0
  0
ENDTAB
  0
TABLE
  2
LTYPE
  5
5
330
0
100
AcDbSymbolTable
 70
    46
  0
LTYPE
  5
14
330
5
100
AcDbSymbolTableRecord
100
AcDbLinetypeTableRecord
  2
ByBlock
 70
     0
  3

 72
    65
 73
     0
 40
0.0
  0
LTYPE
  5
15
330
5
100
AcDbSymbolTableRecord
100
AcDbLinetypeTableRecord
  2
ByLayer
 70
     0
  3

 72
    65
 73
     0
 40
0.0
  0
LTYPE
  5
16
330
5
100
AcDbSymbolTableRecord
100
AcDbLinetypeTableRecord
  2
Continuous
 70
     0
  3
Solid line
 72
    65
 73
     0
 40
0.0
  0
LTYPE
  5
4C
330
5
100
AcDbSymbolTableRecord
100
AcDbLinetypeTableRecord
  2
ACAD_ISO02W100
 70
     0
  3
ISO dash __ __ __ __ __ __ __ __ __ __ __ __ __
 72
    65
 73
     2
 40
15.0
 49
12.0
 74
     0
 49
-3.0
 74
     0
  0
LTYPE
  5
4D
330
5
100
AcDbSymbolTableRecord
100
AcDbLinetypeTableRecord
  2
ACAD_ISO03W100
 70
     0
  3
ISO dash space __    __    __    __    __    __
 72
    65
 73
     2
 40
30.0
 49
12.0
 74
     0
 49
-18.0
 74
     0
  0
LTYPE
  5
4E
330
5
100
AcDbSymbolTableRecord
100
AcDbLinetypeTableRecord
  2
ACAD_ISO04W100
 70
     0
  3
ISO long-dash dot ____ . ____ . ____ . ____ . _
 72
    65
 73
     4
 40
30.0
 49
24.0
 74
     0
 49
-3.0
 74
     0
 49
0.0
 74
     0
 49
-3.0
 74
     0
  0
LTYPE
  5
4F
330
5
100
AcDbSymbolTableRecord
100
AcDbLinetypeTableRecord
  2
ACAD_ISO05W100
 70
     0
  3
ISO long-dash double-dot ____ .. ____ .. ____ .
 72
    65
 73
     6
 40
34.0
 49
24.0
 74
     0
 49
-3.0
 74
     0
 49
0.5
 74
     0
 49
-3.0
 74
     0
 49
0.5
 74
     0
 49
-3.0
 74
     0
  0
LTYPE
  5
50
330
5
100
AcDbSymbolTableRecord
100
AcDbLinetypeTableRecord
  2
ACAD_ISO06W100
 70
     0
  3
ISO long-dash triple-dot ____ ... ____ ... ____
 72
    65
 73
     8
 40
37.5
 49
24.0
 74
     0
 49
-3.0
 74
     0
 49
0.5
 74
     0
 49
-3.0
 74
     0
 49
0.5
 74
     0
 49
-3.0
 74
     0
 49
0.5
 74
     0
 49
-3.0
 74
     0
  0
LTYPE
  5
51
330
5
100
AcDbSymbolTableRecord
100
AcDbLinetypeTableRecord
  2
ACAD_ISO07W100
 70
     0
  3
ISO dot . . . . . . . . . . . . . . . . . . . .
 72
    65
 73
     2
 40
3.0
 49
0.0
 74
     0
 49
-3.0
 74
     0
  0
LTYPE
  5
52
330
5
100
AcDbSymbolTableRecord
100
AcDbLinetypeTableRecord
  2
ACAD_ISO08W100
 70
     0
  3
ISO long-dash short-dash ____ __ ____ __ ____ _
 72
    65
 73
     4
 40
36.0
 49
24.0
 74
     0
 49
-3.0
 74
     0
 49
6.0
 74
     0
 49
-3.0
 74
     0
  0
LTYPE
  5
53
330
5
100
AcDbSymbolTableRecord
100
AcDbLinetypeTableRecord
  2
ACAD_ISO09W100
 70
     0
  3
ISO long-dash double-short-dash ____ __ __ ____
 72
    65
 73
     6
 40
45.0
 49
24.0
 74
     0
 49
-3.0
 74
     0
 49
6.0
 74
     0
 49
-3.0
 74
     0
 49
6.0
 74
     0
 49
-3.0
 74
     0
  0
LTYPE
  5
54
330
5
100
AcDbSymbolTableRecord
100
AcDbLinetypeTableRecord
  2
ACAD_ISO10W100
 70
     0
  3
ISO dash dot __ . __ . __ . __ . __ . __ . __ .
 72
    65
 73
     4
 40
18.0
 49
12.0
 74
     0
 49
-3.0
 74
     0
 49
0.0
 74
     0
 49
-3.0
 74
     0
  0
LTYPE
  5
55
330
5
100
AcDbSymbolTableRecord
100
AcDbLinetypeTableRecord
  2
ACAD_ISO11W100
 70
     0
  3
ISO double-dash dot __ __ . __ __ . __ __ . __ 
 72
    65
 73
     6
 40
33.0
 49
12.0
 74
     0
 49
-3.0
 74
     0
 49
12.0
 74
     0
 49
-3.0
 74
     0
 49
0.0
 74
     0
 49
-3.0
 74
     0
  0
LTYPE
  5
56
330
5
100
AcDbSymbolTableRecord
100
AcDbLinetypeTableRecord
  2
ACAD_ISO12W100
 70
     0
  3
ISO dash double-dot __ . . __ . . __ . . __ . .
 72
    65
 73
     6
 40
21.0
 49
12.0
 74
     0
 49
-3.0
 74
     0
 49
0.0
 74
     0
 49
-3.0
 74
     0
 49
0.0
 74
     0
 49
-3.0
 74
     0
  0
LTYPE
  5
57
330
5
100
AcDbSymbolTableRecord
100
AcDbLinetypeTableRecord
  2
ACAD_ISO13W100
 70
     0
  3
ISO double-dash double-dot __ __ . . __ __ . . 
 72
    65
 73
     8
 40
36.0
 49
12.0
 74
     0
 49
-3.0
 74
     0
 49
12.0
 74
     0
 49
-3.0
 74
     0
 49
0.0
 74
     0
 49
-3.0
 74
     0
 49
0.0
 74
     0
 49
-3.0
 74
     0
  0
LTYPE
  5
58
330
5
100
AcDbSymbolTableRecord
100
AcDbLinetypeTableRecord
  2
ACAD_ISO14W100
 70
     0
  3
ISO dash triple-dot __ . . . __ . . . __ . . . 
 72
    65
 73
     8
 40
24.0
 49
12.0
 74
     0
 49
-3.0
 74
     0
 49
0.0
 74
     0
 49
-3.0
 74
     0
 49
0.0
 74
     0
 49
-3.0
 74
     0
 49
0.0
 74
     0
 49
-3.0
 74
     0
  0
LTYPE
  5
59
330
5
100
AcDbSymbolTableRecord
100
AcDbLinetypeTableRecord
  2
ACAD_ISO15W100
 70
     0
  3
ISO double-dash triple-dot __ __ . . . __ __ . 
 72
    65
 73
    10
 40
39.0
 49
12.0
 74
     0
 49
-3.0
 74
     0
 49
12.0
 74
     0
 49
-3.0
 74
     0
 49
0.0
 74
     0
 49
-3.0
 74
     0
 49
0.0
 74
     0
 49
-3.0
 74
     0
 49
0.0
 74
     0
 49
-3.0
 74
     0
  0
LTYPE
  5
5A
330
5
100
AcDbSymbolTableRecord
100
AcDbLinetypeTableRecord
  2
BATTING
 70
     0
  3
Batting SSSSSSSSSSSSSSSSSSSSSSSSSSSSSSSSSSSSSSS
 72
    65
 73
     4
 40
10.16254
 49
0.00254
 74
     0
 49
-2.54
 74
     4
 75
   134
340
4B
 46
2.54
 50
0.0
 44
-2.54
 45
0.0
 49
-5.08
 74
     4
 75
   134
340
4B
 46
2.54
 50
180.0
 44
2.54
 45
0.0
 49
-2.54
 74
     0
  0
LTYPE
  5
5B
330
5
100
AcDbSymbolTableRecord
100
AcDbLinetypeTableRecord
  2
BORDER
 70
     0
  3
Border __ __ . __ __ . __ __ . __ __ . __ __ .
 72
    65
 73
     6
 40
44.45
 49
12.7
 74
     0
 49
-6.349999999999999
 74
     0
 49
12.7
 74
     0
 49
-6.349999999999999
 74
     0
 49
0.0
 74
     0
 49
-6.349999999999999
 74
     0
  0
LTYPE
  5
5C
330
5
100
AcDbSymbolTableRecord
100
AcDbLinetypeTableRecord
  2
BORDER2
 70
     0
  3
Border (.5x) __.__.__.__.__.__.__.__.__.__.__.
 72
    65
 73
     6
 40
22.225
 49
6.349999999999999
 74
     0
 49
-3.174999999999999
 74
     0
 49
6.349999999999999
 74
     0
 49
-3.174999999999999
 74
     0
 49
0.0
 74
     0
 49
-3.174999999999999
 74
     0
  0
LTYPE
  5
5D
330
5
100
AcDbSymbolTableRecord
100
AcDbLinetypeTableRecord
  2
BORDERX2
 70
     0
  3
Border (2x) ____  ____  .  ____  ____  .  ___
 72
    65
 73
     6
 40
88.9
 49
25.4
 74
     0
 49
-12.7
 74
     0
 49
25.4
 74
     0
 49
-12.7
 74
     0
 49
0.0
 74
     0
 49
-12.7
 74
     0
  0
LTYPE
  5
5E
330
5
100
AcDbSymbolTableRecord
100
AcDbLinetypeTableRecord
  2
CENTER
 70
     0
  3
Center ____ _ ____ _ ____ _ ____ _ ____ _ ____
 72
    65
 73
     4
 40
50.8
 49
31.75
 74
     0
 49
-6.349999999999999
 74
     0
 49
6.349999999999999
 74
     0
 49
-6.349999999999999
 74
     0
  0
LTYPE
  5
5F
330
5
100
AcDbSymbolTableRecord
100
AcDbLinetypeTableRecord
  2
CENTER2
 70
     0
  3
Center (.5x) ___ _ ___ _ ___ _ ___ _ ___ _ ___
 72
    65
 73
     4
 40
28.575
 49
19.05
 74
     0
 49
-3.174999999999999
 74
     0
 49
3.174999999999999
 74
     0
 49
-3.174999999999999
 74
     0
  0
LTYPE
  5
60
330
5
100
AcDbSymbolTableRecord
100
AcDbLinetypeTableRecord
  2
CENTERX2
 70
     0
  3
Center (2x) ________  __  ________  __  _____
 72
    65
 73
     4
 40
101.6
 49
63.5
 74
     0
 49
-12.7
 74
     0
 49
12.7
 74
     0
 49
-12.7
 74
     0
  0
LTYPE
  5
61
330
5
100
AcDbSymbolTableRecord
100
AcDbLinetypeTableRecord
  2
DASHDOT
 70
     0
  3
Dash dot __ . __ . __ . __ . __ . __ . __ . __
 72
    65
 73
     4
 40
25.4
 49
12.7
 74
     0
 49
-6.349999999999999
 74
     0
 49
0.0
 74
     0
 49
-6.349999999999999
 74
     0
  0
LTYPE
  5
62
330
5
100
AcDbSymbolTableRecord
100
AcDbLinetypeTableRecord
  2
DASHDOT2
 70
     0
  3
Dash dot (.5x) _._._._._._._._._._._._._._._.
 72
    65
 73
     4
 40
12.7
 49
6.349999999999999
 74
     0
 49
-3.174999999999999
 74
     0
 49
0.0
 74
     0
 49
-3.174999999999999
 74
     0
  0
LTYPE
  5
63
330
5
100
AcDbSymbolTableRecord
100
AcDbLinetypeTableRecord
  2
DASHDOTX2
 70
     0
  3
Dash dot (2x) ____  .  ____  .  ____  .  ___
 72
    65
 73
     4
 40
50.8
 49
25.4
 74
     0
 49
-12.7
 74
     0
 49
0.0
 74
     0
 49
-12.7
 74
     0
  0
LTYPE
  5
64
330
5
100
AcDbSymbolTableRecord
100
AcDbLinetypeTableRecord
  2
DASHED
 70
     0
  3
Dashed __ __ __ __ __ __ __ __ __ __ __ __ __ _
 72
    65
 73
     2
 40
19.05
 49
12.7
 74
     0
 49
-6.349999999999999
 74
     0
  0
LTYPE
  5
65
330
5
100
AcDbSymbolTableRecord
100
AcDbLinetypeTableRecord
  2
DASHED2
 70
     0
  3
Dashed (.5x) _ _ _ _ _ _ _ _ _ _ _ _ _ _ _ _ _
 72
    65
 73
     2
 40
9.524999999999998
 49
6.349999999999999
 74
     0
 49
-3.174999999999999
 74
     0
  0
LTYPE
  5
66
330
5
100
AcDbSymbolTableRecord
100
AcDbLinetypeTableRecord
  2
DASHEDX2
 70
     0
  3
Dashed (2x) ____  ____  ____  ____  ____  ___
 72
    65
 73
     2
 40
38.1
 49
25.4
 74
     0
 49
-12.7
 74
     0
  0
LTYPE
  5
67
330
5
100
AcDbSymbolTableRecord
100
AcDbLinetypeTableRecord
  2
DIVIDE
 70
     0
  3
Divide ____ . . ____ . . ____ . . ____ . . ____
 72
    65
 73
     6
 40
31.75
 49
12.7
 74
     0
 49
-6.349999999999999
 74
     0
 49
0.0
 74
     0
 49
-6.349999999999999
 74
     0
 49
0.0
 74
     0
 49
-6.349999999999999
 74
     0
  0
LTYPE
  5
68
330
5
100
AcDbSymbolTableRecord
100
AcDbLinetypeTableRecord
  2
DIVIDE2
 70
     0
  3
Divide (.5x) __..__..__..__..__..__..__..__.._
 72
    65
 73
     6
 40
15.875
 49
6.349999999999999
 74
     0
 49
-3.174999999999999
 74
     0
 49
0.0
 74
     0
 49
-3.174999999999999
 74
     0
 49
0.0
 74
     0
 49
-3.174999999999999
 74
     0
  0
LTYPE
  5
69
330
5
100
AcDbSymbolTableRecord
100
AcDbLinetypeTableRecord
  2
DIVIDEX2
 70
     0
  3
Divide (2x) ________  .  .  ________  .  .  _
 72
    65
 73
     6
 40
63.49999999999999
 49
25.4
 74
     0
 49
-12.7
 74
     0
 49
0.0
 74
     0
 49
-12.7
 74
     0
 49
0.0
 74
     0
 49
-12.7
 74
     0
  0
LTYPE
  5
6A
330
5
100
AcDbSymbolTableRecord
100
AcDbLinetypeTableRecord
  2
DOT
 70
     0
  3
Dot . . . . . . . . . . . . . . . . . . . . . .
 72
    65
 73
     2
 40
6.349999999999999
 49
0.0
 74
     0
 49
-6.349999999999999
 74
     0
  0
LTYPE
  5
6B
330
5
100
AcDbSymbolTableRecord
100
AcDbLinetypeTableRecord
  2
DOT2
 70
     0
  3
Dot (.5x) .....................................
 72
    65
 73
     2
 40
3.174999999999999
 49
0.0
 74
     0
 49
-3.174999999999999
 74
     0
  0
LTYPE
  5
6C
330
5
100
AcDbSymbolTableRecord
100
AcDbLinetypeTableRecord
  2
DOTX2
 70
     0
  3
Dot (2x) .  .  .  .  .  .  .  .  .  .  .  .  . 
 72
    65
 73
     2
 40
12.7
 49
0.0
 74
     0
 49
-12.7
 74
     0
  0
LTYPE
  5
6D
330
5
100
AcDbSymbolTableRecord
100
AcDbLinetypeTableRecord
  2
FENCELINE1
 70
     0
  3
Fenceline circle ----0-----0----0-----0----0---
 72
    65
 73
     4
 40
36.83
 49
6.349999999999999
 74
     0
 49
-2.54
 74
     4
 75
   133
340
4B
 46
2.54
 50
0.0
 44
-2.54
 45
0.0
 49
-2.54
 74
     0
 49
25.4
 74
     0
  0
LTYPE
  5
6E
330
5
100
AcDbSymbolTableRecord
100
AcDbLinetypeTableRecord
  2
FENCELINE2
 70
     0
  3
Fenceline square ----[]-----[]----[]-----[]----
 72
    65
 73
     4
 40
36.83
 49
6.349999999999999
 74
     0
 49
-2.54
 74
     4
 75
   132
340
4B
 46
2.54
 50
0.0
 44
-2.54
 45
0.0
 49
-2.54
 74
     0
 49
25.4
 74
     0
  0
LTYPE
  5
6F
330
5
100
AcDbSymbolTableRecord
100
AcDbLinetypeTableRecord
  2
GAS_LINE
 70
     0
  3
Gas line ----GAS----GAS----GAS----GAS----GAS---
 72
    65
 73
     3
 40
24.13
 49
12.7
 74
     0
 49
-5.08
 74
     2
 75
     0
340
11
 46
2.54
 50
0.0
 44
-2.54
 45
-1.27
  9
GAS
 49
-6.349999999999999
 74
     0
  0
LTYPE
  5
70
330
5
100
AcDbSymbolTableRecord
100
AcDbLinetypeTableRecord
  2
HIDDEN
 70
     0
  3
Hidden __ __ __ __ __ __ __ __ __ __ __ __ __ _
 72
    65
 73
     2
 40
9.524999999999998
 49
6.349999999999999
 74
     0
 49
-3.174999999999999
 74
     0
  0
LTYPE
  5
71
330
5
100
AcDbSymbolTableRecord
100
AcDbLinetypeTableRecord
  2
HIDDEN2
 70
     0
  3
Hidden (.5x) _ _ _ _ _ _ _ _ _ _ _ _ _ _ _ _ _
 72
    65
 73
     2
 40
4.762499999999999
 49
3.174999999999999
 74
     0
 49
-1.587499999999999
 74
     0
  0
LTYPE
  5
72
330
5
100
AcDbSymbolTableRecord
100
AcDbLinetypeTableRecord
  2
HIDDENX2
 70
     0
  3
Hidden (2x) ____ ____ ____ ____ ____ ____ ____
 72
    65
 73
     2
 40
19.05
 49
12.7
 74
     0
 49
-6.349999999999999
 74
     0
  0
LTYPE
  5
73
330
5
100
AcDbSymbolTableRecord
100
AcDbLinetypeTableRecord
  2
HOT_WATER_SUPPLY
 70
     0
  3
Hot water supply ---- HW ---- HW ---- HW ----
 72
    65
 73
     3
 40
22.86
 49
12.7
 74
     0
 49
-5.08
 74
     2
 75
     0
340
11
 46
2.54
 50
0.0
 44
-2.54
 45
-1.27
  9
HW
 49
-5.08
 74
     0
  0
LTYPE
  5
74
330
5
100
AcDbSymbolTableRecord
100
AcDbLinetypeTableRecord
  2
PHANTOM
 70
     0
  3
Phantom ______  __  __  ______  __  __  ______
 72
    65
 73
     6
 40
63.5
 49
31.75
 74
     0
 49
-6.349999999999999
 74
     0
 49
6.349999999999999
 74
     0
 49
-6.349999999999999
 74
     0
 49
6.349999999999999
 74
     0
 49
-6.349999999999999
 74
     0
  0
LTYPE
  5
75
330
5
100
AcDbSymbolTableRecord
100
AcDbLinetypeTableRecord
  2
PHANTOM2
 70
     0
  3
Phantom (.5x) ___ _ _ ___ _ _ ___ _ _ ___ _ _
 72
    65
 73
     6
 40
31.75
 49
15.875
 74
     0
 49
-3.174999999999999
 74
     0
 49
3.174999999999999
 74
     0
 49
-3.174999999999999
 74
     0
 49
3.174999999999999
 74
     0
 49
-3.174999999999999
 74
     0
  0
LTYPE
  5
76
330
5
100
AcDbSymbolTableRecord
100
AcDbLinetypeTableRecord
  2
PHANTOMX2
 70
     0
  3
Phantom (2x) ____________    ____    ____   _
 72
    65
 73
     6
 40
127.0
 49
63.5
 74
     0
 49
-12.7
 74
     0
 49
12.7
 74
     0
 49
-12.7
 74
     0
 49
12.7
 74
     0
 49
-12.7
 74
     0
  0
LTYPE
  5
77
330
5
100
AcDbSymbolTableRecord
100
AcDbLinetypeTableRecord
  2
TRACKS
 70
     0
  3
Tracks -|-|-|-|-|-|-|-|-|-|-|-|-|-|-|-|-|-|-|-|
 72
    65
 73
     2
 40
7.62
 49
3.81
 74
     4
 75
   130
340
4B
 46
6.349999999999999
 50
0.0
 44
0.0
 45
0.0
 49
3.81
 74
     0
  0
LTYPE
  5
78
330
5
100
AcDbSymbolTableRecord
100
AcDbLinetypeTableRecord
  2
ZIGZAG
 70
     0
  3
Zig zag /\/\/\/\/\/\/\/\/\/\/\/\/\/\/\/\/\/\/\/
 72
    65
 73
     4
 40
20.32254
 49
0.00254
 74
     0
 49
-5.08
 74
     4
 75
   131
340
4B
 46
5.08
 50
0.0
 44
-5.08
 45
0.0
 49
-10.16
 74
     4
 75
   131
340
4B
 46
5.08
 50
180.0
 44
5.08
 45
0.0
 49
-5.08
 74
     0
  0
ENDTAB
  0
TABLE
  2
LAYER
  5
2
102
{ACAD_XDICTIONARY
360
A3A
102
}
330
0
100
AcDbSymbolTable
 70
     9
  0
LAYER
  5
10
330
2
100
AcDbSymbolTableRecord
100
AcDbLayerTableRecord
  2
0
 70
     0
 62
     7
  6
Continuous
370
    -3
390
F
  0
LAYER
  5
79
330
2
100
AcDbSymbolTableRecord
100
AcDbLayerTableRecord
  2
実形
 70
     0
 62
     7
  6
Continuous
370
    -3
390
F
  0
LAYER
  5
7A
330
2
100
AcDbSymbolTableRecord
100
AcDbLayerTableRecord
  2
枠
 70
     0
 62
     7
  6
Continuous
370
    -3
390
F
  0
LAYER
  5
7B
330
2
100
AcDbSymbolTableRecord
100
AcDbLayerTableRecord
  2
文字
 70
     0
 62
     7
  6
Continuous
370
    -3
390
F
  0
LAYER
  5
7C
330
2
100
AcDbSymbolTableRecord
100
AcDbLayerTableRecord
  2
中心
 70
     0
 62
     7
  6
CENTER2
370
    15
390
F
  0
LAYER
  5
7D
330
2
100
AcDbSymbolTableRecord
100
AcDbLayerTableRecord
  2
寸法
 70
     0
 62
     7
  6
Continuous
370
    -3
390
F
  0
LAYER
  5
F5
330
2
100
AcDbSymbolTableRecord
100
AcDbLayerTableRecord
  2
Defpoints
 70
     0
 62
     7
  6
Continuous
290
     0
370
    -3
390
F
  0
LAYER
  5
287
330
2
100
AcDbSymbolTableRecord
100
AcDbLayerTableRecord
  2
センター
 70
     0
 62
     7
  6
CENTER2
370
    15
390
F
  0
LAYER
  5
34C
330
2
100
AcDbSymbolTableRecord
100
AcDbLayerTableRecord
  2
ハッチング
 70
     0
 62
     7
  6
Continuous
370
    13
390
F
  0
ENDTAB
  0
TABLE
  2
STYLE
  5
3
330
0
100
AcDbSymbolTable
 70
     2
  0
STYLE
  5
11
330
3
100
AcDbSymbolTableRecord
100
AcDbTextStyleTableRecord
  2
Standard
 70
     0
 40
0.0
 41
1.0
 50
0.0
 71
     0
 42
8.0
  3
txt.shx
  4
bigfont.shx
  0
STYLE
  5
4B
330
3
100
AcDbSymbolTableRecord
100
AcDbTextStyleTableRecord
  2

 70
     1
 40
0.0
 41
1.0
 50
0.0
 71
     0
 42
2.5
  3
ltypeshp.shx
  4

  0
ENDTAB
  0
TABLE
  2
VIEW
  5
6
330
0
100
AcDbSymbolTable
 70
     0
  0
ENDTAB
  0
TABLE
  2
UCS
  5
7
330
0
100
AcDbSymbolTable
 70
     0
  0
ENDTAB
  0
TABLE
  2
APPID
  5
9
330
0
100
AcDbSymbolTable
 70
     1
  0
APPID
  5
12
330
9
100
AcDbSymbolTableRecord
100
AcDbRegAppTableRecord
  2
ACAD
 70
     0
  0
ENDTAB
  0
TABLE
  2
DIMSTYLE
  5
A
330
0
100
AcDbSymbolTable
 70
     1
100
AcDbDimStyleTable
 71
     1
340
27
  0
DIMSTYLE
105
27
102
{ACAD_REACTORS
330
7F1
330
7D7
330
796
330
7B0
330
7CA
330
7A3
330
7BD
330
7FE
330
7E4
102
}
330
A
100
AcDbSymbolTableRecord
100
AcDbDimStyleTableRecord
  2
ISO-25
 70
     0
 41
2.5
 42
0.625
 43
3.75
 44
1.25
 73
     0
 74
     0
 77
     1
 78
     8
140
2.5
141
2.5
143
0.03937007874016
147
0.625
171
     3
172
     1
271
     2
272
     2
274
     3
283
     0
284
     8
340
11
  0
ENDTAB
  0
TABLE
  2
BLOCK_RECORD
  5
1
330
0
100
AcDbSymbolTable
 70
    35
  0
BLOCK_RECORD
  5
1F
102
{ACAD_XDICTIONARY
360
A42
102
}
330
1
100
AcDbSymbolTableRecord
100
AcDbBlockTableRecord
  2
*Model_Space
340
22
  0
BLOCK_RECORD
  5
1B
330
1
100
AcDbSymbolTableRecord
100
AcDbBlockTableRecord
  2
*Paper_Space
340
1E
  0
BLOCK_RECORD
  5
23
330
1
100
AcDbSymbolTableRecord
100
AcDbBlockTableRecord
  2
*Paper_Space0
340
26
  0
BLOCK_RECORD
  5
7E
330
1
100
AcDbSymbolTableRecord
100
AcDbBlockTableRecord
  2
_DotSmall
340
0
102
{BLKREFS
331
201
331
202
331
1F6
331
1F7
331
1C9
331
1CA
331
275
331
276
331
232
331
233
331
1BE
331
1BF
331
280
331
281
331
1D6
331
1D7
331
1A0
331
1A1
331
20E
331
20F
331
21A
331
21B
331
269
331
26A
331
25E
331
25F
331
226
331
227
331
23E
331
23F
331
995
331
996
331
99E
331
99F
331
9A7
331
9A8
331
9B0
331
9B1
331
9B9
331
9BA
331
9C2
331
9C3
331
9CB
331
9CC
331
9D4
331
9D5
331
9DD
331
9DE
102
}
  0
BLOCK_RECORD
  5
145
330
1
100
AcDbSymbolTableRecord
100
AcDbBlockTableRecord
  2
_Open30
340
0
  0
BLOCK_RECORD
  5
19B
330
1
100
AcDbSymbolTableRecord
100
AcDbBlockTableRecord
  2
*D3
340
0
  0
BLOCK_RECORD
  5
1A7
330
1
100
AcDbSymbolTableRecord
100
AcDbBlockTableRecord
  2
*D4
340
0
  0
BLOCK_RECORD
  5
1B0
330
1
100
AcDbSymbolTableRecord
100
AcDbBlockTableRecord
  2
*D5
340
0
  0
BLOCK_RECORD
  5
1B9
330
1
100
AcDbSymbolTableRecord
100
AcDbBlockTableRecord
  2
*D6
340
0
  0
BLOCK_RECORD
  5
1C5
330
1
100
AcDbSymbolTableRecord
100
AcDbBlockTableRecord
  2
*D7
340
0
  0
BLOCK_RECORD
  5
1D1
330
1
100
AcDbSymbolTableRecord
100
AcDbBlockTableRecord
  2
*D8
340
0
  0
BLOCK_RECORD
  5
1DD
330
1
100
AcDbSymbolTableRecord
100
AcDbBlockTableRecord
  2
*D9
340
0
  0
BLOCK_RECORD
  5
1E7
330
1
100
AcDbSymbolTableRecord
100
AcDbBlockTableRecord
  2
*D10
340
0
  0
BLOCK_RECORD
  5
1F1
330
1
100
AcDbSymbolTableRecord
100
AcDbBlockTableRecord
  2
*D11
340
0
  0
BLOCK_RECORD
  5
1FD
330
1
100
AcDbSymbolTableRecord
100
AcDbBlockTableRecord
  2
*D12
340
0
  0
BLOCK_RECORD
  5
209
330
1
100
AcDbSymbolTableRecord
100
AcDbBlockTableRecord
  2
*D13
340
0
  0
BLOCK_RECORD
  5
215
330
1
100
AcDbSymbolTableRecord
100
AcDbBlockTableRecord
  2
*D14
340
0
  0
BLOCK_RECORD
  5
221
330
1
100
AcDbSymbolTableRecord
100
AcDbBlockTableRecord
  2
*D15
340
0
  0
BLOCK_RECORD
  5
22D
330
1
100
AcDbSymbolTableRecord
100
AcDbBlockTableRecord
  2
*D16
340
0
  0
BLOCK_RECORD
  5
239
330
1
100
AcDbSymbolTableRecord
100
AcDbBlockTableRecord
  2
*D17
340
0
  0
BLOCK_RECORD
  5
245
330
1
100
AcDbSymbolTableRecord
100
AcDbBlockTableRecord
  2
*D18
340
0
  0
BLOCK_RECORD
  5
24F
330
1
100
AcDbSymbolTableRecord
100
AcDbBlockTableRecord
  2
*D19
340
0
  0
BLOCK_RECORD
  5
259
330
1
100
AcDbSymbolTableRecord
100
AcDbBlockTableRecord
  2
*D20
340
0
  0
BLOCK_RECORD
  5
265
330
1
100
AcDbSymbolTableRecord
100
AcDbBlockTableRecord
  2
*D21
340
0
  0
BLOCK_RECORD
  5
270
330
1
100
AcDbSymbolTableRecord
100
AcDbBlockTableRecord
  2
*D22
340
0
  0
BLOCK_RECORD
  5
27C
330
1
100
AcDbSymbolTableRecord
100
AcDbBlockTableRecord
  2
*D23
340
0
  0
BLOCK_RECORD
  5
288
330
1
100
AcDbSymbolTableRecord
100
AcDbBlockTableRecord
  2
A$C62781F4B
340
0
  0
BLOCK_RECORD
  5
41B
330
1
100
AcDbSymbolTableRecord
100
AcDbBlockTableRecord
  2
_Open90
340
0
  0
BLOCK_RECORD
  5
797
330
1
100
AcDbSymbolTableRecord
100
AcDbBlockTableRecord
  2
*D26
340
0
  0
BLOCK_RECORD
  5
7A4
330
1
100
AcDbSymbolTableRecord
100
AcDbBlockTableRecord
  2
*D27
340
0
  0
BLOCK_RECORD
  5
7B1
330
1
100
AcDbSymbolTableRecord
100
AcDbBlockTableRecord
  2
*D28
340
0
  0
BLOCK_RECORD
  5
7BE
330
1
100
AcDbSymbolTableRecord
100
AcDbBlockTableRecord
  2
*D29
340
0
  0
BLOCK_RECORD
  5
7CB
330
1
100
AcDbSymbolTableRecord
100
AcDbBlockTableRecord
  2
*D30
340
0
  0
BLOCK_RECORD
  5
7D8
330
1
100
AcDbSymbolTableRecord
100
AcDbBlockTableRecord
  2
*D31
340
0
  0
BLOCK_RECORD
  5
7E5
330
1
100
AcDbSymbolTableRecord
100
AcDbBlockTableRecord
  2
*D32
340
0
  0
BLOCK_RECORD
  5
7F2
330
1
100
AcDbSymbolTableRecord
100
AcDbBlockTableRecord
  2
*D33
340
0
  0
BLOCK_RECORD
  5
7FF
330
1
100
AcDbSymbolTableRecord
100
AcDbBlockTableRecord
  2
*D34
340
0
  0
ENDTAB
  0
ENDSEC
  0
SECTION
  2
BLOCKS
  0
BLOCK
  5
20
330
1F
100
AcDbEntity
  8
0
100
AcDbBlockBegin
  2
*Model_Space
 70
     0
 10
0.0
 20
0.0
 30
0.0
  3
*Model_Space
  1

  0
ENDBLK
  5
21
330
1F
100
AcDbEntity
  8
0
100
AcDbBlockEnd
  0
BLOCK
  5
1C
330
1B
100
AcDbEntity
 67
     1
  8
0
100
AcDbBlockBegin
  2
*Paper_Space
 70
     0
 10
0.0
 20
0.0
 30
0.0
  3
*Paper_Space
  1

  0
ENDBLK
  5
1D
330
1B
100
AcDbEntity
 67
     1
  8
0
100
AcDbBlockEnd
  0
BLOCK
  5
24
330
23
100
AcDbEntity
  8
0
100
AcDbBlockBegin
  2
*Paper_Space0
 70
     0
 10
0.0
 20
0.0
 30
0.0
  3
*Paper_Space0
  1

  0
ENDBLK
  5
25
330
23
100
AcDbEntity
  8
0
100
AcDbBlockEnd
  0
BLOCK
  5
80
330
7E
100
AcDbEntity
  8
0
100
AcDbBlockBegin
  2
_DotSmall
 70
     0
 10
0.0
 20
0.0
 30
0.0
  3
_DotSmall
  1

  0
LWPOLYLINE
  5
7F
330
7E
100
AcDbEntity
  8
0
 62
     0
100
AcDbPolyline
 90
        2
 70
     1
 43
0.5
 10
-0.0625
 20
0.0
 42
1.0
 10
0.0625
 20
0.0
 42
1.0
  0
ENDBLK
  5
81
330
7E
100
AcDbEntity
  8
0
100
AcDbBlockEnd
  0
BLOCK
  5
149
330
145
100
AcDbEntity
  8
0
100
AcDbBlockBegin
  2
_Open30
 70
     0
 10
0.0
 20
0.0
 30
0.0
  3
_Open30
  1

  0
LINE
  5
146
330
145
100
AcDbEntity
  8
実形
 62
     0
370
    -2
100
AcDbLine
 10
-1.0
 20
0.26794919
 30
0.0
 11
0.0
 21
0.0
 31
0.0
  0
LINE
  5
147
330
145
100
AcDbEntity
  8
実形
 62
     0
370
    -2
100
AcDbLine
 10
0.0
 20
0.0
 30
0.0
 11
-1.0
 21
-0.26794919
 31
0.0
  0
LINE
  5
148
330
145
100
AcDbEntity
  8
実形
 62
     0
370
    -2
100
AcDbLine
 10
0.0
 20
0.0
 30
0.0
 11
-1.0
 21
0.0
 31
0.0
  0
ENDBLK
  5
14A
330
145
100
AcDbEntity
  8
0
100
AcDbBlockEnd
  0
BLOCK
  5
1A5
330
19B
100
AcDbEntity
  8
0
100
AcDbBlockBegin
  2
*D3
 70
     1
 10
0.0
 20
0.0
 30
0.0
  3
*D3
  1

  0
LINE
  5
19C
330
19B
100
AcDbEntity
  8
寸法
 62
     0
370
    15
100
AcDbLine
 10
615.9139716591917
 20
1662.255449416917
 30
0.0
 11
586.6682550878876
 21
1662.255449416917
 31
0.0
  0
LINE
  5
19D
330
19B
100
AcDbEntity
  8
寸法
 62
     0
370
    15
100
AcDbLine
 10
615.9139716591917
 20
1647.255449416917
 30
0.0
 11
586.6682550878876
 21
1647.255449416917
 31
0.0
  0
LINE
  5
19E
330
19B
100
AcDbEntity
  8
寸法
 62
     0
370
    15
100
AcDbLine
 10
586.6682550878876
 20
1662.255449416917
 30
0.0
 11
586.6682550878876
 21
1647.255449416917
 31
0.0
  0
MTEXT
  5
19F
330
19B
100
AcDbEntity
  8
寸法
 62
     0
100
AcDbMText
 10
588.2679811416119
 20
1693.967543981405
 30
0.0
 40
28.0
 41
0.0
 71
     5
 72
     1
  1
15
 11
0.0000000000000001
 21
1.0
 31
0.0
 73
     1
 44
1.0
1001
ACAD
1000
MTEXTBEGIN
1070
    73
1070
     1
1070
    44
1040
1.0
1070
    74
1070
     0
1000
MTEXTEND
  0
INSERT
  5
1A0
330
19B
100
AcDbEntity
  8
寸法
 62
     0
370
    15
100
AcDbBlockReference
  2
_DotSmall
 10
586.6682550878876
 20
1662.255449416917
 30
0.0
 41
35.0
 42
35.0
 43
35.0
 50
90.0
  0
INSERT
  5
1A1
330
19B
100
AcDbEntity
  8
寸法
 62
     0
370
    15
100
AcDbBlockReference
  2
_DotSmall
 10
586.6682550878876
 20
1647.255449416917
 30
0.0
 41
35.0
 42
35.0
 43
35.0
 50
270.0
  0
POINT
  5
1A2
330
19B
100
AcDbEntity
  8
Defpoints
 62
     0
100
AcDbPoint
 10
680.9139716591917
 20
1662.255449416917
 30
0.0
  0
POINT
  5
1A3
330
19B
100
AcDbEntity
  8
Defpoints
 62
     0
100
AcDbPoint
 10
680.9139716591917
 20
1647.255449416917
 30
0.0
  0
POINT
  5
1A4
330
19B
100
AcDbEntity
  8
Defpoints
 62
     0
100
AcDbPoint
 10
586.6682550878876
 20
1647.255449416917
 30
0.0
  0
ENDBLK
  5
1A6
330
19B
100
AcDbEntity
  8
0
100
AcDbBlockEnd
  0
BLOCK
  5
1AE
330
1A7
100
AcDbEntity
  8
0
100
AcDbBlockBegin
  2
*D4
 70
     1
 10
0.0
 20
0.0
 30
0.0
  3
*D4
  1

  0
LINE
  5
1A8
330
1A7
100
AcDbEntity
  8
寸法
 62
     0
370
    15
100
AcDbLine
 10
617.0003070695898
 20
1640.255449416917
 30
0.0
 11
586.6682550878876
 21
1640.255449416917
 31
0.0
  0
MTEXT
  5
1A9
330
1A7
100
AcDbEntity
  8
寸法
 62
     0
100
AcDbMText
 10
587.1092514434958
 20
1617.550931747402
 30
0.0
 40
28.0
 41
0.0
 71
     5
 72
     1
  1
7
 11
0.0000000000000001
 21
1.0
 31
0.0
 73
     1
 44
1.0
1001
ACAD
1000
MTEXTBEGIN
1070
    73
1070
     1
1070
    44
1040
1.0
1070
    74
1070
     0
1000
MTEXTEND
  0
LINE
  5
1AA
330
1A7
100
AcDbEntity
  8
寸法
 62
     0
370
    15
100
AcDbLine
 10
586.6682550878876
 20
1647.255449416917
 30
0.0
 11
586.6682550878876
 21
1640.255449416917
 31
0.0
  0
POINT
  5
1AB
330
1A7
100
AcDbEntity
  8
Defpoints
 62
     0
100
AcDbPoint
 10
680.9139716591917
 20
1647.255449416917
 30
0.0
  0
POINT
  5
1AC
330
1A7
100
AcDbEntity
  8
Defpoints
 62
     0
100
AcDbPoint
 10
682.0003070695897
 20
1640.255449416917
 30
0.0
  0
POINT
  5
1AD
330
1A7
100
AcDbEntity
  8
Defpoints
 62
     0
100
AcDbPoint
 10
586.6682550878876
 20
1640.255449416917
 30
0.0
  0
ENDBLK
  5
1AF
330
1A7
100
AcDbEntity
  8
0
100
AcDbBlockEnd
  0
BLOCK
  5
1B7
330
1B0
100
AcDbEntity
  8
0
100
AcDbBlockBegin
  2
*D5
 70
     1
 10
0.0
 20
0.0
 30
0.0
  3
*D5
  1

  0
LINE
  5
1B1
330
1B0
100
AcDbEntity
  8
寸法
 62
     0
370
    15
100
AcDbLine
 10
615.9139716591917
 20
1219.255449416917
 30
0.0
 11
586.855295147524
 21
1219.255449416917
 31
0.0
  0
MTEXT
  5
1B2
330
1B0
100
AcDbEntity
  8
寸法
 62
     0
100
AcDbMText
 10
587.1092514434958
 20
1244.413670130267
 30
0.0
 40
28.0
 41
0.0
 71
     5
 72
     1
  1
7
 11
0.0000000000000001
 21
1.0
 31
0.0
 73
     1
 44
1.0
1001
ACAD
1000
MTEXTBEGIN
1070
    73
1070
     1
1070
    44
1040
1.0
1070
    74
1070
     0
1000
MTEXTEND
  0
LINE
  5
1B3
330
1B0
100
AcDbEntity
  8
寸法
 62
     0
370
    15
100
AcDbLine
 10
586.855295147524
 20
1219.255449416917
 30
0.0
 11
586.855295147524
 21
1212.255449416917
 31
0.0
  0
POINT
  5
1B4
330
1B0
100
AcDbEntity
  8
Defpoints
 62
     0
100
AcDbPoint
 10
680.9139716591917
 20
1219.255449416917
 30
0.0
  0
POINT
  5
1B5
330
1B0
100
AcDbEntity
  8
Defpoints
 62
     0
100
AcDbPoint
 10
680.9139716591917
 20
1212.255449416917
 30
0.0
  0
POINT
  5
1B6
330
1B0
100
AcDbEntity
  8
Defpoints
 62
     0
100
AcDbPoint
 10
586.855295147524
 20
1212.255449416917
 30
0.0
  0
ENDBLK
  5
1B8
330
1B0
100
AcDbEntity
  8
0
100
AcDbBlockEnd
  0
BLOCK
  5
1C3
330
1B9
100
AcDbEntity
  8
0
100
AcDbBlockBegin
  2
*D6
 70
     1
 10
0.0
 20
0.0
 30
0.0
  3
*D6
  1

  0
LINE
  5
1BA
330
1B9
100
AcDbEntity
  8
寸法
 62
     0
370
    15
100
AcDbLine
 10
615.9139716591917
 20
1212.255449416917
 30
0.0
 11
586.855295147524
 21
1212.255449416917
 31
0.0
  0
LINE
  5
1BB
330
1B9
100
AcDbEntity
  8
寸法
 62
     0
370
    15
100
AcDbLine
 10
615.9139716591917
 20
1197.255449416917
 30
0.0
 11
586.855295147524
 21
1197.255449416917
 31
0.0
  0
LINE
  5
1BC
330
1B9
100
AcDbEntity
  8
寸法
 62
     0
370
    15
100
AcDbLine
 10
586.855295147524
 20
1212.255449416917
 30
0.0
 11
586.855295147524
 21
1197.255449416917
 31
0.0
  0
MTEXT
  5
1BD
330
1B9
100
AcDbEntity
  8
寸法
 62
     0
100
AcDbMText
 10
584.7917920472491
 20
1161.050147076483
 30
0.0
 40
28.0
 41
0.0
 71
     5
 72
     1
  1
15
 11
0.0000000000000001
 21
1.0
 31
0.0
 73
     1
 44
1.0
1001
ACAD
1000
MTEXTBEGIN
1070
    73
1070
     1
1070
    44
1040
1.0
1070
    74
1070
     0
1000
MTEXTEND
  0
INSERT
  5
1BE
330
1B9
100
AcDbEntity
  8
寸法
 62
     0
370
    15
100
AcDbBlockReference
  2
_DotSmall
 10
586.855295147524
 20
1212.255449416917
 30
0.0
 41
35.0
 42
35.0
 43
35.0
 50
90.0
  0
INSERT
  5
1BF
330
1B9
100
AcDbEntity
  8
寸法
 62
     0
370
    15
100
AcDbBlockReference
  2
_DotSmall
 10
586.855295147524
 20
1197.255449416917
 30
0.0
 41
35.0
 42
35.0
 43
35.0
 50
270.0
  0
POINT
  5
1C0
330
1B9
100
AcDbEntity
  8
Defpoints
 62
     0
100
AcDbPoint
 10
680.9139716591917
 20
1212.255449416917
 30
0.0
  0
POINT
  5
1C1
330
1B9
100
AcDbEntity
  8
Defpoints
 62
     0
100
AcDbPoint
 10
680.9139716591917
 20
1197.255449416917
 30
0.0
  0
POINT
  5
1C2
330
1B9
100
AcDbEntity
  8
Defpoints
 62
     0
100
AcDbPoint
 10
586.855295147524
 20
1197.255449416917
 30
0.0
  0
ENDBLK
  5
1C4
330
1B9
100
AcDbEntity
  8
0
100
AcDbBlockEnd
  0
BLOCK
  5
1CF
330
1C5
100
AcDbEntity
  8
0
100
AcDbBlockBegin
  2
*D7
 70
     1
 10
0.0
 20
0.0
 30
0.0
  3
*D7
  1

  0
LINE
  5
1C6
330
1C5
100
AcDbEntity
  8
寸法
 62
     0
370
    15
100
AcDbLine
 10
615.9139716591917
 20
1662.255449416917
 30
0.0
 11
544.0277383945605
 21
1662.255449416917
 31
0.0
  0
LINE
  5
1C7
330
1C5
100
AcDbEntity
  8
寸法
 62
     0
370
    15
100
AcDbLine
 10
615.9139716591917
 20
1197.255449416917
 30
0.0
 11
544.0277383945604
 21
1197.255449416917
 31
0.0
  0
LINE
  5
1C8
330
1C5
100
AcDbEntity
  8
寸法
 62
     0
370
    15
100
AcDbLine
 10
544.0277383945605
 20
1662.255449416917
 30
0.0
 11
544.0277383945604
 21
1197.255449416917
 31
0.0
  0
INSERT
  5
1C9
330
1C5
100
AcDbEntity
  8
寸法
 62
     0
370
    15
100
AcDbBlockReference
  2
_DotSmall
 10
544.0277383945605
 20
1662.255449416917
 30
0.0
 41
35.0
 42
35.0
 43
35.0
 50
90.0
  0
INSERT
  5
1CA
330
1C5
100
AcDbEntity
  8
寸法
 62
     0
370
    15
100
AcDbBlockReference
  2
_DotSmall
 10
544.0277383945604
 20
1197.255449416917
 30
0.0
 41
35.0
 42
35.0
 43
35.0
 50
270.0
  0
MTEXT
  5
1CB
330
1C5
100
AcDbEntity
  8
寸法
 62
     0
100
AcDbMText
 10
520.0277383945603
 20
1429.755449416917
 30
0.0
 40
28.0
 41
0.0
 71
     5
 72
     1
  1
465
 11
0.0000000000000001
 21
1.0
 31
0.0
 73
     1
 44
1.0
1001
ACAD
1000
MTEXTBEGIN
1070
    73
1070
     1
1070
    44
1040
1.0
1070
    74
1070
     0
1000
MTEXTEND
  0
POINT
  5
1CC
330
1C5
100
AcDbEntity
  8
Defpoints
 62
     0
100
AcDbPoint
 10
680.9139716591917
 20
1662.255449416917
 30
0.0
  0
POINT
  5
1CD
330
1C5
100
AcDbEntity
  8
Defpoints
 62
     0
100
AcDbPoint
 10
680.9139716591917
 20
1197.255449416917
 30
0.0
  0
POINT
  5
1CE
330
1C5
100
AcDbEntity
  8
Defpoints
 62
     0
100
AcDbPoint
 10
544.0277383945604
 20
1197.255449416917
 30
0.0
  0
ENDBLK
  5
1D0
330
1C5
100
AcDbEntity
  8
0
100
AcDbBlockEnd
  0
BLOCK
  5
1DB
330
1D1
100
AcDbEntity
  8
0
100
AcDbBlockBegin
  2
*D8
 70
     1
 10
0.0
 20
0.0
 30
0.0
  3
*D8
  1

  0
LINE
  5
1D2
330
1D1
100
AcDbEntity
  8
寸法
 62
     0
370
    15
100
AcDbLine
 10
680.9139716591917
 20
1727.255449416917
 30
0.0
 11
680.9139716591917
 21
1759.152294582291
 31
0.0
  0
LINE
  5
1D3
330
1D1
100
AcDbEntity
  8
寸法
 62
     0
370
    15
100
AcDbLine
 10
695.9139716591916
 20
1727.255449416917
 30
0.0
 11
695.9139716591916
 21
1759.152294582291
 31
0.0
  0
LINE
  5
1D4
330
1D1
100
AcDbEntity
  8
寸法
 62
     0
370
    15
100
AcDbLine
 10
680.9139716591917
 20
1759.152294582291
 30
0.0
 11
695.9139716591916
 21
1759.152294582291
 31
0.0
  0
MTEXT
  5
1D5
330
1D1
100
AcDbEntity
  8
寸法
 62
     0
100
AcDbMText
 10
649.1953337542899
 20
1759.758512372344
 30
0.0
 40
28.0
 41
0.0
 71
     5
 72
     1
  1
15
 73
     1
 44
1.0
1001
ACAD
1000
MTEXTBEGIN
1070
    73
1070
     1
1070
    44
1040
1.0
1070
    74
1070
     0
1000
MTEXTEND
  0
INSERT
  5
1D6
330
1D1
100
AcDbEntity
  8
寸法
 62
     0
370
    15
100
AcDbBlockReference
  2
_DotSmall
 10
680.9139716591917
 20
1759.152294582291
 30
0.0
 41
35.0
 42
35.0
 43
35.0
 50
180.0
  0
INSERT
  5
1D7
330
1D1
100
AcDbEntity
  8
寸法
 62
     0
370
    15
100
AcDbBlockReference
  2
_DotSmall
 10
695.9139716591916
 20
1759.152294582291
 30
0.0
 41
35.0
 42
35.0
 43
35.0
  0
POINT
  5
1D8
330
1D1
100
AcDbEntity
  8
Defpoints
 62
     0
100
AcDbPoint
 10
680.9139716591917
 20
1662.255449416917
 30
0.0
  0
POINT
  5
1D9
330
1D1
100
AcDbEntity
  8
Defpoints
 62
     0
100
AcDbPoint
 10
695.9139716591916
 20
1662.255449416917
 30
0.0
  0
POINT
  5
1DA
330
1D1
100
AcDbEntity
  8
Defpoints
 62
     0
100
AcDbPoint
 10
695.9139716591916
 20
1759.152294582291
 30
0.0
  0
ENDBLK
  5
1DC
330
1D1
100
AcDbEntity
  8
0
100
AcDbBlockEnd
  0
BLOCK
  5
1E5
330
1DD
100
AcDbEntity
  8
0
100
AcDbBlockBegin
  2
*D9
 70
     1
 10
0.0
 20
0.0
 30
0.0
  3
*D9
  1

  0
LINE
  5
1DE
330
1DD
100
AcDbEntity
  8
寸法
 62
     0
370
    15
100
AcDbLine
 10
695.9139716591916
 20
1727.255449416917
 30
0.0
 11
695.9139716591916
 21
1759.152294582291
 31
0.0
  0
LINE
  5
1DF
330
1DD
100
AcDbEntity
  8
寸法
 62
     0
370
    15
100
AcDbLine
 10
702.9139716591917
 20
1727.255449416917
 30
0.0
 11
702.9139716591917
 21
1759.152294582291
 31
0.0
  0
MTEXT
  5
1E0
330
1DD
100
AcDbEntity
  8
寸法
 62
     0
100
AcDbMText
 10
726.8510836058658
 20
1760.364730162397
 30
0.0
 40
28.0
 41
0.0
 71
     5
 72
     1
  1
7
 73
     1
 44
1.0
1001
ACAD
1000
MTEXTBEGIN
1070
    73
1070
     1
1070
    44
1040
1.0
1070
    74
1070
     0
1000
MTEXTEND
  0
LINE
  5
1E1
330
1DD
100
AcDbEntity
  8
寸法
 62
     0
370
    15
100
AcDbLine
 10
695.9139716591916
 20
1759.152294582291
 30
0.0
 11
702.9139716591917
 21
1759.152294582291
 31
0.0
  0
POINT
  5
1E2
330
1DD
100
AcDbEntity
  8
Defpoints
 62
     0
100
AcDbPoint
 10
695.9139716591916
 20
1662.255449416917
 30
0.0
  0
POINT
  5
1E3
330
1DD
100
AcDbEntity
  8
Defpoints
 62
     0
100
AcDbPoint
 10
702.9139716591917
 20
1662.255449416917
 30
0.0
  0
POINT
  5
1E4
330
1DD
100
AcDbEntity
  8
Defpoints
 62
     0
100
AcDbPoint
 10
702.9139716591917
 20
1759.152294582291
 30
0.0
  0
ENDBLK
  5
1E6
330
1DD
100
AcDbEntity
  8
0
100
AcDbBlockEnd
  0
BLOCK
  5
1EF
330
1E7
100
AcDbEntity
  8
0
100
AcDbBlockBegin
  2
*D10
 70
     1
 10
0.0
 20
0.0
 30
0.0
  3
*D10
  1

  0
LINE
  5
1E8
330
1E7
100
AcDbEntity
  8
寸法
 62
     0
370
    15
100
AcDbLine
 10
918.9139716591917
 20
1727.255449416917
 30
0.0
 11
918.9139716591917
 21
1758.952479503834
 31
0.0
  0
LINE
  5
1E9
330
1E7
100
AcDbEntity
  8
寸法
 62
     0
370
    15
100
AcDbLine
 10
925.9139716591917
 20
1727.255449416917
 30
0.0
 11
925.9139716591917
 21
1758.952479503834
 31
0.0
  0
MTEXT
  5
1EA
330
1E7
100
AcDbEntity
  8
寸法
 62
     0
100
AcDbMText
 10
896.3690093810683
 20
1758.952479503834
 30
0.0
 40
28.0
 41
0.0
 71
     5
 72
     1
  1
7
 73
     1
 44
1.0
1001
ACAD
1000
MTEXTBEGIN
1070
    73
1070
     1
1070
    44
1040
1.0
1070
    74
1070
     0
1000
MTEXTEND
  0
LINE
  5
1EB
330
1E7
100
AcDbEntity
  8
寸法
 62
     0
370
    15
100
AcDbLine
 10
918.9139716591917
 20
1758.952479503834
 30
0.0
 11
925.9139716591917
 21
1758.952479503834
 31
0.0
  0
POINT
  5
1EC
330
1E7
100
AcDbEntity
  8
Defpoints
 62
     0
100
AcDbPoint
 10
918.9139716591917
 20
1662.255449416917
 30
0.0
  0
POINT
  5
1ED
330
1E7
100
AcDbEntity
  8
Defpoints
 62
     0
100
AcDbPoint
 10
925.9139716591917
 20
1662.255449416917
 30
0.0
  0
POINT
  5
1EE
330
1E7
100
AcDbEntity
  8
Defpoints
 62
     0
100
AcDbPoint
 10
925.9139716591917
 20
1758.952479503834
 30
0.0
  0
ENDBLK
  5
1F0
330
1E7
100
AcDbEntity
  8
0
100
AcDbBlockEnd
  0
BLOCK
  5
1FB
330
1F1
100
AcDbEntity
  8
0
100
AcDbBlockBegin
  2
*D11
 70
     1
 10
0.0
 20
0.0
 30
0.0
  3
*D11
  1

  0
LINE
  5
1F2
330
1F1
100
AcDbEntity
  8
寸法
 62
     0
370
    15
100
AcDbLine
 10
925.9139716591917
 20
1727.255449416917
 30
0.0
 11
925.9139716591917
 21
1758.952479503834
 31
0.0
  0
LINE
  5
1F3
330
1F1
100
AcDbEntity
  8
寸法
 62
     0
370
    15
100
AcDbLine
 10
940.9139716591917
 20
1727.255449416917
 30
0.0
 11
940.9139716591917
 21
1758.952479503834
 31
0.0
  0
LINE
  5
1F4
330
1F1
100
AcDbEntity
  8
寸法
 62
     0
370
    15
100
AcDbLine
 10
925.9139716591917
 20
1758.952479503834
 30
0.0
 11
940.9139716591917
 21
1758.952479503834
 31
0.0
  0
MTEXT
  5
1F5
330
1F1
100
AcDbEntity
  8
寸法
 62
     0
100
AcDbMText
 10
968.0250201010158
 20
1758.952479503834
 30
0.0
 40
28.0
 41
0.0
 71
     5
 72
     1
  1
15
 73
     1
 44
1.0
1001
ACAD
1000
MTEXTBEGIN
1070
    73
1070
     1
1070
    44
1040
1.0
1070
    74
1070
     0
1000
MTEXTEND
  0
INSERT
  5
1F6
330
1F1
100
AcDbEntity
  8
寸法
 62
     0
370
    15
100
AcDbBlockReference
  2
_DotSmall
 10
925.9139716591917
 20
1758.952479503834
 30
0.0
 41
35.0
 42
35.0
 43
35.0
 50
180.0
  0
INSERT
  5
1F7
330
1F1
100
AcDbEntity
  8
寸法
 62
     0
370
    15
100
AcDbBlockReference
  2
_DotSmall
 10
940.9139716591917
 20
1758.952479503834
 30
0.0
 41
35.0
 42
35.0
 43
35.0
  0
POINT
  5
1F8
330
1F1
100
AcDbEntity
  8
Defpoints
 62
     0
100
AcDbPoint
 10
925.9139716591917
 20
1662.255449416917
 30
0.0
  0
POINT
  5
1F9
330
1F1
100
AcDbEntity
  8
Defpoints
 62
     0
100
AcDbPoint
 10
940.9139716591917
 20
1662.255449416917
 30
0.0
  0
POINT
  5
1FA
330
1F1
100
AcDbEntity
  8
Defpoints
 62
     0
100
AcDbPoint
 10
940.9139716591917
 20
1758.952479503834
 30
0.0
  0
ENDBLK
  5
1FC
330
1F1
100
AcDbEntity
  8
0
100
AcDbBlockEnd
  0
BLOCK
  5
207
330
1FD
100
AcDbEntity
  8
0
100
AcDbBlockBegin
  2
*D12
 70
     1
 10
0.0
 20
0.0
 30
0.0
  3
*D12
  1

  0
LINE
  5
1FE
330
1FD
100
AcDbEntity
  8
寸法
 62
     0
370
    15
100
AcDbLine
 10
680.9139716591917
 20
1727.255449416917
 30
0.0
 11
680.9139716591917
 21
1801.158446644829
 31
0.0
  0
LINE
  5
1FF
330
1FD
100
AcDbEntity
  8
寸法
 62
     0
370
    15
100
AcDbLine
 10
940.9139716591917
 20
1727.255449416917
 30
0.0
 11
940.9139716591917
 21
1801.158446644829
 31
0.0
  0
LINE
  5
200
330
1FD
100
AcDbEntity
  8
寸法
 62
     0
370
    15
100
AcDbLine
 10
680.9139716591917
 20
1801.158446644829
 30
0.0
 11
940.9139716591917
 21
1801.158446644829
 31
0.0
  0
INSERT
  5
201
330
1FD
100
AcDbEntity
  8
寸法
 62
     0
370
    15
100
AcDbBlockReference
  2
_DotSmall
 10
680.9139716591917
 20
1801.158446644829
 30
0.0
 41
35.0
 42
35.0
 43
35.0
 50
180.0
  0
INSERT
  5
202
330
1FD
100
AcDbEntity
  8
寸法
 62
     0
370
    15
100
AcDbBlockReference
  2
_DotSmall
 10
940.9139716591917
 20
1801.158446644829
 30
0.0
 41
35.0
 42
35.0
 43
35.0
  0
MTEXT
  5
203
330
1FD
100
AcDbEntity
  8
寸法
 62
     0
100
AcDbMText
 10
810.9139716591917
 20
1825.158446644829
 30
0.0
 40
28.0
 41
0.0
 71
     5
 72
     1
  1
260
 73
     1
 44
1.0
1001
ACAD
1000
MTEXTBEGIN
1070
    73
1070
     1
1070
    44
1040
1.0
1070
    74
1070
     0
1000
MTEXTEND
  0
POINT
  5
204
330
1FD
100
AcDbEntity
  8
Defpoints
 62
     0
100
AcDbPoint
 10
680.9139716591917
 20
1662.255449416917
 30
0.0
  0
POINT
  5
205
330
1FD
100
AcDbEntity
  8
Defpoints
 62
     0
100
AcDbPoint
 10
940.9139716591917
 20
1662.255449416917
 30
0.0
  0
POINT
  5
206
330
1FD
100
AcDbEntity
  8
Defpoints
 62
     0
100
AcDbPoint
 10
940.9139716591917
 20
1801.158446644829
 30
0.0
  0
ENDBLK
  5
208
330
1FD
100
AcDbEntity
  8
0
100
AcDbBlockEnd
  0
BLOCK
  5
213
330
209
100
AcDbEntity
  8
0
100
AcDbBlockBegin
  2
*D13
 70
     1
 10
0.0
 20
0.0
 30
0.0
  3
*D13
  1

  0
LINE
  5
20A
330
209
100
AcDbEntity
  8
実形
 62
     0
370
    15
100
AcDbLine
 10
1441.637749141451
 20
1237.255449416917
 30
0.0
 11
1533.009554505997
 21
1237.255449416917
 31
0.0
  0
LINE
  5
20B
330
209
100
AcDbEntity
  8
実形
 62
     0
370
    15
100
AcDbLine
 10
1441.637749141451
 20
1197.255449416917
 30
0.0
 11
1533.009554505997
 21
1197.255449416917
 31
0.0
  0
LINE
  5
20C
330
209
100
AcDbEntity
  8
実形
 62
     0
370
    15
100
AcDbLine
 10
1533.009554505997
 20
1237.255449416917
 30
0.0
 11
1533.009554505997
 21
1197.255449416917
 31
0.0
  0
MTEXT
  5
20D
330
209
100
AcDbEntity
  8
実形
 62
     0
100
AcDbMText
 10
1584.384554505997
 20
1217.255449416917
 30
0.0
 40
28.0
 41
0.0
 71
     5
 72
     1
  1
40
 11
0.0000000000000001
 21
1.0
 31
0.0
 73
     1
 44
1.0
1001
ACAD
1000
MTEXTBEGIN
1070
    73
1070
     1
1070
    44
1040
1.0
1070
    74
1070
     0
1000
MTEXTEND
  0
INSERT
  5
20E
330
209
100
AcDbEntity
  8
実形
 62
     0
370
    15
100
AcDbBlockReference
  2
_DotSmall
 10
1533.009554505997
 20
1237.255449416917
 30
0.0
 41
35.0
 42
35.0
 43
35.0
 50
90.0
  0
INSERT
  5
20F
330
209
100
AcDbEntity
  8
実形
 62
     0
370
    15
100
AcDbBlockReference
  2
_DotSmall
 10
1533.009554505997
 20
1197.255449416917
 30
0.0
 41
35.0
 42
35.0
 43
35.0
 50
270.0
  0
POINT
  5
210
330
209
100
AcDbEntity
  8
Defpoints
 62
     0
100
AcDbPoint
 10
1376.637749141451
 20
1237.255449416917
 30
0.0
  0
POINT
  5
211
330
209
100
AcDbEntity
  8
Defpoints
 62
     0
100
AcDbPoint
 10
1376.637749141451
 20
1197.255449416917
 30
0.0
  0
POINT
  5
212
330
209
100
AcDbEntity
  8
Defpoints
 62
     0
100
AcDbPoint
 10
1533.009554505997
 20
1197.255449416917
 30
0.0
  0
ENDBLK
  5
214
330
209
100
AcDbEntity
  8
0
100
AcDbBlockEnd
  0
BLOCK
  5
21F
330
215
100
AcDbEntity
  8
0
100
AcDbBlockBegin
  2
*D14
 70
     1
 10
0.0
 20
0.0
 30
0.0
  3
*D14
  1

  0
LINE
  5
216
330
215
100
AcDbEntity
  8
寸法
 62
     0
370
    15
100
AcDbLine
 10
1441.637749141451
 20
1622.255449416917
 30
0.0
 11
1531.693604877184
 21
1622.255449416917
 31
0.0
  0
LINE
  5
217
330
215
100
AcDbEntity
  8
寸法
 62
     0
370
    15
100
AcDbLine
 10
1441.637749141451
 20
1662.255449416917
 30
0.0
 11
1531.693604877184
 21
1662.255449416917
 31
0.0
  0
LINE
  5
218
330
215
100
AcDbEntity
  8
寸法
 62
     0
370
    15
100
AcDbLine
 10
1531.693604877184
 20
1622.255449416917
 30
0.0
 11
1531.693604877184
 21
1662.255449416917
 31
0.0
  0
MTEXT
  5
219
330
215
100
AcDbEntity
  8
寸法
 62
     0
100
AcDbMText
 10
1583.068604877183
 20
1642.255449416917
 30
0.0
 40
28.0
 41
0.0
 71
     5
 72
     1
  1
40
 11
0.0000000000000001
 21
1.0
 31
0.0
 73
     1
 44
1.0
1001
ACAD
1000
MTEXTBEGIN
1070
    73
1070
     1
1070
    44
1040
1.0
1070
    74
1070
     0
1000
MTEXTEND
  0
INSERT
  5
21A
330
215
100
AcDbEntity
  8
寸法
 62
     0
370
    15
100
AcDbBlockReference
  2
_DotSmall
 10
1531.693604877184
 20
1622.255449416917
 30
0.0
 41
35.0
 42
35.0
 43
35.0
 50
270.0
  0
INSERT
  5
21B
330
215
100
AcDbEntity
  8
寸法
 62
     0
370
    15
100
AcDbBlockReference
  2
_DotSmall
 10
1531.693604877184
 20
1662.255449416917
 30
0.0
 41
35.0
 42
35.0
 43
35.0
 50
90.0
  0
POINT
  5
21C
330
215
100
AcDbEntity
  8
Defpoints
 62
     0
100
AcDbPoint
 10
1376.637749141451
 20
1622.255449416917
 30
0.0
  0
POINT
  5
21D
330
215
100
AcDbEntity
  8
Defpoints
 62
     0
100
AcDbPoint
 10
1376.637749141451
 20
1662.255449416917
 30
0.0
  0
POINT
  5
21E
330
215
100
AcDbEntity
  8
Defpoints
 62
     0
100
AcDbPoint
 10
1531.693604877184
 20
1662.255449416917
 30
0.0
  0
ENDBLK
  5
220
330
215
100
AcDbEntity
  8
0
100
AcDbBlockEnd
  0
BLOCK
  5
22B
330
221
100
AcDbEntity
  8
0
100
AcDbBlockBegin
  2
*D15
 70
     1
 10
0.0
 20
0.0
 30
0.0
  3
*D15
  1

  0
LINE
  5
222
330
221
100
AcDbEntity
  8
寸法
 62
     0
370
    15
100
AcDbLine
 10
1005.913971659191
 20
1662.255449416917
 30
0.0
 11
1046.603862216571
 21
1662.255449416917
 31
0.0
  0
LINE
  5
223
330
221
100
AcDbEntity
  8
寸法
 62
     0
370
    15
100
AcDbLine
 10
1005.913971659191
 20
1618.735449416917
 30
0.0
 11
1046.603862216571
 21
1618.735449416917
 31
0.0
  0
LINE
  5
224
330
221
100
AcDbEntity
  8
寸法
 62
     0
370
    15
100
AcDbLine
 10
1046.603862216571
 20
1662.255449416917
 30
0.0
 11
1046.603862216571
 21
1618.735449416917
 31
0.0
  0
MTEXT
  5
225
330
221
100
AcDbEntity
  8
寸法
 62
     0
100
AcDbMText
 10
1103.603862216571
 20
1640.495449416917
 30
0.0
 40
28.0
 41
0.0
 71
     5
 72
     1
  1
43.5
 11
0.0000000000000001
 21
1.0
 31
0.0
 73
     1
 44
1.0
1001
ACAD
1000
MTEXTBEGIN
1070
    73
1070
     1
1070
    44
1040
1.0
1070
    74
1070
     0
1000
MTEXTEND
  0
INSERT
  5
226
330
221
100
AcDbEntity
  8
寸法
 62
     0
370
    15
100
AcDbBlockReference
  2
_DotSmall
 10
1046.603862216571
 20
1662.255449416917
 30
0.0
 41
35.0
 42
35.0
 43
35.0
 50
90.0
  0
INSERT
  5
227
330
221
100
AcDbEntity
  8
寸法
 62
     0
370
    15
100
AcDbBlockReference
  2
_DotSmall
 10
1046.603862216571
 20
1618.735449416917
 30
0.0
 41
35.0
 42
35.0
 43
35.0
 50
270.0
  0
POINT
  5
228
330
221
100
AcDbEntity
  8
Defpoints
 62
     0
100
AcDbPoint
 10
940.9139716591917
 20
1662.255449416917
 30
0.0
  0
POINT
  5
229
330
221
100
AcDbEntity
  8
Defpoints
 62
     0
100
AcDbPoint
 10
940.9139716591917
 20
1618.735449416917
 30
0.0
  0
POINT
  5
22A
330
221
100
AcDbEntity
  8
Defpoints
 62
     0
100
AcDbPoint
 10
1046.603862216571
 20
1618.735449416917
 30
0.0
  0
ENDBLK
  5
22C
330
221
100
AcDbEntity
  8
0
100
AcDbBlockEnd
  0
BLOCK
  5
237
330
22D
100
AcDbEntity
  8
0
100
AcDbBlockBegin
  2
*D16
 70
     1
 10
0.0
 20
0.0
 30
0.0
  3
*D16
  1

  0
LINE
  5
22E
330
22D
100
AcDbEntity
  8
寸法
 62
     0
370
    15
100
AcDbLine
 10
680.9139716591918
 20
1132.255449416917
 30
0.0
 11
680.9139716591918
 21
1092.255449416917
 31
0.0
  0
LINE
  5
22F
330
22D
100
AcDbEntity
  8
寸法
 62
     0
370
    15
100
AcDbLine
 10
724.4139716591917
 20
1132.255449416917
 30
0.0
 11
724.4139716591917
 21
1092.255449416917
 31
0.0
  0
LINE
  5
230
330
22D
100
AcDbEntity
  8
寸法
 62
     0
370
    15
100
AcDbLine
 10
680.9139716591918
 20
1092.255449416917
 30
0.0
 11
724.4139716591917
 21
1092.255449416917
 31
0.0
  0
MTEXT
  5
231
330
22D
100
AcDbEntity
  8
寸法
 62
     0
100
AcDbMText
 10
702.6639716591916
 20
1035.255449416917
 30
0.0
 40
28.0
 41
0.0
 71
     5
 72
     1
  1
43.5
 73
     1
 44
1.0
1001
ACAD
1000
MTEXTBEGIN
1070
    73
1070
     1
1070
    44
1040
1.0
1070
    74
1070
     0
1000
MTEXTEND
  0
INSERT
  5
232
330
22D
100
AcDbEntity
  8
寸法
 62
     0
370
    15
100
AcDbBlockReference
  2
_DotSmall
 10
680.9139716591918
 20
1092.255449416917
 30
0.0
 41
35.0
 42
35.0
 43
35.0
 50
180.0
  0
INSERT
  5
233
330
22D
100
AcDbEntity
  8
寸法
 62
     0
370
    15
100
AcDbBlockReference
  2
_DotSmall
 10
724.4139716591917
 20
1092.255449416917
 30
0.0
 41
35.0
 42
35.0
 43
35.0
  0
POINT
  5
234
330
22D
100
AcDbEntity
  8
Defpoints
 62
     0
100
AcDbPoint
 10
680.9139716591918
 20
1197.255449416917
 30
0.0
  0
POINT
  5
235
330
22D
100
AcDbEntity
  8
Defpoints
 62
     0
100
AcDbPoint
 10
724.4139716591917
 20
1197.255449416917
 30
0.0
  0
POINT
  5
236
330
22D
100
AcDbEntity
  8
Defpoints
 62
     0
100
AcDbPoint
 10
724.4139716591917
 20
1092.255449416917
 30
0.0
  0
ENDBLK
  5
238
330
22D
100
AcDbEntity
  8
0
100
AcDbBlockEnd
  0
BLOCK
  5
243
330
239
100
AcDbEntity
  8
0
100
AcDbBlockBegin
  2
*D17
 70
     1
 10
0.0
 20
0.0
 30
0.0
  3
*D17
  1

  0
LINE
  5
23A
330
239
100
AcDbEntity
  8
寸法
 62
     0
370
    15
100
AcDbLine
 10
1363.637749141451
 20
1724.255449416917
 30
0.0
 11
1363.637749141451
 21
1755.991553156869
 31
0.0
  0
LINE
  5
23B
330
239
100
AcDbEntity
  8
寸法
 62
     0
370
    15
100
AcDbLine
 10
1376.637749141451
 20
1724.255449416917
 30
0.0
 11
1376.637749141451
 21
1755.991553156869
 31
0.0
  0
LINE
  5
23C
330
239
100
AcDbEntity
  8
寸法
 62
     0
370
    15
100
AcDbLine
 10
1363.637749141451
 20
1755.991553156869
 30
0.0
 11
1376.637749141451
 21
1755.991553156869
 31
0.0
  0
MTEXT
  5
23D
330
239
100
AcDbEntity
  8
寸法
 62
     0
100
AcDbMText
 10
1333.076378502883
 20
1758.584106371272
 30
0.0
 40
28.0
 41
0.0
 71
     5
 72
     1
  1
13
 73
     1
 44
1.0
1001
ACAD
1000
MTEXTBEGIN
1070
    73
1070
     1
1070
    44
1040
1.0
1070
    74
1070
     0
1000
MTEXTEND
  0
INSERT
  5
23E
330
239
100
AcDbEntity
  8
寸法
 62
     0
370
    15
100
AcDbBlockReference
  2
_DotSmall
 10
1363.637749141451
 20
1755.991553156869
 30
0.0
 41
35.0
 42
35.0
 43
35.0
 50
180.0
  0
INSERT
  5
23F
330
239
100
AcDbEntity
  8
寸法
 62
     0
370
    15
100
AcDbBlockReference
  2
_DotSmall
 10
1376.637749141451
 20
1755.991553156869
 30
0.0
 41
35.0
 42
35.0
 43
35.0
  0
POINT
  5
240
330
239
100
AcDbEntity
  8
Defpoints
 62
     0
100
AcDbPoint
 10
1363.637749141451
 20
1659.255449416917
 30
0.0
  0
POINT
  5
241
330
239
100
AcDbEntity
  8
Defpoints
 62
     0
100
AcDbPoint
 10
1376.637749141451
 20
1659.255449416917
 30
0.0
  0
POINT
  5
242
330
239
100
AcDbEntity
  8
Defpoints
 62
     0
100
AcDbPoint
 10
1376.637749141451
 20
1755.991553156869
 30
0.0
  0
ENDBLK
  5
244
330
239
100
AcDbEntity
  8
0
100
AcDbBlockEnd
  0
BLOCK
  5
24D
330
245
100
AcDbEntity
  8
0
100
AcDbBlockBegin
  2
*D18
 70
     1
 10
0.0
 20
0.0
 30
0.0
  3
*D18
  1

  0
LINE
  5
246
330
245
100
AcDbEntity
  8
寸法
 62
     0
370
    15
100
AcDbLine
 10
1376.637749141451
 20
1724.255449416917
 30
0.0
 11
1376.637749141451
 21
1755.991553156869
 31
0.0
  0
LINE
  5
247
330
245
100
AcDbEntity
  8
寸法
 62
     0
370
    15
100
AcDbLine
 10
1380.637749141451
 20
1724.255449416917
 30
0.0
 11
1380.637749141451
 21
1755.991553156869
 31
0.0
  0
MTEXT
  5
248
330
245
100
AcDbEntity
  8
寸法
 62
     0
100
AcDbMText
 10
1405.713654616382
 20
1762.213108247611
 30
0.0
 40
28.0
 41
0.0
 71
     5
 72
     1
  1
2
 73
     1
 44
1.0
1001
ACAD
1000
MTEXTBEGIN
1070
    73
1070
     1
1070
    44
1040
1.0
1070
    74
1070
     0
1000
MTEXTEND
  0
LINE
  5
249
330
245
100
AcDbEntity
  8
寸法
 62
     0
370
    15
100
AcDbLine
 10
1376.637749141451
 20
1755.991553156869
 30
0.0
 11
1380.637749141451
 21
1755.991553156869
 31
0.0
  0
POINT
  5
24A
330
245
100
AcDbEntity
  8
Defpoints
 62
     0
100
AcDbPoint
 10
1376.637749141451
 20
1659.255449416917
 30
0.0
  0
POINT
  5
24B
330
245
100
AcDbEntity
  8
Defpoints
 62
     0
100
AcDbPoint
 10
1380.637749141451
 20
1659.255449416917
 30
0.0
  0
POINT
  5
24C
330
245
100
AcDbEntity
  8
Defpoints
 62
     0
100
AcDbPoint
 10
1380.637749141451
 20
1755.991553156869
 30
0.0
  0
ENDBLK
  5
24E
330
245
100
AcDbEntity
  8
0
100
AcDbBlockEnd
  0
BLOCK
  5
257
330
24F
100
AcDbEntity
  8
0
100
AcDbBlockBegin
  2
*D19
 70
     1
 10
0.0
 20
0.0
 30
0.0
  3
*D19
  1

  0
LINE
  5
250
330
24F
100
AcDbEntity
  8
寸法
 62
     0
370
    15
100
AcDbLine
 10
1363.637749141451
 20
1724.255449416917
 30
0.0
 11
1363.637749141451
 21
1793.319452141877
 31
0.0
  0
LINE
  5
251
330
24F
100
AcDbEntity
  8
寸法
 62
     0
370
    15
100
AcDbLine
 10
1380.637749141451
 20
1724.255449416917
 30
0.0
 11
1380.637749141451
 21
1793.319452141877
 31
0.0
  0
MTEXT
  5
252
330
24F
100
AcDbEntity
  8
寸法
 62
     0
100
AcDbMText
 10
1372.137749141451
 20
1828.319452141877
 30
0.0
 40
28.0
 41
0.0
 71
     5
 72
     1
  1
15
 73
     1
 44
1.0
1001
ACAD
1000
MTEXTBEGIN
1070
    73
1070
     1
1070
    44
1040
1.0
1070
    74
1070
     0
1000
MTEXTEND
  0
LINE
  5
253
330
24F
100
AcDbEntity
  8
寸法
 62
     0
370
    15
100
AcDbLine
 10
1363.637749141451
 20
1793.319452141877
 30
0.0
 11
1380.637749141451
 21
1793.319452141877
 31
0.0
  0
POINT
  5
254
330
24F
100
AcDbEntity
  8
Defpoints
 62
     0
100
AcDbPoint
 10
1363.637749141451
 20
1659.255449416917
 30
0.0
  0
POINT
  5
255
330
24F
100
AcDbEntity
  8
Defpoints
 62
     0
100
AcDbPoint
 10
1380.637749141451
 20
1659.255449416917
 30
0.0
  0
POINT
  5
256
330
24F
100
AcDbEntity
  8
Defpoints
 62
     0
100
AcDbPoint
 10
1380.637749141451
 20
1793.319452141877
 30
0.0
  0
ENDBLK
  5
258
330
24F
100
AcDbEntity
  8
0
100
AcDbBlockEnd
  0
BLOCK
  5
263
330
259
100
AcDbEntity
  8
0
100
AcDbBlockBegin
  2
*D20
 70
     1
 10
0.0
 20
0.0
 30
0.0
  3
*D20
  1

  0
LINE
  5
25A
330
259
100
AcDbEntity
  8
寸法
 62
     0
370
    15
100
AcDbLine
 10
1005.913971659191
 20
1618.735449416917
 30
0.0
 11
1046.244311045857
 21
1618.735449416917
 31
0.0
  0
LINE
  5
25B
330
259
100
AcDbEntity
  8
寸法
 62
     0
370
    15
100
AcDbLine
 10
1005.913971659191
 20
1564.735449416917
 30
0.0
 11
1046.244311045857
 21
1564.735449416917
 31
0.0
  0
LINE
  5
25C
330
259
100
AcDbEntity
  8
寸法
 62
     0
370
    15
100
AcDbLine
 10
1046.244311045857
 20
1618.735449416917
 30
0.0
 11
1046.244311045857
 21
1564.735449416917
 31
0.0
  0
MTEXT
  5
25D
330
259
100
AcDbEntity
  8
寸法
 62
     0
100
AcDbMText
 10
1125.798564941002
 20
1543.508469772938
 30
0.0
 40
28.0
 41
0.0
 71
     5
 72
     1
  1
54
 11
0.0000000000000001
 21
1.0
 31
0.0
 73
     1
 44
1.0
1001
ACAD
1000
MTEXTBEGIN
1070
    73
1070
     1
1070
    44
1040
1.0
1070
    74
1070
     0
1000
MTEXTEND
  0
INSERT
  5
25E
330
259
100
AcDbEntity
  8
寸法
 62
     0
370
    15
100
AcDbBlockReference
  2
_DotSmall
 10
1046.244311045857
 20
1618.735449416917
 30
0.0
 41
35.0
 42
35.0
 43
35.0
 50
90.0
  0
INSERT
  5
25F
330
259
100
AcDbEntity
  8
寸法
 62
     0
370
    15
100
AcDbBlockReference
  2
_DotSmall
 10
1046.244311045857
 20
1564.735449416917
 30
0.0
 41
35.0
 42
35.0
 43
35.0
 50
270.0
  0
POINT
  5
260
330
259
100
AcDbEntity
  8
Defpoints
 62
     0
100
AcDbPoint
 10
940.9139716591917
 20
1618.735449416917
 30
0.0
  0
POINT
  5
261
330
259
100
AcDbEntity
  8
Defpoints
 62
     0
100
AcDbPoint
 10
940.9139716591917
 20
1564.735449416917
 30
0.0
  0
POINT
  5
262
330
259
100
AcDbEntity
  8
Defpoints
 62
     0
100
AcDbPoint
 10
1046.244311045857
 20
1564.735449416917
 30
0.0
  0
ENDBLK
  5
264
330
259
100
AcDbEntity
  8
0
100
AcDbBlockEnd
  0
BLOCK
  5
26E
330
265
100
AcDbEntity
  8
0
100
AcDbBlockBegin
  2
*D21
 70
     1
 10
0.0
 20
0.0
 30
0.0
  3
*D21
  1

  0
LINE
  5
266
330
265
100
AcDbEntity
  8
寸法
 62
     0
370
    15
100
AcDbLine
 10
1005.913971659191
 20
1564.735449416917
 30
0.0
 11
1046.244311045857
 21
1564.735449416917
 31
0.0
  0
LINE
  5
267
330
265
100
AcDbEntity
  8
寸法
 62
     0
370
    15
100
AcDbLine
 10
1005.913971659191
 20
1510.735449416917
 30
0.0
 11
1046.244311045857
 21
1510.735449416917
 31
0.0
  0
LINE
  5
268
330
265
100
AcDbEntity
  8
寸法
 62
     0
370
    15
100
AcDbLine
 10
1046.244311045857
 20
1564.735449416917
 30
0.0
 11
1046.244311045857
 21
1510.735449416917
 31
0.0
  0
INSERT
  5
269
330
265
100
AcDbEntity
  8
寸法
 62
     0
370
    15
100
AcDbBlockReference
  2
_DotSmall
 10
1046.244311045857
 20
1564.735449416917
 30
0.0
 41
35.0
 42
35.0
 43
35.0
 50
90.0
  0
INSERT
  5
26A
330
265
100
AcDbEntity
  8
寸法
 62
     0
370
    15
100
AcDbBlockReference
  2
_DotSmall
 10
1046.244311045857
 20
1510.735449416917
 30
0.0
 41
35.0
 42
35.0
 43
35.0
 50
270.0
  0
POINT
  5
26B
330
265
100
AcDbEntity
  8
Defpoints
 62
     0
100
AcDbPoint
 10
940.9139716591917
 20
1564.735449416917
 30
0.0
  0
POINT
  5
26C
330
265
100
AcDbEntity
  8
Defpoints
 62
     0
100
AcDbPoint
 10
940.9139716591917
 20
1510.735449416917
 30
0.0
  0
POINT
  5
26D
330
265
100
AcDbEntity
  8
Defpoints
 62
     0
100
AcDbPoint
 10
1046.244311045857
 20
1510.735449416917
 30
0.0
  0
ENDBLK
  5
26F
330
265
100
AcDbEntity
  8
0
100
AcDbBlockEnd
  0
BLOCK
  5
27A
330
270
100
AcDbEntity
  8
0
100
AcDbBlockBegin
  2
*D22
 70
     1
 10
0.0
 20
0.0
 30
0.0
  3
*D22
  1

  0
LINE
  5
271
330
270
100
AcDbEntity
  8
寸法
 62
     0
370
    15
100
AcDbLine
 10
724.4139716591917
 20
1132.255449416917
 30
0.0
 11
724.4139716591917
 21
1091.550228255056
 31
0.0
  0
LINE
  5
272
330
270
100
AcDbEntity
  8
寸法
 62
     0
370
    15
100
AcDbLine
 10
782.0739716591917
 20
1132.255449416917
 30
0.0
 11
782.0739716591917
 21
1091.550228255056
 31
0.0
  0
LINE
  5
273
330
270
100
AcDbEntity
  8
寸法
 62
     0
370
    15
100
AcDbLine
 10
724.4139716591917
 20
1091.550228255056
 30
0.0
 11
782.0739716591917
 21
1091.550228255056
 31
0.0
  0
MTEXT
  5
274
330
270
100
AcDbEntity
  8
寸法
 62
     0
100
AcDbMText
 10
861.5510451311674
 20
1020.907591319078
 30
0.0
 40
28.0
 41
0.0
 71
     5
 72
     1
  1
57.66
 73
     1
 44
1.0
1001
ACAD
1000
MTEXTBEGIN
1070
    73
1070
     1
1070
    44
1040
1.0
1070
    74
1070
     0
1000
MTEXTEND
  0
INSERT
  5
275
330
270
100
AcDbEntity
  8
寸法
 62
     0
370
    15
100
AcDbBlockReference
  2
_DotSmall
 10
724.4139716591917
 20
1091.550228255056
 30
0.0
 41
35.0
 42
35.0
 43
35.0
 50
180.0
  0
INSERT
  5
276
330
270
100
AcDbEntity
  8
寸法
 62
     0
370
    15
100
AcDbBlockReference
  2
_DotSmall
 10
782.0739716591917
 20
1091.550228255056
 30
0.0
 41
35.0
 42
35.0
 43
35.0
  0
POINT
  5
277
330
270
100
AcDbEntity
  8
Defpoints
 62
     0
100
AcDbPoint
 10
724.4139716591917
 20
1197.255449416917
 30
0.0
  0
POINT
  5
278
330
270
100
AcDbEntity
  8
Defpoints
 62
     0
100
AcDbPoint
 10
782.0739716591917
 20
1197.255449416917
 30
0.0
  0
POINT
  5
279
330
270
100
AcDbEntity
  8
Defpoints
 62
     0
100
AcDbPoint
 10
782.0739716591917
 20
1091.550228255056
 30
0.0
  0
ENDBLK
  5
27B
330
270
100
AcDbEntity
  8
0
100
AcDbBlockEnd
  0
BLOCK
  5
285
330
27C
100
AcDbEntity
  8
0
100
AcDbBlockBegin
  2
*D23
 70
     1
 10
0.0
 20
0.0
 30
0.0
  3
*D23
  1

  0
LINE
  5
27D
330
27C
100
AcDbEntity
  8
寸法
 62
     0
370
    15
100
AcDbLine
 10
782.0739716591917
 20
1132.255449416917
 30
0.0
 11
782.0739716591917
 21
1091.550228255056
 31
0.0
  0
LINE
  5
27E
330
27C
100
AcDbEntity
  8
寸法
 62
     0
370
    15
100
AcDbLine
 10
839.7339716591917
 20
1132.255449416917
 30
0.0
 11
839.7339716591917
 21
1091.550228255056
 31
0.0
  0
LINE
  5
27F
330
27C
100
AcDbEntity
  8
寸法
 62
     0
370
    15
100
AcDbLine
 10
782.0739716591917
 20
1091.550228255056
 30
0.0
 11
839.7339716591917
 21
1091.550228255056
 31
0.0
  0
INSERT
  5
280
330
27C
100
AcDbEntity
  8
寸法
 62
     0
370
    15
100
AcDbBlockReference
  2
_DotSmall
 10
782.0739716591917
 20
1091.550228255056
 30
0.0
 41
35.0
 42
35.0
 43
35.0
 50
180.0
  0
INSERT
  5
281
330
27C
100
AcDbEntity
  8
寸法
 62
     0
370
    15
100
AcDbBlockReference
  2
_DotSmall
 10
839.7339716591917
 20
1091.550228255056
 30
0.0
 41
35.0
 42
35.0
 43
35.0
  0
POINT
  5
282
330
27C
100
AcDbEntity
  8
Defpoints
 62
     0
100
AcDbPoint
 10
782.0739716591917
 20
1197.255449416917
 30
0.0
  0
POINT
  5
283
330
27C
100
AcDbEntity
  8
Defpoints
 62
     0
100
AcDbPoint
 10
839.7339716591917
 20
1197.255449416917
 30
0.0
  0
POINT
  5
284
330
27C
100
AcDbEntity
  8
Defpoints
 62
     0
100
AcDbPoint
 10
839.7339716591917
 20
1091.550228255056
 30
0.0
  0
ENDBLK
  5
286
330
27C
100
AcDbEntity
  8
0
100
AcDbBlockEnd
  0
BLOCK
  5
306
330
288
100
AcDbEntity
  8
0
100
AcDbBlockBegin
  2
A$C62781F4B
 70
     0
 10
0.0
 20
0.0
 30
0.0
  3
A$C62781F4B
  1

  0
LINE
  5
289
330
288
100
AcDbEntity
  8
センター
 48
0.5
100
AcDbLine
 10
499.8862293577467
 20
503.827855776612
 30
0.0
 11
307.4105717394013
 21
503.827855776612
 31
0.0
  0
LINE
  5
28A
330
288
100
AcDbEntity
  8
センター
 48
0.5
100
AcDbLine
 10
499.8862293577467
 20
557.827855776612
 30
0.0
 11
307.4105717394013
 21
557.827855776612
 31
0.0
  0
LEADER
  5
28B
330
288
100
AcDbEntity
  8
寸法
100
AcDbLeader
  3
ISO-25
 76
     2
 10
399.5905168091785
 20
339.2599695150839
 30
0.0
 10
473.6334800632439
 20
317.1223521229454
 30
0.0
1001
ACAD
1000
DSTYLE
1002
{
1070
   147
1040
6.25
1070
    77
1070
     0
1070
    41
1040
20.0
1070
   279
1070
     2
1002
}
  0
LEADER
  5
28C
330
288
100
AcDbEntity
  8
寸法
100
AcDbLeader
  3
ISO-25
 76
     2
 10
417.6435936228126
 20
192.7030065775375
 30
0.0
 10
430.8585640853935
 20
97.16438416795927
 30
0.0
1001
ACAD
1000
DSTYLE
1002
{
1070
   147
1040
6.25
1070
    77
1070
     0
1070
    41
1040
25.0
1070
   279
1070
     2
1002
}
  0
LEADER
  5
28D
330
288
100
AcDbEntity
  8
寸法
100
AcDbLeader
  3
ISO-25
 76
     2
 10
412.9794931889291
 20
212.8981628784991
 30
0.0
 10
499.2654254011458
 20
152.3126939756134
 30
0.0
1001
ACAD
1000
DSTYLE
1002
{
1070
   147
1040
6.25
1070
    77
1070
     0
1070
    41
1040
25.0
1070
   279
1070
     2
1002
}
  0
LEADER
  5
28E
330
288
100
AcDbEntity
  8
寸法
100
AcDbLeader
  3
ISO-25
 76
     2
 10
409.8700874044598
 20
225.3259517335305
 30
0.0
 10
493.0466220750286
 20
212.8981628784991
 30
0.0
1001
ACAD
1000
DSTYLE
1002
{
1070
   147
1040
6.25
1070
    77
1070
     0
1070
    41
1040
25.0
1070
   279
1070
     2
1002
}
  0
LINE
  5
28F
330
288
100
AcDbEntity
  8
センター
 48
0.5
100
AcDbLine
 10
499.8862293577467
 20
611.827855776612
 30
0.0
 11
307.4105717394013
 21
611.827855776612
 31
0.0
  0
DIMENSION
  5
290
330
288
100
AcDbEntity
  8
寸法
100
AcDbDimension
  2
*D12
 10
434.8862293577467
 20
794.2508530045243
 30
0.0
 11
304.8862293577467
 21
818.2508530045243
 31
0.0
 12
-506.0277423014449
 22
-1006.907593640305
 32
0.0
 71
     5
 42
260.0
  3
ISO-25
100
AcDbAlignedDimension
 13
174.8862293577467
 23
655.347855776612
 33
0.0
 14
434.8862293577467
 24
655.347855776612
 34
0.0
100
AcDbRotatedDimension
1001
ACAD
1000
DSTYLE
1002
{
1070
   147
1040
10.0
1070
   140
1040
28.0
1070
    41
1040
35.0
1070
   279
1070
     2
1002
}
  0
DIMENSION
  5
291
330
288
100
AcDbEntity
  8
寸法
100
AcDbDimension
  2
*D11
 10
434.8862293577467
 20
752.044885863529
 30
0.0
 11
461.9972777995708
 21
752.044885863529
 31
0.0
 12
-506.0277423014449
 22
-1006.907593640305
 32
0.0
 70
   128
 71
     5
 42
15.0
  3
ISO-25
100
AcDbAlignedDimension
 13
419.8862293577467
 23
655.347855776612
 33
0.0
 14
434.8862293577467
 24
655.347855776612
 34
0.0
100
AcDbRotatedDimension
1001
ACAD
1000
DSTYLE
1002
{
1070
   147
1040
6.25
1070
   140
1040
28.0
1070
    41
1040
35.0
1070
   279
1070
     2
1002
}
  0
ARC
  5
292
330
288
100
AcDbEntity
  8
実形
100
AcDbCircle
 10
389.8862293577466
 20
235.347855776612
 30
0.0
 40
30.0
100
AcDbArc
 50
270.0
 51
0.0
  0
ARC
  5
293
330
288
100
AcDbEntity
  8
実形
100
AcDbCircle
 10
389.8862293577467
 20
610.347855776612
 30
0.0
 40
30.0
100
AcDbArc
 50
0.0
 51
90.0
  0
ARC
  5
294
330
288
100
AcDbEntity
  8
実形
100
AcDbCircle
 10
404.8862293577467
 20
625.3478557766122
 30
0.0
 40
30.0
100
AcDbArc
 50
0.0
 51
90.0
  0
ARC
  5
295
330
288
100
AcDbEntity
  8
実形
100
AcDbCircle
 10
404.8862293577467
 20
220.3478557766118
 30
0.0
 40
30.0
100
AcDbArc
 50
270.0
 51
0.0
  0
DIMENSION
  5
296
330
288
100
AcDbEntity
  8
寸法
100
AcDbDimension
  2
*D7
 10
37.99999609311544
 20
190.347855776612
 30
0.0
 11
13.99999609311533
 21
422.8478557766123
 31
0.0
 12
-506.0277423014449
 22
-1006.907593640305
 32
0.0
 71
     5
 42
465.0
  3
ISO-25
100
AcDbAlignedDimension
 13
174.8862293577467
 23
655.347855776612
 33
0.0
 14
174.8862293577467
 24
190.347855776612
 34
0.0
 50
90.0
100
AcDbRotatedDimension
1001
ACAD
1000
DSTYLE
1002
{
1070
   147
1040
10.0
1070
   140
1040
28.0
1070
    41
1040
35.0
1070
   279
1070
     2
1002
}
  0
LINE
  5
297
330
288
100
AcDbEntity
  8
実形
100
AcDbLine
 10
174.8862293577467
 20
625.347855776612
 30
0.0
 11
174.8862293577467
 21
220.3478557766123
 31
0.0
  0
LINE
  5
298
330
288
100
AcDbEntity
  8
実形
100
AcDbLine
 10
189.8862293577467
 20
610.3478557766123
 30
0.0
 11
189.8862293577467
 21
235.347855776612
 31
0.0
  0
LINE
  5
299
330
288
100
AcDbEntity
  8
実形
100
AcDbLine
 10
419.8862293577466
 20
235.347855776612
 30
0.0
 11
419.8862293577467
 21
610.347855776612
 31
0.0
  0
LINE
  5
29A
330
288
100
AcDbEntity
  8
実形
100
AcDbLine
 10
196.8862293577467
 20
610.3478557766118
 30
0.0
 11
196.8862293577467
 21
235.3478557766118
 31
0.0
  0
LINE
  5
29B
330
288
100
AcDbEntity
  8
実形
100
AcDbLine
 10
412.8862293577467
 20
235.347855776612
 30
0.0
 11
412.8862293577467
 21
610.347855776612
 31
0.0
  0
DIMENSION
  5
29C
330
288
100
AcDbEntity
  8
寸法
100
AcDbDimension
  2
*D22
 10
276.0462293577467
 20
84.64263461475093
 30
0.0
 11
355.5233028297225
 21
13.99999767877307
 31
0.0
 12
-506.0277423014449
 22
-1006.907593640305
 32
0.0
 70
   128
 71
     5
 42
57.65999999999997
  3
ISO-25
100
AcDbAlignedDimension
 13
218.3862293577468
 23
190.3478557766123
 33
0.0
 14
276.0462293577467
 24
190.347855776612
 34
0.0
100
AcDbRotatedDimension
1001
ACAD
1000
DSTYLE
1002
{
1070
   140
1040
28.0
1070
   147
1040
10.0
1070
   279
1070
     2
1002
}
  0
LEADER
  5
29D
330
288
100
AcDbEntity
  8
センター
100
AcDbLeader
  3
ISO-25
 76
     2
 10
297.8626890319128
 20
81.20530182929314
 30
0.0
 10
307.2925238626676
 20
38.28108336864671
 30
0.0
1001
ACAD
1000
DSTYLE
1002
{
1070
   147
1040
6.25
1070
    77
1070
     0
1070
    41
1040
20.0
1070
   279
1070
     2
1002
}
  0
LEADER
  5
29E
330
288
100
AcDbEntity
  8
センター
100
AcDbLeader
  3
ISO-25
 76
     2
 10
247.5702228631826
 20
79.11143889200366
 30
0.0
 10
297.8626890319128
 20
35.14028896271202
 30
0.0
1001
ACAD
1000
DSTYLE
1002
{
1070
   147
1040
6.25
1070
    77
1070
     0
1070
    41
1040
20.0
1070
   279
1070
     2
1002
}
  0
DIMENSION
  5
29F
330
288
100
AcDbEntity
  8
寸法
100
AcDbDimension
  2
*D16
 10
218.3862293577468
 20
85.34785577661205
 30
0.0
 11
196.6362293577467
 21
28.34785577661205
 31
0.0
 12
-506.0277423014449
 22
-1006.907593640305
 32
0.0
 71
     5
 42
43.49999999999988
  3
ISO-25
100
AcDbAlignedDimension
 13
174.8862293577468
 23
190.347855776612
 33
0.0
 14
218.3862293577468
 24
190.347855776612
 34
0.0
100
AcDbRotatedDimension
1001
ACAD
1000
DSTYLE
1002
{
1070
   147
1040
10.0
1070
   140
1040
28.0
1070
    41
1040
35.0
1070
   279
1070
     2
1002
}
  0
LWPOLYLINE
  5
2A0
330
288
100
AcDbEntity
  8
センター
100
AcDbPolyline
 90
        3
 70
     1
 43
0.0
 10
133.3158439736562
 20
422.8478557766118
 10
118.2655726828234
 20
431.5371339577511
 10
118.2655726828234
 20
414.1585775954727
  0
DIMENSION
  5
2A1
330
288
100
AcDbEntity
  8
寸法
100
AcDbDimension
  2
*D6
 10
80.82755284607902
 20
190.347855776612
 30
0.0
 11
78.76404974580418
 21
154.1425534361779
 31
0.0
 12
-506.0277423014449
 22
-1006.907593640305
 32
0.0
 70
   128
 71
     5
 42
15.0
  3
ISO-25
100
AcDbAlignedDimension
 13
174.8862293577467
 23
205.347855776612
 33
0.0
 14
174.8862293577467
 24
190.347855776612
 34
0.0
 50
90.0
100
AcDbRotatedDimension
1001
ACAD
1000
DSTYLE
1002
{
1070
   147
1040
6.25
1070
   140
1040
28.0
1070
    41
1040
35.0
1070
   279
1070
     2
1002
}
  0
DIMENSION
  5
2A2
330
288
100
AcDbEntity
  8
寸法
100
AcDbDimension
  2
*D5
 10
80.82755284607902
 20
205.347855776612
 30
0.0
 11
81.08150914205088
 21
237.5060764899617
 31
0.0
 12
-506.0277423014449
 22
-1006.907593640305
 32
0.0
 70
   128
 71
     5
 42
7.0
  3
ISO-25
100
AcDbAlignedDimension
 13
174.8862293577467
 23
212.347855776612
 33
0.0
 14
174.8862293577467
 24
205.347855776612
 34
0.0
 50
90.0
100
AcDbRotatedDimension
1001
ACAD
1000
DSTYLE
1002
{
1070
   147
1040
6.25
1070
   140
1040
28.0
1070
   282
1070
     1
1070
   281
1070
     1
1070
    76
1070
     1
1070
    75
1070
     0
1070
    41
1040
35.0
1070
   279
1070
     2
1002
}
  0
HATCH
  5
2A3
330
288
100
AcDbEntity
  8
寸法
100
AcDbHatch
 10
0.0
 20
0.0
 30
0.0
210
0.0
220
0.0
230
1.0
  2
SOLID
 70
     1
 71
     0
 91
        1
 92
        7
 72
     1
 73
     1
 93
        2
 10
85.32755284607901
 20
212.347855776612
 42
1.0
 10
76.32755284607902
 20
212.347855776612
 42
1.0
 97
        0
 75
     0
 76
     1
 47
0.3540287008603371
 98
        1
 10
82.59909835822417
 20
210.9317392288167
  0
LINE
  5
2A4
330
288
100
AcDbEntity
  8
センター
100
AcDbLine
 10
335.8937293577467
 20
84.64263461475093
 30
0.0
 11
373.4002118051904
 21
84.64263461475093
 31
0.0
  0
DIMENSION
  5
2A5
330
288
100
AcDbEntity
  8
寸法
100
AcDbDimension
  2
*D23
 10
333.7062293577467
 20
84.64263461475093
 30
0.0
 11
304.8762293577468
 21
84.64263461475093
 31
0.0
 12
-506.0277423014449
 22
-1006.907593640305
 32
0.0
  1
 
 71
     5
 42
57.65999999999997
  3
ISO-25
100
AcDbAlignedDimension
 13
276.0462293577467
 23
190.347855776612
 33
0.0
 14
333.7062293577467
 24
190.347855776612
 34
0.0
100
AcDbRotatedDimension
1001
ACAD
1000
DSTYLE
1002
{
1070
   140
1040
28.0
1070
   147
1040
10.0
1070
   279
1070
     2
1002
}
  0
LINE
  5
2A6
330
288
100
AcDbEntity
  8
センター
 48
0.5
100
AcDbLine
 10
333.7062293577467
 20
125.347855776612
 30
0.0
 11
333.7062293577467
 21
313.4578307052914
 31
0.0
  0
LINE
  5
2A7
330
288
100
AcDbEntity
  8
センター
 48
0.5
100
AcDbLine
 10
276.0462293577467
 20
125.347855776612
 30
0.0
 11
276.0462293577467
 21
313.4578307052914
 31
0.0
  0
CIRCLE
  5
2A8
330
288
100
AcDbEntity
  8
寸法
100
AcDbCircle
 10
391.3662293577468
 20
449.847855776612
 30
0.0
 40
5.0
  0
CIRCLE
  5
2A9
330
288
100
AcDbEntity
  8
寸法
100
AcDbCircle
 10
391.3662293577468
 20
395.8478557766121
 30
0.0
 40
5.0
  0
CIRCLE
  5
2AA
330
288
100
AcDbEntity
  8
寸法
100
AcDbCircle
 10
391.3662293577468
 20
341.8478557766121
 30
0.0
 40
5.0
  0
CIRCLE
  5
2AB
330
288
100
AcDbEntity
  8
寸法
100
AcDbCircle
 10
391.3662293577468
 20
287.8478557766121
 30
0.0
 40
5.0
  0
CIRCLE
  5
2AC
330
288
100
AcDbEntity
  8
寸法
100
AcDbCircle
 10
391.3662293577468
 20
233.8478557766121
 30
0.0
 40
5.0
  0
CIRCLE
  5
2AD
330
288
100
AcDbEntity
  8
寸法
100
AcDbCircle
 10
333.7062293577467
 20
449.847855776612
 30
0.0
 40
5.0
  0
CIRCLE
  5
2AE
330
288
100
AcDbEntity
  8
寸法
100
AcDbCircle
 10
333.7062293577467
 20
395.8478557766121
 30
0.0
 40
5.0
  0
CIRCLE
  5
2AF
330
288
100
AcDbEntity
  8
寸法
100
AcDbCircle
 10
333.7062293577467
 20
341.8478557766121
 30
0.0
 40
5.0
  0
CIRCLE
  5
2B0
330
288
100
AcDbEntity
  8
寸法
100
AcDbCircle
 10
333.7062293577467
 20
287.8478557766121
 30
0.0
 40
5.0
  0
CIRCLE
  5
2B1
330
288
100
AcDbEntity
  8
寸法
100
AcDbCircle
 10
333.7062293577467
 20
233.8478557766121
 30
0.0
 40
5.0
  0
CIRCLE
  5
2B2
330
288
100
AcDbEntity
  8
寸法
100
AcDbCircle
 10
276.0462293577467
 20
449.847855776612
 30
0.0
 40
5.0
  0
CIRCLE
  5
2B3
330
288
100
AcDbEntity
  8
寸法
100
AcDbCircle
 10
276.0462293577467
 20
395.8478557766121
 30
0.0
 40
5.0
  0
CIRCLE
  5
2B4
330
288
100
AcDbEntity
  8
寸法
100
AcDbCircle
 10
276.0462293577467
 20
341.8478557766121
 30
0.0
 40
5.0
  0
CIRCLE
  5
2B5
330
288
100
AcDbEntity
  8
寸法
100
AcDbCircle
 10
276.0462293577467
 20
287.8478557766121
 30
0.0
 40
5.0
  0
CIRCLE
  5
2B6
330
288
100
AcDbEntity
  8
寸法
100
AcDbCircle
 10
276.0462293577467
 20
233.8478557766121
 30
0.0
 40
5.0
  0
CIRCLE
  5
2B7
330
288
100
AcDbEntity
  8
寸法
100
AcDbCircle
 10
218.3862293577468
 20
449.847855776612
 30
0.0
 40
5.0
  0
CIRCLE
  5
2B8
330
288
100
AcDbEntity
  8
寸法
100
AcDbCircle
 10
218.3862293577468
 20
395.8478557766121
 30
0.0
 40
5.0
  0
CIRCLE
  5
2B9
330
288
100
AcDbEntity
  8
寸法
100
AcDbCircle
 10
218.3862293577468
 20
341.8478557766121
 30
0.0
 40
5.0
  0
CIRCLE
  5
2BA
330
288
100
AcDbEntity
  8
寸法
100
AcDbCircle
 10
218.3862293577468
 20
287.8478557766121
 30
0.0
 40
5.0
  0
CIRCLE
  5
2BB
330
288
100
AcDbEntity
  8
寸法
100
AcDbCircle
 10
218.3862293577468
 20
233.8478557766121
 30
0.0
 40
5.0
  0
LWPOLYLINE
  5
2BC
330
288
100
AcDbEntity
  8
センター
100
AcDbPolyline
 90
        3
 70
     1
 43
0.0
 10
307.9174360085174
 20
161.7200001880644
 10
299.228157827378
 20
146.6697288972316
 10
316.6067141896565
 20
146.6697288972316
  0
LINE
  5
2BD
330
288
100
AcDbEntity
  8
センター
 48
0.5
100
AcDbLine
 10
218.3862293577468
 20
125.347855776612
 30
0.0
 11
218.3862293577468
 21
313.4578307052914
 31
0.0
  0
ARC
  5
2BE
330
288
100
AcDbEntity
  8
実形
100
AcDbCircle
 10
219.8862293577467
 20
235.3478557766118
 30
0.0
 40
23.0
100
AcDbArc
 50
180.0
 51
270.0
  0
ARC
  5
2BF
330
288
100
AcDbEntity
  8
実形
100
AcDbCircle
 10
389.8862293577467
 20
235.347855776612
 30
0.0
 40
23.0
100
AcDbArc
 50
270.0
 51
0.0
  0
ARC
  5
2C0
330
288
100
AcDbEntity
  8
実形
100
AcDbCircle
 10
219.8862293577467
 20
235.347855776612
 30
0.0
 40
30.0
100
AcDbArc
 50
180.0
 51
270.0
  0
ARC
  5
2C1
330
288
100
AcDbEntity
  8
実形
100
AcDbCircle
 10
204.8862293577467
 20
220.3478557766123
 30
0.0
 40
30.0
100
AcDbArc
 50
180.0
 51
270.0
  0
LINE
  5
2C2
330
288
100
AcDbEntity
  8
実形
100
AcDbLine
 10
204.8862293577467
 20
190.3478557766123
 30
0.0
 11
404.8862293577467
 21
190.3478557766118
 31
0.0
  0
LINE
  5
2C3
330
288
100
AcDbEntity
  8
実形
100
AcDbLine
 10
219.8862293577467
 20
205.347855776612
 30
0.0
 11
389.8862293577466
 21
205.347855776612
 31
0.0
  0
LINE
  5
2C4
330
288
100
AcDbEntity
  8
実形
100
AcDbLine
 10
219.8862293577467
 20
212.3478557766118
 30
0.0
 11
389.8862293577467
 21
212.347855776612
 31
0.0
  0
DIMENSION
  5
2C5
330
288
100
AcDbEntity
  8
寸法
100
AcDbDimension
  2
*D8
 10
189.8862293577467
 20
752.2447009419856
 30
0.0
 11
143.167591452845
 21
752.8509187320387
 31
0.0
 12
-506.0277423014449
 22
-1006.907593640305
 32
0.0
 70
   128
 71
     5
 42
15.0
  3
ISO-25
100
AcDbAlignedDimension
 13
174.8862293577467
 23
655.347855776612
 33
0.0
 14
189.8862293577467
 24
655.347855776612
 34
0.0
100
AcDbRotatedDimension
1001
ACAD
1000
DSTYLE
1002
{
1070
   147
1040
6.25
1070
   140
1040
28.0
1070
    41
1040
35.0
1070
   279
1070
     2
1002
}
  0
DIMENSION
  5
2C6
330
288
100
AcDbEntity
  8
寸法
100
AcDbDimension
  2
*D4
 10
80.64051278644274
 20
633.347855776612
 30
0.0
 11
81.08150914205088
 21
610.6433381070973
 31
0.0
 12
-506.0277423014449
 22
-1006.907593640305
 32
0.0
 70
   128
 71
     5
 42
7.0
  3
ISO-25
100
AcDbAlignedDimension
 13
174.8862293577467
 23
640.3478557766121
 33
0.0
 14
175.9725647681448
 24
633.347855776612
 34
0.0
 50
90.0
100
AcDbRotatedDimension
1001
ACAD
1000
DSTYLE
1002
{
1070
   147
1040
6.25
1070
   140
1040
28.0
1070
   282
1070
     1
1070
   281
1070
     1
1070
    76
1070
     0
1070
    75
1070
     1
1070
    41
1040
35.0
1070
   279
1070
     2
1002
}
  0
DIMENSION
  5
2C7
330
288
100
AcDbEntity
  8
寸法
100
AcDbDimension
  2
*D3
 10
80.64051278644274
 20
640.3478557766121
 30
0.0
 11
82.24023884016697
 21
687.0599503411003
 31
0.0
 12
-506.0277423014449
 22
-1006.907593640305
 32
0.0
 70
   128
 71
     5
 42
15.0
  3
ISO-25
100
AcDbAlignedDimension
 13
174.8862293577467
 23
655.347855776612
 33
0.0
 14
174.8862293577467
 24
640.3478557766121
 34
0.0
 50
90.0
100
AcDbRotatedDimension
1001
ACAD
1000
DSTYLE
1002
{
1070
   147
1040
6.25
1070
   140
1040
28.0
1070
    41
1040
35.0
1070
   279
1070
     2
1002
}
  0
HATCH
  5
2C8
330
288
100
AcDbEntity
  8
寸法
100
AcDbHatch
 10
0.0
 20
0.0
 30
0.0
210
0.0
220
0.0
230
1.0
  2
SOLID
 70
     1
 71
     0
 91
        1
 92
        7
 72
     1
 73
     1
 93
        2
 10
85.14051278644274
 20
633.347855776612
 42
1.0
 10
76.14051278644274
 20
633.347855776612
 42
1.0
 97
        0
 75
     0
 76
     1
 47
0.3540287008603371
 98
        1
 10
82.4120582985879
 20
631.9317392288167
  0
CIRCLE
  5
2C9
330
288
100
AcDbEntity
  8
寸法
100
AcDbCircle
 10
391.3662293577468
 20
611.847855776612
 30
0.0
 40
5.0
  0
CIRCLE
  5
2CA
330
288
100
AcDbEntity
  8
寸法
100
AcDbCircle
 10
391.3662293577468
 20
557.847855776612
 30
0.0
 40
5.0
  0
CIRCLE
  5
2CB
330
288
100
AcDbEntity
  8
寸法
100
AcDbCircle
 10
391.3662293577468
 20
503.847855776612
 30
0.0
 40
5.0
  0
CIRCLE
  5
2CC
330
288
100
AcDbEntity
  8
寸法
100
AcDbCircle
 10
333.7062293577467
 20
611.847855776612
 30
0.0
 40
5.0
  0
CIRCLE
  5
2CD
330
288
100
AcDbEntity
  8
寸法
100
AcDbCircle
 10
333.7062293577467
 20
557.847855776612
 30
0.0
 40
5.0
  0
CIRCLE
  5
2CE
330
288
100
AcDbEntity
  8
寸法
100
AcDbCircle
 10
333.7062293577467
 20
503.847855776612
 30
0.0
 40
5.0
  0
CIRCLE
  5
2CF
330
288
100
AcDbEntity
  8
寸法
100
AcDbCircle
 10
276.0462293577467
 20
611.847855776612
 30
0.0
 40
5.0
  0
CIRCLE
  5
2D0
330
288
100
AcDbEntity
  8
寸法
100
AcDbCircle
 10
276.0462293577467
 20
557.847855776612
 30
0.0
 40
5.0
  0
CIRCLE
  5
2D1
330
288
100
AcDbEntity
  8
寸法
100
AcDbCircle
 10
276.0462293577467
 20
503.847855776612
 30
0.0
 40
5.0
  0
CIRCLE
  5
2D2
330
288
100
AcDbEntity
  8
寸法
100
AcDbCircle
 10
218.3862293577468
 20
611.847855776612
 30
0.0
 40
5.0
  0
CIRCLE
  5
2D3
330
288
100
AcDbEntity
  8
寸法
100
AcDbCircle
 10
218.3862293577468
 20
557.847855776612
 30
0.0
 40
5.0
  0
CIRCLE
  5
2D4
330
288
100
AcDbEntity
  8
寸法
100
AcDbCircle
 10
218.3862293577468
 20
503.847855776612
 30
0.0
 40
5.0
  0
HATCH
  5
2D5
330
288
100
AcDbEntity
  8
寸法
100
AcDbHatch
 10
0.0
 20
0.0
 30
0.0
210
0.0
220
0.0
230
1.0
  2
SOLID
 70
     1
 71
     0
 91
        1
 92
        7
 72
     1
 73
     1
 93
        2
 10
416.6349213715448
 20
752.2447009419856
 42
1.0
 10
407.6349213715448
 20
752.2447009419856
 42
1.0
 97
        0
 75
     0
 76
     1
 47
0.3540287008603371
 98
        1
 10
413.9064668836899
 20
750.8285843941903
  0
HATCH
  5
2D6
330
288
100
AcDbEntity
  8
寸法
100
AcDbHatch
 10
0.0
 20
0.0
 30
0.0
210
0.0
220
0.0
230
1.0
  2
SOLID
 70
     1
 71
     0
 91
        1
 92
        7
 72
     1
 73
     1
 93
        2
 10
201.3862293577467
 20
752.2447009419856
 42
1.0
 10
192.3862293577467
 20
752.2447009419856
 42
1.0
 97
        0
 75
     0
 76
     1
 47
0.3540287008603371
 98
        1
 10
198.6577748698919
 20
750.8285843941903
  0
LWPOLYLINE
  5
2D7
330
288
100
AcDbEntity
  8
センター
100
AcDbPolyline
 90
        3
 70
     1
 43
0.0
 10
301.9150552641131
 20
701.974626358475
 10
293.2257770829738
 20
717.0248976493078
 10
310.6043334452522
 20
717.0248976493078
  0
DIMENSION
  5
2D8
330
288
100
AcDbEntity
  8
寸法
100
AcDbDimension
  2
*D10
 10
419.8862293577467
 20
752.044885863529
 30
0.0
 11
390.3412670796233
 21
752.044885863529
 31
0.0
 12
-506.0277423014449
 22
-1006.907593640305
 32
0.0
 70
   128
 71
     5
 42
7.0
  3
ISO-25
100
AcDbAlignedDimension
 13
412.8862293577467
 23
655.347855776612
 33
0.0
 14
419.8862293577467
 24
655.347855776612
 34
0.0
100
AcDbRotatedDimension
1001
ACAD
1000
DSTYLE
1002
{
1070
   147
1040
6.25
1070
   140
1040
28.0
1070
   282
1070
     1
1070
   281
1070
     1
1070
    41
1040
35.0
1070
   279
1070
     2
1002
}
  0
DIMENSION
  5
2D9
330
288
100
AcDbEntity
  8
寸法
100
AcDbDimension
  2
*D9
 10
196.8862293577467
 20
752.2447009419856
 30
0.0
 11
220.8233413044208
 21
753.4571365220918
 31
0.0
 12
-506.0277423014449
 22
-1006.907593640305
 32
0.0
 70
   128
 71
     5
 42
7.0
  3
ISO-25
100
AcDbAlignedDimension
 13
189.8862293577467
 23
655.347855776612
 33
0.0
 14
196.8862293577467
 24
655.347855776612
 34
0.0
100
AcDbRotatedDimension
1001
ACAD
1000
DSTYLE
1002
{
1070
   147
1040
6.25
1070
   140
1040
28.0
1070
   282
1070
     1
1070
   281
1070
     1
1070
    41
1040
35.0
1070
   279
1070
     2
1002
}
  0
ARC
  5
2DA
330
288
100
AcDbEntity
  8
実形
100
AcDbCircle
 10
219.8862293577467
 20
610.3478557766118
 30
0.0
 40
23.0
100
AcDbArc
 50
90.0
 51
180.0
  0
ARC
  5
2DB
330
288
100
AcDbEntity
  8
実形
100
AcDbCircle
 10
389.8862293577467
 20
610.347855776612
 30
0.0
 40
23.0
100
AcDbArc
 50
0.0
 51
90.0
  0
ARC
  5
2DC
330
288
100
AcDbEntity
  8
実形
100
AcDbCircle
 10
219.8862293577467
 20
610.3478557766123
 30
0.0
 40
30.0
100
AcDbArc
 50
90.0
 51
180.0
  0
ARC
  5
2DD
330
288
100
AcDbEntity
  8
実形
100
AcDbCircle
 10
204.8862293577467
 20
625.347855776612
 30
0.0
 40
30.0
100
AcDbArc
 50
90.0
 51
180.0
  0
LINE
  5
2DE
330
288
100
AcDbEntity
  8
実形
100
AcDbLine
 10
404.8862293577467
 20
655.3478557766123
 30
0.0
 11
204.8862293577467
 21
655.347855776612
 31
0.0
  0
LINE
  5
2DF
330
288
100
AcDbEntity
  8
実形
100
AcDbLine
 10
389.8862293577467
 20
640.3478557766121
 30
0.0
 11
219.8862293577467
 21
640.3478557766122
 31
0.0
  0
LINE
  5
2E0
330
288
100
AcDbEntity
  8
実形
100
AcDbLine
 10
389.8862293577467
 20
633.347855776612
 30
0.0
 11
219.8862293577467
 21
633.3478557766118
 31
0.0
  0
LINE
  5
2E1
330
288
100
AcDbEntity
  8
センター
100
AcDbLine
 10
540.2165687444119
 20
501.640355776612
 30
0.0
 11
540.2165687444119
 21
468.0244466300464
 31
0.0
  0
HATCH
  5
2E2
330
288
100
AcDbEntity
  8
センター
100
AcDbHatch
 10
0.0
 20
0.0
 30
0.0
210
0.0
220
0.0
230
1.0
  2
SOLID
 70
     1
 71
     1
 91
        2
 92
        7
 72
     0
 73
     1
 93
        4
 10
870.6100068400065
 20
620.347855776612
 10
870.6100068400065
 20
610.347855776612
 10
874.6100068400064
 20
610.347855776612
 10
874.6100068400064
 20
620.347855776612
 97
        4
330
304
330
2E3
330
302
330
303
 92
        7
 72
     0
 73
     1
 93
        4
 10
874.6100068400064
 20
235.347855776612
 10
870.6100068400065
 20
235.347855776612
 10
870.6100068400065
 20
225.3478557766121
 10
874.6100068400064
 20
225.3478557766121
 97
        4
330
2F1
330
2E3
330
2EF
330
2F0
 75
     0
 76
     1
 47
1.087829797499074
 98
        2
 10
872.7164912897706
 20
595.6444481751027
 10
872.7164912897706
 20
231.2214619987958
  0
LINE
  5
2E3
102
{ACAD_REACTORS
330
2E2
102
}
330
288
100
AcDbEntity
  8
実形
100
AcDbLine
 10
870.6100068400065
 20
193.347855776612
 30
0.0
 11
870.6100068400065
 21
652.3478557766122
 31
0.0
  0
LINE
  5
2E4
330
288
100
AcDbEntity
  8
実形
100
AcDbLine
 10
857.6100068400064
 20
652.347855776612
 30
0.0
 11
857.6100068400066
 21
193.347855776612
 31
0.0
  0
LINE
  5
2E5
330
288
100
AcDbEntity
  8
実形
100
AcDbLine
 10
434.8862293577467
 20
220.3478557766118
 30
0.0
 11
434.8862293577467
 21
625.3478557766122
 31
0.0
  0
DIMENSION
  5
2E6
330
288
100
AcDbEntity
  8
実形
100
AcDbDimension
  2
*D13
 10
1026.981812204552
 20
190.347855776612
 30
0.0
 11
1078.356812204552
 21
210.3478557766123
 31
0.0
 12
-506.0277423014449
 22
-1006.907593640305
 32
0.0
 71
     5
 42
40.0
  3
ISO-25
100
AcDbAlignedDimension
 13
870.6100068400065
 23
230.347855776612
 33
0.0
 14
870.6100068400065
 24
190.347855776612
 34
0.0
 50
90.0
100
AcDbRotatedDimension
1001
ACAD
1000
DSTYLE
1002
{
1070
   140
1040
28.0
1070
    41
1040
35.0
1070
   279
1070
     2
1002
}
  0
TEXT
  5
2E7
330
288
100
AcDbEntity
  8
寸法
100
AcDbText
 10
484.1042016400124
 20
303.670628917916
 30
0.0
 40
28.0
  1
10φ
100
AcDbText
  0
LWPOLYLINE
  5
2E8
330
288
100
AcDbEntity
  8
センター
100
AcDbPolyline
 90
        3
 70
     1
 43
0.0
 10
476.4566147418372
 20
422.847855776612
 10
491.5068860326701
 20
431.5371339577514
 10
491.5068860326701
 20
414.1585775954728
  0
TEXT
  5
2E9
330
288
100
AcDbEntity
  8
寸法
100
AcDbText
 10
503.9295340778489
 20
199.6936410450366
 30
0.0
 40
28.0
  1
23R
100
AcDbText
  0
TEXT
  5
2EA
330
288
100
AcDbEntity
  8
寸法
100
AcDbText
 10
426.9718109762188
 20
59.8810176028669
 30
0.0
 40
28.0
  1
30R
100
AcDbText
  0
TEXT
  5
2EB
330
288
100
AcDbEntity
  8
寸法
100
AcDbText
 10
510.1483374039662
 20
125.1269079148528
 30
0.0
 40
28.0
  1
30R
100
AcDbText
  0
LINE
  5
2EC
330
288
100
AcDbEntity
  8
センター
 48
0.4
100
AcDbLine
 10
935.6100068400065
 20
230.347855776612
 30
0.0
 11
776.3704770246431
 21
230.3478557766118
 31
0.0
  0
ARC
  5
2ED
330
288
100
AcDbEntity
  8
実形
100
AcDbCircle
 10
860.6100068400067
 20
193.347855776612
 30
0.0
 40
3.0
100
AcDbArc
 50
180.0
 51
270.0
  0
ARC
  5
2EE
330
288
100
AcDbEntity
  8
実形
100
AcDbCircle
 10
867.6100068400064
 20
193.347855776612
 30
0.0
 40
3.0
100
AcDbArc
 50
270.0
 51
0.0
  0
LINE
  5
2EF
102
{ACAD_REACTORS
330
2E2
102
}
330
288
100
AcDbEntity
  8
実形
100
AcDbLine
 10
874.6100068400064
 20
225.3478557766121
 30
0.0
 11
870.6100068400065
 21
225.3478557766121
 31
0.0
  0
LINE
  5
2F0
102
{ACAD_REACTORS
330
2E2
102
}
330
288
100
AcDbEntity
  8
実形
100
AcDbLine
 10
874.6100068400064
 20
235.347855776612
 30
0.0
 11
874.6100068400064
 21
225.3478557766121
 31
0.0
  0
LINE
  5
2F1
102
{ACAD_REACTORS
330
2E2
102
}
330
288
100
AcDbEntity
  8
実形
100
AcDbLine
 10
870.6100068400065
 20
235.347855776612
 30
0.0
 11
874.6100068400064
 21
235.347855776612
 31
0.0
  0
LINE
  5
2F2
330
288
100
AcDbEntity
  8
実形
100
AcDbLine
 10
860.6100068400067
 20
190.347855776612
 30
0.0
 11
867.6100068400064
 21
190.347855776612
 31
0.0
  0
DIMENSION
  5
2F3
330
288
100
AcDbEntity
  8
寸法
100
AcDbDimension
  2
*D14
 10
1025.665862575739
 20
655.347855776612
 30
0.0
 11
1077.040862575739
 21
635.3478557766123
 31
0.0
 12
-506.0277423014449
 22
-1006.907593640305
 32
0.0
 71
     5
 42
40.0
  3
ISO-25
100
AcDbAlignedDimension
 13
870.6100068400065
 23
615.3478557766121
 33
0.0
 14
870.6100068400065
 24
655.347855776612
 34
0.0
 50
90.0
100
AcDbRotatedDimension
1001
ACAD
1000
DSTYLE
1002
{
1070
   140
1040
28.0
1070
    41
1040
35.0
1070
   279
1070
     2
1002
}
  0
DIMENSION
  5
2F4
330
288
100
AcDbEntity
  8
寸法
100
AcDbDimension
  2
*D21
 10
540.2165687444119
 20
503.827855776612
 30
0.0
 11
540.2165687444116
 21
530.8278557766122
 31
0.0
 12
-506.0277423014449
 22
-1006.907593640305
 32
0.0
  1
 
 71
     5
 42
54.0
  3
ISO-25
100
AcDbAlignedDimension
 13
434.8862293577467
 23
557.827855776612
 33
0.0
 14
434.8862293577467
 24
503.827855776612
 34
0.0
 50
90.0
100
AcDbRotatedDimension
1001
ACAD
1000
DSTYLE
1002
{
1070
   140
1040
28.0
1070
   147
1040
10.0
1070
   279
1070
     2
1002
}
  0
DIMENSION
  5
2F5
330
288
100
AcDbEntity
  8
寸法
100
AcDbDimension
  2
*D20
 10
540.2165687444121
 20
557.827855776612
 30
0.0
 11
619.7708226395571
 21
536.6008761326329
 31
0.0
 12
-506.0277423014449
 22
-1006.907593640305
 32
0.0
 70
   128
 71
     5
 42
54.0
  3
ISO-25
100
AcDbAlignedDimension
 13
434.8862293577467
 23
611.827855776612
 33
0.0
 14
434.8862293577467
 24
557.827855776612
 34
0.0
 50
90.0
100
AcDbRotatedDimension
1001
ACAD
1000
DSTYLE
1002
{
1070
   140
1040
28.0
1070
   147
1040
10.0
1070
   279
1070
     2
1002
}
  0
LEADER
  5
2F6
330
288
100
AcDbEntity
  8
寸法
100
AcDbLeader
  3
ISO-25
 76
     2
 10
545.6565898844901
 20
533.9695999027403
 30
0.0
 10
597.1772196556058
 20
535.5296001483834
 30
0.0
1001
ACAD
1000
DSTYLE
1002
{
1070
   147
1040
6.25
1070
    77
1070
     0
1070
    41
1040
20.0
1070
   279
1070
     2
1002
}
  0
LEADER
  5
2F7
330
288
100
AcDbEntity
  8
寸法
100
AcDbLeader
  3
ISO-25
 76
     2
 10
544.0953586793048
 20
587.0095376390886
 30
0.0
 10
597.1772196556058
 20
544.8895874991389
 30
0.0
1001
ACAD
1000
DSTYLE
1002
{
1070
   147
1040
6.25
1070
    77
1070
     0
1070
    41
1040
20.0
1070
   279
1070
     2
1002
}
  0
DIMENSION
  5
2F8
330
288
100
AcDbEntity
  8
寸法
100
AcDbDimension
  2
*D15
 10
540.5761199151266
 20
611.827855776612
 30
0.0
 11
597.5761199151261
 21
633.5878557766123
 31
0.0
 12
-506.0277423014449
 22
-1006.907593640305
 32
0.0
  1
43.5
 71
     5
 42
43.51999999999998
  3
ISO-25
100
AcDbAlignedDimension
 13
434.8862293577467
 23
655.347855776612
 33
0.0
 14
434.8862293577467
 24
611.827855776612
 34
0.0
 50
90.0
100
AcDbRotatedDimension
1001
ACAD
1000
DSTYLE
1002
{
1070
   147
1040
10.0
1070
   140
1040
28.0
1070
    41
1040
35.0
1070
   279
1070
     2
1002
}
  0
HATCH
  5
2F9
330
288
100
AcDbEntity
  8
寸法
100
AcDbHatch
 10
0.0
 20
0.0
 30
0.0
210
0.0
220
0.0
230
1.0
  2
SOLID
 70
     1
 71
     0
 91
        1
 92
        7
 72
     1
 73
     1
 93
        2
 10
862.1100068400064
 20
786.4118585015721
 42
1.0
 10
853.1100068400064
 20
786.4118585015721
 42
1.0
 97
        0
 75
     0
 76
     1
 47
0.3540287008603371
 98
        1
 10
859.3815523521517
 20
784.9957419537767
  0
HATCH
  5
2FA
330
288
100
AcDbEntity
  8
寸法
100
AcDbHatch
 10
0.0
 20
0.0
 30
0.0
210
0.0
220
0.0
230
1.0
  2
SOLID
 70
     1
 71
     0
 91
        1
 92
        7
 72
     1
 73
     1
 93
        2
 10
879.1100068400064
 20
786.4118585015721
 42
1.0
 10
870.1100068400064
 20
786.4118585015721
 42
1.0
 97
        0
 75
     0
 76
     1
 47
0.3540287008603371
 98
        1
 10
876.3815523521516
 20
784.9957419537767
  0
DIMENSION
  5
2FB
330
288
100
AcDbEntity
  8
寸法
100
AcDbDimension
  2
*D19
 10
874.6100068400064
 20
786.4118585015721
 30
0.0
 11
866.1100068400065
 21
821.4118585015722
 31
0.0
 12
-506.0277423014449
 22
-1006.907593640305
 32
0.0
  1
15
 71
     5
 42
17.0
  3
ISO-25
100
AcDbAlignedDimension
 13
857.6100068400064
 23
652.347855776612
 33
0.0
 14
874.6100068400064
 24
652.3478557766122
 34
0.0
100
AcDbRotatedDimension
1001
ACAD
1000
DSTYLE
1002
{
1070
   175
1070
     1
1070
   140
1040
28.0
1070
   147
1040
10.0
1070
   279
1070
     2
1002
}
  0
DIMENSION
  5
2FC
330
288
100
AcDbEntity
  8
寸法
100
AcDbDimension
  2
*D18
 10
874.6100068400064
 20
749.0839595165644
 30
0.0
 11
899.685912314937
 21
755.3055146073066
 31
0.0
 12
-506.0277423014449
 22
-1006.907593640305
 32
0.0
 70
   128
  1
2
 71
     5
 42
4.0
  3
ISO-25
100
AcDbAlignedDimension
 13
870.6100068400065
 23
652.3478557766122
 33
0.0
 14
874.6100068400064
 24
652.3478557766122
 34
0.0
100
AcDbRotatedDimension
1001
ACAD
1000
DSTYLE
1002
{
1070
   175
1070
     1
1070
   140
1040
28.0
1070
   282
1070
     1
1070
   281
1070
     1
1070
    41
1040
35.0
1070
   279
1070
     2
1002
}
  0
DIMENSION
  5
2FD
330
288
100
AcDbEntity
  8
寸法
100
AcDbDimension
  2
*D17
 10
870.6100068400065
 20
749.0839595165644
 30
0.0
 11
827.0486362014381
 21
751.6765127309672
 31
0.0
 12
-506.0277423014449
 22
-1006.907593640305
 32
0.0
 70
   128
 71
     5
 42
13.0
  3
ISO-25
100
AcDbAlignedDimension
 13
857.6100068400064
 23
652.347855776612
 33
0.0
 14
870.6100068400065
 24
652.3478557766122
 34
0.0
100
AcDbRotatedDimension
1001
ACAD
1000
DSTYLE
1002
{
1070
   175
1070
     1
1070
   140
1040
28.0
1070
    41
1040
35.0
1070
   279
1070
     2
1002
}
  0
HATCH
  5
2FE
330
288
100
AcDbEntity
  8
寸法
100
AcDbHatch
 10
0.0
 20
0.0
 30
0.0
210
0.0
220
0.0
230
1.0
  2
SOLID
 70
     1
 71
     0
 91
        1
 92
        7
 72
     1
 73
     1
 93
        2
 10
879.1100068400064
 20
749.0839595165644
 42
1.0
 10
870.1100068400064
 20
749.0839595165644
 42
1.0
 97
        0
 75
     0
 76
     1
 47
0.3540287008603371
 98
        1
 10
876.3815523521516
 20
747.667842968769
  0
LINE
  5
2FF
330
288
100
AcDbEntity
  8
センター
 48
0.4
100
AcDbLine
 10
935.6100068400065
 20
615.3478557766121
 30
0.0
 11
776.3704770246431
 21
615.3478557766118
 31
0.0
  0
ARC
  5
300
330
288
100
AcDbEntity
  8
実形
100
AcDbCircle
 10
867.6100068400064
 20
652.3478557766122
 30
0.0
 40
3.0
100
AcDbArc
 50
0.0
 51
90.0
  0
ARC
  5
301
330
288
100
AcDbEntity
  8
実形
100
AcDbCircle
 10
860.6100068400065
 20
652.347855776612
 30
0.0
 40
3.0
100
AcDbArc
 50
90.0
 51
180.0
  0
LINE
  5
302
102
{ACAD_REACTORS
330
2E2
102
}
330
288
100
AcDbEntity
  8
実形
100
AcDbLine
 10
874.6100068400064
 20
610.347855776612
 30
0.0
 11
870.6100068400065
 21
610.347855776612
 31
0.0
  0
LINE
  5
303
102
{ACAD_REACTORS
330
2E2
102
}
330
288
100
AcDbEntity
  8
実形
100
AcDbLine
 10
874.6100068400064
 20
620.347855776612
 30
0.0
 11
874.6100068400064
 21
610.347855776612
 31
0.0
  0
LINE
  5
304
102
{ACAD_REACTORS
330
2E2
102
}
330
288
100
AcDbEntity
  8
実形
100
AcDbLine
 10
870.6100068400065
 20
620.347855776612
 30
0.0
 11
874.6100068400064
 21
620.347855776612
 31
0.0
  0
LINE
  5
305
330
288
100
AcDbEntity
  8
実形
100
AcDbLine
 10
867.6100068400064
 20
655.3478557766123
 30
0.0
 11
860.6100068400065
 21
655.347855776612
 31
0.0
  0
ENDBLK
  5
307
330
288
100
AcDbEntity
  8
0
100
AcDbBlockEnd
  0
BLOCK
  5
41F
330
41B
100
AcDbEntity
  8
0
100
AcDbBlockBegin
  2
_Open90
 70
     0
 10
0.0
 20
0.0
 30
0.0
  3
_Open90
  1

  0
LINE
  5
41C
330
41B
100
AcDbEntity
  8
寸法
 62
     0
370
    -2
100
AcDbLine
 10
-0.5
 20
0.5
 30
0.0
 11
0.0
 21
0.0
 31
0.0
  0
LINE
  5
41D
330
41B
100
AcDbEntity
  8
寸法
 62
     0
370
    -2
100
AcDbLine
 10
0.0
 20
0.0
 30
0.0
 11
-0.5
 21
-0.5
 31
0.0
  0
LINE
  5
41E
330
41B
100
AcDbEntity
  8
寸法
 62
     0
370
    -2
100
AcDbLine
 10
0.0
 20
0.0
 30
0.0
 11
-1.0
 21
0.0
 31
0.0
  0
ENDBLK
  5
420
330
41B
100
AcDbEntity
  8
0
100
AcDbBlockEnd
  0
BLOCK
  5
7A1
330
797
100
AcDbEntity
  8
0
100
AcDbBlockBegin
  2
*D26
 70
     1
 10
0.0
 20
0.0
 30
0.0
  3
*D26
  1

  0
LINE
  5
9B6
330
797
100
AcDbEntity
  8
実形
 62
     0
370
    18
100
AcDbLine
 10
171.3203449786683
 20
516.7753886730638
 30
0.0
 11
140.8366233604466
 21
516.7753886730638
 31
0.0
  0
LINE
  5
9B7
330
797
100
AcDbEntity
  8
実形
 62
     0
370
    18
100
AcDbLine
 10
171.3203449786683
 20
441.7753886730638
 30
0.0
 11
140.8366233604465
 21
441.7753886730638
 31
0.0
  0
LINE
  5
9B8
330
797
100
AcDbEntity
  8
実形
 62
     0
370
    18
100
AcDbLine
 10
140.8366233604466
 20
516.7753886730638
 30
0.0
 11
140.8366233604465
 21
441.7753886730638
 31
0.0
  0
INSERT
  5
9B9
330
797
100
AcDbEntity
  8
実形
 62
     0
370
    18
100
AcDbBlockReference
  2
_DotSmall
 10
140.8366233604466
 20
516.7753886730638
 30
0.0
 41
15.0
 42
15.0
 43
15.0
 50
90.0
  0
INSERT
  5
9BA
330
797
100
AcDbEntity
  8
実形
 62
     0
370
    18
100
AcDbBlockReference
  2
_DotSmall
 10
140.8366233604465
 20
441.7753886730638
 30
0.0
 41
15.0
 42
15.0
 43
15.0
 50
270.0
  0
MTEXT
  5
9BB
330
797
100
AcDbEntity
  8
実形
 62
     0
100
AcDbMText
 10
133.3366233604465
 20
479.2753886730638
 30
0.0
 40
9.0
 41
0.0
 71
     5
 72
     1
  1
75
 11
0.0000000000000001
 21
1.0
 31
0.0
 73
     1
 44
1.0
1001
ACAD
1000
MTEXTBEGIN
1070
    73
1070
     1
1070
    44
1040
1.0
1070
    74
1070
     0
1000
MTEXTEND
  0
POINT
  5
9BC
330
797
100
AcDbEntity
  8
Defpoints
 62
     0
100
AcDbPoint
 10
191.3203449786683
 20
516.7753886730638
 30
0.0
  0
POINT
  5
9BD
330
797
100
AcDbEntity
  8
Defpoints
 62
     0
100
AcDbPoint
 10
191.3203449786683
 20
441.7753886730638
 30
0.0
  0
POINT
  5
9BE
330
797
100
AcDbEntity
  8
Defpoints
 62
     0
100
AcDbPoint
 10
140.8366233604465
 20
441.7753886730638
 30
0.0
  0
ENDBLK
  5
7A2
330
797
100
AcDbEntity
  8
0
100
AcDbBlockEnd
  0
BLOCK
  5
7AE
330
7A4
100
AcDbEntity
  8
0
100
AcDbBlockBegin
  2
*D27
 70
     1
 10
0.0
 20
0.0
 30
0.0
  3
*D27
  1

  0
LINE
  5
9BF
330
7A4
100
AcDbEntity
  8
実形
 62
     0
370
    18
100
AcDbLine
 10
171.3203449786683
 20
441.7753886730638
 30
0.0
 11
140.8366233604465
 21
441.7753886730638
 31
0.0
  0
LINE
  5
9C0
330
7A4
100
AcDbEntity
  8
実形
 62
     0
370
    18
100
AcDbLine
 10
171.3203449786683
 20
291.7753886730638
 30
0.0
 11
140.8366233604465
 21
291.7753886730638
 31
0.0
  0
LINE
  5
9C1
330
7A4
100
AcDbEntity
  8
実形
 62
     0
370
    18
100
AcDbLine
 10
140.8366233604465
 20
441.7753886730638
 30
0.0
 11
140.8366233604465
 21
291.7753886730638
 31
0.0
  0
INSERT
  5
9C2
330
7A4
100
AcDbEntity
  8
実形
 62
     0
370
    18
100
AcDbBlockReference
  2
_DotSmall
 10
140.8366233604465
 20
441.7753886730638
 30
0.0
 41
15.0
 42
15.0
 43
15.0
 50
90.0
  0
INSERT
  5
9C3
330
7A4
100
AcDbEntity
  8
実形
 62
     0
370
    18
100
AcDbBlockReference
  2
_DotSmall
 10
140.8366233604465
 20
291.7753886730638
 30
0.0
 41
15.0
 42
15.0
 43
15.0
 50
270.0
  0
MTEXT
  5
9C4
330
7A4
100
AcDbEntity
  8
実形
 62
     0
100
AcDbMText
 10
133.3366233604465
 20
366.7753886730638
 30
0.0
 40
9.0
 41
0.0
 71
     5
 72
     1
  1
150
 11
0.0000000000000001
 21
1.0
 31
0.0
 73
     1
 44
1.0
1001
ACAD
1000
MTEXTBEGIN
1070
    73
1070
     1
1070
    44
1040
1.0
1070
    74
1070
     0
1000
MTEXTEND
  0
POINT
  5
9C5
330
7A4
100
AcDbEntity
  8
Defpoints
 62
     0
100
AcDbPoint
 10
191.3203449786683
 20
441.7753886730638
 30
0.0
  0
POINT
  5
9C6
330
7A4
100
AcDbEntity
  8
Defpoints
 62
     0
100
AcDbPoint
 10
191.3203449786683
 20
291.7753886730638
 30
0.0
  0
POINT
  5
9C7
330
7A4
100
AcDbEntity
  8
Defpoints
 62
     0
100
AcDbPoint
 10
140.8366233604465
 20
291.7753886730638
 30
0.0
  0
ENDBLK
  5
7AF
330
7A4
100
AcDbEntity
  8
0
100
AcDbBlockEnd
  0
BLOCK
  5
7BB
330
7B1
100
AcDbEntity
  8
0
100
AcDbBlockBegin
  2
*D28
 70
     1
 10
0.0
 20
0.0
 30
0.0
  3
*D28
  1

  0
LINE
  5
9C8
330
7B1
100
AcDbEntity
  8
実形
 62
     0
370
    18
100
AcDbLine
 10
171.3203449786683
 20
291.7753886730638
 30
0.0
 11
140.8366233604465
 21
291.7753886730638
 31
0.0
  0
LINE
  5
9C9
330
7B1
100
AcDbEntity
  8
実形
 62
     0
370
    18
100
AcDbLine
 10
171.3203449786683
 20
216.7753886730638
 30
0.0
 11
140.8366233604465
 21
216.7753886730638
 31
0.0
  0
LINE
  5
9CA
330
7B1
100
AcDbEntity
  8
実形
 62
     0
370
    18
100
AcDbLine
 10
140.8366233604465
 20
291.7753886730638
 30
0.0
 11
140.8366233604465
 21
216.7753886730638
 31
0.0
  0
INSERT
  5
9CB
330
7B1
100
AcDbEntity
  8
実形
 62
     0
370
    18
100
AcDbBlockReference
  2
_DotSmall
 10
140.8366233604465
 20
291.7753886730638
 30
0.0
 41
15.0
 42
15.0
 43
15.0
 50
90.0
  0
INSERT
  5
9CC
330
7B1
100
AcDbEntity
  8
実形
 62
     0
370
    18
100
AcDbBlockReference
  2
_DotSmall
 10
140.8366233604465
 20
216.7753886730638
 30
0.0
 41
15.0
 42
15.0
 43
15.0
 50
270.0
  0
MTEXT
  5
9CD
330
7B1
100
AcDbEntity
  8
実形
 62
     0
100
AcDbMText
 10
133.3366233604464
 20
254.2753886730638
 30
0.0
 40
9.0
 41
0.0
 71
     5
 72
     1
  1
75
 11
0.0000000000000001
 21
1.0
 31
0.0
 73
     1
 44
1.0
1001
ACAD
1000
MTEXTBEGIN
1070
    73
1070
     1
1070
    44
1040
1.0
1070
    74
1070
     0
1000
MTEXTEND
  0
POINT
  5
9CE
330
7B1
100
AcDbEntity
  8
Defpoints
 62
     0
100
AcDbPoint
 10
191.3203449786683
 20
291.7753886730638
 30
0.0
  0
POINT
  5
9CF
330
7B1
100
AcDbEntity
  8
Defpoints
 62
     0
100
AcDbPoint
 10
191.3203449786683
 20
216.7753886730638
 30
0.0
  0
POINT
  5
9D0
330
7B1
100
AcDbEntity
  8
Defpoints
 62
     0
100
AcDbPoint
 10
140.8366233604465
 20
216.7753886730638
 30
0.0
  0
ENDBLK
  5
7BC
330
7B1
100
AcDbEntity
  8
0
100
AcDbBlockEnd
  0
BLOCK
  5
7C8
330
7BE
100
AcDbEntity
  8
0
100
AcDbBlockBegin
  2
*D29
 70
     1
 10
0.0
 20
0.0
 30
0.0
  3
*D29
  1

  0
LINE
  5
9D1
330
7BE
100
AcDbEntity
  8
実形
 62
     0
370
    18
100
AcDbLine
 10
171.3203449786683
 20
516.7753886730638
 30
0.0
 11
107.9635034541657
 21
516.7753886730638
 31
0.0
  0
LINE
  5
9D2
330
7BE
100
AcDbEntity
  8
実形
 62
     0
370
    18
100
AcDbLine
 10
171.3203449786683
 20
216.7753886730638
 30
0.0
 11
107.9635034541656
 21
216.7753886730638
 31
0.0
  0
LINE
  5
9D3
330
7BE
100
AcDbEntity
  8
実形
 62
     0
370
    18
100
AcDbLine
 10
107.9635034541657
 20
516.7753886730638
 30
0.0
 11
107.9635034541656
 21
216.7753886730638
 31
0.0
  0
INSERT
  5
9D4
330
7BE
100
AcDbEntity
  8
実形
 62
     0
370
    18
100
AcDbBlockReference
  2
_DotSmall
 10
107.9635034541657
 20
516.7753886730638
 30
0.0
 41
15.0
 42
15.0
 43
15.0
 50
90.0
  0
INSERT
  5
9D5
330
7BE
100
AcDbEntity
  8
実形
 62
     0
370
    18
100
AcDbBlockReference
  2
_DotSmall
 10
107.9635034541656
 20
216.7753886730638
 30
0.0
 41
15.0
 42
15.0
 43
15.0
 50
270.0
  0
MTEXT
  5
9D6
330
7BE
100
AcDbEntity
  8
実形
 62
     0
100
AcDbMText
 10
100.4635034541656
 20
366.7753886730638
 30
0.0
 40
9.0
 41
0.0
 71
     5
 72
     1
  1
300
 11
0.0000000000000001
 21
1.0
 31
0.0
 73
     1
 44
1.0
1001
ACAD
1000
MTEXTBEGIN
1070
    73
1070
     1
1070
    44
1040
1.0
1070
    74
1070
     0
1000
MTEXTEND
  0
POINT
  5
9D7
330
7BE
100
AcDbEntity
  8
Defpoints
 62
     0
100
AcDbPoint
 10
191.3203449786683
 20
516.7753886730638
 30
0.0
  0
POINT
  5
9D8
330
7BE
100
AcDbEntity
  8
Defpoints
 62
     0
100
AcDbPoint
 10
191.3203449786683
 20
216.7753886730638
 30
0.0
  0
POINT
  5
9D9
330
7BE
100
AcDbEntity
  8
Defpoints
 62
     0
100
AcDbPoint
 10
107.9635034541656
 20
216.7753886730638
 30
0.0
  0
ENDBLK
  5
7C9
330
7BE
100
AcDbEntity
  8
0
100
AcDbBlockEnd
  0
BLOCK
  5
7D5
330
7CB
100
AcDbEntity
  8
0
100
AcDbBlockBegin
  2
*D30
 70
     1
 10
0.0
 20
0.0
 30
0.0
  3
*D30
  1

  0
LINE
  5
9DA
330
7CB
100
AcDbEntity
  8
実形
 62
     0
370
    18
100
AcDbLine
 10
171.3203449786683
 20
136.7753886730638
 30
0.0
 11
140.8366233604465
 21
136.7753886730638
 31
0.0
  0
LINE
  5
9DB
330
7CB
100
AcDbEntity
  8
実形
 62
     0
370
    18
100
AcDbLine
 10
171.3203449786683
 20
116.7753886730638
 30
0.0
 11
140.8366233604465
 21
116.7753886730638
 31
0.0
  0
LINE
  5
9DC
330
7CB
100
AcDbEntity
  8
実形
 62
     0
370
    18
100
AcDbLine
 10
140.8366233604465
 20
136.7753886730638
 30
0.0
 11
140.8366233604465
 21
116.7753886730638
 31
0.0
  0
INSERT
  5
9DD
330
7CB
100
AcDbEntity
  8
実形
 62
     0
370
    18
100
AcDbBlockReference
  2
_DotSmall
 10
140.8366233604465
 20
136.7753886730638
 30
0.0
 41
15.0
 42
15.0
 43
15.0
 50
90.0
  0
INSERT
  5
9DE
330
7CB
100
AcDbEntity
  8
実形
 62
     0
370
    18
100
AcDbBlockReference
  2
_DotSmall
 10
140.8366233604465
 20
116.7753886730638
 30
0.0
 41
15.0
 42
15.0
 43
15.0
 50
270.0
  0
MTEXT
  5
9DF
330
7CB
100
AcDbEntity
  8
実形
 62
     0
100
AcDbMText
 10
133.3366233604465
 20
126.7753886730638
 30
0.0
 40
9.0
 41
0.0
 71
     5
 72
     1
  1
20
 11
0.0000000000000001
 21
1.0
 31
0.0
 73
     1
 44
1.0
1001
ACAD
1000
MTEXTBEGIN
1070
    73
1070
     1
1070
    44
1040
1.0
1070
    74
1070
     0
1000
MTEXTEND
  0
POINT
  5
9E0
330
7CB
100
AcDbEntity
  8
Defpoints
 62
     0
100
AcDbPoint
 10
191.3203449786683
 20
136.7753886730638
 30
0.0
  0
POINT
  5
9E1
330
7CB
100
AcDbEntity
  8
Defpoints
 62
     0
100
AcDbPoint
 10
191.3203449786683
 20
116.7753886730638
 30
0.0
  0
POINT
  5
9E2
330
7CB
100
AcDbEntity
  8
Defpoints
 62
     0
100
AcDbPoint
 10
140.8366233604465
 20
116.7753886730638
 30
0.0
  0
ENDBLK
  5
7D6
330
7CB
100
AcDbEntity
  8
0
100
AcDbBlockEnd
  0
BLOCK
  5
7E2
330
7D8
100
AcDbEntity
  8
0
100
AcDbBlockBegin
  2
*D31
 70
     1
 10
0.0
 20
0.0
 30
0.0
  3
*D31
  1

  0
LINE
  5
9AD
330
7D8
100
AcDbEntity
  8
実形
 62
     0
370
    18
100
AcDbLine
 10
191.3203449786683
 20
536.7753886730638
 30
0.0
 11
191.3203449786683
 21
557.8343332655304
 31
0.0
  0
LINE
  5
9AE
330
7D8
100
AcDbEntity
  8
実形
 62
     0
370
    18
100
AcDbLine
 10
221.3203449786683
 20
536.7753886730638
 30
0.0
 11
221.3203449786683
 21
557.8343332655304
 31
0.0
  0
LINE
  5
9AF
330
7D8
100
AcDbEntity
  8
実形
 62
     0
370
    18
100
AcDbLine
 10
191.3203449786683
 20
557.8343332655304
 30
0.0
 11
221.3203449786683
 21
557.8343332655304
 31
0.0
  0
INSERT
  5
9B0
330
7D8
100
AcDbEntity
  8
実形
 62
     0
370
    18
100
AcDbBlockReference
  2
_DotSmall
 10
191.3203449786683
 20
557.8343332655304
 30
0.0
 41
15.0
 42
15.0
 43
15.0
 50
180.0
  0
INSERT
  5
9B1
330
7D8
100
AcDbEntity
  8
実形
 62
     0
370
    18
100
AcDbBlockReference
  2
_DotSmall
 10
221.3203449786683
 20
557.8343332655304
 30
0.0
 41
15.0
 42
15.0
 43
15.0
  0
MTEXT
  5
9B2
330
7D8
100
AcDbEntity
  8
実形
 62
     0
100
AcDbMText
 10
206.3203449786684
 20
565.3343332655303
 30
0.0
 40
9.0
 41
0.0
 71
     5
 72
     1
  1
30
 73
     1
 44
1.0
1001
ACAD
1000
MTEXTBEGIN
1070
    73
1070
     1
1070
    44
1040
1.0
1070
    74
1070
     0
1000
MTEXTEND
  0
POINT
  5
9B3
330
7D8
100
AcDbEntity
  8
Defpoints
 62
     0
100
AcDbPoint
 10
191.3203449786683
 20
516.7753886730638
 30
0.0
  0
POINT
  5
9B4
330
7D8
100
AcDbEntity
  8
Defpoints
 62
     0
100
AcDbPoint
 10
221.3203449786683
 20
516.7753886730638
 30
0.0
  0
POINT
  5
9B5
330
7D8
100
AcDbEntity
  8
Defpoints
 62
     0
100
AcDbPoint
 10
221.3203449786683
 20
557.8343332655304
 30
0.0
  0
ENDBLK
  5
7E3
330
7D8
100
AcDbEntity
  8
0
100
AcDbBlockEnd
  0
BLOCK
  5
7EF
330
7E5
100
AcDbEntity
  8
0
100
AcDbBlockBegin
  2
*D32
 70
     1
 10
0.0
 20
0.0
 30
0.0
  3
*D32
  1

  0
LINE
  5
9A4
330
7E5
100
AcDbEntity
  8
実形
 62
     0
370
    18
100
AcDbLine
 10
221.3203449786683
 20
536.7753886730638
 30
0.0
 11
221.3203449786683
 21
557.8343332655304
 31
0.0
  0
LINE
  5
9A5
330
7E5
100
AcDbEntity
  8
実形
 62
     0
370
    18
100
AcDbLine
 10
626.3203449786683
 20
536.7753886730637
 30
0.0
 11
626.3203449786683
 21
557.8343332655304
 31
0.0
  0
LINE
  5
9A6
330
7E5
100
AcDbEntity
  8
実形
 62
     0
370
    18
100
AcDbLine
 10
221.3203449786683
 20
557.8343332655304
 30
0.0
 11
626.3203449786683
 21
557.8343332655304
 31
0.0
  0
INSERT
  5
9A7
330
7E5
100
AcDbEntity
  8
実形
 62
     0
370
    18
100
AcDbBlockReference
  2
_DotSmall
 10
221.3203449786683
 20
557.8343332655304
 30
0.0
 41
15.0
 42
15.0
 43
15.0
 50
180.0
  0
INSERT
  5
9A8
330
7E5
100
AcDbEntity
  8
実形
 62
     0
370
    18
100
AcDbBlockReference
  2
_DotSmall
 10
626.3203449786683
 20
557.8343332655304
 30
0.0
 41
15.0
 42
15.0
 43
15.0
  0
MTEXT
  5
9A9
330
7E5
100
AcDbEntity
  8
実形
 62
     0
100
AcDbMText
 10
423.8203449786683
 20
565.3343332655303
 30
0.0
 40
9.0
 41
0.0
 71
     5
 72
     1
  1
405
 73
     1
 44
1.0
1001
ACAD
1000
MTEXTBEGIN
1070
    73
1070
     1
1070
    44
1040
1.0
1070
    74
1070
     0
1000
MTEXTEND
  0
POINT
  5
9AA
330
7E5
100
AcDbEntity
  8
Defpoints
 62
     0
100
AcDbPoint
 10
221.3203449786683
 20
516.7753886730638
 30
0.0
  0
POINT
  5
9AB
330
7E5
100
AcDbEntity
  8
Defpoints
 62
     0
100
AcDbPoint
 10
626.3203449786683
 20
516.7753886730637
 30
0.0
  0
POINT
  5
9AC
330
7E5
100
AcDbEntity
  8
Defpoints
 62
     0
100
AcDbPoint
 10
626.3203449786683
 20
557.8343332655304
 30
0.0
  0
ENDBLK
  5
7F0
330
7E5
100
AcDbEntity
  8
0
100
AcDbBlockEnd
  0
BLOCK
  5
7FC
330
7F2
100
AcDbEntity
  8
0
100
AcDbBlockBegin
  2
*D33
 70
     1
 10
0.0
 20
0.0
 30
0.0
  3
*D33
  1

  0
LINE
  5
992
330
7F2
100
AcDbEntity
  8
実形
 62
     0
370
    18
100
AcDbLine
 10
626.3203449786683
 20
536.7753886730637
 30
0.0
 11
626.3203449786683
 21
557.8343332655304
 31
0.0
  0
LINE
  5
993
330
7F2
100
AcDbEntity
  8
実形
 62
     0
370
    18
100
AcDbLine
 10
656.3203449786684
 20
536.7753886730638
 30
0.0
 11
656.3203449786684
 21
557.8343332655304
 31
0.0
  0
LINE
  5
994
330
7F2
100
AcDbEntity
  8
実形
 62
     0
370
    18
100
AcDbLine
 10
626.3203449786683
 20
557.8343332655304
 30
0.0
 11
656.3203449786684
 21
557.8343332655304
 31
0.0
  0
INSERT
  5
995
330
7F2
100
AcDbEntity
  8
実形
 62
     0
370
    18
100
AcDbBlockReference
  2
_DotSmall
 10
626.3203449786683
 20
557.8343332655304
 30
0.0
 41
15.0
 42
15.0
 43
15.0
 50
180.0
  0
INSERT
  5
996
330
7F2
100
AcDbEntity
  8
実形
 62
     0
370
    18
100
AcDbBlockReference
  2
_DotSmall
 10
656.3203449786684
 20
557.8343332655304
 30
0.0
 41
15.0
 42
15.0
 43
15.0
  0
MTEXT
  5
997
330
7F2
100
AcDbEntity
  8
実形
 62
     0
100
AcDbMText
 10
641.3203449786683
 20
565.3343332655303
 30
0.0
 40
9.0
 41
0.0
 71
     5
 72
     1
  1
30
 73
     1
 44
1.0
1001
ACAD
1000
MTEXTBEGIN
1070
    73
1070
     1
1070
    44
1040
1.0
1070
    74
1070
     0
1000
MTEXTEND
  0
POINT
  5
998
330
7F2
100
AcDbEntity
  8
Defpoints
 62
     0
100
AcDbPoint
 10
626.3203449786683
 20
516.7753886730637
 30
0.0
  0
POINT
  5
999
330
7F2
100
AcDbEntity
  8
Defpoints
 62
     0
100
AcDbPoint
 10
656.3203449786684
 20
516.7753886730638
 30
0.0
  0
POINT
  5
99A
330
7F2
100
AcDbEntity
  8
Defpoints
 62
     0
100
AcDbPoint
 10
656.3203449786684
 20
557.8343332655304
 30
0.0
  0
ENDBLK
  5
7FD
330
7F2
100
AcDbEntity
  8
0
100
AcDbBlockEnd
  0
BLOCK
  5
809
330
7FF
100
AcDbEntity
  8
0
100
AcDbBlockBegin
  2
*D34
 70
     1
 10
0.0
 20
0.0
 30
0.0
  3
*D34
  1

  0
LINE
  5
99B
330
7FF
100
AcDbEntity
  8
実形
 62
     0
370
    18
100
AcDbLine
 10
191.3203449786683
 20
536.7753886730638
 30
0.0
 11
191.3203449786683
 21
585.9890385950632
 31
0.0
  0
LINE
  5
99C
330
7FF
100
AcDbEntity
  8
実形
 62
     0
370
    18
100
AcDbLine
 10
656.3203449786684
 20
536.7753886730638
 30
0.0
 11
656.3203449786684
 21
585.9890385950632
 31
0.0
  0
LINE
  5
99D
330
7FF
100
AcDbEntity
  8
実形
 62
     0
370
    18
100
AcDbLine
 10
191.3203449786683
 20
585.9890385950632
 30
0.0
 11
656.3203449786684
 21
585.9890385950632
 31
0.0
  0
INSERT
  5
99E
330
7FF
100
AcDbEntity
  8
実形
 62
     0
370
    18
100
AcDbBlockReference
  2
_DotSmall
 10
191.3203449786683
 20
585.9890385950632
 30
0.0
 41
15.0
 42
15.0
 43
15.0
 50
180.0
  0
INSERT
  5
99F
330
7FF
100
AcDbEntity
  8
実形
 62
     0
370
    18
100
AcDbBlockReference
  2
_DotSmall
 10
656.3203449786684
 20
585.9890385950632
 30
0.0
 41
15.0
 42
15.0
 43
15.0
  0
MTEXT
  5
9A0
330
7FF
100
AcDbEntity
  8
実形
 62
     0
100
AcDbMText
 10
423.8203449786683
 20
593.4890385950632
 30
0.0
 40
9.0
 41
0.0
 71
     5
 72
     1
  1
465
 73
     1
 44
1.0
1001
ACAD
1000
MTEXTBEGIN
1070
    73
1070
     1
1070
    44
1040
1.0
1070
    74
1070
     0
1000
MTEXTEND
  0
POINT
  5
9A1
330
7FF
100
AcDbEntity
  8
Defpoints
 62
     0
100
AcDbPoint
 10
191.3203449786683
 20
516.7753886730638
 30
0.0
  0
POINT
  5
9A2
330
7FF
100
AcDbEntity
  8
Defpoints
 62
     0
100
AcDbPoint
 10
656.3203449786684
 20
516.7753886730638
 30
0.0
  0
POINT
  5
9A3
330
7FF
100
AcDbEntity
  8
Defpoints
 62
     0
100
AcDbPoint
 10
656.3203449786684
 20
585.9890385950632
 30
0.0
  0
ENDBLK
  5
80A
330
7FF
100
AcDbEntity
  8
0
100
AcDbBlockEnd
  0
ENDSEC
  0
SECTION
  2
ENTITIES
  0
LINE
  5
2D
330
1F
100
AcDbEntity
  8
枠
100
AcDbLine
 10
37.75335519575901
 20
0.0
 30
0.0
 11
891.0
 21
0.0
 31
0.0
  0
LINE
  5
2E
330
1F
100
AcDbEntity
  8
枠
100
AcDbLine
 10
891.0
 20
0.0
 30
0.0
 11
891.0
 21
630.0
 31
0.0
  0
LINE
  5
2F
330
1F
100
AcDbEntity
  8
枠
100
AcDbLine
 10
891.0
 20
630.0
 30
0.0
 11
37.75335519575901
 21
630.0
 31
0.0
  0
LINE
  5
42
330
1F
100
AcDbEntity
  8
枠
100
AcDbLine
 10
711.0
 20
19.5
 30
0.0
 11
891.0
 21
19.5
 31
0.0
  0
LINE
  5
43
330
1F
100
AcDbEntity
  8
枠
100
AcDbLine
 10
711.0
 20
39.0
 30
0.0
 11
891.0
 21
39.0
 31
0.0
  0
LINE
  5
45
330
1F
100
AcDbEntity
  8
枠
100
AcDbLine
 10
711.0
 20
0.0
 30
0.0
 11
711.0
 21
39.0
 31
0.0
  0
TEXT
  5
359
330
1F
100
AcDbEntity
  8
文字
100
AcDbText
 10
726.0
 20
23.54200010684372
 30
0.0
 40
12.0
  1
TBK300-20MN(L)
 72
     4
 11
801.0
 21
29.54200010684372
 31
0.0
100
AcDbText
  0
LINE
  5
765
330
1F
100
AcDbEntity
  8
実形
100
AcDbLine
 10
191.3203449786683
 20
486.7753886730638
 30
0.0
 11
191.3203449786683
 21
450.5052221351379
 31
0.0
  0
LINE
  5
766
330
1F
100
AcDbEntity
  8
実形
100
AcDbLine
 10
191.3203449786683
 20
441.7753886730638
 30
0.0
 11
191.3203449786683
 21
441.7753886730638
 31
0.0
  0
LINE
  5
767
330
1F
100
AcDbEntity
  8
実形
100
AcDbLine
 10
221.3203449786683
 20
411.7753886730638
 30
0.0
 11
221.3203449786683
 21
321.7753886730638
 31
0.0
  0
LINE
  5
768
330
1F
100
AcDbEntity
  8
実形
100
AcDbLine
 10
191.3203449786683
 20
291.7753886730638
 30
0.0
 11
191.3203449786683
 21
291.7753886730638
 31
0.0
  0
LINE
  5
769
330
1F
100
AcDbEntity
  8
実形
100
AcDbLine
 10
191.3203449786683
 20
283.0455552109896
 30
0.0
 11
191.3203449786683
 21
246.7753886730638
 31
0.0
  0
LINE
  5
76A
330
1F
100
AcDbEntity
  8
実形
100
AcDbLine
 10
221.3203449786683
 20
216.7753886730638
 30
0.0
 11
626.3203449786683
 21
216.7753886730638
 31
0.0
  0
LINE
  5
76B
330
1F
100
AcDbEntity
  8
実形
100
AcDbLine
 10
656.3203449786684
 20
246.7753886730638
 30
0.0
 11
656.3203449786684
 21
283.0455552109896
 31
0.0
  0
LINE
  5
76C
330
1F
100
AcDbEntity
  8
実形
100
AcDbLine
 10
656.3203449786684
 20
291.7753886730638
 30
0.0
 11
656.3203449786684
 21
291.7753886730638
 31
0.0
  0
LINE
  5
76D
330
1F
100
AcDbEntity
  8
実形
100
AcDbLine
 10
626.3203449786683
 20
321.7753886730638
 30
0.0
 11
626.3203449786685
 21
411.7753886730638
 31
0.0
  0
LINE
  5
76E
330
1F
100
AcDbEntity
  8
実形
100
AcDbLine
 10
656.3203449786684
 20
441.7753886730638
 30
0.0
 11
656.3203449786684
 21
441.7753886730638
 31
0.0
  0
LINE
  5
76F
330
1F
100
AcDbEntity
  8
実形
100
AcDbLine
 10
656.3203449786684
 20
450.5052221351379
 30
0.0
 11
656.3203449786684
 21
486.7753886730637
 31
0.0
  0
LINE
  5
770
330
1F
100
AcDbEntity
  8
実形
100
AcDbLine
 10
626.3203449786683
 20
516.7753886730637
 30
0.0
 11
221.3203449786683
 21
516.7753886730638
 31
0.0
  0
LINE
  5
771
102
{ACAD_REACTORS
330
89E
102
}
330
1F
100
AcDbEntity
  8
実形
100
AcDbLine
 10
739.3203449786683
 20
516.7753886730638
 30
0.0
 11
753.3203449786683
 21
516.7753886730638
 31
0.0
  0
LINE
  5
772
330
1F
100
AcDbEntity
  8
実形
100
AcDbLine
 10
756.3203449786684
 20
513.7753886730638
 30
0.0
 11
756.3203449786684
 21
219.7753886730638
 31
0.0
  0
LINE
  5
773
330
1F
100
AcDbEntity
  8
実形
100
AcDbLine
 10
753.3203449786683
 20
216.7753886730638
 30
0.0
 11
739.3203449786683
 21
216.7753886730639
 31
0.0
  0
LINE
  5
774
330
1F
100
AcDbEntity
  8
実形
100
AcDbLine
 10
736.3203449786683
 20
219.7753886730639
 30
0.0
 11
736.3203449786683
 21
513.7753886730638
 31
0.0
  0
LINE
  5
775
102
{ACAD_REACTORS
330
89E
102
}
330
1F
100
AcDbEntity
  8
実形
100
AcDbLine
 10
656.3203449786684
 20
133.7753886730638
 30
0.0
 11
656.3203449786684
 21
119.7753886730638
 31
0.0
  0
LINE
  5
776
330
1F
100
AcDbEntity
  8
実形
100
AcDbLine
 10
653.3203449786683
 20
116.7753886730638
 30
0.0
 11
194.3203449786683
 21
116.7753886730638
 31
0.0
  0
LINE
  5
777
102
{ACAD_REACTORS
330
89E
102
}
330
1F
100
AcDbEntity
  8
実形
100
AcDbLine
 10
191.3203449786683
 20
119.7753886730638
 30
0.0
 11
191.3203449786683
 21
133.7753886730638
 31
0.0
  0
LINE
  5
778
330
1F
100
AcDbEntity
  8
実形
100
AcDbLine
 10
194.3203449786683
 20
136.7753886730638
 30
0.0
 11
653.3203449786683
 21
136.7753886730638
 31
0.0
  0
ARC
  5
779
330
1F
100
AcDbEntity
  8
実形
100
AcDbCircle
 10
221.3203449786683
 20
486.7753886730638
 30
0.0
 40
30.0
100
AcDbArc
 50
90.0
 51
180.0
  0
ARC
  5
77A
330
1F
100
AcDbEntity
  8
実形
100
AcDbCircle
 10
221.3203449786683
 20
246.7753886730638
 30
0.0
 40
30.0
100
AcDbArc
 50
180.0
 51
270.0
  0
ARC
  5
77B
330
1F
100
AcDbEntity
  8
実形
100
AcDbCircle
 10
626.3203449786683
 20
246.7753886730638
 30
0.0
 40
30.0
100
AcDbArc
 50
270.0
 51
0.0
  0
ARC
  5
77C
330
1F
100
AcDbEntity
  8
実形
100
AcDbCircle
 10
626.3203449786683
 20
486.7753886730637
 30
0.0
 40
30.0
100
AcDbArc
 50
0.0
 51
90.0
  0
ARC
  5
77D
330
1F
100
AcDbEntity
  8
実形
100
AcDbCircle
 10
656.3203449786684
 20
411.7753886730638
 30
0.0
 40
30.0
100
AcDbArc
 50
104.4775121859301
 51
180.0
  0
ARC
  5
77E
330
1F
100
AcDbEntity
  8
実形
100
AcDbCircle
 10
656.3203449786684
 20
321.7753886730638
 30
0.0
 40
30.0
100
AcDbArc
 50
179.9999999999999
 51
255.5224878140701
  0
ARC
  5
77F
330
1F
100
AcDbEntity
  8
実形
100
AcDbCircle
 10
191.3203449786683
 20
411.7753886730638
 30
0.0
 40
30.0
100
AcDbArc
 50
0.0
 51
75.52248781407008
  0
ARC
  5
780
330
1F
100
AcDbEntity
  8
実形
100
AcDbCircle
 10
191.3203449786683
 20
321.7753886730638
 30
0.0
 40
30.0
100
AcDbArc
 50
284.47751218593
 51
0.0
  0
ARC
  5
781
330
1F
100
AcDbEntity
  8
実形
100
AcDbCircle
 10
201.3203449786683
 20
450.5052221351379
 30
0.0
 40
10.0
100
AcDbArc
 50
180.0
 51
255.5224878140701
  0
ARC
  5
782
330
1F
100
AcDbEntity
  8
実形
100
AcDbCircle
 10
201.3203449786683
 20
283.0455552109896
 30
0.0
 40
10.0
100
AcDbArc
 50
104.4775121859299
 51
180.0
  0
ARC
  5
783
330
1F
100
AcDbEntity
  8
実形
100
AcDbCircle
 10
646.3203449786683
 20
283.0455552109896
 30
0.0
 40
10.0
100
AcDbArc
 50
0.0
 51
75.52248781407005
  0
ARC
  5
784
330
1F
100
AcDbEntity
  8
実形
100
AcDbCircle
 10
646.3203449786683
 20
450.5052221351379
 30
0.0
 40
10.0
100
AcDbArc
 50
284.4775121859299
 51
0.0
  0
LINE
  5
785
330
1F
100
AcDbEntity
  8
実形
100
AcDbLine
 10
194.3203449786683
 20
136.7753886730638
 30
0.0
 11
191.3203449786683
 21
133.7753886730638
 31
0.0
  0
LINE
  5
786
330
1F
100
AcDbEntity
  8
実形
100
AcDbLine
 10
191.3203449786683
 20
119.7753886730638
 30
0.0
 11
194.3203449786683
 21
116.7753886730638
 31
0.0
  0
LINE
  5
787
330
1F
100
AcDbEntity
  8
実形
100
AcDbLine
 10
653.3203449786683
 20
136.7753886730638
 30
0.0
 11
656.3203449786684
 21
133.7753886730638
 31
0.0
  0
LINE
  5
788
330
1F
100
AcDbEntity
  8
実形
100
AcDbLine
 10
653.3203449786683
 20
116.7753886730638
 30
0.0
 11
656.3203449786684
 21
119.7753886730638
 31
0.0
  0
LINE
  5
789
330
1F
100
AcDbEntity
  8
実形
100
AcDbLine
 10
739.3203449786683
 20
516.7753886730638
 30
0.0
 11
736.3203449786683
 21
513.7753886730638
 31
0.0
  0
LINE
  5
78A
330
1F
100
AcDbEntity
  8
実形
100
AcDbLine
 10
753.3203449786683
 20
516.7753886730638
 30
0.0
 11
756.3203449786684
 21
513.7753886730638
 31
0.0
  0
LINE
  5
78B
330
1F
100
AcDbEntity
  8
実形
100
AcDbLine
 10
756.3203449786684
 20
219.7753886730638
 30
0.0
 11
753.3203449786683
 21
216.7753886730638
 31
0.0
  0
LINE
  5
78C
330
1F
100
AcDbEntity
  8
実形
100
AcDbLine
 10
736.3203449786683
 20
219.7753886730639
 30
0.0
 11
739.3203449786683
 21
216.7753886730639
 31
0.0
  0
LINE
  5
78D
330
1F
100
AcDbEntity
  8
実形
370
    15
100
AcDbLine
 10
739.3203449786683
 20
516.7753886730638
 30
0.0
 11
739.3203449786683
 21
216.7753886730639
 31
0.0
  0
LINE
  5
78E
102
{ACAD_REACTORS
330
89E
102
}
330
1F
100
AcDbEntity
  8
実形
100
AcDbLine
 10
739.3203449786683
 20
216.7753886730639
 30
0.0
 11
753.3203449786683
 21
216.7753886730638
 31
0.0
  0
LINE
  5
78F
330
1F
100
AcDbEntity
  8
実形
370
    15
100
AcDbLine
 10
753.3203449786683
 20
216.7753886730638
 30
0.0
 11
753.3203449786683
 21
516.7753886730638
 31
0.0
  0
LINE
  5
790
330
1F
100
AcDbEntity
  8
実形
370
    15
100
AcDbLine
 10
191.3203449786683
 20
133.7753886730638
 30
0.0
 11
656.3203449786684
 21
133.7753886730638
 31
0.0
  0
LINE
  5
791
330
1F
100
AcDbEntity
  8
実形
370
    15
100
AcDbLine
 10
656.3203449786684
 20
119.7753886730638
 30
0.0
 11
191.3203449786683
 21
119.7753886730638
 31
0.0
  0
LINE
  5
792
102
{ACAD_REACTORS
330
89E
102
}
330
1F
100
AcDbEntity
  8
実形
370
    15
100
AcDbLine
 10
656.3203449786684
 20
124.7753886730638
 30
0.0
 11
191.3203449786683
 21
124.7753886730638
 31
0.0
  0
LINE
  5
793
102
{ACAD_REACTORS
330
89E
102
}
330
1F
100
AcDbEntity
  8
実形
370
    15
100
AcDbLine
 10
191.3203449786683
 20
128.7753886730638
 30
0.0
 11
656.3203449786684
 21
128.7753886730638
 31
0.0
  0
LINE
  5
794
102
{ACAD_REACTORS
330
89E
102
}
330
1F
100
AcDbEntity
  8
実形
370
    15
100
AcDbLine
 10
744.3203449786683
 20
516.7753886730638
 30
0.0
 11
744.3203449786683
 21
216.7753886730639
 31
0.0
  0
LINE
  5
795
102
{ACAD_REACTORS
330
89E
102
}
330
1F
100
AcDbEntity
  8
実形
370
    15
100
AcDbLine
 10
748.3203449786683
 20
216.7753886730638
 30
0.0
 11
748.3203449786683
 21
516.7753886730638
 31
0.0
  0
DIMENSION
  5
796
330
1F
100
AcDbEntity
  8
実形
100
AcDbDimension
  2
*D26
 10
140.8366233604465
 20
441.7753886730638
 30
0.0
 11
133.3366233604465
 21
479.2753886730638
 31
0.0
 70
    32
 71
     5
 42
74.99999999999994
  3
ISO-25
100
AcDbAlignedDimension
 13
191.3203449786683
 23
516.7753886730638
 33
0.0
 14
191.3203449786683
 24
441.7753886730638
 34
0.0
 50
90.0
100
AcDbRotatedDimension
1001
ACAD
1000
DSTYLE
1002
{
1070
    41
1040
15.0
1070
    42
1040
20.0
1070
    44
1040
0.0
1070
   140
1040
9.0
1070
   141
1040
0.0
1070
   147
1040
3.0
1070
   172
1070
     0
1070
   279
1070
     2
1070
   341
1005
145
1070
   342
1005
7E
1070
   371
1070
    18
1070
   372
1070
    18
1002
}
  0
DIMENSION
  5
7A3
330
1F
100
AcDbEntity
  8
実形
100
AcDbDimension
  2
*D27
 10
140.8366233604465
 20
291.7753886730638
 30
0.0
 11
133.3366233604465
 21
366.7753886730638
 31
0.0
 70
    32
 71
     5
 42
150.0
  3
ISO-25
100
AcDbAlignedDimension
 13
191.3203449786683
 23
441.7753886730638
 33
0.0
 14
191.3203449786683
 24
291.7753886730638
 34
0.0
 50
90.0
100
AcDbRotatedDimension
1001
ACAD
1000
DSTYLE
1002
{
1070
    41
1040
15.0
1070
    42
1040
20.0
1070
    44
1040
0.0
1070
   140
1040
9.0
1070
   141
1040
0.0
1070
   147
1040
3.0
1070
   172
1070
     0
1070
   279
1070
     2
1070
   341
1005
145
1070
   342
1005
7E
1070
   371
1070
    18
1070
   372
1070
    18
1002
}
  0
DIMENSION
  5
7B0
330
1F
100
AcDbEntity
  8
実形
100
AcDbDimension
  2
*D28
 10
140.8366233604465
 20
216.7753886730638
 30
0.0
 11
133.3366233604464
 21
254.2753886730638
 31
0.0
 70
    32
 71
     5
 42
74.99999999999997
  3
ISO-25
100
AcDbAlignedDimension
 13
191.3203449786683
 23
291.7753886730638
 33
0.0
 14
191.3203449786683
 24
216.7753886730638
 34
0.0
 50
90.0
100
AcDbRotatedDimension
1001
ACAD
1000
DSTYLE
1002
{
1070
    41
1040
15.0
1070
    42
1040
20.0
1070
    44
1040
0.0
1070
   140
1040
9.0
1070
   141
1040
0.0
1070
   147
1040
3.0
1070
   172
1070
     0
1070
   279
1070
     2
1070
   341
1005
145
1070
   342
1005
7E
1070
   371
1070
    18
1070
   372
1070
    18
1002
}
  0
DIMENSION
  5
7BD
330
1F
100
AcDbEntity
  8
実形
100
AcDbDimension
  2
*D29
 10
107.9635034541656
 20
216.7753886730638
 30
0.0
 11
100.4635034541656
 21
366.7753886730638
 31
0.0
 70
    32
 71
     5
 42
300.0
  3
ISO-25
100
AcDbAlignedDimension
 13
191.3203449786683
 23
516.7753886730638
 33
0.0
 14
191.3203449786683
 24
216.7753886730638
 34
0.0
 50
90.0
100
AcDbRotatedDimension
1001
ACAD
1000
DSTYLE
1002
{
1070
    41
1040
15.0
1070
    42
1040
20.0
1070
    44
1040
0.0
1070
   140
1040
9.0
1070
   141
1040
0.0
1070
   147
1040
3.0
1070
   172
1070
     0
1070
   279
1070
     2
1070
   341
1005
145
1070
   342
1005
7E
1070
   371
1070
    18
1070
   372
1070
    18
1002
}
  0
DIMENSION
  5
7CA
330
1F
100
AcDbEntity
  8
実形
100
AcDbDimension
  2
*D30
 10
140.8366233604465
 20
116.7753886730638
 30
0.0
 11
133.3366233604465
 21
126.7753886730638
 31
0.0
 70
    32
 71
     5
 42
19.99999999999998
  3
ISO-25
100
AcDbAlignedDimension
 13
191.3203449786683
 23
136.7753886730638
 33
0.0
 14
191.3203449786683
 24
116.7753886730638
 34
0.0
 50
90.0
100
AcDbRotatedDimension
1001
ACAD
1000
DSTYLE
1002
{
1070
    41
1040
15.0
1070
    42
1040
20.0
1070
    44
1040
0.0
1070
   140
1040
9.0
1070
   141
1040
0.0
1070
   147
1040
3.0
1070
   172
1070
     0
1070
   279
1070
     2
1070
   341
1005
145
1070
   342
1005
7E
1070
   371
1070
    18
1070
   372
1070
    18
1002
}
  0
DIMENSION
  5
7D7
330
1F
100
AcDbEntity
  8
実形
100
AcDbDimension
  2
*D31
 10
221.3203449786683
 20
557.8343332655304
 30
0.0
 11
206.3203449786684
 21
565.3343332655303
 31
0.0
 70
    32
 71
     5
 42
30.0
  3
ISO-25
100
AcDbAlignedDimension
 13
191.3203449786683
 23
516.7753886730638
 33
0.0
 14
221.3203449786683
 24
516.7753886730638
 34
0.0
100
AcDbRotatedDimension
1001
ACAD
1000
DSTYLE
1002
{
1070
    41
1040
15.0
1070
    42
1040
20.0
1070
    44
1040
0.0
1070
   140
1040
9.0
1070
   141
1040
0.0
1070
   147
1040
3.0
1070
   172
1070
     0
1070
   279
1070
     2
1070
   341
1005
145
1070
   342
1005
7E
1070
   371
1070
    18
1070
   372
1070
    18
1002
}
  0
DIMENSION
  5
7E4
330
1F
100
AcDbEntity
  8
実形
100
AcDbDimension
  2
*D32
 10
626.3203449786683
 20
557.8343332655304
 30
0.0
 11
423.8203449786683
 21
565.3343332655303
 31
0.0
 70
    32
 71
     5
 42
405.0
  3
ISO-25
100
AcDbAlignedDimension
 13
221.3203449786683
 23
516.7753886730638
 33
0.0
 14
626.3203449786683
 24
516.7753886730637
 34
0.0
100
AcDbRotatedDimension
1001
ACAD
1000
DSTYLE
1002
{
1070
    41
1040
15.0
1070
    42
1040
20.0
1070
    44
1040
0.0
1070
   140
1040
9.0
1070
   141
1040
0.0
1070
   147
1040
3.0
1070
   172
1070
     0
1070
   279
1070
     2
1070
   341
1005
145
1070
   342
1005
7E
1070
   371
1070
    18
1070
   372
1070
    18
1002
}
  0
DIMENSION
  5
7F1
330
1F
100
AcDbEntity
  8
実形
100
AcDbDimension
  2
*D33
 10
656.3203449786684
 20
557.8343332655304
 30
0.0
 11
641.3203449786683
 21
565.3343332655303
 31
0.0
 70
    32
 71
     5
 42
30.0
  3
ISO-25
100
AcDbAlignedDimension
 13
626.3203449786683
 23
516.7753886730637
 33
0.0
 14
656.3203449786684
 24
516.7753886730638
 34
0.0
100
AcDbRotatedDimension
1001
ACAD
1000
DSTYLE
1002
{
1070
    41
1040
15.0
1070
    42
1040
20.0
1070
    44
1040
0.0
1070
   140
1040
9.0
1070
   141
1040
0.0
1070
   147
1040
3.0
1070
   172
1070
     0
1070
   279
1070
     2
1070
   341
1005
145
1070
   342
1005
7E
1070
   371
1070
    18
1070
   372
1070
    18
1002
}
  0
DIMENSION
  5
7FE
330
1F
100
AcDbEntity
  8
実形
100
AcDbDimension
  2
*D34
 10
656.3203449786684
 20
585.9890385950632
 30
0.0
 11
423.8203449786683
 21
593.4890385950632
 31
0.0
 70
    32
 71
     5
 42
465.0
  3
ISO-25
100
AcDbAlignedDimension
 13
191.3203449786683
 23
516.7753886730638
 33
0.0
 14
656.3203449786684
 24
516.7753886730638
 34
0.0
100
AcDbRotatedDimension
1001
ACAD
1000
DSTYLE
1002
{
1070
    41
1040
15.0
1070
    42
1040
20.0
1070
    44
1040
0.0
1070
   140
1040
9.0
1070
   141
1040
0.0
1070
   147
1040
3.0
1070
   172
1070
     0
1070
   279
1070
     2
1070
   341
1005
145
1070
   342
1005
7E
1070
   371
1070
    18
1070
   372
1070
    18
1002
}
  0
LEADER
  5
85E
330
1F
100
AcDbEntity
  8
実形
100
AcDbLeader
  3
ISO-25
 76
     2
 10
654.5947676808368
 20
118.2486120376122
 30
0.0
 10
677.6998570376818
 20
95.4780291535501
 30
0.0
210
0.0
220
0.0
230
-1.0
1001
ACAD
1000
DSTYLE
1002
{
1070
    77
1070
     0
1070
    41
1040
8.0
1070
    42
1040
20.0
1070
    44
1040
0.0
1070
   140
1040
9.0
1070
   141
1040
0.0
1070
   147
1040
3.0
1070
   172
1070
     0
1070
   279
1070
     2
1070
   341
1005
145
1070
   342
1005
7E
1070
   371
1070
    15
1070
   372
1070
    -1
1002
}
  0
TEXT
  5
85F
330
1F
100
AcDbEntity
  8
実形
100
AcDbText
 10
680.5484311921913
 20
159.3377809046105
 30
0.0
 40
9.0
  1
全周 C3
100
AcDbText
  0
LEADER
  5
861
330
1F
100
AcDbEntity
  8
実形
100
AcDbLeader
  3
ISO-25
 76
     2
 10
654.5947676808368
 20
135.3021653085154
 30
0.0
 10
677.6998570376818
 20
158.0727481925776
 30
0.0
1001
ACAD
1000
DSTYLE
1002
{
1070
    77
1070
     0
1070
    41
1040
8.0
1070
    42
1040
20.0
1070
    44
1040
0.0
1070
   140
1040
9.0
1070
   141
1040
0.0
1070
   147
1040
3.0
1070
   172
1070
     0
1070
   279
1070
     2
1070
   341
1005
145
1070
   342
1005
7E
1070
   371
1070
    15
1070
   372
1070
    -1
1002
}
  0
TEXT
  5
862
330
1F
100
AcDbEntity
  8
実形
100
AcDbText
 10
680.5484311921913
 20
87.86344973077689
 30
0.0
 40
9.0
  1
全周 C3
100
AcDbText
  0
LEADER
  5
863
330
1F
100
AcDbEntity
  8
実形
100
AcDbLeader
  3
ISO-25
 76
     2
 10
650.8585958574918
 20
506.7576128586133
 30
0.0
 10
673.9636852143367
 20
529.5281957426754
 30
0.0
1001
ACAD
1000
DSTYLE
1002
{
1070
    77
1070
     0
1070
    41
1040
8.0
1070
    42
1040
20.0
1070
    44
1040
0.0
1070
   140
1040
9.0
1070
   141
1040
0.0
1070
   147
1040
3.0
1070
   172
1070
     0
1070
   279
1070
     2
1070
   341
1005
145
1070
   342
1005
7E
1070
   371
1070
    15
1070
   372
1070
    -1
1002
}
  0
LEADER
  5
865
330
1F
100
AcDbEntity
  8
実形
100
AcDbLeader
  3
ISO-25
 76
     2
 10
653.1051140282316
 20
447.9593885998658
 30
0.0
 10
630.0000246713866
 20
470.729971483928
 30
0.0
211
-1.0
221
0.0
231
0.0
210
0.0
220
0.0
230
-1.0
1001
ACAD
1000
DSTYLE
1002
{
1070
    77
1070
     0
1070
    41
1040
8.0
1070
    42
1040
20.0
1070
    44
1040
0.0
1070
   140
1040
9.0
1070
   141
1040
0.0
1070
   147
1040
3.0
1070
   172
1070
     0
1070
   279
1070
     2
1070
   341
1005
145
1070
   342
1005
7E
1070
   371
1070
    15
1070
   372
1070
    -1
1002
}
  0
LEADER
  5
866
330
1F
100
AcDbEntity
  8
実形
100
AcDbLeader
  3
ISO-25
 76
     2
 10
636.8372121034867
 20
425.1957701160496
 30
0.0
 10
657.9695718002459
 20
400.5834160491481
 30
0.0
211
0.996539259379403
221
-0.0831234294020103
231
0.0
210
0.0
220
0.0
230
-1.0
1001
ACAD
1000
DSTYLE
1002
{
1070
    77
1070
     0
1070
    41
1040
8.0
1070
    42
1040
20.0
1070
    44
1040
0.0
1070
   140
1040
9.0
1070
   141
1040
0.0
1070
   147
1040
3.0
1070
   172
1070
     0
1070
   279
1070
     2
1070
   341
1005
145
1070
   342
1005
7E
1070
   371
1070
    15
1070
   372
1070
    -1
1002
}
  0
LEADER
  5
867
330
1F
100
AcDbEntity
  8
実形
100
AcDbLeader
  3
ISO-25
 76
     2
 10
650.8585958574918
 20
226.7931644875143
 30
0.0
 10
673.9636852143367
 20
204.0225816034522
 30
0.0
210
0.0
220
0.0
230
-1.0
1001
ACAD
1000
DSTYLE
1002
{
1070
    77
1070
     0
1070
    41
1040
8.0
1070
    42
1040
20.0
1070
    44
1040
0.0
1070
   140
1040
9.0
1070
   141
1040
0.0
1070
   147
1040
3.0
1070
   172
1070
     0
1070
   279
1070
     2
1070
   341
1005
145
1070
   342
1005
7E
1070
   371
1070
    15
1070
   372
1070
    -1
1002
}
  0
LEADER
  5
868
330
1F
100
AcDbEntity
  8
実形
100
AcDbLeader
  3
ISO-25
 76
     2
 10
653.1051140282316
 20
285.5913887462618
 30
0.0
 10
630.0000246713866
 20
262.8208058621997
 30
0.0
211
-1.0
221
0.0
231
0.0
1001
ACAD
1000
DSTYLE
1002
{
1070
    77
1070
     0
1070
    41
1040
8.0
1070
    42
1040
20.0
1070
    44
1040
0.0
1070
   140
1040
9.0
1070
   141
1040
0.0
1070
   147
1040
3.0
1070
   172
1070
     0
1070
   279
1070
     2
1070
   341
1005
145
1070
   342
1005
7E
1070
   371
1070
    15
1070
   372
1070
    -1
1002
}
  0
LEADER
  5
869
330
1F
100
AcDbEntity
  8
実形
100
AcDbLeader
  3
ISO-25
 76
     2
 10
636.8372121034867
 20
308.3550072300781
 30
0.0
 10
657.9695718002459
 20
332.9673612969795
 30
0.0
211
0.996539259379403
221
0.0831234294020103
231
0.0
1001
ACAD
1000
DSTYLE
1002
{
1070
    77
1070
     0
1070
    41
1040
8.0
1070
    42
1040
20.0
1070
    44
1040
0.0
1070
   140
1040
9.0
1070
   141
1040
0.0
1070
   147
1040
3.0
1070
   172
1070
     0
1070
   279
1070
     2
1070
   341
1005
145
1070
   342
1005
7E
1070
   371
1070
    15
1070
   372
1070
    -1
1002
}
  0
TEXT
  5
86A
330
1F
100
AcDbEntity
  8
実形
100
AcDbText
 10
680.5484311921913
 20
532.6598401376015
 30
0.0
 40
9.0
  1
30R
100
AcDbText
  0
TEXT
  5
86B
330
1F
100
AcDbEntity
  8
実形
100
AcDbText
 10
661.8675746723147
 20
331.0659281814492
 30
0.0
 40
9.0
  1
30R
100
AcDbText
  0
TEXT
  5
86C
330
1F
100
AcDbEntity
  8
実形
100
AcDbText
 10
661.8675746723147
 20
387.9975422404352
 30
0.0
 40
9.0
  1
30R
100
AcDbText
  0
TEXT
  5
86D
330
1F
100
AcDbEntity
  8
実形
100
AcDbText
 10
680.5484311921913
 20
193.8700725664596
 30
0.0
 40
9.0
  1
30R
100
AcDbText
  0
TEXT
  5
86E
330
1F
100
AcDbEntity
  8
実形
100
AcDbText
 10
605.8250025158359
 20
471.0617005792123
 30
0.0
 40
9.0
  1
10R
100
AcDbText
  0
TEXT
  5
86F
330
1F
100
AcDbEntity
  8
実形
100
AcDbText
 10
605.8250025158359
 20
258.2681274244915
 30
0.0
 40
9.0
  1
10R
100
AcDbText
  0
HATCH
  5
89E
330
1F
100
AcDbEntity
  8
ハッチング
100
AcDbHatch
 10
0.0
 20
0.0
 30
0.0
210
0.0
220
0.0
230
1.0
  2
LINE
 70
     0
 71
     1
 91
        2
 92
        7
 72
     0
 73
     1
 93
        4
 10
656.3203449786682
 20
128.7753886730638
 10
191.3203449786683
 20
128.7753886730638
 10
191.3203449786683
 20
124.7753886730638
 10
656.3203449786682
 20
124.7753886730638
 97
        4
330
793
330
777
330
792
330
775
 92
        7
 72
     0
 73
     1
 93
        4
 10
748.3203449786683
 20
516.7753886730638
 10
744.3203449786683
 20
516.7753886730638
 10
744.3203449786682
 20
216.7753886730638
 10
748.3203449786683
 20
216.7753886730638
 97
        4
330
771
330
794
330
78E
330
795
 75
     0
 76
     1
 52
45.0
 41
2.0
 77
     0
 78
     1
 53
45.0
 43
0.0
 44
0.0
 45
-4.490128060534575
 46
4.490128060534576
 79
     0
 47
0.801519001331113
 98
        2
 10
517.3942771288629
 20
127.0545976181422
 10
746.8099091450471
 20
298.5796641242412
  0
LINE
  5
9EA
330
1F
100
AcDbEntity
  8
実形
100
AcDbLine
 10
736.3203449786683
 20
441.7753886730638
 30
0.0
 11
756.3203449786684
 21
441.7753886730638
 31
0.0
  0
LINE
  5
9EB
330
1F
100
AcDbEntity
  8
実形
100
AcDbLine
 10
736.3203449786683
 20
291.7753886730638
 30
0.0
 11
756.3203449786684
 21
291.7753886730638
 31
0.0
  0
HATCH
  5
A12
330
1F
100
AcDbEntity
  8
枠
100
AcDbHatch
 10
0.0
 20
0.0
 30
0.0
210
0.0
220
0.0
230
1.0
  2
SOLID
 70
     1
 71
     1
 91
        3
 92
        1
 93
        4
 72
     2
 10
750.9498594941986
 20
9.75
 40
6.0
 50
11.64772366707301
 51
342.6561058784635
 73
     1
 72
     1
 10
756.677055702397
 20
7.961362643575512
 11
749.4498594941985
 21
7.961362643575512
 72
     1
 10
749.4498594941985
 20
7.961362643575512
 11
749.4498594941985
 21
10.96136264357551
 72
     1
 10
749.4498594941985
 20
10.96136264357551
 11
756.8263040439029
 21
10.96136264357551
 97
        4
330
A13
330
A15
330
A16
330
A17
 92
        1
 93
        4
 72
     2
 10
730.2767323996042
 20
9.75
 40
6.0
 50
11.64772366707301
 51
342.6561058784635
 73
     1
 72
     1
 10
736.0039286078026
 20
7.961362643575512
 11
728.7767323996042
 21
7.961362643575512
 72
     1
 10
728.7767323996042
 20
7.961362643575512
 11
728.7767323996042
 21
10.96136264357551
 72
     1
 10
728.7767323996042
 20
10.96136264357551
 11
736.1531769493085
 21
10.96136264357551
 97
        4
330
A14
330
A1D
330
A1E
330
A1F
 92
        1
 93
        5
 72
     1
 10
747.4925682128818
 20
15.75
 11
736.9925682128817
 21
15.75
 72
     1
 10
736.9925682128817
 20
15.75
 11
736.9925682128817
 21
3.75
 72
     1
 10
736.9925682128817
 20
3.75
 11
747.4925682128818
 21
3.75
 72
     1
 10
747.4925682128818
 20
3.75
 11
736.9925682128817
 21
9.75
 72
     1
 10
736.9925682128817
 20
9.75
 11
747.4925682128818
 21
15.75
 97
        5
330
A18
330
A1C
330
A1B
330
A1A
330
A19
 75
     0
 76
     1
 98
        1
 10
55.80000000000007
 20
-1.200000000000045
  0
ARC
  5
A13
102
{ACAD_REACTORS
330
A12
102
}
330
1F
100
AcDbEntity
  8
枠
370
     5
100
AcDbCircle
 10
750.9498594941986
 20
9.75
 30
0.0
 40
6.0
100
AcDbArc
 50
11.64772366707301
 51
342.6561058784635
  0
ARC
  5
A14
102
{ACAD_REACTORS
330
A12
102
}
330
1F
100
AcDbEntity
  8
枠
370
     5
100
AcDbCircle
 10
730.2767323996042
 20
9.75
 30
0.0
 40
6.0
100
AcDbArc
 50
11.64772366707301
 51
342.6561058784635
  0
LINE
  5
A15
102
{ACAD_REACTORS
330
A12
102
}
330
1F
100
AcDbEntity
  8
枠
370
     5
100
AcDbLine
 10
749.4498594941985
 20
7.961362643575512
 30
0.0
 11
756.677055702397
 21
7.961362643575512
 31
0.0
  0
LINE
  5
A16
102
{ACAD_REACTORS
330
A12
102
}
330
1F
100
AcDbEntity
  8
枠
370
     5
100
AcDbLine
 10
749.4498594941985
 20
10.96136264357551
 30
0.0
 11
749.4498594941985
 21
7.961362643575512
 31
0.0
  0
LINE
  5
A17
102
{ACAD_REACTORS
330
A12
102
}
330
1F
100
AcDbEntity
  8
枠
370
     5
100
AcDbLine
 10
756.8263040439029
 20
10.96136264357551
 30
0.0
 11
749.4498594941985
 21
10.96136264357551
 31
0.0
  0
LINE
  5
A18
102
{ACAD_REACTORS
330
A12
102
}
330
1F
100
AcDbEntity
  8
枠
370
     5
100
AcDbLine
 10
747.4925682128818
 20
15.75
 30
0.0
 11
736.9925682128817
 21
15.75
 31
0.0
  0
LINE
  5
A19
102
{ACAD_REACTORS
330
A12
102
}
330
1F
100
AcDbEntity
  8
枠
370
     5
100
AcDbLine
 10
736.9925682128817
 20
9.75
 30
0.0
 11
747.4925682128818
 21
15.75
 31
0.0
  0
LINE
  5
A1A
102
{ACAD_REACTORS
330
A12
102
}
330
1F
100
AcDbEntity
  8
枠
370
     5
100
AcDbLine
 10
747.4925682128818
 20
3.75
 30
0.0
 11
736.9925682128817
 21
9.75
 31
0.0
  0
LINE
  5
A1B
102
{ACAD_REACTORS
330
A12
102
}
330
1F
100
AcDbEntity
  8
枠
370
     5
100
AcDbLine
 10
736.9925682128817
 20
3.75
 30
0.0
 11
747.4925682128818
 21
3.75
 31
0.0
  0
LINE
  5
A1C
102
{ACAD_REACTORS
330
A12
102
}
330
1F
100
AcDbEntity
  8
枠
370
     5
100
AcDbLine
 10
736.9925682128817
 20
15.75
 30
0.0
 11
736.9925682128817
 21
3.75
 31
0.0
  0
LINE
  5
A1D
102
{ACAD_REACTORS
330
A12
102
}
330
1F
100
AcDbEntity
  8
枠
370
     5
100
AcDbLine
 10
728.7767323996042
 20
7.961362643575512
 30
0.0
 11
736.0039286078026
 21
7.961362643575512
 31
0.0
  0
LINE
  5
A1E
102
{ACAD_REACTORS
330
A12
102
}
330
1F
100
AcDbEntity
  8
枠
370
     5
100
AcDbLine
 10
728.7767323996042
 20
10.96136264357551
 30
0.0
 11
728.7767323996042
 21
7.961362643575512
 31
0.0
  0
LINE
  5
A1F
102
{ACAD_REACTORS
330
A12
102
}
330
1F
100
AcDbEntity
  8
枠
370
     5
100
AcDbLine
 10
736.1531769493085
 20
10.96136264357551
 30
0.0
 11
728.7767323996042
 21
10.96136264357551
 31
0.0
  0
TEXT
  5
A20
330
1F
100
AcDbEntity
  8
枠
100
AcDbText
 10
763.8767323996042
 20
3.749999999999998
 30
0.0
 40
12.0
  1
中外交易株式会社
 72
     4
 11
820.2767323996042
 21
9.75
 31
0.0
100
AcDbText
  0
LINE
  5
A21
330
1F
100
AcDbEntity
  8
枠
100
AcDbLine
 10
711.0
 20
19.5
 30
0.0
 11
891.0
 21
19.5
 31
0.0
  0
LINE
  5
A41
330
1F
100
AcDbEntity
  8
枠
100
AcDbLine
 10
37.75335519575901
 20
630.0
 30
0.0
 11
37.75335519575901
 21
0.0
 31
0.0
  0
ENDSEC
  0
SECTION
  2
OBJECTS
  0
DICTIONARY
  5
C
330
0
100
AcDbDictionary
281
     1
  3
ACAD_COLOR
350
A33
  3
ACAD_GROUP
350
D
  3
ACAD_LAYOUT
350
1A
  3
ACAD_MATERIAL
350
A32
  3
ACAD_MLINESTYLE
350
17
  3
ACAD_PLOTSETTINGS
350
19
  3
ACAD_PLOTSTYLENAME
350
E
  3
ACAD_TABLESTYLE
350
A34
  3
ACDBHEADERROUNDTRIPXREC
350
A50
  3
AcDbVariableDictionary
350
710
  0
DICTIONARY
  5
A3A
330
2
100
AcDbDictionary
280
     1
281
     1
  3
ACAD_LAYERFILTERS
360
A3E
  3
ACLYDICTIONARY
360
A3D
  0
DICTIONARY
  5
A42
330
1F
100
AcDbDictionary
280
     1
281
     1
  3
ACAD_SORTENTS
360
A43
  0
DICTIONARY
  5
A33
102
{ACAD_REACTORS
330
C
102
}
330
C
100
AcDbDictionary
281
     1
  0
DICTIONARY
  5
D
102
{ACAD_REACTORS
330
C
102
}
330
C
100
AcDbDictionary
281
     1
  0
DICTIONARY
  5
1A
102
{ACAD_REACTORS
330
C
102
}
330
C
100
AcDbDictionary
281
     1
  3
Model
350
22
  3
ﾚｲｱｳﾄ1
350
1E
  3
ﾚｲｱｳﾄ2
350
26
  0
DICTIONARY
  5
A32
102
{ACAD_REACTORS
330
C
102
}
330
C
100
AcDbDictionary
281
     1
  0
DICTIONARY
  5
17
102
{ACAD_REACTORS
330
C
102
}
330
C
100
AcDbDictionary
281
     1
  3
Standard
350
18
  0
DICTIONARY
  5
19
102
{ACAD_REACTORS
330
C
102
}
330
C
100
AcDbDictionary
281
     1
  0
ACDBDICTIONARYWDFLT
  5
E
102
{ACAD_REACTORS
330
C
102
}
330
C
100
AcDbDictionary
281
     1
  3
Normal
350
F
100
AcDbDictionaryWithDefault
340
F
  0
DICTIONARY
  5
A34
102
{ACAD_REACTORS
330
C
102
}
330
C
100
AcDbDictionary
281
     1
  3
Standard
350
A35
  0
DICTIONARY
  5
A50
102
{ACAD_REACTORS
330
C
102
}
330
C
100
AcDbDictionary
281
     1
  0
DICTIONARY
  5
710
102
{ACAD_REACTORS
330
C
102
}
330
C
100
AcDbDictionary
281
     1
  3
CTABLESTYLE
350
A40
  3
DIMASSOC
350
A4D
  3
PROJECTNAME
350
A4E
  3
SORTENTS
350
711
  0
DICTIONARY
  5
A3E
102
{ACAD_REACTORS
330
A3A
102
}
330
A3A
100
AcDbDictionary
281
     1
  0
DICTIONARY
  5
A3D
102
{ACAD_REACTORS
330
A3A
102
}
330
A3A
100
AcDbDictionary
281
     1
1001
ACAD
1000
<All
  0
SORTENTSTABLE
  5
A43
102
{ACAD_REACTORS
330
A42
102
}
330
A42
100
AcDbSortentsTable
330
1F
331
76B
  5
76C
331
778
  5
779
331
2E
  5
2E
331
785
  5
786
331
7A3
  5
7B0
331
861
  5
862
331
7B0
  5
7BD
331
76C
  5
76D
331
7BD
  5
7CA
331
2F
  5
2F
331
779
  5
77A
331
786
  5
787
331
862
  5
863
331
76D
  5
76E
331
A12
  5
A13
331
77A
  5
77B
331
790
  5
791
331
787
  5
788
331
863
  5
865
331
868
  5
869
331
A13
  5
A14
331
76E
  5
76F
331
77B
  5
77C
331
791
  5
792
331
A18
  5
A19
331
788
  5
789
331
869
  5
86A
331
89E
  5
9EA
331
76F
  5
770
331
A14
  5
A15
331
42
  5
43
331
77C
  5
77D
331
792
  5
793
331
A19
  5
A1A
331
865
  5
866
331
789
  5
78A
331
86A
  5
86B
331
A15
  5
A16
331
770
  5
771
331
43
  5
45
331
77D
  5
77E
331
793
  5
794
331
A1A
  5
A1B
331
866
  5
867
331
78A
  5
78B
331
86B
  5
86C
331
7CA
  5
7D7
331
771
  5
772
331
A16
  5
A17
331
77E
  5
77F
331
794
  5
795
331
7D7
  5
7E4
331
A1B
  5
A1C
331
7E4
  5
7F1
331
867
  5
868
331
78B
  5
78C
331
765
  5
766
331
7F1
  5
7FE
331
9EA
  5
9EB
331
86C
  5
86D
331
A17
  5
A18
331
7FE
  5
85E
331
772
  5
773
331
795
  5
796
331
A1C
  5
A1D
331
45
  5
359
331
77F
  5
780
331
78C
  5
78D
331
766
  5
767
331
9EB
  5
A12
331
86D
  5
86E
331
773
  5
774
331
780
  5
781
331
796
  5
7A3
331
A1D
  5
A1E
331
78D
  5
78E
331
767
  5
768
331
86E
  5
86F
331
359
  5
765
331
774
  5
775
331
A1E
  5
A1F
331
781
  5
782
331
78E
  5
78F
331
768
  5
769
331
86F
  5
89E
331
775
  5
776
331
782
  5
783
331
85E
  5
85F
331
A1F
  5
A20
331
78F
  5
790
331
769
  5
76A
331
A41
  5
42
331
776
  5
777
331
A20
  5
A21
331
85F
  5
861
331
783
  5
784
331
76A
  5
76B
331
2D
  5
2D
331
777
  5
778
331
784
  5
785
331
A21
  5
A41
  0
LAYOUT
  5
22
102
{ACAD_XDICTIONARY
360
A53
102
}
102
{ACAD_REACTORS
330
1A
102
}
330
1A
100
AcDbPlotSettings
  1

  2
EPSON PM-800C
  4
A4
  6

 40
3.757083177566528
 41
14.7637300491333
 42
3.757080078125
 43
3.757080078125
 44
209.9733276367187
 45
296.9683227539062
 46
0.0
 47
0.0
 48
0.0
 49
0.0
140
0.0
141
0.0
142
1.0
143
3.199884931975253
 70
 11952
 72
     1
 73
     1
 74
     2
  7

 75
     0
147
0.3125112375158787
148
0.0
149
0.0
100
AcDbLayout
  1
Model
 70
     1
 71
     0
 10
0.0
 20
0.0
 11
12.0
 21
9.0
 12
0.0
 22
0.0
 32
0.0
 14
0.0
 24
0.0
 34
0.0
 15
0.0
 25
0.0
 35
0.0
146
0.0
 13
0.0
 23
0.0
 33
0.0
 16
1.0
 26
0.0
 36
0.0
 17
0.0
 27
1.0
 37
0.0
 76
     0
330
1F
  0
LAYOUT
  5
1E
102
{ACAD_XDICTIONARY
360
A51
102
}
102
{ACAD_REACTORS
330
1A
102
}
330
1A
100
AcDbPlotSettings
  1

  2
EPSON PM-800C
  4

  6

 40
0.0
 41
0.0
 42
0.0
 43
0.0
 44
0.0
 45
0.0
 46
0.0
 47
0.0
 48
0.0
 49
0.0
140
0.0
141
0.0
142
1.0
143
1.0
 70
   688
 72
     0
 73
     0
 74
     5
  7

 75
    16
147
1.0
148
0.0
149
0.0
100
AcDbLayout
  1
ﾚｲｱｳﾄ1
 70
     1
 71
     1
 10
0.0
 20
0.0
 11
420.0
 21
297.0
 12
0.0
 22
0.0
 32
0.0
 14
1.000000000000000E+20
 24
1.000000000000000E+20
 34
1.000000000000000E+20
 15
-1.000000000000000E+20
 25
-1.000000000000000E+20
 35
-1.000000000000000E+20
146
0.0
 13
0.0
 23
0.0
 33
0.0
 16
1.0
 26
0.0
 36
0.0
 17
0.0
 27
1.0
 37
0.0
 76
     0
330
1B
  0
LAYOUT
  5
26
102
{ACAD_XDICTIONARY
360
A55
102
}
102
{ACAD_REACTORS
330
1A
102
}
330
1A
100
AcDbPlotSettings
  1

  2
EPSON PM-800C
  4

  6

 40
0.0
 41
0.0
 42
0.0
 43
0.0
 44
0.0
 45
0.0
 46
0.0
 47
0.0
 48
0.0
 49
0.0
140
0.0
141
0.0
142
1.0
143
1.0
 70
   688
 72
     0
 73
     0
 74
     5
  7

 75
    16
147
1.0
148
0.0
149
0.0
100
AcDbLayout
  1
ﾚｲｱｳﾄ2
 70
     1
 71
     2
 10
0.0
 20
0.0
 11
12.0
 21
9.0
 12
0.0
 22
0.0
 32
0.0
 14
0.0
 24
0.0
 34
0.0
 15
0.0
 25
0.0
 35
0.0
146
0.0
 13
0.0
 23
0.0
 33
0.0
 16
1.0
 26
0.0
 36
0.0
 17
0.0
 27
1.0
 37
0.0
 76
     0
330
23
  0
MLINESTYLE
  5
18
102
{ACAD_REACTORS
330
17
102
}
330
17
100
AcDbMlineStyle
  2
STANDARD
 70
     0
  3

 62
   256
 51
90.0
 52
90.0
 71
     2
 49
0.5
 62
   256
  6
BYLAYER
 49
-0.5
 62
   256
  6
BYLAYER
  0
ACDBPLACEHOLDER
  5
F
102
{ACAD_REACTORS
330
E
102
}
330
E
  0
TABLESTYLE
  5
A35
102
{ACAD_REACTORS
330
A34
102
}
330
A34
100
AcDbTableStyle
  3
Standard
 70
     0
 71
     0
 40
1.5
 41
1.5
280
     0
281
     0
  7
Standard
140
4.5
170
     2
 62
     0
 63
     7
283
     0
274
    -2
284
     1
 64
     0
275
    -2
285
     1
 65
     0
276
    -2
286
     1
 66
     0
277
    -2
287
     1
 67
     0
278
    -2
288
     1
 68
     0
279
    -2
289
     1
 69
     0
  7
Standard
140
6.0
170
     5
 62
     0
 63
     7
283
     0
274
    -2
284
     1
 64
     0
275
    -2
285
     1
 65
     0
276
    -2
286
     1
 66
     0
277
    -2
287
     1
 67
     0
278
    -2
288
     1
 68
     0
279
    -2
289
     1
 69
     0
  7
Standard
140
4.5
170
     5
 62
     0
 63
     7
283
     0
274
    -2
284
     1
 64
     0
275
    -2
285
     1
 65
     0
276
    -2
286
     1
 66
     0
277
    -2
287
     1
 67
     0
278
    -2
288
     1
 68
     0
279
    -2
289
     1
 69
     0
  0
DICTIONARYVAR
  5
A40
102
{ACAD_REACTORS
330
710
102
}
330
710
100
DictionaryVariables
280
     0
  1
STANDARD
  0
DICTIONARYVAR
  5
A4D
102
{ACAD_REACTORS
330
710
102
}
330
710
100
DictionaryVariables
280
     0
  1
1
  0
DICTIONARYVAR
  5
A4E
102
{ACAD_REACTORS
330
710
102
}
330
710
100
DictionaryVariables
280
     0
  1

  0
DICTIONARYVAR
  5
711
102
{ACAD_REACTORS
330
710
102
}
330
710
100
DictionaryVariables
280
     0
  1
96
  0
DICTIONARY
  5
A53
330
22
100
AcDbDictionary
280
     1
281
     1
  3
ACAD_XREC_ROUNDTRIP
360
A54
  0
DICTIONARY
  5
A51
330
1E
100
AcDbDictionary
280
     1
281
     1
  3
ACAD_XREC_ROUNDTRIP
360
A52
  0
DICTIONARY
  5
A55
330
26
100
AcDbDictionary
280
     1
281
     1
  3
ACAD_XREC_ROUNDTRIP
360
A56
  0
XRECORD
  5
A54
102
{ACAD_REACTORS
330
A53
102
}
330
A53
100
AcDbXrecord
280
     1
102
SHADEPLOT
 70
     0
102
SHADEPLOTRESLEVEL
 70
     2
102
SHADEPLOTCUSTOMDPI
 70
   300
  0
XRECORD
  5
A52
102
{ACAD_REACTORS
330
A51
102
}
330
A51
100
AcDbXrecord
280
     1
102
SHADEPLOT
 70
     0
102
SHADEPLOTRESLEVEL
 70
     2
102
SHADEPLOTCUSTOMDPI
 70
   300
  0
XRECORD
  5
A56
102
{ACAD_REACTORS
330
A55
102
}
330
A55
100
AcDbXrecord
280
     1
102
SHADEPLOT
 70
     0
102
SHADEPLOTRESLEVEL
 70
     2
102
SHADEPLOTCUSTOMDPI
 70
   300
  0
ENDSEC
  0
EOF
