  0
SECTION
  2
HEADER
  9
$ACADVER
  1
AC1015
  9
$ACADMAINTVER
 70
    20
  9
$DWGCODEPAGE
  3
ANSI_932
  9
$INSBASE
 10
0.0
 20
0.0
 30
0.0
  9
$EXTMIN
 10
111.0
 20
4.0
 30
0.0
  9
$EXTMAX
 10
2784.0
 20
2024.0
 30
0.0
  9
$LIMMIN
 10
0.0
 20
0.0
  9
$LIMMAX
 10
29700.0
 20
21000.0
  9
$ORTHOMODE
 70
     0
  9
$REGENMODE
 70
     1
  9
$FILLMODE
 70
     1
  9
$QTEXTMODE
 70
     0
  9
$MIRRTEXT
 70
     1
  9
$LTSCALE
 40
4.0
  9
$ATTMODE
 70
     1
  9
$TEXTSIZE
 40
25.0
  9
$TRACEWID
 40
1.0
  9
$TEXTSTYLE
  7
Standard
  9
$CLAYER
  8
実形
  9
$CELTYPE
  6
ByLayer
  9
$CECOLOR
 62
   256
  9
$CELTSCALE
 40
1.0
  9
$DISPSILH
 70
     0
  9
$DIMSCALE
 40
1.0
  9
$DIMASZ
 40
35.0
  9
$DIMEXO
 40
65.0
  9
$DIMDLI
 40
3.75
  9
$DIMRND
 40
0.0
  9
$DIMDLE
 40
0.0
  9
$DIMEXE
 40
0.0
  9
$DIMTP
 40
0.0
  9
$DIMTM
 40
0.0
  9
$DIMTXT
 40
25.0
  9
$DIMCEN
 40
2.5
  9
$DIMTSZ
 40
0.0
  9
$DIMTOL
 70
     0
  9
$DIMLIM
 70
     0
  9
$DIMTIH
 70
     0
  9
$DIMTOH
 70
     0
  9
$DIMSE1
 70
     0
  9
$DIMSE2
 70
     0
  9
$DIMTAD
 70
     1
  9
$DIMZIN
 70
     8
  9
$DIMBLK
  1
DotSmall
  9
$DIMASO
 70
     1
  9
$DIMSHO
 70
     1
  9
$DIMPOST
  1

  9
$DIMAPOST
  1

  9
$DIMALT
 70
     0
  9
$DIMALTD
 70
     3
  9
$DIMALTF
 40
0.03937007874016
  9
$DIMLFAC
 40
1.0
  9
$DIMTOFL
 70
     1
  9
$DIMTVP
 40
0.0
  9
$DIMTIX
 70
     0
  9
$DIMSOXD
 70
     0
  9
$DIMSAH
 70
     0
  9
$DIMBLK1
  1

  9
$DIMBLK2
  1

  9
$DIMSTYLE
  2
ISO-25
  9
$DIMCLRD
 70
     0
  9
$DIMCLRE
 70
     0
  9
$DIMCLRT
 70
     0
  9
$DIMTFAC
 40
1.0
  9
$DIMGAP
 40
6.25
  9
$DIMJUST
 70
     0
  9
$DIMSD1
 70
     0
  9
$DIMSD2
 70
     0
  9
$DIMTOLJ
 70
     0
  9
$DIMTZIN
 70
     8
  9
$DIMALTZ
 70
     0
  9
$DIMALTTZ
 70
     0
  9
$DIMUPT
 70
     0
  9
$DIMDEC
 70
     2
  9
$DIMTDEC
 70
     2
  9
$DIMALTU
 70
     2
  9
$DIMALTTD
 70
     3
  9
$DIMTXSTY
  7
Standard
  9
$DIMAUNIT
 70
     0
  9
$DIMADEC
 70
     0
  9
$DIMALTRND
 40
0.0
  9
$DIMAZIN
 70
     0
  9
$DIMDSEP
 70
    46
  9
$DIMATFIT
 70
     3
  9
$DIMFRAC
 70
     0
  9
$DIMLDRBLK
  1
Open30
  9
$DIMLUNIT
 70
     2
  9
$DIMLWD
 70
    18
  9
$DIMLWE
 70
    18
  9
$DIMTMOVE
 70
     0
  9
$LUNITS
 70
     2
  9
$LUPREC
 70
     2
  9
$SKETCHINC
 40
1.0
  9
$FILLETRAD
 40
80.0
  9
$AUNITS
 70
     0
  9
$AUPREC
 70
     0
  9
$MENU
  1
.
  9
$ELEVATION
 40
0.0
  9
$PELEVATION
 40
0.0
  9
$THICKNESS
 40
0.0
  9
$LIMCHECK
 70
     1
  9
$CHAMFERA
 40
10.0
  9
$CHAMFERB
 40
10.0
  9
$CHAMFERC
 40
20.0
  9
$CHAMFERD
 40
0.0
  9
$SKPOLY
 70
     0
  9
$TDCREATE
 40
2451673.575802199
  9
$TDUCREATE
 40
2451673.200802199
  9
$TDUPDATE
 40
2458808.735202257
  9
$TDUUPDATE
 40
2458808.360202257
  9
$TDINDWG
 40
1.1485079398
  9
$TDUSRTIMER
 40
1.1485072454
  9
$USRTIMER
 70
     1
  9
$ANGBASE
 50
0.0
  9
$ANGDIR
 70
     0
  9
$PDMODE
 70
     3
  9
$PDSIZE
 40
0.0
  9
$PLINEWID
 40
0.0
  9
$SPLFRAME
 70
     0
  9
$SPLINETYPE
 70
     6
  9
$SPLINESEGS
 70
     8
  9
$HANDSEED
  5
23CB
  9
$SURFTAB1
 70
     6
  9
$SURFTAB2
 70
     6
  9
$SURFTYPE
 70
     6
  9
$SURFU
 70
     6
  9
$SURFV
 70
     6
  9
$UCSBASE
  2

  9
$UCSNAME
  2

  9
$UCSORG
 10
0.0
 20
0.0
 30
0.0
  9
$UCSXDIR
 10
1.0
 20
0.0
 30
0.0
  9
$UCSYDIR
 10
0.0
 20
1.0
 30
0.0
  9
$UCSORTHOREF
  2

  9
$UCSORTHOVIEW
 70
     0
  9
$UCSORGTOP
 10
0.0
 20
0.0
 30
0.0
  9
$UCSORGBOTTOM
 10
0.0
 20
0.0
 30
0.0
  9
$UCSORGLEFT
 10
0.0
 20
0.0
 30
0.0
  9
$UCSORGRIGHT
 10
0.0
 20
0.0
 30
0.0
  9
$UCSORGFRONT
 10
0.0
 20
0.0
 30
0.0
  9
$UCSORGBACK
 10
0.0
 20
0.0
 30
0.0
  9
$PUCSBASE
  2

  9
$PUCSNAME
  2

  9
$PUCSORG
 10
0.0
 20
0.0
 30
0.0
  9
$PUCSXDIR
 10
1.0
 20
0.0
 30
0.0
  9
$PUCSYDIR
 10
0.0
 20
1.0
 30
0.0
  9
$PUCSORTHOREF
  2

  9
$PUCSORTHOVIEW
 70
     0
  9
$PUCSORGTOP
 10
0.0
 20
0.0
 30
0.0
  9
$PUCSORGBOTTOM
 10
0.0
 20
0.0
 30
0.0
  9
$PUCSORGLEFT
 10
0.0
 20
0.0
 30
0.0
  9
$PUCSORGRIGHT
 10
0.0
 20
0.0
 30
0.0
  9
$PUCSORGFRONT
 10
0.0
 20
0.0
 30
0.0
  9
$PUCSORGBACK
 10
0.0
 20
0.0
 30
0.0
  9
$USERI1
 70
     0
  9
$USERI2
 70
     0
  9
$USERI3
 70
     0
  9
$USERI4
 70
     0
  9
$USERI5
 70
     0
  9
$USERR1
 40
0.0
  9
$USERR2
 40
0.0
  9
$USERR3
 40
0.0
  9
$USERR4
 40
0.0
  9
$USERR5
 40
0.0
  9
$WORLDVIEW
 70
     1
  9
$SHADEDGE
 70
     3
  9
$SHADEDIF
 70
    70
  9
$TILEMODE
 70
     1
  9
$MAXACTVP
 70
    64
  9
$PINSBASE
 10
0.0
 20
0.0
 30
0.0
  9
$PLIMCHECK
 70
     0
  9
$PEXTMIN
 10
27.8447512626648
 20
20.24591643810271
 30
0.0
  9
$PEXTMAX
 10
250.6027613639831
 20
182.2132479429245
 30
0.0
  9
$PLIMMIN
 10
-3.757080078125
 20
-3.757083177566528
  9
$PLIMMAX
 10
293.2112426757813
 20
206.2162444591522
  9
$UNITMODE
 70
     0
  9
$VISRETAIN
 70
     1
  9
$PLINEGEN
 70
     0
  9
$PSLTSCALE
 70
     1
  9
$TREEDEPTH
 70
  3020
  9
$CMLSTYLE
  2
Standard
  9
$CMLJUST
 70
     0
  9
$CMLSCALE
 40
20.0
  9
$PROXYGRAPHICS
 70
     1
  9
$MEASUREMENT
 70
     1
  9
$CELWEIGHT
370
    -1
  9
$ENDCAPS
280
     0
  9
$JOINSTYLE
280
     0
  9
$LWDISPLAY
290
     0
  9
$INSUNITS
 70
     4
  9
$HYPERLINKBASE
  1

  9
$STYLESHEET
  1

  9
$XEDIT
290
     1
  9
$CEPSNTYPE
380
     0
  9
$PSTYLEMODE
290
     1
  9
$FINGERPRINTGUID
  2
{C8EA1F16-24C9-11D4-9416-CE0A3B32152F}
  9
$VERSIONGUID
  2
{EDB6ECA9-10EE-48BD-AB1D-5F92BF5EA30A}
  9
$EXTNAMES
290
     1
  9
$PSVPSCALE
 40
0.0
  9
$OLESTARTUP
290
     0
  0
ENDSEC
  0
SECTION
  2
CLASSES
  0
CLASS
  1
ACDBDICTIONARYWDFLT
  2
AcDbDictionaryWithDefault
  3
ObjectDBX Classes
 90
        0
280
     0
281
     0
  0
CLASS
  1
ACDBPLACEHOLDER
  2
AcDbPlaceHolder
  3
ObjectDBX Classes
 90
        0
280
     0
281
     0
  0
CLASS
  1
LAYOUT
  2
AcDbLayout
  3
ObjectDBX Classes
 90
        0
280
     0
281
     0
  0
CLASS
  1
DICTIONARYVAR
  2
AcDbDictionaryVar
  3
ObjectDBX Classes
 90
        0
280
     0
281
     0
  0
CLASS
  1
TABLESTYLE
  2
AcDbTableStyle
  3
ObjectDBX Classes
 90
     2047
280
     0
281
     0
  0
CLASS
  1
SORTENTSTABLE
  2
AcDbSortentsTable
  3
ObjectDBX Classes
 90
        0
280
     0
281
     0
  0
ENDSEC
  0
SECTION
  2
TABLES
  0
TABLE
  2
VPORT
  5
8
330
0
100
AcDbSymbolTable
 70
     2
  0
VPORT
  5
23BE
330
8
100
AcDbSymbolTableRecord
100
AcDbViewportTableRecord
  2
*Active
 70
     0
 10
0.0
 20
0.0
 11
1.0
 21
1.0
 12
1397.737413068441
 22
1007.021270621918
 13
0.0
 23
0.0
 14
10.0
 24
10.0
 15
10.0
 25
10.0
 16
0.0
 26
0.0
 36
1.0
 17
0.0
 27
0.0
 37
0.0
 40
2214.693738291169
 41
1.29038112522686
 42
50.0
 43
0.0
 44
0.0
 50
0.0
 51
0.0
 71
     0
 72
   100
 73
     1
 74
     3
 75
     0
 76
     0
 77
     0
 78
     0
281
     0
 65
     1
110
0.0
120
0.0
130
0.0
111
1.0
121
0.0
131
0.0
112
0.0
122
1.0
132
0.0
 79
     0
146
0.0
  0
ENDTAB
  0
TABLE
  2
LTYPE
  5
5
330
0
100
AcDbSymbolTable
 70
    46
  0
LTYPE
  5
14
330
5
100
AcDbSymbolTableRecord
100
AcDbLinetypeTableRecord
  2
ByBlock
 70
     0
  3

 72
    65
 73
     0
 40
0.0
  0
LTYPE
  5
15
330
5
100
AcDbSymbolTableRecord
100
AcDbLinetypeTableRecord
  2
ByLayer
 70
     0
  3

 72
    65
 73
     0
 40
0.0
  0
LTYPE
  5
16
330
5
100
AcDbSymbolTableRecord
100
AcDbLinetypeTableRecord
  2
Continuous
 70
     0
  3
Solid line
 72
    65
 73
     0
 40
0.0
  0
LTYPE
  5
34
330
5
100
AcDbSymbolTableRecord
100
AcDbLinetypeTableRecord
  2
ACAD_ISO02W100
 70
     0
  3
ISO dash __ __ __ __ __ __ __ __ __ __ __ __ __
 72
    65
 73
     2
 40
15.0
 49
12.0
 74
     0
 49
-3.0
 74
     0
  0
LTYPE
  5
35
330
5
100
AcDbSymbolTableRecord
100
AcDbLinetypeTableRecord
  2
ACAD_ISO03W100
 70
     0
  3
ISO dash space __    __    __    __    __    __
 72
    65
 73
     2
 40
30.0
 49
12.0
 74
     0
 49
-18.0
 74
     0
  0
LTYPE
  5
36
330
5
100
AcDbSymbolTableRecord
100
AcDbLinetypeTableRecord
  2
ACAD_ISO04W100
 70
     0
  3
ISO long-dash dot ____ . ____ . ____ . ____ . _
 72
    65
 73
     4
 40
30.0
 49
24.0
 74
     0
 49
-3.0
 74
     0
 49
0.0
 74
     0
 49
-3.0
 74
     0
  0
LTYPE
  5
37
330
5
100
AcDbSymbolTableRecord
100
AcDbLinetypeTableRecord
  2
ACAD_ISO05W100
 70
     0
  3
ISO long-dash double-dot ____ .. ____ .. ____ .
 72
    65
 73
     6
 40
34.0
 49
24.0
 74
     0
 49
-3.0
 74
     0
 49
0.5
 74
     0
 49
-3.0
 74
     0
 49
0.5
 74
     0
 49
-3.0
 74
     0
  0
LTYPE
  5
38
330
5
100
AcDbSymbolTableRecord
100
AcDbLinetypeTableRecord
  2
ACAD_ISO06W100
 70
     0
  3
ISO long-dash triple-dot ____ ... ____ ... ____
 72
    65
 73
     8
 40
37.5
 49
24.0
 74
     0
 49
-3.0
 74
     0
 49
0.5
 74
     0
 49
-3.0
 74
     0
 49
0.5
 74
     0
 49
-3.0
 74
     0
 49
0.5
 74
     0
 49
-3.0
 74
     0
  0
LTYPE
  5
39
330
5
100
AcDbSymbolTableRecord
100
AcDbLinetypeTableRecord
  2
ACAD_ISO07W100
 70
     0
  3
ISO dot . . . . . . . . . . . . . . . . . . . .
 72
    65
 73
     2
 40
3.0
 49
0.0
 74
     0
 49
-3.0
 74
     0
  0
LTYPE
  5
3A
330
5
100
AcDbSymbolTableRecord
100
AcDbLinetypeTableRecord
  2
ACAD_ISO08W100
 70
     0
  3
ISO long-dash short-dash ____ __ ____ __ ____ _
 72
    65
 73
     4
 40
36.0
 49
24.0
 74
     0
 49
-3.0
 74
     0
 49
6.0
 74
     0
 49
-3.0
 74
     0
  0
LTYPE
  5
3B
330
5
100
AcDbSymbolTableRecord
100
AcDbLinetypeTableRecord
  2
ACAD_ISO09W100
 70
     0
  3
ISO long-dash double-short-dash ____ __ __ ____
 72
    65
 73
     6
 40
45.0
 49
24.0
 74
     0
 49
-3.0
 74
     0
 49
6.0
 74
     0
 49
-3.0
 74
     0
 49
6.0
 74
     0
 49
-3.0
 74
     0
  0
LTYPE
  5
3C
330
5
100
AcDbSymbolTableRecord
100
AcDbLinetypeTableRecord
  2
ACAD_ISO10W100
 70
     0
  3
ISO dash dot __ . __ . __ . __ . __ . __ . __ .
 72
    65
 73
     4
 40
18.0
 49
12.0
 74
     0
 49
-3.0
 74
     0
 49
0.0
 74
     0
 49
-3.0
 74
     0
  0
LTYPE
  5
3D
330
5
100
AcDbSymbolTableRecord
100
AcDbLinetypeTableRecord
  2
ACAD_ISO11W100
 70
     0
  3
ISO double-dash dot __ __ . __ __ . __ __ . __ 
 72
    65
 73
     6
 40
33.0
 49
12.0
 74
     0
 49
-3.0
 74
     0
 49
12.0
 74
     0
 49
-3.0
 74
     0
 49
0.0
 74
     0
 49
-3.0
 74
     0
  0
LTYPE
  5
3E
330
5
100
AcDbSymbolTableRecord
100
AcDbLinetypeTableRecord
  2
ACAD_ISO12W100
 70
     0
  3
ISO dash double-dot __ . . __ . . __ . . __ . .
 72
    65
 73
     6
 40
21.0
 49
12.0
 74
     0
 49
-3.0
 74
     0
 49
0.0
 74
     0
 49
-3.0
 74
     0
 49
0.0
 74
     0
 49
-3.0
 74
     0
  0
LTYPE
  5
3F
330
5
100
AcDbSymbolTableRecord
100
AcDbLinetypeTableRecord
  2
ACAD_ISO13W100
 70
     0
  3
ISO double-dash double-dot __ __ . . __ __ . . 
 72
    65
 73
     8
 40
36.0
 49
12.0
 74
     0
 49
-3.0
 74
     0
 49
12.0
 74
     0
 49
-3.0
 74
     0
 49
0.0
 74
     0
 49
-3.0
 74
     0
 49
0.0
 74
     0
 49
-3.0
 74
     0
  0
LTYPE
  5
40
330
5
100
AcDbSymbolTableRecord
100
AcDbLinetypeTableRecord
  2
ACAD_ISO14W100
 70
     0
  3
ISO dash triple-dot __ . . . __ . . . __ . . . 
 72
    65
 73
     8
 40
24.0
 49
12.0
 74
     0
 49
-3.0
 74
     0
 49
0.0
 74
     0
 49
-3.0
 74
     0
 49
0.0
 74
     0
 49
-3.0
 74
     0
 49
0.0
 74
     0
 49
-3.0
 74
     0
  0
LTYPE
  5
41
330
5
100
AcDbSymbolTableRecord
100
AcDbLinetypeTableRecord
  2
ACAD_ISO15W100
 70
     0
  3
ISO double-dash triple-dot __ __ . . . __ __ . 
 72
    65
 73
    10
 40
39.0
 49
12.0
 74
     0
 49
-3.0
 74
     0
 49
12.0
 74
     0
 49
-3.0
 74
     0
 49
0.0
 74
     0
 49
-3.0
 74
     0
 49
0.0
 74
     0
 49
-3.0
 74
     0
 49
0.0
 74
     0
 49
-3.0
 74
     0
  0
LTYPE
  5
42
330
5
100
AcDbSymbolTableRecord
100
AcDbLinetypeTableRecord
  2
BATTING
 70
     0
  3
Batting SSSSSSSSSSSSSSSSSSSSSSSSSSSSSSSSSSSSSSS
 72
    65
 73
     4
 40
10.16254
 49
0.00254
 74
     0
 49
-2.54
 74
     4
 75
   134
340
33
 46
2.54
 50
0.0
 44
-2.54
 45
0.0
 49
-5.08
 74
     4
 75
   134
340
33
 46
2.54
 50
180.0
 44
2.54
 45
0.0
 49
-2.54
 74
     0
  0
LTYPE
  5
43
330
5
100
AcDbSymbolTableRecord
100
AcDbLinetypeTableRecord
  2
BORDER
 70
     0
  3
Border __ __ . __ __ . __ __ . __ __ . __ __ .
 72
    65
 73
     6
 40
44.45
 49
12.7
 74
     0
 49
-6.349999999999999
 74
     0
 49
12.7
 74
     0
 49
-6.349999999999999
 74
     0
 49
0.0
 74
     0
 49
-6.349999999999999
 74
     0
  0
LTYPE
  5
44
330
5
100
AcDbSymbolTableRecord
100
AcDbLinetypeTableRecord
  2
BORDER2
 70
     0
  3
Border (.5x) __.__.__.__.__.__.__.__.__.__.__.
 72
    65
 73
     6
 40
22.225
 49
6.349999999999999
 74
     0
 49
-3.174999999999999
 74
     0
 49
6.349999999999999
 74
     0
 49
-3.174999999999999
 74
     0
 49
0.0
 74
     0
 49
-3.174999999999999
 74
     0
  0
LTYPE
  5
45
330
5
100
AcDbSymbolTableRecord
100
AcDbLinetypeTableRecord
  2
BORDERX2
 70
     0
  3
Border (2x) ____  ____  .  ____  ____  .  ___
 72
    65
 73
     6
 40
88.9
 49
25.4
 74
     0
 49
-12.7
 74
     0
 49
25.4
 74
     0
 49
-12.7
 74
     0
 49
0.0
 74
     0
 49
-12.7
 74
     0
  0
LTYPE
  5
46
330
5
100
AcDbSymbolTableRecord
100
AcDbLinetypeTableRecord
  2
CENTER
 70
     0
  3
Center ____ _ ____ _ ____ _ ____ _ ____ _ ____
 72
    65
 73
     4
 40
50.8
 49
31.75
 74
     0
 49
-6.349999999999999
 74
     0
 49
6.349999999999999
 74
     0
 49
-6.349999999999999
 74
     0
  0
LTYPE
  5
47
330
5
100
AcDbSymbolTableRecord
100
AcDbLinetypeTableRecord
  2
CENTER2
 70
     0
  3
Center (.5x) ___ _ ___ _ ___ _ ___ _ ___ _ ___
 72
    65
 73
     4
 40
28.575
 49
19.05
 74
     0
 49
-3.174999999999999
 74
     0
 49
3.174999999999999
 74
     0
 49
-3.174999999999999
 74
     0
  0
LTYPE
  5
48
330
5
100
AcDbSymbolTableRecord
100
AcDbLinetypeTableRecord
  2
CENTERX2
 70
     0
  3
Center (2x) ________  __  ________  __  _____
 72
    65
 73
     4
 40
101.6
 49
63.5
 74
     0
 49
-12.7
 74
     0
 49
12.7
 74
     0
 49
-12.7
 74
     0
  0
LTYPE
  5
49
330
5
100
AcDbSymbolTableRecord
100
AcDbLinetypeTableRecord
  2
DASHDOT
 70
     0
  3
Dash dot __ . __ . __ . __ . __ . __ . __ . __
 72
    65
 73
     4
 40
25.4
 49
12.7
 74
     0
 49
-6.349999999999999
 74
     0
 49
0.0
 74
     0
 49
-6.349999999999999
 74
     0
  0
LTYPE
  5
4A
330
5
100
AcDbSymbolTableRecord
100
AcDbLinetypeTableRecord
  2
DASHDOT2
 70
     0
  3
Dash dot (.5x) _._._._._._._._._._._._._._._.
 72
    65
 73
     4
 40
12.7
 49
6.349999999999999
 74
     0
 49
-3.174999999999999
 74
     0
 49
0.0
 74
     0
 49
-3.174999999999999
 74
     0
  0
LTYPE
  5
4B
330
5
100
AcDbSymbolTableRecord
100
AcDbLinetypeTableRecord
  2
DASHDOTX2
 70
     0
  3
Dash dot (2x) ____  .  ____  .  ____  .  ___
 72
    65
 73
     4
 40
50.8
 49
25.4
 74
     0
 49
-12.7
 74
     0
 49
0.0
 74
     0
 49
-12.7
 74
     0
  0
LTYPE
  5
4C
330
5
100
AcDbSymbolTableRecord
100
AcDbLinetypeTableRecord
  2
DASHED
 70
     0
  3
Dashed __ __ __ __ __ __ __ __ __ __ __ __ __ _
 72
    65
 73
     2
 40
19.05
 49
12.7
 74
     0
 49
-6.349999999999999
 74
     0
  0
LTYPE
  5
4D
330
5
100
AcDbSymbolTableRecord
100
AcDbLinetypeTableRecord
  2
DASHED2
 70
     0
  3
Dashed (.5x) _ _ _ _ _ _ _ _ _ _ _ _ _ _ _ _ _
 72
    65
 73
     2
 40
9.524999999999998
 49
6.349999999999999
 74
     0
 49
-3.174999999999999
 74
     0
  0
LTYPE
  5
4E
330
5
100
AcDbSymbolTableRecord
100
AcDbLinetypeTableRecord
  2
DASHEDX2
 70
     0
  3
Dashed (2x) ____  ____  ____  ____  ____  ___
 72
    65
 73
     2
 40
38.1
 49
25.4
 74
     0
 49
-12.7
 74
     0
  0
LTYPE
  5
4F
330
5
100
AcDbSymbolTableRecord
100
AcDbLinetypeTableRecord
  2
DIVIDE
 70
     0
  3
Divide ____ . . ____ . . ____ . . ____ . . ____
 72
    65
 73
     6
 40
31.75
 49
12.7
 74
     0
 49
-6.349999999999999
 74
     0
 49
0.0
 74
     0
 49
-6.349999999999999
 74
     0
 49
0.0
 74
     0
 49
-6.349999999999999
 74
     0
  0
LTYPE
  5
50
330
5
100
AcDbSymbolTableRecord
100
AcDbLinetypeTableRecord
  2
DIVIDE2
 70
     0
  3
Divide (.5x) __..__..__..__..__..__..__..__.._
 72
    65
 73
     6
 40
15.875
 49
6.349999999999999
 74
     0
 49
-3.174999999999999
 74
     0
 49
0.0
 74
     0
 49
-3.174999999999999
 74
     0
 49
0.0
 74
     0
 49
-3.174999999999999
 74
     0
  0
LTYPE
  5
51
330
5
100
AcDbSymbolTableRecord
100
AcDbLinetypeTableRecord
  2
DIVIDEX2
 70
     0
  3
Divide (2x) ________  .  .  ________  .  .  _
 72
    65
 73
     6
 40
63.49999999999999
 49
25.4
 74
     0
 49
-12.7
 74
     0
 49
0.0
 74
     0
 49
-12.7
 74
     0
 49
0.0
 74
     0
 49
-12.7
 74
     0
  0
LTYPE
  5
52
330
5
100
AcDbSymbolTableRecord
100
AcDbLinetypeTableRecord
  2
DOT
 70
     0
  3
Dot . . . . . . . . . . . . . . . . . . . . . .
 72
    65
 73
     2
 40
6.349999999999999
 49
0.0
 74
     0
 49
-6.349999999999999
 74
     0
  0
LTYPE
  5
53
330
5
100
AcDbSymbolTableRecord
100
AcDbLinetypeTableRecord
  2
DOT2
 70
     0
  3
Dot (.5x) .....................................
 72
    65
 73
     2
 40
3.174999999999999
 49
0.0
 74
     0
 49
-3.174999999999999
 74
     0
  0
LTYPE
  5
54
330
5
100
AcDbSymbolTableRecord
100
AcDbLinetypeTableRecord
  2
DOTX2
 70
     0
  3
Dot (2x) .  .  .  .  .  .  .  .  .  .  .  .  . 
 72
    65
 73
     2
 40
12.7
 49
0.0
 74
     0
 49
-12.7
 74
     0
  0
LTYPE
  5
55
330
5
100
AcDbSymbolTableRecord
100
AcDbLinetypeTableRecord
  2
FENCELINE1
 70
     0
  3
Fenceline circle ----0-----0----0-----0----0---
 72
    65
 73
     4
 40
36.83
 49
6.349999999999999
 74
     0
 49
-2.54
 74
     4
 75
   133
340
33
 46
2.54
 50
0.0
 44
-2.54
 45
0.0
 49
-2.54
 74
     0
 49
25.4
 74
     0
  0
LTYPE
  5
56
330
5
100
AcDbSymbolTableRecord
100
AcDbLinetypeTableRecord
  2
FENCELINE2
 70
     0
  3
Fenceline square ----[]-----[]----[]-----[]----
 72
    65
 73
     4
 40
36.83
 49
6.349999999999999
 74
     0
 49
-2.54
 74
     4
 75
   132
340
33
 46
2.54
 50
0.0
 44
-2.54
 45
0.0
 49
-2.54
 74
     0
 49
25.4
 74
     0
  0
LTYPE
  5
57
330
5
100
AcDbSymbolTableRecord
100
AcDbLinetypeTableRecord
  2
GAS_LINE
 70
     0
  3
Gas line ----GAS----GAS----GAS----GAS----GAS---
 72
    65
 73
     3
 40
24.13
 49
12.7
 74
     0
 49
-5.08
 74
     2
 75
     0
340
11
 46
2.54
 50
0.0
 44
-2.54
 45
-1.27
  9
GAS
 49
-6.349999999999999
 74
     0
  0
LTYPE
  5
58
330
5
100
AcDbSymbolTableRecord
100
AcDbLinetypeTableRecord
  2
HIDDEN
 70
     0
  3
Hidden __ __ __ __ __ __ __ __ __ __ __ __ __ _
 72
    65
 73
     2
 40
9.524999999999998
 49
6.349999999999999
 74
     0
 49
-3.174999999999999
 74
     0
  0
LTYPE
  5
59
330
5
100
AcDbSymbolTableRecord
100
AcDbLinetypeTableRecord
  2
HIDDEN2
 70
     0
  3
Hidden (.5x) _ _ _ _ _ _ _ _ _ _ _ _ _ _ _ _ _
 72
    65
 73
     2
 40
4.762499999999999
 49
3.174999999999999
 74
     0
 49
-1.587499999999999
 74
     0
  0
LTYPE
  5
5A
330
5
100
AcDbSymbolTableRecord
100
AcDbLinetypeTableRecord
  2
HIDDENX2
 70
     0
  3
Hidden (2x) ____ ____ ____ ____ ____ ____ ____
 72
    65
 73
     2
 40
19.05
 49
12.7
 74
     0
 49
-6.349999999999999
 74
     0
  0
LTYPE
  5
5B
330
5
100
AcDbSymbolTableRecord
100
AcDbLinetypeTableRecord
  2
HOT_WATER_SUPPLY
 70
     0
  3
Hot water supply ---- HW ---- HW ---- HW ----
 72
    65
 73
     3
 40
22.86
 49
12.7
 74
     0
 49
-5.08
 74
     2
 75
     0
340
11
 46
2.54
 50
0.0
 44
-2.54
 45
-1.27
  9
HW
 49
-5.08
 74
     0
  0
LTYPE
  5
5C
330
5
100
AcDbSymbolTableRecord
100
AcDbLinetypeTableRecord
  2
PHANTOM
 70
     0
  3
Phantom ______  __  __  ______  __  __  ______
 72
    65
 73
     6
 40
63.5
 49
31.75
 74
     0
 49
-6.349999999999999
 74
     0
 49
6.349999999999999
 74
     0
 49
-6.349999999999999
 74
     0
 49
6.349999999999999
 74
     0
 49
-6.349999999999999
 74
     0
  0
LTYPE
  5
5D
330
5
100
AcDbSymbolTableRecord
100
AcDbLinetypeTableRecord
  2
PHANTOM2
 70
     0
  3
Phantom (.5x) ___ _ _ ___ _ _ ___ _ _ ___ _ _
 72
    65
 73
     6
 40
31.75
 49
15.875
 74
     0
 49
-3.174999999999999
 74
     0
 49
3.174999999999999
 74
     0
 49
-3.174999999999999
 74
     0
 49
3.174999999999999
 74
     0
 49
-3.174999999999999
 74
     0
  0
LTYPE
  5
5E
330
5
100
AcDbSymbolTableRecord
100
AcDbLinetypeTableRecord
  2
PHANTOMX2
 70
     0
  3
Phantom (2x) ____________    ____    ____   _
 72
    65
 73
     6
 40
127.0
 49
63.5
 74
     0
 49
-12.7
 74
     0
 49
12.7
 74
     0
 49
-12.7
 74
     0
 49
12.7
 74
     0
 49
-12.7
 74
     0
  0
LTYPE
  5
5F
330
5
100
AcDbSymbolTableRecord
100
AcDbLinetypeTableRecord
  2
TRACKS
 70
     0
  3
Tracks -|-|-|-|-|-|-|-|-|-|-|-|-|-|-|-|-|-|-|-|
 72
    65
 73
     2
 40
7.62
 49
3.81
 74
     4
 75
   130
340
33
 46
6.349999999999999
 50
0.0
 44
0.0
 45
0.0
 49
3.81
 74
     0
  0
LTYPE
  5
60
330
5
100
AcDbSymbolTableRecord
100
AcDbLinetypeTableRecord
  2
ZIGZAG
 70
     0
  3
Zig zag /\/\/\/\/\/\/\/\/\/\/\/\/\/\/\/\/\/\/\/
 72
    65
 73
     4
 40
20.32254
 49
0.00254
 74
     0
 49
-5.08
 74
     4
 75
   131
340
33
 46
5.08
 50
0.0
 44
-5.08
 45
0.0
 49
-10.16
 74
     4
 75
   131
340
33
 46
5.08
 50
180.0
 44
5.08
 45
0.0
 49
-5.08
 74
     0
  0
ENDTAB
  0
TABLE
  2
LAYER
  5
2
102
{ACAD_XDICTIONARY
360
21AB
102
}
330
0
100
AcDbSymbolTable
 70
     9
  0
LAYER
  5
10
330
2
100
AcDbSymbolTableRecord
100
AcDbLayerTableRecord
  2
0
 70
     0
 62
     7
  6
Continuous
370
    -3
390
F
  0
LAYER
  5
C3
330
2
100
AcDbSymbolTableRecord
100
AcDbLayerTableRecord
  2
Defpoints
 70
     0
 62
     7
  6
Continuous
290
     0
370
    -3
390
F
  0
LAYER
  5
256
330
2
100
AcDbSymbolTableRecord
100
AcDbLayerTableRecord
  2
センター
 70
     0
 62
     7
  6
CENTER2
370
    18
390
F
  0
LAYER
  5
268
330
2
100
AcDbSymbolTableRecord
100
AcDbLayerTableRecord
  2
実形
 70
     0
 62
     7
  6
Continuous
370
    -3
390
F
  0
LAYER
  5
269
330
2
100
AcDbSymbolTableRecord
100
AcDbLayerTableRecord
  2
補助
 70
     0
 62
     7
  6
Continuous
370
    -3
390
F
  0
LAYER
  5
26A
330
2
100
AcDbSymbolTableRecord
100
AcDbLayerTableRecord
  2
寸法
 70
     0
 62
     7
  6
Continuous
370
    18
390
F
  0
LAYER
  5
26B
330
2
100
AcDbSymbolTableRecord
100
AcDbLayerTableRecord
  2
ハッチング
 70
     0
 62
     7
  6
Continuous
370
    18
390
F
  0
LAYER
  5
26D
330
2
100
AcDbSymbolTableRecord
100
AcDbLayerTableRecord
  2
文字
 70
     0
 62
     7
  6
Continuous
370
    -3
390
F
  0
LAYER
  5
1E51
330
2
100
AcDbSymbolTableRecord
100
AcDbLayerTableRecord
  2
Cen
 70
     0
 62
     7
  6
CENTER2
370
    15
390
F
  0
ENDTAB
  0
TABLE
  2
STYLE
  5
3
330
0
100
AcDbSymbolTable
 70
     3
  0
STYLE
  5
11
330
3
100
AcDbSymbolTableRecord
100
AcDbTextStyleTableRecord
  2
Standard
 70
     0
 40
0.0
 41
1.0
 50
0.0
 71
     0
 42
25.0
  3
txt.shx
  4
bigfont.shx
  0
STYLE
  5
33
330
3
100
AcDbSymbolTableRecord
100
AcDbTextStyleTableRecord
  2

 70
     1
 40
0.0
 41
1.0
 50
0.0
 71
     0
 42
2.5
  3
ltypeshp.shx
  4

  0
STYLE
  5
2336
330
3
100
AcDbSymbolTableRecord
100
AcDbTextStyleTableRecord
  2
明朝
 70
     0
 40
0.0
 41
1.0
 50
0.0
 71
     0
 42
25.0
  3
MS Mincho.ttf
  4

1001
ACAD
1000
MS Mincho
1071
    32785
  0
ENDTAB
  0
TABLE
  2
VIEW
  5
6
330
0
100
AcDbSymbolTable
 70
     0
  0
ENDTAB
  0
TABLE
  2
UCS
  5
7
330
0
100
AcDbSymbolTable
 70
     0
  0
ENDTAB
  0
TABLE
  2
APPID
  5
9
330
0
100
AcDbSymbolTable
 70
     1
  0
APPID
  5
12
330
9
100
AcDbSymbolTableRecord
100
AcDbRegAppTableRecord
  2
ACAD
 70
     0
  0
ENDTAB
  0
TABLE
  2
DIMSTYLE
  5
A
330
0
100
AcDbSymbolTable
 70
     1
100
AcDbDimStyleTable
 71
     1
340
27
  0
DIMSTYLE
105
27
102
{ACAD_REACTORS
330
12A2
330
12E0
330
12ED
330
12FA
330
1307
330
132F
330
134E
330
1382
330
13BA
330
13C9
330
1472
330
1560
330
1562
330
1563
330
17B2
330
13AD
330
208D
102
}
330
A
100
AcDbSymbolTableRecord
100
AcDbDimStyleTableRecord
  2
ISO-25
 70
     0
 41
35.0
 42
65.0
 43
3.75
 44
0.0
 73
     0
 74
     0
 77
     1
 78
     8
140
25.0
141
2.5
143
0.03937007874016
147
6.25
171
     3
172
     1
271
     2
272
     2
274
     3
283
     0
284
     8
340
11
341
DA
342
D0
371
    15
372
    15
  0
ENDTAB
  0
TABLE
  2
BLOCK_RECORD
  5
1
330
0
100
AcDbSymbolTable
 70
    22
  0
BLOCK_RECORD
  5
1F
102
{ACAD_XDICTIONARY
360
2334
102
}
330
1
100
AcDbSymbolTableRecord
100
AcDbBlockTableRecord
  2
*Model_Space
340
22
  0
BLOCK_RECORD
  5
1B
330
1
100
AcDbSymbolTableRecord
100
AcDbBlockTableRecord
  2
*Paper_Space
340
1E
  0
BLOCK_RECORD
  5
23
330
1
100
AcDbSymbolTableRecord
100
AcDbBlockTableRecord
  2
*Paper_Space0
340
26
  0
BLOCK_RECORD
  5
D0
330
1
100
AcDbSymbolTableRecord
100
AcDbBlockTableRecord
  2
_DotSmall
340
0
102
{BLKREFS
331
2267
331
2268
331
2270
331
2271
331
2279
331
227A
331
2282
331
2283
331
228C
331
228D
331
2294
331
2295
331
229D
331
229E
331
22A6
331
22A7
331
22B0
331
22B1
331
22B9
331
22BA
331
22C2
331
22C3
331
22CB
331
22CC
331
22D4
331
22D5
331
22DC
331
22DD
331
22E5
331
22E6
331
22EF
331
22F0
331
22F8
331
22F9
102
}
  0
BLOCK_RECORD
  5
D4
330
1
100
AcDbSymbolTableRecord
100
AcDbBlockTableRecord
  2
_Origin2
340
0
  0
BLOCK_RECORD
  5
DA
330
1
100
AcDbSymbolTableRecord
100
AcDbBlockTableRecord
  2
_Open30
340
0
  0
BLOCK_RECORD
  5
12A3
330
1
100
AcDbSymbolTableRecord
100
AcDbBlockTableRecord
  2
*D4
340
0
  0
BLOCK_RECORD
  5
12E1
330
1
100
AcDbSymbolTableRecord
100
AcDbBlockTableRecord
  2
*D5
340
0
  0
BLOCK_RECORD
  5
12EE
330
1
100
AcDbSymbolTableRecord
100
AcDbBlockTableRecord
  2
*D6
340
0
  0
BLOCK_RECORD
  5
12FB
330
1
100
AcDbSymbolTableRecord
100
AcDbBlockTableRecord
  2
*D7
340
0
  0
BLOCK_RECORD
  5
1308
330
1
100
AcDbSymbolTableRecord
100
AcDbBlockTableRecord
  2
*D8
340
0
  0
BLOCK_RECORD
  5
1330
330
1
100
AcDbSymbolTableRecord
100
AcDbBlockTableRecord
  2
*D9
340
0
  0
BLOCK_RECORD
  5
134F
330
1
100
AcDbSymbolTableRecord
100
AcDbBlockTableRecord
  2
*D10
340
0
  0
BLOCK_RECORD
  5
1383
330
1
100
AcDbSymbolTableRecord
100
AcDbBlockTableRecord
  2
*D11
340
0
  0
BLOCK_RECORD
  5
13AE
330
1
100
AcDbSymbolTableRecord
100
AcDbBlockTableRecord
  2
*D12
340
0
  0
BLOCK_RECORD
  5
13BB
330
1
100
AcDbSymbolTableRecord
100
AcDbBlockTableRecord
  2
*D13
340
0
  0
BLOCK_RECORD
  5
13CA
330
1
100
AcDbSymbolTableRecord
100
AcDbBlockTableRecord
  2
*D14
340
0
  0
BLOCK_RECORD
  5
1473
330
1
100
AcDbSymbolTableRecord
100
AcDbBlockTableRecord
  2
*D15
340
0
  0
BLOCK_RECORD
  5
1583
330
1
100
AcDbSymbolTableRecord
100
AcDbBlockTableRecord
  2
*D16
340
0
  0
BLOCK_RECORD
  5
158F
330
1
100
AcDbSymbolTableRecord
100
AcDbBlockTableRecord
  2
*D17
340
0
  0
BLOCK_RECORD
  5
159B
330
1
100
AcDbSymbolTableRecord
100
AcDbBlockTableRecord
  2
*D18
340
0
  0
BLOCK_RECORD
  5
1800
330
1
100
AcDbSymbolTableRecord
100
AcDbBlockTableRecord
  2
*D19
340
0
  0
BLOCK_RECORD
  5
20A2
330
1
100
AcDbSymbolTableRecord
100
AcDbBlockTableRecord
  2
*D20
340
0
  0
BLOCK_RECORD
  5
2356
102
{ACAD_XDICTIONARY
360
2362
102
}
330
1
100
AcDbSymbolTableRecord
100
AcDbBlockTableRecord
  2
A$C4B87751A
340
0
  0
ENDTAB
  0
ENDSEC
  0
SECTION
  2
BLOCKS
  0
BLOCK
  5
20
330
1F
100
AcDbEntity
  8
0
100
AcDbBlockBegin
  2
*Model_Space
 70
     0
 10
0.0
 20
0.0
 30
0.0
  3
*Model_Space
  1

  0
ENDBLK
  5
21
330
1F
100
AcDbEntity
  8
0
100
AcDbBlockEnd
  0
BLOCK
  5
1C
330
1B
100
AcDbEntity
 67
     1
  8
0
100
AcDbBlockBegin
  2
*Paper_Space
 70
     0
 10
0.0
 20
0.0
 30
0.0
  3
*Paper_Space
  1

  0
ENDBLK
  5
1D
330
1B
100
AcDbEntity
 67
     1
  8
0
100
AcDbBlockEnd
  0
BLOCK
  5
24
330
23
100
AcDbEntity
  8
0
100
AcDbBlockBegin
  2
*Paper_Space0
 70
     0
 10
0.0
 20
0.0
 30
0.0
  3
*Paper_Space0
  1

  0
ENDBLK
  5
25
330
23
100
AcDbEntity
  8
0
100
AcDbBlockEnd
  0
BLOCK
  5
D2
330
D0
100
AcDbEntity
  8
0
100
AcDbBlockBegin
  2
_DotSmall
 70
     0
 10
0.0
 20
0.0
 30
0.0
  3
_DotSmall
  1

  0
LWPOLYLINE
  5
D1
330
D0
100
AcDbEntity
  8
0
 62
     0
100
AcDbPolyline
 90
        2
 70
     1
 43
0.5
 10
-0.0625
 20
0.0
 42
1.0
 10
0.0625
 20
0.0
 42
1.0
  0
ENDBLK
  5
D3
330
D0
100
AcDbEntity
  8
0
100
AcDbBlockEnd
  0
BLOCK
  5
D8
330
D4
100
AcDbEntity
  8
0
100
AcDbBlockBegin
  2
_Origin2
 70
     0
 10
0.0
 20
0.0
 30
0.0
  3
_Origin2
  1

  0
CIRCLE
  5
D5
330
D4
100
AcDbEntity
  8
0
 62
     0
370
    -2
100
AcDbCircle
 10
0.0
 20
0.0
 30
0.0
 40
0.5
  0
CIRCLE
  5
D6
330
D4
100
AcDbEntity
  8
0
 62
     0
370
    -2
100
AcDbCircle
 10
0.0
 20
0.0
 30
0.0
 40
0.25
  0
LINE
  5
D7
330
D4
100
AcDbEntity
  8
0
 62
     0
370
    -2
100
AcDbLine
 10
-0.5
 20
0.0
 30
0.0
 11
-1.0
 21
0.0
 31
0.0
  0
ENDBLK
  5
D9
330
D4
100
AcDbEntity
  8
0
100
AcDbBlockEnd
  0
BLOCK
  5
DE
330
DA
100
AcDbEntity
  8
0
100
AcDbBlockBegin
  2
_Open30
 70
     0
 10
0.0
 20
0.0
 30
0.0
  3
_Open30
  1

  0
LINE
  5
DB
330
DA
100
AcDbEntity
  8
0
 62
     0
370
    -2
100
AcDbLine
 10
-1.0
 20
0.26794919
 30
0.0
 11
0.0
 21
0.0
 31
0.0
  0
LINE
  5
DC
330
DA
100
AcDbEntity
  8
0
 62
     0
370
    -2
100
AcDbLine
 10
0.0
 20
0.0
 30
0.0
 11
-1.0
 21
-0.26794919
 31
0.0
  0
LINE
  5
DD
330
DA
100
AcDbEntity
  8
0
 62
     0
370
    -2
100
AcDbLine
 10
0.0
 20
0.0
 30
0.0
 11
-1.0
 21
0.0
 31
0.0
  0
ENDBLK
  5
DF
330
DA
100
AcDbEntity
  8
0
100
AcDbBlockEnd
  0
BLOCK
  5
12AE
330
12A3
100
AcDbEntity
  8
0
100
AcDbBlockBegin
  2
*D4
 70
     1
 10
0.0
 20
0.0
 30
0.0
  3
*D4
  1

  0
LINE
  5
22D0
330
12A3
100
AcDbEntity
  8
実形
 62
     0
370
    18
100
AcDbLine
 10
793.5936297894722
 20
1703.67545567602
 30
0.0
 11
703.9629018630797
 21
1703.67545567602
 31
0.0
  0
LINE
  5
22D1
330
12A3
100
AcDbEntity
  8
実形
 62
     0
370
    18
100
AcDbLine
 10
793.5936297894722
 20
1685.67545567602
 30
0.0
 11
703.9629018630797
 21
1685.67545567602
 31
0.0
  0
LINE
  5
22D2
330
12A3
100
AcDbEntity
  8
実形
 62
     0
370
    18
100
AcDbLine
 10
703.9629018630797
 20
1703.67545567602
 30
0.0
 11
703.9629018630797
 21
1685.67545567602
 31
0.0
  0
MTEXT
  5
22D3
330
12A3
100
AcDbEntity
  8
実形
 62
     0
100
AcDbMText
 10
682.8907399845157
 20
1730.733502835174
 30
0.0
 40
25.0
 41
0.0
 71
     5
 72
     1
  1
18
 11
0.0000000000000001
 21
1.0
 31
0.0
 73
     1
 44
1.0
1001
ACAD
1000
MTEXTBEGIN
1070
    73
1070
     1
1070
    44
1040
1.0
1070
    74
1070
     0
1000
MTEXTEND
  0
INSERT
  5
22D4
330
12A3
100
AcDbEntity
  8
実形
 62
     0
370
    18
100
AcDbBlockReference
  2
_DotSmall
 10
703.9629018630797
 20
1703.67545567602
 30
0.0
 41
25.0
 42
25.0
 43
25.0
 50
90.0
  0
INSERT
  5
22D5
330
12A3
100
AcDbEntity
  8
実形
 62
     0
370
    18
100
AcDbBlockReference
  2
_DotSmall
 10
703.9629018630797
 20
1685.67545567602
 30
0.0
 41
25.0
 42
25.0
 43
25.0
 50
270.0
  0
POINT
  5
22D6
330
12A3
100
AcDbEntity
  8
Defpoints
 62
     0
100
AcDbPoint
 10
858.5936297894722
 20
1703.67545567602
 30
0.0
  0
POINT
  5
22D7
330
12A3
100
AcDbEntity
  8
Defpoints
 62
     0
100
AcDbPoint
 10
858.5936297894722
 20
1685.67545567602
 30
0.0
  0
POINT
  5
22D8
330
12A3
100
AcDbEntity
  8
Defpoints
 62
     0
100
AcDbPoint
 10
703.9629018630797
 20
1685.67545567602
 30
0.0
  0
ENDBLK
  5
12AF
330
12A3
100
AcDbEntity
  8
0
100
AcDbBlockEnd
  0
BLOCK
  5
12EB
330
12E1
100
AcDbEntity
  8
0
100
AcDbBlockBegin
  2
*D5
 70
     1
 10
0.0
 20
0.0
 30
0.0
  3
*D5
  1

  0
LINE
  5
22C7
330
12E1
100
AcDbEntity
  8
実形
 62
     0
370
    18
100
AcDbLine
 10
793.5936297894722
 20
1685.67545567602
 30
0.0
 11
703.9629018630797
 21
1685.67545567602
 31
0.0
  0
LINE
  5
22C8
330
12E1
100
AcDbEntity
  8
実形
 62
     0
370
    18
100
AcDbLine
 10
793.5936297894722
 20
1613.67545567602
 30
0.0
 11
703.9629018630797
 21
1613.67545567602
 31
0.0
  0
LINE
  5
22C9
330
12E1
100
AcDbEntity
  8
実形
 62
     0
370
    18
100
AcDbLine
 10
703.9629018630797
 20
1685.67545567602
 30
0.0
 11
703.9629018630797
 21
1613.67545567602
 31
0.0
  0
MTEXT
  5
22CA
330
12E1
100
AcDbEntity
  8
実形
 62
     0
100
AcDbMText
 10
683.0245007617341
 20
1649.86703319438
 30
0.0
 40
25.0
 41
0.0
 71
     5
 72
     1
  1
72
 11
0.0000000000000001
 21
1.0
 31
0.0
 73
     1
 44
1.0
1001
ACAD
1000
MTEXTBEGIN
1070
    73
1070
     1
1070
    44
1040
1.0
1070
    74
1070
     0
1000
MTEXTEND
  0
INSERT
  5
22CB
330
12E1
100
AcDbEntity
  8
実形
 62
     0
370
    18
100
AcDbBlockReference
  2
_DotSmall
 10
703.9629018630797
 20
1685.67545567602
 30
0.0
 41
25.0
 42
25.0
 43
25.0
 50
90.0
  0
INSERT
  5
22CC
330
12E1
100
AcDbEntity
  8
実形
 62
     0
370
    18
100
AcDbBlockReference
  2
_DotSmall
 10
703.9629018630797
 20
1613.67545567602
 30
0.0
 41
25.0
 42
25.0
 43
25.0
 50
270.0
  0
POINT
  5
22CD
330
12E1
100
AcDbEntity
  8
Defpoints
 62
     0
100
AcDbPoint
 10
858.5936297894722
 20
1685.67545567602
 30
0.0
  0
POINT
  5
22CE
330
12E1
100
AcDbEntity
  8
Defpoints
 62
     0
100
AcDbPoint
 10
858.5936297894722
 20
1613.67545567602
 30
0.0
  0
POINT
  5
22CF
330
12E1
100
AcDbEntity
  8
Defpoints
 62
     0
100
AcDbPoint
 10
703.9629018630797
 20
1613.67545567602
 30
0.0
  0
ENDBLK
  5
12EC
330
12E1
100
AcDbEntity
  8
0
100
AcDbBlockEnd
  0
BLOCK
  5
12F8
330
12EE
100
AcDbEntity
  8
0
100
AcDbBlockBegin
  2
*D6
 70
     1
 10
0.0
 20
0.0
 30
0.0
  3
*D6
  1

  0
LINE
  5
22A3
330
12EE
100
AcDbEntity
  8
実形
 62
     0
370
    18
100
AcDbLine
 10
793.5936297894722
 20
1685.67545567602
 30
0.0
 11
703.9629018630797
 21
1685.67545567602
 31
0.0
  0
LINE
  5
22A4
330
12EE
100
AcDbEntity
  8
実形
 62
     0
370
    18
100
AcDbLine
 10
793.5936297894722
 20
1191.67545567602
 30
0.0
 11
703.9629018630797
 21
1191.67545567602
 31
0.0
  0
LINE
  5
22A5
330
12EE
100
AcDbEntity
  8
実形
 62
     0
370
    18
100
AcDbLine
 10
703.9629018630797
 20
1685.67545567602
 30
0.0
 11
703.9629018630797
 21
1191.67545567602
 31
0.0
  0
INSERT
  5
22A6
330
12EE
100
AcDbEntity
  8
実形
 62
     0
370
    18
100
AcDbBlockReference
  2
_DotSmall
 10
703.9629018630797
 20
1685.67545567602
 30
0.0
 41
25.0
 42
25.0
 43
25.0
 50
90.0
  0
INSERT
  5
22A7
330
12EE
100
AcDbEntity
  8
実形
 62
     0
370
    18
100
AcDbBlockReference
  2
_DotSmall
 10
703.9629018630797
 20
1191.67545567602
 30
0.0
 41
25.0
 42
25.0
 43
25.0
 50
270.0
  0
MTEXT
  5
22A8
330
12EE
100
AcDbEntity
  8
実形
 62
     0
100
AcDbMText
 10
685.2129018630795
 20
1438.67545567602
 30
0.0
 40
25.0
 41
0.0
 71
     5
 72
     1
  1
410
 11
0.0000000000000001
 21
1.0
 31
0.0
 73
     1
 44
1.0
1001
ACAD
1000
MTEXTBEGIN
1070
    73
1070
     1
1070
    44
1040
1.0
1070
    74
1070
     0
1000
MTEXTEND
  0
POINT
  5
22A9
330
12EE
100
AcDbEntity
  8
Defpoints
 62
     0
100
AcDbPoint
 10
858.5936297894722
 20
1685.67545567602
 30
0.0
  0
POINT
  5
22AA
330
12EE
100
AcDbEntity
  8
Defpoints
 62
     0
100
AcDbPoint
 10
858.5936297894722
 20
1191.67545567602
 30
0.0
  0
POINT
  5
22AB
330
12EE
100
AcDbEntity
  8
Defpoints
 62
     0
100
AcDbPoint
 10
703.9629018630797
 20
1191.67545567602
 30
0.0
  0
ENDBLK
  5
12F9
330
12EE
100
AcDbEntity
  8
0
100
AcDbBlockEnd
  0
BLOCK
  5
1305
330
12FB
100
AcDbEntity
  8
0
100
AcDbBlockBegin
  2
*D7
 70
     1
 10
0.0
 20
0.0
 30
0.0
  3
*D7
  1

  0
LINE
  5
22BE
330
12FB
100
AcDbEntity
  8
実形
 62
     0
370
    18
100
AcDbLine
 10
793.5936297894722
 20
1203.67545567602
 30
0.0
 11
703.9629018630797
 21
1203.67545567602
 31
0.0
  0
LINE
  5
22BF
330
12FB
100
AcDbEntity
  8
実形
 62
     0
370
    18
100
AcDbLine
 10
793.5936297894722
 20
1173.67545567602
 30
0.0
 11
703.9629018630797
 21
1173.67545567602
 31
0.0
  0
LINE
  5
22C0
330
12FB
100
AcDbEntity
  8
実形
 62
     0
370
    18
100
AcDbLine
 10
703.9629018630797
 20
1203.67545567602
 30
0.0
 11
703.9629018630797
 21
1173.67545567602
 31
0.0
  0
MTEXT
  5
22C1
330
12FB
100
AcDbEntity
  8
実形
 62
     0
100
AcDbMText
 10
684.9282320064394
 20
1226.699952865491
 30
0.0
 40
25.0
 41
0.0
 71
     5
 72
     1
  1
12
 11
0.0000000000000001
 21
1.0
 31
0.0
 73
     1
 44
1.0
1001
ACAD
1000
MTEXTBEGIN
1070
    73
1070
     1
1070
    44
1040
1.0
1070
    74
1070
     0
1000
MTEXTEND
  0
INSERT
  5
22C2
330
12FB
100
AcDbEntity
  8
実形
 62
     0
370
    18
100
AcDbBlockReference
  2
_DotSmall
 10
703.9629018630797
 20
1203.67545567602
 30
0.0
 41
25.0
 42
25.0
 43
25.0
 50
90.0
  0
INSERT
  5
22C3
330
12FB
100
AcDbEntity
  8
実形
 62
     0
370
    18
100
AcDbBlockReference
  2
_DotSmall
 10
703.9629018630797
 20
1173.67545567602
 30
0.0
 41
25.0
 42
25.0
 43
25.0
 50
270.0
  0
POINT
  5
22C4
330
12FB
100
AcDbEntity
  8
Defpoints
 62
     0
100
AcDbPoint
 10
858.5936297894722
 20
1203.67545567602
 30
0.0
  0
POINT
  5
22C5
330
12FB
100
AcDbEntity
  8
Defpoints
 62
     0
100
AcDbPoint
 10
858.5936297894722
 20
1173.67545567602
 30
0.0
  0
POINT
  5
22C6
330
12FB
100
AcDbEntity
  8
Defpoints
 62
     0
100
AcDbPoint
 10
703.9629018630797
 20
1173.67545567602
 30
0.0
  0
ENDBLK
  5
1306
330
12FB
100
AcDbEntity
  8
0
100
AcDbBlockEnd
  0
BLOCK
  5
1312
330
1308
100
AcDbEntity
  8
0
100
AcDbBlockBegin
  2
*D8
 70
     1
 10
0.0
 20
0.0
 30
0.0
  3
*D8
  1

  0
LINE
  5
22B5
330
1308
100
AcDbEntity
  8
実形
 62
     0
370
    18
100
AcDbLine
 10
793.5936297894722
 20
1191.67545567602
 30
0.0
 11
703.9629018630797
 21
1191.67545567602
 31
0.0
  0
LINE
  5
22B6
330
1308
100
AcDbEntity
  8
実形
 62
     0
370
    18
100
AcDbLine
 10
793.5936297894722
 20
1173.67545567602
 30
0.0
 11
703.9629018630797
 21
1173.67545567602
 31
0.0
  0
LINE
  5
22B7
330
1308
100
AcDbEntity
  8
実形
 62
     0
370
    18
100
AcDbLine
 10
703.9629018630797
 20
1191.67545567602
 30
0.0
 11
703.9629018630797
 21
1173.67545567602
 31
0.0
  0
MTEXT
  5
22B8
330
1308
100
AcDbEntity
  8
実形
 62
     0
100
AcDbMText
 10
688.4198646415297
 20
1143.103833519191
 30
0.0
 40
25.0
 41
0.0
 71
     5
 72
     1
  1
18
 11
0.0000000000000001
 21
1.0
 31
0.0
 73
     1
 44
1.0
1001
ACAD
1000
MTEXTBEGIN
1070
    73
1070
     1
1070
    44
1040
1.0
1070
    74
1070
     0
1000
MTEXTEND
  0
INSERT
  5
22B9
330
1308
100
AcDbEntity
  8
実形
 62
     0
370
    18
100
AcDbBlockReference
  2
_DotSmall
 10
703.9629018630797
 20
1191.67545567602
 30
0.0
 41
25.0
 42
25.0
 43
25.0
 50
90.0
  0
INSERT
  5
22BA
330
1308
100
AcDbEntity
  8
実形
 62
     0
370
    18
100
AcDbBlockReference
  2
_DotSmall
 10
703.9629018630797
 20
1173.67545567602
 30
0.0
 41
25.0
 42
25.0
 43
25.0
 50
270.0
  0
POINT
  5
22BB
330
1308
100
AcDbEntity
  8
Defpoints
 62
     0
100
AcDbPoint
 10
858.5936297894722
 20
1191.67545567602
 30
0.0
  0
POINT
  5
22BC
330
1308
100
AcDbEntity
  8
Defpoints
 62
     0
100
AcDbPoint
 10
858.5936297894722
 20
1173.67545567602
 30
0.0
  0
POINT
  5
22BD
330
1308
100
AcDbEntity
  8
Defpoints
 62
     0
100
AcDbPoint
 10
703.9629018630797
 20
1173.67545567602
 30
0.0
  0
ENDBLK
  5
1313
330
1308
100
AcDbEntity
  8
0
100
AcDbBlockEnd
  0
BLOCK
  5
133A
330
1330
100
AcDbEntity
  8
0
100
AcDbBlockBegin
  2
*D9
 70
     1
 10
0.0
 20
0.0
 30
0.0
  3
*D9
  1

  0
LINE
  5
229A
330
1330
100
AcDbEntity
  8
実形
 62
     0
370
    18
100
AcDbLine
 10
793.5936297894722
 20
1703.67545567602
 30
0.0
 11
630.2509594618124
 21
1703.67545567602
 31
0.0
  0
LINE
  5
229B
330
1330
100
AcDbEntity
  8
実形
 62
     0
370
    18
100
AcDbLine
 10
793.5936297894722
 20
1173.67545567602
 30
0.0
 11
630.2509594618122
 21
1173.67545567602
 31
0.0
  0
LINE
  5
229C
330
1330
100
AcDbEntity
  8
実形
 62
     0
370
    18
100
AcDbLine
 10
630.2509594618124
 20
1703.67545567602
 30
0.0
 11
630.2509594618122
 21
1173.67545567602
 31
0.0
  0
INSERT
  5
229D
330
1330
100
AcDbEntity
  8
実形
 62
     0
370
    18
100
AcDbBlockReference
  2
_DotSmall
 10
630.2509594618124
 20
1703.67545567602
 30
0.0
 41
25.0
 42
25.0
 43
25.0
 50
90.0
  0
INSERT
  5
229E
330
1330
100
AcDbEntity
  8
実形
 62
     0
370
    18
100
AcDbBlockReference
  2
_DotSmall
 10
630.2509594618122
 20
1173.67545567602
 30
0.0
 41
25.0
 42
25.0
 43
25.0
 50
270.0
  0
MTEXT
  5
229F
330
1330
100
AcDbEntity
  8
実形
 62
     0
100
AcDbMText
 10
611.5009594618121
 20
1438.67545567602
 30
0.0
 40
25.0
 41
0.0
 71
     5
 72
     1
  1
530
 11
0.0000000000000001
 21
1.0
 31
0.0
 73
     1
 44
1.0
1001
ACAD
1000
MTEXTBEGIN
1070
    73
1070
     1
1070
    44
1040
1.0
1070
    74
1070
     0
1000
MTEXTEND
  0
POINT
  5
22A0
330
1330
100
AcDbEntity
  8
Defpoints
 62
     0
100
AcDbPoint
 10
858.5936297894722
 20
1703.67545567602
 30
0.0
  0
POINT
  5
22A1
330
1330
100
AcDbEntity
  8
Defpoints
 62
     0
100
AcDbPoint
 10
858.5936297894722
 20
1173.67545567602
 30
0.0
  0
POINT
  5
22A2
330
1330
100
AcDbEntity
  8
Defpoints
 62
     0
100
AcDbPoint
 10
630.2509594618122
 20
1173.67545567602
 30
0.0
  0
ENDBLK
  5
133B
330
1330
100
AcDbEntity
  8
0
100
AcDbBlockEnd
  0
BLOCK
  5
135A
330
134F
100
AcDbEntity
  8
0
100
AcDbBlockBegin
  2
*D10
 70
     1
 10
0.0
 20
0.0
 30
0.0
  3
*D10
  1

  0
LINE
  5
22AC
330
134F
100
AcDbEntity
  8
実形
 62
     0
370
    18
100
AcDbLine
 10
858.5936297894722
 20
1108.67545567602
 30
0.0
 11
858.5936297894722
 21
1062.290944394732
 31
0.0
  0
LINE
  5
22AD
330
134F
100
AcDbEntity
  8
実形
 62
     0
370
    18
100
AcDbLine
 10
876.5936297894723
 20
1108.67545567602
 30
0.0
 11
876.5936297894723
 21
1062.290944394732
 31
0.0
  0
LINE
  5
22AE
330
134F
100
AcDbEntity
  8
実形
 62
     0
370
    18
100
AcDbLine
 10
858.5936297894722
 20
1062.290944394732
 30
0.0
 11
876.5936297894723
 21
1062.290944394732
 31
0.0
  0
MTEXT
  5
22AF
330
134F
100
AcDbEntity
  8
実形
 62
     0
100
AcDbMText
 10
822.8350914612283
 20
1073.70353727191
 30
0.0
 40
25.0
 41
0.0
 71
     5
 72
     1
  1
18
 73
     1
 44
1.0
1001
ACAD
1000
MTEXTBEGIN
1070
    73
1070
     1
1070
    44
1040
1.0
1070
    74
1070
     0
1000
MTEXTEND
  0
INSERT
  5
22B0
330
134F
100
AcDbEntity
  8
実形
 62
     0
370
    18
100
AcDbBlockReference
  2
_DotSmall
 10
858.5936297894722
 20
1062.290944394732
 30
0.0
 41
25.0
 42
25.0
 43
25.0
 50
180.0
  0
INSERT
  5
22B1
330
134F
100
AcDbEntity
  8
実形
 62
     0
370
    18
100
AcDbBlockReference
  2
_DotSmall
 10
876.5936297894723
 20
1062.290944394732
 30
0.0
 41
25.0
 42
25.0
 43
25.0
  0
POINT
  5
22B2
330
134F
100
AcDbEntity
  8
Defpoints
 62
     0
100
AcDbPoint
 10
858.5936297894722
 20
1173.67545567602
 30
0.0
  0
POINT
  5
22B3
330
134F
100
AcDbEntity
  8
Defpoints
 62
     0
100
AcDbPoint
 10
876.5936297894723
 20
1173.67545567602
 30
0.0
  0
POINT
  5
22B4
330
134F
100
AcDbEntity
  8
Defpoints
 62
     0
100
AcDbPoint
 10
876.5936297894723
 20
1062.290944394732
 30
0.0
  0
ENDBLK
  5
135B
330
134F
100
AcDbEntity
  8
0
100
AcDbBlockEnd
  0
BLOCK
  5
138F
330
1383
100
AcDbEntity
  8
0
100
AcDbBlockBegin
  2
*D11
 70
     1
 10
0.0
 20
0.0
 30
0.0
  3
*D11
  1

  0
LINE
  5
2288
330
1383
100
AcDbEntity
  8
実形
 62
     0
370
    18
100
AcDbLine
 10
876.5936297894723
 20
1108.67545567602
 30
0.0
 11
876.5936297894723
 21
1062.290944394732
 31
0.0
  0
LINE
  5
2289
330
1383
100
AcDbEntity
  8
実形
 62
     0
370
    18
100
AcDbLine
 10
928.5936297894723
 20
1108.67545567602
 30
0.0
 11
928.5936297894723
 21
1062.290944394732
 31
0.0
  0
LINE
  5
228A
330
1383
100
AcDbEntity
  8
実形
 62
     0
370
    18
100
AcDbLine
 10
876.5936297894723
 20
1062.290944394732
 30
0.0
 11
928.5936297894723
 21
1062.290944394732
 31
0.0
  0
MTEXT
  5
228B
330
1383
100
AcDbEntity
  8
実形
 62
     0
100
AcDbMText
 10
891.3618198663543
 20
1034.9007185773
 30
0.0
 40
25.0
 41
0.0
 71
     5
 72
     1
  1
52
 73
     1
 44
1.0
1001
ACAD
1000
MTEXTBEGIN
1070
    73
1070
     1
1070
    44
1040
1.0
1070
    74
1070
     0
1000
MTEXTEND
  0
INSERT
  5
228C
330
1383
100
AcDbEntity
  8
実形
 62
     0
370
    18
100
AcDbBlockReference
  2
_DotSmall
 10
876.5936297894723
 20
1062.290944394732
 30
0.0
 41
25.0
 42
25.0
 43
25.0
 50
180.0
  0
INSERT
  5
228D
330
1383
100
AcDbEntity
  8
実形
 62
     0
370
    18
100
AcDbBlockReference
  2
_DotSmall
 10
928.5936297894723
 20
1062.290944394732
 30
0.0
 41
25.0
 42
25.0
 43
25.0
  0
POINT
  5
228E
330
1383
100
AcDbEntity
  8
Defpoints
 62
     0
100
AcDbPoint
 10
876.5936297894723
 20
1173.67545567602
 30
0.0
  0
POINT
  5
228F
330
1383
100
AcDbEntity
  8
Defpoints
 62
     0
100
AcDbPoint
 10
928.5936297894723
 20
1173.67545567602
 30
0.0
  0
POINT
  5
2290
330
1383
100
AcDbEntity
  8
Defpoints
 62
     0
100
AcDbPoint
 10
928.5936297894723
 20
1062.290944394732
 30
0.0
  0
ENDBLK
  5
1390
330
1383
100
AcDbEntity
  8
0
100
AcDbBlockEnd
  0
BLOCK
  5
13B8
330
13AE
100
AcDbEntity
  8
0
100
AcDbBlockBegin
  2
*D12
 70
     1
 10
0.0
 20
0.0
 30
0.0
  3
*D12
  1

  0
LINE
  5
227F
330
13AE
100
AcDbEntity
  8
実形
 62
     0
370
    18
100
AcDbLine
 10
928.5936297894723
 20
1108.67545567602
 30
0.0
 11
928.5936297894723
 21
1062.290944394732
 31
0.0
  0
LINE
  5
2280
330
13AE
100
AcDbEntity
  8
実形
 62
     0
370
    18
100
AcDbLine
 10
1858.593629789472
 20
1108.67545567602
 30
0.0
 11
1858.593629789472
 21
1062.290944394732
 31
0.0
  0
LINE
  5
2281
330
13AE
100
AcDbEntity
  8
実形
 62
     0
370
    18
100
AcDbLine
 10
928.5936297894723
 20
1062.290944394732
 30
0.0
 11
1858.593629789472
 21
1062.290944394732
 31
0.0
  0
INSERT
  5
2282
330
13AE
100
AcDbEntity
  8
実形
 62
     0
370
    18
100
AcDbBlockReference
  2
_DotSmall
 10
928.5936297894723
 20
1062.290944394732
 30
0.0
 41
25.0
 42
25.0
 43
25.0
 50
180.0
  0
INSERT
  5
2283
330
13AE
100
AcDbEntity
  8
実形
 62
     0
370
    18
100
AcDbBlockReference
  2
_DotSmall
 10
1858.593629789472
 20
1062.290944394732
 30
0.0
 41
25.0
 42
25.0
 43
25.0
  0
MTEXT
  5
2284
330
13AE
100
AcDbEntity
  8
実形
 62
     0
100
AcDbMText
 10
1393.593629789472
 20
1081.040944394732
 30
0.0
 40
25.0
 41
0.0
 71
     5
 72
     1
  1
930
 73
     1
 44
1.0
1001
ACAD
1000
MTEXTBEGIN
1070
    73
1070
     1
1070
    44
1040
1.0
1070
    74
1070
     0
1000
MTEXTEND
  0
POINT
  5
2285
330
13AE
100
AcDbEntity
  8
Defpoints
 62
     0
100
AcDbPoint
 10
928.5936297894723
 20
1173.67545567602
 30
0.0
  0
POINT
  5
2286
330
13AE
100
AcDbEntity
  8
Defpoints
 62
     0
100
AcDbPoint
 10
1858.593629789472
 20
1173.67545567602
 30
0.0
  0
POINT
  5
2287
330
13AE
100
AcDbEntity
  8
Defpoints
 62
     0
100
AcDbPoint
 10
1858.593629789472
 20
1062.290944394732
 30
0.0
  0
ENDBLK
  5
13B9
330
13AE
100
AcDbEntity
  8
0
100
AcDbBlockEnd
  0
BLOCK
  5
13C7
330
13BB
100
AcDbEntity
  8
0
100
AcDbBlockBegin
  2
*D13
 70
     1
 10
0.0
 20
0.0
 30
0.0
  3
*D13
  1

  0
LINE
  5
22F4
330
13BB
100
AcDbEntity
  8
実形
 62
     0
370
    18
100
AcDbLine
 10
1858.593629789472
 20
1108.67545567602
 30
0.0
 11
1858.593629789472
 21
1062.290944394732
 31
0.0
  0
LINE
  5
22F5
330
13BB
100
AcDbEntity
  8
実形
 62
     0
370
    18
100
AcDbLine
 10
1910.593629789472
 20
1108.67545567602
 30
0.0
 11
1910.593629789472
 21
1062.290944394732
 31
0.0
  0
LINE
  5
22F6
330
13BB
100
AcDbEntity
  8
実形
 62
     0
370
    18
100
AcDbLine
 10
1858.593629789472
 20
1062.290944394732
 30
0.0
 11
1910.593629789472
 21
1062.290944394732
 31
0.0
  0
MTEXT
  5
22F7
330
13BB
100
AcDbEntity
  8
実形
 62
     0
100
AcDbMText
 10
1897.231419637516
 20
1034.9007185773
 30
0.0
 40
25.0
 41
0.0
 71
     5
 72
     1
  1
52
 73
     1
 44
1.0
1001
ACAD
1000
MTEXTBEGIN
1070
    73
1070
     1
1070
    44
1040
1.0
1070
    74
1070
     0
1000
MTEXTEND
  0
INSERT
  5
22F8
330
13BB
100
AcDbEntity
  8
実形
 62
     0
370
    18
100
AcDbBlockReference
  2
_DotSmall
 10
1858.593629789472
 20
1062.290944394732
 30
0.0
 41
25.0
 42
25.0
 43
25.0
 50
180.0
  0
INSERT
  5
22F9
330
13BB
100
AcDbEntity
  8
実形
 62
     0
370
    18
100
AcDbBlockReference
  2
_DotSmall
 10
1910.593629789472
 20
1062.290944394732
 30
0.0
 41
25.0
 42
25.0
 43
25.0
  0
POINT
  5
22FA
330
13BB
100
AcDbEntity
  8
Defpoints
 62
     0
100
AcDbPoint
 10
1858.593629789472
 20
1173.67545567602
 30
0.0
  0
POINT
  5
22FB
330
13BB
100
AcDbEntity
  8
Defpoints
 62
     0
100
AcDbPoint
 10
1910.593629789472
 20
1173.67545567602
 30
0.0
  0
POINT
  5
22FC
330
13BB
100
AcDbEntity
  8
Defpoints
 62
     0
100
AcDbPoint
 10
1910.593629789472
 20
1062.290944394732
 30
0.0
  0
ENDBLK
  5
13C8
330
13BB
100
AcDbEntity
  8
0
100
AcDbBlockEnd
  0
BLOCK
  5
13D6
330
13CA
100
AcDbEntity
  8
0
100
AcDbBlockBegin
  2
*D14
 70
     1
 10
0.0
 20
0.0
 30
0.0
  3
*D14
  1

  0
LINE
  5
22EB
330
13CA
100
AcDbEntity
  8
実形
 62
     0
370
    18
100
AcDbLine
 10
1910.593629789472
 20
1108.67545567602
 30
0.0
 11
1910.593629789472
 21
1062.290944394732
 31
0.0
  0
LINE
  5
22EC
330
13CA
100
AcDbEntity
  8
実形
 62
     0
370
    18
100
AcDbLine
 10
1928.593629789472
 20
1108.67545567602
 30
0.0
 11
1928.593629789472
 21
1062.290944394732
 31
0.0
  0
LINE
  5
22ED
330
13CA
100
AcDbEntity
  8
実形
 62
     0
370
    18
100
AcDbLine
 10
1910.593629789472
 20
1062.290944394732
 30
0.0
 11
1928.593629789472
 21
1062.290944394732
 31
0.0
  0
MTEXT
  5
22EE
330
13CA
100
AcDbEntity
  8
実形
 62
     0
100
AcDbMText
 10
1963.473923762472
 20
1069.138497208834
 30
0.0
 40
25.0
 41
0.0
 71
     5
 72
     1
  1
18
 73
     1
 44
1.0
1001
ACAD
1000
MTEXTBEGIN
1070
    73
1070
     1
1070
    44
1040
1.0
1070
    74
1070
     0
1000
MTEXTEND
  0
INSERT
  5
22EF
330
13CA
100
AcDbEntity
  8
実形
 62
     0
370
    18
100
AcDbBlockReference
  2
_DotSmall
 10
1910.593629789472
 20
1062.290944394732
 30
0.0
 41
25.0
 42
25.0
 43
25.0
 50
180.0
  0
INSERT
  5
22F0
330
13CA
100
AcDbEntity
  8
実形
 62
     0
370
    18
100
AcDbBlockReference
  2
_DotSmall
 10
1928.593629789472
 20
1062.290944394732
 30
0.0
 41
25.0
 42
25.0
 43
25.0
  0
POINT
  5
22F1
330
13CA
100
AcDbEntity
  8
Defpoints
 62
     0
100
AcDbPoint
 10
1910.593629789472
 20
1173.67545567602
 30
0.0
  0
POINT
  5
22F2
330
13CA
100
AcDbEntity
  8
Defpoints
 62
     0
100
AcDbPoint
 10
1928.593629789472
 20
1173.67545567602
 30
0.0
  0
POINT
  5
22F3
330
13CA
100
AcDbEntity
  8
Defpoints
 62
     0
100
AcDbPoint
 10
1928.593629789472
 20
1062.290944394732
 30
0.0
  0
ENDBLK
  5
13D7
330
13CA
100
AcDbEntity
  8
0
100
AcDbBlockEnd
  0
BLOCK
  5
147D
330
1473
100
AcDbEntity
  8
0
100
AcDbBlockBegin
  2
*D15
 70
     1
 10
0.0
 20
0.0
 30
0.0
  3
*D15
  1

  0
LINE
  5
2276
330
1473
100
AcDbEntity
  8
実形
 62
     0
370
    18
100
AcDbLine
 10
858.5936297894722
 20
1108.67545567602
 30
0.0
 11
858.5936297894722
 21
982.4027942544844
 31
0.0
  0
LINE
  5
2277
330
1473
100
AcDbEntity
  8
実形
 62
     0
370
    18
100
AcDbLine
 10
1928.593629789472
 20
1108.67545567602
 30
0.0
 11
1928.593629789472
 21
982.4027942544844
 31
0.0
  0
LINE
  5
2278
330
1473
100
AcDbEntity
  8
実形
 62
     0
370
    18
100
AcDbLine
 10
858.5936297894722
 20
982.4027942544844
 30
0.0
 11
1928.593629789472
 21
982.4027942544844
 31
0.0
  0
INSERT
  5
2279
330
1473
100
AcDbEntity
  8
実形
 62
     0
370
    18
100
AcDbBlockReference
  2
_DotSmall
 10
858.5936297894722
 20
982.4027942544844
 30
0.0
 41
25.0
 42
25.0
 43
25.0
 50
180.0
  0
INSERT
  5
227A
330
1473
100
AcDbEntity
  8
実形
 62
     0
370
    18
100
AcDbBlockReference
  2
_DotSmall
 10
1928.593629789472
 20
982.4027942544844
 30
0.0
 41
25.0
 42
25.0
 43
25.0
  0
MTEXT
  5
227B
330
1473
100
AcDbEntity
  8
実形
 62
     0
100
AcDbMText
 10
1393.593629789472
 20
1001.152794254484
 30
0.0
 40
25.0
 41
0.0
 71
     5
 72
     1
  1
1070
 73
     1
 44
1.0
1001
ACAD
1000
MTEXTBEGIN
1070
    73
1070
     1
1070
    44
1040
1.0
1070
    74
1070
     0
1000
MTEXTEND
  0
POINT
  5
227C
330
1473
100
AcDbEntity
  8
Defpoints
 62
     0
100
AcDbPoint
 10
858.5936297894722
 20
1173.67545567602
 30
0.0
  0
POINT
  5
227D
330
1473
100
AcDbEntity
  8
Defpoints
 62
     0
100
AcDbPoint
 10
1928.593629789472
 20
1173.67545567602
 30
0.0
  0
POINT
  5
227E
330
1473
100
AcDbEntity
  8
Defpoints
 62
     0
100
AcDbPoint
 10
1928.593629789472
 20
982.4027942544844
 30
0.0
  0
ENDBLK
  5
147E
330
1473
100
AcDbEntity
  8
0
100
AcDbBlockEnd
  0
BLOCK
  5
158D
330
1583
100
AcDbEntity
  8
0
100
AcDbBlockBegin
  2
*D16
 70
     1
 10
0.0
 20
0.0
 30
0.0
  3
*D16
  1

  0
LINE
  5
226D
330
1583
100
AcDbEntity
  8
実形
 62
     0
370
    15
100
AcDbLine
 10
1078.593629789472
 20
1505.218353240059
 30
0.0
 11
1078.593629789472
 21
1815.539080112476
 31
0.0
  0
LINE
  5
226E
330
1583
100
AcDbEntity
  8
実形
 62
     0
370
    15
100
AcDbLine
 10
858.5936297894722
 20
1750.675455676019
 30
0.0
 11
858.5936297894722
 21
1815.539080112476
 31
0.0
  0
LINE
  5
226F
330
1583
100
AcDbEntity
  8
実形
 62
     0
370
    18
100
AcDbLine
 10
1078.593629789472
 20
1815.539080112476
 30
0.0
 11
858.5936297894722
 21
1815.539080112476
 31
0.0
  0
INSERT
  5
2270
330
1583
100
AcDbEntity
  8
実形
 62
     0
370
    18
100
AcDbBlockReference
  2
_DotSmall
 10
1078.593629789472
 20
1815.539080112476
 30
0.0
 41
25.0
 42
25.0
 43
25.0
  0
INSERT
  5
2271
330
1583
100
AcDbEntity
  8
実形
 62
     0
370
    18
100
AcDbBlockReference
  2
_DotSmall
 10
858.5936297894722
 20
1815.539080112476
 30
0.0
 41
25.0
 42
25.0
 43
25.0
 50
180.0
  0
MTEXT
  5
2272
330
1583
100
AcDbEntity
  8
実形
 62
     0
100
AcDbMText
 10
968.5936297894723
 20
1834.289080112476
 30
0.0
 40
25.0
 41
0.0
 71
     5
 72
     1
  1
220
 73
     1
 44
1.0
1001
ACAD
1000
MTEXTBEGIN
1070
    73
1070
     1
1070
    44
1040
1.0
1070
    74
1070
     0
1000
MTEXTEND
  0
POINT
  5
2273
330
1583
100
AcDbEntity
  8
Defpoints
 62
     0
100
AcDbPoint
 10
1078.593629789472
 20
1440.218353240059
 30
0.0
  0
POINT
  5
2274
330
1583
100
AcDbEntity
  8
Defpoints
 62
     0
100
AcDbPoint
 10
858.5936297894722
 20
1685.67545567602
 30
0.0
  0
POINT
  5
2275
330
1583
100
AcDbEntity
  8
Defpoints
 62
     0
100
AcDbPoint
 10
858.5936297894722
 20
1815.539080112476
 30
0.0
  0
ENDBLK
  5
158E
330
1583
100
AcDbEntity
  8
0
100
AcDbBlockEnd
  0
BLOCK
  5
1599
330
158F
100
AcDbEntity
  8
0
100
AcDbBlockBegin
  2
*D17
 70
     1
 10
0.0
 20
0.0
 30
0.0
  3
*D17
  1

  0
LINE
  5
22E2
330
158F
100
AcDbEntity
  8
実形
 62
     0
370
    15
100
AcDbLine
 10
1169.093629789472
 20
499.6754556760198
 30
0.0
 11
1169.093629789472
 21
407.0386498060178
 31
0.0
  0
LINE
  5
22E3
330
158F
100
AcDbEntity
  8
実形
 62
     0
370
    15
100
AcDbLine
 10
988.0936297894722
 20
499.6754556760197
 30
0.0
 11
988.0936297894722
 21
407.0386498060178
 31
0.0
  0
LINE
  5
22E4
330
158F
100
AcDbEntity
  8
実形
 62
     0
370
    18
100
AcDbLine
 10
1169.093629789472
 20
407.0386498060178
 30
0.0
 11
988.0936297894722
 21
407.0386498060178
 31
0.0
  0
INSERT
  5
22E5
330
158F
100
AcDbEntity
  8
実形
 62
     0
370
    18
100
AcDbBlockReference
  2
_DotSmall
 10
1169.093629789472
 20
407.0386498060178
 30
0.0
 41
25.0
 42
25.0
 43
25.0
  0
INSERT
  5
22E6
330
158F
100
AcDbEntity
  8
実形
 62
     0
370
    18
100
AcDbBlockReference
  2
_DotSmall
 10
988.0936297894722
 20
407.0386498060178
 30
0.0
 41
25.0
 42
25.0
 43
25.0
 50
180.0
  0
MTEXT
  5
22E7
330
158F
100
AcDbEntity
  8
実形
 62
     0
100
AcDbMText
 10
1078.593629789472
 20
425.7886498060178
 30
0.0
 40
25.0
 41
0.0
 71
     5
 72
     1
  1
181
 73
     1
 44
1.0
1001
ACAD
1000
MTEXTBEGIN
1070
    73
1070
     1
1070
    44
1040
1.0
1070
    74
1070
     0
1000
MTEXTEND
  0
POINT
  5
22E8
330
158F
100
AcDbEntity
  8
Defpoints
 62
     0
100
AcDbPoint
 10
1169.093629789472
 20
564.6754556760198
 30
0.0
  0
POINT
  5
22E9
330
158F
100
AcDbEntity
  8
Defpoints
 62
     0
100
AcDbPoint
 10
988.0936297894722
 20
564.6754556760197
 30
0.0
  0
POINT
  5
22EA
330
158F
100
AcDbEntity
  8
Defpoints
 62
     0
100
AcDbPoint
 10
988.0936297894722
 20
407.0386498060178
 30
0.0
  0
ENDBLK
  5
159A
330
158F
100
AcDbEntity
  8
0
100
AcDbBlockEnd
  0
BLOCK
  5
15A5
330
159B
100
AcDbEntity
  8
0
100
AcDbBlockBegin
  2
*D18
 70
     1
 10
0.0
 20
0.0
 30
0.0
  3
*D18
  1

  0
LINE
  5
22D9
330
159B
100
AcDbEntity
  8
実形
 62
     0
370
    15
100
AcDbLine
 10
1158.593629789472
 20
499.6754556760197
 30
0.0
 11
1158.593629789472
 21
448.2480483749468
 31
0.0
  0
LINE
  5
22DA
330
159B
100
AcDbEntity
  8
実形
 62
     0
370
    15
100
AcDbLine
 10
998.5936297894722
 20
499.6754556760197
 30
0.0
 11
998.5936297894722
 21
448.2480483749468
 31
0.0
  0
LINE
  5
22DB
330
159B
100
AcDbEntity
  8
実形
 62
     0
370
    18
100
AcDbLine
 10
1158.593629789472
 20
448.2480483749468
 30
0.0
 11
998.5936297894722
 21
448.2480483749468
 31
0.0
  0
INSERT
  5
22DC
330
159B
100
AcDbEntity
  8
実形
 62
     0
370
    18
100
AcDbBlockReference
  2
_DotSmall
 10
1158.593629789472
 20
448.2480483749468
 30
0.0
 41
25.0
 42
25.0
 43
25.0
  0
INSERT
  5
22DD
330
159B
100
AcDbEntity
  8
実形
 62
     0
370
    18
100
AcDbBlockReference
  2
_DotSmall
 10
998.5936297894722
 20
448.2480483749468
 30
0.0
 41
25.0
 42
25.0
 43
25.0
 50
180.0
  0
MTEXT
  5
22DE
330
159B
100
AcDbEntity
  8
実形
 62
     0
100
AcDbMText
 10
1078.593629789472
 20
466.9980483749468
 30
0.0
 40
25.0
 41
0.0
 71
     5
 72
     1
  1
158
 73
     1
 44
1.0
1001
ACAD
1000
MTEXTBEGIN
1070
    73
1070
     1
1070
    44
1040
1.0
1070
    74
1070
     0
1000
MTEXTEND
  0
POINT
  5
22DF
330
159B
100
AcDbEntity
  8
Defpoints
 62
     0
100
AcDbPoint
 10
1158.593629789472
 20
564.6754556760197
 30
0.0
  0
POINT
  5
22E0
330
159B
100
AcDbEntity
  8
Defpoints
 62
     0
100
AcDbPoint
 10
998.5936297894722
 20
564.6754556760197
 30
0.0
  0
POINT
  5
22E1
330
159B
100
AcDbEntity
  8
Defpoints
 62
     0
100
AcDbPoint
 10
998.5936297894722
 20
448.2480483749468
 30
0.0
  0
ENDBLK
  5
15A6
330
159B
100
AcDbEntity
  8
0
100
AcDbBlockEnd
  0
BLOCK
  5
180A
330
1800
100
AcDbEntity
  8
0
100
AcDbBlockBegin
  2
*D19
 70
     1
 10
0.0
 20
0.0
 30
0.0
  3
*D19
  1

  0
LINE
  5
2264
330
1800
100
AcDbEntity
  8
実形
 62
     0
370
    15
100
AcDbLine
 10
1200.988613654663
 20
1408.67545567602
 30
0.0
 11
1287.592469354855
 21
1408.67545567602
 31
0.0
  0
LINE
  5
2265
330
1800
100
AcDbEntity
  8
実形
 62
     0
370
    15
100
AcDbLine
 10
933.5936297894722
 20
1173.678331949444
 30
0.0
 11
1287.592469354855
 21
1173.678331949444
 31
0.0
  0
LINE
  5
2266
330
1800
100
AcDbEntity
  8
実形
 62
     0
370
    18
100
AcDbLine
 10
1287.592469354855
 20
1408.67545567602
 30
0.0
 11
1287.592469354855
 21
1173.678331949444
 31
0.0
  0
INSERT
  5
2267
330
1800
100
AcDbEntity
  8
実形
 62
     0
370
    18
100
AcDbBlockReference
  2
_DotSmall
 10
1287.592469354855
 20
1408.67545567602
 30
0.0
 41
25.0
 42
25.0
 43
25.0
 50
90.0
  0
INSERT
  5
2268
330
1800
100
AcDbEntity
  8
実形
 62
     0
370
    18
100
AcDbBlockReference
  2
_DotSmall
 10
1287.592469354855
 20
1173.678331949444
 30
0.0
 41
25.0
 42
25.0
 43
25.0
 50
270.0
  0
MTEXT
  5
2269
330
1800
100
AcDbEntity
  8
実形
 62
     0
100
AcDbMText
 10
1268.842469354855
 20
1291.176893812732
 30
0.0
 40
25.0
 41
0.0
 71
     5
 72
     1
  1
235
 11
0.0000000000000001
 21
1.0
 31
0.0
 73
     1
 44
1.0
1001
ACAD
1000
MTEXTBEGIN
1070
    73
1070
     1
1070
    44
1040
1.0
1070
    74
1070
     0
1000
MTEXTEND
  0
POINT
  5
226A
330
1800
100
AcDbEntity
  8
Defpoints
 62
     0
100
AcDbPoint
 10
1135.988613654663
 20
1408.67545567602
 30
0.0
  0
POINT
  5
226B
330
1800
100
AcDbEntity
  8
Defpoints
 62
     0
100
AcDbPoint
 10
868.5936297894723
 20
1173.678331949444
 30
0.0
  0
POINT
  5
226C
330
1800
100
AcDbEntity
  8
Defpoints
 62
     0
100
AcDbPoint
 10
1287.592469354855
 20
1173.678331949444
 30
0.0
  0
ENDBLK
  5
180B
330
1800
100
AcDbEntity
  8
0
100
AcDbBlockEnd
  0
BLOCK
  5
20AC
330
20A2
100
AcDbEntity
  8
0
100
AcDbBlockBegin
  2
*D20
 70
     1
 10
0.0
 20
0.0
 30
0.0
  3
*D20
  1

  0
LINE
  5
2291
330
20A2
100
AcDbEntity
  8
実形
 62
     0
370
    18
100
AcDbLine
 10
736.2838064148324
 20
779.6754556760198
 30
0.0
 11
652.8205513629492
 21
779.6754556760198
 31
0.0
  0
LINE
  5
2292
330
20A2
100
AcDbEntity
  8
実形
 62
     0
370
    18
100
AcDbLine
 10
675.1910967679186
 20
565.6754556760197
 30
0.0
 11
652.8205513629491
 21
565.6754556760197
 31
0.0
  0
LINE
  5
2293
330
20A2
100
AcDbEntity
  8
実形
 62
     0
370
    18
100
AcDbLine
 10
652.8205513629492
 20
779.6754556760198
 30
0.0
 11
652.8205513629491
 21
565.6754556760197
 31
0.0
  0
INSERT
  5
2294
330
20A2
100
AcDbEntity
  8
実形
 62
     0
370
    18
100
AcDbBlockReference
  2
_DotSmall
 10
652.8205513629492
 20
779.6754556760198
 30
0.0
 41
25.0
 42
25.0
 43
25.0
 50
90.0
  0
INSERT
  5
2295
330
20A2
100
AcDbEntity
  8
実形
 62
     0
370
    18
100
AcDbBlockReference
  2
_DotSmall
 10
652.8205513629491
 20
565.6754556760197
 30
0.0
 41
25.0
 42
25.0
 43
25.0
 50
270.0
  0
MTEXT
  5
2296
330
20A2
100
AcDbEntity
  8
実形
 62
     0
100
AcDbMText
 10
633.070551362949
 20
672.6754556760199
 30
0.0
 40
27.0
 41
0.0
 71
     5
 72
     1
  1
211
 11
0.0000000000000001
 21
1.0
 31
0.0
 73
     1
 44
1.0
1001
ACAD
1000
MTEXTBEGIN
1070
    73
1070
     1
1070
    44
1040
1.0
1070
    74
1070
     0
1000
MTEXTEND
  0
POINT
  5
2297
330
20A2
100
AcDbEntity
  8
Defpoints
 62
     0
100
AcDbPoint
 10
801.2838064148324
 20
779.6754556760197
 30
0.0
  0
POINT
  5
2298
330
20A2
100
AcDbEntity
  8
Defpoints
 62
     0
100
AcDbPoint
 10
740.1910967679185
 20
565.6754556760197
 30
0.0
  0
POINT
  5
2299
330
20A2
100
AcDbEntity
  8
Defpoints
 62
     0
100
AcDbPoint
 10
652.8205513629491
 20
565.6754556760197
 30
0.0
  0
ENDBLK
  5
20AD
330
20A2
100
AcDbEntity
  8
0
100
AcDbBlockEnd
  0
BLOCK
  5
2364
330
2356
100
AcDbEntity
  8
0
100
AcDbBlockBegin
  2
A$C4B87751A
 70
     0
 10
0.0
 20
0.0
 30
0.0
  3
A$C4B87751A
  1

  0
LINE
  5
2357
330
2356
100
AcDbEntity
  8
補助
100
AcDbLine
 10
0.0
 20
-64.99999999999954
 30
0.0
 11
-764.6127134807173
 21
-64.99999999999932
 31
0.0
  0
LINE
  5
2358
330
2356
100
AcDbEntity
  8
補助
100
AcDbLine
 10
0.0
 20
-129.9999999999995
 30
0.0
 11
-764.6127134807177
 21
-129.9999999999995
 31
0.0
  0
LINE
  5
2359
330
2356
100
AcDbEntity
  8
補助
100
AcDbLine
 10
-581.4523465790735
 20
-129.9999999999998
 30
0.0
 11
-581.4523465790735
 21
0.0000000000006821
 31
0.0
  0
LINE
  5
235A
330
2356
100
AcDbEntity
  8
補助
100
AcDbLine
 10
-764.6127134807175
 20
-129.9999999999998
 30
0.0
 11
-764.6127134807173
 21
0.0000000000006821
 31
0.0
  0
TEXT
  5
235B
330
2356
100
AcDbEntity
  8
補助
100
AcDbText
 10
-733.7043011498792
 20
-47.67142857142789
 30
0.0
 40
30.0
  1
部品名
  7
明朝
 72
     4
 11
-667.8757297213078
 21
-32.49999999999932
 31
0.0
100
AcDbText
  0
TEXT
  5
235C
330
2356
100
AcDbEntity
  8
補助
100
AcDbText
 10
-156.3857142857143
 20
-47.92857142857075
 30
0.0
 40
30.0
  1
厚さ
  7
明朝
 72
     4
 11
-112.5
 21
-32.49999999999932
 31
0.0
100
AcDbText
  0
LINE
  5
235D
330
2356
100
AcDbEntity
  8
補助
100
AcDbLine
 10
-225.0
 20
-129.9999999999998
 30
0.0
 11
-225.0
 21
0.0000000000006821
 31
0.0
  0
TEXT
  5
235E
330
2356
100
AcDbEntity
  8
補助
100
AcDbText
 10
-445.5091300800633
 20
-48.05202052184517
 30
0.0
 40
30.0
  1
材質
  7
明朝
 72
     4
 11
-401.6234157943491
 21
-32.8805919504166
 31
0.0
100
AcDbText
  0
TEXT
  5
235F
330
2356
100
AcDbEntity
  8
実形
100
AcDbText
 10
-735.7721893422124
 20
-113.4428571428569
 30
0.0
 40
30.0
  1
ボウル
  7
明朝
 72
     4
 11
-669.943617913641
 21
-97.49999999999978
 31
0.0
100
AcDbText
  0
TEXT
  5
2360
330
2356
100
AcDbEntity
  8
実形
100
AcDbText
 10
-189.2999999999991
 20
-112.1571428571426
 30
0.0
 40
30.0
  1
1.0ｍｍ
  7
明朝
 72
     4
 11
-112.4999999999991
 21
-97.49999999999978
 31
0.0
100
AcDbText
  0
TEXT
  5
2361
330
2356
100
AcDbEntity
  8
実形
100
AcDbText
 10
-522.9831308921343
 20
-113.2714285714283
 30
0.0
 40
30.0
  1
SUS304（BA）
  7
明朝
 72
     4
 11
-391.3259880349915
 21
-97.49999999999978
 31
0.0
100
AcDbText
  0
ENDBLK
  5
2365
330
2356
100
AcDbEntity
  8
0
100
AcDbBlockEnd
  0
ENDSEC
  0
SECTION
  2
ENTITIES
  0
LINE
  5
9C
330
1F
100
AcDbEntity
  8
実形
100
AcDbLine
 10
111.0
 20
4.0
 30
0.0
 11
2784.0
 21
4.0
 31
0.0
  0
LINE
  5
A0
330
1F
100
AcDbEntity
  8
実形
100
AcDbLine
 10
2784.0
 20
2024.0
 30
0.0
 11
111.0
 21
2024.0
 31
0.0
  0
LINE
  5
A5
330
1F
100
AcDbEntity
  8
実形
100
AcDbLine
 10
2784.0
 20
4.0
 30
0.0
 11
2784.0
 21
2024.0
 31
0.0
  0
TEXT
  5
8C9
330
1F
100
AcDbEntity
  8
実形
100
AcDbText
 10
249.2632881086038
 20
83.52862940911927
 30
0.0
 40
30.0
  1
※実寸には製造上の誤差が多少生ずる場合があります。シンクの穴あけ加工は現物合わせにてお願いします。
100
AcDbText
  0
DIMENSION
  5
12A2
330
1F
100
AcDbEntity
  8
実形
100
AcDbDimension
  2
*D4
 10
703.9629018630797
 20
1685.67545567602
 30
0.0
 11
682.8907399845157
 21
1730.733502835174
 31
0.0
 70
   160
 71
     5
 42
18.0
  3
ISO-25
100
AcDbAlignedDimension
 13
858.5936297894722
 23
1703.67545567602
 33
0.0
 14
858.5936297894722
 24
1685.67545567602
 34
0.0
 50
90.0
100
AcDbRotatedDimension
1001
ACAD
1000
DSTYLE
1002
{
1070
    41
1040
25.0
1070
   279
1070
     2
1070
   371
1070
    18
1070
   372
1070
    18
1002
}
  0
DIMENSION
  5
12E0
330
1F
100
AcDbEntity
  8
実形
100
AcDbDimension
  2
*D5
 10
703.9629018630797
 20
1613.67545567602
 30
0.0
 11
701.7745007617341
 21
1649.86703319438
 31
0.0
 70
   160
 71
     5
 42
72.0
  3
ISO-25
100
AcDbAlignedDimension
 13
858.5936297894722
 23
1685.67545567602
 33
0.0
 14
858.5936297894722
 24
1613.67545567602
 34
0.0
 50
90.0
100
AcDbRotatedDimension
1001
ACAD
1000
DSTYLE
1002
{
1070
    41
1040
25.0
1070
   279
1070
     1
1070
   371
1070
    18
1070
   372
1070
    18
1002
}
  0
DIMENSION
  5
12ED
330
1F
100
AcDbEntity
  8
実形
100
AcDbDimension
  2
*D6
 10
703.9629018630797
 20
1191.67545567602
 30
0.0
 11
685.2129018630795
 21
1438.67545567602
 31
0.0
 70
    32
  1
410
 71
     5
 42
494.0
  3
ISO-25
100
AcDbAlignedDimension
 13
858.5936297894722
 23
1685.67545567602
 33
0.0
 14
858.5936297894722
 24
1191.67545567602
 34
0.0
 50
90.0
100
AcDbRotatedDimension
1001
ACAD
1000
DSTYLE
1002
{
1070
    41
1040
25.0
1070
   279
1070
     1
1070
   371
1070
    18
1070
   372
1070
    18
1002
}
  0
DIMENSION
  5
12FA
330
1F
100
AcDbEntity
  8
実形
100
AcDbDimension
  2
*D7
 10
703.9629018630797
 20
1173.67545567602
 30
0.0
 11
684.9282320064394
 21
1226.699952865491
 31
0.0
 70
   160
  1
12
 71
     5
 42
30.0
  3
ISO-25
100
AcDbAlignedDimension
 13
858.5936297894722
 23
1203.67545567602
 33
0.0
 14
858.5936297894722
 24
1173.67545567602
 34
0.0
 50
90.0
100
AcDbRotatedDimension
1001
ACAD
1000
DSTYLE
1002
{
1070
    41
1040
25.0
1070
   279
1070
     2
1070
   371
1070
    18
1070
   372
1070
    18
1002
}
  0
DIMENSION
  5
1307
330
1F
100
AcDbEntity
  8
実形
100
AcDbDimension
  2
*D8
 10
703.9629018630797
 20
1173.67545567602
 30
0.0
 11
707.1698646415297
 21
1143.103833519191
 31
0.0
 70
   160
 71
     5
 42
18.0
  3
ISO-25
100
AcDbAlignedDimension
 13
858.5936297894722
 23
1191.67545567602
 33
0.0
 14
858.5936297894722
 24
1173.67545567602
 34
0.0
 50
90.0
100
AcDbRotatedDimension
1001
ACAD
1000
DSTYLE
1002
{
1070
    41
1040
25.0
1070
   279
1070
     1
1070
   371
1070
    18
1070
   372
1070
    18
1002
}
  0
DIMENSION
  5
132F
330
1F
100
AcDbEntity
  8
実形
100
AcDbDimension
  2
*D9
 10
630.2509594618122
 20
1173.67545567602
 30
0.0
 11
611.5009594618121
 21
1438.67545567602
 31
0.0
 70
    32
 71
     5
 42
530.0
  3
ISO-25
100
AcDbAlignedDimension
 13
858.5936297894722
 23
1703.67545567602
 33
0.0
 14
858.5936297894722
 24
1173.67545567602
 34
0.0
 50
90.0
100
AcDbRotatedDimension
1001
ACAD
1000
DSTYLE
1002
{
1070
    41
1040
25.0
1070
   371
1070
    18
1070
   372
1070
    18
1002
}
  0
DIMENSION
  5
134E
330
1F
100
AcDbEntity
  8
実形
100
AcDbDimension
  2
*D10
 10
876.5936297894723
 20
1062.290944394732
 30
0.0
 11
822.8350914612283
 21
1073.70353727191
 31
0.0
 70
   160
 71
     5
 42
18.0
  3
ISO-25
100
AcDbAlignedDimension
 13
858.5936297894722
 23
1173.67545567602
 33
0.0
 14
876.5936297894723
 24
1173.67545567602
 34
0.0
100
AcDbRotatedDimension
1001
ACAD
1000
DSTYLE
1002
{
1070
    41
1040
25.0
1070
   279
1070
     2
1070
   371
1070
    18
1070
   372
1070
    18
1002
}
  0
DIMENSION
  5
1382
330
1F
100
AcDbEntity
  8
実形
100
AcDbDimension
  2
*D11
 10
928.5936297894723
 20
1062.290944394732
 30
0.0
 11
891.3618198663543
 21
1034.9007185773
 31
0.0
 70
   160
 71
     5
 42
52.0
  3
ISO-25
100
AcDbAlignedDimension
 13
876.5936297894723
 23
1173.67545567602
 33
0.0
 14
928.5936297894723
 24
1173.67545567602
 34
0.0
100
AcDbRotatedDimension
1001
ACAD
1000
DSTYLE
1002
{
1070
    41
1040
25.0
1070
   279
1070
     2
1070
   371
1070
    18
1070
   372
1070
    18
1002
}
  0
DIMENSION
  5
13AD
330
1F
100
AcDbEntity
  8
実形
100
AcDbDimension
  2
*D12
 10
1858.593629789472
 20
1062.290944394732
 30
0.0
 11
1393.593629789472
 21
1081.040944394732
 31
0.0
 70
    32
 71
     5
 42
930.0
  3
ISO-25
100
AcDbAlignedDimension
 13
928.5936297894723
 23
1173.67545567602
 33
0.0
 14
1858.593629789472
 24
1173.67545567602
 34
0.0
100
AcDbRotatedDimension
1001
ACAD
1000
DSTYLE
1002
{
1070
    41
1040
25.0
1070
   279
1070
     1
1070
   371
1070
    18
1070
   372
1070
    18
1002
}
  0
DIMENSION
  5
13BA
330
1F
100
AcDbEntity
  8
実形
100
AcDbDimension
  2
*D13
 10
1910.593629789472
 20
1062.290944394732
 30
0.0
 11
1897.231419637516
 21
1034.9007185773
 31
0.0
 70
   160
 71
     5
 42
51.99999999999977
  3
ISO-25
100
AcDbAlignedDimension
 13
1858.593629789472
 23
1173.67545567602
 33
0.0
 14
1910.593629789472
 24
1173.67545567602
 34
0.0
100
AcDbRotatedDimension
1001
ACAD
1000
DSTYLE
1002
{
1070
    41
1040
25.0
1070
   279
1070
     2
1070
   371
1070
    18
1070
   372
1070
    18
1002
}
  0
DIMENSION
  5
13C9
330
1F
100
AcDbEntity
  8
実形
100
AcDbDimension
  2
*D14
 10
1928.593629789472
 20
1062.290944394732
 30
0.0
 11
1963.473923762472
 21
1069.138497208834
 31
0.0
 70
   160
 71
     5
 42
18.0
  3
ISO-25
100
AcDbAlignedDimension
 13
1910.593629789472
 23
1173.67545567602
 33
0.0
 14
1928.593629789472
 24
1173.67545567602
 34
0.0
100
AcDbRotatedDimension
1001
ACAD
1000
DSTYLE
1002
{
1070
    41
1040
25.0
1070
   279
1070
     2
1070
   371
1070
    18
1070
   372
1070
    18
1002
}
  0
DIMENSION
  5
1472
330
1F
100
AcDbEntity
  8
実形
100
AcDbDimension
  2
*D15
 10
1928.593629789472
 20
982.4027942544844
 30
0.0
 11
1393.593629789472
 21
1001.152794254484
 31
0.0
 70
    32
 71
     5
 42
1070.0
  3
ISO-25
100
AcDbAlignedDimension
 13
858.5936297894722
 23
1173.67545567602
 33
0.0
 14
1928.593629789472
 24
1173.67545567602
 34
0.0
100
AcDbRotatedDimension
1001
ACAD
1000
DSTYLE
1002
{
1070
    41
1040
25.0
1070
   371
1070
    18
1070
   372
1070
    18
1002
}
  0
LINE
  5
14A3
330
1F
100
AcDbEntity
  8
実形
100
AcDbLine
 10
1928.593629789472
 20
1693.678331949444
 30
0.0
 11
1928.593629789472
 21
1183.678331949444
 31
0.0
  0
LINE
  5
14A4
330
1F
100
AcDbEntity
  8
実形
100
AcDbLine
 10
1923.593629789472
 20
1693.678331949444
 30
0.0
 11
1923.593629789472
 21
1183.678331949444
 31
0.0
  0
LINE
  5
14A5
330
1F
100
AcDbEntity
  8
実形
100
AcDbLine
 10
1910.593629789472
 20
1221.678331949444
 30
0.0
 11
1910.593629789472
 21
1655.678331949444
 31
0.0
  0
LINE
  5
14A6
330
1F
100
AcDbEntity
  8
実形
100
AcDbLine
 10
1915.593629789472
 20
1221.678331949444
 30
0.0
 11
1915.593629789472
 21
1655.678331949444
 31
0.0
  0
ARC
  5
14A7
330
1F
100
AcDbEntity
  8
実形
100
AcDbCircle
 10
1880.593629789472
 20
1221.678331949444
 30
0.0
 40
30.0
100
AcDbArc
 50
270.0
 51
0.0
  0
ARC
  5
14A8
330
1F
100
AcDbEntity
  8
実形
100
AcDbCircle
 10
1880.593629789472
 20
1221.678331949444
 30
0.0
 40
35.0
100
AcDbArc
 50
270.0
 51
0.0
  0
LINE
  5
14A9
330
1F
100
AcDbEntity
  8
実形
100
AcDbLine
 10
1918.593629789472
 20
1178.678331949444
 30
0.0
 11
868.5936297894723
 21
1178.678331949444
 31
0.0
  0
ARC
  5
14AA
330
1F
100
AcDbEntity
  8
実形
100
AcDbCircle
 10
1918.593629789472
 20
1183.678331949444
 30
0.0
 40
5.0
100
AcDbArc
 50
270.0
 51
0.0
  0
ARC
  5
14AB
330
1F
100
AcDbEntity
  8
実形
100
AcDbCircle
 10
1918.593629789472
 20
1183.678331949444
 30
0.0
 40
10.0
100
AcDbArc
 50
270.0
 51
0.0
  0
LINE
  5
14AC
330
1F
100
AcDbEntity
  8
実形
100
AcDbLine
 10
906.5936297894722
 20
1191.678331949444
 30
0.0
 11
1880.593629789472
 21
1191.678331949444
 31
0.0
  0
LINE
  5
14AD
330
1F
100
AcDbEntity
  8
実形
100
AcDbLine
 10
906.5936297894722
 20
1186.678331949444
 30
0.0
 11
1880.593629789472
 21
1186.678331949444
 31
0.0
  0
LINE
  5
14AE
330
1F
100
AcDbEntity
  8
実形
100
AcDbLine
 10
1880.593629789472
 20
1690.678331949444
 30
0.0
 11
906.5936297894722
 21
1690.678331949444
 31
0.0
  0
LINE
  5
14AF
330
1F
100
AcDbEntity
  8
実形
100
AcDbLine
 10
868.5936297894723
 20
1698.678331949444
 30
0.0
 11
1918.593629789472
 21
1698.678331949444
 31
0.0
  0
LINE
  5
14B0
330
1F
100
AcDbEntity
  8
実形
100
AcDbLine
 10
868.5936297894723
 20
1703.678331949444
 30
0.0
 11
1918.593629789472
 21
1703.678331949444
 31
0.0
  0
LINE
  5
14B1
330
1F
100
AcDbEntity
  8
実形
100
AcDbLine
 10
1880.593629789472
 20
1685.678331949445
 30
0.0
 11
906.5936297894722
 21
1685.678331949445
 31
0.0
  0
ARC
  5
14B2
330
1F
100
AcDbEntity
  8
実形
100
AcDbCircle
 10
906.5936297894722
 20
1655.678331949444
 30
0.0
 40
35.0
100
AcDbArc
 50
90.0
 51
180.0
  0
ARC
  5
14B3
330
1F
100
AcDbEntity
  8
実形
100
AcDbCircle
 10
868.5936297894723
 20
1693.678331949444
 30
0.0
 40
5.0
100
AcDbArc
 50
90.0
 51
180.0
  0
ARC
  5
14B4
330
1F
100
AcDbEntity
  8
実形
100
AcDbCircle
 10
868.5936297894723
 20
1693.678331949444
 30
0.0
 40
10.0
100
AcDbArc
 50
90.0
 51
180.0
  0
ARC
  5
14B5
330
1F
100
AcDbEntity
  8
実形
100
AcDbCircle
 10
906.5936297894722
 20
1655.678331949444
 30
0.0
 40
30.0
100
AcDbArc
 50
90.0
 51
180.0
  0
ARC
  5
14B6
330
1F
100
AcDbEntity
  8
実形
100
AcDbCircle
 10
1880.593629789472
 20
1655.678331949444
 30
0.0
 40
35.0
100
AcDbArc
 50
0.0
 51
90.0
  0
ARC
  5
14B7
330
1F
100
AcDbEntity
  8
実形
100
AcDbCircle
 10
1918.593629789472
 20
1693.678331949444
 30
0.0
 40
5.0
100
AcDbArc
 50
0.0
 51
90.0
  0
ARC
  5
14B8
330
1F
100
AcDbEntity
  8
実形
100
AcDbCircle
 10
1918.593629789472
 20
1693.678331949444
 30
0.0
 40
10.0
100
AcDbArc
 50
0.0
 51
90.0
  0
ARC
  5
14B9
330
1F
100
AcDbEntity
  8
実形
100
AcDbCircle
 10
1880.593629789472
 20
1655.678331949444
 30
0.0
 40
30.0
100
AcDbArc
 50
0.0
 51
90.0
  0
LINE
  5
14BA
330
1F
100
AcDbEntity
  8
実形
100
AcDbLine
 10
871.5936297894723
 20
1655.678331949444
 30
0.0
 11
871.5936297894723
 21
1221.678331949444
 31
0.0
  0
LINE
  5
14BB
330
1F
100
AcDbEntity
  8
実形
100
AcDbLine
 10
863.5936297894723
 20
1183.678331949444
 30
0.0
 11
863.5936297894723
 21
1693.678331949444
 31
0.0
  0
LINE
  5
14BC
330
1F
100
AcDbEntity
  8
実形
100
AcDbLine
 10
858.5936297894722
 20
1183.678331949444
 30
0.0
 11
858.5936297894722
 21
1693.678331949444
 31
0.0
  0
LINE
  5
14BD
330
1F
100
AcDbEntity
  8
実形
100
AcDbLine
 10
876.5936297894723
 20
1655.678331949444
 30
0.0
 11
876.5936297894723
 21
1221.678331949444
 31
0.0
  0
ARC
  5
14BE
330
1F
100
AcDbEntity
  8
実形
100
AcDbCircle
 10
868.5936297894723
 20
1183.678331949444
 30
0.0
 40
5.0
100
AcDbArc
 50
180.0
 51
270.0
  0
ARC
  5
14BF
330
1F
100
AcDbEntity
  8
実形
100
AcDbCircle
 10
868.5936297894723
 20
1183.678331949444
 30
0.0
 40
10.0
100
AcDbArc
 50
180.0
 51
270.0
  0
ARC
  5
14C0
330
1F
100
AcDbEntity
  8
実形
100
AcDbCircle
 10
906.5936297894722
 20
1221.678331949444
 30
0.0
 40
35.0
100
AcDbArc
 50
180.0
 51
270.0
  0
ARC
  5
14C1
330
1F
100
AcDbEntity
  8
実形
100
AcDbCircle
 10
906.5936297894722
 20
1221.678331949444
 30
0.0
 40
30.0
100
AcDbArc
 50
180.0
 51
270.0
  0
LINE
  5
14C2
330
1F
100
AcDbEntity
  8
実形
100
AcDbLine
 10
1918.593629789472
 20
1173.678331949444
 30
0.0
 11
868.5936297894723
 21
1173.678331949444
 31
0.0
  0
LINE
  5
1549
330
1F
100
AcDbEntity
  8
実形
  6
ACAD_ISO08W100
 48
0.5
370
    15
100
AcDbLine
 10
1214.132941600926
 20
1408.67545567602
 30
0.0
 11
943.054317978018
 21
1408.67545567602
 31
0.0
  0
CIRCLE
  5
154A
330
1F
100
AcDbEntity
  8
実形
100
AcDbCircle
 10
1078.593629789472
 20
1408.67545567602
 30
0.0
 40
90.5
  0
CIRCLE
  5
154B
330
1F
100
AcDbEntity
  8
実形
100
AcDbCircle
 10
1078.593629789472
 20
1408.67545567602
 30
0.0
 40
79.0
  0
LINE
  5
154E
330
1F
100
AcDbEntity
  8
実形
  6
ACAD_ISO08W100
 48
0.5
370
    15
100
AcDbLine
 10
1078.593629789472
 20
1544.214767487474
 30
0.0
 11
1078.593629789472
 21
1273.136143864565
 31
0.0
  0
DIMENSION
  5
1560
330
1F
100
AcDbEntity
  8
実形
100
AcDbDimension
  2
*D16
 10
858.5936297894722
 20
1815.539080112476
 30
0.0
 11
968.5936297894723
 21
1834.289080112476
 31
0.0
 70
    32
 71
     5
 42
220.0
  3
ISO-25
100
AcDbAlignedDimension
 13
1078.593629789472
 23
1440.218353240059
 33
0.0
 14
858.5936297894722
 24
1685.67545567602
 34
0.0
 50
180.0
100
AcDbRotatedDimension
1001
ACAD
1000
DSTYLE
1002
{
1070
    41
1040
25.0
1070
   371
1070
    18
1002
}
  0
LINE
  5
1561
330
1F
100
AcDbEntity
  8
実形
100
AcDbLine
 10
1498.593629789472
 20
774.6754556760197
 30
0.0
 11
888.5936297894717
 21
774.6754556760197
 31
0.0
  0
DIMENSION
  5
1562
330
1F
100
AcDbEntity
  8
実形
100
AcDbDimension
  2
*D17
 10
988.0936297894722
 20
407.0386498060178
 30
0.0
 11
1078.593629789472
 21
407.0386498060178
 31
0.0
 70
   160
 71
     5
 42
181.0
  3
ISO-25
100
AcDbAlignedDimension
 13
1169.093629789472
 23
564.6754556760198
 33
0.0
 14
988.0936297894722
 24
564.6754556760197
 34
0.0
 50
180.0
100
AcDbRotatedDimension
1001
ACAD
1000
DSTYLE
1002
{
1070
    41
1040
25.0
1070
   371
1070
    18
1002
}
  0
DIMENSION
  5
1563
330
1F
100
AcDbEntity
  8
実形
100
AcDbDimension
  2
*D18
 10
998.5936297894722
 20
448.2480483749468
 30
0.0
 11
1078.593629789472
 21
466.9980483749468
 31
0.0
 70
    32
  1
158
 71
     5
 42
160.0
  3
ISO-25
100
AcDbAlignedDimension
 13
1158.593629789472
 23
564.6754556760197
 33
0.0
 14
998.5936297894722
 24
564.6754556760197
 34
0.0
 50
180.0
100
AcDbRotatedDimension
1001
ACAD
1000
DSTYLE
1002
{
1070
    41
1040
25.0
1070
   371
1070
    18
1002
}
  0
LINE
  5
1564
330
1F
100
AcDbEntity
  8
実形
100
AcDbLine
 10
1169.093629789472
 20
564.6754556760197
 30
0.0
 11
988.0936297894722
 21
564.6754556760197
 31
0.0
  0
LINE
  5
1565
330
1F
100
AcDbEntity
  8
実形
100
AcDbLine
 10
1169.093629789472
 20
574.6754556760197
 30
0.0
 11
998.5936297894722
 21
574.6754556760197
 31
0.0
  0
LINE
  5
1566
330
1F
100
AcDbEntity
  8
実形
100
AcDbLine
 10
1498.593629789472
 20
774.6754556760197
 30
0.0
 11
888.5936297894717
 21
774.6754556760197
 31
0.0
  0
LINE
  5
1568
330
1F
100
AcDbEntity
  8
実形
  6
ACAD_ISO08W100
 48
0.5
370
    15
100
AcDbLine
 10
1078.593629789472
 20
652.8920795514332
 30
0.0
 11
1078.593629789472
 21
496.476259244133
 31
0.0
  0
LINE
  5
156A
330
1F
100
AcDbEntity
  8
実形
100
AcDbLine
 10
1169.093629789472
 20
574.6754556760197
 30
0.0
 11
1169.093629789472
 21
564.6754556760197
 31
0.0
  0
LEADER
  5
156D
330
1F
100
AcDbEntity
  8
実形
100
AcDbLeader
  3
ISO-25
 40
25.0
 41
16.66666666666666
 76
     2
 10
1841.968074564766
 20
609.8743603541688
 30
0.0
 10
1794.029576269716
 20
640.3565821186239
 30
0.0
213
0.0
223
-12.5
233
0.0
1001
ACAD
1000
DSTYLE
1002
{
1070
    41
1040
25.0
1070
   147
1040
6.25
1070
    77
1070
     0
1070
    73
1070
     1
1070
    74
1070
     1
1070
   279
1070
     1
1070
   342
1005
DA
1002
}
  0
LINE
  5
1570
330
1F
100
AcDbEntity
  8
実形
100
AcDbLine
 10
988.0936297894722
 20
564.6754556760197
 30
0.0
 11
988.0936297894722
 21
574.6754556760197
 31
0.0
  0
LINE
  5
1571
330
1F
100
AcDbEntity
  8
実形
100
AcDbLine
 10
988.0936297894722
 20
574.6754556760197
 30
0.0
 11
988.0936297894722
 21
574.6754556760197
 31
0.0
  0
LINE
  5
1572
330
1F
100
AcDbEntity
  8
実形
100
AcDbLine
 10
998.5936297894722
 20
574.6754556760197
 30
0.0
 11
988.0936297894722
 21
574.6754556760197
 31
0.0
  0
TEXT
  5
1576
330
1F
100
AcDbEntity
  8
実形
100
AcDbText
 10
1720.23887989706
 20
639.3998290991945
 30
0.0
 40
25.0
  1
30R
100
AcDbText
  0
DIMENSION
  5
17B2
330
1F
100
AcDbEntity
  8
実形
100
AcDbDimension
  2
*D19
 10
1287.592469354855
 20
1173.678331949444
 30
0.0
 11
1268.842469354855
 21
1291.176893812732
 31
0.0
 70
    32
 71
     5
 42
234.9971237265754
  3
ISO-25
100
AcDbAlignedDimension
 13
1135.988613654663
 23
1408.67545567602
 33
0.0
 14
868.5936297894723
 24
1173.678331949444
 34
0.0
 50
90.0
100
AcDbRotatedDimension
1001
ACAD
1000
DSTYLE
1002
{
1070
    41
1040
25.0
1070
   371
1070
    18
1002
}
  0
LINE
  5
17BC
330
1F
100
AcDbEntity
  8
実形
100
AcDbLine
 10
1898.593629789472
 20
774.6754556760197
 30
0.0
 11
1508.593629789472
 21
774.6754556760197
 31
0.0
  0
LINE
  5
17BD
330
1F
100
AcDbEntity
  8
実形
100
AcDbLine
 10
1508.593629789472
 20
774.6754556760197
 30
0.0
 11
1898.593629789472
 21
774.6754556760197
 31
0.0
  0
LINE
  5
17BE
330
1F
100
AcDbEntity
  8
実形
100
AcDbLine
 10
1508.593629789472
 20
774.6754556760197
 30
0.0
 11
1898.593629789472
 21
774.6754556760197
 31
0.0
  0
LINE
  5
1C45
330
1F
100
AcDbEntity
  8
実形
100
AcDbLine
 10
1915.593629789472
 20
764.6754556760197
 30
0.0
 11
871.5936297894723
 21
764.6754556760197
 31
0.0
  0
LINE
  5
1C46
330
1F
100
AcDbEntity
  8
実形
100
AcDbLine
 10
1923.593629789472
 20
779.6754556760197
 30
0.0
 11
863.5936297894723
 21
779.6754556760197
 31
0.0
  0
LINE
  5
1C47
330
1F
100
AcDbEntity
  8
実形
100
AcDbLine
 10
1928.593629789472
 20
774.6754556760197
 30
0.0
 11
858.5936297894722
 21
774.6754556760197
 31
0.0
  0
LINE
  5
1C48
330
1F
100
AcDbEntity
  8
実形
100
AcDbLine
 10
873.5936297894722
 20
774.6754556760197
 30
0.0
 11
1913.593629789472
 21
774.6754556760197
 31
0.0
  0
LINE
  5
1C49
330
1F
100
AcDbEntity
  8
実形
100
AcDbLine
 10
873.5936297894722
 20
774.6754556760197
 30
0.0
 11
1913.593629789472
 21
774.6754556760197
 31
0.0
  0
LINE
  5
1C4A
330
1F
100
AcDbEntity
  8
実形
100
AcDbLine
 10
871.5936297894723
 20
764.6754556760197
 30
0.0
 11
871.5936297894723
 21
774.6754556760197
 31
0.0
  0
LINE
  5
1C4B
330
1F
100
AcDbEntity
  8
実形
100
AcDbLine
 10
863.5936297894723
 20
779.6754556760197
 30
0.0
 11
858.5936297894722
 21
774.6754556760197
 31
0.0
  0
LINE
  5
1C4C
330
1F
100
AcDbEntity
  8
実形
100
AcDbLine
 10
1915.593629789472
 20
774.6754556760197
 30
0.0
 11
1915.593629789472
 21
764.6754556760197
 31
0.0
  0
LINE
  5
1C4D
330
1F
100
AcDbEntity
  8
実形
100
AcDbLine
 10
1923.593629789472
 20
779.6754556760197
 30
0.0
 11
1928.593629789472
 21
774.6754556760197
 31
0.0
  0
LINE
  5
1DF9
330
1F
100
AcDbEntity
  8
実形
100
AcDbLine
 10
928.5936297894723
 20
764.6754556760197
 30
0.0
 11
928.5936297894721
 21
613.0510689351438
 31
0.0
  0
LINE
  5
1DFA
330
1F
100
AcDbEntity
  8
実形
100
AcDbLine
 10
951.2600570296903
 20
583.9612303213427
 30
0.0
 11
988.0936297894722
 21
574.6754556760197
 31
0.0
  0
LINE
  5
1DFB
330
1F
100
AcDbEntity
  8
実形
100
AcDbLine
 10
1169.093629789472
 20
574.6754556760197
 30
0.0
 11
1829.246122248946
 21
589.0370037353266
 31
0.0
  0
LINE
  5
1DFC
330
1F
100
AcDbEntity
  8
実形
100
AcDbLine
 10
1858.593629789472
 20
619.0299071224668
 30
0.0
 11
1858.593629789472
 21
764.6754556760197
 31
0.0
  0
ARC
  5
1DFD
330
1F
100
AcDbEntity
  8
実形
100
AcDbCircle
 10
1828.593629789472
 20
619.0299071224668
 30
0.0
 40
30.0
100
AcDbArc
 50
271.2462670743365
 51
0.0
  0
ARC
  5
1DFE
330
1F
100
AcDbEntity
  8
実形
100
AcDbCircle
 10
958.5936297894722
 20
613.0510689351438
 30
0.0
 40
30.0
100
AcDbArc
 50
180.0
 51
255.8505239136548
  0
ARC
  5
1E00
330
1F
100
AcDbEntity
  8
実形
100
AcDbCircle
 10
1393.593629789472
 20
6203.67545567602
 30
0.0
 40
5000.0
100
AcDbArc
 50
265.5619678070307
 51
274.4380321929693
  0
ARC
  5
1E01
330
1F
100
AcDbEntity
  8
実形
100
AcDbCircle
 10
1393.593629789472
 20
-3386.324544323981
 30
0.0
 40
5000.0
100
AcDbArc
 50
85.56196780703075
 51
94.43803219296922
  0
ARC
  5
1E03
330
1F
100
AcDbEntity
  8
実形
100
AcDbCircle
 10
2428.593629789472
 20
1408.67545567602
 30
0.0
 40
1500.0
100
AcDbArc
 50
175.5471103985196
 51
184.4528896014804
  0
ARC
  5
1E04
330
1F
100
AcDbEntity
  8
実形
100
AcDbCircle
 10
358.5936297894727
 20
1408.67545567602
 30
0.0
 40
1500.0
100
AcDbArc
 50
355.5471103985196
 51
4.452889601480399
  0
ARC
  5
1E05
330
1F
100
AcDbEntity
  8
実形
100
AcDbCircle
 10
1774.307371548066
 20
1518.923364481055
 30
0.0
 40
80.0
100
AcDbArc
 50
4.452889601480346
 51
85.5619678070308
  0
ARC
  5
1E06
330
1F
100
AcDbEntity
  8
実形
100
AcDbCircle
 10
1012.879888030879
 20
1518.923364481055
 30
0.0
 40
80.0
100
AcDbArc
 50
94.43803219296903
 51
175.5471103985196
  0
ARC
  5
1E07
330
1F
100
AcDbEntity
  8
実形
100
AcDbCircle
 10
1012.879888030879
 20
1298.427546870984
 30
0.0
 40
80.0
100
AcDbArc
 50
184.4528896014802
 51
265.5619678070284
  0
ARC
  5
1E08
330
1F
100
AcDbEntity
  8
実形
100
AcDbCircle
 10
1774.307371548066
 20
1298.427546870984
 30
0.0
 40
80.0
100
AcDbArc
 50
274.4380321929699
 51
355.547110398519
  0
TEXT
  5
1E8E
330
1F
100
AcDbEntity
  8
実形
100
AcDbText
 10
2086.666666666667
 20
84.0
 30
0.0
 40
35.0
  1
尺度
 72
     4
 11
2124.0
 21
101.5
 31
0.0
100
AcDbText
  0
TEXT
  5
1E8F
330
1F
100
AcDbEntity
  8
実形
100
AcDbText
 10
2086.666666666667
 20
149.0
 30
0.0
 40
35.0
  1
品番
 72
     4
 11
2124.0
 21
166.5
 31
0.0
100
AcDbText
  0
LINE
  5
1E90
330
1F
100
AcDbEntity
  8
実形
100
AcDbLine
 10
2064.0
 20
69.0
 30
0.0
 11
2784.0
 21
69.0
 31
0.0
  0
LINE
  5
1E91
330
1F
100
AcDbEntity
  8
実形
100
AcDbLine
 10
2064.0
 20
199.0
 30
0.0
 11
2784.0
 21
199.0
 31
0.0
  0
LINE
  5
1E92
330
1F
100
AcDbEntity
  8
実形
100
AcDbLine
 10
2064.0
 20
134.0
 30
0.0
 11
2784.0
 21
134.0
 31
0.0
  0
LINE
  5
1E93
330
1F
100
AcDbEntity
  8
実形
100
AcDbLine
 10
2064.0
 20
4.0
 30
0.0
 11
2064.0
 21
199.0
 31
0.0
  0
TEXT
  5
1E94
330
1F
100
AcDbEntity
  8
実形
100
AcDbText
 10
2300.255774665348
 20
16.49999999999999
 30
0.0
 40
40.0
  1
中外交易株式会社
 72
     4
 11
2488.255774665347
 21
36.5
 31
0.0
100
AcDbText
  0
TEXT
  5
1E95
330
1F
100
AcDbEntity
  8
実形
100
AcDbText
 10
2265.25
 20
149.0
 30
0.0
 40
35.0
  1
A1m/m1070-530S
 72
     4
 11
2484.0
 21
166.5
 31
0.0
100
AcDbText
  0
LINE
  5
1E96
330
1F
100
AcDbEntity
  8
実形
100
AcDbLine
 10
2184.0
 20
69.0
 30
0.0
 11
2784.0
 21
69.0
 31
0.0
  0
LINE
  5
1E97
102
{ACAD_REACTORS
330
1EA4
102
}
330
1F
100
AcDbEntity
  8
実形
370
     5
100
AcDbLine
 10
2207.843923164362
 20
40.53787547858519
 30
0.0
 11
2183.255774665347
 21
40.53787547858519
 31
0.0
  0
LINE
  5
1E98
102
{ACAD_REACTORS
330
1EA4
102
}
330
1F
100
AcDbEntity
  8
実形
370
     5
100
AcDbLine
 10
2183.255774665347
 20
40.53787547858519
 30
0.0
 11
2183.255774665347
 21
30.53787547858519
 31
0.0
  0
LINE
  5
1E99
102
{ACAD_REACTORS
330
1EA4
102
}
330
1F
100
AcDbEntity
  8
実形
370
     5
100
AcDbLine
 10
2183.255774665347
 20
30.53787547858519
 30
0.0
 11
2207.346428692676
 21
30.53787547858514
 31
0.0
  0
LINE
  5
1E9A
102
{ACAD_REACTORS
330
1EA4
102
}
330
1F
100
AcDbEntity
  8
実形
370
     5
100
AcDbLine
 10
2210.641894042939
 20
56.5
 30
0.0
 11
2210.641894042939
 21
16.5
 31
0.0
  0
LINE
  5
1E9B
102
{ACAD_REACTORS
330
1EA4
102
}
330
1F
100
AcDbEntity
  8
実形
370
     5
100
AcDbLine
 10
2210.641894042939
 20
16.5
 30
0.0
 11
2245.64189404294
 21
16.5
 31
0.0
  0
LINE
  5
1E9C
102
{ACAD_REACTORS
330
1EA4
102
}
330
1F
100
AcDbEntity
  8
実形
370
     5
100
AcDbLine
 10
2245.64189404294
 20
16.5
 30
0.0
 11
2210.641894042939
 21
36.5
 31
0.0
  0
LINE
  5
1E9D
102
{ACAD_REACTORS
330
1EA4
102
}
330
1F
100
AcDbEntity
  8
実形
370
     5
100
AcDbLine
 10
2210.641894042939
 20
36.5
 30
0.0
 11
2245.64189404294
 21
56.5
 31
0.0
  0
LINE
  5
1E9E
102
{ACAD_REACTORS
330
1EA4
102
}
330
1F
100
AcDbEntity
  8
実形
370
     5
100
AcDbLine
 10
2245.64189404294
 20
56.5
 30
0.0
 11
2210.641894042939
 21
56.5
 31
0.0
  0
LINE
  5
1E9F
102
{ACAD_REACTORS
330
1EA4
102
}
330
1F
100
AcDbEntity
  8
実形
370
     5
100
AcDbLine
 10
2276.75434681301
 20
40.53787547858519
 30
0.0
 11
2252.166198313995
 21
40.53787547858519
 31
0.0
  0
LINE
  5
1EA0
102
{ACAD_REACTORS
330
1EA4
102
}
330
1F
100
AcDbEntity
  8
実形
370
     5
100
AcDbLine
 10
2252.166198313995
 20
40.53787547858519
 30
0.0
 11
2252.166198313995
 21
30.53787547858519
 31
0.0
  0
LINE
  5
1EA1
102
{ACAD_REACTORS
330
1EA4
102
}
330
1F
100
AcDbEntity
  8
実形
370
     5
100
AcDbLine
 10
2252.166198313995
 20
30.53787547858519
 30
0.0
 11
2276.256852341323
 21
30.53787547858514
 31
0.0
  0
ARC
  5
1EA2
102
{ACAD_REACTORS
330
1EA4
102
}
330
1F
100
AcDbEntity
  8
実形
370
     5
100
AcDbCircle
 10
2188.255774665348
 20
36.5
 30
0.0
 40
20.0
100
AcDbArc
 50
11.6477236670766
 51
342.656105878473
  0
ARC
  5
1EA3
102
{ACAD_REACTORS
330
1EA4
102
}
330
1F
100
AcDbEntity
  8
実形
370
     5
100
AcDbCircle
 10
2257.166198313996
 20
36.5
 30
0.0
 40
20.0
100
AcDbArc
 50
11.6477236670766
 51
342.656105878473
  0
HATCH
  5
1EA4
330
1F
100
AcDbEntity
  8
実形
100
AcDbHatch
 10
0.0
 20
0.0
 30
0.0
210
0.0
220
0.0
230
1.0
  2
SOLID
 70
     1
 71
     1
 91
        3
 92
        1
 93
        4
 72
     2
 10
2257.166198313996
 20
36.5
 40
20.0
 50
11.6477236670766
 51
342.656105878473
 73
     1
 72
     1
 10
2276.256852341323
 20
30.53787547858514
 11
2252.166198313995
 21
30.53787547858519
 72
     1
 10
2252.166198313995
 20
30.53787547858519
 11
2252.166198313995
 21
40.53787547858519
 72
     1
 10
2252.166198313995
 20
40.53787547858519
 11
2276.75434681301
 21
40.53787547858519
 97
        4
330
1EA3
330
1EA1
330
1EA0
330
1E9F
 92
        1
 93
        4
 72
     2
 10
2188.255774665348
 20
36.5
 40
20.0
 50
11.6477236670766
 51
342.656105878473
 73
     1
 72
     1
 10
2207.346428692676
 20
30.53787547858514
 11
2183.255774665347
 21
30.53787547858519
 72
     1
 10
2183.255774665347
 20
30.53787547858519
 11
2183.255774665347
 21
40.53787547858519
 72
     1
 10
2183.255774665347
 20
40.53787547858519
 11
2207.843923164362
 21
40.53787547858519
 97
        4
330
1EA2
330
1E99
330
1E98
330
1E97
 92
        1
 93
        5
 72
     1
 10
2245.64189404294
 20
56.5
 11
2210.641894042939
 21
56.5
 72
     1
 10
2210.641894042939
 20
56.5
 11
2210.641894042939
 21
16.5
 72
     1
 10
2210.641894042939
 20
16.5
 11
2245.64189404294
 21
16.5
 72
     1
 10
2245.64189404294
 20
16.5
 11
2210.641894042939
 21
36.5
 72
     1
 10
2210.641894042939
 20
36.5
 11
2245.64189404294
 21
56.5
 97
        5
330
1E9E
330
1E9A
330
1E9B
330
1E9C
330
1E9D
 75
     0
 76
     1
 98
        1
 10
-60.0
 20
0.0
  0
LINE
  5
1EA5
330
1F
100
AcDbEntity
  8
実形
100
AcDbLine
 10
2184.0
 20
69.0
 30
0.0
 11
2184.0
 21
199.0
 31
0.0
  0
TEXT
  5
1EA6
330
1F
100
AcDbEntity
  8
実形
100
AcDbText
 10
2430.916666666667
 20
84.0
 30
0.0
 40
35.0
  1
1：10
 72
     4
 11
2484.0
 21
101.5
 31
0.0
100
AcDbText
  0
LINE
  5
1EA7
330
1F
100
AcDbEntity
  8
実形
100
AcDbLine
 10
2784.0
 20
69.0
 30
0.0
 11
2784.0
 21
134.0
 31
0.0
  0
LINE
  5
1EA8
330
1F
100
AcDbEntity
  8
実形
100
AcDbLine
 10
2784.0
 20
134.0
 30
0.0
 11
2784.0
 21
199.0
 31
0.0
  0
LINE
  5
1EA9
330
1F
100
AcDbEntity
  8
実形
100
AcDbLine
 10
2784.0
 20
4.0
 30
0.0
 11
2784.0
 21
69.0
 31
0.0
  0
TEXT
  5
208C
330
1F
100
AcDbEntity
  8
実形
 62
     0
370
    18
100
AcDbText
 10
764.4596755703806
 20
584.3649589566848
 30
0.0
 40
25.0
  1
15
 50
90.0
100
AcDbText
  0
DIMENSION
  5
208D
330
1F
100
AcDbEntity
  8
実形
 62
     0
100
AcDbDimension
  2
*D20
 10
652.8205513629491
 20
565.6754556760197
 30
0.0
 11
633.070551362949
 21
672.6754556760199
 31
0.0
 70
    32
  1
211
 71
     5
 42
214.0000000000001
  3
ISO-25
100
AcDbAlignedDimension
 13
801.2838064148324
 23
779.6754556760197
 33
0.0
 14
740.1910967679185
 24
565.6754556760197
 34
0.0
 50
90.0
100
AcDbRotatedDimension
1001
ACAD
1000
DSTYLE
1002
{
1070
   140
1040
27.0
1070
    41
1040
25.0
1070
   279
1070
     2
1070
   371
1070
    18
1070
   372
1070
    18
1002
}
  0
LINE
  5
208E
330
1F
100
AcDbEntity
  8
実形
 62
     0
100
AcDbLine
 10
652.8205513629491
 20
779.6754556760196
 30
0.0
 11
778.4010144371531
 21
779.6754556760196
 31
0.0
  0
LINE
  5
208F
330
1F
100
AcDbEntity
  8
実形
 62
     0
100
AcDbLine
 10
716.9940490355529
 20
775.6754556760196
 30
0.0
 11
778.4010144371531
 21
775.6754556760196
 31
0.0
  0
LINE
  5
2090
330
1F
100
AcDbEntity
  8
実形
 62
     0
100
AcDbLine
 10
716.9940490355529
 20
772.1754556760196
 30
0.0
 11
778.4010144371531
 21
772.1754556760196
 31
0.0
  0
LINE
  5
2091
330
1F
100
AcDbEntity
  8
実形
 62
     0
100
AcDbLine
 10
716.9940490355529
 20
575.6754556760195
 30
0.0
 11
843.7111057383969
 21
575.6754556760197
 31
0.0
  0
LINE
  5
2092
330
1F
100
AcDbEntity
  8
実形
 62
     0
100
AcDbLine
 10
778.4010144371531
 20
590.6754556760196
 30
0.0
 11
843.7111057383969
 21
590.6754556760197
 31
0.0
  0
LINE
  5
2093
330
1F
100
AcDbEntity
  8
実形
 62
     0
100
AcDbLine
 10
716.9940490355529
 20
779.6754556760196
 30
0.0
 11
716.9940490355525
 21
565.6754556760197
 31
0.0
  0
LINE
  5
2094
330
1F
100
AcDbEntity
  8
実形
 62
     0
100
AcDbLine
 10
778.401014437153
 20
590.6754556760196
 30
0.0
 11
778.401014437153
 21
575.6754556760195
 31
0.0
  0
TEXT
  5
2095
330
1F
100
AcDbEntity
  8
実形
 62
     0
370
    18
100
AcDbText
 10
718.3839949872615
 20
778.1369770746241
 30
0.0
 40
3.0
  1
●
 71
     2
100
AcDbText
  0
TEXT
  5
2096
330
1F
100
AcDbEntity
  8
実形
 62
     0
370
    18
100
AcDbText
 10
718.3839949872615
 20
774.1692254670079
 30
0.0
 40
3.0
  1
●
 71
     2
100
AcDbText
  0
TEXT
  5
2097
330
1F
100
AcDbEntity
  8
実形
 62
     0
370
    18
100
AcDbText
 10
718.3767573859947
 20
770.6149050262284
 30
0.0
 40
3.0
  1
●
 71
     2
100
AcDbText
  0
TEXT
  5
2098
330
1F
100
AcDbEntity
  8
実形
 62
     0
370
    18
100
AcDbText
 10
718.4527340599522
 20
574.0593156573822
 30
0.0
 40
3.0
  1
●
 71
     2
100
AcDbText
  0
TEXT
  5
2099
330
1F
100
AcDbEntity
  8
実形
 62
     0
370
    18
100
AcDbText
 10
779.8698212197157
 20
588.9236947790068
 30
0.0
 40
3.0
  1
●
 71
     2
100
AcDbText
  0
TEXT
  5
209A
330
1F
100
AcDbEntity
  8
実形
 62
     0
370
    18
100
AcDbText
 10
779.8698212197157
 20
574.2225603515044
 30
0.0
 40
3.0
  1
●
 71
     2
100
AcDbText
  0
TEXT
  5
209B
330
1F
100
AcDbEntity
  8
実形
 62
     0
370
    18
100
AcDbText
 10
715.7054912495951
 20
544.627406435061
 30
0.0
 40
25.0
  1
7
 50
90.0
100
AcDbText
  0
TEXT
  5
209C
330
1F
100
AcDbEntity
  8
実形
 62
     0
370
    18
100
AcDbText
 10
706.3848448450407
 20
646.9094358980337
 30
0.0
 40
25.0
  1
200
 50
90.0
100
AcDbText
  0
TEXT
  5
209D
330
1F
100
AcDbEntity
  8
実形
 62
     0
370
    18
100
AcDbText
 10
708.6957276851826
 20
760.0458491638337
 30
0.0
 40
25.0
  1
1
 50
90.0
100
AcDbText
  0
TEXT
  5
209E
330
1F
100
AcDbEntity
  8
実形
 62
     0
370
    18
100
AcDbText
 10
706.3848448450407
 20
792.5187052639048
 30
0.0
 40
25.0
  1
3
 50
90.0
100
AcDbText
  0
LINE
  5
209F
330
1F
100
AcDbEntity
  8
実形
100
AcDbLine
 10
778.4010144371529
 20
565.6754556760196
 30
0.0
 11
684.4563151952841
 21
565.6754556760197
 31
0.0
  0
TEXT
  5
20A0
330
1F
100
AcDbEntity
  8
実形
 62
     0
370
    18
100
AcDbText
 10
718.450630435085
 20
564.2846119093292
 30
0.0
 40
3.0
  1
●
 71
     2
100
AcDbText
  0
LINE
  5
20A1
330
1F
100
AcDbEntity
  8
実形
100
AcDbLine
 10
675.1910967679186
 20
565.6754556760197
 30
0.0
 11
684.4563151952841
 21
565.6754556760197
 31
0.0
  0
LINE
  5
234A
330
1F
100
AcDbEntity
  8
補助
100
AcDbLine
 10
2784.0
 20
1959.0
 30
0.0
 11
2019.387286519283
 21
1959.000000000001
 31
0.0
  0
LINE
  5
234B
330
1F
100
AcDbEntity
  8
補助
100
AcDbLine
 10
2784.0
 20
1894.0
 30
0.0
 11
2019.387286519283
 21
1894.0
 31
0.0
  0
LINE
  5
234C
330
1F
100
AcDbEntity
  8
補助
100
AcDbLine
 10
2202.547653420927
 20
1829.0
 30
0.0
 11
2202.547653420927
 21
2024.0
 31
0.0
  0
LINE
  5
234D
330
1F
100
AcDbEntity
  8
補助
100
AcDbLine
 10
2019.387286519283
 20
1829.0
 30
0.0
 11
2019.387286519283
 21
2024.0
 31
0.0
  0
TEXT
  5
234E
330
1F
100
AcDbEntity
  8
補助
100
AcDbText
 10
2050.295698850121
 20
1976.328571428572
 30
0.0
 40
30.0
  1
部品名
  7
明朝
 72
     4
 11
2116.124270278692
 21
1991.5
 31
0.0
100
AcDbText
  0
TEXT
  5
234F
330
1F
100
AcDbEntity
  8
補助
100
AcDbText
 10
2627.614285714286
 20
1976.071428571429
 30
0.0
 40
30.0
  1
厚さ
  7
明朝
 72
     4
 11
2671.5
 21
1991.5
 31
0.0
100
AcDbText
  0
LINE
  5
2350
330
1F
100
AcDbEntity
  8
補助
100
AcDbLine
 10
2559.0
 20
1829.0
 30
0.0
 11
2559.0
 21
2024.0
 31
0.0
  0
TEXT
  5
2351
330
1F
100
AcDbEntity
  8
補助
100
AcDbText
 10
2338.490869919937
 20
1975.947979478155
 30
0.0
 40
30.0
  1
材質
  7
明朝
 72
     4
 11
2382.376584205651
 21
1991.119408049583
 31
0.0
100
AcDbText
  0
TEXT
  5
2352
330
1F
100
AcDbEntity
  8
実形
100
AcDbText
 10
2048.227810657788
 20
1910.557142857143
 30
0.0
 40
30.0
  1
ボウル
  7
明朝
 72
     4
 11
2114.056382086359
 21
1926.5
 31
0.0
100
AcDbText
  0
TEXT
  5
2353
330
1F
100
AcDbEntity
  8
実形
100
AcDbText
 10
2594.700000000001
 20
1911.842857142857
 30
0.0
 40
30.0
  1
1.0ｍｍ
  7
明朝
 72
     4
 11
2671.500000000001
 21
1926.5
 31
0.0
100
AcDbText
  0
TEXT
  5
2354
330
1F
100
AcDbEntity
  8
実形
100
AcDbText
 10
2261.016869107866
 20
1910.728571428572
 30
0.0
 40
30.0
  1
SUS304（BA）
  7
明朝
 72
     4
 11
2392.674011965008
 21
1926.5
 31
0.0
100
AcDbText
  0
LINE
  5
2355
330
1F
100
AcDbEntity
  8
補助
100
AcDbLine
 10
2784.0
 20
1829.0
 30
0.0
 11
2019.387286519283
 21
1829.0
 31
0.0
  0
TEXT
  5
236E
330
1F
100
AcDbEntity
  8
実形
100
AcDbText
 10
2070.170667800645
 20
1846.242857142857
 30
0.0
 40
30.0
  1
天板
  7
明朝
 72
     4
 11
2114.056382086359
 21
1861.5
 31
0.0
100
AcDbText
  0
TEXT
  5
2377
330
1F
100
AcDbEntity
  8
実形
100
AcDbText
 10
2594.700000000001
 20
1846.842857142857
 30
0.0
 40
30.0
  1
1.0ｍｍ
  7
明朝
 72
     4
 11
2671.500000000001
 21
1861.5
 31
0.0
100
AcDbText
  0
TEXT
  5
2380
330
1F
100
AcDbEntity
  8
実形
100
AcDbText
 10
2250.045440536437
 20
1845.728571428572
 30
0.0
 40
30.0
  1
SUS304（H/L）
  7
明朝
 72
     4
 11
2392.674011965008
 21
1861.5
 31
0.0
100
AcDbText
  0
LINE
  5
2396
330
1F
100
AcDbEntity
  8
実形
100
AcDbLine
 10
111.0
 20
2024.0
 30
0.0
 11
111.0
 21
4.0
 31
0.0
  0
VIEWPORT
  5
2E
102
{ACAD_XDICTIONARY
360
23C7
102
}
330
1B
100
AcDbEntity
 67
     1
  8
0
100
AcDbViewport
 10
144.7270812988281
 20
101.2295806407928
 30
0.0
 40
411.6736216682419
 41
222.1517806396485
 68
     1
 69
     1
 12
144.7270812988281
 22
101.2295806407928
 13
0.0
 23
0.0
 14
10.0
 24
10.0
 15
10.0
 25
10.0
 16
0.0
 26
0.0
 36
1.0
 17
0.0
 27
0.0
 37
0.0
 42
50.0
 43
0.0
 44
0.0
 45
222.1517806396485
 50
0.0
 51
0.0
 72
   100
 90
    32800
  1

281
     0
 71
     1
 74
     0
110
0.0
120
0.0
130
0.0
111
1.0
121
0.0
131
0.0
112
0.0
122
1.0
132
0.0
 79
     0
146
0.0
  0
VIEWPORT
  5
30
102
{ACAD_XDICTIONARY
360
23C9
102
}
330
1B
100
AcDbEntity
 67
     1
  8
0
100
AcDbViewport
 10
139.2237563133239
 20
101.2295821905136
 30
0.0
 40
222.7580101013184
 41
161.9673315048218
 68
     2
 69
     2
 12
210.0
 22
148.5
 13
0.0
 23
0.0
 14
10.0
 24
10.0
 15
10.0
 25
10.0
 16
0.0
 26
0.0
 36
1.0
 17
0.0
 27
0.0
 37
0.0
 42
50.0
 43
0.0
 44
0.0
 45
309.0686705647124
 50
0.0
 51
0.0
 72
   100
 90
    32864
  1

281
     0
 71
     1
 74
     0
110
0.0
120
0.0
130
0.0
111
1.0
121
0.0
131
0.0
112
0.0
122
1.0
132
0.0
 79
     0
146
0.0
  0
ENDSEC
  0
SECTION
  2
OBJECTS
  0
DICTIONARY
  5
C
330
0
100
AcDbDictionary
281
     1
  3
ACAD_COLOR
350
1EBB
  3
ACAD_GROUP
350
D
  3
ACAD_LAYOUT
350
1A
  3
ACAD_MATERIAL
350
1EBA
  3
ACAD_MLINESTYLE
350
17
  3
ACAD_PLOTSETTINGS
350
19
  3
ACAD_PLOTSTYLENAME
350
E
  3
ACAD_TABLESTYLE
350
1EBC
  3
AcadDim
350
124
  3
ACDBHEADERROUNDTRIPXREC
350
23C0
  3
AcDbVariableDictionary
350
1055
  3
DWGPROPS
350
23BF
  0
DICTIONARY
  5
21AB
330
2
100
AcDbDictionary
280
     1
281
     1
  3
ACAD_LAYERFILTERS
360
21AD
  3
ACAD_LAYERSTATES
360
2337
  3
ACLYDICTIONARY
360
21AC
  0
DICTIONARY
  5
2334
330
1F
100
AcDbDictionary
280
     1
281
     1
  3
ACAD_SORTENTS
360
2335
  0
DICTIONARY
  5
2362
330
2356
100
AcDbDictionary
280
     1
281
     1
  3
ACAD_SORTENTS
360
2363
  0
DICTIONARY
  5
23C7
330
2E
100
AcDbDictionary
280
     1
281
     1
  3
ACAD_XREC_ROUNDTRIP
360
23C8
  0
DICTIONARY
  5
23C9
330
30
100
AcDbDictionary
280
     1
281
     1
  3
ACAD_XREC_ROUNDTRIP
360
23CA
  0
DICTIONARY
  5
1EBB
102
{ACAD_REACTORS
330
C
102
}
330
C
100
AcDbDictionary
281
     1
  0
DICTIONARY
  5
D
102
{ACAD_REACTORS
330
C
102
}
330
C
100
AcDbDictionary
281
     1
  0
DICTIONARY
  5
1A
102
{ACAD_REACTORS
330
C
102
}
330
C
100
AcDbDictionary
281
     1
  3
Model
350
22
  3
ﾚｲｱｳﾄ1
350
1E
  3
ﾚｲｱｳﾄ2
350
26
  0
DICTIONARY
  5
1EBA
102
{ACAD_REACTORS
330
C
102
}
330
C
100
AcDbDictionary
281
     1
  0
DICTIONARY
  5
17
102
{ACAD_REACTORS
330
C
102
}
330
C
100
AcDbDictionary
281
     1
  3
Standard
350
18
  0
DICTIONARY
  5
19
102
{ACAD_REACTORS
330
C
102
}
330
C
100
AcDbDictionary
281
     1
  0
ACDBDICTIONARYWDFLT
  5
E
102
{ACAD_REACTORS
330
C
102
}
330
C
100
AcDbDictionary
281
     1
  3
Normal
350
F
100
AcDbDictionaryWithDefault
340
F
  0
DICTIONARY
  5
1EBC
102
{ACAD_REACTORS
330
C
102
}
330
C
100
AcDbDictionary
281
     1
  3
Standard
350
1EBD
  0
XRECORD
  5
124
102
{ACAD_REACTORS
330
C
102
}
330
C
100
AcDbXrecord
280
     1
 90
   990106
  3

 60
     0
 61
     0
 62
     1
 63
     3
 64
     0
 65
     0
 66
     0
 67
     3
 68
     1
 69
     0
 70
     0
 71
     0
 72
     0
 40
30.0
170
     0
  0
DICTIONARY
  5
23C0
102
{ACAD_REACTORS
330
C
102
}
330
C
100
AcDbDictionary
281
     1
  0
DICTIONARY
  5
1055
102
{ACAD_REACTORS
330
C
102
}
330
C
100
AcDbDictionary
281
     1
  3
CTABLESTYLE
350
1EC3
  3
DIMASSOC
350
23BC
  3
PROJECTNAME
350
23BD
  3
SORTENTS
350
1056
  0
XRECORD
  5
23BF
102
{ACAD_REACTORS
330
C
102
}
330
C
100
AcDbXrecord
280
     1
  1
DWGPROPS COOKIE
  2

  3

  4

  6

  7

  8

  9

300
=
301
=
302
=
303
=
304
=
305
=
306
=
307
=
308
=
309
=
 40
1.148507708333333
 41
2451673.575802199
 42
2458808.735202257
  1

 90
        0
  0
DICTIONARY
  5
21AD
102
{ACAD_REACTORS
330
21AB
102
}
330
21AB
100
AcDbDictionary
281
     1
  0
DICTIONARY
  5
2337
102
{ACAD_REACTORS
330
21AB
102
}
330
21AB
100
AcDbDictionary
281
     1
  0
DICTIONARY
  5
21AC
102
{ACAD_REACTORS
330
21AB
102
}
330
21AB
100
AcDbDictionary
281
     1
1001
ACAD
1000
<All
  0
SORTENTSTABLE
  5
2335
102
{ACAD_REACTORS
330
2334
102
}
330
2334
100
AcDbSortentsTable
330
1F
331
14B8
  5
14BA
331
13C9
  5
14A3
331
1EA5
  5
1EA7
331
14C0
  5
14C2
331
1DFE
  5
1E01
331
1382
  5
13BA
331
1E06
  5
1E08
331
1560
  5
1562
331
2380
  5
2396
331
2351
  5
2353
331
1568
  5
156D
331
1570
  5
1572
331
1E8E
  5
1E90
331
14A9
  5
14AB
331
13BA
  5
1472
331
1E96
  5
1E98
331
14B1
  5
14B3
331
1E9E
  5
1EA0
331
1C47
  5
1C49
331
208D
  5
208F
331
2095
  5
2097
331
209D
  5
209F
331
14B9
  5
14BB
331
1EA6
  5
1EA8
331
14C1
  5
1549
331
1549
  5
154B
331
1472
  5
14A4
331
1E07
  5
1E80
331
1561
  5
1563
331
9C
  5
9C
331
234A
  5
234B
331
2352
  5
2354
331
1571
  5
1576
331
1E8F
  5
1E91
331
14AA
  5
14AC
331
1E97
  5
1E99
331
14B2
  5
14B4
331
12ED
  5
1307
331
1E9F
  5
1EA1
331
208E
  5
2090
331
2096
  5
2098
331
209E
  5
20A0
331
1C48
  5
1C4A
331
14BA
  5
14BC
331
1EA7
  5
1EA9
331
14C2
  5
154A
331
1E00
  5
1E03
331
154A
  5
154E
331
1E08
  5
1E8F
331
1562
  5
1564
331
A5
  5
12A2
331
234B
  5
234C
331
2353
  5
2355
331
156A
  5
1570
331
1572
  5
17B2
331
14A3
  5
14A5
331
1E90
  5
1E92
331
14AB
  5
14AD
331
1E98
  5
1E9A
331
14B3
  5
14B5
331
208F
  5
2091
331
2097
  5
2099
331
209F
  5
20A1
331
1EA0
  5
1EA2
331
1C49
  5
1C4B
331
14BB
  5
14BD
331
1EA8
  5
1EAA
331
1DF9
  5
1DFB
331
1E01
  5
1E04
331
154B
  5
1560
331
17B2
  5
17BD
331
1563
  5
1565
331
234C
  5
234E
331
2354
  5
236E
331
14A4
  5
14A6
331
13AD
  5
13C9
331
1E91
  5
1E93
331
14AC
  5
14AE
331
1E99
  5
1E9B
331
14B4
  5
14B6
331
2090
  5
2092
331
2098
  5
209A
331
1EA1
  5
1EA3
331
1C4A
  5
1C4C
331
134E
  5
13AD
331
14BC
  5
14BE
331
1EA9
  5
208D
331
1DFA
  5
1DFC
331
1307
  5
134E
331
1564
  5
1566
331
20A0
  5
2333
331
234D
  5
234F
331
2355
  5
234D
331
14A5
  5
14A7
331
132F
  5
1382
331
12E0
  5
12FA
331
1E92
  5
1E94
331
14AD
  5
14AF
331
1E9A
  5
1E9C
331
14B5
  5
14B7
331
2091
  5
2093
331
2099
  5
209B
331
1EA2
  5
1EA4
331
1C4B
  5
1C4D
331
14BD
  5
14BF
331
1DFB
  5
1DFD
331
8C9
  5
12E0
331
1E03
  5
1E05
331
1565
  5
1568
331
A0
  5
8C9
331
20A1
  5
234A
331
234E
  5
2350
331
17BC
  5
17BE
331
156D
  5
1571
331
14A6
  5
14A8
331
1E93
  5
1E95
331
14AE
  5
14B0
331
14B6
  5
14B8
331
1E9B
  5
1E9D
331
2092
  5
2094
331
236E
  5
2377
331
209A
  5
209C
331
1EA3
  5
1EA5
331
1C4C
  5
1DF9
331
14BE
  5
14C0
331
1DFC
  5
1DFE
331
1E04
  5
1E06
331
154E
  5
1561
331
1566
  5
156A
331
234F
  5
2351
331
2396
  5
A5
331
12A2
  5
12ED
331
17BD
  5
1C45
331
1576
  5
17BC
331
14A7
  5
14A9
331
1E94
  5
1E96
331
14AF
  5
14B1
331
1E9C
  5
1E9E
331
1C45
  5
1C47
331
14B7
  5
14B9
331
2093
  5
2095
331
209B
  5
209D
331
2377
  5
2380
331
12FA
  5
132F
331
1EA4
  5
1EA6
331
1C4D
  5
1DFA
331
14BF
  5
14C1
331
1DFD
  5
1E00
331
1E05
  5
1E07
331
2350
  5
2352
331
17BE
  5
1C46
331
14A8
  5
14AA
331
1E95
  5
1E97
331
14B0
  5
14B2
331
1E9D
  5
1E9F
331
1C46
  5
1C48
331
208C
  5
208E
331
2094
  5
2096
331
209C
  5
209E
  0
SORTENTSTABLE
  5
2363
102
{ACAD_REACTORS
330
2362
102
}
330
2362
100
AcDbSortentsTable
330
2356
  0
XRECORD
  5
23C8
102
{ACAD_REACTORS
330
23C7
102
}
330
23C7
100
AcDbXrecord
280
     1
102
SHADEPLOT
 70
     0
  0
XRECORD
  5
23CA
102
{ACAD_REACTORS
330
23C9
102
}
330
23C9
100
AcDbXrecord
280
     1
102
SHADEPLOT
 70
     0
  0
LAYOUT
  5
22
102
{ACAD_XDICTIONARY
360
23C3
102
}
102
{ACAD_REACTORS
330
1A
102
}
330
1A
100
AcDbPlotSettings
  1

  2
EPSON PM-800C
  4
A4
  6

 40
3.757083177566528
 41
14.7637300491333
 42
3.757080078125
 43
3.757080078125
 44
209.9733276367187
 45
296.9683227539062
 46
0.0
 47
0.0
 48
0.0
 49
0.0
140
0.0
141
0.0
142
1.0
143
10.0
 70
 11952
 72
     1
 73
     1
 74
     2
  7

 75
    20
147
0.1
148
0.0
149
0.0
100
AcDbLayout
  1
Model
 70
     1
 71
     0
 10
0.0
 20
0.0
 11
12.0
 21
9.0
 12
0.0
 22
0.0
 32
0.0
 14
0.0
 24
0.0
 34
0.0
 15
0.0
 25
0.0
 35
0.0
146
0.0
 13
0.0
 23
0.0
 33
0.0
 16
1.0
 26
0.0
 36
0.0
 17
0.0
 27
1.0
 37
0.0
 76
     0
330
1F
  0
LAYOUT
  5
1E
102
{ACAD_XDICTIONARY
360
23C1
102
}
102
{ACAD_REACTORS
330
1A
102
}
330
1A
100
AcDbPlotSettings
  1

  2
EPSON PM-800C
  4
A4
  6

 40
3.757083177566528
 41
14.7637300491333
 42
3.757080078125
 43
3.757080078125
 44
209.9733276367187
 45
296.9683227539062
 46
0.0
 47
0.0
 48
0.0
 49
0.0
140
0.0
141
0.0
142
1.0
143
1.0
 70
   688
 72
     1
 73
     1
 74
     5
  7

 75
    16
147
1.0
148
0.0
149
0.0
100
AcDbLayout
  1
ﾚｲｱｳﾄ1
 70
     1
 71
     1
 10
-3.757080078125
 20
-3.757083177566528
 11
293.2112426757813
 21
206.2162444591522
 12
0.0
 22
0.0
 32
0.0
 14
27.8447512626648
 24
20.24591643810271
 34
0.0
 15
250.6027613639831
 25
182.2132479429245
 35
0.0
146
0.0
 13
0.0
 23
0.0
 33
0.0
 16
1.0
 26
0.0
 36
0.0
 17
0.0
 27
1.0
 37
0.0
 76
     0
330
1B
331
2E
  0
LAYOUT
  5
26
102
{ACAD_XDICTIONARY
360
23C5
102
}
102
{ACAD_REACTORS
330
1A
102
}
330
1A
100
AcDbPlotSettings
  1

  2
EPSON PM-800C
  4

  6

 40
0.0
 41
0.0
 42
0.0
 43
0.0
 44
0.0
 45
0.0
 46
0.0
 47
0.0
 48
0.0
 49
0.0
140
0.0
141
0.0
142
1.0
143
1.0
 70
   688
 72
     0
 73
     0
 74
     5
  7

 75
    16
147
1.0
148
0.0
149
0.0
100
AcDbLayout
  1
ﾚｲｱｳﾄ2
 70
     1
 71
     2
 10
0.0
 20
0.0
 11
12.0
 21
9.0
 12
0.0
 22
0.0
 32
0.0
 14
0.0
 24
0.0
 34
0.0
 15
0.0
 25
0.0
 35
0.0
146
0.0
 13
0.0
 23
0.0
 33
0.0
 16
1.0
 26
0.0
 36
0.0
 17
0.0
 27
1.0
 37
0.0
 76
     0
330
23
  0
MLINESTYLE
  5
18
102
{ACAD_REACTORS
330
17
102
}
330
17
100
AcDbMlineStyle
  2
STANDARD
 70
     0
  3

 62
   256
 51
90.0
 52
90.0
 71
     2
 49
0.5
 62
   256
  6
BYLAYER
 49
-0.5
 62
   256
  6
BYLAYER
  0
ACDBPLACEHOLDER
  5
F
102
{ACAD_REACTORS
330
E
102
}
330
E
  0
TABLESTYLE
  5
1EBD
102
{ACAD_REACTORS
330
1EBC
102
}
330
1EBC
100
AcDbTableStyle
  3
Standard
 70
     0
 71
     0
 40
1.5
 41
1.5
280
     0
281
     0
  7
Standard
140
4.5
170
     2
 62
     0
 63
     7
283
     0
274
    -2
284
     1
 64
     0
275
    -2
285
     1
 65
     0
276
    -2
286
     1
 66
     0
277
    -2
287
     1
 67
     0
278
    -2
288
     1
 68
     0
279
    -2
289
     1
 69
     0
  7
Standard
140
6.0
170
     5
 62
     0
 63
     7
283
     0
274
    -2
284
     1
 64
     0
275
    -2
285
     1
 65
     0
276
    -2
286
     1
 66
     0
277
    -2
287
     1
 67
     0
278
    -2
288
     1
 68
     0
279
    -2
289
     1
 69
     0
  7
Standard
140
4.5
170
     5
 62
     0
 63
     7
283
     0
274
    -2
284
     1
 64
     0
275
    -2
285
     1
 65
     0
276
    -2
286
     1
 66
     0
277
    -2
287
     1
 67
     0
278
    -2
288
     1
 68
     0
279
    -2
289
     1
 69
     0
  0
DICTIONARYVAR
  5
1EC3
102
{ACAD_REACTORS
330
1055
102
}
330
1055
100
DictionaryVariables
280
     0
  1
STANDARD
  0
DICTIONARYVAR
  5
23BC
102
{ACAD_REACTORS
330
1055
102
}
330
1055
100
DictionaryVariables
280
     0
  1
1
  0
DICTIONARYVAR
  5
23BD
102
{ACAD_REACTORS
330
1055
102
}
330
1055
100
DictionaryVariables
280
     0
  1

  0
DICTIONARYVAR
  5
1056
102
{ACAD_REACTORS
330
1055
102
}
330
1055
100
DictionaryVariables
280
     0
  1
96
  0
DICTIONARY
  5
23C3
330
22
100
AcDbDictionary
280
     1
281
     1
  3
ACAD_XREC_ROUNDTRIP
360
23C4
  0
DICTIONARY
  5
23C1
330
1E
100
AcDbDictionary
280
     1
281
     1
  3
ACAD_XREC_ROUNDTRIP
360
23C2
  0
DICTIONARY
  5
23C5
330
26
100
AcDbDictionary
280
     1
281
     1
  3
ACAD_XREC_ROUNDTRIP
360
23C6
  0
XRECORD
  5
23C4
102
{ACAD_REACTORS
330
23C3
102
}
330
23C3
100
AcDbXrecord
280
     1
102
SHADEPLOT
 70
     0
102
SHADEPLOTRESLEVEL
 70
     2
102
SHADEPLOTCUSTOMDPI
 70
   300
  0
XRECORD
  5
23C2
102
{ACAD_REACTORS
330
23C1
102
}
330
23C1
100
AcDbXrecord
280
     1
102
SHADEPLOT
 70
     0
102
SHADEPLOTRESLEVEL
 70
     2
102
SHADEPLOTCUSTOMDPI
 70
   300
  0
XRECORD
  5
23C6
102
{ACAD_REACTORS
330
23C5
102
}
330
23C5
100
AcDbXrecord
280
     1
102
SHADEPLOT
 70
     0
102
SHADEPLOTRESLEVEL
 70
     2
102
SHADEPLOTCUSTOMDPI
 70
   300
  0
ENDSEC
  0
EOF
