  0
SECTION
  2
HEADER
  9
$ACADVER
  1
AC1015
  9
$ACADMAINTVER
 70
    20
  9
$DWGCODEPAGE
  3
ANSI_932
  9
$INSBASE
 10
0.0
 20
0.0
 30
0.0
  9
$EXTMIN
 10
111.0
 20
4.0
 30
0.0
  9
$EXTMAX
 10
2784.000000000001
 20
2024.0
 30
0.0
  9
$LIMMIN
 10
0.0
 20
0.0
  9
$LIMMAX
 10
29700.0
 20
21000.0
  9
$ORTHOMODE
 70
     1
  9
$REGENMODE
 70
     1
  9
$FILLMODE
 70
     1
  9
$QTEXTMODE
 70
     0
  9
$MIRRTEXT
 70
     1
  9
$LTSCALE
 40
4.0
  9
$ATTMODE
 70
     1
  9
$TEXTSIZE
 40
25.0
  9
$TRACEWID
 40
1.0
  9
$TEXTSTYLE
  7
Standard
  9
$CLAYER
  8
実形
  9
$CELTYPE
  6
ByLayer
  9
$CECOLOR
 62
   256
  9
$CELTSCALE
 40
1.0
  9
$DISPSILH
 70
     0
  9
$DIMSCALE
 40
1.0
  9
$DIMASZ
 40
35.0
  9
$DIMEXO
 40
65.0
  9
$DIMDLI
 40
3.75
  9
$DIMRND
 40
0.0
  9
$DIMDLE
 40
0.0
  9
$DIMEXE
 40
0.0
  9
$DIMTP
 40
0.0
  9
$DIMTM
 40
0.0
  9
$DIMTXT
 40
25.0
  9
$DIMCEN
 40
2.5
  9
$DIMTSZ
 40
0.0
  9
$DIMTOL
 70
     0
  9
$DIMLIM
 70
     0
  9
$DIMTIH
 70
     0
  9
$DIMTOH
 70
     0
  9
$DIMSE1
 70
     0
  9
$DIMSE2
 70
     0
  9
$DIMTAD
 70
     1
  9
$DIMZIN
 70
     8
  9
$DIMBLK
  1
DotSmall
  9
$DIMASO
 70
     1
  9
$DIMSHO
 70
     1
  9
$DIMPOST
  1

  9
$DIMAPOST
  1

  9
$DIMALT
 70
     0
  9
$DIMALTD
 70
     3
  9
$DIMALTF
 40
0.03937007874016
  9
$DIMLFAC
 40
1.0
  9
$DIMTOFL
 70
     1
  9
$DIMTVP
 40
0.0
  9
$DIMTIX
 70
     0
  9
$DIMSOXD
 70
     0
  9
$DIMSAH
 70
     0
  9
$DIMBLK1
  1

  9
$DIMBLK2
  1

  9
$DIMSTYLE
  2
ISO-25
  9
$DIMCLRD
 70
     0
  9
$DIMCLRE
 70
     0
  9
$DIMCLRT
 70
     0
  9
$DIMTFAC
 40
1.0
  9
$DIMGAP
 40
6.25
  9
$DIMJUST
 70
     0
  9
$DIMSD1
 70
     0
  9
$DIMSD2
 70
     0
  9
$DIMTOLJ
 70
     0
  9
$DIMTZIN
 70
     8
  9
$DIMALTZ
 70
     0
  9
$DIMALTTZ
 70
     0
  9
$DIMUPT
 70
     0
  9
$DIMDEC
 70
     2
  9
$DIMTDEC
 70
     2
  9
$DIMALTU
 70
     2
  9
$DIMALTTD
 70
     3
  9
$DIMTXSTY
  7
Standard
  9
$DIMAUNIT
 70
     0
  9
$DIMADEC
 70
     0
  9
$DIMALTRND
 40
0.0
  9
$DIMAZIN
 70
     0
  9
$DIMDSEP
 70
    46
  9
$DIMATFIT
 70
     3
  9
$DIMFRAC
 70
     0
  9
$DIMLDRBLK
  1
Open30
  9
$DIMLUNIT
 70
     2
  9
$DIMLWD
 70
    18
  9
$DIMLWE
 70
    18
  9
$DIMTMOVE
 70
     0
  9
$LUNITS
 70
     2
  9
$LUPREC
 70
     2
  9
$SKETCHINC
 40
1.0
  9
$FILLETRAD
 40
30.0
  9
$AUNITS
 70
     0
  9
$AUPREC
 70
     0
  9
$MENU
  1
.
  9
$ELEVATION
 40
0.0
  9
$PELEVATION
 40
0.0
  9
$THICKNESS
 40
0.0
  9
$LIMCHECK
 70
     1
  9
$CHAMFERA
 40
10.0
  9
$CHAMFERB
 40
10.0
  9
$CHAMFERC
 40
20.0
  9
$CHAMFERD
 40
0.0
  9
$SKPOLY
 70
     0
  9
$TDCREATE
 40
2451673.575802199
  9
$TDUCREATE
 40
2451673.200802199
  9
$TDUPDATE
 40
2458809.752271991
  9
$TDUUPDATE
 40
2458809.377271991
  9
$TDINDWG
 40
1.1905926389
  9
$TDUSRTIMER
 40
1.1905919444
  9
$USRTIMER
 70
     1
  9
$ANGBASE
 50
0.0
  9
$ANGDIR
 70
     0
  9
$PDMODE
 70
     3
  9
$PDSIZE
 40
0.0
  9
$PLINEWID
 40
0.0
  9
$SPLFRAME
 70
     0
  9
$SPLINETYPE
 70
     6
  9
$SPLINESEGS
 70
     8
  9
$HANDSEED
  5
20DB
  9
$SURFTAB1
 70
     6
  9
$SURFTAB2
 70
     6
  9
$SURFTYPE
 70
     6
  9
$SURFU
 70
     6
  9
$SURFV
 70
     6
  9
$UCSBASE
  2

  9
$UCSNAME
  2

  9
$UCSORG
 10
0.0
 20
0.0
 30
0.0
  9
$UCSXDIR
 10
1.0
 20
0.0
 30
0.0
  9
$UCSYDIR
 10
0.0
 20
1.0
 30
0.0
  9
$UCSORTHOREF
  2

  9
$UCSORTHOVIEW
 70
     0
  9
$UCSORGTOP
 10
0.0
 20
0.0
 30
0.0
  9
$UCSORGBOTTOM
 10
0.0
 20
0.0
 30
0.0
  9
$UCSORGLEFT
 10
0.0
 20
0.0
 30
0.0
  9
$UCSORGRIGHT
 10
0.0
 20
0.0
 30
0.0
  9
$UCSORGFRONT
 10
0.0
 20
0.0
 30
0.0
  9
$UCSORGBACK
 10
0.0
 20
0.0
 30
0.0
  9
$PUCSBASE
  2

  9
$PUCSNAME
  2

  9
$PUCSORG
 10
0.0
 20
0.0
 30
0.0
  9
$PUCSXDIR
 10
1.0
 20
0.0
 30
0.0
  9
$PUCSYDIR
 10
0.0
 20
1.0
 30
0.0
  9
$PUCSORTHOREF
  2

  9
$PUCSORTHOVIEW
 70
     0
  9
$PUCSORGTOP
 10
0.0
 20
0.0
 30
0.0
  9
$PUCSORGBOTTOM
 10
0.0
 20
0.0
 30
0.0
  9
$PUCSORGLEFT
 10
0.0
 20
0.0
 30
0.0
  9
$PUCSORGRIGHT
 10
0.0
 20
0.0
 30
0.0
  9
$PUCSORGFRONT
 10
0.0
 20
0.0
 30
0.0
  9
$PUCSORGBACK
 10
0.0
 20
0.0
 30
0.0
  9
$USERI1
 70
     0
  9
$USERI2
 70
     0
  9
$USERI3
 70
     0
  9
$USERI4
 70
     0
  9
$USERI5
 70
     0
  9
$USERR1
 40
0.0
  9
$USERR2
 40
0.0
  9
$USERR3
 40
0.0
  9
$USERR4
 40
0.0
  9
$USERR5
 40
0.0
  9
$WORLDVIEW
 70
     1
  9
$SHADEDGE
 70
     3
  9
$SHADEDIF
 70
    70
  9
$TILEMODE
 70
     1
  9
$MAXACTVP
 70
    64
  9
$PINSBASE
 10
0.0
 20
0.0
 30
0.0
  9
$PLIMCHECK
 70
     0
  9
$PEXTMIN
 10
27.8447512626648
 20
20.24591643810271
 30
0.0
  9
$PEXTMAX
 10
250.6027613639831
 20
182.2132479429245
 30
0.0
  9
$PLIMMIN
 10
-3.757080078125
 20
-3.757083177566528
  9
$PLIMMAX
 10
293.2112426757813
 20
206.2162444591522
  9
$UNITMODE
 70
     0
  9
$VISRETAIN
 70
     1
  9
$PLINEGEN
 70
     0
  9
$PSLTSCALE
 70
     1
  9
$TREEDEPTH
 70
  3020
  9
$CMLSTYLE
  2
Standard
  9
$CMLJUST
 70
     0
  9
$CMLSCALE
 40
20.0
  9
$PROXYGRAPHICS
 70
     1
  9
$MEASUREMENT
 70
     1
  9
$CELWEIGHT
370
    -1
  9
$ENDCAPS
280
     0
  9
$JOINSTYLE
280
     0
  9
$LWDISPLAY
290
     0
  9
$INSUNITS
 70
     4
  9
$HYPERLINKBASE
  1

  9
$STYLESHEET
  1

  9
$XEDIT
290
     1
  9
$CEPSNTYPE
380
     0
  9
$PSTYLEMODE
290
     1
  9
$FINGERPRINTGUID
  2
{C8EA1F16-24C9-11D4-9416-CE0A3B32152F}
  9
$VERSIONGUID
  2
{8E53BB61-7A99-4C6C-BE0A-8665BE929C7B}
  9
$EXTNAMES
290
     1
  9
$PSVPSCALE
 40
0.0
  9
$OLESTARTUP
290
     0
  0
ENDSEC
  0
SECTION
  2
CLASSES
  0
CLASS
  1
ACDBDICTIONARYWDFLT
  2
AcDbDictionaryWithDefault
  3
ObjectDBX Classes
 90
        0
280
     0
281
     0
  0
CLASS
  1
ACDBPLACEHOLDER
  2
AcDbPlaceHolder
  3
ObjectDBX Classes
 90
        0
280
     0
281
     0
  0
CLASS
  1
LAYOUT
  2
AcDbLayout
  3
ObjectDBX Classes
 90
        0
280
     0
281
     0
  0
CLASS
  1
DICTIONARYVAR
  2
AcDbDictionaryVar
  3
ObjectDBX Classes
 90
        0
280
     0
281
     0
  0
CLASS
  1
TABLESTYLE
  2
AcDbTableStyle
  3
ObjectDBX Classes
 90
     2047
280
     0
281
     0
  0
CLASS
  1
SORTENTSTABLE
  2
AcDbSortentsTable
  3
ObjectDBX Classes
 90
        0
280
     0
281
     0
  0
ENDSEC
  0
SECTION
  2
TABLES
  0
TABLE
  2
VPORT
  5
8
330
0
100
AcDbSymbolTable
 70
     2
  0
VPORT
  5
20CF
330
8
100
AcDbSymbolTableRecord
100
AcDbViewportTableRecord
  2
*Active
 70
     0
 10
0.0
 20
0.0
 11
1.0
 21
1.0
 12
1419.770984815111
 22
1001.612592619876
 13
0.0
 23
0.0
 14
10.0
 24
10.0
 15
10.0
 25
10.0
 16
0.0
 26
0.0
 36
1.0
 17
0.0
 27
0.0
 37
0.0
 40
2452.187070258613
 41
1.29038112522686
 42
50.0
 43
0.0
 44
0.0
 50
0.0
 51
0.0
 71
     0
 72
   100
 73
     1
 74
     3
 75
     0
 76
     0
 77
     0
 78
     0
281
     0
 65
     1
110
0.0
120
0.0
130
0.0
111
1.0
121
0.0
131
0.0
112
0.0
122
1.0
132
0.0
 79
     0
146
0.0
  0
ENDTAB
  0
TABLE
  2
LTYPE
  5
5
330
0
100
AcDbSymbolTable
 70
    46
  0
LTYPE
  5
14
330
5
100
AcDbSymbolTableRecord
100
AcDbLinetypeTableRecord
  2
ByBlock
 70
     0
  3

 72
    65
 73
     0
 40
0.0
  0
LTYPE
  5
15
330
5
100
AcDbSymbolTableRecord
100
AcDbLinetypeTableRecord
  2
ByLayer
 70
     0
  3

 72
    65
 73
     0
 40
0.0
  0
LTYPE
  5
16
330
5
100
AcDbSymbolTableRecord
100
AcDbLinetypeTableRecord
  2
Continuous
 70
     0
  3
Solid line
 72
    65
 73
     0
 40
0.0
  0
LTYPE
  5
34
330
5
100
AcDbSymbolTableRecord
100
AcDbLinetypeTableRecord
  2
ACAD_ISO02W100
 70
     0
  3
ISO dash __ __ __ __ __ __ __ __ __ __ __ __ __
 72
    65
 73
     2
 40
15.0
 49
12.0
 74
     0
 49
-3.0
 74
     0
  0
LTYPE
  5
35
330
5
100
AcDbSymbolTableRecord
100
AcDbLinetypeTableRecord
  2
ACAD_ISO03W100
 70
     0
  3
ISO dash space __    __    __    __    __    __
 72
    65
 73
     2
 40
30.0
 49
12.0
 74
     0
 49
-18.0
 74
     0
  0
LTYPE
  5
36
330
5
100
AcDbSymbolTableRecord
100
AcDbLinetypeTableRecord
  2
ACAD_ISO04W100
 70
     0
  3
ISO long-dash dot ____ . ____ . ____ . ____ . _
 72
    65
 73
     4
 40
30.0
 49
24.0
 74
     0
 49
-3.0
 74
     0
 49
0.0
 74
     0
 49
-3.0
 74
     0
  0
LTYPE
  5
37
330
5
100
AcDbSymbolTableRecord
100
AcDbLinetypeTableRecord
  2
ACAD_ISO05W100
 70
     0
  3
ISO long-dash double-dot ____ .. ____ .. ____ .
 72
    65
 73
     6
 40
34.0
 49
24.0
 74
     0
 49
-3.0
 74
     0
 49
0.5
 74
     0
 49
-3.0
 74
     0
 49
0.5
 74
     0
 49
-3.0
 74
     0
  0
LTYPE
  5
38
330
5
100
AcDbSymbolTableRecord
100
AcDbLinetypeTableRecord
  2
ACAD_ISO06W100
 70
     0
  3
ISO long-dash triple-dot ____ ... ____ ... ____
 72
    65
 73
     8
 40
37.5
 49
24.0
 74
     0
 49
-3.0
 74
     0
 49
0.5
 74
     0
 49
-3.0
 74
     0
 49
0.5
 74
     0
 49
-3.0
 74
     0
 49
0.5
 74
     0
 49
-3.0
 74
     0
  0
LTYPE
  5
39
330
5
100
AcDbSymbolTableRecord
100
AcDbLinetypeTableRecord
  2
ACAD_ISO07W100
 70
     0
  3
ISO dot . . . . . . . . . . . . . . . . . . . .
 72
    65
 73
     2
 40
3.0
 49
0.0
 74
     0
 49
-3.0
 74
     0
  0
LTYPE
  5
3A
330
5
100
AcDbSymbolTableRecord
100
AcDbLinetypeTableRecord
  2
ACAD_ISO08W100
 70
     0
  3
ISO long-dash short-dash ____ __ ____ __ ____ _
 72
    65
 73
     4
 40
36.0
 49
24.0
 74
     0
 49
-3.0
 74
     0
 49
6.0
 74
     0
 49
-3.0
 74
     0
  0
LTYPE
  5
3B
330
5
100
AcDbSymbolTableRecord
100
AcDbLinetypeTableRecord
  2
ACAD_ISO09W100
 70
     0
  3
ISO long-dash double-short-dash ____ __ __ ____
 72
    65
 73
     6
 40
45.0
 49
24.0
 74
     0
 49
-3.0
 74
     0
 49
6.0
 74
     0
 49
-3.0
 74
     0
 49
6.0
 74
     0
 49
-3.0
 74
     0
  0
LTYPE
  5
3C
330
5
100
AcDbSymbolTableRecord
100
AcDbLinetypeTableRecord
  2
ACAD_ISO10W100
 70
     0
  3
ISO dash dot __ . __ . __ . __ . __ . __ . __ .
 72
    65
 73
     4
 40
18.0
 49
12.0
 74
     0
 49
-3.0
 74
     0
 49
0.0
 74
     0
 49
-3.0
 74
     0
  0
LTYPE
  5
3D
330
5
100
AcDbSymbolTableRecord
100
AcDbLinetypeTableRecord
  2
ACAD_ISO11W100
 70
     0
  3
ISO double-dash dot __ __ . __ __ . __ __ . __ 
 72
    65
 73
     6
 40
33.0
 49
12.0
 74
     0
 49
-3.0
 74
     0
 49
12.0
 74
     0
 49
-3.0
 74
     0
 49
0.0
 74
     0
 49
-3.0
 74
     0
  0
LTYPE
  5
3E
330
5
100
AcDbSymbolTableRecord
100
AcDbLinetypeTableRecord
  2
ACAD_ISO12W100
 70
     0
  3
ISO dash double-dot __ . . __ . . __ . . __ . .
 72
    65
 73
     6
 40
21.0
 49
12.0
 74
     0
 49
-3.0
 74
     0
 49
0.0
 74
     0
 49
-3.0
 74
     0
 49
0.0
 74
     0
 49
-3.0
 74
     0
  0
LTYPE
  5
3F
330
5
100
AcDbSymbolTableRecord
100
AcDbLinetypeTableRecord
  2
ACAD_ISO13W100
 70
     0
  3
ISO double-dash double-dot __ __ . . __ __ . . 
 72
    65
 73
     8
 40
36.0
 49
12.0
 74
     0
 49
-3.0
 74
     0
 49
12.0
 74
     0
 49
-3.0
 74
     0
 49
0.0
 74
     0
 49
-3.0
 74
     0
 49
0.0
 74
     0
 49
-3.0
 74
     0
  0
LTYPE
  5
40
330
5
100
AcDbSymbolTableRecord
100
AcDbLinetypeTableRecord
  2
ACAD_ISO14W100
 70
     0
  3
ISO dash triple-dot __ . . . __ . . . __ . . . 
 72
    65
 73
     8
 40
24.0
 49
12.0
 74
     0
 49
-3.0
 74
     0
 49
0.0
 74
     0
 49
-3.0
 74
     0
 49
0.0
 74
     0
 49
-3.0
 74
     0
 49
0.0
 74
     0
 49
-3.0
 74
     0
  0
LTYPE
  5
41
330
5
100
AcDbSymbolTableRecord
100
AcDbLinetypeTableRecord
  2
ACAD_ISO15W100
 70
     0
  3
ISO double-dash triple-dot __ __ . . . __ __ . 
 72
    65
 73
    10
 40
39.0
 49
12.0
 74
     0
 49
-3.0
 74
     0
 49
12.0
 74
     0
 49
-3.0
 74
     0
 49
0.0
 74
     0
 49
-3.0
 74
     0
 49
0.0
 74
     0
 49
-3.0
 74
     0
 49
0.0
 74
     0
 49
-3.0
 74
     0
  0
LTYPE
  5
42
330
5
100
AcDbSymbolTableRecord
100
AcDbLinetypeTableRecord
  2
BATTING
 70
     0
  3
Batting SSSSSSSSSSSSSSSSSSSSSSSSSSSSSSSSSSSSSSS
 72
    65
 73
     4
 40
10.16254
 49
0.00254
 74
     0
 49
-2.54
 74
     4
 75
   134
340
33
 46
2.54
 50
0.0
 44
-2.54
 45
0.0
 49
-5.08
 74
     4
 75
   134
340
33
 46
2.54
 50
180.0
 44
2.54
 45
0.0
 49
-2.54
 74
     0
  0
LTYPE
  5
43
330
5
100
AcDbSymbolTableRecord
100
AcDbLinetypeTableRecord
  2
BORDER
 70
     0
  3
Border __ __ . __ __ . __ __ . __ __ . __ __ .
 72
    65
 73
     6
 40
44.45
 49
12.7
 74
     0
 49
-6.349999999999999
 74
     0
 49
12.7
 74
     0
 49
-6.349999999999999
 74
     0
 49
0.0
 74
     0
 49
-6.349999999999999
 74
     0
  0
LTYPE
  5
44
330
5
100
AcDbSymbolTableRecord
100
AcDbLinetypeTableRecord
  2
BORDER2
 70
     0
  3
Border (.5x) __.__.__.__.__.__.__.__.__.__.__.
 72
    65
 73
     6
 40
22.225
 49
6.349999999999999
 74
     0
 49
-3.174999999999999
 74
     0
 49
6.349999999999999
 74
     0
 49
-3.174999999999999
 74
     0
 49
0.0
 74
     0
 49
-3.174999999999999
 74
     0
  0
LTYPE
  5
45
330
5
100
AcDbSymbolTableRecord
100
AcDbLinetypeTableRecord
  2
BORDERX2
 70
     0
  3
Border (2x) ____  ____  .  ____  ____  .  ___
 72
    65
 73
     6
 40
88.9
 49
25.4
 74
     0
 49
-12.7
 74
     0
 49
25.4
 74
     0
 49
-12.7
 74
     0
 49
0.0
 74
     0
 49
-12.7
 74
     0
  0
LTYPE
  5
46
330
5
100
AcDbSymbolTableRecord
100
AcDbLinetypeTableRecord
  2
CENTER
 70
     0
  3
Center ____ _ ____ _ ____ _ ____ _ ____ _ ____
 72
    65
 73
     4
 40
50.8
 49
31.75
 74
     0
 49
-6.349999999999999
 74
     0
 49
6.349999999999999
 74
     0
 49
-6.349999999999999
 74
     0
  0
LTYPE
  5
47
330
5
100
AcDbSymbolTableRecord
100
AcDbLinetypeTableRecord
  2
CENTER2
 70
     0
  3
Center (.5x) ___ _ ___ _ ___ _ ___ _ ___ _ ___
 72
    65
 73
     4
 40
28.575
 49
19.05
 74
     0
 49
-3.174999999999999
 74
     0
 49
3.174999999999999
 74
     0
 49
-3.174999999999999
 74
     0
  0
LTYPE
  5
48
330
5
100
AcDbSymbolTableRecord
100
AcDbLinetypeTableRecord
  2
CENTERX2
 70
     0
  3
Center (2x) ________  __  ________  __  _____
 72
    65
 73
     4
 40
101.6
 49
63.5
 74
     0
 49
-12.7
 74
     0
 49
12.7
 74
     0
 49
-12.7
 74
     0
  0
LTYPE
  5
49
330
5
100
AcDbSymbolTableRecord
100
AcDbLinetypeTableRecord
  2
DASHDOT
 70
     0
  3
Dash dot __ . __ . __ . __ . __ . __ . __ . __
 72
    65
 73
     4
 40
25.4
 49
12.7
 74
     0
 49
-6.349999999999999
 74
     0
 49
0.0
 74
     0
 49
-6.349999999999999
 74
     0
  0
LTYPE
  5
4A
330
5
100
AcDbSymbolTableRecord
100
AcDbLinetypeTableRecord
  2
DASHDOT2
 70
     0
  3
Dash dot (.5x) _._._._._._._._._._._._._._._.
 72
    65
 73
     4
 40
12.7
 49
6.349999999999999
 74
     0
 49
-3.174999999999999
 74
     0
 49
0.0
 74
     0
 49
-3.174999999999999
 74
     0
  0
LTYPE
  5
4B
330
5
100
AcDbSymbolTableRecord
100
AcDbLinetypeTableRecord
  2
DASHDOTX2
 70
     0
  3
Dash dot (2x) ____  .  ____  .  ____  .  ___
 72
    65
 73
     4
 40
50.8
 49
25.4
 74
     0
 49
-12.7
 74
     0
 49
0.0
 74
     0
 49
-12.7
 74
     0
  0
LTYPE
  5
4C
330
5
100
AcDbSymbolTableRecord
100
AcDbLinetypeTableRecord
  2
DASHED
 70
     0
  3
Dashed __ __ __ __ __ __ __ __ __ __ __ __ __ _
 72
    65
 73
     2
 40
19.05
 49
12.7
 74
     0
 49
-6.349999999999999
 74
     0
  0
LTYPE
  5
4D
330
5
100
AcDbSymbolTableRecord
100
AcDbLinetypeTableRecord
  2
DASHED2
 70
     0
  3
Dashed (.5x) _ _ _ _ _ _ _ _ _ _ _ _ _ _ _ _ _
 72
    65
 73
     2
 40
9.524999999999998
 49
6.349999999999999
 74
     0
 49
-3.174999999999999
 74
     0
  0
LTYPE
  5
4E
330
5
100
AcDbSymbolTableRecord
100
AcDbLinetypeTableRecord
  2
DASHEDX2
 70
     0
  3
Dashed (2x) ____  ____  ____  ____  ____  ___
 72
    65
 73
     2
 40
38.1
 49
25.4
 74
     0
 49
-12.7
 74
     0
  0
LTYPE
  5
4F
330
5
100
AcDbSymbolTableRecord
100
AcDbLinetypeTableRecord
  2
DIVIDE
 70
     0
  3
Divide ____ . . ____ . . ____ . . ____ . . ____
 72
    65
 73
     6
 40
31.75
 49
12.7
 74
     0
 49
-6.349999999999999
 74
     0
 49
0.0
 74
     0
 49
-6.349999999999999
 74
     0
 49
0.0
 74
     0
 49
-6.349999999999999
 74
     0
  0
LTYPE
  5
50
330
5
100
AcDbSymbolTableRecord
100
AcDbLinetypeTableRecord
  2
DIVIDE2
 70
     0
  3
Divide (.5x) __..__..__..__..__..__..__..__.._
 72
    65
 73
     6
 40
15.875
 49
6.349999999999999
 74
     0
 49
-3.174999999999999
 74
     0
 49
0.0
 74
     0
 49
-3.174999999999999
 74
     0
 49
0.0
 74
     0
 49
-3.174999999999999
 74
     0
  0
LTYPE
  5
51
330
5
100
AcDbSymbolTableRecord
100
AcDbLinetypeTableRecord
  2
DIVIDEX2
 70
     0
  3
Divide (2x) ________  .  .  ________  .  .  _
 72
    65
 73
     6
 40
63.49999999999999
 49
25.4
 74
     0
 49
-12.7
 74
     0
 49
0.0
 74
     0
 49
-12.7
 74
     0
 49
0.0
 74
     0
 49
-12.7
 74
     0
  0
LTYPE
  5
52
330
5
100
AcDbSymbolTableRecord
100
AcDbLinetypeTableRecord
  2
DOT
 70
     0
  3
Dot . . . . . . . . . . . . . . . . . . . . . .
 72
    65
 73
     2
 40
6.349999999999999
 49
0.0
 74
     0
 49
-6.349999999999999
 74
     0
  0
LTYPE
  5
53
330
5
100
AcDbSymbolTableRecord
100
AcDbLinetypeTableRecord
  2
DOT2
 70
     0
  3
Dot (.5x) .....................................
 72
    65
 73
     2
 40
3.174999999999999
 49
0.0
 74
     0
 49
-3.174999999999999
 74
     0
  0
LTYPE
  5
54
330
5
100
AcDbSymbolTableRecord
100
AcDbLinetypeTableRecord
  2
DOTX2
 70
     0
  3
Dot (2x) .  .  .  .  .  .  .  .  .  .  .  .  . 
 72
    65
 73
     2
 40
12.7
 49
0.0
 74
     0
 49
-12.7
 74
     0
  0
LTYPE
  5
55
330
5
100
AcDbSymbolTableRecord
100
AcDbLinetypeTableRecord
  2
FENCELINE1
 70
     0
  3
Fenceline circle ----0-----0----0-----0----0---
 72
    65
 73
     4
 40
36.83
 49
6.349999999999999
 74
     0
 49
-2.54
 74
     4
 75
   133
340
33
 46
2.54
 50
0.0
 44
-2.54
 45
0.0
 49
-2.54
 74
     0
 49
25.4
 74
     0
  0
LTYPE
  5
56
330
5
100
AcDbSymbolTableRecord
100
AcDbLinetypeTableRecord
  2
FENCELINE2
 70
     0
  3
Fenceline square ----[]-----[]----[]-----[]----
 72
    65
 73
     4
 40
36.83
 49
6.349999999999999
 74
     0
 49
-2.54
 74
     4
 75
   132
340
33
 46
2.54
 50
0.0
 44
-2.54
 45
0.0
 49
-2.54
 74
     0
 49
25.4
 74
     0
  0
LTYPE
  5
57
330
5
100
AcDbSymbolTableRecord
100
AcDbLinetypeTableRecord
  2
GAS_LINE
 70
     0
  3
Gas line ----GAS----GAS----GAS----GAS----GAS---
 72
    65
 73
     3
 40
24.13
 49
12.7
 74
     0
 49
-5.08
 74
     2
 75
     0
340
11
 46
2.54
 50
0.0
 44
-2.54
 45
-1.27
  9
GAS
 49
-6.349999999999999
 74
     0
  0
LTYPE
  5
58
330
5
100
AcDbSymbolTableRecord
100
AcDbLinetypeTableRecord
  2
HIDDEN
 70
     0
  3
Hidden __ __ __ __ __ __ __ __ __ __ __ __ __ _
 72
    65
 73
     2
 40
9.524999999999998
 49
6.349999999999999
 74
     0
 49
-3.174999999999999
 74
     0
  0
LTYPE
  5
59
330
5
100
AcDbSymbolTableRecord
100
AcDbLinetypeTableRecord
  2
HIDDEN2
 70
     0
  3
Hidden (.5x) _ _ _ _ _ _ _ _ _ _ _ _ _ _ _ _ _
 72
    65
 73
     2
 40
4.762499999999999
 49
3.174999999999999
 74
     0
 49
-1.587499999999999
 74
     0
  0
LTYPE
  5
5A
330
5
100
AcDbSymbolTableRecord
100
AcDbLinetypeTableRecord
  2
HIDDENX2
 70
     0
  3
Hidden (2x) ____ ____ ____ ____ ____ ____ ____
 72
    65
 73
     2
 40
19.05
 49
12.7
 74
     0
 49
-6.349999999999999
 74
     0
  0
LTYPE
  5
5B
330
5
100
AcDbSymbolTableRecord
100
AcDbLinetypeTableRecord
  2
HOT_WATER_SUPPLY
 70
     0
  3
Hot water supply ---- HW ---- HW ---- HW ----
 72
    65
 73
     3
 40
22.86
 49
12.7
 74
     0
 49
-5.08
 74
     2
 75
     0
340
11
 46
2.54
 50
0.0
 44
-2.54
 45
-1.27
  9
HW
 49
-5.08
 74
     0
  0
LTYPE
  5
5C
330
5
100
AcDbSymbolTableRecord
100
AcDbLinetypeTableRecord
  2
PHANTOM
 70
     0
  3
Phantom ______  __  __  ______  __  __  ______
 72
    65
 73
     6
 40
63.5
 49
31.75
 74
     0
 49
-6.349999999999999
 74
     0
 49
6.349999999999999
 74
     0
 49
-6.349999999999999
 74
     0
 49
6.349999999999999
 74
     0
 49
-6.349999999999999
 74
     0
  0
LTYPE
  5
5D
330
5
100
AcDbSymbolTableRecord
100
AcDbLinetypeTableRecord
  2
PHANTOM2
 70
     0
  3
Phantom (.5x) ___ _ _ ___ _ _ ___ _ _ ___ _ _
 72
    65
 73
     6
 40
31.75
 49
15.875
 74
     0
 49
-3.174999999999999
 74
     0
 49
3.174999999999999
 74
     0
 49
-3.174999999999999
 74
     0
 49
3.174999999999999
 74
     0
 49
-3.174999999999999
 74
     0
  0
LTYPE
  5
5E
330
5
100
AcDbSymbolTableRecord
100
AcDbLinetypeTableRecord
  2
PHANTOMX2
 70
     0
  3
Phantom (2x) ____________    ____    ____   _
 72
    65
 73
     6
 40
127.0
 49
63.5
 74
     0
 49
-12.7
 74
     0
 49
12.7
 74
     0
 49
-12.7
 74
     0
 49
12.7
 74
     0
 49
-12.7
 74
     0
  0
LTYPE
  5
5F
330
5
100
AcDbSymbolTableRecord
100
AcDbLinetypeTableRecord
  2
TRACKS
 70
     0
  3
Tracks -|-|-|-|-|-|-|-|-|-|-|-|-|-|-|-|-|-|-|-|
 72
    65
 73
     2
 40
7.62
 49
3.81
 74
     4
 75
   130
340
33
 46
6.349999999999999
 50
0.0
 44
0.0
 45
0.0
 49
3.81
 74
     0
  0
LTYPE
  5
60
330
5
100
AcDbSymbolTableRecord
100
AcDbLinetypeTableRecord
  2
ZIGZAG
 70
     0
  3
Zig zag /\/\/\/\/\/\/\/\/\/\/\/\/\/\/\/\/\/\/\/
 72
    65
 73
     4
 40
20.32254
 49
0.00254
 74
     0
 49
-5.08
 74
     4
 75
   131
340
33
 46
5.08
 50
0.0
 44
-5.08
 45
0.0
 49
-10.16
 74
     4
 75
   131
340
33
 46
5.08
 50
180.0
 44
5.08
 45
0.0
 49
-5.08
 74
     0
  0
ENDTAB
  0
TABLE
  2
LAYER
  5
2
102
{ACAD_XDICTIONARY
360
1FD0
102
}
330
0
100
AcDbSymbolTable
 70
     9
  0
LAYER
  5
10
330
2
100
AcDbSymbolTableRecord
100
AcDbLayerTableRecord
  2
0
 70
     0
 62
     7
  6
Continuous
370
    -3
390
F
  0
LAYER
  5
C3
330
2
100
AcDbSymbolTableRecord
100
AcDbLayerTableRecord
  2
Defpoints
 70
     0
 62
     7
  6
Continuous
290
     0
370
    -3
390
F
  0
LAYER
  5
256
330
2
100
AcDbSymbolTableRecord
100
AcDbLayerTableRecord
  2
センター
 70
     0
 62
     7
  6
CENTER2
370
    18
390
F
  0
LAYER
  5
268
330
2
100
AcDbSymbolTableRecord
100
AcDbLayerTableRecord
  2
実形
 70
     0
 62
     7
  6
Continuous
370
    -3
390
F
  0
LAYER
  5
269
330
2
100
AcDbSymbolTableRecord
100
AcDbLayerTableRecord
  2
補助
 70
     0
 62
     7
  6
Continuous
370
    -3
390
F
  0
LAYER
  5
26A
330
2
100
AcDbSymbolTableRecord
100
AcDbLayerTableRecord
  2
寸法
 70
     0
 62
     7
  6
Continuous
370
    18
390
F
  0
LAYER
  5
26B
330
2
100
AcDbSymbolTableRecord
100
AcDbLayerTableRecord
  2
ハッチング
 70
     0
 62
     7
  6
Continuous
370
    18
390
F
  0
LAYER
  5
26D
330
2
100
AcDbSymbolTableRecord
100
AcDbLayerTableRecord
  2
文字
 70
     0
 62
     7
  6
Continuous
370
    -3
390
F
  0
LAYER
  5
1D2A
330
2
100
AcDbSymbolTableRecord
100
AcDbLayerTableRecord
  2
Cen
 70
     0
 62
     7
  6
CENTER2
370
    15
390
F
  0
ENDTAB
  0
TABLE
  2
STYLE
  5
3
330
0
100
AcDbSymbolTable
 70
     3
  0
STYLE
  5
11
330
3
100
AcDbSymbolTableRecord
100
AcDbTextStyleTableRecord
  2
Standard
 70
     0
 40
0.0
 41
1.0
 50
0.0
 71
     0
 42
25.0
  3
txt.shx
  4
bigfont.shx
  0
STYLE
  5
33
330
3
100
AcDbSymbolTableRecord
100
AcDbTextStyleTableRecord
  2

 70
     1
 40
0.0
 41
1.0
 50
0.0
 71
     0
 42
2.5
  3
ltypeshp.shx
  4

  0
STYLE
  5
2091
330
3
100
AcDbSymbolTableRecord
100
AcDbTextStyleTableRecord
  2
明朝
 70
     0
 40
0.0
 41
1.0
 50
0.0
 71
     0
 42
25.0
  3
MS Mincho.ttf
  4

1001
ACAD
1000
MS Mincho
1071
    32785
  0
ENDTAB
  0
TABLE
  2
VIEW
  5
6
330
0
100
AcDbSymbolTable
 70
     0
  0
ENDTAB
  0
TABLE
  2
UCS
  5
7
330
0
100
AcDbSymbolTable
 70
     0
  0
ENDTAB
  0
TABLE
  2
APPID
  5
9
330
0
100
AcDbSymbolTable
 70
     1
  0
APPID
  5
12
330
9
100
AcDbSymbolTableRecord
100
AcDbRegAppTableRecord
  2
ACAD
 70
     0
  0
ENDTAB
  0
TABLE
  2
DIMSTYLE
  5
A
330
0
100
AcDbSymbolTable
 70
     2
100
AcDbDimStyleTable
 71
     1
340
27
  0
DIMSTYLE
105
27
102
{ACAD_REACTORS
330
12A2
330
12E0
330
12ED
330
12FA
330
1307
330
132F
330
134E
330
1382
330
1391
330
139E
330
13AD
330
13BA
330
13C9
330
1472
330
1560
330
1562
330
1563
330
17A6
330
17A7
330
17B2
330
17B3
102
}
330
A
100
AcDbSymbolTableRecord
100
AcDbDimStyleTableRecord
  2
ISO-25
 70
     0
 41
35.0
 42
65.0
 43
3.75
 44
0.0
 73
     0
 74
     0
 77
     1
 78
     8
140
25.0
141
2.5
143
0.03937007874016
147
6.25
171
     3
172
     1
271
     2
272
     2
274
     3
283
     0
284
     8
340
11
341
DA
342
D0
371
    15
372
    15
  0
DIMSTYLE
105
2092
330
A
100
AcDbSymbolTableRecord
100
AcDbDimStyleTableRecord
  2
ISO-25　ｂ
 70
     0
 41
35.0
 42
65.0
 43
3.75
 44
0.0
 73
     0
 74
     0
 77
     1
 78
     8
140
25.0
141
2.5
143
0.03937007874016
147
6.25
171
     3
172
     1
271
     2
272
     2
274
     3
279
     2
283
     0
284
     8
340
11
341
DA
342
D0
371
    18
372
    18
  0
ENDTAB
  0
TABLE
  2
BLOCK_RECORD
  5
1
330
0
100
AcDbSymbolTable
 70
    26
  0
BLOCK_RECORD
  5
1F
102
{ACAD_XDICTIONARY
360
1E61
102
}
330
1
100
AcDbSymbolTableRecord
100
AcDbBlockTableRecord
  2
*Model_Space
340
22
  0
BLOCK_RECORD
  5
1B
330
1
100
AcDbSymbolTableRecord
100
AcDbBlockTableRecord
  2
*Paper_Space
340
1E
  0
BLOCK_RECORD
  5
23
330
1
100
AcDbSymbolTableRecord
100
AcDbBlockTableRecord
  2
*Paper_Space0
340
26
  0
BLOCK_RECORD
  5
D0
330
1
100
AcDbSymbolTableRecord
100
AcDbBlockTableRecord
  2
_DotSmall
340
0
102
{BLKREFS
331
1FD6
331
1FD7
331
1FDF
331
1FE0
331
1FE8
331
1FE9
331
1FF1
331
1FF2
331
1FFA
331
1FFB
331
2003
331
2004
331
200D
331
200E
331
2016
331
2017
331
201F
331
2020
331
2028
331
2029
331
2031
331
2032
331
203A
331
203B
331
2042
331
2043
331
204B
331
204C
331
2054
331
2055
331
205D
331
205E
331
2066
331
2067
331
2070
331
2071
331
2079
331
207A
331
2082
331
2083
331
208A
331
208B
102
}
  0
BLOCK_RECORD
  5
D4
330
1
100
AcDbSymbolTableRecord
100
AcDbBlockTableRecord
  2
_Origin2
340
0
  0
BLOCK_RECORD
  5
DA
330
1
100
AcDbSymbolTableRecord
100
AcDbBlockTableRecord
  2
_Open30
340
0
  0
BLOCK_RECORD
  5
12A3
330
1
100
AcDbSymbolTableRecord
100
AcDbBlockTableRecord
  2
*D4
340
0
  0
BLOCK_RECORD
  5
12E1
330
1
100
AcDbSymbolTableRecord
100
AcDbBlockTableRecord
  2
*D5
340
0
  0
BLOCK_RECORD
  5
12EE
330
1
100
AcDbSymbolTableRecord
100
AcDbBlockTableRecord
  2
*D6
340
0
  0
BLOCK_RECORD
  5
12FB
330
1
100
AcDbSymbolTableRecord
100
AcDbBlockTableRecord
  2
*D7
340
0
  0
BLOCK_RECORD
  5
1308
330
1
100
AcDbSymbolTableRecord
100
AcDbBlockTableRecord
  2
*D8
340
0
  0
BLOCK_RECORD
  5
1330
330
1
100
AcDbSymbolTableRecord
100
AcDbBlockTableRecord
  2
*D9
340
0
  0
BLOCK_RECORD
  5
134F
330
1
100
AcDbSymbolTableRecord
100
AcDbBlockTableRecord
  2
*D10
340
0
  0
BLOCK_RECORD
  5
1383
330
1
100
AcDbSymbolTableRecord
100
AcDbBlockTableRecord
  2
*D11
340
0
  0
BLOCK_RECORD
  5
1392
330
1
100
AcDbSymbolTableRecord
100
AcDbBlockTableRecord
  2
*D12
340
0
  0
BLOCK_RECORD
  5
139F
330
1
100
AcDbSymbolTableRecord
100
AcDbBlockTableRecord
  2
*D13
340
0
  0
BLOCK_RECORD
  5
13AE
330
1
100
AcDbSymbolTableRecord
100
AcDbBlockTableRecord
  2
*D14
340
0
  0
BLOCK_RECORD
  5
13BB
330
1
100
AcDbSymbolTableRecord
100
AcDbBlockTableRecord
  2
*D15
340
0
  0
BLOCK_RECORD
  5
13CA
330
1
100
AcDbSymbolTableRecord
100
AcDbBlockTableRecord
  2
*D16
340
0
  0
BLOCK_RECORD
  5
1473
330
1
100
AcDbSymbolTableRecord
100
AcDbBlockTableRecord
  2
*D17
340
0
  0
BLOCK_RECORD
  5
1583
330
1
100
AcDbSymbolTableRecord
100
AcDbBlockTableRecord
  2
*D18
340
0
  0
BLOCK_RECORD
  5
158F
330
1
100
AcDbSymbolTableRecord
100
AcDbBlockTableRecord
  2
*D19
340
0
  0
BLOCK_RECORD
  5
159B
330
1
100
AcDbSymbolTableRecord
100
AcDbBlockTableRecord
  2
*D20
340
0
  0
BLOCK_RECORD
  5
17DD
330
1
100
AcDbSymbolTableRecord
100
AcDbBlockTableRecord
  2
*D21
340
0
  0
BLOCK_RECORD
  5
17E9
330
1
100
AcDbSymbolTableRecord
100
AcDbBlockTableRecord
  2
*D22
340
0
  0
BLOCK_RECORD
  5
1800
330
1
100
AcDbSymbolTableRecord
100
AcDbBlockTableRecord
  2
*D23
340
0
  0
BLOCK_RECORD
  5
180C
330
1
100
AcDbSymbolTableRecord
100
AcDbBlockTableRecord
  2
*D24
340
0
  0
BLOCK_RECORD
  5
1EC2
102
{ACAD_XDICTIONARY
360
1EC4
102
}
330
1
100
AcDbSymbolTableRecord
100
AcDbBlockTableRecord
  2
A$C78020FD5
340
0
  0
ENDTAB
  0
ENDSEC
  0
SECTION
  2
BLOCKS
  0
BLOCK
  5
20
330
1F
100
AcDbEntity
  8
0
100
AcDbBlockBegin
  2
*Model_Space
 70
     0
 10
0.0
 20
0.0
 30
0.0
  3
*Model_Space
  1

  0
ENDBLK
  5
21
330
1F
100
AcDbEntity
  8
0
100
AcDbBlockEnd
  0
BLOCK
  5
1C
330
1B
100
AcDbEntity
 67
     1
  8
0
100
AcDbBlockBegin
  2
*Paper_Space
 70
     0
 10
0.0
 20
0.0
 30
0.0
  3
*Paper_Space
  1

  0
ENDBLK
  5
1D
330
1B
100
AcDbEntity
 67
     1
  8
0
100
AcDbBlockEnd
  0
BLOCK
  5
24
330
23
100
AcDbEntity
  8
0
100
AcDbBlockBegin
  2
*Paper_Space0
 70
     0
 10
0.0
 20
0.0
 30
0.0
  3
*Paper_Space0
  1

  0
ENDBLK
  5
25
330
23
100
AcDbEntity
  8
0
100
AcDbBlockEnd
  0
BLOCK
  5
D2
330
D0
100
AcDbEntity
  8
0
100
AcDbBlockBegin
  2
_DotSmall
 70
     0
 10
0.0
 20
0.0
 30
0.0
  3
_DotSmall
  1

  0
LWPOLYLINE
  5
D1
330
D0
100
AcDbEntity
  8
0
 62
     0
100
AcDbPolyline
 90
        2
 70
     1
 43
0.5
 10
-0.0625
 20
0.0
 42
1.0
 10
0.0625
 20
0.0
 42
1.0
  0
ENDBLK
  5
D3
330
D0
100
AcDbEntity
  8
0
100
AcDbBlockEnd
  0
BLOCK
  5
D8
330
D4
100
AcDbEntity
  8
0
100
AcDbBlockBegin
  2
_Origin2
 70
     0
 10
0.0
 20
0.0
 30
0.0
  3
_Origin2
  1

  0
CIRCLE
  5
D5
330
D4
100
AcDbEntity
  8
0
 62
     0
370
    -2
100
AcDbCircle
 10
0.0
 20
0.0
 30
0.0
 40
0.5
  0
CIRCLE
  5
D6
330
D4
100
AcDbEntity
  8
0
 62
     0
370
    -2
100
AcDbCircle
 10
0.0
 20
0.0
 30
0.0
 40
0.25
  0
LINE
  5
D7
330
D4
100
AcDbEntity
  8
0
 62
     0
370
    -2
100
AcDbLine
 10
-0.5
 20
0.0
 30
0.0
 11
-1.0
 21
0.0
 31
0.0
  0
ENDBLK
  5
D9
330
D4
100
AcDbEntity
  8
0
100
AcDbBlockEnd
  0
BLOCK
  5
DE
330
DA
100
AcDbEntity
  8
0
100
AcDbBlockBegin
  2
_Open30
 70
     0
 10
0.0
 20
0.0
 30
0.0
  3
_Open30
  1

  0
LINE
  5
DB
330
DA
100
AcDbEntity
  8
0
 62
     0
370
    -2
100
AcDbLine
 10
-1.0
 20
0.26794919
 30
0.0
 11
0.0
 21
0.0
 31
0.0
  0
LINE
  5
DC
330
DA
100
AcDbEntity
  8
0
 62
     0
370
    -2
100
AcDbLine
 10
0.0
 20
0.0
 30
0.0
 11
-1.0
 21
-0.26794919
 31
0.0
  0
LINE
  5
DD
330
DA
100
AcDbEntity
  8
0
 62
     0
370
    -2
100
AcDbLine
 10
0.0
 20
0.0
 30
0.0
 11
-1.0
 21
0.0
 31
0.0
  0
ENDBLK
  5
DF
330
DA
100
AcDbEntity
  8
0
100
AcDbBlockEnd
  0
BLOCK
  5
12AE
330
12A3
100
AcDbEntity
  8
0
100
AcDbBlockBegin
  2
*D4
 70
     1
 10
0.0
 20
0.0
 30
0.0
  3
*D4
  1

  0
LINE
  5
2036
330
12A3
100
AcDbEntity
  8
実形
 62
     0
370
    18
100
AcDbLine
 10
723.5936297894722
 20
1693.67545567602
 30
0.0
 11
633.9629018630796
 21
1693.67545567602
 31
0.0
  0
LINE
  5
2037
330
12A3
100
AcDbEntity
  8
実形
 62
     0
370
    18
100
AcDbLine
 10
723.5936297894722
 20
1675.675455676019
 30
0.0
 11
633.9629018630796
 21
1675.675455676019
 31
0.0
  0
LINE
  5
2038
330
12A3
100
AcDbEntity
  8
実形
 62
     0
370
    18
100
AcDbLine
 10
633.9629018630796
 20
1693.67545567602
 30
0.0
 11
633.9629018630796
 21
1675.675455676019
 31
0.0
  0
MTEXT
  5
2039
330
12A3
100
AcDbEntity
  8
実形
 62
     0
100
AcDbMText
 10
622.4454173656495
 20
1729.428900627159
 30
0.0
 40
25.0
 41
0.0
 71
     5
 72
     1
  1
18
 11
0.0000000000000001
 21
1.0
 31
0.0
 73
     1
 44
1.0
1001
ACAD
1000
MTEXTBEGIN
1070
    73
1070
     1
1070
    44
1040
1.0
1070
    74
1070
     0
1000
MTEXTEND
  0
INSERT
  5
203A
330
12A3
100
AcDbEntity
  8
実形
 62
     0
370
    18
100
AcDbBlockReference
  2
_DotSmall
 10
633.9629018630796
 20
1693.67545567602
 30
0.0
 41
35.0
 42
35.0
 43
35.0
 50
90.0
  0
INSERT
  5
203B
330
12A3
100
AcDbEntity
  8
実形
 62
     0
370
    18
100
AcDbBlockReference
  2
_DotSmall
 10
633.9629018630796
 20
1675.675455676019
 30
0.0
 41
35.0
 42
35.0
 43
35.0
 50
270.0
  0
POINT
  5
203C
330
12A3
100
AcDbEntity
  8
Defpoints
 62
     0
100
AcDbPoint
 10
788.5936297894723
 20
1693.67545567602
 30
0.0
  0
POINT
  5
203D
330
12A3
100
AcDbEntity
  8
Defpoints
 62
     0
100
AcDbPoint
 10
788.5936297894723
 20
1675.675455676019
 30
0.0
  0
POINT
  5
203E
330
12A3
100
AcDbEntity
  8
Defpoints
 62
     0
100
AcDbPoint
 10
633.9629018630796
 20
1675.675455676019
 30
0.0
  0
ENDBLK
  5
12AF
330
12A3
100
AcDbEntity
  8
0
100
AcDbBlockEnd
  0
BLOCK
  5
12EB
330
12E1
100
AcDbEntity
  8
0
100
AcDbBlockBegin
  2
*D5
 70
     1
 10
0.0
 20
0.0
 30
0.0
  3
*D5
  1

  0
LINE
  5
202D
330
12E1
100
AcDbEntity
  8
実形
 62
     0
370
    18
100
AcDbLine
 10
723.5936297894722
 20
1675.675455676019
 30
0.0
 11
633.9629018630796
 21
1675.675455676019
 31
0.0
  0
LINE
  5
202E
330
12E1
100
AcDbEntity
  8
実形
 62
     0
370
    18
100
AcDbLine
 10
723.5936297894722
 20
1653.67545567602
 30
0.0
 11
633.9629018630796
 21
1653.67545567602
 31
0.0
  0
LINE
  5
202F
330
12E1
100
AcDbEntity
  8
実形
 62
     0
370
    18
100
AcDbLine
 10
633.9629018630796
 20
1675.675455676019
 30
0.0
 11
633.9629018630796
 21
1653.67545567602
 31
0.0
  0
MTEXT
  5
2030
330
12E1
100
AcDbEntity
  8
実形
 62
     0
100
AcDbMText
 10
601.3919132282999
 20
1646.564880774364
 30
0.0
 40
25.0
 41
0.0
 71
     5
 72
     1
  1
22
 11
0.0000000000000001
 21
1.0
 31
0.0
 73
     1
 44
1.0
1001
ACAD
1000
MTEXTBEGIN
1070
    73
1070
     1
1070
    44
1040
1.0
1070
    74
1070
     0
1000
MTEXTEND
  0
INSERT
  5
2031
330
12E1
100
AcDbEntity
  8
実形
 62
     0
370
    18
100
AcDbBlockReference
  2
_DotSmall
 10
633.9629018630796
 20
1675.675455676019
 30
0.0
 41
35.0
 42
35.0
 43
35.0
 50
90.0
  0
INSERT
  5
2032
330
12E1
100
AcDbEntity
  8
実形
 62
     0
370
    18
100
AcDbBlockReference
  2
_DotSmall
 10
633.9629018630796
 20
1653.67545567602
 30
0.0
 41
35.0
 42
35.0
 43
35.0
 50
270.0
  0
POINT
  5
2033
330
12E1
100
AcDbEntity
  8
Defpoints
 62
     0
100
AcDbPoint
 10
788.5936297894723
 20
1675.675455676019
 30
0.0
  0
POINT
  5
2034
330
12E1
100
AcDbEntity
  8
Defpoints
 62
     0
100
AcDbPoint
 10
788.5936297894723
 20
1653.67545567602
 30
0.0
  0
POINT
  5
2035
330
12E1
100
AcDbEntity
  8
Defpoints
 62
     0
100
AcDbPoint
 10
633.9629018630796
 20
1653.67545567602
 30
0.0
  0
ENDBLK
  5
12EC
330
12E1
100
AcDbEntity
  8
0
100
AcDbBlockEnd
  0
BLOCK
  5
12F8
330
12EE
100
AcDbEntity
  8
0
100
AcDbBlockBegin
  2
*D6
 70
     1
 10
0.0
 20
0.0
 30
0.0
  3
*D6
  1

  0
LINE
  5
2000
330
12EE
100
AcDbEntity
  8
実形
 62
     0
370
    18
100
AcDbLine
 10
723.5936297894722
 20
1653.67545567602
 30
0.0
 11
633.9629018630797
 21
1653.67545567602
 31
0.0
  0
LINE
  5
2001
330
12EE
100
AcDbEntity
  8
実形
 62
     0
370
    18
100
AcDbLine
 10
723.5936297894722
 20
1213.67545567602
 30
0.0
 11
633.9629018630796
 21
1213.67545567602
 31
0.0
  0
LINE
  5
2002
330
12EE
100
AcDbEntity
  8
実形
 62
     0
370
    18
100
AcDbLine
 10
633.9629018630797
 20
1653.67545567602
 30
0.0
 11
633.9629018630796
 21
1213.67545567602
 31
0.0
  0
INSERT
  5
2003
330
12EE
100
AcDbEntity
  8
実形
 62
     0
370
    18
100
AcDbBlockReference
  2
_DotSmall
 10
633.9629018630797
 20
1653.67545567602
 30
0.0
 41
35.0
 42
35.0
 43
35.0
 50
90.0
  0
INSERT
  5
2004
330
12EE
100
AcDbEntity
  8
実形
 62
     0
370
    18
100
AcDbBlockReference
  2
_DotSmall
 10
633.9629018630796
 20
1213.67545567602
 30
0.0
 41
35.0
 42
35.0
 43
35.0
 50
270.0
  0
MTEXT
  5
2005
330
12EE
100
AcDbEntity
  8
実形
 62
     0
100
AcDbMText
 10
615.2129018630795
 20
1433.67545567602
 30
0.0
 40
25.0
 41
0.0
 71
     5
 72
     1
  1
440
 11
0.0000000000000001
 21
1.0
 31
0.0
 73
     1
 44
1.0
1001
ACAD
1000
MTEXTBEGIN
1070
    73
1070
     1
1070
    44
1040
1.0
1070
    74
1070
     0
1000
MTEXTEND
  0
POINT
  5
2006
330
12EE
100
AcDbEntity
  8
Defpoints
 62
     0
100
AcDbPoint
 10
788.5936297894723
 20
1653.67545567602
 30
0.0
  0
POINT
  5
2007
330
12EE
100
AcDbEntity
  8
Defpoints
 62
     0
100
AcDbPoint
 10
788.5936297894723
 20
1213.67545567602
 30
0.0
  0
POINT
  5
2008
330
12EE
100
AcDbEntity
  8
Defpoints
 62
     0
100
AcDbPoint
 10
633.9629018630796
 20
1213.67545567602
 30
0.0
  0
ENDBLK
  5
12F9
330
12EE
100
AcDbEntity
  8
0
100
AcDbBlockEnd
  0
BLOCK
  5
1305
330
12FB
100
AcDbEntity
  8
0
100
AcDbBlockBegin
  2
*D7
 70
     1
 10
0.0
 20
0.0
 30
0.0
  3
*D7
  1

  0
LINE
  5
2024
330
12FB
100
AcDbEntity
  8
実形
 62
     0
370
    18
100
AcDbLine
 10
723.5936297894722
 20
1213.67545567602
 30
0.0
 11
633.9629018630796
 21
1213.67545567602
 31
0.0
  0
LINE
  5
2025
330
12FB
100
AcDbEntity
  8
実形
 62
     0
370
    18
100
AcDbLine
 10
723.5936297894722
 20
1191.67545567602
 30
0.0
 11
633.9629018630796
 21
1191.67545567602
 31
0.0
  0
LINE
  5
2026
330
12FB
100
AcDbEntity
  8
実形
 62
     0
370
    18
100
AcDbLine
 10
633.9629018630796
 20
1213.67545567602
 30
0.0
 11
633.9629018630796
 21
1191.67545567602
 31
0.0
  0
MTEXT
  5
2027
330
12FB
100
AcDbEntity
  8
実形
 62
     0
100
AcDbMText
 10
601.3919132282999
 20
1227.64122754838
 30
0.0
 40
25.0
 41
0.0
 71
     5
 72
     1
  1
22
 11
0.0000000000000001
 21
1.0
 31
0.0
 73
     1
 44
1.0
1001
ACAD
1000
MTEXTBEGIN
1070
    73
1070
     1
1070
    44
1040
1.0
1070
    74
1070
     0
1000
MTEXTEND
  0
INSERT
  5
2028
330
12FB
100
AcDbEntity
  8
実形
 62
     0
370
    18
100
AcDbBlockReference
  2
_DotSmall
 10
633.9629018630796
 20
1213.67545567602
 30
0.0
 41
35.0
 42
35.0
 43
35.0
 50
90.0
  0
INSERT
  5
2029
330
12FB
100
AcDbEntity
  8
実形
 62
     0
370
    18
100
AcDbBlockReference
  2
_DotSmall
 10
633.9629018630796
 20
1191.67545567602
 30
0.0
 41
35.0
 42
35.0
 43
35.0
 50
270.0
  0
POINT
  5
202A
330
12FB
100
AcDbEntity
  8
Defpoints
 62
     0
100
AcDbPoint
 10
788.5936297894723
 20
1213.67545567602
 30
0.0
  0
POINT
  5
202B
330
12FB
100
AcDbEntity
  8
Defpoints
 62
     0
100
AcDbPoint
 10
788.5936297894723
 20
1191.67545567602
 30
0.0
  0
POINT
  5
202C
330
12FB
100
AcDbEntity
  8
Defpoints
 62
     0
100
AcDbPoint
 10
633.9629018630796
 20
1191.67545567602
 30
0.0
  0
ENDBLK
  5
1306
330
12FB
100
AcDbEntity
  8
0
100
AcDbBlockEnd
  0
BLOCK
  5
1312
330
1308
100
AcDbEntity
  8
0
100
AcDbBlockBegin
  2
*D8
 70
     1
 10
0.0
 20
0.0
 30
0.0
  3
*D8
  1

  0
LINE
  5
201B
330
1308
100
AcDbEntity
  8
実形
 62
     0
370
    18
100
AcDbLine
 10
723.5936297894722
 20
1191.67545567602
 30
0.0
 11
633.9629018630796
 21
1191.67545567602
 31
0.0
  0
LINE
  5
201C
330
1308
100
AcDbEntity
  8
実形
 62
     0
370
    18
100
AcDbLine
 10
723.5936297894722
 20
1173.67545567602
 30
0.0
 11
633.9629018630796
 21
1173.67545567602
 31
0.0
  0
LINE
  5
201D
330
1308
100
AcDbEntity
  8
実形
 62
     0
370
    18
100
AcDbLine
 10
633.9629018630796
 20
1191.67545567602
 30
0.0
 11
633.9629018630796
 21
1173.67545567602
 31
0.0
  0
MTEXT
  5
201E
330
1308
100
AcDbEntity
  8
実形
 62
     0
100
AcDbMText
 10
615.2129018630794
 20
1137.871871898906
 30
0.0
 40
25.0
 41
0.0
 71
     5
 72
     1
  1
18
 11
0.0000000000000001
 21
1.0
 31
0.0
 73
     1
 44
1.0
1001
ACAD
1000
MTEXTBEGIN
1070
    73
1070
     1
1070
    44
1040
1.0
1070
    74
1070
     0
1000
MTEXTEND
  0
INSERT
  5
201F
330
1308
100
AcDbEntity
  8
実形
 62
     0
370
    18
100
AcDbBlockReference
  2
_DotSmall
 10
633.9629018630796
 20
1191.67545567602
 30
0.0
 41
35.0
 42
35.0
 43
35.0
 50
90.0
  0
INSERT
  5
2020
330
1308
100
AcDbEntity
  8
実形
 62
     0
370
    18
100
AcDbBlockReference
  2
_DotSmall
 10
633.9629018630796
 20
1173.67545567602
 30
0.0
 41
35.0
 42
35.0
 43
35.0
 50
270.0
  0
POINT
  5
2021
330
1308
100
AcDbEntity
  8
Defpoints
 62
     0
100
AcDbPoint
 10
788.5936297894723
 20
1191.67545567602
 30
0.0
  0
POINT
  5
2022
330
1308
100
AcDbEntity
  8
Defpoints
 62
     0
100
AcDbPoint
 10
788.5936297894723
 20
1173.67545567602
 30
0.0
  0
POINT
  5
2023
330
1308
100
AcDbEntity
  8
Defpoints
 62
     0
100
AcDbPoint
 10
633.9629018630796
 20
1173.67545567602
 30
0.0
  0
ENDBLK
  5
1313
330
1308
100
AcDbEntity
  8
0
100
AcDbBlockEnd
  0
BLOCK
  5
133A
330
1330
100
AcDbEntity
  8
0
100
AcDbBlockBegin
  2
*D9
 70
     1
 10
0.0
 20
0.0
 30
0.0
  3
*D9
  1

  0
LINE
  5
1FF7
330
1330
100
AcDbEntity
  8
実形
 62
     0
370
    18
100
AcDbLine
 10
723.5936297894722
 20
1693.67545567602
 30
0.0
 11
560.2509594618124
 21
1693.67545567602
 31
0.0
  0
LINE
  5
1FF8
330
1330
100
AcDbEntity
  8
実形
 62
     0
370
    18
100
AcDbLine
 10
723.5936297894722
 20
1173.67545567602
 30
0.0
 11
560.2509594618123
 21
1173.67545567602
 31
0.0
  0
LINE
  5
1FF9
330
1330
100
AcDbEntity
  8
実形
 62
     0
370
    18
100
AcDbLine
 10
560.2509594618124
 20
1693.67545567602
 30
0.0
 11
560.2509594618123
 21
1173.67545567602
 31
0.0
  0
INSERT
  5
1FFA
330
1330
100
AcDbEntity
  8
実形
 62
     0
370
    18
100
AcDbBlockReference
  2
_DotSmall
 10
560.2509594618124
 20
1693.67545567602
 30
0.0
 41
35.0
 42
35.0
 43
35.0
 50
90.0
  0
INSERT
  5
1FFB
330
1330
100
AcDbEntity
  8
実形
 62
     0
370
    18
100
AcDbBlockReference
  2
_DotSmall
 10
560.2509594618123
 20
1173.67545567602
 30
0.0
 41
35.0
 42
35.0
 43
35.0
 50
270.0
  0
MTEXT
  5
1FFC
330
1330
100
AcDbEntity
  8
実形
 62
     0
100
AcDbMText
 10
541.5009594618121
 20
1433.67545567602
 30
0.0
 40
25.0
 41
0.0
 71
     5
 72
     1
  1
520
 11
0.0000000000000001
 21
1.0
 31
0.0
 73
     1
 44
1.0
1001
ACAD
1000
MTEXTBEGIN
1070
    73
1070
     1
1070
    44
1040
1.0
1070
    74
1070
     0
1000
MTEXTEND
  0
POINT
  5
1FFD
330
1330
100
AcDbEntity
  8
Defpoints
 62
     0
100
AcDbPoint
 10
788.5936297894723
 20
1693.67545567602
 30
0.0
  0
POINT
  5
1FFE
330
1330
100
AcDbEntity
  8
Defpoints
 62
     0
100
AcDbPoint
 10
788.5936297894723
 20
1173.67545567602
 30
0.0
  0
POINT
  5
1FFF
330
1330
100
AcDbEntity
  8
Defpoints
 62
     0
100
AcDbPoint
 10
560.2509594618123
 20
1173.67545567602
 30
0.0
  0
ENDBLK
  5
133B
330
1330
100
AcDbEntity
  8
0
100
AcDbBlockEnd
  0
BLOCK
  5
135A
330
134F
100
AcDbEntity
  8
0
100
AcDbBlockBegin
  2
*D10
 70
     1
 10
0.0
 20
0.0
 30
0.0
  3
*D10
  1

  0
LINE
  5
2012
330
134F
100
AcDbEntity
  8
実形
 62
     0
370
    18
100
AcDbLine
 10
788.5936297894723
 20
1108.67545567602
 30
0.0
 11
788.5936297894723
 21
1062.290944394732
 31
0.0
  0
LINE
  5
2013
330
134F
100
AcDbEntity
  8
実形
 62
     0
370
    18
100
AcDbLine
 10
806.5936297894722
 20
1108.67545567602
 30
0.0
 11
806.5936297894722
 21
1062.290944394732
 31
0.0
  0
LINE
  5
2014
330
134F
100
AcDbEntity
  8
実形
 62
     0
370
    18
100
AcDbLine
 10
788.5936297894723
 20
1062.290944394732
 30
0.0
 11
806.5936297894722
 21
1062.290944394732
 31
0.0
  0
MTEXT
  5
2015
330
134F
100
AcDbEntity
  8
実形
 62
     0
100
AcDbMText
 10
752.8350914612283
 20
1073.70353727191
 30
0.0
 40
25.0
 41
0.0
 71
     5
 72
     1
  1
18
 73
     1
 44
1.0
1001
ACAD
1000
MTEXTBEGIN
1070
    73
1070
     1
1070
    44
1040
1.0
1070
    74
1070
     0
1000
MTEXTEND
  0
INSERT
  5
2016
330
134F
100
AcDbEntity
  8
実形
 62
     0
370
    18
100
AcDbBlockReference
  2
_DotSmall
 10
788.5936297894723
 20
1062.290944394732
 30
0.0
 41
35.0
 42
35.0
 43
35.0
 50
180.0
  0
INSERT
  5
2017
330
134F
100
AcDbEntity
  8
実形
 62
     0
370
    18
100
AcDbBlockReference
  2
_DotSmall
 10
806.5936297894722
 20
1062.290944394732
 30
0.0
 41
35.0
 42
35.0
 43
35.0
  0
POINT
  5
2018
330
134F
100
AcDbEntity
  8
Defpoints
 62
     0
100
AcDbPoint
 10
788.5936297894723
 20
1173.67545567602
 30
0.0
  0
POINT
  5
2019
330
134F
100
AcDbEntity
  8
Defpoints
 62
     0
100
AcDbPoint
 10
806.5936297894722
 20
1173.67545567602
 30
0.0
  0
POINT
  5
201A
330
134F
100
AcDbEntity
  8
Defpoints
 62
     0
100
AcDbPoint
 10
806.5936297894722
 20
1062.290944394732
 30
0.0
  0
ENDBLK
  5
135B
330
134F
100
AcDbEntity
  8
0
100
AcDbBlockEnd
  0
BLOCK
  5
138F
330
1383
100
AcDbEntity
  8
0
100
AcDbBlockBegin
  2
*D11
 70
     1
 10
0.0
 20
0.0
 30
0.0
  3
*D11
  1

  0
LINE
  5
207E
330
1383
100
AcDbEntity
  8
実形
 62
     0
370
    18
100
AcDbLine
 10
1910.593629789472
 20
1108.67545567602
 30
0.0
 11
1910.593629789472
 21
1062.290944394732
 31
0.0
  0
LINE
  5
207F
330
1383
100
AcDbEntity
  8
実形
 62
     0
370
    18
100
AcDbLine
 10
1883.593629789472
 20
1108.67545567602
 30
0.0
 11
1883.593629789472
 21
1062.290944394732
 31
0.0
  0
LINE
  5
2080
330
1383
100
AcDbEntity
  8
実形
 62
     0
370
    18
100
AcDbLine
 10
1910.593629789472
 20
1062.290944394732
 30
0.0
 11
1883.593629789472
 21
1062.290944394732
 31
0.0
  0
MTEXT
  5
2081
330
1383
100
AcDbEntity
  8
実形
 62
     0
100
AcDbMText
 10
1895.82543971259
 20
1126.12738779106
 30
0.0
 40
25.0
 41
0.0
 71
     5
 72
     1
  1
27
 73
     1
 44
1.0
1001
ACAD
1000
MTEXTBEGIN
1070
    73
1070
     1
1070
    44
1040
1.0
1070
    74
1070
     0
1000
MTEXTEND
  0
INSERT
  5
2082
330
1383
100
AcDbEntity
  8
実形
 62
     0
370
    18
100
AcDbBlockReference
  2
_DotSmall
 10
1910.593629789472
 20
1062.290944394732
 30
0.0
 41
35.0
 42
35.0
 43
35.0
  0
INSERT
  5
2083
330
1383
100
AcDbEntity
  8
実形
 62
     0
370
    18
100
AcDbBlockReference
  2
_DotSmall
 10
1883.593629789472
 20
1062.290944394732
 30
0.0
 41
35.0
 42
35.0
 43
35.0
 50
180.0
  0
POINT
  5
2084
330
1383
100
AcDbEntity
  8
Defpoints
 62
     0
100
AcDbPoint
 10
1910.593629789472
 20
1173.67545567602
 30
0.0
  0
POINT
  5
2085
330
1383
100
AcDbEntity
  8
Defpoints
 62
     0
100
AcDbPoint
 10
1883.593629789472
 20
1173.67545567602
 30
0.0
  0
POINT
  5
2086
330
1383
100
AcDbEntity
  8
Defpoints
 62
     0
100
AcDbPoint
 10
1883.593629789472
 20
1062.290944394732
 30
0.0
  0
ENDBLK
  5
1390
330
1383
100
AcDbEntity
  8
0
100
AcDbBlockEnd
  0
BLOCK
  5
139C
330
1392
100
AcDbEntity
  8
0
100
AcDbBlockBegin
  2
*D12
 70
     1
 10
0.0
 20
0.0
 30
0.0
  3
*D12
  1

  0
LINE
  5
2063
330
1392
100
AcDbEntity
  8
実形
 62
     0
370
    18
100
AcDbLine
 10
1883.593629789472
 20
1108.67545567602
 30
0.0
 11
1883.593629789472
 21
1062.290944394732
 31
0.0
  0
LINE
  5
2064
330
1392
100
AcDbEntity
  8
実形
 62
     0
370
    18
100
AcDbLine
 10
1233.593629789472
 20
1108.67545567602
 30
0.0
 11
1233.593629789472
 21
1062.290944394732
 31
0.0
  0
LINE
  5
2065
330
1392
100
AcDbEntity
  8
実形
 62
     0
370
    18
100
AcDbLine
 10
1883.593629789472
 20
1062.290944394732
 30
0.0
 11
1233.593629789472
 21
1062.290944394732
 31
0.0
  0
INSERT
  5
2066
330
1392
100
AcDbEntity
  8
実形
 62
     0
370
    18
100
AcDbBlockReference
  2
_DotSmall
 10
1883.593629789472
 20
1062.290944394732
 30
0.0
 41
35.0
 42
35.0
 43
35.0
  0
INSERT
  5
2067
330
1392
100
AcDbEntity
  8
実形
 62
     0
370
    18
100
AcDbBlockReference
  2
_DotSmall
 10
1233.593629789472
 20
1062.290944394732
 30
0.0
 41
35.0
 42
35.0
 43
35.0
 50
180.0
  0
MTEXT
  5
2068
330
1392
100
AcDbEntity
  8
実形
 62
     0
100
AcDbMText
 10
1558.593629789472
 20
1081.040944394732
 30
0.0
 40
25.0
 41
0.0
 71
     5
 72
     1
  1
650
 73
     1
 44
1.0
1001
ACAD
1000
MTEXTBEGIN
1070
    73
1070
     1
1070
    44
1040
1.0
1070
    74
1070
     0
1000
MTEXTEND
  0
POINT
  5
2069
330
1392
100
AcDbEntity
  8
Defpoints
 62
     0
100
AcDbPoint
 10
1883.593629789472
 20
1173.67545567602
 30
0.0
  0
POINT
  5
206A
330
1392
100
AcDbEntity
  8
Defpoints
 62
     0
100
AcDbPoint
 10
1233.593629789472
 20
1173.67545567602
 30
0.0
  0
POINT
  5
206B
330
1392
100
AcDbEntity
  8
Defpoints
 62
     0
100
AcDbPoint
 10
1233.593629789472
 20
1062.290944394732
 30
0.0
  0
ENDBLK
  5
139D
330
1392
100
AcDbEntity
  8
0
100
AcDbBlockEnd
  0
BLOCK
  5
13AB
330
139F
100
AcDbEntity
  8
0
100
AcDbBlockBegin
  2
*D13
 70
     1
 10
0.0
 20
0.0
 30
0.0
  3
*D13
  1

  0
LINE
  5
206C
330
139F
100
AcDbEntity
  8
実形
 62
     0
370
    18
100
AcDbLine
 10
1233.593629789472
 20
1108.67545567602
 30
0.0
 11
1233.593629789472
 21
1062.290944394732
 31
0.0
  0
LINE
  5
206D
330
139F
100
AcDbEntity
  8
実形
 62
     0
370
    18
100
AcDbLine
 10
1193.593629789472
 20
1108.67545567602
 30
0.0
 11
1193.593629789472
 21
1062.290944394732
 31
0.0
  0
LINE
  5
206E
330
139F
100
AcDbEntity
  8
実形
 62
     0
370
    18
100
AcDbLine
 10
1233.593629789472
 20
1062.290944394732
 30
0.0
 11
1193.593629789472
 21
1062.290944394732
 31
0.0
  0
MTEXT
  5
206F
330
139F
100
AcDbEntity
  8
実形
 62
     0
100
AcDbMText
 10
1215.12662231633
 20
1127.880624751449
 30
0.0
 40
25.0
 41
0.0
 71
     5
 72
     1
  1
40
 73
     1
 44
1.0
1001
ACAD
1000
MTEXTBEGIN
1070
    73
1070
     1
1070
    44
1040
1.0
1070
    74
1070
     0
1000
MTEXTEND
  0
INSERT
  5
2070
330
139F
100
AcDbEntity
  8
実形
 62
     0
370
    18
100
AcDbBlockReference
  2
_DotSmall
 10
1233.593629789472
 20
1062.290944394732
 30
0.0
 41
35.0
 42
35.0
 43
35.0
  0
INSERT
  5
2071
330
139F
100
AcDbEntity
  8
実形
 62
     0
370
    18
100
AcDbBlockReference
  2
_DotSmall
 10
1193.593629789472
 20
1062.290944394732
 30
0.0
 41
35.0
 42
35.0
 43
35.0
 50
180.0
  0
POINT
  5
2072
330
139F
100
AcDbEntity
  8
Defpoints
 62
     0
100
AcDbPoint
 10
1233.593629789472
 20
1173.67545567602
 30
0.0
  0
POINT
  5
2073
330
139F
100
AcDbEntity
  8
Defpoints
 62
     0
100
AcDbPoint
 10
1193.593629789472
 20
1173.67545567602
 30
0.0
  0
POINT
  5
2074
330
139F
100
AcDbEntity
  8
Defpoints
 62
     0
100
AcDbPoint
 10
1193.593629789472
 20
1062.290944394732
 30
0.0
  0
ENDBLK
  5
13AC
330
139F
100
AcDbEntity
  8
0
100
AcDbBlockEnd
  0
BLOCK
  5
13B8
330
13AE
100
AcDbEntity
  8
0
100
AcDbBlockBegin
  2
*D14
 70
     1
 10
0.0
 20
0.0
 30
0.0
  3
*D14
  1

  0
LINE
  5
1FEE
330
13AE
100
AcDbEntity
  8
実形
 62
     0
370
    18
100
AcDbLine
 10
1193.593629789472
 20
1108.67545567602
 30
0.0
 11
1193.593629789472
 21
1062.290944394732
 31
0.0
  0
LINE
  5
1FEF
330
13AE
100
AcDbEntity
  8
実形
 62
     0
370
    18
100
AcDbLine
 10
833.5936297894726
 20
1108.67545567602
 30
0.0
 11
833.5936297894726
 21
1062.290944394732
 31
0.0
  0
LINE
  5
1FF0
330
13AE
100
AcDbEntity
  8
実形
 62
     0
370
    18
100
AcDbLine
 10
1193.593629789472
 20
1062.290944394732
 30
0.0
 11
833.5936297894726
 21
1062.290944394732
 31
0.0
  0
INSERT
  5
1FF1
330
13AE
100
AcDbEntity
  8
実形
 62
     0
370
    18
100
AcDbBlockReference
  2
_DotSmall
 10
1193.593629789472
 20
1062.290944394732
 30
0.0
 41
35.0
 42
35.0
 43
35.0
  0
INSERT
  5
1FF2
330
13AE
100
AcDbEntity
  8
実形
 62
     0
370
    18
100
AcDbBlockReference
  2
_DotSmall
 10
833.5936297894726
 20
1062.290944394732
 30
0.0
 41
35.0
 42
35.0
 43
35.0
 50
180.0
  0
MTEXT
  5
1FF3
330
13AE
100
AcDbEntity
  8
実形
 62
     0
100
AcDbMText
 10
1013.593629789472
 20
1081.040944394732
 30
0.0
 40
25.0
 41
0.0
 71
     5
 72
     1
  1
360
 73
     1
 44
1.0
1001
ACAD
1000
MTEXTBEGIN
1070
    73
1070
     1
1070
    44
1040
1.0
1070
    74
1070
     0
1000
MTEXTEND
  0
POINT
  5
1FF4
330
13AE
100
AcDbEntity
  8
Defpoints
 62
     0
100
AcDbPoint
 10
1193.593629789472
 20
1173.67545567602
 30
0.0
  0
POINT
  5
1FF5
330
13AE
100
AcDbEntity
  8
Defpoints
 62
     0
100
AcDbPoint
 10
833.5936297894726
 20
1173.67545567602
 30
0.0
  0
POINT
  5
1FF6
330
13AE
100
AcDbEntity
  8
Defpoints
 62
     0
100
AcDbPoint
 10
833.5936297894726
 20
1062.290944394732
 30
0.0
  0
ENDBLK
  5
13B9
330
13AE
100
AcDbEntity
  8
0
100
AcDbBlockEnd
  0
BLOCK
  5
13C7
330
13BB
100
AcDbEntity
  8
0
100
AcDbBlockBegin
  2
*D15
 70
     1
 10
0.0
 20
0.0
 30
0.0
  3
*D15
  1

  0
LINE
  5
2009
330
13BB
100
AcDbEntity
  8
実形
 62
     0
370
    18
100
AcDbLine
 10
833.5936297894726
 20
1108.67545567602
 30
0.0
 11
833.5936297894726
 21
1062.290944394732
 31
0.0
  0
LINE
  5
200A
330
13BB
100
AcDbEntity
  8
実形
 62
     0
370
    18
100
AcDbLine
 10
806.5936297894724
 20
1108.67545567602
 30
0.0
 11
806.5936297894724
 21
1062.290944394732
 31
0.0
  0
LINE
  5
200B
330
13BB
100
AcDbEntity
  8
実形
 62
     0
370
    18
100
AcDbLine
 10
833.5936297894726
 20
1062.290944394732
 30
0.0
 11
806.5936297894724
 21
1062.290944394732
 31
0.0
  0
MTEXT
  5
200C
330
13BB
100
AcDbEntity
  8
実形
 62
     0
100
AcDbMText
 10
819.9558399414282
 20
1126.542899546719
 30
0.0
 40
25.0
 41
0.0
 71
     5
 72
     1
  1
27
 73
     1
 44
1.0
1001
ACAD
1000
MTEXTBEGIN
1070
    73
1070
     1
1070
    44
1040
1.0
1070
    74
1070
     0
1000
MTEXTEND
  0
INSERT
  5
200D
330
13BB
100
AcDbEntity
  8
実形
 62
     0
370
    18
100
AcDbBlockReference
  2
_DotSmall
 10
833.5936297894726
 20
1062.290944394732
 30
0.0
 41
35.0
 42
35.0
 43
35.0
  0
INSERT
  5
200E
330
13BB
100
AcDbEntity
  8
実形
 62
     0
370
    18
100
AcDbBlockReference
  2
_DotSmall
 10
806.5936297894724
 20
1062.290944394732
 30
0.0
 41
35.0
 42
35.0
 43
35.0
 50
180.0
  0
POINT
  5
200F
330
13BB
100
AcDbEntity
  8
Defpoints
 62
     0
100
AcDbPoint
 10
833.5936297894726
 20
1173.67545567602
 30
0.0
  0
POINT
  5
2010
330
13BB
100
AcDbEntity
  8
Defpoints
 62
     0
100
AcDbPoint
 10
806.5936297894724
 20
1173.67545567602
 30
0.0
  0
POINT
  5
2011
330
13BB
100
AcDbEntity
  8
Defpoints
 62
     0
100
AcDbPoint
 10
806.5936297894724
 20
1062.290944394732
 30
0.0
  0
ENDBLK
  5
13C8
330
13BB
100
AcDbEntity
  8
0
100
AcDbBlockEnd
  0
BLOCK
  5
13D6
330
13CA
100
AcDbEntity
  8
0
100
AcDbBlockBegin
  2
*D16
 70
     1
 10
0.0
 20
0.0
 30
0.0
  3
*D16
  1

  0
LINE
  5
2075
330
13CA
100
AcDbEntity
  8
実形
 62
     0
370
    18
100
AcDbLine
 10
1910.593629789472
 20
1108.67545567602
 30
0.0
 11
1910.593629789472
 21
1062.290944394732
 31
0.0
  0
LINE
  5
2076
330
13CA
100
AcDbEntity
  8
実形
 62
     0
370
    18
100
AcDbLine
 10
1928.593629789472
 20
1108.67545567602
 30
0.0
 11
1928.593629789472
 21
1062.290944394732
 31
0.0
  0
LINE
  5
2077
330
13CA
100
AcDbEntity
  8
実形
 62
     0
370
    18
100
AcDbLine
 10
1910.593629789472
 20
1062.290944394732
 30
0.0
 11
1928.593629789472
 21
1062.290944394732
 31
0.0
  0
MTEXT
  5
2078
330
13CA
100
AcDbEntity
  8
実形
 62
     0
100
AcDbMText
 10
1963.473923762472
 20
1069.138497208834
 30
0.0
 40
25.0
 41
0.0
 71
     5
 72
     1
  1
18
 73
     1
 44
1.0
1001
ACAD
1000
MTEXTBEGIN
1070
    73
1070
     1
1070
    44
1040
1.0
1070
    74
1070
     0
1000
MTEXTEND
  0
INSERT
  5
2079
330
13CA
100
AcDbEntity
  8
実形
 62
     0
370
    18
100
AcDbBlockReference
  2
_DotSmall
 10
1910.593629789472
 20
1062.290944394732
 30
0.0
 41
35.0
 42
35.0
 43
35.0
 50
180.0
  0
INSERT
  5
207A
330
13CA
100
AcDbEntity
  8
実形
 62
     0
370
    18
100
AcDbBlockReference
  2
_DotSmall
 10
1928.593629789472
 20
1062.290944394732
 30
0.0
 41
35.0
 42
35.0
 43
35.0
  0
POINT
  5
207B
330
13CA
100
AcDbEntity
  8
Defpoints
 62
     0
100
AcDbPoint
 10
1910.593629789472
 20
1173.67545567602
 30
0.0
  0
POINT
  5
207C
330
13CA
100
AcDbEntity
  8
Defpoints
 62
     0
100
AcDbPoint
 10
1928.593629789472
 20
1173.67545567602
 30
0.0
  0
POINT
  5
207D
330
13CA
100
AcDbEntity
  8
Defpoints
 62
     0
100
AcDbPoint
 10
1928.593629789472
 20
1062.290944394732
 30
0.0
  0
ENDBLK
  5
13D7
330
13CA
100
AcDbEntity
  8
0
100
AcDbBlockEnd
  0
BLOCK
  5
147D
330
1473
100
AcDbEntity
  8
0
100
AcDbBlockBegin
  2
*D17
 70
     1
 10
0.0
 20
0.0
 30
0.0
  3
*D17
  1

  0
LINE
  5
1FE5
330
1473
100
AcDbEntity
  8
実形
 62
     0
370
    18
100
AcDbLine
 10
1928.593629789472
 20
1108.67545567602
 30
0.0
 11
1928.593629789472
 21
982.4027942544844
 31
0.0
  0
LINE
  5
1FE6
330
1473
100
AcDbEntity
  8
実形
 62
     0
370
    18
100
AcDbLine
 10
788.5936297894724
 20
1108.67545567602
 30
0.0
 11
788.5936297894724
 21
982.4027942544844
 31
0.0
  0
LINE
  5
1FE7
330
1473
100
AcDbEntity
  8
実形
 62
     0
370
    18
100
AcDbLine
 10
1928.593629789472
 20
982.4027942544844
 30
0.0
 11
788.5936297894724
 21
982.4027942544844
 31
0.0
  0
INSERT
  5
1FE8
330
1473
100
AcDbEntity
  8
実形
 62
     0
370
    18
100
AcDbBlockReference
  2
_DotSmall
 10
1928.593629789472
 20
982.4027942544844
 30
0.0
 41
35.0
 42
35.0
 43
35.0
  0
INSERT
  5
1FE9
330
1473
100
AcDbEntity
  8
実形
 62
     0
370
    18
100
AcDbBlockReference
  2
_DotSmall
 10
788.5936297894724
 20
982.4027942544844
 30
0.0
 41
35.0
 42
35.0
 43
35.0
 50
180.0
  0
MTEXT
  5
1FEA
330
1473
100
AcDbEntity
  8
実形
 62
     0
100
AcDbMText
 10
1358.593629789472
 20
1001.152794254484
 30
0.0
 40
25.0
 41
0.0
 71
     5
 72
     1
  1
1140
 73
     1
 44
1.0
1001
ACAD
1000
MTEXTBEGIN
1070
    73
1070
     1
1070
    44
1040
1.0
1070
    74
1070
     0
1000
MTEXTEND
  0
POINT
  5
1FEB
330
1473
100
AcDbEntity
  8
Defpoints
 62
     0
100
AcDbPoint
 10
1928.593629789472
 20
1173.67545567602
 30
0.0
  0
POINT
  5
1FEC
330
1473
100
AcDbEntity
  8
Defpoints
 62
     0
100
AcDbPoint
 10
788.5936297894724
 20
1173.67545567602
 30
0.0
  0
POINT
  5
1FED
330
1473
100
AcDbEntity
  8
Defpoints
 62
     0
100
AcDbPoint
 10
788.5936297894724
 20
982.4027942544844
 30
0.0
  0
ENDBLK
  5
147E
330
1473
100
AcDbEntity
  8
0
100
AcDbBlockEnd
  0
BLOCK
  5
158D
330
1583
100
AcDbEntity
  8
0
100
AcDbBlockBegin
  2
*D18
 70
     1
 10
0.0
 20
0.0
 30
0.0
  3
*D18
  1

  0
LINE
  5
1FDC
330
1583
100
AcDbEntity
  8
実形
 62
     0
370
    15
100
AcDbLine
 10
1383.593629789473
 20
1578.67545567602
 30
0.0
 11
1383.593629789473
 21
1858.935117383602
 31
0.0
  0
LINE
  5
1FDD
330
1583
100
AcDbEntity
  8
実形
 62
     0
370
    15
100
AcDbLine
 10
788.5936297894723
 20
1718.67545567602
 30
0.0
 11
788.5936297894723
 21
1858.935117383602
 31
0.0
  0
LINE
  5
1FDE
330
1583
100
AcDbEntity
  8
実形
 62
     0
370
    18
100
AcDbLine
 10
1383.593629789473
 20
1858.935117383602
 30
0.0
 11
788.5936297894723
 21
1858.935117383602
 31
0.0
  0
INSERT
  5
1FDF
330
1583
100
AcDbEntity
  8
実形
 62
     0
370
    18
100
AcDbBlockReference
  2
_DotSmall
 10
1383.593629789473
 20
1858.935117383602
 30
0.0
 41
35.0
 42
35.0
 43
35.0
  0
INSERT
  5
1FE0
330
1583
100
AcDbEntity
  8
実形
 62
     0
370
    18
100
AcDbBlockReference
  2
_DotSmall
 10
788.5936297894723
 20
1858.935117383602
 30
0.0
 41
35.0
 42
35.0
 43
35.0
 50
180.0
  0
MTEXT
  5
1FE1
330
1583
100
AcDbEntity
  8
実形
 62
     0
100
AcDbMText
 10
1086.093629789472
 20
1877.685117383602
 30
0.0
 40
25.0
 41
0.0
 71
     5
 72
     1
  1
595
 73
     1
 44
1.0
1001
ACAD
1000
MTEXTBEGIN
1070
    73
1070
     1
1070
    44
1040
1.0
1070
    74
1070
     0
1000
MTEXTEND
  0
POINT
  5
1FE2
330
1583
100
AcDbEntity
  8
Defpoints
 62
     0
100
AcDbPoint
 10
1383.593629789473
 20
1513.675455676019
 30
0.0
  0
POINT
  5
1FE3
330
1583
100
AcDbEntity
  8
Defpoints
 62
     0
100
AcDbPoint
 10
788.5936297894723
 20
1653.67545567602
 30
0.0
  0
POINT
  5
1FE4
330
1583
100
AcDbEntity
  8
Defpoints
 62
     0
100
AcDbPoint
 10
788.5936297894723
 20
1858.935117383602
 30
0.0
  0
ENDBLK
  5
158E
330
1583
100
AcDbEntity
  8
0
100
AcDbBlockEnd
  0
BLOCK
  5
1599
330
158F
100
AcDbEntity
  8
0
100
AcDbBlockBegin
  2
*D19
 70
     1
 10
0.0
 20
0.0
 30
0.0
  3
*D19
  1

  0
LINE
  5
205A
330
158F
100
AcDbEntity
  8
実形
 62
     0
370
    15
100
AcDbLine
 10
1293.093629789473
 20
509.6754556760198
 30
0.0
 11
1293.093629789473
 21
417.0386498060179
 31
0.0
  0
LINE
  5
205B
330
158F
100
AcDbEntity
  8
実形
 62
     0
370
    15
100
AcDbLine
 10
1474.093629789473
 20
509.6754556760197
 30
0.0
 11
1474.093629789473
 21
417.0386498060179
 31
0.0
  0
LINE
  5
205C
330
158F
100
AcDbEntity
  8
実形
 62
     0
370
    18
100
AcDbLine
 10
1293.093629789473
 20
417.0386498060179
 30
0.0
 11
1474.093629789473
 21
417.0386498060179
 31
0.0
  0
INSERT
  5
205D
330
158F
100
AcDbEntity
  8
実形
 62
     0
370
    18
100
AcDbBlockReference
  2
_DotSmall
 10
1293.093629789473
 20
417.0386498060179
 30
0.0
 41
35.0
 42
35.0
 43
35.0
 50
180.0
  0
INSERT
  5
205E
330
158F
100
AcDbEntity
  8
実形
 62
     0
370
    18
100
AcDbBlockReference
  2
_DotSmall
 10
1474.093629789473
 20
417.0386498060179
 30
0.0
 41
35.0
 42
35.0
 43
35.0
  0
MTEXT
  5
205F
330
158F
100
AcDbEntity
  8
実形
 62
     0
100
AcDbMText
 10
1383.593629789473
 20
435.7886498060179
 30
0.0
 40
25.0
 41
0.0
 71
     5
 72
     1
  1
181
 73
     1
 44
1.0
1001
ACAD
1000
MTEXTBEGIN
1070
    73
1070
     1
1070
    44
1040
1.0
1070
    74
1070
     0
1000
MTEXTEND
  0
POINT
  5
2060
330
158F
100
AcDbEntity
  8
Defpoints
 62
     0
100
AcDbPoint
 10
1293.093629789473
 20
574.6754556760198
 30
0.0
  0
POINT
  5
2061
330
158F
100
AcDbEntity
  8
Defpoints
 62
     0
100
AcDbPoint
 10
1474.093629789473
 20
574.6754556760197
 30
0.0
  0
POINT
  5
2062
330
158F
100
AcDbEntity
  8
Defpoints
 62
     0
100
AcDbPoint
 10
1474.093629789473
 20
417.0386498060179
 30
0.0
  0
ENDBLK
  5
159A
330
158F
100
AcDbEntity
  8
0
100
AcDbBlockEnd
  0
BLOCK
  5
15A5
330
159B
100
AcDbEntity
  8
0
100
AcDbBlockBegin
  2
*D20
 70
     1
 10
0.0
 20
0.0
 30
0.0
  3
*D20
  1

  0
LINE
  5
2051
330
159B
100
AcDbEntity
  8
実形
 62
     0
370
    15
100
AcDbLine
 10
1303.593629789473
 20
509.6754556760197
 30
0.0
 11
1303.593629789473
 21
458.2480483749468
 31
0.0
  0
LINE
  5
2052
330
159B
100
AcDbEntity
  8
実形
 62
     0
370
    15
100
AcDbLine
 10
1463.593629789473
 20
509.6754556760197
 30
0.0
 11
1463.593629789473
 21
458.2480483749468
 31
0.0
  0
LINE
  5
2053
330
159B
100
AcDbEntity
  8
実形
 62
     0
370
    18
100
AcDbLine
 10
1303.593629789473
 20
458.2480483749468
 30
0.0
 11
1463.593629789473
 21
458.2480483749468
 31
0.0
  0
INSERT
  5
2054
330
159B
100
AcDbEntity
  8
実形
 62
     0
370
    18
100
AcDbBlockReference
  2
_DotSmall
 10
1303.593629789473
 20
458.2480483749468
 30
0.0
 41
35.0
 42
35.0
 43
35.0
 50
180.0
  0
INSERT
  5
2055
330
159B
100
AcDbEntity
  8
実形
 62
     0
370
    18
100
AcDbBlockReference
  2
_DotSmall
 10
1463.593629789473
 20
458.2480483749468
 30
0.0
 41
35.0
 42
35.0
 43
35.0
  0
MTEXT
  5
2056
330
159B
100
AcDbEntity
  8
実形
 62
     0
100
AcDbMText
 10
1383.593629789473
 20
476.9980483749468
 30
0.0
 40
25.0
 41
0.0
 71
     5
 72
     1
  1
160
 73
     1
 44
1.0
1001
ACAD
1000
MTEXTBEGIN
1070
    73
1070
     1
1070
    44
1040
1.0
1070
    74
1070
     0
1000
MTEXTEND
  0
POINT
  5
2057
330
159B
100
AcDbEntity
  8
Defpoints
 62
     0
100
AcDbPoint
 10
1303.593629789473
 20
574.6754556760197
 30
0.0
  0
POINT
  5
2058
330
159B
100
AcDbEntity
  8
Defpoints
 62
     0
100
AcDbPoint
 10
1463.593629789473
 20
574.6754556760197
 30
0.0
  0
POINT
  5
2059
330
159B
100
AcDbEntity
  8
Defpoints
 62
     0
100
AcDbPoint
 10
1463.593629789473
 20
458.2480483749468
 30
0.0
  0
ENDBLK
  5
15A6
330
159B
100
AcDbEntity
  8
0
100
AcDbBlockEnd
  0
BLOCK
  5
17E7
330
17DD
100
AcDbEntity
  8
0
100
AcDbBlockBegin
  2
*D21
 70
     1
 10
0.0
 20
0.0
 30
0.0
  3
*D21
  1

  0
LINE
  5
2048
330
17DD
100
AcDbEntity
  8
実形
 62
     0
370
    15
100
AcDbLine
 10
1141.593629789472
 20
509.6754556760197
 30
0.0
 11
1141.593629789472
 21
417.0386498060179
 31
0.0
  0
LINE
  5
2049
330
17DD
100
AcDbEntity
  8
実形
 62
     0
370
    15
100
AcDbLine
 10
1025.593629789472
 20
509.6754556760197
 30
0.0
 11
1025.593629789472
 21
417.0386498060179
 31
0.0
  0
LINE
  5
204A
330
17DD
100
AcDbEntity
  8
実形
 62
     0
370
    18
100
AcDbLine
 10
1141.593629789472
 20
417.0386498060179
 30
0.0
 11
1025.593629789472
 21
417.0386498060179
 31
0.0
  0
INSERT
  5
204B
330
17DD
100
AcDbEntity
  8
実形
 62
     0
370
    18
100
AcDbBlockReference
  2
_DotSmall
 10
1141.593629789472
 20
417.0386498060179
 30
0.0
 41
35.0
 42
35.0
 43
35.0
  0
INSERT
  5
204C
330
17DD
100
AcDbEntity
  8
実形
 62
     0
370
    18
100
AcDbBlockReference
  2
_DotSmall
 10
1025.593629789472
 20
417.0386498060179
 30
0.0
 41
35.0
 42
35.0
 43
35.0
 50
180.0
  0
MTEXT
  5
204D
330
17DD
100
AcDbEntity
  8
実形
 62
     0
100
AcDbMText
 10
1083.593629789472
 20
435.7886498060179
 30
0.0
 40
25.0
 41
0.0
 71
     5
 72
     1
  1
116
 73
     1
 44
1.0
1001
ACAD
1000
MTEXTBEGIN
1070
    73
1070
     1
1070
    44
1040
1.0
1070
    74
1070
     0
1000
MTEXTEND
  0
POINT
  5
204E
330
17DD
100
AcDbEntity
  8
Defpoints
 62
     0
100
AcDbPoint
 10
1141.593629789472
 20
574.6754556760197
 30
0.0
  0
POINT
  5
204F
330
17DD
100
AcDbEntity
  8
Defpoints
 62
     0
100
AcDbPoint
 10
1025.593629789472
 20
574.6754556760197
 30
0.0
  0
POINT
  5
2050
330
17DD
100
AcDbEntity
  8
Defpoints
 62
     0
100
AcDbPoint
 10
1025.593629789472
 20
417.0386498060179
 30
0.0
  0
ENDBLK
  5
17E8
330
17DD
100
AcDbEntity
  8
0
100
AcDbBlockEnd
  0
BLOCK
  5
17F3
330
17E9
100
AcDbEntity
  8
0
100
AcDbBlockBegin
  2
*D22
 70
     1
 10
0.0
 20
0.0
 30
0.0
  3
*D22
  1

  0
LINE
  5
203F
330
17E9
100
AcDbEntity
  8
実形
 62
     0
370
    15
100
AcDbLine
 10
1127.593629789472
 20
509.6754556760197
 30
0.0
 11
1127.593629789472
 21
458.2480483749468
 31
0.0
  0
LINE
  5
2040
330
17E9
100
AcDbEntity
  8
実形
 62
     0
370
    15
100
AcDbLine
 10
1039.593629789472
 20
509.6754556760197
 30
0.0
 11
1039.593629789472
 21
458.2480483749468
 31
0.0
  0
LINE
  5
2041
330
17E9
100
AcDbEntity
  8
実形
 62
     0
370
    18
100
AcDbLine
 10
1127.593629789472
 20
458.2480483749468
 30
0.0
 11
1039.593629789472
 21
458.2480483749468
 31
0.0
  0
INSERT
  5
2042
330
17E9
100
AcDbEntity
  8
実形
 62
     0
370
    18
100
AcDbBlockReference
  2
_DotSmall
 10
1127.593629789472
 20
458.2480483749468
 30
0.0
 41
35.0
 42
35.0
 43
35.0
  0
INSERT
  5
2043
330
17E9
100
AcDbEntity
  8
実形
 62
     0
370
    18
100
AcDbBlockReference
  2
_DotSmall
 10
1039.593629789472
 20
458.2480483749468
 30
0.0
 41
35.0
 42
35.0
 43
35.0
 50
180.0
  0
MTEXT
  5
2044
330
17E9
100
AcDbEntity
  8
実形
 62
     0
100
AcDbMText
 10
1083.593629789472
 20
476.9980483749468
 30
0.0
 40
25.0
 41
0.0
 71
     5
 72
     1
  1
88
 73
     1
 44
1.0
1001
ACAD
1000
MTEXTBEGIN
1070
    73
1070
     1
1070
    44
1040
1.0
1070
    74
1070
     0
1000
MTEXTEND
  0
POINT
  5
2045
330
17E9
100
AcDbEntity
  8
Defpoints
 62
     0
100
AcDbPoint
 10
1127.593629789472
 20
574.6754556760197
 30
0.0
  0
POINT
  5
2046
330
17E9
100
AcDbEntity
  8
Defpoints
 62
     0
100
AcDbPoint
 10
1039.593629789472
 20
574.6754556760197
 30
0.0
  0
POINT
  5
2047
330
17E9
100
AcDbEntity
  8
Defpoints
 62
     0
100
AcDbPoint
 10
1039.593629789472
 20
458.2480483749468
 30
0.0
  0
ENDBLK
  5
17F4
330
17E9
100
AcDbEntity
  8
0
100
AcDbBlockEnd
  0
BLOCK
  5
180A
330
1800
100
AcDbEntity
  8
0
100
AcDbBlockBegin
  2
*D23
 70
     1
 10
0.0
 20
0.0
 30
0.0
  3
*D23
  1

  0
LINE
  5
2087
330
1800
100
AcDbEntity
  8
実形
 62
     0
370
    15
100
AcDbLine
 10
1768.593629789472
 20
1433.67545567602
 30
0.0
 11
2035.330333853885
 21
1433.67545567602
 31
0.0
  0
LINE
  5
2088
330
1800
100
AcDbEntity
  8
実形
 62
     0
370
    15
100
AcDbLine
 10
1948.593629789472
 20
1173.67545567602
 30
0.0
 11
2035.330333853885
 21
1173.67545567602
 31
0.0
  0
LINE
  5
2089
330
1800
100
AcDbEntity
  8
実形
 62
     0
370
    18
100
AcDbLine
 10
2035.330333853885
 20
1433.67545567602
 30
0.0
 11
2035.330333853885
 21
1173.67545567602
 31
0.0
  0
INSERT
  5
208A
330
1800
100
AcDbEntity
  8
実形
 62
     0
370
    18
100
AcDbBlockReference
  2
_DotSmall
 10
2035.330333853885
 20
1433.67545567602
 30
0.0
 41
35.0
 42
35.0
 43
35.0
 50
90.0
  0
INSERT
  5
208B
330
1800
100
AcDbEntity
  8
実形
 62
     0
370
    18
100
AcDbBlockReference
  2
_DotSmall
 10
2035.330333853885
 20
1173.67545567602
 30
0.0
 41
35.0
 42
35.0
 43
35.0
 50
270.0
  0
MTEXT
  5
208C
330
1800
100
AcDbEntity
  8
実形
 62
     0
100
AcDbMText
 10
2016.580333853885
 20
1303.67545567602
 30
0.0
 40
25.0
 41
0.0
 71
     5
 72
     1
  1
260
 11
0.0000000000000001
 21
1.0
 31
0.0
 73
     1
 44
1.0
1001
ACAD
1000
MTEXTBEGIN
1070
    73
1070
     1
1070
    44
1040
1.0
1070
    74
1070
     0
1000
MTEXTEND
  0
POINT
  5
208D
330
1800
100
AcDbEntity
  8
Defpoints
 62
     0
100
AcDbPoint
 10
1703.593629789472
 20
1433.67545567602
 30
0.0
  0
POINT
  5
208E
330
1800
100
AcDbEntity
  8
Defpoints
 62
     0
100
AcDbPoint
 10
1883.593629789472
 20
1173.67545567602
 30
0.0
  0
POINT
  5
208F
330
1800
100
AcDbEntity
  8
Defpoints
 62
     0
100
AcDbPoint
 10
2035.330333853885
 20
1173.67545567602
 30
0.0
  0
ENDBLK
  5
180B
330
1800
100
AcDbEntity
  8
0
100
AcDbBlockEnd
  0
BLOCK
  5
1816
330
180C
100
AcDbEntity
  8
0
100
AcDbBlockBegin
  2
*D24
 70
     1
 10
0.0
 20
0.0
 30
0.0
  3
*D24
  1

  0
LINE
  5
1FD3
330
180C
100
AcDbEntity
  8
実形
 62
     0
370
    15
100
AcDbLine
 10
1083.593629789472
 20
1556.67545567602
 30
0.0
 11
1083.593629789472
 21
1791.158547309252
 31
0.0
  0
LINE
  5
1FD4
330
180C
100
AcDbEntity
  8
実形
 62
     0
370
    15
100
AcDbLine
 10
788.5936297894723
 20
1718.67545567602
 30
0.0
 11
788.5936297894723
 21
1791.158547309252
 31
0.0
  0
LINE
  5
1FD5
330
180C
100
AcDbEntity
  8
実形
 62
     0
370
    18
100
AcDbLine
 10
1083.593629789472
 20
1791.158547309252
 30
0.0
 11
788.5936297894723
 21
1791.158547309252
 31
0.0
  0
INSERT
  5
1FD6
330
180C
100
AcDbEntity
  8
実形
 62
     0
370
    18
100
AcDbBlockReference
  2
_DotSmall
 10
1083.593629789472
 20
1791.158547309252
 30
0.0
 41
35.0
 42
35.0
 43
35.0
  0
INSERT
  5
1FD7
330
180C
100
AcDbEntity
  8
実形
 62
     0
370
    18
100
AcDbBlockReference
  2
_DotSmall
 10
788.5936297894723
 20
1791.158547309252
 30
0.0
 41
35.0
 42
35.0
 43
35.0
 50
180.0
  0
MTEXT
  5
1FD8
330
180C
100
AcDbEntity
  8
実形
 62
     0
100
AcDbMText
 10
936.0936297894724
 20
1809.908547309252
 30
0.0
 40
25.0
 41
0.0
 71
     5
 72
     1
  1
295
 73
     1
 44
1.0
1001
ACAD
1000
MTEXTBEGIN
1070
    73
1070
     1
1070
    44
1040
1.0
1070
    74
1070
     0
1000
MTEXTEND
  0
POINT
  5
1FD9
330
180C
100
AcDbEntity
  8
Defpoints
 62
     0
100
AcDbPoint
 10
1083.593629789472
 20
1491.67545567602
 30
0.0
  0
POINT
  5
1FDA
330
180C
100
AcDbEntity
  8
Defpoints
 62
     0
100
AcDbPoint
 10
788.5936297894723
 20
1653.67545567602
 30
0.0
  0
POINT
  5
1FDB
330
180C
100
AcDbEntity
  8
Defpoints
 62
     0
100
AcDbPoint
 10
788.5936297894723
 20
1791.158547309252
 30
0.0
  0
ENDBLK
  5
1817
330
180C
100
AcDbEntity
  8
0
100
AcDbBlockEnd
  0
BLOCK
  5
1EC6
330
1EC2
100
AcDbEntity
  8
0
100
AcDbBlockBegin
  2
A$C78020FD5
 70
     0
 10
0.0
 20
0.0
 30
0.0
  3
A$C78020FD5
  1

  0
TEXT
  5
1EC3
330
1EC2
100
AcDbEntity
  8
寸法
370
    18
100
AcDbText
 10
25.00000214557758
 20
0.0000020153070182
 30
0.0
 40
25.0
  1
201
 50
90.0
100
AcDbText
  0
ENDBLK
  5
1EC7
330
1EC2
100
AcDbEntity
  8
0
100
AcDbBlockEnd
  0
ENDSEC
  0
SECTION
  2
ENTITIES
  0
LINE
  5
9C
330
1F
100
AcDbEntity
  8
実形
100
AcDbLine
 10
111.0
 20
4.0
 30
0.0
 11
2784.0
 21
4.0
 31
0.0
  0
LINE
  5
A0
330
1F
100
AcDbEntity
  8
実形
100
AcDbLine
 10
2784.0
 20
2024.0
 30
0.0
 11
111.0
 21
2024.0
 31
0.0
  0
LINE
  5
A5
330
1F
100
AcDbEntity
  8
実形
100
AcDbLine
 10
2784.0
 20
4.0
 30
0.0
 11
2784.0
 21
2024.0
 31
0.0
  0
TEXT
  5
8C9
330
1F
100
AcDbEntity
  8
実形
100
AcDbText
 10
218.2512748396903
 20
90.15577985714662
 30
0.0
 40
30.0
  1
※実寸には製造上の誤差が多少生ずる場合があります。シンクの穴あけ加工は現物合わせにてお願いします。
100
AcDbText
  0
DIMENSION
  5
12A2
330
1F
100
AcDbEntity
  8
実形
100
AcDbDimension
  2
*D4
 10
633.9629018630796
 20
1675.675455676019
 30
0.0
 11
622.4454173656495
 21
1729.428900627159
 31
0.0
 70
   160
 71
     5
 42
18.0
  3
ISO-25
100
AcDbAlignedDimension
 13
788.5936297894723
 23
1693.67545567602
 33
0.0
 14
788.5936297894723
 24
1675.675455676019
 34
0.0
 50
90.0
100
AcDbRotatedDimension
1001
ACAD
1000
DSTYLE
1002
{
1070
   279
1070
     2
1070
   371
1070
    18
1070
   372
1070
    18
1002
}
  0
DIMENSION
  5
12E0
330
1F
100
AcDbEntity
  8
実形
100
AcDbDimension
  2
*D5
 10
633.9629018630796
 20
1653.67545567602
 30
0.0
 11
620.1419132282999
 21
1646.564880774364
 31
0.0
 70
   160
 71
     5
 42
22.0
  3
ISO-25
100
AcDbAlignedDimension
 13
788.5936297894723
 23
1675.675455676019
 33
0.0
 14
788.5936297894723
 24
1653.67545567602
 34
0.0
 50
90.0
100
AcDbRotatedDimension
1001
ACAD
1000
DSTYLE
1002
{
1070
   279
1070
     1
1070
   371
1070
    18
1070
   372
1070
    18
1002
}
  0
DIMENSION
  5
12ED
330
1F
100
AcDbEntity
  8
実形
100
AcDbDimension
  2
*D6
 10
633.9629018630796
 20
1213.67545567602
 30
0.0
 11
615.2129018630795
 21
1433.67545567602
 31
0.0
 70
    32
 71
     5
 42
440.0
  3
ISO-25
100
AcDbAlignedDimension
 13
788.5936297894723
 23
1653.67545567602
 33
0.0
 14
788.5936297894723
 24
1213.67545567602
 34
0.0
 50
90.0
100
AcDbRotatedDimension
1001
ACAD
1000
DSTYLE
1002
{
1070
   279
1070
     1
1070
   371
1070
    18
1070
   372
1070
    18
1002
}
  0
DIMENSION
  5
12FA
330
1F
100
AcDbEntity
  8
実形
100
AcDbDimension
  2
*D7
 10
633.9629018630796
 20
1191.67545567602
 30
0.0
 11
620.1419132282999
 21
1227.64122754838
 31
0.0
 70
   160
 71
     5
 42
22.0
  3
ISO-25
100
AcDbAlignedDimension
 13
788.5936297894723
 23
1213.67545567602
 33
0.0
 14
788.5936297894723
 24
1191.67545567602
 34
0.0
 50
90.0
100
AcDbRotatedDimension
1001
ACAD
1000
DSTYLE
1002
{
1070
   279
1070
     1
1070
   371
1070
    18
1070
   372
1070
    18
1002
}
  0
DIMENSION
  5
1307
330
1F
100
AcDbEntity
  8
実形
100
AcDbDimension
  2
*D8
 10
633.9629018630796
 20
1173.67545567602
 30
0.0
 11
633.9629018630794
 21
1137.871871898906
 31
0.0
 70
   160
 71
     5
 42
18.0
  3
ISO-25
100
AcDbAlignedDimension
 13
788.5936297894723
 23
1191.67545567602
 33
0.0
 14
788.5936297894723
 24
1173.67545567602
 34
0.0
 50
90.0
100
AcDbRotatedDimension
1001
ACAD
1000
DSTYLE
1002
{
1070
   279
1070
     1
1070
   371
1070
    18
1070
   372
1070
    18
1002
}
  0
DIMENSION
  5
132F
330
1F
100
AcDbEntity
  8
実形
100
AcDbDimension
  2
*D9
 10
560.2509594618123
 20
1173.67545567602
 30
0.0
 11
541.5009594618121
 21
1433.67545567602
 31
0.0
 70
    32
 71
     5
 42
520.0
  3
ISO-25
100
AcDbAlignedDimension
 13
788.5936297894723
 23
1693.67545567602
 33
0.0
 14
788.5936297894723
 24
1173.67545567602
 34
0.0
 50
90.0
100
AcDbRotatedDimension
1001
ACAD
1000
DSTYLE
1002
{
1070
   371
1070
    18
1070
   372
1070
    18
1002
}
  0
DIMENSION
  5
134E
330
1F
100
AcDbEntity
  8
実形
100
AcDbDimension
  2
*D10
 10
806.5936297894722
 20
1062.290944394732
 30
0.0
 11
752.8350914612283
 21
1073.70353727191
 31
0.0
 70
   160
 71
     5
 42
18.0
  3
ISO-25
100
AcDbAlignedDimension
 13
788.5936297894723
 23
1173.67545567602
 33
0.0
 14
806.5936297894722
 24
1173.67545567602
 34
0.0
100
AcDbRotatedDimension
1001
ACAD
1000
DSTYLE
1002
{
1070
   279
1070
     2
1070
   371
1070
    18
1070
   372
1070
    18
1002
}
  0
DIMENSION
  5
1382
330
1F
100
AcDbEntity
  8
実形
100
AcDbDimension
  2
*D11
 10
1883.593629789472
 20
1062.290944394732
 30
0.0
 11
1895.82543971259
 21
1126.12738779106
 31
0.0
 70
   160
 71
     5
 42
27.0
  3
ISO-25
100
AcDbAlignedDimension
 13
1910.593629789472
 23
1173.67545567602
 33
0.0
 14
1883.593629789472
 24
1173.67545567602
 34
0.0
 50
180.0
100
AcDbRotatedDimension
1001
ACAD
1000
DSTYLE
1002
{
1070
   279
1070
     2
1070
   371
1070
    18
1070
   372
1070
    18
1002
}
  0
DIMENSION
  5
1391
330
1F
100
AcDbEntity
  8
実形
100
AcDbDimension
  2
*D12
 10
1233.593629789472
 20
1062.290944394732
 30
0.0
 11
1558.593629789472
 21
1081.040944394732
 31
0.0
 70
    32
 71
     5
 42
650.0
  3
ISO-25
100
AcDbAlignedDimension
 13
1883.593629789472
 23
1173.67545567602
 33
0.0
 14
1233.593629789472
 24
1173.67545567602
 34
0.0
 50
180.0
100
AcDbRotatedDimension
1001
ACAD
1000
DSTYLE
1002
{
1070
   279
1070
     1
1070
   371
1070
    18
1070
   372
1070
    18
1002
}
  0
DIMENSION
  5
139E
330
1F
100
AcDbEntity
  8
実形
100
AcDbDimension
  2
*D13
 10
1193.593629789472
 20
1062.290944394732
 30
0.0
 11
1215.12662231633
 21
1127.880624751449
 31
0.0
 70
   160
 71
     5
 42
40.0
  3
ISO-25
100
AcDbAlignedDimension
 13
1233.593629789472
 23
1173.67545567602
 33
0.0
 14
1193.593629789472
 24
1173.67545567602
 34
0.0
 50
180.0
100
AcDbRotatedDimension
1001
ACAD
1000
DSTYLE
1002
{
1070
   279
1070
     2
1070
   371
1070
    18
1070
   372
1070
    18
1002
}
  0
DIMENSION
  5
13AD
330
1F
100
AcDbEntity
  8
実形
100
AcDbDimension
  2
*D14
 10
833.5936297894726
 20
1062.290944394732
 30
0.0
 11
1013.593629789472
 21
1081.040944394732
 31
0.0
 70
    32
 71
     5
 42
359.9999999999998
  3
ISO-25
100
AcDbAlignedDimension
 13
1193.593629789472
 23
1173.67545567602
 33
0.0
 14
833.5936297894726
 24
1173.67545567602
 34
0.0
 50
180.0
100
AcDbRotatedDimension
1001
ACAD
1000
DSTYLE
1002
{
1070
   279
1070
     1
1070
   371
1070
    18
1070
   372
1070
    18
1002
}
  0
DIMENSION
  5
13BA
330
1F
100
AcDbEntity
  8
実形
100
AcDbDimension
  2
*D15
 10
806.5936297894724
 20
1062.290944394732
 30
0.0
 11
819.9558399414282
 21
1126.542899546719
 31
0.0
 70
   160
 71
     5
 42
27.0
  3
ISO-25
100
AcDbAlignedDimension
 13
833.5936297894726
 23
1173.67545567602
 33
0.0
 14
806.5936297894724
 24
1173.67545567602
 34
0.0
 50
180.0
100
AcDbRotatedDimension
1001
ACAD
1000
DSTYLE
1002
{
1070
   279
1070
     2
1070
   371
1070
    18
1070
   372
1070
    18
1002
}
  0
DIMENSION
  5
13C9
330
1F
100
AcDbEntity
  8
実形
100
AcDbDimension
  2
*D16
 10
1928.593629789472
 20
1062.290944394732
 30
0.0
 11
1963.473923762472
 21
1069.138497208834
 31
0.0
 70
   160
 71
     5
 42
18.0
  3
ISO-25
100
AcDbAlignedDimension
 13
1910.593629789472
 23
1173.67545567602
 33
0.0
 14
1928.593629789472
 24
1173.67545567602
 34
0.0
 50
0.000000000000007
100
AcDbRotatedDimension
1001
ACAD
1000
DSTYLE
1002
{
1070
   279
1070
     2
1070
   371
1070
    18
1070
   372
1070
    18
1002
}
  0
DIMENSION
  5
1472
330
1F
100
AcDbEntity
  8
実形
100
AcDbDimension
  2
*D17
 10
788.5936297894724
 20
982.4027942544844
 30
0.0
 11
1358.593629789472
 21
1001.152794254484
 31
0.0
 70
    32
 71
     5
 42
1140.0
  3
ISO-25
100
AcDbAlignedDimension
 13
1928.593629789472
 23
1173.67545567602
 33
0.0
 14
788.5936297894724
 24
1173.67545567602
 34
0.0
 50
180.0
100
AcDbRotatedDimension
1001
ACAD
1000
DSTYLE
1002
{
1070
   371
1070
    18
1070
   372
1070
    18
1002
}
  0
LINE
  5
14A3
330
1F
100
AcDbEntity
  8
実形
100
AcDbLine
 10
788.5936297894723
 20
1683.678331949444
 30
0.0
 11
788.5936297894723
 21
1183.678331949444
 31
0.0
  0
LINE
  5
14A4
330
1F
100
AcDbEntity
  8
実形
100
AcDbLine
 10
793.5936297894722
 20
1683.678331949444
 30
0.0
 11
793.5936297894722
 21
1183.678331949444
 31
0.0
  0
LINE
  5
14A5
330
1F
100
AcDbEntity
  8
実形
100
AcDbLine
 10
806.5936297894722
 20
1221.678331949444
 30
0.0
 11
806.5936297894722
 21
1645.678331949444
 31
0.0
  0
LINE
  5
14A6
330
1F
100
AcDbEntity
  8
実形
100
AcDbLine
 10
801.5936297894722
 20
1221.678331949444
 30
0.0
 11
801.5936297894722
 21
1645.678331949444
 31
0.0
  0
ARC
  5
14A7
330
1F
100
AcDbEntity
  8
実形
100
AcDbCircle
 10
836.5936297894723
 20
1221.678331949444
 30
0.0
 40
30.0
100
AcDbArc
 50
180.0
 51
270.0
  0
ARC
  5
14A8
330
1F
100
AcDbEntity
  8
実形
100
AcDbCircle
 10
836.5936297894723
 20
1221.678331949444
 30
0.0
 40
35.0
100
AcDbArc
 50
180.0
 51
270.0
  0
LINE
  5
14A9
330
1F
100
AcDbEntity
  8
実形
100
AcDbLine
 10
798.5936297894722
 20
1178.678331949444
 30
0.0
 11
1918.593629789472
 21
1178.678331949444
 31
0.0
  0
ARC
  5
14AA
330
1F
100
AcDbEntity
  8
実形
100
AcDbCircle
 10
798.5936297894722
 20
1183.678331949444
 30
0.0
 40
5.0
100
AcDbArc
 50
180.0
 51
270.0
  0
ARC
  5
14AB
330
1F
100
AcDbEntity
  8
実形
100
AcDbCircle
 10
798.5936297894722
 20
1183.678331949444
 30
0.0
 40
10.0
100
AcDbArc
 50
180.0
 51
270.0
  0
LINE
  5
14AC
330
1F
100
AcDbEntity
  8
実形
100
AcDbLine
 10
1880.593629789472
 20
1191.678331949444
 30
0.0
 11
836.5936297894723
 21
1191.678331949444
 31
0.0
  0
LINE
  5
14AD
330
1F
100
AcDbEntity
  8
実形
100
AcDbLine
 10
1880.593629789472
 20
1186.678331949444
 30
0.0
 11
836.5936297894723
 21
1186.678331949444
 31
0.0
  0
LINE
  5
14AE
330
1F
100
AcDbEntity
  8
実形
100
AcDbLine
 10
836.5936297894723
 20
1680.678331949444
 30
0.0
 11
1880.593629789472
 21
1680.678331949444
 31
0.0
  0
LINE
  5
14AF
330
1F
100
AcDbEntity
  8
実形
100
AcDbLine
 10
1918.593629789472
 20
1688.678331949444
 30
0.0
 11
798.5936297894722
 21
1688.678331949444
 31
0.0
  0
LINE
  5
14B0
330
1F
100
AcDbEntity
  8
実形
100
AcDbLine
 10
1918.593629789472
 20
1693.678331949444
 30
0.0
 11
798.5936297894722
 21
1693.678331949444
 31
0.0
  0
LINE
  5
14B1
330
1F
100
AcDbEntity
  8
実形
100
AcDbLine
 10
836.5936297894723
 20
1675.678331949444
 30
0.0
 11
1880.593629789472
 21
1675.678331949444
 31
0.0
  0
ARC
  5
14B2
330
1F
100
AcDbEntity
  8
実形
100
AcDbCircle
 10
1880.593629789472
 20
1645.678331949444
 30
0.0
 40
35.0
100
AcDbArc
 50
0.000000000000007
 51
90.0
  0
ARC
  5
14B3
330
1F
100
AcDbEntity
  8
実形
100
AcDbCircle
 10
1918.593629789472
 20
1683.678331949444
 30
0.0
 40
5.0
100
AcDbArc
 50
0.000000000000007
 51
90.0
  0
ARC
  5
14B4
330
1F
100
AcDbEntity
  8
実形
100
AcDbCircle
 10
1918.593629789472
 20
1683.678331949444
 30
0.0
 40
10.0
100
AcDbArc
 50
0.000000000000007
 51
90.0
  0
ARC
  5
14B5
330
1F
100
AcDbEntity
  8
実形
100
AcDbCircle
 10
1880.593629789472
 20
1645.678331949444
 30
0.0
 40
30.0
100
AcDbArc
 50
0.000000000000007
 51
90.0
  0
ARC
  5
14B6
330
1F
100
AcDbEntity
  8
実形
100
AcDbCircle
 10
836.5936297894723
 20
1645.678331949444
 30
0.0
 40
35.0
100
AcDbArc
 50
90.0
 51
180.0
  0
ARC
  5
14B7
330
1F
100
AcDbEntity
  8
実形
100
AcDbCircle
 10
798.5936297894722
 20
1683.678331949444
 30
0.0
 40
5.0
100
AcDbArc
 50
90.0
 51
180.0
  0
ARC
  5
14B8
330
1F
100
AcDbEntity
  8
実形
100
AcDbCircle
 10
798.5936297894722
 20
1683.678331949444
 30
0.0
 40
10.0
100
AcDbArc
 50
90.0
 51
180.0
  0
ARC
  5
14B9
330
1F
100
AcDbEntity
  8
実形
100
AcDbCircle
 10
836.5936297894723
 20
1645.678331949444
 30
0.0
 40
30.0
100
AcDbArc
 50
90.0
 51
180.0
  0
LINE
  5
14BA
330
1F
100
AcDbEntity
  8
実形
100
AcDbLine
 10
1915.593629789472
 20
1645.678331949444
 30
0.0
 11
1915.593629789472
 21
1221.678331949444
 31
0.0
  0
LINE
  5
14BB
330
1F
100
AcDbEntity
  8
実形
100
AcDbLine
 10
1923.593629789472
 20
1183.678331949444
 30
0.0
 11
1923.593629789472
 21
1683.678331949444
 31
0.0
  0
LINE
  5
14BC
330
1F
100
AcDbEntity
  8
実形
100
AcDbLine
 10
1928.593629789472
 20
1183.678331949444
 30
0.0
 11
1928.593629789472
 21
1683.678331949444
 31
0.0
  0
LINE
  5
14BD
330
1F
100
AcDbEntity
  8
実形
100
AcDbLine
 10
1910.593629789472
 20
1645.678331949444
 30
0.0
 11
1910.593629789472
 21
1221.678331949444
 31
0.0
  0
ARC
  5
14BE
330
1F
100
AcDbEntity
  8
実形
100
AcDbCircle
 10
1918.593629789472
 20
1183.678331949444
 30
0.0
 40
5.0
100
AcDbArc
 50
270.0
 51
0.000000000000007
  0
ARC
  5
14BF
330
1F
100
AcDbEntity
  8
実形
100
AcDbCircle
 10
1918.593629789472
 20
1183.678331949444
 30
0.0
 40
10.0
100
AcDbArc
 50
270.0
 51
0.000000000000007
  0
ARC
  5
14C0
330
1F
100
AcDbEntity
  8
実形
100
AcDbCircle
 10
1880.593629789472
 20
1221.678331949444
 30
0.0
 40
35.0
100
AcDbArc
 50
270.0
 51
0.000000000000007
  0
ARC
  5
14C1
330
1F
100
AcDbEntity
  8
実形
100
AcDbCircle
 10
1880.593629789472
 20
1221.678331949444
 30
0.0
 40
30.0
100
AcDbArc
 50
270.0
 51
0.000000000000007
  0
LINE
  5
14C2
330
1F
100
AcDbEntity
  8
実形
100
AcDbLine
 10
798.5936297894722
 20
1173.678331949444
 30
0.0
 11
1918.593629789472
 21
1173.678331949444
 31
0.0
  0
ARC
  5
1547
330
1F
100
AcDbEntity
  8
実形
100
AcDbCircle
 10
1558.593629789473
 20
-446.3245443239802
 30
0.0
 40
2100.0
100
AcDbArc
 50
83.91660636496762
 51
96.08339363503237
  0
ARC
  5
1548
330
1F
100
AcDbEntity
  8
実形
100
AcDbCircle
 10
1558.593629789473
 20
3313.675455676019
 30
0.0
 40
2100.0
100
AcDbArc
 50
263.9166063649676
 51
276.0833936350324
  0
LINE
  5
1549
330
1F
100
AcDbEntity
  8
実形
 48
0.8
370
    15
100
AcDbLine
 10
1233.593629789472
 20
1433.67545567602
 30
0.0
 11
1533.593629789473
 21
1433.67545567602
 31
0.0
  0
CIRCLE
  5
154A
330
1F
100
AcDbEntity
  8
実形
100
AcDbCircle
 10
1383.593629789473
 20
1433.67545567602
 30
0.0
 40
90.5
  0
CIRCLE
  5
154B
330
1F
100
AcDbEntity
  8
実形
100
AcDbCircle
 10
1383.593629789473
 20
1433.67545567602
 30
0.0
 40
80.0
  0
ARC
  5
154D
330
1F
100
AcDbEntity
  8
実形
100
AcDbCircle
 10
2533.593629789473
 20
1433.67545567602
 30
0.0
 40
1300.0
100
AcDbArc
 50
175.2378273157479
 51
184.762172684252
  0
LINE
  5
154E
330
1F
100
AcDbEntity
  8
実形
 48
0.8
370
    15
100
AcDbLine
 10
1383.593629789473
 20
1583.67545567602
 30
0.0
 11
1383.593629789473
 21
1283.675455676019
 31
0.0
  0
ARC
  5
1550
330
1F
100
AcDbEntity
  8
実形
100
AcDbCircle
 10
1347.701644116233
 20
1334.881739701866
 30
0.0
 40
110.0
100
AcDbArc
 50
184.762172684252
 51
263.9166063649676
  0
ARC
  5
1552
330
1F
100
AcDbEntity
  8
実形
100
AcDbCircle
 10
1347.701644116233
 20
1532.469171650173
 30
0.0
 40
110.0
100
AcDbArc
 50
96.08339363503237
 51
175.2378273157479
  0
ARC
  5
1554
330
1F
100
AcDbEntity
  8
実形
100
AcDbCircle
 10
583.5936297894727
 20
1433.67545567602
 30
0.0
 40
1300.0
100
AcDbArc
 50
355.237827315748
 51
4.762172684252044
  0
ARC
  5
1559
330
1F
100
AcDbEntity
  8
実形
100
AcDbCircle
 10
1769.485615462712
 20
1334.881739701866
 30
0.0
 40
110.0
100
AcDbArc
 50
276.0833936350324
 51
355.237827315748
  0
ARC
  5
155E
330
1F
100
AcDbEntity
  8
実形
100
AcDbCircle
 10
1769.485615462712
 20
1532.469171650173
 30
0.0
 40
110.0
100
AcDbArc
 50
4.762172684252044
 51
83.91660636496762
  0
DIMENSION
  5
1560
330
1F
100
AcDbEntity
  8
実形
100
AcDbDimension
  2
*D18
 10
788.5936297894723
 20
1858.935117383602
 30
0.0
 11
1086.093629789472
 21
1877.685117383602
 31
0.0
 70
    32
 71
     5
 42
595.0000000000004
  3
ISO-25
100
AcDbAlignedDimension
 13
1383.593629789473
 23
1513.675455676019
 33
0.0
 14
788.5936297894723
 24
1653.67545567602
 34
0.0
 50
0.000000000000007
100
AcDbRotatedDimension
1001
ACAD
1000
DSTYLE
1002
{
1070
   371
1070
    18
1002
}
  0
LINE
  5
1561
330
1F
100
AcDbEntity
  8
実形
100
AcDbLine
 10
1218.593629789473
 20
773.6754556760197
 30
0.0
 11
1898.593629789473
 21
773.6754556760197
 31
0.0
  0
DIMENSION
  5
1562
330
1F
100
AcDbEntity
  8
実形
100
AcDbDimension
  2
*D19
 10
1474.093629789473
 20
417.0386498060179
 30
0.0
 11
1383.593629789473
 21
417.0386498060179
 31
0.0
 70
   160
 71
     5
 42
181.0
  3
ISO-25
100
AcDbAlignedDimension
 13
1293.093629789473
 23
574.6754556760198
 33
0.0
 14
1474.093629789473
 24
574.6754556760197
 34
0.0
 50
0.000000000000007
100
AcDbRotatedDimension
1001
ACAD
1000
DSTYLE
1002
{
1070
   371
1070
    18
1002
}
  0
DIMENSION
  5
1563
330
1F
100
AcDbEntity
  8
実形
100
AcDbDimension
  2
*D20
 10
1463.593629789473
 20
458.2480483749468
 30
0.0
 11
1383.593629789473
 21
476.9980483749468
 31
0.0
 70
    32
 71
     5
 42
160.0
  3
ISO-25
100
AcDbAlignedDimension
 13
1303.593629789473
 23
574.6754556760197
 33
0.0
 14
1463.593629789473
 24
574.6754556760197
 34
0.0
 50
0.000000000000007
100
AcDbRotatedDimension
1001
ACAD
1000
DSTYLE
1002
{
1070
   371
1070
    18
1002
}
  0
LINE
  5
1565
330
1F
100
AcDbEntity
  8
実形
100
AcDbLine
 10
1293.093629789473
 20
584.6754556760197
 30
0.0
 11
1463.593629789473
 21
584.6754556760197
 31
0.0
  0
LINE
  5
1566
330
1F
100
AcDbEntity
  8
実形
100
AcDbLine
 10
1218.593629789473
 20
773.6754556760197
 30
0.0
 11
1898.593629789473
 21
773.6754556760197
 31
0.0
  0
ARC
  5
1567
330
1F
100
AcDbEntity
  8
実形
100
AcDbCircle
 10
1263.593629789473
 20
623.0510689351437
 30
0.0
 40
30.0
100
AcDbArc
 50
180.0
 51
255.8505239136565
  0
LINE
  5
1568
330
1F
100
AcDbEntity
  8
実形
 48
0.5
370
    15
100
AcDbLine
 10
1383.593629789473
 20
662.8920795514332
 30
0.0
 11
1383.593629789473
 21
506.4762592441329
 31
0.0
  0
LINE
  5
1569
330
1F
100
AcDbEntity
  8
実形
100
AcDbLine
 10
1256.260057029691
 20
593.9612303213428
 30
0.0
 11
1293.093629789473
 21
584.6754556760197
 31
0.0
  0
LINE
  5
156A
330
1F
100
AcDbEntity
  8
実形
100
AcDbLine
 10
1293.093629789473
 20
584.6754556760197
 30
0.0
 11
1293.093629789473
 21
577.6754556760197
 31
0.0
  0
LINE
  5
156B
330
1F
100
AcDbEntity
  8
実形
100
AcDbLine
 10
1233.593629789473
 20
763.6754556760197
 30
0.0
 11
1233.593629789473
 21
623.0510689351437
 31
0.0
  0
ARC
  5
156C
330
1F
100
AcDbEntity
  8
実形
100
AcDbCircle
 10
1853.593629789473
 20
628.5966742242014
 30
0.0
 40
30.0
100
AcDbArc
 50
272.0978085861942
 51
0.000000000000007
  0
LEADER
  5
156D
330
1F
100
AcDbEntity
  8
実形
100
AcDbLeader
  3
ISO-25
 40
25.0
 41
16.66666666666666
 76
     2
 10
1867.235979904004
 20
614.424765892053
 30
0.0
 10
1819.297481608954
 20
644.9069876565081
 30
0.0
213
0.0
223
-12.5
233
0.0
1001
ACAD
1000
DSTYLE
1002
{
1070
    41
1040
25.0
1070
   147
1040
6.25
1070
    77
1070
     0
1070
    73
1070
     1
1070
    74
1070
     1
1070
   279
1070
     1
1070
   342
1005
DA
1002
}
  0
LINE
  5
156F
330
1F
100
AcDbEntity
  8
実形
100
AcDbLine
 10
1854.691794398894
 20
598.6167803869876
 30
0.0
 11
1474.093629789473
 21
584.6754556760197
 31
0.0
  0
LINE
  5
1570
330
1F
100
AcDbEntity
  8
実形
100
AcDbLine
 10
1474.093629789473
 20
577.6754556760197
 30
0.0
 11
1474.093629789473
 21
584.6754556760197
 31
0.0
  0
LINE
  5
1571
330
1F
100
AcDbEntity
  8
実形
100
AcDbLine
 10
1474.093629789473
 20
584.6754556760197
 30
0.0
 11
1474.093629789473
 21
584.6754556760197
 31
0.0
  0
LINE
  5
1572
330
1F
100
AcDbEntity
  8
実形
100
AcDbLine
 10
1463.593629789473
 20
584.6754556760197
 30
0.0
 11
1474.093629789473
 21
584.6754556760197
 31
0.0
  0
TEXT
  5
1573
330
1F
100
AcDbEntity
  8
実形
 62
     0
370
    18
100
AcDbText
 10
693.0543001946348
 20
588.9426867857983
 30
0.0
 40
25.0
  1
15
 50
90.0
100
AcDbText
  0
LINE
  5
1575
330
1F
100
AcDbEntity
  8
実形
100
AcDbLine
 10
1883.593629789473
 20
763.6754556760197
 30
0.0
 11
1883.593629789473
 21
628.5966742242014
 31
0.0
  0
TEXT
  5
1576
330
1F
100
AcDbEntity
  8
実形
100
AcDbText
 10
908.508305889252
 20
643.9502346370796
 30
0.0
 40
25.0
  1
30R
100
AcDbText
  0
LINE
  5
179B
330
1F
100
AcDbEntity
  8
実形
100
AcDbLine
 10
833.5936297894722
 20
627.4231191367148
 30
0.0
 11
833.5936297894722
 21
763.6754556760197
 31
0.0
  0
LINE
  5
179C
330
1F
100
AcDbEntity
  8
実形
100
AcDbLine
 10
1193.593629789472
 20
763.6754556760197
 30
0.0
 11
1193.593629789472
 21
622.2448228938692
 31
0.0
  0
TEXT
  5
179E
330
1F
100
AcDbEntity
  8
実形
100
AcDbText
 10
1741.332232108343
 20
647.7931054502232
 30
0.0
 40
25.0
  1
30R
100
AcDbText
  0
LINE
  5
179F
330
1F
100
AcDbEntity
  8
実形
100
AcDbLine
 10
1025.593629789472
 20
584.6754556760197
 30
0.0
 11
861.2569997706851
 21
597.5142548962375
 31
0.0
  0
ARC
  5
17A0
330
1F
100
AcDbEntity
  8
実形
100
AcDbCircle
 10
1163.593629789472
 20
622.2448228938692
 30
0.0
 40
30.0
100
AcDbArc
 50
286.0908163488539
 51
0.000000000000007
  0
LINE
  5
17A1
330
1F
100
AcDbEntity
  8
実形
100
AcDbLine
 10
1025.593629789472
 20
584.6754556760197
 30
0.0
 11
1141.593629789472
 21
584.6754556760197
 31
0.0
  0
LINE
  5
17A2
330
1F
100
AcDbEntity
  8
実形
100
AcDbLine
 10
1025.593629789472
 20
577.6754556760198
 30
0.0
 11
1025.593629789472
 21
584.6754556760197
 31
0.0
  0
LINE
  5
17A4
330
1F
100
AcDbEntity
  8
実形
100
AcDbLine
 10
1141.593629789472
 20
584.6754556760197
 30
0.0
 11
1141.593629789472
 21
577.6754556760198
 31
0.0
  0
LINE
  5
17A5
330
1F
100
AcDbEntity
  8
実形
100
AcDbLine
 10
1171.908449328538
 20
593.4201151584424
 30
0.0
 11
1141.593629789472
 21
584.6754556760197
 31
0.0
  0
DIMENSION
  5
17A6
330
1F
100
AcDbEntity
  8
実形
100
AcDbDimension
  2
*D21
 10
1025.593629789472
 20
417.0386498060179
 30
0.0
 11
1083.593629789472
 21
417.0386498060179
 31
0.0
 70
   160
 71
     5
 42
116.0
  3
ISO-25
100
AcDbAlignedDimension
 13
1141.593629789472
 23
574.6754556760197
 33
0.0
 14
1025.593629789472
 24
574.6754556760197
 34
0.0
 50
180.0
100
AcDbRotatedDimension
1001
ACAD
1000
DSTYLE
1002
{
1070
   371
1070
    18
1002
}
  0
DIMENSION
  5
17A7
330
1F
100
AcDbEntity
  8
実形
100
AcDbDimension
  2
*D22
 10
1039.593629789472
 20
458.2480483749468
 30
0.0
 11
1083.593629789472
 21
476.9980483749468
 31
0.0
 70
    32
 71
     5
 42
88.0
  3
ISO-25
100
AcDbAlignedDimension
 13
1127.593629789472
 23
574.6754556760197
 33
0.0
 14
1039.593629789472
 24
574.6754556760197
 34
0.0
 50
180.0
100
AcDbRotatedDimension
1001
ACAD
1000
DSTYLE
1002
{
1070
   371
1070
    18
1002
}
  0
LINE
  5
17A8
330
1F
100
AcDbEntity
  8
実形
 48
0.5
370
    15
100
AcDbLine
 10
1083.593629789472
 20
662.8920795514332
 30
0.0
 11
1083.593629789472
 21
506.4762592441329
 31
0.0
  0
ARC
  5
17A9
330
1F
100
AcDbEntity
  8
実形
100
AcDbCircle
 10
863.5936297894723
 20
627.4231191367148
 30
0.0
 40
30.0
100
AcDbArc
 50
180.0
 51
265.5328409386059
  0
LEADER
  5
17AA
330
1F
100
AcDbEntity
  8
実形
100
AcDbLeader
  3
ISO-25
 40
25.0
 41
16.66666666666666
 76
     2
 10
849.9512796749407
 20
614.424765892053
 30
0.0
 10
897.8897779699911
 20
644.9069876565081
 30
0.0
211
-1.0
221
0.0
231
0.0
210
0.0
220
0.0
230
-1.0
213
0.0
223
-12.5
233
0.0
1001
ACAD
1000
DSTYLE
1002
{
1070
    41
1040
25.0
1070
   147
1040
6.25
1070
    77
1070
     0
1070
    73
1070
     1
1070
    74
1070
     1
1070
   279
1070
     1
1070
   342
1005
DA
1002
}
  0
ARC
  5
17AF
330
1F
100
AcDbEntity
  8
実形
100
AcDbCircle
 10
2133.593629789472
 20
1433.67545567602
 30
0.0
 40
1300.0
100
AcDbArc
 50
174.994765108837
 51
185.005234891163
  0
ARC
  5
17B0
330
1F
100
AcDbEntity
  8
実形
100
AcDbCircle
 10
-106.4063702105277
 20
1433.67545567602
 30
0.0
 40
1300.0
100
AcDbArc
 50
354.9947651088371
 51
5.00523489116296
  0
DIMENSION
  5
17B2
330
1F
100
AcDbEntity
  8
実形
100
AcDbDimension
  2
*D23
 10
2035.330333853885
 20
1173.67545567602
 30
0.0
 11
2016.580333853885
 21
1303.67545567602
 31
0.0
 70
    32
 71
     5
 42
260.0
  3
ISO-25
100
AcDbAlignedDimension
 13
1703.593629789472
 23
1433.67545567602
 33
0.0
 14
1883.593629789472
 24
1173.67545567602
 34
0.0
 50
90.0
100
AcDbRotatedDimension
1001
ACAD
1000
DSTYLE
1002
{
1070
   371
1070
    18
1002
}
  0
DIMENSION
  5
17B3
330
1F
100
AcDbEntity
  8
実形
100
AcDbDimension
  2
*D24
 10
788.5936297894723
 20
1791.158547309252
 30
0.0
 11
936.0936297894724
 21
1809.908547309252
 31
0.0
 70
    32
 71
     5
 42
295.0000000000002
  3
ISO-25
100
AcDbAlignedDimension
 13
1083.593629789472
 23
1491.67545567602
 33
0.0
 14
788.5936297894723
 24
1653.67545567602
 34
0.0
 50
180.0
100
AcDbRotatedDimension
1001
ACAD
1000
DSTYLE
1002
{
1070
   371
1070
    18
1002
}
  0
LINE
  5
17B4
330
1F
100
AcDbEntity
  8
実形
 48
0.8
370
    15
100
AcDbLine
 10
1083.593629789472
 20
1583.675455676019
 30
0.0
 11
1083.593629789472
 21
1283.67545567602
 31
0.0
  0
CIRCLE
  5
17B5
330
1F
100
AcDbEntity
  8
実形
100
AcDbCircle
 10
1083.593629789472
 20
1433.67545567602
 30
0.0
 40
58.0
  0
CIRCLE
  5
17B6
330
1F
100
AcDbEntity
  8
実形
100
AcDbCircle
 10
1083.593629789472
 20
1433.67545567602
 30
0.0
 40
44.0
  0
LINE
  5
17BC
330
1F
100
AcDbEntity
  8
実形
100
AcDbLine
 10
818.5936297894723
 20
773.6754556760197
 30
0.0
 11
1208.593629789472
 21
773.6754556760197
 31
0.0
  0
LINE
  5
17BD
330
1F
100
AcDbEntity
  8
実形
100
AcDbLine
 10
1208.593629789472
 20
773.6754556760197
 30
0.0
 11
818.5936297894723
 21
773.6754556760197
 31
0.0
  0
LINE
  5
17BE
330
1F
100
AcDbEntity
  8
実形
100
AcDbLine
 10
1208.593629789472
 20
773.6754556760197
 30
0.0
 11
818.5936297894723
 21
773.6754556760197
 31
0.0
  0
ARC
  5
17C0
330
1F
100
AcDbEntity
  8
実形
100
AcDbCircle
 10
1013.593629789472
 20
1673.67545567602
 30
0.0
 40
460.0
100
AcDbArc
 50
259.2202061986679
 51
280.7797938013321
  0
LINE
  5
17C2
330
1F
100
AcDbEntity
  8
実形
 48
0.8
370
    15
100
AcDbLine
 10
1233.593629789472
 20
1433.67545567602
 30
0.0
 11
933.5936297894727
 21
1433.67545567602
 31
0.0
  0
ARC
  5
17C4
330
1F
100
AcDbEntity
  8
実形
100
AcDbCircle
 10
1079.055839506459
 20
1329.851810330082
 30
0.0
 40
110.0
100
AcDbArc
 50
280.7797938013321
 51
354.9947651088371
  0
ARC
  5
17C8
330
1F
100
AcDbEntity
  8
実形
100
AcDbCircle
 10
948.1314200724854
 20
1329.851810330082
 30
0.0
 40
110.0
100
AcDbArc
 50
185.005234891163
 51
259.2202061986679
  0
ARC
  5
17CB
330
1F
100
AcDbEntity
  8
実形
100
AcDbCircle
 10
1013.593629789472
 20
1193.67545567602
 30
0.0
 40
460.0
100
AcDbArc
 50
79.22020619866798
 51
100.779793801332
  0
ARC
  5
17CE
330
1F
100
AcDbEntity
  8
実形
100
AcDbCircle
 10
1079.055839506459
 20
1537.499101021957
 30
0.0
 40
110.0
100
AcDbArc
 50
5.00523489116296
 51
79.22020619866798
  0
ARC
  5
17D0
330
1F
100
AcDbEntity
  8
実形
100
AcDbCircle
 10
948.1314200724854
 20
1537.499101021957
 30
0.0
 40
110.0
100
AcDbArc
 50
100.779793801332
 51
174.994765108837
  0
LINE
  5
1C45
330
1F
100
AcDbEntity
  8
実形
100
AcDbLine
 10
801.5936297894722
 20
763.6754556760197
 30
0.0
 11
1915.593629789472
 21
763.6754556760197
 31
0.0
  0
LINE
  5
1C46
330
1F
100
AcDbEntity
  8
実形
100
AcDbLine
 10
793.5936297894722
 20
778.6754556760197
 30
0.0
 11
1923.593629789472
 21
778.6754556760197
 31
0.0
  0
LINE
  5
1C47
330
1F
100
AcDbEntity
  8
実形
100
AcDbLine
 10
788.5936297894723
 20
773.6754556760197
 30
0.0
 11
1928.593629789472
 21
773.6754556760197
 31
0.0
  0
LINE
  5
1C48
330
1F
100
AcDbEntity
  8
実形
100
AcDbLine
 10
1913.593629789472
 20
773.6754556760197
 30
0.0
 11
803.5936297894723
 21
773.6754556760197
 31
0.0
  0
LINE
  5
1C49
330
1F
100
AcDbEntity
  8
実形
100
AcDbLine
 10
1913.593629789472
 20
773.6754556760197
 30
0.0
 11
803.5936297894723
 21
773.6754556760197
 31
0.0
  0
LINE
  5
1C4A
330
1F
100
AcDbEntity
  8
実形
100
AcDbLine
 10
1915.593629789472
 20
763.6754556760197
 30
0.0
 11
1915.593629789472
 21
773.6754556760197
 31
0.0
  0
LINE
  5
1C4B
330
1F
100
AcDbEntity
  8
実形
100
AcDbLine
 10
1923.593629789472
 20
778.6754556760197
 30
0.0
 11
1928.593629789472
 21
773.6754556760197
 31
0.0
  0
LINE
  5
1C4C
330
1F
100
AcDbEntity
  8
実形
100
AcDbLine
 10
801.5936297894722
 20
773.6754556760197
 30
0.0
 11
801.5936297894722
 21
763.6754556760197
 31
0.0
  0
LINE
  5
1C4D
330
1F
100
AcDbEntity
  8
実形
100
AcDbLine
 10
793.5936297894722
 20
778.6754556760197
 30
0.0
 11
788.5936297894723
 21
773.6754556760197
 31
0.0
  0
LINE
  5
1D1D
330
1F
100
AcDbEntity
  8
実形
370
    15
100
AcDbLine
 10
1533.593629789473
 20
1433.67545567602
 30
0.0
 11
1768.593629789472
 21
1433.67545567602
 31
0.0
  0
LINE
  5
1D5D
330
1F
100
AcDbEntity
  8
実形
100
AcDbLine
 10
2084.0
 20
134.0
 30
0.0
 11
2784.0
 21
134.0
 31
0.0
  0
LINE
  5
1D5E
330
1F
100
AcDbEntity
  8
実形
100
AcDbLine
 10
2084.0
 20
199.0
 30
0.0
 11
2784.0
 21
199.0
 31
0.0
  0
LINE
  5
1D5F
330
1F
100
AcDbEntity
  8
実形
100
AcDbLine
 10
2084.0
 20
69.0
 30
0.0
 11
2784.0
 21
69.0
 31
0.0
  0
TEXT
  5
1D60
330
1F
100
AcDbEntity
  8
実形
100
AcDbText
 10
2106.666666666667
 20
149.0
 30
0.0
 40
35.0
  1
品番
 72
     4
 11
2144.0
 21
166.5
 31
0.0
100
AcDbText
  0
TEXT
  5
1D61
330
1F
100
AcDbEntity
  8
実形
100
AcDbText
 10
2106.666666666667
 20
84.0
 30
0.0
 40
35.0
  1
尺度
 72
     4
 11
2144.0
 21
101.5
 31
0.0
100
AcDbText
  0
LINE
  5
1D62
330
1F
100
AcDbEntity
  8
実形
100
AcDbLine
 10
2084.0
 20
4.0
 30
0.0
 11
2084.0
 21
199.0
 31
0.0
  0
LINE
  5
1D63
330
1F
100
AcDbEntity
  8
実形
100
AcDbLine
 10
2204.0
 20
69.0
 30
0.0
 11
2784.0
 21
69.0
 31
0.0
  0
TEXT
  5
1D64
330
1F
100
AcDbEntity
  8
実形
100
AcDbText
 10
2320.255774665348
 20
16.49999999999999
 30
0.0
 40
40.0
  1
中外交易株式会社
 72
     4
 11
2508.255774665347
 21
36.5
 31
0.0
100
AcDbText
  0
TEXT
  5
1D65
330
1F
100
AcDbEntity
  8
実形
100
AcDbText
 10
2266.5
 20
149.0
 30
0.0
 40
35.0
  1
HLm/m1140-520W
 72
     4
 11
2494.0
 21
166.5
 31
0.0
100
AcDbText
  0
LINE
  5
1D66
330
1F
100
AcDbEntity
  8
実形
100
AcDbLine
 10
2204.0
 20
69.0
 30
0.0
 11
2204.0
 21
199.0
 31
0.0
  0
HATCH
  5
1D67
330
1F
100
AcDbEntity
  8
実形
100
AcDbHatch
 10
0.0
 20
0.0
 30
0.0
210
0.0
220
0.0
230
1.0
  2
SOLID
 70
     1
 71
     1
 91
        3
 92
        1
 93
        4
 72
     2
 10
2277.166198313995
 20
36.5
 40
20.0
 50
11.64772366707341
 51
342.656105878473
 73
     1
 72
     1
 10
2296.256852341324
 20
30.53787547858519
 11
2272.166198313995
 21
30.53787547858519
 72
     1
 10
2272.166198313995
 20
30.53787547858519
 11
2272.166198313995
 21
40.53787547858519
 72
     1
 10
2272.166198313995
 20
40.53787547858519
 11
2296.75434681301
 21
40.53787547858519
 97
        4
330
1D68
330
1D6A
330
1D6B
330
1D6C
 92
        1
 93
        4
 72
     2
 10
2208.255774665348
 20
36.5
 40
20.0
 50
11.64772366707341
 51
342.656105878473
 73
     1
 72
     1
 10
2227.346428692676
 20
30.53787547858519
 11
2203.255774665347
 21
30.53787547858519
 72
     1
 10
2203.255774665347
 20
30.53787547858519
 11
2203.255774665347
 21
40.53787547858519
 72
     1
 10
2203.255774665347
 20
40.53787547858519
 11
2227.843923164362
 21
40.53787547858519
 97
        4
330
1D69
330
1D72
330
1D73
330
1D74
 92
        1
 93
        5
 72
     1
 10
2265.641894042939
 20
56.5
 11
2230.641894042939
 21
56.5
 72
     1
 10
2230.641894042939
 20
56.5
 11
2230.641894042939
 21
16.5
 72
     1
 10
2230.641894042939
 20
16.5
 11
2265.641894042939
 21
16.5
 72
     1
 10
2265.641894042939
 20
16.5
 11
2230.641894042939
 21
36.5
 72
     1
 10
2230.641894042939
 20
36.5
 11
2265.641894042939
 21
56.5
 97
        5
330
1D6D
330
1D71
330
1D70
330
1D6F
330
1D6E
 75
     0
 76
     1
 98
        1
 10
-40.0
 20
0.0
  0
ARC
  5
1D68
102
{ACAD_REACTORS
330
1D67
102
}
330
1F
100
AcDbEntity
  8
実形
370
     5
100
AcDbCircle
 10
2277.166198313995
 20
36.5
 30
0.0
 40
20.0
100
AcDbArc
 50
11.64772366707341
 51
342.656105878473
  0
ARC
  5
1D69
102
{ACAD_REACTORS
330
1D67
102
}
330
1F
100
AcDbEntity
  8
実形
370
     5
100
AcDbCircle
 10
2208.255774665348
 20
36.5
 30
0.0
 40
20.0
100
AcDbArc
 50
11.64772366707341
 51
342.656105878473
  0
LINE
  5
1D6A
102
{ACAD_REACTORS
330
1D67
102
}
330
1F
100
AcDbEntity
  8
実形
370
     5
100
AcDbLine
 10
2272.166198313995
 20
30.53787547858519
 30
0.0
 11
2296.256852341324
 21
30.53787547858519
 31
0.0
  0
LINE
  5
1D6B
102
{ACAD_REACTORS
330
1D67
102
}
330
1F
100
AcDbEntity
  8
実形
370
     5
100
AcDbLine
 10
2272.166198313995
 20
40.53787547858519
 30
0.0
 11
2272.166198313995
 21
30.53787547858519
 31
0.0
  0
LINE
  5
1D6C
102
{ACAD_REACTORS
330
1D67
102
}
330
1F
100
AcDbEntity
  8
実形
370
     5
100
AcDbLine
 10
2296.75434681301
 20
40.53787547858519
 30
0.0
 11
2272.166198313995
 21
40.53787547858519
 31
0.0
  0
LINE
  5
1D6D
102
{ACAD_REACTORS
330
1D67
102
}
330
1F
100
AcDbEntity
  8
実形
370
     5
100
AcDbLine
 10
2265.641894042939
 20
56.5
 30
0.0
 11
2230.641894042939
 21
56.5
 31
0.0
  0
LINE
  5
1D6E
102
{ACAD_REACTORS
330
1D67
102
}
330
1F
100
AcDbEntity
  8
実形
370
     5
100
AcDbLine
 10
2230.641894042939
 20
36.5
 30
0.0
 11
2265.641894042939
 21
56.5
 31
0.0
  0
LINE
  5
1D6F
102
{ACAD_REACTORS
330
1D67
102
}
330
1F
100
AcDbEntity
  8
実形
370
     5
100
AcDbLine
 10
2265.641894042939
 20
16.5
 30
0.0
 11
2230.641894042939
 21
36.5
 31
0.0
  0
LINE
  5
1D70
102
{ACAD_REACTORS
330
1D67
102
}
330
1F
100
AcDbEntity
  8
実形
370
     5
100
AcDbLine
 10
2230.641894042939
 20
16.5
 30
0.0
 11
2265.641894042939
 21
16.5
 31
0.0
  0
LINE
  5
1D71
102
{ACAD_REACTORS
330
1D67
102
}
330
1F
100
AcDbEntity
  8
実形
370
     5
100
AcDbLine
 10
2230.641894042939
 20
56.5
 30
0.0
 11
2230.641894042939
 21
16.5
 31
0.0
  0
LINE
  5
1D72
102
{ACAD_REACTORS
330
1D67
102
}
330
1F
100
AcDbEntity
  8
実形
370
     5
100
AcDbLine
 10
2203.255774665347
 20
30.53787547858519
 30
0.0
 11
2227.346428692676
 21
30.53787547858519
 31
0.0
  0
LINE
  5
1D73
102
{ACAD_REACTORS
330
1D67
102
}
330
1F
100
AcDbEntity
  8
実形
370
     5
100
AcDbLine
 10
2203.255774665347
 20
40.53787547858519
 30
0.0
 11
2203.255774665347
 21
30.53787547858519
 31
0.0
  0
LINE
  5
1D74
102
{ACAD_REACTORS
330
1D67
102
}
330
1F
100
AcDbEntity
  8
実形
370
     5
100
AcDbLine
 10
2227.843923164362
 20
40.53787547858519
 30
0.0
 11
2203.255774665347
 21
40.53787547858519
 31
0.0
  0
TEXT
  5
1D75
330
1F
100
AcDbEntity
  8
実形
100
AcDbText
 10
2440.916666666666
 20
84.0
 30
0.0
 40
35.0
  1
1：10
 72
     4
 11
2494.0
 21
101.5
 31
0.0
100
AcDbText
  0
LINE
  5
1D76
330
1F
100
AcDbEntity
  8
実形
100
AcDbLine
 10
2784.0
 20
4.0
 30
0.0
 11
2784.0
 21
69.0
 31
0.0
  0
LINE
  5
1D77
330
1F
100
AcDbEntity
  8
実形
100
AcDbLine
 10
2784.0
 20
134.0
 30
0.0
 11
2784.0
 21
199.0
 31
0.0
  0
LINE
  5
1D78
330
1F
100
AcDbEntity
  8
実形
100
AcDbLine
 10
2784.0
 20
69.0
 30
0.0
 11
2784.0
 21
134.0
 31
0.0
  0
LINE
  5
1D79
330
1F
100
AcDbEntity
  8
実形
100
AcDbLine
 10
2084.0
 20
2024.0
 30
0.0
 11
2784.0
 21
2024.0
 31
0.0
  0
LINE
  5
1D89
330
1F
100
AcDbEntity
  8
実形
100
AcDbLine
 10
2784.0
 20
2024.0
 30
0.0
 11
2784.000000000001
 21
1829.0
 31
0.0
  0
LINE
  5
1D8A
330
1F
100
AcDbEntity
  8
実形
100
AcDbLine
 10
2784.0
 20
1829.0
 30
0.0
 11
2784.0
 21
2024.0
 31
0.0
  0
LINE
  5
1E60
330
1F
100
AcDbEntity
  8
実形
100
AcDbLine
 10
1025.593629789472
 20
577.6754556760197
 30
0.0
 11
1141.593629789472
 21
577.6754556760197
 31
0.0
  0
LINE
  5
1E71
330
1F
100
AcDbEntity
  8
実形
100
AcDbLine
 10
1293.093629789473
 20
577.6754556760197
 30
0.0
 11
1474.093629789473
 21
577.6754556760197
 31
0.0
  0
LINE
  5
1EA7
330
1F
100
AcDbEntity
  8
実形
 62
     0
100
AcDbLine
 10
712.5159412358371
 20
778.6754556760199
 30
0.0
 11
578.6776341361203
 21
778.6754556760199
 31
0.0
  0
LINE
  5
1EA8
330
1F
100
AcDbEntity
  8
実形
 62
     0
100
AcDbLine
 10
712.5159412358372
 20
577.6754556760198
 30
0.0
 11
578.6776341361201
 21
577.6754556760197
 31
0.0
  0
LINE
  5
1EA9
330
1F
100
AcDbEntity
  8
実形
 62
     0
100
AcDbLine
 10
578.6776341361202
 20
778.6754556760199
 30
0.0
 11
578.6776341361201
 21
577.6754556760197
 31
0.0
  0
TEXT
  5
1EB2
330
1F
100
AcDbEntity
  8
実形
 62
     0
370
    18
100
AcDbText
 10
565.8409430566966
 20
655.7388285546335
 30
0.0
 40
25.0
  1
201
 50
90.0
100
AcDbText
  0
TEXT
  5
1EBB
330
1F
100
AcDbEntity
  8
実形
 62
     0
370
    18
100
AcDbText
 10
632.8425844230442
 20
648.6691306477982
 30
0.0
 40
25.0
  1
190
 50
90.0
100
AcDbText
  0
LINE
  5
1EBC
330
1F
100
AcDbEntity
  8
実形
 62
     0
100
AcDbLine
 10
645.5159412358369
 20
778.6754556760199
 30
0.0
 11
645.5159412358372
 21
577.6754556760198
 31
0.0
  0
LINE
  5
1EBE
330
1F
100
AcDbEntity
  8
実形
 62
     0
100
AcDbLine
 10
765.720172107005
 20
584.6754556760197
 30
0.0
 11
645.5159412358373
 21
584.6754556760197
 31
0.0
  0
LINE
  5
1EBF
330
1F
100
AcDbEntity
  8
実形
 62
     0
100
AcDbLine
 10
712.5159412358369
 20
774.6754556760197
 30
0.0
 11
645.5159412358369
 21
774.6754556760199
 31
0.0
  0
LINE
  5
1EC0
330
1F
100
AcDbEntity
  8
実形
 62
     0
100
AcDbLine
 10
712.5159412358369
 20
771.1754556760197
 30
0.0
 11
645.5159412358369
 21
771.1754556760199
 31
0.0
  0
LINE
  5
1EC1
330
1F
100
AcDbEntity
  8
実形
 62
     0
100
AcDbLine
 10
765.720172107005
 20
599.6754556760196
 30
0.0
 11
712.5159412358372
 21
599.6754556760195
 31
0.0
  0
TEXT
  5
1ECF
330
1F
100
AcDbEntity
  8
実形
 62
     0
370
    18
100
AcDbText
 10
577.4099240643045
 20
576.6482496510262
 30
0.0
 40
3.0
  1
●
100
AcDbText
  0
TEXT
  5
1EE7
330
1F
100
AcDbEntity
  8
実形
 62
     0
370
    18
100
AcDbText
 10
577.2027214005247
 20
777.1044120523101
 30
0.0
 40
3.0
  1
●
100
AcDbText
  0
TEXT
  5
1F00
330
1F
100
AcDbEntity
  8
実形
 62
     0
370
    18
100
AcDbText
 10
642.3893371302906
 20
550.2747226495876
 30
0.0
 40
25.0
  1
7
 50
90.0
100
AcDbText
  0
TEXT
  5
1F09
330
1F
100
AcDbEntity
  8
実形
 62
     0
370
    18
100
AcDbText
 10
632.9699938966114
 20
740.6027560095972
 30
0.0
 40
25.0
  1
1
 50
90.0
100
AcDbText
  0
TEXT
  5
1F11
330
1F
100
AcDbEntity
  8
実形
 62
     0
370
    18
100
AcDbText
 10
634.8284049905887
 20
795.1349454946631
 30
0.0
 40
25.0
  1
3
 50
90.0
100
AcDbText
  0
LINE
  5
1F13
330
1F
100
AcDbEntity
  8
実形
 62
     0
100
AcDbLine
 10
712.5159412358372
 20
599.6754556760194
 30
0.0
 11
712.5159412358372
 21
584.6754556760197
 31
0.0
  0
TEXT
  5
1F1E
330
1F
100
AcDbEntity
  8
実形
 62
     0
370
    18
100
AcDbText
 10
644.1966684929503
 20
777.1073192805925
 30
0.0
 40
3.0
  1
●
100
AcDbText
  0
TEXT
  5
1F26
330
1F
100
AcDbEntity
  8
実形
 62
     0
370
    18
100
AcDbText
 10
644.1966684929503
 20
773.1036679623294
 30
0.0
 40
3.0
  1
●
100
AcDbText
  0
TEXT
  5
1F2E
330
1F
100
AcDbEntity
  8
実形
 62
     0
370
    18
100
AcDbText
 10
644.1314774595139
 20
769.5750213207575
 30
0.0
 40
3.0
  1
●
100
AcDbText
  0
TEXT
  5
1F36
330
1F
100
AcDbEntity
  8
実形
 62
     0
370
    18
100
AcDbText
 10
644.0565371116154
 20
583.215833483332
 30
0.0
 40
3.0
  1
●
100
AcDbText
  0
TEXT
  5
1F3E
330
1F
100
AcDbEntity
  8
実形
 62
     0
370
    18
100
AcDbText
 10
644.0565371116154
 20
576.1345808617688
 30
0.0
 40
3.0
  1
●
100
AcDbText
  0
TEXT
  5
1F46
330
1F
100
AcDbEntity
  8
実形
 62
     0
370
    18
100
AcDbText
 10
711.1615802108481
 20
583.3875758018966
 30
0.0
 40
3.0
  1
●
100
AcDbText
  0
TEXT
  5
1F4E
330
1F
100
AcDbEntity
  8
実形
 62
     0
370
    18
100
AcDbText
 10
711.0278011290374
 20
598.3646850607219
 30
0.0
 40
3.0
  1
●
100
AcDbText
  0
TEXT
  5
1F59
330
1F
100
AcDbEntity
  8
実形
 62
     0
370
    18
100
AcDbText
 10
1994.597513062444
 20
607.0155152485422
 30
0.0
 40
25.0
  1
15
 50
90.0
100
AcDbText
  0
LINE
  5
1F5A
330
1F
100
AcDbEntity
  8
実形
 62
     0
100
AcDbLine
 10
2004.671318343108
 20
778.6754556760199
 30
0.0
 11
2138.509625442825
 21
778.6754556760199
 31
0.0
  0
LINE
  5
1F5B
330
1F
100
AcDbEntity
  8
実形
 62
     0
100
AcDbLine
 10
2004.671318343108
 20
774.6754556760197
 30
0.0
 11
2071.671318343108
 21
774.6754556760199
 31
0.0
  0
LINE
  5
1F5C
330
1F
100
AcDbEntity
  8
実形
 62
     0
100
AcDbLine
 10
2004.671318343108
 20
771.1754556760197
 30
0.0
 11
2071.671318343108
 21
771.1754556760199
 31
0.0
  0
LINE
  5
1F5D
330
1F
100
AcDbEntity
  8
実形
 62
     0
100
AcDbLine
 10
2004.671318343108
 20
577.6754556760198
 30
0.0
 11
2138.509625442825
 21
577.6754556760197
 31
0.0
  0
LINE
  5
1F5E
330
1F
100
AcDbEntity
  8
実形
 62
     0
100
AcDbLine
 10
1951.467087471939
 20
584.6754556760197
 30
0.0
 11
2071.671318343108
 21
584.6754556760197
 31
0.0
  0
LINE
  5
1F5F
330
1F
100
AcDbEntity
  8
実形
 62
     0
100
AcDbLine
 10
1951.467087471939
 20
599.6754556760196
 30
0.0
 11
2004.671318343108
 21
599.6754556760195
 31
0.0
  0
LINE
  5
1F60
330
1F
100
AcDbEntity
  8
実形
 62
     0
100
AcDbLine
 10
2138.509625442825
 20
778.6754556760199
 30
0.0
 11
2138.509625442825
 21
577.6754556760197
 31
0.0
  0
TEXT
  5
1F61
330
1F
100
AcDbEntity
  8
実形
 62
     0
370
    18
100
AcDbText
 10
2125.527519301157
 20
650.8655901897473
 30
0.0
 40
25.0
  1
201
 50
90.0
100
AcDbText
  0
TEXT
  5
1F62
330
1F
100
AcDbEntity
  8
実形
 62
     0
370
    18
100
AcDbText
 10
2063.437002216979
 20
644.7940429083446
 30
0.0
 40
25.0
  1
190
 50
90.0
100
AcDbText
  0
LINE
  5
1F63
330
1F
100
AcDbEntity
  8
実形
 62
     0
100
AcDbLine
 10
2071.671318343108
 20
778.6754556760199
 30
0.0
 11
2071.671318343108
 21
577.6754556760198
 31
0.0
  0
LINE
  5
1F64
330
1F
100
AcDbEntity
  8
実形
 62
     0
100
AcDbLine
 10
2004.671318343108
 20
599.6754556760194
 30
0.0
 11
2004.671318343108
 21
584.6754556760197
 31
0.0
  0
TEXT
  5
1F65
330
1F
100
AcDbEntity
  8
実形
 62
     0
370
    18
100
AcDbText
 10
2139.77733551464
 20
576.6482496510262
 30
0.0
 40
3.0
  1
●
 71
     2
100
AcDbText
  0
TEXT
  5
1F66
330
1F
100
AcDbEntity
  8
実形
 62
     0
370
    18
100
AcDbText
 10
2139.98453817842
 20
777.1044120523101
 30
0.0
 40
3.0
  1
●
 71
     2
100
AcDbText
  0
TEXT
  5
1F67
330
1F
100
AcDbEntity
  8
実形
 62
     0
370
    18
100
AcDbText
 10
2066.811483924976
 20
550.3477271314932
 30
0.0
 40
25.0
  1
7
 50
90.0
100
AcDbText
  0
TEXT
  5
1F68
330
1F
100
AcDbEntity
  8
実形
 62
     0
370
    18
100
AcDbText
 10
2062.087207802908
 20
739.240358685196
 30
0.0
 40
25.0
  1
1
 50
90.0
100
AcDbText
  0
TEXT
  5
1F69
330
1F
100
AcDbEntity
  8
実形
 62
     0
370
    18
100
AcDbText
 10
2062.762100682763
 20
791.1858300016056
 30
0.0
 40
25.0
  1
3
 50
90.0
100
AcDbText
  0
TEXT
  5
1F6A
330
1F
100
AcDbEntity
  8
実形
 62
     0
370
    18
100
AcDbText
 10
2072.990591085995
 20
777.1073192805925
 30
0.0
 40
3.0
  1
●
 71
     2
100
AcDbText
  0
TEXT
  5
1F6B
330
1F
100
AcDbEntity
  8
実形
 62
     0
370
    18
100
AcDbText
 10
2072.990591085995
 20
773.1036679623294
 30
0.0
 40
3.0
  1
●
 71
     2
100
AcDbText
  0
TEXT
  5
1F6C
330
1F
100
AcDbEntity
  8
実形
 62
     0
370
    18
100
AcDbText
 10
2073.055782119431
 20
769.5750213207575
 30
0.0
 40
3.0
  1
●
 71
     2
100
AcDbText
  0
TEXT
  5
1F6D
330
1F
100
AcDbEntity
  8
実形
 62
     0
370
    18
100
AcDbText
 10
2073.130722467329
 20
583.215833483332
 30
0.0
 40
3.0
  1
●
 71
     2
100
AcDbText
  0
TEXT
  5
1F6E
330
1F
100
AcDbEntity
  8
実形
 62
     0
370
    18
100
AcDbText
 10
2073.130722467329
 20
576.1345808617688
 30
0.0
 40
3.0
  1
●
 71
     2
100
AcDbText
  0
TEXT
  5
1F6F
330
1F
100
AcDbEntity
  8
実形
 62
     0
370
    18
100
AcDbText
 10
2006.025679368097
 20
583.3875758018966
 30
0.0
 40
3.0
  1
●
 71
     2
100
AcDbText
  0
TEXT
  5
1F70
330
1F
100
AcDbEntity
  8
実形
 62
     0
370
    18
100
AcDbText
 10
2006.159458449907
 20
598.3646850607219
 30
0.0
 40
3.0
  1
●
 71
     2
100
AcDbText
  0
LINE
  5
2090
330
1F
100
AcDbEntity
  8
実形
100
AcDbLine
 10
111.0
 20
2024.0
 30
0.0
 11
111.0
 21
4.0
 31
0.0
  0
LINE
  5
20AA
330
1F
100
AcDbEntity
  8
補助
100
AcDbLine
 10
2784.0
 20
1829.0
 30
0.0
 11
2019.387286519283
 21
1829.0
 31
0.0
  0
LINE
  5
20AB
330
1F
100
AcDbEntity
  8
補助
100
AcDbLine
 10
2784.0
 20
1959.0
 30
0.0
 11
2019.387286519283
 21
1959.0
 31
0.0
  0
LINE
  5
20AC
330
1F
100
AcDbEntity
  8
補助
100
AcDbLine
 10
2784.0
 20
1894.0
 30
0.0
 11
2019.387286519282
 21
1894.0
 31
0.0
  0
LINE
  5
20AD
330
1F
100
AcDbEntity
  8
補助
100
AcDbLine
 10
2202.547653420927
 20
1829.0
 30
0.0
 11
2202.547653420927
 21
2024.0
 31
0.0
  0
LINE
  5
20AE
330
1F
100
AcDbEntity
  8
補助
100
AcDbLine
 10
2019.387286519282
 20
1829.0
 30
0.0
 11
2019.387286519283
 21
2024.0
 31
0.0
  0
TEXT
  5
20AF
330
1F
100
AcDbEntity
  8
実形
100
AcDbText
 10
2048.227810657787
 20
1845.557142857143
 30
0.0
 40
30.0
  1
ボウル
  7
明朝
 72
     4
 11
2114.056382086358
 21
1861.5
 31
0.0
100
AcDbText
  0
TEXT
  5
20B0
330
1F
100
AcDbEntity
  8
補助
100
AcDbText
 10
2050.295698850121
 20
1976.328571428572
 30
0.0
 40
30.0
  1
部品名
  7
明朝
 72
     4
 11
2116.124270278692
 21
1991.5
 31
0.0
100
AcDbText
  0
TEXT
  5
20B1
330
1F
100
AcDbEntity
  8
実形
100
AcDbText
 10
2050.295698850121
 20
1911.242857142857
 30
0.0
 40
30.0
  1
天板
  7
明朝
 72
     4
 11
2094.181413135835
 21
1926.5
 31
0.0
100
AcDbText
  0
TEXT
  5
20B2
330
1F
100
AcDbEntity
  8
実形
100
AcDbText
 10
2594.7
 20
1846.842857142857
 30
0.0
 40
30.0
  1
0.7ｍｍ
  7
明朝
 72
     4
 11
2671.5
 21
1861.5
 31
0.0
100
AcDbText
  0
TEXT
  5
20B3
330
1F
100
AcDbEntity
  8
実形
100
AcDbText
 10
2594.7
 20
1911.842857142857
 30
0.0
 40
30.0
  1
1.0ｍｍ
  7
明朝
 72
     4
 11
2671.5
 21
1926.5
 31
0.0
100
AcDbText
  0
TEXT
  5
20B4
330
1F
100
AcDbEntity
  8
補助
100
AcDbText
 10
2627.614285714286
 20
1976.071428571429
 30
0.0
 40
30.0
  1
厚さ
  7
明朝
 72
     4
 11
2671.5
 21
1991.5
 31
0.0
100
AcDbText
  0
LINE
  5
20B5
330
1F
100
AcDbEntity
  8
補助
100
AcDbLine
 10
2559.0
 20
1829.0
 30
0.0
 11
2559.0
 21
2024.0
 31
0.0
  0
TEXT
  5
20B6
330
1F
100
AcDbEntity
  8
実形
100
AcDbText
 10
2261.016869107865
 20
1845.728571428571
 30
0.0
 40
30.0
  1
SUS304（BA）
  7
明朝
 72
     4
 11
2392.674011965008
 21
1861.5
 31
0.0
100
AcDbText
  0
TEXT
  5
20B7
330
1F
100
AcDbEntity
  8
実形
100
AcDbText
 10
2261.378133626422
 20
1910.728571428572
 30
0.0
 40
30.0
  1
SUS304（H/L）
  7
明朝
 72
     4
 11
2404.006705054993
 21
1926.5
 31
0.0
100
AcDbText
  0
TEXT
  5
20B8
330
1F
100
AcDbEntity
  8
補助
100
AcDbText
 10
2338.490869919937
 20
1975.947979478155
 30
0.0
 40
30.0
  1
材質
  7
明朝
 72
     4
 11
2382.376584205651
 21
1991.119408049583
 31
0.0
100
AcDbText
  0
VIEWPORT
  5
2E
102
{ACAD_XDICTIONARY
360
20D7
102
}
330
1B
100
AcDbEntity
 67
     1
  8
0
100
AcDbViewport
 10
144.7270812988281
 20
101.2295806407928
 30
0.0
 40
411.6736216682419
 41
222.1517806396485
 68
     1
 69
     1
 12
144.7270812988281
 22
101.2295806407928
 13
0.0
 23
0.0
 14
10.0
 24
10.0
 15
10.0
 25
10.0
 16
0.0
 26
0.0
 36
1.0
 17
0.0
 27
0.0
 37
0.0
 42
50.0
 43
0.0
 44
0.0
 45
222.1517806396485
 50
0.0
 51
0.0
 72
   100
 90
    32800
  1

281
     0
 71
     1
 74
     0
110
0.0
120
0.0
130
0.0
111
1.0
121
0.0
131
0.0
112
0.0
122
1.0
132
0.0
 79
     0
146
0.0
  0
VIEWPORT
  5
30
102
{ACAD_XDICTIONARY
360
20D9
102
}
330
1B
100
AcDbEntity
 67
     1
  8
0
100
AcDbViewport
 10
139.2237563133239
 20
101.2295821905136
 30
0.0
 40
222.7580101013184
 41
161.9673315048218
 68
     2
 69
     2
 12
210.0
 22
148.5
 13
0.0
 23
0.0
 14
10.0
 24
10.0
 15
10.0
 25
10.0
 16
0.0
 26
0.0
 36
1.0
 17
0.0
 27
0.0
 37
0.0
 42
50.0
 43
0.0
 44
0.0
 45
309.0686705647124
 50
0.0
 51
0.0
 72
   100
 90
    32864
  1

281
     0
 71
     1
 74
     0
110
0.0
120
0.0
130
0.0
111
1.0
121
0.0
131
0.0
112
0.0
122
1.0
132
0.0
 79
     0
146
0.0
  0
ENDSEC
  0
SECTION
  2
OBJECTS
  0
DICTIONARY
  5
C
330
0
100
AcDbDictionary
281
     1
  3
ACAD_COLOR
350
1DAA
  3
ACAD_GROUP
350
D
  3
ACAD_LAYOUT
350
1A
  3
ACAD_MATERIAL
350
1DA9
  3
ACAD_MLINESTYLE
350
17
  3
ACAD_PLOTSETTINGS
350
19
  3
ACAD_PLOTSTYLENAME
350
E
  3
ACAD_TABLESTYLE
350
1DAB
  3
AcadDim
350
124
  3
ACDBHEADERROUNDTRIPXREC
350
20D0
  3
AcDbVariableDictionary
350
1055
  0
DICTIONARY
  5
1FD0
330
2
100
AcDbDictionary
280
     1
281
     1
  3
ACAD_LAYERFILTERS
360
1FD2
  3
ACAD_LAYERSTATES
360
2093
  3
ACLYDICTIONARY
360
1FD1
  0
DICTIONARY
  5
1E61
330
1F
100
AcDbDictionary
280
     1
281
     1
  3
ACAD_SORTENTS
360
1E62
  0
DICTIONARY
  5
1EC4
330
1EC2
100
AcDbDictionary
280
     1
281
     1
  3
ACAD_SORTENTS
360
1EC5
  0
DICTIONARY
  5
20D7
330
2E
100
AcDbDictionary
280
     1
281
     1
  3
ACAD_XREC_ROUNDTRIP
360
20D8
  0
DICTIONARY
  5
20D9
330
30
100
AcDbDictionary
280
     1
281
     1
  3
ACAD_XREC_ROUNDTRIP
360
20DA
  0
DICTIONARY
  5
1DAA
102
{ACAD_REACTORS
330
C
102
}
330
C
100
AcDbDictionary
281
     1
  0
DICTIONARY
  5
D
102
{ACAD_REACTORS
330
C
102
}
330
C
100
AcDbDictionary
281
     1
  0
DICTIONARY
  5
1A
102
{ACAD_REACTORS
330
C
102
}
330
C
100
AcDbDictionary
281
     1
  3
Model
350
22
  3
ﾚｲｱｳﾄ1
350
1E
  3
ﾚｲｱｳﾄ2
350
26
  0
DICTIONARY
  5
1DA9
102
{ACAD_REACTORS
330
C
102
}
330
C
100
AcDbDictionary
281
     1
  0
DICTIONARY
  5
17
102
{ACAD_REACTORS
330
C
102
}
330
C
100
AcDbDictionary
281
     1
  3
Standard
350
18
  0
DICTIONARY
  5
19
102
{ACAD_REACTORS
330
C
102
}
330
C
100
AcDbDictionary
281
     1
  0
ACDBDICTIONARYWDFLT
  5
E
102
{ACAD_REACTORS
330
C
102
}
330
C
100
AcDbDictionary
281
     1
  3
Normal
350
F
100
AcDbDictionaryWithDefault
340
F
  0
DICTIONARY
  5
1DAB
102
{ACAD_REACTORS
330
C
102
}
330
C
100
AcDbDictionary
281
     1
  3
Standard
350
1DAC
  0
XRECORD
  5
124
102
{ACAD_REACTORS
330
C
102
}
330
C
100
AcDbXrecord
280
     1
 90
   990106
  3

 60
     0
 61
     0
 62
     1
 63
     3
 64
     0
 65
     0
 66
     0
 67
     3
 68
     1
 69
     0
 70
     0
 71
     0
 72
     0
 40
30.0
170
     0
  0
DICTIONARY
  5
20D0
102
{ACAD_REACTORS
330
C
102
}
330
C
100
AcDbDictionary
281
     1
  0
DICTIONARY
  5
1055
102
{ACAD_REACTORS
330
C
102
}
330
C
100
AcDbDictionary
281
     1
  3
CTABLESTYLE
350
1DB2
  3
DIMASSOC
350
20CD
  3
PROJECTNAME
350
20CE
  3
SORTENTS
350
1056
  0
DICTIONARY
  5
1FD2
102
{ACAD_REACTORS
330
1FD0
102
}
330
1FD0
100
AcDbDictionary
281
     1
  0
DICTIONARY
  5
2093
102
{ACAD_REACTORS
330
1FD0
102
}
330
1FD0
100
AcDbDictionary
281
     1
  0
DICTIONARY
  5
1FD1
102
{ACAD_REACTORS
330
1FD0
102
}
330
1FD0
100
AcDbDictionary
281
     1
1001
ACAD
1000
<All
  0
SORTENTSTABLE
  5
1E62
102
{ACAD_REACTORS
330
1E61
102
}
330
1E61
100
AcDbSortentsTable
330
1F
331
1F5A
  5
1F5B
331
1EBC
  5
1ECF
331
1F62
  5
1F63
331
14B0
  5
14B1
331
1F6A
  5
1F6B
331
13C9
  5
1472
331
14B8
  5
14B9
331
156F
  5
1572
331
17A6
  5
17AA
331
1D5E
  5
1D62
331
1382
  5
1391
331
14C0
  5
14C1
331
17B6
  5
17C0
331
17BE
  5
17C8
331
1D66
  5
1D6A
331
1D6E
  5
1D72
331
1548
  5
1549
331
1D76
  5
1D7A
331
1550
  5
1552
331
1C47
  5
1C4B
331
17CE
  5
1C47
331
13BA
  5
13C9
331
14A9
  5
14AA
331
1560
  5
1561
331
179F
  5
17A2
331
9C
  5
9C
331
1F5B
  5
1F5C
331
14B1
  5
14B2
331
1568
  5
156B
331
1F63
  5
1F64
331
14B9
  5
14BA
331
1570
  5
1573
331
17A7
  5
17AF
331
1F6B
  5
1F6C
331
1D5F
  5
1D63
331
14C1
  5
14C2
331
17AF
  5
17B4
331
1D67
  5
1D6B
331
1D6F
  5
1D73
331
1472
  5
14A3
331
1549
  5
154A
331
1D77
  5
1D7B
331
1559
  5
155E
331
12ED
  5
12FA
331
14AA
  5
14AB
331
1561
  5
1562
331
A5
  5
8C9
331
1C48
  5
1C4C
331
1F5C
  5
1F5D
331
14B2
  5
14B3
331
1569
  5
156C
331
17A0
  5
17A3
331
1EBE
  5
1EBC
331
1F64
  5
1F65
331
14BA
  5
14BB
331
1571
  5
1574
331
17A8
  5
17B0
331
1F6C
  5
1F6D
331
14C2
  5
1547
331
17B0
  5
17B5
331
1D60
  5
1D64
331
1D68
  5
1D6C
331
154A
  5
154B
331
17C0
  5
17CB
331
1D70
  5
1D74
331
1552
  5
1554
331
17C8
  5
1C45
331
1EA7
  5
1EA8
331
1D78
  5
1D7C
331
14A3
  5
14A4
331
17D0
  5
1C48
331
14AB
  5
14AC
331
1562
  5
1563
331
1C49
  5
1C4D
331
1F1E
  5
1F26
331
1F5D
  5
1F5E
331
14B3
  5
14B4
331
156A
  5
156D
331
17A1
  5
17A5
331
1EBF
  5
1EA9
331
1F26
  5
1F2E
331
1F65
  5
1F66
331
14BB
  5
14BC
331
1572
  5
1575
331
17A9
  5
17B2
331
1F2E
  5
1F36
331
1F6D
  5
1F6E
331
1ECF
  5
1F09
331
1E60
  5
17A6
331
1D61
  5
1D65
331
1EE7
  5
1F11
331
1F36
  5
1F3E
331
1D69
  5
1D6D
331
154B
  5
154D
331
1F3E
  5
1F46
331
1D71
  5
1D75
331
1EA8
  5
1EBB
331
1F46
  5
1F4E
331
1D79
  5
1D7D
331
13AD
  5
13BA
331
14A4
  5
14A5
331
1F4E
  5
1F59
331
14AC
  5
14AD
331
1563
  5
1565
331
2090
  5
A0
331
1D89
  5
1E70
331
1C4A
  5
1D1D
331
1F5E
  5
1F5F
331
134E
  5
1382
331
14B4
  5
14B5
331
156B
  5
156F
331
17A2
  5
17A7
331
1EC0
  5
1EB2
331
1F66
  5
1F67
331
1307
  5
132F
331
14BC
  5
14BD
331
1573
  5
179B
331
17AA
  5
17B3
331
1F6E
  5
1F6F
331
17B2
  5
17B6
331
1D62
  5
1D66
331
1F00
  5
1F12
331
1E71
  5
1568
331
1D6A
  5
1D6E
331
17C2
  5
17CE
331
1D72
  5
1D76
331
12E0
  5
12ED
331
132F
  5
134E
331
139E
  5
13AD
331
1554
  5
1559
331
1EA9
  5
1EBF
331
14A5
  5
14A6
331
14AD
  5
14AE
331
179B
  5
179F
331
A0
  5
A5
331
1D8A
  5
1EA7
331
1C4B
  5
1D5D
331
1F5F
  5
1F60
331
14B5
  5
14B6
331
156C
  5
1570
331
1EC1
  5
1EBE
331
1F67
  5
1F68
331
8C9
  5
12A2
331
14BD
  5
14BE
331
1F6F
  5
1F70
331
17B3
  5
17BC
331
1D63
  5
1D67
331
1D6B
  5
1D6F
331
154D
  5
154E
331
1F09
  5
1F16
331
1D73
  5
1D77
331
17CB
  5
1C46
331
1F11
  5
1F1E
331
14A6
  5
14A7
331
14AE
  5
14AF
331
1565
  5
1567
331
179C
  5
17A0
331
1EB2
  5
1EC0
331
1C4C
  5
1D5E
331
1F60
  5
1F61
331
14B6
  5
14B7
331
156D
  5
1571
331
17A4
  5
17A8
331
1F68
  5
1F69
331
14BE
  5
14BF
331
1575
  5
179C
331
1F70
  5
2090
331
17B4
  5
17BD
331
17BC
  5
17C2
331
1D64
  5
1D68
331
1D6C
  5
1D70
331
12A2
  5
12E0
331
1D74
  5
1D78
331
154E
  5
1550
331
17C4
  5
17D0
331
1C45
  5
1C49
331
14A7
  5
14A8
331
155E
  5
1560
331
14AF
  5
14B0
331
1566
  5
1569
331
1F59
  5
1F5A
331
1C4D
  5
1D5F
331
1EBB
  5
1EC1
331
1F61
  5
1F62
331
1D1D
  5
1D60
331
12FA
  5
1307
331
1F69
  5
1F6A
331
14B7
  5
14B8
331
17A5
  5
17A9
331
1D5D
  5
1D61
331
14BF
  5
14C0
331
1576
  5
179E
331
17B5
  5
17BE
331
1547
  5
1548
331
17BD
  5
17C4
331
1D65
  5
1D69
331
1D6D
  5
1D71
331
1391
  5
139E
331
1D75
  5
1D79
331
1F13
  5
1F00
331
1C46
  5
1C4A
331
14A8
  5
14A9
331
1567
  5
156A
331
179E
  5
17A1
  0
SORTENTSTABLE
  5
1EC5
102
{ACAD_REACTORS
330
1EC4
102
}
330
1EC4
100
AcDbSortentsTable
330
1EC2
  0
XRECORD
  5
20D8
102
{ACAD_REACTORS
330
20D7
102
}
330
20D7
100
AcDbXrecord
280
     1
102
SHADEPLOT
 70
     0
  0
XRECORD
  5
20DA
102
{ACAD_REACTORS
330
20D9
102
}
330
20D9
100
AcDbXrecord
280
     1
102
SHADEPLOT
 70
     0
  0
LAYOUT
  5
22
102
{ACAD_XDICTIONARY
360
20D3
102
}
102
{ACAD_REACTORS
330
1A
102
}
330
1A
100
AcDbPlotSettings
  1

  2
EPSON PM-800C
  4
A4
  6

 40
3.757083177566528
 41
14.7637300491333
 42
3.757080078125
 43
3.757080078125
 44
209.9733276367187
 45
296.9683227539062
 46
0.0
 47
0.0
 48
0.0
 49
0.0
140
0.0
141
0.0
142
1.0
143
10.0
 70
 11952
 72
     1
 73
     1
 74
     2
  7

 75
    20
147
0.1
148
0.0
149
0.0
100
AcDbLayout
  1
Model
 70
     1
 71
     0
 10
0.0
 20
0.0
 11
12.0
 21
9.0
 12
0.0
 22
0.0
 32
0.0
 14
0.0
 24
0.0
 34
0.0
 15
0.0
 25
0.0
 35
0.0
146
0.0
 13
0.0
 23
0.0
 33
0.0
 16
1.0
 26
0.0
 36
0.0
 17
0.0
 27
1.0
 37
0.0
 76
     0
330
1F
  0
LAYOUT
  5
1E
102
{ACAD_XDICTIONARY
360
20D1
102
}
102
{ACAD_REACTORS
330
1A
102
}
330
1A
100
AcDbPlotSettings
  1

  2
EPSON PM-800C
  4
A4
  6

 40
3.757083177566528
 41
14.7637300491333
 42
3.757080078125
 43
3.757080078125
 44
209.9733276367187
 45
296.9683227539062
 46
0.0
 47
0.0
 48
0.0
 49
0.0
140
0.0
141
0.0
142
1.0
143
1.0
 70
   688
 72
     1
 73
     1
 74
     5
  7

 75
    16
147
1.0
148
0.0
149
0.0
100
AcDbLayout
  1
ﾚｲｱｳﾄ1
 70
     1
 71
     1
 10
-3.757080078125
 20
-3.757083177566528
 11
293.2112426757813
 21
206.2162444591522
 12
0.0
 22
0.0
 32
0.0
 14
27.8447512626648
 24
20.24591643810271
 34
0.0
 15
250.6027613639831
 25
182.2132479429245
 35
0.0
146
0.0
 13
0.0
 23
0.0
 33
0.0
 16
1.0
 26
0.0
 36
0.0
 17
0.0
 27
1.0
 37
0.0
 76
     0
330
1B
331
2E
  0
LAYOUT
  5
26
102
{ACAD_XDICTIONARY
360
20D5
102
}
102
{ACAD_REACTORS
330
1A
102
}
330
1A
100
AcDbPlotSettings
  1

  2
EPSON PM-800C
  4

  6

 40
0.0
 41
0.0
 42
0.0
 43
0.0
 44
0.0
 45
0.0
 46
0.0
 47
0.0
 48
0.0
 49
0.0
140
0.0
141
0.0
142
1.0
143
1.0
 70
   688
 72
     0
 73
     0
 74
     5
  7

 75
    16
147
1.0
148
0.0
149
0.0
100
AcDbLayout
  1
ﾚｲｱｳﾄ2
 70
     1
 71
     2
 10
0.0
 20
0.0
 11
12.0
 21
9.0
 12
0.0
 22
0.0
 32
0.0
 14
0.0
 24
0.0
 34
0.0
 15
0.0
 25
0.0
 35
0.0
146
0.0
 13
0.0
 23
0.0
 33
0.0
 16
1.0
 26
0.0
 36
0.0
 17
0.0
 27
1.0
 37
0.0
 76
     0
330
23
  0
MLINESTYLE
  5
18
102
{ACAD_REACTORS
330
17
102
}
330
17
100
AcDbMlineStyle
  2
STANDARD
 70
     0
  3

 62
   256
 51
90.0
 52
90.0
 71
     2
 49
0.5
 62
   256
  6
BYLAYER
 49
-0.5
 62
   256
  6
BYLAYER
  0
ACDBPLACEHOLDER
  5
F
102
{ACAD_REACTORS
330
E
102
}
330
E
  0
TABLESTYLE
  5
1DAC
102
{ACAD_REACTORS
330
1DAB
102
}
330
1DAB
100
AcDbTableStyle
  3
Standard
 70
     0
 71
     0
 40
1.5
 41
1.5
280
     0
281
     0
  7
Standard
140
4.5
170
     2
 62
     0
 63
     7
283
     0
274
    -2
284
     1
 64
     0
275
    -2
285
     1
 65
     0
276
    -2
286
     1
 66
     0
277
    -2
287
     1
 67
     0
278
    -2
288
     1
 68
     0
279
    -2
289
     1
 69
     0
  7
Standard
140
6.0
170
     5
 62
     0
 63
     7
283
     0
274
    -2
284
     1
 64
     0
275
    -2
285
     1
 65
     0
276
    -2
286
     1
 66
     0
277
    -2
287
     1
 67
     0
278
    -2
288
     1
 68
     0
279
    -2
289
     1
 69
     0
  7
Standard
140
4.5
170
     5
 62
     0
 63
     7
283
     0
274
    -2
284
     1
 64
     0
275
    -2
285
     1
 65
     0
276
    -2
286
     1
 66
     0
277
    -2
287
     1
 67
     0
278
    -2
288
     1
 68
     0
279
    -2
289
     1
 69
     0
  0
DICTIONARYVAR
  5
1DB2
102
{ACAD_REACTORS
330
1055
102
}
330
1055
100
DictionaryVariables
280
     0
  1
STANDARD
  0
DICTIONARYVAR
  5
20CD
102
{ACAD_REACTORS
330
1055
102
}
330
1055
100
DictionaryVariables
280
     0
  1
1
  0
DICTIONARYVAR
  5
20CE
102
{ACAD_REACTORS
330
1055
102
}
330
1055
100
DictionaryVariables
280
     0
  1

  0
DICTIONARYVAR
  5
1056
102
{ACAD_REACTORS
330
1055
102
}
330
1055
100
DictionaryVariables
280
     0
  1
96
  0
DICTIONARY
  5
20D3
330
22
100
AcDbDictionary
280
     1
281
     1
  3
ACAD_XREC_ROUNDTRIP
360
20D4
  0
DICTIONARY
  5
20D1
330
1E
100
AcDbDictionary
280
     1
281
     1
  3
ACAD_XREC_ROUNDTRIP
360
20D2
  0
DICTIONARY
  5
20D5
330
26
100
AcDbDictionary
280
     1
281
     1
  3
ACAD_XREC_ROUNDTRIP
360
20D6
  0
XRECORD
  5
20D4
102
{ACAD_REACTORS
330
20D3
102
}
330
20D3
100
AcDbXrecord
280
     1
102
SHADEPLOT
 70
     0
102
SHADEPLOTRESLEVEL
 70
     2
102
SHADEPLOTCUSTOMDPI
 70
   300
  0
XRECORD
  5
20D2
102
{ACAD_REACTORS
330
20D1
102
}
330
20D1
100
AcDbXrecord
280
     1
102
SHADEPLOT
 70
     0
102
SHADEPLOTRESLEVEL
 70
     2
102
SHADEPLOTCUSTOMDPI
 70
   300
  0
XRECORD
  5
20D6
102
{ACAD_REACTORS
330
20D5
102
}
330
20D5
100
AcDbXrecord
280
     1
102
SHADEPLOT
 70
     0
102
SHADEPLOTRESLEVEL
 70
     2
102
SHADEPLOTCUSTOMDPI
 70
   300
  0
ENDSEC
  0
EOF
