  0
SECTION
  2
HEADER
  9
$ACADVER
  1
AC1015
  9
$ACADMAINTVER
 70
    20
  9
$DWGCODEPAGE
  3
ANSI_932
  9
$INSBASE
 10
0.0
 20
0.0
 30
0.0
  9
$EXTMIN
 10
111.0
 20
4.0
 30
0.0
  9
$EXTMAX
 10
2784.000000000001
 20
2024.0
 30
0.0
  9
$LIMMIN
 10
0.0
 20
0.0
  9
$LIMMAX
 10
29700.0
 20
21000.0
  9
$ORTHOMODE
 70
     1
  9
$REGENMODE
 70
     1
  9
$FILLMODE
 70
     1
  9
$QTEXTMODE
 70
     0
  9
$MIRRTEXT
 70
     1
  9
$LTSCALE
 40
4.0
  9
$ATTMODE
 70
     1
  9
$TEXTSIZE
 40
25.0
  9
$TRACEWID
 40
1.0
  9
$TEXTSTYLE
  7
Standard
  9
$CLAYER
  8
実形
  9
$CELTYPE
  6
ByLayer
  9
$CECOLOR
 62
   256
  9
$CELTSCALE
 40
1.0
  9
$DISPSILH
 70
     0
  9
$DIMSCALE
 40
1.0
  9
$DIMASZ
 40
35.0
  9
$DIMEXO
 40
65.0
  9
$DIMDLI
 40
3.75
  9
$DIMRND
 40
0.0
  9
$DIMDLE
 40
0.0
  9
$DIMEXE
 40
0.0
  9
$DIMTP
 40
0.0
  9
$DIMTM
 40
0.0
  9
$DIMTXT
 40
25.0
  9
$DIMCEN
 40
2.5
  9
$DIMTSZ
 40
0.0
  9
$DIMTOL
 70
     0
  9
$DIMLIM
 70
     0
  9
$DIMTIH
 70
     0
  9
$DIMTOH
 70
     0
  9
$DIMSE1
 70
     0
  9
$DIMSE2
 70
     0
  9
$DIMTAD
 70
     1
  9
$DIMZIN
 70
     8
  9
$DIMBLK
  1
DotSmall
  9
$DIMASO
 70
     1
  9
$DIMSHO
 70
     1
  9
$DIMPOST
  1

  9
$DIMAPOST
  1

  9
$DIMALT
 70
     0
  9
$DIMALTD
 70
     3
  9
$DIMALTF
 40
0.03937007874016
  9
$DIMLFAC
 40
1.0
  9
$DIMTOFL
 70
     1
  9
$DIMTVP
 40
0.0
  9
$DIMTIX
 70
     0
  9
$DIMSOXD
 70
     0
  9
$DIMSAH
 70
     0
  9
$DIMBLK1
  1

  9
$DIMBLK2
  1

  9
$DIMSTYLE
  2
ISO-25
  9
$DIMCLRD
 70
     0
  9
$DIMCLRE
 70
     0
  9
$DIMCLRT
 70
     0
  9
$DIMTFAC
 40
1.0
  9
$DIMGAP
 40
6.25
  9
$DIMJUST
 70
     0
  9
$DIMSD1
 70
     0
  9
$DIMSD2
 70
     0
  9
$DIMTOLJ
 70
     0
  9
$DIMTZIN
 70
     8
  9
$DIMALTZ
 70
     0
  9
$DIMALTTZ
 70
     0
  9
$DIMUPT
 70
     0
  9
$DIMDEC
 70
     2
  9
$DIMTDEC
 70
     2
  9
$DIMALTU
 70
     2
  9
$DIMALTTD
 70
     3
  9
$DIMTXSTY
  7
Standard
  9
$DIMAUNIT
 70
     0
  9
$DIMADEC
 70
     0
  9
$DIMALTRND
 40
0.0
  9
$DIMAZIN
 70
     0
  9
$DIMDSEP
 70
    46
  9
$DIMATFIT
 70
     3
  9
$DIMFRAC
 70
     0
  9
$DIMLDRBLK
  1
Open30
  9
$DIMLUNIT
 70
     2
  9
$DIMLWD
 70
    18
  9
$DIMLWE
 70
    18
  9
$DIMTMOVE
 70
     0
  9
$LUNITS
 70
     2
  9
$LUPREC
 70
     2
  9
$SKETCHINC
 40
1.0
  9
$FILLETRAD
 40
35.0
  9
$AUNITS
 70
     0
  9
$AUPREC
 70
     0
  9
$MENU
  1
.
  9
$ELEVATION
 40
0.0
  9
$PELEVATION
 40
0.0
  9
$THICKNESS
 40
0.0
  9
$LIMCHECK
 70
     1
  9
$CHAMFERA
 40
10.0
  9
$CHAMFERB
 40
10.0
  9
$CHAMFERC
 40
20.0
  9
$CHAMFERD
 40
0.0
  9
$SKPOLY
 70
     0
  9
$TDCREATE
 40
2451673.575802199
  9
$TDUCREATE
 40
2451673.200802199
  9
$TDUPDATE
 40
2458809.750998507
  9
$TDUUPDATE
 40
2458809.375998507
  9
$TDINDWG
 40
0.8329824653
  9
$TDUSRTIMER
 40
0.8329817708
  9
$USRTIMER
 70
     1
  9
$ANGBASE
 50
0.0
  9
$ANGDIR
 70
     0
  9
$PDMODE
 70
     3
  9
$PDSIZE
 40
0.0
  9
$PLINEWID
 40
0.0
  9
$SPLFRAME
 70
     0
  9
$SPLINETYPE
 70
     6
  9
$SPLINESEGS
 70
     8
  9
$HANDSEED
  5
276C
  9
$SURFTAB1
 70
     6
  9
$SURFTAB2
 70
     6
  9
$SURFTYPE
 70
     6
  9
$SURFU
 70
     6
  9
$SURFV
 70
     6
  9
$UCSBASE
  2

  9
$UCSNAME
  2

  9
$UCSORG
 10
0.0
 20
0.0
 30
0.0
  9
$UCSXDIR
 10
1.0
 20
0.0
 30
0.0
  9
$UCSYDIR
 10
0.0
 20
1.0
 30
0.0
  9
$UCSORTHOREF
  2

  9
$UCSORTHOVIEW
 70
     0
  9
$UCSORGTOP
 10
0.0
 20
0.0
 30
0.0
  9
$UCSORGBOTTOM
 10
0.0
 20
0.0
 30
0.0
  9
$UCSORGLEFT
 10
0.0
 20
0.0
 30
0.0
  9
$UCSORGRIGHT
 10
0.0
 20
0.0
 30
0.0
  9
$UCSORGFRONT
 10
0.0
 20
0.0
 30
0.0
  9
$UCSORGBACK
 10
0.0
 20
0.0
 30
0.0
  9
$PUCSBASE
  2

  9
$PUCSNAME
  2

  9
$PUCSORG
 10
0.0
 20
0.0
 30
0.0
  9
$PUCSXDIR
 10
1.0
 20
0.0
 30
0.0
  9
$PUCSYDIR
 10
0.0
 20
1.0
 30
0.0
  9
$PUCSORTHOREF
  2

  9
$PUCSORTHOVIEW
 70
     0
  9
$PUCSORGTOP
 10
0.0
 20
0.0
 30
0.0
  9
$PUCSORGBOTTOM
 10
0.0
 20
0.0
 30
0.0
  9
$PUCSORGLEFT
 10
0.0
 20
0.0
 30
0.0
  9
$PUCSORGRIGHT
 10
0.0
 20
0.0
 30
0.0
  9
$PUCSORGFRONT
 10
0.0
 20
0.0
 30
0.0
  9
$PUCSORGBACK
 10
0.0
 20
0.0
 30
0.0
  9
$USERI1
 70
     0
  9
$USERI2
 70
     0
  9
$USERI3
 70
     0
  9
$USERI4
 70
     0
  9
$USERI5
 70
     0
  9
$USERR1
 40
0.0
  9
$USERR2
 40
0.0
  9
$USERR3
 40
0.0
  9
$USERR4
 40
0.0
  9
$USERR5
 40
0.0
  9
$WORLDVIEW
 70
     1
  9
$SHADEDGE
 70
     3
  9
$SHADEDIF
 70
    70
  9
$TILEMODE
 70
     1
  9
$MAXACTVP
 70
    64
  9
$PINSBASE
 10
0.0
 20
0.0
 30
0.0
  9
$PLIMCHECK
 70
     0
  9
$PEXTMIN
 10
27.8447512626648
 20
20.24591643810271
 30
0.0
  9
$PEXTMAX
 10
250.6027613639831
 20
182.2132479429245
 30
0.0
  9
$PLIMMIN
 10
-3.757080078125
 20
-3.757083177566528
  9
$PLIMMAX
 10
293.2112426757813
 20
206.2162444591522
  9
$UNITMODE
 70
     0
  9
$VISRETAIN
 70
     1
  9
$PLINEGEN
 70
     0
  9
$PSLTSCALE
 70
     1
  9
$TREEDEPTH
 70
  3020
  9
$CMLSTYLE
  2
Standard
  9
$CMLJUST
 70
     0
  9
$CMLSCALE
 40
20.0
  9
$PROXYGRAPHICS
 70
     1
  9
$MEASUREMENT
 70
     1
  9
$CELWEIGHT
370
    -1
  9
$ENDCAPS
280
     0
  9
$JOINSTYLE
280
     0
  9
$LWDISPLAY
290
     0
  9
$INSUNITS
 70
     4
  9
$HYPERLINKBASE
  1

  9
$STYLESHEET
  1

  9
$XEDIT
290
     1
  9
$CEPSNTYPE
380
     0
  9
$PSTYLEMODE
290
     1
  9
$FINGERPRINTGUID
  2
{C8EA1F16-24C9-11D4-9416-CE0A3B32152F}
  9
$VERSIONGUID
  2
{313F65CC-3551-4E13-BB14-5101644A7EE9}
  9
$EXTNAMES
290
     1
  9
$PSVPSCALE
 40
0.0
  9
$OLESTARTUP
290
     0
  0
ENDSEC
  0
SECTION
  2
CLASSES
  0
CLASS
  1
ACDBDICTIONARYWDFLT
  2
AcDbDictionaryWithDefault
  3
ObjectDBX Classes
 90
        0
280
     0
281
     0
  0
CLASS
  1
ACDBPLACEHOLDER
  2
AcDbPlaceHolder
  3
ObjectDBX Classes
 90
        0
280
     0
281
     0
  0
CLASS
  1
LAYOUT
  2
AcDbLayout
  3
ObjectDBX Classes
 90
        0
280
     0
281
     0
  0
CLASS
  1
DICTIONARYVAR
  2
AcDbDictionaryVar
  3
ObjectDBX Classes
 90
        0
280
     0
281
     0
  0
CLASS
  1
TABLESTYLE
  2
AcDbTableStyle
  3
ObjectDBX Classes
 90
     2047
280
     0
281
     0
  0
CLASS
  1
SORTENTSTABLE
  2
AcDbSortentsTable
  3
ObjectDBX Classes
 90
        0
280
     0
281
     0
  0
ENDSEC
  0
SECTION
  2
TABLES
  0
TABLE
  2
VPORT
  5
8
330
0
100
AcDbSymbolTable
 70
     2
  0
VPORT
  5
2760
330
8
100
AcDbSymbolTableRecord
100
AcDbViewportTableRecord
  2
*Active
 70
     0
 10
0.0
 20
0.0
 11
1.0
 21
1.0
 12
1406.517915027212
 22
1138.338922106467
 13
0.0
 23
0.0
 14
10.0
 24
10.0
 15
10.0
 25
10.0
 16
0.0
 26
0.0
 36
1.0
 17
0.0
 27
0.0
 37
0.0
 40
2439.886747602057
 41
1.29038112522686
 42
50.0
 43
0.0
 44
0.0
 50
0.0
 51
0.0
 71
     0
 72
   100
 73
     1
 74
     3
 75
     0
 76
     0
 77
     0
 78
     0
281
     0
 65
     1
110
0.0
120
0.0
130
0.0
111
1.0
121
0.0
131
0.0
112
0.0
122
1.0
132
0.0
 79
     0
146
0.0
  0
ENDTAB
  0
TABLE
  2
LTYPE
  5
5
330
0
100
AcDbSymbolTable
 70
    46
  0
LTYPE
  5
14
330
5
100
AcDbSymbolTableRecord
100
AcDbLinetypeTableRecord
  2
ByBlock
 70
     0
  3

 72
    65
 73
     0
 40
0.0
  0
LTYPE
  5
15
330
5
100
AcDbSymbolTableRecord
100
AcDbLinetypeTableRecord
  2
ByLayer
 70
     0
  3

 72
    65
 73
     0
 40
0.0
  0
LTYPE
  5
16
330
5
100
AcDbSymbolTableRecord
100
AcDbLinetypeTableRecord
  2
Continuous
 70
     0
  3
Solid line
 72
    65
 73
     0
 40
0.0
  0
LTYPE
  5
34
330
5
100
AcDbSymbolTableRecord
100
AcDbLinetypeTableRecord
  2
ACAD_ISO02W100
 70
     0
  3
ISO dash __ __ __ __ __ __ __ __ __ __ __ __ __
 72
    65
 73
     2
 40
15.0
 49
12.0
 74
     0
 49
-3.0
 74
     0
  0
LTYPE
  5
35
330
5
100
AcDbSymbolTableRecord
100
AcDbLinetypeTableRecord
  2
ACAD_ISO03W100
 70
     0
  3
ISO dash space __    __    __    __    __    __
 72
    65
 73
     2
 40
30.0
 49
12.0
 74
     0
 49
-18.0
 74
     0
  0
LTYPE
  5
36
330
5
100
AcDbSymbolTableRecord
100
AcDbLinetypeTableRecord
  2
ACAD_ISO04W100
 70
     0
  3
ISO long-dash dot ____ . ____ . ____ . ____ . _
 72
    65
 73
     4
 40
30.0
 49
24.0
 74
     0
 49
-3.0
 74
     0
 49
0.0
 74
     0
 49
-3.0
 74
     0
  0
LTYPE
  5
37
330
5
100
AcDbSymbolTableRecord
100
AcDbLinetypeTableRecord
  2
ACAD_ISO05W100
 70
     0
  3
ISO long-dash double-dot ____ .. ____ .. ____ .
 72
    65
 73
     6
 40
34.0
 49
24.0
 74
     0
 49
-3.0
 74
     0
 49
0.5
 74
     0
 49
-3.0
 74
     0
 49
0.5
 74
     0
 49
-3.0
 74
     0
  0
LTYPE
  5
38
330
5
100
AcDbSymbolTableRecord
100
AcDbLinetypeTableRecord
  2
ACAD_ISO06W100
 70
     0
  3
ISO long-dash triple-dot ____ ... ____ ... ____
 72
    65
 73
     8
 40
37.5
 49
24.0
 74
     0
 49
-3.0
 74
     0
 49
0.5
 74
     0
 49
-3.0
 74
     0
 49
0.5
 74
     0
 49
-3.0
 74
     0
 49
0.5
 74
     0
 49
-3.0
 74
     0
  0
LTYPE
  5
39
330
5
100
AcDbSymbolTableRecord
100
AcDbLinetypeTableRecord
  2
ACAD_ISO07W100
 70
     0
  3
ISO dot . . . . . . . . . . . . . . . . . . . .
 72
    65
 73
     2
 40
3.0
 49
0.0
 74
     0
 49
-3.0
 74
     0
  0
LTYPE
  5
3A
330
5
100
AcDbSymbolTableRecord
100
AcDbLinetypeTableRecord
  2
ACAD_ISO08W100
 70
     0
  3
ISO long-dash short-dash ____ __ ____ __ ____ _
 72
    65
 73
     4
 40
36.0
 49
24.0
 74
     0
 49
-3.0
 74
     0
 49
6.0
 74
     0
 49
-3.0
 74
     0
  0
LTYPE
  5
3B
330
5
100
AcDbSymbolTableRecord
100
AcDbLinetypeTableRecord
  2
ACAD_ISO09W100
 70
     0
  3
ISO long-dash double-short-dash ____ __ __ ____
 72
    65
 73
     6
 40
45.0
 49
24.0
 74
     0
 49
-3.0
 74
     0
 49
6.0
 74
     0
 49
-3.0
 74
     0
 49
6.0
 74
     0
 49
-3.0
 74
     0
  0
LTYPE
  5
3C
330
5
100
AcDbSymbolTableRecord
100
AcDbLinetypeTableRecord
  2
ACAD_ISO10W100
 70
     0
  3
ISO dash dot __ . __ . __ . __ . __ . __ . __ .
 72
    65
 73
     4
 40
18.0
 49
12.0
 74
     0
 49
-3.0
 74
     0
 49
0.0
 74
     0
 49
-3.0
 74
     0
  0
LTYPE
  5
3D
330
5
100
AcDbSymbolTableRecord
100
AcDbLinetypeTableRecord
  2
ACAD_ISO11W100
 70
     0
  3
ISO double-dash dot __ __ . __ __ . __ __ . __ 
 72
    65
 73
     6
 40
33.0
 49
12.0
 74
     0
 49
-3.0
 74
     0
 49
12.0
 74
     0
 49
-3.0
 74
     0
 49
0.0
 74
     0
 49
-3.0
 74
     0
  0
LTYPE
  5
3E
330
5
100
AcDbSymbolTableRecord
100
AcDbLinetypeTableRecord
  2
ACAD_ISO12W100
 70
     0
  3
ISO dash double-dot __ . . __ . . __ . . __ . .
 72
    65
 73
     6
 40
21.0
 49
12.0
 74
     0
 49
-3.0
 74
     0
 49
0.0
 74
     0
 49
-3.0
 74
     0
 49
0.0
 74
     0
 49
-3.0
 74
     0
  0
LTYPE
  5
3F
330
5
100
AcDbSymbolTableRecord
100
AcDbLinetypeTableRecord
  2
ACAD_ISO13W100
 70
     0
  3
ISO double-dash double-dot __ __ . . __ __ . . 
 72
    65
 73
     8
 40
36.0
 49
12.0
 74
     0
 49
-3.0
 74
     0
 49
12.0
 74
     0
 49
-3.0
 74
     0
 49
0.0
 74
     0
 49
-3.0
 74
     0
 49
0.0
 74
     0
 49
-3.0
 74
     0
  0
LTYPE
  5
40
330
5
100
AcDbSymbolTableRecord
100
AcDbLinetypeTableRecord
  2
ACAD_ISO14W100
 70
     0
  3
ISO dash triple-dot __ . . . __ . . . __ . . . 
 72
    65
 73
     8
 40
24.0
 49
12.0
 74
     0
 49
-3.0
 74
     0
 49
0.0
 74
     0
 49
-3.0
 74
     0
 49
0.0
 74
     0
 49
-3.0
 74
     0
 49
0.0
 74
     0
 49
-3.0
 74
     0
  0
LTYPE
  5
41
330
5
100
AcDbSymbolTableRecord
100
AcDbLinetypeTableRecord
  2
ACAD_ISO15W100
 70
     0
  3
ISO double-dash triple-dot __ __ . . . __ __ . 
 72
    65
 73
    10
 40
39.0
 49
12.0
 74
     0
 49
-3.0
 74
     0
 49
12.0
 74
     0
 49
-3.0
 74
     0
 49
0.0
 74
     0
 49
-3.0
 74
     0
 49
0.0
 74
     0
 49
-3.0
 74
     0
 49
0.0
 74
     0
 49
-3.0
 74
     0
  0
LTYPE
  5
42
330
5
100
AcDbSymbolTableRecord
100
AcDbLinetypeTableRecord
  2
BATTING
 70
     0
  3
Batting SSSSSSSSSSSSSSSSSSSSSSSSSSSSSSSSSSSSSSS
 72
    65
 73
     4
 40
10.16254
 49
0.00254
 74
     0
 49
-2.54
 74
     4
 75
   134
340
33
 46
2.54
 50
0.0
 44
-2.54
 45
0.0
 49
-5.08
 74
     4
 75
   134
340
33
 46
2.54
 50
180.0
 44
2.54
 45
0.0
 49
-2.54
 74
     0
  0
LTYPE
  5
43
330
5
100
AcDbSymbolTableRecord
100
AcDbLinetypeTableRecord
  2
BORDER
 70
     0
  3
Border __ __ . __ __ . __ __ . __ __ . __ __ .
 72
    65
 73
     6
 40
44.45
 49
12.7
 74
     0
 49
-6.349999999999999
 74
     0
 49
12.7
 74
     0
 49
-6.349999999999999
 74
     0
 49
0.0
 74
     0
 49
-6.349999999999999
 74
     0
  0
LTYPE
  5
44
330
5
100
AcDbSymbolTableRecord
100
AcDbLinetypeTableRecord
  2
BORDER2
 70
     0
  3
Border (.5x) __.__.__.__.__.__.__.__.__.__.__.
 72
    65
 73
     6
 40
22.225
 49
6.349999999999999
 74
     0
 49
-3.174999999999999
 74
     0
 49
6.349999999999999
 74
     0
 49
-3.174999999999999
 74
     0
 49
0.0
 74
     0
 49
-3.174999999999999
 74
     0
  0
LTYPE
  5
45
330
5
100
AcDbSymbolTableRecord
100
AcDbLinetypeTableRecord
  2
BORDERX2
 70
     0
  3
Border (2x) ____  ____  .  ____  ____  .  ___
 72
    65
 73
     6
 40
88.9
 49
25.4
 74
     0
 49
-12.7
 74
     0
 49
25.4
 74
     0
 49
-12.7
 74
     0
 49
0.0
 74
     0
 49
-12.7
 74
     0
  0
LTYPE
  5
46
330
5
100
AcDbSymbolTableRecord
100
AcDbLinetypeTableRecord
  2
CENTER
 70
     0
  3
Center ____ _ ____ _ ____ _ ____ _ ____ _ ____
 72
    65
 73
     4
 40
50.8
 49
31.75
 74
     0
 49
-6.349999999999999
 74
     0
 49
6.349999999999999
 74
     0
 49
-6.349999999999999
 74
     0
  0
LTYPE
  5
47
330
5
100
AcDbSymbolTableRecord
100
AcDbLinetypeTableRecord
  2
CENTER2
 70
     0
  3
Center (.5x) ___ _ ___ _ ___ _ ___ _ ___ _ ___
 72
    65
 73
     4
 40
28.575
 49
19.05
 74
     0
 49
-3.174999999999999
 74
     0
 49
3.174999999999999
 74
     0
 49
-3.174999999999999
 74
     0
  0
LTYPE
  5
48
330
5
100
AcDbSymbolTableRecord
100
AcDbLinetypeTableRecord
  2
CENTERX2
 70
     0
  3
Center (2x) ________  __  ________  __  _____
 72
    65
 73
     4
 40
101.6
 49
63.5
 74
     0
 49
-12.7
 74
     0
 49
12.7
 74
     0
 49
-12.7
 74
     0
  0
LTYPE
  5
49
330
5
100
AcDbSymbolTableRecord
100
AcDbLinetypeTableRecord
  2
DASHDOT
 70
     0
  3
Dash dot __ . __ . __ . __ . __ . __ . __ . __
 72
    65
 73
     4
 40
25.4
 49
12.7
 74
     0
 49
-6.349999999999999
 74
     0
 49
0.0
 74
     0
 49
-6.349999999999999
 74
     0
  0
LTYPE
  5
4A
330
5
100
AcDbSymbolTableRecord
100
AcDbLinetypeTableRecord
  2
DASHDOT2
 70
     0
  3
Dash dot (.5x) _._._._._._._._._._._._._._._.
 72
    65
 73
     4
 40
12.7
 49
6.349999999999999
 74
     0
 49
-3.174999999999999
 74
     0
 49
0.0
 74
     0
 49
-3.174999999999999
 74
     0
  0
LTYPE
  5
4B
330
5
100
AcDbSymbolTableRecord
100
AcDbLinetypeTableRecord
  2
DASHDOTX2
 70
     0
  3
Dash dot (2x) ____  .  ____  .  ____  .  ___
 72
    65
 73
     4
 40
50.8
 49
25.4
 74
     0
 49
-12.7
 74
     0
 49
0.0
 74
     0
 49
-12.7
 74
     0
  0
LTYPE
  5
4C
330
5
100
AcDbSymbolTableRecord
100
AcDbLinetypeTableRecord
  2
DASHED
 70
     0
  3
Dashed __ __ __ __ __ __ __ __ __ __ __ __ __ _
 72
    65
 73
     2
 40
19.05
 49
12.7
 74
     0
 49
-6.349999999999999
 74
     0
  0
LTYPE
  5
4D
330
5
100
AcDbSymbolTableRecord
100
AcDbLinetypeTableRecord
  2
DASHED2
 70
     0
  3
Dashed (.5x) _ _ _ _ _ _ _ _ _ _ _ _ _ _ _ _ _
 72
    65
 73
     2
 40
9.524999999999998
 49
6.349999999999999
 74
     0
 49
-3.174999999999999
 74
     0
  0
LTYPE
  5
4E
330
5
100
AcDbSymbolTableRecord
100
AcDbLinetypeTableRecord
  2
DASHEDX2
 70
     0
  3
Dashed (2x) ____  ____  ____  ____  ____  ___
 72
    65
 73
     2
 40
38.1
 49
25.4
 74
     0
 49
-12.7
 74
     0
  0
LTYPE
  5
4F
330
5
100
AcDbSymbolTableRecord
100
AcDbLinetypeTableRecord
  2
DIVIDE
 70
     0
  3
Divide ____ . . ____ . . ____ . . ____ . . ____
 72
    65
 73
     6
 40
31.75
 49
12.7
 74
     0
 49
-6.349999999999999
 74
     0
 49
0.0
 74
     0
 49
-6.349999999999999
 74
     0
 49
0.0
 74
     0
 49
-6.349999999999999
 74
     0
  0
LTYPE
  5
50
330
5
100
AcDbSymbolTableRecord
100
AcDbLinetypeTableRecord
  2
DIVIDE2
 70
     0
  3
Divide (.5x) __..__..__..__..__..__..__..__.._
 72
    65
 73
     6
 40
15.875
 49
6.349999999999999
 74
     0
 49
-3.174999999999999
 74
     0
 49
0.0
 74
     0
 49
-3.174999999999999
 74
     0
 49
0.0
 74
     0
 49
-3.174999999999999
 74
     0
  0
LTYPE
  5
51
330
5
100
AcDbSymbolTableRecord
100
AcDbLinetypeTableRecord
  2
DIVIDEX2
 70
     0
  3
Divide (2x) ________  .  .  ________  .  .  _
 72
    65
 73
     6
 40
63.49999999999999
 49
25.4
 74
     0
 49
-12.7
 74
     0
 49
0.0
 74
     0
 49
-12.7
 74
     0
 49
0.0
 74
     0
 49
-12.7
 74
     0
  0
LTYPE
  5
52
330
5
100
AcDbSymbolTableRecord
100
AcDbLinetypeTableRecord
  2
DOT
 70
     0
  3
Dot . . . . . . . . . . . . . . . . . . . . . .
 72
    65
 73
     2
 40
6.349999999999999
 49
0.0
 74
     0
 49
-6.349999999999999
 74
     0
  0
LTYPE
  5
53
330
5
100
AcDbSymbolTableRecord
100
AcDbLinetypeTableRecord
  2
DOT2
 70
     0
  3
Dot (.5x) .....................................
 72
    65
 73
     2
 40
3.174999999999999
 49
0.0
 74
     0
 49
-3.174999999999999
 74
     0
  0
LTYPE
  5
54
330
5
100
AcDbSymbolTableRecord
100
AcDbLinetypeTableRecord
  2
DOTX2
 70
     0
  3
Dot (2x) .  .  .  .  .  .  .  .  .  .  .  .  . 
 72
    65
 73
     2
 40
12.7
 49
0.0
 74
     0
 49
-12.7
 74
     0
  0
LTYPE
  5
55
330
5
100
AcDbSymbolTableRecord
100
AcDbLinetypeTableRecord
  2
FENCELINE1
 70
     0
  3
Fenceline circle ----0-----0----0-----0----0---
 72
    65
 73
     4
 40
36.83
 49
6.349999999999999
 74
     0
 49
-2.54
 74
     4
 75
   133
340
33
 46
2.54
 50
0.0
 44
-2.54
 45
0.0
 49
-2.54
 74
     0
 49
25.4
 74
     0
  0
LTYPE
  5
56
330
5
100
AcDbSymbolTableRecord
100
AcDbLinetypeTableRecord
  2
FENCELINE2
 70
     0
  3
Fenceline square ----[]-----[]----[]-----[]----
 72
    65
 73
     4
 40
36.83
 49
6.349999999999999
 74
     0
 49
-2.54
 74
     4
 75
   132
340
33
 46
2.54
 50
0.0
 44
-2.54
 45
0.0
 49
-2.54
 74
     0
 49
25.4
 74
     0
  0
LTYPE
  5
57
330
5
100
AcDbSymbolTableRecord
100
AcDbLinetypeTableRecord
  2
GAS_LINE
 70
     0
  3
Gas line ----GAS----GAS----GAS----GAS----GAS---
 72
    65
 73
     3
 40
24.13
 49
12.7
 74
     0
 49
-5.08
 74
     2
 75
     0
340
11
 46
2.54
 50
0.0
 44
-2.54
 45
-1.27
  9
GAS
 49
-6.349999999999999
 74
     0
  0
LTYPE
  5
58
330
5
100
AcDbSymbolTableRecord
100
AcDbLinetypeTableRecord
  2
HIDDEN
 70
     0
  3
Hidden __ __ __ __ __ __ __ __ __ __ __ __ __ _
 72
    65
 73
     2
 40
9.524999999999998
 49
6.349999999999999
 74
     0
 49
-3.174999999999999
 74
     0
  0
LTYPE
  5
59
330
5
100
AcDbSymbolTableRecord
100
AcDbLinetypeTableRecord
  2
HIDDEN2
 70
     0
  3
Hidden (.5x) _ _ _ _ _ _ _ _ _ _ _ _ _ _ _ _ _
 72
    65
 73
     2
 40
4.762499999999999
 49
3.174999999999999
 74
     0
 49
-1.587499999999999
 74
     0
  0
LTYPE
  5
5A
330
5
100
AcDbSymbolTableRecord
100
AcDbLinetypeTableRecord
  2
HIDDENX2
 70
     0
  3
Hidden (2x) ____ ____ ____ ____ ____ ____ ____
 72
    65
 73
     2
 40
19.05
 49
12.7
 74
     0
 49
-6.349999999999999
 74
     0
  0
LTYPE
  5
5B
330
5
100
AcDbSymbolTableRecord
100
AcDbLinetypeTableRecord
  2
HOT_WATER_SUPPLY
 70
     0
  3
Hot water supply ---- HW ---- HW ---- HW ----
 72
    65
 73
     3
 40
22.86
 49
12.7
 74
     0
 49
-5.08
 74
     2
 75
     0
340
11
 46
2.54
 50
0.0
 44
-2.54
 45
-1.27
  9
HW
 49
-5.08
 74
     0
  0
LTYPE
  5
5C
330
5
100
AcDbSymbolTableRecord
100
AcDbLinetypeTableRecord
  2
PHANTOM
 70
     0
  3
Phantom ______  __  __  ______  __  __  ______
 72
    65
 73
     6
 40
63.5
 49
31.75
 74
     0
 49
-6.349999999999999
 74
     0
 49
6.349999999999999
 74
     0
 49
-6.349999999999999
 74
     0
 49
6.349999999999999
 74
     0
 49
-6.349999999999999
 74
     0
  0
LTYPE
  5
5D
330
5
100
AcDbSymbolTableRecord
100
AcDbLinetypeTableRecord
  2
PHANTOM2
 70
     0
  3
Phantom (.5x) ___ _ _ ___ _ _ ___ _ _ ___ _ _
 72
    65
 73
     6
 40
31.75
 49
15.875
 74
     0
 49
-3.174999999999999
 74
     0
 49
3.174999999999999
 74
     0
 49
-3.174999999999999
 74
     0
 49
3.174999999999999
 74
     0
 49
-3.174999999999999
 74
     0
  0
LTYPE
  5
5E
330
5
100
AcDbSymbolTableRecord
100
AcDbLinetypeTableRecord
  2
PHANTOMX2
 70
     0
  3
Phantom (2x) ____________    ____    ____   _
 72
    65
 73
     6
 40
127.0
 49
63.5
 74
     0
 49
-12.7
 74
     0
 49
12.7
 74
     0
 49
-12.7
 74
     0
 49
12.7
 74
     0
 49
-12.7
 74
     0
  0
LTYPE
  5
5F
330
5
100
AcDbSymbolTableRecord
100
AcDbLinetypeTableRecord
  2
TRACKS
 70
     0
  3
Tracks -|-|-|-|-|-|-|-|-|-|-|-|-|-|-|-|-|-|-|-|
 72
    65
 73
     2
 40
7.62
 49
3.81
 74
     4
 75
   130
340
33
 46
6.349999999999999
 50
0.0
 44
0.0
 45
0.0
 49
3.81
 74
     0
  0
LTYPE
  5
60
330
5
100
AcDbSymbolTableRecord
100
AcDbLinetypeTableRecord
  2
ZIGZAG
 70
     0
  3
Zig zag /\/\/\/\/\/\/\/\/\/\/\/\/\/\/\/\/\/\/\/
 72
    65
 73
     4
 40
20.32254
 49
0.00254
 74
     0
 49
-5.08
 74
     4
 75
   131
340
33
 46
5.08
 50
0.0
 44
-5.08
 45
0.0
 49
-10.16
 74
     4
 75
   131
340
33
 46
5.08
 50
180.0
 44
5.08
 45
0.0
 49
-5.08
 74
     0
  0
ENDTAB
  0
TABLE
  2
LAYER
  5
2
102
{ACAD_XDICTIONARY
360
2687
102
}
330
0
100
AcDbSymbolTable
 70
     9
  0
LAYER
  5
10
330
2
100
AcDbSymbolTableRecord
100
AcDbLayerTableRecord
  2
0
 70
     0
 62
     7
  6
Continuous
370
    -3
390
F
  0
LAYER
  5
C3
330
2
100
AcDbSymbolTableRecord
100
AcDbLayerTableRecord
  2
Defpoints
 70
     0
 62
     7
  6
Continuous
290
     0
370
    -3
390
F
  0
LAYER
  5
256
330
2
100
AcDbSymbolTableRecord
100
AcDbLayerTableRecord
  2
センター
 70
     0
 62
     7
  6
CENTER2
370
    18
390
F
  0
LAYER
  5
268
330
2
100
AcDbSymbolTableRecord
100
AcDbLayerTableRecord
  2
実形
 70
     0
 62
     7
  6
Continuous
370
    -3
390
F
  0
LAYER
  5
269
330
2
100
AcDbSymbolTableRecord
100
AcDbLayerTableRecord
  2
補助
 70
     0
 62
     7
  6
Continuous
370
    -3
390
F
  0
LAYER
  5
26A
330
2
100
AcDbSymbolTableRecord
100
AcDbLayerTableRecord
  2
寸法
 70
     0
 62
     7
  6
Continuous
370
    18
390
F
  0
LAYER
  5
26B
330
2
100
AcDbSymbolTableRecord
100
AcDbLayerTableRecord
  2
ハッチング
 70
     0
 62
     7
  6
Continuous
370
    18
390
F
  0
LAYER
  5
26D
330
2
100
AcDbSymbolTableRecord
100
AcDbLayerTableRecord
  2
文字
 70
     0
 62
     7
  6
Continuous
370
    -3
390
F
  0
LAYER
  5
1C8D
330
2
100
AcDbSymbolTableRecord
100
AcDbLayerTableRecord
  2
Cen
 70
     0
 62
     7
  6
CENTER2
370
    15
390
F
  0
ENDTAB
  0
TABLE
  2
STYLE
  5
3
330
0
100
AcDbSymbolTable
 70
     3
  0
STYLE
  5
11
330
3
100
AcDbSymbolTableRecord
100
AcDbTextStyleTableRecord
  2
Standard
 70
     0
 40
0.0
 41
1.0
 50
0.0
 71
     0
 42
25.0
  3
txt.shx
  4
bigfont.shx
  0
STYLE
  5
33
330
3
100
AcDbSymbolTableRecord
100
AcDbTextStyleTableRecord
  2

 70
     1
 40
0.0
 41
1.0
 50
0.0
 71
     0
 42
2.5
  3
ltypeshp.shx
  4

  0
STYLE
  5
271A
330
3
100
AcDbSymbolTableRecord
100
AcDbTextStyleTableRecord
  2
明朝
 70
     0
 40
0.0
 41
1.0
 50
0.0
 71
     0
 42
25.0
  3
MS Mincho.ttf
  4

1001
ACAD
1000
MS Mincho
1071
    32785
  0
ENDTAB
  0
TABLE
  2
VIEW
  5
6
330
0
100
AcDbSymbolTable
 70
     0
  0
ENDTAB
  0
TABLE
  2
UCS
  5
7
330
0
100
AcDbSymbolTable
 70
     0
  0
ENDTAB
  0
TABLE
  2
APPID
  5
9
330
0
100
AcDbSymbolTable
 70
     1
  0
APPID
  5
12
330
9
100
AcDbSymbolTableRecord
100
AcDbRegAppTableRecord
  2
ACAD
 70
     0
  0
ENDTAB
  0
TABLE
  2
DIMSTYLE
  5
A
330
0
100
AcDbSymbolTable
 70
     2
100
AcDbDimStyleTable
 71
     1
340
27
  0
DIMSTYLE
105
27
102
{ACAD_REACTORS
330
12A2
330
12E0
330
12ED
330
132F
330
134E
330
1472
330
13C9
330
1382
330
1D42
330
1DCB
330
1DF3
330
1DF4
330
203C
330
2049
330
1307
330
225E
102
}
330
A
100
AcDbSymbolTableRecord
100
AcDbDimStyleTableRecord
  2
ISO-25
 70
     0
 41
35.0
 42
65.0
 43
3.75
 44
0.0
 73
     0
 74
     0
 77
     1
 78
     8
140
25.0
141
2.5
143
0.03937007874016
147
6.25
171
     3
172
     1
271
     2
272
     2
274
     3
283
     0
284
     8
340
11
341
DA
342
D0
371
    15
372
    15
  0
DIMSTYLE
105
271B
330
A
100
AcDbSymbolTableRecord
100
AcDbDimStyleTableRecord
  2
ISO-25　ｂ
 70
     0
 41
35.0
 42
65.0
 43
3.75
 44
0.0
 73
     0
 74
     0
 77
     1
 78
     8
140
25.0
141
2.5
143
0.03937007874016
147
6.25
171
     3
172
     1
271
     2
272
     2
274
     3
279
     2
283
     0
284
     8
340
11
341
DA
342
D0
371
    18
372
    18
  0
ENDTAB
  0
TABLE
  2
BLOCK_RECORD
  5
1
330
0
100
AcDbSymbolTable
 70
    20
  0
BLOCK_RECORD
  5
1F
102
{ACAD_XDICTIONARY
360
1E35
102
}
330
1
100
AcDbSymbolTableRecord
100
AcDbBlockTableRecord
  2
*Model_Space
340
22
  0
BLOCK_RECORD
  5
1B
330
1
100
AcDbSymbolTableRecord
100
AcDbBlockTableRecord
  2
*Paper_Space
340
1E
  0
BLOCK_RECORD
  5
23
330
1
100
AcDbSymbolTableRecord
100
AcDbBlockTableRecord
  2
*Paper_Space0
340
26
  0
BLOCK_RECORD
  5
D0
330
1
100
AcDbSymbolTableRecord
100
AcDbBlockTableRecord
  2
_DotSmall
340
0
102
{BLKREFS
331
268D
331
268E
331
2696
331
2697
331
269F
331
26A0
331
26A8
331
26A9
331
26B1
331
26B2
331
26BA
331
26BB
331
26C3
331
26C4
331
26CD
331
26CE
331
26D6
331
26D7
331
26DF
331
26E0
331
26E8
331
26E9
331
26F1
331
26F2
331
26FA
331
26FB
331
2702
331
2703
331
270C
331
270D
331
2715
331
2716
102
}
  0
BLOCK_RECORD
  5
D4
330
1
100
AcDbSymbolTableRecord
100
AcDbBlockTableRecord
  2
_Origin2
340
0
  0
BLOCK_RECORD
  5
DA
330
1
100
AcDbSymbolTableRecord
100
AcDbBlockTableRecord
  2
_Open30
340
0
  0
BLOCK_RECORD
  5
12A3
330
1
100
AcDbSymbolTableRecord
100
AcDbBlockTableRecord
  2
*D4
340
0
  0
BLOCK_RECORD
  5
12E1
330
1
100
AcDbSymbolTableRecord
100
AcDbBlockTableRecord
  2
*D5
340
0
  0
BLOCK_RECORD
  5
12EE
330
1
100
AcDbSymbolTableRecord
100
AcDbBlockTableRecord
  2
*D6
340
0
  0
BLOCK_RECORD
  5
1308
330
1
100
AcDbSymbolTableRecord
100
AcDbBlockTableRecord
  2
*D7
340
0
  0
BLOCK_RECORD
  5
1330
330
1
100
AcDbSymbolTableRecord
100
AcDbBlockTableRecord
  2
*D8
340
0
  0
BLOCK_RECORD
  5
134F
330
1
100
AcDbSymbolTableRecord
100
AcDbBlockTableRecord
  2
*D9
340
0
  0
BLOCK_RECORD
  5
1383
330
1
100
AcDbSymbolTableRecord
100
AcDbBlockTableRecord
  2
*D10
340
0
  0
BLOCK_RECORD
  5
13CA
330
1
100
AcDbSymbolTableRecord
100
AcDbBlockTableRecord
  2
*D11
340
0
  0
BLOCK_RECORD
  5
1473
330
1
100
AcDbSymbolTableRecord
100
AcDbBlockTableRecord
  2
*D12
340
0
  0
BLOCK_RECORD
  5
1D43
330
1
100
AcDbSymbolTableRecord
100
AcDbBlockTableRecord
  2
*D13
340
0
  0
BLOCK_RECORD
  5
1DCC
330
1
100
AcDbSymbolTableRecord
100
AcDbBlockTableRecord
  2
*D14
340
0
  0
BLOCK_RECORD
  5
1DFF
330
1
100
AcDbSymbolTableRecord
100
AcDbBlockTableRecord
  2
*D15
340
0
  0
BLOCK_RECORD
  5
1E0B
330
1
100
AcDbSymbolTableRecord
100
AcDbBlockTableRecord
  2
*D16
340
0
  0
BLOCK_RECORD
  5
203D
330
1
100
AcDbSymbolTableRecord
100
AcDbBlockTableRecord
  2
*D17
340
0
  0
BLOCK_RECORD
  5
204A
330
1
100
AcDbSymbolTableRecord
100
AcDbBlockTableRecord
  2
*D18
340
0
  0
BLOCK_RECORD
  5
225F
330
1
100
AcDbSymbolTableRecord
100
AcDbBlockTableRecord
  2
*D19
340
0
  0
ENDTAB
  0
ENDSEC
  0
SECTION
  2
BLOCKS
  0
BLOCK
  5
20
330
1F
100
AcDbEntity
  8
0
100
AcDbBlockBegin
  2
*Model_Space
 70
     0
 10
0.0
 20
0.0
 30
0.0
  3
*Model_Space
  1

  0
ENDBLK
  5
21
330
1F
100
AcDbEntity
  8
0
100
AcDbBlockEnd
  0
BLOCK
  5
1C
330
1B
100
AcDbEntity
 67
     1
  8
0
100
AcDbBlockBegin
  2
*Paper_Space
 70
     0
 10
0.0
 20
0.0
 30
0.0
  3
*Paper_Space
  1

  0
ENDBLK
  5
1D
330
1B
100
AcDbEntity
 67
     1
  8
0
100
AcDbBlockEnd
  0
BLOCK
  5
24
330
23
100
AcDbEntity
  8
0
100
AcDbBlockBegin
  2
*Paper_Space0
 70
     0
 10
0.0
 20
0.0
 30
0.0
  3
*Paper_Space0
  1

  0
ENDBLK
  5
25
330
23
100
AcDbEntity
  8
0
100
AcDbBlockEnd
  0
BLOCK
  5
D2
330
D0
100
AcDbEntity
  8
0
100
AcDbBlockBegin
  2
_DotSmall
 70
     0
 10
0.0
 20
0.0
 30
0.0
  3
_DotSmall
  1

  0
LWPOLYLINE
  5
D1
330
D0
100
AcDbEntity
  8
0
 62
     0
100
AcDbPolyline
 90
        2
 70
     1
 43
0.5
 10
-0.0625
 20
0.0
 42
1.0
 10
0.0625
 20
0.0
 42
1.0
  0
ENDBLK
  5
D3
330
D0
100
AcDbEntity
  8
0
100
AcDbBlockEnd
  0
BLOCK
  5
D8
330
D4
100
AcDbEntity
  8
0
100
AcDbBlockBegin
  2
_Origin2
 70
     0
 10
0.0
 20
0.0
 30
0.0
  3
_Origin2
  1

  0
CIRCLE
  5
D5
330
D4
100
AcDbEntity
  8
0
 62
     0
370
    -2
100
AcDbCircle
 10
0.0
 20
0.0
 30
0.0
 40
0.5
  0
CIRCLE
  5
D6
330
D4
100
AcDbEntity
  8
0
 62
     0
370
    -2
100
AcDbCircle
 10
0.0
 20
0.0
 30
0.0
 40
0.25
  0
LINE
  5
D7
330
D4
100
AcDbEntity
  8
0
 62
     0
370
    -2
100
AcDbLine
 10
-0.5
 20
0.0
 30
0.0
 11
-1.0
 21
0.0
 31
0.0
  0
ENDBLK
  5
D9
330
D4
100
AcDbEntity
  8
0
100
AcDbBlockEnd
  0
BLOCK
  5
DE
330
DA
100
AcDbEntity
  8
0
100
AcDbBlockBegin
  2
_Open30
 70
     0
 10
0.0
 20
0.0
 30
0.0
  3
_Open30
  1

  0
LINE
  5
DB
330
DA
100
AcDbEntity
  8
0
 62
     0
370
    -2
100
AcDbLine
 10
-1.0
 20
0.26794919
 30
0.0
 11
0.0
 21
0.0
 31
0.0
  0
LINE
  5
DC
330
DA
100
AcDbEntity
  8
0
 62
     0
370
    -2
100
AcDbLine
 10
0.0
 20
0.0
 30
0.0
 11
-1.0
 21
-0.26794919
 31
0.0
  0
LINE
  5
DD
330
DA
100
AcDbEntity
  8
0
 62
     0
370
    -2
100
AcDbLine
 10
0.0
 20
0.0
 30
0.0
 11
-1.0
 21
0.0
 31
0.0
  0
ENDBLK
  5
DF
330
DA
100
AcDbEntity
  8
0
100
AcDbBlockEnd
  0
BLOCK
  5
12AE
330
12A3
100
AcDbEntity
  8
0
100
AcDbBlockBegin
  2
*D4
 70
     1
 10
0.0
 20
0.0
 30
0.0
  3
*D4
  1

  0
LINE
  5
26F6
330
12A3
100
AcDbEntity
  8
実形
 62
     0
370
    18
100
AcDbLine
 10
723.5936297894722
 20
1693.67545567602
 30
0.0
 11
633.9629018630796
 21
1693.67545567602
 31
0.0
  0
LINE
  5
26F7
330
12A3
100
AcDbEntity
  8
実形
 62
     0
370
    18
100
AcDbLine
 10
723.5936297894722
 20
1675.675455676019
 30
0.0
 11
633.9629018630796
 21
1675.675455676019
 31
0.0
  0
LINE
  5
26F8
330
12A3
100
AcDbEntity
  8
実形
 62
     0
370
    18
100
AcDbLine
 10
633.9629018630796
 20
1693.67545567602
 30
0.0
 11
633.9629018630796
 21
1675.675455676019
 31
0.0
  0
MTEXT
  5
26F9
330
12A3
100
AcDbEntity
  8
実形
 62
     0
100
AcDbMText
 10
622.4454173656495
 20
1729.428900627159
 30
0.0
 40
25.0
 41
0.0
 71
     5
 72
     1
  1
18
 11
0.0000000000000001
 21
1.0
 31
0.0
 73
     1
 44
1.0
1001
ACAD
1000
MTEXTBEGIN
1070
    73
1070
     1
1070
    44
1040
1.0
1070
    74
1070
     0
1000
MTEXTEND
  0
INSERT
  5
26FA
330
12A3
100
AcDbEntity
  8
実形
 62
     0
370
    18
100
AcDbBlockReference
  2
_DotSmall
 10
633.9629018630796
 20
1693.67545567602
 30
0.0
 41
35.0
 42
35.0
 43
35.0
 50
90.0
  0
INSERT
  5
26FB
330
12A3
100
AcDbEntity
  8
実形
 62
     0
370
    18
100
AcDbBlockReference
  2
_DotSmall
 10
633.9629018630796
 20
1675.675455676019
 30
0.0
 41
35.0
 42
35.0
 43
35.0
 50
270.0
  0
POINT
  5
26FC
330
12A3
100
AcDbEntity
  8
Defpoints
 62
     0
100
AcDbPoint
 10
788.5936297894723
 20
1693.67545567602
 30
0.0
  0
POINT
  5
26FD
330
12A3
100
AcDbEntity
  8
Defpoints
 62
     0
100
AcDbPoint
 10
788.5936297894723
 20
1675.675455676019
 30
0.0
  0
POINT
  5
26FE
330
12A3
100
AcDbEntity
  8
Defpoints
 62
     0
100
AcDbPoint
 10
633.9629018630796
 20
1675.675455676019
 30
0.0
  0
ENDBLK
  5
12AF
330
12A3
100
AcDbEntity
  8
0
100
AcDbBlockEnd
  0
BLOCK
  5
12EB
330
12E1
100
AcDbEntity
  8
0
100
AcDbBlockBegin
  2
*D5
 70
     1
 10
0.0
 20
0.0
 30
0.0
  3
*D5
  1

  0
LINE
  5
26ED
330
12E1
100
AcDbEntity
  8
実形
 62
     0
370
    18
100
AcDbLine
 10
723.5936297894722
 20
1675.675455676019
 30
0.0
 11
633.9629018630796
 21
1675.675455676019
 31
0.0
  0
LINE
  5
26EE
330
12E1
100
AcDbEntity
  8
実形
 62
     0
370
    18
100
AcDbLine
 10
723.5936297894722
 20
1648.675455676019
 30
0.0
 11
633.9629018630796
 21
1648.675455676019
 31
0.0
  0
LINE
  5
26EF
330
12E1
100
AcDbEntity
  8
実形
 62
     0
370
    18
100
AcDbLine
 10
633.9629018630796
 20
1675.675455676019
 30
0.0
 11
633.9629018630796
 21
1648.675455676019
 31
0.0
  0
MTEXT
  5
26F0
330
12E1
100
AcDbEntity
  8
実形
 62
     0
100
AcDbMText
 10
599.0352912291136
 20
1663.784087898912
 30
0.0
 40
25.0
 41
0.0
 71
     5
 72
     1
  1
27
 11
0.0000000000000001
 21
1.0
 31
0.0
 73
     1
 44
1.0
1001
ACAD
1000
MTEXTBEGIN
1070
    73
1070
     1
1070
    44
1040
1.0
1070
    74
1070
     0
1000
MTEXTEND
  0
INSERT
  5
26F1
330
12E1
100
AcDbEntity
  8
実形
 62
     0
370
    18
100
AcDbBlockReference
  2
_DotSmall
 10
633.9629018630796
 20
1675.675455676019
 30
0.0
 41
35.0
 42
35.0
 43
35.0
 50
90.0
  0
INSERT
  5
26F2
330
12E1
100
AcDbEntity
  8
実形
 62
     0
370
    18
100
AcDbBlockReference
  2
_DotSmall
 10
633.9629018630796
 20
1648.675455676019
 30
0.0
 41
35.0
 42
35.0
 43
35.0
 50
270.0
  0
POINT
  5
26F3
330
12E1
100
AcDbEntity
  8
Defpoints
 62
     0
100
AcDbPoint
 10
788.5936297894723
 20
1675.675455676019
 30
0.0
  0
POINT
  5
26F4
330
12E1
100
AcDbEntity
  8
Defpoints
 62
     0
100
AcDbPoint
 10
788.5936297894723
 20
1648.675455676019
 30
0.0
  0
POINT
  5
26F5
330
12E1
100
AcDbEntity
  8
Defpoints
 62
     0
100
AcDbPoint
 10
633.9629018630796
 20
1648.675455676019
 30
0.0
  0
ENDBLK
  5
12EC
330
12E1
100
AcDbEntity
  8
0
100
AcDbBlockEnd
  0
BLOCK
  5
12F8
330
12EE
100
AcDbEntity
  8
0
100
AcDbBlockBegin
  2
*D6
 70
     1
 10
0.0
 20
0.0
 30
0.0
  3
*D6
  1

  0
LINE
  5
26C0
330
12EE
100
AcDbEntity
  8
実形
 62
     0
370
    18
100
AcDbLine
 10
723.5936297894722
 20
1648.675455676019
 30
0.0
 11
633.9629018630796
 21
1648.675455676019
 31
0.0
  0
LINE
  5
26C1
330
12EE
100
AcDbEntity
  8
実形
 62
     0
370
    18
100
AcDbLine
 10
723.5936297894722
 20
1288.67545567602
 30
0.0
 11
633.9629018630796
 21
1288.67545567602
 31
0.0
  0
LINE
  5
26C2
330
12EE
100
AcDbEntity
  8
実形
 62
     0
370
    18
100
AcDbLine
 10
633.9629018630796
 20
1648.675455676019
 30
0.0
 11
633.9629018630796
 21
1288.67545567602
 31
0.0
  0
INSERT
  5
26C3
330
12EE
100
AcDbEntity
  8
実形
 62
     0
370
    18
100
AcDbBlockReference
  2
_DotSmall
 10
633.9629018630796
 20
1648.675455676019
 30
0.0
 41
35.0
 42
35.0
 43
35.0
 50
90.0
  0
INSERT
  5
26C4
330
12EE
100
AcDbEntity
  8
実形
 62
     0
370
    18
100
AcDbBlockReference
  2
_DotSmall
 10
633.9629018630796
 20
1288.67545567602
 30
0.0
 41
35.0
 42
35.0
 43
35.0
 50
270.0
  0
MTEXT
  5
26C5
330
12EE
100
AcDbEntity
  8
実形
 62
     0
100
AcDbMText
 10
615.2129018630794
 20
1468.67545567602
 30
0.0
 40
25.0
 41
0.0
 71
     5
 72
     1
  1
360
 11
0.0000000000000001
 21
1.0
 31
0.0
 73
     1
 44
1.0
1001
ACAD
1000
MTEXTBEGIN
1070
    73
1070
     1
1070
    44
1040
1.0
1070
    74
1070
     0
1000
MTEXTEND
  0
POINT
  5
26C6
330
12EE
100
AcDbEntity
  8
Defpoints
 62
     0
100
AcDbPoint
 10
788.5936297894723
 20
1648.675455676019
 30
0.0
  0
POINT
  5
26C7
330
12EE
100
AcDbEntity
  8
Defpoints
 62
     0
100
AcDbPoint
 10
788.5936297894723
 20
1288.67545567602
 30
0.0
  0
POINT
  5
26C8
330
12EE
100
AcDbEntity
  8
Defpoints
 62
     0
100
AcDbPoint
 10
633.9629018630796
 20
1288.67545567602
 30
0.0
  0
ENDBLK
  5
12F9
330
12EE
100
AcDbEntity
  8
0
100
AcDbBlockEnd
  0
BLOCK
  5
1312
330
1308
100
AcDbEntity
  8
0
100
AcDbBlockBegin
  2
*D7
 70
     1
 10
0.0
 20
0.0
 30
0.0
  3
*D7
  1

  0
LINE
  5
26D2
330
1308
100
AcDbEntity
  8
実形
 62
     0
370
    18
100
AcDbLine
 10
723.5936297894722
 20
1261.67545567602
 30
0.0
 11
633.9629018630796
 21
1261.67545567602
 31
0.0
  0
LINE
  5
26D3
330
1308
100
AcDbEntity
  8
実形
 62
     0
370
    18
100
AcDbLine
 10
723.5936297894722
 20
1243.67545567602
 30
0.0
 11
633.9629018630796
 21
1243.67545567602
 31
0.0
  0
LINE
  5
26D4
330
1308
100
AcDbEntity
  8
実形
 62
     0
370
    18
100
AcDbLine
 10
633.9629018630796
 20
1261.67545567602
 30
0.0
 11
633.9629018630796
 21
1243.67545567602
 31
0.0
  0
MTEXT
  5
26D5
330
1308
100
AcDbEntity
  8
実形
 62
     0
100
AcDbMText
 10
615.2129018630794
 20
1207.871871898906
 30
0.0
 40
25.0
 41
0.0
 71
     5
 72
     1
  1
18
 11
0.0000000000000001
 21
1.0
 31
0.0
 73
     1
 44
1.0
1001
ACAD
1000
MTEXTBEGIN
1070
    73
1070
     1
1070
    44
1040
1.0
1070
    74
1070
     0
1000
MTEXTEND
  0
INSERT
  5
26D6
330
1308
100
AcDbEntity
  8
実形
 62
     0
370
    18
100
AcDbBlockReference
  2
_DotSmall
 10
633.9629018630796
 20
1261.67545567602
 30
0.0
 41
35.0
 42
35.0
 43
35.0
 50
90.0
  0
INSERT
  5
26D7
330
1308
100
AcDbEntity
  8
実形
 62
     0
370
    18
100
AcDbBlockReference
  2
_DotSmall
 10
633.9629018630796
 20
1243.67545567602
 30
0.0
 41
35.0
 42
35.0
 43
35.0
 50
270.0
  0
POINT
  5
26D8
330
1308
100
AcDbEntity
  8
Defpoints
 62
     0
100
AcDbPoint
 10
788.5936297894723
 20
1261.67545567602
 30
0.0
  0
POINT
  5
26D9
330
1308
100
AcDbEntity
  8
Defpoints
 62
     0
100
AcDbPoint
 10
788.5936297894723
 20
1243.67545567602
 30
0.0
  0
POINT
  5
26DA
330
1308
100
AcDbEntity
  8
Defpoints
 62
     0
100
AcDbPoint
 10
633.9629018630796
 20
1243.67545567602
 30
0.0
  0
ENDBLK
  5
1313
330
1308
100
AcDbEntity
  8
0
100
AcDbBlockEnd
  0
BLOCK
  5
133A
330
1330
100
AcDbEntity
  8
0
100
AcDbBlockBegin
  2
*D8
 70
     1
 10
0.0
 20
0.0
 30
0.0
  3
*D8
  1

  0
LINE
  5
26B7
330
1330
100
AcDbEntity
  8
実形
 62
     0
370
    18
100
AcDbLine
 10
723.5936297894722
 20
1693.67545567602
 30
0.0
 11
560.2509594618124
 21
1693.67545567602
 31
0.0
  0
LINE
  5
26B8
330
1330
100
AcDbEntity
  8
実形
 62
     0
370
    18
100
AcDbLine
 10
723.5936297894722
 20
1243.67545567602
 30
0.0
 11
560.2509594618123
 21
1243.67545567602
 31
0.0
  0
LINE
  5
26B9
330
1330
100
AcDbEntity
  8
実形
 62
     0
370
    18
100
AcDbLine
 10
560.2509594618124
 20
1693.67545567602
 30
0.0
 11
560.2509594618123
 21
1243.67545567602
 31
0.0
  0
INSERT
  5
26BA
330
1330
100
AcDbEntity
  8
実形
 62
     0
370
    18
100
AcDbBlockReference
  2
_DotSmall
 10
560.2509594618124
 20
1693.67545567602
 30
0.0
 41
35.0
 42
35.0
 43
35.0
 50
90.0
  0
INSERT
  5
26BB
330
1330
100
AcDbEntity
  8
実形
 62
     0
370
    18
100
AcDbBlockReference
  2
_DotSmall
 10
560.2509594618123
 20
1243.67545567602
 30
0.0
 41
35.0
 42
35.0
 43
35.0
 50
270.0
  0
MTEXT
  5
26BC
330
1330
100
AcDbEntity
  8
実形
 62
     0
100
AcDbMText
 10
541.5009594618121
 20
1468.67545567602
 30
0.0
 40
25.0
 41
0.0
 71
     5
 72
     1
  1
450
 11
0.0000000000000001
 21
1.0
 31
0.0
 73
     1
 44
1.0
1001
ACAD
1000
MTEXTBEGIN
1070
    73
1070
     1
1070
    44
1040
1.0
1070
    74
1070
     0
1000
MTEXTEND
  0
POINT
  5
26BD
330
1330
100
AcDbEntity
  8
Defpoints
 62
     0
100
AcDbPoint
 10
788.5936297894723
 20
1693.67545567602
 30
0.0
  0
POINT
  5
26BE
330
1330
100
AcDbEntity
  8
Defpoints
 62
     0
100
AcDbPoint
 10
788.5936297894723
 20
1243.67545567602
 30
0.0
  0
POINT
  5
26BF
330
1330
100
AcDbEntity
  8
Defpoints
 62
     0
100
AcDbPoint
 10
560.2509594618123
 20
1243.67545567602
 30
0.0
  0
ENDBLK
  5
133B
330
1330
100
AcDbEntity
  8
0
100
AcDbBlockEnd
  0
BLOCK
  5
135A
330
134F
100
AcDbEntity
  8
0
100
AcDbBlockBegin
  2
*D9
 70
     1
 10
0.0
 20
0.0
 30
0.0
  3
*D9
  1

  0
LINE
  5
26E4
330
134F
100
AcDbEntity
  8
実形
 62
     0
370
    18
100
AcDbLine
 10
788.5936297894723
 20
1178.675455676019
 30
0.0
 11
788.5936297894723
 21
1132.290944394732
 31
0.0
  0
LINE
  5
26E5
330
134F
100
AcDbEntity
  8
実形
 62
     0
370
    18
100
AcDbLine
 10
806.5936297894722
 20
1178.675455676019
 30
0.0
 11
806.5936297894722
 21
1132.290944394732
 31
0.0
  0
LINE
  5
26E6
330
134F
100
AcDbEntity
  8
実形
 62
     0
370
    18
100
AcDbLine
 10
788.5936297894723
 20
1132.290944394732
 30
0.0
 11
806.5936297894722
 21
1132.290944394732
 31
0.0
  0
MTEXT
  5
26E7
330
134F
100
AcDbEntity
  8
実形
 62
     0
100
AcDbMText
 10
752.8350914612283
 20
1143.70353727191
 30
0.0
 40
25.0
 41
0.0
 71
     5
 72
     1
  1
18
 73
     1
 44
1.0
1001
ACAD
1000
MTEXTBEGIN
1070
    73
1070
     1
1070
    44
1040
1.0
1070
    74
1070
     0
1000
MTEXTEND
  0
INSERT
  5
26E8
330
134F
100
AcDbEntity
  8
実形
 62
     0
370
    18
100
AcDbBlockReference
  2
_DotSmall
 10
788.5936297894723
 20
1132.290944394732
 30
0.0
 41
35.0
 42
35.0
 43
35.0
 50
180.0
  0
INSERT
  5
26E9
330
134F
100
AcDbEntity
  8
実形
 62
     0
370
    18
100
AcDbBlockReference
  2
_DotSmall
 10
806.5936297894722
 20
1132.290944394732
 30
0.0
 41
35.0
 42
35.0
 43
35.0
  0
POINT
  5
26EA
330
134F
100
AcDbEntity
  8
Defpoints
 62
     0
100
AcDbPoint
 10
788.5936297894723
 20
1243.67545567602
 30
0.0
  0
POINT
  5
26EB
330
134F
100
AcDbEntity
  8
Defpoints
 62
     0
100
AcDbPoint
 10
806.5936297894722
 20
1243.67545567602
 30
0.0
  0
POINT
  5
26EC
330
134F
100
AcDbEntity
  8
Defpoints
 62
     0
100
AcDbPoint
 10
806.5936297894722
 20
1132.290944394732
 30
0.0
  0
ENDBLK
  5
135B
330
134F
100
AcDbEntity
  8
0
100
AcDbBlockEnd
  0
BLOCK
  5
138F
330
1383
100
AcDbEntity
  8
0
100
AcDbBlockBegin
  2
*D10
 70
     1
 10
0.0
 20
0.0
 30
0.0
  3
*D10
  1

  0
LINE
  5
26DB
330
1383
100
AcDbEntity
  8
実形
 62
     0
370
    18
100
AcDbLine
 10
806.5936297894722
 20
1178.675455676019
 30
0.0
 11
806.5936297894722
 21
1132.290944394732
 31
0.0
  0
LINE
  5
26DC
330
1383
100
AcDbEntity
  8
実形
 62
     0
370
    18
100
AcDbLine
 10
833.5936297894722
 20
1178.675455676019
 30
0.0
 11
833.5936297894722
 21
1132.290944394732
 31
0.0
  0
LINE
  5
26DD
330
1383
100
AcDbEntity
  8
実形
 62
     0
370
    18
100
AcDbLine
 10
806.5936297894722
 20
1132.290944394732
 30
0.0
 11
833.5936297894722
 21
1132.290944394732
 31
0.0
  0
MTEXT
  5
26DE
330
1383
100
AcDbEntity
  8
実形
 62
     0
100
AcDbMText
 10
821.3618198663544
 20
1206.127874002564
 30
0.0
 40
25.0
 41
0.0
 71
     5
 72
     1
  1
27
 73
     1
 44
1.0
1001
ACAD
1000
MTEXTBEGIN
1070
    73
1070
     1
1070
    44
1040
1.0
1070
    74
1070
     0
1000
MTEXTEND
  0
INSERT
  5
26DF
330
1383
100
AcDbEntity
  8
実形
 62
     0
370
    18
100
AcDbBlockReference
  2
_DotSmall
 10
806.5936297894722
 20
1132.290944394732
 30
0.0
 41
35.0
 42
35.0
 43
35.0
 50
180.0
  0
INSERT
  5
26E0
330
1383
100
AcDbEntity
  8
実形
 62
     0
370
    18
100
AcDbBlockReference
  2
_DotSmall
 10
833.5936297894722
 20
1132.290944394732
 30
0.0
 41
35.0
 42
35.0
 43
35.0
  0
POINT
  5
26E1
330
1383
100
AcDbEntity
  8
Defpoints
 62
     0
100
AcDbPoint
 10
806.5936297894722
 20
1243.67545567602
 30
0.0
  0
POINT
  5
26E2
330
1383
100
AcDbEntity
  8
Defpoints
 62
     0
100
AcDbPoint
 10
833.5936297894722
 20
1243.67545567602
 30
0.0
  0
POINT
  5
26E3
330
1383
100
AcDbEntity
  8
Defpoints
 62
     0
100
AcDbPoint
 10
833.5936297894722
 20
1132.290944394732
 30
0.0
  0
ENDBLK
  5
1390
330
1383
100
AcDbEntity
  8
0
100
AcDbBlockEnd
  0
BLOCK
  5
13D6
330
13CA
100
AcDbEntity
  8
0
100
AcDbBlockBegin
  2
*D11
 70
     1
 10
0.0
 20
0.0
 30
0.0
  3
*D11
  1

  0
LINE
  5
2711
330
13CA
100
AcDbEntity
  8
実形
 62
     0
370
    18
100
AcDbLine
 10
1300.593629789472
 20
1178.675455676019
 30
0.0
 11
1300.593629789472
 21
1132.290944394732
 31
0.0
  0
LINE
  5
2712
330
13CA
100
AcDbEntity
  8
実形
 62
     0
370
    18
100
AcDbLine
 10
1318.593629789472
 20
1178.675455676019
 30
0.0
 11
1318.593629789472
 21
1132.290944394732
 31
0.0
  0
LINE
  5
2713
330
13CA
100
AcDbEntity
  8
実形
 62
     0
370
    18
100
AcDbLine
 10
1300.593629789472
 20
1132.290944394732
 30
0.0
 11
1318.593629789472
 21
1132.290944394732
 31
0.0
  0
MTEXT
  5
2714
330
13CA
100
AcDbEntity
  8
実形
 62
     0
100
AcDbMText
 10
1353.473923762472
 20
1139.138497208834
 30
0.0
 40
25.0
 41
0.0
 71
     5
 72
     1
  1
18
 73
     1
 44
1.0
1001
ACAD
1000
MTEXTBEGIN
1070
    73
1070
     1
1070
    44
1040
1.0
1070
    74
1070
     0
1000
MTEXTEND
  0
INSERT
  5
2715
330
13CA
100
AcDbEntity
  8
実形
 62
     0
370
    18
100
AcDbBlockReference
  2
_DotSmall
 10
1300.593629789472
 20
1132.290944394732
 30
0.0
 41
35.0
 42
35.0
 43
35.0
 50
180.0
  0
INSERT
  5
2716
330
13CA
100
AcDbEntity
  8
実形
 62
     0
370
    18
100
AcDbBlockReference
  2
_DotSmall
 10
1318.593629789472
 20
1132.290944394732
 30
0.0
 41
35.0
 42
35.0
 43
35.0
  0
POINT
  5
2717
330
13CA
100
AcDbEntity
  8
Defpoints
 62
     0
100
AcDbPoint
 10
1300.593629789472
 20
1243.67545567602
 30
0.0
  0
POINT
  5
2718
330
13CA
100
AcDbEntity
  8
Defpoints
 62
     0
100
AcDbPoint
 10
1318.593629789472
 20
1243.67545567602
 30
0.0
  0
POINT
  5
2719
330
13CA
100
AcDbEntity
  8
Defpoints
 62
     0
100
AcDbPoint
 10
1318.593629789472
 20
1132.290944394732
 30
0.0
  0
ENDBLK
  5
13D7
330
13CA
100
AcDbEntity
  8
0
100
AcDbBlockEnd
  0
BLOCK
  5
147D
330
1473
100
AcDbEntity
  8
0
100
AcDbBlockBegin
  2
*D12
 70
     1
 10
0.0
 20
0.0
 30
0.0
  3
*D12
  1

  0
LINE
  5
26AE
330
1473
100
AcDbEntity
  8
実形
 62
     0
370
    18
100
AcDbLine
 10
788.5936297894723
 20
1178.675455676019
 30
0.0
 11
788.5936297894723
 21
1052.402794254484
 31
0.0
  0
LINE
  5
26AF
330
1473
100
AcDbEntity
  8
実形
 62
     0
370
    18
100
AcDbLine
 10
1318.593629789472
 20
1178.675455676019
 30
0.0
 11
1318.593629789472
 21
1052.402794254484
 31
0.0
  0
LINE
  5
26B0
330
1473
100
AcDbEntity
  8
実形
 62
     0
370
    18
100
AcDbLine
 10
788.5936297894723
 20
1052.402794254484
 30
0.0
 11
1318.593629789472
 21
1052.402794254484
 31
0.0
  0
INSERT
  5
26B1
330
1473
100
AcDbEntity
  8
実形
 62
     0
370
    18
100
AcDbBlockReference
  2
_DotSmall
 10
788.5936297894723
 20
1052.402794254484
 30
0.0
 41
35.0
 42
35.0
 43
35.0
 50
180.0
  0
INSERT
  5
26B2
330
1473
100
AcDbEntity
  8
実形
 62
     0
370
    18
100
AcDbBlockReference
  2
_DotSmall
 10
1318.593629789472
 20
1052.402794254484
 30
0.0
 41
35.0
 42
35.0
 43
35.0
  0
MTEXT
  5
26B3
330
1473
100
AcDbEntity
  8
実形
 62
     0
100
AcDbMText
 10
1053.593629789472
 20
1071.152794254484
 30
0.0
 40
25.0
 41
0.0
 71
     5
 72
     1
  1
530
 73
     1
 44
1.0
1001
ACAD
1000
MTEXTBEGIN
1070
    73
1070
     1
1070
    44
1040
1.0
1070
    74
1070
     0
1000
MTEXTEND
  0
POINT
  5
26B4
330
1473
100
AcDbEntity
  8
Defpoints
 62
     0
100
AcDbPoint
 10
788.5936297894723
 20
1243.67545567602
 30
0.0
  0
POINT
  5
26B5
330
1473
100
AcDbEntity
  8
Defpoints
 62
     0
100
AcDbPoint
 10
1318.593629789472
 20
1243.67545567602
 30
0.0
  0
POINT
  5
26B6
330
1473
100
AcDbEntity
  8
Defpoints
 62
     0
100
AcDbPoint
 10
1318.593629789472
 20
1052.402794254484
 30
0.0
  0
ENDBLK
  5
147E
330
1473
100
AcDbEntity
  8
0
100
AcDbBlockEnd
  0
BLOCK
  5
1D4D
330
1D43
100
AcDbEntity
  8
0
100
AcDbBlockBegin
  2
*D13
 70
     1
 10
0.0
 20
0.0
 30
0.0
  3
*D13
  1

  0
LINE
  5
26A5
330
1D43
100
AcDbEntity
  8
実形
 62
     0
370
    18
100
AcDbLine
 10
833.5936297894722
 20
1178.675455676019
 30
0.0
 11
833.5936297894722
 21
1132.290944394732
 31
0.0
  0
LINE
  5
26A6
330
1D43
100
AcDbEntity
  8
実形
 62
     0
370
    18
100
AcDbLine
 10
1273.595883045952
 20
1178.678331949444
 30
0.0
 11
1273.595883045952
 21
1132.290944394732
 31
0.0
  0
LINE
  5
26A7
330
1D43
100
AcDbEntity
  8
実形
 62
     0
370
    18
100
AcDbLine
 10
833.5936297894722
 20
1132.290944394732
 30
0.0
 11
1273.595883045952
 21
1132.290944394732
 31
0.0
  0
INSERT
  5
26A8
330
1D43
100
AcDbEntity
  8
実形
 62
     0
370
    18
100
AcDbBlockReference
  2
_DotSmall
 10
833.5936297894722
 20
1132.290944394732
 30
0.0
 41
35.0
 42
35.0
 43
35.0
 50
180.0
  0
INSERT
  5
26A9
330
1D43
100
AcDbEntity
  8
実形
 62
     0
370
    18
100
AcDbBlockReference
  2
_DotSmall
 10
1273.595883045952
 20
1132.290944394732
 30
0.0
 41
35.0
 42
35.0
 43
35.0
  0
MTEXT
  5
26AA
330
1D43
100
AcDbEntity
  8
実形
 62
     0
100
AcDbMText
 10
1053.594756417712
 20
1151.040944394732
 30
0.0
 40
25.0
 41
0.0
 71
     5
 72
     1
  1
440
 73
     1
 44
1.0
1001
ACAD
1000
MTEXTBEGIN
1070
    73
1070
     1
1070
    44
1040
1.0
1070
    74
1070
     0
1000
MTEXTEND
  0
POINT
  5
26AB
330
1D43
100
AcDbEntity
  8
Defpoints
 62
     0
100
AcDbPoint
 10
833.5936297894722
 20
1243.67545567602
 30
0.0
  0
POINT
  5
26AC
330
1D43
100
AcDbEntity
  8
Defpoints
 62
     0
100
AcDbPoint
 10
1273.595883045952
 20
1243.678331949444
 30
0.0
  0
POINT
  5
26AD
330
1D43
100
AcDbEntity
  8
Defpoints
 62
     0
100
AcDbPoint
 10
1273.595883045952
 20
1132.290944394732
 30
0.0
  0
ENDBLK
  5
1D4E
330
1D43
100
AcDbEntity
  8
0
100
AcDbBlockEnd
  0
BLOCK
  5
1DD6
330
1DCC
100
AcDbEntity
  8
0
100
AcDbBlockBegin
  2
*D14
 70
     1
 10
0.0
 20
0.0
 30
0.0
  3
*D14
  1

  0
LINE
  5
2708
330
1DCC
100
AcDbEntity
  8
実形
 62
     0
370
    18
100
AcDbLine
 10
1300.593629789473
 20
1178.675455676019
 30
0.0
 11
1300.593629789473
 21
1132.290944394732
 31
0.0
  0
LINE
  5
2709
330
1DCC
100
AcDbEntity
  8
実形
 62
     0
370
    18
100
AcDbLine
 10
1273.593629789473
 20
1178.675455676019
 30
0.0
 11
1273.593629789473
 21
1132.290944394732
 31
0.0
  0
LINE
  5
270A
330
1DCC
100
AcDbEntity
  8
実形
 62
     0
370
    18
100
AcDbLine
 10
1300.593629789473
 20
1132.290944394732
 30
0.0
 11
1273.593629789473
 21
1132.290944394732
 31
0.0
  0
MTEXT
  5
270B
330
1DCC
100
AcDbEntity
  8
実形
 62
     0
100
AcDbMText
 10
1285.82543971259
 20
1204.81163883258
 30
0.0
 40
25.0
 41
0.0
 71
     5
 72
     1
  1
27
 73
     1
 44
1.0
1001
ACAD
1000
MTEXTBEGIN
1070
    73
1070
     1
1070
    44
1040
1.0
1070
    74
1070
     0
1000
MTEXTEND
  0
INSERT
  5
270C
330
1DCC
100
AcDbEntity
  8
実形
 62
     0
370
    18
100
AcDbBlockReference
  2
_DotSmall
 10
1300.593629789473
 20
1132.290944394732
 30
0.0
 41
35.0
 42
35.0
 43
35.0
  0
INSERT
  5
270D
330
1DCC
100
AcDbEntity
  8
実形
 62
     0
370
    18
100
AcDbBlockReference
  2
_DotSmall
 10
1273.593629789473
 20
1132.290944394732
 30
0.0
 41
35.0
 42
35.0
 43
35.0
 50
180.0
  0
POINT
  5
270E
330
1DCC
100
AcDbEntity
  8
Defpoints
 62
     0
100
AcDbPoint
 10
1300.593629789473
 20
1243.67545567602
 30
0.0
  0
POINT
  5
270F
330
1DCC
100
AcDbEntity
  8
Defpoints
 62
     0
100
AcDbPoint
 10
1273.593629789473
 20
1243.67545567602
 30
0.0
  0
POINT
  5
2710
330
1DCC
100
AcDbEntity
  8
Defpoints
 62
     0
100
AcDbPoint
 10
1273.593629789473
 20
1132.290944394732
 30
0.0
  0
ENDBLK
  5
1DD7
330
1DCC
100
AcDbEntity
  8
0
100
AcDbBlockEnd
  0
BLOCK
  5
1E09
330
1DFF
100
AcDbEntity
  8
0
100
AcDbBlockBegin
  2
*D15
 70
     1
 10
0.0
 20
0.0
 30
0.0
  3
*D15
  1

  0
LINE
  5
269C
330
1DFF
100
AcDbEntity
  8
実形
 62
     0
370
    15
100
AcDbLine
 10
884.6036297894729
 20
579.6754556760198
 30
0.0
 11
884.6036297894729
 21
487.0386498060179
 31
0.0
  0
LINE
  5
269D
330
1DFF
100
AcDbEntity
  8
実形
 62
     0
370
    15
100
AcDbLine
 10
993.6036297894728
 20
579.6754556760197
 30
0.0
 11
993.6036297894728
 21
487.0386498060179
 31
0.0
  0
LINE
  5
269E
330
1DFF
100
AcDbEntity
  8
実形
 62
     0
370
    18
100
AcDbLine
 10
884.6036297894729
 20
487.0386498060179
 30
0.0
 11
993.6036297894728
 21
487.0386498060179
 31
0.0
  0
INSERT
  5
269F
330
1DFF
100
AcDbEntity
  8
実形
 62
     0
370
    18
100
AcDbBlockReference
  2
_DotSmall
 10
884.6036297894729
 20
487.0386498060179
 30
0.0
 41
35.0
 42
35.0
 43
35.0
 50
180.0
  0
INSERT
  5
26A0
330
1DFF
100
AcDbEntity
  8
実形
 62
     0
370
    18
100
AcDbBlockReference
  2
_DotSmall
 10
993.6036297894728
 20
487.0386498060179
 30
0.0
 41
35.0
 42
35.0
 43
35.0
  0
MTEXT
  5
26A1
330
1DFF
100
AcDbEntity
  8
実形
 62
     0
100
AcDbMText
 10
939.1036297894729
 20
505.7886498060179
 30
0.0
 40
25.0
 41
0.0
 71
     5
 72
     1
  1
116
 73
     1
 44
1.0
1001
ACAD
1000
MTEXTBEGIN
1070
    73
1070
     1
1070
    44
1040
1.0
1070
    74
1070
     0
1000
MTEXTEND
  0
POINT
  5
26A2
330
1DFF
100
AcDbEntity
  8
Defpoints
 62
     0
100
AcDbPoint
 10
884.6036297894729
 20
644.6754556760198
 30
0.0
  0
POINT
  5
26A3
330
1DFF
100
AcDbEntity
  8
Defpoints
 62
     0
100
AcDbPoint
 10
993.6036297894728
 20
644.6754556760197
 30
0.0
  0
POINT
  5
26A4
330
1DFF
100
AcDbEntity
  8
Defpoints
 62
     0
100
AcDbPoint
 10
993.6036297894728
 20
487.0386498060179
 30
0.0
  0
ENDBLK
  5
1E0A
330
1DFF
100
AcDbEntity
  8
0
100
AcDbBlockEnd
  0
BLOCK
  5
1E15
330
1E0B
100
AcDbEntity
  8
0
100
AcDbBlockBegin
  2
*D16
 70
     1
 10
0.0
 20
0.0
 30
0.0
  3
*D16
  1

  0
LINE
  5
2693
330
1E0B
100
AcDbEntity
  8
実形
 62
     0
370
    15
100
AcDbLine
 10
895.1036297894729
 20
579.6754556760197
 30
0.0
 11
895.1036297894729
 21
528.2480483749468
 31
0.0
  0
LINE
  5
2694
330
1E0B
100
AcDbEntity
  8
実形
 62
     0
370
    15
100
AcDbLine
 10
983.103629789473
 20
579.6754556760197
 30
0.0
 11
983.103629789473
 21
528.2480483749468
 31
0.0
  0
LINE
  5
2695
330
1E0B
100
AcDbEntity
  8
実形
 62
     0
370
    18
100
AcDbLine
 10
895.1036297894729
 20
528.2480483749468
 30
0.0
 11
983.103629789473
 21
528.2480483749468
 31
0.0
  0
INSERT
  5
2696
330
1E0B
100
AcDbEntity
  8
実形
 62
     0
370
    18
100
AcDbBlockReference
  2
_DotSmall
 10
895.1036297894729
 20
528.2480483749468
 30
0.0
 41
35.0
 42
35.0
 43
35.0
 50
180.0
  0
INSERT
  5
2697
330
1E0B
100
AcDbEntity
  8
実形
 62
     0
370
    18
100
AcDbBlockReference
  2
_DotSmall
 10
983.103629789473
 20
528.2480483749468
 30
0.0
 41
35.0
 42
35.0
 43
35.0
  0
MTEXT
  5
2698
330
1E0B
100
AcDbEntity
  8
実形
 62
     0
100
AcDbMText
 10
939.1036297894729
 20
546.9980483749468
 30
0.0
 40
25.0
 41
0.0
 71
     5
 72
     1
  1
88
 73
     1
 44
1.0
1001
ACAD
1000
MTEXTBEGIN
1070
    73
1070
     1
1070
    44
1040
1.0
1070
    74
1070
     0
1000
MTEXTEND
  0
POINT
  5
2699
330
1E0B
100
AcDbEntity
  8
Defpoints
 62
     0
100
AcDbPoint
 10
895.1036297894729
 20
644.6754556760197
 30
0.0
  0
POINT
  5
269A
330
1E0B
100
AcDbEntity
  8
Defpoints
 62
     0
100
AcDbPoint
 10
983.103629789473
 20
644.6754556760197
 30
0.0
  0
POINT
  5
269B
330
1E0B
100
AcDbEntity
  8
Defpoints
 62
     0
100
AcDbPoint
 10
983.103629789473
 20
528.2480483749468
 30
0.0
  0
ENDBLK
  5
1E16
330
1E0B
100
AcDbEntity
  8
0
100
AcDbBlockEnd
  0
BLOCK
  5
2047
330
203D
100
AcDbEntity
  8
0
100
AcDbBlockBegin
  2
*D17
 70
     1
 10
0.0
 20
0.0
 30
0.0
  3
*D17
  1

  0
LINE
  5
268A
330
203D
100
AcDbEntity
  8
実形
 62
     0
370
    18
100
AcDbLine
 10
788.5936297894723
 20
1758.678331949445
 30
0.0
 11
788.5936297894723
 21
1806.692185456832
 31
0.0
  0
LINE
  5
268B
330
203D
100
AcDbEntity
  8
実形
 62
     0
370
    18
100
AcDbLine
 10
943.5936297894723
 20
1758.678331949444
 30
0.0
 11
943.5936297894723
 21
1806.692185456832
 31
0.0
  0
LINE
  5
268C
330
203D
100
AcDbEntity
  8
実形
 62
     0
370
    18
100
AcDbLine
 10
788.5936297894723
 20
1806.692185456832
 30
0.0
 11
943.5936297894723
 21
1806.692185456832
 31
0.0
  0
INSERT
  5
268D
330
203D
100
AcDbEntity
  8
実形
 62
     0
370
    18
100
AcDbBlockReference
  2
_DotSmall
 10
788.5936297894723
 20
1806.692185456832
 30
0.0
 41
35.0
 42
35.0
 43
35.0
 50
180.0
  0
INSERT
  5
268E
330
203D
100
AcDbEntity
  8
実形
 62
     0
370
    18
100
AcDbBlockReference
  2
_DotSmall
 10
943.5936297894723
 20
1806.692185456832
 30
0.0
 41
35.0
 42
35.0
 43
35.0
  0
MTEXT
  5
268F
330
203D
100
AcDbEntity
  8
実形
 62
     0
100
AcDbMText
 10
866.0936297894723
 20
1825.442185456832
 30
0.0
 40
25.0
 41
0.0
 71
     5
 72
     1
  1
155
 73
     1
 44
1.0
1001
ACAD
1000
MTEXTBEGIN
1070
    73
1070
     1
1070
    44
1040
1.0
1070
    74
1070
     0
1000
MTEXTEND
  0
POINT
  5
2690
330
203D
100
AcDbEntity
  8
Defpoints
 62
     0
100
AcDbPoint
 10
788.5936297894723
 20
1693.678331949444
 30
0.0
  0
POINT
  5
2691
330
203D
100
AcDbEntity
  8
Defpoints
 62
     0
100
AcDbPoint
 10
943.5936297894723
 20
1693.678331949444
 30
0.0
  0
POINT
  5
2692
330
203D
100
AcDbEntity
  8
Defpoints
 62
     0
100
AcDbPoint
 10
943.5936297894723
 20
1806.692185456832
 30
0.0
  0
ENDBLK
  5
2048
330
203D
100
AcDbEntity
  8
0
100
AcDbBlockEnd
  0
BLOCK
  5
2054
330
204A
100
AcDbEntity
  8
0
100
AcDbBlockBegin
  2
*D18
 70
     1
 10
0.0
 20
0.0
 30
0.0
  3
*D18
  1

  0
LINE
  5
26FF
330
204A
100
AcDbEntity
  8
実形
 62
     0
370
    18
100
AcDbLine
 10
1383.593629789472
 20
1243.67545567602
 30
0.0
 11
1460.671885157082
 21
1243.67545567602
 31
0.0
  0
LINE
  5
2700
330
204A
100
AcDbEntity
  8
実形
 62
     0
370
    18
100
AcDbLine
 10
1383.593629789472
 20
1468.675455676019
 30
0.0
 11
1460.671885157082
 21
1468.675455676019
 31
0.0
  0
LINE
  5
2701
330
204A
100
AcDbEntity
  8
実形
 62
     0
370
    18
100
AcDbLine
 10
1460.671885157082
 20
1243.67545567602
 30
0.0
 11
1460.671885157082
 21
1468.675455676019
 31
0.0
  0
INSERT
  5
2702
330
204A
100
AcDbEntity
  8
実形
 62
     0
370
    18
100
AcDbBlockReference
  2
_DotSmall
 10
1460.671885157082
 20
1243.67545567602
 30
0.0
 41
35.0
 42
35.0
 43
35.0
 50
270.0
  0
INSERT
  5
2703
330
204A
100
AcDbEntity
  8
実形
 62
     0
370
    18
100
AcDbBlockReference
  2
_DotSmall
 10
1460.671885157082
 20
1468.675455676019
 30
0.0
 41
35.0
 42
35.0
 43
35.0
 50
90.0
  0
MTEXT
  5
2704
330
204A
100
AcDbEntity
  8
実形
 62
     0
100
AcDbMText
 10
1441.921885157082
 20
1356.17545567602
 30
0.0
 40
25.0
 41
0.0
 71
     5
 72
     1
  1
225
 11
0.0000000000000001
 21
1.0
 31
0.0
 73
     1
 44
1.0
1001
ACAD
1000
MTEXTBEGIN
1070
    73
1070
     1
1070
    44
1040
1.0
1070
    74
1070
     0
1000
MTEXTEND
  0
POINT
  5
2705
330
204A
100
AcDbEntity
  8
Defpoints
 62
     0
100
AcDbPoint
 10
1318.593629789472
 20
1243.67545567602
 30
0.0
  0
POINT
  5
2706
330
204A
100
AcDbEntity
  8
Defpoints
 62
     0
100
AcDbPoint
 10
1318.593629789472
 20
1468.675455676019
 30
0.0
  0
POINT
  5
2707
330
204A
100
AcDbEntity
  8
Defpoints
 62
     0
100
AcDbPoint
 10
1460.671885157082
 20
1468.675455676019
 30
0.0
  0
ENDBLK
  5
2055
330
204A
100
AcDbEntity
  8
0
100
AcDbBlockEnd
  0
BLOCK
  5
2269
330
225F
100
AcDbEntity
  8
0
100
AcDbBlockBegin
  2
*D19
 70
     1
 10
0.0
 20
0.0
 30
0.0
  3
*D19
  1

  0
LINE
  5
26C9
330
225F
100
AcDbEntity
  8
実形
 62
     0
370
    18
100
AcDbLine
 10
723.5936297894722
 20
1288.67545567602
 30
0.0
 11
633.9629018630797
 21
1288.67545567602
 31
0.0
  0
LINE
  5
26CA
330
225F
100
AcDbEntity
  8
実形
 62
     0
370
    18
100
AcDbLine
 10
658.5936297894723
 20
1261.67545567602
 30
0.0
 11
633.9629018630796
 21
1261.67545567602
 31
0.0
  0
LINE
  5
26CB
330
225F
100
AcDbEntity
  8
実形
 62
     0
370
    18
100
AcDbLine
 10
633.9629018630797
 20
1288.67545567602
 30
0.0
 11
633.9629018630796
 21
1261.67545567602
 31
0.0
  0
MTEXT
  5
26CC
330
225F
100
AcDbEntity
  8
実形
 62
     0
100
AcDbMText
 10
599.0352912291136
 20
1283.402800469799
 30
0.0
 40
25.0
 41
0.0
 71
     5
 72
     1
  1
27
 11
0.0000000000000001
 21
1.0
 31
0.0
 73
     1
 44
1.0
1001
ACAD
1000
MTEXTBEGIN
1070
    73
1070
     1
1070
    44
1040
1.0
1070
    74
1070
     0
1000
MTEXTEND
  0
INSERT
  5
26CD
330
225F
100
AcDbEntity
  8
実形
 62
     0
370
    18
100
AcDbBlockReference
  2
_DotSmall
 10
633.9629018630797
 20
1288.67545567602
 30
0.0
 41
35.0
 42
35.0
 43
35.0
 50
90.0
  0
INSERT
  5
26CE
330
225F
100
AcDbEntity
  8
実形
 62
     0
370
    18
100
AcDbBlockReference
  2
_DotSmall
 10
633.9629018630796
 20
1261.67545567602
 30
0.0
 41
35.0
 42
35.0
 43
35.0
 50
270.0
  0
POINT
  5
26CF
330
225F
100
AcDbEntity
  8
Defpoints
 62
     0
100
AcDbPoint
 10
788.5936297894723
 20
1288.67545567602
 30
0.0
  0
POINT
  5
26D0
330
225F
100
AcDbEntity
  8
Defpoints
 62
     0
100
AcDbPoint
 10
723.5936297894722
 20
1261.67545567602
 30
0.0
  0
POINT
  5
26D1
330
225F
100
AcDbEntity
  8
Defpoints
 62
     0
100
AcDbPoint
 10
633.9629018630796
 20
1261.67545567602
 30
0.0
  0
ENDBLK
  5
226A
330
225F
100
AcDbEntity
  8
0
100
AcDbBlockEnd
  0
ENDSEC
  0
SECTION
  2
ENTITIES
  0
LINE
  5
9C
330
1F
100
AcDbEntity
  8
実形
100
AcDbLine
 10
111.0
 20
4.0
 30
0.0
 11
2784.0
 21
4.0
 31
0.0
  0
LINE
  5
A0
330
1F
100
AcDbEntity
  8
実形
100
AcDbLine
 10
2784.0
 20
2024.0
 30
0.0
 11
111.0
 21
2024.0
 31
0.0
  0
LINE
  5
A5
330
1F
100
AcDbEntity
  8
実形
100
AcDbLine
 10
2784.0
 20
4.0
 30
0.0
 11
2784.0
 21
2024.0
 31
0.0
  0
TEXT
  5
8C9
330
1F
100
AcDbEntity
  8
実形
100
AcDbText
 10
249.2632881086038
 20
83.52862940911927
 30
0.0
 40
30.0
  1
※実寸には製造上の誤差が多少生ずる場合があります。シンクの穴あけ加工は現物合わせにてお願いします。
100
AcDbText
  0
DIMENSION
  5
12A2
330
1F
100
AcDbEntity
  8
実形
100
AcDbDimension
  2
*D4
 10
633.9629018630796
 20
1675.675455676019
 30
0.0
 11
622.4454173656495
 21
1729.428900627159
 31
0.0
 70
   160
 71
     5
 42
18.0
  3
ISO-25
100
AcDbAlignedDimension
 13
788.5936297894723
 23
1693.67545567602
 33
0.0
 14
788.5936297894723
 24
1675.675455676019
 34
0.0
 50
90.0
100
AcDbRotatedDimension
1001
ACAD
1000
DSTYLE
1002
{
1070
   279
1070
     2
1070
   371
1070
    18
1070
   372
1070
    18
1002
}
  0
DIMENSION
  5
12E0
330
1F
100
AcDbEntity
  8
実形
100
AcDbDimension
  2
*D5
 10
633.9629018630796
 20
1648.675455676019
 30
0.0
 11
617.7852912291136
 21
1663.784087898912
 31
0.0
 70
   160
 71
     5
 42
27.0
  3
ISO-25
100
AcDbAlignedDimension
 13
788.5936297894723
 23
1675.675455676019
 33
0.0
 14
788.5936297894723
 24
1648.675455676019
 34
0.0
 50
90.0
100
AcDbRotatedDimension
1001
ACAD
1000
DSTYLE
1002
{
1070
   279
1070
     1
1070
   371
1070
    18
1070
   372
1070
    18
1002
}
  0
DIMENSION
  5
12ED
330
1F
100
AcDbEntity
  8
実形
100
AcDbDimension
  2
*D6
 10
633.9629018630796
 20
1288.67545567602
 30
0.0
 11
615.2129018630794
 21
1468.67545567602
 31
0.0
 70
    32
 71
     5
 42
360.0
  3
ISO-25
100
AcDbAlignedDimension
 13
788.5936297894723
 23
1648.675455676019
 33
0.0
 14
788.5936297894723
 24
1288.67545567602
 34
0.0
 50
90.0
100
AcDbRotatedDimension
1001
ACAD
1000
DSTYLE
1002
{
1070
   279
1070
     1
1070
   371
1070
    18
1070
   372
1070
    18
1002
}
  0
DIMENSION
  5
1307
330
1F
100
AcDbEntity
  8
実形
100
AcDbDimension
  2
*D7
 10
633.9629018630796
 20
1243.67545567602
 30
0.0
 11
633.9629018630794
 21
1207.871871898906
 31
0.0
 70
   160
 71
     5
 42
18.0
  3
ISO-25
100
AcDbAlignedDimension
 13
788.5936297894723
 23
1261.67545567602
 33
0.0
 14
788.5936297894723
 24
1243.67545567602
 34
0.0
 50
90.0
100
AcDbRotatedDimension
1001
ACAD
1000
DSTYLE
1002
{
1070
   279
1070
     1
1070
   371
1070
    18
1070
   372
1070
    18
1002
}
  0
DIMENSION
  5
132F
330
1F
100
AcDbEntity
  8
実形
100
AcDbDimension
  2
*D8
 10
560.2509594618123
 20
1243.67545567602
 30
0.0
 11
541.5009594618121
 21
1468.67545567602
 31
0.0
 70
    32
 71
     5
 42
450.0
  3
ISO-25
100
AcDbAlignedDimension
 13
788.5936297894723
 23
1693.67545567602
 33
0.0
 14
788.5936297894723
 24
1243.67545567602
 34
0.0
 50
90.0
100
AcDbRotatedDimension
1001
ACAD
1000
DSTYLE
1002
{
1070
   371
1070
    18
1070
   372
1070
    18
1002
}
  0
DIMENSION
  5
134E
330
1F
100
AcDbEntity
  8
実形
100
AcDbDimension
  2
*D9
 10
806.5936297894722
 20
1132.290944394732
 30
0.0
 11
752.8350914612283
 21
1143.70353727191
 31
0.0
 70
   160
 71
     5
 42
18.0
  3
ISO-25
100
AcDbAlignedDimension
 13
788.5936297894723
 23
1243.67545567602
 33
0.0
 14
806.5936297894722
 24
1243.67545567602
 34
0.0
100
AcDbRotatedDimension
1001
ACAD
1000
DSTYLE
1002
{
1070
   279
1070
     2
1070
   371
1070
    18
1070
   372
1070
    18
1002
}
  0
DIMENSION
  5
1382
330
1F
100
AcDbEntity
  8
実形
100
AcDbDimension
  2
*D10
 10
833.5936297894722
 20
1132.290944394732
 30
0.0
 11
821.3618198663544
 21
1206.127874002564
 31
0.0
 70
   160
 71
     5
 42
27.0
  3
ISO-25
100
AcDbAlignedDimension
 13
806.5936297894722
 23
1243.67545567602
 33
0.0
 14
833.5936297894722
 24
1243.67545567602
 34
0.0
100
AcDbRotatedDimension
1001
ACAD
1000
DSTYLE
1002
{
1070
   279
1070
     2
1070
   371
1070
    18
1070
   372
1070
    18
1002
}
  0
DIMENSION
  5
13C9
330
1F
100
AcDbEntity
  8
実形
100
AcDbDimension
  2
*D11
 10
1318.593629789472
 20
1132.290944394732
 30
0.0
 11
1353.473923762472
 21
1139.138497208834
 31
0.0
 70
   160
 71
     5
 42
18.0
  3
ISO-25
100
AcDbAlignedDimension
 13
1300.593629789472
 23
1243.67545567602
 33
0.0
 14
1318.593629789472
 24
1243.67545567602
 34
0.0
100
AcDbRotatedDimension
1001
ACAD
1000
DSTYLE
1002
{
1070
   279
1070
     2
1070
   371
1070
    18
1070
   372
1070
    18
1002
}
  0
DIMENSION
  5
1472
330
1F
100
AcDbEntity
  8
実形
100
AcDbDimension
  2
*D12
 10
1318.593629789472
 20
1052.402794254484
 30
0.0
 11
1053.593629789472
 21
1071.152794254484
 31
0.0
 70
    32
 71
     5
 42
529.9999999999998
  3
ISO-25
100
AcDbAlignedDimension
 13
788.5936297894723
 23
1243.67545567602
 33
0.0
 14
1318.593629789472
 24
1243.67545567602
 34
0.0
100
AcDbRotatedDimension
1001
ACAD
1000
DSTYLE
1002
{
1070
   371
1070
    18
1070
   372
1070
    18
1002
}
  0
LINE
  5
14A3
330
1F
100
AcDbEntity
  8
実形
100
AcDbLine
 10
1318.593629789472
 20
1683.678331949444
 30
0.0
 11
1318.593629789472
 21
1253.678331949444
 31
0.0
  0
LINE
  5
14A4
330
1F
100
AcDbEntity
  8
実形
100
AcDbLine
 10
1313.593629789472
 20
1683.678331949444
 30
0.0
 11
1313.593629789472
 21
1253.678331949444
 31
0.0
  0
LINE
  5
14A5
330
1F
100
AcDbEntity
  8
実形
100
AcDbLine
 10
1300.593629789472
 20
1291.678331949445
 30
0.0
 11
1300.593629789472
 21
1645.678331949444
 31
0.0
  0
LINE
  5
14A6
330
1F
100
AcDbEntity
  8
実形
100
AcDbLine
 10
1305.593629789472
 20
1291.678331949444
 30
0.0
 11
1305.593629789472
 21
1645.678331949445
 31
0.0
  0
LINE
  5
14A9
330
1F
100
AcDbEntity
  8
実形
100
AcDbLine
 10
1308.593629789472
 20
1248.678331949444
 30
0.0
 11
798.5936297894722
 21
1248.678331949444
 31
0.0
  0
ARC
  5
14AA
330
1F
100
AcDbEntity
  8
実形
100
AcDbCircle
 10
1308.593629789472
 20
1253.678331949444
 30
0.0
 40
5.0
100
AcDbArc
 50
270.0
 51
0.0
  0
ARC
  5
14AB
330
1F
100
AcDbEntity
  8
実形
100
AcDbCircle
 10
1308.593629789472
 20
1253.678331949444
 30
0.0
 40
10.0
100
AcDbArc
 50
270.0
 51
0.0
  0
LINE
  5
14AC
330
1F
100
AcDbEntity
  8
実形
100
AcDbLine
 10
836.5936297894723
 20
1261.678331949444
 30
0.0
 11
1270.593629789472
 21
1261.678331949445
 31
0.0
  0
LINE
  5
14AD
330
1F
100
AcDbEntity
  8
実形
100
AcDbLine
 10
836.5936297894723
 20
1256.678331949444
 30
0.0
 11
1270.593629789472
 21
1256.678331949445
 31
0.0
  0
LINE
  5
14AE
330
1F
100
AcDbEntity
  8
実形
100
AcDbLine
 10
1270.593629789472
 20
1680.678331949445
 30
0.0
 11
836.5936297894727
 21
1680.678331949445
 31
0.0
  0
LINE
  5
14AF
330
1F
100
AcDbEntity
  8
実形
100
AcDbLine
 10
798.5936297894722
 20
1688.678331949444
 30
0.0
 11
1308.593629789472
 21
1688.678331949444
 31
0.0
  0
LINE
  5
14B0
330
1F
100
AcDbEntity
  8
実形
100
AcDbLine
 10
798.5936297894722
 20
1693.678331949444
 30
0.0
 11
1308.593629789472
 21
1693.678331949444
 31
0.0
  0
LINE
  5
14B1
330
1F
100
AcDbEntity
  8
実形
100
AcDbLine
 10
1270.593629789472
 20
1675.678331949444
 30
0.0
 11
836.5936297894721
 21
1675.678331949444
 31
0.0
  0
ARC
  5
14B3
330
1F
100
AcDbEntity
  8
実形
100
AcDbCircle
 10
798.5936297894722
 20
1683.678331949444
 30
0.0
 40
5.0
100
AcDbArc
 50
90.0
 51
180.0
  0
ARC
  5
14B4
330
1F
100
AcDbEntity
  8
実形
100
AcDbCircle
 10
798.5936297894722
 20
1683.678331949444
 30
0.0
 40
10.0
100
AcDbArc
 50
90.0
 51
180.0
  0
ARC
  5
14B7
330
1F
100
AcDbEntity
  8
実形
100
AcDbCircle
 10
1308.593629789472
 20
1683.678331949444
 30
0.0
 40
5.0
100
AcDbArc
 50
0.0
 51
90.0
  0
ARC
  5
14B8
330
1F
100
AcDbEntity
  8
実形
100
AcDbCircle
 10
1308.593629789472
 20
1683.678331949444
 30
0.0
 40
10.0
100
AcDbArc
 50
0.0
 51
90.0
  0
LINE
  5
14BA
330
1F
100
AcDbEntity
  8
実形
100
AcDbLine
 10
801.5936297894725
 20
1645.678331949445
 30
0.0
 11
801.5936297894723
 21
1291.678331949444
 31
0.0
  0
LINE
  5
14BB
330
1F
100
AcDbEntity
  8
実形
100
AcDbLine
 10
793.5936297894722
 20
1253.678331949444
 30
0.0
 11
793.5936297894722
 21
1683.678331949444
 31
0.0
  0
LINE
  5
14BC
330
1F
100
AcDbEntity
  8
実形
100
AcDbLine
 10
788.5936297894723
 20
1253.678331949444
 30
0.0
 11
788.5936297894723
 21
1683.678331949444
 31
0.0
  0
LINE
  5
14BD
330
1F
100
AcDbEntity
  8
実形
100
AcDbLine
 10
806.5936297894721
 20
1645.678331949444
 30
0.0
 11
806.5936297894724
 21
1291.678331949444
 31
0.0
  0
ARC
  5
14BE
330
1F
100
AcDbEntity
  8
実形
100
AcDbCircle
 10
798.5936297894722
 20
1253.678331949444
 30
0.0
 40
5.0
100
AcDbArc
 50
180.0
 51
270.0
  0
ARC
  5
14BF
330
1F
100
AcDbEntity
  8
実形
100
AcDbCircle
 10
798.5936297894722
 20
1253.678331949444
 30
0.0
 40
10.0
100
AcDbArc
 50
180.0
 51
270.0
  0
LINE
  5
14C2
330
1F
100
AcDbEntity
  8
実形
100
AcDbLine
 10
1308.593629789472
 20
1243.678331949444
 30
0.0
 11
798.5936297894722
 21
1243.678331949444
 31
0.0
  0
LINE
  5
1549
330
1F
100
AcDbEntity
  8
実形
370
    15
100
AcDbLine
 10
859.2646357063404
 20
1468.675455676019
 30
0.0
 11
1383.593629789472
 21
1468.675455676019
 31
0.0
  0
LINE
  5
154E
330
1F
100
AcDbEntity
  8
実形
370
    15
100
AcDbLine
 10
943.5936297894723
 20
1758.678331949444
 30
0.0
 11
943.5936297894723
 21
1358.675455676019
 31
0.0
  0
LINE
  5
1561
330
1F
100
AcDbEntity
  8
実形
100
AcDbLine
 10
1285.583629789472
 20
843.6754556760197
 30
0.0
 11
818.5936297894718
 21
843.6754556760197
 31
0.0
  0
LINE
  5
1566
330
1F
100
AcDbEntity
  8
実形
100
AcDbLine
 10
1285.583629789472
 20
843.6754556760197
 30
0.0
 11
818.5936297894718
 21
843.6754556760197
 31
0.0
  0
ARC
  5
1567
330
1F
100
AcDbEntity
  8
実形
100
AcDbCircle
 10
1248.083629789472
 20
693.0510689351438
 30
0.0
 40
30.0
100
AcDbArc
 50
284.1494760863434
 51
0.000000000000007
  0
LINE
  5
156B
330
1F
100
AcDbEntity
  8
実形
100
AcDbLine
 10
1278.083629789472
 20
833.6754556760197
 30
0.0
 11
1278.083629789472
 21
693.0510689351438
 31
0.0
  0
LINE
  5
17BC
330
1F
100
AcDbEntity
  8
実形
100
AcDbLine
 10
1288.593629789472
 20
843.6754556760197
 30
0.0
 11
1295.583629789472
 21
843.6754556760197
 31
0.0
  0
LINE
  5
17BD
330
1F
100
AcDbEntity
  8
実形
100
AcDbLine
 10
1295.583629789472
 20
843.6754556760197
 30
0.0
 11
1288.593629789472
 21
843.6754556760197
 31
0.0
  0
LINE
  5
17BE
330
1F
100
AcDbEntity
  8
実形
100
AcDbLine
 10
1295.583629789472
 20
843.6754556760197
 30
0.0
 11
1288.593629789472
 21
843.6754556760197
 31
0.0
  0
LINE
  5
1C45
330
1F
100
AcDbEntity
  8
実形
100
AcDbLine
 10
1305.593629789472
 20
833.6754556760197
 30
0.0
 11
801.5936297894722
 21
833.6754556760197
 31
0.0
  0
LINE
  5
1C46
330
1F
100
AcDbEntity
  8
実形
100
AcDbLine
 10
1313.593629789472
 20
848.6754556760198
 30
0.0
 11
793.5936297894722
 21
848.6754556760198
 31
0.0
  0
LINE
  5
1C47
330
1F
100
AcDbEntity
  8
実形
100
AcDbLine
 10
1318.593629789472
 20
843.6754556760197
 30
0.0
 11
788.5936297894723
 21
843.6754556760197
 31
0.0
  0
LINE
  5
1C48
330
1F
100
AcDbEntity
  8
実形
100
AcDbLine
 10
803.5936297894723
 20
843.6754556760197
 30
0.0
 11
1303.593629789472
 21
843.6754556760197
 31
0.0
  0
LINE
  5
1C49
330
1F
100
AcDbEntity
  8
実形
100
AcDbLine
 10
803.5936297894723
 20
843.6754556760197
 30
0.0
 11
1303.593629789472
 21
843.6754556760197
 31
0.0
  0
LINE
  5
1C4A
330
1F
100
AcDbEntity
  8
実形
100
AcDbLine
 10
801.5936297894722
 20
833.6754556760197
 30
0.0
 11
801.5936297894722
 21
843.6754556760197
 31
0.0
  0
LINE
  5
1C4B
330
1F
100
AcDbEntity
  8
実形
100
AcDbLine
 10
793.5936297894722
 20
848.6754556760198
 30
0.0
 11
788.5936297894723
 21
843.6754556760197
 31
0.0
  0
LINE
  5
1C4C
330
1F
100
AcDbEntity
  8
実形
100
AcDbLine
 10
1305.593629789472
 20
843.6754556760197
 30
0.0
 11
1305.593629789472
 21
833.6754556760197
 31
0.0
  0
LINE
  5
1C4D
330
1F
100
AcDbEntity
  8
実形
100
AcDbLine
 10
1313.593629789472
 20
848.6754556760198
 30
0.0
 11
1318.593629789472
 21
843.6754556760197
 31
0.0
  0
LINE
  5
1CC0
330
1F
100
AcDbEntity
  8
実形
100
AcDbLine
 10
2084.0
 20
2024.0
 30
0.0
 11
2784.0
 21
2024.0
 31
0.0
  0
LINE
  5
1CD0
330
1F
100
AcDbEntity
  8
実形
100
AcDbLine
 10
2784.0
 20
2024.0
 30
0.0
 11
2784.000000000001
 21
1829.0
 31
0.0
  0
LINE
  5
1CD1
330
1F
100
AcDbEntity
  8
実形
100
AcDbLine
 10
2784.0
 20
1829.0
 30
0.0
 11
2784.0
 21
2024.0
 31
0.0
  0
LINE
  5
1CD2
330
1F
100
AcDbEntity
  8
実形
100
AcDbLine
 10
2084.0
 20
69.0
 30
0.0
 11
2784.0
 21
69.0
 31
0.0
  0
LINE
  5
1CD3
330
1F
100
AcDbEntity
  8
実形
100
AcDbLine
 10
2084.0
 20
199.0
 30
0.0
 11
2784.0
 21
199.0
 31
0.0
  0
LINE
  5
1CD4
330
1F
100
AcDbEntity
  8
実形
100
AcDbLine
 10
2084.0
 20
134.0
 30
0.0
 11
2784.0
 21
134.0
 31
0.0
  0
LINE
  5
1CD5
330
1F
100
AcDbEntity
  8
実形
100
AcDbLine
 10
2084.0
 20
4.0
 30
0.0
 11
2084.0
 21
199.0
 31
0.0
  0
TEXT
  5
1CD6
330
1F
100
AcDbEntity
  8
実形
100
AcDbText
 10
2278.166666666667
 20
149.0
 30
0.0
 40
35.0
  1
HLm/m530-450S
 72
     4
 11
2494.0
 21
166.5
 31
0.0
100
AcDbText
  0
LINE
  5
1CD7
330
1F
100
AcDbEntity
  8
実形
100
AcDbLine
 10
2204.0
 20
69.0
 30
0.0
 11
2784.0
 21
69.0
 31
0.0
  0
TEXT
  5
1CD8
330
1F
100
AcDbEntity
  8
実形
100
AcDbText
 10
2320.255774665348
 20
16.49999999999999
 30
0.0
 40
40.0
  1
中外交易株式会社
 72
     4
 11
2508.255774665347
 21
36.5
 31
0.0
100
AcDbText
  0
HATCH
  5
1CD9
330
1F
100
AcDbEntity
  8
実形
100
AcDbHatch
 10
0.0
 20
0.0
 30
0.0
210
0.0
220
0.0
230
1.0
  2
SOLID
 70
     1
 71
     1
 91
        3
 92
        1
 93
        4
 72
     2
 10
2277.166198313995
 20
36.5
 40
20.0
 50
11.64772366707341
 51
342.6561058784738
 73
     1
 72
     1
 10
2296.256852341324
 20
30.53787547858519
 11
2272.166198313995
 21
30.53787547858519
 72
     1
 10
2272.166198313995
 20
30.53787547858519
 11
2272.166198313995
 21
40.53787547858519
 72
     1
 10
2272.166198313995
 20
40.53787547858519
 11
2296.75434681301
 21
40.53787547858519
 97
        4
330
1CE6
330
1CDE
330
1CDF
330
1CE0
 92
        1
 93
        4
 72
     2
 10
2208.255774665348
 20
36.5
 40
20.0
 50
11.64772366707341
 51
342.6561058784738
 73
     1
 72
     1
 10
2227.346428692676
 20
30.53787547858519
 11
2203.255774665347
 21
30.53787547858519
 72
     1
 10
2203.255774665347
 20
30.53787547858519
 11
2203.255774665347
 21
40.53787547858519
 72
     1
 10
2203.255774665347
 20
40.53787547858519
 11
2227.843923164362
 21
40.53787547858519
 97
        4
330
1CE7
330
1CE3
330
1CE4
330
1CE5
 92
        1
 93
        5
 72
     1
 10
2265.641894042939
 20
56.5
 11
2230.641894042939
 21
56.5
 72
     1
 10
2230.641894042939
 20
56.5
 11
2230.641894042939
 21
16.5
 72
     1
 10
2230.641894042939
 20
16.5
 11
2265.641894042939
 21
16.5
 72
     1
 10
2265.641894042939
 20
16.5
 11
2230.641894042939
 21
36.5
 72
     1
 10
2230.641894042939
 20
36.5
 11
2265.641894042939
 21
56.5
 97
        5
330
1CDD
330
1CE9
330
1CE2
330
1CE1
330
1CE8
 75
     0
 76
     1
 98
        1
 10
-40.0
 20
0.0
  0
TEXT
  5
1CDA
330
1F
100
AcDbEntity
  8
実形
100
AcDbText
 10
2106.666666666667
 20
149.0
 30
0.0
 40
35.0
  1
品番
 72
     4
 11
2144.0
 21
166.5
 31
0.0
100
AcDbText
  0
TEXT
  5
1CDB
330
1F
100
AcDbEntity
  8
実形
100
AcDbText
 10
2106.666666666667
 20
84.0
 30
0.0
 40
35.0
  1
尺度
 72
     4
 11
2144.0
 21
101.5
 31
0.0
100
AcDbText
  0
LINE
  5
1CDC
330
1F
100
AcDbEntity
  8
実形
100
AcDbLine
 10
2204.0
 20
69.0
 30
0.0
 11
2204.0
 21
199.0
 31
0.0
  0
LINE
  5
1CDD
102
{ACAD_REACTORS
330
1CD9
102
}
330
1F
100
AcDbEntity
  8
実形
370
     5
100
AcDbLine
 10
2265.641894042939
 20
56.5
 30
0.0
 11
2230.641894042939
 21
56.5
 31
0.0
  0
LINE
  5
1CDE
102
{ACAD_REACTORS
330
1CD9
102
}
330
1F
100
AcDbEntity
  8
実形
370
     5
100
AcDbLine
 10
2272.166198313995
 20
30.53787547858519
 30
0.0
 11
2296.256852341324
 21
30.53787547858519
 31
0.0
  0
LINE
  5
1CDF
102
{ACAD_REACTORS
330
1CD9
102
}
330
1F
100
AcDbEntity
  8
実形
370
     5
100
AcDbLine
 10
2272.166198313995
 20
40.53787547858519
 30
0.0
 11
2272.166198313995
 21
30.53787547858519
 31
0.0
  0
LINE
  5
1CE0
102
{ACAD_REACTORS
330
1CD9
102
}
330
1F
100
AcDbEntity
  8
実形
370
     5
100
AcDbLine
 10
2296.75434681301
 20
40.53787547858519
 30
0.0
 11
2272.166198313995
 21
40.53787547858519
 31
0.0
  0
LINE
  5
1CE1
102
{ACAD_REACTORS
330
1CD9
102
}
330
1F
100
AcDbEntity
  8
実形
370
     5
100
AcDbLine
 10
2265.641894042939
 20
16.5
 30
0.0
 11
2230.641894042939
 21
36.5
 31
0.0
  0
LINE
  5
1CE2
102
{ACAD_REACTORS
330
1CD9
102
}
330
1F
100
AcDbEntity
  8
実形
370
     5
100
AcDbLine
 10
2230.641894042939
 20
16.5
 30
0.0
 11
2265.641894042939
 21
16.5
 31
0.0
  0
LINE
  5
1CE3
102
{ACAD_REACTORS
330
1CD9
102
}
330
1F
100
AcDbEntity
  8
実形
370
     5
100
AcDbLine
 10
2203.255774665347
 20
30.53787547858519
 30
0.0
 11
2227.346428692676
 21
30.53787547858519
 31
0.0
  0
LINE
  5
1CE4
102
{ACAD_REACTORS
330
1CD9
102
}
330
1F
100
AcDbEntity
  8
実形
370
     5
100
AcDbLine
 10
2203.255774665347
 20
40.53787547858519
 30
0.0
 11
2203.255774665347
 21
30.53787547858519
 31
0.0
  0
LINE
  5
1CE5
102
{ACAD_REACTORS
330
1CD9
102
}
330
1F
100
AcDbEntity
  8
実形
370
     5
100
AcDbLine
 10
2227.843923164362
 20
40.53787547858519
 30
0.0
 11
2203.255774665347
 21
40.53787547858519
 31
0.0
  0
ARC
  5
1CE6
102
{ACAD_REACTORS
330
1CD9
102
}
330
1F
100
AcDbEntity
  8
実形
370
     5
100
AcDbCircle
 10
2277.166198313995
 20
36.5
 30
0.0
 40
20.0
100
AcDbArc
 50
11.64772366707341
 51
342.6561058784738
  0
ARC
  5
1CE7
102
{ACAD_REACTORS
330
1CD9
102
}
330
1F
100
AcDbEntity
  8
実形
370
     5
100
AcDbCircle
 10
2208.255774665348
 20
36.5
 30
0.0
 40
20.0
100
AcDbArc
 50
11.64772366707341
 51
342.6561058784738
  0
LINE
  5
1CE8
102
{ACAD_REACTORS
330
1CD9
102
}
330
1F
100
AcDbEntity
  8
実形
370
     5
100
AcDbLine
 10
2230.641894042939
 20
36.5
 30
0.0
 11
2265.641894042939
 21
56.5
 31
0.0
  0
LINE
  5
1CE9
102
{ACAD_REACTORS
330
1CD9
102
}
330
1F
100
AcDbEntity
  8
実形
370
     5
100
AcDbLine
 10
2230.641894042939
 20
56.5
 30
0.0
 11
2230.641894042939
 21
16.5
 31
0.0
  0
TEXT
  5
1CEA
330
1F
100
AcDbEntity
  8
実形
100
AcDbText
 10
2440.916666666666
 20
84.0
 30
0.0
 40
35.0
  1
1：10
 72
     4
 11
2494.0
 21
101.5
 31
0.0
100
AcDbText
  0
LINE
  5
1CEB
330
1F
100
AcDbEntity
  8
実形
100
AcDbLine
 10
2784.0
 20
69.0
 30
0.0
 11
2784.0
 21
134.0
 31
0.0
  0
LINE
  5
1CEC
330
1F
100
AcDbEntity
  8
実形
100
AcDbLine
 10
2784.0
 20
134.0
 30
0.0
 11
2784.0
 21
199.0
 31
0.0
  0
LINE
  5
1CED
330
1F
100
AcDbEntity
  8
実形
100
AcDbLine
 10
2784.0
 20
4.0
 30
0.0
 11
2784.0
 21
69.0
 31
0.0
  0
DIMENSION
  5
1D42
330
1F
100
AcDbEntity
  8
実形
100
AcDbDimension
  2
*D13
 10
1273.595883045952
 20
1132.290944394732
 30
0.0
 11
1053.594756417712
 21
1151.040944394732
 31
0.0
 70
    32
 71
     5
 42
440.0022532564794
  3
ISO-25
100
AcDbAlignedDimension
 13
833.5936297894722
 23
1243.67545567602
 33
0.0
 14
1273.595883045952
 24
1243.678331949444
 34
0.0
100
AcDbRotatedDimension
1001
ACAD
1000
DSTYLE
1002
{
1070
   279
1070
     1
1070
   371
1070
    18
1070
   372
1070
    18
1002
}
  0
DIMENSION
  5
1DCB
330
1F
100
AcDbEntity
  8
実形
100
AcDbDimension
  2
*D14
 10
1273.593629789473
 20
1132.290944394732
 30
0.0
 11
1285.82543971259
 21
1204.81163883258
 31
0.0
 70
   160
 71
     5
 42
27.0
  3
ISO-25
100
AcDbAlignedDimension
 13
1300.593629789473
 23
1243.67545567602
 33
0.0
 14
1273.593629789473
 24
1243.67545567602
 34
0.0
 50
180.0
100
AcDbRotatedDimension
1001
ACAD
1000
DSTYLE
1002
{
1070
   279
1070
     2
1070
   371
1070
    18
1070
   372
1070
    18
1002
}
  0
DIMENSION
  5
1DF3
330
1F
100
AcDbEntity
  8
実形
100
AcDbDimension
  2
*D15
 10
993.6036297894728
 20
487.0386498060179
 30
0.0
 11
939.1036297894729
 21
487.0386498060179
 31
0.0
 70
   160
  1
116
 71
     5
 42
109.0
  3
ISO-25
100
AcDbAlignedDimension
 13
884.6036297894729
 23
644.6754556760198
 33
0.0
 14
993.6036297894728
 24
644.6754556760197
 34
0.0
 50
0.000000000000007
100
AcDbRotatedDimension
1001
ACAD
1000
DSTYLE
1002
{
1070
   371
1070
    18
1002
}
  0
DIMENSION
  5
1DF4
330
1F
100
AcDbEntity
  8
実形
100
AcDbDimension
  2
*D16
 10
983.103629789473
 20
528.2480483749468
 30
0.0
 11
939.1036297894729
 21
546.9980483749468
 31
0.0
 70
    32
 71
     5
 42
88.0
  3
ISO-25
100
AcDbAlignedDimension
 13
895.1036297894729
 23
644.6754556760197
 33
0.0
 14
983.103629789473
 24
644.6754556760197
 34
0.0
 50
0.000000000000007
100
AcDbRotatedDimension
1001
ACAD
1000
DSTYLE
1002
{
1070
   371
1070
    18
1002
}
  0
LINE
  5
1DF6
330
1F
100
AcDbEntity
  8
実形
100
AcDbLine
 10
884.6036297894729
 20
654.6754556760197
 30
0.0
 11
983.103629789473
 21
654.6754556760197
 31
0.0
  0
ARC
  5
1DF7
330
1F
100
AcDbEntity
  8
実形
100
AcDbCircle
 10
859.103629789473
 20
693.0510689351438
 30
0.0
 40
30.0
100
AcDbArc
 50
180.0
 51
255.8505239136565
  0
LINE
  5
1DF8
330
1F
100
AcDbEntity
  8
実形
 48
0.5
370
    15
100
AcDbLine
 10
939.1036297894729
 20
732.8920795514331
 30
0.0
 11
939.1036297894729
 21
576.4762592441329
 31
0.0
  0
LINE
  5
1DFA
330
1F
100
AcDbEntity
  8
実形
100
AcDbLine
 10
884.6036297894729
 20
654.6754556760197
 30
0.0
 11
884.603629789473
 21
647.6754556760198
 31
0.0
  0
LINE
  5
1DFB
330
1F
100
AcDbEntity
  8
実形
100
AcDbLine
 10
829.1036297894729
 20
833.6754556760197
 30
0.0
 11
829.1036297894729
 21
693.0510689351438
 31
0.0
  0
LINE
  5
1DFC
330
1F
100
AcDbEntity
  8
実形
100
AcDbLine
 10
993.603629789473
 20
647.6754556760198
 30
0.0
 11
993.6036297894728
 21
654.6754556760197
 31
0.0
  0
LINE
  5
1DFD
330
1F
100
AcDbEntity
  8
実形
100
AcDbLine
 10
993.6036297894728
 20
654.6754556760197
 30
0.0
 11
993.6036297894728
 21
654.6754556760197
 31
0.0
  0
LINE
  5
1DFE
330
1F
100
AcDbEntity
  8
実形
100
AcDbLine
 10
983.103629789473
 20
654.6754556760197
 30
0.0
 11
993.6036297894728
 21
654.6754556760197
 31
0.0
  0
DIMENSION
  5
203C
330
1F
100
AcDbEntity
  8
実形
100
AcDbDimension
  2
*D17
 10
943.5936297894723
 20
1806.692185456832
 30
0.0
 11
866.0936297894723
 21
1825.442185456832
 31
0.0
 70
    32
 71
     5
 42
155.0
  3
ISO-25
100
AcDbAlignedDimension
 13
788.5936297894723
 23
1693.678331949444
 33
0.0
 14
943.5936297894723
 24
1693.678331949444
 34
0.0
100
AcDbRotatedDimension
1001
ACAD
1000
DSTYLE
1002
{
1070
   371
1070
    18
1070
   372
1070
    18
1002
}
  0
DIMENSION
  5
2049
330
1F
100
AcDbEntity
  8
実形
100
AcDbDimension
  2
*D18
 10
1460.671885157082
 20
1468.675455676019
 30
0.0
 11
1441.921885157082
 21
1356.17545567602
 31
0.0
 70
    32
 71
     5
 42
225.0
  3
ISO-25
100
AcDbAlignedDimension
 13
1318.593629789472
 23
1243.67545567602
 33
0.0
 14
1318.593629789472
 24
1468.675455676019
 34
0.0
 50
90.0
100
AcDbRotatedDimension
1001
ACAD
1000
DSTYLE
1002
{
1070
   371
1070
    18
1070
   372
1070
    18
1002
}
  0
ARC
  5
20ED
330
1F
100
AcDbEntity
  8
実形
100
AcDbCircle
 10
1162.78530197055
 20
1538.67545567602
 30
0.0
 40
110.0
100
AcDbArc
 50
6.384371685664699
 51
90.0
  0
ARC
  5
20EF
330
1F
100
AcDbEntity
  8
実形
100
AcDbCircle
 10
1162.78530197055
 20
1398.675455676019
 30
0.0
 40
110.0
100
AcDbArc
 50
270.0
 51
353.6156283143353
  0
ARC
  5
20F1
330
1F
100
AcDbEntity
  8
実形
100
AcDbCircle
 10
948.8919576083935
 20
1398.67545567602
 30
0.0
 40
110.0
100
AcDbArc
 50
186.3843716856646
 51
270.0000000000001
  0
ARC
  5
20F2
330
1F
100
AcDbEntity
  8
実形
100
AcDbCircle
 10
948.8919576083937
 20
1538.67545567602
 30
0.0
 40
110.0
100
AcDbArc
 50
90.0
 51
173.6156283143353
  0
ARC
  5
20F7
330
1F
100
AcDbEntity
  8
実形
100
AcDbCircle
 10
1600.553267929243
 20
1468.675455676019
 30
0.0
 40
765.4092285302927
100
AcDbArc
 50
173.8325226044389
 51
186.1674773955609
  0
ARC
  5
20F8
330
1F
100
AcDbEntity
  8
実形
100
AcDbCircle
 10
511.1239916497009
 20
1468.675455676019
 30
0.0
 40
765.4092285302925
100
AcDbArc
 50
353.832522604439
 51
6.167477395561082
  0
CIRCLE
  5
2121
330
1F
100
AcDbEntity
  8
実形
100
AcDbCircle
 10
943.5936297894723
 20
1468.675455676019
 30
0.0
 40
58.0
  0
CIRCLE
  5
2122
330
1F
100
AcDbEntity
  8
実形
100
AcDbCircle
 10
943.5936297894723
 20
1468.675455676019
 30
0.0
 40
44.0
  0
LINE
  5
2147
330
1F
100
AcDbEntity
  8
実形
100
AcDbLine
 10
993.6036297894728
 20
654.6754556760197
 30
0.0
 11
1255.417202549253
 21
663.9612303213425
 31
0.0
  0
LINE
  5
2148
330
1F
100
AcDbEntity
  8
実形
100
AcDbLine
 10
851.770057029692
 20
663.9612303213425
 30
0.0
 11
884.6036297894729
 21
654.6754556760197
 31
0.0
  0
DIMENSION
  5
225E
330
1F
100
AcDbEntity
  8
実形
100
AcDbDimension
  2
*D19
 10
633.9629018630796
 20
1261.67545567602
 30
0.0
 11
617.7852912291136
 21
1283.402800469799
 31
0.0
 70
   160
 71
     5
 42
27.0
  3
ISO-25
100
AcDbAlignedDimension
 13
788.5936297894723
 23
1288.67545567602
 33
0.0
 14
723.5936297894722
 24
1261.67545567602
 34
0.0
 50
90.0
100
AcDbRotatedDimension
1001
ACAD
1000
DSTYLE
1002
{
1070
   279
1070
     1
1070
   371
1070
    18
1070
   372
1070
    18
1002
}
  0
ARC
  5
2575
330
1F
100
AcDbEntity
  8
実形
100
AcDbCircle
 10
1055.838629789471
 20
-348.463099684973
 30
0.0
 40
2000.0
100
AcDbArc
 50
86.93474154148324
 51
93.06525845851679
  0
ARC
  5
2576
330
1F
100
AcDbEntity
  8
実形
100
AcDbCircle
 10
1055.838629789471
 20
3285.814011037012
 30
0.0
 40
2000.0
100
AcDbArc
 50
266.9347415414832
 51
273.0652584585168
  0
ARC
  5
2577
330
1F
100
AcDbEntity
  8
実形
100
AcDbCircle
 10
836.5936297894721
 20
1645.678331949444
 30
0.0
 40
30.0
100
AcDbArc
 50
89.99999999999994
 51
180.0
  0
ARC
  5
2578
330
1F
100
AcDbEntity
  8
実形
100
AcDbCircle
 10
1270.593629789472
 20
1645.678331949444
 30
0.0
 40
30.0
100
AcDbArc
 50
0.0
 51
89.99999999999998
  0
ARC
  5
2579
330
1F
100
AcDbEntity
  8
実形
100
AcDbCircle
 10
1270.593629789472
 20
1291.678331949445
 30
0.0
 40
30.0
100
AcDbArc
 50
270.0000000000001
 51
360.0
  0
ARC
  5
257A
330
1F
100
AcDbEntity
  8
実形
100
AcDbCircle
 10
836.5936297894723
 20
1291.678331949444
 30
0.0
 40
30.0
100
AcDbArc
 50
180.0
 51
270.0000000000001
  0
ARC
  5
257B
330
1F
100
AcDbEntity
  8
実形
100
AcDbCircle
 10
836.5936297894723
 20
1291.678331949444
 30
0.0
 40
35.0
100
AcDbArc
 50
180.0
 51
270.0000000000001
  0
ARC
  5
257C
330
1F
100
AcDbEntity
  8
実形
100
AcDbCircle
 10
1270.593629789472
 20
1291.678331949444
 30
0.0
 40
35.0
100
AcDbArc
 50
270.0000000000001
 51
0.0
  0
ARC
  5
257D
330
1F
100
AcDbEntity
  8
実形
100
AcDbCircle
 10
1270.593629789472
 20
1645.678331949445
 30
0.0
 40
35.0
100
AcDbArc
 50
360.0
 51
90.0
  0
ARC
  5
257E
330
1F
100
AcDbEntity
  8
実形
100
AcDbCircle
 10
836.5936297894727
 20
1645.678331949445
 30
0.0
 40
35.0
100
AcDbArc
 50
90.00000000000003
 51
180.0
  0
LINE
  5
2580
330
1F
100
AcDbEntity
  8
実形
  6
HIDDEN2
100
AcDbLine
 10
828.5239377141826
 20
1488.67545567602
 30
0.0
 11
828.5239377141826
 21
1448.67545567602
 31
0.0
  0
LINE
  5
2582
330
1F
100
AcDbEntity
  8
実形
100
AcDbLine
 10
835.4053821454963
 20
1488.67545567602
 30
0.0
 11
828.5239377141826
 21
1488.67545567602
 31
0.0
  0
LINE
  5
2583
330
1F
100
AcDbEntity
  8
実形
100
AcDbLine
 10
835.4053821454963
 20
1448.67545567602
 30
0.0
 11
828.5239377141826
 21
1448.67545567602
 31
0.0
  0
TEXT
  5
2584
330
1F
100
AcDbEntity
  8
実形
100
AcDbText
 10
848.3583304254301
 20
1411.86357319269
 30
0.0
 40
20.0
  1
OF
 72
     4
 11
865.0249970920967
 21
1421.86357319269
 31
0.0
100
AcDbText
  0
LINE
  5
25F3
330
1F
100
AcDbEntity
  8
実形
100
AcDbLine
 10
884.6036297894729
 20
647.6754556760197
 30
0.0
 11
993.603629789473
 21
647.6754556760197
 31
0.0
  0
TEXT
  5
2631
330
1F
100
AcDbEntity
  8
実形
 62
     0
370
    18
100
AcDbText
 10
693.0543001946348
 20
658.9426867857983
 30
0.0
 40
25.0
  1
15
 50
90.0
100
AcDbText
  0
LINE
  5
2632
330
1F
100
AcDbEntity
  8
実形
 62
     0
100
AcDbLine
 10
712.5159412358371
 20
848.6754556760198
 30
0.0
 11
578.6776341361203
 21
848.6754556760198
 31
0.0
  0
LINE
  5
2633
330
1F
100
AcDbEntity
  8
実形
 62
     0
100
AcDbLine
 10
712.5159412358369
 20
844.6754556760197
 30
0.0
 11
645.5159412358369
 21
844.6754556760199
 31
0.0
  0
LINE
  5
2634
330
1F
100
AcDbEntity
  8
実形
 62
     0
100
AcDbLine
 10
712.5159412358369
 20
841.1754556760197
 30
0.0
 11
645.5159412358369
 21
841.1754556760199
 31
0.0
  0
LINE
  5
2635
330
1F
100
AcDbEntity
  8
実形
 62
     0
100
AcDbLine
 10
712.5159412358372
 20
647.6754556760198
 30
0.0
 11
578.6776341361201
 21
647.6754556760197
 31
0.0
  0
LINE
  5
2636
330
1F
100
AcDbEntity
  8
実形
 62
     0
100
AcDbLine
 10
765.720172107005
 20
654.6754556760197
 30
0.0
 11
645.5159412358373
 21
654.6754556760197
 31
0.0
  0
LINE
  5
2637
330
1F
100
AcDbEntity
  8
実形
 62
     0
100
AcDbLine
 10
765.720172107005
 20
669.6754556760196
 30
0.0
 11
712.5159412358372
 21
669.6754556760195
 31
0.0
  0
LINE
  5
2638
330
1F
100
AcDbEntity
  8
実形
 62
     0
100
AcDbLine
 10
578.6776341361202
 20
848.6754556760198
 30
0.0
 11
578.6776341361201
 21
647.6754556760197
 31
0.0
  0
TEXT
  5
2639
330
1F
100
AcDbEntity
  8
実形
 62
     0
370
    18
100
AcDbText
 10
565.8409430566966
 20
725.7388285546335
 30
0.0
 40
25.0
  1
201
 50
90.0
100
AcDbText
  0
TEXT
  5
263A
330
1F
100
AcDbEntity
  8
実形
 62
     0
370
    18
100
AcDbText
 10
632.8425844230442
 20
718.6691306477983
 30
0.0
 40
25.0
  1
190
 50
90.0
100
AcDbText
  0
LINE
  5
263B
330
1F
100
AcDbEntity
  8
実形
 62
     0
100
AcDbLine
 10
645.5159412358369
 20
848.6754556760198
 30
0.0
 11
645.5159412358372
 21
647.6754556760198
 31
0.0
  0
LINE
  5
263C
330
1F
100
AcDbEntity
  8
実形
 62
     0
100
AcDbLine
 10
712.5159412358372
 20
669.6754556760193
 30
0.0
 11
712.5159412358372
 21
654.6754556760197
 31
0.0
  0
TEXT
  5
263D
330
1F
100
AcDbEntity
  8
実形
 62
     0
370
    18
100
AcDbText
 10
577.4099240643045
 20
646.6482496510261
 30
0.0
 40
3.0
  1
●
100
AcDbText
  0
TEXT
  5
263E
330
1F
100
AcDbEntity
  8
実形
 62
     0
370
    18
100
AcDbText
 10
577.2027214005247
 20
847.1044120523101
 30
0.0
 40
3.0
  1
●
100
AcDbText
  0
TEXT
  5
263F
330
1F
100
AcDbEntity
  8
実形
 62
     0
370
    18
100
AcDbText
 10
642.3893371302906
 20
620.2747226495875
 30
0.0
 40
25.0
  1
7
 50
90.0
100
AcDbText
  0
TEXT
  5
2640
330
1F
100
AcDbEntity
  8
実形
 62
     0
370
    18
100
AcDbText
 10
632.9699938966114
 20
810.6027560095972
 30
0.0
 40
25.0
  1
1
 50
90.0
100
AcDbText
  0
TEXT
  5
2641
330
1F
100
AcDbEntity
  8
実形
 62
     0
370
    18
100
AcDbText
 10
634.8284049905887
 20
865.1349454946631
 30
0.0
 40
25.0
  1
3
 50
90.0
100
AcDbText
  0
TEXT
  5
2642
330
1F
100
AcDbEntity
  8
実形
 62
     0
370
    18
100
AcDbText
 10
644.1966684929503
 20
847.1073192805924
 30
0.0
 40
3.0
  1
●
100
AcDbText
  0
TEXT
  5
2643
330
1F
100
AcDbEntity
  8
実形
 62
     0
370
    18
100
AcDbText
 10
644.1966684929503
 20
843.1036679623293
 30
0.0
 40
3.0
  1
●
100
AcDbText
  0
TEXT
  5
2644
330
1F
100
AcDbEntity
  8
実形
 62
     0
370
    18
100
AcDbText
 10
644.1314774595139
 20
839.5750213207575
 30
0.0
 40
3.0
  1
●
100
AcDbText
  0
TEXT
  5
2645
330
1F
100
AcDbEntity
  8
実形
 62
     0
370
    18
100
AcDbText
 10
644.0565371116154
 20
653.215833483332
 30
0.0
 40
3.0
  1
●
100
AcDbText
  0
TEXT
  5
2646
330
1F
100
AcDbEntity
  8
実形
 62
     0
370
    18
100
AcDbText
 10
644.0565371116154
 20
646.1345808617688
 30
0.0
 40
3.0
  1
●
100
AcDbText
  0
TEXT
  5
2647
330
1F
100
AcDbEntity
  8
実形
 62
     0
370
    18
100
AcDbText
 10
711.1615802108481
 20
653.3875758018966
 30
0.0
 40
3.0
  1
●
100
AcDbText
  0
TEXT
  5
2648
330
1F
100
AcDbEntity
  8
実形
 62
     0
370
    18
100
AcDbText
 10
711.0278011290374
 20
668.3646850607219
 30
0.0
 40
3.0
  1
●
100
AcDbText
  0
LINE
  5
2733
330
1F
100
AcDbEntity
  8
補助
100
AcDbLine
 10
2784.0
 20
1829.0
 30
0.0
 11
2019.387286519283
 21
1829.0
 31
0.0
  0
LINE
  5
2734
330
1F
100
AcDbEntity
  8
補助
100
AcDbLine
 10
2784.0
 20
1959.0
 30
0.0
 11
2019.387286519283
 21
1959.0
 31
0.0
  0
LINE
  5
2735
330
1F
100
AcDbEntity
  8
補助
100
AcDbLine
 10
2784.0
 20
1894.0
 30
0.0
 11
2019.387286519282
 21
1894.0
 31
0.0
  0
LINE
  5
2736
330
1F
100
AcDbEntity
  8
補助
100
AcDbLine
 10
2202.547653420927
 20
1829.0
 30
0.0
 11
2202.547653420927
 21
2024.0
 31
0.0
  0
LINE
  5
2737
330
1F
100
AcDbEntity
  8
補助
100
AcDbLine
 10
2019.387286519282
 20
1829.0
 30
0.0
 11
2019.387286519283
 21
2024.0
 31
0.0
  0
TEXT
  5
2738
330
1F
100
AcDbEntity
  8
実形
100
AcDbText
 10
2048.227810657787
 20
1845.557142857143
 30
0.0
 40
30.0
  1
ボウル
  7
明朝
 72
     4
 11
2114.056382086358
 21
1861.5
 31
0.0
100
AcDbText
  0
TEXT
  5
2739
330
1F
100
AcDbEntity
  8
補助
100
AcDbText
 10
2050.295698850121
 20
1976.328571428572
 30
0.0
 40
30.0
  1
部品名
  7
明朝
 72
     4
 11
2116.124270278692
 21
1991.5
 31
0.0
100
AcDbText
  0
TEXT
  5
273A
330
1F
100
AcDbEntity
  8
実形
100
AcDbText
 10
2050.295698850121
 20
1911.242857142857
 30
0.0
 40
30.0
  1
天板
  7
明朝
 72
     4
 11
2094.181413135835
 21
1926.5
 31
0.0
100
AcDbText
  0
TEXT
  5
273B
330
1F
100
AcDbEntity
  8
実形
100
AcDbText
 10
2594.7
 20
1846.842857142857
 30
0.0
 40
30.0
  1
0.7ｍｍ
  7
明朝
 72
     4
 11
2671.5
 21
1861.5
 31
0.0
100
AcDbText
  0
TEXT
  5
273C
330
1F
100
AcDbEntity
  8
実形
100
AcDbText
 10
2594.7
 20
1911.842857142857
 30
0.0
 40
30.0
  1
1.0ｍｍ
  7
明朝
 72
     4
 11
2671.5
 21
1926.5
 31
0.0
100
AcDbText
  0
TEXT
  5
273D
330
1F
100
AcDbEntity
  8
補助
100
AcDbText
 10
2627.614285714286
 20
1976.071428571429
 30
0.0
 40
30.0
  1
厚さ
  7
明朝
 72
     4
 11
2671.5
 21
1991.5
 31
0.0
100
AcDbText
  0
LINE
  5
273E
330
1F
100
AcDbEntity
  8
補助
100
AcDbLine
 10
2559.0
 20
1829.0
 30
0.0
 11
2559.0
 21
2024.0
 31
0.0
  0
TEXT
  5
273F
330
1F
100
AcDbEntity
  8
実形
100
AcDbText
 10
2261.016869107865
 20
1845.728571428571
 30
0.0
 40
30.0
  1
SUS304（BA）
  7
明朝
 72
     4
 11
2392.674011965008
 21
1861.5
 31
0.0
100
AcDbText
  0
TEXT
  5
2740
330
1F
100
AcDbEntity
  8
実形
100
AcDbText
 10
2261.378133626422
 20
1910.728571428572
 30
0.0
 40
30.0
  1
SUS304（H/L）
  7
明朝
 72
     4
 11
2404.006705054993
 21
1926.5
 31
0.0
100
AcDbText
  0
TEXT
  5
2741
330
1F
100
AcDbEntity
  8
補助
100
AcDbText
 10
2338.490869919937
 20
1975.947979478155
 30
0.0
 40
30.0
  1
材質
  7
明朝
 72
     4
 11
2382.376584205651
 21
1991.119408049583
 31
0.0
100
AcDbText
  0
LINE
  5
2742
330
1F
100
AcDbEntity
  8
実形
100
AcDbLine
 10
111.0
 20
2024.0
 30
0.0
 11
111.0
 21
4.0
 31
0.0
  0
VIEWPORT
  5
2E
102
{ACAD_XDICTIONARY
360
2768
102
}
330
1B
100
AcDbEntity
 67
     1
  8
0
100
AcDbViewport
 10
144.7270812988281
 20
101.2295806407928
 30
0.0
 40
411.6736216682419
 41
222.1517806396485
 68
     1
 69
     1
 12
144.7270812988281
 22
101.2295806407928
 13
0.0
 23
0.0
 14
10.0
 24
10.0
 15
10.0
 25
10.0
 16
0.0
 26
0.0
 36
1.0
 17
0.0
 27
0.0
 37
0.0
 42
50.0
 43
0.0
 44
0.0
 45
222.1517806396485
 50
0.0
 51
0.0
 72
   100
 90
    32800
  1

281
     0
 71
     1
 74
     0
110
0.0
120
0.0
130
0.0
111
1.0
121
0.0
131
0.0
112
0.0
122
1.0
132
0.0
 79
     0
146
0.0
  0
VIEWPORT
  5
30
102
{ACAD_XDICTIONARY
360
276A
102
}
330
1B
100
AcDbEntity
 67
     1
  8
0
100
AcDbViewport
 10
139.2237563133239
 20
101.2295821905136
 30
0.0
 40
222.7580101013184
 41
161.9673315048218
 68
     2
 69
     2
 12
210.0
 22
148.5
 13
0.0
 23
0.0
 14
10.0
 24
10.0
 15
10.0
 25
10.0
 16
0.0
 26
0.0
 36
1.0
 17
0.0
 27
0.0
 37
0.0
 42
50.0
 43
0.0
 44
0.0
 45
309.0686705647124
 50
0.0
 51
0.0
 72
   100
 90
    32864
  1

281
     0
 71
     1
 74
     0
110
0.0
120
0.0
130
0.0
111
1.0
121
0.0
131
0.0
112
0.0
122
1.0
132
0.0
 79
     0
146
0.0
  0
ENDSEC
  0
SECTION
  2
OBJECTS
  0
DICTIONARY
  5
C
330
0
100
AcDbDictionary
281
     1
  3
ACAD_COLOR
350
1D03
  3
ACAD_GROUP
350
D
  3
ACAD_LAYOUT
350
1A
  3
ACAD_MATERIAL
350
1D02
  3
ACAD_MLINESTYLE
350
17
  3
ACAD_PLOTSETTINGS
350
19
  3
ACAD_PLOTSTYLENAME
350
E
  3
ACAD_TABLESTYLE
350
1D04
  3
AcadDim
350
124
  3
ACDBHEADERROUNDTRIPXREC
350
2761
  3
AcDbVariableDictionary
350
1055
  0
DICTIONARY
  5
2687
330
2
100
AcDbDictionary
280
     1
281
     1
  3
ACAD_LAYERFILTERS
360
2689
  3
ACAD_LAYERSTATES
360
271C
  3
ACLYDICTIONARY
360
2688
  0
DICTIONARY
  5
1E35
330
1F
100
AcDbDictionary
280
     1
281
     1
  3
ACAD_SORTENTS
360
1E36
  0
DICTIONARY
  5
2768
330
2E
100
AcDbDictionary
280
     1
281
     1
  3
ACAD_XREC_ROUNDTRIP
360
2769
  0
DICTIONARY
  5
276A
330
30
100
AcDbDictionary
280
     1
281
     1
  3
ACAD_XREC_ROUNDTRIP
360
276B
  0
DICTIONARY
  5
1D03
102
{ACAD_REACTORS
330
C
102
}
330
C
100
AcDbDictionary
281
     1
  0
DICTIONARY
  5
D
102
{ACAD_REACTORS
330
C
102
}
330
C
100
AcDbDictionary
281
     1
  0
DICTIONARY
  5
1A
102
{ACAD_REACTORS
330
C
102
}
330
C
100
AcDbDictionary
281
     1
  3
Model
350
22
  3
ﾚｲｱｳﾄ1
350
1E
  3
ﾚｲｱｳﾄ2
350
26
  0
DICTIONARY
  5
1D02
102
{ACAD_REACTORS
330
C
102
}
330
C
100
AcDbDictionary
281
     1
  0
DICTIONARY
  5
17
102
{ACAD_REACTORS
330
C
102
}
330
C
100
AcDbDictionary
281
     1
  3
Standard
350
18
  0
DICTIONARY
  5
19
102
{ACAD_REACTORS
330
C
102
}
330
C
100
AcDbDictionary
281
     1
  0
ACDBDICTIONARYWDFLT
  5
E
102
{ACAD_REACTORS
330
C
102
}
330
C
100
AcDbDictionary
281
     1
  3
Normal
350
F
100
AcDbDictionaryWithDefault
340
F
  0
DICTIONARY
  5
1D04
102
{ACAD_REACTORS
330
C
102
}
330
C
100
AcDbDictionary
281
     1
  3
Standard
350
1D05
  0
XRECORD
  5
124
102
{ACAD_REACTORS
330
C
102
}
330
C
100
AcDbXrecord
280
     1
 90
   990106
  3

 60
     0
 61
     0
 62
     1
 63
     3
 64
     0
 65
     0
 66
     0
 67
     3
 68
     1
 69
     0
 70
     0
 71
     0
 72
     0
 40
30.0
170
     0
  0
DICTIONARY
  5
2761
102
{ACAD_REACTORS
330
C
102
}
330
C
100
AcDbDictionary
281
     1
  0
DICTIONARY
  5
1055
102
{ACAD_REACTORS
330
C
102
}
330
C
100
AcDbDictionary
281
     1
  3
CTABLESTYLE
350
1E3B
  3
DIMASSOC
350
275E
  3
PROJECTNAME
350
275F
  3
SORTENTS
350
1056
  0
DICTIONARY
  5
2689
102
{ACAD_REACTORS
330
2687
102
}
330
2687
100
AcDbDictionary
281
     1
  0
DICTIONARY
  5
271C
102
{ACAD_REACTORS
330
2687
102
}
330
2687
100
AcDbDictionary
281
     1
  0
DICTIONARY
  5
2688
102
{ACAD_REACTORS
330
2687
102
}
330
2687
100
AcDbDictionary
281
     1
1001
ACAD
1000
<All
  0
SORTENTSTABLE
  5
1E36
102
{ACAD_REACTORS
330
1E35
102
}
330
1E35
100
AcDbSortentsTable
330
1F
331
A5
  5
8C9
331
2631
  5
2632
331
2639
  5
263A
331
2641
  5
2642
331
2736
  5
2737
331
273E
  5
273F
331
1CD9
  5
1DF5
331
1CE1
  5
1DFD
331
14A3
  5
14A4
331
1CE9
  5
203B
331
1DF8
  5
2121
331
14AB
  5
14BD
331
257A
  5
14BF
331
2582
  5
2584
331
1C4A
  5
1CD5
331
14B3
  5
1554
331
14BB
  5
1C47
331
1CD2
  5
1CEB
331
2632
  5
2633
331
263A
  5
263B
331
2642
  5
2643
331
2737
  5
2738
331
273F
  5
2740
331
1CDA
  5
1DF6
331
1CE2
  5
1DFE
331
14A4
  5
14A5
331
156B
  5
1CCC
331
1CEA
  5
203C
331
14AC
  5
14BE
331
257B
  5
154A
331
25F3
  5
20F7
331
1C4B
  5
1CD6
331
14B4
  5
1559
331
1D42
  5
205A
331
14BC
  5
1C49
331
1CD3
  5
1CEC
331
2633
  5
2634
331
263B
  5
263C
331
2643
  5
2644
331
2738
  5
2739
331
134E
  5
1382
331
1CDB
  5
1DF7
331
2049
  5
2577
331
1307
  5
132F
331
14A5
  5
14AA
331
1CE3
  5
1E29
331
14AD
  5
1549
331
17BC
  5
1CCD
331
1CEB
  5
2049
331
1DFA
  5
2122
331
20ED
  5
1CC2
331
2740
  5
2741
331
257C
  5
14B4
331
2584
  5
2631
331
1C4C
  5
1CD7
331
132F
  5
134E
331
12E0
  5
12ED
331
14BD
  5
1C4A
331
1CD4
  5
1CED
331
1DCB
  5
205D
331
A0
  5
A5
331
2634
  5
2635
331
263C
  5
263D
331
2644
  5
2645
331
2739
  5
273A
331
1CDC
  5
1DF8
331
1CE4
  5
1E34
331
1DF3
  5
205E
331
8C9
  5
12A2
331
14A6
  5
14B0
331
1CEC
  5
2057
331
1DFB
  5
2147
331
14AE
  5
154B
331
17BD
  5
1CCE
331
1C45
  5
1CD0
331
2575
  5
2580
331
2741
  5
2742
331
257D
  5
14B3
331
1C4D
  5
1CD8
331
14BE
  5
1C4B
331
1CD5
  5
1D42
331
154E
  5
1CC3
331
2635
  5
2636
331
263D
  5
263E
331
2645
  5
2646
331
225E
  5
257E
331
273A
  5
273B
331
1CDD
  5
1DF9
331
1566
  5
1CC7
331
1CE5
  5
1E37
331
1DF4
  5
20EC
331
1CED
  5
2059
331
1DFC
  5
2148
331
14AF
  5
154D
331
17BE
  5
1CCF
331
1C46
  5
1CD1
331
2576
  5
2582
331
20EF
  5
1CC1
331
2742
  5
A0
331
257E
  5
17BD
331
20F7
  5
2578
331
12A2
  5
12E0
331
14B7
  5
155E
331
14BF
  5
1C4C
331
1CD6
  5
1DCB
331
203C
  5
2576
331
2636
  5
2637
331
2147
  5
257C
331
263E
  5
263F
331
2733
  5
2734
331
2646
  5
2647
331
273B
  5
273C
331
1CDE
  5
1DFA
331
1567
  5
1CC8
331
1CE6
  5
1E38
331
1DFD
  5
225E
331
1C47
  5
1CD2
331
2577
  5
1552
331
20F8
  5
2579
331
14B0
  5
154E
331
13C9
  5
1472
331
14B8
  5
1567
331
1CD7
  5
1DF3
331
2148
  5
257D
331
2637
  5
2638
331
263F
  5
2640
331
2734
  5
2735
331
2647
  5
2648
331
273C
  5
273D
331
1CDF
  5
1DFB
331
1CE7
  5
1E39
331
1DF6
  5
20ED
331
1382
  5
13C9
331
14A9
  5
14B7
331
1DFE
  5
2575
331
20F1
  5
1CC5
331
2578
  5
14AE
331
2580
  5
25F3
331
2121
  5
257A
331
1C48
  5
1CD3
331
14B1
  5
1550
331
1CC0
  5
1CE8
331
1CD0
  5
1CE9
331
1472
  5
14A3
331
1549
  5
1CC0
331
9C
  5
9C
331
2638
  5
2639
331
2640
  5
2641
331
2735
  5
2736
331
273D
  5
273E
331
1CD8
  5
1DF4
331
1561
  5
1CC6
331
1CE0
  5
1DFC
331
1CE8
  5
203A
331
1DF7
  5
20F8
331
14AA
  5
14BA
331
2648
  5
2733
331
20F2
  5
1CC4
331
2579
  5
1548
331
2122
  5
257B
331
1C49
  5
1CD4
331
14BA
  5
1573
331
14C2
  5
1C4D
331
1CD1
  5
1CEA
331
12ED
  5
1307
  0
XRECORD
  5
2769
102
{ACAD_REACTORS
330
2768
102
}
330
2768
100
AcDbXrecord
280
     1
102
SHADEPLOT
 70
     0
  0
XRECORD
  5
276B
102
{ACAD_REACTORS
330
276A
102
}
330
276A
100
AcDbXrecord
280
     1
102
SHADEPLOT
 70
     0
  0
LAYOUT
  5
22
102
{ACAD_XDICTIONARY
360
2764
102
}
102
{ACAD_REACTORS
330
1A
102
}
330
1A
100
AcDbPlotSettings
  1

  2
EPSON PM-800C
  4
A4
  6

 40
3.757083177566528
 41
14.7637300491333
 42
3.757080078125
 43
3.757080078125
 44
209.9733276367187
 45
296.9683227539062
 46
0.0
 47
0.0
 48
0.0
 49
0.0
140
0.0
141
0.0
142
1.0
143
10.0
 70
 11952
 72
     1
 73
     1
 74
     2
  7

 75
    20
147
0.1
148
0.0
149
0.0
100
AcDbLayout
  1
Model
 70
     1
 71
     0
 10
0.0
 20
0.0
 11
12.0
 21
9.0
 12
0.0
 22
0.0
 32
0.0
 14
0.0
 24
0.0
 34
0.0
 15
0.0
 25
0.0
 35
0.0
146
0.0
 13
0.0
 23
0.0
 33
0.0
 16
1.0
 26
0.0
 36
0.0
 17
0.0
 27
1.0
 37
0.0
 76
     0
330
1F
  0
LAYOUT
  5
1E
102
{ACAD_XDICTIONARY
360
2762
102
}
102
{ACAD_REACTORS
330
1A
102
}
330
1A
100
AcDbPlotSettings
  1

  2
EPSON PM-800C
  4
A4
  6

 40
3.757083177566528
 41
14.7637300491333
 42
3.757080078125
 43
3.757080078125
 44
209.9733276367187
 45
296.9683227539062
 46
0.0
 47
0.0
 48
0.0
 49
0.0
140
0.0
141
0.0
142
1.0
143
1.0
 70
   688
 72
     1
 73
     1
 74
     5
  7

 75
    16
147
1.0
148
0.0
149
0.0
100
AcDbLayout
  1
ﾚｲｱｳﾄ1
 70
     1
 71
     1
 10
-3.757080078125
 20
-3.757083177566528
 11
293.2112426757813
 21
206.2162444591522
 12
0.0
 22
0.0
 32
0.0
 14
27.8447512626648
 24
20.24591643810271
 34
0.0
 15
250.6027613639831
 25
182.2132479429245
 35
0.0
146
0.0
 13
0.0
 23
0.0
 33
0.0
 16
1.0
 26
0.0
 36
0.0
 17
0.0
 27
1.0
 37
0.0
 76
     0
330
1B
331
2E
  0
LAYOUT
  5
26
102
{ACAD_XDICTIONARY
360
2766
102
}
102
{ACAD_REACTORS
330
1A
102
}
330
1A
100
AcDbPlotSettings
  1

  2
EPSON PM-800C
  4

  6

 40
0.0
 41
0.0
 42
0.0
 43
0.0
 44
0.0
 45
0.0
 46
0.0
 47
0.0
 48
0.0
 49
0.0
140
0.0
141
0.0
142
1.0
143
1.0
 70
   688
 72
     0
 73
     0
 74
     5
  7

 75
    16
147
1.0
148
0.0
149
0.0
100
AcDbLayout
  1
ﾚｲｱｳﾄ2
 70
     1
 71
     2
 10
0.0
 20
0.0
 11
12.0
 21
9.0
 12
0.0
 22
0.0
 32
0.0
 14
0.0
 24
0.0
 34
0.0
 15
0.0
 25
0.0
 35
0.0
146
0.0
 13
0.0
 23
0.0
 33
0.0
 16
1.0
 26
0.0
 36
0.0
 17
0.0
 27
1.0
 37
0.0
 76
     0
330
23
  0
MLINESTYLE
  5
18
102
{ACAD_REACTORS
330
17
102
}
330
17
100
AcDbMlineStyle
  2
STANDARD
 70
     0
  3

 62
   256
 51
90.0
 52
90.0
 71
     2
 49
0.5
 62
   256
  6
BYLAYER
 49
-0.5
 62
   256
  6
BYLAYER
  0
ACDBPLACEHOLDER
  5
F
102
{ACAD_REACTORS
330
E
102
}
330
E
  0
TABLESTYLE
  5
1D05
102
{ACAD_REACTORS
330
1D04
102
}
330
1D04
100
AcDbTableStyle
  3
Standard
 70
     0
 71
     0
 40
1.5
 41
1.5
280
     0
281
     0
  7
Standard
140
4.5
170
     2
 62
     0
 63
     7
283
     0
274
    -2
284
     1
 64
     0
275
    -2
285
     1
 65
     0
276
    -2
286
     1
 66
     0
277
    -2
287
     1
 67
     0
278
    -2
288
     1
 68
     0
279
    -2
289
     1
 69
     0
  7
Standard
140
6.0
170
     5
 62
     0
 63
     7
283
     0
274
    -2
284
     1
 64
     0
275
    -2
285
     1
 65
     0
276
    -2
286
     1
 66
     0
277
    -2
287
     1
 67
     0
278
    -2
288
     1
 68
     0
279
    -2
289
     1
 69
     0
  7
Standard
140
4.5
170
     5
 62
     0
 63
     7
283
     0
274
    -2
284
     1
 64
     0
275
    -2
285
     1
 65
     0
276
    -2
286
     1
 66
     0
277
    -2
287
     1
 67
     0
278
    -2
288
     1
 68
     0
279
    -2
289
     1
 69
     0
  0
DICTIONARYVAR
  5
1E3B
102
{ACAD_REACTORS
330
1055
102
}
330
1055
100
DictionaryVariables
280
     0
  1
STANDARD
  0
DICTIONARYVAR
  5
275E
102
{ACAD_REACTORS
330
1055
102
}
330
1055
100
DictionaryVariables
280
     0
  1
1
  0
DICTIONARYVAR
  5
275F
102
{ACAD_REACTORS
330
1055
102
}
330
1055
100
DictionaryVariables
280
     0
  1

  0
DICTIONARYVAR
  5
1056
102
{ACAD_REACTORS
330
1055
102
}
330
1055
100
DictionaryVariables
280
     0
  1
96
  0
DICTIONARY
  5
2764
330
22
100
AcDbDictionary
280
     1
281
     1
  3
ACAD_XREC_ROUNDTRIP
360
2765
  0
DICTIONARY
  5
2762
330
1E
100
AcDbDictionary
280
     1
281
     1
  3
ACAD_XREC_ROUNDTRIP
360
2763
  0
DICTIONARY
  5
2766
330
26
100
AcDbDictionary
280
     1
281
     1
  3
ACAD_XREC_ROUNDTRIP
360
2767
  0
XRECORD
  5
2765
102
{ACAD_REACTORS
330
2764
102
}
330
2764
100
AcDbXrecord
280
     1
102
SHADEPLOT
 70
     0
102
SHADEPLOTRESLEVEL
 70
     2
102
SHADEPLOTCUSTOMDPI
 70
   300
  0
XRECORD
  5
2763
102
{ACAD_REACTORS
330
2762
102
}
330
2762
100
AcDbXrecord
280
     1
102
SHADEPLOT
 70
     0
102
SHADEPLOTRESLEVEL
 70
     2
102
SHADEPLOTCUSTOMDPI
 70
   300
  0
XRECORD
  5
2767
102
{ACAD_REACTORS
330
2766
102
}
330
2766
100
AcDbXrecord
280
     1
102
SHADEPLOT
 70
     0
102
SHADEPLOTRESLEVEL
 70
     2
102
SHADEPLOTCUSTOMDPI
 70
   300
  0
ENDSEC
  0
EOF
