  0
SECTION
  2
HEADER
  9
$ACADVER
  1
AC1015
  9
$ACADMAINTVER
 70
    20
  9
$DWGCODEPAGE
  3
ANSI_932
  9
$INSBASE
 10
0.0
 20
0.0
 30
0.0
  9
$EXTMIN
 10
111.0
 20
4.0
 30
0.0
  9
$EXTMAX
 10
2784.000000000001
 20
2024.0
 30
0.0
  9
$LIMMIN
 10
0.0
 20
0.0
  9
$LIMMAX
 10
29700.0
 20
21000.0
  9
$ORTHOMODE
 70
     1
  9
$REGENMODE
 70
     1
  9
$FILLMODE
 70
     1
  9
$QTEXTMODE
 70
     0
  9
$MIRRTEXT
 70
     1
  9
$LTSCALE
 40
4.0
  9
$ATTMODE
 70
     1
  9
$TEXTSIZE
 40
25.0
  9
$TRACEWID
 40
1.0
  9
$TEXTSTYLE
  7
Standard
  9
$CLAYER
  8
実形
  9
$CELTYPE
  6
ByLayer
  9
$CECOLOR
 62
   256
  9
$CELTSCALE
 40
1.0
  9
$DISPSILH
 70
     0
  9
$DIMSCALE
 40
1.0
  9
$DIMASZ
 40
35.0
  9
$DIMEXO
 40
65.0
  9
$DIMDLI
 40
3.75
  9
$DIMRND
 40
0.0
  9
$DIMDLE
 40
0.0
  9
$DIMEXE
 40
0.0
  9
$DIMTP
 40
0.0
  9
$DIMTM
 40
0.0
  9
$DIMTXT
 40
25.0
  9
$DIMCEN
 40
2.5
  9
$DIMTSZ
 40
0.0
  9
$DIMTOL
 70
     0
  9
$DIMLIM
 70
     0
  9
$DIMTIH
 70
     0
  9
$DIMTOH
 70
     0
  9
$DIMSE1
 70
     0
  9
$DIMSE2
 70
     0
  9
$DIMTAD
 70
     1
  9
$DIMZIN
 70
     8
  9
$DIMBLK
  1
DotSmall
  9
$DIMASO
 70
     1
  9
$DIMSHO
 70
     1
  9
$DIMPOST
  1

  9
$DIMAPOST
  1

  9
$DIMALT
 70
     0
  9
$DIMALTD
 70
     3
  9
$DIMALTF
 40
0.03937007874016
  9
$DIMLFAC
 40
1.0
  9
$DIMTOFL
 70
     1
  9
$DIMTVP
 40
0.0
  9
$DIMTIX
 70
     0
  9
$DIMSOXD
 70
     0
  9
$DIMSAH
 70
     0
  9
$DIMBLK1
  1

  9
$DIMBLK2
  1

  9
$DIMSTYLE
  2
ISO-25
  9
$DIMCLRD
 70
     0
  9
$DIMCLRE
 70
     0
  9
$DIMCLRT
 70
     0
  9
$DIMTFAC
 40
1.0
  9
$DIMGAP
 40
6.25
  9
$DIMJUST
 70
     0
  9
$DIMSD1
 70
     0
  9
$DIMSD2
 70
     0
  9
$DIMTOLJ
 70
     0
  9
$DIMTZIN
 70
     8
  9
$DIMALTZ
 70
     0
  9
$DIMALTTZ
 70
     0
  9
$DIMUPT
 70
     0
  9
$DIMDEC
 70
     2
  9
$DIMTDEC
 70
     2
  9
$DIMALTU
 70
     2
  9
$DIMALTTD
 70
     3
  9
$DIMTXSTY
  7
Standard
  9
$DIMAUNIT
 70
     0
  9
$DIMADEC
 70
     0
  9
$DIMALTRND
 40
0.0
  9
$DIMAZIN
 70
     0
  9
$DIMDSEP
 70
    46
  9
$DIMATFIT
 70
     3
  9
$DIMFRAC
 70
     0
  9
$DIMLDRBLK
  1
Open30
  9
$DIMLUNIT
 70
     2
  9
$DIMLWD
 70
    18
  9
$DIMLWE
 70
    18
  9
$DIMTMOVE
 70
     2
  9
$LUNITS
 70
     2
  9
$LUPREC
 70
     2
  9
$SKETCHINC
 40
1.0
  9
$FILLETRAD
 40
110.0
  9
$AUNITS
 70
     0
  9
$AUPREC
 70
     0
  9
$MENU
  1
.
  9
$ELEVATION
 40
0.0
  9
$PELEVATION
 40
0.0
  9
$THICKNESS
 40
0.0
  9
$LIMCHECK
 70
     1
  9
$CHAMFERA
 40
10.0
  9
$CHAMFERB
 40
10.0
  9
$CHAMFERC
 40
20.0
  9
$CHAMFERD
 40
0.0
  9
$SKPOLY
 70
     0
  9
$TDCREATE
 40
2451673.575802199
  9
$TDUCREATE
 40
2451673.200802199
  9
$TDUPDATE
 40
2458809.751813924
  9
$TDUUPDATE
 40
2458809.376813924
  9
$TDINDWG
 40
1.7108125347
  9
$TDUSRTIMER
 40
1.7108118403
  9
$USRTIMER
 70
     1
  9
$ANGBASE
 50
0.0
  9
$ANGDIR
 70
     0
  9
$PDMODE
 70
    99
  9
$PDSIZE
 40
5.0
  9
$PLINEWID
 40
0.0
  9
$SPLFRAME
 70
     0
  9
$SPLINETYPE
 70
     6
  9
$SPLINESEGS
 70
     8
  9
$HANDSEED
  5
310B
  9
$SURFTAB1
 70
     6
  9
$SURFTAB2
 70
     6
  9
$SURFTYPE
 70
     6
  9
$SURFU
 70
     6
  9
$SURFV
 70
     6
  9
$UCSBASE
  2

  9
$UCSNAME
  2

  9
$UCSORG
 10
0.0
 20
0.0
 30
0.0
  9
$UCSXDIR
 10
1.0
 20
0.0
 30
0.0
  9
$UCSYDIR
 10
0.0
 20
1.0
 30
0.0
  9
$UCSORTHOREF
  2

  9
$UCSORTHOVIEW
 70
     0
  9
$UCSORGTOP
 10
0.0
 20
0.0
 30
0.0
  9
$UCSORGBOTTOM
 10
0.0
 20
0.0
 30
0.0
  9
$UCSORGLEFT
 10
0.0
 20
0.0
 30
0.0
  9
$UCSORGRIGHT
 10
0.0
 20
0.0
 30
0.0
  9
$UCSORGFRONT
 10
0.0
 20
0.0
 30
0.0
  9
$UCSORGBACK
 10
0.0
 20
0.0
 30
0.0
  9
$PUCSBASE
  2

  9
$PUCSNAME
  2

  9
$PUCSORG
 10
0.0
 20
0.0
 30
0.0
  9
$PUCSXDIR
 10
1.0
 20
0.0
 30
0.0
  9
$PUCSYDIR
 10
0.0
 20
1.0
 30
0.0
  9
$PUCSORTHOREF
  2

  9
$PUCSORTHOVIEW
 70
     0
  9
$PUCSORGTOP
 10
0.0
 20
0.0
 30
0.0
  9
$PUCSORGBOTTOM
 10
0.0
 20
0.0
 30
0.0
  9
$PUCSORGLEFT
 10
0.0
 20
0.0
 30
0.0
  9
$PUCSORGRIGHT
 10
0.0
 20
0.0
 30
0.0
  9
$PUCSORGFRONT
 10
0.0
 20
0.0
 30
0.0
  9
$PUCSORGBACK
 10
0.0
 20
0.0
 30
0.0
  9
$USERI1
 70
     0
  9
$USERI2
 70
     0
  9
$USERI3
 70
     0
  9
$USERI4
 70
     0
  9
$USERI5
 70
     0
  9
$USERR1
 40
0.0
  9
$USERR2
 40
0.0
  9
$USERR3
 40
0.0
  9
$USERR4
 40
0.0
  9
$USERR5
 40
0.0
  9
$WORLDVIEW
 70
     1
  9
$SHADEDGE
 70
     3
  9
$SHADEDIF
 70
    70
  9
$TILEMODE
 70
     1
  9
$MAXACTVP
 70
    64
  9
$PINSBASE
 10
0.0
 20
0.0
 30
0.0
  9
$PLIMCHECK
 70
     0
  9
$PEXTMIN
 10
27.8447512626648
 20
20.24591643810271
 30
0.0
  9
$PEXTMAX
 10
250.6027613639831
 20
182.2132479429245
 30
0.0
  9
$PLIMMIN
 10
-3.757080078125
 20
-3.757083177566528
  9
$PLIMMAX
 10
293.2112426757813
 20
206.2162444591522
  9
$UNITMODE
 70
     0
  9
$VISRETAIN
 70
     1
  9
$PLINEGEN
 70
     0
  9
$PSLTSCALE
 70
     1
  9
$TREEDEPTH
 70
  3020
  9
$CMLSTYLE
  2
Standard
  9
$CMLJUST
 70
     0
  9
$CMLSCALE
 40
20.0
  9
$PROXYGRAPHICS
 70
     1
  9
$MEASUREMENT
 70
     1
  9
$CELWEIGHT
370
    -1
  9
$ENDCAPS
280
     0
  9
$JOINSTYLE
280
     0
  9
$LWDISPLAY
290
     0
  9
$INSUNITS
 70
     4
  9
$HYPERLINKBASE
  1

  9
$STYLESHEET
  1

  9
$XEDIT
290
     1
  9
$CEPSNTYPE
380
     0
  9
$PSTYLEMODE
290
     1
  9
$FINGERPRINTGUID
  2
{C8EA1F16-24C9-11D4-9416-CE0A3B32152F}
  9
$VERSIONGUID
  2
{A806D3B8-244C-4FFA-ACB4-E8A81D0E18B8}
  9
$EXTNAMES
290
     1
  9
$PSVPSCALE
 40
0.0
  9
$OLESTARTUP
290
     0
  0
ENDSEC
  0
SECTION
  2
CLASSES
  0
CLASS
  1
ACDBDICTIONARYWDFLT
  2
AcDbDictionaryWithDefault
  3
ObjectDBX Classes
 90
        0
280
     0
281
     0
  0
CLASS
  1
ACDBPLACEHOLDER
  2
AcDbPlaceHolder
  3
ObjectDBX Classes
 90
        0
280
     0
281
     0
  0
CLASS
  1
LAYOUT
  2
AcDbLayout
  3
ObjectDBX Classes
 90
        0
280
     0
281
     0
  0
CLASS
  1
DICTIONARYVAR
  2
AcDbDictionaryVar
  3
ObjectDBX Classes
 90
        0
280
     0
281
     0
  0
CLASS
  1
TABLESTYLE
  2
AcDbTableStyle
  3
ObjectDBX Classes
 90
     2047
280
     0
281
     0
  0
CLASS
  1
SORTENTSTABLE
  2
AcDbSortentsTable
  3
ObjectDBX Classes
 90
        0
280
     0
281
     0
  0
ENDSEC
  0
SECTION
  2
TABLES
  0
TABLE
  2
VPORT
  5
8
330
0
100
AcDbSymbolTable
 70
     2
  0
VPORT
  5
30FF
330
8
100
AcDbSymbolTableRecord
100
AcDbViewportTableRecord
  2
*Active
 70
     0
 10
0.0
 20
0.0
 11
1.0
 21
1.0
 12
1392.216685951282
 22
1020.230178077536
 13
0.0
 23
0.0
 14
10.0
 24
10.0
 15
10.0
 25
10.0
 16
0.0
 26
0.0
 36
1.0
 17
0.0
 27
0.0
 37
0.0
 40
2218.596744179951
 41
1.29038112522686
 42
50.0
 43
0.0
 44
0.0
 50
0.0
 51
0.0
 71
     0
 72
   100
 73
     1
 74
     3
 75
     0
 76
     0
 77
     0
 78
     0
281
     0
 65
     1
110
0.0
120
0.0
130
0.0
111
1.0
121
0.0
131
0.0
112
0.0
122
1.0
132
0.0
 79
     0
146
0.0
  0
ENDTAB
  0
TABLE
  2
LTYPE
  5
5
330
0
100
AcDbSymbolTable
 70
    46
  0
LTYPE
  5
14
330
5
100
AcDbSymbolTableRecord
100
AcDbLinetypeTableRecord
  2
ByBlock
 70
     0
  3

 72
    65
 73
     0
 40
0.0
  0
LTYPE
  5
15
330
5
100
AcDbSymbolTableRecord
100
AcDbLinetypeTableRecord
  2
ByLayer
 70
     0
  3

 72
    65
 73
     0
 40
0.0
  0
LTYPE
  5
16
330
5
100
AcDbSymbolTableRecord
100
AcDbLinetypeTableRecord
  2
Continuous
 70
     0
  3
Solid line
 72
    65
 73
     0
 40
0.0
  0
LTYPE
  5
34
330
5
100
AcDbSymbolTableRecord
100
AcDbLinetypeTableRecord
  2
ACAD_ISO02W100
 70
     0
  3
ISO dash __ __ __ __ __ __ __ __ __ __ __ __ __
 72
    65
 73
     2
 40
15.0
 49
12.0
 74
     0
 49
-3.0
 74
     0
  0
LTYPE
  5
35
330
5
100
AcDbSymbolTableRecord
100
AcDbLinetypeTableRecord
  2
ACAD_ISO03W100
 70
     0
  3
ISO dash space __    __    __    __    __    __
 72
    65
 73
     2
 40
30.0
 49
12.0
 74
     0
 49
-18.0
 74
     0
  0
LTYPE
  5
36
330
5
100
AcDbSymbolTableRecord
100
AcDbLinetypeTableRecord
  2
ACAD_ISO04W100
 70
     0
  3
ISO long-dash dot ____ . ____ . ____ . ____ . _
 72
    65
 73
     4
 40
30.0
 49
24.0
 74
     0
 49
-3.0
 74
     0
 49
0.0
 74
     0
 49
-3.0
 74
     0
  0
LTYPE
  5
37
330
5
100
AcDbSymbolTableRecord
100
AcDbLinetypeTableRecord
  2
ACAD_ISO05W100
 70
     0
  3
ISO long-dash double-dot ____ .. ____ .. ____ .
 72
    65
 73
     6
 40
34.0
 49
24.0
 74
     0
 49
-3.0
 74
     0
 49
0.5
 74
     0
 49
-3.0
 74
     0
 49
0.5
 74
     0
 49
-3.0
 74
     0
  0
LTYPE
  5
38
330
5
100
AcDbSymbolTableRecord
100
AcDbLinetypeTableRecord
  2
ACAD_ISO06W100
 70
     0
  3
ISO long-dash triple-dot ____ ... ____ ... ____
 72
    65
 73
     8
 40
37.5
 49
24.0
 74
     0
 49
-3.0
 74
     0
 49
0.5
 74
     0
 49
-3.0
 74
     0
 49
0.5
 74
     0
 49
-3.0
 74
     0
 49
0.5
 74
     0
 49
-3.0
 74
     0
  0
LTYPE
  5
39
330
5
100
AcDbSymbolTableRecord
100
AcDbLinetypeTableRecord
  2
ACAD_ISO07W100
 70
     0
  3
ISO dot . . . . . . . . . . . . . . . . . . . .
 72
    65
 73
     2
 40
3.0
 49
0.0
 74
     0
 49
-3.0
 74
     0
  0
LTYPE
  5
3A
330
5
100
AcDbSymbolTableRecord
100
AcDbLinetypeTableRecord
  2
ACAD_ISO08W100
 70
     0
  3
ISO long-dash short-dash ____ __ ____ __ ____ _
 72
    65
 73
     4
 40
36.0
 49
24.0
 74
     0
 49
-3.0
 74
     0
 49
6.0
 74
     0
 49
-3.0
 74
     0
  0
LTYPE
  5
3B
330
5
100
AcDbSymbolTableRecord
100
AcDbLinetypeTableRecord
  2
ACAD_ISO09W100
 70
     0
  3
ISO long-dash double-short-dash ____ __ __ ____
 72
    65
 73
     6
 40
45.0
 49
24.0
 74
     0
 49
-3.0
 74
     0
 49
6.0
 74
     0
 49
-3.0
 74
     0
 49
6.0
 74
     0
 49
-3.0
 74
     0
  0
LTYPE
  5
3C
330
5
100
AcDbSymbolTableRecord
100
AcDbLinetypeTableRecord
  2
ACAD_ISO10W100
 70
     0
  3
ISO dash dot __ . __ . __ . __ . __ . __ . __ .
 72
    65
 73
     4
 40
18.0
 49
12.0
 74
     0
 49
-3.0
 74
     0
 49
0.0
 74
     0
 49
-3.0
 74
     0
  0
LTYPE
  5
3D
330
5
100
AcDbSymbolTableRecord
100
AcDbLinetypeTableRecord
  2
ACAD_ISO11W100
 70
     0
  3
ISO double-dash dot __ __ . __ __ . __ __ . __ 
 72
    65
 73
     6
 40
33.0
 49
12.0
 74
     0
 49
-3.0
 74
     0
 49
12.0
 74
     0
 49
-3.0
 74
     0
 49
0.0
 74
     0
 49
-3.0
 74
     0
  0
LTYPE
  5
3E
330
5
100
AcDbSymbolTableRecord
100
AcDbLinetypeTableRecord
  2
ACAD_ISO12W100
 70
     0
  3
ISO dash double-dot __ . . __ . . __ . . __ . .
 72
    65
 73
     6
 40
21.0
 49
12.0
 74
     0
 49
-3.0
 74
     0
 49
0.0
 74
     0
 49
-3.0
 74
     0
 49
0.0
 74
     0
 49
-3.0
 74
     0
  0
LTYPE
  5
3F
330
5
100
AcDbSymbolTableRecord
100
AcDbLinetypeTableRecord
  2
ACAD_ISO13W100
 70
     0
  3
ISO double-dash double-dot __ __ . . __ __ . . 
 72
    65
 73
     8
 40
36.0
 49
12.0
 74
     0
 49
-3.0
 74
     0
 49
12.0
 74
     0
 49
-3.0
 74
     0
 49
0.0
 74
     0
 49
-3.0
 74
     0
 49
0.0
 74
     0
 49
-3.0
 74
     0
  0
LTYPE
  5
40
330
5
100
AcDbSymbolTableRecord
100
AcDbLinetypeTableRecord
  2
ACAD_ISO14W100
 70
     0
  3
ISO dash triple-dot __ . . . __ . . . __ . . . 
 72
    65
 73
     8
 40
24.0
 49
12.0
 74
     0
 49
-3.0
 74
     0
 49
0.0
 74
     0
 49
-3.0
 74
     0
 49
0.0
 74
     0
 49
-3.0
 74
     0
 49
0.0
 74
     0
 49
-3.0
 74
     0
  0
LTYPE
  5
41
330
5
100
AcDbSymbolTableRecord
100
AcDbLinetypeTableRecord
  2
ACAD_ISO15W100
 70
     0
  3
ISO double-dash triple-dot __ __ . . . __ __ . 
 72
    65
 73
    10
 40
39.0
 49
12.0
 74
     0
 49
-3.0
 74
     0
 49
12.0
 74
     0
 49
-3.0
 74
     0
 49
0.0
 74
     0
 49
-3.0
 74
     0
 49
0.0
 74
     0
 49
-3.0
 74
     0
 49
0.0
 74
     0
 49
-3.0
 74
     0
  0
LTYPE
  5
42
330
5
100
AcDbSymbolTableRecord
100
AcDbLinetypeTableRecord
  2
BATTING
 70
     0
  3
Batting SSSSSSSSSSSSSSSSSSSSSSSSSSSSSSSSSSSSSSS
 72
    65
 73
     4
 40
10.16254
 49
0.00254
 74
     0
 49
-2.54
 74
     4
 75
   134
340
33
 46
2.54
 50
0.0
 44
-2.54
 45
0.0
 49
-5.08
 74
     4
 75
   134
340
33
 46
2.54
 50
180.0
 44
2.54
 45
0.0
 49
-2.54
 74
     0
  0
LTYPE
  5
43
330
5
100
AcDbSymbolTableRecord
100
AcDbLinetypeTableRecord
  2
BORDER
 70
     0
  3
Border __ __ . __ __ . __ __ . __ __ . __ __ .
 72
    65
 73
     6
 40
44.45
 49
12.7
 74
     0
 49
-6.349999999999999
 74
     0
 49
12.7
 74
     0
 49
-6.349999999999999
 74
     0
 49
0.0
 74
     0
 49
-6.349999999999999
 74
     0
  0
LTYPE
  5
44
330
5
100
AcDbSymbolTableRecord
100
AcDbLinetypeTableRecord
  2
BORDER2
 70
     0
  3
Border (.5x) __.__.__.__.__.__.__.__.__.__.__.
 72
    65
 73
     6
 40
22.225
 49
6.349999999999999
 74
     0
 49
-3.174999999999999
 74
     0
 49
6.349999999999999
 74
     0
 49
-3.174999999999999
 74
     0
 49
0.0
 74
     0
 49
-3.174999999999999
 74
     0
  0
LTYPE
  5
45
330
5
100
AcDbSymbolTableRecord
100
AcDbLinetypeTableRecord
  2
BORDERX2
 70
     0
  3
Border (2x) ____  ____  .  ____  ____  .  ___
 72
    65
 73
     6
 40
88.9
 49
25.4
 74
     0
 49
-12.7
 74
     0
 49
25.4
 74
     0
 49
-12.7
 74
     0
 49
0.0
 74
     0
 49
-12.7
 74
     0
  0
LTYPE
  5
46
330
5
100
AcDbSymbolTableRecord
100
AcDbLinetypeTableRecord
  2
CENTER
 70
     0
  3
Center ____ _ ____ _ ____ _ ____ _ ____ _ ____
 72
    65
 73
     4
 40
50.8
 49
31.75
 74
     0
 49
-6.349999999999999
 74
     0
 49
6.349999999999999
 74
     0
 49
-6.349999999999999
 74
     0
  0
LTYPE
  5
47
330
5
100
AcDbSymbolTableRecord
100
AcDbLinetypeTableRecord
  2
CENTER2
 70
     0
  3
Center (.5x) ___ _ ___ _ ___ _ ___ _ ___ _ ___
 72
    65
 73
     4
 40
28.575
 49
19.05
 74
     0
 49
-3.174999999999999
 74
     0
 49
3.174999999999999
 74
     0
 49
-3.174999999999999
 74
     0
  0
LTYPE
  5
48
330
5
100
AcDbSymbolTableRecord
100
AcDbLinetypeTableRecord
  2
CENTERX2
 70
     0
  3
Center (2x) ________  __  ________  __  _____
 72
    65
 73
     4
 40
101.6
 49
63.5
 74
     0
 49
-12.7
 74
     0
 49
12.7
 74
     0
 49
-12.7
 74
     0
  0
LTYPE
  5
49
330
5
100
AcDbSymbolTableRecord
100
AcDbLinetypeTableRecord
  2
DASHDOT
 70
     0
  3
Dash dot __ . __ . __ . __ . __ . __ . __ . __
 72
    65
 73
     4
 40
25.4
 49
12.7
 74
     0
 49
-6.349999999999999
 74
     0
 49
0.0
 74
     0
 49
-6.349999999999999
 74
     0
  0
LTYPE
  5
4A
330
5
100
AcDbSymbolTableRecord
100
AcDbLinetypeTableRecord
  2
DASHDOT2
 70
     0
  3
Dash dot (.5x) _._._._._._._._._._._._._._._.
 72
    65
 73
     4
 40
12.7
 49
6.349999999999999
 74
     0
 49
-3.174999999999999
 74
     0
 49
0.0
 74
     0
 49
-3.174999999999999
 74
     0
  0
LTYPE
  5
4B
330
5
100
AcDbSymbolTableRecord
100
AcDbLinetypeTableRecord
  2
DASHDOTX2
 70
     0
  3
Dash dot (2x) ____  .  ____  .  ____  .  ___
 72
    65
 73
     4
 40
50.8
 49
25.4
 74
     0
 49
-12.7
 74
     0
 49
0.0
 74
     0
 49
-12.7
 74
     0
  0
LTYPE
  5
4C
330
5
100
AcDbSymbolTableRecord
100
AcDbLinetypeTableRecord
  2
DASHED
 70
     0
  3
Dashed __ __ __ __ __ __ __ __ __ __ __ __ __ _
 72
    65
 73
     2
 40
19.05
 49
12.7
 74
     0
 49
-6.349999999999999
 74
     0
  0
LTYPE
  5
4D
330
5
100
AcDbSymbolTableRecord
100
AcDbLinetypeTableRecord
  2
DASHED2
 70
     0
  3
Dashed (.5x) _ _ _ _ _ _ _ _ _ _ _ _ _ _ _ _ _
 72
    65
 73
     2
 40
9.524999999999998
 49
6.349999999999999
 74
     0
 49
-3.174999999999999
 74
     0
  0
LTYPE
  5
4E
330
5
100
AcDbSymbolTableRecord
100
AcDbLinetypeTableRecord
  2
DASHEDX2
 70
     0
  3
Dashed (2x) ____  ____  ____  ____  ____  ___
 72
    65
 73
     2
 40
38.1
 49
25.4
 74
     0
 49
-12.7
 74
     0
  0
LTYPE
  5
4F
330
5
100
AcDbSymbolTableRecord
100
AcDbLinetypeTableRecord
  2
DIVIDE
 70
     0
  3
Divide ____ . . ____ . . ____ . . ____ . . ____
 72
    65
 73
     6
 40
31.75
 49
12.7
 74
     0
 49
-6.349999999999999
 74
     0
 49
0.0
 74
     0
 49
-6.349999999999999
 74
     0
 49
0.0
 74
     0
 49
-6.349999999999999
 74
     0
  0
LTYPE
  5
50
330
5
100
AcDbSymbolTableRecord
100
AcDbLinetypeTableRecord
  2
DIVIDE2
 70
     0
  3
Divide (.5x) __..__..__..__..__..__..__..__.._
 72
    65
 73
     6
 40
15.875
 49
6.349999999999999
 74
     0
 49
-3.174999999999999
 74
     0
 49
0.0
 74
     0
 49
-3.174999999999999
 74
     0
 49
0.0
 74
     0
 49
-3.174999999999999
 74
     0
  0
LTYPE
  5
51
330
5
100
AcDbSymbolTableRecord
100
AcDbLinetypeTableRecord
  2
DIVIDEX2
 70
     0
  3
Divide (2x) ________  .  .  ________  .  .  _
 72
    65
 73
     6
 40
63.49999999999999
 49
25.4
 74
     0
 49
-12.7
 74
     0
 49
0.0
 74
     0
 49
-12.7
 74
     0
 49
0.0
 74
     0
 49
-12.7
 74
     0
  0
LTYPE
  5
52
330
5
100
AcDbSymbolTableRecord
100
AcDbLinetypeTableRecord
  2
DOT
 70
     0
  3
Dot . . . . . . . . . . . . . . . . . . . . . .
 72
    65
 73
     2
 40
6.349999999999999
 49
0.0
 74
     0
 49
-6.349999999999999
 74
     0
  0
LTYPE
  5
53
330
5
100
AcDbSymbolTableRecord
100
AcDbLinetypeTableRecord
  2
DOT2
 70
     0
  3
Dot (.5x) .....................................
 72
    65
 73
     2
 40
3.174999999999999
 49
0.0
 74
     0
 49
-3.174999999999999
 74
     0
  0
LTYPE
  5
54
330
5
100
AcDbSymbolTableRecord
100
AcDbLinetypeTableRecord
  2
DOTX2
 70
     0
  3
Dot (2x) .  .  .  .  .  .  .  .  .  .  .  .  . 
 72
    65
 73
     2
 40
12.7
 49
0.0
 74
     0
 49
-12.7
 74
     0
  0
LTYPE
  5
55
330
5
100
AcDbSymbolTableRecord
100
AcDbLinetypeTableRecord
  2
FENCELINE1
 70
     0
  3
Fenceline circle ----0-----0----0-----0----0---
 72
    65
 73
     4
 40
36.83
 49
6.349999999999999
 74
     0
 49
-2.54
 74
     4
 75
   133
340
33
 46
2.54
 50
0.0
 44
-2.54
 45
0.0
 49
-2.54
 74
     0
 49
25.4
 74
     0
  0
LTYPE
  5
56
330
5
100
AcDbSymbolTableRecord
100
AcDbLinetypeTableRecord
  2
FENCELINE2
 70
     0
  3
Fenceline square ----[]-----[]----[]-----[]----
 72
    65
 73
     4
 40
36.83
 49
6.349999999999999
 74
     0
 49
-2.54
 74
     4
 75
   132
340
33
 46
2.54
 50
0.0
 44
-2.54
 45
0.0
 49
-2.54
 74
     0
 49
25.4
 74
     0
  0
LTYPE
  5
57
330
5
100
AcDbSymbolTableRecord
100
AcDbLinetypeTableRecord
  2
GAS_LINE
 70
     0
  3
Gas line ----GAS----GAS----GAS----GAS----GAS---
 72
    65
 73
     3
 40
24.13
 49
12.7
 74
     0
 49
-5.08
 74
     2
 75
     0
340
11
 46
2.54
 50
0.0
 44
-2.54
 45
-1.27
  9
GAS
 49
-6.349999999999999
 74
     0
  0
LTYPE
  5
58
330
5
100
AcDbSymbolTableRecord
100
AcDbLinetypeTableRecord
  2
HIDDEN
 70
     0
  3
Hidden __ __ __ __ __ __ __ __ __ __ __ __ __ _
 72
    65
 73
     2
 40
9.524999999999998
 49
6.349999999999999
 74
     0
 49
-3.174999999999999
 74
     0
  0
LTYPE
  5
59
330
5
100
AcDbSymbolTableRecord
100
AcDbLinetypeTableRecord
  2
HIDDEN2
 70
     0
  3
Hidden (.5x) _ _ _ _ _ _ _ _ _ _ _ _ _ _ _ _ _
 72
    65
 73
     2
 40
4.762499999999999
 49
3.174999999999999
 74
     0
 49
-1.587499999999999
 74
     0
  0
LTYPE
  5
5A
330
5
100
AcDbSymbolTableRecord
100
AcDbLinetypeTableRecord
  2
HIDDENX2
 70
     0
  3
Hidden (2x) ____ ____ ____ ____ ____ ____ ____
 72
    65
 73
     2
 40
19.05
 49
12.7
 74
     0
 49
-6.349999999999999
 74
     0
  0
LTYPE
  5
5B
330
5
100
AcDbSymbolTableRecord
100
AcDbLinetypeTableRecord
  2
HOT_WATER_SUPPLY
 70
     0
  3
Hot water supply ---- HW ---- HW ---- HW ----
 72
    65
 73
     3
 40
22.86
 49
12.7
 74
     0
 49
-5.08
 74
     2
 75
     0
340
11
 46
2.54
 50
0.0
 44
-2.54
 45
-1.27
  9
HW
 49
-5.08
 74
     0
  0
LTYPE
  5
5C
330
5
100
AcDbSymbolTableRecord
100
AcDbLinetypeTableRecord
  2
PHANTOM
 70
     0
  3
Phantom ______  __  __  ______  __  __  ______
 72
    65
 73
     6
 40
63.5
 49
31.75
 74
     0
 49
-6.349999999999999
 74
     0
 49
6.349999999999999
 74
     0
 49
-6.349999999999999
 74
     0
 49
6.349999999999999
 74
     0
 49
-6.349999999999999
 74
     0
  0
LTYPE
  5
5D
330
5
100
AcDbSymbolTableRecord
100
AcDbLinetypeTableRecord
  2
PHANTOM2
 70
     0
  3
Phantom (.5x) ___ _ _ ___ _ _ ___ _ _ ___ _ _
 72
    65
 73
     6
 40
31.75
 49
15.875
 74
     0
 49
-3.174999999999999
 74
     0
 49
3.174999999999999
 74
     0
 49
-3.174999999999999
 74
     0
 49
3.174999999999999
 74
     0
 49
-3.174999999999999
 74
     0
  0
LTYPE
  5
5E
330
5
100
AcDbSymbolTableRecord
100
AcDbLinetypeTableRecord
  2
PHANTOMX2
 70
     0
  3
Phantom (2x) ____________    ____    ____   _
 72
    65
 73
     6
 40
127.0
 49
63.5
 74
     0
 49
-12.7
 74
     0
 49
12.7
 74
     0
 49
-12.7
 74
     0
 49
12.7
 74
     0
 49
-12.7
 74
     0
  0
LTYPE
  5
5F
330
5
100
AcDbSymbolTableRecord
100
AcDbLinetypeTableRecord
  2
TRACKS
 70
     0
  3
Tracks -|-|-|-|-|-|-|-|-|-|-|-|-|-|-|-|-|-|-|-|
 72
    65
 73
     2
 40
7.62
 49
3.81
 74
     4
 75
   130
340
33
 46
6.349999999999999
 50
0.0
 44
0.0
 45
0.0
 49
3.81
 74
     0
  0
LTYPE
  5
60
330
5
100
AcDbSymbolTableRecord
100
AcDbLinetypeTableRecord
  2
ZIGZAG
 70
     0
  3
Zig zag /\/\/\/\/\/\/\/\/\/\/\/\/\/\/\/\/\/\/\/
 72
    65
 73
     4
 40
20.32254
 49
0.00254
 74
     0
 49
-5.08
 74
     4
 75
   131
340
33
 46
5.08
 50
0.0
 44
-5.08
 45
0.0
 49
-10.16
 74
     4
 75
   131
340
33
 46
5.08
 50
180.0
 44
5.08
 45
0.0
 49
-5.08
 74
     0
  0
ENDTAB
  0
TABLE
  2
LAYER
  5
2
102
{ACAD_XDICTIONARY
360
2824
102
}
330
0
100
AcDbSymbolTable
 70
     9
  0
LAYER
  5
10
330
2
100
AcDbSymbolTableRecord
100
AcDbLayerTableRecord
  2
0
 70
     0
 62
     7
  6
Continuous
370
    -3
390
F
  0
LAYER
  5
C3
330
2
100
AcDbSymbolTableRecord
100
AcDbLayerTableRecord
  2
Defpoints
 70
     0
 62
     7
  6
Continuous
290
     0
370
    -3
390
F
  0
LAYER
  5
256
330
2
100
AcDbSymbolTableRecord
100
AcDbLayerTableRecord
  2
センター
 70
     0
 62
     7
  6
CENTER2
370
    18
390
F
  0
LAYER
  5
268
330
2
100
AcDbSymbolTableRecord
100
AcDbLayerTableRecord
  2
実形
 70
     0
 62
     7
  6
Continuous
370
    -3
390
F
  0
LAYER
  5
269
330
2
100
AcDbSymbolTableRecord
100
AcDbLayerTableRecord
  2
補助
 70
     0
 62
     7
  6
Continuous
370
    -3
390
F
  0
LAYER
  5
26A
330
2
100
AcDbSymbolTableRecord
100
AcDbLayerTableRecord
  2
寸法
 70
     0
 62
     7
  6
Continuous
370
    18
390
F
  0
LAYER
  5
26B
330
2
100
AcDbSymbolTableRecord
100
AcDbLayerTableRecord
  2
ハッチング
 70
     0
 62
     7
  6
Continuous
370
    18
390
F
  0
LAYER
  5
26D
330
2
100
AcDbSymbolTableRecord
100
AcDbLayerTableRecord
  2
文字
 70
     0
 62
     7
  6
Continuous
370
    -3
390
F
  0
LAYER
  5
1D2A
330
2
100
AcDbSymbolTableRecord
100
AcDbLayerTableRecord
  2
Cen
 70
     0
 62
     7
  6
CENTER2
370
    15
390
F
  0
ENDTAB
  0
TABLE
  2
STYLE
  5
3
330
0
100
AcDbSymbolTable
 70
     3
  0
STYLE
  5
11
330
3
100
AcDbSymbolTableRecord
100
AcDbTextStyleTableRecord
  2
Standard
 70
     0
 40
0.0
 41
1.0
 50
0.0
 71
     0
 42
25.0
  3
txt.shx
  4
bigfont.shx
  0
STYLE
  5
33
330
3
100
AcDbSymbolTableRecord
100
AcDbTextStyleTableRecord
  2

 70
     1
 40
0.0
 41
1.0
 50
0.0
 71
     0
 42
2.5
  3
ltypeshp.shx
  4

  0
STYLE
  5
30B6
330
3
100
AcDbSymbolTableRecord
100
AcDbTextStyleTableRecord
  2
明朝
 70
     0
 40
0.0
 41
1.0
 50
0.0
 71
     0
 42
25.0
  3
MS Mincho.ttf
  4

1001
ACAD
1000
MS Mincho
1071
    32785
  0
ENDTAB
  0
TABLE
  2
VIEW
  5
6
330
0
100
AcDbSymbolTable
 70
     0
  0
ENDTAB
  0
TABLE
  2
UCS
  5
7
330
0
100
AcDbSymbolTable
 70
     0
  0
ENDTAB
  0
TABLE
  2
APPID
  5
9
330
0
100
AcDbSymbolTable
 70
     2
  0
APPID
  5
12
330
9
100
AcDbSymbolTableRecord
100
AcDbRegAppTableRecord
  2
ACAD
 70
     0
  0
APPID
  5
221C
330
9
100
AcDbSymbolTableRecord
100
AcDbRegAppTableRecord
  2
ACAD_DSTYLE_DIMTEXT_FILL
 70
     0
  0
ENDTAB
  0
TABLE
  2
DIMSTYLE
  5
A
330
0
100
AcDbSymbolTable
 70
     2
100
AcDbDimStyleTable
 71
     1
340
27
  0
DIMSTYLE
105
27
102
{ACAD_REACTORS
330
1F26
330
1F27
330
1F42
330
1F43
330
1F66
330
1F69
330
1F6A
330
1F6B
330
1F6D
330
1F6E
330
2132
330
2157
330
2164
330
2177
330
21C9
330
226D
330
22B1
330
22E6
330
2381
330
23BB
330
213F
330
2CF0
102
}
330
A
100
AcDbSymbolTableRecord
100
AcDbDimStyleTableRecord
  2
ISO-25
 70
     0
 41
35.0
 42
65.0
 43
3.75
 44
0.0
 73
     0
 74
     0
 77
     1
 78
     8
140
25.0
141
2.5
143
0.03937007874016
147
6.25
171
     3
172
     1
271
     2
272
     2
274
     3
283
     0
284
     8
340
11
341
DA
342
D0
371
    15
372
    15
  0
DIMSTYLE
105
30B7
330
A
100
AcDbSymbolTableRecord
100
AcDbDimStyleTableRecord
  2
ISO-25　ｂ
 70
     0
 41
35.0
 42
65.0
 43
3.75
 44
0.0
 73
     0
 74
     0
 77
     1
 78
     8
140
25.0
141
2.5
143
0.03937007874016
147
6.25
171
     3
172
     1
271
     2
272
     2
274
     3
279
     2
283
     0
284
     8
340
11
341
DA
342
D0
371
    18
372
    18
  0
ENDTAB
  0
TABLE
  2
BLOCK_RECORD
  5
1
330
0
100
AcDbSymbolTable
 70
    30
  0
BLOCK_RECORD
  5
1F
102
{ACAD_XDICTIONARY
360
220B
102
}
330
1
100
AcDbSymbolTableRecord
100
AcDbBlockTableRecord
  2
*Model_Space
340
22
  0
BLOCK_RECORD
  5
1B
330
1
100
AcDbSymbolTableRecord
100
AcDbBlockTableRecord
  2
*Paper_Space
340
1E
  0
BLOCK_RECORD
  5
23
330
1
100
AcDbSymbolTableRecord
100
AcDbBlockTableRecord
  2
*Paper_Space0
340
26
  0
BLOCK_RECORD
  5
D0
330
1
100
AcDbSymbolTableRecord
100
AcDbBlockTableRecord
  2
_DotSmall
340
0
102
{BLKREFS
331
23ED
331
23EE
331
23F9
331
23FA
331
2FF2
331
2FF3
331
2FFB
331
2FFC
331
3004
331
3005
331
300D
331
300E
331
3016
331
3017
331
301F
331
3020
331
3028
331
3029
331
3031
331
3032
331
303A
331
303B
331
3044
331
3045
331
304D
331
304E
331
3056
331
3057
331
305F
331
3060
331
3067
331
3068
331
3070
331
3071
331
3079
331
307A
331
3082
331
3083
331
308B
331
308C
331
3094
331
3095
331
309E
331
309F
331
30A7
331
30A8
331
30B0
331
30B1
102
}
  0
BLOCK_RECORD
  5
D4
330
1
100
AcDbSymbolTableRecord
100
AcDbBlockTableRecord
  2
_Origin2
340
0
  0
BLOCK_RECORD
  5
DA
330
1
100
AcDbSymbolTableRecord
100
AcDbBlockTableRecord
  2
_Open30
340
0
  0
BLOCK_RECORD
  5
1F92
330
1
100
AcDbSymbolTableRecord
100
AcDbBlockTableRecord
  2
*D4
340
0
  0
BLOCK_RECORD
  5
1F9E
330
1
100
AcDbSymbolTableRecord
100
AcDbBlockTableRecord
  2
*D5
340
0
  0
BLOCK_RECORD
  5
1FC1
330
1
100
AcDbSymbolTableRecord
100
AcDbBlockTableRecord
  2
*D6
340
0
  0
BLOCK_RECORD
  5
1FCD
330
1
100
AcDbSymbolTableRecord
100
AcDbBlockTableRecord
  2
*D7
340
0
  0
BLOCK_RECORD
  5
1FF0
330
1
100
AcDbSymbolTableRecord
100
AcDbBlockTableRecord
  2
*D8
340
0
  0
BLOCK_RECORD
  5
2014
330
1
100
AcDbSymbolTableRecord
100
AcDbBlockTableRecord
  2
*D9
340
0
  0
BLOCK_RECORD
  5
2020
330
1
100
AcDbSymbolTableRecord
100
AcDbBlockTableRecord
  2
*D10
340
0
  0
BLOCK_RECORD
  5
202C
330
1
100
AcDbSymbolTableRecord
100
AcDbBlockTableRecord
  2
*D11
340
0
  0
BLOCK_RECORD
  5
2044
330
1
100
AcDbSymbolTableRecord
100
AcDbBlockTableRecord
  2
*D12
340
0
  0
BLOCK_RECORD
  5
2050
330
1
100
AcDbSymbolTableRecord
100
AcDbBlockTableRecord
  2
*D13
340
0
  0
BLOCK_RECORD
  5
2133
330
1
100
AcDbSymbolTableRecord
100
AcDbBlockTableRecord
  2
*D14
340
0
  0
BLOCK_RECORD
  5
2140
330
1
100
AcDbSymbolTableRecord
100
AcDbBlockTableRecord
  2
*D15
340
0
  0
BLOCK_RECORD
  5
2158
330
1
100
AcDbSymbolTableRecord
100
AcDbBlockTableRecord
  2
*D16
340
0
  0
BLOCK_RECORD
  5
2165
330
1
100
AcDbSymbolTableRecord
100
AcDbBlockTableRecord
  2
*D17
340
0
  0
BLOCK_RECORD
  5
2178
330
1
100
AcDbSymbolTableRecord
100
AcDbBlockTableRecord
  2
*D18
340
0
  0
BLOCK_RECORD
  5
21CA
330
1
100
AcDbSymbolTableRecord
100
AcDbBlockTableRecord
  2
*D19
340
0
  0
BLOCK_RECORD
  5
226E
330
1
100
AcDbSymbolTableRecord
100
AcDbBlockTableRecord
  2
*D20
340
0
  0
BLOCK_RECORD
  5
22B2
330
1
100
AcDbSymbolTableRecord
100
AcDbBlockTableRecord
  2
*D21
340
0
  0
BLOCK_RECORD
  5
22E7
330
1
100
AcDbSymbolTableRecord
100
AcDbBlockTableRecord
  2
*D22
340
0
  0
BLOCK_RECORD
  5
2382
330
1
100
AcDbSymbolTableRecord
100
AcDbBlockTableRecord
  2
*D23
340
0
  0
BLOCK_RECORD
  5
23BC
330
1
100
AcDbSymbolTableRecord
100
AcDbBlockTableRecord
  2
*D24
340
0
  0
BLOCK_RECORD
  5
23E8
330
1
100
AcDbSymbolTableRecord
100
AcDbBlockTableRecord
  2
*D25
340
0
  0
BLOCK_RECORD
  5
23F4
330
1
100
AcDbSymbolTableRecord
100
AcDbBlockTableRecord
  2
*D26
340
0
  0
BLOCK_RECORD
  5
23FF
102
{ACAD_XDICTIONARY
360
240F
102
}
330
1
100
AcDbSymbolTableRecord
100
AcDbBlockTableRecord
  2
A$C68897DCF
340
0
  0
BLOCK_RECORD
  5
2CF1
330
1
100
AcDbSymbolTableRecord
100
AcDbBlockTableRecord
  2
*D28
340
0
  0
BLOCK_RECORD
  5
2E6C
102
{ACAD_XDICTIONARY
360
2E6E
102
}
330
1
100
AcDbSymbolTableRecord
100
AcDbBlockTableRecord
  2
A$C69CC5A1A
340
0
  0
ENDTAB
  0
ENDSEC
  0
SECTION
  2
BLOCKS
  0
BLOCK
  5
20
330
1F
100
AcDbEntity
  8
0
100
AcDbBlockBegin
  2
*Model_Space
 70
     0
 10
0.0
 20
0.0
 30
0.0
  3
*Model_Space
  1

  0
ENDBLK
  5
21
330
1F
100
AcDbEntity
  8
0
100
AcDbBlockEnd
  0
BLOCK
  5
1C
330
1B
100
AcDbEntity
 67
     1
  8
0
100
AcDbBlockBegin
  2
*Paper_Space
 70
     0
 10
0.0
 20
0.0
 30
0.0
  3
*Paper_Space
  1

  0
ENDBLK
  5
1D
330
1B
100
AcDbEntity
 67
     1
  8
0
100
AcDbBlockEnd
  0
BLOCK
  5
24
330
23
100
AcDbEntity
  8
0
100
AcDbBlockBegin
  2
*Paper_Space0
 70
     0
 10
0.0
 20
0.0
 30
0.0
  3
*Paper_Space0
  1

  0
ENDBLK
  5
25
330
23
100
AcDbEntity
  8
0
100
AcDbBlockEnd
  0
BLOCK
  5
D2
330
D0
100
AcDbEntity
  8
0
100
AcDbBlockBegin
  2
_DotSmall
 70
     0
 10
0.0
 20
0.0
 30
0.0
  3
_DotSmall
  1

  0
LWPOLYLINE
  5
D1
330
D0
100
AcDbEntity
  8
0
 62
     0
100
AcDbPolyline
 90
        2
 70
     1
 43
0.5
 10
-0.0625
 20
0.0
 42
1.0
 10
0.0625
 20
0.0
 42
1.0
  0
ENDBLK
  5
D3
330
D0
100
AcDbEntity
  8
0
100
AcDbBlockEnd
  0
BLOCK
  5
D8
330
D4
100
AcDbEntity
  8
0
100
AcDbBlockBegin
  2
_Origin2
 70
     0
 10
0.0
 20
0.0
 30
0.0
  3
_Origin2
  1

  0
CIRCLE
  5
D5
330
D4
100
AcDbEntity
  8
0
 62
     0
370
    -2
100
AcDbCircle
 10
0.0
 20
0.0
 30
0.0
 40
0.5
  0
CIRCLE
  5
D6
330
D4
100
AcDbEntity
  8
0
 62
     0
370
    -2
100
AcDbCircle
 10
0.0
 20
0.0
 30
0.0
 40
0.25
  0
LINE
  5
D7
330
D4
100
AcDbEntity
  8
0
 62
     0
370
    -2
100
AcDbLine
 10
-0.5
 20
0.0
 30
0.0
 11
-1.0
 21
0.0
 31
0.0
  0
ENDBLK
  5
D9
330
D4
100
AcDbEntity
  8
0
100
AcDbBlockEnd
  0
BLOCK
  5
DE
330
DA
100
AcDbEntity
  8
0
100
AcDbBlockBegin
  2
_Open30
 70
     0
 10
0.0
 20
0.0
 30
0.0
  3
_Open30
  1

  0
LINE
  5
DB
330
DA
100
AcDbEntity
  8
0
 62
     0
370
    -2
100
AcDbLine
 10
-1.0
 20
0.26794919
 30
0.0
 11
0.0
 21
0.0
 31
0.0
  0
LINE
  5
DC
330
DA
100
AcDbEntity
  8
0
 62
     0
370
    -2
100
AcDbLine
 10
0.0
 20
0.0
 30
0.0
 11
-1.0
 21
-0.26794919
 31
0.0
  0
LINE
  5
DD
330
DA
100
AcDbEntity
  8
0
 62
     0
370
    -2
100
AcDbLine
 10
0.0
 20
0.0
 30
0.0
 11
-1.0
 21
0.0
 31
0.0
  0
ENDBLK
  5
DF
330
DA
100
AcDbEntity
  8
0
100
AcDbBlockEnd
  0
BLOCK
  5
1F9C
330
1F92
100
AcDbEntity
  8
0
100
AcDbBlockBegin
  2
*D4
 70
     1
 10
0.0
 20
0.0
 30
0.0
  3
*D4
  1

  0
LINE
  5
3076
330
1F92
100
AcDbEntity
  8
実形
 62
     0
370
    15
100
AcDbLine
 10
1073.00667856558
 20
419.9536497015762
 30
0.0
 11
1073.00667856558
 21
327.3168438315743
 31
0.0
  0
LINE
  5
3077
330
1F92
100
AcDbEntity
  8
実形
 62
     0
370
    15
100
AcDbLine
 10
1254.00667856558
 20
419.9536497015761
 30
0.0
 11
1254.00667856558
 21
327.3168438315743
 31
0.0
  0
LINE
  5
3078
330
1F92
100
AcDbEntity
  8
実形
 62
     0
370
    18
100
AcDbLine
 10
1073.00667856558
 20
327.3168438315743
 30
0.0
 11
1254.00667856558
 21
327.3168438315743
 31
0.0
  0
INSERT
  5
3079
330
1F92
100
AcDbEntity
  8
実形
 62
     0
370
    18
100
AcDbBlockReference
  2
_DotSmall
 10
1073.00667856558
 20
327.3168438315743
 30
0.0
 41
35.0
 42
35.0
 43
35.0
 50
180.0
  0
INSERT
  5
307A
330
1F92
100
AcDbEntity
  8
実形
 62
     0
370
    18
100
AcDbBlockReference
  2
_DotSmall
 10
1254.00667856558
 20
327.3168438315743
 30
0.0
 41
35.0
 42
35.0
 43
35.0
  0
MTEXT
  5
307B
330
1F92
100
AcDbEntity
  8
実形
 62
     0
370
    18
100
AcDbMText
 10
1163.506678565579
 20
346.0668438315743
 30
0.0
 40
25.0
 41
0.0
 71
     5
 72
     1
  1
181
 73
     1
 44
1.0
1001
ACAD
1000
MTEXTBEGIN
1070
    73
1070
     1
1070
    44
1040
1.0
1070
    74
1070
     0
1000
MTEXTEND
  0
POINT
  5
307C
330
1F92
100
AcDbEntity
  8
Defpoints
 62
     0
100
AcDbPoint
 10
1073.00667856558
 20
484.9536497015761
 30
0.0
  0
POINT
  5
307D
330
1F92
100
AcDbEntity
  8
Defpoints
 62
     0
100
AcDbPoint
 10
1254.00667856558
 20
484.953649701576
 30
0.0
  0
POINT
  5
307E
330
1F92
100
AcDbEntity
  8
Defpoints
 62
     0
100
AcDbPoint
 10
1254.00667856558
 20
327.3168438315743
 30
0.0
  0
ENDBLK
  5
1F9D
330
1F92
100
AcDbEntity
  8
0
100
AcDbBlockEnd
  0
BLOCK
  5
1FA8
330
1F9E
100
AcDbEntity
  8
0
100
AcDbBlockBegin
  2
*D5
 70
     1
 10
0.0
 20
0.0
 30
0.0
  3
*D5
  1

  0
LINE
  5
306D
330
1F9E
100
AcDbEntity
  8
実形
 62
     0
370
    15
100
AcDbLine
 10
1083.50667856558
 20
419.9536497015761
 30
0.0
 11
1083.50667856558
 21
368.5262424005032
 31
0.0
  0
LINE
  5
306E
330
1F9E
100
AcDbEntity
  8
実形
 62
     0
370
    15
100
AcDbLine
 10
1243.50667856558
 20
419.9536497015761
 30
0.0
 11
1243.50667856558
 21
368.5262424005032
 31
0.0
  0
LINE
  5
306F
330
1F9E
100
AcDbEntity
  8
実形
 62
     0
370
    18
100
AcDbLine
 10
1083.50667856558
 20
368.5262424005032
 30
0.0
 11
1243.50667856558
 21
368.5262424005032
 31
0.0
  0
INSERT
  5
3070
330
1F9E
100
AcDbEntity
  8
実形
 62
     0
370
    18
100
AcDbBlockReference
  2
_DotSmall
 10
1083.50667856558
 20
368.5262424005032
 30
0.0
 41
35.0
 42
35.0
 43
35.0
 50
180.0
  0
INSERT
  5
3071
330
1F9E
100
AcDbEntity
  8
実形
 62
     0
370
    18
100
AcDbBlockReference
  2
_DotSmall
 10
1243.50667856558
 20
368.5262424005032
 30
0.0
 41
35.0
 42
35.0
 43
35.0
  0
MTEXT
  5
3072
330
1F9E
100
AcDbEntity
  8
実形
 62
     0
370
    18
100
AcDbMText
 10
1163.50667856558
 20
387.2762424005032
 30
0.0
 40
25.0
 41
0.0
 71
     5
 72
     1
  1
160
 73
     1
 44
1.0
1001
ACAD
1000
MTEXTBEGIN
1070
    73
1070
     1
1070
    44
1040
1.0
1070
    74
1070
     0
1000
MTEXTEND
  0
POINT
  5
3073
330
1F9E
100
AcDbEntity
  8
Defpoints
 62
     0
100
AcDbPoint
 10
1083.50667856558
 20
484.953649701576
 30
0.0
  0
POINT
  5
3074
330
1F9E
100
AcDbEntity
  8
Defpoints
 62
     0
100
AcDbPoint
 10
1243.50667856558
 20
484.953649701576
 30
0.0
  0
POINT
  5
3075
330
1F9E
100
AcDbEntity
  8
Defpoints
 62
     0
100
AcDbPoint
 10
1243.50667856558
 20
368.5262424005032
 30
0.0
  0
ENDBLK
  5
1FA9
330
1F9E
100
AcDbEntity
  8
0
100
AcDbBlockEnd
  0
BLOCK
  5
1FCB
330
1FC1
100
AcDbEntity
  8
0
100
AcDbBlockBegin
  2
*D6
 70
     1
 10
0.0
 20
0.0
 30
0.0
  3
*D6
  1

  0
LINE
  5
3013
330
1FC1
100
AcDbEntity
  8
実形
 62
     0
370
    15
100
AcDbLine
 10
904.0066785655792
 20
464.9449359798127
 30
0.0
 11
904.0066785655792
 21
372.3081301098109
 31
0.0
  0
LINE
  5
3014
330
1FC1
100
AcDbEntity
  8
実形
 62
     0
370
    15
100
AcDbLine
 10
788.0066785655793
 20
464.9449359798127
 30
0.0
 11
788.0066785655793
 21
372.3081301098109
 31
0.0
  0
LINE
  5
3015
330
1FC1
100
AcDbEntity
  8
実形
 62
     0
370
    18
100
AcDbLine
 10
904.0066785655792
 20
372.3081301098109
 30
0.0
 11
788.0066785655793
 21
372.3081301098109
 31
0.0
  0
INSERT
  5
3016
330
1FC1
100
AcDbEntity
  8
実形
 62
     0
370
    18
100
AcDbBlockReference
  2
_DotSmall
 10
904.0066785655792
 20
372.3081301098109
 30
0.0
 41
35.0
 42
35.0
 43
35.0
  0
INSERT
  5
3017
330
1FC1
100
AcDbEntity
  8
実形
 62
     0
370
    18
100
AcDbBlockReference
  2
_DotSmall
 10
788.0066785655793
 20
372.3081301098109
 30
0.0
 41
35.0
 42
35.0
 43
35.0
 50
180.0
  0
MTEXT
  5
3018
330
1FC1
100
AcDbEntity
  8
実形
 62
     0
370
    18
100
AcDbMText
 10
846.0066785655792
 20
391.0581301098109
 30
0.0
 40
25.0
 41
0.0
 71
     5
 72
     1
  1
116
 73
     1
 44
1.0
1001
ACAD
1000
MTEXTBEGIN
1070
    73
1070
     1
1070
    44
1040
1.0
1070
    74
1070
     0
1000
MTEXTEND
  0
POINT
  5
3019
330
1FC1
100
AcDbEntity
  8
Defpoints
 62
     0
100
AcDbPoint
 10
904.0066785655792
 20
529.9449359798127
 30
0.0
  0
POINT
  5
301A
330
1FC1
100
AcDbEntity
  8
Defpoints
 62
     0
100
AcDbPoint
 10
788.0066785655793
 20
529.9449359798127
 30
0.0
  0
POINT
  5
301B
330
1FC1
100
AcDbEntity
  8
Defpoints
 62
     0
100
AcDbPoint
 10
788.0066785655793
 20
372.3081301098109
 30
0.0
  0
ENDBLK
  5
1FCC
330
1FC1
100
AcDbEntity
  8
0
100
AcDbBlockEnd
  0
BLOCK
  5
1FD7
330
1FCD
100
AcDbEntity
  8
0
100
AcDbBlockBegin
  2
*D7
 70
     1
 10
0.0
 20
0.0
 30
0.0
  3
*D7
  1

  0
LINE
  5
300A
330
1FCD
100
AcDbEntity
  8
実形
 62
     0
370
    15
100
AcDbLine
 10
890.0066785655793
 20
464.9449359798127
 30
0.0
 11
890.0066785655793
 21
413.5175286787398
 31
0.0
  0
LINE
  5
300B
330
1FCD
100
AcDbEntity
  8
実形
 62
     0
370
    15
100
AcDbLine
 10
802.0066785655792
 20
464.9449359798127
 30
0.0
 11
802.0066785655792
 21
413.5175286787398
 31
0.0
  0
LINE
  5
300C
330
1FCD
100
AcDbEntity
  8
実形
 62
     0
370
    18
100
AcDbLine
 10
890.0066785655793
 20
413.5175286787398
 30
0.0
 11
802.0066785655792
 21
413.5175286787398
 31
0.0
  0
INSERT
  5
300D
330
1FCD
100
AcDbEntity
  8
実形
 62
     0
370
    18
100
AcDbBlockReference
  2
_DotSmall
 10
890.0066785655793
 20
413.5175286787398
 30
0.0
 41
35.0
 42
35.0
 43
35.0
  0
INSERT
  5
300E
330
1FCD
100
AcDbEntity
  8
実形
 62
     0
370
    18
100
AcDbBlockReference
  2
_DotSmall
 10
802.0066785655792
 20
413.5175286787398
 30
0.0
 41
35.0
 42
35.0
 43
35.0
 50
180.0
  0
MTEXT
  5
300F
330
1FCD
100
AcDbEntity
  8
実形
 62
     0
370
    18
100
AcDbMText
 10
846.0066785655792
 20
432.2675286787398
 30
0.0
 40
25.0
 41
0.0
 71
     5
 72
     1
  1
88
 73
     1
 44
1.0
1001
ACAD
1000
MTEXTBEGIN
1070
    73
1070
     1
1070
    44
1040
1.0
1070
    74
1070
     0
1000
MTEXTEND
  0
POINT
  5
3010
330
1FCD
100
AcDbEntity
  8
Defpoints
 62
     0
100
AcDbPoint
 10
890.0066785655793
 20
529.9449359798127
 30
0.0
  0
POINT
  5
3011
330
1FCD
100
AcDbEntity
  8
Defpoints
 62
     0
100
AcDbPoint
 10
802.0066785655792
 20
529.9449359798127
 30
0.0
  0
POINT
  5
3012
330
1FCD
100
AcDbEntity
  8
Defpoints
 62
     0
100
AcDbPoint
 10
802.0066785655792
 20
413.5175286787398
 30
0.0
  0
ENDBLK
  5
1FD8
330
1FCD
100
AcDbEntity
  8
0
100
AcDbBlockEnd
  0
BLOCK
  5
1FFA
330
1FF0
100
AcDbEntity
  8
0
100
AcDbBlockBegin
  2
*D8
 70
     1
 10
0.0
 20
0.0
 30
0.0
  3
*D8
  1

  0
LINE
  5
305B
330
1FF0
100
AcDbEntity
  8
実形
 62
     0
370
    18
100
AcDbLine
 10
608.5066785655787
 20
1527.564157532551
 30
0.0
 11
518.8759506391861
 21
1527.564157532551
 31
0.0
  0
LINE
  5
305C
330
1FF0
100
AcDbEntity
  8
実形
 62
     0
370
    18
100
AcDbLine
 10
608.5066785655787
 20
1509.564157532551
 30
0.0
 11
518.8759506391861
 21
1509.564157532551
 31
0.0
  0
LINE
  5
305D
330
1FF0
100
AcDbEntity
  8
実形
 62
     0
370
    18
100
AcDbLine
 10
518.8759506391861
 20
1527.564157532551
 30
0.0
 11
518.8759506391861
 21
1509.564157532551
 31
0.0
  0
MTEXT
  5
305E
330
1FF0
100
AcDbEntity
  8
実形
 62
     0
370
    18
100
AcDbMText
 10
501.2944714410296
 20
1563.317602483691
 30
0.0
 40
25.0
 41
0.0
 71
     5
 72
     1
  1
18
 11
0.0000000000000001
 21
1.0
 31
0.0
 73
     1
 44
1.0
1001
ACAD
1000
MTEXTBEGIN
1070
    73
1070
     1
1070
    44
1040
1.0
1070
    74
1070
     0
1000
MTEXTEND
  0
INSERT
  5
305F
330
1FF0
100
AcDbEntity
  8
実形
 62
     0
370
    18
100
AcDbBlockReference
  2
_DotSmall
 10
518.8759506391861
 20
1527.564157532551
 30
0.0
 41
35.0
 42
35.0
 43
35.0
 50
90.0
  0
INSERT
  5
3060
330
1FF0
100
AcDbEntity
  8
実形
 62
     0
370
    18
100
AcDbBlockReference
  2
_DotSmall
 10
518.8759506391861
 20
1509.564157532551
 30
0.0
 41
35.0
 42
35.0
 43
35.0
 50
270.0
  0
POINT
  5
3061
330
1FF0
100
AcDbEntity
  8
Defpoints
 62
     0
100
AcDbPoint
 10
673.5066785655788
 20
1527.564157532551
 30
0.0
  0
POINT
  5
3062
330
1FF0
100
AcDbEntity
  8
Defpoints
 62
     0
100
AcDbPoint
 10
673.5066785655788
 20
1509.564157532551
 30
0.0
  0
POINT
  5
3063
330
1FF0
100
AcDbEntity
  8
Defpoints
 62
     0
100
AcDbPoint
 10
518.8759506391861
 20
1509.564157532551
 30
0.0
  0
ENDBLK
  5
1FFB
330
1FF0
100
AcDbEntity
  8
0
100
AcDbBlockEnd
  0
BLOCK
  5
201E
330
2014
100
AcDbEntity
  8
0
100
AcDbBlockBegin
  2
*D9
 70
     1
 10
0.0
 20
0.0
 30
0.0
  3
*D9
  1

  0
LINE
  5
3049
330
2014
100
AcDbEntity
  8
実形
 62
     0
370
    18
100
AcDbLine
 10
608.5066785655787
 20
1025.564157532551
 30
0.0
 11
518.8759506391861
 21
1025.564157532551
 31
0.0
  0
LINE
  5
304A
330
2014
100
AcDbEntity
  8
実形
 62
     0
370
    18
100
AcDbLine
 10
608.5066785655787
 20
1007.564157532551
 30
0.0
 11
518.8759506391861
 21
1007.564157532551
 31
0.0
  0
LINE
  5
304B
330
2014
100
AcDbEntity
  8
実形
 62
     0
370
    18
100
AcDbLine
 10
518.8759506391861
 20
1025.564157532551
 30
0.0
 11
518.8759506391861
 21
1007.564157532551
 31
0.0
  0
MTEXT
  5
304C
330
2014
100
AcDbEntity
  8
実形
 62
     0
370
    18
100
AcDbMText
 10
500.1259506391859
 20
971.7605737554372
 30
0.0
 40
25.0
 41
0.0
 71
     5
 72
     1
  1
18
 11
0.0000000000000001
 21
1.0
 31
0.0
 73
     1
 44
1.0
1001
ACAD
1000
MTEXTBEGIN
1070
    73
1070
     1
1070
    44
1040
1.0
1070
    74
1070
     0
1000
MTEXTEND
  0
INSERT
  5
304D
330
2014
100
AcDbEntity
  8
実形
 62
     0
370
    18
100
AcDbBlockReference
  2
_DotSmall
 10
518.8759506391861
 20
1025.564157532551
 30
0.0
 41
35.0
 42
35.0
 43
35.0
 50
90.0
  0
INSERT
  5
304E
330
2014
100
AcDbEntity
  8
実形
 62
     0
370
    18
100
AcDbBlockReference
  2
_DotSmall
 10
518.8759506391861
 20
1007.564157532551
 30
0.0
 41
35.0
 42
35.0
 43
35.0
 50
270.0
  0
POINT
  5
304F
330
2014
100
AcDbEntity
  8
Defpoints
 62
     0
100
AcDbPoint
 10
673.5066785655788
 20
1025.564157532551
 30
0.0
  0
POINT
  5
3050
330
2014
100
AcDbEntity
  8
Defpoints
 62
     0
100
AcDbPoint
 10
673.5066785655788
 20
1007.564157532551
 30
0.0
  0
POINT
  5
3051
330
2014
100
AcDbEntity
  8
Defpoints
 62
     0
100
AcDbPoint
 10
518.8759506391861
 20
1007.564157532551
 30
0.0
  0
ENDBLK
  5
201F
330
2014
100
AcDbEntity
  8
0
100
AcDbBlockEnd
  0
BLOCK
  5
202A
330
2020
100
AcDbEntity
  8
0
100
AcDbBlockBegin
  2
*D10
 70
     1
 10
0.0
 20
0.0
 30
0.0
  3
*D10
  1

  0
LINE
  5
3037
330
2020
100
AcDbEntity
  8
実形
 62
     0
370
    18
100
AcDbLine
 10
608.5066785655787
 20
1527.564157532551
 30
0.0
 11
445.1640082379189
 21
1527.564157532551
 31
0.0
  0
LINE
  5
3038
330
2020
100
AcDbEntity
  8
実形
 62
     0
370
    18
100
AcDbLine
 10
608.5066785655787
 20
1007.564157532551
 30
0.0
 11
445.1640082379188
 21
1007.564157532551
 31
0.0
  0
LINE
  5
3039
330
2020
100
AcDbEntity
  8
実形
 62
     0
370
    18
100
AcDbLine
 10
445.1640082379189
 20
1527.564157532551
 30
0.0
 11
445.1640082379188
 21
1007.564157532551
 31
0.0
  0
INSERT
  5
303A
330
2020
100
AcDbEntity
  8
実形
 62
     0
370
    18
100
AcDbBlockReference
  2
_DotSmall
 10
445.1640082379189
 20
1527.564157532551
 30
0.0
 41
35.0
 42
35.0
 43
35.0
 50
90.0
  0
INSERT
  5
303B
330
2020
100
AcDbEntity
  8
実形
 62
     0
370
    18
100
AcDbBlockReference
  2
_DotSmall
 10
445.1640082379188
 20
1007.564157532551
 30
0.0
 41
35.0
 42
35.0
 43
35.0
 50
270.0
  0
MTEXT
  5
303C
330
2020
100
AcDbEntity
  8
実形
 62
     0
370
    18
100
AcDbMText
 10
426.4140082379186
 20
1267.564157532551
 30
0.0
 40
25.0
 41
0.0
 71
     5
 72
     1
  1
520
 11
0.0000000000000001
 21
1.0
 31
0.0
 73
     1
 44
1.0
1001
ACAD
1000
MTEXTBEGIN
1070
    73
1070
     1
1070
    44
1040
1.0
1070
    74
1070
     0
1000
MTEXTEND
  0
POINT
  5
303D
330
2020
100
AcDbEntity
  8
Defpoints
 62
     0
100
AcDbPoint
 10
673.5066785655788
 20
1527.564157532551
 30
0.0
  0
POINT
  5
303E
330
2020
100
AcDbEntity
  8
Defpoints
 62
     0
100
AcDbPoint
 10
673.5066785655788
 20
1007.564157532551
 30
0.0
  0
POINT
  5
303F
330
2020
100
AcDbEntity
  8
Defpoints
 62
     0
100
AcDbPoint
 10
445.1640082379188
 20
1007.564157532551
 30
0.0
  0
ENDBLK
  5
202B
330
2020
100
AcDbEntity
  8
0
100
AcDbBlockEnd
  0
BLOCK
  5
2036
330
202C
100
AcDbEntity
  8
0
100
AcDbBlockBegin
  2
*D11
 70
     1
 10
0.0
 20
0.0
 30
0.0
  3
*D11
  1

  0
LINE
  5
3040
330
202C
100
AcDbEntity
  8
実形
 62
     0
370
    18
100
AcDbLine
 10
673.5066785655788
 20
942.5641575325512
 30
0.0
 11
673.5066785655788
 21
896.1796462512634
 31
0.0
  0
LINE
  5
3041
330
202C
100
AcDbEntity
  8
実形
 62
     0
370
    18
100
AcDbLine
 10
691.5066785655787
 20
942.5641575325512
 30
0.0
 11
691.5066785655787
 21
896.1796462512634
 31
0.0
  0
LINE
  5
3042
330
202C
100
AcDbEntity
  8
実形
 62
     0
370
    18
100
AcDbLine
 10
673.5066785655788
 20
896.1796462512634
 30
0.0
 11
691.5066785655787
 21
896.1796462512634
 31
0.0
  0
MTEXT
  5
3043
330
202C
100
AcDbEntity
  8
実形
 62
     0
370
    18
100
AcDbMText
 10
640.419958825825
 20
920.7452782119622
 30
0.0
 40
25.0
 41
0.0
 71
     5
 72
     1
  1
18
 73
     1
 44
1.0
1001
ACAD
1000
MTEXTBEGIN
1070
    73
1070
     1
1070
    44
1040
1.0
1070
    74
1070
     0
1000
MTEXTEND
  0
INSERT
  5
3044
330
202C
100
AcDbEntity
  8
実形
 62
     0
370
    18
100
AcDbBlockReference
  2
_DotSmall
 10
673.5066785655788
 20
896.1796462512634
 30
0.0
 41
35.0
 42
35.0
 43
35.0
 50
180.0
  0
INSERT
  5
3045
330
202C
100
AcDbEntity
  8
実形
 62
     0
370
    18
100
AcDbBlockReference
  2
_DotSmall
 10
691.5066785655787
 20
896.1796462512634
 30
0.0
 41
35.0
 42
35.0
 43
35.0
  0
POINT
  5
3046
330
202C
100
AcDbEntity
  8
Defpoints
 62
     0
100
AcDbPoint
 10
673.5066785655788
 20
1007.564157532551
 30
0.0
  0
POINT
  5
3047
330
202C
100
AcDbEntity
  8
Defpoints
 62
     0
100
AcDbPoint
 10
691.5066785655787
 20
1007.564157532551
 30
0.0
  0
POINT
  5
3048
330
202C
100
AcDbEntity
  8
Defpoints
 62
     0
100
AcDbPoint
 10
691.5066785655787
 20
896.1796462512634
 30
0.0
  0
ENDBLK
  5
2037
330
202C
100
AcDbEntity
  8
0
100
AcDbBlockEnd
  0
BLOCK
  5
204E
330
2044
100
AcDbEntity
  8
0
100
AcDbBlockBegin
  2
*D12
 70
     1
 10
0.0
 20
0.0
 30
0.0
  3
*D12
  1

  0
LINE
  5
30AC
330
2044
100
AcDbEntity
  8
実形
 62
     0
370
    18
100
AcDbLine
 10
1590.506678565578
 20
942.5641575325512
 30
0.0
 11
1590.506678565578
 21
896.1796462512634
 31
0.0
  0
LINE
  5
30AD
330
2044
100
AcDbEntity
  8
実形
 62
     0
370
    18
100
AcDbLine
 10
1608.506678565579
 20
942.5641575325512
 30
0.0
 11
1608.506678565579
 21
896.1796462512634
 31
0.0
  0
LINE
  5
30AE
330
2044
100
AcDbEntity
  8
実形
 62
     0
370
    18
100
AcDbLine
 10
1590.506678565578
 20
896.1796462512634
 30
0.0
 11
1608.506678565579
 21
896.1796462512634
 31
0.0
  0
MTEXT
  5
30AF
330
2044
100
AcDbEntity
  8
実形
 62
     0
370
    18
100
AcDbMText
 10
1644.201937928625
 20
920.4110617129712
 30
0.0
 40
25.0
 41
0.0
 71
     5
 72
     1
  1
18
 73
     1
 44
1.0
1001
ACAD
1000
MTEXTBEGIN
1070
    73
1070
     1
1070
    44
1040
1.0
1070
    74
1070
     0
1000
MTEXTEND
  0
INSERT
  5
30B0
330
2044
100
AcDbEntity
  8
実形
 62
     0
370
    18
100
AcDbBlockReference
  2
_DotSmall
 10
1590.506678565578
 20
896.1796462512634
 30
0.0
 41
35.0
 42
35.0
 43
35.0
 50
180.0
  0
INSERT
  5
30B1
330
2044
100
AcDbEntity
  8
実形
 62
     0
370
    18
100
AcDbBlockReference
  2
_DotSmall
 10
1608.506678565579
 20
896.1796462512634
 30
0.0
 41
35.0
 42
35.0
 43
35.0
  0
POINT
  5
30B2
330
2044
100
AcDbEntity
  8
Defpoints
 62
     0
100
AcDbPoint
 10
1590.506678565578
 20
1007.564157532551
 30
0.0
  0
POINT
  5
30B3
330
2044
100
AcDbEntity
  8
Defpoints
 62
     0
100
AcDbPoint
 10
1608.506678565579
 20
1007.564157532551
 30
0.0
  0
POINT
  5
30B4
330
2044
100
AcDbEntity
  8
Defpoints
 62
     0
100
AcDbPoint
 10
1608.506678565579
 20
896.1796462512634
 30
0.0
  0
ENDBLK
  5
204F
330
2044
100
AcDbEntity
  8
0
100
AcDbBlockEnd
  0
BLOCK
  5
205A
330
2050
100
AcDbEntity
  8
0
100
AcDbBlockBegin
  2
*D13
 70
     1
 10
0.0
 20
0.0
 30
0.0
  3
*D13
  1

  0
LINE
  5
3001
330
2050
100
AcDbEntity
  8
実形
 62
     0
370
    18
100
AcDbLine
 10
673.5066785655788
 20
942.5641575325512
 30
0.0
 11
673.5066785655788
 21
816.2914961110159
 31
0.0
  0
LINE
  5
3002
330
2050
100
AcDbEntity
  8
実形
 62
     0
370
    18
100
AcDbLine
 10
1608.506678565579
 20
942.5641575325512
 30
0.0
 11
1608.506678565579
 21
816.2914961110159
 31
0.0
  0
LINE
  5
3003
330
2050
100
AcDbEntity
  8
実形
 62
     0
370
    18
100
AcDbLine
 10
673.5066785655788
 20
816.2914961110159
 30
0.0
 11
1608.506678565579
 21
816.2914961110159
 31
0.0
  0
INSERT
  5
3004
330
2050
100
AcDbEntity
  8
実形
 62
     0
370
    18
100
AcDbBlockReference
  2
_DotSmall
 10
673.5066785655788
 20
816.2914961110159
 30
0.0
 41
35.0
 42
35.0
 43
35.0
 50
180.0
  0
INSERT
  5
3005
330
2050
100
AcDbEntity
  8
実形
 62
     0
370
    18
100
AcDbBlockReference
  2
_DotSmall
 10
1608.506678565579
 20
816.2914961110159
 30
0.0
 41
35.0
 42
35.0
 43
35.0
  0
MTEXT
  5
3006
330
2050
100
AcDbEntity
  8
実形
 62
     0
370
    18
100
AcDbMText
 10
1141.006678565578
 20
835.0414961110159
 30
0.0
 40
25.0
 41
0.0
 71
     5
 72
     1
  1
935
 73
     1
 44
1.0
1001
ACAD
1000
MTEXTBEGIN
1070
    73
1070
     1
1070
    44
1040
1.0
1070
    74
1070
     0
1000
MTEXTEND
  0
POINT
  5
3007
330
2050
100
AcDbEntity
  8
Defpoints
 62
     0
100
AcDbPoint
 10
673.5066785655788
 20
1007.564157532551
 30
0.0
  0
POINT
  5
3008
330
2050
100
AcDbEntity
  8
Defpoints
 62
     0
100
AcDbPoint
 10
1608.506678565579
 20
1007.564157532551
 30
0.0
  0
POINT
  5
3009
330
2050
100
AcDbEntity
  8
Defpoints
 62
     0
100
AcDbPoint
 10
1608.506678565579
 20
816.2914961110159
 30
0.0
  0
ENDBLK
  5
205B
330
2050
100
AcDbEntity
  8
0
100
AcDbBlockEnd
  0
BLOCK
  5
213D
330
2133
100
AcDbEntity
  8
0
100
AcDbBlockBegin
  2
*D14
 70
     1
 10
0.0
 20
0.0
 30
0.0
  3
*D14
  1

  0
LINE
  5
302E
330
2133
100
AcDbEntity
  8
実形
 62
     0
370
    18
100
AcDbLine
 10
673.5066785655788
 20
1597.567033805976
 30
0.0
 11
673.5066785655788
 21
1647.518514127091
 31
0.0
  0
LINE
  5
302F
330
2133
100
AcDbEntity
  8
実形
 62
     0
370
    18
100
AcDbLine
 10
846.006678565579
 20
1507.564157532552
 30
0.0
 11
846.006678565579
 21
1647.518514127091
 31
0.0
  0
LINE
  5
3030
330
2133
100
AcDbEntity
  8
実形
 62
     0
370
    18
100
AcDbLine
 10
673.5066785655788
 20
1647.518514127091
 30
0.0
 11
846.006678565579
 21
1647.518514127091
 31
0.0
  0
INSERT
  5
3031
330
2133
100
AcDbEntity
  8
実形
 62
     0
370
    18
100
AcDbBlockReference
  2
_DotSmall
 10
673.5066785655788
 20
1647.518514127091
 30
0.0
 41
35.0
 42
35.0
 43
35.0
 50
180.0
  0
INSERT
  5
3032
330
2133
100
AcDbEntity
  8
実形
 62
     0
370
    18
100
AcDbBlockReference
  2
_DotSmall
 10
846.006678565579
 20
1647.518514127091
 30
0.0
 41
35.0
 42
35.0
 43
35.0
  0
MTEXT
  5
3033
330
2133
100
AcDbEntity
  8
実形
 62
     0
370
    18
100
AcDbMText
 10
759.7566785655788
 20
1666.268514127091
 30
0.0
 40
25.0
 41
0.0
 71
     5
 72
     1
  1
172.5
 73
     1
 44
1.0
1001
ACAD
1000
MTEXTBEGIN
1070
    73
1070
     1
1070
    44
1040
1.0
1070
    74
1070
     0
1000
MTEXTEND
  0
POINT
  5
3034
330
2133
100
AcDbEntity
  8
Defpoints
 62
     0
100
AcDbPoint
 10
673.5066785655788
 20
1532.567033805976
 30
0.0
  0
POINT
  5
3035
330
2133
100
AcDbEntity
  8
Defpoints
 62
     0
100
AcDbPoint
 10
846.006678565579
 20
1442.564157532552
 30
0.0
  0
POINT
  5
3036
330
2133
100
AcDbEntity
  8
Defpoints
 62
     0
100
AcDbPoint
 10
846.006678565579
 20
1647.518514127091
 30
0.0
  0
ENDBLK
  5
213E
330
2133
100
AcDbEntity
  8
0
100
AcDbBlockEnd
  0
BLOCK
  5
214A
330
2140
100
AcDbEntity
  8
0
100
AcDbBlockBegin
  2
*D15
 70
     1
 10
0.0
 20
0.0
 30
0.0
  3
*D15
  1

  0
LINE
  5
2FF8
330
2140
100
AcDbEntity
  8
実形
 62
     0
370
    18
100
AcDbLine
 10
673.5066785655788
 20
1592.567033805976
 30
0.0
 11
673.5066785655788
 21
1727.348728912194
 31
0.0
  0
LINE
  5
2FF9
330
2140
100
AcDbEntity
  8
実形
 62
     0
370
    18
100
AcDbLine
 10
1163.506678565579
 20
1482.564157532552
 30
0.0
 11
1163.506678565579
 21
1727.348728912194
 31
0.0
  0
LINE
  5
2FFA
330
2140
100
AcDbEntity
  8
実形
 62
     0
370
    18
100
AcDbLine
 10
673.5066785655788
 20
1727.348728912194
 30
0.0
 11
1163.506678565579
 21
1727.348728912194
 31
0.0
  0
INSERT
  5
2FFB
330
2140
100
AcDbEntity
  8
実形
 62
     0
370
    18
100
AcDbBlockReference
  2
_DotSmall
 10
673.5066785655788
 20
1727.348728912194
 30
0.0
 41
35.0
 42
35.0
 43
35.0
 50
180.0
  0
INSERT
  5
2FFC
330
2140
100
AcDbEntity
  8
実形
 62
     0
370
    18
100
AcDbBlockReference
  2
_DotSmall
 10
1163.506678565579
 20
1727.348728912194
 30
0.0
 41
35.0
 42
35.0
 43
35.0
  0
MTEXT
  5
2FFD
330
2140
100
AcDbEntity
  8
実形
 62
     0
370
    18
100
AcDbMText
 10
918.5066785655791
 20
1746.098728912194
 30
0.0
 40
25.0
 41
0.0
 71
     5
 72
     1
  1
490
 73
     1
 44
1.0
1001
ACAD
1000
MTEXTBEGIN
1070
    73
1070
     1
1070
    44
1040
1.0
1070
    74
1070
     0
1000
MTEXTEND
  0
POINT
  5
2FFE
330
2140
100
AcDbEntity
  8
Defpoints
 62
     0
100
AcDbPoint
 10
673.5066785655788
 20
1527.567033805976
 30
0.0
  0
POINT
  5
2FFF
330
2140
100
AcDbEntity
  8
Defpoints
 62
     0
100
AcDbPoint
 10
1163.506678565579
 20
1417.564157532552
 30
0.0
  0
POINT
  5
3000
330
2140
100
AcDbEntity
  8
Defpoints
 62
     0
100
AcDbPoint
 10
1163.506678565579
 20
1727.348728912194
 30
0.0
  0
ENDBLK
  5
214B
330
2140
100
AcDbEntity
  8
0
100
AcDbBlockEnd
  0
BLOCK
  5
2162
330
2158
100
AcDbEntity
  8
0
100
AcDbBlockBegin
  2
*D16
 70
     1
 10
0.0
 20
0.0
 30
0.0
  3
*D16
  1

  0
LINE
  5
3091
330
2158
100
AcDbEntity
  8
実形
 62
     0
370
    18
100
AcDbLine
 10
1378.50667856558
 20
1262.564157532551
 30
0.0
 11
1740.722275943853
 21
1262.564157532551
 31
0.0
  0
LINE
  5
3092
330
2158
100
AcDbEntity
  8
実形
 62
     0
370
    18
100
AcDbLine
 10
1663.506678565578
 20
1007.567033805976
 30
0.0
 11
1740.722275943853
 21
1007.567033805976
 31
0.0
  0
LINE
  5
3093
330
2158
100
AcDbEntity
  8
実形
 62
     0
370
    18
100
AcDbLine
 10
1740.722275943853
 20
1262.564157532551
 30
0.0
 11
1740.722275943853
 21
1007.567033805976
 31
0.0
  0
INSERT
  5
3094
330
2158
100
AcDbEntity
  8
実形
 62
     0
370
    18
100
AcDbBlockReference
  2
_DotSmall
 10
1740.722275943853
 20
1262.564157532551
 30
0.0
 41
35.0
 42
35.0
 43
35.0
 50
90.0
  0
INSERT
  5
3095
330
2158
100
AcDbEntity
  8
実形
 62
     0
370
    18
100
AcDbBlockReference
  2
_DotSmall
 10
1740.722275943853
 20
1007.567033805976
 30
0.0
 41
35.0
 42
35.0
 43
35.0
 50
270.0
  0
MTEXT
  5
3096
330
2158
100
AcDbEntity
  8
実形
 62
     0
370
    18
100
AcDbMText
 10
1721.972275943853
 20
1135.065595669264
 30
0.0
 40
25.0
 41
0.0
 71
     5
 72
     1
  1
255
 11
0.0000000000000001
 21
1.0
 31
0.0
 73
     1
 44
1.0
1001
ACAD
1000
MTEXTBEGIN
1070
    73
1070
     1
1070
    44
1040
1.0
1070
    74
1070
     0
1000
MTEXTEND
  0
POINT
  5
3097
330
2158
100
AcDbEntity
  8
Defpoints
 62
     0
100
AcDbPoint
 10
1313.50667856558
 20
1262.564157532551
 30
0.0
  0
POINT
  5
3098
330
2158
100
AcDbEntity
  8
Defpoints
 62
     0
100
AcDbPoint
 10
1598.506678565579
 20
1007.567033805976
 30
0.0
  0
POINT
  5
3099
330
2158
100
AcDbEntity
  8
Defpoints
 62
     0
100
AcDbPoint
 10
1740.722275943853
 20
1007.567033805976
 30
0.0
  0
ENDBLK
  5
2163
330
2158
100
AcDbEntity
  8
0
100
AcDbBlockEnd
  0
BLOCK
  5
216F
330
2165
100
AcDbEntity
  8
0
100
AcDbBlockBegin
  2
*D17
 70
     1
 10
0.0
 20
0.0
 30
0.0
  3
*D17
  1

  0
LINE
  5
3088
330
2165
100
AcDbEntity
  8
実形
 62
     0
370
    18
100
AcDbLine
 10
1539.98372226207
 20
1332.564157532552
 30
0.0
 11
1809.374034881268
 21
1332.564157532552
 31
0.0
  0
LINE
  5
3089
330
2165
100
AcDbEntity
  8
実形
 62
     0
370
    18
100
AcDbLine
 10
1728.506678565579
 20
1007.567033805976
 30
0.0
 11
1809.374034881268
 21
1007.567033805975
 31
0.0
  0
LINE
  5
308A
330
2165
100
AcDbEntity
  8
実形
 62
     0
370
    18
100
AcDbLine
 10
1809.374034881268
 20
1332.564157532552
 30
0.0
 11
1809.374034881268
 21
1007.567033805975
 31
0.0
  0
INSERT
  5
308B
330
2165
100
AcDbEntity
  8
実形
 62
     0
370
    18
100
AcDbBlockReference
  2
_DotSmall
 10
1809.374034881268
 20
1332.564157532552
 30
0.0
 41
35.0
 42
35.0
 43
35.0
 50
90.0
  0
INSERT
  5
308C
330
2165
100
AcDbEntity
  8
実形
 62
     0
370
    18
100
AcDbBlockReference
  2
_DotSmall
 10
1809.374034881268
 20
1007.567033805975
 30
0.0
 41
35.0
 42
35.0
 43
35.0
 50
270.0
  0
MTEXT
  5
308D
330
2165
100
AcDbEntity
  8
実形
 62
     0
370
    18
100
AcDbMText
 10
1790.624034881268
 20
1170.065595669264
 30
0.0
 40
25.0
 41
0.0
 71
     5
 72
     1
  1
325
 11
0.0000000000000001
 21
1.0
 31
0.0
 73
     1
 44
1.0
1001
ACAD
1000
MTEXTBEGIN
1070
    73
1070
     1
1070
    44
1040
1.0
1070
    74
1070
     0
1000
MTEXTEND
  0
POINT
  5
308E
330
2165
100
AcDbEntity
  8
Defpoints
 62
     0
100
AcDbPoint
 10
1474.98372226207
 20
1332.564157532552
 30
0.0
  0
POINT
  5
308F
330
2165
100
AcDbEntity
  8
Defpoints
 62
     0
100
AcDbPoint
 10
1663.506678565578
 20
1007.567033805976
 30
0.0
  0
POINT
  5
3090
330
2165
100
AcDbEntity
  8
Defpoints
 62
     0
100
AcDbPoint
 10
1809.374034881268
 20
1007.567033805975
 30
0.0
  0
ENDBLK
  5
2170
330
2165
100
AcDbEntity
  8
0
100
AcDbBlockEnd
  0
BLOCK
  5
2182
330
2178
100
AcDbEntity
  8
0
100
AcDbBlockBegin
  2
*D18
 70
     1
 10
0.0
 20
0.0
 30
0.0
  3
*D18
  1

  0
LINE
  5
3025
330
2178
100
AcDbEntity
  8
実形
 62
     0
370
    18
100
AcDbLine
 10
609.5739569094657
 20
1482.564157532552
 30
0.0
 11
518.8759506391862
 21
1482.564157532552
 31
0.0
  0
LINE
  5
3026
330
2178
100
AcDbEntity
  8
実形
 62
     0
370
    18
100
AcDbLine
 10
608.5066785655787
 20
1042.564157532552
 30
0.0
 11
518.8759506391861
 21
1042.564157532552
 31
0.0
  0
LINE
  5
3027
330
2178
100
AcDbEntity
  8
実形
 62
     0
370
    18
100
AcDbLine
 10
518.8759506391862
 20
1482.564157532552
 30
0.0
 11
518.8759506391861
 21
1042.564157532552
 31
0.0
  0
INSERT
  5
3028
330
2178
100
AcDbEntity
  8
実形
 62
     0
370
    18
100
AcDbBlockReference
  2
_DotSmall
 10
518.8759506391862
 20
1482.564157532552
 30
0.0
 41
35.0
 42
35.0
 43
35.0
 50
90.0
  0
INSERT
  5
3029
330
2178
100
AcDbEntity
  8
実形
 62
     0
370
    18
100
AcDbBlockReference
  2
_DotSmall
 10
518.8759506391861
 20
1042.564157532552
 30
0.0
 41
35.0
 42
35.0
 43
35.0
 50
270.0
  0
MTEXT
  5
302A
330
2178
100
AcDbEntity
  8
実形
 62
     0
370
    18
100
AcDbMText
 10
500.125950639186
 20
1262.564157532552
 30
0.0
 40
25.0
 41
0.0
 71
     5
 72
     1
  1
440
 11
0.0000000000000001
 21
1.0
 31
0.0
 73
     1
 44
1.0
1001
ACAD
1000
MTEXTBEGIN
1070
    73
1070
     1
1070
    44
1040
1.0
1070
    74
1070
     0
1000
MTEXTEND
  0
POINT
  5
302B
330
2178
100
AcDbEntity
  8
Defpoints
 62
     0
100
AcDbPoint
 10
674.5739569094657
 20
1482.564157532552
 30
0.0
  0
POINT
  5
302C
330
2178
100
AcDbEntity
  8
Defpoints
 62
     0
100
AcDbPoint
 10
673.5066785655788
 20
1042.564157532552
 30
0.0
  0
POINT
  5
302D
330
2178
100
AcDbEntity
  8
Defpoints
 62
     0
100
AcDbPoint
 10
518.8759506391861
 20
1042.564157532552
 30
0.0
  0
ENDBLK
  5
2183
330
2178
100
AcDbEntity
  8
0
100
AcDbBlockEnd
  0
BLOCK
  5
21D5
330
21CA
100
AcDbEntity
  8
0
100
AcDbBlockBegin
  2
*D19
 70
     1
 10
0.0
 20
0.0
 30
0.0
  3
*D19
  1

  0
LINE
  5
301C
330
21CA
100
AcDbEntity
  8
実形
 62
     0
370
    18
100
AcDbLine
 10
543.5066785655788
 20
1509.564157532551
 30
0.0
 11
518.8759506391867
 21
1509.564157532551
 31
0.0
  0
LINE
  5
301D
330
21CA
100
AcDbEntity
  8
実形
 62
     0
370
    18
100
AcDbLine
 10
544.5739569094658
 20
1482.564157532552
 30
0.0
 11
518.8759506391867
 21
1482.564157532552
 31
0.0
  0
LINE
  5
301E
330
21CA
100
AcDbEntity
  8
実形
 62
     0
370
    18
100
AcDbLine
 10
518.8759506391867
 20
1509.564157532551
 30
0.0
 11
518.8759506391867
 21
1482.564157532552
 31
0.0
  0
INSERT
  5
301F
330
21CA
100
AcDbEntity
  8
実形
 62
     0
370
    18
100
AcDbBlockReference
  2
_DotSmall
 10
518.8759506391867
 20
1509.564157532551
 30
0.0
 41
35.0
 42
35.0
 43
35.0
 50
90.0
  0
INSERT
  5
3020
330
21CA
100
AcDbEntity
  8
実形
 62
     0
370
    18
100
AcDbBlockReference
  2
_DotSmall
 10
518.8759506391867
 20
1482.564157532552
 30
0.0
 41
35.0
 42
35.0
 43
35.0
 50
270.0
  0
MTEXT
  5
3021
330
21CA
100
AcDbEntity
  8
実形
 62
     0
370
    18
100
AcDbMText
 10
500.1259506391865
 20
1496.064157532552
 30
0.0
 40
25.0
 41
0.0
 71
     5
 72
     1
  1
27
 11
0.0000000000000001
 21
1.0
 31
0.0
 73
     1
 44
1.0
1001
ACAD
1000
MTEXTBEGIN
1070
    73
1070
     1
1070
    44
1040
1.0
1070
    74
1070
     0
1000
MTEXTEND
  0
POINT
  5
3022
330
21CA
100
AcDbEntity
  8
Defpoints
 62
     0
100
AcDbPoint
 10
608.5066785655787
 20
1509.564157532551
 30
0.0
  0
POINT
  5
3023
330
21CA
100
AcDbEntity
  8
Defpoints
 62
     0
100
AcDbPoint
 10
609.5739569094657
 20
1482.564157532552
 30
0.0
  0
POINT
  5
3024
330
21CA
100
AcDbEntity
  8
Defpoints
 62
     0
100
AcDbPoint
 10
518.8759506391867
 20
1482.564157532552
 30
0.0
  0
ENDBLK
  5
21D6
330
21CA
100
AcDbEntity
  8
0
100
AcDbBlockEnd
  0
BLOCK
  5
2278
330
226E
100
AcDbEntity
  8
0
100
AcDbBlockBegin
  2
*D20
 70
     1
 10
0.0
 20
0.0
 30
0.0
  3
*D20
  1

  0
LINE
  5
3052
330
226E
100
AcDbEntity
  8
実形
 62
     0
370
    18
100
AcDbLine
 10
691.5066785655788
 20
905.9366621347498
 30
0.0
 11
691.5066785655788
 21
896.1796462512634
 31
0.0
  0
LINE
  5
3053
330
226E
100
AcDbEntity
  8
実形
 62
     0
370
    18
100
AcDbLine
 10
718.5066785655789
 20
942.1532065784058
 30
0.0
 11
718.5066785655789
 21
896.1796462512634
 31
0.0
  0
LINE
  5
3054
330
226E
100
AcDbEntity
  8
実形
 62
     0
370
    18
100
AcDbLine
 10
691.5066785655788
 20
896.1796462512634
 30
0.0
 11
718.5066785655789
 21
896.1796462512634
 31
0.0
  0
MTEXT
  5
3055
330
226E
100
AcDbEntity
  8
実形
 62
     0
370
    18
100
AcDbMText
 10
704.7440727606936
 20
964.1129757471217
 30
0.0
 40
25.0
 41
0.0
 71
     5
 72
     1
  1
27
 73
     1
 44
1.0
1001
ACAD
1000
MTEXTBEGIN
1070
    73
1070
     1
1070
    44
1040
1.0
1070
    74
1070
     0
1000
MTEXTEND
  0
INSERT
  5
3056
330
226E
100
AcDbEntity
  8
実形
 62
     0
370
    18
100
AcDbBlockReference
  2
_DotSmall
 10
691.5066785655788
 20
896.1796462512634
 30
0.0
 41
35.0
 42
35.0
 43
35.0
 50
180.0
  0
INSERT
  5
3057
330
226E
100
AcDbEntity
  8
実形
 62
     0
370
    18
100
AcDbBlockReference
  2
_DotSmall
 10
718.5066785655789
 20
896.1796462512634
 30
0.0
 41
35.0
 42
35.0
 43
35.0
  0
POINT
  5
3058
330
226E
100
AcDbEntity
  8
Defpoints
 62
     0
100
AcDbPoint
 10
691.5066785655788
 20
970.9366621347498
 30
0.0
  0
POINT
  5
3059
330
226E
100
AcDbEntity
  8
Defpoints
 62
     0
100
AcDbPoint
 10
718.5066785655789
 20
1007.153206578406
 30
0.0
  0
POINT
  5
305A
330
226E
100
AcDbEntity
  8
Defpoints
 62
     0
100
AcDbPoint
 10
718.5066785655789
 20
896.1796462512634
 30
0.0
  0
ENDBLK
  5
2279
330
226E
100
AcDbEntity
  8
0
100
AcDbBlockEnd
  0
BLOCK
  5
22BC
330
22B2
100
AcDbEntity
  8
0
100
AcDbBlockBegin
  2
*D21
 70
     1
 10
0.0
 20
0.0
 30
0.0
  3
*D21
  1

  0
LINE
  5
2FEF
330
22B2
100
AcDbEntity
  8
実形
 62
     0
370
    18
100
AcDbLine
 10
718.5066785655789
 20
925.5670338059756
 30
0.0
 11
718.5066785655789
 21
896.1796462512634
 31
0.0
  0
LINE
  5
2FF0
330
22B2
100
AcDbEntity
  8
実形
 62
     0
370
    18
100
AcDbLine
 10
973.5066785655789
 20
943.0161930622608
 30
0.0
 11
973.5066785655789
 21
896.1796462512634
 31
0.0
  0
LINE
  5
2FF1
330
22B2
100
AcDbEntity
  8
実形
 62
     0
370
    18
100
AcDbLine
 10
718.5066785655789
 20
896.1796462512634
 30
0.0
 11
973.5066785655789
 21
896.1796462512634
 31
0.0
  0
INSERT
  5
2FF2
330
22B2
100
AcDbEntity
  8
実形
 62
     0
370
    18
100
AcDbBlockReference
  2
_DotSmall
 10
718.5066785655789
 20
896.1796462512634
 30
0.0
 41
35.0
 42
35.0
 43
35.0
 50
180.0
  0
INSERT
  5
2FF3
330
22B2
100
AcDbEntity
  8
実形
 62
     0
370
    18
100
AcDbBlockReference
  2
_DotSmall
 10
973.5066785655789
 20
896.1796462512634
 30
0.0
 41
35.0
 42
35.0
 43
35.0
  0
MTEXT
  5
2FF4
330
22B2
100
AcDbEntity
  8
実形
 62
     0
370
    18
100
AcDbMText
 10
846.0066785655788
 20
914.9296462512634
 30
0.0
 40
25.0
 41
0.0
 71
     5
 72
     1
  1
255
 73
     1
 44
1.0
1001
ACAD
1000
MTEXTBEGIN
1070
    73
1070
     1
1070
    44
1040
1.0
1070
    74
1070
     0
1000
MTEXTEND
  0
POINT
  5
2FF5
330
22B2
100
AcDbEntity
  8
Defpoints
 62
     0
100
AcDbPoint
 10
718.5066785655789
 20
990.5670338059756
 30
0.0
  0
POINT
  5
2FF6
330
22B2
100
AcDbEntity
  8
Defpoints
 62
     0
100
AcDbPoint
 10
973.5066785655789
 20
1008.01619306226
 30
0.0
  0
POINT
  5
2FF7
330
22B2
100
AcDbEntity
  8
Defpoints
 62
     0
100
AcDbPoint
 10
973.5066785655789
 20
896.1796462512634
 30
0.0
  0
ENDBLK
  5
22BD
330
22B2
100
AcDbEntity
  8
0
100
AcDbBlockEnd
  0
BLOCK
  5
22F1
330
22E7
100
AcDbEntity
  8
0
100
AcDbBlockBegin
  2
*D22
 70
     1
 10
0.0
 20
0.0
 30
0.0
  3
*D22
  1

  0
LINE
  5
309A
330
22E7
100
AcDbEntity
  8
実形
 62
     0
370
    18
100
AcDbLine
 10
973.5066785655789
 20
935.202012865241
 30
0.0
 11
973.5066785655789
 21
896.1796462512634
 31
0.0
  0
LINE
  5
309B
330
22E7
100
AcDbEntity
  8
実形
 62
     0
370
    18
100
AcDbLine
 10
1013.506678565579
 20
942.9353746950082
 30
0.0
 11
1013.506678565579
 21
896.1796462512634
 31
0.0
  0
LINE
  5
309C
330
22E7
100
AcDbEntity
  8
実形
 62
     0
370
    18
100
AcDbLine
 10
973.5066785655789
 20
896.1796462512634
 30
0.0
 11
1013.506678565579
 21
896.1796462512634
 31
0.0
  0
MTEXT
  5
309D
330
22E7
100
AcDbEntity
  8
実形
 62
     0
370
    18
100
AcDbMText
 10
993.506678565579
 20
967.9796612357668
 30
0.0
 40
25.0
 41
0.0
 71
     5
 72
     1
  1
40
 73
     1
 44
1.0
1001
ACAD
1000
MTEXTBEGIN
1070
    73
1070
     1
1070
    44
1040
1.0
1070
    74
1070
     0
1000
MTEXTEND
  0
INSERT
  5
309E
330
22E7
100
AcDbEntity
  8
実形
 62
     0
370
    18
100
AcDbBlockReference
  2
_DotSmall
 10
973.5066785655789
 20
896.1796462512634
 30
0.0
 41
35.0
 42
35.0
 43
35.0
 50
180.0
  0
INSERT
  5
309F
330
22E7
100
AcDbEntity
  8
実形
 62
     0
370
    18
100
AcDbBlockReference
  2
_DotSmall
 10
1013.506678565579
 20
896.1796462512634
 30
0.0
 41
35.0
 42
35.0
 43
35.0
  0
POINT
  5
30A0
330
22E7
100
AcDbEntity
  8
Defpoints
 62
     0
100
AcDbPoint
 10
973.5066785655789
 20
1000.202012865241
 30
0.0
  0
POINT
  5
30A1
330
22E7
100
AcDbEntity
  8
Defpoints
 62
     0
100
AcDbPoint
 10
1013.506678565579
 20
1007.935374695008
 30
0.0
  0
POINT
  5
30A2
330
22E7
100
AcDbEntity
  8
Defpoints
 62
     0
100
AcDbPoint
 10
1013.506678565579
 20
896.1796462512634
 30
0.0
  0
ENDBLK
  5
22F2
330
22E7
100
AcDbEntity
  8
0
100
AcDbBlockEnd
  0
BLOCK
  5
238C
330
2382
100
AcDbEntity
  8
0
100
AcDbBlockBegin
  2
*D23
 70
     1
 10
0.0
 20
0.0
 30
0.0
  3
*D23
  1

  0
LINE
  5
307F
330
2382
100
AcDbEntity
  8
実形
 62
     0
370
    18
100
AcDbLine
 10
1013.506678565579
 20
935.0259962243081
 30
0.0
 11
1013.506678565579
 21
896.1796462512634
 31
0.0
  0
LINE
  5
3080
330
2382
100
AcDbEntity
  8
実形
 62
     0
370
    18
100
AcDbLine
 10
1563.506678565579
 20
941.7550789272599
 30
0.0
 11
1563.506678565579
 21
896.1796462512634
 31
0.0
  0
LINE
  5
3081
330
2382
100
AcDbEntity
  8
実形
 62
     0
370
    18
100
AcDbLine
 10
1013.506678565579
 20
896.1796462512634
 30
0.0
 11
1563.506678565579
 21
896.1796462512634
 31
0.0
  0
INSERT
  5
3082
330
2382
100
AcDbEntity
  8
実形
 62
     0
370
    18
100
AcDbBlockReference
  2
_DotSmall
 10
1013.506678565579
 20
896.1796462512634
 30
0.0
 41
35.0
 42
35.0
 43
35.0
 50
180.0
  0
INSERT
  5
3083
330
2382
100
AcDbEntity
  8
実形
 62
     0
370
    18
100
AcDbBlockReference
  2
_DotSmall
 10
1563.506678565579
 20
896.1796462512634
 30
0.0
 41
35.0
 42
35.0
 43
35.0
  0
MTEXT
  5
3084
330
2382
100
AcDbEntity
  8
実形
 62
     0
370
    18
100
AcDbMText
 10
1288.506678565578
 20
914.9296462512634
 30
0.0
 40
25.0
 41
0.0
 71
     5
 72
     1
  1
550
 73
     1
 44
1.0
1001
ACAD
1000
MTEXTBEGIN
1070
    73
1070
     1
1070
    44
1040
1.0
1070
    74
1070
     0
1000
MTEXTEND
  0
POINT
  5
3085
330
2382
100
AcDbEntity
  8
Defpoints
 62
     0
100
AcDbPoint
 10
1013.506678565579
 20
1000.025996224308
 30
0.0
  0
POINT
  5
3086
330
2382
100
AcDbEntity
  8
Defpoints
 62
     0
100
AcDbPoint
 10
1563.506678565579
 20
1006.75507892726
 30
0.0
  0
POINT
  5
3087
330
2382
100
AcDbEntity
  8
Defpoints
 62
     0
100
AcDbPoint
 10
1563.506678565579
 20
896.1796462512634
 30
0.0
  0
ENDBLK
  5
238D
330
2382
100
AcDbEntity
  8
0
100
AcDbBlockEnd
  0
BLOCK
  5
23C6
330
23BC
100
AcDbEntity
  8
0
100
AcDbBlockBegin
  2
*D24
 70
     1
 10
0.0
 20
0.0
 30
0.0
  3
*D24
  1

  0
LINE
  5
30A3
330
23BC
100
AcDbEntity
  8
実形
 62
     0
370
    18
100
AcDbLine
 10
1563.506678565579
 20
902.7616391684141
 30
0.0
 11
1563.506678565579
 21
896.1796462512634
 31
0.0
  0
LINE
  5
30A4
330
23BC
100
AcDbEntity
  8
実形
 62
     0
370
    18
100
AcDbLine
 10
1590.506678565578
 20
902.7616391684141
 30
0.0
 11
1590.506678565578
 21
896.1796462512634
 31
0.0
  0
LINE
  5
30A5
330
23BC
100
AcDbEntity
  8
実形
 62
     0
370
    18
100
AcDbLine
 10
1563.506678565579
 20
896.1796462512634
 30
0.0
 11
1590.506678565578
 21
896.1796462512634
 31
0.0
  0
MTEXT
  5
30A6
330
23BC
100
AcDbEntity
  8
実形
 62
     0
370
    18
100
AcDbMText
 10
1577.006678565578
 20
961.7235695136232
 30
0.0
 40
25.0
 41
0.0
 71
     5
 72
     1
  1
27
 73
     1
 44
1.0
1001
ACAD
1000
MTEXTBEGIN
1070
    73
1070
     1
1070
    44
1040
1.0
1070
    74
1070
     0
1000
MTEXTEND
  0
INSERT
  5
30A7
330
23BC
100
AcDbEntity
  8
実形
 62
     0
370
    18
100
AcDbBlockReference
  2
_DotSmall
 10
1563.506678565579
 20
896.1796462512634
 30
0.0
 41
35.0
 42
35.0
 43
35.0
 50
180.0
  0
INSERT
  5
30A8
330
23BC
100
AcDbEntity
  8
実形
 62
     0
370
    18
100
AcDbBlockReference
  2
_DotSmall
 10
1590.506678565578
 20
896.1796462512634
 30
0.0
 41
35.0
 42
35.0
 43
35.0
  0
POINT
  5
30A9
330
23BC
100
AcDbEntity
  8
Defpoints
 62
     0
100
AcDbPoint
 10
1563.506678565579
 20
967.7616391684141
 30
0.0
  0
POINT
  5
30AA
330
23BC
100
AcDbEntity
  8
Defpoints
 62
     0
100
AcDbPoint
 10
1590.506678565578
 20
967.7616391684141
 30
0.0
  0
POINT
  5
30AB
330
23BC
100
AcDbEntity
  8
Defpoints
 62
     0
100
AcDbPoint
 10
1590.506678565578
 20
896.1796462512634
 30
0.0
  0
ENDBLK
  5
23C7
330
23BC
100
AcDbEntity
  8
0
100
AcDbBlockEnd
  0
BLOCK
  5
23E9
330
23E8
100
AcDbEntity
  8
0
100
AcDbBlockBegin
  2
*D25
 70
     1
 10
0.0
 20
0.0
 30
0.0
  3
*D25
  1

  0
LINE
  5
23EA
330
23E8
100
AcDbEntity
  8
寸法
 62
     0
370
    15
100
AcDbLine
 10
793.5936297894718
 20
763.6754556760197
 30
0.0
 11
675.9612549668831
 21
763.6754556760198
 31
0.0
  0
LINE
  5
23EB
330
23E8
100
AcDbEntity
  8
寸法
 62
     0
370
    15
100
AcDbLine
 10
793.5936297894718
 20
564.6754556760197
 30
0.0
 11
675.9612549668831
 21
564.6754556760198
 31
0.0
  0
LINE
  5
23EC
330
23E8
100
AcDbEntity
  8
寸法
 62
     0
370
    18
100
AcDbLine
 10
675.9612549668831
 20
763.6754556760198
 30
0.0
 11
675.9612549668831
 21
564.6754556760198
 31
0.0
  0
INSERT
  5
23ED
330
23E8
100
AcDbEntity
  8
寸法
 62
     0
370
    18
100
AcDbBlockReference
  2
_DotSmall
 10
675.9612549668831
 20
763.6754556760198
 30
0.0
 41
35.0
 42
35.0
 43
35.0
 50
90.0
  0
INSERT
  5
23EE
330
23E8
100
AcDbEntity
  8
寸法
 62
     0
370
    18
100
AcDbBlockReference
  2
_DotSmall
 10
675.9612549668831
 20
564.6754556760198
 30
0.0
 41
35.0
 42
35.0
 43
35.0
 50
270.0
  0
MTEXT
  5
23EF
330
23E8
100
AcDbEntity
  8
寸法
 62
     0
100
AcDbMText
 10
657.2112549668831
 20
664.1754556760199
 30
0.0
 40
25.0
 41
0.0
 71
     5
 72
     1
  1
199
 11
0.0000000000000001
 21
1.0
 31
0.0
 73
     1
 44
1.0
1001
ACAD
1000
MTEXTBEGIN
1070
    73
1070
     1
1070
    44
1040
1.0
1070
    74
1070
     0
1000
MTEXTEND
  0
POINT
  5
23F0
330
23E8
100
AcDbEntity
  8
Defpoints
 62
     0
100
AcDbPoint
 10
858.5936297894718
 20
763.6754556760197
 30
0.0
  0
POINT
  5
23F1
330
23E8
100
AcDbEntity
  8
Defpoints
 62
     0
100
AcDbPoint
 10
858.5936297894718
 20
564.6754556760197
 30
0.0
  0
POINT
  5
23F2
330
23E8
100
AcDbEntity
  8
Defpoints
 62
     0
100
AcDbPoint
 10
675.9612549668831
 20
564.6754556760198
 30
0.0
  0
ENDBLK
  5
23F3
330
23E8
100
AcDbEntity
  8
0
100
AcDbBlockEnd
  0
BLOCK
  5
23F5
330
23F4
100
AcDbEntity
  8
0
100
AcDbBlockBegin
  2
*D26
 70
     1
 10
0.0
 20
0.0
 30
0.0
  3
*D26
  1

  0
LINE
  5
23F6
330
23F4
100
AcDbEntity
  8
寸法
 62
     0
370
    15
100
AcDbLine
 10
793.5936297894718
 20
579.6754556760197
 30
0.0
 11
714.7018793017646
 21
579.6754556760198
 31
0.0
  0
LINE
  5
23F7
330
23F4
100
AcDbEntity
  8
寸法
 62
     0
370
    15
100
AcDbLine
 10
793.5936297894718
 20
564.6754556760197
 30
0.0
 11
714.7018793017646
 21
564.6754556760198
 31
0.0
  0
LINE
  5
23F8
330
23F4
100
AcDbEntity
  8
寸法
 62
     0
370
    18
100
AcDbLine
 10
714.7018793017646
 20
579.6754556760198
 30
0.0
 11
714.7018793017646
 21
564.6754556760198
 31
0.0
  0
INSERT
  5
23F9
330
23F4
100
AcDbEntity
  8
寸法
 62
     0
370
    18
100
AcDbBlockReference
  2
_DotSmall
 10
714.7018793017646
 20
579.6754556760198
 30
0.0
 41
35.0
 42
35.0
 43
35.0
 50
90.0
  0
INSERT
  5
23FA
330
23F4
100
AcDbEntity
  8
寸法
 62
     0
370
    18
100
AcDbBlockReference
  2
_DotSmall
 10
714.7018793017646
 20
564.6754556760198
 30
0.0
 41
35.0
 42
35.0
 43
35.0
 50
270.0
  0
POINT
  5
23FB
330
23F4
100
AcDbEntity
  8
Defpoints
 62
     0
100
AcDbPoint
 10
858.5936297894718
 20
579.6754556760197
 30
0.0
  0
POINT
  5
23FC
330
23F4
100
AcDbEntity
  8
Defpoints
 62
     0
100
AcDbPoint
 10
858.5936297894718
 20
564.6754556760197
 30
0.0
  0
POINT
  5
23FD
330
23F4
100
AcDbEntity
  8
Defpoints
 62
     0
100
AcDbPoint
 10
714.7018793017646
 20
564.6754556760198
 30
0.0
  0
ENDBLK
  5
23FE
330
23F4
100
AcDbEntity
  8
0
100
AcDbBlockEnd
  0
BLOCK
  5
2411
330
23FF
100
AcDbEntity
  8
0
100
AcDbBlockBegin
  2
A$C68897DCF
 70
     0
 10
0.0
 20
0.0
 30
0.0
  3
A$C68897DCF
  1

  0
LINE
  5
2400
330
23FF
100
AcDbEntity
  8
実形
100
AcDbLine
 10
961.4799999999988
 20
0.0
 30
0.0
 11
-35.51000000000113
 21
0.0
 31
0.0
  0
LINE
  5
2401
330
23FF
100
AcDbEntity
  8
実形
100
AcDbLine
 10
961.4799999999988
 20
0.0
 30
0.0
 11
-35.51000000000113
 21
0.0
 31
0.0
  0
DIMENSION
  5
2402
330
23FF
100
AcDbEntity
  8
寸法
100
AcDbDimension
  2
*D25
 10
-178.1423748225897
 20
-198.9999999999999
 30
0.0
 11
-196.8923748225899
 21
-99.49999999999977
 31
0.0
 12
-854.1036297894729
 22
-763.6754556760197
 32
0.0
 71
     5
 42
199.0
  3
ISO-25
100
AcDbAlignedDimension
 13
4.489999999998872
 23
0.0
 33
0.0
 14
4.489999999998872
 24
-199.0
 34
0.0
 50
90.0
100
AcDbRotatedDimension
1001
ACAD
1000
DSTYLE
1002
{
1070
   371
1070
    18
1002
}
  0
TEXT
  5
2403
330
23FF
100
AcDbEntity
  8
寸法
370
    18
100
AcDbText
 10
-117.841031501408
 20
-258.3058832032343
 30
0.0
 40
25.0
  1
15
 50
90.0
100
AcDbText
  0
DIMENSION
  5
2404
330
23FF
100
AcDbEntity
  8
寸法
100
AcDbDimension
  2
*D26
 10
-139.4017504877083
 20
-198.9999999999999
 30
0.0
 11
-139.4017504877084
 21
-191.4999999999998
 31
0.0
 12
-854.1036297894729
 22
-763.6754556760197
 32
0.0
  1
 
 71
     5
 42
15.0
  3
ISO-25
100
AcDbAlignedDimension
 13
4.489999999998872
 23
-184.0
 33
0.0
 14
4.489999999998872
 24
-199.0
 34
0.0
 50
90.0
100
AcDbRotatedDimension
1001
ACAD
1000
DSTYLE
1002
{
1070
   371
1070
    18
1002
}
  0
LINE
  5
2405
330
23FF
100
AcDbEntity
  8
実形
100
AcDbLine
 10
991.4899999999994
 20
-10.0
 30
0.0
 11
-52.51000000000067
 21
-10.0
 31
0.0
  0
LINE
  5
2406
330
23FF
100
AcDbEntity
  8
実形
100
AcDbLine
 10
999.4899999999994
 20
5.0
 30
0.0
 11
-60.51000000000067
 21
5.0
 31
0.0
  0
LINE
  5
2407
330
23FF
100
AcDbEntity
  8
実形
100
AcDbLine
 10
1004.489999999999
 20
0.0
 30
0.0
 11
-65.51000000000067
 21
0.0
 31
0.0
  0
LINE
  5
2408
330
23FF
100
AcDbEntity
  8
実形
100
AcDbLine
 10
-50.51000000000067
 20
0.0
 30
0.0
 11
989.4899999999992
 21
0.0
 31
0.0
  0
LINE
  5
2409
330
23FF
100
AcDbEntity
  8
実形
100
AcDbLine
 10
-50.51000000000067
 20
0.0
 30
0.0
 11
989.4899999999992
 21
0.0
 31
0.0
  0
LINE
  5
240A
330
23FF
100
AcDbEntity
  8
実形
100
AcDbLine
 10
-52.51000000000067
 20
-10.0
 30
0.0
 11
-52.51000000000067
 21
0.0
 31
0.0
  0
LINE
  5
240B
330
23FF
100
AcDbEntity
  8
実形
100
AcDbLine
 10
-60.51000000000067
 20
5.0
 30
0.0
 11
-65.51000000000067
 21
0.0
 31
0.0
  0
ARC
  5
240C
330
23FF
100
AcDbEntity
  8
実形
100
AcDbCircle
 10
30.0
 20
-160.6243867408759
 30
0.0
 40
30.0
100
AcDbArc
 50
180.0
 51
255.8505239136565
  0
LINE
  5
240D
330
23FF
100
AcDbEntity
  8
実形
100
AcDbLine
 10
22.66642724021813
 20
-189.7142253546769
 30
0.0
 11
59.5
 21
-199.0
 31
0.0
  0
LINE
  5
240E
330
23FF
100
AcDbEntity
  8
実形
100
AcDbLine
 10
0.0
 20
82.40553507815183
 30
0.0
 11
0.0
 21
-160.6243867408759
 31
0.0
  0
ENDBLK
  5
2412
330
23FF
100
AcDbEntity
  8
0
100
AcDbBlockEnd
  0
BLOCK
  5
2CFB
330
2CF1
100
AcDbEntity
  8
0
100
AcDbBlockBegin
  2
*D28
 70
     1
 10
0.0
 20
0.0
 30
0.0
  3
*D28
  1

  0
LINE
  5
3064
330
2CF1
100
AcDbEntity
  8
実形
 62
     0
370
    18
100
AcDbLine
 10
1730.816501940218
 20
698.9536497015761
 30
0.0
 11
1814.279756992102
 21
698.9536497015759
 31
0.0
  0
LINE
  5
3065
330
2CF1
100
AcDbEntity
  8
実形
 62
     0
370
    18
100
AcDbLine
 10
1791.052771732269
 20
487.9536497015759
 30
0.0
 11
1814.279756992102
 21
487.9536497015759
 31
0.0
  0
LINE
  5
3066
330
2CF1
100
AcDbEntity
  8
実形
 62
     0
370
    18
100
AcDbLine
 10
1814.279756992102
 20
698.9536497015759
 30
0.0
 11
1814.279756992102
 21
487.9536497015759
 31
0.0
  0
INSERT
  5
3067
330
2CF1
100
AcDbEntity
  8
実形
 62
     0
370
    18
100
AcDbBlockReference
  2
_DotSmall
 10
1814.279756992102
 20
698.9536497015759
 30
0.0
 41
20.0
 42
20.0
 43
20.0
 50
90.0
  0
INSERT
  5
3068
330
2CF1
100
AcDbEntity
  8
実形
 62
     0
370
    18
100
AcDbBlockReference
  2
_DotSmall
 10
1814.279756992102
 20
487.9536497015759
 30
0.0
 41
20.0
 42
20.0
 43
20.0
 50
270.0
  0
MTEXT
  5
3069
330
2CF1
100
AcDbEntity
  8
実形
 62
     0
100
AcDbMText
 10
1794.529756992102
 20
593.4536497015763
 30
0.0
 40
27.0
 41
0.0
 71
     5
 72
     1
  1
211
 11
0.0000000000000001
 21
1.0
 31
0.0
 73
     1
 44
1.0
1001
ACAD
1000
MTEXTBEGIN
1070
    73
1070
     1
1070
    44
1040
1.0
1070
    74
1070
     0
1000
MTEXTEND
  0
POINT
  5
306A
330
2CF1
100
AcDbEntity
  8
Defpoints
 62
     0
100
AcDbPoint
 10
1665.816501940218
 20
698.9536497015761
 30
0.0
  0
POINT
  5
306B
330
2CF1
100
AcDbEntity
  8
Defpoints
 62
     0
100
AcDbPoint
 10
1726.052771732269
 20
487.9536497015759
 30
0.0
  0
POINT
  5
306C
330
2CF1
100
AcDbEntity
  8
Defpoints
 62
     0
100
AcDbPoint
 10
1814.279756992102
 20
487.9536497015759
 30
0.0
  0
ENDBLK
  5
2CFC
330
2CF1
100
AcDbEntity
  8
0
100
AcDbBlockEnd
  0
BLOCK
  5
2E70
330
2E6C
100
AcDbEntity
  8
0
100
AcDbBlockBegin
  2
A$C69CC5A1A
 70
     0
 10
0.0
 20
0.0
 30
0.0
  3
A$C69CC5A1A
  1

  0
TEXT
  5
2E6D
330
2E6C
100
AcDbEntity
  8
寸法
 62
     0
370
    18
100
AcDbText
 10
25.0000021064825
 20
-0.0000000825502866
 30
0.0
 40
25.0
  1
15
 50
90.0
100
AcDbText
  0
ENDBLK
  5
2E71
330
2E6C
100
AcDbEntity
  8
0
100
AcDbBlockEnd
  0
ENDSEC
  0
SECTION
  2
ENTITIES
  0
LINE
  5
9C
330
1F
100
AcDbEntity
  8
実形
 62
     0
370
    18
100
AcDbLine
 10
111.0
 20
4.0
 30
0.0
 11
2784.0
 21
4.0
 31
0.0
  0
LINE
  5
A0
330
1F
100
AcDbEntity
  8
実形
 62
     0
370
    18
100
AcDbLine
 10
2784.0
 20
2024.0
 30
0.0
 11
111.0
 21
2024.0
 31
0.0
  0
LINE
  5
A5
330
1F
100
AcDbEntity
  8
実形
 62
     0
370
    18
100
AcDbLine
 10
2784.0
 20
4.0
 30
0.0
 11
2784.0
 21
2024.0
 31
0.0
  0
TEXT
  5
8C9
330
1F
100
AcDbEntity
  8
実形
 62
     0
370
    18
100
AcDbText
 10
218.2512748396903
 20
90.15577985714662
 30
0.0
 40
30.0
  1
※実寸には製造上の誤差が多少生ずる場合があります。シンクの穴あけ加工は現物合わせにてお願いします。
100
AcDbText
  0
LINE
  5
1D5D
330
1F
100
AcDbEntity
  8
実形
 62
     0
370
    18
100
AcDbLine
 10
2084.0
 20
134.0
 30
0.0
 11
2784.0
 21
134.0
 31
0.0
  0
LINE
  5
1D5E
330
1F
100
AcDbEntity
  8
実形
 62
     0
370
    18
100
AcDbLine
 10
2084.0
 20
199.0
 30
0.0
 11
2784.0
 21
199.0
 31
0.0
  0
LINE
  5
1D5F
330
1F
100
AcDbEntity
  8
実形
 62
     0
370
    18
100
AcDbLine
 10
2084.0
 20
69.0
 30
0.0
 11
2784.0
 21
69.0
 31
0.0
  0
TEXT
  5
1D60
330
1F
100
AcDbEntity
  8
実形
 62
     0
370
    18
100
AcDbText
 10
2106.666666666667
 20
149.0
 30
0.0
 40
35.0
  1
品番
 72
     4
 11
2144.0
 21
166.5
 31
0.0
100
AcDbText
  0
TEXT
  5
1D61
330
1F
100
AcDbEntity
  8
実形
 62
     0
370
    18
100
AcDbText
 10
2106.666666666667
 20
84.0
 30
0.0
 40
35.0
  1
尺度
 72
     4
 11
2144.0
 21
101.5
 31
0.0
100
AcDbText
  0
LINE
  5
1D62
330
1F
100
AcDbEntity
  8
実形
 62
     0
370
    18
100
AcDbLine
 10
2084.0
 20
4.0
 30
0.0
 11
2084.0
 21
199.0
 31
0.0
  0
LINE
  5
1D63
330
1F
100
AcDbEntity
  8
実形
 62
     0
370
    18
100
AcDbLine
 10
2204.0
 20
69.0
 30
0.0
 11
2784.0
 21
69.0
 31
0.0
  0
TEXT
  5
1D64
330
1F
100
AcDbEntity
  8
実形
 62
     0
370
    18
100
AcDbText
 10
2320.255774665348
 20
16.49999999999999
 30
0.0
 40
40.0
  1
中外交易株式会社
 72
     4
 11
2508.255774665347
 21
36.5
 31
0.0
100
AcDbText
  0
TEXT
  5
1D65
330
1F
100
AcDbEntity
  8
実形
 62
     0
370
    18
100
AcDbText
 10
2269.416666666666
 20
149.0
 30
0.0
 40
35.0
  1
HLm/m935-520W
 72
     4
 11
2494.0
 21
166.5
 31
0.0
100
AcDbText
  0
LINE
  5
1D66
330
1F
100
AcDbEntity
  8
実形
 62
     0
370
    18
100
AcDbLine
 10
2204.0
 20
69.0
 30
0.0
 11
2204.0
 21
199.0
 31
0.0
  0
HATCH
  5
1D67
330
1F
100
AcDbEntity
  8
実形
 62
     0
370
    18
100
AcDbHatch
 10
0.0
 20
0.0
 30
0.0
210
0.0
220
0.0
230
1.0
  2
SOLID
 70
     1
 71
     1
 91
        3
 92
        1
 93
        4
 72
     2
 10
2277.166198313995
 20
36.5
 40
20.0
 50
11.64772366707341
 51
342.656105878473
 73
     1
 72
     1
 10
2296.256852341324
 20
30.53787547858519
 11
2272.166198313995
 21
30.53787547858519
 72
     1
 10
2272.166198313995
 20
30.53787547858519
 11
2272.166198313995
 21
40.53787547858519
 72
     1
 10
2272.166198313995
 20
40.53787547858519
 11
2296.75434681301
 21
40.53787547858519
 97
        4
330
1D68
330
1D6A
330
1D6B
330
1D6C
 92
        1
 93
        4
 72
     2
 10
2208.255774665348
 20
36.5
 40
20.0
 50
11.64772366707341
 51
342.656105878473
 73
     1
 72
     1
 10
2227.346428692676
 20
30.53787547858519
 11
2203.255774665347
 21
30.53787547858519
 72
     1
 10
2203.255774665347
 20
30.53787547858519
 11
2203.255774665347
 21
40.53787547858519
 72
     1
 10
2203.255774665347
 20
40.53787547858519
 11
2227.843923164362
 21
40.53787547858519
 97
        4
330
1D69
330
1D72
330
1D73
330
1D74
 92
        1
 93
        5
 72
     1
 10
2265.641894042939
 20
56.5
 11
2230.641894042939
 21
56.5
 72
     1
 10
2230.641894042939
 20
56.5
 11
2230.641894042939
 21
16.5
 72
     1
 10
2230.641894042939
 20
16.5
 11
2265.641894042939
 21
16.5
 72
     1
 10
2265.641894042939
 20
16.5
 11
2230.641894042939
 21
36.5
 72
     1
 10
2230.641894042939
 20
36.5
 11
2265.641894042939
 21
56.5
 97
        5
330
1D6D
330
1D71
330
1D70
330
1D6F
330
1D6E
 75
     0
 76
     1
 98
        1
 10
-40.0
 20
0.0
  0
ARC
  5
1D68
102
{ACAD_REACTORS
330
1D67
102
}
330
1F
100
AcDbEntity
  8
実形
 62
     0
370
    18
100
AcDbCircle
 10
2277.166198313995
 20
36.5
 30
0.0
 40
20.0
100
AcDbArc
 50
11.64772366707341
 51
342.656105878473
  0
ARC
  5
1D69
102
{ACAD_REACTORS
330
1D67
102
}
330
1F
100
AcDbEntity
  8
実形
 62
     0
370
    18
100
AcDbCircle
 10
2208.255774665348
 20
36.5
 30
0.0
 40
20.0
100
AcDbArc
 50
11.64772366707341
 51
342.656105878473
  0
LINE
  5
1D6A
102
{ACAD_REACTORS
330
1D67
102
}
330
1F
100
AcDbEntity
  8
実形
 62
     0
370
    18
100
AcDbLine
 10
2272.166198313995
 20
30.53787547858519
 30
0.0
 11
2296.256852341324
 21
30.53787547858519
 31
0.0
  0
LINE
  5
1D6B
102
{ACAD_REACTORS
330
1D67
102
}
330
1F
100
AcDbEntity
  8
実形
 62
     0
370
    18
100
AcDbLine
 10
2272.166198313995
 20
40.53787547858519
 30
0.0
 11
2272.166198313995
 21
30.53787547858519
 31
0.0
  0
LINE
  5
1D6C
102
{ACAD_REACTORS
330
1D67
102
}
330
1F
100
AcDbEntity
  8
実形
 62
     0
370
    18
100
AcDbLine
 10
2296.75434681301
 20
40.53787547858519
 30
0.0
 11
2272.166198313995
 21
40.53787547858519
 31
0.0
  0
LINE
  5
1D6D
102
{ACAD_REACTORS
330
1D67
102
}
330
1F
100
AcDbEntity
  8
実形
 62
     0
370
    18
100
AcDbLine
 10
2265.641894042939
 20
56.5
 30
0.0
 11
2230.641894042939
 21
56.5
 31
0.0
  0
LINE
  5
1D6E
102
{ACAD_REACTORS
330
1D67
102
}
330
1F
100
AcDbEntity
  8
実形
 62
     0
370
    18
100
AcDbLine
 10
2230.641894042939
 20
36.5
 30
0.0
 11
2265.641894042939
 21
56.5
 31
0.0
  0
LINE
  5
1D6F
102
{ACAD_REACTORS
330
1D67
102
}
330
1F
100
AcDbEntity
  8
実形
 62
     0
370
    18
100
AcDbLine
 10
2265.641894042939
 20
16.5
 30
0.0
 11
2230.641894042939
 21
36.5
 31
0.0
  0
LINE
  5
1D70
102
{ACAD_REACTORS
330
1D67
102
}
330
1F
100
AcDbEntity
  8
実形
 62
     0
370
    18
100
AcDbLine
 10
2230.641894042939
 20
16.5
 30
0.0
 11
2265.641894042939
 21
16.5
 31
0.0
  0
LINE
  5
1D71
102
{ACAD_REACTORS
330
1D67
102
}
330
1F
100
AcDbEntity
  8
実形
 62
     0
370
    18
100
AcDbLine
 10
2230.641894042939
 20
56.5
 30
0.0
 11
2230.641894042939
 21
16.5
 31
0.0
  0
LINE
  5
1D72
102
{ACAD_REACTORS
330
1D67
102
}
330
1F
100
AcDbEntity
  8
実形
 62
     0
370
    18
100
AcDbLine
 10
2203.255774665347
 20
30.53787547858519
 30
0.0
 11
2227.346428692676
 21
30.53787547858519
 31
0.0
  0
LINE
  5
1D73
102
{ACAD_REACTORS
330
1D67
102
}
330
1F
100
AcDbEntity
  8
実形
 62
     0
370
    18
100
AcDbLine
 10
2203.255774665347
 20
40.53787547858519
 30
0.0
 11
2203.255774665347
 21
30.53787547858519
 31
0.0
  0
LINE
  5
1D74
102
{ACAD_REACTORS
330
1D67
102
}
330
1F
100
AcDbEntity
  8
実形
 62
     0
370
    18
100
AcDbLine
 10
2227.843923164362
 20
40.53787547858519
 30
0.0
 11
2203.255774665347
 21
40.53787547858519
 31
0.0
  0
TEXT
  5
1D75
330
1F
100
AcDbEntity
  8
実形
 62
     0
370
    18
100
AcDbText
 10
2440.916666666666
 20
84.0
 30
0.0
 40
35.0
  1
1：10
 72
     4
 11
2494.0
 21
101.5
 31
0.0
100
AcDbText
  0
LINE
  5
1D76
330
1F
100
AcDbEntity
  8
実形
 62
     0
370
    18
100
AcDbLine
 10
2784.0
 20
4.0
 30
0.0
 11
2784.0
 21
69.0
 31
0.0
  0
LINE
  5
1D77
330
1F
100
AcDbEntity
  8
実形
 62
     0
370
    18
100
AcDbLine
 10
2784.0
 20
134.0
 30
0.0
 11
2784.0
 21
199.0
 31
0.0
  0
LINE
  5
1D78
330
1F
100
AcDbEntity
  8
実形
 62
     0
370
    18
100
AcDbLine
 10
2784.0
 20
69.0
 30
0.0
 11
2784.0
 21
134.0
 31
0.0
  0
LINE
  5
1D79
330
1F
100
AcDbEntity
  8
実形
 62
     0
370
    18
100
AcDbLine
 10
2084.0
 20
2024.0
 30
0.0
 11
2784.0
 21
2024.0
 31
0.0
  0
LINE
  5
1D89
330
1F
100
AcDbEntity
  8
実形
 62
     0
370
    18
100
AcDbLine
 10
2784.0
 20
2024.0
 30
0.0
 11
2784.000000000001
 21
1829.0
 31
0.0
  0
LINE
  5
1D8A
330
1F
100
AcDbEntity
  8
実形
 62
     0
370
    18
100
AcDbLine
 10
2784.0
 20
1829.0
 30
0.0
 11
2784.0
 21
2024.0
 31
0.0
  0
LINE
  5
1F21
330
1F
100
AcDbEntity
  8
実形
 62
     0
 48
0.8
370
    18
100
AcDbLine
 10
1029.044131530483
 20
1262.564157532551
 30
0.0
 11
1378.291770317862
 21
1262.564157532551
 31
0.0
  0
CIRCLE
  5
1F22
330
1F
100
AcDbEntity
  8
実形
 62
     0
370
    18
100
AcDbCircle
 10
1163.506678565579
 20
1262.564157532551
 30
0.0
 40
90.5
  0
CIRCLE
  5
1F23
330
1F
100
AcDbEntity
  8
実形
 62
     0
370
    18
100
AcDbCircle
 10
1163.506678565579
 20
1262.564157532551
 30
0.0
 40
80.0
  0
LINE
  5
1F24
330
1F
100
AcDbEntity
  8
実形
 62
     0
 48
0.8
370
    18
100
AcDbLine
 10
1163.506678565579
 20
1412.564157532552
 30
0.0
 11
1163.506678565579
 21
1112.564157532551
 31
0.0
  0
LINE
  5
1F25
330
1F
100
AcDbEntity
  8
実形
 62
     0
370
    18
100
AcDbLine
 10
1003.506678565579
 20
693.953649701576
 30
0.0
 11
1583.50667856558
 21
693.953649701576
 31
0.0
  0
DIMENSION
  5
1F26
330
1F
100
AcDbEntity
  8
実形
 62
     0
370
    18
100
AcDbDimension
  2
*D4
 10
1254.00667856558
 20
327.3168438315743
 30
0.0
 11
1163.506678565579
 21
327.3168438315743
 31
0.0
 70
   160
 71
     5
 42
181.0000000000002
  3
ISO-25
100
AcDbAlignedDimension
 13
1073.00667856558
 23
484.9536497015761
 33
0.0
 14
1254.00667856558
 24
484.953649701576
 34
0.0
100
AcDbRotatedDimension
1001
ACAD
1000
DSTYLE
1002
{
1070
   371
1070
    18
1002
}
  0
DIMENSION
  5
1F27
330
1F
100
AcDbEntity
  8
実形
 62
     0
370
    18
100
AcDbDimension
  2
*D5
 10
1243.50667856558
 20
368.5262424005032
 30
0.0
 11
1163.50667856558
 21
387.2762424005032
 31
0.0
 70
    32
 71
     5
 42
160.0000000000002
  3
ISO-25
100
AcDbAlignedDimension
 13
1083.50667856558
 23
484.953649701576
 33
0.0
 14
1243.50667856558
 24
484.953649701576
 34
0.0
100
AcDbRotatedDimension
1001
ACAD
1000
DSTYLE
1002
{
1070
   371
1070
    18
1002
}
  0
LINE
  5
1F29
330
1F
100
AcDbEntity
  8
実形
 62
     0
370
    18
100
AcDbLine
 10
1073.00667856558
 20
494.9536497015761
 30
0.0
 11
1243.50667856558
 21
494.9536497015761
 31
0.0
  0
LINE
  5
1F2A
330
1F
100
AcDbEntity
  8
実形
 62
     0
370
    18
100
AcDbLine
 10
1003.506678565579
 20
693.953649701576
 30
0.0
 11
1583.50667856558
 21
693.953649701576
 31
0.0
  0
ARC
  5
1F2B
330
1F
100
AcDbEntity
  8
実形
 62
     0
370
    18
100
AcDbCircle
 10
1043.506678565579
 20
533.3292629607001
 30
0.0
 40
30.0
100
AcDbArc
 50
180.0
 51
255.8505239136573
  0
LINE
  5
1F2C
330
1F
100
AcDbEntity
  8
実形
 62
     0
 48
0.5
370
    18
100
AcDbLine
 10
1163.506678565579
 20
573.1702735769895
 30
0.0
 11
1163.506678565579
 21
416.7544532696893
 31
0.0
  0
LINE
  5
1F2D
330
1F
100
AcDbEntity
  8
実形
 62
     0
370
    18
100
AcDbLine
 10
1036.173105805798
 20
504.2394243468991
 30
0.0
 11
1073.00667856558
 21
494.9536497015761
 31
0.0
  0
LINE
  5
1F2E
330
1F
100
AcDbEntity
  8
実形
 62
     0
370
    18
100
AcDbLine
 10
1073.00667856558
 20
494.9536497015761
 30
0.0
 11
1073.00667856558
 21
487.9536497015759
 31
0.0
  0
LINE
  5
1F2F
330
1F
100
AcDbEntity
  8
実形
 62
     0
370
    18
100
AcDbLine
 10
1013.50667856558
 20
683.953649701576
 30
0.0
 11
1013.506678565579
 21
533.3292629607001
 31
0.0
  0
LEADER
  5
1F31
330
1F
100
AcDbEntity
  8
実形
 62
     0
370
    18
100
AcDbLeader
  3
ISO-25
 40
25.0
 41
16.66666666666666
 76
     2
 10
1547.149028680111
 20
524.7029599176094
 30
0.0
 10
1499.210530385061
 20
555.1851816820644
 30
0.0
210
0.0
220
0.0
230
-1.0
213
0.0
223
-12.5
233
0.0
1001
ACAD
1000
DSTYLE
1002
{
1070
    41
1040
25.0
1070
   147
1040
6.25
1070
    77
1070
     0
1070
    73
1070
     1
1070
    74
1070
     1
1070
   279
1070
     1
1070
   342
1005
DA
1002
}
  0
LINE
  5
1F34
330
1F
100
AcDbEntity
  8
実形
 62
     0
370
    18
100
AcDbLine
 10
1254.00667856558
 20
487.9536497015759
 30
0.0
 11
1254.00667856558
 21
494.9536497015761
 31
0.0
  0
LINE
  5
1F35
330
1F
100
AcDbEntity
  8
実形
 62
     0
370
    18
100
AcDbLine
 10
1254.00667856558
 20
494.9536497015761
 30
0.0
 11
1254.00667856558
 21
494.9536497015761
 31
0.0
  0
LINE
  5
1F36
330
1F
100
AcDbEntity
  8
実形
 62
     0
370
    18
100
AcDbLine
 10
1243.50667856558
 20
494.9536497015761
 30
0.0
 11
1254.00667856558
 21
494.9536497015761
 31
0.0
  0
TEXT
  5
1F37
330
1F
100
AcDbEntity
  8
実形
 62
     0
370
    18
100
AcDbText
 10
1675.199099667723
 20
516.98867778993
 30
0.0
 40
25.0
  1
15
 50
90.0
100
AcDbText
  0
LINE
  5
1F39
330
1F
100
AcDbEntity
  8
実形
 62
     0
370
    18
100
AcDbLine
 10
1563.50667856558
 20
683.953649701576
 30
0.0
 11
1563.50667856558
 21
538.8748682497578
 31
0.0
  0
TEXT
  5
1F3A
330
1F
100
AcDbEntity
  8
実形
 62
     0
370
    18
100
AcDbText
 10
1429.336019689796
 20
554.2284286626359
 30
0.0
 40
25.0
  1
30R
100
AcDbText
  0
TEXT
  5
1F3C
330
1F
100
AcDbEntity
  8
実形
 62
     0
370
    18
100
AcDbText
 10
760.5240084425111
 20
631.2037891312802
 30
0.0
 40
25.0
  1
30R
100
AcDbText
  0
LINE
  5
1F3E
330
1F
100
AcDbEntity
  8
実形
 62
     0
370
    18
100
AcDbLine
 10
788.0066785655793
 20
539.9449359798127
 30
0.0
 11
904.0066785655792
 21
539.9449359798127
 31
0.0
  0
LINE
  5
1F3F
330
1F
100
AcDbEntity
  8
実形
 62
     0
370
    18
100
AcDbLine
 10
788.0066785655793
 20
532.9449359798127
 30
0.0
 11
788.0066785655793
 21
539.9449359798127
 31
0.0
  0
LINE
  5
1F41
330
1F
100
AcDbEntity
  8
実形
 62
     0
370
    18
100
AcDbLine
 10
904.0066785655792
 20
539.9449359798127
 30
0.0
 11
904.0066785655792
 21
532.9449359798127
 31
0.0
  0
DIMENSION
  5
1F42
330
1F
100
AcDbEntity
  8
実形
 62
     0
370
    18
100
AcDbDimension
  2
*D6
 10
788.0066785655793
 20
372.3081301098109
 30
0.0
 11
846.0066785655792
 21
372.3081301098109
 31
0.0
 70
   160
 71
     5
 42
116.0
  3
ISO-25
100
AcDbAlignedDimension
 13
904.0066785655792
 23
529.9449359798127
 33
0.0
 14
788.0066785655793
 24
529.9449359798127
 34
0.0
 50
180.0
100
AcDbRotatedDimension
1001
ACAD
1000
DSTYLE
1002
{
1070
   371
1070
    18
1002
}
  0
DIMENSION
  5
1F43
330
1F
100
AcDbEntity
  8
実形
 62
     0
370
    18
100
AcDbDimension
  2
*D7
 10
802.0066785655792
 20
413.5175286787398
 30
0.0
 11
846.0066785655792
 21
432.2675286787398
 31
0.0
 70
    32
 71
     5
 42
88.0
  3
ISO-25
100
AcDbAlignedDimension
 13
890.0066785655793
 23
529.9449359798127
 33
0.0
 14
802.0066785655792
 24
529.9449359798127
 34
0.0
 50
180.0
100
AcDbRotatedDimension
1001
ACAD
1000
DSTYLE
1002
{
1070
   371
1070
    18
1002
}
  0
LINE
  5
1F44
330
1F
100
AcDbEntity
  8
実形
 62
     0
 48
0.5
370
    18
100
AcDbLine
 10
846.0066785655792
 20
618.1615598552261
 30
0.0
 11
846.0066785655792
 21
461.7457395479259
 31
0.0
  0
LEADER
  5
1F45
330
1F
100
AcDbEntity
  8
実形
 62
     0
370
    18
100
AcDbLeader
  3
ISO-25
 40
25.0
 41
16.66666666666666
 76
     2
 10
734.8643284510476
 20
569.7029599176094
 30
0.0
 10
771.9940884572736
 20
615.6932779108156
 30
0.0
211
-1.0
221
0.0
231
0.0
213
0.0
223
-12.5
233
0.0
1001
ACAD
1000
DSTYLE
1002
{
1070
    41
1040
25.0
1070
   147
1040
6.25
1070
    77
1070
     0
1070
    73
1070
     1
1070
    74
1070
     1
1070
   279
1070
     1
1070
   342
1005
DA
1002
}
  0
LINE
  5
1F46
330
1F
100
AcDbEntity
  8
実形
 62
     0
 48
0.8
370
    18
100
AcDbLine
 10
846.006678565579
 20
1432.564157532552
 30
0.0
 11
846.0066785655792
 21
1232.564157532552
 31
0.0
  0
CIRCLE
  5
1F47
330
1F
100
AcDbEntity
  8
実形
 62
     0
370
    18
100
AcDbCircle
 10
846.0066785655792
 20
1332.564157532552
 30
0.0
 40
58.0
  0
CIRCLE
  5
1F48
330
1F
100
AcDbEntity
  8
実形
 62
     0
370
    18
100
AcDbCircle
 10
846.0066785655792
 20
1332.564157532552
 30
0.0
 40
44.0
  0
LINE
  5
1F49
330
1F
100
AcDbEntity
  8
実形
 62
     0
370
    18
100
AcDbLine
 10
698.5066785655792
 20
693.953649701576
 30
0.0
 11
983.5066785655795
 21
693.953649701576
 31
0.0
  0
LINE
  5
1F4A
330
1F
100
AcDbEntity
  8
実形
 62
     0
370
    18
100
AcDbLine
 10
983.5066785655795
 20
693.953649701576
 30
0.0
 11
698.5066785655792
 21
693.953649701576
 31
0.0
  0
LINE
  5
1F4B
330
1F
100
AcDbEntity
  8
実形
 62
     0
370
    18
100
AcDbLine
 10
983.5066785655795
 20
693.953649701576
 30
0.0
 11
698.5066785655792
 21
693.953649701576
 31
0.0
  0
LINE
  5
1F4C
330
1F
100
AcDbEntity
  8
実形
 62
     0
 48
0.8
370
    18
100
AcDbLine
 10
1576.374127894247
 20
1332.564157532552
 30
0.0
 11
746.006678565579
 21
1332.564157532552
 31
0.0
  0
LINE
  5
1F4D
330
1F
100
AcDbEntity
  8
実形
 62
     0
370
    18
100
AcDbLine
 10
699.006678565579
 20
693.953649701576
 30
0.0
 11
1608.506678565579
 21
693.953649701576
 31
0.0
  0
LINE
  5
1F52
330
1F
100
AcDbEntity
  8
実形
 62
     0
370
    18
100
AcDbLine
 10
863.5066785655792
 20
1482.564157532552
 30
0.0
 11
828.5066785655793
 21
1482.564157532552
 31
0.0
  0
TEXT
  5
1F59
330
1F
100
AcDbEntity
  8
実形
 62
     0
370
    18
100
AcDbText
 10
577.8526064468987
 20
544.0943943023276
 30
0.0
 40
25.0
  1
15
 50
90.0
100
AcDbText
  0
DIMENSION
  5
1F66
330
1F
100
AcDbEntity
  8
実形
 62
     0
370
    18
100
AcDbDimension
  2
*D8
 10
518.8759506391861
 20
1509.564157532551
 30
0.0
 11
501.2944714410296
 21
1563.317602483691
 31
0.0
 70
   160
 71
     5
 42
18.0
  3
ISO-25
100
AcDbAlignedDimension
 13
673.5066785655788
 23
1527.564157532551
 33
0.0
 14
673.5066785655788
 24
1509.564157532551
 34
0.0
 50
90.0
100
AcDbRotatedDimension
1001
ACAD
1000
DSTYLE
1002
{
1070
   279
1070
     2
1070
   371
1070
    18
1070
   372
1070
    18
1002
}
  0
DIMENSION
  5
1F69
330
1F
100
AcDbEntity
  8
実形
 62
     0
370
    18
100
AcDbDimension
  2
*D9
 10
518.8759506391861
 20
1007.564157532551
 30
0.0
 11
518.8759506391859
 21
971.7605737554372
 31
0.0
 70
   160
 71
     5
 42
18.00000000000011
  3
ISO-25
100
AcDbAlignedDimension
 13
673.5066785655788
 23
1025.564157532551
 33
0.0
 14
673.5066785655788
 24
1007.564157532551
 34
0.0
 50
90.0
100
AcDbRotatedDimension
1001
ACAD
1000
DSTYLE
1002
{
1070
   279
1070
     1
1070
   371
1070
    18
1070
   372
1070
    18
1002
}
  0
DIMENSION
  5
1F6A
330
1F
100
AcDbEntity
  8
実形
 62
     0
370
    18
100
AcDbDimension
  2
*D10
 10
445.1640082379188
 20
1007.564157532551
 30
0.0
 11
426.4140082379186
 21
1267.564157532551
 31
0.0
 70
    32
 71
     5
 42
520.0000000000001
  3
ISO-25
100
AcDbAlignedDimension
 13
673.5066785655788
 23
1527.564157532551
 33
0.0
 14
673.5066785655788
 24
1007.564157532551
 34
0.0
 50
90.0
100
AcDbRotatedDimension
1001
ACAD
1000
DSTYLE
1002
{
1070
   371
1070
    18
1070
   372
1070
    18
1002
}
  0
DIMENSION
  5
1F6B
330
1F
100
AcDbEntity
  8
実形
 62
     0
370
    18
100
AcDbDimension
  2
*D11
 10
691.5066785655787
 20
896.1796462512634
 30
0.0
 11
640.419958825825
 21
920.7452782119622
 31
0.0
 70
   160
 71
     5
 42
18.0
  3
ISO-25
100
AcDbAlignedDimension
 13
673.5066785655788
 23
1007.564157532551
 33
0.0
 14
691.5066785655787
 24
1007.564157532551
 34
0.0
100
AcDbRotatedDimension
1001
ACAD
1000
DSTYLE
1002
{
1070
   279
1070
     2
1070
   371
1070
    18
1070
   372
1070
    18
1002
}
  0
DIMENSION
  5
1F6D
330
1F
100
AcDbEntity
  8
実形
 62
     0
370
    18
100
AcDbDimension
  2
*D12
 10
1608.506678565579
 20
896.1796462512634
 30
0.0
 11
1644.201937928625
 21
920.4110617129712
 31
0.0
 70
   160
 71
     5
 42
18.0
  3
ISO-25
100
AcDbAlignedDimension
 13
1590.506678565578
 23
1007.564157532551
 33
0.0
 14
1608.506678565579
 24
1007.564157532551
 34
0.0
100
AcDbRotatedDimension
1001
ACAD
1000
DSTYLE
1002
{
1070
   279
1070
     2
1070
   371
1070
    18
1070
   372
1070
    18
1002
}
  0
DIMENSION
  5
1F6E
330
1F
100
AcDbEntity
  8
実形
 62
     0
370
    18
100
AcDbDimension
  2
*D13
 10
1608.506678565579
 20
816.2914961110159
 30
0.0
 11
1141.006678565578
 21
835.0414961110159
 31
0.0
 70
    32
 71
     5
 42
934.9999999999997
  3
ISO-25
100
AcDbAlignedDimension
 13
673.5066785655788
 23
1007.564157532551
 33
0.0
 14
1608.506678565579
 24
1007.564157532551
 34
0.0
100
AcDbRotatedDimension
1001
ACAD
1000
DSTYLE
1002
{
1070
   371
1070
    18
1070
   372
1070
    18
1002
}
  0
LINE
  5
1F6F
330
1F
100
AcDbEntity
  8
実形
 62
     0
370
    18
100
AcDbLine
 10
1608.506678565579
 20
1517.567033805975
 30
0.0
 11
1608.506678565579
 21
1017.567033805976
 31
0.0
  0
LINE
  5
1F70
330
1F
100
AcDbEntity
  8
実形
 62
     0
370
    18
100
AcDbLine
 10
1603.506678565579
 20
1517.567033805975
 30
0.0
 11
1603.506678565579
 21
1017.567033805976
 31
0.0
  0
LINE
  5
1F71
330
1F
100
AcDbEntity
  8
実形
 62
     0
370
    18
100
AcDbLine
 10
1590.506678565579
 20
1055.567033805976
 30
0.0
 11
1590.506678565579
 21
1479.567033805976
 31
0.0
  0
ARC
  5
1F72
330
1F
100
AcDbEntity
  8
実形
 62
     0
370
    18
100
AcDbCircle
 10
1560.506678565579
 20
1055.567033805976
 30
0.0
 40
30.0
100
AcDbArc
 50
270.0
 51
0.0
  0
ARC
  5
1F73
330
1F
100
AcDbEntity
  8
実形
 62
     0
370
    18
100
AcDbCircle
 10
1560.506678565579
 20
1479.567033805976
 30
0.0
 40
30.0
100
AcDbArc
 50
0.0
 51
90.0
  0
LINE
  5
1F74
330
1F
100
AcDbEntity
  8
実形
 62
     0
370
    18
100
AcDbLine
 10
1595.506678565578
 20
1055.567033805976
 30
0.0
 11
1595.506678565579
 21
1479.567033805977
 31
0.0
  0
ARC
  5
1F75
330
1F
100
AcDbEntity
  8
実形
 62
     0
370
    18
100
AcDbCircle
 10
1560.506678565579
 20
1055.567033805976
 30
0.0
 40
35.0
100
AcDbArc
 50
270.0
 51
0.0
  0
LINE
  5
1F76
330
1F
100
AcDbEntity
  8
実形
 62
     0
370
    18
100
AcDbLine
 10
1598.506678565579
 20
1012.567033805976
 30
0.0
 11
683.5066785655787
 21
1012.567033805976
 31
0.0
  0
ARC
  5
1F77
330
1F
100
AcDbEntity
  8
実形
 62
     0
370
    18
100
AcDbCircle
 10
1598.506678565579
 20
1017.567033805976
 30
0.0
 40
5.0
100
AcDbArc
 50
270.0
 51
0.0
  0
ARC
  5
1F78
330
1F
100
AcDbEntity
  8
実形
 62
     0
370
    18
100
AcDbCircle
 10
1598.506678565579
 20
1017.567033805976
 30
0.0
 40
10.0
100
AcDbArc
 50
270.0
 51
0.0
  0
LINE
  5
1F79
330
1F
100
AcDbEntity
  8
実形
 62
     0
370
    18
100
AcDbLine
 10
721.5066785655789
 20
1025.567033805975
 30
0.0
 11
1560.506678565579
 21
1025.567033805976
 31
0.0
  0
LINE
  5
1F7A
330
1F
100
AcDbEntity
  8
実形
 62
     0
370
    18
100
AcDbLine
 10
721.5066785655789
 20
1020.567033805975
 30
0.0
 11
1560.506678565579
 21
1020.567033805976
 31
0.0
  0
ARC
  5
1F7B
330
1F
100
AcDbEntity
  8
実形
 62
     0
370
    18
100
AcDbCircle
 10
721.5066785655789
 20
1055.567033805975
 30
0.0
 40
35.0
100
AcDbArc
 50
180.0
 51
270.0
  0
LINE
  5
1F7C
330
1F
100
AcDbEntity
  8
実形
 62
     0
370
    18
100
AcDbLine
 10
1560.506678565579
 20
1514.567033805977
 30
0.0
 11
721.5066785655789
 21
1514.567033805976
 31
0.0
  0
ARC
  5
1F7D
330
1F
100
AcDbEntity
  8
実形
 62
     0
370
    18
100
AcDbCircle
 10
1560.506678565579
 20
1479.567033805977
 30
0.0
 40
35.0
100
AcDbArc
 50
0.0
 51
90.0
  0
ARC
  5
1F7E
330
1F
100
AcDbEntity
  8
実形
 62
     0
370
    18
100
AcDbCircle
 10
721.5066785655789
 20
1479.567033805976
 30
0.0
 40
35.0
100
AcDbArc
 50
90.0
 51
180.0
  0
LINE
  5
1F7F
330
1F
100
AcDbEntity
  8
実形
 62
     0
370
    18
100
AcDbLine
 10
683.5066785655787
 20
1522.567033805976
 30
0.0
 11
1598.506678565579
 21
1522.567033805976
 31
0.0
  0
LINE
  5
1F80
330
1F
100
AcDbEntity
  8
実形
 62
     0
370
    18
100
AcDbLine
 10
683.5066785655787
 20
1527.567033805976
 30
0.0
 11
1598.506678565579
 21
1527.567033805975
 31
0.0
  0
LINE
  5
1F81
330
1F
100
AcDbEntity
  8
実形
 62
     0
370
    18
100
AcDbLine
 10
1560.506678565579
 20
1509.567033805976
 30
0.0
 11
721.5066785655787
 21
1509.567033805976
 31
0.0
  0
ARC
  5
1F82
330
1F
100
AcDbEntity
  8
実形
 62
     0
370
    18
100
AcDbCircle
 10
721.5066785655787
 20
1479.567033805976
 30
0.0
 40
30.0
100
AcDbArc
 50
90.0
 51
180.0
  0
ARC
  5
1F83
330
1F
100
AcDbEntity
  8
実形
 62
     0
370
    18
100
AcDbCircle
 10
683.5066785655787
 20
1517.567033805976
 30
0.0
 40
5.0
100
AcDbArc
 50
90.0
 51
180.0
  0
ARC
  5
1F84
330
1F
100
AcDbEntity
  8
実形
 62
     0
370
    18
100
AcDbCircle
 10
683.5066785655787
 20
1517.567033805976
 30
0.0
 40
10.0
100
AcDbArc
 50
90.0
 51
180.0
  0
ARC
  5
1F85
330
1F
100
AcDbEntity
  8
実形
 62
     0
370
    18
100
AcDbCircle
 10
1598.506678565579
 20
1517.567033805975
 30
0.0
 40
5.0
100
AcDbArc
 50
0.0
 51
90.0
  0
ARC
  5
1F86
330
1F
100
AcDbEntity
  8
実形
 62
     0
370
    18
100
AcDbCircle
 10
1598.506678565579
 20
1517.567033805975
 30
0.0
 40
10.0
100
AcDbArc
 50
0.0
 51
90.0
  0
LINE
  5
1F87
330
1F
100
AcDbEntity
  8
実形
 62
     0
370
    18
100
AcDbLine
 10
686.5066785655788
 20
1479.567033805976
 30
0.0
 11
686.5066785655788
 21
1055.567033805975
 31
0.0
  0
LINE
  5
1F88
330
1F
100
AcDbEntity
  8
実形
 62
     0
370
    18
100
AcDbLine
 10
678.5066785655788
 20
1017.567033805976
 30
0.0
 11
678.5066785655788
 21
1517.567033805976
 31
0.0
  0
LINE
  5
1F89
330
1F
100
AcDbEntity
  8
実形
 62
     0
370
    18
100
AcDbLine
 10
673.5066785655788
 20
1017.567033805976
 30
0.0
 11
673.5066785655788
 21
1517.567033805976
 31
0.0
  0
LINE
  5
1F8A
330
1F
100
AcDbEntity
  8
実形
 62
     0
370
    18
100
AcDbLine
 10
691.5066785655787
 20
1479.567033805976
 30
0.0
 11
691.5066785655788
 21
1055.567033805975
 31
0.0
  0
ARC
  5
1F8B
330
1F
100
AcDbEntity
  8
実形
 62
     0
370
    18
100
AcDbCircle
 10
721.5066785655789
 20
1055.567033805975
 30
0.0
 40
30.0
100
AcDbArc
 50
180.0
 51
270.0
  0
ARC
  5
1F8C
330
1F
100
AcDbEntity
  8
実形
 62
     0
370
    18
100
AcDbCircle
 10
683.5066785655787
 20
1017.567033805976
 30
0.0
 40
5.0
100
AcDbArc
 50
180.0
 51
270.0
  0
ARC
  5
1F8D
330
1F
100
AcDbEntity
  8
実形
 62
     0
370
    18
100
AcDbCircle
 10
683.5066785655787
 20
1017.567033805976
 30
0.0
 40
10.0
100
AcDbArc
 50
180.0
 51
270.0
  0
LINE
  5
1F8E
330
1F
100
AcDbEntity
  8
実形
 62
     0
370
    18
100
AcDbLine
 10
1598.506678565579
 20
1007.567033805976
 30
0.0
 11
683.5066785655787
 21
1007.567033805976
 31
0.0
  0
DIMENSION
  5
2132
330
1F
100
AcDbEntity
  8
実形
 62
     0
370
    18
100
AcDbDimension
  2
*D14
 10
846.006678565579
 20
1647.518514127091
 30
0.0
 11
759.7566785655788
 21
1666.268514127091
 31
0.0
 70
    32
 71
     5
 42
172.5000000000002
  3
ISO-25
100
AcDbAlignedDimension
 13
673.5066785655788
 23
1532.567033805976
 33
0.0
 14
846.006678565579
 24
1442.564157532552
 34
0.0
100
AcDbRotatedDimension
1001
ACAD
1000
DSTYLE
1002
{
1070
   371
1070
    18
1070
   372
1070
    18
1002
}
  0
DIMENSION
  5
213F
330
1F
100
AcDbEntity
  8
実形
 62
     0
370
    18
100
AcDbDimension
  2
*D15
 10
1163.506678565579
 20
1727.348728912194
 30
0.0
 11
918.5066785655791
 21
1746.098728912194
 31
0.0
 70
    32
 71
     5
 42
490.0000000000009
  3
ISO-25
100
AcDbAlignedDimension
 13
673.5066785655788
 23
1527.567033805976
 33
0.0
 14
1163.506678565579
 24
1417.564157532552
 34
0.0
100
AcDbRotatedDimension
1001
ACAD
1000
DSTYLE
1002
{
1070
   371
1070
    18
1070
   372
1070
    18
1002
}
  0
DIMENSION
  5
2157
330
1F
100
AcDbEntity
  8
実形
 62
     0
370
    18
100
AcDbDimension
  2
*D16
 10
1740.722275943853
 20
1007.567033805976
 30
0.0
 11
1721.972275943853
 21
1135.065595669264
 31
0.0
 70
    32
 71
     5
 42
254.9971237265757
  3
ISO-25
100
AcDbAlignedDimension
 13
1313.50667856558
 23
1262.564157532551
 33
0.0
 14
1598.506678565579
 24
1007.567033805976
 34
0.0
 50
90.0
100
AcDbRotatedDimension
1001
ACAD
1000
DSTYLE
1002
{
1070
   371
1070
    18
1070
   372
1070
    18
1002
}
  0
DIMENSION
  5
2164
330
1F
100
AcDbEntity
  8
実形
 62
     0
370
    18
100
AcDbDimension
  2
*D17
 10
1809.374034881268
 20
1007.567033805975
 30
0.0
 11
1790.624034881268
 21
1170.065595669264
 31
0.0
 70
    32
 71
     5
 42
324.997123726576
  3
ISO-25
100
AcDbAlignedDimension
 13
1474.98372226207
 23
1332.564157532552
 33
0.0
 14
1663.506678565578
 24
1007.567033805976
 34
0.0
 50
90.0
100
AcDbRotatedDimension
1001
ACAD
1000
DSTYLE
1002
{
1070
   371
1070
    18
1070
   372
1070
    18
1002
}
  0
DIMENSION
  5
2177
330
1F
100
AcDbEntity
  8
実形
 62
     0
370
    18
100
AcDbDimension
  2
*D18
 10
518.8759506391861
 20
1042.564157532552
 30
0.0
 11
500.125950639186
 21
1262.564157532552
 31
0.0
 70
    32
 71
     5
 42
439.9999999999993
  3
ISO-25
100
AcDbAlignedDimension
 13
674.5739569094657
 23
1482.564157532552
 33
0.0
 14
673.5066785655788
 24
1042.564157532552
 34
0.0
 50
90.0
100
AcDbRotatedDimension
1001
ACAD
1000
DSTYLE
1002
{
1070
   371
1070
    18
1070
   372
1070
    18
1002
}
  0
DIMENSION
  5
21C9
330
1F
100
AcDbEntity
  8
実形
 62
     0
370
    18
100
AcDbDimension
  2
*D19
 10
518.8759506391867
 20
1482.564157532552
 30
0.0
 11
518.8759506391865
 21
1496.064157532552
 31
0.0
 70
   160
 71
     5
 42
26.99999999999955
  3
ISO-25
100
AcDbAlignedDimension
 13
608.5066785655787
 23
1509.564157532551
 33
0.0
 14
609.5739569094657
 24
1482.564157532552
 34
0.0
 50
90.0
100
AcDbRotatedDimension
1001
ACAD
1000
DSTYLE
1002
{
1070
   371
1070
    18
1070
   372
1070
    18
1002
}
  0
LINE
  5
2202
330
1F
100
AcDbEntity
  8
実形
 62
     0
370
    18
100
AcDbLine
 10
518.8759506391861
 20
1037.564157532552
 30
0.0
 11
518.8759506391861
 21
1025.564157532551
 31
0.0
  0
TEXT
  5
2209
330
1F
100
AcDbEntity
  8
実形
 62
     0
370
    18
100
AcDbText
 10
508.2380306721788
 20
1025.021219104043
 30
0.0
 40
25.0
  1
17
 50
90.0
100
AcDbText
  0
DIMENSION
  5
226D
330
1F
100
AcDbEntity
  8
実形
 62
     0
370
    18
100
AcDbDimension
  2
*D20
 10
718.5066785655789
 20
896.1796462512634
 30
0.0
 11
704.7440727606936
 21
964.1129757471217
 31
0.0
 70
   160
 71
     5
 42
27.0
  3
ISO-25
100
AcDbAlignedDimension
 13
691.5066785655788
 23
970.9366621347498
 33
0.0
 14
718.5066785655789
 24
1007.153206578406
 34
0.0
100
AcDbRotatedDimension
1001
ACAD
1000
DSTYLE
1002
{
1070
   279
1070
     2
1070
   371
1070
    18
1070
   372
1070
    18
1002
}
  0
DIMENSION
  5
22B1
330
1F
100
AcDbEntity
  8
実形
 62
     0
370
    18
100
AcDbDimension
  2
*D21
 10
973.5066785655789
 20
896.1796462512634
 30
0.0
 11
846.0066785655788
 21
914.9296462512634
 31
0.0
 70
    32
 71
     5
 42
255.0
  3
ISO-25
100
AcDbAlignedDimension
 13
718.5066785655789
 23
990.5670338059756
 33
0.0
 14
973.5066785655789
 24
1008.01619306226
 34
0.0
100
AcDbRotatedDimension
1001
ACAD
1000
DSTYLE
1002
{
1070
   279
1070
     2
1070
   371
1070
    18
1070
   372
1070
    18
1002
}
  0
DIMENSION
  5
22E6
330
1F
100
AcDbEntity
  8
実形
 62
     0
370
    18
100
AcDbDimension
  2
*D22
 10
1013.506678565579
 20
896.1796462512634
 30
0.0
 11
993.506678565579
 21
967.9796612357668
 31
0.0
 70
   160
 71
     5
 42
40.0
  3
ISO-25
100
AcDbAlignedDimension
 13
973.5066785655789
 23
1000.202012865241
 33
0.0
 14
1013.506678565579
 24
1007.935374695008
 34
0.0
100
AcDbRotatedDimension
1001
ACAD
1000
DSTYLE
1002
{
1070
   279
1070
     2
1070
   371
1070
    18
1070
   372
1070
    18
1002
}
  0
DIMENSION
  5
2381
330
1F
100
AcDbEntity
  8
実形
 62
     0
370
    18
100
AcDbDimension
  2
*D23
 10
1563.506678565579
 20
896.1796462512634
 30
0.0
 11
1288.506678565578
 21
914.9296462512634
 31
0.0
 70
    32
 71
     5
 42
549.9999999999999
  3
ISO-25
100
AcDbAlignedDimension
 13
1013.506678565579
 23
1000.025996224308
 33
0.0
 14
1563.506678565579
 24
1006.75507892726
 34
0.0
100
AcDbRotatedDimension
1001
ACAD
1000
DSTYLE
1002
{
1070
   279
1070
     2
1070
   371
1070
    18
1070
   372
1070
    18
1002
}
  0
DIMENSION
  5
23BB
330
1F
100
AcDbEntity
  8
実形
 62
     0
370
    18
100
AcDbDimension
  2
*D24
 10
1590.506678565578
 20
896.1796462512634
 30
0.0
 11
1577.006678565578
 21
961.7235695136232
 31
0.0
 70
   160
 71
     5
 42
26.99999999999977
  3
ISO-25
100
AcDbAlignedDimension
 13
1563.506678565579
 23
967.7616391684141
 33
0.0
 14
1590.506678565578
 24
967.7616391684141
 34
0.0
100
AcDbRotatedDimension
1001
ACAD
1000
DSTYLE
1002
{
1070
   279
1070
     2
1070
   371
1070
    18
1070
   372
1070
    18
1002
}
  0
LINE
  5
2456
330
1F
100
AcDbEntity
  8
実形
 62
     0
370
    18
100
AcDbLine
 10
1595.50667856558
 20
683.953649701576
 30
0.0
 11
686.4966785655781
 21
683.953649701576
 31
0.0
  0
LINE
  5
2457
330
1F
100
AcDbEntity
  8
実形
 62
     0
370
    18
100
AcDbLine
 10
1603.506678565579
 20
698.9536497015761
 30
0.0
 11
678.496678565578
 21
698.9536497015761
 31
0.0
  0
LINE
  5
2458
330
1F
100
AcDbEntity
  8
実形
 62
     0
370
    18
100
AcDbLine
 10
686.4966785655781
 20
683.953649701576
 30
0.0
 11
686.4966785655781
 21
693.953649701576
 31
0.0
  0
LINE
  5
245B
330
1F
100
AcDbEntity
  8
実形
 62
     0
370
    18
100
AcDbLine
 10
699.006678565579
 20
693.953649701576
 30
0.0
 11
674.0066785655788
 21
693.953649701576
 31
0.0
  0
LINE
  5
24F1
330
1F
100
AcDbEntity
  8
実形
 62
     0
370
    18
100
AcDbLine
 10
742.1775896813439
 20
549.8361062425973
 30
0.0
 11
788.0066785655793
 21
539.9449359798127
 31
0.0
  0
LINE
  5
2501
330
1F
100
AcDbEntity
  8
実形
 62
     0
370
    18
100
AcDbLine
 10
718.5066785655788
 20
579.160884739552
 30
0.0
 11
718.5066785655788
 21
683.953649701576
 31
0.0
  0
ARC
  5
2502
330
1F
100
AcDbEntity
  8
実形
 62
     0
370
    18
100
AcDbCircle
 10
748.5066785655788
 20
579.160884739552
 30
0.0
 40
30.0
100
AcDbArc
 50
180.0
 51
257.8208189474759
  0
LINE
  5
2509
330
1F
100
AcDbEntity
  8
実形
 62
     0
370
    18
100
AcDbLine
 10
1563.50667856558
 20
538.8748682497578
 30
0.0
 11
1563.50667856558
 21
538.5349042703336
 31
0.0
  0
LINE
  5
2510
330
1F
100
AcDbEntity
  8
実形
 62
     0
370
    18
100
AcDbLine
 10
1254.00667856558
 20
494.9536497015761
 30
0.0
 11
1534.958931976735
 21
508.5700755534898
 31
0.0
  0
ARC
  5
2511
330
1F
100
AcDbEntity
  8
実形
 62
     0
370
    18
100
AcDbCircle
 10
1533.506678565579
 20
538.5349042703336
 30
0.0
 40
30.0
100
AcDbArc
 50
272.7746841173154
 51
0.0
  0
LINE
  5
2513
330
1F
100
AcDbEntity
  8
実形
 62
     0
370
    18
100
AcDbLine
 10
1603.506678565579
 20
698.9536497015761
 30
0.0
 11
1608.506678565579
 21
693.953649701576
 31
0.0
  0
LINE
  5
2514
330
1F
100
AcDbEntity
  8
実形
 62
     0
370
    18
100
AcDbLine
 10
1595.50667856558
 20
693.9536497015759
 30
0.0
 11
1595.50667856558
 21
683.953649701576
 31
0.0
  0
LINE
  5
2516
330
1F
100
AcDbEntity
  8
実形
 62
     0
370
    18
100
AcDbLine
 10
949.8357674498144
 20
549.8361062425973
 30
0.0
 11
904.0066785655792
 21
539.9449359798127
 31
0.0
  0
LINE
  5
2517
330
1F
100
AcDbEntity
  8
実形
 62
     0
370
    18
100
AcDbLine
 10
973.5066785655797
 20
579.160884739552
 30
0.0
 11
973.5066785655797
 21
683.953649701576
 31
0.0
  0
ARC
  5
2518
330
1F
100
AcDbEntity
  8
実形
 62
     0
370
    18
100
AcDbCircle
 10
943.5066785655797
 20
579.160884739552
 30
0.0
 40
30.0
100
AcDbArc
 50
282.1791810525241
 51
0.000000000000007
  0
ARC
  5
265F
330
1F
100
AcDbEntity
  8
実形
 62
     0
370
    18
100
AcDbCircle
 10
2313.506678565579
 20
1262.564157532551
 30
0.0
 40
1300.0
100
AcDbArc
 50
180.0
 51
184.9734233107664
  0
ARC
  5
2662
330
1F
100
AcDbEntity
  8
実形
 62
     0
370
    18
100
AcDbCircle
 10
1288.506678565578
 20
3042.569828166847
 30
0.0
 40
2000.0
100
AcDbArc
 50
265.1279404034172
 51
270.0
  0
ARC
  5
2663
330
1F
100
AcDbEntity
  8
実形
 62
     0
370
    18
100
AcDbCircle
 10
1127.987006936214
 20
1159.398716711491
 30
0.0
 40
110.0
100
AcDbArc
 50
184.9734233107661
 51
265.1279404034168
  0
ARC
  5
2664
330
1F
100
AcDbEntity
  8
実形
 62
     0
370
    18
100
AcDbCircle
 10
2313.506678565579
 20
1262.564157532551
 30
0.0
 40
1300.0
100
AcDbArc
 50
175.0265766892336
 51
180.0
  0
ARC
  5
2665
330
1F
100
AcDbEntity
  8
実形
 62
     0
370
    18
100
AcDbCircle
 10
1127.987006936214
 20
1365.729598353612
 30
0.0
 40
110.0
100
AcDbArc
 50
94.87205959658323
 51
175.0265766892338
  0
ARC
  5
2666
330
1F
100
AcDbEntity
  8
実形
 62
     0
370
    18
100
AcDbCircle
 10
1288.506678565578
 20
-517.4415131017435
 30
0.0
 40
2000.0
100
AcDbArc
 50
90.00000000000003
 51
94.87205959658279
  0
ARC
  5
2667
330
1F
100
AcDbEntity
  8
実形
 62
     0
370
    18
100
AcDbCircle
 10
263.5066785655772
 20
1262.564157532551
 30
0.0
 40
1300.0
100
AcDbArc
 50
355.0265766892337
 51
0.0000000000000662
  0
ARC
  5
2668
330
1F
100
AcDbEntity
  8
実形
 62
     0
370
    18
100
AcDbCircle
 10
1449.026350194942
 20
1159.398716711491
 30
0.0
 40
110.0
100
AcDbArc
 50
274.8720595965833
 51
355.0265766892339
  0
ARC
  5
2669
330
1F
100
AcDbEntity
  8
実形
 62
     0
370
    18
100
AcDbCircle
 10
1288.506678565576
 20
3042.569828166847
 30
0.0
 40
2000.0
100
AcDbArc
 50
270.0000000000001
 51
274.8720595965828
  0
ARC
  5
266A
330
1F
100
AcDbEntity
  8
実形
 62
     0
370
    18
100
AcDbCircle
 10
263.5066785655772
 20
1262.564157532551
 30
0.0
 40
1300.0
100
AcDbArc
 50
0.0000000000000662
 51
4.973423310766459
  0
ARC
  5
266B
330
1F
100
AcDbEntity
  8
実形
 62
     0
370
    18
100
AcDbCircle
 10
1449.026350194942
 20
1365.729598353613
 30
0.0
 40
110.0
100
AcDbArc
 50
4.973423310766178
 51
85.12794040341683
  0
ARC
  5
266C
330
1F
100
AcDbEntity
  8
実形
 62
     0
370
    18
100
AcDbCircle
 10
1288.506678565579
 20
-517.4415131017435
 30
0.0
 40
2000.0
100
AcDbArc
 50
85.12794040341727
 51
90.00000000000005
  0
ARC
  5
291B
330
1F
100
AcDbEntity
  8
実形
 62
     0
370
    18
100
AcDbCircle
 10
2218.506678565579
 20
1262.564157532552
 30
0.0
 40
1500.0
100
AcDbArc
 50
175.4610555768028
 51
184.5389444231972
  0
ARC
  5
291C
330
1F
100
AcDbEntity
  8
実形
 62
     0
370
    18
100
AcDbCircle
 10
-526.4933214344207
 20
1262.564157532552
 30
0.0
 40
1500.0
100
AcDbArc
 50
355.4610555768028
 51
4.53894442319723
  0
ARC
  5
291D
330
1F
100
AcDbEntity
  8
実形
 62
     0
370
    18
100
AcDbCircle
 10
832.8660325104774
 20
1372.564157532552
 30
0.0
 40
110.0
100
AcDbArc
 50
90.0
 51
175.4610555768028
  0
ARC
  5
291E
330
1F
100
AcDbEntity
  8
実形
 62
     0
370
    18
100
AcDbCircle
 10
832.8660325104774
 20
1152.564157532552
 30
0.0
 40
110.0
100
AcDbArc
 50
184.5389444231972
 51
270.0
  0
ARC
  5
291F
330
1F
100
AcDbEntity
  8
実形
 62
     0
370
    18
100
AcDbCircle
 10
859.1473246206811
 20
1152.564157532552
 30
0.0
 40
110.0
100
AcDbArc
 50
270.0
 51
355.4610555768028
  0
ARC
  5
2920
330
1F
100
AcDbEntity
  8
実形
 62
     0
370
    18
100
AcDbCircle
 10
859.147324620681
 20
1372.564157532552
 30
0.0
 40
110.0
100
AcDbArc
 50
4.53894442319723
 51
90.0
  0
LINE
  5
2CEF
330
1F
100
AcDbEntity
  8
実形
 62
     0
370
    18
100
AcDbLine
 10
1073.00667856558
 20
487.953649701576
 30
0.0
 11
1254.00667856558
 21
487.953649701576
 31
0.0
  0
DIMENSION
  5
2CF0
330
1F
100
AcDbEntity
  8
実形
 62
     0
100
AcDbDimension
  2
*D28
 10
1814.279756992102
 20
487.9536497015759
 30
0.0
 11
1794.529756992102
 21
593.4536497015763
 31
0.0
 70
    32
 71
     5
 42
211.0
  3
ISO-25
100
AcDbAlignedDimension
 13
1665.816501940218
 23
698.9536497015761
 33
0.0
 14
1726.052771732269
 24
487.9536497015759
 34
0.0
 50
90.0
100
AcDbRotatedDimension
1001
ACAD
1000
DSTYLE
1002
{
1070
   140
1040
27.0
1070
    41
1040
20.0
1070
   279
1070
     2
1070
   371
1070
    18
1070
   372
1070
    18
1002
}
  0
LINE
  5
2CFD
330
1F
100
AcDbEntity
  8
実形
 62
     0
100
AcDbLine
 10
1814.279756992102
 20
698.9536497015759
 30
0.0
 11
1688.699293917897
 21
698.9536497015759
 31
0.0
  0
LINE
  5
2CFF
330
1F
100
AcDbEntity
  8
実形
 62
     0
100
AcDbLine
 10
1750.106259319498
 20
694.9536497015759
 30
0.0
 11
1688.699293917897
 21
694.9536497015759
 31
0.0
  0
LINE
  5
2D00
330
1F
100
AcDbEntity
  8
実形
 62
     0
100
AcDbLine
 10
1750.106259319498
 20
494.9536497015759
 30
0.0
 11
1623.389202616654
 21
494.953649701576
 31
0.0
  0
LINE
  5
2D01
330
1F
100
AcDbEntity
  8
実形
 62
     0
100
AcDbLine
 10
1750.106259319498
 20
698.9536497015759
 30
0.0
 11
1750.106259319499
 21
487.9536497015759
 31
0.0
  0
LINE
  5
2D0B
330
1F
100
AcDbEntity
  8
実形
 62
     0
100
AcDbLine
 10
1688.699293917897
 20
509.9536497015759
 30
0.0
 11
1623.389202616654
 21
509.953649701576
 31
0.0
  0
LINE
  5
2D0C
330
1F
100
AcDbEntity
  8
実形
 62
     0
100
AcDbLine
 10
1688.699293917898
 20
509.9536497015759
 30
0.0
 11
1688.699293917898
 21
494.9536497015759
 31
0.0
  0
TEXT
  5
2D1E
330
1F
100
AcDbEntity
  8
実形
 62
     0
370
    18
100
AcDbText
 10
1748.716313367789
 20
697.4151711001804
 30
0.0
 40
3.0
  1
●
100
AcDbText
  0
TEXT
  5
2D26
330
1F
100
AcDbEntity
  8
実形
 62
     0
370
    18
100
AcDbText
 10
1748.716313367789
 20
693.4474194925642
 30
0.0
 40
3.0
  1
●
100
AcDbText
  0
TEXT
  5
2D2F
330
1F
100
AcDbEntity
  8
実形
 62
     0
370
    18
100
AcDbText
 10
1748.723550969056
 20
689.8930990517847
 30
0.0
 40
3.0
  1
●
100
AcDbText
  0
TEXT
  5
2D37
330
1F
100
AcDbEntity
  8
実形
 62
     0
370
    18
100
AcDbText
 10
1748.647574295099
 20
493.3375096829386
 30
0.0
 40
3.0
  1
●
100
AcDbText
  0
TEXT
  5
2D3F
330
1F
100
AcDbEntity
  8
実形
 62
     0
370
    18
100
AcDbText
 10
1748.658095118995
 20
486.3547891121406
 30
0.0
 40
3.0
  1
●
100
AcDbText
  0
TEXT
  5
2D6C
330
1F
100
AcDbEntity
  8
実形
 62
     0
370
    18
100
AcDbText
 10
1687.230487135335
 20
508.2018888045631
 30
0.0
 40
3.0
  1
●
100
AcDbText
  0
TEXT
  5
2D74
330
1F
100
AcDbEntity
  8
実形
 62
     0
370
    18
100
AcDbText
 10
1687.230487135335
 20
493.5007543770607
 30
0.0
 40
3.0
  1
●
100
AcDbText
  0
TEXT
  5
2D7D
330
1F
100
AcDbEntity
  8
実形
 62
     0
370
    18
100
AcDbText
 10
1736.075715778441
 20
463.9056004606173
 30
0.0
 40
25.0
  1
7
 50
90.0
100
AcDbText
  0
TEXT
  5
2D87
330
1F
100
AcDbEntity
  8
実形
 62
     0
370
    18
100
AcDbText
 10
1737.370965245395
 20
566.18762992359
 30
0.0
 40
25.0
  1
200
 50
90.0
100
AcDbText
  0
TEXT
  5
2D90
330
1F
100
AcDbEntity
  8
実形
 62
     0
370
    18
100
AcDbText
 10
1735.439024539109
 20
670.1920665745038
 30
0.0
 40
25.0
  1
1
 50
90.0
100
AcDbText
  0
TEXT
  5
2D99
330
1F
100
AcDbEntity
  8
実形
 62
     0
370
    18
100
AcDbText
 10
1736.894344713799
 20
711.7968992894612
 30
0.0
 40
25.0
  1
3
 50
90.0
100
AcDbText
  0
LINE
  5
2DC7
330
1F
100
AcDbEntity
  8
実形
 62
     0
100
AcDbLine
 10
1791.052771732269
 20
487.9536497015759
 30
0.0
 11
1689.099166853097
 21
487.9536497015759
 31
0.0
  0
LINE
  5
2E48
330
1F
100
AcDbEntity
  8
実形
 62
     0
100
AcDbLine
 10
1750.106259319498
 20
691.453649701576
 30
0.0
 11
1688.699293917897
 21
691.453649701576
 31
0.0
  0
LINE
  5
2E52
330
1F
100
AcDbEntity
  8
実形
 62
     0
370
    18
100
AcDbLine
 10
788.0066785655793
 20
532.9449359798127
 30
0.0
 11
904.0066785655792
 21
532.9449359798127
 31
0.0
  0
LINE
  5
2E60
330
1F
100
AcDbEntity
  8
実形
 62
     0
100
AcDbLine
 10
532.0335476831806
 20
532.9449359798128
 30
0.0
 11
532.0335476831806
 21
698.9536497015761
 31
0.0
  0
LINE
  5
2E61
330
1F
100
AcDbEntity
  8
実形
 62
     0
100
AcDbLine
 10
532.0335476831806
 20
698.9536497015761
 30
0.0
 11
592.5098101658841
 21
698.9536497015761
 31
0.0
  0
LINE
  5
2E62
330
1F
100
AcDbEntity
  8
実形
 62
     0
100
AcDbLine
 10
532.0335476831806
 20
532.9449359798128
 30
0.0
 11
592.5098101658841
 21
532.9449359798128
 31
0.0
  0
TEXT
  5
2E6B
330
1F
100
AcDbEntity
  8
実形
 62
     0
370
    18
100
AcDbText
 10
452.9064402176227
 20
584.8459831308282
 30
0.0
 40
25.0
  1
166
 50
90.0
100
AcDbText
  0
LINE
  5
2E72
330
1F
100
AcDbEntity
  8
実形
 62
     0
100
AcDbLine
 10
532.0335476831806
 20
694.9536497015761
 30
0.0
 11
592.5098101658841
 21
694.9536497015759
 31
0.0
  0
LINE
  5
2E73
330
1F
100
AcDbEntity
  8
実形
 62
     0
100
AcDbLine
 10
532.0335476831806
 20
691.4536497015761
 30
0.0
 11
592.5098101658841
 21
691.4536497015761
 31
0.0
  0
LINE
  5
2E74
330
1F
100
AcDbEntity
  8
実形
 62
     0
100
AcDbLine
 10
532.0335476831806
 20
539.9449359798128
 30
0.0
 11
630.9023100369159
 21
539.9449359798128
 31
0.0
  0
LINE
  5
2E75
330
1F
100
AcDbEntity
  8
実形
 62
     0
100
AcDbLine
 10
592.5098101658841
 20
554.944935979813
 30
0.0
 11
630.9023100369158
 21
554.944935979813
 31
0.0
  0
TEXT
  5
2E7E
330
1F
100
AcDbEntity
  8
実形
 62
     0
370
    18
100
AcDbText
 10
515.001041227375
 20
568.4575532979907
 30
0.0
 40
25.0
  1
155
 50
90.0
100
AcDbText
  0
LINE
  5
2E7F
330
1F
100
AcDbEntity
  8
実形
 62
     0
100
AcDbLine
 10
592.5098101658841
 20
539.9449359798129
 30
0.0
 11
592.5098101658841
 21
554.944935979813
 31
0.0
  0
TEXT
  5
2E88
330
1F
100
AcDbEntity
  8
実形
 62
     0
370
    18
100
AcDbText
 10
523.6731749728042
 20
513.2678538404944
 30
0.0
 40
25.0
  1
7
 50
90.0
100
AcDbText
  0
TEXT
  5
2E91
330
1F
100
AcDbEntity
  8
実形
 62
     0
370
    18
100
AcDbText
 10
513.9784262141875
 20
669.6660119084799
 30
0.0
 40
25.0
  1
1
 50
90.0
100
AcDbText
  0
TEXT
  5
2E9A
330
1F
100
AcDbEntity
  8
実形
 62
     0
370
    18
100
AcDbText
 10
512.5039690236153
 20
715.2927731390236
 30
0.0
 40
25.0
  1
3
 50
90.0
100
AcDbText
  0
TEXT
  5
2EA4
330
1F
100
AcDbEntity
  8
実形
 62
     0
370
    18
100
AcDbText
 10
530.5690489966091
 20
697.5735593830595
 30
0.0
 40
3.0
  1
●
100
AcDbText
  0
TEXT
  5
2EAC
330
1F
100
AcDbEntity
  8
実形
 62
     0
370
    18
100
AcDbText
 10
530.4422730686401
 20
693.6872640007223
 30
0.0
 40
3.0
  1
●
100
AcDbText
  0
TEXT
  5
2EB4
330
1F
100
AcDbEntity
  8
実形
 62
     0
370
    18
100
AcDbText
 10
530.5690489966091
 20
689.9699462812395
 30
0.0
 40
3.0
  1
●
100
AcDbText
  0
TEXT
  5
2EBC
330
1F
100
AcDbEntity
  8
実形
 62
     0
370
    18
100
AcDbText
 10
591.0920837972789
 20
553.5151322838828
 30
0.0
 40
3.0
  1
●
100
AcDbText
  0
TEXT
  5
2EC4
330
1F
100
AcDbEntity
  8
実形
 62
     0
370
    18
100
AcDbText
 10
591.1091710664368
 20
538.5504933650581
 30
0.0
 40
3.0
  1
●
100
AcDbText
  0
TEXT
  5
2ECC
330
1F
100
AcDbEntity
  8
実形
 62
     0
370
    18
100
AcDbText
 10
530.6405996687899
 20
538.4231521828851
 30
0.0
 40
3.0
  1
●
100
AcDbText
  0
TEXT
  5
2ED5
330
1F
100
AcDbEntity
  8
実形
 62
     0
370
    18
100
AcDbText
 10
530.5902448288925
 20
531.5790620064245
 30
0.0
 40
3.0
  1
●
100
AcDbText
  0
LINE
  5
2EDE
330
1F
100
AcDbEntity
  8
実形
100
AcDbLine
 10
532.0335476831806
 20
698.9536497015761
 30
0.0
 11
467.5716161816108
 21
698.9536497015761
 31
0.0
  0
LINE
  5
2EDF
330
1F
100
AcDbEntity
  8
実形
100
AcDbLine
 10
532.0335476831806
 20
532.9449359798128
 30
0.0
 11
467.5716161816109
 21
532.9449359798128
 31
0.0
  0
LINE
  5
2EE0
330
1F
100
AcDbEntity
  8
実形
100
AcDbLine
 10
467.5716161816108
 20
532.9449359798128
 30
0.0
 11
467.5716161816108
 21
698.9536497015762
 31
0.0
  0
TEXT
  5
2EE8
330
1F
100
AcDbEntity
  8
実形
 62
     0
370
    18
100
AcDbText
 10
466.0595198365772
 20
531.2998925845067
 30
0.0
 40
3.0
  1
●
100
AcDbText
  0
TEXT
  5
2EF0
330
1F
100
AcDbEntity
  8
実形
 62
     0
370
    18
100
AcDbText
 10
466.1839104398167
 20
697.3575869284241
 30
0.0
 40
3.0
  1
●
100
AcDbText
  0
LINE
  5
2F01
330
1F
100
AcDbEntity
  8
実形
100
AcDbLine
 10
678.496678565578
 20
698.9536497015761
 30
0.0
 11
674.0066785655788
 21
693.953649701576
 31
0.0
  0
LINE
  5
2F8E
330
1F
100
AcDbEntity
  8
実形
100
AcDbLine
 10
832.8660325104774
 20
1042.564157532552
 30
0.0
 11
859.1473246206811
 21
1042.564157532552
 31
0.0
  0
LINE
  5
30B5
330
1F
100
AcDbEntity
  8
実形
 62
     0
370
    18
100
AcDbLine
 10
111.0
 20
2024.0
 30
0.0
 11
111.0
 21
4.0
 31
0.0
  0
LINE
  5
30CF
330
1F
100
AcDbEntity
  8
補助
100
AcDbLine
 10
2784.0
 20
1829.0
 30
0.0
 11
2019.387286519283
 21
1829.0
 31
0.0
  0
LINE
  5
30D0
330
1F
100
AcDbEntity
  8
補助
100
AcDbLine
 10
2784.0
 20
1959.0
 30
0.0
 11
2019.387286519283
 21
1959.0
 31
0.0
  0
LINE
  5
30D1
330
1F
100
AcDbEntity
  8
補助
100
AcDbLine
 10
2784.0
 20
1894.0
 30
0.0
 11
2019.387286519282
 21
1894.0
 31
0.0
  0
LINE
  5
30D2
330
1F
100
AcDbEntity
  8
補助
100
AcDbLine
 10
2202.547653420927
 20
1829.0
 30
0.0
 11
2202.547653420927
 21
2024.0
 31
0.0
  0
LINE
  5
30D3
330
1F
100
AcDbEntity
  8
補助
100
AcDbLine
 10
2019.387286519282
 20
1829.0
 30
0.0
 11
2019.387286519283
 21
2024.0
 31
0.0
  0
TEXT
  5
30D4
330
1F
100
AcDbEntity
  8
実形
100
AcDbText
 10
2048.227810657787
 20
1845.557142857143
 30
0.0
 40
30.0
  1
ボウル
  7
明朝
 72
     4
 11
2114.056382086358
 21
1861.5
 31
0.0
100
AcDbText
  0
TEXT
  5
30D5
330
1F
100
AcDbEntity
  8
補助
100
AcDbText
 10
2050.295698850121
 20
1976.328571428572
 30
0.0
 40
30.0
  1
部品名
  7
明朝
 72
     4
 11
2116.124270278692
 21
1991.5
 31
0.0
100
AcDbText
  0
TEXT
  5
30D6
330
1F
100
AcDbEntity
  8
実形
100
AcDbText
 10
2050.295698850121
 20
1911.242857142857
 30
0.0
 40
30.0
  1
天板
  7
明朝
 72
     4
 11
2094.181413135835
 21
1926.5
 31
0.0
100
AcDbText
  0
TEXT
  5
30D7
330
1F
100
AcDbEntity
  8
実形
100
AcDbText
 10
2594.7
 20
1846.842857142857
 30
0.0
 40
30.0
  1
0.7ｍｍ
  7
明朝
 72
     4
 11
2671.5
 21
1861.5
 31
0.0
100
AcDbText
  0
TEXT
  5
30D8
330
1F
100
AcDbEntity
  8
実形
100
AcDbText
 10
2594.7
 20
1911.842857142857
 30
0.0
 40
30.0
  1
1.0ｍｍ
  7
明朝
 72
     4
 11
2671.5
 21
1926.5
 31
0.0
100
AcDbText
  0
TEXT
  5
30D9
330
1F
100
AcDbEntity
  8
補助
100
AcDbText
 10
2627.614285714286
 20
1976.071428571429
 30
0.0
 40
30.0
  1
厚さ
  7
明朝
 72
     4
 11
2671.5
 21
1991.5
 31
0.0
100
AcDbText
  0
LINE
  5
30DA
330
1F
100
AcDbEntity
  8
補助
100
AcDbLine
 10
2559.0
 20
1829.0
 30
0.0
 11
2559.0
 21
2024.0
 31
0.0
  0
TEXT
  5
30DB
330
1F
100
AcDbEntity
  8
実形
100
AcDbText
 10
2261.016869107865
 20
1845.728571428571
 30
0.0
 40
30.0
  1
SUS304（BA）
  7
明朝
 72
     4
 11
2392.674011965008
 21
1861.5
 31
0.0
100
AcDbText
  0
TEXT
  5
30DC
330
1F
100
AcDbEntity
  8
実形
100
AcDbText
 10
2261.378133626422
 20
1910.728571428572
 30
0.0
 40
30.0
  1
SUS304（H/L）
  7
明朝
 72
     4
 11
2404.006705054993
 21
1926.5
 31
0.0
100
AcDbText
  0
TEXT
  5
30DD
330
1F
100
AcDbEntity
  8
補助
100
AcDbText
 10
2338.490869919937
 20
1975.947979478155
 30
0.0
 40
30.0
  1
材質
  7
明朝
 72
     4
 11
2382.376584205651
 21
1991.119408049583
 31
0.0
100
AcDbText
  0
VIEWPORT
  5
2E
102
{ACAD_XDICTIONARY
360
3107
102
}
330
1B
100
AcDbEntity
 67
     1
  8
0
100
AcDbViewport
 10
144.7270812988281
 20
101.2295806407928
 30
0.0
 40
411.6736216682419
 41
222.1517806396485
 68
     1
 69
     1
 12
144.7270812988281
 22
101.2295806407928
 13
0.0
 23
0.0
 14
10.0
 24
10.0
 15
10.0
 25
10.0
 16
0.0
 26
0.0
 36
1.0
 17
0.0
 27
0.0
 37
0.0
 42
50.0
 43
0.0
 44
0.0
 45
222.1517806396485
 50
0.0
 51
0.0
 72
   100
 90
    32800
  1

281
     0
 71
     1
 74
     0
110
0.0
120
0.0
130
0.0
111
1.0
121
0.0
131
0.0
112
0.0
122
1.0
132
0.0
 79
     0
146
0.0
  0
VIEWPORT
  5
30
102
{ACAD_XDICTIONARY
360
3109
102
}
330
1B
100
AcDbEntity
 67
     1
  8
0
100
AcDbViewport
 10
139.2237563133239
 20
101.2295821905136
 30
0.0
 40
222.7580101013184
 41
161.9673315048218
 68
     2
 69
     2
 12
210.0
 22
148.5
 13
0.0
 23
0.0
 14
10.0
 24
10.0
 15
10.0
 25
10.0
 16
0.0
 26
0.0
 36
1.0
 17
0.0
 27
0.0
 37
0.0
 42
50.0
 43
0.0
 44
0.0
 45
309.0686705647124
 50
0.0
 51
0.0
 72
   100
 90
    32864
  1

281
     0
 71
     1
 74
     0
110
0.0
120
0.0
130
0.0
111
1.0
121
0.0
131
0.0
112
0.0
122
1.0
132
0.0
 79
     0
146
0.0
  0
ENDSEC
  0
SECTION
  2
OBJECTS
  0
DICTIONARY
  5
C
330
0
100
AcDbDictionary
281
     1
  3
ACAD_COLOR
350
1DAA
  3
ACAD_GROUP
350
D
  3
ACAD_LAYOUT
350
1A
  3
ACAD_MATERIAL
350
1DA9
  3
ACAD_MLINESTYLE
350
17
  3
ACAD_PLOTSETTINGS
350
19
  3
ACAD_PLOTSTYLENAME
350
E
  3
ACAD_TABLESTYLE
350
1DAB
  3
AcadDim
350
1DB1
  3
ACDBHEADERROUNDTRIPXREC
350
3100
  3
AcDbVariableDictionary
350
1055
  0
DICTIONARY
  5
2824
330
2
100
AcDbDictionary
280
     1
281
     1
  3
ACAD_LAYERFILTERS
360
2FEE
  3
ACAD_LAYERSTATES
360
30B8
  3
ACLYDICTIONARY
360
2FED
  0
DICTIONARY
  5
220B
330
1F
100
AcDbDictionary
280
     1
281
     1
  3
ACAD_SORTENTS
360
220C
  0
DICTIONARY
  5
240F
330
23FF
100
AcDbDictionary
280
     1
281
     1
  3
ACAD_SORTENTS
360
2410
  0
DICTIONARY
  5
2E6E
330
2E6C
100
AcDbDictionary
280
     1
281
     1
  3
ACAD_SORTENTS
360
2E6F
  0
DICTIONARY
  5
3107
330
2E
100
AcDbDictionary
280
     1
281
     1
  3
ACAD_XREC_ROUNDTRIP
360
3108
  0
DICTIONARY
  5
3109
330
30
100
AcDbDictionary
280
     1
281
     1
  3
ACAD_XREC_ROUNDTRIP
360
310A
  0
DICTIONARY
  5
1DAA
102
{ACAD_REACTORS
330
C
102
}
330
C
100
AcDbDictionary
281
     1
  0
DICTIONARY
  5
D
102
{ACAD_REACTORS
330
C
102
}
330
C
100
AcDbDictionary
281
     1
  0
DICTIONARY
  5
1A
102
{ACAD_REACTORS
330
C
102
}
330
C
100
AcDbDictionary
281
     1
  3
Model
350
22
  3
ﾚｲｱｳﾄ1
350
1E
  3
ﾚｲｱｳﾄ2
350
26
  0
DICTIONARY
  5
1DA9
102
{ACAD_REACTORS
330
C
102
}
330
C
100
AcDbDictionary
281
     1
  0
DICTIONARY
  5
17
102
{ACAD_REACTORS
330
C
102
}
330
C
100
AcDbDictionary
281
     1
  3
Standard
350
18
  0
DICTIONARY
  5
19
102
{ACAD_REACTORS
330
C
102
}
330
C
100
AcDbDictionary
281
     1
  0
ACDBDICTIONARYWDFLT
  5
E
102
{ACAD_REACTORS
330
C
102
}
330
C
100
AcDbDictionary
281
     1
  3
Normal
350
F
100
AcDbDictionaryWithDefault
340
F
  0
DICTIONARY
  5
1DAB
102
{ACAD_REACTORS
330
C
102
}
330
C
100
AcDbDictionary
281
     1
  3
Standard
350
1DAC
  0
XRECORD
  5
1DB1
102
{ACAD_REACTORS
330
C
102
}
330
C
100
AcDbXrecord
280
     1
 90
   990106
  3

 60
     0
 61
     0
 62
     1
 63
     3
 64
     0
 65
     0
 66
     0
 67
     3
 68
     1
 69
     0
 70
     0
 71
     0
 72
     0
 40
30.0
170
     0
  0
DICTIONARY
  5
3100
102
{ACAD_REACTORS
330
C
102
}
330
C
100
AcDbDictionary
281
     1
  0
DICTIONARY
  5
1055
102
{ACAD_REACTORS
330
C
102
}
330
C
100
AcDbDictionary
281
     1
  3
CTABLESTYLE
350
1DB5
  3
DIMASSOC
350
30FD
  3
PROJECTNAME
350
30FE
  3
SORTENTS
350
1056
  0
DICTIONARY
  5
2FEE
102
{ACAD_REACTORS
330
2824
102
}
330
2824
100
AcDbDictionary
281
     1
  0
DICTIONARY
  5
30B8
102
{ACAD_REACTORS
330
2824
102
}
330
2824
100
AcDbDictionary
281
     1
  0
DICTIONARY
  5
2FED
102
{ACAD_REACTORS
330
2824
102
}
330
2824
100
AcDbDictionary
281
     1
1001
ACAD
1000
<All
  0
SORTENTSTABLE
  5
220C
102
{ACAD_REACTORS
330
220B
102
}
330
220B
100
AcDbSortentsTable
330
1F
331
1F7D
  5
1F8B
331
1F3E
  5
1F42
331
1F85
  5
2175
331
2EE0
  5
2EE8
331
1F46
  5
1F4B
331
21C9
  5
2458
331
1F8D
  5
2380
331
265F
  5
2665
331
2667
  5
266C
331
2458
  5
2516
331
2EE8
  5
2EF0
331
2EF0
  5
2F01
331
1D60
  5
1D61
331
1F66
  5
1F77
331
1D68
  5
1D69
331
1F27
  5
1F29
331
1F6E
  5
1F7C
331
1D70
  5
1D71
331
1F2F
  5
1F34
331
1F76
  5
1F84
331
1F37
  5
1F3C
331
2D7D
  5
2DE4
331
2D1E
  5
2D6C
331
2D26
  5
2D74
331
2510
  5
265F
331
291F
  5
2C73
331
2518
  5
2664
331
2CEF
  5
1F2C
331
1D78
  5
1D79
331
1F7E
  5
1F8C
331
8C9
  5
1D5D
331
1F3F
  5
1F45
331
1F86
  5
2177
331
1F47
  5
1F4C
331
30B5
  5
A0
331
1F8E
  5
2381
331
2CFF
  5
2D0C
331
2668
  5
291B
331
2EA4
  5
2EAC
331
24F1
  5
2518
331
9C
  5
9C
331
2F01
  5
2F8E
331
1D61
  5
1D62
331
1D69
  5
1D6A
331
1D71
  5
1D72
331
1F6F
  5
1F7D
331
1F77
  5
1F85
331
2501
  5
2616
331
2509
  5
2622
331
2920
  5
2CFD
331
2511
  5
2623
331
2D2F
  5
2D7D
331
2D37
  5
2D87
331
1D79
  5
1D7A
331
1F7F
  5
1F8D
331
1D89
  5
1D8A
331
1F87
  5
21A8
331
1F48
  5
1F4D
331
23BB
  5
2511
331
2CF0
  5
2CFF
331
2D3F
  5
2D90
331
2669
  5
291C
331
2D00
  5
2D26
331
A5
  5
8C9
331
1D62
  5
1D63
331
1F21
  5
1F22
331
2164
  5
2456
331
1D6A
  5
1D6B
331
1F29
  5
1F2B
331
1F70
  5
1F7E
331
1D72
  5
1D73
331
1F31
  5
1F36
331
2502
  5
2617
331
2D87
  5
2E11
331
2E7E
  5
2E7F
331
1F78
  5
1F86
331
1F39
  5
1F3E
331
1F80
  5
1F8E
331
1F41
  5
1F46
331
1D8A
  5
1F21
331
1F49
  5
1F4E
331
1F88
  5
21C9
331
226D
  5
2466
331
2662
  5
2668
331
2DC7
  5
2E60
331
245B
  5
2517
331
266A
  5
291D
331
2D01
  5
2D37
331
2EAC
  5
2EB4
331
2EB4
  5
2EBC
331
1F59
  5
1F75
331
2EBC
  5
2EC4
331
1D63
  5
1D64
331
1F22
  5
1F23
331
1F69
  5
1F78
331
2EC4
  5
2ECC
331
1D6B
  5
1D6C
331
1F2A
  5
1F2D
331
1D73
  5
1D74
331
1F71
  5
1F7F
331
2513
  5
2660
331
2D90
  5
2E48
331
2E7F
  5
2E88
331
2ECC
  5
2ED5
331
1F79
  5
1F87
331
1F3A
  5
1F40
331
1F81
  5
2132
331
1F42
  5
1F47
331
1F4A
  5
1F53
331
1F89
  5
2202
331
1F52
  5
1F74
331
2663
  5
2667
331
2E48
  5
2D1E
331
266B
  5
291E
331
2E60
  5
2E61
331
1D64
  5
1D65
331
1F23
  5
1F24
331
1F6A
  5
1F79
331
1D6C
  5
1D6D
331
1F2B
  5
1F2E
331
1D74
  5
1D75
331
1F72
  5
1F80
331
22E6
  5
2505
331
291B
  5
2920
331
2514
  5
1F3F
331
2D99
  5
2E52
331
2E88
  5
2E91
331
2ED5
  5
2EDE
331
1F7A
  5
1F88
331
213F
  5
23E5
331
1F82
  5
2171
331
1F43
  5
1F48
331
1F4B
  5
1F5D
331
1F8A
  5
22B1
331
2157
  5
23E6
331
2664
  5
2669
331
266C
  5
291F
331
2D0B
  5
2D2F
331
2E61
  5
2E62
331
A0
  5
A5
331
1D5D
  5
1D5E
331
1D65
  5
1D66
331
1F24
  5
1F25
331
1F6B
  5
1F7A
331
1D6D
  5
1D6E
331
1F2C
  5
1F2F
331
1F73
  5
1F81
331
1D75
  5
1D76
331
1F34
  5
1F37
331
2177
  5
2457
331
291C
  5
2C3B
331
1F7B
  5
1F89
331
1F3C
  5
1F41
331
1F83
  5
2172
331
2EDE
  5
2EDF
331
1F44
  5
1F49
331
1F4C
  5
1F71
331
1F8B
  5
22E5
331
2E91
  5
2E9A
331
2665
  5
266A
331
2456
  5
2512
331
2E52
  5
1F43
331
2D0C
  5
2D3F
331
2E62
  5
2E73
331
1D5E
  5
1D5F
331
1D66
  5
1D67
331
1F25
  5
1F26
331
2F8E
  5
30B5
331
1D6E
  5
1D6F
331
1F2D
  5
1F31
331
1F74
  5
1F82
331
1D76
  5
1D77
331
1F35
  5
1F38
331
2E72
  5
2E6B
331
2209
  5
245B
331
291D
  5
2C49
331
2516
  5
2662
331
1F7C
  5
1F8A
331
1F84
  5
2174
331
2EDF
  5
2EE0
331
1F45
  5
1F4A
331
1F4D
  5
1F73
331
1F8C
  5
22E6
331
2CFD
  5
2D01
331
2666
  5
266B
331
2457
  5
2513
331
22B1
  5
2501
331
2D6C
  5
2D99
331
2E9A
  5
2EA4
331
2D74
  5
2DC7
331
1D5F
  5
1D60
331
1D67
  5
1D68
331
1F26
  5
1F27
331
1F6D
  5
1F7B
331
1D6F
  5
1D70
331
1F2E
  5
1F32
331
2132
  5
23BB
331
1F75
  5
1F83
331
1D77
  5
1D78
331
1F36
  5
1F39
331
2E6B
  5
2E7E
331
2202
  5
2459
331
2E73
  5
2E72
331
2381
  5
2506
331
291E
  5
2C72
331
2517
  5
2663
  0
SORTENTSTABLE
  5
2410
102
{ACAD_REACTORS
330
240F
102
}
330
240F
100
AcDbSortentsTable
330
23FF
  0
SORTENTSTABLE
  5
2E6F
102
{ACAD_REACTORS
330
2E6E
102
}
330
2E6E
100
AcDbSortentsTable
330
2E6C
  0
XRECORD
  5
3108
102
{ACAD_REACTORS
330
3107
102
}
330
3107
100
AcDbXrecord
280
     1
102
SHADEPLOT
 70
     0
  0
XRECORD
  5
310A
102
{ACAD_REACTORS
330
3109
102
}
330
3109
100
AcDbXrecord
280
     1
102
SHADEPLOT
 70
     0
  0
LAYOUT
  5
22
102
{ACAD_XDICTIONARY
360
3103
102
}
102
{ACAD_REACTORS
330
1A
102
}
330
1A
100
AcDbPlotSettings
  1

  2
EPSON PM-800C
  4
A4
  6

 40
3.757083177566528
 41
14.7637300491333
 42
3.757080078125
 43
3.757080078125
 44
209.9733276367187
 45
296.9683227539062
 46
0.0
 47
0.0
 48
0.0
 49
0.0
140
0.0
141
0.0
142
1.0
143
10.0
 70
 11952
 72
     1
 73
     1
 74
     2
  7

 75
    20
147
0.1
148
0.0
149
0.0
100
AcDbLayout
  1
Model
 70
     1
 71
     0
 10
0.0
 20
0.0
 11
12.0
 21
9.0
 12
0.0
 22
0.0
 32
0.0
 14
0.0
 24
0.0
 34
0.0
 15
0.0
 25
0.0
 35
0.0
146
0.0
 13
0.0
 23
0.0
 33
0.0
 16
1.0
 26
0.0
 36
0.0
 17
0.0
 27
1.0
 37
0.0
 76
     0
330
1F
  0
LAYOUT
  5
1E
102
{ACAD_XDICTIONARY
360
3101
102
}
102
{ACAD_REACTORS
330
1A
102
}
330
1A
100
AcDbPlotSettings
  1

  2
EPSON PM-800C
  4
A4
  6

 40
3.757083177566528
 41
14.7637300491333
 42
3.757080078125
 43
3.757080078125
 44
209.9733276367187
 45
296.9683227539062
 46
0.0
 47
0.0
 48
0.0
 49
0.0
140
0.0
141
0.0
142
1.0
143
1.0
 70
   688
 72
     1
 73
     1
 74
     5
  7

 75
    16
147
1.0
148
0.0
149
0.0
100
AcDbLayout
  1
ﾚｲｱｳﾄ1
 70
     1
 71
     1
 10
-3.757080078125
 20
-3.757083177566528
 11
293.2112426757813
 21
206.2162444591522
 12
0.0
 22
0.0
 32
0.0
 14
27.8447512626648
 24
20.24591643810271
 34
0.0
 15
250.6027613639831
 25
182.2132479429245
 35
0.0
146
0.0
 13
0.0
 23
0.0
 33
0.0
 16
1.0
 26
0.0
 36
0.0
 17
0.0
 27
1.0
 37
0.0
 76
     0
330
1B
331
2E
  0
LAYOUT
  5
26
102
{ACAD_XDICTIONARY
360
3105
102
}
102
{ACAD_REACTORS
330
1A
102
}
330
1A
100
AcDbPlotSettings
  1

  2
EPSON PM-800C
  4

  6

 40
0.0
 41
0.0
 42
0.0
 43
0.0
 44
0.0
 45
0.0
 46
0.0
 47
0.0
 48
0.0
 49
0.0
140
0.0
141
0.0
142
1.0
143
1.0
 70
   688
 72
     0
 73
     0
 74
     5
  7

 75
    16
147
1.0
148
0.0
149
0.0
100
AcDbLayout
  1
ﾚｲｱｳﾄ2
 70
     1
 71
     2
 10
0.0
 20
0.0
 11
12.0
 21
9.0
 12
0.0
 22
0.0
 32
0.0
 14
0.0
 24
0.0
 34
0.0
 15
0.0
 25
0.0
 35
0.0
146
0.0
 13
0.0
 23
0.0
 33
0.0
 16
1.0
 26
0.0
 36
0.0
 17
0.0
 27
1.0
 37
0.0
 76
     0
330
23
  0
MLINESTYLE
  5
18
102
{ACAD_REACTORS
330
17
102
}
330
17
100
AcDbMlineStyle
  2
STANDARD
 70
     0
  3

 62
   256
 51
90.0
 52
90.0
 71
     2
 49
0.5
 62
   256
  6
BYLAYER
 49
-0.5
 62
   256
  6
BYLAYER
  0
ACDBPLACEHOLDER
  5
F
102
{ACAD_REACTORS
330
E
102
}
330
E
  0
TABLESTYLE
  5
1DAC
102
{ACAD_REACTORS
330
1DAB
102
}
330
1DAB
100
AcDbTableStyle
  3
Standard
 70
     0
 71
     0
 40
1.5
 41
1.5
280
     0
281
     0
  7
Standard
140
4.5
170
     2
 62
     0
 63
     7
283
     0
274
    -2
284
     1
 64
     0
275
    -2
285
     1
 65
     0
276
    -2
286
     1
 66
     0
277
    -2
287
     1
 67
     0
278
    -2
288
     1
 68
     0
279
    -2
289
     1
 69
     0
  7
Standard
140
6.0
170
     5
 62
     0
 63
     7
283
     0
274
    -2
284
     1
 64
     0
275
    -2
285
     1
 65
     0
276
    -2
286
     1
 66
     0
277
    -2
287
     1
 67
     0
278
    -2
288
     1
 68
     0
279
    -2
289
     1
 69
     0
  7
Standard
140
4.5
170
     5
 62
     0
 63
     7
283
     0
274
    -2
284
     1
 64
     0
275
    -2
285
     1
 65
     0
276
    -2
286
     1
 66
     0
277
    -2
287
     1
 67
     0
278
    -2
288
     1
 68
     0
279
    -2
289
     1
 69
     0
  0
DICTIONARYVAR
  5
1DB5
102
{ACAD_REACTORS
330
1055
102
}
330
1055
100
DictionaryVariables
280
     0
  1
STANDARD
  0
DICTIONARYVAR
  5
30FD
102
{ACAD_REACTORS
330
1055
102
}
330
1055
100
DictionaryVariables
280
     0
  1
1
  0
DICTIONARYVAR
  5
30FE
102
{ACAD_REACTORS
330
1055
102
}
330
1055
100
DictionaryVariables
280
     0
  1

  0
DICTIONARYVAR
  5
1056
102
{ACAD_REACTORS
330
1055
102
}
330
1055
100
DictionaryVariables
280
     0
  1
96
  0
DICTIONARY
  5
3103
330
22
100
AcDbDictionary
280
     1
281
     1
  3
ACAD_XREC_ROUNDTRIP
360
3104
  0
DICTIONARY
  5
3101
330
1E
100
AcDbDictionary
280
     1
281
     1
  3
ACAD_XREC_ROUNDTRIP
360
3102
  0
DICTIONARY
  5
3105
330
26
100
AcDbDictionary
280
     1
281
     1
  3
ACAD_XREC_ROUNDTRIP
360
3106
  0
XRECORD
  5
3104
102
{ACAD_REACTORS
330
3103
102
}
330
3103
100
AcDbXrecord
280
     1
102
SHADEPLOT
 70
     0
102
SHADEPLOTRESLEVEL
 70
     2
102
SHADEPLOTCUSTOMDPI
 70
   300
  0
XRECORD
  5
3102
102
{ACAD_REACTORS
330
3101
102
}
330
3101
100
AcDbXrecord
280
     1
102
SHADEPLOT
 70
     0
102
SHADEPLOTRESLEVEL
 70
     2
102
SHADEPLOTCUSTOMDPI
 70
   300
  0
XRECORD
  5
3106
102
{ACAD_REACTORS
330
3105
102
}
330
3105
100
AcDbXrecord
280
     1
102
SHADEPLOT
 70
     0
102
SHADEPLOTRESLEVEL
 70
     2
102
SHADEPLOTCUSTOMDPI
 70
   300
  0
ENDSEC
  0
EOF
