  0
SECTION
  2
HEADER
  9
$ACADVER
  1
AC1015
  9
$ACADMAINTVER
 70
    20
  9
$DWGCODEPAGE
  3
ANSI_932
  9
$INSBASE
 10
0.0
 20
0.0
 30
0.0
  9
$EXTMIN
 10
111.0
 20
4.0
 30
0.0
  9
$EXTMAX
 10
2784.000000000001
 20
2024.0
 30
0.0
  9
$LIMMIN
 10
0.0
 20
0.0
  9
$LIMMAX
 10
29700.0
 20
21000.0
  9
$ORTHOMODE
 70
     1
  9
$REGENMODE
 70
     1
  9
$FILLMODE
 70
     1
  9
$QTEXTMODE
 70
     0
  9
$MIRRTEXT
 70
     1
  9
$LTSCALE
 40
4.0
  9
$ATTMODE
 70
     1
  9
$TEXTSIZE
 40
25.0
  9
$TRACEWID
 40
1.0
  9
$TEXTSTYLE
  7
Standard
  9
$CLAYER
  8
実形
  9
$CELTYPE
  6
ByLayer
  9
$CECOLOR
 62
   256
  9
$CELTSCALE
 40
1.0
  9
$DISPSILH
 70
     0
  9
$DIMSCALE
 40
1.0
  9
$DIMASZ
 40
35.0
  9
$DIMEXO
 40
65.0
  9
$DIMDLI
 40
3.75
  9
$DIMRND
 40
0.0
  9
$DIMDLE
 40
0.0
  9
$DIMEXE
 40
0.0
  9
$DIMTP
 40
0.0
  9
$DIMTM
 40
0.0
  9
$DIMTXT
 40
25.0
  9
$DIMCEN
 40
2.5
  9
$DIMTSZ
 40
0.0
  9
$DIMTOL
 70
     0
  9
$DIMLIM
 70
     0
  9
$DIMTIH
 70
     0
  9
$DIMTOH
 70
     0
  9
$DIMSE1
 70
     0
  9
$DIMSE2
 70
     0
  9
$DIMTAD
 70
     1
  9
$DIMZIN
 70
     8
  9
$DIMBLK
  1
DotSmall
  9
$DIMASO
 70
     1
  9
$DIMSHO
 70
     1
  9
$DIMPOST
  1

  9
$DIMAPOST
  1

  9
$DIMALT
 70
     0
  9
$DIMALTD
 70
     3
  9
$DIMALTF
 40
0.03937007874016
  9
$DIMLFAC
 40
1.0
  9
$DIMTOFL
 70
     1
  9
$DIMTVP
 40
0.0
  9
$DIMTIX
 70
     0
  9
$DIMSOXD
 70
     0
  9
$DIMSAH
 70
     0
  9
$DIMBLK1
  1

  9
$DIMBLK2
  1

  9
$DIMSTYLE
  2
ISO-25
  9
$DIMCLRD
 70
     0
  9
$DIMCLRE
 70
     0
  9
$DIMCLRT
 70
     0
  9
$DIMTFAC
 40
1.0
  9
$DIMGAP
 40
6.25
  9
$DIMJUST
 70
     0
  9
$DIMSD1
 70
     0
  9
$DIMSD2
 70
     0
  9
$DIMTOLJ
 70
     0
  9
$DIMTZIN
 70
     8
  9
$DIMALTZ
 70
     0
  9
$DIMALTTZ
 70
     0
  9
$DIMUPT
 70
     0
  9
$DIMDEC
 70
     2
  9
$DIMTDEC
 70
     2
  9
$DIMALTU
 70
     2
  9
$DIMALTTD
 70
     3
  9
$DIMTXSTY
  7
Standard
  9
$DIMAUNIT
 70
     0
  9
$DIMADEC
 70
     0
  9
$DIMALTRND
 40
0.0
  9
$DIMAZIN
 70
     0
  9
$DIMDSEP
 70
    46
  9
$DIMATFIT
 70
     3
  9
$DIMFRAC
 70
     0
  9
$DIMLDRBLK
  1
Open30
  9
$DIMLUNIT
 70
     2
  9
$DIMLWD
 70
    18
  9
$DIMLWE
 70
    18
  9
$DIMTMOVE
 70
     0
  9
$LUNITS
 70
     2
  9
$LUPREC
 70
     2
  9
$SKETCHINC
 40
1.0
  9
$FILLETRAD
 40
35.0
  9
$AUNITS
 70
     0
  9
$AUPREC
 70
     0
  9
$MENU
  1
.
  9
$ELEVATION
 40
0.0
  9
$PELEVATION
 40
0.0
  9
$THICKNESS
 40
0.0
  9
$LIMCHECK
 70
     1
  9
$CHAMFERA
 40
10.0
  9
$CHAMFERB
 40
10.0
  9
$CHAMFERC
 40
20.0
  9
$CHAMFERD
 40
0.0
  9
$SKPOLY
 70
     0
  9
$TDCREATE
 40
2451673.575802199
  9
$TDUCREATE
 40
2451673.200802199
  9
$TDUPDATE
 40
2458809.753767662
  9
$TDUUPDATE
 40
2458809.378767663
  9
$TDINDWG
 40
0.8069770370
  9
$TDUSRTIMER
 40
0.8069763426
  9
$USRTIMER
 70
     1
  9
$ANGBASE
 50
0.0
  9
$ANGDIR
 70
     0
  9
$PDMODE
 70
     3
  9
$PDSIZE
 40
0.0
  9
$PLINEWID
 40
0.0
  9
$SPLFRAME
 70
     0
  9
$SPLINETYPE
 70
     6
  9
$SPLINESEGS
 70
     8
  9
$HANDSEED
  5
2098
  9
$SURFTAB1
 70
     6
  9
$SURFTAB2
 70
     6
  9
$SURFTYPE
 70
     6
  9
$SURFU
 70
     6
  9
$SURFV
 70
     6
  9
$UCSBASE
  2

  9
$UCSNAME
  2

  9
$UCSORG
 10
0.0
 20
0.0
 30
0.0
  9
$UCSXDIR
 10
1.0
 20
0.0
 30
0.0
  9
$UCSYDIR
 10
0.0
 20
1.0
 30
0.0
  9
$UCSORTHOREF
  2

  9
$UCSORTHOVIEW
 70
     0
  9
$UCSORGTOP
 10
0.0
 20
0.0
 30
0.0
  9
$UCSORGBOTTOM
 10
0.0
 20
0.0
 30
0.0
  9
$UCSORGLEFT
 10
0.0
 20
0.0
 30
0.0
  9
$UCSORGRIGHT
 10
0.0
 20
0.0
 30
0.0
  9
$UCSORGFRONT
 10
0.0
 20
0.0
 30
0.0
  9
$UCSORGBACK
 10
0.0
 20
0.0
 30
0.0
  9
$PUCSBASE
  2

  9
$PUCSNAME
  2

  9
$PUCSORG
 10
0.0
 20
0.0
 30
0.0
  9
$PUCSXDIR
 10
1.0
 20
0.0
 30
0.0
  9
$PUCSYDIR
 10
0.0
 20
1.0
 30
0.0
  9
$PUCSORTHOREF
  2

  9
$PUCSORTHOVIEW
 70
     0
  9
$PUCSORGTOP
 10
0.0
 20
0.0
 30
0.0
  9
$PUCSORGBOTTOM
 10
0.0
 20
0.0
 30
0.0
  9
$PUCSORGLEFT
 10
0.0
 20
0.0
 30
0.0
  9
$PUCSORGRIGHT
 10
0.0
 20
0.0
 30
0.0
  9
$PUCSORGFRONT
 10
0.0
 20
0.0
 30
0.0
  9
$PUCSORGBACK
 10
0.0
 20
0.0
 30
0.0
  9
$USERI1
 70
     0
  9
$USERI2
 70
     0
  9
$USERI3
 70
     0
  9
$USERI4
 70
     0
  9
$USERI5
 70
     0
  9
$USERR1
 40
0.0
  9
$USERR2
 40
0.0
  9
$USERR3
 40
0.0
  9
$USERR4
 40
0.0
  9
$USERR5
 40
0.0
  9
$WORLDVIEW
 70
     1
  9
$SHADEDGE
 70
     3
  9
$SHADEDIF
 70
    70
  9
$TILEMODE
 70
     1
  9
$MAXACTVP
 70
    64
  9
$PINSBASE
 10
0.0
 20
0.0
 30
0.0
  9
$PLIMCHECK
 70
     0
  9
$PEXTMIN
 10
27.8447512626648
 20
20.24591643810271
 30
0.0
  9
$PEXTMAX
 10
250.6027613639831
 20
182.2132479429245
 30
0.0
  9
$PLIMMIN
 10
-3.757080078125
 20
-3.757083177566528
  9
$PLIMMAX
 10
293.2112426757813
 20
206.2162444591522
  9
$UNITMODE
 70
     0
  9
$VISRETAIN
 70
     1
  9
$PLINEGEN
 70
     0
  9
$PSLTSCALE
 70
     1
  9
$TREEDEPTH
 70
  3020
  9
$CMLSTYLE
  2
Standard
  9
$CMLJUST
 70
     0
  9
$CMLSCALE
 40
20.0
  9
$PROXYGRAPHICS
 70
     1
  9
$MEASUREMENT
 70
     1
  9
$CELWEIGHT
370
    -1
  9
$ENDCAPS
280
     0
  9
$JOINSTYLE
280
     0
  9
$LWDISPLAY
290
     0
  9
$INSUNITS
 70
     4
  9
$HYPERLINKBASE
  1

  9
$STYLESHEET
  1

  9
$XEDIT
290
     1
  9
$CEPSNTYPE
380
     0
  9
$PSTYLEMODE
290
     1
  9
$FINGERPRINTGUID
  2
{C8EA1F16-24C9-11D4-9416-CE0A3B32152F}
  9
$VERSIONGUID
  2
{0674E3A4-36BC-4449-ABD7-A440BF1BEDFB}
  9
$EXTNAMES
290
     1
  9
$PSVPSCALE
 40
0.0
  9
$OLESTARTUP
290
     0
  0
ENDSEC
  0
SECTION
  2
CLASSES
  0
CLASS
  1
ACDBDICTIONARYWDFLT
  2
AcDbDictionaryWithDefault
  3
ObjectDBX Classes
 90
        0
280
     0
281
     0
  0
CLASS
  1
ACDBPLACEHOLDER
  2
AcDbPlaceHolder
  3
ObjectDBX Classes
 90
        0
280
     0
281
     0
  0
CLASS
  1
LAYOUT
  2
AcDbLayout
  3
ObjectDBX Classes
 90
        0
280
     0
281
     0
  0
CLASS
  1
DICTIONARYVAR
  2
AcDbDictionaryVar
  3
ObjectDBX Classes
 90
        0
280
     0
281
     0
  0
CLASS
  1
TABLESTYLE
  2
AcDbTableStyle
  3
ObjectDBX Classes
 90
     2047
280
     0
281
     0
  0
CLASS
  1
SORTENTSTABLE
  2
AcDbSortentsTable
  3
ObjectDBX Classes
 90
        0
280
     0
281
     0
  0
ENDSEC
  0
SECTION
  2
TABLES
  0
TABLE
  2
VPORT
  5
8
330
0
100
AcDbSymbolTable
 70
     2
  0
VPORT
  5
208C
330
8
100
AcDbSymbolTableRecord
100
AcDbViewportTableRecord
  2
*Active
 70
     0
 10
0.0
 20
0.0
 11
1.0
 21
1.0
 12
1410.619940458256
 22
1044.009181372373
 13
0.0
 23
0.0
 14
10.0
 24
10.0
 15
10.0
 25
10.0
 16
0.0
 26
0.0
 36
1.0
 17
0.0
 27
0.0
 37
0.0
 40
2512.98711695758
 41
1.29038112522686
 42
50.0
 43
0.0
 44
0.0
 50
0.0
 51
0.0
 71
     0
 72
   100
 73
     1
 74
     3
 75
     0
 76
     0
 77
     0
 78
     0
281
     0
 65
     1
110
0.0
120
0.0
130
0.0
111
1.0
121
0.0
131
0.0
112
0.0
122
1.0
132
0.0
 79
     0
146
0.0
  0
ENDTAB
  0
TABLE
  2
LTYPE
  5
5
330
0
100
AcDbSymbolTable
 70
    46
  0
LTYPE
  5
14
330
5
100
AcDbSymbolTableRecord
100
AcDbLinetypeTableRecord
  2
ByBlock
 70
     0
  3

 72
    65
 73
     0
 40
0.0
  0
LTYPE
  5
15
330
5
100
AcDbSymbolTableRecord
100
AcDbLinetypeTableRecord
  2
ByLayer
 70
     0
  3

 72
    65
 73
     0
 40
0.0
  0
LTYPE
  5
16
330
5
100
AcDbSymbolTableRecord
100
AcDbLinetypeTableRecord
  2
Continuous
 70
     0
  3
Solid line
 72
    65
 73
     0
 40
0.0
  0
LTYPE
  5
34
330
5
100
AcDbSymbolTableRecord
100
AcDbLinetypeTableRecord
  2
ACAD_ISO02W100
 70
     0
  3
ISO dash __ __ __ __ __ __ __ __ __ __ __ __ __
 72
    65
 73
     2
 40
15.0
 49
12.0
 74
     0
 49
-3.0
 74
     0
  0
LTYPE
  5
35
330
5
100
AcDbSymbolTableRecord
100
AcDbLinetypeTableRecord
  2
ACAD_ISO03W100
 70
     0
  3
ISO dash space __    __    __    __    __    __
 72
    65
 73
     2
 40
30.0
 49
12.0
 74
     0
 49
-18.0
 74
     0
  0
LTYPE
  5
36
330
5
100
AcDbSymbolTableRecord
100
AcDbLinetypeTableRecord
  2
ACAD_ISO04W100
 70
     0
  3
ISO long-dash dot ____ . ____ . ____ . ____ . _
 72
    65
 73
     4
 40
30.0
 49
24.0
 74
     0
 49
-3.0
 74
     0
 49
0.0
 74
     0
 49
-3.0
 74
     0
  0
LTYPE
  5
37
330
5
100
AcDbSymbolTableRecord
100
AcDbLinetypeTableRecord
  2
ACAD_ISO05W100
 70
     0
  3
ISO long-dash double-dot ____ .. ____ .. ____ .
 72
    65
 73
     6
 40
34.0
 49
24.0
 74
     0
 49
-3.0
 74
     0
 49
0.5
 74
     0
 49
-3.0
 74
     0
 49
0.5
 74
     0
 49
-3.0
 74
     0
  0
LTYPE
  5
38
330
5
100
AcDbSymbolTableRecord
100
AcDbLinetypeTableRecord
  2
ACAD_ISO06W100
 70
     0
  3
ISO long-dash triple-dot ____ ... ____ ... ____
 72
    65
 73
     8
 40
37.5
 49
24.0
 74
     0
 49
-3.0
 74
     0
 49
0.5
 74
     0
 49
-3.0
 74
     0
 49
0.5
 74
     0
 49
-3.0
 74
     0
 49
0.5
 74
     0
 49
-3.0
 74
     0
  0
LTYPE
  5
39
330
5
100
AcDbSymbolTableRecord
100
AcDbLinetypeTableRecord
  2
ACAD_ISO07W100
 70
     0
  3
ISO dot . . . . . . . . . . . . . . . . . . . .
 72
    65
 73
     2
 40
3.0
 49
0.0
 74
     0
 49
-3.0
 74
     0
  0
LTYPE
  5
3A
330
5
100
AcDbSymbolTableRecord
100
AcDbLinetypeTableRecord
  2
ACAD_ISO08W100
 70
     0
  3
ISO long-dash short-dash ____ __ ____ __ ____ _
 72
    65
 73
     4
 40
36.0
 49
24.0
 74
     0
 49
-3.0
 74
     0
 49
6.0
 74
     0
 49
-3.0
 74
     0
  0
LTYPE
  5
3B
330
5
100
AcDbSymbolTableRecord
100
AcDbLinetypeTableRecord
  2
ACAD_ISO09W100
 70
     0
  3
ISO long-dash double-short-dash ____ __ __ ____
 72
    65
 73
     6
 40
45.0
 49
24.0
 74
     0
 49
-3.0
 74
     0
 49
6.0
 74
     0
 49
-3.0
 74
     0
 49
6.0
 74
     0
 49
-3.0
 74
     0
  0
LTYPE
  5
3C
330
5
100
AcDbSymbolTableRecord
100
AcDbLinetypeTableRecord
  2
ACAD_ISO10W100
 70
     0
  3
ISO dash dot __ . __ . __ . __ . __ . __ . __ .
 72
    65
 73
     4
 40
18.0
 49
12.0
 74
     0
 49
-3.0
 74
     0
 49
0.0
 74
     0
 49
-3.0
 74
     0
  0
LTYPE
  5
3D
330
5
100
AcDbSymbolTableRecord
100
AcDbLinetypeTableRecord
  2
ACAD_ISO11W100
 70
     0
  3
ISO double-dash dot __ __ . __ __ . __ __ . __ 
 72
    65
 73
     6
 40
33.0
 49
12.0
 74
     0
 49
-3.0
 74
     0
 49
12.0
 74
     0
 49
-3.0
 74
     0
 49
0.0
 74
     0
 49
-3.0
 74
     0
  0
LTYPE
  5
3E
330
5
100
AcDbSymbolTableRecord
100
AcDbLinetypeTableRecord
  2
ACAD_ISO12W100
 70
     0
  3
ISO dash double-dot __ . . __ . . __ . . __ . .
 72
    65
 73
     6
 40
21.0
 49
12.0
 74
     0
 49
-3.0
 74
     0
 49
0.0
 74
     0
 49
-3.0
 74
     0
 49
0.0
 74
     0
 49
-3.0
 74
     0
  0
LTYPE
  5
3F
330
5
100
AcDbSymbolTableRecord
100
AcDbLinetypeTableRecord
  2
ACAD_ISO13W100
 70
     0
  3
ISO double-dash double-dot __ __ . . __ __ . . 
 72
    65
 73
     8
 40
36.0
 49
12.0
 74
     0
 49
-3.0
 74
     0
 49
12.0
 74
     0
 49
-3.0
 74
     0
 49
0.0
 74
     0
 49
-3.0
 74
     0
 49
0.0
 74
     0
 49
-3.0
 74
     0
  0
LTYPE
  5
40
330
5
100
AcDbSymbolTableRecord
100
AcDbLinetypeTableRecord
  2
ACAD_ISO14W100
 70
     0
  3
ISO dash triple-dot __ . . . __ . . . __ . . . 
 72
    65
 73
     8
 40
24.0
 49
12.0
 74
     0
 49
-3.0
 74
     0
 49
0.0
 74
     0
 49
-3.0
 74
     0
 49
0.0
 74
     0
 49
-3.0
 74
     0
 49
0.0
 74
     0
 49
-3.0
 74
     0
  0
LTYPE
  5
41
330
5
100
AcDbSymbolTableRecord
100
AcDbLinetypeTableRecord
  2
ACAD_ISO15W100
 70
     0
  3
ISO double-dash triple-dot __ __ . . . __ __ . 
 72
    65
 73
    10
 40
39.0
 49
12.0
 74
     0
 49
-3.0
 74
     0
 49
12.0
 74
     0
 49
-3.0
 74
     0
 49
0.0
 74
     0
 49
-3.0
 74
     0
 49
0.0
 74
     0
 49
-3.0
 74
     0
 49
0.0
 74
     0
 49
-3.0
 74
     0
  0
LTYPE
  5
42
330
5
100
AcDbSymbolTableRecord
100
AcDbLinetypeTableRecord
  2
BATTING
 70
     0
  3
Batting SSSSSSSSSSSSSSSSSSSSSSSSSSSSSSSSSSSSSSS
 72
    65
 73
     4
 40
10.16254
 49
0.00254
 74
     0
 49
-2.54
 74
     4
 75
   134
340
33
 46
2.54
 50
0.0
 44
-2.54
 45
0.0
 49
-5.08
 74
     4
 75
   134
340
33
 46
2.54
 50
180.0
 44
2.54
 45
0.0
 49
-2.54
 74
     0
  0
LTYPE
  5
43
330
5
100
AcDbSymbolTableRecord
100
AcDbLinetypeTableRecord
  2
BORDER
 70
     0
  3
Border __ __ . __ __ . __ __ . __ __ . __ __ .
 72
    65
 73
     6
 40
44.45
 49
12.7
 74
     0
 49
-6.349999999999999
 74
     0
 49
12.7
 74
     0
 49
-6.349999999999999
 74
     0
 49
0.0
 74
     0
 49
-6.349999999999999
 74
     0
  0
LTYPE
  5
44
330
5
100
AcDbSymbolTableRecord
100
AcDbLinetypeTableRecord
  2
BORDER2
 70
     0
  3
Border (.5x) __.__.__.__.__.__.__.__.__.__.__.
 72
    65
 73
     6
 40
22.225
 49
6.349999999999999
 74
     0
 49
-3.174999999999999
 74
     0
 49
6.349999999999999
 74
     0
 49
-3.174999999999999
 74
     0
 49
0.0
 74
     0
 49
-3.174999999999999
 74
     0
  0
LTYPE
  5
45
330
5
100
AcDbSymbolTableRecord
100
AcDbLinetypeTableRecord
  2
BORDERX2
 70
     0
  3
Border (2x) ____  ____  .  ____  ____  .  ___
 72
    65
 73
     6
 40
88.9
 49
25.4
 74
     0
 49
-12.7
 74
     0
 49
25.4
 74
     0
 49
-12.7
 74
     0
 49
0.0
 74
     0
 49
-12.7
 74
     0
  0
LTYPE
  5
46
330
5
100
AcDbSymbolTableRecord
100
AcDbLinetypeTableRecord
  2
CENTER
 70
     0
  3
Center ____ _ ____ _ ____ _ ____ _ ____ _ ____
 72
    65
 73
     4
 40
50.8
 49
31.75
 74
     0
 49
-6.349999999999999
 74
     0
 49
6.349999999999999
 74
     0
 49
-6.349999999999999
 74
     0
  0
LTYPE
  5
47
330
5
100
AcDbSymbolTableRecord
100
AcDbLinetypeTableRecord
  2
CENTER2
 70
     0
  3
Center (.5x) ___ _ ___ _ ___ _ ___ _ ___ _ ___
 72
    65
 73
     4
 40
28.575
 49
19.05
 74
     0
 49
-3.174999999999999
 74
     0
 49
3.174999999999999
 74
     0
 49
-3.174999999999999
 74
     0
  0
LTYPE
  5
48
330
5
100
AcDbSymbolTableRecord
100
AcDbLinetypeTableRecord
  2
CENTERX2
 70
     0
  3
Center (2x) ________  __  ________  __  _____
 72
    65
 73
     4
 40
101.6
 49
63.5
 74
     0
 49
-12.7
 74
     0
 49
12.7
 74
     0
 49
-12.7
 74
     0
  0
LTYPE
  5
49
330
5
100
AcDbSymbolTableRecord
100
AcDbLinetypeTableRecord
  2
DASHDOT
 70
     0
  3
Dash dot __ . __ . __ . __ . __ . __ . __ . __
 72
    65
 73
     4
 40
25.4
 49
12.7
 74
     0
 49
-6.349999999999999
 74
     0
 49
0.0
 74
     0
 49
-6.349999999999999
 74
     0
  0
LTYPE
  5
4A
330
5
100
AcDbSymbolTableRecord
100
AcDbLinetypeTableRecord
  2
DASHDOT2
 70
     0
  3
Dash dot (.5x) _._._._._._._._._._._._._._._.
 72
    65
 73
     4
 40
12.7
 49
6.349999999999999
 74
     0
 49
-3.174999999999999
 74
     0
 49
0.0
 74
     0
 49
-3.174999999999999
 74
     0
  0
LTYPE
  5
4B
330
5
100
AcDbSymbolTableRecord
100
AcDbLinetypeTableRecord
  2
DASHDOTX2
 70
     0
  3
Dash dot (2x) ____  .  ____  .  ____  .  ___
 72
    65
 73
     4
 40
50.8
 49
25.4
 74
     0
 49
-12.7
 74
     0
 49
0.0
 74
     0
 49
-12.7
 74
     0
  0
LTYPE
  5
4C
330
5
100
AcDbSymbolTableRecord
100
AcDbLinetypeTableRecord
  2
DASHED
 70
     0
  3
Dashed __ __ __ __ __ __ __ __ __ __ __ __ __ _
 72
    65
 73
     2
 40
19.05
 49
12.7
 74
     0
 49
-6.349999999999999
 74
     0
  0
LTYPE
  5
4D
330
5
100
AcDbSymbolTableRecord
100
AcDbLinetypeTableRecord
  2
DASHED2
 70
     0
  3
Dashed (.5x) _ _ _ _ _ _ _ _ _ _ _ _ _ _ _ _ _
 72
    65
 73
     2
 40
9.524999999999998
 49
6.349999999999999
 74
     0
 49
-3.174999999999999
 74
     0
  0
LTYPE
  5
4E
330
5
100
AcDbSymbolTableRecord
100
AcDbLinetypeTableRecord
  2
DASHEDX2
 70
     0
  3
Dashed (2x) ____  ____  ____  ____  ____  ___
 72
    65
 73
     2
 40
38.1
 49
25.4
 74
     0
 49
-12.7
 74
     0
  0
LTYPE
  5
4F
330
5
100
AcDbSymbolTableRecord
100
AcDbLinetypeTableRecord
  2
DIVIDE
 70
     0
  3
Divide ____ . . ____ . . ____ . . ____ . . ____
 72
    65
 73
     6
 40
31.75
 49
12.7
 74
     0
 49
-6.349999999999999
 74
     0
 49
0.0
 74
     0
 49
-6.349999999999999
 74
     0
 49
0.0
 74
     0
 49
-6.349999999999999
 74
     0
  0
LTYPE
  5
50
330
5
100
AcDbSymbolTableRecord
100
AcDbLinetypeTableRecord
  2
DIVIDE2
 70
     0
  3
Divide (.5x) __..__..__..__..__..__..__..__.._
 72
    65
 73
     6
 40
15.875
 49
6.349999999999999
 74
     0
 49
-3.174999999999999
 74
     0
 49
0.0
 74
     0
 49
-3.174999999999999
 74
     0
 49
0.0
 74
     0
 49
-3.174999999999999
 74
     0
  0
LTYPE
  5
51
330
5
100
AcDbSymbolTableRecord
100
AcDbLinetypeTableRecord
  2
DIVIDEX2
 70
     0
  3
Divide (2x) ________  .  .  ________  .  .  _
 72
    65
 73
     6
 40
63.49999999999999
 49
25.4
 74
     0
 49
-12.7
 74
     0
 49
0.0
 74
     0
 49
-12.7
 74
     0
 49
0.0
 74
     0
 49
-12.7
 74
     0
  0
LTYPE
  5
52
330
5
100
AcDbSymbolTableRecord
100
AcDbLinetypeTableRecord
  2
DOT
 70
     0
  3
Dot . . . . . . . . . . . . . . . . . . . . . .
 72
    65
 73
     2
 40
6.349999999999999
 49
0.0
 74
     0
 49
-6.349999999999999
 74
     0
  0
LTYPE
  5
53
330
5
100
AcDbSymbolTableRecord
100
AcDbLinetypeTableRecord
  2
DOT2
 70
     0
  3
Dot (.5x) .....................................
 72
    65
 73
     2
 40
3.174999999999999
 49
0.0
 74
     0
 49
-3.174999999999999
 74
     0
  0
LTYPE
  5
54
330
5
100
AcDbSymbolTableRecord
100
AcDbLinetypeTableRecord
  2
DOTX2
 70
     0
  3
Dot (2x) .  .  .  .  .  .  .  .  .  .  .  .  . 
 72
    65
 73
     2
 40
12.7
 49
0.0
 74
     0
 49
-12.7
 74
     0
  0
LTYPE
  5
55
330
5
100
AcDbSymbolTableRecord
100
AcDbLinetypeTableRecord
  2
FENCELINE1
 70
     0
  3
Fenceline circle ----0-----0----0-----0----0---
 72
    65
 73
     4
 40
36.83
 49
6.349999999999999
 74
     0
 49
-2.54
 74
     4
 75
   133
340
33
 46
2.54
 50
0.0
 44
-2.54
 45
0.0
 49
-2.54
 74
     0
 49
25.4
 74
     0
  0
LTYPE
  5
56
330
5
100
AcDbSymbolTableRecord
100
AcDbLinetypeTableRecord
  2
FENCELINE2
 70
     0
  3
Fenceline square ----[]-----[]----[]-----[]----
 72
    65
 73
     4
 40
36.83
 49
6.349999999999999
 74
     0
 49
-2.54
 74
     4
 75
   132
340
33
 46
2.54
 50
0.0
 44
-2.54
 45
0.0
 49
-2.54
 74
     0
 49
25.4
 74
     0
  0
LTYPE
  5
57
330
5
100
AcDbSymbolTableRecord
100
AcDbLinetypeTableRecord
  2
GAS_LINE
 70
     0
  3
Gas line ----GAS----GAS----GAS----GAS----GAS---
 72
    65
 73
     3
 40
24.13
 49
12.7
 74
     0
 49
-5.08
 74
     2
 75
     0
340
11
 46
2.54
 50
0.0
 44
-2.54
 45
-1.27
  9
GAS
 49
-6.349999999999999
 74
     0
  0
LTYPE
  5
58
330
5
100
AcDbSymbolTableRecord
100
AcDbLinetypeTableRecord
  2
HIDDEN
 70
     0
  3
Hidden __ __ __ __ __ __ __ __ __ __ __ __ __ _
 72
    65
 73
     2
 40
9.524999999999998
 49
6.349999999999999
 74
     0
 49
-3.174999999999999
 74
     0
  0
LTYPE
  5
59
330
5
100
AcDbSymbolTableRecord
100
AcDbLinetypeTableRecord
  2
HIDDEN2
 70
     0
  3
Hidden (.5x) _ _ _ _ _ _ _ _ _ _ _ _ _ _ _ _ _
 72
    65
 73
     2
 40
4.762499999999999
 49
3.174999999999999
 74
     0
 49
-1.587499999999999
 74
     0
  0
LTYPE
  5
5A
330
5
100
AcDbSymbolTableRecord
100
AcDbLinetypeTableRecord
  2
HIDDENX2
 70
     0
  3
Hidden (2x) ____ ____ ____ ____ ____ ____ ____
 72
    65
 73
     2
 40
19.05
 49
12.7
 74
     0
 49
-6.349999999999999
 74
     0
  0
LTYPE
  5
5B
330
5
100
AcDbSymbolTableRecord
100
AcDbLinetypeTableRecord
  2
HOT_WATER_SUPPLY
 70
     0
  3
Hot water supply ---- HW ---- HW ---- HW ----
 72
    65
 73
     3
 40
22.86
 49
12.7
 74
     0
 49
-5.08
 74
     2
 75
     0
340
11
 46
2.54
 50
0.0
 44
-2.54
 45
-1.27
  9
HW
 49
-5.08
 74
     0
  0
LTYPE
  5
5C
330
5
100
AcDbSymbolTableRecord
100
AcDbLinetypeTableRecord
  2
PHANTOM
 70
     0
  3
Phantom ______  __  __  ______  __  __  ______
 72
    65
 73
     6
 40
63.5
 49
31.75
 74
     0
 49
-6.349999999999999
 74
     0
 49
6.349999999999999
 74
     0
 49
-6.349999999999999
 74
     0
 49
6.349999999999999
 74
     0
 49
-6.349999999999999
 74
     0
  0
LTYPE
  5
5D
330
5
100
AcDbSymbolTableRecord
100
AcDbLinetypeTableRecord
  2
PHANTOM2
 70
     0
  3
Phantom (.5x) ___ _ _ ___ _ _ ___ _ _ ___ _ _
 72
    65
 73
     6
 40
31.75
 49
15.875
 74
     0
 49
-3.174999999999999
 74
     0
 49
3.174999999999999
 74
     0
 49
-3.174999999999999
 74
     0
 49
3.174999999999999
 74
     0
 49
-3.174999999999999
 74
     0
  0
LTYPE
  5
5E
330
5
100
AcDbSymbolTableRecord
100
AcDbLinetypeTableRecord
  2
PHANTOMX2
 70
     0
  3
Phantom (2x) ____________    ____    ____   _
 72
    65
 73
     6
 40
127.0
 49
63.5
 74
     0
 49
-12.7
 74
     0
 49
12.7
 74
     0
 49
-12.7
 74
     0
 49
12.7
 74
     0
 49
-12.7
 74
     0
  0
LTYPE
  5
5F
330
5
100
AcDbSymbolTableRecord
100
AcDbLinetypeTableRecord
  2
TRACKS
 70
     0
  3
Tracks -|-|-|-|-|-|-|-|-|-|-|-|-|-|-|-|-|-|-|-|
 72
    65
 73
     2
 40
7.62
 49
3.81
 74
     4
 75
   130
340
33
 46
6.349999999999999
 50
0.0
 44
0.0
 45
0.0
 49
3.81
 74
     0
  0
LTYPE
  5
60
330
5
100
AcDbSymbolTableRecord
100
AcDbLinetypeTableRecord
  2
ZIGZAG
 70
     0
  3
Zig zag /\/\/\/\/\/\/\/\/\/\/\/\/\/\/\/\/\/\/\/
 72
    65
 73
     4
 40
20.32254
 49
0.00254
 74
     0
 49
-5.08
 74
     4
 75
   131
340
33
 46
5.08
 50
0.0
 44
-5.08
 45
0.0
 49
-10.16
 74
     4
 75
   131
340
33
 46
5.08
 50
180.0
 44
5.08
 45
0.0
 49
-5.08
 74
     0
  0
ENDTAB
  0
TABLE
  2
LAYER
  5
2
102
{ACAD_XDICTIONARY
360
1FBA
102
}
330
0
100
AcDbSymbolTable
 70
     9
  0
LAYER
  5
10
330
2
100
AcDbSymbolTableRecord
100
AcDbLayerTableRecord
  2
0
 70
     0
 62
     7
  6
Continuous
370
    -3
390
F
  0
LAYER
  5
C3
330
2
100
AcDbSymbolTableRecord
100
AcDbLayerTableRecord
  2
Defpoints
 70
     0
 62
     7
  6
Continuous
290
     0
370
    -3
390
F
  0
LAYER
  5
256
330
2
100
AcDbSymbolTableRecord
100
AcDbLayerTableRecord
  2
センター
 70
     0
 62
     7
  6
CENTER2
370
    18
390
F
  0
LAYER
  5
268
330
2
100
AcDbSymbolTableRecord
100
AcDbLayerTableRecord
  2
実形
 70
     0
 62
     7
  6
Continuous
370
    -3
390
F
  0
LAYER
  5
269
330
2
100
AcDbSymbolTableRecord
100
AcDbLayerTableRecord
  2
補助
 70
     0
 62
     7
  6
Continuous
370
    -3
390
F
  0
LAYER
  5
26A
330
2
100
AcDbSymbolTableRecord
100
AcDbLayerTableRecord
  2
寸法
 70
     0
 62
     7
  6
Continuous
370
    18
390
F
  0
LAYER
  5
26B
330
2
100
AcDbSymbolTableRecord
100
AcDbLayerTableRecord
  2
ハッチング
 70
     0
 62
     7
  6
Continuous
370
    18
390
F
  0
LAYER
  5
26D
330
2
100
AcDbSymbolTableRecord
100
AcDbLayerTableRecord
  2
文字
 70
     0
 62
     7
  6
Continuous
370
    -3
390
F
  0
LAYER
  5
1C8D
330
2
100
AcDbSymbolTableRecord
100
AcDbLayerTableRecord
  2
Cen
 70
     0
 62
     7
  6
CENTER2
370
    15
390
F
  0
ENDTAB
  0
TABLE
  2
STYLE
  5
3
330
0
100
AcDbSymbolTable
 70
     3
  0
STYLE
  5
11
330
3
100
AcDbSymbolTableRecord
100
AcDbTextStyleTableRecord
  2
Standard
 70
     0
 40
0.0
 41
1.0
 50
0.0
 71
     0
 42
25.0
  3
txt.shx
  4
bigfont.shx
  0
STYLE
  5
33
330
3
100
AcDbSymbolTableRecord
100
AcDbTextStyleTableRecord
  2

 70
     1
 40
0.0
 41
1.0
 50
0.0
 71
     0
 42
2.5
  3
ltypeshp.shx
  4

  0
STYLE
  5
204D
330
3
100
AcDbSymbolTableRecord
100
AcDbTextStyleTableRecord
  2
明朝
 70
     0
 40
0.0
 41
1.0
 50
0.0
 71
     0
 42
25.0
  3
MS Mincho.ttf
  4

1001
ACAD
1000
MS Mincho
1071
    32785
  0
ENDTAB
  0
TABLE
  2
VIEW
  5
6
330
0
100
AcDbSymbolTable
 70
     0
  0
ENDTAB
  0
TABLE
  2
UCS
  5
7
330
0
100
AcDbSymbolTable
 70
     0
  0
ENDTAB
  0
TABLE
  2
APPID
  5
9
330
0
100
AcDbSymbolTable
 70
     1
  0
APPID
  5
12
330
9
100
AcDbSymbolTableRecord
100
AcDbRegAppTableRecord
  2
ACAD
 70
     0
  0
ENDTAB
  0
TABLE
  2
DIMSTYLE
  5
A
330
0
100
AcDbSymbolTable
 70
     2
100
AcDbDimStyleTable
 71
     1
340
27
  0
DIMSTYLE
105
27
102
{ACAD_REACTORS
330
12A2
330
12E0
330
12ED
330
12FA
330
1307
330
132F
330
134E
330
1382
330
1391
330
13C9
330
1472
330
1562
330
1563
330
1D18
330
1E6A
330
1E77
102
}
330
A
100
AcDbSymbolTableRecord
100
AcDbDimStyleTableRecord
  2
ISO-25
 70
     0
 41
35.0
 42
65.0
 43
3.75
 44
0.0
 73
     0
 74
     0
 77
     1
 78
     8
140
25.0
141
2.5
143
0.03937007874016
147
6.25
171
     3
172
     1
271
     2
272
     2
274
     3
283
     0
284
     8
340
11
341
DA
342
D0
371
    15
372
    15
  0
DIMSTYLE
105
204E
330
A
100
AcDbSymbolTableRecord
100
AcDbDimStyleTableRecord
  2
ISO-25　ｂ
 70
     0
 41
35.0
 42
65.0
 43
3.75
 44
0.0
 73
     0
 74
     0
 77
     1
 78
     8
140
25.0
141
2.5
143
0.03937007874016
147
6.25
171
     3
172
     1
271
     2
272
     2
274
     3
279
     2
283
     0
284
     8
340
11
341
DA
342
D0
371
    18
372
    18
  0
ENDTAB
  0
TABLE
  2
BLOCK_RECORD
  5
1
330
0
100
AcDbSymbolTable
 70
    20
  0
BLOCK_RECORD
  5
1F
102
{ACAD_XDICTIONARY
360
1E61
102
}
330
1
100
AcDbSymbolTableRecord
100
AcDbBlockTableRecord
  2
*Model_Space
340
22
  0
BLOCK_RECORD
  5
1B
330
1
100
AcDbSymbolTableRecord
100
AcDbBlockTableRecord
  2
*Paper_Space
340
1E
  0
BLOCK_RECORD
  5
23
330
1
100
AcDbSymbolTableRecord
100
AcDbBlockTableRecord
  2
*Paper_Space0
340
26
  0
BLOCK_RECORD
  5
D0
330
1
100
AcDbSymbolTableRecord
100
AcDbBlockTableRecord
  2
_DotSmall
340
0
102
{BLKREFS
331
1FC0
331
1FC1
331
1FC9
331
1FCA
331
1FD2
331
1FD3
331
1FDB
331
1FDC
331
1FE4
331
1FE5
331
1FED
331
1FEE
331
1FF6
331
1FF7
331
2000
331
2001
331
2009
331
200A
331
2012
331
2013
331
201B
331
201C
331
2024
331
2025
331
202D
331
202E
331
2035
331
2036
331
203F
331
2040
331
2047
331
2048
102
}
  0
BLOCK_RECORD
  5
D4
330
1
100
AcDbSymbolTableRecord
100
AcDbBlockTableRecord
  2
_Origin2
340
0
  0
BLOCK_RECORD
  5
DA
330
1
100
AcDbSymbolTableRecord
100
AcDbBlockTableRecord
  2
_Open30
340
0
  0
BLOCK_RECORD
  5
12A3
330
1
100
AcDbSymbolTableRecord
100
AcDbBlockTableRecord
  2
*D4
340
0
  0
BLOCK_RECORD
  5
12E1
330
1
100
AcDbSymbolTableRecord
100
AcDbBlockTableRecord
  2
*D5
340
0
  0
BLOCK_RECORD
  5
12EE
330
1
100
AcDbSymbolTableRecord
100
AcDbBlockTableRecord
  2
*D6
340
0
  0
BLOCK_RECORD
  5
12FB
330
1
100
AcDbSymbolTableRecord
100
AcDbBlockTableRecord
  2
*D7
340
0
  0
BLOCK_RECORD
  5
1308
330
1
100
AcDbSymbolTableRecord
100
AcDbBlockTableRecord
  2
*D8
340
0
  0
BLOCK_RECORD
  5
1330
330
1
100
AcDbSymbolTableRecord
100
AcDbBlockTableRecord
  2
*D9
340
0
  0
BLOCK_RECORD
  5
134F
330
1
100
AcDbSymbolTableRecord
100
AcDbBlockTableRecord
  2
*D10
340
0
  0
BLOCK_RECORD
  5
1383
330
1
100
AcDbSymbolTableRecord
100
AcDbBlockTableRecord
  2
*D11
340
0
  0
BLOCK_RECORD
  5
1392
330
1
100
AcDbSymbolTableRecord
100
AcDbBlockTableRecord
  2
*D12
340
0
  0
BLOCK_RECORD
  5
13CA
330
1
100
AcDbSymbolTableRecord
100
AcDbBlockTableRecord
  2
*D13
340
0
  0
BLOCK_RECORD
  5
1473
330
1
100
AcDbSymbolTableRecord
100
AcDbBlockTableRecord
  2
*D14
340
0
  0
BLOCK_RECORD
  5
158F
330
1
100
AcDbSymbolTableRecord
100
AcDbBlockTableRecord
  2
*D15
340
0
  0
BLOCK_RECORD
  5
159B
330
1
100
AcDbSymbolTableRecord
100
AcDbBlockTableRecord
  2
*D16
340
0
  0
BLOCK_RECORD
  5
1D19
330
1
100
AcDbSymbolTableRecord
100
AcDbBlockTableRecord
  2
*D17
340
0
  0
BLOCK_RECORD
  5
1E6B
330
1
100
AcDbSymbolTableRecord
100
AcDbBlockTableRecord
  2
*D18
340
0
  0
BLOCK_RECORD
  5
1E78
330
1
100
AcDbSymbolTableRecord
100
AcDbBlockTableRecord
  2
*D19
340
0
  0
ENDTAB
  0
ENDSEC
  0
SECTION
  2
BLOCKS
  0
BLOCK
  5
20
330
1F
100
AcDbEntity
  8
0
100
AcDbBlockBegin
  2
*Model_Space
 70
     0
 10
0.0
 20
0.0
 30
0.0
  3
*Model_Space
  1

  0
ENDBLK
  5
21
330
1F
100
AcDbEntity
  8
0
100
AcDbBlockEnd
  0
BLOCK
  5
1C
330
1B
100
AcDbEntity
 67
     1
  8
0
100
AcDbBlockBegin
  2
*Paper_Space
 70
     0
 10
0.0
 20
0.0
 30
0.0
  3
*Paper_Space
  1

  0
ENDBLK
  5
1D
330
1B
100
AcDbEntity
 67
     1
  8
0
100
AcDbBlockEnd
  0
BLOCK
  5
24
330
23
100
AcDbEntity
  8
0
100
AcDbBlockBegin
  2
*Paper_Space0
 70
     0
 10
0.0
 20
0.0
 30
0.0
  3
*Paper_Space0
  1

  0
ENDBLK
  5
25
330
23
100
AcDbEntity
  8
0
100
AcDbBlockEnd
  0
BLOCK
  5
D2
330
D0
100
AcDbEntity
  8
0
100
AcDbBlockBegin
  2
_DotSmall
 70
     0
 10
0.0
 20
0.0
 30
0.0
  3
_DotSmall
  1

  0
LWPOLYLINE
  5
D1
330
D0
100
AcDbEntity
  8
0
 62
     0
100
AcDbPolyline
 90
        2
 70
     1
 43
0.5
 10
-0.0625
 20
0.0
 42
1.0
 10
0.0625
 20
0.0
 42
1.0
  0
ENDBLK
  5
D3
330
D0
100
AcDbEntity
  8
0
100
AcDbBlockEnd
  0
BLOCK
  5
D8
330
D4
100
AcDbEntity
  8
0
100
AcDbBlockBegin
  2
_Origin2
 70
     0
 10
0.0
 20
0.0
 30
0.0
  3
_Origin2
  1

  0
CIRCLE
  5
D5
330
D4
100
AcDbEntity
  8
0
 62
     0
370
    -2
100
AcDbCircle
 10
0.0
 20
0.0
 30
0.0
 40
0.5
  0
CIRCLE
  5
D6
330
D4
100
AcDbEntity
  8
0
 62
     0
370
    -2
100
AcDbCircle
 10
0.0
 20
0.0
 30
0.0
 40
0.25
  0
LINE
  5
D7
330
D4
100
AcDbEntity
  8
0
 62
     0
370
    -2
100
AcDbLine
 10
-0.5
 20
0.0
 30
0.0
 11
-1.0
 21
0.0
 31
0.0
  0
ENDBLK
  5
D9
330
D4
100
AcDbEntity
  8
0
100
AcDbBlockEnd
  0
BLOCK
  5
DE
330
DA
100
AcDbEntity
  8
0
100
AcDbBlockBegin
  2
_Open30
 70
     0
 10
0.0
 20
0.0
 30
0.0
  3
_Open30
  1

  0
LINE
  5
DB
330
DA
100
AcDbEntity
  8
0
 62
     0
370
    -2
100
AcDbLine
 10
-1.0
 20
0.26794919
 30
0.0
 11
0.0
 21
0.0
 31
0.0
  0
LINE
  5
DC
330
DA
100
AcDbEntity
  8
0
 62
     0
370
    -2
100
AcDbLine
 10
0.0
 20
0.0
 30
0.0
 11
-1.0
 21
-0.26794919
 31
0.0
  0
LINE
  5
DD
330
DA
100
AcDbEntity
  8
0
 62
     0
370
    -2
100
AcDbLine
 10
0.0
 20
0.0
 30
0.0
 11
-1.0
 21
0.0
 31
0.0
  0
ENDBLK
  5
DF
330
DA
100
AcDbEntity
  8
0
100
AcDbBlockEnd
  0
BLOCK
  5
12AE
330
12A3
100
AcDbEntity
  8
0
100
AcDbBlockBegin
  2
*D4
 70
     1
 10
0.0
 20
0.0
 30
0.0
  3
*D4
  1

  0
LINE
  5
2029
330
12A3
100
AcDbEntity
  8
実形
 62
     0
370
    18
100
AcDbLine
 10
723.5936297894722
 20
1693.67545567602
 30
0.0
 11
633.9629018630796
 21
1693.67545567602
 31
0.0
  0
LINE
  5
202A
330
12A3
100
AcDbEntity
  8
実形
 62
     0
370
    18
100
AcDbLine
 10
723.5936297894722
 20
1675.675455676019
 30
0.0
 11
633.9629018630796
 21
1675.675455676019
 31
0.0
  0
LINE
  5
202B
330
12A3
100
AcDbEntity
  8
実形
 62
     0
370
    18
100
AcDbLine
 10
633.9629018630796
 20
1693.67545567602
 30
0.0
 11
633.9629018630796
 21
1675.675455676019
 31
0.0
  0
MTEXT
  5
202C
330
12A3
100
AcDbEntity
  8
実形
 62
     0
100
AcDbMText
 10
622.4454173656495
 20
1729.428900627159
 30
0.0
 40
25.0
 41
0.0
 71
     5
 72
     1
  1
18
 11
0.0000000000000001
 21
1.0
 31
0.0
 73
     1
 44
1.0
1001
ACAD
1000
MTEXTBEGIN
1070
    73
1070
     1
1070
    44
1040
1.0
1070
    74
1070
     0
1000
MTEXTEND
  0
INSERT
  5
202D
330
12A3
100
AcDbEntity
  8
実形
 62
     0
370
    18
100
AcDbBlockReference
  2
_DotSmall
 10
633.9629018630796
 20
1693.67545567602
 30
0.0
 41
35.0
 42
35.0
 43
35.0
 50
90.0
  0
INSERT
  5
202E
330
12A3
100
AcDbEntity
  8
実形
 62
     0
370
    18
100
AcDbBlockReference
  2
_DotSmall
 10
633.9629018630796
 20
1675.675455676019
 30
0.0
 41
35.0
 42
35.0
 43
35.0
 50
270.0
  0
POINT
  5
202F
330
12A3
100
AcDbEntity
  8
Defpoints
 62
     0
100
AcDbPoint
 10
788.5936297894723
 20
1693.67545567602
 30
0.0
  0
POINT
  5
2030
330
12A3
100
AcDbEntity
  8
Defpoints
 62
     0
100
AcDbPoint
 10
788.5936297894723
 20
1675.675455676019
 30
0.0
  0
POINT
  5
2031
330
12A3
100
AcDbEntity
  8
Defpoints
 62
     0
100
AcDbPoint
 10
633.9629018630796
 20
1675.675455676019
 30
0.0
  0
ENDBLK
  5
12AF
330
12A3
100
AcDbEntity
  8
0
100
AcDbBlockEnd
  0
BLOCK
  5
12EB
330
12E1
100
AcDbEntity
  8
0
100
AcDbBlockBegin
  2
*D5
 70
     1
 10
0.0
 20
0.0
 30
0.0
  3
*D5
  1

  0
LINE
  5
2020
330
12E1
100
AcDbEntity
  8
実形
 62
     0
370
    18
100
AcDbLine
 10
723.5936297894722
 20
1675.675455676019
 30
0.0
 11
633.9629018630796
 21
1675.675455676019
 31
0.0
  0
LINE
  5
2021
330
12E1
100
AcDbEntity
  8
実形
 62
     0
370
    18
100
AcDbLine
 10
723.5936297894722
 20
1648.675455676019
 30
0.0
 11
633.9629018630796
 21
1648.675455676019
 31
0.0
  0
LINE
  5
2022
330
12E1
100
AcDbEntity
  8
実形
 62
     0
370
    18
100
AcDbLine
 10
633.9629018630796
 20
1675.675455676019
 30
0.0
 11
633.9629018630796
 21
1648.675455676019
 31
0.0
  0
MTEXT
  5
2023
330
12E1
100
AcDbEntity
  8
実形
 62
     0
100
AcDbMText
 10
601.3919132282999
 20
1641.564880774363
 30
0.0
 40
25.0
 41
0.0
 71
     5
 72
     1
  1
27
 11
0.0000000000000001
 21
1.0
 31
0.0
 73
     1
 44
1.0
1001
ACAD
1000
MTEXTBEGIN
1070
    73
1070
     1
1070
    44
1040
1.0
1070
    74
1070
     0
1000
MTEXTEND
  0
INSERT
  5
2024
330
12E1
100
AcDbEntity
  8
実形
 62
     0
370
    18
100
AcDbBlockReference
  2
_DotSmall
 10
633.9629018630796
 20
1675.675455676019
 30
0.0
 41
35.0
 42
35.0
 43
35.0
 50
90.0
  0
INSERT
  5
2025
330
12E1
100
AcDbEntity
  8
実形
 62
     0
370
    18
100
AcDbBlockReference
  2
_DotSmall
 10
633.9629018630796
 20
1648.675455676019
 30
0.0
 41
35.0
 42
35.0
 43
35.0
 50
270.0
  0
POINT
  5
2026
330
12E1
100
AcDbEntity
  8
Defpoints
 62
     0
100
AcDbPoint
 10
788.5936297894723
 20
1675.675455676019
 30
0.0
  0
POINT
  5
2027
330
12E1
100
AcDbEntity
  8
Defpoints
 62
     0
100
AcDbPoint
 10
788.5936297894723
 20
1648.675455676019
 30
0.0
  0
POINT
  5
2028
330
12E1
100
AcDbEntity
  8
Defpoints
 62
     0
100
AcDbPoint
 10
633.9629018630796
 20
1648.675455676019
 30
0.0
  0
ENDBLK
  5
12EC
330
12E1
100
AcDbEntity
  8
0
100
AcDbBlockEnd
  0
BLOCK
  5
12F8
330
12EE
100
AcDbEntity
  8
0
100
AcDbBlockBegin
  2
*D6
 70
     1
 10
0.0
 20
0.0
 30
0.0
  3
*D6
  1

  0
LINE
  5
1FF3
330
12EE
100
AcDbEntity
  8
実形
 62
     0
370
    18
100
AcDbLine
 10
723.5936297894722
 20
1648.675455676019
 30
0.0
 11
633.9629018630797
 21
1648.675455676019
 31
0.0
  0
LINE
  5
1FF4
330
12EE
100
AcDbEntity
  8
実形
 62
     0
370
    18
100
AcDbLine
 10
723.5936297894722
 20
1208.67545567602
 30
0.0
 11
633.9629018630796
 21
1208.67545567602
 31
0.0
  0
LINE
  5
1FF5
330
12EE
100
AcDbEntity
  8
実形
 62
     0
370
    18
100
AcDbLine
 10
633.9629018630797
 20
1648.675455676019
 30
0.0
 11
633.9629018630796
 21
1208.67545567602
 31
0.0
  0
INSERT
  5
1FF6
330
12EE
100
AcDbEntity
  8
実形
 62
     0
370
    18
100
AcDbBlockReference
  2
_DotSmall
 10
633.9629018630797
 20
1648.675455676019
 30
0.0
 41
35.0
 42
35.0
 43
35.0
 50
90.0
  0
INSERT
  5
1FF7
330
12EE
100
AcDbEntity
  8
実形
 62
     0
370
    18
100
AcDbBlockReference
  2
_DotSmall
 10
633.9629018630796
 20
1208.67545567602
 30
0.0
 41
35.0
 42
35.0
 43
35.0
 50
270.0
  0
MTEXT
  5
1FF8
330
12EE
100
AcDbEntity
  8
実形
 62
     0
100
AcDbMText
 10
615.2129018630795
 20
1428.67545567602
 30
0.0
 40
25.0
 41
0.0
 71
     5
 72
     1
  1
440
 11
0.0000000000000001
 21
1.0
 31
0.0
 73
     1
 44
1.0
1001
ACAD
1000
MTEXTBEGIN
1070
    73
1070
     1
1070
    44
1040
1.0
1070
    74
1070
     0
1000
MTEXTEND
  0
POINT
  5
1FF9
330
12EE
100
AcDbEntity
  8
Defpoints
 62
     0
100
AcDbPoint
 10
788.5936297894723
 20
1648.675455676019
 30
0.0
  0
POINT
  5
1FFA
330
12EE
100
AcDbEntity
  8
Defpoints
 62
     0
100
AcDbPoint
 10
788.5936297894723
 20
1208.67545567602
 30
0.0
  0
POINT
  5
1FFB
330
12EE
100
AcDbEntity
  8
Defpoints
 62
     0
100
AcDbPoint
 10
633.9629018630796
 20
1208.67545567602
 30
0.0
  0
ENDBLK
  5
12F9
330
12EE
100
AcDbEntity
  8
0
100
AcDbBlockEnd
  0
BLOCK
  5
1305
330
12FB
100
AcDbEntity
  8
0
100
AcDbBlockBegin
  2
*D7
 70
     1
 10
0.0
 20
0.0
 30
0.0
  3
*D7
  1

  0
LINE
  5
2017
330
12FB
100
AcDbEntity
  8
実形
 62
     0
370
    18
100
AcDbLine
 10
723.5936297894722
 20
1208.67545567602
 30
0.0
 11
633.9629018630796
 21
1208.67545567602
 31
0.0
  0
LINE
  5
2018
330
12FB
100
AcDbEntity
  8
実形
 62
     0
370
    18
100
AcDbLine
 10
723.5936297894722
 20
1181.67545567602
 30
0.0
 11
633.9629018630796
 21
1181.67545567602
 31
0.0
  0
LINE
  5
2019
330
12FB
100
AcDbEntity
  8
実形
 62
     0
370
    18
100
AcDbLine
 10
633.9629018630796
 20
1208.67545567602
 30
0.0
 11
633.9629018630796
 21
1181.67545567602
 31
0.0
  0
MTEXT
  5
201A
330
12FB
100
AcDbEntity
  8
実形
 62
     0
100
AcDbMText
 10
601.3919132282999
 20
1222.64122754838
 30
0.0
 40
25.0
 41
0.0
 71
     5
 72
     1
  1
27
 11
0.0000000000000001
 21
1.0
 31
0.0
 73
     1
 44
1.0
1001
ACAD
1000
MTEXTBEGIN
1070
    73
1070
     1
1070
    44
1040
1.0
1070
    74
1070
     0
1000
MTEXTEND
  0
INSERT
  5
201B
330
12FB
100
AcDbEntity
  8
実形
 62
     0
370
    18
100
AcDbBlockReference
  2
_DotSmall
 10
633.9629018630796
 20
1208.67545567602
 30
0.0
 41
35.0
 42
35.0
 43
35.0
 50
90.0
  0
INSERT
  5
201C
330
12FB
100
AcDbEntity
  8
実形
 62
     0
370
    18
100
AcDbBlockReference
  2
_DotSmall
 10
633.9629018630796
 20
1181.67545567602
 30
0.0
 41
35.0
 42
35.0
 43
35.0
 50
270.0
  0
POINT
  5
201D
330
12FB
100
AcDbEntity
  8
Defpoints
 62
     0
100
AcDbPoint
 10
788.5936297894723
 20
1208.67545567602
 30
0.0
  0
POINT
  5
201E
330
12FB
100
AcDbEntity
  8
Defpoints
 62
     0
100
AcDbPoint
 10
788.5936297894723
 20
1181.67545567602
 30
0.0
  0
POINT
  5
201F
330
12FB
100
AcDbEntity
  8
Defpoints
 62
     0
100
AcDbPoint
 10
633.9629018630796
 20
1181.67545567602
 30
0.0
  0
ENDBLK
  5
1306
330
12FB
100
AcDbEntity
  8
0
100
AcDbBlockEnd
  0
BLOCK
  5
1312
330
1308
100
AcDbEntity
  8
0
100
AcDbBlockBegin
  2
*D8
 70
     1
 10
0.0
 20
0.0
 30
0.0
  3
*D8
  1

  0
LINE
  5
200E
330
1308
100
AcDbEntity
  8
実形
 62
     0
370
    18
100
AcDbLine
 10
723.5936297894722
 20
1181.67545567602
 30
0.0
 11
633.9629018630796
 21
1181.67545567602
 31
0.0
  0
LINE
  5
200F
330
1308
100
AcDbEntity
  8
実形
 62
     0
370
    18
100
AcDbLine
 10
723.5936297894722
 20
1163.67545567602
 30
0.0
 11
633.9629018630796
 21
1163.67545567602
 31
0.0
  0
LINE
  5
2010
330
1308
100
AcDbEntity
  8
実形
 62
     0
370
    18
100
AcDbLine
 10
633.9629018630796
 20
1181.67545567602
 30
0.0
 11
633.9629018630796
 21
1163.67545567602
 31
0.0
  0
MTEXT
  5
2011
330
1308
100
AcDbEntity
  8
実形
 62
     0
100
AcDbMText
 10
615.2129018630794
 20
1127.871871898906
 30
0.0
 40
25.0
 41
0.0
 71
     5
 72
     1
  1
18
 11
0.0000000000000001
 21
1.0
 31
0.0
 73
     1
 44
1.0
1001
ACAD
1000
MTEXTBEGIN
1070
    73
1070
     1
1070
    44
1040
1.0
1070
    74
1070
     0
1000
MTEXTEND
  0
INSERT
  5
2012
330
1308
100
AcDbEntity
  8
実形
 62
     0
370
    18
100
AcDbBlockReference
  2
_DotSmall
 10
633.9629018630796
 20
1181.67545567602
 30
0.0
 41
35.0
 42
35.0
 43
35.0
 50
90.0
  0
INSERT
  5
2013
330
1308
100
AcDbEntity
  8
実形
 62
     0
370
    18
100
AcDbBlockReference
  2
_DotSmall
 10
633.9629018630796
 20
1163.67545567602
 30
0.0
 41
35.0
 42
35.0
 43
35.0
 50
270.0
  0
POINT
  5
2014
330
1308
100
AcDbEntity
  8
Defpoints
 62
     0
100
AcDbPoint
 10
788.5936297894723
 20
1181.67545567602
 30
0.0
  0
POINT
  5
2015
330
1308
100
AcDbEntity
  8
Defpoints
 62
     0
100
AcDbPoint
 10
788.5936297894723
 20
1163.67545567602
 30
0.0
  0
POINT
  5
2016
330
1308
100
AcDbEntity
  8
Defpoints
 62
     0
100
AcDbPoint
 10
633.9629018630796
 20
1163.67545567602
 30
0.0
  0
ENDBLK
  5
1313
330
1308
100
AcDbEntity
  8
0
100
AcDbBlockEnd
  0
BLOCK
  5
133A
330
1330
100
AcDbEntity
  8
0
100
AcDbBlockBegin
  2
*D9
 70
     1
 10
0.0
 20
0.0
 30
0.0
  3
*D9
  1

  0
LINE
  5
1FEA
330
1330
100
AcDbEntity
  8
実形
 62
     0
370
    18
100
AcDbLine
 10
723.5936297894722
 20
1693.67545567602
 30
0.0
 11
560.2509594618124
 21
1693.67545567602
 31
0.0
  0
LINE
  5
1FEB
330
1330
100
AcDbEntity
  8
実形
 62
     0
370
    18
100
AcDbLine
 10
723.5936297894722
 20
1163.67545567602
 30
0.0
 11
560.2509594618123
 21
1163.67545567602
 31
0.0
  0
LINE
  5
1FEC
330
1330
100
AcDbEntity
  8
実形
 62
     0
370
    18
100
AcDbLine
 10
560.2509594618124
 20
1693.67545567602
 30
0.0
 11
560.2509594618123
 21
1163.67545567602
 31
0.0
  0
INSERT
  5
1FED
330
1330
100
AcDbEntity
  8
実形
 62
     0
370
    18
100
AcDbBlockReference
  2
_DotSmall
 10
560.2509594618124
 20
1693.67545567602
 30
0.0
 41
35.0
 42
35.0
 43
35.0
 50
90.0
  0
INSERT
  5
1FEE
330
1330
100
AcDbEntity
  8
実形
 62
     0
370
    18
100
AcDbBlockReference
  2
_DotSmall
 10
560.2509594618123
 20
1163.67545567602
 30
0.0
 41
35.0
 42
35.0
 43
35.0
 50
270.0
  0
MTEXT
  5
1FEF
330
1330
100
AcDbEntity
  8
実形
 62
     0
100
AcDbMText
 10
541.5009594618121
 20
1428.67545567602
 30
0.0
 40
25.0
 41
0.0
 71
     5
 72
     1
  1
530
 11
0.0000000000000001
 21
1.0
 31
0.0
 73
     1
 44
1.0
1001
ACAD
1000
MTEXTBEGIN
1070
    73
1070
     1
1070
    44
1040
1.0
1070
    74
1070
     0
1000
MTEXTEND
  0
POINT
  5
1FF0
330
1330
100
AcDbEntity
  8
Defpoints
 62
     0
100
AcDbPoint
 10
788.5936297894723
 20
1693.67545567602
 30
0.0
  0
POINT
  5
1FF1
330
1330
100
AcDbEntity
  8
Defpoints
 62
     0
100
AcDbPoint
 10
788.5936297894723
 20
1163.67545567602
 30
0.0
  0
POINT
  5
1FF2
330
1330
100
AcDbEntity
  8
Defpoints
 62
     0
100
AcDbPoint
 10
560.2509594618123
 20
1163.67545567602
 30
0.0
  0
ENDBLK
  5
133B
330
1330
100
AcDbEntity
  8
0
100
AcDbBlockEnd
  0
BLOCK
  5
135A
330
134F
100
AcDbEntity
  8
0
100
AcDbBlockBegin
  2
*D10
 70
     1
 10
0.0
 20
0.0
 30
0.0
  3
*D10
  1

  0
LINE
  5
2005
330
134F
100
AcDbEntity
  8
実形
 62
     0
370
    18
100
AcDbLine
 10
788.5936297894723
 20
1098.67545567602
 30
0.0
 11
788.5936297894723
 21
1052.290944394732
 31
0.0
  0
LINE
  5
2006
330
134F
100
AcDbEntity
  8
実形
 62
     0
370
    18
100
AcDbLine
 10
806.5936297894722
 20
1098.67545567602
 30
0.0
 11
806.5936297894722
 21
1052.290944394732
 31
0.0
  0
LINE
  5
2007
330
134F
100
AcDbEntity
  8
実形
 62
     0
370
    18
100
AcDbLine
 10
788.5936297894723
 20
1052.290944394732
 30
0.0
 11
806.5936297894722
 21
1052.290944394732
 31
0.0
  0
MTEXT
  5
2008
330
134F
100
AcDbEntity
  8
実形
 62
     0
100
AcDbMText
 10
752.8350914612283
 20
1063.70353727191
 30
0.0
 40
25.0
 41
0.0
 71
     5
 72
     1
  1
18
 73
     1
 44
1.0
1001
ACAD
1000
MTEXTBEGIN
1070
    73
1070
     1
1070
    44
1040
1.0
1070
    74
1070
     0
1000
MTEXTEND
  0
INSERT
  5
2009
330
134F
100
AcDbEntity
  8
実形
 62
     0
370
    18
100
AcDbBlockReference
  2
_DotSmall
 10
788.5936297894723
 20
1052.290944394732
 30
0.0
 41
35.0
 42
35.0
 43
35.0
 50
180.0
  0
INSERT
  5
200A
330
134F
100
AcDbEntity
  8
実形
 62
     0
370
    18
100
AcDbBlockReference
  2
_DotSmall
 10
806.5936297894722
 20
1052.290944394732
 30
0.0
 41
35.0
 42
35.0
 43
35.0
  0
POINT
  5
200B
330
134F
100
AcDbEntity
  8
Defpoints
 62
     0
100
AcDbPoint
 10
788.5936297894723
 20
1163.67545567602
 30
0.0
  0
POINT
  5
200C
330
134F
100
AcDbEntity
  8
Defpoints
 62
     0
100
AcDbPoint
 10
806.5936297894722
 20
1163.67545567602
 30
0.0
  0
POINT
  5
200D
330
134F
100
AcDbEntity
  8
Defpoints
 62
     0
100
AcDbPoint
 10
806.5936297894722
 20
1052.290944394732
 30
0.0
  0
ENDBLK
  5
135B
330
134F
100
AcDbEntity
  8
0
100
AcDbBlockEnd
  0
BLOCK
  5
138F
330
1383
100
AcDbEntity
  8
0
100
AcDbBlockBegin
  2
*D11
 70
     1
 10
0.0
 20
0.0
 30
0.0
  3
*D11
  1

  0
LINE
  5
1FFC
330
1383
100
AcDbEntity
  8
実形
 62
     0
370
    18
100
AcDbLine
 10
806.5936297894722
 20
1098.67545567602
 30
0.0
 11
806.5936297894722
 21
1052.290944394732
 31
0.0
  0
LINE
  5
1FFD
330
1383
100
AcDbEntity
  8
実形
 62
     0
370
    18
100
AcDbLine
 10
833.5936297894722
 20
1098.67545567602
 30
0.0
 11
833.5936297894722
 21
1052.290944394732
 31
0.0
  0
LINE
  5
1FFE
330
1383
100
AcDbEntity
  8
実形
 62
     0
370
    18
100
AcDbLine
 10
806.5936297894722
 20
1052.290944394732
 30
0.0
 11
833.5936297894722
 21
1052.290944394732
 31
0.0
  0
MTEXT
  5
1FFF
330
1383
100
AcDbEntity
  8
実形
 62
     0
100
AcDbMText
 10
833.9308194913929
 20
1070.834349808414
 30
0.0
 40
25.0
 41
0.0
 71
     5
 72
     1
  1
27
 73
     1
 44
1.0
1001
ACAD
1000
MTEXTBEGIN
1070
    73
1070
     1
1070
    44
1040
1.0
1070
    74
1070
     0
1000
MTEXTEND
  0
INSERT
  5
2000
330
1383
100
AcDbEntity
  8
実形
 62
     0
370
    18
100
AcDbBlockReference
  2
_DotSmall
 10
806.5936297894722
 20
1052.290944394732
 30
0.0
 41
35.0
 42
35.0
 43
35.0
 50
180.0
  0
INSERT
  5
2001
330
1383
100
AcDbEntity
  8
実形
 62
     0
370
    18
100
AcDbBlockReference
  2
_DotSmall
 10
833.5936297894722
 20
1052.290944394732
 30
0.0
 41
35.0
 42
35.0
 43
35.0
  0
POINT
  5
2002
330
1383
100
AcDbEntity
  8
Defpoints
 62
     0
100
AcDbPoint
 10
806.5936297894722
 20
1163.67545567602
 30
0.0
  0
POINT
  5
2003
330
1383
100
AcDbEntity
  8
Defpoints
 62
     0
100
AcDbPoint
 10
833.5936297894722
 20
1163.67545567602
 30
0.0
  0
POINT
  5
2004
330
1383
100
AcDbEntity
  8
Defpoints
 62
     0
100
AcDbPoint
 10
833.5936297894722
 20
1052.290944394732
 30
0.0
  0
ENDBLK
  5
1390
330
1383
100
AcDbEntity
  8
0
100
AcDbBlockEnd
  0
BLOCK
  5
139C
330
1392
100
AcDbEntity
  8
0
100
AcDbBlockBegin
  2
*D12
 70
     1
 10
0.0
 20
0.0
 30
0.0
  3
*D12
  1

  0
LINE
  5
1FE1
330
1392
100
AcDbEntity
  8
実形
 62
     0
370
    18
100
AcDbLine
 10
833.5936297894722
 20
1098.67545567602
 30
0.0
 11
833.5936297894722
 21
1052.290944394732
 31
0.0
  0
LINE
  5
1FE2
330
1392
100
AcDbEntity
  8
実形
 62
     0
370
    18
100
AcDbLine
 10
1483.593629789472
 20
1098.67545567602
 30
0.0
 11
1483.593629789472
 21
1052.290944394732
 31
0.0
  0
LINE
  5
1FE3
330
1392
100
AcDbEntity
  8
実形
 62
     0
370
    18
100
AcDbLine
 10
833.5936297894722
 20
1052.290944394732
 30
0.0
 11
1483.593629789472
 21
1052.290944394732
 31
0.0
  0
INSERT
  5
1FE4
330
1392
100
AcDbEntity
  8
実形
 62
     0
370
    18
100
AcDbBlockReference
  2
_DotSmall
 10
833.5936297894722
 20
1052.290944394732
 30
0.0
 41
35.0
 42
35.0
 43
35.0
 50
180.0
  0
INSERT
  5
1FE5
330
1392
100
AcDbEntity
  8
実形
 62
     0
370
    18
100
AcDbBlockReference
  2
_DotSmall
 10
1483.593629789472
 20
1052.290944394732
 30
0.0
 41
35.0
 42
35.0
 43
35.0
  0
MTEXT
  5
1FE6
330
1392
100
AcDbEntity
  8
実形
 62
     0
100
AcDbMText
 10
1158.593629789472
 20
1071.040944394732
 30
0.0
 40
25.0
 41
0.0
 71
     5
 72
     1
  1
650
 73
     1
 44
1.0
1001
ACAD
1000
MTEXTBEGIN
1070
    73
1070
     1
1070
    44
1040
1.0
1070
    74
1070
     0
1000
MTEXTEND
  0
POINT
  5
1FE7
330
1392
100
AcDbEntity
  8
Defpoints
 62
     0
100
AcDbPoint
 10
833.5936297894722
 20
1163.67545567602
 30
0.0
  0
POINT
  5
1FE8
330
1392
100
AcDbEntity
  8
Defpoints
 62
     0
100
AcDbPoint
 10
1483.593629789472
 20
1163.67545567602
 30
0.0
  0
POINT
  5
1FE9
330
1392
100
AcDbEntity
  8
Defpoints
 62
     0
100
AcDbPoint
 10
1483.593629789472
 20
1052.290944394732
 30
0.0
  0
ENDBLK
  5
139D
330
1392
100
AcDbEntity
  8
0
100
AcDbBlockEnd
  0
BLOCK
  5
13D6
330
13CA
100
AcDbEntity
  8
0
100
AcDbBlockBegin
  2
*D13
 70
     1
 10
0.0
 20
0.0
 30
0.0
  3
*D13
  1

  0
LINE
  5
203B
330
13CA
100
AcDbEntity
  8
実形
 62
     0
370
    18
100
AcDbLine
 10
1740.593629789472
 20
1098.67545567602
 30
0.0
 11
1740.593629789472
 21
1052.290944394732
 31
0.0
  0
LINE
  5
203C
330
13CA
100
AcDbEntity
  8
実形
 62
     0
370
    18
100
AcDbLine
 10
1758.593629789472
 20
1098.67545567602
 30
0.0
 11
1758.593629789472
 21
1052.290944394732
 31
0.0
  0
LINE
  5
203D
330
13CA
100
AcDbEntity
  8
実形
 62
     0
370
    18
100
AcDbLine
 10
1740.593629789472
 20
1052.290944394732
 30
0.0
 11
1758.593629789472
 21
1052.290944394732
 31
0.0
  0
MTEXT
  5
203E
330
13CA
100
AcDbEntity
  8
実形
 62
     0
100
AcDbMText
 10
1784.285599374199
 20
1068.986223114254
 30
0.0
 40
25.0
 41
0.0
 71
     5
 72
     1
  1
18
 73
     1
 44
1.0
1001
ACAD
1000
MTEXTBEGIN
1070
    73
1070
     1
1070
    44
1040
1.0
1070
    74
1070
     0
1000
MTEXTEND
  0
INSERT
  5
203F
330
13CA
100
AcDbEntity
  8
実形
 62
     0
370
    18
100
AcDbBlockReference
  2
_DotSmall
 10
1740.593629789472
 20
1052.290944394732
 30
0.0
 41
35.0
 42
35.0
 43
35.0
 50
180.0
  0
INSERT
  5
2040
330
13CA
100
AcDbEntity
  8
実形
 62
     0
370
    18
100
AcDbBlockReference
  2
_DotSmall
 10
1758.593629789472
 20
1052.290944394732
 30
0.0
 41
35.0
 42
35.0
 43
35.0
  0
POINT
  5
2041
330
13CA
100
AcDbEntity
  8
Defpoints
 62
     0
100
AcDbPoint
 10
1740.593629789472
 20
1163.67545567602
 30
0.0
  0
POINT
  5
2042
330
13CA
100
AcDbEntity
  8
Defpoints
 62
     0
100
AcDbPoint
 10
1758.593629789472
 20
1163.67545567602
 30
0.0
  0
POINT
  5
2043
330
13CA
100
AcDbEntity
  8
Defpoints
 62
     0
100
AcDbPoint
 10
1758.593629789472
 20
1052.290944394732
 30
0.0
  0
ENDBLK
  5
13D7
330
13CA
100
AcDbEntity
  8
0
100
AcDbBlockEnd
  0
BLOCK
  5
147D
330
1473
100
AcDbEntity
  8
0
100
AcDbBlockBegin
  2
*D14
 70
     1
 10
0.0
 20
0.0
 30
0.0
  3
*D14
  1

  0
LINE
  5
1FD8
330
1473
100
AcDbEntity
  8
実形
 62
     0
370
    18
100
AcDbLine
 10
788.5936297894723
 20
1098.67545567602
 30
0.0
 11
788.5936297894723
 21
972.4027942544845
 31
0.0
  0
LINE
  5
1FD9
330
1473
100
AcDbEntity
  8
実形
 62
     0
370
    18
100
AcDbLine
 10
1758.593629789472
 20
1098.67545567602
 30
0.0
 11
1758.593629789472
 21
972.4027942544845
 31
0.0
  0
LINE
  5
1FDA
330
1473
100
AcDbEntity
  8
実形
 62
     0
370
    18
100
AcDbLine
 10
788.5936297894723
 20
972.4027942544845
 30
0.0
 11
1758.593629789472
 21
972.4027942544845
 31
0.0
  0
INSERT
  5
1FDB
330
1473
100
AcDbEntity
  8
実形
 62
     0
370
    18
100
AcDbBlockReference
  2
_DotSmall
 10
788.5936297894723
 20
972.4027942544845
 30
0.0
 41
35.0
 42
35.0
 43
35.0
 50
180.0
  0
INSERT
  5
1FDC
330
1473
100
AcDbEntity
  8
実形
 62
     0
370
    18
100
AcDbBlockReference
  2
_DotSmall
 10
1758.593629789472
 20
972.4027942544845
 30
0.0
 41
35.0
 42
35.0
 43
35.0
  0
MTEXT
  5
1FDD
330
1473
100
AcDbEntity
  8
実形
 62
     0
100
AcDbMText
 10
1273.593629789472
 20
991.1527942544845
 30
0.0
 40
25.0
 41
0.0
 71
     5
 72
     1
  1
970
 73
     1
 44
1.0
1001
ACAD
1000
MTEXTBEGIN
1070
    73
1070
     1
1070
    44
1040
1.0
1070
    74
1070
     0
1000
MTEXTEND
  0
POINT
  5
1FDE
330
1473
100
AcDbEntity
  8
Defpoints
 62
     0
100
AcDbPoint
 10
788.5936297894723
 20
1163.67545567602
 30
0.0
  0
POINT
  5
1FDF
330
1473
100
AcDbEntity
  8
Defpoints
 62
     0
100
AcDbPoint
 10
1758.593629789472
 20
1163.67545567602
 30
0.0
  0
POINT
  5
1FE0
330
1473
100
AcDbEntity
  8
Defpoints
 62
     0
100
AcDbPoint
 10
1758.593629789472
 20
972.4027942544845
 30
0.0
  0
ENDBLK
  5
147E
330
1473
100
AcDbEntity
  8
0
100
AcDbBlockEnd
  0
BLOCK
  5
1599
330
158F
100
AcDbEntity
  8
0
100
AcDbBlockBegin
  2
*D15
 70
     1
 10
0.0
 20
0.0
 30
0.0
  3
*D15
  1

  0
LINE
  5
1FCF
330
158F
100
AcDbEntity
  8
実形
 62
     0
370
    15
100
AcDbLine
 10
893.0936297894723
 20
499.6754556760198
 30
0.0
 11
893.0936297894723
 21
407.0386498060178
 31
0.0
  0
LINE
  5
1FD0
330
158F
100
AcDbEntity
  8
実形
 62
     0
370
    15
100
AcDbLine
 10
1074.093629789472
 20
499.6754556760197
 30
0.0
 11
1074.093629789472
 21
407.0386498060178
 31
0.0
  0
LINE
  5
1FD1
330
158F
100
AcDbEntity
  8
実形
 62
     0
370
    18
100
AcDbLine
 10
893.0936297894723
 20
407.0386498060178
 30
0.0
 11
1074.093629789472
 21
407.0386498060178
 31
0.0
  0
INSERT
  5
1FD2
330
158F
100
AcDbEntity
  8
実形
 62
     0
370
    18
100
AcDbBlockReference
  2
_DotSmall
 10
893.0936297894723
 20
407.0386498060178
 30
0.0
 41
35.0
 42
35.0
 43
35.0
 50
180.0
  0
INSERT
  5
1FD3
330
158F
100
AcDbEntity
  8
実形
 62
     0
370
    18
100
AcDbBlockReference
  2
_DotSmall
 10
1074.093629789472
 20
407.0386498060178
 30
0.0
 41
35.0
 42
35.0
 43
35.0
  0
MTEXT
  5
1FD4
330
158F
100
AcDbEntity
  8
実形
 62
     0
100
AcDbMText
 10
983.5936297894722
 20
425.7886498060178
 30
0.0
 40
25.0
 41
0.0
 71
     5
 72
     1
  1
181
 73
     1
 44
1.0
1001
ACAD
1000
MTEXTBEGIN
1070
    73
1070
     1
1070
    44
1040
1.0
1070
    74
1070
     0
1000
MTEXTEND
  0
POINT
  5
1FD5
330
158F
100
AcDbEntity
  8
Defpoints
 62
     0
100
AcDbPoint
 10
893.0936297894723
 20
564.6754556760198
 30
0.0
  0
POINT
  5
1FD6
330
158F
100
AcDbEntity
  8
Defpoints
 62
     0
100
AcDbPoint
 10
1074.093629789472
 20
564.6754556760197
 30
0.0
  0
POINT
  5
1FD7
330
158F
100
AcDbEntity
  8
Defpoints
 62
     0
100
AcDbPoint
 10
1074.093629789472
 20
407.0386498060178
 30
0.0
  0
ENDBLK
  5
159A
330
158F
100
AcDbEntity
  8
0
100
AcDbBlockEnd
  0
BLOCK
  5
15A5
330
159B
100
AcDbEntity
  8
0
100
AcDbBlockBegin
  2
*D16
 70
     1
 10
0.0
 20
0.0
 30
0.0
  3
*D16
  1

  0
LINE
  5
1FC6
330
159B
100
AcDbEntity
  8
実形
 62
     0
370
    15
100
AcDbLine
 10
903.5936297894723
 20
499.6754556760197
 30
0.0
 11
903.5936297894723
 21
448.2480483749468
 31
0.0
  0
LINE
  5
1FC7
330
159B
100
AcDbEntity
  8
実形
 62
     0
370
    15
100
AcDbLine
 10
1063.593629789472
 20
499.6754556760197
 30
0.0
 11
1063.593629789472
 21
448.2480483749468
 31
0.0
  0
LINE
  5
1FC8
330
159B
100
AcDbEntity
  8
実形
 62
     0
370
    18
100
AcDbLine
 10
903.5936297894723
 20
448.2480483749468
 30
0.0
 11
1063.593629789472
 21
448.2480483749468
 31
0.0
  0
INSERT
  5
1FC9
330
159B
100
AcDbEntity
  8
実形
 62
     0
370
    18
100
AcDbBlockReference
  2
_DotSmall
 10
903.5936297894723
 20
448.2480483749468
 30
0.0
 41
35.0
 42
35.0
 43
35.0
 50
180.0
  0
INSERT
  5
1FCA
330
159B
100
AcDbEntity
  8
実形
 62
     0
370
    18
100
AcDbBlockReference
  2
_DotSmall
 10
1063.593629789472
 20
448.2480483749468
 30
0.0
 41
35.0
 42
35.0
 43
35.0
  0
MTEXT
  5
1FCB
330
159B
100
AcDbEntity
  8
実形
 62
     0
100
AcDbMText
 10
983.5936297894722
 20
466.9980483749468
 30
0.0
 40
25.0
 41
0.0
 71
     5
 72
     1
  1
160
 73
     1
 44
1.0
1001
ACAD
1000
MTEXTBEGIN
1070
    73
1070
     1
1070
    44
1040
1.0
1070
    74
1070
     0
1000
MTEXTEND
  0
POINT
  5
1FCC
330
159B
100
AcDbEntity
  8
Defpoints
 62
     0
100
AcDbPoint
 10
903.5936297894723
 20
564.6754556760197
 30
0.0
  0
POINT
  5
1FCD
330
159B
100
AcDbEntity
  8
Defpoints
 62
     0
100
AcDbPoint
 10
1063.593629789472
 20
564.6754556760197
 30
0.0
  0
POINT
  5
1FCE
330
159B
100
AcDbEntity
  8
Defpoints
 62
     0
100
AcDbPoint
 10
1063.593629789472
 20
448.2480483749468
 30
0.0
  0
ENDBLK
  5
15A6
330
159B
100
AcDbEntity
  8
0
100
AcDbBlockEnd
  0
BLOCK
  5
1D23
330
1D19
100
AcDbEntity
  8
0
100
AcDbBlockBegin
  2
*D17
 70
     1
 10
0.0
 20
0.0
 30
0.0
  3
*D17
  1

  0
LINE
  5
2032
330
1D19
100
AcDbEntity
  8
実形
 62
     0
370
    18
100
AcDbLine
 10
1483.593629789472
 20
1098.67545567602
 30
0.0
 11
1483.593629789472
 21
1052.290944394732
 31
0.0
  0
LINE
  5
2033
330
1D19
100
AcDbEntity
  8
実形
 62
     0
370
    18
100
AcDbLine
 10
1740.593629789472
 20
1098.678331949444
 30
0.0
 11
1740.593629789472
 21
1052.290944394732
 31
0.0
  0
LINE
  5
2034
330
1D19
100
AcDbEntity
  8
実形
 62
     0
370
    18
100
AcDbLine
 10
1483.593629789472
 20
1052.290944394732
 30
0.0
 11
1740.593629789472
 21
1052.290944394732
 31
0.0
  0
INSERT
  5
2035
330
1D19
100
AcDbEntity
  8
実形
 62
     0
370
    18
100
AcDbBlockReference
  2
_DotSmall
 10
1483.593629789472
 20
1052.290944394732
 30
0.0
 41
35.0
 42
35.0
 43
35.0
 50
180.0
  0
INSERT
  5
2036
330
1D19
100
AcDbEntity
  8
実形
 62
     0
370
    18
100
AcDbBlockReference
  2
_DotSmall
 10
1740.593629789472
 20
1052.290944394732
 30
0.0
 41
35.0
 42
35.0
 43
35.0
  0
MTEXT
  5
2037
330
1D19
100
AcDbEntity
  8
実形
 62
     0
100
AcDbMText
 10
1612.093629789472
 20
1071.040944394732
 30
0.0
 40
25.0
 41
0.0
 71
     5
 72
     1
  1
257
 73
     1
 44
1.0
1001
ACAD
1000
MTEXTBEGIN
1070
    73
1070
     1
1070
    44
1040
1.0
1070
    74
1070
     0
1000
MTEXTEND
  0
POINT
  5
2038
330
1D19
100
AcDbEntity
  8
Defpoints
 62
     0
100
AcDbPoint
 10
1483.593629789472
 20
1163.67545567602
 30
0.0
  0
POINT
  5
2039
330
1D19
100
AcDbEntity
  8
Defpoints
 62
     0
100
AcDbPoint
 10
1740.593629789472
 20
1163.678331949444
 30
0.0
  0
POINT
  5
203A
330
1D19
100
AcDbEntity
  8
Defpoints
 62
     0
100
AcDbPoint
 10
1740.593629789472
 20
1052.290944394732
 30
0.0
  0
ENDBLK
  5
1D24
330
1D19
100
AcDbEntity
  8
0
100
AcDbBlockEnd
  0
BLOCK
  5
1E75
330
1E6B
100
AcDbEntity
  8
0
100
AcDbBlockBegin
  2
*D18
 70
     1
 10
0.0
 20
0.0
 30
0.0
  3
*D18
  1

  0
LINE
  5
1FBD
330
1E6B
100
AcDbEntity
  8
実形
 62
     0
370
    18
100
AcDbLine
 10
788.5936297894723
 20
1758.675455676019
 30
0.0
 11
788.5936297894723
 21
1814.186180018119
 31
0.0
  0
LINE
  5
1FBE
330
1E6B
100
AcDbEntity
  8
実形
 62
     0
370
    18
100
AcDbLine
 10
983.5936297894722
 20
1584.175455676019
 30
0.0
 11
983.5936297894722
 21
1814.186180018119
 31
0.0
  0
LINE
  5
1FBF
330
1E6B
100
AcDbEntity
  8
実形
 62
     0
370
    18
100
AcDbLine
 10
788.5936297894723
 20
1814.186180018119
 30
0.0
 11
983.5936297894722
 21
1814.186180018119
 31
0.0
  0
INSERT
  5
1FC0
330
1E6B
100
AcDbEntity
  8
実形
 62
     0
370
    18
100
AcDbBlockReference
  2
_DotSmall
 10
788.5936297894723
 20
1814.186180018119
 30
0.0
 41
35.0
 42
35.0
 43
35.0
 50
180.0
  0
INSERT
  5
1FC1
330
1E6B
100
AcDbEntity
  8
実形
 62
     0
370
    18
100
AcDbBlockReference
  2
_DotSmall
 10
983.5936297894722
 20
1814.186180018119
 30
0.0
 41
35.0
 42
35.0
 43
35.0
  0
MTEXT
  5
1FC2
330
1E6B
100
AcDbEntity
  8
実形
 62
     0
100
AcDbMText
 10
886.0936297894722
 20
1832.936180018119
 30
0.0
 40
25.0
 41
0.0
 71
     5
 72
     1
  1
195
 73
     1
 44
1.0
1001
ACAD
1000
MTEXTBEGIN
1070
    73
1070
     1
1070
    44
1040
1.0
1070
    74
1070
     0
1000
MTEXTEND
  0
POINT
  5
1FC3
330
1E6B
100
AcDbEntity
  8
Defpoints
 62
     0
100
AcDbPoint
 10
788.5936297894723
 20
1693.67545567602
 30
0.0
  0
POINT
  5
1FC4
330
1E6B
100
AcDbEntity
  8
Defpoints
 62
     0
100
AcDbPoint
 10
983.5936297894722
 20
1519.17545567602
 30
0.0
  0
POINT
  5
1FC5
330
1E6B
100
AcDbEntity
  8
Defpoints
 62
     0
100
AcDbPoint
 10
983.5936297894722
 20
1814.186180018119
 30
0.0
  0
ENDBLK
  5
1E76
330
1E6B
100
AcDbEntity
  8
0
100
AcDbBlockEnd
  0
BLOCK
  5
1E82
330
1E78
100
AcDbEntity
  8
0
100
AcDbBlockBegin
  2
*D19
 70
     1
 10
0.0
 20
0.0
 30
0.0
  3
*D19
  1

  0
LINE
  5
2044
330
1E78
100
AcDbEntity
  8
実形
 62
     0
370
    18
100
AcDbLine
 10
1823.593629789472
 20
1163.67545567602
 30
0.0
 11
1881.42605842113
 21
1163.67545567602
 31
0.0
  0
LINE
  5
2045
330
1E78
100
AcDbEntity
  8
実形
 62
     0
370
    18
100
AcDbLine
 10
1823.593629789472
 20
1428.675455676019
 30
0.0
 11
1881.42605842113
 21
1428.675455676019
 31
0.0
  0
LINE
  5
2046
330
1E78
100
AcDbEntity
  8
実形
 62
     0
370
    18
100
AcDbLine
 10
1881.42605842113
 20
1163.67545567602
 30
0.0
 11
1881.42605842113
 21
1428.675455676019
 31
0.0
  0
INSERT
  5
2047
330
1E78
100
AcDbEntity
  8
実形
 62
     0
370
    18
100
AcDbBlockReference
  2
_DotSmall
 10
1881.42605842113
 20
1163.67545567602
 30
0.0
 41
35.0
 42
35.0
 43
35.0
 50
270.0
  0
INSERT
  5
2048
330
1E78
100
AcDbEntity
  8
実形
 62
     0
370
    18
100
AcDbBlockReference
  2
_DotSmall
 10
1881.42605842113
 20
1428.675455676019
 30
0.0
 41
35.0
 42
35.0
 43
35.0
 50
90.0
  0
MTEXT
  5
2049
330
1E78
100
AcDbEntity
  8
実形
 62
     0
100
AcDbMText
 10
1862.676058421129
 20
1296.17545567602
 30
0.0
 40
25.0
 41
0.0
 71
     5
 72
     1
  1
265
 11
0.0000000000000001
 21
1.0
 31
0.0
 73
     1
 44
1.0
1001
ACAD
1000
MTEXTBEGIN
1070
    73
1070
     1
1070
    44
1040
1.0
1070
    74
1070
     0
1000
MTEXTEND
  0
POINT
  5
204A
330
1E78
100
AcDbEntity
  8
Defpoints
 62
     0
100
AcDbPoint
 10
1758.593629789472
 20
1163.67545567602
 30
0.0
  0
POINT
  5
204B
330
1E78
100
AcDbEntity
  8
Defpoints
 62
     0
100
AcDbPoint
 10
1758.593629789472
 20
1428.675455676019
 30
0.0
  0
POINT
  5
204C
330
1E78
100
AcDbEntity
  8
Defpoints
 62
     0
100
AcDbPoint
 10
1881.42605842113
 20
1428.675455676019
 30
0.0
  0
ENDBLK
  5
1E83
330
1E78
100
AcDbEntity
  8
0
100
AcDbBlockEnd
  0
ENDSEC
  0
SECTION
  2
ENTITIES
  0
LINE
  5
9C
330
1F
100
AcDbEntity
  8
実形
100
AcDbLine
 10
111.0
 20
4.0
 30
0.0
 11
2784.0
 21
4.0
 31
0.0
  0
LINE
  5
A0
330
1F
100
AcDbEntity
  8
実形
100
AcDbLine
 10
2784.0
 20
2024.0
 30
0.0
 11
111.0
 21
2024.0
 31
0.0
  0
LINE
  5
A5
330
1F
100
AcDbEntity
  8
実形
100
AcDbLine
 10
2784.0
 20
4.0
 30
0.0
 11
2784.0
 21
2024.0
 31
0.0
  0
TEXT
  5
8C9
330
1F
100
AcDbEntity
  8
実形
100
AcDbText
 10
249.2632881086038
 20
83.52862940911927
 30
0.0
 40
30.0
  1
※実寸には製造上の誤差が多少生ずる場合があります。シンクの穴あけ加工は現物合わせにてお願いします。
100
AcDbText
  0
DIMENSION
  5
12A2
330
1F
100
AcDbEntity
  8
実形
100
AcDbDimension
  2
*D4
 10
633.9629018630796
 20
1675.675455676019
 30
0.0
 11
622.4454173656495
 21
1729.428900627159
 31
0.0
 70
   160
 71
     5
 42
18.0
  3
ISO-25
100
AcDbAlignedDimension
 13
788.5936297894723
 23
1693.67545567602
 33
0.0
 14
788.5936297894723
 24
1675.675455676019
 34
0.0
 50
90.0
100
AcDbRotatedDimension
1001
ACAD
1000
DSTYLE
1002
{
1070
   279
1070
     2
1070
   371
1070
    18
1070
   372
1070
    18
1002
}
  0
DIMENSION
  5
12E0
330
1F
100
AcDbEntity
  8
実形
100
AcDbDimension
  2
*D5
 10
633.9629018630796
 20
1648.675455676019
 30
0.0
 11
620.1419132282999
 21
1641.564880774363
 31
0.0
 70
   160
 71
     5
 42
27.0
  3
ISO-25
100
AcDbAlignedDimension
 13
788.5936297894723
 23
1675.675455676019
 33
0.0
 14
788.5936297894723
 24
1648.675455676019
 34
0.0
 50
90.0
100
AcDbRotatedDimension
1001
ACAD
1000
DSTYLE
1002
{
1070
   279
1070
     1
1070
   371
1070
    18
1070
   372
1070
    18
1002
}
  0
DIMENSION
  5
12ED
330
1F
100
AcDbEntity
  8
実形
100
AcDbDimension
  2
*D6
 10
633.9629018630796
 20
1208.67545567602
 30
0.0
 11
615.2129018630795
 21
1428.67545567602
 31
0.0
 70
    32
 71
     5
 42
440.0
  3
ISO-25
100
AcDbAlignedDimension
 13
788.5936297894723
 23
1648.675455676019
 33
0.0
 14
788.5936297894723
 24
1208.67545567602
 34
0.0
 50
90.0
100
AcDbRotatedDimension
1001
ACAD
1000
DSTYLE
1002
{
1070
   279
1070
     1
1070
   371
1070
    18
1070
   372
1070
    18
1002
}
  0
DIMENSION
  5
12FA
330
1F
100
AcDbEntity
  8
実形
100
AcDbDimension
  2
*D7
 10
633.9629018630796
 20
1181.67545567602
 30
0.0
 11
620.1419132282999
 21
1222.64122754838
 31
0.0
 70
   160
 71
     5
 42
27.0
  3
ISO-25
100
AcDbAlignedDimension
 13
788.5936297894723
 23
1208.67545567602
 33
0.0
 14
788.5936297894723
 24
1181.67545567602
 34
0.0
 50
90.0
100
AcDbRotatedDimension
1001
ACAD
1000
DSTYLE
1002
{
1070
   279
1070
     1
1070
   371
1070
    18
1070
   372
1070
    18
1002
}
  0
DIMENSION
  5
1307
330
1F
100
AcDbEntity
  8
実形
100
AcDbDimension
  2
*D8
 10
633.9629018630796
 20
1163.67545567602
 30
0.0
 11
633.9629018630794
 21
1127.871871898906
 31
0.0
 70
   160
 71
     5
 42
18.0
  3
ISO-25
100
AcDbAlignedDimension
 13
788.5936297894723
 23
1181.67545567602
 33
0.0
 14
788.5936297894723
 24
1163.67545567602
 34
0.0
 50
90.0
100
AcDbRotatedDimension
1001
ACAD
1000
DSTYLE
1002
{
1070
   279
1070
     1
1070
   371
1070
    18
1070
   372
1070
    18
1002
}
  0
DIMENSION
  5
132F
330
1F
100
AcDbEntity
  8
実形
100
AcDbDimension
  2
*D9
 10
560.2509594618123
 20
1163.67545567602
 30
0.0
 11
541.5009594618121
 21
1428.67545567602
 31
0.0
 70
    32
 71
     5
 42
530.0
  3
ISO-25
100
AcDbAlignedDimension
 13
788.5936297894723
 23
1693.67545567602
 33
0.0
 14
788.5936297894723
 24
1163.67545567602
 34
0.0
 50
90.0
100
AcDbRotatedDimension
1001
ACAD
1000
DSTYLE
1002
{
1070
   371
1070
    18
1070
   372
1070
    18
1002
}
  0
DIMENSION
  5
134E
330
1F
100
AcDbEntity
  8
実形
100
AcDbDimension
  2
*D10
 10
806.5936297894722
 20
1052.290944394732
 30
0.0
 11
752.8350914612283
 21
1063.70353727191
 31
0.0
 70
   160
 71
     5
 42
18.0
  3
ISO-25
100
AcDbAlignedDimension
 13
788.5936297894723
 23
1163.67545567602
 33
0.0
 14
806.5936297894722
 24
1163.67545567602
 34
0.0
100
AcDbRotatedDimension
1001
ACAD
1000
DSTYLE
1002
{
1070
   279
1070
     2
1070
   371
1070
    18
1070
   372
1070
    18
1002
}
  0
DIMENSION
  5
1382
330
1F
100
AcDbEntity
  8
実形
100
AcDbDimension
  2
*D11
 10
833.5936297894722
 20
1052.290944394732
 30
0.0
 11
833.9308194913929
 21
1070.834349808414
 31
0.0
 70
   160
 71
     5
 42
27.0
  3
ISO-25
100
AcDbAlignedDimension
 13
806.5936297894722
 23
1163.67545567602
 33
0.0
 14
833.5936297894722
 24
1163.67545567602
 34
0.0
100
AcDbRotatedDimension
1001
ACAD
1000
DSTYLE
1002
{
1070
   279
1070
     2
1070
   371
1070
    18
1070
   372
1070
    18
1002
}
  0
DIMENSION
  5
1391
330
1F
100
AcDbEntity
  8
実形
100
AcDbDimension
  2
*D12
 10
1483.593629789472
 20
1052.290944394732
 30
0.0
 11
1158.593629789472
 21
1071.040944394732
 31
0.0
 70
    32
 71
     5
 42
650.0
  3
ISO-25
100
AcDbAlignedDimension
 13
833.5936297894722
 23
1163.67545567602
 33
0.0
 14
1483.593629789472
 24
1163.67545567602
 34
0.0
100
AcDbRotatedDimension
1001
ACAD
1000
DSTYLE
1002
{
1070
   279
1070
     1
1070
   371
1070
    18
1070
   372
1070
    18
1002
}
  0
DIMENSION
  5
13C9
330
1F
100
AcDbEntity
  8
実形
100
AcDbDimension
  2
*D13
 10
1758.593629789472
 20
1052.290944394732
 30
0.0
 11
1784.285599374199
 21
1068.986223114254
 31
0.0
 70
   160
 71
     5
 42
18.0
  3
ISO-25
100
AcDbAlignedDimension
 13
1740.593629789472
 23
1163.67545567602
 33
0.0
 14
1758.593629789472
 24
1163.67545567602
 34
0.0
100
AcDbRotatedDimension
1001
ACAD
1000
DSTYLE
1002
{
1070
   279
1070
     2
1070
   371
1070
    18
1070
   372
1070
    18
1002
}
  0
DIMENSION
  5
1472
330
1F
100
AcDbEntity
  8
実形
100
AcDbDimension
  2
*D14
 10
1758.593629789472
 20
972.4027942544845
 30
0.0
 11
1273.593629789472
 21
991.1527942544845
 31
0.0
 70
    32
 71
     5
 42
969.9999999999997
  3
ISO-25
100
AcDbAlignedDimension
 13
788.5936297894723
 23
1163.67545567602
 33
0.0
 14
1758.593629789472
 24
1163.67545567602
 34
0.0
100
AcDbRotatedDimension
1001
ACAD
1000
DSTYLE
1002
{
1070
   371
1070
    18
1070
   372
1070
    18
1002
}
  0
LINE
  5
14A3
330
1F
100
AcDbEntity
  8
実形
100
AcDbLine
 10
1758.593629789472
 20
1683.678331949444
 30
0.0
 11
1758.593629789472
 21
1173.678331949444
 31
0.0
  0
LINE
  5
14A4
330
1F
100
AcDbEntity
  8
実形
100
AcDbLine
 10
1753.593629789472
 20
1683.678331949444
 30
0.0
 11
1753.593629789472
 21
1173.678331949444
 31
0.0
  0
LINE
  5
14A5
330
1F
100
AcDbEntity
  8
実形
100
AcDbLine
 10
1740.593629789472
 20
1211.678331949445
 30
0.0
 11
1740.593629789472
 21
1645.678331949444
 31
0.0
  0
LINE
  5
14A6
330
1F
100
AcDbEntity
  8
実形
100
AcDbLine
 10
1745.593629789472
 20
1211.678331949444
 30
0.0
 11
1745.593629789472
 21
1645.678331949445
 31
0.0
  0
LINE
  5
14A9
330
1F
100
AcDbEntity
  8
実形
100
AcDbLine
 10
1748.593629789472
 20
1168.678331949444
 30
0.0
 11
798.5936297894722
 21
1168.678331949444
 31
0.0
  0
ARC
  5
14AA
330
1F
100
AcDbEntity
  8
実形
100
AcDbCircle
 10
1748.593629789472
 20
1173.678331949444
 30
0.0
 40
5.0
100
AcDbArc
 50
270.0
 51
0.0
  0
ARC
  5
14AB
330
1F
100
AcDbEntity
  8
実形
100
AcDbCircle
 10
1748.593629789472
 20
1173.678331949444
 30
0.0
 40
10.0
100
AcDbArc
 50
270.0
 51
0.0
  0
LINE
  5
14AC
330
1F
100
AcDbEntity
  8
実形
100
AcDbLine
 10
836.5936297894723
 20
1181.678331949444
 30
0.0
 11
1710.593629789472
 21
1181.678331949445
 31
0.0
  0
LINE
  5
14AD
330
1F
100
AcDbEntity
  8
実形
100
AcDbLine
 10
836.5936297894723
 20
1176.678331949444
 30
0.0
 11
1710.593629789472
 21
1176.678331949444
 31
0.0
  0
LINE
  5
14AE
330
1F
100
AcDbEntity
  8
実形
100
AcDbLine
 10
1710.593629789472
 20
1680.678331949445
 30
0.0
 11
836.5936297894723
 21
1680.678331949444
 31
0.0
  0
LINE
  5
14AF
330
1F
100
AcDbEntity
  8
実形
100
AcDbLine
 10
798.5936297894722
 20
1688.678331949444
 30
0.0
 11
1748.593629789472
 21
1688.678331949444
 31
0.0
  0
LINE
  5
14B0
330
1F
100
AcDbEntity
  8
実形
100
AcDbLine
 10
798.5936297894722
 20
1693.678331949444
 30
0.0
 11
1748.593629789472
 21
1693.678331949444
 31
0.0
  0
LINE
  5
14B1
330
1F
100
AcDbEntity
  8
実形
100
AcDbLine
 10
1710.593629789472
 20
1675.678331949444
 30
0.0
 11
836.5936297894725
 21
1675.678331949445
 31
0.0
  0
ARC
  5
14B3
330
1F
100
AcDbEntity
  8
実形
100
AcDbCircle
 10
798.5936297894722
 20
1683.678331949444
 30
0.0
 40
5.0
100
AcDbArc
 50
90.0
 51
180.0
  0
ARC
  5
14B4
330
1F
100
AcDbEntity
  8
実形
100
AcDbCircle
 10
798.5936297894722
 20
1683.678331949444
 30
0.0
 40
10.0
100
AcDbArc
 50
90.0
 51
180.0
  0
ARC
  5
14B7
330
1F
100
AcDbEntity
  8
実形
100
AcDbCircle
 10
1748.593629789472
 20
1683.678331949444
 30
0.0
 40
5.0
100
AcDbArc
 50
0.0
 51
90.0
  0
ARC
  5
14B8
330
1F
100
AcDbEntity
  8
実形
100
AcDbCircle
 10
1748.593629789472
 20
1683.678331949444
 30
0.0
 40
10.0
100
AcDbArc
 50
0.0
 51
90.0
  0
LINE
  5
14BA
330
1F
100
AcDbEntity
  8
実形
100
AcDbLine
 10
801.5936297894722
 20
1645.678331949444
 30
0.0
 11
801.5936297894723
 21
1211.678331949444
 31
0.0
  0
LINE
  5
14BB
330
1F
100
AcDbEntity
  8
実形
100
AcDbLine
 10
793.5936297894722
 20
1173.678331949444
 30
0.0
 11
793.5936297894722
 21
1683.678331949444
 31
0.0
  0
LINE
  5
14BC
330
1F
100
AcDbEntity
  8
実形
100
AcDbLine
 10
788.5936297894723
 20
1173.678331949444
 30
0.0
 11
788.5936297894723
 21
1683.678331949444
 31
0.0
  0
LINE
  5
14BD
330
1F
100
AcDbEntity
  8
実形
100
AcDbLine
 10
806.5936297894724
 20
1645.678331949445
 30
0.0
 11
806.5936297894724
 21
1211.678331949444
 31
0.0
  0
ARC
  5
14BE
330
1F
100
AcDbEntity
  8
実形
100
AcDbCircle
 10
798.5936297894722
 20
1173.678331949444
 30
0.0
 40
5.0
100
AcDbArc
 50
180.0
 51
270.0
  0
ARC
  5
14BF
330
1F
100
AcDbEntity
  8
実形
100
AcDbCircle
 10
798.5936297894722
 20
1173.678331949444
 30
0.0
 40
10.0
100
AcDbArc
 50
180.0
 51
270.0
  0
LINE
  5
14C2
330
1F
100
AcDbEntity
  8
実形
100
AcDbLine
 10
1748.593629789472
 20
1163.678331949444
 30
0.0
 11
798.5936297894722
 21
1163.678331949444
 31
0.0
  0
ARC
  5
1547
330
1F
100
AcDbEntity
  8
実形
100
AcDbCircle
 10
1158.593629789472
 20
-451.3245443239802
 30
0.0
 40
2100.0
100
AcDbArc
 50
83.91660636496762
 51
96.0833936350324
  0
ARC
  5
1548
330
1F
100
AcDbEntity
  8
実形
100
AcDbCircle
 10
1158.593629789472
 20
3308.67545567602
 30
0.0
 40
2100.0
100
AcDbArc
 50
263.9166063649676
 51
276.0833936350324
  0
LINE
  5
1549
330
1F
100
AcDbEntity
  8
実形
 48
0.8
370
    15
100
AcDbLine
 10
842.8661373955874
 20
1428.675455676019
 30
0.0
 11
1823.593629789472
 21
1428.675455676019
 31
0.0
  0
CIRCLE
  5
154A
330
1F
100
AcDbEntity
  8
実形
100
AcDbCircle
 10
983.5936297894722
 20
1428.675455676019
 30
0.0
 40
90.5
  0
CIRCLE
  5
154B
330
1F
100
AcDbEntity
  8
実形
100
AcDbCircle
 10
983.5936297894722
 20
1428.675455676019
 30
0.0
 40
80.0
  0
ARC
  5
154D
330
1F
100
AcDbEntity
  8
実形
100
AcDbCircle
 10
183.5936297894718
 20
1428.675455676019
 30
0.0
 40
1300.0
100
AcDbArc
 50
355.237827315748
 51
4.762172684252044
  0
LINE
  5
154E
330
1F
100
AcDbEntity
  8
実形
 48
0.8
370
    15
100
AcDbLine
 10
983.5936297894722
 20
1578.67545567602
 30
0.0
 11
983.5936297894722
 21
1278.675455676019
 31
0.0
  0
ARC
  5
1550
330
1F
100
AcDbEntity
  8
実形
100
AcDbCircle
 10
1369.485615462711
 20
1329.881739701866
 30
0.0
 40
110.0
100
AcDbArc
 50
276.0833936350324
 51
355.237827315748
  0
ARC
  5
1552
330
1F
100
AcDbEntity
  8
実形
100
AcDbCircle
 10
1369.485615462711
 20
1527.469171650173
 30
0.0
 40
110.0
100
AcDbArc
 50
4.762172684252044
 51
83.91660636496762
  0
ARC
  5
1554
330
1F
100
AcDbEntity
  8
実形
100
AcDbCircle
 10
2133.593629789472
 20
1428.675455676019
 30
0.0
 40
1300.0
100
AcDbArc
 50
175.2378273157479
 51
184.762172684252
  0
ARC
  5
1559
330
1F
100
AcDbEntity
  8
実形
100
AcDbCircle
 10
947.7016441162326
 20
1329.881739701866
 30
0.0
 40
110.0
100
AcDbArc
 50
184.762172684252
 51
263.9166063649676
  0
ARC
  5
155E
330
1F
100
AcDbEntity
  8
実形
100
AcDbCircle
 10
947.7016441162326
 20
1527.469171650173
 30
0.0
 40
110.0
100
AcDbArc
 50
96.0833936350324
 51
175.2378273157479
  0
LINE
  5
1561
330
1F
100
AcDbEntity
  8
実形
100
AcDbLine
 10
1498.593629789472
 20
763.6754556760197
 30
0.0
 11
818.5936297894718
 21
763.6754556760197
 31
0.0
  0
DIMENSION
  5
1562
330
1F
100
AcDbEntity
  8
実形
100
AcDbDimension
  2
*D15
 10
1074.093629789472
 20
407.0386498060178
 30
0.0
 11
983.5936297894722
 21
407.0386498060178
 31
0.0
 70
   160
 71
     5
 42
181.0
  3
ISO-25
100
AcDbAlignedDimension
 13
893.0936297894723
 23
564.6754556760198
 33
0.0
 14
1074.093629789472
 24
564.6754556760197
 34
0.0
 50
0.000000000000007
100
AcDbRotatedDimension
1001
ACAD
1000
DSTYLE
1002
{
1070
   371
1070
    18
1002
}
  0
DIMENSION
  5
1563
330
1F
100
AcDbEntity
  8
実形
100
AcDbDimension
  2
*D16
 10
1063.593629789472
 20
448.2480483749468
 30
0.0
 11
983.5936297894722
 21
466.9980483749468
 31
0.0
 70
    32
 71
     5
 42
160.0
  3
ISO-25
100
AcDbAlignedDimension
 13
903.5936297894723
 23
564.6754556760197
 33
0.0
 14
1063.593629789472
 24
564.6754556760197
 34
0.0
 50
0.000000000000007
100
AcDbRotatedDimension
1001
ACAD
1000
DSTYLE
1002
{
1070
   371
1070
    18
1002
}
  0
LINE
  5
1565
330
1F
100
AcDbEntity
  8
実形
100
AcDbLine
 10
893.0936297894723
 20
574.6754556760197
 30
0.0
 11
1063.593629789472
 21
574.6754556760197
 31
0.0
  0
LINE
  5
1566
330
1F
100
AcDbEntity
  8
実形
100
AcDbLine
 10
1498.593629789472
 20
763.6754556760197
 30
0.0
 11
818.5936297894718
 21
763.6754556760197
 31
0.0
  0
ARC
  5
1567
330
1F
100
AcDbEntity
  8
実形
100
AcDbCircle
 10
863.5936297894723
 20
613.0510689351438
 30
0.0
 40
30.0
100
AcDbArc
 50
180.0
 51
255.8505239136565
  0
LINE
  5
1568
330
1F
100
AcDbEntity
  8
実形
 48
0.5
370
    15
100
AcDbLine
 10
983.5936297894722
 20
652.8920795514332
 30
0.0
 11
983.5936297894722
 21
496.476259244133
 31
0.0
  0
LINE
  5
1569
330
1F
100
AcDbEntity
  8
実形
100
AcDbLine
 10
856.2600570296904
 20
583.9612303213427
 30
0.0
 11
893.0936297894723
 21
574.6754556760197
 31
0.0
  0
LINE
  5
156A
330
1F
100
AcDbEntity
  8
実形
100
AcDbLine
 10
893.0936297894723
 20
574.6754556760197
 30
0.0
 11
893.0936297894724
 21
567.6754556760197
 31
0.0
  0
LINE
  5
156B
330
1F
100
AcDbEntity
  8
実形
100
AcDbLine
 10
833.5936297894722
 20
753.6754556760197
 30
0.0
 11
833.5936297894722
 21
613.0510689351438
 31
0.0
  0
ARC
  5
156C
330
1F
100
AcDbEntity
  8
実形
100
AcDbCircle
 10
1453.593629789472
 20
618.5966742242015
 30
0.0
 40
30.0
100
AcDbArc
 50
272.0978085861942
 51
0.000000000000007
  0
LEADER
  5
156D
330
1F
100
AcDbEntity
  8
実形
100
AcDbLeader
  3
ISO-25
 40
25.0
 41
16.66666666666666
 76
     2
 10
1467.235979904004
 20
604.424765892053
 30
0.0
 10
1419.297481608954
 20
634.9069876565081
 30
0.0
210
0.0
220
0.0
230
-1.0
213
0.0
223
-12.5
233
0.0
1001
ACAD
1000
DSTYLE
1002
{
1070
    41
1040
25.0
1070
   147
1040
6.25
1070
    77
1070
     0
1070
    73
1070
     1
1070
    74
1070
     1
1070
   279
1070
     1
1070
   342
1005
DA
1002
}
  0
LINE
  5
156F
330
1F
100
AcDbEntity
  8
実形
100
AcDbLine
 10
1454.691794398893
 20
588.6167803869876
 30
0.0
 11
1074.093629789472
 21
574.6754556760197
 31
0.0
  0
LINE
  5
1570
330
1F
100
AcDbEntity
  8
実形
100
AcDbLine
 10
1074.093629789472
 20
567.6754556760197
 30
0.0
 11
1074.093629789472
 21
574.6754556760197
 31
0.0
  0
LINE
  5
1571
330
1F
100
AcDbEntity
  8
実形
100
AcDbLine
 10
1074.093629789472
 20
574.6754556760197
 30
0.0
 11
1074.093629789472
 21
574.6754556760197
 31
0.0
  0
LINE
  5
1572
330
1F
100
AcDbEntity
  8
実形
100
AcDbLine
 10
1063.593629789472
 20
574.6754556760197
 30
0.0
 11
1074.093629789472
 21
574.6754556760197
 31
0.0
  0
LINE
  5
1575
330
1F
100
AcDbEntity
  8
実形
100
AcDbLine
 10
1483.593629789472
 20
753.6754556760197
 30
0.0
 11
1483.593629789472
 21
618.5966742242015
 31
0.0
  0
TEXT
  5
1576
330
1F
100
AcDbEntity
  8
実形
100
AcDbText
 10
1336.593455563655
 20
633.9502346370795
 30
0.0
 40
25.0
  1
30R
100
AcDbText
  0
LINE
  5
17BC
330
1F
100
AcDbEntity
  8
実形
100
AcDbLine
 10
1728.593629789472
 20
763.6754556760197
 30
0.0
 11
1508.593629789472
 21
763.6754556760197
 31
0.0
  0
LINE
  5
17BD
330
1F
100
AcDbEntity
  8
実形
100
AcDbLine
 10
1508.593629789472
 20
763.6754556760197
 30
0.0
 11
1728.593629789472
 21
763.6754556760197
 31
0.0
  0
LINE
  5
17BE
330
1F
100
AcDbEntity
  8
実形
100
AcDbLine
 10
1508.593629789472
 20
763.6754556760197
 30
0.0
 11
1728.593629789472
 21
763.6754556760197
 31
0.0
  0
LINE
  5
1C45
330
1F
100
AcDbEntity
  8
実形
100
AcDbLine
 10
1745.593629789472
 20
753.6754556760197
 30
0.0
 11
801.5936297894722
 21
753.6754556760197
 31
0.0
  0
LINE
  5
1C46
330
1F
100
AcDbEntity
  8
実形
100
AcDbLine
 10
1753.593629789472
 20
768.6754556760197
 30
0.0
 11
793.5936297894722
 21
768.6754556760197
 31
0.0
  0
LINE
  5
1C47
330
1F
100
AcDbEntity
  8
実形
100
AcDbLine
 10
1758.593629789472
 20
763.6754556760197
 30
0.0
 11
788.5936297894723
 21
763.6754556760197
 31
0.0
  0
LINE
  5
1C48
330
1F
100
AcDbEntity
  8
実形
100
AcDbLine
 10
803.5936297894723
 20
763.6754556760197
 30
0.0
 11
1743.593629789472
 21
763.6754556760197
 31
0.0
  0
LINE
  5
1C49
330
1F
100
AcDbEntity
  8
実形
100
AcDbLine
 10
803.5936297894723
 20
763.6754556760197
 30
0.0
 11
1743.593629789472
 21
763.6754556760197
 31
0.0
  0
LINE
  5
1C4A
330
1F
100
AcDbEntity
  8
実形
100
AcDbLine
 10
801.5936297894722
 20
753.6754556760197
 30
0.0
 11
801.5936297894722
 21
763.6754556760197
 31
0.0
  0
LINE
  5
1C4B
330
1F
100
AcDbEntity
  8
実形
100
AcDbLine
 10
793.5936297894722
 20
768.6754556760197
 30
0.0
 11
788.5936297894723
 21
763.6754556760197
 31
0.0
  0
LINE
  5
1C4C
330
1F
100
AcDbEntity
  8
実形
100
AcDbLine
 10
1745.593629789472
 20
763.6754556760197
 30
0.0
 11
1745.593629789472
 21
753.6754556760197
 31
0.0
  0
LINE
  5
1C4D
330
1F
100
AcDbEntity
  8
実形
100
AcDbLine
 10
1753.593629789472
 20
768.6754556760197
 30
0.0
 11
1758.593629789472
 21
763.6754556760197
 31
0.0
  0
LINE
  5
1CC0
330
1F
100
AcDbEntity
  8
実形
100
AcDbLine
 10
2084.0
 20
2024.0
 30
0.0
 11
2784.0
 21
2024.0
 31
0.0
  0
LINE
  5
1CD0
330
1F
100
AcDbEntity
  8
実形
100
AcDbLine
 10
2784.0
 20
2024.0
 30
0.0
 11
2784.000000000001
 21
1829.0
 31
0.0
  0
LINE
  5
1CD1
330
1F
100
AcDbEntity
  8
実形
100
AcDbLine
 10
2784.0
 20
1829.0
 30
0.0
 11
2784.0
 21
2024.0
 31
0.0
  0
LINE
  5
1CD2
330
1F
100
AcDbEntity
  8
実形
100
AcDbLine
 10
2084.0
 20
69.0
 30
0.0
 11
2784.0
 21
69.0
 31
0.0
  0
LINE
  5
1CD3
330
1F
100
AcDbEntity
  8
実形
100
AcDbLine
 10
2084.0
 20
199.0
 30
0.0
 11
2784.0
 21
199.0
 31
0.0
  0
LINE
  5
1CD4
330
1F
100
AcDbEntity
  8
実形
100
AcDbLine
 10
2084.0
 20
134.0
 30
0.0
 11
2784.0
 21
134.0
 31
0.0
  0
LINE
  5
1CD5
330
1F
100
AcDbEntity
  8
実形
100
AcDbLine
 10
2084.0
 20
4.0
 30
0.0
 11
2084.0
 21
199.0
 31
0.0
  0
TEXT
  5
1CD6
330
1F
100
AcDbEntity
  8
実形
100
AcDbText
 10
2278.166666666667
 20
149.0
 30
0.0
 40
35.0
  1
HLm/m970-530K
 72
     4
 11
2494.0
 21
166.5
 31
0.0
100
AcDbText
  0
LINE
  5
1CD7
330
1F
100
AcDbEntity
  8
実形
100
AcDbLine
 10
2204.0
 20
69.0
 30
0.0
 11
2784.0
 21
69.0
 31
0.0
  0
TEXT
  5
1CD8
330
1F
100
AcDbEntity
  8
実形
100
AcDbText
 10
2320.255774665348
 20
16.49999999999999
 30
0.0
 40
40.0
  1
中外交易株式会社
 72
     4
 11
2508.255774665347
 21
36.5
 31
0.0
100
AcDbText
  0
HATCH
  5
1CD9
330
1F
100
AcDbEntity
  8
実形
100
AcDbHatch
 10
0.0
 20
0.0
 30
0.0
210
0.0
220
0.0
230
1.0
  2
SOLID
 70
     1
 71
     1
 91
        3
 92
        1
 93
        4
 72
     2
 10
2277.166198313995
 20
36.5
 40
20.0
 50
11.64772366707341
 51
342.6561058784738
 73
     1
 72
     1
 10
2296.256852341324
 20
30.53787547858519
 11
2272.166198313995
 21
30.53787547858519
 72
     1
 10
2272.166198313995
 20
30.53787547858519
 11
2272.166198313995
 21
40.53787547858519
 72
     1
 10
2272.166198313995
 20
40.53787547858519
 11
2296.75434681301
 21
40.53787547858519
 97
        4
330
1CE6
330
1CDE
330
1CDF
330
1CE0
 92
        1
 93
        4
 72
     2
 10
2208.255774665348
 20
36.5
 40
20.0
 50
11.64772366707341
 51
342.6561058784738
 73
     1
 72
     1
 10
2227.346428692676
 20
30.53787547858519
 11
2203.255774665347
 21
30.53787547858519
 72
     1
 10
2203.255774665347
 20
30.53787547858519
 11
2203.255774665347
 21
40.53787547858519
 72
     1
 10
2203.255774665347
 20
40.53787547858519
 11
2227.843923164362
 21
40.53787547858519
 97
        4
330
1CE7
330
1CE3
330
1CE4
330
1CE5
 92
        1
 93
        5
 72
     1
 10
2265.641894042939
 20
56.5
 11
2230.641894042939
 21
56.5
 72
     1
 10
2230.641894042939
 20
56.5
 11
2230.641894042939
 21
16.5
 72
     1
 10
2230.641894042939
 20
16.5
 11
2265.641894042939
 21
16.5
 72
     1
 10
2265.641894042939
 20
16.5
 11
2230.641894042939
 21
36.5
 72
     1
 10
2230.641894042939
 20
36.5
 11
2265.641894042939
 21
56.5
 97
        5
330
1CDD
330
1CE9
330
1CE2
330
1CE1
330
1CE8
 75
     0
 76
     1
 98
        1
 10
-40.0
 20
0.0
  0
TEXT
  5
1CDA
330
1F
100
AcDbEntity
  8
実形
100
AcDbText
 10
2106.666666666667
 20
149.0
 30
0.0
 40
35.0
  1
品番
 72
     4
 11
2144.0
 21
166.5
 31
0.0
100
AcDbText
  0
TEXT
  5
1CDB
330
1F
100
AcDbEntity
  8
実形
100
AcDbText
 10
2106.666666666667
 20
84.0
 30
0.0
 40
35.0
  1
尺度
 72
     4
 11
2144.0
 21
101.5
 31
0.0
100
AcDbText
  0
LINE
  5
1CDC
330
1F
100
AcDbEntity
  8
実形
100
AcDbLine
 10
2204.0
 20
69.0
 30
0.0
 11
2204.0
 21
199.0
 31
0.0
  0
LINE
  5
1CDD
102
{ACAD_REACTORS
330
1CD9
102
}
330
1F
100
AcDbEntity
  8
実形
370
     5
100
AcDbLine
 10
2265.641894042939
 20
56.5
 30
0.0
 11
2230.641894042939
 21
56.5
 31
0.0
  0
LINE
  5
1CDE
102
{ACAD_REACTORS
330
1CD9
102
}
330
1F
100
AcDbEntity
  8
実形
370
     5
100
AcDbLine
 10
2272.166198313995
 20
30.53787547858519
 30
0.0
 11
2296.256852341324
 21
30.53787547858519
 31
0.0
  0
LINE
  5
1CDF
102
{ACAD_REACTORS
330
1CD9
102
}
330
1F
100
AcDbEntity
  8
実形
370
     5
100
AcDbLine
 10
2272.166198313995
 20
40.53787547858519
 30
0.0
 11
2272.166198313995
 21
30.53787547858519
 31
0.0
  0
LINE
  5
1CE0
102
{ACAD_REACTORS
330
1CD9
102
}
330
1F
100
AcDbEntity
  8
実形
370
     5
100
AcDbLine
 10
2296.75434681301
 20
40.53787547858519
 30
0.0
 11
2272.166198313995
 21
40.53787547858519
 31
0.0
  0
LINE
  5
1CE1
102
{ACAD_REACTORS
330
1CD9
102
}
330
1F
100
AcDbEntity
  8
実形
370
     5
100
AcDbLine
 10
2265.641894042939
 20
16.5
 30
0.0
 11
2230.641894042939
 21
36.5
 31
0.0
  0
LINE
  5
1CE2
102
{ACAD_REACTORS
330
1CD9
102
}
330
1F
100
AcDbEntity
  8
実形
370
     5
100
AcDbLine
 10
2230.641894042939
 20
16.5
 30
0.0
 11
2265.641894042939
 21
16.5
 31
0.0
  0
LINE
  5
1CE3
102
{ACAD_REACTORS
330
1CD9
102
}
330
1F
100
AcDbEntity
  8
実形
370
     5
100
AcDbLine
 10
2203.255774665347
 20
30.53787547858519
 30
0.0
 11
2227.346428692676
 21
30.53787547858519
 31
0.0
  0
LINE
  5
1CE4
102
{ACAD_REACTORS
330
1CD9
102
}
330
1F
100
AcDbEntity
  8
実形
370
     5
100
AcDbLine
 10
2203.255774665347
 20
40.53787547858519
 30
0.0
 11
2203.255774665347
 21
30.53787547858519
 31
0.0
  0
LINE
  5
1CE5
102
{ACAD_REACTORS
330
1CD9
102
}
330
1F
100
AcDbEntity
  8
実形
370
     5
100
AcDbLine
 10
2227.843923164362
 20
40.53787547858519
 30
0.0
 11
2203.255774665347
 21
40.53787547858519
 31
0.0
  0
ARC
  5
1CE6
102
{ACAD_REACTORS
330
1CD9
102
}
330
1F
100
AcDbEntity
  8
実形
370
     5
100
AcDbCircle
 10
2277.166198313995
 20
36.5
 30
0.0
 40
20.0
100
AcDbArc
 50
11.64772366707341
 51
342.6561058784738
  0
ARC
  5
1CE7
102
{ACAD_REACTORS
330
1CD9
102
}
330
1F
100
AcDbEntity
  8
実形
370
     5
100
AcDbCircle
 10
2208.255774665348
 20
36.5
 30
0.0
 40
20.0
100
AcDbArc
 50
11.64772366707341
 51
342.6561058784738
  0
LINE
  5
1CE8
102
{ACAD_REACTORS
330
1CD9
102
}
330
1F
100
AcDbEntity
  8
実形
370
     5
100
AcDbLine
 10
2230.641894042939
 20
36.5
 30
0.0
 11
2265.641894042939
 21
56.5
 31
0.0
  0
LINE
  5
1CE9
102
{ACAD_REACTORS
330
1CD9
102
}
330
1F
100
AcDbEntity
  8
実形
370
     5
100
AcDbLine
 10
2230.641894042939
 20
56.5
 30
0.0
 11
2230.641894042939
 21
16.5
 31
0.0
  0
TEXT
  5
1CEA
330
1F
100
AcDbEntity
  8
実形
100
AcDbText
 10
2440.916666666666
 20
84.0
 30
0.0
 40
35.0
  1
1：10
 72
     4
 11
2494.0
 21
101.5
 31
0.0
100
AcDbText
  0
LINE
  5
1CEB
330
1F
100
AcDbEntity
  8
実形
100
AcDbLine
 10
2784.0
 20
69.0
 30
0.0
 11
2784.0
 21
134.0
 31
0.0
  0
LINE
  5
1CEC
330
1F
100
AcDbEntity
  8
実形
100
AcDbLine
 10
2784.0
 20
134.0
 30
0.0
 11
2784.0
 21
199.0
 31
0.0
  0
LINE
  5
1CED
330
1F
100
AcDbEntity
  8
実形
100
AcDbLine
 10
2784.0
 20
4.0
 30
0.0
 11
2784.0
 21
69.0
 31
0.0
  0
DIMENSION
  5
1D18
330
1F
100
AcDbEntity
  8
実形
100
AcDbDimension
  2
*D17
 10
1740.593629789472
 20
1052.290944394732
 30
0.0
 11
1612.093629789472
 21
1071.040944394732
 31
0.0
 70
    32
 71
     5
 42
256.9999999999998
  3
ISO-25
100
AcDbAlignedDimension
 13
1483.593629789472
 23
1163.67545567602
 33
0.0
 14
1740.593629789472
 24
1163.678331949444
 34
0.0
100
AcDbRotatedDimension
1001
ACAD
1000
DSTYLE
1002
{
1070
   279
1070
     1
1070
   371
1070
    18
1070
   372
1070
    18
1002
}
  0
ARC
  5
1E60
330
1F
100
AcDbEntity
  8
実形
100
AcDbCircle
 10
836.5936297894725
 20
1645.678331949445
 30
0.0
 40
30.0
100
AcDbArc
 50
90.0
 51
180.0
  0
ARC
  5
1E63
330
1F
100
AcDbEntity
  8
実形
100
AcDbCircle
 10
836.5936297894723
 20
1211.678331949444
 30
0.0
 40
30.0
100
AcDbArc
 50
180.0
 51
270.0
  0
ARC
  5
1E64
330
1F
100
AcDbEntity
  8
実形
100
AcDbCircle
 10
1710.593629789472
 20
1211.678331949445
 30
0.0
 40
30.0
100
AcDbArc
 50
270.0
 51
0.0
  0
ARC
  5
1E65
330
1F
100
AcDbEntity
  8
実形
100
AcDbCircle
 10
1710.593629789472
 20
1645.678331949444
 30
0.0
 40
30.0
100
AcDbArc
 50
0.0
 51
89.99999999999998
  0
ARC
  5
1E66
330
1F
100
AcDbEntity
  8
実形
100
AcDbCircle
 10
1710.593629789472
 20
1645.678331949445
 30
0.0
 40
35.0
100
AcDbArc
 50
0.0
 51
90.0
  0
ARC
  5
1E67
330
1F
100
AcDbEntity
  8
実形
100
AcDbCircle
 10
1710.593629789472
 20
1211.678331949444
 30
0.0
 40
35.0
100
AcDbArc
 50
270.0
 51
0.0
  0
ARC
  5
1E68
330
1F
100
AcDbEntity
  8
実形
100
AcDbCircle
 10
836.5936297894723
 20
1211.678331949444
 30
0.0
 40
35.0
100
AcDbArc
 50
180.0
 51
270.0
  0
ARC
  5
1E69
330
1F
100
AcDbEntity
  8
実形
100
AcDbCircle
 10
836.5936297894723
 20
1645.678331949444
 30
0.0
 40
35.0
100
AcDbArc
 50
90.00000000000003
 51
180.0
  0
DIMENSION
  5
1E6A
330
1F
100
AcDbEntity
  8
実形
100
AcDbDimension
  2
*D18
 10
983.5936297894722
 20
1814.186180018119
 30
0.0
 11
886.0936297894722
 21
1832.936180018119
 31
0.0
 70
    32
 71
     5
 42
195.0
  3
ISO-25
100
AcDbAlignedDimension
 13
788.5936297894723
 23
1693.67545567602
 33
0.0
 14
983.5936297894722
 24
1519.17545567602
 34
0.0
100
AcDbRotatedDimension
1001
ACAD
1000
DSTYLE
1002
{
1070
   371
1070
    18
1070
   372
1070
    18
1002
}
  0
DIMENSION
  5
1E77
330
1F
100
AcDbEntity
  8
実形
100
AcDbDimension
  2
*D19
 10
1881.42605842113
 20
1428.675455676019
 30
0.0
 11
1862.676058421129
 21
1296.17545567602
 31
0.0
 70
    32
 71
     5
 42
265.0
  3
ISO-25
100
AcDbAlignedDimension
 13
1758.593629789472
 23
1163.67545567602
 33
0.0
 14
1758.593629789472
 24
1428.675455676019
 34
0.0
 50
90.0
100
AcDbRotatedDimension
1001
ACAD
1000
DSTYLE
1002
{
1070
   371
1070
    18
1070
   372
1070
    18
1002
}
  0
TEXT
  5
1F21
330
1F
100
AcDbEntity
  8
実形
 62
     0
370
    18
100
AcDbText
 10
693.0543001946348
 20
578.9426867857982
 30
0.0
 40
25.0
  1
15
 50
90.0
100
AcDbText
  0
LINE
  5
1F22
330
1F
100
AcDbEntity
  8
実形
100
AcDbLine
 10
793.5936297894722
 20
768.6754556760197
 30
0.0
 11
788.5936297894723
 21
763.6754556760197
 31
0.0
  0
LINE
  5
1F23
330
1F
100
AcDbEntity
  8
実形
 62
     0
100
AcDbLine
 10
712.5159412358371
 20
768.6754556760198
 30
0.0
 11
578.6776341361203
 21
768.6754556760198
 31
0.0
  0
LINE
  5
1F24
330
1F
100
AcDbEntity
  8
実形
 62
     0
100
AcDbLine
 10
712.5159412358369
 20
764.6754556760197
 30
0.0
 11
645.5159412358369
 21
764.67545567602
 31
0.0
  0
LINE
  5
1F25
330
1F
100
AcDbEntity
  8
実形
 62
     0
100
AcDbLine
 10
712.5159412358369
 20
761.1754556760197
 30
0.0
 11
645.5159412358369
 21
761.17545567602
 31
0.0
  0
LINE
  5
1F26
330
1F
100
AcDbEntity
  8
実形
 62
     0
100
AcDbLine
 10
712.5159412358372
 20
567.6754556760198
 30
0.0
 11
578.6776341361201
 21
567.6754556760197
 31
0.0
  0
LINE
  5
1F27
330
1F
100
AcDbEntity
  8
実形
 62
     0
100
AcDbLine
 10
765.720172107005
 20
574.6754556760197
 30
0.0
 11
645.5159412358373
 21
574.6754556760197
 31
0.0
  0
LINE
  5
1F28
330
1F
100
AcDbEntity
  8
実形
 62
     0
100
AcDbLine
 10
765.720172107005
 20
589.6754556760196
 30
0.0
 11
712.5159412358372
 21
589.6754556760194
 31
0.0
  0
LINE
  5
1F29
330
1F
100
AcDbEntity
  8
実形
 62
     0
100
AcDbLine
 10
578.6776341361202
 20
768.6754556760198
 30
0.0
 11
578.6776341361201
 21
567.6754556760197
 31
0.0
  0
TEXT
  5
1F2A
330
1F
100
AcDbEntity
  8
実形
 62
     0
370
    18
100
AcDbText
 10
565.8409430566966
 20
645.7388285546335
 30
0.0
 40
25.0
  1
201
 50
90.0
100
AcDbText
  0
TEXT
  5
1F2B
330
1F
100
AcDbEntity
  8
実形
 62
     0
370
    18
100
AcDbText
 10
632.8425844230442
 20
638.6691306477983
 30
0.0
 40
25.0
  1
190
 50
90.0
100
AcDbText
  0
LINE
  5
1F2C
330
1F
100
AcDbEntity
  8
実形
 62
     0
100
AcDbLine
 10
645.5159412358369
 20
768.6754556760198
 30
0.0
 11
645.5159412358372
 21
567.6754556760198
 31
0.0
  0
LINE
  5
1F2D
330
1F
100
AcDbEntity
  8
実形
 62
     0
100
AcDbLine
 10
712.5159412358372
 20
589.6754556760193
 30
0.0
 11
712.5159412358372
 21
574.6754556760197
 31
0.0
  0
TEXT
  5
1F2E
330
1F
100
AcDbEntity
  8
実形
 62
     0
370
    18
100
AcDbText
 10
577.4099240643045
 20
566.6482496510261
 30
0.0
 40
3.0
  1
●
100
AcDbText
  0
TEXT
  5
1F2F
330
1F
100
AcDbEntity
  8
実形
 62
     0
370
    18
100
AcDbText
 10
577.2027214005247
 20
767.1044120523101
 30
0.0
 40
3.0
  1
●
100
AcDbText
  0
TEXT
  5
1F30
330
1F
100
AcDbEntity
  8
実形
 62
     0
370
    18
100
AcDbText
 10
642.3893371302906
 20
540.2747226495876
 30
0.0
 40
25.0
  1
7
 50
90.0
100
AcDbText
  0
TEXT
  5
1F31
330
1F
100
AcDbEntity
  8
実形
 62
     0
370
    18
100
AcDbText
 10
632.9699938966114
 20
730.6027560095972
 30
0.0
 40
25.0
  1
1
 50
90.0
100
AcDbText
  0
TEXT
  5
1F32
330
1F
100
AcDbEntity
  8
実形
 62
     0
370
    18
100
AcDbText
 10
634.8284049905887
 20
785.134945494663
 30
0.0
 40
25.0
  1
3
 50
90.0
100
AcDbText
  0
TEXT
  5
1F33
330
1F
100
AcDbEntity
  8
実形
 62
     0
370
    18
100
AcDbText
 10
644.1966684929503
 20
767.1073192805924
 30
0.0
 40
3.0
  1
●
100
AcDbText
  0
TEXT
  5
1F34
330
1F
100
AcDbEntity
  8
実形
 62
     0
370
    18
100
AcDbText
 10
644.1966684929503
 20
763.1036679623293
 30
0.0
 40
3.0
  1
●
100
AcDbText
  0
TEXT
  5
1F35
330
1F
100
AcDbEntity
  8
実形
 62
     0
370
    18
100
AcDbText
 10
644.1314774595139
 20
759.5750213207574
 30
0.0
 40
3.0
  1
●
100
AcDbText
  0
TEXT
  5
1F36
330
1F
100
AcDbEntity
  8
実形
 62
     0
370
    18
100
AcDbText
 10
644.0565371116154
 20
573.2158334833321
 30
0.0
 40
3.0
  1
●
100
AcDbText
  0
TEXT
  5
1F37
330
1F
100
AcDbEntity
  8
実形
 62
     0
370
    18
100
AcDbText
 10
644.0565371116154
 20
566.1345808617689
 30
0.0
 40
3.0
  1
●
100
AcDbText
  0
TEXT
  5
1F38
330
1F
100
AcDbEntity
  8
実形
 62
     0
370
    18
100
AcDbText
 10
711.1615802108481
 20
573.3875758018966
 30
0.0
 40
3.0
  1
●
100
AcDbText
  0
TEXT
  5
1F39
330
1F
100
AcDbEntity
  8
実形
 62
     0
370
    18
100
AcDbText
 10
711.0278011290374
 20
588.3646850607219
 30
0.0
 40
3.0
  1
●
100
AcDbText
  0
LINE
  5
1F4C
330
1F
100
AcDbEntity
  8
実形
100
AcDbLine
 10
893.0936297894723
 20
567.6754556760197
 30
0.0
 11
1074.093629789472
 21
567.6754556760197
 31
0.0
  0
LINE
  5
2066
330
1F
100
AcDbEntity
  8
補助
100
AcDbLine
 10
2784.0
 20
1829.0
 30
0.0
 11
2019.387286519283
 21
1829.0
 31
0.0
  0
LINE
  5
2067
330
1F
100
AcDbEntity
  8
補助
100
AcDbLine
 10
2784.0
 20
1959.0
 30
0.0
 11
2019.387286519283
 21
1959.0
 31
0.0
  0
LINE
  5
2068
330
1F
100
AcDbEntity
  8
補助
100
AcDbLine
 10
2784.0
 20
1894.0
 30
0.0
 11
2019.387286519282
 21
1894.0
 31
0.0
  0
LINE
  5
2069
330
1F
100
AcDbEntity
  8
補助
100
AcDbLine
 10
2202.547653420927
 20
1829.0
 30
0.0
 11
2202.547653420927
 21
2024.0
 31
0.0
  0
LINE
  5
206A
330
1F
100
AcDbEntity
  8
補助
100
AcDbLine
 10
2019.387286519282
 20
1829.0
 30
0.0
 11
2019.387286519283
 21
2024.0
 31
0.0
  0
TEXT
  5
206B
330
1F
100
AcDbEntity
  8
実形
100
AcDbText
 10
2048.227810657787
 20
1845.557142857143
 30
0.0
 40
30.0
  1
ボウル
  7
明朝
 72
     4
 11
2114.056382086358
 21
1861.5
 31
0.0
100
AcDbText
  0
TEXT
  5
206C
330
1F
100
AcDbEntity
  8
補助
100
AcDbText
 10
2050.295698850121
 20
1976.328571428572
 30
0.0
 40
30.0
  1
部品名
  7
明朝
 72
     4
 11
2116.124270278692
 21
1991.5
 31
0.0
100
AcDbText
  0
TEXT
  5
206D
330
1F
100
AcDbEntity
  8
実形
100
AcDbText
 10
2050.295698850121
 20
1911.242857142857
 30
0.0
 40
30.0
  1
天板
  7
明朝
 72
     4
 11
2094.181413135835
 21
1926.5
 31
0.0
100
AcDbText
  0
TEXT
  5
206E
330
1F
100
AcDbEntity
  8
実形
100
AcDbText
 10
2594.7
 20
1846.842857142857
 30
0.0
 40
30.0
  1
0.7ｍｍ
  7
明朝
 72
     4
 11
2671.5
 21
1861.5
 31
0.0
100
AcDbText
  0
TEXT
  5
206F
330
1F
100
AcDbEntity
  8
実形
100
AcDbText
 10
2594.7
 20
1911.842857142857
 30
0.0
 40
30.0
  1
1.0ｍｍ
  7
明朝
 72
     4
 11
2671.5
 21
1926.5
 31
0.0
100
AcDbText
  0
TEXT
  5
2070
330
1F
100
AcDbEntity
  8
補助
100
AcDbText
 10
2627.614285714286
 20
1976.071428571429
 30
0.0
 40
30.0
  1
厚さ
  7
明朝
 72
     4
 11
2671.5
 21
1991.5
 31
0.0
100
AcDbText
  0
LINE
  5
2071
330
1F
100
AcDbEntity
  8
補助
100
AcDbLine
 10
2559.0
 20
1829.0
 30
0.0
 11
2559.0
 21
2024.0
 31
0.0
  0
TEXT
  5
2072
330
1F
100
AcDbEntity
  8
実形
100
AcDbText
 10
2261.016869107865
 20
1845.728571428571
 30
0.0
 40
30.0
  1
SUS304（BA）
  7
明朝
 72
     4
 11
2392.674011965008
 21
1861.5
 31
0.0
100
AcDbText
  0
TEXT
  5
2073
330
1F
100
AcDbEntity
  8
実形
100
AcDbText
 10
2261.378133626422
 20
1910.728571428572
 30
0.0
 40
30.0
  1
SUS304（H/L）
  7
明朝
 72
     4
 11
2404.006705054993
 21
1926.5
 31
0.0
100
AcDbText
  0
TEXT
  5
2074
330
1F
100
AcDbEntity
  8
補助
100
AcDbText
 10
2338.490869919937
 20
1975.947979478155
 30
0.0
 40
30.0
  1
材質
  7
明朝
 72
     4
 11
2382.376584205651
 21
1991.119408049583
 31
0.0
100
AcDbText
  0
LINE
  5
2075
330
1F
100
AcDbEntity
  8
実形
100
AcDbLine
 10
111.0
 20
2024.0
 30
0.0
 11
111.0
 21
4.0
 31
0.0
  0
VIEWPORT
  5
2E
102
{ACAD_XDICTIONARY
360
2094
102
}
330
1B
100
AcDbEntity
 67
     1
  8
0
100
AcDbViewport
 10
144.7270812988281
 20
101.2295806407928
 30
0.0
 40
411.6736216682419
 41
222.1517806396485
 68
     1
 69
     1
 12
144.7270812988281
 22
101.2295806407928
 13
0.0
 23
0.0
 14
10.0
 24
10.0
 15
10.0
 25
10.0
 16
0.0
 26
0.0
 36
1.0
 17
0.0
 27
0.0
 37
0.0
 42
50.0
 43
0.0
 44
0.0
 45
222.1517806396485
 50
0.0
 51
0.0
 72
   100
 90
    32800
  1

281
     0
 71
     1
 74
     0
110
0.0
120
0.0
130
0.0
111
1.0
121
0.0
131
0.0
112
0.0
122
1.0
132
0.0
 79
     0
146
0.0
  0
VIEWPORT
  5
30
102
{ACAD_XDICTIONARY
360
2096
102
}
330
1B
100
AcDbEntity
 67
     1
  8
0
100
AcDbViewport
 10
139.2237563133239
 20
101.2295821905136
 30
0.0
 40
222.7580101013184
 41
161.9673315048218
 68
     2
 69
     2
 12
210.0
 22
148.5
 13
0.0
 23
0.0
 14
10.0
 24
10.0
 15
10.0
 25
10.0
 16
0.0
 26
0.0
 36
1.0
 17
0.0
 27
0.0
 37
0.0
 42
50.0
 43
0.0
 44
0.0
 45
309.0686705647124
 50
0.0
 51
0.0
 72
   100
 90
    32864
  1

281
     0
 71
     1
 74
     0
110
0.0
120
0.0
130
0.0
111
1.0
121
0.0
131
0.0
112
0.0
122
1.0
132
0.0
 79
     0
146
0.0
  0
ENDSEC
  0
SECTION
  2
OBJECTS
  0
DICTIONARY
  5
C
330
0
100
AcDbDictionary
281
     1
  3
ACAD_COLOR
350
1D03
  3
ACAD_GROUP
350
D
  3
ACAD_LAYOUT
350
1A
  3
ACAD_MATERIAL
350
1D02
  3
ACAD_MLINESTYLE
350
17
  3
ACAD_PLOTSETTINGS
350
19
  3
ACAD_PLOTSTYLENAME
350
E
  3
ACAD_TABLESTYLE
350
1D04
  3
AcadDim
350
124
  3
ACDBHEADERROUNDTRIPXREC
350
208D
  3
AcDbVariableDictionary
350
1055
  0
DICTIONARY
  5
1FBA
330
2
100
AcDbDictionary
280
     1
281
     1
  3
ACAD_LAYERFILTERS
360
1FBC
  3
ACAD_LAYERSTATES
360
204F
  3
ACLYDICTIONARY
360
1FBB
  0
DICTIONARY
  5
1E61
330
1F
100
AcDbDictionary
280
     1
281
     1
  3
ACAD_SORTENTS
360
1E62
  0
DICTIONARY
  5
2094
330
2E
100
AcDbDictionary
280
     1
281
     1
  3
ACAD_XREC_ROUNDTRIP
360
2095
  0
DICTIONARY
  5
2096
330
30
100
AcDbDictionary
280
     1
281
     1
  3
ACAD_XREC_ROUNDTRIP
360
2097
  0
DICTIONARY
  5
1D03
102
{ACAD_REACTORS
330
C
102
}
330
C
100
AcDbDictionary
281
     1
  0
DICTIONARY
  5
D
102
{ACAD_REACTORS
330
C
102
}
330
C
100
AcDbDictionary
281
     1
  0
DICTIONARY
  5
1A
102
{ACAD_REACTORS
330
C
102
}
330
C
100
AcDbDictionary
281
     1
  3
Model
350
22
  3
ﾚｲｱｳﾄ1
350
1E
  3
ﾚｲｱｳﾄ2
350
26
  0
DICTIONARY
  5
1D02
102
{ACAD_REACTORS
330
C
102
}
330
C
100
AcDbDictionary
281
     1
  0
DICTIONARY
  5
17
102
{ACAD_REACTORS
330
C
102
}
330
C
100
AcDbDictionary
281
     1
  3
Standard
350
18
  0
DICTIONARY
  5
19
102
{ACAD_REACTORS
330
C
102
}
330
C
100
AcDbDictionary
281
     1
  0
ACDBDICTIONARYWDFLT
  5
E
102
{ACAD_REACTORS
330
C
102
}
330
C
100
AcDbDictionary
281
     1
  3
Normal
350
F
100
AcDbDictionaryWithDefault
340
F
  0
DICTIONARY
  5
1D04
102
{ACAD_REACTORS
330
C
102
}
330
C
100
AcDbDictionary
281
     1
  3
Standard
350
1D05
  0
XRECORD
  5
124
102
{ACAD_REACTORS
330
C
102
}
330
C
100
AcDbXrecord
280
     1
 90
   990106
  3

 60
     0
 61
     0
 62
     1
 63
     3
 64
     0
 65
     0
 66
     0
 67
     3
 68
     1
 69
     0
 70
     0
 71
     0
 72
     0
 40
30.0
170
     0
  0
DICTIONARY
  5
208D
102
{ACAD_REACTORS
330
C
102
}
330
C
100
AcDbDictionary
281
     1
  0
DICTIONARY
  5
1055
102
{ACAD_REACTORS
330
C
102
}
330
C
100
AcDbDictionary
281
     1
  3
CTABLESTYLE
350
1E85
  3
DIMASSOC
350
208A
  3
PROJECTNAME
350
208B
  3
SORTENTS
350
1056
  0
DICTIONARY
  5
1FBC
102
{ACAD_REACTORS
330
1FBA
102
}
330
1FBA
100
AcDbDictionary
281
     1
  0
DICTIONARY
  5
204F
102
{ACAD_REACTORS
330
1FBA
102
}
330
1FBA
100
AcDbDictionary
281
     1
  0
DICTIONARY
  5
1FBB
102
{ACAD_REACTORS
330
1FBA
102
}
330
1FBA
100
AcDbDictionary
281
     1
1001
ACAD
1000
<All
  0
SORTENTSTABLE
  5
1E62
102
{ACAD_REACTORS
330
1E61
102
}
330
1E61
100
AcDbSortentsTable
330
1F
331
1CD4
  5
1CDE
331
1CDC
  5
1CE6
331
154E
  5
1564
331
1CE4
  5
1D18
331
17BD
  5
1C4D
331
1CEC
  5
1E69
331
155E
  5
1569
331
12A2
  5
12E0
331
1C45
  5
1CC1
331
14AF
  5
14B8
331
1566
  5
1570
331
1C4D
  5
1CC9
331
14B7
  5
14BF
331
1F23
  5
1F25
331
14BF
  5
1550
331
1576
  5
1C4B
331
1F2B
  5
1F2D
331
2068
  5
2069
331
1F33
  5
1F35
331
1E64
  5
14A9
331
12FA
  5
1307
331
1CD5
  5
1CDF
331
1547
  5
1554
331
2070
  5
2071
331
1CDD
  5
1CE7
331
1CE5
  5
1E60
331
17BE
  5
1CC0
331
1CED
  5
1E6A
331
1391
  5
13C9
331
1C46
  5
1CC2
331
14B0
  5
14BA
331
1567
  5
1571
331
13C9
  5
1472
331
14B8
  5
14C2
331
156F
  5
17BE
331
1F24
  5
1F26
331
1F2C
  5
1F2E
331
2069
  5
206A
331
1F34
  5
1F36
331
1E65
  5
14BC
331
1CD6
  5
1CE0
331
1548
  5
1559
331
2071
  5
2072
331
1CDE
  5
1CE8
331
1382
  5
1391
331
1550
  5
1565
331
1F4C
  5
156F
331
1CE6
  5
1E63
331
14A9
  5
14AD
331
1C47
  5
1CC3
331
14B1
  5
14BB
331
1568
  5
1572
331
1570
  5
1C45
331
1F25
  5
1F27
331
1F2D
  5
1F2F
331
206A
  5
206B
331
1F35
  5
1F37
331
1E66
  5
14AC
331
9C
  5
9C
331
1472
  5
14A3
331
1CD7
  5
1CE1
331
1549
  5
155E
331
2072
  5
2073
331
1CDF
  5
1CE9
331
1CE7
  5
1E64
331
1559
  5
1568
331
14AA
  5
14AE
331
1561
  5
156A
331
1C48
  5
1CC4
331
1569
  5
1573
331
14BA
  5
1547
331
1571
  5
1C48
331
1F26
  5
1F28
331
1CC0
  5
1CD9
331
12ED
  5
12FA
331
14C2
  5
1552
331
1F2E
  5
1F30
331
206B
  5
206C
331
1F36
  5
1F38
331
1E67
  5
14AB
331
A5
  5
8C9
331
1CD0
  5
1CDA
331
2073
  5
2074
331
154A
  5
1561
331
1CD8
  5
1CE2
331
1E77
  5
1F22
331
14A3
  5
14A4
331
1552
  5
1566
331
1CE0
  5
1CEA
331
1CE8
  5
1E65
331
14AB
  5
14AF
331
1562
  5
156B
331
1D18
  5
1E77
331
1C49
  5
1CC5
331
156A
  5
1574
331
14B3
  5
14BD
331
1F27
  5
1F29
331
1572
  5
1C49
331
14BB
  5
1549
331
1F2F
  5
1F31
331
1E60
  5
154D
331
206C
  5
206D
331
1F37
  5
1F39
331
1E68
  5
1548
331
1CD1
  5
1CDB
331
2074
  5
2075
331
1CD9
  5
1CE3
331
154B
  5
1562
331
1CE1
  5
1CEB
331
14A4
  5
14A5
331
1CE9
  5
1E66
331
14AC
  5
14B0
331
1563
  5
156D
331
1C4A
  5
1CC6
331
156B
  5
1575
331
14B4
  5
14BE
331
14BC
  5
154A
331
1F28
  5
1F2A
331
1F30
  5
1F32
331
206D
  5
206E
331
1E69
  5
14B7
331
1CD2
  5
1CDC
331
134E
  5
1382
331
1F38
  5
1F4C
331
1CDA
  5
1CE4
331
1307
  5
132F
331
2075
  5
A0
331
1CE2
  5
1CEC
331
14A5
  5
14A6
331
1554
  5
1567
331
1CEA
  5
1E67
331
14AD
  5
14B3
331
1C4B
  5
1CC7
331
156C
  5
17BC
331
12E0
  5
12ED
331
132F
  5
134E
331
1F21
  5
1F23
331
14BD
  5
154B
331
1F29
  5
1F2B
331
2066
  5
2067
331
1F31
  5
1F33
331
206E
  5
206F
331
A0
  5
A5
331
1F39
  5
2066
331
1CD3
  5
1CDD
331
1E6A
  5
1F21
331
1CDB
  5
1CE5
331
8C9
  5
12A2
331
154D
  5
1563
331
1CE3
  5
1CED
331
14A6
  5
14AA
331
17BC
  5
1C4C
331
1CEB
  5
1E68
331
14AE
  5
14B4
331
1565
  5
156E
331
1C4C
  5
1CC8
331
156D
  5
17BD
331
1F22
  5
1F24
331
1575
  5
1C4A
331
14BE
  5
154E
331
1F2A
  5
1F2C
331
2067
  5
2068
331
1F32
  5
1F34
331
1E63
  5
14B1
331
206F
  5
2070
  0
XRECORD
  5
2095
102
{ACAD_REACTORS
330
2094
102
}
330
2094
100
AcDbXrecord
280
     1
102
SHADEPLOT
 70
     0
  0
XRECORD
  5
2097
102
{ACAD_REACTORS
330
2096
102
}
330
2096
100
AcDbXrecord
280
     1
102
SHADEPLOT
 70
     0
  0
LAYOUT
  5
22
102
{ACAD_XDICTIONARY
360
2090
102
}
102
{ACAD_REACTORS
330
1A
102
}
330
1A
100
AcDbPlotSettings
  1

  2
EPSON PM-800C
  4
A4
  6

 40
3.757083177566528
 41
14.7637300491333
 42
3.757080078125
 43
3.757080078125
 44
209.9733276367187
 45
296.9683227539062
 46
0.0
 47
0.0
 48
0.0
 49
0.0
140
0.0
141
0.0
142
1.0
143
10.0
 70
 11952
 72
     1
 73
     1
 74
     2
  7

 75
    20
147
0.1
148
0.0
149
0.0
100
AcDbLayout
  1
Model
 70
     1
 71
     0
 10
0.0
 20
0.0
 11
12.0
 21
9.0
 12
0.0
 22
0.0
 32
0.0
 14
0.0
 24
0.0
 34
0.0
 15
0.0
 25
0.0
 35
0.0
146
0.0
 13
0.0
 23
0.0
 33
0.0
 16
1.0
 26
0.0
 36
0.0
 17
0.0
 27
1.0
 37
0.0
 76
     0
330
1F
  0
LAYOUT
  5
1E
102
{ACAD_XDICTIONARY
360
208E
102
}
102
{ACAD_REACTORS
330
1A
102
}
330
1A
100
AcDbPlotSettings
  1

  2
EPSON PM-800C
  4
A4
  6

 40
3.757083177566528
 41
14.7637300491333
 42
3.757080078125
 43
3.757080078125
 44
209.9733276367187
 45
296.9683227539062
 46
0.0
 47
0.0
 48
0.0
 49
0.0
140
0.0
141
0.0
142
1.0
143
1.0
 70
   688
 72
     1
 73
     1
 74
     5
  7

 75
    16
147
1.0
148
0.0
149
0.0
100
AcDbLayout
  1
ﾚｲｱｳﾄ1
 70
     1
 71
     1
 10
-3.757080078125
 20
-3.757083177566528
 11
293.2112426757813
 21
206.2162444591522
 12
0.0
 22
0.0
 32
0.0
 14
27.8447512626648
 24
20.24591643810271
 34
0.0
 15
250.6027613639831
 25
182.2132479429245
 35
0.0
146
0.0
 13
0.0
 23
0.0
 33
0.0
 16
1.0
 26
0.0
 36
0.0
 17
0.0
 27
1.0
 37
0.0
 76
     0
330
1B
331
2E
  0
LAYOUT
  5
26
102
{ACAD_XDICTIONARY
360
2092
102
}
102
{ACAD_REACTORS
330
1A
102
}
330
1A
100
AcDbPlotSettings
  1

  2
EPSON PM-800C
  4

  6

 40
0.0
 41
0.0
 42
0.0
 43
0.0
 44
0.0
 45
0.0
 46
0.0
 47
0.0
 48
0.0
 49
0.0
140
0.0
141
0.0
142
1.0
143
1.0
 70
   688
 72
     0
 73
     0
 74
     5
  7

 75
    16
147
1.0
148
0.0
149
0.0
100
AcDbLayout
  1
ﾚｲｱｳﾄ2
 70
     1
 71
     2
 10
0.0
 20
0.0
 11
12.0
 21
9.0
 12
0.0
 22
0.0
 32
0.0
 14
0.0
 24
0.0
 34
0.0
 15
0.0
 25
0.0
 35
0.0
146
0.0
 13
0.0
 23
0.0
 33
0.0
 16
1.0
 26
0.0
 36
0.0
 17
0.0
 27
1.0
 37
0.0
 76
     0
330
23
  0
MLINESTYLE
  5
18
102
{ACAD_REACTORS
330
17
102
}
330
17
100
AcDbMlineStyle
  2
STANDARD
 70
     0
  3

 62
   256
 51
90.0
 52
90.0
 71
     2
 49
0.5
 62
   256
  6
BYLAYER
 49
-0.5
 62
   256
  6
BYLAYER
  0
ACDBPLACEHOLDER
  5
F
102
{ACAD_REACTORS
330
E
102
}
330
E
  0
TABLESTYLE
  5
1D05
102
{ACAD_REACTORS
330
1D04
102
}
330
1D04
100
AcDbTableStyle
  3
Standard
 70
     0
 71
     0
 40
1.5
 41
1.5
280
     0
281
     0
  7
Standard
140
4.5
170
     2
 62
     0
 63
     7
283
     0
274
    -2
284
     1
 64
     0
275
    -2
285
     1
 65
     0
276
    -2
286
     1
 66
     0
277
    -2
287
     1
 67
     0
278
    -2
288
     1
 68
     0
279
    -2
289
     1
 69
     0
  7
Standard
140
6.0
170
     5
 62
     0
 63
     7
283
     0
274
    -2
284
     1
 64
     0
275
    -2
285
     1
 65
     0
276
    -2
286
     1
 66
     0
277
    -2
287
     1
 67
     0
278
    -2
288
     1
 68
     0
279
    -2
289
     1
 69
     0
  7
Standard
140
4.5
170
     5
 62
     0
 63
     7
283
     0
274
    -2
284
     1
 64
     0
275
    -2
285
     1
 65
     0
276
    -2
286
     1
 66
     0
277
    -2
287
     1
 67
     0
278
    -2
288
     1
 68
     0
279
    -2
289
     1
 69
     0
  0
DICTIONARYVAR
  5
1E85
102
{ACAD_REACTORS
330
1055
102
}
330
1055
100
DictionaryVariables
280
     0
  1
STANDARD
  0
DICTIONARYVAR
  5
208A
102
{ACAD_REACTORS
330
1055
102
}
330
1055
100
DictionaryVariables
280
     0
  1
1
  0
DICTIONARYVAR
  5
208B
102
{ACAD_REACTORS
330
1055
102
}
330
1055
100
DictionaryVariables
280
     0
  1

  0
DICTIONARYVAR
  5
1056
102
{ACAD_REACTORS
330
1055
102
}
330
1055
100
DictionaryVariables
280
     0
  1
96
  0
DICTIONARY
  5
2090
330
22
100
AcDbDictionary
280
     1
281
     1
  3
ACAD_XREC_ROUNDTRIP
360
2091
  0
DICTIONARY
  5
208E
330
1E
100
AcDbDictionary
280
     1
281
     1
  3
ACAD_XREC_ROUNDTRIP
360
208F
  0
DICTIONARY
  5
2092
330
26
100
AcDbDictionary
280
     1
281
     1
  3
ACAD_XREC_ROUNDTRIP
360
2093
  0
XRECORD
  5
2091
102
{ACAD_REACTORS
330
2090
102
}
330
2090
100
AcDbXrecord
280
     1
102
SHADEPLOT
 70
     0
102
SHADEPLOTRESLEVEL
 70
     2
102
SHADEPLOTCUSTOMDPI
 70
   300
  0
XRECORD
  5
208F
102
{ACAD_REACTORS
330
208E
102
}
330
208E
100
AcDbXrecord
280
     1
102
SHADEPLOT
 70
     0
102
SHADEPLOTRESLEVEL
 70
     2
102
SHADEPLOTCUSTOMDPI
 70
   300
  0
XRECORD
  5
2093
102
{ACAD_REACTORS
330
2092
102
}
330
2092
100
AcDbXrecord
280
     1
102
SHADEPLOT
 70
     0
102
SHADEPLOTRESLEVEL
 70
     2
102
SHADEPLOTCUSTOMDPI
 70
   300
  0
ENDSEC
  0
EOF
