  0
SECTION
  2
HEADER
  9
$ACADVER
  1
AC1015
  9
$ACADMAINTVER
 70
    20
  9
$DWGCODEPAGE
  3
ANSI_932
  9
$INSBASE
 10
0.0
 20
0.0
 30
0.0
  9
$EXTMIN
 10
109.0
 20
4.0
 30
0.0
  9
$EXTMAX
 10
2784.000000000001
 20
2024.000000000002
 30
0.0
  9
$LIMMIN
 10
0.0
 20
0.0
  9
$LIMMAX
 10
29700.0
 20
21000.0
  9
$ORTHOMODE
 70
     1
  9
$REGENMODE
 70
     1
  9
$FILLMODE
 70
     1
  9
$QTEXTMODE
 70
     0
  9
$MIRRTEXT
 70
     1
  9
$LTSCALE
 40
4.0
  9
$ATTMODE
 70
     1
  9
$TEXTSIZE
 40
35.0
  9
$TRACEWID
 40
1.0
  9
$TEXTSTYLE
  7
Standard
  9
$CLAYER
  8
実形
  9
$CELTYPE
  6
ByLayer
  9
$CECOLOR
 62
   256
  9
$CELTSCALE
 40
1.0
  9
$DISPSILH
 70
     0
  9
$DIMSCALE
 40
1.0
  9
$DIMASZ
 40
35.0
  9
$DIMEXO
 40
65.0
  9
$DIMDLI
 40
3.75
  9
$DIMRND
 40
0.0
  9
$DIMDLE
 40
0.0
  9
$DIMEXE
 40
0.0
  9
$DIMTP
 40
0.0
  9
$DIMTM
 40
0.0
  9
$DIMTXT
 40
25.0
  9
$DIMCEN
 40
0.0
  9
$DIMTSZ
 40
0.0
  9
$DIMTOL
 70
     0
  9
$DIMLIM
 70
     0
  9
$DIMTIH
 70
     0
  9
$DIMTOH
 70
     0
  9
$DIMSE1
 70
     0
  9
$DIMSE2
 70
     0
  9
$DIMTAD
 70
     1
  9
$DIMZIN
 70
     8
  9
$DIMBLK
  1
DotSmall
  9
$DIMASO
 70
     1
  9
$DIMSHO
 70
     1
  9
$DIMPOST
  1

  9
$DIMAPOST
  1

  9
$DIMALT
 70
     0
  9
$DIMALTD
 70
     3
  9
$DIMALTF
 40
0.03937007874016
  9
$DIMLFAC
 40
1.0
  9
$DIMTOFL
 70
     1
  9
$DIMTVP
 40
0.0
  9
$DIMTIX
 70
     0
  9
$DIMSOXD
 70
     0
  9
$DIMSAH
 70
     0
  9
$DIMBLK1
  1

  9
$DIMBLK2
  1

  9
$DIMSTYLE
  2
ISO-25
  9
$DIMCLRD
 70
     0
  9
$DIMCLRE
 70
     0
  9
$DIMCLRT
 70
     0
  9
$DIMTFAC
 40
1.0
  9
$DIMGAP
 40
6.25
  9
$DIMJUST
 70
     0
  9
$DIMSD1
 70
     0
  9
$DIMSD2
 70
     0
  9
$DIMTOLJ
 70
     0
  9
$DIMTZIN
 70
     8
  9
$DIMALTZ
 70
     0
  9
$DIMALTTZ
 70
     0
  9
$DIMUPT
 70
     0
  9
$DIMDEC
 70
     2
  9
$DIMTDEC
 70
     2
  9
$DIMALTU
 70
     2
  9
$DIMALTTD
 70
     3
  9
$DIMTXSTY
  7
Standard
  9
$DIMAUNIT
 70
     0
  9
$DIMADEC
 70
     0
  9
$DIMALTRND
 40
0.0
  9
$DIMAZIN
 70
     0
  9
$DIMDSEP
 70
    46
  9
$DIMATFIT
 70
     3
  9
$DIMFRAC
 70
     0
  9
$DIMLDRBLK
  1
Open30
  9
$DIMLUNIT
 70
     2
  9
$DIMLWD
 70
    15
  9
$DIMLWE
 70
    15
  9
$DIMTMOVE
 70
     0
  9
$LUNITS
 70
     2
  9
$LUPREC
 70
     2
  9
$SKETCHINC
 40
1.0
  9
$FILLETRAD
 40
7.0
  9
$AUNITS
 70
     0
  9
$AUPREC
 70
     0
  9
$MENU
  1
.
  9
$ELEVATION
 40
0.0
  9
$PELEVATION
 40
0.0
  9
$THICKNESS
 40
0.0
  9
$LIMCHECK
 70
     1
  9
$CHAMFERA
 40
10.0
  9
$CHAMFERB
 40
10.0
  9
$CHAMFERC
 40
20.0
  9
$CHAMFERD
 40
0.0
  9
$SKPOLY
 70
     0
  9
$TDCREATE
 40
2451673.575802199
  9
$TDUCREATE
 40
2451673.200802199
  9
$TDUPDATE
 40
2458810.677163797
  9
$TDUUPDATE
 40
2458810.302163797
  9
$TDINDWG
 40
0.8196155903
  9
$TDUSRTIMER
 40
0.8196148958
  9
$USRTIMER
 70
     1
  9
$ANGBASE
 50
0.0
  9
$ANGDIR
 70
     0
  9
$PDMODE
 70
     0
  9
$PDSIZE
 40
0.0
  9
$PLINEWID
 40
0.0
  9
$SPLFRAME
 70
     0
  9
$SPLINETYPE
 70
     6
  9
$SPLINESEGS
 70
     8
  9
$HANDSEED
  5
1D70
  9
$SURFTAB1
 70
     6
  9
$SURFTAB2
 70
     6
  9
$SURFTYPE
 70
     6
  9
$SURFU
 70
     6
  9
$SURFV
 70
     6
  9
$UCSBASE
  2

  9
$UCSNAME
  2

  9
$UCSORG
 10
0.0
 20
0.0
 30
0.0
  9
$UCSXDIR
 10
1.0
 20
0.0
 30
0.0
  9
$UCSYDIR
 10
0.0
 20
1.0
 30
0.0
  9
$UCSORTHOREF
  2

  9
$UCSORTHOVIEW
 70
     0
  9
$UCSORGTOP
 10
0.0
 20
0.0
 30
0.0
  9
$UCSORGBOTTOM
 10
0.0
 20
0.0
 30
0.0
  9
$UCSORGLEFT
 10
0.0
 20
0.0
 30
0.0
  9
$UCSORGRIGHT
 10
0.0
 20
0.0
 30
0.0
  9
$UCSORGFRONT
 10
0.0
 20
0.0
 30
0.0
  9
$UCSORGBACK
 10
0.0
 20
0.0
 30
0.0
  9
$PUCSBASE
  2

  9
$PUCSNAME
  2

  9
$PUCSORG
 10
0.0
 20
0.0
 30
0.0
  9
$PUCSXDIR
 10
1.0
 20
0.0
 30
0.0
  9
$PUCSYDIR
 10
0.0
 20
1.0
 30
0.0
  9
$PUCSORTHOREF
  2

  9
$PUCSORTHOVIEW
 70
     0
  9
$PUCSORGTOP
 10
0.0
 20
0.0
 30
0.0
  9
$PUCSORGBOTTOM
 10
0.0
 20
0.0
 30
0.0
  9
$PUCSORGLEFT
 10
0.0
 20
0.0
 30
0.0
  9
$PUCSORGRIGHT
 10
0.0
 20
0.0
 30
0.0
  9
$PUCSORGFRONT
 10
0.0
 20
0.0
 30
0.0
  9
$PUCSORGBACK
 10
0.0
 20
0.0
 30
0.0
  9
$USERI1
 70
     0
  9
$USERI2
 70
     0
  9
$USERI3
 70
     0
  9
$USERI4
 70
     0
  9
$USERI5
 70
     0
  9
$USERR1
 40
0.0
  9
$USERR2
 40
0.0
  9
$USERR3
 40
0.0
  9
$USERR4
 40
0.0
  9
$USERR5
 40
0.0
  9
$WORLDVIEW
 70
     1
  9
$SHADEDGE
 70
     3
  9
$SHADEDIF
 70
    70
  9
$TILEMODE
 70
     1
  9
$MAXACTVP
 70
    64
  9
$PINSBASE
 10
0.0
 20
0.0
 30
0.0
  9
$PLIMCHECK
 70
     0
  9
$PEXTMIN
 10
27.8447512626648
 20
20.24591643810271
 30
0.0
  9
$PEXTMAX
 10
250.6027613639831
 20
182.2132479429245
 30
0.0
  9
$PLIMMIN
 10
-3.757080078125
 20
-3.757083177566528
  9
$PLIMMAX
 10
293.2112426757813
 20
206.2162444591522
  9
$UNITMODE
 70
     0
  9
$VISRETAIN
 70
     1
  9
$PLINEGEN
 70
     0
  9
$PSLTSCALE
 70
     1
  9
$TREEDEPTH
 70
  3020
  9
$CMLSTYLE
  2
Standard
  9
$CMLJUST
 70
     0
  9
$CMLSCALE
 40
20.0
  9
$PROXYGRAPHICS
 70
     1
  9
$MEASUREMENT
 70
     1
  9
$CELWEIGHT
370
    -1
  9
$ENDCAPS
280
     0
  9
$JOINSTYLE
280
     0
  9
$LWDISPLAY
290
     0
  9
$INSUNITS
 70
     4
  9
$HYPERLINKBASE
  1

  9
$STYLESHEET
  1

  9
$XEDIT
290
     1
  9
$CEPSNTYPE
380
     0
  9
$PSTYLEMODE
290
     1
  9
$FINGERPRINTGUID
  2
{C8EA1F16-24C9-11D4-9416-CE0A3B32152F}
  9
$VERSIONGUID
  2
{3B252EBE-AE07-44CC-9BB0-6A60B2D39972}
  9
$EXTNAMES
290
     1
  9
$PSVPSCALE
 40
0.0
  9
$OLESTARTUP
290
     0
  0
ENDSEC
  0
SECTION
  2
CLASSES
  0
CLASS
  1
ACDBDICTIONARYWDFLT
  2
AcDbDictionaryWithDefault
  3
ObjectDBX Classes
 90
        0
280
     0
281
     0
  0
CLASS
  1
ACDBPLACEHOLDER
  2
AcDbPlaceHolder
  3
ObjectDBX Classes
 90
        0
280
     0
281
     0
  0
CLASS
  1
LAYOUT
  2
AcDbLayout
  3
ObjectDBX Classes
 90
        0
280
     0
281
     0
  0
CLASS
  1
DICTIONARYVAR
  2
AcDbDictionaryVar
  3
ObjectDBX Classes
 90
        0
280
     0
281
     0
  0
CLASS
  1
TABLESTYLE
  2
AcDbTableStyle
  3
ObjectDBX Classes
 90
     2047
280
     0
281
     0
  0
CLASS
  1
SORTENTSTABLE
  2
AcDbSortentsTable
  3
ObjectDBX Classes
 90
        0
280
     0
281
     0
  0
ENDSEC
  0
SECTION
  2
TABLES
  0
TABLE
  2
VPORT
  5
8
330
0
100
AcDbSymbolTable
 70
     2
  0
VPORT
  5
1D64
330
8
100
AcDbSymbolTableRecord
100
AcDbViewportTableRecord
  2
*Active
 70
     0
 10
0.0
 20
0.0
 11
1.0
 21
1.0
 12
1392.407059148892
 22
782.6456425256695
 13
0.0
 23
0.0
 14
10.0
 24
10.0
 15
10.0
 25
10.0
 16
0.0
 26
0.0
 36
1.0
 17
0.0
 27
0.0
 37
0.0
 40
2508.534404702526
 41
1.29038112522686
 42
50.0
 43
0.0
 44
0.0
 50
0.0
 51
0.0
 71
     0
 72
   100
 73
     1
 74
     3
 75
     0
 76
     0
 77
     0
 78
     0
281
     0
 65
     1
110
0.0
120
0.0
130
0.0
111
1.0
121
0.0
131
0.0
112
0.0
122
1.0
132
0.0
 79
     0
146
0.0
  0
ENDTAB
  0
TABLE
  2
LTYPE
  5
5
330
0
100
AcDbSymbolTable
 70
    46
  0
LTYPE
  5
14
330
5
100
AcDbSymbolTableRecord
100
AcDbLinetypeTableRecord
  2
ByBlock
 70
     0
  3

 72
    65
 73
     0
 40
0.0
  0
LTYPE
  5
15
330
5
100
AcDbSymbolTableRecord
100
AcDbLinetypeTableRecord
  2
ByLayer
 70
     0
  3

 72
    65
 73
     0
 40
0.0
  0
LTYPE
  5
16
330
5
100
AcDbSymbolTableRecord
100
AcDbLinetypeTableRecord
  2
Continuous
 70
     0
  3
Solid line
 72
    65
 73
     0
 40
0.0
  0
LTYPE
  5
34
330
5
100
AcDbSymbolTableRecord
100
AcDbLinetypeTableRecord
  2
ACAD_ISO02W100
 70
     0
  3
ISO dash __ __ __ __ __ __ __ __ __ __ __ __ __
 72
    65
 73
     2
 40
15.0
 49
12.0
 74
     0
 49
-3.0
 74
     0
  0
LTYPE
  5
35
330
5
100
AcDbSymbolTableRecord
100
AcDbLinetypeTableRecord
  2
ACAD_ISO03W100
 70
     0
  3
ISO dash space __    __    __    __    __    __
 72
    65
 73
     2
 40
30.0
 49
12.0
 74
     0
 49
-18.0
 74
     0
  0
LTYPE
  5
36
330
5
100
AcDbSymbolTableRecord
100
AcDbLinetypeTableRecord
  2
ACAD_ISO04W100
 70
     0
  3
ISO long-dash dot ____ . ____ . ____ . ____ . _
 72
    65
 73
     4
 40
30.0
 49
24.0
 74
     0
 49
-3.0
 74
     0
 49
0.0
 74
     0
 49
-3.0
 74
     0
  0
LTYPE
  5
37
330
5
100
AcDbSymbolTableRecord
100
AcDbLinetypeTableRecord
  2
ACAD_ISO05W100
 70
     0
  3
ISO long-dash double-dot ____ .. ____ .. ____ .
 72
    65
 73
     6
 40
34.0
 49
24.0
 74
     0
 49
-3.0
 74
     0
 49
0.5
 74
     0
 49
-3.0
 74
     0
 49
0.5
 74
     0
 49
-3.0
 74
     0
  0
LTYPE
  5
38
330
5
100
AcDbSymbolTableRecord
100
AcDbLinetypeTableRecord
  2
ACAD_ISO06W100
 70
     0
  3
ISO long-dash triple-dot ____ ... ____ ... ____
 72
    65
 73
     8
 40
37.5
 49
24.0
 74
     0
 49
-3.0
 74
     0
 49
0.5
 74
     0
 49
-3.0
 74
     0
 49
0.5
 74
     0
 49
-3.0
 74
     0
 49
0.5
 74
     0
 49
-3.0
 74
     0
  0
LTYPE
  5
39
330
5
100
AcDbSymbolTableRecord
100
AcDbLinetypeTableRecord
  2
ACAD_ISO07W100
 70
     0
  3
ISO dot . . . . . . . . . . . . . . . . . . . .
 72
    65
 73
     2
 40
3.0
 49
0.0
 74
     0
 49
-3.0
 74
     0
  0
LTYPE
  5
3A
330
5
100
AcDbSymbolTableRecord
100
AcDbLinetypeTableRecord
  2
ACAD_ISO08W100
 70
     0
  3
ISO long-dash short-dash ____ __ ____ __ ____ _
 72
    65
 73
     4
 40
36.0
 49
24.0
 74
     0
 49
-3.0
 74
     0
 49
6.0
 74
     0
 49
-3.0
 74
     0
  0
LTYPE
  5
3B
330
5
100
AcDbSymbolTableRecord
100
AcDbLinetypeTableRecord
  2
ACAD_ISO09W100
 70
     0
  3
ISO long-dash double-short-dash ____ __ __ ____
 72
    65
 73
     6
 40
45.0
 49
24.0
 74
     0
 49
-3.0
 74
     0
 49
6.0
 74
     0
 49
-3.0
 74
     0
 49
6.0
 74
     0
 49
-3.0
 74
     0
  0
LTYPE
  5
3C
330
5
100
AcDbSymbolTableRecord
100
AcDbLinetypeTableRecord
  2
ACAD_ISO10W100
 70
     0
  3
ISO dash dot __ . __ . __ . __ . __ . __ . __ .
 72
    65
 73
     4
 40
18.0
 49
12.0
 74
     0
 49
-3.0
 74
     0
 49
0.0
 74
     0
 49
-3.0
 74
     0
  0
LTYPE
  5
3D
330
5
100
AcDbSymbolTableRecord
100
AcDbLinetypeTableRecord
  2
ACAD_ISO11W100
 70
     0
  3
ISO double-dash dot __ __ . __ __ . __ __ . __ 
 72
    65
 73
     6
 40
33.0
 49
12.0
 74
     0
 49
-3.0
 74
     0
 49
12.0
 74
     0
 49
-3.0
 74
     0
 49
0.0
 74
     0
 49
-3.0
 74
     0
  0
LTYPE
  5
3E
330
5
100
AcDbSymbolTableRecord
100
AcDbLinetypeTableRecord
  2
ACAD_ISO12W100
 70
     0
  3
ISO dash double-dot __ . . __ . . __ . . __ . .
 72
    65
 73
     6
 40
21.0
 49
12.0
 74
     0
 49
-3.0
 74
     0
 49
0.0
 74
     0
 49
-3.0
 74
     0
 49
0.0
 74
     0
 49
-3.0
 74
     0
  0
LTYPE
  5
3F
330
5
100
AcDbSymbolTableRecord
100
AcDbLinetypeTableRecord
  2
ACAD_ISO13W100
 70
     0
  3
ISO double-dash double-dot __ __ . . __ __ . . 
 72
    65
 73
     8
 40
36.0
 49
12.0
 74
     0
 49
-3.0
 74
     0
 49
12.0
 74
     0
 49
-3.0
 74
     0
 49
0.0
 74
     0
 49
-3.0
 74
     0
 49
0.0
 74
     0
 49
-3.0
 74
     0
  0
LTYPE
  5
40
330
5
100
AcDbSymbolTableRecord
100
AcDbLinetypeTableRecord
  2
ACAD_ISO14W100
 70
     0
  3
ISO dash triple-dot __ . . . __ . . . __ . . . 
 72
    65
 73
     8
 40
24.0
 49
12.0
 74
     0
 49
-3.0
 74
     0
 49
0.0
 74
     0
 49
-3.0
 74
     0
 49
0.0
 74
     0
 49
-3.0
 74
     0
 49
0.0
 74
     0
 49
-3.0
 74
     0
  0
LTYPE
  5
41
330
5
100
AcDbSymbolTableRecord
100
AcDbLinetypeTableRecord
  2
ACAD_ISO15W100
 70
     0
  3
ISO double-dash triple-dot __ __ . . . __ __ . 
 72
    65
 73
    10
 40
39.0
 49
12.0
 74
     0
 49
-3.0
 74
     0
 49
12.0
 74
     0
 49
-3.0
 74
     0
 49
0.0
 74
     0
 49
-3.0
 74
     0
 49
0.0
 74
     0
 49
-3.0
 74
     0
 49
0.0
 74
     0
 49
-3.0
 74
     0
  0
LTYPE
  5
42
330
5
100
AcDbSymbolTableRecord
100
AcDbLinetypeTableRecord
  2
BATTING
 70
     0
  3
Batting SSSSSSSSSSSSSSSSSSSSSSSSSSSSSSSSSSSSSSS
 72
    65
 73
     4
 40
10.16254
 49
0.00254
 74
     0
 49
-2.54
 74
     4
 75
   134
340
33
 46
2.54
 50
0.0
 44
-2.54
 45
0.0
 49
-5.08
 74
     4
 75
   134
340
33
 46
2.54
 50
180.0
 44
2.54
 45
0.0
 49
-2.54
 74
     0
  0
LTYPE
  5
43
330
5
100
AcDbSymbolTableRecord
100
AcDbLinetypeTableRecord
  2
BORDER
 70
     0
  3
Border __ __ . __ __ . __ __ . __ __ . __ __ .
 72
    65
 73
     6
 40
44.45
 49
12.7
 74
     0
 49
-6.349999999999999
 74
     0
 49
12.7
 74
     0
 49
-6.349999999999999
 74
     0
 49
0.0
 74
     0
 49
-6.349999999999999
 74
     0
  0
LTYPE
  5
44
330
5
100
AcDbSymbolTableRecord
100
AcDbLinetypeTableRecord
  2
BORDER2
 70
     0
  3
Border (.5x) __.__.__.__.__.__.__.__.__.__.__.
 72
    65
 73
     6
 40
22.225
 49
6.349999999999999
 74
     0
 49
-3.174999999999999
 74
     0
 49
6.349999999999999
 74
     0
 49
-3.174999999999999
 74
     0
 49
0.0
 74
     0
 49
-3.174999999999999
 74
     0
  0
LTYPE
  5
45
330
5
100
AcDbSymbolTableRecord
100
AcDbLinetypeTableRecord
  2
BORDERX2
 70
     0
  3
Border (2x) ____  ____  .  ____  ____  .  ___
 72
    65
 73
     6
 40
88.9
 49
25.4
 74
     0
 49
-12.7
 74
     0
 49
25.4
 74
     0
 49
-12.7
 74
     0
 49
0.0
 74
     0
 49
-12.7
 74
     0
  0
LTYPE
  5
46
330
5
100
AcDbSymbolTableRecord
100
AcDbLinetypeTableRecord
  2
CENTER
 70
     0
  3
Center ____ _ ____ _ ____ _ ____ _ ____ _ ____
 72
    65
 73
     4
 40
50.8
 49
31.75
 74
     0
 49
-6.349999999999999
 74
     0
 49
6.349999999999999
 74
     0
 49
-6.349999999999999
 74
     0
  0
LTYPE
  5
47
330
5
100
AcDbSymbolTableRecord
100
AcDbLinetypeTableRecord
  2
CENTER2
 70
     0
  3
Center (.5x) ___ _ ___ _ ___ _ ___ _ ___ _ ___
 72
    65
 73
     4
 40
28.575
 49
19.05
 74
     0
 49
-3.174999999999999
 74
     0
 49
3.174999999999999
 74
     0
 49
-3.174999999999999
 74
     0
  0
LTYPE
  5
48
330
5
100
AcDbSymbolTableRecord
100
AcDbLinetypeTableRecord
  2
CENTERX2
 70
     0
  3
Center (2x) ________  __  ________  __  _____
 72
    65
 73
     4
 40
101.6
 49
63.5
 74
     0
 49
-12.7
 74
     0
 49
12.7
 74
     0
 49
-12.7
 74
     0
  0
LTYPE
  5
49
330
5
100
AcDbSymbolTableRecord
100
AcDbLinetypeTableRecord
  2
DASHDOT
 70
     0
  3
Dash dot __ . __ . __ . __ . __ . __ . __ . __
 72
    65
 73
     4
 40
25.4
 49
12.7
 74
     0
 49
-6.349999999999999
 74
     0
 49
0.0
 74
     0
 49
-6.349999999999999
 74
     0
  0
LTYPE
  5
4A
330
5
100
AcDbSymbolTableRecord
100
AcDbLinetypeTableRecord
  2
DASHDOT2
 70
     0
  3
Dash dot (.5x) _._._._._._._._._._._._._._._.
 72
    65
 73
     4
 40
12.7
 49
6.349999999999999
 74
     0
 49
-3.174999999999999
 74
     0
 49
0.0
 74
     0
 49
-3.174999999999999
 74
     0
  0
LTYPE
  5
4B
330
5
100
AcDbSymbolTableRecord
100
AcDbLinetypeTableRecord
  2
DASHDOTX2
 70
     0
  3
Dash dot (2x) ____  .  ____  .  ____  .  ___
 72
    65
 73
     4
 40
50.8
 49
25.4
 74
     0
 49
-12.7
 74
     0
 49
0.0
 74
     0
 49
-12.7
 74
     0
  0
LTYPE
  5
4C
330
5
100
AcDbSymbolTableRecord
100
AcDbLinetypeTableRecord
  2
DASHED
 70
     0
  3
Dashed __ __ __ __ __ __ __ __ __ __ __ __ __ _
 72
    65
 73
     2
 40
19.05
 49
12.7
 74
     0
 49
-6.349999999999999
 74
     0
  0
LTYPE
  5
4D
330
5
100
AcDbSymbolTableRecord
100
AcDbLinetypeTableRecord
  2
DASHED2
 70
     0
  3
Dashed (.5x) _ _ _ _ _ _ _ _ _ _ _ _ _ _ _ _ _
 72
    65
 73
     2
 40
9.524999999999998
 49
6.349999999999999
 74
     0
 49
-3.174999999999999
 74
     0
  0
LTYPE
  5
4E
330
5
100
AcDbSymbolTableRecord
100
AcDbLinetypeTableRecord
  2
DASHEDX2
 70
     0
  3
Dashed (2x) ____  ____  ____  ____  ____  ___
 72
    65
 73
     2
 40
38.1
 49
25.4
 74
     0
 49
-12.7
 74
     0
  0
LTYPE
  5
4F
330
5
100
AcDbSymbolTableRecord
100
AcDbLinetypeTableRecord
  2
DIVIDE
 70
     0
  3
Divide ____ . . ____ . . ____ . . ____ . . ____
 72
    65
 73
     6
 40
31.75
 49
12.7
 74
     0
 49
-6.349999999999999
 74
     0
 49
0.0
 74
     0
 49
-6.349999999999999
 74
     0
 49
0.0
 74
     0
 49
-6.349999999999999
 74
     0
  0
LTYPE
  5
50
330
5
100
AcDbSymbolTableRecord
100
AcDbLinetypeTableRecord
  2
DIVIDE2
 70
     0
  3
Divide (.5x) __..__..__..__..__..__..__..__.._
 72
    65
 73
     6
 40
15.875
 49
6.349999999999999
 74
     0
 49
-3.174999999999999
 74
     0
 49
0.0
 74
     0
 49
-3.174999999999999
 74
     0
 49
0.0
 74
     0
 49
-3.174999999999999
 74
     0
  0
LTYPE
  5
51
330
5
100
AcDbSymbolTableRecord
100
AcDbLinetypeTableRecord
  2
DIVIDEX2
 70
     0
  3
Divide (2x) ________  .  .  ________  .  .  _
 72
    65
 73
     6
 40
63.49999999999999
 49
25.4
 74
     0
 49
-12.7
 74
     0
 49
0.0
 74
     0
 49
-12.7
 74
     0
 49
0.0
 74
     0
 49
-12.7
 74
     0
  0
LTYPE
  5
52
330
5
100
AcDbSymbolTableRecord
100
AcDbLinetypeTableRecord
  2
DOT
 70
     0
  3
Dot . . . . . . . . . . . . . . . . . . . . . .
 72
    65
 73
     2
 40
6.349999999999999
 49
0.0
 74
     0
 49
-6.349999999999999
 74
     0
  0
LTYPE
  5
53
330
5
100
AcDbSymbolTableRecord
100
AcDbLinetypeTableRecord
  2
DOT2
 70
     0
  3
Dot (.5x) .....................................
 72
    65
 73
     2
 40
3.174999999999999
 49
0.0
 74
     0
 49
-3.174999999999999
 74
     0
  0
LTYPE
  5
54
330
5
100
AcDbSymbolTableRecord
100
AcDbLinetypeTableRecord
  2
DOTX2
 70
     0
  3
Dot (2x) .  .  .  .  .  .  .  .  .  .  .  .  . 
 72
    65
 73
     2
 40
12.7
 49
0.0
 74
     0
 49
-12.7
 74
     0
  0
LTYPE
  5
55
330
5
100
AcDbSymbolTableRecord
100
AcDbLinetypeTableRecord
  2
FENCELINE1
 70
     0
  3
Fenceline circle ----0-----0----0-----0----0---
 72
    65
 73
     4
 40
36.83
 49
6.349999999999999
 74
     0
 49
-2.54
 74
     4
 75
   133
340
33
 46
2.54
 50
0.0
 44
-2.54
 45
0.0
 49
-2.54
 74
     0
 49
25.4
 74
     0
  0
LTYPE
  5
56
330
5
100
AcDbSymbolTableRecord
100
AcDbLinetypeTableRecord
  2
FENCELINE2
 70
     0
  3
Fenceline square ----[]-----[]----[]-----[]----
 72
    65
 73
     4
 40
36.83
 49
6.349999999999999
 74
     0
 49
-2.54
 74
     4
 75
   132
340
33
 46
2.54
 50
0.0
 44
-2.54
 45
0.0
 49
-2.54
 74
     0
 49
25.4
 74
     0
  0
LTYPE
  5
57
330
5
100
AcDbSymbolTableRecord
100
AcDbLinetypeTableRecord
  2
GAS_LINE
 70
     0
  3
Gas line ----GAS----GAS----GAS----GAS----GAS---
 72
    65
 73
     3
 40
24.13
 49
12.7
 74
     0
 49
-5.08
 74
     2
 75
     0
340
11
 46
2.54
 50
0.0
 44
-2.54
 45
-1.27
  9
GAS
 49
-6.349999999999999
 74
     0
  0
LTYPE
  5
58
330
5
100
AcDbSymbolTableRecord
100
AcDbLinetypeTableRecord
  2
HIDDEN
 70
     0
  3
Hidden __ __ __ __ __ __ __ __ __ __ __ __ __ _
 72
    65
 73
     2
 40
9.524999999999998
 49
6.349999999999999
 74
     0
 49
-3.174999999999999
 74
     0
  0
LTYPE
  5
59
330
5
100
AcDbSymbolTableRecord
100
AcDbLinetypeTableRecord
  2
HIDDEN2
 70
     0
  3
Hidden (.5x) _ _ _ _ _ _ _ _ _ _ _ _ _ _ _ _ _
 72
    65
 73
     2
 40
4.762499999999999
 49
3.174999999999999
 74
     0
 49
-1.587499999999999
 74
     0
  0
LTYPE
  5
5A
330
5
100
AcDbSymbolTableRecord
100
AcDbLinetypeTableRecord
  2
HIDDENX2
 70
     0
  3
Hidden (2x) ____ ____ ____ ____ ____ ____ ____
 72
    65
 73
     2
 40
19.05
 49
12.7
 74
     0
 49
-6.349999999999999
 74
     0
  0
LTYPE
  5
5B
330
5
100
AcDbSymbolTableRecord
100
AcDbLinetypeTableRecord
  2
HOT_WATER_SUPPLY
 70
     0
  3
Hot water supply ---- HW ---- HW ---- HW ----
 72
    65
 73
     3
 40
22.86
 49
12.7
 74
     0
 49
-5.08
 74
     2
 75
     0
340
11
 46
2.54
 50
0.0
 44
-2.54
 45
-1.27
  9
HW
 49
-5.08
 74
     0
  0
LTYPE
  5
5C
330
5
100
AcDbSymbolTableRecord
100
AcDbLinetypeTableRecord
  2
PHANTOM
 70
     0
  3
Phantom ______  __  __  ______  __  __  ______
 72
    65
 73
     6
 40
63.5
 49
31.75
 74
     0
 49
-6.349999999999999
 74
     0
 49
6.349999999999999
 74
     0
 49
-6.349999999999999
 74
     0
 49
6.349999999999999
 74
     0
 49
-6.349999999999999
 74
     0
  0
LTYPE
  5
5D
330
5
100
AcDbSymbolTableRecord
100
AcDbLinetypeTableRecord
  2
PHANTOM2
 70
     0
  3
Phantom (.5x) ___ _ _ ___ _ _ ___ _ _ ___ _ _
 72
    65
 73
     6
 40
31.75
 49
15.875
 74
     0
 49
-3.174999999999999
 74
     0
 49
3.174999999999999
 74
     0
 49
-3.174999999999999
 74
     0
 49
3.174999999999999
 74
     0
 49
-3.174999999999999
 74
     0
  0
LTYPE
  5
5E
330
5
100
AcDbSymbolTableRecord
100
AcDbLinetypeTableRecord
  2
PHANTOMX2
 70
     0
  3
Phantom (2x) ____________    ____    ____   _
 72
    65
 73
     6
 40
127.0
 49
63.5
 74
     0
 49
-12.7
 74
     0
 49
12.7
 74
     0
 49
-12.7
 74
     0
 49
12.7
 74
     0
 49
-12.7
 74
     0
  0
LTYPE
  5
5F
330
5
100
AcDbSymbolTableRecord
100
AcDbLinetypeTableRecord
  2
TRACKS
 70
     0
  3
Tracks -|-|-|-|-|-|-|-|-|-|-|-|-|-|-|-|-|-|-|-|
 72
    65
 73
     2
 40
7.62
 49
3.81
 74
     4
 75
   130
340
33
 46
6.349999999999999
 50
0.0
 44
0.0
 45
0.0
 49
3.81
 74
     0
  0
LTYPE
  5
60
330
5
100
AcDbSymbolTableRecord
100
AcDbLinetypeTableRecord
  2
ZIGZAG
 70
     0
  3
Zig zag /\/\/\/\/\/\/\/\/\/\/\/\/\/\/\/\/\/\/\/
 72
    65
 73
     4
 40
20.32254
 49
0.00254
 74
     0
 49
-5.08
 74
     4
 75
   131
340
33
 46
5.08
 50
0.0
 44
-5.08
 45
0.0
 49
-10.16
 74
     4
 75
   131
340
33
 46
5.08
 50
180.0
 44
5.08
 45
0.0
 49
-5.08
 74
     0
  0
ENDTAB
  0
TABLE
  2
LAYER
  5
2
102
{ACAD_XDICTIONARY
360
19BC
102
}
330
0
100
AcDbSymbolTable
 70
     9
  0
LAYER
  5
10
330
2
100
AcDbSymbolTableRecord
100
AcDbLayerTableRecord
  2
0
 70
     0
 62
     7
  6
Continuous
370
    -3
390
F
  0
LAYER
  5
C3
330
2
100
AcDbSymbolTableRecord
100
AcDbLayerTableRecord
  2
Defpoints
 70
     0
 62
     7
  6
Continuous
290
     0
370
    -3
390
F
  0
LAYER
  5
256
330
2
100
AcDbSymbolTableRecord
100
AcDbLayerTableRecord
  2
センター
 70
     0
 62
     7
  6
CENTER2
370
    15
390
F
  0
LAYER
  5
268
330
2
100
AcDbSymbolTableRecord
100
AcDbLayerTableRecord
  2
実形
 70
     0
 62
     7
  6
Continuous
370
    -3
390
F
  0
LAYER
  5
269
330
2
100
AcDbSymbolTableRecord
100
AcDbLayerTableRecord
  2
補助
 70
     0
 62
     7
  6
Continuous
370
    -3
390
F
  0
LAYER
  5
26A
330
2
100
AcDbSymbolTableRecord
100
AcDbLayerTableRecord
  2
寸法
 70
     0
 62
     7
  6
Continuous
370
    -3
390
F
  0
LAYER
  5
26B
330
2
100
AcDbSymbolTableRecord
100
AcDbLayerTableRecord
  2
ハッチング
 70
     0
 62
     7
  6
Continuous
370
    18
390
F
  0
LAYER
  5
26D
330
2
100
AcDbSymbolTableRecord
100
AcDbLayerTableRecord
  2
文字
 70
     0
 62
     7
  6
Continuous
370
    -3
390
F
  0
LAYER
  5
12DF
330
2
100
AcDbSymbolTableRecord
100
AcDbLayerTableRecord
  2
Cen
 70
     0
 62
     7
  6
CENTER2
370
    15
390
F
  0
ENDTAB
  0
TABLE
  2
STYLE
  5
3
330
0
100
AcDbSymbolTable
 70
     3
  0
STYLE
  5
11
330
3
100
AcDbSymbolTableRecord
100
AcDbTextStyleTableRecord
  2
Standard
 70
     0
 40
0.0
 41
1.0
 50
0.0
 71
     0
 42
35.0
  3
txt.shx
  4
bigfont.shx
  0
STYLE
  5
33
330
3
100
AcDbSymbolTableRecord
100
AcDbTextStyleTableRecord
  2

 70
     1
 40
0.0
 41
1.0
 50
0.0
 71
     0
 42
2.5
  3
ltypeshp.shx
  4

  0
STYLE
  5
1D18
330
3
100
AcDbSymbolTableRecord
100
AcDbTextStyleTableRecord
  2
明朝
 70
     0
 40
0.0
 41
1.0
 50
0.0
 71
     0
 42
25.0
  3
MS Mincho.ttf
  4

1001
ACAD
1000
MS Mincho
1071
    32785
  0
ENDTAB
  0
TABLE
  2
VIEW
  5
6
330
0
100
AcDbSymbolTable
 70
     0
  0
ENDTAB
  0
TABLE
  2
UCS
  5
7
330
0
100
AcDbSymbolTable
 70
     0
  0
ENDTAB
  0
TABLE
  2
APPID
  5
9
330
0
100
AcDbSymbolTable
 70
     1
  0
APPID
  5
12
330
9
100
AcDbSymbolTableRecord
100
AcDbRegAppTableRecord
  2
ACAD
 70
     0
  0
ENDTAB
  0
TABLE
  2
DIMSTYLE
  5
A
330
0
100
AcDbSymbolTable
 70
     1
100
AcDbDimStyleTable
 71
     1
340
27
  0
DIMSTYLE
105
27
102
{ACAD_REACTORS
330
6EA
330
77B
330
788
330
7A0
330
7CA
330
7D7
330
50A
330
4E5
330
4FD
330
522
330
40C
330
41A
330
427
330
459
330
466
330
47C
330
492
330
4C3
330
52F
330
549
330
7AD
330
FA3
330
1767
330
1774
330
177C
330
193C
330
1A32
330
1B23
330
1B1B
330
1B1F
102
}
330
A
100
AcDbSymbolTableRecord
100
AcDbDimStyleTableRecord
  2
ISO-25
 70
     0
 41
35.0
 42
65.0
 43
3.75
 44
0.0
 73
     0
 74
     0
 77
     1
 78
     8
140
25.0
141
2.5
143
0.03937007874016
147
6.25
171
     3
172
     1
271
     2
272
     2
274
     3
283
     0
284
     8
340
11
341
DA
342
D0
371
    15
372
    15
  0
ENDTAB
  0
TABLE
  2
BLOCK_RECORD
  5
1
330
0
100
AcDbSymbolTable
 70
    37
  0
BLOCK_RECORD
  5
1F
102
{ACAD_XDICTIONARY
360
19B9
102
}
330
1
100
AcDbSymbolTableRecord
100
AcDbBlockTableRecord
  2
*Model_Space
340
22
  0
BLOCK_RECORD
  5
1B
330
1
100
AcDbSymbolTableRecord
100
AcDbBlockTableRecord
  2
*Paper_Space
340
1E
  0
BLOCK_RECORD
  5
23
330
1
100
AcDbSymbolTableRecord
100
AcDbBlockTableRecord
  2
*Paper_Space0
340
26
  0
BLOCK_RECORD
  5
D0
330
1
100
AcDbSymbolTableRecord
100
AcDbBlockTableRecord
  2
_DotSmall
340
0
102
{BLKREFS
331
1B7C
331
1B7D
331
1B85
331
1B86
331
1B8F
331
1B90
331
1B97
331
1B98
331
1BA0
331
1BA1
331
1BAA
331
1BAB
331
1BB2
331
1BB3
331
1BBC
331
1BBD
331
1BC5
331
1BC6
331
1BCD
331
1BCE
331
1BD7
331
1BD8
331
1BDF
331
1BE0
331
1BEE
331
1BEF
331
1C00
331
1C01
331
1C0A
331
1C0B
331
1C12
331
1C13
331
1C21
331
1C22
331
1C2A
331
1C2B
331
1C34
331
1C35
331
1C3B
331
1C3C
331
1C44
331
1C45
331
1C4D
331
1C4E
331
1C57
331
1C58
331
1C5F
331
1C60
331
1C68
331
1C69
331
1C70
331
1C71
331
1C79
331
1C7A
331
1CFB
331
1CFC
102
}
  0
BLOCK_RECORD
  5
D4
330
1
100
AcDbSymbolTableRecord
100
AcDbBlockTableRecord
  2
_Origin2
340
0
  0
BLOCK_RECORD
  5
DA
330
1
100
AcDbSymbolTableRecord
100
AcDbBlockTableRecord
  2
_Open30
340
0
  0
BLOCK_RECORD
  5
40D
330
1
100
AcDbSymbolTableRecord
100
AcDbBlockTableRecord
  2
*D4
340
0
  0
BLOCK_RECORD
  5
41B
330
1
100
AcDbSymbolTableRecord
100
AcDbBlockTableRecord
  2
*D5
340
0
  0
BLOCK_RECORD
  5
428
330
1
100
AcDbSymbolTableRecord
100
AcDbBlockTableRecord
  2
*D6
340
0
  0
BLOCK_RECORD
  5
45A
330
1
100
AcDbSymbolTableRecord
100
AcDbBlockTableRecord
  2
*D7
340
0
  0
BLOCK_RECORD
  5
467
330
1
100
AcDbSymbolTableRecord
100
AcDbBlockTableRecord
  2
*D8
340
0
  0
BLOCK_RECORD
  5
47D
330
1
100
AcDbSymbolTableRecord
100
AcDbBlockTableRecord
  2
*D9
340
0
  0
BLOCK_RECORD
  5
493
330
1
100
AcDbSymbolTableRecord
100
AcDbBlockTableRecord
  2
*D10
340
0
  0
BLOCK_RECORD
  5
4C4
330
1
100
AcDbSymbolTableRecord
100
AcDbBlockTableRecord
  2
*D11
340
0
  0
BLOCK_RECORD
  5
4E6
330
1
100
AcDbSymbolTableRecord
100
AcDbBlockTableRecord
  2
*D12
340
0
  0
BLOCK_RECORD
  5
4FE
330
1
100
AcDbSymbolTableRecord
100
AcDbBlockTableRecord
  2
*D13
340
0
  0
BLOCK_RECORD
  5
50B
330
1
100
AcDbSymbolTableRecord
100
AcDbBlockTableRecord
  2
*D14
340
0
  0
BLOCK_RECORD
  5
523
330
1
100
AcDbSymbolTableRecord
100
AcDbBlockTableRecord
  2
*D15
340
0
  0
BLOCK_RECORD
  5
530
330
1
100
AcDbSymbolTableRecord
100
AcDbBlockTableRecord
  2
*D16
340
0
  0
BLOCK_RECORD
  5
54A
330
1
100
AcDbSymbolTableRecord
100
AcDbBlockTableRecord
  2
*D17
340
0
  0
BLOCK_RECORD
  5
6EB
330
1
100
AcDbSymbolTableRecord
100
AcDbBlockTableRecord
  2
*D18
340
0
  0
BLOCK_RECORD
  5
77C
330
1
100
AcDbSymbolTableRecord
100
AcDbBlockTableRecord
  2
*D19
340
0
  0
BLOCK_RECORD
  5
789
330
1
100
AcDbSymbolTableRecord
100
AcDbBlockTableRecord
  2
*D20
340
0
  0
BLOCK_RECORD
  5
7A1
330
1
100
AcDbSymbolTableRecord
100
AcDbBlockTableRecord
  2
*D21
340
0
  0
BLOCK_RECORD
  5
7AE
330
1
100
AcDbSymbolTableRecord
100
AcDbBlockTableRecord
  2
*D22
340
0
  0
BLOCK_RECORD
  5
7CB
330
1
100
AcDbSymbolTableRecord
100
AcDbBlockTableRecord
  2
*D23
340
0
  0
BLOCK_RECORD
  5
7D8
330
1
100
AcDbSymbolTableRecord
100
AcDbBlockTableRecord
  2
*D24
340
0
  0
BLOCK_RECORD
  5
F9E
330
1
100
AcDbSymbolTableRecord
100
AcDbBlockTableRecord
  2
_Dot
340
0
  0
BLOCK_RECORD
  5
FA4
330
1
100
AcDbSymbolTableRecord
100
AcDbBlockTableRecord
  2
*D26
340
0
  0
BLOCK_RECORD
  5
10B5
330
1
100
AcDbSymbolTableRecord
100
AcDbBlockTableRecord
  2
A$C63E535F0
340
0
  0
BLOCK_RECORD
  5
1790
330
1
100
AcDbSymbolTableRecord
100
AcDbBlockTableRecord
  2
*D28
340
0
  0
BLOCK_RECORD
  5
179B
330
1
100
AcDbSymbolTableRecord
100
AcDbBlockTableRecord
  2
*D29
340
0
  0
BLOCK_RECORD
  5
17A7
330
1
100
AcDbSymbolTableRecord
100
AcDbBlockTableRecord
  2
*D30
340
0
  0
BLOCK_RECORD
  5
193D
330
1
100
AcDbSymbolTableRecord
100
AcDbBlockTableRecord
  2
*D31
340
0
  0
BLOCK_RECORD
  5
1A72
330
1
100
AcDbSymbolTableRecord
100
AcDbBlockTableRecord
  2
*D32
340
0
  0
BLOCK_RECORD
  5
1A9C
330
1
100
AcDbSymbolTableRecord
100
AcDbBlockTableRecord
  2
_None
340
0
  0
BLOCK_RECORD
  5
1B3D
330
1
100
AcDbSymbolTableRecord
100
AcDbBlockTableRecord
  2
*D34
340
0
  0
BLOCK_RECORD
  5
1B49
330
1
100
AcDbSymbolTableRecord
100
AcDbBlockTableRecord
  2
*D35
340
0
  0
BLOCK_RECORD
  5
1B55
330
1
100
AcDbSymbolTableRecord
100
AcDbBlockTableRecord
  2
*D36
340
0
  0
ENDTAB
  0
ENDSEC
  0
SECTION
  2
BLOCKS
  0
BLOCK
  5
20
330
1F
100
AcDbEntity
  8
0
100
AcDbBlockBegin
  2
*Model_Space
 70
     0
 10
0.0
 20
0.0
 30
0.0
  3
*Model_Space
  1

  0
ENDBLK
  5
21
330
1F
100
AcDbEntity
  8
0
100
AcDbBlockEnd
  0
BLOCK
  5
1C
330
1B
100
AcDbEntity
 67
     1
  8
0
100
AcDbBlockBegin
  2
*Paper_Space
 70
     0
 10
0.0
 20
0.0
 30
0.0
  3
*Paper_Space
  1

  0
ENDBLK
  5
1D
330
1B
100
AcDbEntity
 67
     1
  8
0
100
AcDbBlockEnd
  0
BLOCK
  5
24
330
23
100
AcDbEntity
  8
0
100
AcDbBlockBegin
  2
*Paper_Space0
 70
     0
 10
0.0
 20
0.0
 30
0.0
  3
*Paper_Space0
  1

  0
ENDBLK
  5
25
330
23
100
AcDbEntity
  8
0
100
AcDbBlockEnd
  0
BLOCK
  5
D2
330
D0
100
AcDbEntity
  8
0
100
AcDbBlockBegin
  2
_DotSmall
 70
     0
 10
0.0
 20
0.0
 30
0.0
  3
_DotSmall
  1

  0
LWPOLYLINE
  5
D1
330
D0
100
AcDbEntity
  8
0
 62
     0
100
AcDbPolyline
 90
        2
 70
     1
 43
0.5
 10
-0.0625
 20
0.0
 42
1.0
 10
0.0625
 20
0.0
 42
1.0
  0
ENDBLK
  5
D3
330
D0
100
AcDbEntity
  8
0
100
AcDbBlockEnd
  0
BLOCK
  5
D8
330
D4
100
AcDbEntity
  8
0
100
AcDbBlockBegin
  2
_Origin2
 70
     0
 10
0.0
 20
0.0
 30
0.0
  3
_Origin2
  1

  0
CIRCLE
  5
D5
330
D4
100
AcDbEntity
  8
0
 62
     0
370
    -2
100
AcDbCircle
 10
0.0
 20
0.0
 30
0.0
 40
0.5
  0
CIRCLE
  5
D6
330
D4
100
AcDbEntity
  8
0
 62
     0
370
    -2
100
AcDbCircle
 10
0.0
 20
0.0
 30
0.0
 40
0.25
  0
LINE
  5
D7
330
D4
100
AcDbEntity
  8
0
 62
     0
370
    -2
100
AcDbLine
 10
-0.5
 20
0.0
 30
0.0
 11
-1.0
 21
0.0
 31
0.0
  0
ENDBLK
  5
D9
330
D4
100
AcDbEntity
  8
0
100
AcDbBlockEnd
  0
BLOCK
  5
DE
330
DA
100
AcDbEntity
  8
0
100
AcDbBlockBegin
  2
_Open30
 70
     0
 10
0.0
 20
0.0
 30
0.0
  3
_Open30
  1

  0
LINE
  5
DB
330
DA
100
AcDbEntity
  8
0
 62
     0
370
    -2
100
AcDbLine
 10
-1.0
 20
0.26794919
 30
0.0
 11
0.0
 21
0.0
 31
0.0
  0
LINE
  5
DC
330
DA
100
AcDbEntity
  8
0
 62
     0
370
    -2
100
AcDbLine
 10
0.0
 20
0.0
 30
0.0
 11
-1.0
 21
-0.26794919
 31
0.0
  0
LINE
  5
DD
330
DA
100
AcDbEntity
  8
0
 62
     0
370
    -2
100
AcDbLine
 10
0.0
 20
0.0
 30
0.0
 11
-1.0
 21
0.0
 31
0.0
  0
ENDBLK
  5
DF
330
DA
100
AcDbEntity
  8
0
100
AcDbBlockEnd
  0
BLOCK
  5
418
330
40D
100
AcDbEntity
  8
0
100
AcDbBlockBegin
  2
*D4
 70
     1
 10
0.0
 20
0.0
 30
0.0
  3
*D4
  1

  0
LINE
  5
1B78
330
40D
100
AcDbEntity
  8
寸法
 62
     0
370
    15
100
AcDbLine
 10
703.5476286916446
 20
995.5734700774083
 30
0.0
 11
669.7519678300851
 21
995.5734700774083
 31
0.0
  0
LINE
  5
1B79
330
40D
100
AcDbEntity
  8
寸法
 62
     0
370
    15
100
AcDbLine
 10
703.5476286916446
 20
1010.573470077408
 30
0.0
 11
669.7519678300851
 21
1010.573470077408
 31
0.0
  0
LINE
  5
1B7A
330
40D
100
AcDbEntity
  8
寸法
 62
     0
370
    15
100
AcDbLine
 10
669.7519678300851
 20
995.5734700774083
 30
0.0
 11
669.7519678300851
 21
1010.573470077408
 31
0.0
  0
LINE
  5
1B7B
330
40D
100
AcDbEntity
  8
寸法
 62
     0
370
    15
100
AcDbLine
 10
669.7519678300851
 20
1010.573470077408
 30
0.0
 11
669.7519678300851
 21
1091.406803410741
 31
0.0
  0
INSERT
  5
1B7C
330
40D
100
AcDbEntity
  8
寸法
 62
     0
370
    15
100
AcDbBlockReference
  2
_DotSmall
 10
669.7519678300851
 20
995.5734700774083
 30
0.0
 41
35.0
 42
35.0
 43
35.0
 50
270.0
  0
INSERT
  5
1B7D
330
40D
100
AcDbEntity
  8
寸法
 62
     0
370
    15
100
AcDbBlockReference
  2
_DotSmall
 10
669.7519678300851
 20
1010.573470077408
 30
0.0
 41
35.0
 42
35.0
 43
35.0
 50
90.0
  0
MTEXT
  5
1B7E
330
40D
100
AcDbEntity
  8
寸法
 62
     0
100
AcDbMText
 10
651.001967830085
 20
1068.490136744075
 30
0.0
 40
25.0
 41
0.0
 71
     5
 72
     1
  1
15
 11
0.0000000000000001
 21
1.0
 31
0.0
 73
     1
 44
1.0
1001
ACAD
1000
MTEXTBEGIN
1070
    73
1070
     1
1070
    44
1040
1.0
1070
    74
1070
     0
1000
MTEXTEND
  0
POINT
  5
1B7F
330
40D
100
AcDbEntity
  8
Defpoints
 62
     0
100
AcDbPoint
 10
768.5476286916446
 20
995.5734700774083
 30
0.0
  0
POINT
  5
1B80
330
40D
100
AcDbEntity
  8
Defpoints
 62
     0
100
AcDbPoint
 10
768.5476286916446
 20
1010.573470077408
 30
0.0
  0
POINT
  5
1B81
330
40D
100
AcDbEntity
  8
Defpoints
 62
     0
100
AcDbPoint
 10
669.7519678300851
 20
1010.573470077408
 30
0.0
  0
ENDBLK
  5
419
330
40D
100
AcDbEntity
  8
0
100
AcDbBlockEnd
  0
BLOCK
  5
425
330
41B
100
AcDbEntity
  8
0
100
AcDbBlockBegin
  2
*D5
 70
     1
 10
0.0
 20
0.0
 30
0.0
  3
*D5
  1

  0
LINE
  5
1B82
330
41B
100
AcDbEntity
  8
寸法
 62
     0
370
    15
100
AcDbLine
 10
703.5476286916446
 20
1010.573470077408
 30
0.0
 11
669.751967830085
 21
1010.573470077408
 31
0.0
  0
LINE
  5
1B83
330
41B
100
AcDbEntity
  8
寸法
 62
     0
370
    15
100
AcDbLine
 10
703.5476286916446
 20
1420.573470077408
 30
0.0
 11
669.7519678300851
 21
1420.573470077408
 31
0.0
  0
LINE
  5
1B84
330
41B
100
AcDbEntity
  8
寸法
 62
     0
370
    15
100
AcDbLine
 10
669.751967830085
 20
1010.573470077408
 30
0.0
 11
669.7519678300851
 21
1420.573470077408
 31
0.0
  0
INSERT
  5
1B85
330
41B
100
AcDbEntity
  8
寸法
 62
     0
370
    15
100
AcDbBlockReference
  2
_DotSmall
 10
669.751967830085
 20
1010.573470077408
 30
0.0
 41
35.0
 42
35.0
 43
35.0
 50
270.0
  0
INSERT
  5
1B86
330
41B
100
AcDbEntity
  8
寸法
 62
     0
370
    15
100
AcDbBlockReference
  2
_DotSmall
 10
669.7519678300851
 20
1420.573470077408
 30
0.0
 41
35.0
 42
35.0
 43
35.0
 50
90.0
  0
MTEXT
  5
1B87
330
41B
100
AcDbEntity
  8
寸法
 62
     0
100
AcDbMText
 10
651.0019678300849
 20
1215.573470077408
 30
0.0
 40
25.0
 41
0.0
 71
     5
 72
     1
  1
410
 11
0.0000000000000001
 21
1.0
 31
0.0
 73
     1
 44
1.0
1001
ACAD
1000
MTEXTBEGIN
1070
    73
1070
     1
1070
    44
1040
1.0
1070
    74
1070
     0
1000
MTEXTEND
  0
POINT
  5
1B88
330
41B
100
AcDbEntity
  8
Defpoints
 62
     0
100
AcDbPoint
 10
768.5476286916446
 20
1010.573470077408
 30
0.0
  0
POINT
  5
1B89
330
41B
100
AcDbEntity
  8
Defpoints
 62
     0
100
AcDbPoint
 10
768.5476286916446
 20
1420.573470077408
 30
0.0
  0
POINT
  5
1B8A
330
41B
100
AcDbEntity
  8
Defpoints
 62
     0
100
AcDbPoint
 10
669.7519678300851
 20
1420.573470077408
 30
0.0
  0
ENDBLK
  5
426
330
41B
100
AcDbEntity
  8
0
100
AcDbBlockEnd
  0
BLOCK
  5
432
330
428
100
AcDbEntity
  8
0
100
AcDbBlockBegin
  2
*D6
 70
     1
 10
0.0
 20
0.0
 30
0.0
  3
*D6
  1

  0
LINE
  5
1B8B
330
428
100
AcDbEntity
  8
寸法
 62
     0
370
    15
100
AcDbLine
 10
703.5476286916446
 20
1420.573470077408
 30
0.0
 11
669.7519678300851
 21
1420.573470077408
 31
0.0
  0
LINE
  5
1B8C
330
428
100
AcDbEntity
  8
寸法
 62
     0
370
    15
100
AcDbLine
 10
703.5476286916446
 20
1435.573470077408
 30
0.0
 11
669.7519678300851
 21
1435.573470077408
 31
0.0
  0
LINE
  5
1B8D
330
428
100
AcDbEntity
  8
寸法
 62
     0
370
    15
100
AcDbLine
 10
669.7519678300851
 20
1420.573470077408
 30
0.0
 11
669.7519678300851
 21
1435.573470077408
 31
0.0
  0
MTEXT
  5
1B8E
330
428
100
AcDbEntity
  8
寸法
 62
     0
100
AcDbMText
 10
651.001967830085
 20
1383.00959549598
 30
0.0
 40
25.0
 41
0.0
 71
     5
 72
     1
  1
15
 11
0.0000000000000001
 21
1.0
 31
0.0
 73
     1
 44
1.0
1001
ACAD
1000
MTEXTBEGIN
1070
    73
1070
     1
1070
    44
1040
1.0
1070
    74
1070
     0
1000
MTEXTEND
  0
INSERT
  5
1B8F
330
428
100
AcDbEntity
  8
寸法
 62
     0
370
    15
100
AcDbBlockReference
  2
_DotSmall
 10
669.7519678300851
 20
1420.573470077408
 30
0.0
 41
35.0
 42
35.0
 43
35.0
 50
270.0
  0
INSERT
  5
1B90
330
428
100
AcDbEntity
  8
寸法
 62
     0
370
    15
100
AcDbBlockReference
  2
_DotSmall
 10
669.7519678300851
 20
1435.573470077408
 30
0.0
 41
35.0
 42
35.0
 43
35.0
 50
90.0
  0
POINT
  5
1B91
330
428
100
AcDbEntity
  8
Defpoints
 62
     0
100
AcDbPoint
 10
768.5476286916446
 20
1420.573470077408
 30
0.0
  0
POINT
  5
1B92
330
428
100
AcDbEntity
  8
Defpoints
 62
     0
100
AcDbPoint
 10
768.5476286916446
 20
1435.573470077408
 30
0.0
  0
POINT
  5
1B93
330
428
100
AcDbEntity
  8
Defpoints
 62
     0
100
AcDbPoint
 10
669.7519678300851
 20
1435.573470077408
 30
0.0
  0
ENDBLK
  5
433
330
428
100
AcDbEntity
  8
0
100
AcDbBlockEnd
  0
BLOCK
  5
464
330
45A
100
AcDbEntity
  8
0
100
AcDbBlockBegin
  2
*D7
 70
     1
 10
0.0
 20
0.0
 30
0.0
  3
*D7
  1

  0
LINE
  5
1B94
330
45A
100
AcDbEntity
  8
寸法
 62
     0
370
    15
100
AcDbLine
 10
703.5476286916446
 20
1435.573470077408
 30
0.0
 11
593.2595255905281
 21
1435.573470077408
 31
0.0
  0
LINE
  5
1B95
330
45A
100
AcDbEntity
  8
寸法
 62
     0
370
    15
100
AcDbLine
 10
703.5476286916446
 20
995.5734700774083
 30
0.0
 11
593.259525590528
 21
995.5734700774083
 31
0.0
  0
LINE
  5
1B96
330
45A
100
AcDbEntity
  8
寸法
 62
     0
370
    15
100
AcDbLine
 10
593.2595255905281
 20
1435.573470077408
 30
0.0
 11
593.259525590528
 21
995.5734700774083
 31
0.0
  0
INSERT
  5
1B97
330
45A
100
AcDbEntity
  8
寸法
 62
     0
370
    15
100
AcDbBlockReference
  2
_DotSmall
 10
593.2595255905281
 20
1435.573470077408
 30
0.0
 41
35.0
 42
35.0
 43
35.0
 50
90.0
  0
INSERT
  5
1B98
330
45A
100
AcDbEntity
  8
寸法
 62
     0
370
    15
100
AcDbBlockReference
  2
_DotSmall
 10
593.259525590528
 20
995.5734700774083
 30
0.0
 41
35.0
 42
35.0
 43
35.0
 50
270.0
  0
MTEXT
  5
1B99
330
45A
100
AcDbEntity
  8
寸法
 62
     0
100
AcDbMText
 10
574.5095255905279
 20
1215.573470077408
 30
0.0
 40
25.0
 41
0.0
 71
     5
 72
     1
  1
440
 11
0.0000000000000001
 21
1.0
 31
0.0
 73
     1
 44
1.0
1001
ACAD
1000
MTEXTBEGIN
1070
    73
1070
     1
1070
    44
1040
1.0
1070
    74
1070
     0
1000
MTEXTEND
  0
POINT
  5
1B9A
330
45A
100
AcDbEntity
  8
Defpoints
 62
     0
100
AcDbPoint
 10
768.5476286916446
 20
1435.573470077408
 30
0.0
  0
POINT
  5
1B9B
330
45A
100
AcDbEntity
  8
Defpoints
 62
     0
100
AcDbPoint
 10
768.5476286916446
 20
995.5734700774083
 30
0.0
  0
POINT
  5
1B9C
330
45A
100
AcDbEntity
  8
Defpoints
 62
     0
100
AcDbPoint
 10
593.259525590528
 20
995.5734700774083
 30
0.0
  0
ENDBLK
  5
465
330
45A
100
AcDbEntity
  8
0
100
AcDbBlockEnd
  0
BLOCK
  5
471
330
467
100
AcDbEntity
  8
0
100
AcDbBlockBegin
  2
*D8
 70
     1
 10
0.0
 20
0.0
 30
0.0
  3
*D8
  1

  0
LINE
  5
1B9D
330
467
100
AcDbEntity
  8
寸法
 62
     0
370
    15
100
AcDbLine
 10
703.5476286916446
 20
1435.573470077408
 30
0.0
 11
593.259525590528
 21
1435.573470077408
 31
0.0
  0
LINE
  5
1B9E
330
467
100
AcDbEntity
  8
寸法
 62
     0
370
    15
100
AcDbLine
 10
703.5476286916446
 20
1515.573470077408
 30
0.0
 11
593.259525590528
 21
1515.573470077408
 31
0.0
  0
LINE
  5
1B9F
330
467
100
AcDbEntity
  8
寸法
 62
     0
370
    15
100
AcDbLine
 10
593.259525590528
 20
1435.573470077408
 30
0.0
 11
593.259525590528
 21
1515.573470077408
 31
0.0
  0
INSERT
  5
1BA0
330
467
100
AcDbEntity
  8
寸法
 62
     0
370
    15
100
AcDbBlockReference
  2
_DotSmall
 10
593.259525590528
 20
1435.573470077408
 30
0.0
 41
35.0
 42
35.0
 43
35.0
 50
270.0
  0
INSERT
  5
1BA1
330
467
100
AcDbEntity
  8
寸法
 62
     0
370
    15
100
AcDbBlockReference
  2
_DotSmall
 10
593.259525590528
 20
1515.573470077408
 30
0.0
 41
35.0
 42
35.0
 43
35.0
 50
90.0
  0
MTEXT
  5
1BA2
330
467
100
AcDbEntity
  8
寸法
 62
     0
100
AcDbMText
 10
574.5095255905278
 20
1475.573470077408
 30
0.0
 40
25.0
 41
0.0
 71
     5
 72
     1
  1
80
 11
0.0000000000000001
 21
1.0
 31
0.0
 73
     1
 44
1.0
1001
ACAD
1000
MTEXTBEGIN
1070
    73
1070
     1
1070
    44
1040
1.0
1070
    74
1070
     0
1000
MTEXTEND
  0
POINT
  5
1BA3
330
467
100
AcDbEntity
  8
Defpoints
 62
     0
100
AcDbPoint
 10
768.5476286916446
 20
1435.573470077408
 30
0.0
  0
POINT
  5
1BA4
330
467
100
AcDbEntity
  8
Defpoints
 62
     0
100
AcDbPoint
 10
768.5476286916446
 20
1515.573470077408
 30
0.0
  0
POINT
  5
1BA5
330
467
100
AcDbEntity
  8
Defpoints
 62
     0
100
AcDbPoint
 10
593.259525590528
 20
1515.573470077408
 30
0.0
  0
ENDBLK
  5
472
330
467
100
AcDbEntity
  8
0
100
AcDbBlockEnd
  0
BLOCK
  5
487
330
47D
100
AcDbEntity
  8
0
100
AcDbBlockBegin
  2
*D9
 70
     1
 10
0.0
 20
0.0
 30
0.0
  3
*D9
  1

  0
LINE
  5
1BA6
330
47D
100
AcDbEntity
  8
寸法
 62
     0
370
    15
100
AcDbLine
 10
703.5476286916446
 20
1515.573470077408
 30
0.0
 11
593.259525590528
 21
1515.573470077408
 31
0.0
  0
LINE
  5
1BA7
330
47D
100
AcDbEntity
  8
寸法
 62
     0
370
    15
100
AcDbLine
 10
703.5476286916446
 20
1550.573470077408
 30
0.0
 11
593.259525590528
 21
1550.573470077408
 31
0.0
  0
LINE
  5
1BA8
330
47D
100
AcDbEntity
  8
寸法
 62
     0
370
    15
100
AcDbLine
 10
593.259525590528
 20
1515.573470077408
 30
0.0
 11
593.259525590528
 21
1550.573470077408
 31
0.0
  0
MTEXT
  5
1BA9
330
47D
100
AcDbEntity
  8
寸法
 62
     0
100
AcDbMText
 10
572.441866264473
 20
1583.668878314735
 30
0.0
 40
25.0
 41
0.0
 71
     5
 72
     1
  1
35
 11
0.0000000000000001
 21
1.0
 31
0.0
 73
     1
 44
1.0
1001
ACAD
1000
MTEXTBEGIN
1070
    73
1070
     1
1070
    44
1040
1.0
1070
    74
1070
     0
1000
MTEXTEND
  0
INSERT
  5
1BAA
330
47D
100
AcDbEntity
  8
寸法
 62
     0
370
    15
100
AcDbBlockReference
  2
_DotSmall
 10
593.259525590528
 20
1515.573470077408
 30
0.0
 41
35.0
 42
35.0
 43
35.0
 50
270.0
  0
INSERT
  5
1BAB
330
47D
100
AcDbEntity
  8
寸法
 62
     0
370
    15
100
AcDbBlockReference
  2
_DotSmall
 10
593.259525590528
 20
1550.573470077408
 30
0.0
 41
35.0
 42
35.0
 43
35.0
 50
90.0
  0
POINT
  5
1BAC
330
47D
100
AcDbEntity
  8
Defpoints
 62
     0
100
AcDbPoint
 10
768.5476286916446
 20
1515.573470077408
 30
0.0
  0
POINT
  5
1BAD
330
47D
100
AcDbEntity
  8
Defpoints
 62
     0
100
AcDbPoint
 10
768.5476286916446
 20
1550.573470077408
 30
0.0
  0
POINT
  5
1BAE
330
47D
100
AcDbEntity
  8
Defpoints
 62
     0
100
AcDbPoint
 10
593.259525590528
 20
1550.573470077408
 30
0.0
  0
ENDBLK
  5
488
330
47D
100
AcDbEntity
  8
0
100
AcDbBlockEnd
  0
BLOCK
  5
49D
330
493
100
AcDbEntity
  8
0
100
AcDbBlockBegin
  2
*D10
 70
     1
 10
0.0
 20
0.0
 30
0.0
  3
*D10
  1

  0
LINE
  5
1BAF
330
493
100
AcDbEntity
  8
寸法
 62
     0
370
    15
100
AcDbLine
 10
703.5476286916446
 20
1550.573470077408
 30
0.0
 11
515.7107418803499
 21
1550.573470077408
 31
0.0
  0
LINE
  5
1BB0
330
493
100
AcDbEntity
  8
寸法
 62
     0
370
    15
100
AcDbLine
 10
703.5476286916446
 20
960.5734700774084
 30
0.0
 11
515.7107418803498
 21
960.5734700774084
 31
0.0
  0
LINE
  5
1BB1
330
493
100
AcDbEntity
  8
寸法
 62
     0
370
    15
100
AcDbLine
 10
515.7107418803499
 20
1550.573470077408
 30
0.0
 11
515.7107418803498
 21
960.5734700774084
 31
0.0
  0
INSERT
  5
1BB2
330
493
100
AcDbEntity
  8
寸法
 62
     0
370
    15
100
AcDbBlockReference
  2
_DotSmall
 10
515.7107418803499
 20
1550.573470077408
 30
0.0
 41
35.0
 42
35.0
 43
35.0
 50
90.0
  0
INSERT
  5
1BB3
330
493
100
AcDbEntity
  8
寸法
 62
     0
370
    15
100
AcDbBlockReference
  2
_DotSmall
 10
515.7107418803498
 20
960.5734700774084
 30
0.0
 41
35.0
 42
35.0
 43
35.0
 50
270.0
  0
MTEXT
  5
1BB4
330
493
100
AcDbEntity
  8
寸法
 62
     0
100
AcDbMText
 10
496.9607418803496
 20
1255.573470077408
 30
0.0
 40
25.0
 41
0.0
 71
     5
 72
     1
  1
590
 11
0.0000000000000001
 21
1.0
 31
0.0
 73
     1
 44
1.0
1001
ACAD
1000
MTEXTBEGIN
1070
    73
1070
     1
1070
    44
1040
1.0
1070
    74
1070
     0
1000
MTEXTEND
  0
POINT
  5
1BB5
330
493
100
AcDbEntity
  8
Defpoints
 62
     0
100
AcDbPoint
 10
768.5476286916446
 20
1550.573470077408
 30
0.0
  0
POINT
  5
1BB6
330
493
100
AcDbEntity
  8
Defpoints
 62
     0
100
AcDbPoint
 10
768.5476286916446
 20
960.5734700774082
 30
0.0
  0
POINT
  5
1BB7
330
493
100
AcDbEntity
  8
Defpoints
 62
     0
100
AcDbPoint
 10
515.7107418803498
 20
960.5734700774084
 30
0.0
  0
ENDBLK
  5
49E
330
493
100
AcDbEntity
  8
0
100
AcDbBlockEnd
  0
BLOCK
  5
4CF
330
4C4
100
AcDbEntity
  8
0
100
AcDbBlockBegin
  2
*D11
 70
     1
 10
0.0
 20
0.0
 30
0.0
  3
*D11
  1

  0
LINE
  5
1BB8
330
4C4
100
AcDbEntity
  8
寸法
 62
     0
370
    15
100
AcDbLine
 10
703.5476286916446
 20
995.5734700774083
 30
0.0
 11
593.2595255905281
 21
995.5734700774083
 31
0.0
  0
LINE
  5
1BB9
330
4C4
100
AcDbEntity
  8
寸法
 62
     0
370
    15
100
AcDbLine
 10
703.5476286916446
 20
960.5734700774084
 30
0.0
 11
593.2595255905281
 21
960.5734700774084
 31
0.0
  0
LINE
  5
1BBA
330
4C4
100
AcDbEntity
  8
寸法
 62
     0
370
    15
100
AcDbLine
 10
593.2595255905281
 20
995.5734700774083
 30
0.0
 11
593.2595255905281
 21
960.5734700774084
 31
0.0
  0
MTEXT
  5
1BBB
330
4C4
100
AcDbEntity
  8
寸法
 62
     0
100
AcDbMText
 10
566.5357253461142
 20
990.6350240847624
 30
0.0
 40
25.0
 41
0.0
 71
     5
 72
     1
  1
35
 11
0.0000000000000001
 21
1.0
 31
0.0
 73
     1
 44
1.0
1001
ACAD
1000
MTEXTBEGIN
1070
    73
1070
     1
1070
    44
1040
1.0
1070
    74
1070
     0
1000
MTEXTEND
  0
INSERT
  5
1BBC
330
4C4
100
AcDbEntity
  8
寸法
 62
     0
370
    15
100
AcDbBlockReference
  2
_DotSmall
 10
593.2595255905281
 20
995.5734700774083
 30
0.0
 41
35.0
 42
35.0
 43
35.0
 50
90.0
  0
INSERT
  5
1BBD
330
4C4
100
AcDbEntity
  8
寸法
 62
     0
370
    15
100
AcDbBlockReference
  2
_DotSmall
 10
593.2595255905281
 20
960.5734700774084
 30
0.0
 41
35.0
 42
35.0
 43
35.0
 50
270.0
  0
POINT
  5
1BBE
330
4C4
100
AcDbEntity
  8
Defpoints
 62
     0
100
AcDbPoint
 10
768.5476286916446
 20
995.5734700774083
 30
0.0
  0
POINT
  5
1BBF
330
4C4
100
AcDbEntity
  8
Defpoints
 62
     0
100
AcDbPoint
 10
768.5476286916446
 20
960.5734700774082
 30
0.0
  0
POINT
  5
1BC0
330
4C4
100
AcDbEntity
  8
Defpoints
 62
     0
100
AcDbPoint
 10
593.2595255905281
 20
960.5734700774084
 30
0.0
  0
ENDBLK
  5
4D0
330
4C4
100
AcDbEntity
  8
0
100
AcDbBlockEnd
  0
BLOCK
  5
4F1
330
4E6
100
AcDbEntity
  8
0
100
AcDbBlockBegin
  2
*D12
 70
     1
 10
0.0
 20
0.0
 30
0.0
  3
*D12
  1

  0
LINE
  5
1BC1
330
4E6
100
AcDbEntity
  8
寸法
 62
     0
370
    15
100
AcDbLine
 10
753.5476286916446
 20
910.5734700774082
 30
0.0
 11
753.5476286916446
 21
863.5709628180547
 31
0.0
  0
LINE
  5
1BC2
330
4E6
100
AcDbEntity
  8
寸法
 62
     0
370
    15
100
AcDbLine
 10
788.5476286916445
 20
910.5734700774082
 30
0.0
 11
788.5476286916445
 21
863.5709628180547
 31
0.0
  0
LINE
  5
1BC3
330
4E6
100
AcDbEntity
  8
寸法
 62
     0
370
    15
100
AcDbLine
 10
753.5476286916446
 20
863.5709628180547
 30
0.0
 11
788.5476286916445
 21
863.5709628180547
 31
0.0
  0
MTEXT
  5
1BC4
330
4E6
100
AcDbEntity
  8
寸法
 62
     0
100
AcDbMText
 10
824.1676993410811
 20
885.0233388768728
 30
0.0
 40
25.0
 41
0.0
 71
     5
 72
     1
  1
35
 73
     1
 44
1.0
1001
ACAD
1000
MTEXTBEGIN
1070
    73
1070
     1
1070
    44
1040
1.0
1070
    74
1070
     0
1000
MTEXTEND
  0
INSERT
  5
1BC5
330
4E6
100
AcDbEntity
  8
寸法
 62
     0
370
    15
100
AcDbBlockReference
  2
_DotSmall
 10
753.5476286916446
 20
863.5709628180547
 30
0.0
 41
35.0
 42
35.0
 43
35.0
 50
180.0
  0
INSERT
  5
1BC6
330
4E6
100
AcDbEntity
  8
寸法
 62
     0
370
    15
100
AcDbBlockReference
  2
_DotSmall
 10
788.5476286916445
 20
863.5709628180547
 30
0.0
 41
35.0
 42
35.0
 43
35.0
  0
POINT
  5
1BC7
330
4E6
100
AcDbEntity
  8
Defpoints
 62
     0
100
AcDbPoint
 10
753.5476286916446
 20
975.5734700774082
 30
0.0
  0
POINT
  5
1BC8
330
4E6
100
AcDbEntity
  8
Defpoints
 62
     0
100
AcDbPoint
 10
788.5476286916445
 20
975.5734700774082
 30
0.0
  0
POINT
  5
1BC9
330
4E6
100
AcDbEntity
  8
Defpoints
 62
     0
100
AcDbPoint
 10
788.5476286916445
 20
863.5709628180547
 30
0.0
  0
ENDBLK
  5
4F2
330
4E6
100
AcDbEntity
  8
0
100
AcDbBlockEnd
  0
BLOCK
  5
508
330
4FE
100
AcDbEntity
  8
0
100
AcDbBlockBegin
  2
*D13
 70
     1
 10
0.0
 20
0.0
 30
0.0
  3
*D13
  1

  0
LINE
  5
1BCA
330
4FE
100
AcDbEntity
  8
寸法
 62
     0
370
    15
100
AcDbLine
 10
788.5476286916445
 20
910.5734700774082
 30
0.0
 11
788.5476286916445
 21
863.3501446765031
 31
0.0
  0
LINE
  5
1BCB
330
4FE
100
AcDbEntity
  8
寸法
 62
     0
370
    15
100
AcDbLine
 10
1738.547628691645
 20
910.5734700774082
 30
0.0
 11
1738.547628691645
 21
863.3501446765031
 31
0.0
  0
LINE
  5
1BCC
330
4FE
100
AcDbEntity
  8
寸法
 62
     0
370
    15
100
AcDbLine
 10
788.5476286916445
 20
863.3501446765031
 30
0.0
 11
1738.547628691645
 21
863.3501446765031
 31
0.0
  0
INSERT
  5
1BCD
330
4FE
100
AcDbEntity
  8
寸法
 62
     0
370
    15
100
AcDbBlockReference
  2
_DotSmall
 10
788.5476286916445
 20
863.3501446765031
 30
0.0
 41
35.0
 42
35.0
 43
35.0
 50
180.0
  0
INSERT
  5
1BCE
330
4FE
100
AcDbEntity
  8
寸法
 62
     0
370
    15
100
AcDbBlockReference
  2
_DotSmall
 10
1738.547628691645
 20
863.3501446765031
 30
0.0
 41
35.0
 42
35.0
 43
35.0
  0
MTEXT
  5
1BCF
330
4FE
100
AcDbEntity
  8
寸法
 62
     0
100
AcDbMText
 10
1263.547628691644
 20
882.1001446765031
 30
0.0
 40
25.0
 41
0.0
 71
     5
 72
     1
  1
950
 73
     1
 44
1.0
1001
ACAD
1000
MTEXTBEGIN
1070
    73
1070
     1
1070
    44
1040
1.0
1070
    74
1070
     0
1000
MTEXTEND
  0
POINT
  5
1BD0
330
4FE
100
AcDbEntity
  8
Defpoints
 62
     0
100
AcDbPoint
 10
788.5476286916445
 20
975.5734700774082
 30
0.0
  0
POINT
  5
1BD1
330
4FE
100
AcDbEntity
  8
Defpoints
 62
     0
100
AcDbPoint
 10
1738.547628691645
 20
975.5734700774082
 30
0.0
  0
POINT
  5
1BD2
330
4FE
100
AcDbEntity
  8
Defpoints
 62
     0
100
AcDbPoint
 10
1738.547628691645
 20
863.3501446765031
 30
0.0
  0
ENDBLK
  5
509
330
4FE
100
AcDbEntity
  8
0
100
AcDbBlockEnd
  0
BLOCK
  5
517
330
50B
100
AcDbEntity
  8
0
100
AcDbBlockBegin
  2
*D14
 70
     1
 10
0.0
 20
0.0
 30
0.0
  3
*D14
  1

  0
LINE
  5
1BD3
330
50B
100
AcDbEntity
  8
寸法
 62
     0
370
    15
100
AcDbLine
 10
1738.547628691645
 20
910.5734700774082
 30
0.0
 11
1738.547628691645
 21
863.3501446765031
 31
0.0
  0
LINE
  5
1BD4
330
50B
100
AcDbEntity
  8
寸法
 62
     0
370
    15
100
AcDbLine
 10
1773.547628691645
 20
910.5734700774082
 30
0.0
 11
1773.547628691645
 21
863.3501446765031
 31
0.0
  0
LINE
  5
1BD5
330
50B
100
AcDbEntity
  8
寸法
 62
     0
370
    15
100
AcDbLine
 10
1738.547628691645
 20
863.3501446765031
 30
0.0
 11
1773.547628691645
 21
863.3501446765031
 31
0.0
  0
MTEXT
  5
1BD6
330
50B
100
AcDbEntity
  8
寸法
 62
     0
100
AcDbMText
 10
1696.914850884905
 20
882.1001446765031
 30
0.0
 40
25.0
 41
0.0
 71
     5
 72
     1
  1
35
 73
     1
 44
1.0
1001
ACAD
1000
MTEXTBEGIN
1070
    73
1070
     1
1070
    44
1040
1.0
1070
    74
1070
     0
1000
MTEXTEND
  0
INSERT
  5
1BD7
330
50B
100
AcDbEntity
  8
寸法
 62
     0
370
    15
100
AcDbBlockReference
  2
_DotSmall
 10
1738.547628691645
 20
863.3501446765031
 30
0.0
 41
35.0
 42
35.0
 43
35.0
 50
180.0
  0
INSERT
  5
1BD8
330
50B
100
AcDbEntity
  8
寸法
 62
     0
370
    15
100
AcDbBlockReference
  2
_DotSmall
 10
1773.547628691645
 20
863.3501446765031
 30
0.0
 41
35.0
 42
35.0
 43
35.0
  0
POINT
  5
1BD9
330
50B
100
AcDbEntity
  8
Defpoints
 62
     0
100
AcDbPoint
 10
1738.547628691645
 20
975.5734700774082
 30
0.0
  0
POINT
  5
1BDA
330
50B
100
AcDbEntity
  8
Defpoints
 62
     0
100
AcDbPoint
 10
1773.547628691645
 20
975.5734700774082
 30
0.0
  0
POINT
  5
1BDB
330
50B
100
AcDbEntity
  8
Defpoints
 62
     0
100
AcDbPoint
 10
1773.547628691645
 20
863.3501446765031
 30
0.0
  0
ENDBLK
  5
518
330
50B
100
AcDbEntity
  8
0
100
AcDbBlockEnd
  0
BLOCK
  5
52D
330
523
100
AcDbEntity
  8
0
100
AcDbBlockBegin
  2
*D15
 70
     1
 10
0.0
 20
0.0
 30
0.0
  3
*D15
  1

  0
LINE
  5
1BDC
330
523
100
AcDbEntity
  8
寸法
 62
     0
370
    15
100
AcDbLine
 10
753.5476286916446
 20
910.5734700774082
 30
0.0
 11
753.5476286916446
 21
789.2297294428435
 31
0.0
  0
LINE
  5
1BDD
330
523
100
AcDbEntity
  8
寸法
 62
     0
370
    15
100
AcDbLine
 10
1773.547628691645
 20
910.5734700774082
 30
0.0
 11
1773.547628691645
 21
789.2297294428435
 31
0.0
  0
LINE
  5
1BDE
330
523
100
AcDbEntity
  8
寸法
 62
     0
370
    15
100
AcDbLine
 10
753.5476286916446
 20
789.2297294428435
 30
0.0
 11
1773.547628691645
 21
789.2297294428435
 31
0.0
  0
INSERT
  5
1BDF
330
523
100
AcDbEntity
  8
寸法
 62
     0
370
    15
100
AcDbBlockReference
  2
_DotSmall
 10
753.5476286916446
 20
789.2297294428435
 30
0.0
 41
35.0
 42
35.0
 43
35.0
 50
180.0
  0
INSERT
  5
1BE0
330
523
100
AcDbEntity
  8
寸法
 62
     0
370
    15
100
AcDbBlockReference
  2
_DotSmall
 10
1773.547628691645
 20
789.2297294428435
 30
0.0
 41
35.0
 42
35.0
 43
35.0
  0
MTEXT
  5
1BE1
330
523
100
AcDbEntity
  8
寸法
 62
     0
100
AcDbMText
 10
1263.547628691644
 20
807.9797294428436
 30
0.0
 40
25.0
 41
0.0
 71
     5
 72
     1
  1
1020
 73
     1
 44
1.0
1001
ACAD
1000
MTEXTBEGIN
1070
    73
1070
     1
1070
    44
1040
1.0
1070
    74
1070
     0
1000
MTEXTEND
  0
POINT
  5
1BE2
330
523
100
AcDbEntity
  8
Defpoints
 62
     0
100
AcDbPoint
 10
753.5476286916446
 20
975.5734700774082
 30
0.0
  0
POINT
  5
1BE3
330
523
100
AcDbEntity
  8
Defpoints
 62
     0
100
AcDbPoint
 10
1773.547628691645
 20
975.5734700774082
 30
0.0
  0
POINT
  5
1BE4
330
523
100
AcDbEntity
  8
Defpoints
 62
     0
100
AcDbPoint
 10
1773.547628691645
 20
789.2297294428435
 30
0.0
  0
ENDBLK
  5
52E
330
523
100
AcDbEntity
  8
0
100
AcDbBlockEnd
  0
BLOCK
  5
53C
330
530
100
AcDbEntity
  8
0
100
AcDbBlockBegin
  2
*D16
 70
     1
 10
0.0
 20
0.0
 30
0.0
  3
*D16
  1

  0
LINE
  5
1BE5
330
530
100
AcDbEntity
  8
寸法
 62
     0
370
    15
100
AcDbLine
 10
743.5476286916446
 20
373.5734700774083
 30
0.0
 11
684.4010880822698
 21
373.5734700774083
 31
0.0
  0
LINE
  5
1BE6
330
530
100
AcDbEntity
  8
寸法
 62
     0
370
    15
100
AcDbLine
 10
743.5476286916446
 20
380.5734700774083
 30
0.0
 11
684.4010880822698
 21
380.5734700774083
 31
0.0
  0
MTEXT
  5
1BE7
330
530
100
AcDbEntity
  8
寸法
 62
     0
100
AcDbMText
 10
656.6722447205592
 20
353.2559833608084
 30
0.0
 40
25.0
 41
0.0
 71
     5
 72
     1
  1
7
 11
0.0000000000000001
 21
1.0
 31
0.0
 73
     1
 44
1.0
1001
ACAD
1000
MTEXTBEGIN
1070
    73
1070
     1
1070
    44
1040
1.0
1070
    74
1070
     0
1000
MTEXTEND
  0
POINT
  5
1BE8
330
530
100
AcDbEntity
  8
Defpoints
 62
     0
100
AcDbPoint
 10
773.5476286916446
 20
373.5734700774083
 30
0.0
  0
POINT
  5
1BE9
330
530
100
AcDbEntity
  8
Defpoints
 62
     0
100
AcDbPoint
 10
773.5476286916446
 20
380.5734700774083
 30
0.0
  0
POINT
  5
1BEA
330
530
100
AcDbEntity
  8
Defpoints
 62
     0
100
AcDbPoint
 10
684.4010880822698
 20
380.5734700774083
 30
0.0
  0
ENDBLK
  5
53D
330
530
100
AcDbEntity
  8
0
100
AcDbBlockEnd
  0
BLOCK
  5
554
330
54A
100
AcDbEntity
  8
0
100
AcDbBlockBegin
  2
*D17
 70
     1
 10
0.0
 20
0.0
 30
0.0
  3
*D17
  1

  0
LINE
  5
1BEB
330
54A
100
AcDbEntity
  8
寸法
 62
     0
370
    15
100
AcDbLine
 10
693.5476286916446
 20
380.5734700774083
 30
0.0
 11
624.5651718129838
 21
380.5734700774083
 31
0.0
  0
LINE
  5
1BEC
330
54A
100
AcDbEntity
  8
寸法
 62
     0
370
    15
100
AcDbLine
 10
688.5476286916445
 20
580.5734700774082
 30
0.0
 11
624.5651718129838
 21
580.5734700774082
 31
0.0
  0
LINE
  5
1BED
330
54A
100
AcDbEntity
  8
寸法
 62
     0
370
    15
100
AcDbLine
 10
624.5651718129838
 20
380.5734700774083
 30
0.0
 11
624.5651718129838
 21
580.5734700774082
 31
0.0
  0
INSERT
  5
1BEE
330
54A
100
AcDbEntity
  8
寸法
 62
     0
370
    15
100
AcDbBlockReference
  2
_DotSmall
 10
624.5651718129838
 20
380.5734700774083
 30
0.0
 41
35.0
 42
35.0
 43
35.0
 50
270.0
  0
INSERT
  5
1BEF
330
54A
100
AcDbEntity
  8
寸法
 62
     0
370
    15
100
AcDbBlockReference
  2
_DotSmall
 10
624.5651718129838
 20
580.5734700774082
 30
0.0
 41
35.0
 42
35.0
 43
35.0
 50
90.0
  0
MTEXT
  5
1BF0
330
54A
100
AcDbEntity
  8
寸法
 62
     0
100
AcDbMText
 10
605.8151718129837
 20
480.5734700774083
 30
0.0
 40
25.0
 41
0.0
 71
     5
 72
     1
  1
200
 11
0.0000000000000001
 21
1.0
 31
0.0
 73
     1
 44
1.0
1001
ACAD
1000
MTEXTBEGIN
1070
    73
1070
     1
1070
    44
1040
1.0
1070
    74
1070
     0
1000
MTEXTEND
  0
POINT
  5
1BF1
330
54A
100
AcDbEntity
  8
Defpoints
 62
     0
100
AcDbPoint
 10
758.5476286916446
 20
380.5734700774083
 30
0.0
  0
POINT
  5
1BF2
330
54A
100
AcDbEntity
  8
Defpoints
 62
     0
100
AcDbPoint
 10
753.5476286916446
 20
580.5734700774082
 30
0.0
  0
POINT
  5
1BF3
330
54A
100
AcDbEntity
  8
Defpoints
 62
     0
100
AcDbPoint
 10
624.5651718129838
 20
580.5734700774082
 30
0.0
  0
ENDBLK
  5
555
330
54A
100
AcDbEntity
  8
0
100
AcDbBlockEnd
  0
BLOCK
  5
6F5
330
6EB
100
AcDbEntity
  8
0
100
AcDbBlockBegin
  2
*D18
 70
     1
 10
0.0
 20
0.0
 30
0.0
  3
*D18
  1

  0
LINE
  5
1CF8
330
6EB
100
AcDbEntity
  8
寸法
 62
     0
370
    15
100
AcDbLine
 10
2295.026047382163
 20
1370.073470077408
 30
0.0
 11
2341.597892053552
 21
1370.073470077408
 31
0.0
  0
LINE
  5
1CF9
330
6EB
100
AcDbEntity
  8
寸法
 62
     0
370
    15
100
AcDbLine
 10
2295.026047382163
 20
1211.073470077408
 30
0.0
 11
2341.597892053552
 21
1211.073470077408
 31
0.0
  0
LINE
  5
1CFA
330
6EB
100
AcDbEntity
  8
寸法
 62
     0
370
    15
100
AcDbLine
 10
2341.597892053552
 20
1370.073470077408
 30
0.0
 11
2341.597892053552
 21
1211.073470077408
 31
0.0
  0
INSERT
  5
1CFB
330
6EB
100
AcDbEntity
  8
寸法
 62
     0
370
    15
100
AcDbBlockReference
  2
_DotSmall
 10
2341.597892053552
 20
1370.073470077408
 30
0.0
 41
35.0
 42
35.0
 43
35.0
 50
90.0
  0
INSERT
  5
1CFC
330
6EB
100
AcDbEntity
  8
寸法
 62
     0
370
    15
100
AcDbBlockReference
  2
_DotSmall
 10
2341.597892053552
 20
1211.073470077408
 30
0.0
 41
35.0
 42
35.0
 43
35.0
 50
270.0
  0
MTEXT
  5
1CFD
330
6EB
100
AcDbEntity
  8
寸法
 62
     0
100
AcDbMText
 10
2322.847892053551
 20
1289.781462034534
 30
0.0
 40
25.0
 41
0.0
 71
     5
 72
     1
  1
158%%C
 11
0.0000000000000001
 21
1.0
 31
0.0
 73
     1
 44
1.0
1001
ACAD
1000
MTEXTBEGIN
1070
    73
1070
     1
1070
    44
1040
1.0
1070
    74
1070
     0
1000
MTEXTEND
  0
POINT
  5
1CFE
330
6EB
100
AcDbEntity
  8
Defpoints
 62
     0
100
AcDbPoint
 10
2230.026047382164
 20
1370.073470077408
 30
0.0
  0
POINT
  5
1CFF
330
6EB
100
AcDbEntity
  8
Defpoints
 62
     0
100
AcDbPoint
 10
2230.026047382164
 20
1211.073470077408
 30
0.0
  0
POINT
  5
1D00
330
6EB
100
AcDbEntity
  8
Defpoints
 62
     0
100
AcDbPoint
 10
2341.597892053552
 20
1211.073470077408
 30
0.0
  0
ENDBLK
  5
6F6
330
6EB
100
AcDbEntity
  8
0
100
AcDbBlockEnd
  0
BLOCK
  5
786
330
77C
100
AcDbEntity
  8
0
100
AcDbBlockBegin
  2
*D19
 70
     1
 10
0.0
 20
0.0
 30
0.0
  3
*D19
  1

  0
LINE
  5
1BFD
330
77C
100
AcDbEntity
  8
寸法
 62
     0
370
    15
100
AcDbLine
 10
2212.265433205294
 20
1381.073470077408
 30
0.0
 11
2137.578723312281
 21
1381.073470077408
 31
0.0
  0
LINE
  5
1BFE
330
77C
100
AcDbEntity
  8
寸法
 62
     0
370
    15
100
AcDbLine
 10
2212.265433205294
 20
1200.073470077408
 30
0.0
 11
2137.578723312281
 21
1200.073470077408
 31
0.0
  0
LINE
  5
1BFF
330
77C
100
AcDbEntity
  8
寸法
 62
     0
370
    15
100
AcDbLine
 10
2137.578723312281
 20
1381.073470077408
 30
0.0
 11
2137.578723312281
 21
1200.073470077408
 31
0.0
  0
INSERT
  5
1C00
330
77C
100
AcDbEntity
  8
寸法
 62
     0
370
    15
100
AcDbBlockReference
  2
_DotSmall
 10
2137.578723312281
 20
1381.073470077408
 30
0.0
 41
35.0
 42
35.0
 43
35.0
 50
90.0
  0
INSERT
  5
1C01
330
77C
100
AcDbEntity
  8
寸法
 62
     0
370
    15
100
AcDbBlockReference
  2
_DotSmall
 10
2137.578723312281
 20
1200.073470077408
 30
0.0
 41
35.0
 42
35.0
 43
35.0
 50
270.0
  0
MTEXT
  5
1C02
330
77C
100
AcDbEntity
  8
寸法
 62
     0
100
AcDbMText
 10
2118.828723312281
 20
1290.573470077408
 30
0.0
 40
25.0
 41
0.0
 71
     5
 72
     1
  1
181%%C
 11
0.0000000000000001
 21
1.0
 31
0.0
 73
     1
 44
1.0
1001
ACAD
1000
MTEXTBEGIN
1070
    73
1070
     1
1070
    44
1040
1.0
1070
    74
1070
     0
1000
MTEXTEND
  0
POINT
  5
1C03
330
77C
100
AcDbEntity
  8
Defpoints
 62
     0
100
AcDbPoint
 10
2277.265433205295
 20
1381.073470077408
 30
0.0
  0
POINT
  5
1C04
330
77C
100
AcDbEntity
  8
Defpoints
 62
     0
100
AcDbPoint
 10
2277.265433205295
 20
1200.073470077408
 30
0.0
  0
POINT
  5
1C05
330
77C
100
AcDbEntity
  8
Defpoints
 62
     0
100
AcDbPoint
 10
2137.578723312281
 20
1200.073470077408
 30
0.0
  0
ENDBLK
  5
787
330
77C
100
AcDbEntity
  8
0
100
AcDbBlockEnd
  0
BLOCK
  5
794
330
789
100
AcDbEntity
  8
0
100
AcDbBlockBegin
  2
*D20
 70
     1
 10
0.0
 20
0.0
 30
0.0
  3
*D20
  1

  0
LINE
  5
1C06
330
789
100
AcDbEntity
  8
寸法
 62
     0
370
    15
100
AcDbLine
 10
2023.026047382164
 20
910.5734700774082
 30
0.0
 11
2023.026047382164
 21
874.8253177789111
 31
0.0
  0
LINE
  5
1C07
330
789
100
AcDbEntity
  8
寸法
 62
     0
370
    15
100
AcDbLine
 10
2038.026047382164
 20
910.5734700774082
 30
0.0
 11
2038.026047382164
 21
874.8253177789111
 31
0.0
  0
LINE
  5
1C08
330
789
100
AcDbEntity
  8
寸法
 62
     0
370
    15
100
AcDbLine
 10
2023.026047382164
 20
874.8253177789111
 30
0.0
 11
2038.026047382164
 21
874.8253177789111
 31
0.0
  0
MTEXT
  5
1C09
330
789
100
AcDbEntity
  8
寸法
 62
     0
100
AcDbMText
 10
1985.339790394158
 20
873.5136497402427
 30
0.0
 40
25.0
 41
0.0
 71
     5
 72
     1
  1
15
 73
     1
 44
1.0
1001
ACAD
1000
MTEXTBEGIN
1070
    73
1070
     1
1070
    44
1040
1.0
1070
    74
1070
     0
1000
MTEXTEND
  0
INSERT
  5
1C0A
330
789
100
AcDbEntity
  8
寸法
 62
     0
370
    15
100
AcDbBlockReference
  2
_DotSmall
 10
2023.026047382164
 20
874.8253177789111
 30
0.0
 41
35.0
 42
35.0
 43
35.0
 50
180.0
  0
INSERT
  5
1C0B
330
789
100
AcDbEntity
  8
寸法
 62
     0
370
    15
100
AcDbBlockReference
  2
_DotSmall
 10
2038.026047382164
 20
874.8253177789111
 30
0.0
 41
35.0
 42
35.0
 43
35.0
  0
POINT
  5
1C0C
330
789
100
AcDbEntity
  8
Defpoints
 62
     0
100
AcDbPoint
 10
2023.026047382164
 20
975.5734700774082
 30
0.0
  0
POINT
  5
1C0D
330
789
100
AcDbEntity
  8
Defpoints
 62
     0
100
AcDbPoint
 10
2038.026047382164
 20
975.5734700774082
 30
0.0
  0
POINT
  5
1C0E
330
789
100
AcDbEntity
  8
Defpoints
 62
     0
100
AcDbPoint
 10
2038.026047382164
 20
874.8253177789111
 30
0.0
  0
ENDBLK
  5
795
330
789
100
AcDbEntity
  8
0
100
AcDbBlockEnd
  0
BLOCK
  5
7AB
330
7A1
100
AcDbEntity
  8
0
100
AcDbBlockBegin
  2
*D21
 70
     1
 10
0.0
 20
0.0
 30
0.0
  3
*D21
  1

  0
LINE
  5
1C0F
330
7A1
100
AcDbEntity
  8
寸法
 62
     0
370
    15
100
AcDbLine
 10
2038.026047382164
 20
910.5734700774082
 30
0.0
 11
2038.026047382164
 21
874.8253177789111
 31
0.0
  0
LINE
  5
1C10
330
7A1
100
AcDbEntity
  8
寸法
 62
     0
370
    15
100
AcDbLine
 10
2223.026047382164
 20
915.5734700774083
 30
0.0
 11
2223.026047382164
 21
874.8253177789111
 31
0.0
  0
LINE
  5
1C11
330
7A1
100
AcDbEntity
  8
寸法
 62
     0
370
    15
100
AcDbLine
 10
2038.026047382164
 20
874.8253177789111
 30
0.0
 11
2223.026047382164
 21
874.8253177789111
 31
0.0
  0
INSERT
  5
1C12
330
7A1
100
AcDbEntity
  8
寸法
 62
     0
370
    15
100
AcDbBlockReference
  2
_DotSmall
 10
2038.026047382164
 20
874.8253177789111
 30
0.0
 41
35.0
 42
35.0
 43
35.0
 50
180.0
  0
INSERT
  5
1C13
330
7A1
100
AcDbEntity
  8
寸法
 62
     0
370
    15
100
AcDbBlockReference
  2
_DotSmall
 10
2223.026047382164
 20
874.8253177789111
 30
0.0
 41
35.0
 42
35.0
 43
35.0
  0
MTEXT
  5
1C14
330
7A1
100
AcDbEntity
  8
寸法
 62
     0
100
AcDbMText
 10
2130.526047382164
 20
893.5753177789111
 30
0.0
 40
25.0
 41
0.0
 71
     5
 72
     1
  1
185
 73
     1
 44
1.0
1001
ACAD
1000
MTEXTBEGIN
1070
    73
1070
     1
1070
    44
1040
1.0
1070
    74
1070
     0
1000
MTEXTEND
  0
POINT
  5
1C15
330
7A1
100
AcDbEntity
  8
Defpoints
 62
     0
100
AcDbPoint
 10
2038.026047382164
 20
975.5734700774082
 30
0.0
  0
POINT
  5
1C16
330
7A1
100
AcDbEntity
  8
Defpoints
 62
     0
100
AcDbPoint
 10
2223.026047382164
 20
980.5734700774083
 30
0.0
  0
POINT
  5
1C17
330
7A1
100
AcDbEntity
  8
Defpoints
 62
     0
100
AcDbPoint
 10
2223.026047382164
 20
874.8253177789111
 30
0.0
  0
ENDBLK
  5
7AC
330
7A1
100
AcDbEntity
  8
0
100
AcDbBlockEnd
  0
BLOCK
  5
7BD
330
7AE
100
AcDbEntity
  8
0
100
AcDbBlockBegin
  2
*D22
 70
     1
 10
0.0
 20
0.0
 30
0.0
  3
*D22
  1

  0
LINE
  5
1C18
330
7AE
100
AcDbEntity
  8
寸法
 62
     0
370
    15
100
AcDbLine
 10
2223.026047382164
 20
915.5734700774083
 30
0.0
 11
2223.026047382164
 21
874.8253177789111
 31
0.0
  0
LINE
  5
1C19
330
7AE
100
AcDbEntity
  8
寸法
 62
     0
370
    15
100
AcDbLine
 10
2230.026047382164
 20
915.5734700774083
 30
0.0
 11
2230.026047382164
 21
874.8253177789111
 31
0.0
  0
MTEXT
  5
1C1A
330
7AE
100
AcDbEntity
  8
寸法
 62
     0
100
AcDbMText
 10
2246.838547382164
 20
893.6700997421294
 30
0.0
 40
25.0
 41
0.0
 71
     5
 72
     1
  1
7
 73
     1
 44
1.0
1001
ACAD
1000
MTEXTBEGIN
1070
    73
1070
     1
1070
    44
1040
1.0
1070
    74
1070
     0
1000
MTEXTEND
  0
POINT
  5
1C1B
330
7AE
100
AcDbEntity
  8
Defpoints
 62
     0
100
AcDbPoint
 10
2223.026047382164
 20
980.5734700774083
 30
0.0
  0
POINT
  5
1C1C
330
7AE
100
AcDbEntity
  8
Defpoints
 62
     0
100
AcDbPoint
 10
2230.026047382164
 20
980.5734700774083
 30
0.0
  0
POINT
  5
1C1D
330
7AE
100
AcDbEntity
  8
Defpoints
 62
     0
100
AcDbPoint
 10
2230.026047382164
 20
874.8253177789111
 30
0.0
  0
ENDBLK
  5
7BE
330
7AE
100
AcDbEntity
  8
0
100
AcDbBlockEnd
  0
BLOCK
  5
7D5
330
7CB
100
AcDbEntity
  8
0
100
AcDbBlockBegin
  2
*D23
 70
     1
 10
0.0
 20
0.0
 30
0.0
  3
*D23
  1

  0
LINE
  5
1C1E
330
7CB
100
AcDbEntity
  8
寸法
 62
     0
370
    15
100
AcDbLine
 10
2223.026047382164
 20
915.5734700774083
 30
0.0
 11
2223.026047382164
 21
814.2937286378405
 31
0.0
  0
LINE
  5
1C1F
330
7CB
100
AcDbEntity
  8
寸法
 62
     0
370
    15
100
AcDbLine
 10
2023.026047382164
 20
910.5734700774082
 30
0.0
 11
2023.026047382164
 21
814.2937286378405
 31
0.0
  0
LINE
  5
1C20
330
7CB
100
AcDbEntity
  8
寸法
 62
     0
370
    15
100
AcDbLine
 10
2223.026047382164
 20
814.2937286378405
 30
0.0
 11
2023.026047382164
 21
814.2937286378405
 31
0.0
  0
INSERT
  5
1C21
330
7CB
100
AcDbEntity
  8
寸法
 62
     0
370
    15
100
AcDbBlockReference
  2
_DotSmall
 10
2223.026047382164
 20
814.2937286378405
 30
0.0
 41
35.0
 42
35.0
 43
35.0
  0
INSERT
  5
1C22
330
7CB
100
AcDbEntity
  8
寸法
 62
     0
370
    15
100
AcDbBlockReference
  2
_DotSmall
 10
2023.026047382164
 20
814.2937286378405
 30
0.0
 41
35.0
 42
35.0
 43
35.0
 50
180.0
  0
MTEXT
  5
1C23
330
7CB
100
AcDbEntity
  8
寸法
 62
     0
100
AcDbMText
 10
2123.026047382164
 20
833.0437286378405
 30
0.0
 40
25.0
 41
0.0
 71
     5
 72
     1
  1
200
 73
     1
 44
1.0
1001
ACAD
1000
MTEXTBEGIN
1070
    73
1070
     1
1070
    44
1040
1.0
1070
    74
1070
     0
1000
MTEXTEND
  0
POINT
  5
1C24
330
7CB
100
AcDbEntity
  8
Defpoints
 62
     0
100
AcDbPoint
 10
2223.026047382164
 20
980.5734700774083
 30
0.0
  0
POINT
  5
1C25
330
7CB
100
AcDbEntity
  8
Defpoints
 62
     0
100
AcDbPoint
 10
2023.026047382164
 20
975.5734700774082
 30
0.0
  0
POINT
  5
1C26
330
7CB
100
AcDbEntity
  8
Defpoints
 62
     0
100
AcDbPoint
 10
2023.026047382164
 20
814.2937286378405
 30
0.0
  0
ENDBLK
  5
7D6
330
7CB
100
AcDbEntity
  8
0
100
AcDbBlockEnd
  0
BLOCK
  5
7E2
330
7D8
100
AcDbEntity
  8
0
100
AcDbBlockBegin
  2
*D24
 70
     1
 10
0.0
 20
0.0
 30
0.0
  3
*D24
  1

  0
LINE
  5
1C27
330
7D8
100
AcDbEntity
  8
寸法
 62
     0
370
    15
100
AcDbLine
 10
2230.026047382164
 20
915.5734700774083
 30
0.0
 11
2230.026047382164
 21
746.3138457974882
 31
0.0
  0
LINE
  5
1C28
330
7D8
100
AcDbEntity
  8
寸法
 62
     0
370
    15
100
AcDbLine
 10
2023.026047382164
 20
910.5734700774082
 30
0.0
 11
2023.026047382164
 21
746.3138457974882
 31
0.0
  0
LINE
  5
1C29
330
7D8
100
AcDbEntity
  8
寸法
 62
     0
370
    15
100
AcDbLine
 10
2230.026047382164
 20
746.3138457974882
 30
0.0
 11
2023.026047382164
 21
746.3138457974882
 31
0.0
  0
INSERT
  5
1C2A
330
7D8
100
AcDbEntity
  8
寸法
 62
     0
370
    15
100
AcDbBlockReference
  2
_DotSmall
 10
2230.026047382164
 20
746.3138457974882
 30
0.0
 41
35.0
 42
35.0
 43
35.0
  0
INSERT
  5
1C2B
330
7D8
100
AcDbEntity
  8
寸法
 62
     0
370
    15
100
AcDbBlockReference
  2
_DotSmall
 10
2023.026047382164
 20
746.3138457974882
 30
0.0
 41
35.0
 42
35.0
 43
35.0
 50
180.0
  0
MTEXT
  5
1C2C
330
7D8
100
AcDbEntity
  8
寸法
 62
     0
100
AcDbMText
 10
2126.526047382164
 20
765.0638457974882
 30
0.0
 40
25.0
 41
0.0
 71
     5
 72
     1
  1
207
 73
     1
 44
1.0
1001
ACAD
1000
MTEXTBEGIN
1070
    73
1070
     1
1070
    44
1040
1.0
1070
    74
1070
     0
1000
MTEXTEND
  0
POINT
  5
1C2D
330
7D8
100
AcDbEntity
  8
Defpoints
 62
     0
100
AcDbPoint
 10
2230.026047382164
 20
980.5734700774083
 30
0.0
  0
POINT
  5
1C2E
330
7D8
100
AcDbEntity
  8
Defpoints
 62
     0
100
AcDbPoint
 10
2023.026047382164
 20
975.5734700774082
 30
0.0
  0
POINT
  5
1C2F
330
7D8
100
AcDbEntity
  8
Defpoints
 62
     0
100
AcDbPoint
 10
2023.026047382164
 20
746.3138457974882
 30
0.0
  0
ENDBLK
  5
7E3
330
7D8
100
AcDbEntity
  8
0
100
AcDbBlockEnd
  0
BLOCK
  5
FA1
330
F9E
100
AcDbEntity
  8
0
100
AcDbBlockBegin
  2
_Dot
 70
     0
 10
0.0
 20
0.0
 30
0.0
  3
_Dot
  1

  0
LWPOLYLINE
  5
F9F
330
F9E
100
AcDbEntity
  8
実形
 62
     0
100
AcDbPolyline
 90
        2
 70
     1
 43
0.5
 10
-0.25
 20
0.0
 42
1.0
 10
0.25
 20
0.0
 42
1.0
  0
LINE
  5
FA0
330
F9E
100
AcDbEntity
  8
実形
 62
     0
370
    -2
100
AcDbLine
 10
-0.5
 20
0.0
 30
0.0
 11
-1.0
 21
0.0
 31
0.0
  0
ENDBLK
  5
FA2
330
F9E
100
AcDbEntity
  8
0
100
AcDbBlockEnd
  0
BLOCK
  5
FAF
330
FA4
100
AcDbEntity
  8
0
100
AcDbBlockBegin
  2
*D26
 70
     1
 10
0.0
 20
0.0
 30
0.0
  3
*D26
  1

  0
LINE
  5
1C30
330
FA4
100
AcDbEntity
  8
実形
 62
     0
370
    15
100
AcDbLine
 10
723.5476286916446
 20
580.5734700774082
 30
0.0
 11
682.9416726098588
 21
580.5734700774082
 31
0.0
  0
LINE
  5
1C31
330
FA4
100
AcDbEntity
  8
実形
 62
     0
370
    15
100
AcDbLine
 10
723.5476286916446
 20
565.5734700774083
 30
0.0
 11
682.9416726098588
 21
565.5734700774083
 31
0.0
  0
LINE
  5
1C32
330
FA4
100
AcDbEntity
  8
実形
 62
     0
370
    15
100
AcDbLine
 10
682.9416726098588
 20
580.5734700774082
 30
0.0
 11
682.9416726098588
 21
565.5734700774083
 31
0.0
  0
MTEXT
  5
1C33
330
FA4
100
AcDbEntity
  8
実形
 62
     0
100
AcDbMText
 10
650.8345997022834
 20
558.6628170658641
 30
0.0
 40
25.0
 41
0.0
 71
     5
 72
     1
  1
15
 11
0.0000000000000001
 21
1.0
 31
0.0
 73
     1
 44
1.0
1001
ACAD
1000
MTEXTBEGIN
1070
    73
1070
     1
1070
    44
1040
1.0
1070
    74
1070
     0
1000
MTEXTEND
  0
INSERT
  5
1C34
330
FA4
100
AcDbEntity
  8
実形
 62
     0
370
    15
100
AcDbBlockReference
  2
_DotSmall
 10
682.9416726098588
 20
580.5734700774082
 30
0.0
 41
35.0
 42
35.0
 43
35.0
 50
90.0
  0
INSERT
  5
1C35
330
FA4
100
AcDbEntity
  8
実形
 62
     0
370
    15
100
AcDbBlockReference
  2
_DotSmall
 10
682.9416726098588
 20
565.5734700774083
 30
0.0
 41
35.0
 42
35.0
 43
35.0
 50
270.0
  0
POINT
  5
1C36
330
FA4
100
AcDbEntity
  8
Defpoints
 62
     0
100
AcDbPoint
 10
753.5476286916446
 20
580.5734700774082
 30
0.0
  0
POINT
  5
1C37
330
FA4
100
AcDbEntity
  8
Defpoints
 62
     0
100
AcDbPoint
 10
753.5476286916446
 20
565.5734700774083
 30
0.0
  0
POINT
  5
1C38
330
FA4
100
AcDbEntity
  8
Defpoints
 62
     0
100
AcDbPoint
 10
682.9416726098588
 20
565.5734700774083
 30
0.0
  0
ENDBLK
  5
FB0
330
FA4
100
AcDbEntity
  8
0
100
AcDbBlockEnd
  0
BLOCK
  5
10C1
330
10B5
100
AcDbEntity
  8
0
100
AcDbBlockBegin
  2
A$C63E535F0
 70
     0
 10
0.0
 20
0.0
 30
0.0
  3
A$C63E535F0
  1

  0
LINE
  5
10B6
330
10B5
100
AcDbEntity
  8
0
100
AcDbLine
 10
-0.0000047973964001
 20
9.999999332865968
 30
0.0
 11
859.9999952026033
 21
9.999999332865627
 31
0.0
  0
LINE
  5
10B7
330
10B5
100
AcDbEntity
  8
0
100
AcDbLine
 10
29.99999520260417
 20
-0.0000006671342589
 30
0.0
 11
829.9999952026032
 21
-0.0000006671343726
 31
0.0
  0
LINE
  5
10B8
330
10B5
100
AcDbEntity
  8
0
100
AcDbLine
 10
4.999995202603599
 20
14.99999933286585
 30
0.0
 11
854.9999952026032
 21
14.99999933286563
 31
0.0
  0
LINE
  5
10B9
330
10B5
100
AcDbEntity
  8
実形
100
AcDbLine
 10
14.9999952026036
 20
-0.0000006671343726
 30
0.0
 11
29.99999520260417
 21
-0.0000006671342589
 31
0.0
  0
LINE
  5
10BA
330
10B5
100
AcDbEntity
  8
実形
100
AcDbLine
 10
14.9999952026036
 20
9.999999332865968
 30
0.0
 11
14.9999952026036
 21
-0.0000006671343726
 31
0.0
  0
LINE
  5
10BB
330
10B5
100
AcDbEntity
  8
実形
100
AcDbLine
 10
4.999995202603599
 20
14.99999933286585
 30
0.0
 11
-0.0000047973964001
 21
9.999999332865968
 31
0.0
  0
LINE
  5
10BC
330
10B5
100
AcDbEntity
  8
実形
100
AcDbLine
 10
11.9999952026036
 20
9.999999332865968
 30
0.0
 11
11.9999952026036
 21
-0.0000006671343726
 31
0.0
  0
LINE
  5
10BD
330
10B5
100
AcDbEntity
  8
実形
100
AcDbLine
 10
844.9999952026034
 20
-0.0000006671343726
 30
0.0
 11
829.9999952026034
 21
-0.0000006671343726
 31
0.0
  0
LINE
  5
10BE
330
10B5
100
AcDbEntity
  8
実形
100
AcDbLine
 10
844.9999952026034
 20
9.999999332865627
 30
0.0
 11
844.9999952026034
 21
-0.0000006671343726
 31
0.0
  0
LINE
  5
10BF
330
10B5
100
AcDbEntity
  8
実形
100
AcDbLine
 10
854.9999952026032
 20
14.99999933286563
 30
0.0
 11
859.9999952026035
 21
9.999999332865627
 31
0.0
  0
LINE
  5
10C0
330
10B5
100
AcDbEntity
  8
実形
100
AcDbLine
 10
847.9999952026034
 20
9.999999332865627
 30
0.0
 11
847.9999952026034
 21
-0.0000006671343726
 31
0.0
  0
ENDBLK
  5
10C2
330
10B5
100
AcDbEntity
  8
0
100
AcDbBlockEnd
  0
BLOCK
  5
1799
330
1790
100
AcDbEntity
  8
0
100
AcDbBlockBegin
  2
*D28
 70
     1
 10
0.0
 20
0.0
 30
0.0
  3
*D28
  1

  0
LINE
  5
1C39
330
1790
100
AcDbEntity
  8
寸法
 62
     0
370
    15
100
AcDbLine
 10
1458.414211271379
 20
1290.573468968295
 30
0.0
 11
1244.487095617516
 21
1290.573468968295
 31
0.0
  0
LINE
  5
1C3A
330
1790
100
AcDbEntity
  8
寸法
 62
     0
370
    15
100
AcDbLine
 10
1244.487095617516
 20
1290.573468968295
 30
0.0
 11
1244.487095617516
 21
1420.573468968295
 31
0.0
  0
INSERT
  5
1C3B
330
1790
100
AcDbEntity
  8
寸法
 62
     0
370
    15
100
AcDbBlockReference
  2
_DotSmall
 10
1244.487095617516
 20
1290.573468968295
 30
0.0
 41
35.0
 42
35.0
 43
35.0
 50
270.0
  0
INSERT
  5
1C3C
330
1790
100
AcDbEntity
  8
寸法
 62
     0
370
    15
100
AcDbBlockReference
  2
_DotSmall
 10
1244.487095617516
 20
1420.573468968295
 30
0.0
 41
35.0
 42
35.0
 43
35.0
 50
90.0
  0
MTEXT
  5
1C3D
330
1790
100
AcDbEntity
  8
寸法
 62
     0
100
AcDbMText
 10
1225.737095617516
 20
1355.573468968295
 30
0.0
 40
25.0
 41
0.0
 71
     5
 72
     1
  1
130
 11
0.0000000000000001
 21
1.0
 31
0.0
 73
     1
 44
1.0
1001
ACAD
1000
MTEXTBEGIN
1070
    73
1070
     1
1070
    44
1040
1.0
1070
    74
1070
     0
1000
MTEXTEND
  0
POINT
  5
1C3E
330
1790
100
AcDbEntity
  8
Defpoints
 62
     0
100
AcDbPoint
 10
1523.414211271379
 20
1290.573468968295
 30
0.0
  0
POINT
  5
1C3F
330
1790
100
AcDbEntity
  8
Defpoints
 62
     0
100
AcDbPoint
 10
1244.487095617516
 20
1420.573468968295
 30
0.0
  0
POINT
  5
1C40
330
1790
100
AcDbEntity
  8
Defpoints
 62
     0
100
AcDbPoint
 10
1244.487095617516
 20
1420.573468968295
 30
0.0
  0
ENDBLK
  5
179A
330
1790
100
AcDbEntity
  8
0
100
AcDbBlockEnd
  0
BLOCK
  5
17A5
330
179B
100
AcDbEntity
  8
0
100
AcDbBlockBegin
  2
*D29
 70
     1
 10
0.0
 20
0.0
 30
0.0
  3
*D29
  1

  0
LINE
  5
1C41
330
179B
100
AcDbEntity
  8
寸法
 62
     0
370
    15
100
AcDbLine
 10
1588.547625252739
 20
1146.073468968295
 30
0.0
 11
1588.547625252739
 21
1137.980702697294
 31
0.0
  0
LINE
  5
1C42
330
179B
100
AcDbEntity
  8
寸法
 62
     0
370
    15
100
AcDbLine
 10
1738.54762525274
 20
1135.073468968295
 30
0.0
 11
1738.54762525274
 21
1137.980702697294
 31
0.0
  0
LINE
  5
1C43
330
179B
100
AcDbEntity
  8
寸法
 62
     0
370
    15
100
AcDbLine
 10
1588.547625252739
 20
1137.980702697294
 30
0.0
 11
1738.54762525274
 21
1137.980702697294
 31
0.0
  0
INSERT
  5
1C44
330
179B
100
AcDbEntity
  8
寸法
 62
     0
370
    15
100
AcDbBlockReference
  2
_DotSmall
 10
1588.547625252739
 20
1137.980702697294
 30
0.0
 41
35.0
 42
35.0
 43
35.0
 50
180.0
  0
INSERT
  5
1C45
330
179B
100
AcDbEntity
  8
寸法
 62
     0
370
    15
100
AcDbBlockReference
  2
_DotSmall
 10
1738.54762525274
 20
1137.980702697294
 30
0.0
 41
35.0
 42
35.0
 43
35.0
  0
MTEXT
  5
1C46
330
179B
100
AcDbEntity
  8
寸法
 62
     0
100
AcDbMText
 10
1663.547625252739
 20
1156.730702697294
 30
0.0
 40
25.0
 41
0.0
 71
     5
 72
     1
  1
150
 73
     1
 44
1.0
1001
ACAD
1000
MTEXTBEGIN
1070
    73
1070
     1
1070
    44
1040
1.0
1070
    74
1070
     0
1000
MTEXTEND
  0
POINT
  5
1C47
330
179B
100
AcDbEntity
  8
Defpoints
 62
     0
100
AcDbPoint
 10
1588.547625252739
 20
1211.073468968295
 30
0.0
  0
POINT
  5
1C48
330
179B
100
AcDbEntity
  8
Defpoints
 62
     0
100
AcDbPoint
 10
1738.54762525274
 20
1200.073468968295
 30
0.0
  0
POINT
  5
1C49
330
179B
100
AcDbEntity
  8
Defpoints
 62
     0
100
AcDbPoint
 10
1738.54762525274
 20
1137.980702697294
 30
0.0
  0
ENDBLK
  5
17A6
330
179B
100
AcDbEntity
  8
0
100
AcDbBlockEnd
  0
BLOCK
  5
17B1
330
17A7
100
AcDbEntity
  8
0
100
AcDbBlockBegin
  2
*D30
 70
     1
 10
0.0
 20
0.0
 30
0.0
  3
*D30
  1

  0
LINE
  5
1C4A
330
17A7
100
AcDbEntity
  8
寸法
 62
     0
370
    15
100
AcDbLine
 10
1382.547625252741
 20
1505.573468968295
 30
0.0
 11
1320.247576333625
 21
1505.573468968295
 31
0.0
  0
LINE
  5
1C4B
330
17A7
100
AcDbEntity
  8
寸法
 62
     0
370
    15
100
AcDbLine
 10
1382.547625252741
 20
1445.573468968295
 30
0.0
 11
1320.247576333625
 21
1445.573468968295
 31
0.0
  0
LINE
  5
1C4C
330
17A7
100
AcDbEntity
  8
寸法
 62
     0
370
    15
100
AcDbLine
 10
1320.247576333625
 20
1505.573468968295
 30
0.0
 11
1320.247576333625
 21
1445.573468968295
 31
0.0
  0
INSERT
  5
1C4D
330
17A7
100
AcDbEntity
  8
寸法
 62
     0
370
    15
100
AcDbBlockReference
  2
_DotSmall
 10
1320.247576333625
 20
1505.573468968295
 30
0.0
 41
35.0
 42
35.0
 43
35.0
 50
90.0
  0
INSERT
  5
1C4E
330
17A7
100
AcDbEntity
  8
寸法
 62
     0
370
    15
100
AcDbBlockReference
  2
_DotSmall
 10
1320.247576333625
 20
1445.573468968295
 30
0.0
 41
35.0
 42
35.0
 43
35.0
 50
270.0
  0
MTEXT
  5
1C4F
330
17A7
100
AcDbEntity
  8
寸法
 62
     0
100
AcDbMText
 10
1301.497576333624
 20
1475.573468968295
 30
0.0
 40
25.0
 41
0.0
 71
     5
 72
     1
  1
60
 11
0.0000000000000001
 21
1.0
 31
0.0
 73
     1
 44
1.0
1001
ACAD
1000
MTEXTBEGIN
1070
    73
1070
     1
1070
    44
1040
1.0
1070
    74
1070
     0
1000
MTEXTEND
  0
POINT
  5
1C50
330
17A7
100
AcDbEntity
  8
Defpoints
 62
     0
100
AcDbPoint
 10
1447.547625252741
 20
1505.573468968295
 30
0.0
  0
POINT
  5
1C51
330
17A7
100
AcDbEntity
  8
Defpoints
 62
     0
100
AcDbPoint
 10
1447.547625252741
 20
1445.573468968295
 30
0.0
  0
POINT
  5
1C52
330
17A7
100
AcDbEntity
  8
Defpoints
 62
     0
100
AcDbPoint
 10
1320.247576333625
 20
1445.573468968295
 30
0.0
  0
ENDBLK
  5
17B2
330
17A7
100
AcDbEntity
  8
0
100
AcDbBlockEnd
  0
BLOCK
  5
1948
330
193D
100
AcDbEntity
  8
0
100
AcDbBlockBegin
  2
*D31
 70
     1
 10
0.0
 20
0.0
 30
0.0
  3
*D31
  1

  0
LINE
  5
1C53
330
193D
100
AcDbEntity
  8
実形
 62
     0
370
    15
100
AcDbLine
 10
1738.547633489042
 20
1570.573470077408
 30
0.0
 11
1738.547633489042
 21
1609.904669305073
 31
0.0
  0
LINE
  5
1C54
330
193D
100
AcDbEntity
  8
実形
 62
     0
370
    15
100
AcDbLine
 10
1773.547633489041
 20
1570.573470077408
 30
0.0
 11
1773.547633489041
 21
1609.904669305073
 31
0.0
  0
LINE
  5
1C55
330
193D
100
AcDbEntity
  8
実形
 62
     0
370
    15
100
AcDbLine
 10
1738.547633489042
 20
1609.904669305073
 30
0.0
 11
1773.547633489041
 21
1609.904669305073
 31
0.0
  0
MTEXT
  5
1C56
330
193D
100
AcDbEntity
  8
実形
 62
     0
100
AcDbMText
 10
1770.480069331852
 20
1633.252681245585
 30
0.0
 40
25.0
 41
0.0
 71
     5
 72
     1
  1
35
 73
     1
 44
1.0
1001
ACAD
1000
MTEXTBEGIN
1070
    73
1070
     1
1070
    44
1040
1.0
1070
    74
1070
     0
1000
MTEXTEND
  0
INSERT
  5
1C57
330
193D
100
AcDbEntity
  8
実形
 62
     0
370
    15
100
AcDbBlockReference
  2
_DotSmall
 10
1738.547633489042
 20
1609.904669305073
 30
0.0
 41
35.0
 42
35.0
 43
35.0
 50
180.0
  0
INSERT
  5
1C58
330
193D
100
AcDbEntity
  8
実形
 62
     0
370
    15
100
AcDbBlockReference
  2
_DotSmall
 10
1773.547633489041
 20
1609.904669305073
 30
0.0
 41
35.0
 42
35.0
 43
35.0
  0
POINT
  5
1C59
330
193D
100
AcDbEntity
  8
Defpoints
 62
     0
100
AcDbPoint
 10
1738.547633489042
 20
1505.573470077408
 30
0.0
  0
POINT
  5
1C5A
330
193D
100
AcDbEntity
  8
Defpoints
 62
     0
100
AcDbPoint
 10
1773.547633489041
 20
1505.573470077408
 30
0.0
  0
POINT
  5
1C5B
330
193D
100
AcDbEntity
  8
Defpoints
 62
     0
100
AcDbPoint
 10
1773.547633489041
 20
1609.904669305073
 30
0.0
  0
ENDBLK
  5
1949
330
193D
100
AcDbEntity
  8
0
100
AcDbBlockEnd
  0
BLOCK
  5
1A7C
330
1A72
100
AcDbEntity
  8
0
100
AcDbBlockBegin
  2
*D32
 70
     1
 10
0.0
 20
0.0
 30
0.0
  3
*D32
  1

  0
LINE
  5
1C5C
330
1A72
100
AcDbEntity
  8
寸法
 62
     0
370
    15
100
AcDbLine
 10
1408.547633489041
 20
1570.662781423945
 30
0.0
 11
1408.547633489041
 21
1609.99398065161
 31
0.0
  0
LINE
  5
1C5D
330
1A72
100
AcDbEntity
  8
寸法
 62
     0
370
    15
100
AcDbLine
 10
1698.547633489041
 20
1570.662781423945
 30
0.0
 11
1698.547633489041
 21
1609.99398065161
 31
0.0
  0
LINE
  5
1C5E
330
1A72
100
AcDbEntity
  8
寸法
 62
     0
370
    15
100
AcDbLine
 10
1408.547633489041
 20
1609.99398065161
 30
0.0
 11
1698.547633489041
 21
1609.99398065161
 31
0.0
  0
INSERT
  5
1C5F
330
1A72
100
AcDbEntity
  8
寸法
 62
     0
370
    15
100
AcDbBlockReference
  2
_DotSmall
 10
1408.547633489041
 20
1609.99398065161
 30
0.0
 41
35.0
 42
35.0
 43
35.0
 50
180.0
  0
INSERT
  5
1C60
330
1A72
100
AcDbEntity
  8
寸法
 62
     0
370
    15
100
AcDbBlockReference
  2
_DotSmall
 10
1698.547633489041
 20
1609.99398065161
 30
0.0
 41
35.0
 42
35.0
 43
35.0
  0
MTEXT
  5
1C61
330
1A72
100
AcDbEntity
  8
寸法
 62
     0
100
AcDbMText
 10
1553.54763348904
 20
1628.74398065161
 30
0.0
 40
25.0
 41
0.0
 71
     5
 72
     1
  1
290
 73
     1
 44
1.0
1001
ACAD
1000
MTEXTBEGIN
1070
    73
1070
     1
1070
    44
1040
1.0
1070
    74
1070
     0
1000
MTEXTEND
  0
POINT
  5
1C62
330
1A72
100
AcDbEntity
  8
Defpoints
 62
     0
100
AcDbPoint
 10
1408.547633489041
 20
1505.662781423945
 30
0.0
  0
POINT
  5
1C63
330
1A72
100
AcDbEntity
  8
Defpoints
 62
     0
100
AcDbPoint
 10
1698.547633489041
 20
1505.662781423945
 30
0.0
  0
POINT
  5
1C64
330
1A72
100
AcDbEntity
  8
Defpoints
 62
     0
100
AcDbPoint
 10
1698.547633489041
 20
1609.99398065161
 30
0.0
  0
ENDBLK
  5
1A7D
330
1A72
100
AcDbEntity
  8
0
100
AcDbBlockEnd
  0
BLOCK
  5
1A9D
330
1A9C
100
AcDbEntity
  8
0
100
AcDbBlockBegin
  2
_None
 70
     0
 10
0.0
 20
0.0
 30
0.0
  3
_None
  1

  0
ENDBLK
  5
1A9E
330
1A9C
100
AcDbEntity
  8
0
100
AcDbBlockEnd
  0
BLOCK
  5
1B47
330
1B3D
100
AcDbEntity
  8
0
100
AcDbBlockBegin
  2
*D34
 70
     1
 10
0.0
 20
0.0
 30
0.0
  3
*D34
  1

  0
LINE
  5
1C75
330
1B3D
100
AcDbEntity
  8
実形
 62
     0
370
    15
100
AcDbLine
 10
2129.026047382165
 20
1557.173470077409
 30
0.0
 11
2129.026047382165
 21
1591.482617082194
 31
0.0
  0
LINE
  5
1C76
330
1B3D
100
AcDbEntity
  8
実形
 62
     0
370
    15
100
AcDbLine
 10
2149.026047382164
 20
1557.173470077409
 30
0.0
 11
2149.026047382164
 21
1591.482617082194
 31
0.0
  0
LINE
  5
1C77
330
1B3D
100
AcDbEntity
  8
実形
 62
     0
370
    15
100
AcDbLine
 10
2129.026047382165
 20
1591.482617082194
 30
0.0
 11
2149.026047382164
 21
1591.482617082194
 31
0.0
  0
MTEXT
  5
1C78
330
1B3D
100
AcDbEntity
  8
実形
 62
     0
100
AcDbMText
 10
2175.985089686978
 20
1595.144326610233
 30
0.0
 40
25.0
 41
0.0
 71
     5
 72
     1
  1
20
 73
     1
 44
1.0
1001
ACAD
1000
MTEXTBEGIN
1070
    73
1070
     1
1070
    44
1040
1.0
1070
    74
1070
     0
1000
MTEXTEND
  0
INSERT
  5
1C79
330
1B3D
100
AcDbEntity
  8
実形
 62
     0
370
    15
100
AcDbBlockReference
  2
_DotSmall
 10
2129.026047382165
 20
1591.482617082194
 30
0.0
 41
35.0
 42
35.0
 43
35.0
 50
180.0
  0
INSERT
  5
1C7A
330
1B3D
100
AcDbEntity
  8
実形
 62
     0
370
    15
100
AcDbBlockReference
  2
_DotSmall
 10
2149.026047382164
 20
1591.482617082194
 30
0.0
 41
35.0
 42
35.0
 43
35.0
  0
POINT
  5
1C7B
330
1B3D
100
AcDbEntity
  8
Defpoints
 62
     0
100
AcDbPoint
 10
2129.026047382165
 20
1492.173470077409
 30
0.0
  0
POINT
  5
1C7C
330
1B3D
100
AcDbEntity
  8
Defpoints
 62
     0
100
AcDbPoint
 10
2149.026047382164
 20
1492.173470077409
 30
0.0
  0
POINT
  5
1C7D
330
1B3D
100
AcDbEntity
  8
Defpoints
 62
     0
100
AcDbPoint
 10
2149.026047382164
 20
1591.482617082194
 30
0.0
  0
ENDBLK
  5
1B48
330
1B3D
100
AcDbEntity
  8
0
100
AcDbBlockEnd
  0
BLOCK
  5
1B53
330
1B49
100
AcDbEntity
  8
0
100
AcDbBlockBegin
  2
*D35
 70
     1
 10
0.0
 20
0.0
 30
0.0
  3
*D35
  1

  0
LINE
  5
1C65
330
1B49
100
AcDbEntity
  8
実形
 62
     0
370
    15
100
AcDbLine
 10
2023.026047382165
 20
1557.173470077409
 30
0.0
 11
2023.026047382165
 21
1591.482617082194
 31
0.0
  0
LINE
  5
1C66
330
1B49
100
AcDbEntity
  8
実形
 62
     0
370
    15
100
AcDbLine
 10
2129.026047382165
 20
1557.173470077409
 30
0.0
 11
2129.026047382165
 21
1591.482617082194
 31
0.0
  0
LINE
  5
1C67
330
1B49
100
AcDbEntity
  8
実形
 62
     0
370
    15
100
AcDbLine
 10
2023.026047382165
 20
1591.482617082194
 30
0.0
 11
2129.026047382165
 21
1591.482617082194
 31
0.0
  0
INSERT
  5
1C68
330
1B49
100
AcDbEntity
  8
実形
 62
     0
370
    15
100
AcDbBlockReference
  2
_DotSmall
 10
2023.026047382165
 20
1591.482617082194
 30
0.0
 41
35.0
 42
35.0
 43
35.0
 50
180.0
  0
INSERT
  5
1C69
330
1B49
100
AcDbEntity
  8
実形
 62
     0
370
    15
100
AcDbBlockReference
  2
_DotSmall
 10
2129.026047382165
 20
1591.482617082194
 30
0.0
 41
35.0
 42
35.0
 43
35.0
  0
MTEXT
  5
1C6A
330
1B49
100
AcDbEntity
  8
実形
 62
     0
100
AcDbMText
 10
2076.026047382165
 20
1610.232617082194
 30
0.0
 40
25.0
 41
0.0
 71
     5
 72
     1
  1
106
 73
     1
 44
1.0
1001
ACAD
1000
MTEXTBEGIN
1070
    73
1070
     1
1070
    44
1040
1.0
1070
    74
1070
     0
1000
MTEXTEND
  0
POINT
  5
1C6B
330
1B49
100
AcDbEntity
  8
Defpoints
 62
     0
100
AcDbPoint
 10
2023.026047382165
 20
1492.173470077409
 30
0.0
  0
POINT
  5
1C6C
330
1B49
100
AcDbEntity
  8
Defpoints
 62
     0
100
AcDbPoint
 10
2129.026047382165
 20
1492.173470077409
 30
0.0
  0
POINT
  5
1C6D
330
1B49
100
AcDbEntity
  8
Defpoints
 62
     0
100
AcDbPoint
 10
2129.026047382165
 20
1591.482617082194
 30
0.0
  0
ENDBLK
  5
1B54
330
1B49
100
AcDbEntity
  8
0
100
AcDbBlockEnd
  0
BLOCK
  5
1B5D
330
1B55
100
AcDbEntity
  8
0
100
AcDbBlockBegin
  2
*D36
 70
     1
 10
0.0
 20
0.0
 30
0.0
  3
*D36
  1

  0
LINE
  5
1C6E
330
1B55
100
AcDbEntity
  8
実形
 62
     0
370
    15
100
AcDbLine
 10
2190.812386981116
 20
1492.173470077409
 30
0.0
 11
2190.812386981116
 21
1458.973470077409
 31
0.0
  0
MTEXT
  5
1C6F
330
1B55
100
AcDbEntity
  8
実形
 62
     0
100
AcDbMText
 10
2219.460820672189
 20
1475.573470077409
 30
0.0
 40
25.0
 41
0.0
 71
     5
 72
     1
  1
33
 11
0.0000000000000001
 21
1.0
 31
0.0
 73
     1
 44
1.0
1001
ACAD
1000
MTEXTBEGIN
1070
    73
1070
     1
1070
    44
1040
1.0
1070
    74
1070
     0
1000
MTEXTEND
  0
INSERT
  5
1C70
330
1B55
100
AcDbEntity
  8
実形
 62
     0
370
    15
100
AcDbBlockReference
  2
_DotSmall
 10
2190.812386981116
 20
1492.173470077409
 30
0.0
 41
35.0
 42
35.0
 43
35.0
 50
90.0
  0
INSERT
  5
1C71
330
1B55
100
AcDbEntity
  8
実形
 62
     0
370
    15
100
AcDbBlockReference
  2
_DotSmall
 10
2190.812386981116
 20
1458.973470077409
 30
0.0
 41
35.0
 42
35.0
 43
35.0
 50
270.0
  0
POINT
  5
1C72
330
1B55
100
AcDbEntity
  8
Defpoints
 62
     0
100
AcDbPoint
 10
2149.026047382164
 20
1492.173470077409
 30
0.0
  0
POINT
  5
1C73
330
1B55
100
AcDbEntity
  8
Defpoints
 62
     0
100
AcDbPoint
 10
2149.026047382164
 20
1458.973470077409
 30
0.0
  0
POINT
  5
1C74
330
1B55
100
AcDbEntity
  8
Defpoints
 62
     0
100
AcDbPoint
 10
2190.812386981116
 20
1458.973470077409
 30
0.0
  0
ENDBLK
  5
1B5E
330
1B55
100
AcDbEntity
  8
0
100
AcDbBlockEnd
  0
ENDSEC
  0
SECTION
  2
ENTITIES
  0
LINE
  5
73
330
1F
100
AcDbEntity
  8
0
100
AcDbLine
 10
109.0
 20
4.0
 30
0.0
 11
278.0
 21
4.0
 31
0.0
  0
LINE
  5
9C
330
1F
100
AcDbEntity
  8
補助
100
AcDbLine
 10
109.0
 20
4.0
 30
0.0
 11
2784.0
 21
4.0
 31
0.0
  0
LINE
  5
A0
330
1F
100
AcDbEntity
  8
補助
100
AcDbLine
 10
2784.0
 20
2024.0
 30
0.0
 11
109.0
 21
2024.0
 31
0.0
  0
LINE
  5
A5
330
1F
100
AcDbEntity
  8
補助
100
AcDbLine
 10
2784.0
 20
4.0
 30
0.0
 11
2784.0
 21
2024.0
 31
0.0
  0
LINE
  5
317
330
1F
100
AcDbEntity
  8
実形
100
AcDbLine
 10
1758.547628691644
 20
580.5734700774082
 30
0.0
 11
768.5476286916446
 21
580.5734700774082
 31
0.0
  0
LINE
  5
319
330
1F
100
AcDbEntity
  8
実形
100
AcDbLine
 10
1738.547628691645
 20
565.5734700774082
 30
0.0
 11
1738.547628691645
 21
410.5734700774081
 31
0.0
  0
LINE
  5
31A
330
1F
100
AcDbEntity
  8
実形
100
AcDbLine
 10
1708.547628691644
 20
380.5734700774081
 30
0.0
 11
1498.047628691645
 21
380.5734700774081
 31
0.0
  0
LINE
  5
31B
330
1F
100
AcDbEntity
  8
実形
100
AcDbLine
 10
788.5476286916445
 20
420.5213110876408
 30
0.0
 11
788.5476286916445
 21
565.573470077408
 31
0.0
  0
LINE
  5
320
330
1F
100
AcDbEntity
  8
実形
100
AcDbLine
 10
1498.047628691644
 20
380.5734700774083
 30
0.0
 11
1509.047628691645
 21
373.5734700774083
 31
0.0
  0
LINE
  5
321
330
1F
100
AcDbEntity
  8
実形
100
AcDbLine
 10
1509.047628691645
 20
373.5734700774083
 30
0.0
 11
1668.047628691644
 21
373.5734700774083
 31
0.0
  0
LINE
  5
322
330
1F
100
AcDbEntity
  8
実形
100
AcDbLine
 10
1668.047628691644
 20
373.5734700774083
 30
0.0
 11
1679.047628691645
 21
380.5734700774083
 31
0.0
  0
LINE
  5
323
330
1F
100
AcDbEntity
  8
実形
100
AcDbLine
 10
1498.047628691644
 20
380.5734700774083
 30
0.0
 11
817.7623202424083
 21
390.5315913383741
 31
0.0
  0
ARC
  5
324
330
1F
100
AcDbEntity
  8
実形
100
AcDbCircle
 10
818.5476286916445
 20
420.5213110876408
 30
0.0
 40
30.0
100
AcDbArc
 50
180.0
 51
268.5
  0
ARC
  5
325
330
1F
100
AcDbEntity
  8
実形
100
AcDbCircle
 10
1708.547628691644
 20
410.5734700774081
 30
0.0
 40
30.0
100
AcDbArc
 50
270.0
 51
0.000000000000007
  0
LINE
  5
328
330
1F
100
AcDbEntity
  8
センター
100
AcDbLine
 10
1498.047628691649
 20
380.5734700774081
 30
0.0
 11
794.4191035738431
 21
380.5734700774081
 31
0.0
  0
LINE
  5
329
330
1F
100
AcDbEntity
  8
センター
 48
0.5
100
AcDbLine
 10
938.5476286916446
 20
452.8210208958226
 30
0.0
 11
938.5476286916446
 21
290.8753670382093
 31
0.0
  0
LINE
  5
338
330
1F
100
AcDbEntity
  8
実形
100
AcDbLine
 10
2043.026047382164
 20
1010.573470077408
 30
0.0
 11
2188.839109117152
 21
1010.573470077408
 31
0.0
  0
LINE
  5
339
330
1F
100
AcDbEntity
  8
実形
100
AcDbLine
 10
2223.026047382163
 20
1200.073470077408
 30
0.0
 11
2223.026047382164
 21
1390.573470077408
 31
0.0
  0
LINE
  5
33A
330
1F
100
AcDbEntity
  8
実形
100
AcDbLine
 10
2193.026047382164
 20
1420.573470077408
 30
0.0
 11
2043.026047382164
 21
1420.573470077408
 31
0.0
  0
LINE
  5
346
330
1F
100
AcDbEntity
  8
実形
100
AcDbLine
 10
2223.026047382164
 20
1381.073470077408
 30
0.0
 11
2230.026047382164
 21
1370.073470077408
 31
0.0
  0
LINE
  5
347
330
1F
100
AcDbEntity
  8
実形
100
AcDbLine
 10
2230.026047382164
 20
1370.073470077408
 30
0.0
 11
2230.026047382164
 21
1211.073470077408
 31
0.0
  0
LINE
  5
348
330
1F
100
AcDbEntity
  8
実形
100
AcDbLine
 10
2230.026047382164
 20
1211.073470077408
 30
0.0
 11
2223.026047382164
 21
1200.073470077408
 31
0.0
  0
LINE
  5
353
330
1F
100
AcDbEntity
  8
実形
100
AcDbLine
 10
2023.026047382164
 20
994.5734700774082
 30
0.0
 11
2023.026047382164
 21
975.5734700774082
 31
0.0
  0
ARC
  5
35C
330
1F
100
AcDbEntity
  8
実形
100
AcDbCircle
 10
2043.026047382164
 20
1005.573470077408
 30
0.0
 40
5.0
100
AcDbArc
 50
90.0
 51
180.0
  0
ARC
  5
35D
330
1F
100
AcDbEntity
  8
実形
100
AcDbCircle
 10
2043.026047382164
 20
1425.573470077408
 30
0.0
 40
5.0
100
AcDbArc
 50
180.0
 51
270.0
  0
ARC
  5
360
330
1F
100
AcDbEntity
  8
実形
100
AcDbCircle
 10
2193.026047382164
 20
1390.573470077408
 30
0.0
 40
30.0
100
AcDbArc
 50
0.0
 51
90.0
  0
LINE
  5
361
330
1F
100
AcDbEntity
  8
実形
100
AcDbLine
 10
2223.026047382164
 20
1200.073470077408
 30
0.0
 11
2218.828828866419
 21
1039.788161628172
 31
0.0
  0
ARC
  5
362
330
1F
100
AcDbEntity
  8
実形
100
AcDbCircle
 10
2188.839109117152
 20
1040.573470077408
 30
0.0
 40
30.0
100
AcDbArc
 50
270.0
 51
358.4999999999999
  0
LINE
  5
363
330
1F
100
AcDbEntity
  8
実形
100
AcDbLine
 10
2023.026047382164
 20
1430.573470077408
 30
0.0
 11
2023.026047382164
 21
975.5734700774082
 31
0.0
  0
DIMENSION
  5
40C
330
1F
100
AcDbEntity
  8
寸法
100
AcDbDimension
  2
*D4
 10
669.7519678300851
 20
1010.573470077408
 30
0.0
 11
669.751967830085
 21
1068.490136744075
 31
0.0
 70
   160
 71
     5
 42
15.0
  3
ISO-25
100
AcDbAlignedDimension
 13
768.5476286916446
 23
995.5734700774083
 33
0.0
 14
768.5476286916446
 24
1010.573470077408
 34
0.0
 50
90.0
100
AcDbRotatedDimension
  0
DIMENSION
  5
41A
330
1F
100
AcDbEntity
  8
寸法
100
AcDbDimension
  2
*D5
 10
669.7519678300851
 20
1420.573470077408
 30
0.0
 11
651.0019678300849
 21
1215.573470077408
 31
0.0
 70
    32
 71
     5
 42
410.0
  3
ISO-25
100
AcDbAlignedDimension
 13
768.5476286916446
 23
1010.573470077408
 33
0.0
 14
768.5476286916446
 24
1420.573470077408
 34
0.0
 50
90.0
100
AcDbRotatedDimension
1001
ACAD
1000
DSTYLE
1002
{
1070
   279
1070
     1
1002
}
  0
DIMENSION
  5
427
330
1F
100
AcDbEntity
  8
寸法
100
AcDbDimension
  2
*D6
 10
669.7519678300851
 20
1435.573470077408
 30
0.0
 11
669.751967830085
 21
1383.00959549598
 31
0.0
 70
   160
 71
     5
 42
15.0
  3
ISO-25
100
AcDbAlignedDimension
 13
768.5476286916446
 23
1420.573470077408
 33
0.0
 14
768.5476286916446
 24
1435.573470077408
 34
0.0
 50
90.0
100
AcDbRotatedDimension
1001
ACAD
1000
DSTYLE
1002
{
1070
   279
1070
     1
1002
}
  0
DIMENSION
  5
459
330
1F
100
AcDbEntity
  8
寸法
100
AcDbDimension
  2
*D7
 10
593.259525590528
 20
995.5734700774083
 30
0.0
 11
574.5095255905279
 21
1215.573470077408
 31
0.0
 70
    32
 71
     5
 42
440.0
  3
ISO-25
100
AcDbAlignedDimension
 13
768.5476286916446
 23
1435.573470077408
 33
0.0
 14
768.5476286916446
 24
995.5734700774083
 34
0.0
 50
90.0
100
AcDbRotatedDimension
  0
DIMENSION
  5
466
330
1F
100
AcDbEntity
  8
寸法
100
AcDbDimension
  2
*D8
 10
593.259525590528
 20
1515.573470077408
 30
0.0
 11
574.5095255905278
 21
1475.573470077408
 31
0.0
 70
    32
 71
     5
 42
80.0
  3
ISO-25
100
AcDbAlignedDimension
 13
768.5476286916446
 23
1435.573470077408
 33
0.0
 14
768.5476286916446
 24
1515.573470077408
 34
0.0
 50
90.0
100
AcDbRotatedDimension
  0
DIMENSION
  5
47C
330
1F
100
AcDbEntity
  8
寸法
100
AcDbDimension
  2
*D9
 10
593.259525590528
 20
1550.573470077408
 30
0.0
 11
591.191866264473
 21
1583.668878314735
 31
0.0
 70
   160
 71
     5
 42
35.0
  3
ISO-25
100
AcDbAlignedDimension
 13
768.5476286916446
 23
1515.573470077408
 33
0.0
 14
768.5476286916446
 24
1550.573470077408
 34
0.0
 50
90.0
100
AcDbRotatedDimension
1001
ACAD
1000
DSTYLE
1002
{
1070
   279
1070
     1
1002
}
  0
DIMENSION
  5
492
330
1F
100
AcDbEntity
  8
寸法
100
AcDbDimension
  2
*D10
 10
515.7107418803498
 20
960.5734700774084
 30
0.0
 11
496.9607418803496
 21
1255.573470077408
 31
0.0
 70
    32
 71
     5
 42
590.0
  3
ISO-25
100
AcDbAlignedDimension
 13
768.5476286916446
 23
1550.573470077408
 33
0.0
 14
768.5476286916446
 24
960.5734700774082
 34
0.0
 50
90.0
100
AcDbRotatedDimension
  0
DIMENSION
  5
4C3
330
1F
100
AcDbEntity
  8
寸法
100
AcDbDimension
  2
*D11
 10
593.2595255905281
 20
960.5734700774084
 30
0.0
 11
566.5357253461142
 21
990.6350240847624
 31
0.0
 70
   160
 71
     5
 42
35.0
  3
ISO-25
100
AcDbAlignedDimension
 13
768.5476286916446
 23
995.5734700774083
 33
0.0
 14
768.5476286916446
 24
960.5734700774082
 34
0.0
 50
90.0
100
AcDbRotatedDimension
1001
ACAD
1000
DSTYLE
1002
{
1070
   279
1070
     2
1002
}
  0
DIMENSION
  5
4E5
330
1F
100
AcDbEntity
  8
寸法
100
AcDbDimension
  2
*D12
 10
788.5476286916445
 20
863.5709628180547
 30
0.0
 11
824.1676993410811
 21
885.0233388768728
 31
0.0
 70
   160
 71
     5
 42
35.0
  3
ISO-25
100
AcDbAlignedDimension
 13
753.5476286916446
 23
975.5734700774082
 33
0.0
 14
788.5476286916445
 24
975.5734700774082
 34
0.0
100
AcDbRotatedDimension
1001
ACAD
1000
DSTYLE
1002
{
1070
   279
1070
     2
1002
}
  0
DIMENSION
  5
4FD
330
1F
100
AcDbEntity
  8
寸法
100
AcDbDimension
  2
*D13
 10
1738.547628691645
 20
863.3501446765031
 30
0.0
 11
1263.547628691644
 21
882.1001446765031
 31
0.0
 70
    32
 71
     5
 42
950.0
  3
ISO-25
100
AcDbAlignedDimension
 13
788.5476286916445
 23
975.5734700774082
 33
0.0
 14
1738.547628691645
 24
975.5734700774082
 34
0.0
100
AcDbRotatedDimension
1001
ACAD
1000
DSTYLE
1002
{
1070
   279
1070
     1
1002
}
  0
DIMENSION
  5
50A
330
1F
100
AcDbEntity
  8
寸法
100
AcDbDimension
  2
*D14
 10
1773.547628691645
 20
863.3501446765031
 30
0.0
 11
1696.914850884905
 21
863.3501446765031
 31
0.0
 70
   160
 71
     5
 42
35.0
  3
ISO-25
100
AcDbAlignedDimension
 13
1738.547628691645
 23
975.5734700774082
 33
0.0
 14
1773.547628691645
 24
975.5734700774082
 34
0.0
100
AcDbRotatedDimension
1001
ACAD
1000
DSTYLE
1002
{
1070
   279
1070
     1
1002
}
  0
DIMENSION
  5
522
330
1F
100
AcDbEntity
  8
寸法
100
AcDbDimension
  2
*D15
 10
1773.547628691645
 20
789.2297294428435
 30
0.0
 11
1263.547628691644
 21
807.9797294428436
 31
0.0
 70
    33
 71
     5
 42
1020.0
  3
ISO-25
100
AcDbAlignedDimension
 13
753.5476286916446
 23
975.5734700774082
 33
0.0
 14
1773.547628691645
 24
975.5734700774082
 34
0.0
  0
DIMENSION
  5
52F
330
1F
100
AcDbEntity
  8
寸法
100
AcDbDimension
  2
*D16
 10
684.4010880822698
 20
380.5734700774083
 30
0.0
 11
656.6722447205592
 21
353.2559833608084
 31
0.0
 70
   160
 71
     5
 42
7.0
  3
ISO-25
100
AcDbAlignedDimension
 13
773.5476286916446
 23
373.5734700774083
 33
0.0
 14
773.5476286916446
 24
380.5734700774083
 34
0.0
 50
90.0
100
AcDbRotatedDimension
1001
ACAD
1000
DSTYLE
1002
{
1070
   282
1070
     1
1070
   281
1070
     1
1070
   279
1070
     2
1070
    42
1040
30.0
1002
}
  0
DIMENSION
  5
549
330
1F
100
AcDbEntity
  8
寸法
100
AcDbDimension
  2
*D17
 10
624.5651718129838
 20
580.5734700774082
 30
0.0
 11
605.8151718129837
 21
480.5734700774083
 31
0.0
 70
    32
 71
     5
 42
199.9999999999999
  3
ISO-25
100
AcDbAlignedDimension
 13
758.5476286916446
 23
380.5734700774083
 33
0.0
 14
753.5476286916446
 24
580.5734700774082
 34
0.0
 50
90.0
100
AcDbRotatedDimension
1001
ACAD
1000
DSTYLE
1002
{
1070
   279
1070
     1
1002
}
  0
ARC
  5
570
330
1F
100
AcDbEntity
  8
寸法
100
AcDbCircle
 10
1198.047628691649
 20
380.5734700774081
 30
0.0
 40
346.6490970545442
100
AcDbArc
 50
178.4999999999999
 51
180.0
  0
TEXT
  5
571
330
1F
100
AcDbEntity
  8
寸法
100
AcDbText
 10
822.2482846158946
 20
347.0586707954845
 30
0.0
 40
25.0
  1
1.5゜
 11
822.2482846158946
 21
343.7253374621512
 31
0.0
100
AcDbText
 73
     1
  0
DIMENSION
  5
6EA
330
1F
100
AcDbEntity
  8
寸法
100
AcDbDimension
  2
*D18
 10
2341.597892053552
 20
1211.073470077408
 30
0.0
 11
2341.597892053551
 21
1289.781462034534
 31
0.0
 70
   160
  1
158%%C
 71
     5
 42
159.0
  3
ISO-25
100
AcDbAlignedDimension
 13
2230.026047382164
 23
1370.073470077408
 33
0.0
 14
2230.026047382164
 24
1211.073470077408
 34
0.0
 50
90.0
100
AcDbRotatedDimension
  0
DIMENSION
  5
77B
330
1F
100
AcDbEntity
  8
寸法
100
AcDbDimension
  2
*D19
 10
2137.578723312281
 20
1200.073470077408
 30
0.0
 11
2137.578723312281
 21
1290.573470077408
 31
0.0
 70
   160
  1
181%%C
 71
     5
 42
181.0
  3
ISO-25
100
AcDbAlignedDimension
 13
2277.265433205295
 23
1381.073470077408
 33
0.0
 14
2277.265433205295
 24
1200.073470077408
 34
0.0
 50
90.0
100
AcDbRotatedDimension
  0
DIMENSION
  5
788
330
1F
100
AcDbEntity
  8
寸法
100
AcDbDimension
  2
*D20
 10
2038.026047382164
 20
874.8253177789111
 30
0.0
 11
1985.339790394158
 21
873.5136497402427
 31
0.0
 70
   160
 71
     5
 42
15.0
  3
ISO-25
100
AcDbAlignedDimension
 13
2023.026047382164
 23
975.5734700774082
 33
0.0
 14
2038.026047382164
 24
975.5734700774082
 34
0.0
100
AcDbRotatedDimension
1001
ACAD
1000
DSTYLE
1002
{
1070
   279
1070
     2
1002
}
  0
DIMENSION
  5
7A0
330
1F
100
AcDbEntity
  8
寸法
100
AcDbDimension
  2
*D21
 10
2223.026047382164
 20
874.8253177789111
 30
0.0
 11
2130.526047382164
 21
893.5753177789111
 31
0.0
 70
    32
 71
     5
 42
185.0
  3
ISO-25
100
AcDbAlignedDimension
 13
2038.026047382164
 23
975.5734700774082
 33
0.0
 14
2223.026047382164
 24
980.5734700774083
 34
0.0
100
AcDbRotatedDimension
1001
ACAD
1000
DSTYLE
1002
{
1070
   279
1070
     1
1002
}
  0
DIMENSION
  5
7AD
330
1F
100
AcDbEntity
  8
寸法
100
AcDbDimension
  2
*D22
 10
2230.026047382164
 20
874.8253177789111
 30
0.0
 11
2246.838547382164
 21
874.9200997421294
 31
0.0
 70
   160
 71
     5
 42
7.0
  3
ISO-25
100
AcDbAlignedDimension
 13
2223.026047382164
 23
980.5734700774083
 33
0.0
 14
2230.026047382164
 24
980.5734700774083
 34
0.0
100
AcDbRotatedDimension
1001
ACAD
1000
DSTYLE
1002
{
1070
   282
1070
     1
1070
   281
1070
     1
1070
   279
1070
     1
1002
}
  0
DIMENSION
  5
7CA
330
1F
100
AcDbEntity
  8
寸法
100
AcDbDimension
  2
*D23
 10
2023.026047382164
 20
814.2937286378405
 30
0.0
 11
2123.026047382164
 21
833.0437286378405
 31
0.0
 70
    32
 71
     5
 42
200.0
  3
ISO-25
100
AcDbAlignedDimension
 13
2223.026047382164
 23
980.5734700774083
 33
0.0
 14
2023.026047382164
 24
975.5734700774082
 34
0.0
100
AcDbRotatedDimension
  0
DIMENSION
  5
7D7
330
1F
100
AcDbEntity
  8
寸法
100
AcDbDimension
  2
*D24
 10
2023.026047382164
 20
746.3138457974882
 30
0.0
 11
2126.526047382164
 21
765.0638457974882
 31
0.0
 70
    32
 71
     5
 42
207.0
  3
ISO-25
100
AcDbAlignedDimension
 13
2230.026047382164
 23
980.5734700774083
 33
0.0
 14
2023.026047382164
 24
975.5734700774082
 34
0.0
100
AcDbRotatedDimension
  0
LEADER
  5
914
330
1F
100
AcDbEntity
  8
寸法
100
AcDbLeader
  3
ISO-25
 40
25.0
 41
62.5
 76
     2
 10
2222.83488891614
 20
1412.979929075972
 30
0.0
 10
2279.413912792398
 20
1445.434824735238
 30
0.0
213
0.0
223
-12.5
233
0.0
1001
ACAD
1000
DSTYLE
1002
{
1070
   147
1040
6.25
1070
    77
1070
     0
1070
    41
1040
25.0
1070
   342
1005
DA
1002
}
  0
TEXT
  5
918
330
1F
100
AcDbEntity
  8
寸法
100
AcDbText
 10
2289.891508880531
 20
1444.387891081804
 30
0.0
 40
25.0
  1
30R
 11
2289.891508880531
 21
1441.05455774847
 31
0.0
100
AcDbText
 73
     1
  0
LEADER
  5
CB8
330
1F
100
AcDbEntity
  8
実形
100
AcDbLeader
  3
ISO-25
 76
     2
 10
805.0470511082435
 20
407.7033531096645
 30
0.0
 10
848.2388816579504
 20
446.674820633787
 30
0.0
211
-1.0
221
0.0
231
0.0
210
0.0
220
0.0
230
-1.0
1001
ACAD
1000
DSTYLE
1002
{
1070
   147
1040
6.25
1070
    77
1070
     0
1070
    41
1040
20.0
1070
   342
1005
DA
1002
}
  0
LEADER
  5
CB9
330
1F
100
AcDbEntity
  8
実形
100
AcDbLeader
  3
ISO-25
 76
     2
 10
1722.658054634898
 20
393.7489999738189
 30
0.0
 10
1682.008300993567
 20
434.3810967211784
 30
0.0
211
-1.0
221
0.0
231
0.0
210
0.0
220
0.0
230
-1.0
1001
ACAD
1000
DSTYLE
1002
{
1070
   147
1040
6.25
1070
    77
1070
     0
1070
    41
1040
20.0
1070
   342
1005
DA
1002
}
  0
LEADER
  5
CBE
330
1F
100
AcDbEntity
  8
実形
100
AcDbLeader
  3
ISO-25
 76
     2
 10
2203.060347094322
 20
1025.621768297053
 30
0.0
 10
2155.40557658381
 20
1061.861120986011
 30
0.0
1001
ACAD
1000
DSTYLE
1002
{
1070
   147
1040
6.25
1070
    77
1070
     0
1070
    41
1040
20.0
1070
   342
1005
DA
1002
}
  0
TEXT
  5
CBF
330
1F
100
AcDbEntity
  8
寸法
100
AcDbText
 10
2083.406792476319
 20
1059.911216159452
 30
0.0
 40
25.0
  1
30R
 11
2083.406792476319
 21
1056.577882826119
 31
0.0
100
AcDbText
 73
     1
  0
TEXT
  5
CC2
330
1F
100
AcDbEntity
  8
寸法
100
AcDbText
 10
1610.782244679011
 20
438.5684427513909
 30
0.0
 40
25.0
  1
30R
 11
1610.782244679011
 21
435.2351094180575
 31
0.0
100
AcDbText
 73
     1
  0
TEXT
  5
CC3
330
1F
100
AcDbEntity
  8
寸法
100
AcDbText
 10
857.1529686681852
 20
441.6532766195674
 30
0.0
 40
25.0
  1
30R
 11
857.1529686681852
 21
438.319943286234
 31
0.0
100
AcDbText
 73
     1
  0
TEXT
  5
DC3
330
1F
100
AcDbEntity
  8
0
100
AcDbText
 10
225.4196054039549
 20
60.77688326363386
 30
0.0
 40
30.0
  1
※実寸には製造上の誤差が多少生ずる場合があります。シンクの穴あけ加工は現物合わせにてお願いします。
100
AcDbText
  0
LINE
  5
F5F
330
1F
100
AcDbEntity
  8
0
100
AcDbLine
 10
765.5476334890404
 20
1550.573468247954
 30
0.0
 11
1761.547633489041
 21
1550.573468247955
 31
0.0
  0
LINE
  5
F60
330
1F
100
AcDbEntity
  8
0
100
AcDbLine
 10
765.5476334890405
 20
1545.573468247954
 30
0.0
 11
1761.547633489041
 21
1545.573468247955
 31
0.0
  0
LINE
  5
F65
330
1F
100
AcDbEntity
  8
0
100
AcDbLine
 10
753.5476334890411
 20
972.573468247954
 30
0.0
 11
753.5476334890404
 21
1538.573468247954
 31
0.0
  0
LINE
  5
F66
330
1F
100
AcDbEntity
  8
0
100
AcDbLine
 10
758.547633489041
 20
972.5734682479538
 30
0.0
 11
758.5476334890405
 21
1538.573468247954
 31
0.0
  0
LINE
  5
F69
330
1F
100
AcDbEntity
  8
0
100
AcDbLine
 10
1761.547633489041
 20
960.5734682479543
 30
0.0
 11
765.5476334890411
 21
960.5734682479539
 31
0.0
  0
LINE
  5
F6A
330
1F
100
AcDbEntity
  8
0
100
AcDbLine
 10
1761.54763348904
 20
965.5734682479545
 30
0.0
 11
765.5476334890409
 21
965.5734682479538
 31
0.0
  0
LINE
  5
F6E
330
1F
100
AcDbEntity
  8
0
100
AcDbLine
 10
1773.547633489041
 20
1538.573468247955
 30
0.0
 11
1773.547633489041
 21
972.5734682479542
 31
0.0
  0
LINE
  5
F6F
330
1F
100
AcDbEntity
  8
0
100
AcDbLine
 10
1768.547633489041
 20
1538.573468247955
 30
0.0
 11
1768.54763348904
 21
972.5734682479544
 31
0.0
  0
LINE
  5
F7F
330
1F
100
AcDbEntity
  8
0
100
AcDbLine
 10
1773.547628691645
 20
575.5734700774083
 30
0.0
 11
753.547628691645
 21
575.573470077408
 31
0.0
  0
LINE
  5
F80
330
1F
100
AcDbEntity
  8
0
100
AcDbLine
 10
1738.547628691644
 20
565.5734700774082
 30
0.0
 11
788.5476286916451
 21
565.573470077408
 31
0.0
  0
LINE
  5
F81
330
1F
100
AcDbEntity
  8
0
100
AcDbLine
 10
1768.547628691645
 20
580.5734700774082
 30
0.0
 11
758.547628691645
 21
580.573470077408
 31
0.0
  0
LINE
  5
F82
330
1F
100
AcDbEntity
  8
実形
100
AcDbLine
 10
1758.547628691644
 20
565.573470077408
 30
0.0
 11
1738.547628691644
 21
565.5734700774082
 31
0.0
  0
LINE
  5
F83
330
1F
100
AcDbEntity
  8
実形
100
AcDbLine
 10
1758.547628691644
 20
575.5734700774083
 30
0.0
 11
1758.547628691644
 21
565.573470077408
 31
0.0
  0
LINE
  5
F84
330
1F
100
AcDbEntity
  8
実形
100
AcDbLine
 10
1768.547628691645
 20
580.5734700774082
 30
0.0
 11
1773.547628691645
 21
575.5734700774083
 31
0.0
  0
LINE
  5
F85
330
1F
100
AcDbEntity
  8
実形
100
AcDbLine
 10
1761.547628691644
 20
575.5734700774083
 30
0.0
 11
1761.547628691644
 21
565.573470077408
 31
0.0
  0
LINE
  5
F86
330
1F
100
AcDbEntity
  8
実形
100
AcDbLine
 10
768.5476286916446
 20
565.573470077408
 30
0.0
 11
788.5476286916445
 21
565.573470077408
 31
0.0
  0
LINE
  5
F87
330
1F
100
AcDbEntity
  8
実形
100
AcDbLine
 10
768.5476286916446
 20
575.573470077408
 30
0.0
 11
768.5476286916446
 21
565.573470077408
 31
0.0
  0
LINE
  5
F88
330
1F
100
AcDbEntity
  8
実形
100
AcDbLine
 10
758.547628691645
 20
580.573470077408
 30
0.0
 11
753.5476286916446
 21
575.573470077408
 31
0.0
  0
LINE
  5
F89
330
1F
100
AcDbEntity
  8
実形
100
AcDbLine
 10
765.5476286916446
 20
575.573470077408
 30
0.0
 11
765.5476286916446
 21
565.573470077408
 31
0.0
  0
DIMENSION
  5
FA3
330
1F
100
AcDbEntity
  8
実形
100
AcDbDimension
  2
*D26
 10
682.9416726098588
 20
565.5734700774083
 30
0.0
 11
650.8345997022834
 21
558.6628170658641
 31
0.0
 70
   160
 71
     5
 42
15.0
  3
ISO-25
100
AcDbAlignedDimension
 13
753.5476286916446
 23
580.5734700774082
 33
0.0
 14
753.5476286916446
 24
565.5734700774083
 34
0.0
 50
90.0
100
AcDbRotatedDimension
1001
ACAD
1000
DSTYLE
1002
{
1070
   279
1070
     2
1070
    42
1040
30.0
1070
   141
1040
0.0
1002
}
  0
CIRCLE
  5
10AA
330
1F
100
AcDbEntity
  8
実形
100
AcDbCircle
 10
684.4010880822698
 20
380.5734700774083
 30
0.0
 40
3.454289205341638
  0
HATCH
  5
10B2
330
1F
100
AcDbEntity
  8
実形
100
AcDbHatch
 10
0.0
 20
0.0
 30
0.0
210
0.0
220
0.0
230
1.0
  2
SOLID
 70
     1
 71
     0
 91
        2
 92
        7
 72
     1
 73
     1
 93
        2
 10
680.9467988769281
 20
380.5734700774083
 42
0.0
 10
687.8553772876114
 20
380.5734700774083
 42
1.0
 97
        0
 92
        7
 72
     1
 73
     1
 93
        2
 10
687.8553772876114
 20
380.5734700774083
 42
0.0
 10
680.9467988769281
 20
380.5734700774083
 42
1.0
 97
        0
 75
     0
 76
     1
 47
0.4807155203760991
 98
        2
 10
684.516260472923
 20
381.8020348509772
 10
683.5540695095751
 20
379.8791726984918
  0
HATCH
  5
10B3
330
1F
100
AcDbEntity
  8
実形
100
AcDbHatch
 10
0.0
 20
0.0
 30
0.0
210
0.0
220
0.0
230
1.0
  2
SOLID
 70
     1
 71
     0
 91
        2
 92
        7
 72
     1
 73
     1
 93
        2
 10
680.9467988769281
 20
373.5734700774083
 42
0.0
 10
687.8553772876114
 20
373.5734700774083
 42
1.0
 97
        0
 92
        7
 72
     1
 73
     1
 93
        2
 10
687.8553772876114
 20
373.5734700774083
 42
0.0
 10
680.9467988769281
 20
373.5734700774083
 42
1.0
 97
        0
 75
     0
 76
     1
 47
0.4807155203760991
 98
        2
 10
684.516260472923
 20
374.8020348509772
 10
683.5540695095751
 20
372.8791726984919
  0
CIRCLE
  5
10B4
330
1F
100
AcDbEntity
  8
実形
100
AcDbCircle
 10
684.4010880822698
 20
373.5734700774083
 30
0.0
 40
3.454289205341638
  0
LINE
  5
10D6
330
1F
100
AcDbEntity
  8
0
100
AcDbLine
 10
2028.026047382164
 20
1430.573470077408
 30
0.0
 11
2028.026047382164
 21
960.5734700774085
 31
0.0
  0
LINE
  5
10D7
330
1F
100
AcDbEntity
  8
0
100
AcDbLine
 10
2038.026047382164
 20
1430.573470077408
 30
0.0
 11
2038.026047382163
 21
975.5734700774084
 31
0.0
  0
LINE
  5
10D8
330
1F
100
AcDbEntity
  8
0
100
AcDbLine
 10
2023.026047382163
 20
1430.573470077408
 30
0.0
 11
2023.026047382164
 21
965.5734700774083
 31
0.0
  0
LINE
  5
10D9
330
1F
100
AcDbEntity
  8
実形
100
AcDbLine
 10
2038.026047382163
 20
975.5734700774084
 30
0.0
 11
2038.026047382163
 21
1010.573470077408
 31
0.0
  0
LINE
  5
10DA
330
1F
100
AcDbEntity
  8
実形
100
AcDbLine
 10
2028.026047382164
 20
975.5734700774084
 30
0.0
 11
2038.026047382163
 21
975.5734700774084
 31
0.0
  0
LINE
  5
10DB
330
1F
100
AcDbEntity
  8
実形
100
AcDbLine
 10
2028.026047382164
 20
972.5734700774085
 30
0.0
 11
2038.026047382163
 21
972.5734700774085
 31
0.0
  0
LINE
  5
10DC
330
1F
100
AcDbEntity
  8
実形
100
AcDbLine
 10
2023.026047382164
 20
965.5734700774083
 30
0.0
 11
2028.026047382164
 21
960.5734700774085
 31
0.0
  0
LINE
  5
10DD
330
1F
100
AcDbEntity
  8
0
100
AcDbLine
 10
2038.026047382164
 20
1007.573470077408
 30
0.0
 11
2038.026047382163
 21
998.5734700774081
 31
0.0
  0
TEXT
  5
130E
330
1F
100
AcDbEntity
  8
補助
100
AcDbText
 10
2086.666666666667
 20
84.0
 30
0.0
 40
35.0
  1
尺度
 72
     4
 11
2124.0
 21
101.5
 31
0.0
100
AcDbText
  0
TEXT
  5
130F
330
1F
100
AcDbEntity
  8
補助
100
AcDbText
 10
2086.666666666667
 20
149.0
 30
0.0
 40
35.0
  1
品番
 72
     4
 11
2124.0
 21
166.5
 31
0.0
100
AcDbText
  0
LINE
  5
1310
330
1F
100
AcDbEntity
  8
補助
100
AcDbLine
 10
2064.0
 20
69.0
 30
0.0
 11
2784.0
 21
69.0
 31
0.0
  0
LINE
  5
1311
330
1F
100
AcDbEntity
  8
補助
100
AcDbLine
 10
2064.0
 20
199.0
 30
0.0
 11
2784.0
 21
199.0
 31
0.0
  0
LINE
  5
1312
330
1F
100
AcDbEntity
  8
補助
100
AcDbLine
 10
2064.0
 20
134.0
 30
0.0
 11
2784.0
 21
134.0
 31
0.0
  0
LINE
  5
1313
330
1F
100
AcDbEntity
  8
補助
100
AcDbLine
 10
2064.0
 20
4.0
 30
0.0
 11
2064.0
 21
199.0
 31
0.0
  0
TEXT
  5
1314
330
1F
100
AcDbEntity
  8
補助
100
AcDbText
 10
2300.255774665348
 20
16.49999999999999
 30
0.0
 40
40.0
  1
中外交易株式会社
 72
     4
 11
2488.255774665347
 21
36.5
 31
0.0
100
AcDbText
  0
TEXT
  5
1315
330
1F
100
AcDbEntity
  8
0
100
AcDbText
 10
2255.566666666667
 20
149.0
 30
0.0
 40
35.0
  1
YME1020-590S-POR
 41
0.88
 72
     4
 11
2484.0
 21
166.5
 31
0.0
100
AcDbText
  0
LINE
  5
1316
330
1F
100
AcDbEntity
  8
補助
100
AcDbLine
 10
2184.0
 20
69.0
 30
0.0
 11
2784.0
 21
69.0
 31
0.0
  0
LINE
  5
1317
102
{ACAD_REACTORS
330
1324
102
}
330
1F
100
AcDbEntity
  8
補助
370
     5
100
AcDbLine
 10
2207.843923164362
 20
40.53787547858519
 30
0.0
 11
2183.255774665347
 21
40.53787547858519
 31
0.0
  0
LINE
  5
1318
102
{ACAD_REACTORS
330
1324
102
}
330
1F
100
AcDbEntity
  8
補助
370
     5
100
AcDbLine
 10
2183.255774665347
 20
40.53787547858519
 30
0.0
 11
2183.255774665347
 21
30.53787547858519
 31
0.0
  0
LINE
  5
1319
102
{ACAD_REACTORS
330
1324
102
}
330
1F
100
AcDbEntity
  8
補助
370
     5
100
AcDbLine
 10
2183.255774665347
 20
30.53787547858519
 30
0.0
 11
2207.346428692676
 21
30.53787547858514
 31
0.0
  0
LINE
  5
131A
102
{ACAD_REACTORS
330
1324
102
}
330
1F
100
AcDbEntity
  8
補助
370
     5
100
AcDbLine
 10
2210.641894042939
 20
56.5
 30
0.0
 11
2210.641894042939
 21
16.5
 31
0.0
  0
LINE
  5
131B
102
{ACAD_REACTORS
330
1324
102
}
330
1F
100
AcDbEntity
  8
補助
370
     5
100
AcDbLine
 10
2210.641894042939
 20
16.5
 30
0.0
 11
2245.64189404294
 21
16.5
 31
0.0
  0
LINE
  5
131C
102
{ACAD_REACTORS
330
1324
102
}
330
1F
100
AcDbEntity
  8
補助
370
     5
100
AcDbLine
 10
2245.64189404294
 20
16.5
 30
0.0
 11
2210.641894042939
 21
36.5
 31
0.0
  0
LINE
  5
131D
102
{ACAD_REACTORS
330
1324
102
}
330
1F
100
AcDbEntity
  8
補助
370
     5
100
AcDbLine
 10
2210.641894042939
 20
36.5
 30
0.0
 11
2245.64189404294
 21
56.5
 31
0.0
  0
LINE
  5
131E
102
{ACAD_REACTORS
330
1324
102
}
330
1F
100
AcDbEntity
  8
補助
370
     5
100
AcDbLine
 10
2245.64189404294
 20
56.5
 30
0.0
 11
2210.641894042939
 21
56.5
 31
0.0
  0
LINE
  5
131F
102
{ACAD_REACTORS
330
1324
102
}
330
1F
100
AcDbEntity
  8
補助
370
     5
100
AcDbLine
 10
2276.75434681301
 20
40.53787547858519
 30
0.0
 11
2252.166198313995
 21
40.53787547858519
 31
0.0
  0
LINE
  5
1320
102
{ACAD_REACTORS
330
1324
102
}
330
1F
100
AcDbEntity
  8
補助
370
     5
100
AcDbLine
 10
2252.166198313995
 20
40.53787547858519
 30
0.0
 11
2252.166198313995
 21
30.53787547858519
 31
0.0
  0
LINE
  5
1321
102
{ACAD_REACTORS
330
1324
102
}
330
1F
100
AcDbEntity
  8
補助
370
     5
100
AcDbLine
 10
2252.166198313995
 20
30.53787547858519
 30
0.0
 11
2276.256852341323
 21
30.53787547858514
 31
0.0
  0
ARC
  5
1322
102
{ACAD_REACTORS
330
1324
102
}
330
1F
100
AcDbEntity
  8
補助
370
     5
100
AcDbCircle
 10
2188.255774665348
 20
36.5
 30
0.0
 40
20.0
100
AcDbArc
 50
11.6477236670766
 51
342.6561058784746
  0
ARC
  5
1323
102
{ACAD_REACTORS
330
1324
102
}
330
1F
100
AcDbEntity
  8
補助
370
     5
100
AcDbCircle
 10
2257.166198313996
 20
36.5
 30
0.0
 40
20.0
100
AcDbArc
 50
11.6477236670766
 51
342.6561058784746
  0
HATCH
  5
1324
330
1F
100
AcDbEntity
  8
補助
100
AcDbHatch
 10
0.0
 20
0.0
 30
0.0
210
0.0
220
0.0
230
1.0
  2
SOLID
 70
     1
 71
     1
 91
        3
 92
        1
 93
        4
 72
     2
 10
2257.166198313996
 20
36.5
 40
20.0
 50
11.6477236670766
 51
342.6561058784746
 73
     1
 72
     1
 10
2276.256852341323
 20
30.53787547858514
 11
2252.166198313995
 21
30.53787547858519
 72
     1
 10
2252.166198313995
 20
30.53787547858519
 11
2252.166198313995
 21
40.53787547858519
 72
     1
 10
2252.166198313995
 20
40.53787547858519
 11
2276.75434681301
 21
40.53787547858519
 97
        4
330
1323
330
1321
330
1320
330
131F
 92
        1
 93
        4
 72
     2
 10
2188.255774665348
 20
36.5
 40
20.0
 50
11.6477236670766
 51
342.6561058784746
 73
     1
 72
     1
 10
2207.346428692676
 20
30.53787547858514
 11
2183.255774665347
 21
30.53787547858519
 72
     1
 10
2183.255774665347
 20
30.53787547858519
 11
2183.255774665347
 21
40.53787547858519
 72
     1
 10
2183.255774665347
 20
40.53787547858519
 11
2207.843923164362
 21
40.53787547858519
 97
        4
330
1322
330
1319
330
1318
330
1317
 92
        1
 93
        5
 72
     1
 10
2245.64189404294
 20
56.5
 11
2210.641894042939
 21
56.5
 72
     1
 10
2210.641894042939
 20
56.5
 11
2210.641894042939
 21
16.5
 72
     1
 10
2210.641894042939
 20
16.5
 11
2245.64189404294
 21
16.5
 72
     1
 10
2245.64189404294
 20
16.5
 11
2210.641894042939
 21
36.5
 72
     1
 10
2210.641894042939
 20
36.5
 11
2245.64189404294
 21
56.5
 97
        5
330
131E
330
131A
330
131B
330
131C
330
131D
 75
     0
 76
     1
 98
        1
 10
-60.0
 20
0.0
  0
LINE
  5
1325
330
1F
100
AcDbEntity
  8
補助
100
AcDbLine
 10
2184.0
 20
69.0
 30
0.0
 11
2184.0
 21
199.0
 31
0.0
  0
TEXT
  5
1326
330
1F
100
AcDbEntity
  8
0
100
AcDbText
 10
2430.916666666667
 20
84.0
 30
0.0
 40
35.0
  1
1：10
 72
     4
 11
2484.0
 21
101.5
 31
0.0
100
AcDbText
  0
LINE
  5
1327
330
1F
100
AcDbEntity
  8
補助
100
AcDbLine
 10
2784.0
 20
69.0
 30
0.0
 11
2784.0
 21
134.0
 31
0.0
  0
LINE
  5
1328
330
1F
100
AcDbEntity
  8
補助
100
AcDbLine
 10
2784.0
 20
134.0
 30
0.0
 11
2784.0
 21
199.0
 31
0.0
  0
LINE
  5
1329
330
1F
100
AcDbEntity
  8
補助
100
AcDbLine
 10
2784.0
 20
4.0
 30
0.0
 11
2784.0
 21
69.0
 31
0.0
  0
CIRCLE
  5
134B
330
1F
100
AcDbEntity
  8
実形
100
AcDbCircle
 10
2230.026047382164
 20
874.8253177789111
 30
0.0
 40
3.454289205341638
  0
HATCH
  5
134C
330
1F
100
AcDbEntity
  8
実形
100
AcDbHatch
 10
0.0
 20
0.0
 30
0.0
210
0.0
220
0.0
230
1.0
  2
SOLID
 70
     1
 71
     0
 91
        2
 92
        7
 72
     1
 73
     1
 93
        2
 10
2226.571758176822
 20
874.8253177789111
 42
0.0
 10
2233.480336587505
 20
874.8253177789111
 42
1.0
 97
        0
 92
        7
 72
     1
 73
     1
 93
        2
 10
2233.480336587505
 20
874.8253177789111
 42
0.0
 10
2226.571758176822
 20
874.8253177789111
 42
1.0
 97
        0
 75
     0
 76
     1
 47
0.4807155203760991
 98
        2
 10
2230.141219772817
 20
876.05388255248
 10
2229.179028809469
 20
874.1310203999946
  0
ARC
  5
1758
330
1F
100
AcDbEntity
  8
実形
100
AcDbCircle
 10
891.0117694550811
 20
1118.838423484587
 30
0.0
 40
100.0
100
AcDbArc
 50
182.9183721086285
 51
267.4581267083568
  0
ARC
  5
1759
330
1F
100
AcDbEntity
  8
実形
100
AcDbCircle
 10
891.0117694550811
 20
1312.308509815965
 30
0.0
 40
100.0
100
AcDbArc
 50
92.54187329164322
 51
177.0816278913584
  0
LEADER
  5
175A
330
1F
100
AcDbEntity
  8
実形
100
AcDbLeader
  3
ISO-25
 40
74.99999999999999
 41
41.66666666666666
 76
     2
 10
795.4170425557833
 20
1215.667552060618
 30
0.0
 10
854.7039879814484
 20
1215.667552060618
 30
0.0
211
-1.0
221
0.0
231
0.0
210
0.0
220
0.0
230
-1.0
213
0.0
223
12.5
233
0.0
1001
ACAD
1000
DSTYLE
1002
{
1070
   147
1040
6.25
1070
    77
1070
     0
1070
    41
1040
20.0
1070
   342
1005
DA
1002
}
  0
LEADER
  5
175B
330
1F
100
AcDbEntity
  8
実形
100
AcDbLeader
  3
ISO-25
 40
25.0
 41
16.66666666666666
 76
     2
 10
819.4337940128757
 20
1376.735699493477
 30
0.0
 10
856.9556744891515
 20
1335.225940703083
 30
0.0
211
-1.0
221
0.0
231
0.0
210
0.0
220
0.0
230
-1.0
213
0.0
223
12.5
233
0.0
1001
ACAD
1000
DSTYLE
1002
{
1070
   147
1040
6.25
1070
    77
1070
     0
1070
    41
1040
20.0
1070
   342
1005
DA
1002
}
  0
LEADER
  5
175C
330
1F
100
AcDbEntity
  8
実形
100
AcDbLeader
  3
ISO-25
 40
25.0
 41
16.66666666666666
 76
     2
 10
816.1743548074831
 20
1417.996893225819
 30
0.0
 10
884.4446007330834
 20
1387.889085185132
 30
0.0
211
-1.0
221
0.0
231
0.0
210
0.0
220
0.0
230
-1.0
213
0.0
223
12.5
233
0.0
1001
ACAD
1000
DSTYLE
1002
{
1070
   147
1040
6.25
1070
    77
1070
     0
1070
    41
1040
20.0
1070
   342
1005
DA
1002
}
  0
LEADER
  5
175D
330
1F
100
AcDbEntity
  8
実形
100
AcDbLeader
  3
ISO-25
 40
25.0
 41
16.66666666666666
 76
     2
 10
808.6055565605054
 20
1491.307730039229
 30
0.0
 10
854.1124810764895
 20
1465.909750395378
 30
0.0
211
-1.0
221
0.0
231
0.0
210
0.0
220
0.0
230
-1.0
213
0.0
223
12.5
233
0.0
1001
ACAD
1000
DSTYLE
1002
{
1070
   147
1040
6.25
1070
    77
1070
     0
1070
    41
1040
20.0
1070
   342
1005
DA
1002
}
  0
ARC
  5
175F
330
1F
100
AcDbEntity
  8
実形
100
AcDbCircle
 10
848.5476252527398
 20
1455.573468968295
 30
0.0
 40
60.0
100
AcDbArc
 50
90.0
 51
180.0
  0
ARC
  5
1760
330
1F
100
AcDbEntity
  8
実形
100
AcDbCircle
 10
848.5476252527394
 20
1375.573468968295
 30
0.0
 40
60.0
100
AcDbArc
 50
90.0
 51
180.0
  0
ARC
  5
1761
330
1F
100
AcDbEntity
  8
実形
100
AcDbCircle
 10
848.5476252527396
 20
1055.573468968295
 30
0.0
 40
60.0
100
AcDbArc
 50
180.0
 51
270.0
  0
LINE
  5
1762
330
1F
100
AcDbEntity
  8
実形
100
AcDbLine
 10
788.5476252527398
 20
1455.573468968295
 30
0.0
 11
788.5476252527396
 21
1117.515001142119
 31
0.0
  0
ARC
  5
1763
330
1F
100
AcDbEntity
  8
実形
100
AcDbCircle
 10
2788.547627198943
 20
1215.573466650275
 30
0.0
 40
2000.0
100
AcDbArc
 50
177.0816278913584
 51
182.9183721086416
  0
LINE
  5
1764
330
1F
100
AcDbEntity
  8
実形
100
AcDbLine
 10
788.5476252527394
 20
1375.573468968295
 30
0.0
 11
788.5476252527396
 21
1055.573468968295
 31
0.0
  0
LINE
  5
1765
330
1F
100
AcDbEntity
  8
実形
100
AcDbLine
 10
788.5476252527396
 20
1313.63193679447
 30
0.0
 11
788.5476252527396
 21
1117.515001142119
 31
0.0
  0
ARC
  5
1766
330
1F
100
AcDbEntity
  8
実形
100
AcDbCircle
 10
1636.083484942804
 20
1312.308509815965
 30
0.0
 40
100.0
100
AcDbArc
 50
2.918372108641579
 51
87.45812670835675
  0
DIMENSION
  5
1767
330
1F
100
AcDbEntity
  8
寸法
100
AcDbDimension
  2
*D28
 10
1244.487095617516
 20
1420.573468968295
 30
0.0
 11
1225.737095617516
 21
1355.573468968295
 31
0.0
 70
    32
 71
     5
 42
130.0
  3
ISO-25
100
AcDbAlignedDimension
 13
1523.414211271379
 23
1290.573468968295
 33
0.0
 14
1244.487095617516
 24
1420.573468968295
 34
0.0
 50
90.0
100
AcDbRotatedDimension
1001
ACAD
1000
DSTYLE
1002
{
1070
    76
1070
     1
1070
    75
1070
     0
1002
}
  0
LINE
  5
1768
330
1F
100
AcDbEntity
  8
センター
100
AcDbLine
 10
1588.547625252739
 20
1441.975970057448
 30
0.0
 11
1588.547625252739
 21
1135.853399517344
 31
0.0
  0
LINE
  5
1769
330
1F
100
AcDbEntity
  8
実形
100
AcDbLine
 10
1738.54762525274
 20
1455.573468968295
 30
0.0
 11
1738.54762525274
 21
1117.515001142119
 31
0.0
  0
ARC
  5
176A
330
1F
100
AcDbEntity
  8
実形
100
AcDbCircle
 10
1678.547625252739
 20
1375.573468968295
 30
0.0
 40
60.0
100
AcDbArc
 50
0.0
 51
90.0
  0
ARC
  5
176B
330
1F
100
AcDbEntity
  8
実形
100
AcDbCircle
 10
1263.547627198943
 20
9510.573466650273
 30
0.0
 40
8500.0
100
AcDbArc
 50
267.4581267083568
 51
272.5418732916432
  0
LEADER
  5
176C
330
1F
100
AcDbEntity
  8
寸法
100
AcDbLeader
  3
ISO-25
 40
66.66666666666666
 41
87.5
 76
     2
 10
1425.647421363051
 20
1020.637790006971
 30
0.0
 10
1397.503623504016
 20
1060.476676733833
 30
0.0
211
-1.0
221
0.0
231
0.0
210
0.0
220
0.0
230
-1.0
213
0.0
223
-12.5
233
0.0
1001
ACAD
1000
DSTYLE
1002
{
1070
   147
1040
6.25
1070
    77
1070
     0
1070
    41
1040
20.0
1070
   342
1005
DA
1002
}
  0
LINE
  5
176D
330
1F
100
AcDbEntity
  8
実形
100
AcDbLine
 10
1678.547625252739
 20
995.573468968295
 30
0.0
 11
848.5476252527396
 21
995.573468968295
 31
0.0
  0
TEXT
  5
176E
330
1F
100
AcDbEntity
  8
実形
100
AcDbText
 10
869.8483540131913
 20
1203.167552060618
 30
0.0
 40
25.0
  1
2000R
 72
     2
 11
974.0150206798579
 21
1215.667552060618
 31
0.0
100
AcDbText
 73
     2
  0
TEXT
  5
176F
330
1F
100
AcDbEntity
  8
実形
100
AcDbText
 10
865.4272858206867
 20
1305.888325183132
 30
0.0
 40
25.0
  1
100R
 72
     2
 11
940.4272858206867
 21
1302.554991849799
 31
0.0
100
AcDbText
 73
     1
  0
TEXT
  5
1770
330
1F
100
AcDbEntity
  8
実形
100
AcDbText
 10
893.7258438775943
 20
1370.124316310045
 30
0.0
 40
25.0
  1
60R
 72
     2
 11
956.2258438775943
 21
1366.790982976712
 31
0.0
100
AcDbText
 73
     1
  0
TEXT
  5
1771
330
1F
100
AcDbEntity
  8
寸法
100
AcDbText
 10
1274.816093888342
 20
1065.416639153548
 30
0.0
 40
25.0
  1
8500R
 11
1274.816093888342
 21
1062.083305820215
 31
0.0
100
AcDbText
 73
     1
  0
ARC
  5
1772
330
1F
100
AcDbEntity
  8
実形
100
AcDbCircle
 10
1678.547625252739
 20
1055.573468968295
 30
0.0
 40
60.0
100
AcDbArc
 50
270.0
 51
0.0
  0
ARC
  5
1773
330
1F
100
AcDbEntity
  8
実形
100
AcDbCircle
 10
1636.083484942804
 20
1118.838423484587
 30
0.0
 40
100.0
100
AcDbArc
 50
272.5418732916432
 51
357.0816278913584
  0
DIMENSION
  5
1774
330
1F
100
AcDbEntity
  8
寸法
100
AcDbDimension
  2
*D29
 10
1738.54762525274
 20
1137.980702697294
 30
0.0
 11
1663.547625252739
 21
1156.730702697294
 31
0.0
 70
    32
 71
     5
 42
150.0
  3
ISO-25
100
AcDbAlignedDimension
 13
1588.547625252739
 23
1211.073468968295
 33
0.0
 14
1738.54762525274
 24
1200.073468968295
 34
0.0
 50
180.0
100
AcDbRotatedDimension
  0
LINE
  5
1775
330
1F
100
AcDbEntity
  8
センター
100
AcDbLine
 10
1725.115939283034
 20
1290.573468968295
 30
0.0
 11
1451.941067365027
 21
1290.573468968295
 31
0.0
  0
CIRCLE
  5
1776
330
1F
100
AcDbEntity
  8
実形
100
AcDbCircle
 10
1588.547625252739
 20
1290.573468968295
 30
0.0
 40
79.5
  0
CIRCLE
  5
1777
330
1F
100
AcDbEntity
  8
実形
100
AcDbCircle
 10
1588.547625252739
 20
1290.573468968295
 30
0.0
 40
90.5
  0
ARC
  5
1778
330
1F
100
AcDbEntity
  8
実形
100
AcDbCircle
 10
-261.4523728010572
 20
1215.573466650275
 30
0.0
 40
2000.0
100
AcDbArc
 50
357.0816278913584
 51
2.918372108641579
  0
LINE
  5
1779
330
1F
100
AcDbEntity
  8
実形
100
AcDbLine
 10
1738.54762525274
 20
1375.573468968295
 30
0.0
 11
1738.54762525274
 21
1055.573468968295
 31
0.0
  0
LINE
  5
177A
330
1F
100
AcDbEntity
  8
実形
100
AcDbLine
 10
1738.54762525274
 20
1313.63193679447
 30
0.0
 11
1738.54762525274
 21
1117.515001142119
 31
0.0
  0
ARC
  5
177B
330
1F
100
AcDbEntity
  8
実形
100
AcDbCircle
 10
1263.547627198943
 20
-7079.426533349722
 30
0.0
 40
8500.0
100
AcDbArc
 50
87.45812670835675
 51
92.54187329164322
  0
DIMENSION
  5
177C
330
1F
100
AcDbEntity
  8
寸法
100
AcDbDimension
  2
*D30
 10
1320.247576333625
 20
1445.573468968295
 30
0.0
 11
1301.497576333624
 21
1475.573468968295
 31
0.0
 70
    33
 71
     5
 42
60.0
  3
ISO-25
100
AcDbAlignedDimension
 13
1447.547625252741
 23
1505.573468968295
 33
0.0
 14
1447.547625252741
 24
1445.573468968295
 34
0.0
  0
LINE
  5
177F
330
1F
100
AcDbEntity
  8
実形
100
AcDbLine
 10
1678.547625252739
 20
1435.573468968295
 30
0.0
 11
848.5476252527394
 21
1435.573468968295
 31
0.0
  0
LINE
  5
1780
330
1F
100
AcDbEntity
  8
実形
100
AcDbLine
 10
1678.547625252739
 20
1515.573468968295
 30
0.0
 11
848.5476252527398
 21
1515.573468968295
 31
0.0
  0
TEXT
  5
1781
330
1F
100
AcDbEntity
  8
実形
100
AcDbText
 10
861.767659876482
 20
1442.076225359637
 30
0.0
 40
25.0
  1
60R
 72
     2
 11
924.267659876482
 21
1467.076225359637
 31
0.0
100
AcDbText
 73
     3
  0
ARC
  5
1785
330
1F
100
AcDbEntity
  8
実形
100
AcDbCircle
 10
1678.547625252739
 20
1455.573468968295
 30
0.0
 40
60.0
100
AcDbArc
 50
0.0
 51
90.0
  0
LINE
  5
1786
330
1F
100
AcDbEntity
  8
実形
100
AcDbLine
 10
1418.547625252741
 20
1474.573468968295
 30
0.0
 11
1418.547625252741
 21
1476.573468968295
 31
0.0
  0
LINE
  5
1787
330
1F
100
AcDbEntity
  8
実形
100
AcDbLine
 10
1418.547625252741
 20
1474.573468968295
 30
0.0
 11
1418.547625252741
 21
1476.573468968295
 31
0.0
  0
ARC
  5
18DA
330
1F
100
AcDbEntity
  8
0
100
AcDbCircle
 10
765.5476334890404
 20
1538.573468247954
 30
0.0
 40
12.0
100
AcDbArc
 50
90.00000000000003
 51
180.0
  0
ARC
  5
18DB
330
1F
100
AcDbEntity
  8
0
100
AcDbCircle
 10
765.5476334890411
 20
972.573468247954
 30
0.0
 40
12.0
100
AcDbArc
 50
180.0
 51
270.0
  0
ARC
  5
18DC
330
1F
100
AcDbEntity
  8
0
100
AcDbCircle
 10
1761.547633489041
 20
972.5734682479542
 30
0.0
 40
12.0
100
AcDbArc
 50
270.0
 51
0.0
  0
ARC
  5
18DD
330
1F
100
AcDbEntity
  8
0
100
AcDbCircle
 10
1761.547633489041
 20
1538.573468247955
 30
0.0
 40
12.0
100
AcDbArc
 50
0.0
 51
90.0
  0
ARC
  5
18DE
330
1F
100
AcDbEntity
  8
0
100
AcDbCircle
 10
1761.547633489041
 20
1538.573468247955
 30
0.0
 40
7.0
100
AcDbArc
 50
0.0
 51
90.0
  0
ARC
  5
18DF
330
1F
100
AcDbEntity
  8
0
100
AcDbCircle
 10
1761.54763348904
 20
972.5734682479544
 30
0.0
 40
7.0
100
AcDbArc
 50
270.0
 51
0.0
  0
ARC
  5
18E0
330
1F
100
AcDbEntity
  8
0
100
AcDbCircle
 10
765.5476334890409
 20
972.5734682479538
 30
0.0
 40
7.0
100
AcDbArc
 50
180.0
 51
270.0
  0
ARC
  5
18E1
330
1F
100
AcDbEntity
  8
0
100
AcDbCircle
 10
765.5476334890405
 20
1538.573468247954
 30
0.0
 40
7.0
100
AcDbArc
 50
90.00000000000005
 51
180.0
  0
DIMENSION
  5
193C
330
1F
100
AcDbEntity
  8
実形
100
AcDbDimension
  2
*D31
 10
1773.547633489041
 20
1609.904669305073
 30
0.0
 11
1770.480069331852
 21
1633.252681245585
 31
0.0
 70
   160
 71
     5
 42
34.99999999999886
  3
ISO-25
100
AcDbAlignedDimension
 13
1738.547633489042
 23
1505.573470077408
 33
0.0
 14
1773.547633489041
 24
1505.573470077408
 34
0.0
 50
180.0
100
AcDbRotatedDimension
1001
ACAD
1000
DSTYLE
1002
{
1070
   279
1070
     2
1070
   141
1040
0.0
1002
}
  0
LINE
  5
1983
330
1F
100
AcDbEntity
  8
補助
100
AcDbLine
 10
1894.0
 20
2024.0
 30
0.0
 11
2784.0
 21
2024.0
 31
0.0
  0
LINE
  5
1993
330
1F
100
AcDbEntity
  8
補助
100
AcDbLine
 10
2784.0
 20
2024.0
 30
0.0
 11
2784.000000000001
 21
1829.0
 31
0.0
  0
LINE
  5
1994
330
1F
100
AcDbEntity
  8
補助
100
AcDbLine
 10
2784.0
 20
1829.0
 30
0.0
 11
2784.0
 21
2024.0
 31
0.0
  0
LINE
  5
1A2C
330
1F
100
AcDbEntity
  8
実形
100
AcDbLine
 10
1669.547633489041
 20
1445.662781423945
 30
0.0
 11
1437.547633489041
 21
1445.662781423945
 31
0.0
  0
LINE
  5
1A2D
330
1F
100
AcDbEntity
  8
実形
100
AcDbLine
 10
1669.547633489041
 20
1505.662781423945
 30
0.0
 11
1437.547633489041
 21
1505.662781423945
 31
0.0
  0
ARC
  5
1A2E
330
1F
100
AcDbEntity
  8
実形
100
AcDbCircle
 10
1669.547633489041
 20
1476.662781423945
 30
0.0
 40
29.0
100
AcDbArc
 50
0.0
 51
90.0
  0
ARC
  5
1A2F
330
1F
100
AcDbEntity
  8
実形
100
AcDbCircle
 10
1669.547633489041
 20
1474.662781423945
 30
0.0
 40
29.0
100
AcDbArc
 50
270.0
 51
0.0
  0
ARC
  5
1A30
330
1F
100
AcDbEntity
  8
実形
100
AcDbCircle
 10
1437.547633489041
 20
1474.662781423945
 30
0.0
 40
29.0
100
AcDbArc
 50
180.0
 51
270.0
  0
ARC
  5
1A31
330
1F
100
AcDbEntity
  8
実形
100
AcDbCircle
 10
1437.547633489041
 20
1476.662781423945
 30
0.0
 40
29.0
100
AcDbArc
 50
90.0
 51
180.0
  0
DIMENSION
  5
1A32
330
1F
100
AcDbEntity
  8
寸法
100
AcDbDimension
  2
*D32
 10
1698.547633489041
 20
1609.99398065161
 30
0.0
 11
1553.54763348904
 21
1628.74398065161
 31
0.0
 70
    32
 71
     5
 42
290.0
  3
ISO-25
100
AcDbAlignedDimension
 13
1408.547633489041
 23
1505.662781423945
 33
0.0
 14
1698.547633489041
 24
1505.662781423945
 34
0.0
100
AcDbRotatedDimension
1001
ACAD
1000
DSTYLE
1002
{
1070
   279
1070
     1
1002
}
  0
LINE
  5
1A35
330
1F
100
AcDbEntity
  8
実形
370
    15
100
AcDbLine
 10
1478.514172202139
 20
1465.573468968295
 30
0.0
 11
1518.514172202139
 21
1465.573468968295
 31
0.0
  0
LINE
  5
1A36
330
1F
100
AcDbEntity
  8
実形
370
    15
100
AcDbLine
 10
1528.514172202139
 20
1475.573468968295
 30
0.0
 11
1528.514172202139
 21
1475.573468968295
 31
0.0
  0
LINE
  5
1A37
330
1F
100
AcDbEntity
  8
実形
370
    15
100
AcDbLine
 10
1518.514172202139
 20
1485.573468968295
 30
0.0
 11
1427.814114685918
 21
1485.573468968294
 31
0.0
  0
ARC
  5
1A38
330
1F
100
AcDbEntity
  8
実形
370
    15
100
AcDbCircle
 10
1518.514172202139
 20
1475.573468968295
 30
0.0
 40
10.0
100
AcDbArc
 50
0.0
 51
90.0
  0
ARC
  5
1A39
330
1F
100
AcDbEntity
  8
実形
370
    15
100
AcDbCircle
 10
1518.514172202139
 20
1475.573468968295
 30
0.0
 40
10.0
100
AcDbArc
 50
270.0
 51
0.0
  0
LINE
  5
1A3A
330
1F
100
AcDbEntity
  8
実形
370
    15
100
AcDbLine
 10
1429.147633489041
 20
1470.573468968294
 30
0.0
 11
1518.514172202139
 21
1470.573468968295
 31
0.0
  0
LINE
  5
1A3B
330
1F
100
AcDbEntity
  8
実形
370
    15
100
AcDbLine
 10
1518.514172202139
 20
1480.573468968295
 30
0.0
 11
1428.206810529195
 21
1480.573468968294
 31
0.0
  0
LINE
  5
1A3D
330
1F
100
AcDbEntity
  8
実形
370
    15
100
AcDbLine
 10
1518.514172202139
 20
1470.573468968295
 30
0.0
 11
1428.206810529195
 21
1470.573468968294
 31
0.0
  0
LINE
  5
1A3E
330
1F
100
AcDbEntity
  8
実形
370
    15
100
AcDbLine
 10
1518.514172202139
 20
1470.573468968295
 30
0.0
 11
1428.206810529195
 21
1470.573468968294
 31
0.0
  0
LINE
  5
1A3F
330
1F
100
AcDbEntity
  8
実形
370
    15
100
AcDbLine
 10
1518.514172202139
 20
1470.573468968295
 30
0.0
 11
1428.206810529195
 21
1470.573468968294
 31
0.0
  0
LINE
  5
1A40
330
1F
100
AcDbEntity
  8
実形
370
    15
100
AcDbLine
 10
1518.514172202139
 20
1470.573468968295
 30
0.0
 11
1428.206810529195
 21
1470.573468968294
 31
0.0
  0
LINE
  5
1A41
330
1F
100
AcDbEntity
  8
実形
370
    15
100
AcDbLine
 10
1518.514172202139
 20
1470.573468968295
 30
0.0
 11
1428.206810529195
 21
1470.573468968294
 31
0.0
  0
LINE
  5
1A42
330
1F
100
AcDbEntity
  8
実形
370
    15
100
AcDbLine
 10
1518.514172202139
 20
1470.573468968295
 30
0.0
 11
1428.206810529195
 21
1470.573468968294
 31
0.0
  0
ARC
  5
1A43
330
1F
100
AcDbEntity
  8
実形
370
    15
100
AcDbCircle
 10
1518.514172202139
 20
1475.573468968295
 30
0.0
 40
5.0
100
AcDbArc
 50
0.0
 51
90.0
  0
ARC
  5
1A44
330
1F
100
AcDbEntity
  8
実形
370
    15
100
AcDbCircle
 10
1518.514172202139
 20
1475.573468968295
 30
0.0
 40
5.0
100
AcDbArc
 50
270.0
 51
0.0
  0
LINE
  5
1A45
330
1F
100
AcDbEntity
  8
実形
370
    15
100
AcDbLine
 10
1578.51417220214
 20
1475.573468968295
 30
0.0
 11
1578.51417220214
 21
1475.573468968295
 31
0.0
  0
ARC
  5
1A46
330
1F
100
AcDbEntity
  8
実形
370
    15
100
AcDbCircle
 10
1429.147633489041
 20
1475.662781423945
 30
0.0
 40
10.0
100
AcDbArc
 50
180.0
 51
270.0
  0
ARC
  5
1A47
330
1F
100
AcDbEntity
  8
実形
370
    15
100
AcDbCircle
 10
1429.147633489041
 20
1475.662781423945
 30
0.0
 40
10.0
100
AcDbArc
 50
97.66332789946368
 51
180.0
  0
ARC
  5
1A48
330
1F
100
AcDbEntity
  8
実形
370
    15
100
AcDbCircle
 10
1429.303428901448
 20
1475.72731399672
 30
0.0
 40
5.156199257937148
100
AcDbArc
 50
180.7171058390016
 51
268.2685350296829
  0
ARC
  5
1A49
330
1F
100
AcDbEntity
  8
実形
370
    15
100
AcDbCircle
 10
1429.147633489041
 20
1475.662781423945
 30
0.0
 40
5.0
100
AcDbArc
 50
100.8456912240022
 51
180.0
  0
LINE
  5
1A4A
330
1F
100
AcDbEntity
  8
実形
100
AcDbLine
 10
1478.514172202139
 20
1465.573468968295
 30
0.0
 11
1430.476152969991
 21
1465.573468968295
 31
0.0
  0
LWPOLYLINE
  5
1A4B
330
1F
100
AcDbEntity
  8
実形
100
AcDbPolyline
 90
        2
 70
     0
 43
0.0
 10
1429.147633489041
 20
1465.662781423945
 10
1430.476152969991
 20
1465.573468968295
  0
LINE
  5
1A4C
330
1F
100
AcDbEntity
  8
実形
370
    15
100
AcDbLine
 10
1588.581094775942
 20
1485.573468968295
 30
0.0
 11
1679.281152292163
 21
1485.573468968294
 31
0.0
  0
ARC
  5
1A4D
330
1F
100
AcDbEntity
  8
実形
370
    15
100
AcDbCircle
 10
1588.581094775942
 20
1475.573468968295
 30
0.0
 40
10.0
100
AcDbArc
 50
90.0
 51
180.0
  0
ARC
  5
1A4E
330
1F
100
AcDbEntity
  8
実形
370
    15
100
AcDbCircle
 10
1588.714897022432
 20
1475.628891673467
 30
0.0
 40
10.13395380131631
100
AcDbArc
 50
180.3133528125275
 51
277.1375613778998
  0
LINE
  5
1A4F
330
1F
100
AcDbEntity
  8
実形
370
    15
100
AcDbLine
 10
1677.94763348904
 20
1470.573468968294
 30
0.0
 11
1588.581094775942
 21
1470.573468968295
 31
0.0
  0
LINE
  5
1A50
330
1F
100
AcDbEntity
  8
実形
370
    15
100
AcDbLine
 10
1588.581094775942
 20
1480.573468968295
 30
0.0
 11
1678.888456448886
 21
1480.573468968294
 31
0.0
  0
ARC
  5
1A51
330
1F
100
AcDbEntity
  8
実形
370
    15
100
AcDbCircle
 10
1588.581094775942
 20
1475.573468968295
 30
0.0
 40
5.0
100
AcDbArc
 50
90.0
 51
180.0
  0
ARC
  5
1A52
330
1F
100
AcDbEntity
  8
実形
370
    15
100
AcDbCircle
 10
1588.581094775942
 20
1475.573468968295
 30
0.0
 40
5.0
100
AcDbArc
 50
180.0
 51
270.0
  0
ARC
  5
1A53
330
1F
100
AcDbEntity
  8
実形
370
    15
100
AcDbCircle
 10
1677.94763348904
 20
1475.662781423945
 30
0.0
 40
10.0
100
AcDbArc
 50
270.0
 51
0.0
  0
ARC
  5
1A54
330
1F
100
AcDbEntity
  8
実形
370
    15
100
AcDbCircle
 10
1677.94763348904
 20
1475.662781423945
 30
0.0
 40
10.0
100
AcDbArc
 50
0.0
 51
82.33667210053631
  0
ARC
  5
1A55
330
1F
100
AcDbEntity
  8
実形
370
    15
100
AcDbCircle
 10
1677.791838076633
 20
1475.72731399672
 30
0.0
 40
5.156199257937148
100
AcDbArc
 50
271.7314649703171
 51
359.2828941609984
  0
ARC
  5
1A56
330
1F
100
AcDbEntity
  8
実形
370
    15
100
AcDbCircle
 10
1677.94763348904
 20
1475.662781423945
 30
0.0
 40
5.0
100
AcDbArc
 50
0.0
 51
79.15430877599776
  0
LINE
  5
1A57
330
1F
100
AcDbEntity
  8
実形
100
AcDbLine
 10
1628.581094775942
 20
1465.573468968295
 30
0.0
 11
1676.61911400809
 21
1465.573468968295
 31
0.0
  0
LINE
  5
1A58
330
1F
100
AcDbEntity
  8
実形
100
AcDbLine
 10
1628.581094775942
 20
1465.573468968295
 30
0.0
 11
1589.974060978206
 21
1465.573468968295
 31
0.0
  0
ARC
  5
1A5A
330
1F
100
AcDbEntity
  8
実形
370
    15
100
AcDbCircle
 10
1553.547633489041
 20
1475.573468968295
 30
0.0
 40
12.5
100
AcDbArc
 50
282.555857798594
 51
347.4441422014061
  0
LINE
  5
1A5B
330
1F
100
AcDbEntity
  8
実形
370
    15
100
AcDbLine
 10
1542.322661328719
 20
1477.073468968295
 30
0.0
 11
1551.047633489041
 21
1477.073468968295
 31
0.0
  0
LINE
  5
1A5C
330
1F
100
AcDbEntity
  8
実形
370
    15
100
AcDbLine
 10
1542.322661328719
 20
1474.073468968295
 30
0.0
 11
1551.047633489041
 21
1474.073468968294
 31
0.0
  0
LINE
  5
1A5D
330
1F
100
AcDbEntity
  8
実形
370
    15
100
AcDbLine
 10
1555.047633489041
 20
1486.798441128616
 30
0.0
 11
1555.047633489041
 21
1478.073468968294
 31
0.0
  0
LINE
  5
1A5E
330
1F
100
AcDbEntity
  8
実形
370
    15
100
AcDbLine
 10
1552.047633489041
 20
1486.798441128616
 30
0.0
 11
1552.047633489041
 21
1478.073468968295
 31
0.0
  0
LINE
  5
1A5F
330
1F
100
AcDbEntity
  8
実形
370
    15
100
AcDbLine
 10
1552.047633489041
 20
1473.073468968294
 30
0.0
 11
1552.047633489041
 21
1464.348496807973
 31
0.0
  0
LINE
  5
1A60
330
1F
100
AcDbEntity
  8
実形
370
    15
100
AcDbLine
 10
1556.047633489041
 20
1477.073468968294
 30
0.0
 11
1564.772605649363
 21
1477.073468968295
 31
0.0
  0
LINE
  5
1A61
330
1F
100
AcDbEntity
  8
実形
370
    15
100
AcDbLine
 10
1555.047633489041
 20
1473.073468968295
 30
0.0
 11
1555.047633489041
 21
1464.348496807973
 31
0.0
  0
LINE
  5
1A62
330
1F
100
AcDbEntity
  8
実形
370
    15
100
AcDbLine
 10
1556.047633489041
 20
1474.073468968295
 30
0.0
 11
1564.772605649363
 21
1474.073468968295
 31
0.0
  0
ARC
  5
1A63
330
1F
100
AcDbEntity
  8
実形
370
    15
100
AcDbCircle
 10
1553.547633489041
 20
1475.573468968295
 30
0.0
 40
12.5
100
AcDbArc
 50
192.5558577985939
 51
257.4441422014061
  0
ARC
  5
1A64
330
1F
100
AcDbEntity
  8
実形
370
    15
100
AcDbCircle
 10
1553.547633489041
 20
1475.573468968295
 30
0.0
 40
12.5
100
AcDbArc
 50
102.5558577985939
 51
167.444142201406
  0
ARC
  5
1A65
330
1F
100
AcDbEntity
  8
実形
370
    15
100
AcDbCircle
 10
1553.547633489041
 20
1475.573468968295
 30
0.0
 40
12.5
100
AcDbArc
 50
12.55585779859394
 51
77.44414220140606
  0
ARC
  5
1A66
330
1F
100
AcDbEntity
  8
実形
370
    15
100
AcDbCircle
 10
1556.047633489041
 20
1486.798441128616
 30
0.0
 40
1.0
100
AcDbArc
 50
77.44414220140606
 51
180.0
  0
ARC
  5
1A67
330
1F
100
AcDbEntity
  8
実形
370
    15
100
AcDbCircle
 10
1564.772605649363
 20
1478.073468968294
 30
0.0
 40
1.0
100
AcDbArc
 50
270.0
 51
12.55585779859394
  0
ARC
  5
1A68
330
1F
100
AcDbEntity
  8
実形
370
    15
100
AcDbCircle
 10
1564.772605649363
 20
1473.073468968294
 30
0.0
 40
1.0
100
AcDbArc
 50
347.4441422014061
 51
90.0
  0
ARC
  5
1A69
330
1F
100
AcDbEntity
  8
実形
370
    15
100
AcDbCircle
 10
1556.047633489041
 20
1464.348496807973
 30
0.0
 40
1.0
100
AcDbArc
 50
180.0
 51
282.555857798594
  0
ARC
  5
1A6A
330
1F
100
AcDbEntity
  8
実形
370
    15
100
AcDbCircle
 10
1551.047633489041
 20
1464.348496807973
 30
0.0
 40
1.0
100
AcDbArc
 50
257.4441422014061
 51
0.0
  0
ARC
  5
1A6B
330
1F
100
AcDbEntity
  8
実形
370
    15
100
AcDbCircle
 10
1542.322661328719
 20
1473.073468968295
 30
0.0
 40
1.0
100
AcDbArc
 50
90.0
 51
192.5558577985685
  0
ARC
  5
1A6C
330
1F
100
AcDbEntity
  8
実形
370
    15
100
AcDbCircle
 10
1542.322661328719
 20
1478.073468968295
 30
0.0
 40
1.0
100
AcDbArc
 50
167.4441422014315
 51
270.0
  0
ARC
  5
1A6D
330
1F
100
AcDbEntity
  8
実形
370
    15
100
AcDbCircle
 10
1551.047633489041
 20
1486.798441128616
 30
0.0
 40
1.0
100
AcDbArc
 50
0.0
 51
102.5558577985939
  0
ARC
  5
1A6E
330
1F
100
AcDbEntity
  8
実形
370
    15
100
AcDbCircle
 10
1551.047633489041
 20
1473.073468968294
 30
0.0
 40
1.0
100
AcDbArc
 50
0.0
 51
90.0
  0
ARC
  5
1A6F
330
1F
100
AcDbEntity
  8
実形
370
    15
100
AcDbCircle
 10
1556.047633489041
 20
1473.073468968295
 30
0.0
 40
1.0
100
AcDbArc
 50
90.0
 51
180.0
  0
ARC
  5
1A70
330
1F
100
AcDbEntity
  8
実形
370
    15
100
AcDbCircle
 10
1556.047633489041
 20
1478.073468968294
 30
0.0
 40
1.0
100
AcDbArc
 50
180.0
 51
270.0
  0
ARC
  5
1A71
330
1F
100
AcDbEntity
  8
実形
370
    15
100
AcDbCircle
 10
1551.047633489041
 20
1478.073468968295
 30
0.0
 40
1.0
100
AcDbArc
 50
270.0
 51
0.0
  0
TEXT
  5
1A8F
330
1F
100
AcDbEntity
  8
実形
100
AcDbText
 10
1699.670697966126
 20
1621.071033218319
 30
0.0
 40
25.0
  1
40
 41
0.9
 72
     2
 11
1733.420697966127
 21
1633.571033218319
 31
0.0
100
AcDbText
 73
     2
  0
LINE
  5
1A90
330
1F
100
AcDbEntity
  8
実形
100
AcDbLine
 10
1698.547633489041
 20
1609.99398065161
 30
0.0
 11
1738.547633489042
 21
1609.904669305073
 31
0.0
  0
LINE
  5
1B03
330
1F
100
AcDbEntity
  8
実形
100
AcDbLine
 10
2041.026047382164
 20
1505.573470077409
 30
0.0
 11
2073.026047382164
 21
1505.573470077408
 31
0.0
  0
LINE
  5
1B04
330
1F
100
AcDbEntity
  8
実形
100
AcDbLine
 10
2073.026047382164
 20
1445.573470077409
 30
0.0
 11
2038.026047382164
 21
1445.573470077409
 31
0.0
  0
LINE
  5
1B05
330
1F
100
AcDbEntity
  8
実形
100
AcDbLine
 10
2023.026047382165
 20
1516.573470077409
 30
0.0
 11
2023.026047382165
 21
1535.573470077409
 31
0.0
  0
LINE
  5
1B06
330
1F
100
AcDbEntity
  8
実形
100
AcDbLine
 10
2023.026047382165
 20
1535.573470077409
 30
0.0
 11
2023.026047382164
 21
1430.573470077408
 31
0.0
  0
ARC
  5
1B07
330
1F
100
AcDbEntity
  8
実形
100
AcDbCircle
 10
2041.026047382164
 20
1508.573470077409
 30
0.0
 40
3.0
100
AcDbArc
 50
180.0
 51
270.0
  0
LINE
  5
1B08
330
1F
100
AcDbEntity
  8
0
100
AcDbLine
 10
2028.026047382164
 20
1550.573470077409
 30
0.0
 11
2028.026047382164
 21
1430.573470077408
 31
0.0
  0
LINE
  5
1B09
330
1F
100
AcDbEntity
  8
0
100
AcDbLine
 10
2038.026047382164
 20
1443.573470077409
 30
0.0
 11
2038.026047382165
 21
1430.573470077409
 31
0.0
  0
LINE
  5
1B0A
330
1F
100
AcDbEntity
  8
0
100
AcDbLine
 10
2023.026047382165
 20
1545.573470077409
 30
0.0
 11
2023.026047382165
 21
1430.573470077409
 31
0.0
  0
LINE
  5
1B0B
330
1F
100
AcDbEntity
  8
実形
100
AcDbLine
 10
2038.026047382164
 20
1535.573470077409
 30
0.0
 11
2038.026047382164
 21
1515.573470077409
 31
0.0
  0
LINE
  5
1B0C
330
1F
100
AcDbEntity
  8
実形
100
AcDbLine
 10
2028.026047382164
 20
1535.573470077409
 30
0.0
 11
2038.026047382164
 21
1535.573470077409
 31
0.0
  0
LINE
  5
1B0D
330
1F
100
AcDbEntity
  8
実形
100
AcDbLine
 10
2028.026047382164
 20
1538.573470077409
 30
0.0
 11
2038.026047382164
 21
1538.573470077409
 31
0.0
  0
LINE
  5
1B0E
330
1F
100
AcDbEntity
  8
実形
100
AcDbLine
 10
2023.026047382165
 20
1545.573470077409
 30
0.0
 11
2028.026047382164
 21
1550.573470077409
 31
0.0
  0
LINE
  5
1B0F
330
1F
100
AcDbEntity
  8
0
100
AcDbLine
 10
2038.026047382164
 20
1515.573470077409
 30
0.0
 11
2038.026047382164
 21
1443.573470077409
 31
0.0
  0
LINE
  5
1B10
330
1F
100
AcDbEntity
  8
実形
 62
     0
100
AcDbLine
 10
2147.026047382164
 20
1492.173470077409
 30
0.0
 11
2135.026047382165
 21
1492.173470077409
 31
0.0
  0
LINE
  5
1B11
330
1F
100
AcDbEntity
  8
実形
 62
     0
100
AcDbLine
 10
2149.026047382164
 20
1490.723470077409
 30
0.0
 11
2129.026047382165
 21
1490.723470077409
 31
0.0
  0
LINE
  5
1B12
330
1F
100
AcDbEntity
  8
実形
 62
     0
100
AcDbLine
 10
2073.026047382164
 20
1505.573470077408
 30
0.0
 11
2123.026047382165
 21
1505.573470077408
 31
0.0
  0
ARC
  5
1B13
330
1F
100
AcDbEntity
  8
実形
 62
     0
100
AcDbCircle
 10
2129.026047382165
 20
1501.873470077408
 30
0.0
 40
3.0
100
AcDbArc
 50
180.0
 51
240.0000000000027
  0
ARC
  5
1B14
330
1F
100
AcDbEntity
  8
実形
 62
     0
100
AcDbCircle
 10
2126.026047382165
 20
1496.677317654702
 30
0.0
 40
3.0
100
AcDbArc
 50
0.0
 51
60.00000000000272
  0
LINE
  5
1B15
330
1F
100
AcDbEntity
  8
実形
 62
     0
100
AcDbLine
 10
2126.026047382165
 20
1502.573470077409
 30
0.0
 11
2126.026047382165
 21
1501.069622500114
 31
0.0
  0
LINE
  5
1B16
330
1F
100
AcDbEntity
  8
実形
 62
     0
100
AcDbLine
 10
2129.026047382165
 20
1496.677317654702
 30
0.0
 11
2129.026047382165
 21
1454.469622500117
 31
0.0
  0
LINE
  5
1B17
330
1F
100
AcDbEntity
  8
実形
 62
     0
100
AcDbLine
 10
2149.026047382164
 20
1490.723470077409
 30
0.0
 11
2149.026047382164
 21
1475.573470077409
 31
0.0
  0
LINE
  5
1B18
330
1F
100
AcDbEntity
  8
実形
 62
     0
100
AcDbLine
 10
2134.026047382164
 20
1490.723470077409
 30
0.0
 11
2134.026047382164
 21
1475.57347007741
 31
0.0
  0
LINE
  5
1B19
330
1F
100
AcDbEntity
  8
実形
 62
     0
100
AcDbLine
 10
2116.526047382165
 20
1445.573470077409
 30
0.0
 11
2073.026047382164
 21
1445.573470077409
 31
0.0
  0
ARC
  5
1B1A
330
1F
100
AcDbEntity
  8
実形
 62
     0
100
AcDbCircle
 10
2123.026047382165
 20
1502.573470077408
 30
0.0
 40
3.0
100
AcDbArc
 50
0.0
 51
90.0
  0
DIMENSION
  5
1B1B
330
1F
100
AcDbEntity
  8
実形
 62
     0
100
AcDbDimension
  2
*D35
 10
2129.026047382165
 20
1591.482617082194
 30
0.0
 11
2076.026047382165
 21
1610.232617082194
 31
0.0
 70
    32
 71
     5
 42
106.0000000000002
  3
ISO-25
100
AcDbAlignedDimension
 13
2023.026047382165
 23
1492.173470077409
 33
0.0
 14
2129.026047382165
 24
1492.173470077409
 34
0.0
100
AcDbRotatedDimension
1001
ACAD
1000
DSTYLE
1002
{
1070
   341
1005
1A9C
1002
}
  0
LINE
  5
1B1C
330
1F
100
AcDbEntity
  8
実形
 62
     0
100
AcDbLine
 10
2073.026047382164
 20
1445.573470077409
 30
0.0
 11
2123.026047382165
 21
1445.573470077409
 31
0.0
  0
LINE
  5
1B1D
330
1F
100
AcDbEntity
  8
実形
 62
     0
100
AcDbLine
 10
2129.026047382165
 20
1454.469622500116
 30
0.0
 11
2129.026047382165
 21
1496.677317654702
 31
0.0
  0
LINE
  5
1B1E
330
1F
100
AcDbEntity
  8
実形
 62
     0
100
AcDbLine
 10
2126.026047382165
 20
1448.573470077409
 30
0.0
 11
2126.026047382165
 21
1449.273470077409
 31
0.0
  0
DIMENSION
  5
1B1F
330
1F
100
AcDbEntity
  8
実形
 62
     0
100
AcDbDimension
  2
*D36
 10
2190.812386981116
 20
1458.973470077409
 30
0.0
 11
2219.460820672189
 21
1475.573470077409
 31
0.0
 70
   160
  1
33
 71
     5
 42
33.19999999999982
  3
ISO-25
100
AcDbAlignedDimension
 13
2149.026047382164
 23
1492.173470077409
 33
0.0
 14
2149.026047382164
 24
1458.973470077409
 34
0.0
 50
90.0
100
AcDbRotatedDimension
1001
ACAD
1000
DSTYLE
1002
{
1070
    76
1070
     1
1070
    75
1070
     1
1070
   279
1070
     2
1070
   341
1005
1A9C
1002
}
  0
LINE
  5
1B20
330
1F
100
AcDbEntity
  8
実形
100
AcDbLine
 10
2190.812386981116
 20
1458.973470077409
 30
0.0
 11
2161.865318842661
 21
1458.973470077409
 31
0.0
  0
LINE
  5
1B21
330
1F
100
AcDbEntity
  8
実形
100
AcDbLine
 10
2190.812386981116
 20
1489.985970077409
 30
0.0
 11
2190.812386981116
 21
1492.173470077409
 31
0.0
  0
LINE
  5
1B22
330
1F
100
AcDbEntity
  8
実形
100
AcDbLine
 10
2190.812386981116
 20
1492.173470077409
 30
0.0
 11
2162.038185376138
 21
1492.173470077409
 31
0.0
  0
DIMENSION
  5
1B23
330
1F
100
AcDbEntity
  8
実形
 62
     0
100
AcDbDimension
  2
*D34
 10
2149.026047382164
 20
1591.482617082194
 30
0.0
 11
2175.985089686978
 21
1595.144326610233
 31
0.0
 70
   160
 71
     5
 42
20.0
  3
ISO-25
100
AcDbAlignedDimension
 13
2129.026047382165
 23
1492.173470077409
 33
0.0
 14
2149.026047382164
 24
1492.173470077409
 34
0.0
100
AcDbRotatedDimension
1001
ACAD
1000
DSTYLE
1002
{
1070
   279
1070
     2
1070
   341
1005
1A9C
1002
}
  0
ARC
  5
1B24
330
1F
100
AcDbEntity
  8
実形
 62
     0
100
AcDbCircle
 10
2129.026047382165
 20
1449.273470077409
 30
0.0
 40
3.0
100
AcDbArc
 50
119.9999999999973
 51
180.0
  0
ARC
  5
1B25
330
1F
100
AcDbEntity
  8
実形
 62
     0
100
AcDbCircle
 10
2126.026047382165
 20
1454.469622500117
 30
0.0
 40
3.0
100
AcDbArc
 50
299.9999999999973
 51
0.0
  0
ARC
  5
1B26
330
1F
100
AcDbEntity
  8
実形
 62
     0
100
AcDbCircle
 10
2123.026047382165
 20
1448.57347007741
 30
0.0
 40
3.0
100
AcDbArc
 50
270.0
 51
0.0
  0
LINE
  5
1B27
330
1F
100
AcDbEntity
  8
実形
 62
     0
100
AcDbLine
 10
2129.026047382165
 20
1496.677317654702
 30
0.0
 11
2129.026047382165
 21
1454.469622500117
 31
0.0
  0
LINE
  5
1B28
330
1F
100
AcDbEntity
  8
実形
100
AcDbLine
 10
2148.026047382165
 20
1490.723470077409
 30
0.0
 11
2147.026047382165
 21
1492.173470077409
 31
0.0
  0
LINE
  5
1B29
330
1F
100
AcDbEntity
  8
実形
100
AcDbLine
 10
2135.026047382165
 20
1492.173470077409
 30
0.0
 11
2134.026047382164
 21
1490.723470077409
 31
0.0
  0
LINE
  5
1B2A
330
1F
100
AcDbEntity
  8
実形
 62
     0
100
AcDbLine
 10
2147.026047382164
 20
1458.973470077409
 30
0.0
 11
2135.026047382165
 21
1458.973470077409
 31
0.0
  0
LINE
  5
1B2B
330
1F
100
AcDbEntity
  8
実形
 62
     0
100
AcDbLine
 10
2149.026047382164
 20
1460.423470077409
 30
0.0
 11
2129.026047382165
 21
1460.423470077409
 31
0.0
  0
LINE
  5
1B2C
330
1F
100
AcDbEntity
  8
実形
 62
     0
100
AcDbLine
 10
2149.026047382164
 20
1460.423470077409
 30
0.0
 11
2149.026047382164
 21
1475.573470077409
 31
0.0
  0
LINE
  5
1B2D
330
1F
100
AcDbEntity
  8
実形
 62
     0
100
AcDbLine
 10
2134.026047382164
 20
1460.423470077409
 30
0.0
 11
2134.026047382164
 21
1475.573470077409
 31
0.0
  0
LINE
  5
1B2E
330
1F
100
AcDbEntity
  8
実形
100
AcDbLine
 10
2148.026047382165
 20
1460.423470077409
 30
0.0
 11
2147.026047382165
 21
1458.973470077409
 31
0.0
  0
LINE
  5
1B2F
330
1F
100
AcDbEntity
  8
実形
100
AcDbLine
 10
2135.026047382165
 20
1458.973470077409
 30
0.0
 11
2134.026047382164
 21
1460.423470077409
 31
0.0
  0
LINE
  5
1B31
330
1F
100
AcDbEntity
  8
実形
100
AcDbLine
 10
2196.70178967995
 20
1406.073470077409
 30
0.0
 11
2137.578723312282
 21
1406.073470077409
 31
0.0
  0
LINE
  5
1B32
330
1F
100
AcDbEntity
  8
実形
100
AcDbLine
 10
2196.70178967995
 20
1175.073470077409
 30
0.0
 11
2137.578723312283
 21
1175.073470077409
 31
0.0
  0
LINE
  5
1B33
330
1F
100
AcDbEntity
  8
実形
100
AcDbLine
 10
2137.578723312283
 20
1200.073470077409
 30
0.0
 11
2137.578723312283
 21
1174.132634969808
 31
0.0
  0
HATCH
  5
1B34
330
1F
100
AcDbEntity
  8
実形
 62
     0
100
AcDbHatch
 10
0.0
 20
0.0
 30
0.0
210
0.0
220
0.0
230
1.0
  2
SOLID
 70
     1
 71
     0
 91
        1
 92
        7
 72
     1
 73
     1
 93
        2
 10
2137.866989612116
 20
1170.92953573285
 42
-1.0
 10
2137.863033739565
 20
1180.030943488132
 42
-1.0
 97
        0
 75
     0
 76
     1
 47
0.1166526434546944
 98
        1
 10
2139.965370782051
 20
1174.080944146858
  0
LINE
  5
1B35
330
1F
100
AcDbEntity
  8
実形
100
AcDbLine
 10
2137.578723312283
 20
1381.073470077409
 30
0.0
 11
2137.578723312283
 21
1407.736641866798
 31
0.0
  0
HATCH
  5
1B36
330
1F
100
AcDbEntity
  8
実形
 62
     0
100
AcDbHatch
 10
0.0
 20
0.0
 30
0.0
210
0.0
220
0.0
230
1.0
  2
SOLID
 70
     1
 71
     0
 91
        1
 92
        7
 72
     1
 73
     1
 93
        2
 10
2137.658723320384
 20
1401.845469898262
 42
-1.0
 10
2137.654767447834
 20
1410.946877653545
 42
-1.0
 97
        0
 75
     0
 76
     1
 47
0.1166526434546944
 98
        1
 10
2139.757104490319
 20
1404.99687831227
  0
MTEXT
  5
1B37
330
1F
100
AcDbEntity
  8
実形
100
AcDbMText
 10
2102.024539653505
 20
1167.673621955837
 30
0.0
 40
23.0
 41
0.0
 71
     1
 72
     5
  1
25
 11
0.0000000000000001
 21
1.0
 31
0.0
 73
     1
 44
1.0
1001
ACAD
1000
MTEXTBEGIN
1070
    73
1070
     1
1070
    44
1040
1.0
1070
    74
1070
     0
1000
MTEXTEND
  0
MTEXT
  5
1B38
330
1F
100
AcDbEntity
  8
実形
100
AcDbMText
 10
2103.085439248198
 20
1373.607724620984
 30
0.0
 40
23.0
 41
0.0
 71
     1
 72
     5
  1
25
 11
0.0000000000000001
 21
1.0
 31
0.0
 73
     1
 44
1.0
1001
ACAD
1000
MTEXTBEGIN
1070
    73
1070
     1
1070
    44
1040
1.0
1070
    74
1070
     0
1000
MTEXTEND
  0
CIRCLE
  5
1C8A
330
1F
100
AcDbEntity
  8
実形
100
AcDbCircle
 10
1588.547625252739
 20
1290.573468968295
 30
0.0
 40
115.5
  0
LWPOLYLINE
  5
1C9F
330
1F
100
AcDbEntity
  8
実形
100
AcDbPolyline
 90
        2
 70
     0
 43
0.0
 10
1698.547633489041
 20
1476.662781423945
 10
1698.547633489041
 20
1474.662781423945
  0
LWPOLYLINE
  5
1CA0
330
1F
100
AcDbEntity
  8
実形
100
AcDbPolyline
 90
        4
 70
     0
 43
0.0
 10
1677.94763348904
 20
1465.662781423945
 10
1676.61911400809
 20
1465.573468968295
 10
1676.61911400809
 20
1465.573468968295
 10
1676.61911400809
 20
1465.573468968295
  0
LEADER
  5
1CBB
330
1F
100
AcDbEntity
  8
実形
100
AcDbLeader
  3
ISO-25
 40
74.99999999999999
 41
41.66666666666666
 76
     2
 10
1701.352237466872
 20
1475.912545086448
 30
0.0
 10
1788.316558797792
 20
1519.320387696641
 30
0.0
213
0.0
223
12.5
233
0.0
1001
ACAD
1000
DSTYLE
1002
{
1070
   147
1040
6.25
1070
    77
1070
     0
1070
    41
1040
20.0
1070
   342
1005
DA
1002
}
  0
TEXT
  5
1CBC
330
1F
100
AcDbEntity
  8
実形
100
AcDbText
 10
1793.740756518137
 20
1508.434460461961
 30
0.0
 40
25.0
  1
30R
 41
0.9
 72
     2
 11
1849.990756518137
 21
1520.934460461961
 31
0.0
100
AcDbText
 73
     2
  0
LINE
  5
1D33
330
1F
100
AcDbEntity
  8
補助
 62
     0
100
AcDbLine
 10
2784.0
 20
1959.000000000001
 30
0.0
 11
2019.387286519283
 21
1959.000000000002
 31
0.0
  0
LINE
  5
1D34
330
1F
100
AcDbEntity
  8
補助
 62
     0
100
AcDbLine
 10
2784.0
 20
1894.000000000001
 30
0.0
 11
2019.387286519283
 21
1894.000000000001
 31
0.0
  0
LINE
  5
1D35
330
1F
100
AcDbEntity
  8
補助
 62
     0
100
AcDbLine
 10
2784.0
 20
1829.000000000001
 30
0.0
 11
2019.387286519283
 21
1829.000000000001
 31
0.0
  0
LINE
  5
1D36
330
1F
100
AcDbEntity
  8
補助
 62
     0
100
AcDbLine
 10
2784.0
 20
1764.000000000001
 30
0.0
 11
2019.387286519283
 21
1764.000000000001
 31
0.0
  0
LINE
  5
1D37
330
1F
100
AcDbEntity
  8
補助
 62
     0
100
AcDbLine
 10
2202.547653420927
 20
1764.000000000001
 30
0.0
 11
2202.547653420927
 21
2024.000000000002
 31
0.0
  0
LINE
  5
1D38
330
1F
100
AcDbEntity
  8
補助
 62
     0
100
AcDbLine
 10
2019.387286519283
 20
1764.000000000001
 30
0.0
 11
2019.387286519283
 21
2024.000000000002
 31
0.0
  0
TEXT
  5
1D39
330
1F
100
AcDbEntity
  8
補助
 62
     0
100
AcDbText
 10
2050.295698850121
 20
1976.328571428573
 30
0.0
 40
30.0
  1
部品名
  7
明朝
 72
     4
 11
2116.124270278692
 21
1991.500000000002
 31
0.0
100
AcDbText
  0
TEXT
  5
1D3A
330
1F
100
AcDbEntity
  8
補助
 62
     0
100
AcDbText
 10
2627.614285714286
 20
1976.07142857143
 30
0.0
 40
30.0
  1
厚さ
  7
明朝
 72
     4
 11
2671.5
 21
1991.500000000002
 31
0.0
100
AcDbText
  0
LINE
  5
1D3B
330
1F
100
AcDbEntity
  8
補助
 62
     0
100
AcDbLine
 10
2559.000000000001
 20
1764.000000000001
 30
0.0
 11
2559.0
 21
2024.000000000002
 31
0.0
  0
TEXT
  5
1D3C
330
1F
100
AcDbEntity
  8
補助
 62
     0
100
AcDbText
 10
2338.490869919937
 20
1975.947979478156
 30
0.0
 40
30.0
  1
材質
  7
明朝
 72
     4
 11
2382.376584205651
 21
1991.119408049584
 31
0.0
100
AcDbText
  0
TEXT
  5
1D3D
330
1F
100
AcDbEntity
  8
実形
 62
     0
100
AcDbText
 10
2048.227810657788
 20
1910.557142857144
 30
0.0
 40
30.0
  1
ボウル
  7
明朝
 72
     4
 11
2114.056382086359
 21
1926.500000000001
 31
0.0
100
AcDbText
  0
TEXT
  5
1D3E
330
1F
100
AcDbEntity
  8
実形
 62
     0
100
AcDbText
 10
2594.700000000001
 20
1911.842857142858
 30
0.0
 40
30.0
  1
0.8ｍｍ
  7
明朝
 72
     4
 11
2671.500000000001
 21
1926.500000000001
 31
0.0
100
AcDbText
  0
TEXT
  5
1D3F
330
1F
100
AcDbEntity
  8
実形
 62
     0
100
AcDbText
 10
2228.986381076254
 20
1910.728571428572
 30
0.0
 40
30.0
  1
SUS304（No.4）
  7
明朝
 72
     4
 11
2382.586381076253
 21
1926.500000000001
 31
0.0
100
AcDbText
  0
TEXT
  5
1D40
330
1F
100
AcDbEntity
  8
実形
 62
     0
100
AcDbText
 10
2070.170667800645
 20
1846.242857142858
 30
0.0
 40
30.0
  1
天板
  7
明朝
 72
     4
 11
2114.056382086359
 21
1861.500000000001
 31
0.0
100
AcDbText
  0
TEXT
  5
1D41
330
1F
100
AcDbEntity
  8
実形
 62
     0
100
AcDbText
 10
2594.700000000001
 20
1846.842857142858
 30
0.0
 40
30.0
  1
0.8ｍｍ
  7
明朝
 72
     4
 11
2671.500000000001
 21
1861.500000000001
 31
0.0
100
AcDbText
  0
TEXT
  5
1D42
330
1F
100
AcDbEntity
  8
実形
 62
     0
100
AcDbText
 10
2218.959726250723
 20
1848.357142857144
 30
0.0
 40
25.0
  1
SUS304（市松ｴﾝﾎﾞｽ）
  7
明朝
 72
     4
 11
2392.674011965008
 21
1861.500000000001
 31
0.0
100
AcDbText
  0
TEXT
  5
1D43
330
1F
100
AcDbEntity
  8
実形
 62
     0
100
AcDbText
 10
2026.284953514931
 20
1780.557142857144
 30
0.0
 40
30.0
  1
ポケット
  7
明朝
 72
     4
 11
2114.056382086359
 21
1796.500000000001
 31
0.0
100
AcDbText
  0
TEXT
  5
1D44
330
1F
100
AcDbEntity
  8
実形
 62
     0
100
AcDbText
 10
2294.814952504824
 20
1781.242857142858
 30
0.0
 40
30.0
  1
樹脂(PP)
  7
明朝
 72
     4
 11
2382.586381076253
 21
1796.500000000001
 31
0.0
100
AcDbText
  0
TEXT
  5
1D45
330
1F
100
AcDbEntity
  8
実形
 62
     0
100
AcDbText
 10
2616.642857142859
 20
1781.842857142858
 30
0.0
 40
30.0
  1
3ｍｍ
  7
明朝
 72
     4
 11
2671.500000000001
 21
1796.500000000001
 31
0.0
100
AcDbText
  0
LINE
  5
1D46
330
1F
100
AcDbEntity
  8
補助
100
AcDbLine
 10
109.0
 20
4.0
 30
0.0
 11
109.0
 21
2024.0
 31
0.0
  0
VIEWPORT
  5
2E
102
{ACAD_XDICTIONARY
360
1D6C
102
}
330
1B
100
AcDbEntity
 67
     1
  8
0
100
AcDbViewport
 10
144.7270812988281
 20
101.2295806407928
 30
0.0
 40
411.6736216682419
 41
222.1517806396485
 68
     1
 69
     1
 12
144.7270812988281
 22
101.2295806407928
 13
0.0
 23
0.0
 14
10.0
 24
10.0
 15
10.0
 25
10.0
 16
0.0
 26
0.0
 36
1.0
 17
0.0
 27
0.0
 37
0.0
 42
50.0
 43
0.0
 44
0.0
 45
222.1517806396485
 50
0.0
 51
0.0
 72
   100
 90
    32800
  1

281
     0
 71
     1
 74
     0
110
0.0
120
0.0
130
0.0
111
1.0
121
0.0
131
0.0
112
0.0
122
1.0
132
0.0
 79
     0
146
0.0
  0
VIEWPORT
  5
30
102
{ACAD_XDICTIONARY
360
1D6E
102
}
330
1B
100
AcDbEntity
 67
     1
  8
0
100
AcDbViewport
 10
139.2237563133239
 20
101.2295821905136
 30
0.0
 40
222.7580101013184
 41
161.9673315048218
 68
     2
 69
     2
 12
210.0
 22
148.5
 13
0.0
 23
0.0
 14
10.0
 24
10.0
 15
10.0
 25
10.0
 16
0.0
 26
0.0
 36
1.0
 17
0.0
 27
0.0
 37
0.0
 42
50.0
 43
0.0
 44
0.0
 45
309.0686705647124
 50
0.0
 51
0.0
 72
   100
 90
    32864
  1

281
     0
 71
     1
 74
     0
110
0.0
120
0.0
130
0.0
111
1.0
121
0.0
131
0.0
112
0.0
122
1.0
132
0.0
 79
     0
146
0.0
  0
ENDSEC
  0
SECTION
  2
OBJECTS
  0
DICTIONARY
  5
C
330
0
100
AcDbDictionary
281
     1
  3
ACAD_COLOR
350
19A5
  3
ACAD_GROUP
350
D
  3
ACAD_LAYOUT
350
1A
  3
ACAD_MATERIAL
350
19A4
  3
ACAD_MLINESTYLE
350
17
  3
ACAD_PLOTSETTINGS
350
19
  3
ACAD_PLOTSTYLENAME
350
E
  3
ACAD_TABLESTYLE
350
19A6
  3
AcadDim
350
CBC
  3
ACDBHEADERROUNDTRIPXREC
350
1D65
  3
AcDbVariableDictionary
350
EFD
  0
DICTIONARY
  5
19BC
330
2
100
AcDbDictionary
280
     1
281
     1
  3
ACAD_LAYERFILTERS
360
1D17
  3
ACAD_LAYERSTATES
360
19BD
  3
ACLYDICTIONARY
360
1D16
  0
DICTIONARY
  5
19B9
330
1F
100
AcDbDictionary
280
     1
281
     1
  3
ACAD_SORTENTS
360
19BA
  0
DICTIONARY
  5
1D6C
330
2E
100
AcDbDictionary
280
     1
281
     1
  3
ACAD_XREC_ROUNDTRIP
360
1D6D
  0
DICTIONARY
  5
1D6E
330
30
100
AcDbDictionary
280
     1
281
     1
  3
ACAD_XREC_ROUNDTRIP
360
1D6F
  0
DICTIONARY
  5
19A5
102
{ACAD_REACTORS
330
C
102
}
330
C
100
AcDbDictionary
281
     1
  0
DICTIONARY
  5
D
102
{ACAD_REACTORS
330
C
102
}
330
C
100
AcDbDictionary
281
     1
  0
DICTIONARY
  5
1A
102
{ACAD_REACTORS
330
C
102
}
330
C
100
AcDbDictionary
281
     1
  3
Model
350
22
  3
ﾚｲｱｳﾄ1
350
1E
  3
ﾚｲｱｳﾄ2
350
26
  0
DICTIONARY
  5
19A4
102
{ACAD_REACTORS
330
C
102
}
330
C
100
AcDbDictionary
281
     1
  0
DICTIONARY
  5
17
102
{ACAD_REACTORS
330
C
102
}
330
C
100
AcDbDictionary
281
     1
  3
Standard
350
18
  0
DICTIONARY
  5
19
102
{ACAD_REACTORS
330
C
102
}
330
C
100
AcDbDictionary
281
     1
  0
ACDBDICTIONARYWDFLT
  5
E
102
{ACAD_REACTORS
330
C
102
}
330
C
100
AcDbDictionary
281
     1
  3
Normal
350
F
100
AcDbDictionaryWithDefault
340
F
  0
DICTIONARY
  5
19A6
102
{ACAD_REACTORS
330
C
102
}
330
C
100
AcDbDictionary
281
     1
  3
Standard
350
19A7
  0
XRECORD
  5
CBC
102
{ACAD_REACTORS
330
C
102
}
330
C
100
AcDbXrecord
280
     1
 90
   990106
  3

 60
     0
 61
     0
 62
     1
 63
     3
 64
     0
 65
     0
 66
     0
 67
     3
 68
     1
 69
     0
 70
     0
 71
     0
 72
     0
 40
30.0
170
     0
  0
DICTIONARY
  5
1D65
102
{ACAD_REACTORS
330
C
102
}
330
C
100
AcDbDictionary
281
     1
  0
DICTIONARY
  5
EFD
102
{ACAD_REACTORS
330
C
102
}
330
C
100
AcDbDictionary
281
     1
  3
CTABLESTYLE
350
19AD
  3
DIMASSOC
350
1D62
  3
PROJECTNAME
350
1D63
  3
SORTENTS
350
EFE
  0
DICTIONARY
  5
1D17
102
{ACAD_REACTORS
330
19BC
102
}
330
19BC
100
AcDbDictionary
281
     1
  0
DICTIONARY
  5
19BD
102
{ACAD_REACTORS
330
19BC
102
}
330
19BC
100
AcDbDictionary
281
     1
  0
DICTIONARY
  5
1D16
102
{ACAD_REACTORS
330
19BC
102
}
330
19BC
100
AcDbDictionary
281
     1
1001
ACAD
1000
<All
  0
SORTENTSTABLE
  5
19BA
102
{ACAD_REACTORS
330
19B9
102
}
330
19B9
100
AcDbSortentsTable
330
1F
331
50A
  5
52F
331
1B38
  5
1C8A
331
35D
  5
361
331
4C3
  5
4FD
331
571
  5
77B
331
7A0
  5
7CA
331
10DA
  5
10DD
331
1759
  5
175C
331
1A46
  5
1A48
331
1761
  5
1764
331
1A4E
  5
1A50
331
1769
  5
176C
331
1A56
  5
1A58
331
1312
  5
1315
331
1A5E
  5
1A60
331
1B09
  5
1B0A
331
522
  5
549
331
1D3A
  5
1D3B
331
1B11
  5
1B12
331
47C
  5
4C3
331
1D42
  5
1D43
331
1B19
  5
1B1A
331
1CBB
  5
1CBC
331
346
  5
348
331
F84
  5
F87
331
10B3
  5
10D7
331
131A
  5
131D
331
1771
  5
1774
331
18E0
  5
1984
331
1A66
  5
1A68
331
1779
  5
177C
331
1322
  5
1325
331
1A2F
  5
1A31
331
1A6E
  5
1A70
331
1781
  5
1787
331
1A37
  5
1A39
331
1A3F
  5
1A41
331
1B21
  5
1B22
331
1B29
  5
1B2A
331
1B31
  5
1B32
331
317
  5
319
331
918
  5
CB9
331
10DB
  5
10DE
331
175A
  5
175D
331
1A47
  5
1A49
331
F65
  5
F69
331
1762
  5
1765
331
1A4F
  5
1A51
331
176A
  5
176D
331
1A57
  5
1A5A
331
1313
  5
1316
331
1A5F
  5
1A61
331
A0
  5
A0
331
1D33
  5
1D34
331
1B0A
  5
1B0B
331
6EA
  5
788
331
1B12
  5
1B13
331
1D3B
  5
1D3C
331
1B1A
  5
1B1B
331
1D43
  5
1D44
331
1CBC
  5
1D33
331
347
  5
34B
331
F85
  5
F88
331
CBE
  5
CC2
331
10B4
  5
10D8
331
131B
  5
131E
331
1772
  5
1775
331
18E1
  5
1985
331
1A67
  5
1A69
331
177A
  5
177D
331
1323
  5
1326
331
1A30
  5
1A32
331
1A6F
  5
1A71
331
1A38
  5
1A3A
331
134B
  5
1759
331
73
  5
73
331
1B22
  5
1B23
331
1B2A
  5
1B2B
331
1B32
  5
1B33
331
466
  5
492
331
1A40
  5
1A42
331
10DC
  5
10DF
331
175B
  5
175F
331
1A8F
  5
1A9B
331
1A48
  5
1A4A
331
F66
  5
F6A
331
1763
  5
1766
331
1A50
  5
1A52
331
F6E
  5
F80
331
176B
  5
176E
331
1A58
  5
1A5B
331
1314
  5
1317
331
18DA
  5
18DE
331
320
  5
321
331
1B03
  5
1B04
331
328
  5
329
331
1D34
  5
1D35
331
1B0B
  5
1B0C
331
7CA
  5
914
331
338
  5
339
331
1D3C
  5
1D3D
331
1B13
  5
1B14
331
77B
  5
7A0
331
4E5
  5
50A
331
1D44
  5
1D45
331
1B1B
  5
1B1C
331
427
  5
466
331
1A60
  5
1A62
331
CBF
  5
CC3
331
F86
  5
F89
331
131C
  5
131F
331
1773
  5
1776
331
1A68
  5
1A6A
331
177B
  5
1780
331
1324
  5
1327
331
1A31
  5
1A33
331
1A70
  5
1A8F
331
1A39
  5
1A3B
331
134C
  5
175A
331
348
  5
35C
331
1B23
  5
1B24
331
4FD
  5
522
331
1B2B
  5
1B2C
331
9C
  5
9C
331
1B33
  5
1B34
331
319
  5
31A
331
1A41
  5
1A43
331
F5F
  5
F65
331
10DD
  5
1310
331
175C
  5
1760
331
1A90
  5
1B03
331
1A49
  5
1A4B
331
1764
  5
1767
331
1A51
  5
1A53
331
F6F
  5
F81
331
176C
  5
176F
331
1315
  5
1318
331
F7F
  5
F82
331
18DB
  5
18DF
331
321
  5
322
331
360
  5
362
331
1B04
  5
1B05
331
329
  5
338
331
1D35
  5
1D36
331
1B0C
  5
1B0D
331
339
  5
33A
331
1D3D
  5
1D3E
331
1B14
  5
1B15
331
1D45
  5
1D46
331
1B1C
  5
1B1D
331
CB8
  5
CBE
331
1A61
  5
1A63
331
1774
  5
1777
331
F87
  5
FA3
331
131D
  5
1320
331
1A69
  5
1A6B
331
177C
  5
1781
331
1325
  5
1328
331
1A32
  5
1A36
331
1A71
  5
1A90
331
1A3A
  5
1A3D
331
10D6
  5
10D9
331
1983
  5
19BB
331
1B24
  5
1B25
331
1B2C
  5
1B2D
331
1B34
  5
1B35
331
31A
  5
31B
331
1A42
  5
1A44
331
1993
  5
19CC
331
F60
  5
F66
331
175D
  5
1761
331
1A4A
  5
1A4C
331
1765
  5
1768
331
1A52
  5
1A54
331
130E
  5
1311
331
176D
  5
1770
331
1A5A
  5
1A5C
331
1316
  5
1319
331
18DC
  5
18E0
331
1B05
  5
1B06
331
322
  5
323
331
361
  5
363
331
1D36
  5
1D37
331
1B0D
  5
1B0E
331
1D3E
  5
1D3F
331
1C9F
  5
1CA0
331
1B15
  5
1B16
331
33A
  5
347
331
1D46
  5
317
331
1B1D
  5
1B1E
331
CB9
  5
CBF
331
F80
  5
F83
331
1A62
  5
1A64
331
1775
  5
1778
331
F88
  5
10AA
331
131E
  5
1321
331
1A6A
  5
1A6C
331
193C
  5
1986
331
1326
  5
1329
331
1785
  5
1788
331
1A3B
  5
1A3E
331
10D7
  5
10DA
331
1B25
  5
1B26
331
1B2D
  5
1B2E
331
1B35
  5
1B36
331
459
  5
47C
331
914
  5
CB8
331
31B
  5
320
331
7AD
  5
7D7
331
1A43
  5
1A45
331
1994
  5
1A2D
331
1A4B
  5
1A4D
331
F69
  5
F6E
331
1766
  5
1769
331
1A53
  5
1A55
331
130F
  5
1312
331
176E
  5
1771
331
1A5B
  5
1A5D
331
1317
  5
131A
331
18DD
  5
18E1
331
1B06
  5
1B07
331
323
  5
324
331
362
  5
374
331
1D37
  5
1D38
331
1B0E
  5
1B0F
331
1D3F
  5
1D40
331
1CA0
  5
1CBB
331
1B16
  5
1B17
331
41A
  5
459
331
52F
  5
570
331
1B1E
  5
1B1F
331
F81
  5
F84
331
1A63
  5
1A65
331
1776
  5
1779
331
CC2
  5
DC3
331
F89
  5
10B2
331
131F
  5
1322
331
1A2C
  5
1A2E
331
1A6B
  5
1A6D
331
1327
  5
134B
331
1786
  5
18DA
331
1B26
  5
1B27
331
1B2E
  5
1B2F
331
353
  5
35D
331
1B36
  5
1B37
331
10D8
  5
10DB
331
1A44
  5
1A46
331
175F
  5
1762
331
F6A
  5
F7F
331
1767
  5
176A
331
1A4C
  5
1A4E
331
1310
  5
1313
331
176F
  5
1772
331
1A54
  5
1A56
331
18DE
  5
193C
331
1A5C
  5
1A5E
331
1B07
  5
1B08
331
A5
  5
A5
331
324
  5
325
331
363
  5
41A
331
1D38
  5
1D39
331
1B0F
  5
1B10
331
1D40
  5
1D41
331
1B17
  5
1B18
331
1B1F
  5
1B20
331
F82
  5
F85
331
1318
  5
131B
331
1A64
  5
1A66
331
1777
  5
177A
331
CC3
  5
F5F
331
1320
  5
1323
331
1A2D
  5
1A2F
331
1A6C
  5
1A6E
331
177F
  5
1783
331
DC3
  5
F60
331
1328
  5
134C
331
1A35
  5
1A37
331
1787
  5
18DD
331
1A3D
  5
1A3F
331
1B27
  5
1B28
331
492
  5
4E5
331
1B2F
  5
1B31
331
1B37
  5
1B38
331
35C
  5
35E
331
570
  5
5C9
331
10D9
  5
10DC
331
1758
  5
175B
331
1A45
  5
1A47
331
1760
  5
1763
331
1A4D
  5
1A4F
331
10AA
  5
10B4
331
1768
  5
176B
331
1A55
  5
1A57
331
1311
  5
1314
331
1A5D
  5
1A5F
331
18DF
  5
1983
331
1C8A
  5
1C9F
331
1B08
  5
1B09
331
325
  5
328
331
1D39
  5
1D3A
331
1B10
  5
1B11
331
40C
  5
427
331
1D41
  5
1D42
331
1B18
  5
1B19
331
7D7
  5
918
331
F83
  5
F86
331
10B2
  5
10D6
331
1319
  5
131C
331
1770
  5
1773
331
1A65
  5
1A67
331
1778
  5
177B
331
1321
  5
1324
331
1A2E
  5
1A30
331
1A6D
  5
1A6F
331
1780
  5
1786
331
1329
  5
14FC
331
1A36
  5
1A38
331
FA3
  5
10B3
331
1A3E
  5
1A40
331
1B20
  5
1B21
331
1B28
  5
1B29
331
549
  5
571
331
788
  5
7AD
  0
XRECORD
  5
1D6D
102
{ACAD_REACTORS
330
1D6C
102
}
330
1D6C
100
AcDbXrecord
280
     1
102
SHADEPLOT
 70
     0
  0
XRECORD
  5
1D6F
102
{ACAD_REACTORS
330
1D6E
102
}
330
1D6E
100
AcDbXrecord
280
     1
102
SHADEPLOT
 70
     0
  0
LAYOUT
  5
22
102
{ACAD_XDICTIONARY
360
1D68
102
}
102
{ACAD_REACTORS
330
1A
102
}
330
1A
100
AcDbPlotSettings
  1

  2
EPSON PM-800C
  4
A4
  6

 40
3.757083177566528
 41
14.7637300491333
 42
3.757080078125
 43
3.757080078125
 44
209.9733276367187
 45
296.9683227539062
 46
0.0
 47
0.0
 48
0.0
 49
0.0
140
0.0
141
0.0
142
1.0
143
10.0
 70
 11952
 72
     1
 73
     1
 74
     2
  7

 75
    20
147
0.1
148
0.0
149
0.0
100
AcDbLayout
  1
Model
 70
     1
 71
     0
 10
0.0
 20
0.0
 11
12.0
 21
9.0
 12
0.0
 22
0.0
 32
0.0
 14
0.0
 24
0.0
 34
0.0
 15
0.0
 25
0.0
 35
0.0
146
0.0
 13
0.0
 23
0.0
 33
0.0
 16
1.0
 26
0.0
 36
0.0
 17
0.0
 27
1.0
 37
0.0
 76
     0
330
1F
  0
LAYOUT
  5
1E
102
{ACAD_XDICTIONARY
360
1D66
102
}
102
{ACAD_REACTORS
330
1A
102
}
330
1A
100
AcDbPlotSettings
  1

  2
EPSON PM-800C
  4
A4
  6

 40
3.757083177566528
 41
14.7637300491333
 42
3.757080078125
 43
3.757080078125
 44
209.9733276367187
 45
296.9683227539062
 46
0.0
 47
0.0
 48
0.0
 49
0.0
140
0.0
141
0.0
142
1.0
143
1.0
 70
   688
 72
     1
 73
     1
 74
     5
  7

 75
    16
147
1.0
148
0.0
149
0.0
100
AcDbLayout
  1
ﾚｲｱｳﾄ1
 70
     1
 71
     1
 10
-3.757080078125
 20
-3.757083177566528
 11
293.2112426757813
 21
206.2162444591522
 12
0.0
 22
0.0
 32
0.0
 14
27.8447512626648
 24
20.24591643810271
 34
0.0
 15
250.6027613639831
 25
182.2132479429245
 35
0.0
146
0.0
 13
0.0
 23
0.0
 33
0.0
 16
1.0
 26
0.0
 36
0.0
 17
0.0
 27
1.0
 37
0.0
 76
     0
330
1B
331
2E
  0
LAYOUT
  5
26
102
{ACAD_XDICTIONARY
360
1D6A
102
}
102
{ACAD_REACTORS
330
1A
102
}
330
1A
100
AcDbPlotSettings
  1

  2
EPSON PM-800C
  4

  6

 40
0.0
 41
0.0
 42
0.0
 43
0.0
 44
0.0
 45
0.0
 46
0.0
 47
0.0
 48
0.0
 49
0.0
140
0.0
141
0.0
142
1.0
143
1.0
 70
   688
 72
     0
 73
     0
 74
     5
  7

 75
    16
147
1.0
148
0.0
149
0.0
100
AcDbLayout
  1
ﾚｲｱｳﾄ2
 70
     1
 71
     2
 10
0.0
 20
0.0
 11
12.0
 21
9.0
 12
0.0
 22
0.0
 32
0.0
 14
0.0
 24
0.0
 34
0.0
 15
0.0
 25
0.0
 35
0.0
146
0.0
 13
0.0
 23
0.0
 33
0.0
 16
1.0
 26
0.0
 36
0.0
 17
0.0
 27
1.0
 37
0.0
 76
     0
330
23
  0
MLINESTYLE
  5
18
102
{ACAD_REACTORS
330
17
102
}
330
17
100
AcDbMlineStyle
  2
STANDARD
 70
     0
  3

 62
   256
 51
90.0
 52
90.0
 71
     2
 49
0.5
 62
   256
  6
BYLAYER
 49
-0.5
 62
   256
  6
BYLAYER
  0
ACDBPLACEHOLDER
  5
F
102
{ACAD_REACTORS
330
E
102
}
330
E
  0
TABLESTYLE
  5
19A7
102
{ACAD_REACTORS
330
19A6
102
}
330
19A6
100
AcDbTableStyle
  3
Standard
 70
     0
 71
     0
 40
1.5
 41
1.5
280
     0
281
     0
  7
Standard
140
4.5
170
     2
 62
     0
 63
     7
283
     0
274
    -2
284
     1
 64
     0
275
    -2
285
     1
 65
     0
276
    -2
286
     1
 66
     0
277
    -2
287
     1
 67
     0
278
    -2
288
     1
 68
     0
279
    -2
289
     1
 69
     0
  7
Standard
140
6.0
170
     5
 62
     0
 63
     7
283
     0
274
    -2
284
     1
 64
     0
275
    -2
285
     1
 65
     0
276
    -2
286
     1
 66
     0
277
    -2
287
     1
 67
     0
278
    -2
288
     1
 68
     0
279
    -2
289
     1
 69
     0
  7
Standard
140
4.5
170
     5
 62
     0
 63
     7
283
     0
274
    -2
284
     1
 64
     0
275
    -2
285
     1
 65
     0
276
    -2
286
     1
 66
     0
277
    -2
287
     1
 67
     0
278
    -2
288
     1
 68
     0
279
    -2
289
     1
 69
     0
  0
DICTIONARYVAR
  5
19AD
102
{ACAD_REACTORS
330
EFD
102
}
330
EFD
100
DictionaryVariables
280
     0
  1
STANDARD
  0
DICTIONARYVAR
  5
1D62
102
{ACAD_REACTORS
330
EFD
102
}
330
EFD
100
DictionaryVariables
280
     0
  1
1
  0
DICTIONARYVAR
  5
1D63
102
{ACAD_REACTORS
330
EFD
102
}
330
EFD
100
DictionaryVariables
280
     0
  1

  0
DICTIONARYVAR
  5
EFE
102
{ACAD_REACTORS
330
EFD
102
}
330
EFD
100
DictionaryVariables
280
     0
  1
96
  0
DICTIONARY
  5
1D68
330
22
100
AcDbDictionary
280
     1
281
     1
  3
ACAD_XREC_ROUNDTRIP
360
1D69
  0
DICTIONARY
  5
1D66
330
1E
100
AcDbDictionary
280
     1
281
     1
  3
ACAD_XREC_ROUNDTRIP
360
1D67
  0
DICTIONARY
  5
1D6A
330
26
100
AcDbDictionary
280
     1
281
     1
  3
ACAD_XREC_ROUNDTRIP
360
1D6B
  0
XRECORD
  5
1D69
102
{ACAD_REACTORS
330
1D68
102
}
330
1D68
100
AcDbXrecord
280
     1
102
SHADEPLOT
 70
     0
102
SHADEPLOTRESLEVEL
 70
     2
102
SHADEPLOTCUSTOMDPI
 70
   300
  0
XRECORD
  5
1D67
102
{ACAD_REACTORS
330
1D66
102
}
330
1D66
100
AcDbXrecord
280
     1
102
SHADEPLOT
 70
     0
102
SHADEPLOTRESLEVEL
 70
     2
102
SHADEPLOTCUSTOMDPI
 70
   300
  0
XRECORD
  5
1D6B
102
{ACAD_REACTORS
330
1D6A
102
}
330
1D6A
100
AcDbXrecord
280
     1
102
SHADEPLOT
 70
     0
102
SHADEPLOTRESLEVEL
 70
     2
102
SHADEPLOTCUSTOMDPI
 70
   300
  0
ENDSEC
  0
EOF
