  0
SECTION
  2
HEADER
  9
$ACADVER
  1
AC1015
  9
$ACADMAINTVER
 70
    20
  9
$DWGCODEPAGE
  3
ANSI_932
  9
$INSBASE
 10
0.0
 20
0.0
 30
0.0
  9
$EXTMIN
 10
109.0
 20
4.0
 30
0.0
  9
$EXTMAX
 10
2784.000000000001
 20
2024.000000000002
 30
0.0
  9
$LIMMIN
 10
0.0
 20
0.0
  9
$LIMMAX
 10
29700.0
 20
21000.0
  9
$ORTHOMODE
 70
     0
  9
$REGENMODE
 70
     1
  9
$FILLMODE
 70
     1
  9
$QTEXTMODE
 70
     0
  9
$MIRRTEXT
 70
     1
  9
$LTSCALE
 40
4.0
  9
$ATTMODE
 70
     1
  9
$TEXTSIZE
 40
25.0
  9
$TRACEWID
 40
1.0
  9
$TEXTSTYLE
  7
Standard
  9
$CLAYER
  8
実形
  9
$CELTYPE
  6
ByLayer
  9
$CECOLOR
 62
   256
  9
$CELTSCALE
 40
1.0
  9
$DISPSILH
 70
     0
  9
$DIMSCALE
 40
1.0
  9
$DIMASZ
 40
35.0
  9
$DIMEXO
 40
65.0
  9
$DIMDLI
 40
3.75
  9
$DIMRND
 40
0.0
  9
$DIMDLE
 40
0.0
  9
$DIMEXE
 40
0.0
  9
$DIMTP
 40
0.0
  9
$DIMTM
 40
0.0
  9
$DIMTXT
 40
25.0
  9
$DIMCEN
 40
2.5
  9
$DIMTSZ
 40
0.0
  9
$DIMTOL
 70
     0
  9
$DIMLIM
 70
     0
  9
$DIMTIH
 70
     0
  9
$DIMTOH
 70
     0
  9
$DIMSE1
 70
     0
  9
$DIMSE2
 70
     0
  9
$DIMTAD
 70
     1
  9
$DIMZIN
 70
     8
  9
$DIMBLK
  1
DotSmall
  9
$DIMASO
 70
     1
  9
$DIMSHO
 70
     1
  9
$DIMPOST
  1

  9
$DIMAPOST
  1

  9
$DIMALT
 70
     0
  9
$DIMALTD
 70
     3
  9
$DIMALTF
 40
0.03937007874016
  9
$DIMLFAC
 40
1.0
  9
$DIMTOFL
 70
     1
  9
$DIMTVP
 40
0.0
  9
$DIMTIX
 70
     0
  9
$DIMSOXD
 70
     0
  9
$DIMSAH
 70
     0
  9
$DIMBLK1
  1

  9
$DIMBLK2
  1

  9
$DIMSTYLE
  2
ISO-25
  9
$DIMCLRD
 70
     0
  9
$DIMCLRE
 70
     0
  9
$DIMCLRT
 70
     0
  9
$DIMTFAC
 40
1.0
  9
$DIMGAP
 40
6.25
  9
$DIMJUST
 70
     0
  9
$DIMSD1
 70
     0
  9
$DIMSD2
 70
     0
  9
$DIMTOLJ
 70
     0
  9
$DIMTZIN
 70
     8
  9
$DIMALTZ
 70
     0
  9
$DIMALTTZ
 70
     0
  9
$DIMUPT
 70
     0
  9
$DIMDEC
 70
     2
  9
$DIMTDEC
 70
     2
  9
$DIMALTU
 70
     2
  9
$DIMALTTD
 70
     3
  9
$DIMTXSTY
  7
Standard
  9
$DIMAUNIT
 70
     0
  9
$DIMADEC
 70
     0
  9
$DIMALTRND
 40
0.0
  9
$DIMAZIN
 70
     0
  9
$DIMDSEP
 70
    46
  9
$DIMATFIT
 70
     3
  9
$DIMFRAC
 70
     0
  9
$DIMLDRBLK
  1
Open30
  9
$DIMLUNIT
 70
     2
  9
$DIMLWD
 70
    18
  9
$DIMLWE
 70
    18
  9
$DIMTMOVE
 70
     0
  9
$LUNITS
 70
     2
  9
$LUPREC
 70
     2
  9
$SKETCHINC
 40
1.0
  9
$FILLETRAD
 40
25.0
  9
$AUNITS
 70
     0
  9
$AUPREC
 70
     0
  9
$MENU
  1
.
  9
$ELEVATION
 40
0.0
  9
$PELEVATION
 40
0.0
  9
$THICKNESS
 40
0.0
  9
$LIMCHECK
 70
     1
  9
$CHAMFERA
 40
10.0
  9
$CHAMFERB
 40
10.0
  9
$CHAMFERC
 40
20.0
  9
$CHAMFERD
 40
0.0
  9
$SKPOLY
 70
     0
  9
$TDCREATE
 40
2451673.575802199
  9
$TDUCREATE
 40
2451673.200802199
  9
$TDUPDATE
 40
2458810.732457431
  9
$TDUUPDATE
 40
2458810.357457431
  9
$TDINDWG
 40
1.1987615278
  9
$TDUSRTIMER
 40
1.1987608333
  9
$USRTIMER
 70
     1
  9
$ANGBASE
 50
0.0
  9
$ANGDIR
 70
     0
  9
$PDMODE
 70
     3
  9
$PDSIZE
 40
0.0
  9
$PLINEWID
 40
0.0
  9
$SPLFRAME
 70
     0
  9
$SPLINETYPE
 70
     6
  9
$SPLINESEGS
 70
     8
  9
$HANDSEED
  5
3377
  9
$SURFTAB1
 70
     6
  9
$SURFTAB2
 70
     6
  9
$SURFTYPE
 70
     6
  9
$SURFU
 70
     6
  9
$SURFV
 70
     6
  9
$UCSBASE
  2

  9
$UCSNAME
  2

  9
$UCSORG
 10
0.0
 20
0.0
 30
0.0
  9
$UCSXDIR
 10
1.0
 20
0.0
 30
0.0
  9
$UCSYDIR
 10
0.0
 20
1.0
 30
0.0
  9
$UCSORTHOREF
  2

  9
$UCSORTHOVIEW
 70
     0
  9
$UCSORGTOP
 10
0.0
 20
0.0
 30
0.0
  9
$UCSORGBOTTOM
 10
0.0
 20
0.0
 30
0.0
  9
$UCSORGLEFT
 10
0.0
 20
0.0
 30
0.0
  9
$UCSORGRIGHT
 10
0.0
 20
0.0
 30
0.0
  9
$UCSORGFRONT
 10
0.0
 20
0.0
 30
0.0
  9
$UCSORGBACK
 10
0.0
 20
0.0
 30
0.0
  9
$PUCSBASE
  2

  9
$PUCSNAME
  2

  9
$PUCSORG
 10
0.0
 20
0.0
 30
0.0
  9
$PUCSXDIR
 10
1.0
 20
0.0
 30
0.0
  9
$PUCSYDIR
 10
0.0
 20
1.0
 30
0.0
  9
$PUCSORTHOREF
  2

  9
$PUCSORTHOVIEW
 70
     0
  9
$PUCSORGTOP
 10
0.0
 20
0.0
 30
0.0
  9
$PUCSORGBOTTOM
 10
0.0
 20
0.0
 30
0.0
  9
$PUCSORGLEFT
 10
0.0
 20
0.0
 30
0.0
  9
$PUCSORGRIGHT
 10
0.0
 20
0.0
 30
0.0
  9
$PUCSORGFRONT
 10
0.0
 20
0.0
 30
0.0
  9
$PUCSORGBACK
 10
0.0
 20
0.0
 30
0.0
  9
$USERI1
 70
     0
  9
$USERI2
 70
     0
  9
$USERI3
 70
     0
  9
$USERI4
 70
     0
  9
$USERI5
 70
     0
  9
$USERR1
 40
0.0
  9
$USERR2
 40
0.0
  9
$USERR3
 40
0.0
  9
$USERR4
 40
0.0
  9
$USERR5
 40
0.0
  9
$WORLDVIEW
 70
     1
  9
$SHADEDGE
 70
     3
  9
$SHADEDIF
 70
    70
  9
$TILEMODE
 70
     1
  9
$MAXACTVP
 70
    64
  9
$PINSBASE
 10
0.0
 20
0.0
 30
0.0
  9
$PLIMCHECK
 70
     0
  9
$PEXTMIN
 10
27.8447512626648
 20
20.24591643810271
 30
0.0
  9
$PEXTMAX
 10
250.6027613639831
 20
182.2132479429245
 30
0.0
  9
$PLIMMIN
 10
-3.757080078125
 20
-3.757083177566528
  9
$PLIMMAX
 10
293.2112426757813
 20
206.2162444591522
  9
$UNITMODE
 70
     0
  9
$VISRETAIN
 70
     1
  9
$PLINEGEN
 70
     0
  9
$PSLTSCALE
 70
     1
  9
$TREEDEPTH
 70
  3020
  9
$CMLSTYLE
  2
Standard
  9
$CMLJUST
 70
     0
  9
$CMLSCALE
 40
20.0
  9
$PROXYGRAPHICS
 70
     1
  9
$MEASUREMENT
 70
     1
  9
$CELWEIGHT
370
    -1
  9
$ENDCAPS
280
     0
  9
$JOINSTYLE
280
     0
  9
$LWDISPLAY
290
     1
  9
$INSUNITS
 70
     4
  9
$HYPERLINKBASE
  1

  9
$STYLESHEET
  1

  9
$XEDIT
290
     1
  9
$CEPSNTYPE
380
     0
  9
$PSTYLEMODE
290
     1
  9
$FINGERPRINTGUID
  2
{C8EA1F16-24C9-11D4-9416-CE0A3B32152F}
  9
$VERSIONGUID
  2
{4AFD6EA6-F7A4-46E7-A7CA-FE4FD60C4C56}
  9
$EXTNAMES
290
     1
  9
$PSVPSCALE
 40
0.0
  9
$OLESTARTUP
290
     0
  0
ENDSEC
  0
SECTION
  2
CLASSES
  0
CLASS
  1
ACDBDICTIONARYWDFLT
  2
AcDbDictionaryWithDefault
  3
ObjectDBX Classes
 90
        0
280
     0
281
     0
  0
CLASS
  1
ACDBPLACEHOLDER
  2
AcDbPlaceHolder
  3
ObjectDBX Classes
 90
        0
280
     0
281
     0
  0
CLASS
  1
LAYOUT
  2
AcDbLayout
  3
ObjectDBX Classes
 90
        0
280
     0
281
     0
  0
CLASS
  1
TABLESTYLE
  2
AcDbTableStyle
  3
ObjectDBX Classes
 90
     2047
280
     0
281
     0
  0
CLASS
  1
DICTIONARYVAR
  2
AcDbDictionaryVar
  3
ObjectDBX Classes
 90
        0
280
     0
281
     0
  0
CLASS
  1
SORTENTSTABLE
  2
AcDbSortentsTable
  3
ObjectDBX Classes
 90
        0
280
     0
281
     0
  0
ENDSEC
  0
SECTION
  2
TABLES
  0
TABLE
  2
VPORT
  5
8
330
0
100
AcDbSymbolTable
 70
     2
  0
VPORT
  5
336B
330
8
100
AcDbSymbolTableRecord
100
AcDbViewportTableRecord
  2
*Active
 70
     0
 10
0.0
 20
0.0
 11
1.0
 21
1.0
 12
1462.958053300418
 22
946.51383168452
 13
0.0
 23
0.0
 14
10.0
 24
10.0
 15
10.0
 25
10.0
 16
0.0
 26
0.0
 36
1.0
 17
0.0
 27
0.0
 37
0.0
 40
2466.76333410708
 41
1.29038112522686
 42
50.0
 43
0.0
 44
0.0
 50
0.0
 51
0.0
 71
     0
 72
   100
 73
     1
 74
     3
 75
     0
 76
     0
 77
     0
 78
     0
281
     0
 65
     1
110
0.0
120
0.0
130
0.0
111
1.0
121
0.0
131
0.0
112
0.0
122
1.0
132
0.0
 79
     0
146
0.0
  0
ENDTAB
  0
TABLE
  2
LTYPE
  5
5
330
0
100
AcDbSymbolTable
 70
    46
  0
LTYPE
  5
14
330
5
100
AcDbSymbolTableRecord
100
AcDbLinetypeTableRecord
  2
ByBlock
 70
     0
  3

 72
    65
 73
     0
 40
0.0
  0
LTYPE
  5
15
330
5
100
AcDbSymbolTableRecord
100
AcDbLinetypeTableRecord
  2
ByLayer
 70
     0
  3

 72
    65
 73
     0
 40
0.0
  0
LTYPE
  5
16
330
5
100
AcDbSymbolTableRecord
100
AcDbLinetypeTableRecord
  2
Continuous
 70
     0
  3
Solid line
 72
    65
 73
     0
 40
0.0
  0
LTYPE
  5
34
330
5
100
AcDbSymbolTableRecord
100
AcDbLinetypeTableRecord
  2
ACAD_ISO02W100
 70
     0
  3
ISO dash __ __ __ __ __ __ __ __ __ __ __ __ __
 72
    65
 73
     2
 40
15.0
 49
12.0
 74
     0
 49
-3.0
 74
     0
  0
LTYPE
  5
35
330
5
100
AcDbSymbolTableRecord
100
AcDbLinetypeTableRecord
  2
ACAD_ISO03W100
 70
     0
  3
ISO dash space __    __    __    __    __    __
 72
    65
 73
     2
 40
30.0
 49
12.0
 74
     0
 49
-18.0
 74
     0
  0
LTYPE
  5
36
330
5
100
AcDbSymbolTableRecord
100
AcDbLinetypeTableRecord
  2
ACAD_ISO04W100
 70
     0
  3
ISO long-dash dot ____ . ____ . ____ . ____ . _
 72
    65
 73
     4
 40
30.0
 49
24.0
 74
     0
 49
-3.0
 74
     0
 49
0.0
 74
     0
 49
-3.0
 74
     0
  0
LTYPE
  5
37
330
5
100
AcDbSymbolTableRecord
100
AcDbLinetypeTableRecord
  2
ACAD_ISO05W100
 70
     0
  3
ISO long-dash double-dot ____ .. ____ .. ____ .
 72
    65
 73
     6
 40
34.0
 49
24.0
 74
     0
 49
-3.0
 74
     0
 49
0.5
 74
     0
 49
-3.0
 74
     0
 49
0.5
 74
     0
 49
-3.0
 74
     0
  0
LTYPE
  5
38
330
5
100
AcDbSymbolTableRecord
100
AcDbLinetypeTableRecord
  2
ACAD_ISO06W100
 70
     0
  3
ISO long-dash triple-dot ____ ... ____ ... ____
 72
    65
 73
     8
 40
37.5
 49
24.0
 74
     0
 49
-3.0
 74
     0
 49
0.5
 74
     0
 49
-3.0
 74
     0
 49
0.5
 74
     0
 49
-3.0
 74
     0
 49
0.5
 74
     0
 49
-3.0
 74
     0
  0
LTYPE
  5
39
330
5
100
AcDbSymbolTableRecord
100
AcDbLinetypeTableRecord
  2
ACAD_ISO07W100
 70
     0
  3
ISO dot . . . . . . . . . . . . . . . . . . . .
 72
    65
 73
     2
 40
3.0
 49
0.0
 74
     0
 49
-3.0
 74
     0
  0
LTYPE
  5
3A
330
5
100
AcDbSymbolTableRecord
100
AcDbLinetypeTableRecord
  2
ACAD_ISO08W100
 70
     0
  3
ISO long-dash short-dash ____ __ ____ __ ____ _
 72
    65
 73
     4
 40
36.0
 49
24.0
 74
     0
 49
-3.0
 74
     0
 49
6.0
 74
     0
 49
-3.0
 74
     0
  0
LTYPE
  5
3B
330
5
100
AcDbSymbolTableRecord
100
AcDbLinetypeTableRecord
  2
ACAD_ISO09W100
 70
     0
  3
ISO long-dash double-short-dash ____ __ __ ____
 72
    65
 73
     6
 40
45.0
 49
24.0
 74
     0
 49
-3.0
 74
     0
 49
6.0
 74
     0
 49
-3.0
 74
     0
 49
6.0
 74
     0
 49
-3.0
 74
     0
  0
LTYPE
  5
3C
330
5
100
AcDbSymbolTableRecord
100
AcDbLinetypeTableRecord
  2
ACAD_ISO10W100
 70
     0
  3
ISO dash dot __ . __ . __ . __ . __ . __ . __ .
 72
    65
 73
     4
 40
18.0
 49
12.0
 74
     0
 49
-3.0
 74
     0
 49
0.0
 74
     0
 49
-3.0
 74
     0
  0
LTYPE
  5
3D
330
5
100
AcDbSymbolTableRecord
100
AcDbLinetypeTableRecord
  2
ACAD_ISO11W100
 70
     0
  3
ISO double-dash dot __ __ . __ __ . __ __ . __ 
 72
    65
 73
     6
 40
33.0
 49
12.0
 74
     0
 49
-3.0
 74
     0
 49
12.0
 74
     0
 49
-3.0
 74
     0
 49
0.0
 74
     0
 49
-3.0
 74
     0
  0
LTYPE
  5
3E
330
5
100
AcDbSymbolTableRecord
100
AcDbLinetypeTableRecord
  2
ACAD_ISO12W100
 70
     0
  3
ISO dash double-dot __ . . __ . . __ . . __ . .
 72
    65
 73
     6
 40
21.0
 49
12.0
 74
     0
 49
-3.0
 74
     0
 49
0.0
 74
     0
 49
-3.0
 74
     0
 49
0.0
 74
     0
 49
-3.0
 74
     0
  0
LTYPE
  5
3F
330
5
100
AcDbSymbolTableRecord
100
AcDbLinetypeTableRecord
  2
ACAD_ISO13W100
 70
     0
  3
ISO double-dash double-dot __ __ . . __ __ . . 
 72
    65
 73
     8
 40
36.0
 49
12.0
 74
     0
 49
-3.0
 74
     0
 49
12.0
 74
     0
 49
-3.0
 74
     0
 49
0.0
 74
     0
 49
-3.0
 74
     0
 49
0.0
 74
     0
 49
-3.0
 74
     0
  0
LTYPE
  5
40
330
5
100
AcDbSymbolTableRecord
100
AcDbLinetypeTableRecord
  2
ACAD_ISO14W100
 70
     0
  3
ISO dash triple-dot __ . . . __ . . . __ . . . 
 72
    65
 73
     8
 40
24.0
 49
12.0
 74
     0
 49
-3.0
 74
     0
 49
0.0
 74
     0
 49
-3.0
 74
     0
 49
0.0
 74
     0
 49
-3.0
 74
     0
 49
0.0
 74
     0
 49
-3.0
 74
     0
  0
LTYPE
  5
41
330
5
100
AcDbSymbolTableRecord
100
AcDbLinetypeTableRecord
  2
ACAD_ISO15W100
 70
     0
  3
ISO double-dash triple-dot __ __ . . . __ __ . 
 72
    65
 73
    10
 40
39.0
 49
12.0
 74
     0
 49
-3.0
 74
     0
 49
12.0
 74
     0
 49
-3.0
 74
     0
 49
0.0
 74
     0
 49
-3.0
 74
     0
 49
0.0
 74
     0
 49
-3.0
 74
     0
 49
0.0
 74
     0
 49
-3.0
 74
     0
  0
LTYPE
  5
42
330
5
100
AcDbSymbolTableRecord
100
AcDbLinetypeTableRecord
  2
BATTING
 70
     0
  3
Batting SSSSSSSSSSSSSSSSSSSSSSSSSSSSSSSSSSSSSSS
 72
    65
 73
     4
 40
10.16254
 49
0.00254
 74
     0
 49
-2.54
 74
     4
 75
   134
340
33
 46
2.54
 50
0.0
 44
-2.54
 45
0.0
 49
-5.08
 74
     4
 75
   134
340
33
 46
2.54
 50
180.0
 44
2.54
 45
0.0
 49
-2.54
 74
     0
  0
LTYPE
  5
43
330
5
100
AcDbSymbolTableRecord
100
AcDbLinetypeTableRecord
  2
BORDER
 70
     0
  3
Border __ __ . __ __ . __ __ . __ __ . __ __ .
 72
    65
 73
     6
 40
44.45
 49
12.7
 74
     0
 49
-6.349999999999999
 74
     0
 49
12.7
 74
     0
 49
-6.349999999999999
 74
     0
 49
0.0
 74
     0
 49
-6.349999999999999
 74
     0
  0
LTYPE
  5
44
330
5
100
AcDbSymbolTableRecord
100
AcDbLinetypeTableRecord
  2
BORDER2
 70
     0
  3
Border (.5x) __.__.__.__.__.__.__.__.__.__.__.
 72
    65
 73
     6
 40
22.225
 49
6.349999999999999
 74
     0
 49
-3.174999999999999
 74
     0
 49
6.349999999999999
 74
     0
 49
-3.174999999999999
 74
     0
 49
0.0
 74
     0
 49
-3.174999999999999
 74
     0
  0
LTYPE
  5
45
330
5
100
AcDbSymbolTableRecord
100
AcDbLinetypeTableRecord
  2
BORDERX2
 70
     0
  3
Border (2x) ____  ____  .  ____  ____  .  ___
 72
    65
 73
     6
 40
88.9
 49
25.4
 74
     0
 49
-12.7
 74
     0
 49
25.4
 74
     0
 49
-12.7
 74
     0
 49
0.0
 74
     0
 49
-12.7
 74
     0
  0
LTYPE
  5
46
330
5
100
AcDbSymbolTableRecord
100
AcDbLinetypeTableRecord
  2
CENTER
 70
     0
  3
Center ____ _ ____ _ ____ _ ____ _ ____ _ ____
 72
    65
 73
     4
 40
50.8
 49
31.75
 74
     0
 49
-6.349999999999999
 74
     0
 49
6.349999999999999
 74
     0
 49
-6.349999999999999
 74
     0
  0
LTYPE
  5
47
330
5
100
AcDbSymbolTableRecord
100
AcDbLinetypeTableRecord
  2
CENTER2
 70
     0
  3
Center (.5x) ___ _ ___ _ ___ _ ___ _ ___ _ ___
 72
    65
 73
     4
 40
28.575
 49
19.05
 74
     0
 49
-3.174999999999999
 74
     0
 49
3.174999999999999
 74
     0
 49
-3.174999999999999
 74
     0
  0
LTYPE
  5
48
330
5
100
AcDbSymbolTableRecord
100
AcDbLinetypeTableRecord
  2
CENTERX2
 70
     0
  3
Center (2x) ________  __  ________  __  _____
 72
    65
 73
     4
 40
101.6
 49
63.5
 74
     0
 49
-12.7
 74
     0
 49
12.7
 74
     0
 49
-12.7
 74
     0
  0
LTYPE
  5
49
330
5
100
AcDbSymbolTableRecord
100
AcDbLinetypeTableRecord
  2
DASHDOT
 70
     0
  3
Dash dot __ . __ . __ . __ . __ . __ . __ . __
 72
    65
 73
     4
 40
25.4
 49
12.7
 74
     0
 49
-6.349999999999999
 74
     0
 49
0.0
 74
     0
 49
-6.349999999999999
 74
     0
  0
LTYPE
  5
4A
330
5
100
AcDbSymbolTableRecord
100
AcDbLinetypeTableRecord
  2
DASHDOT2
 70
     0
  3
Dash dot (.5x) _._._._._._._._._._._._._._._.
 72
    65
 73
     4
 40
12.7
 49
6.349999999999999
 74
     0
 49
-3.174999999999999
 74
     0
 49
0.0
 74
     0
 49
-3.174999999999999
 74
     0
  0
LTYPE
  5
4B
330
5
100
AcDbSymbolTableRecord
100
AcDbLinetypeTableRecord
  2
DASHDOTX2
 70
     0
  3
Dash dot (2x) ____  .  ____  .  ____  .  ___
 72
    65
 73
     4
 40
50.8
 49
25.4
 74
     0
 49
-12.7
 74
     0
 49
0.0
 74
     0
 49
-12.7
 74
     0
  0
LTYPE
  5
4C
330
5
100
AcDbSymbolTableRecord
100
AcDbLinetypeTableRecord
  2
DASHED
 70
     0
  3
Dashed __ __ __ __ __ __ __ __ __ __ __ __ __ _
 72
    65
 73
     2
 40
19.05
 49
12.7
 74
     0
 49
-6.349999999999999
 74
     0
  0
LTYPE
  5
4D
330
5
100
AcDbSymbolTableRecord
100
AcDbLinetypeTableRecord
  2
DASHED2
 70
     0
  3
Dashed (.5x) _ _ _ _ _ _ _ _ _ _ _ _ _ _ _ _ _
 72
    65
 73
     2
 40
9.524999999999998
 49
6.349999999999999
 74
     0
 49
-3.174999999999999
 74
     0
  0
LTYPE
  5
4E
330
5
100
AcDbSymbolTableRecord
100
AcDbLinetypeTableRecord
  2
DASHEDX2
 70
     0
  3
Dashed (2x) ____  ____  ____  ____  ____  ___
 72
    65
 73
     2
 40
38.1
 49
25.4
 74
     0
 49
-12.7
 74
     0
  0
LTYPE
  5
4F
330
5
100
AcDbSymbolTableRecord
100
AcDbLinetypeTableRecord
  2
DIVIDE
 70
     0
  3
Divide ____ . . ____ . . ____ . . ____ . . ____
 72
    65
 73
     6
 40
31.75
 49
12.7
 74
     0
 49
-6.349999999999999
 74
     0
 49
0.0
 74
     0
 49
-6.349999999999999
 74
     0
 49
0.0
 74
     0
 49
-6.349999999999999
 74
     0
  0
LTYPE
  5
50
330
5
100
AcDbSymbolTableRecord
100
AcDbLinetypeTableRecord
  2
DIVIDE2
 70
     0
  3
Divide (.5x) __..__..__..__..__..__..__..__.._
 72
    65
 73
     6
 40
15.875
 49
6.349999999999999
 74
     0
 49
-3.174999999999999
 74
     0
 49
0.0
 74
     0
 49
-3.174999999999999
 74
     0
 49
0.0
 74
     0
 49
-3.174999999999999
 74
     0
  0
LTYPE
  5
51
330
5
100
AcDbSymbolTableRecord
100
AcDbLinetypeTableRecord
  2
DIVIDEX2
 70
     0
  3
Divide (2x) ________  .  .  ________  .  .  _
 72
    65
 73
     6
 40
63.49999999999999
 49
25.4
 74
     0
 49
-12.7
 74
     0
 49
0.0
 74
     0
 49
-12.7
 74
     0
 49
0.0
 74
     0
 49
-12.7
 74
     0
  0
LTYPE
  5
52
330
5
100
AcDbSymbolTableRecord
100
AcDbLinetypeTableRecord
  2
DOT
 70
     0
  3
Dot . . . . . . . . . . . . . . . . . . . . . .
 72
    65
 73
     2
 40
6.349999999999999
 49
0.0
 74
     0
 49
-6.349999999999999
 74
     0
  0
LTYPE
  5
53
330
5
100
AcDbSymbolTableRecord
100
AcDbLinetypeTableRecord
  2
DOT2
 70
     0
  3
Dot (.5x) .....................................
 72
    65
 73
     2
 40
3.174999999999999
 49
0.0
 74
     0
 49
-3.174999999999999
 74
     0
  0
LTYPE
  5
54
330
5
100
AcDbSymbolTableRecord
100
AcDbLinetypeTableRecord
  2
DOTX2
 70
     0
  3
Dot (2x) .  .  .  .  .  .  .  .  .  .  .  .  . 
 72
    65
 73
     2
 40
12.7
 49
0.0
 74
     0
 49
-12.7
 74
     0
  0
LTYPE
  5
55
330
5
100
AcDbSymbolTableRecord
100
AcDbLinetypeTableRecord
  2
FENCELINE1
 70
     0
  3
Fenceline circle ----0-----0----0-----0----0---
 72
    65
 73
     4
 40
36.83
 49
6.349999999999999
 74
     0
 49
-2.54
 74
     4
 75
   133
340
33
 46
2.54
 50
0.0
 44
-2.54
 45
0.0
 49
-2.54
 74
     0
 49
25.4
 74
     0
  0
LTYPE
  5
56
330
5
100
AcDbSymbolTableRecord
100
AcDbLinetypeTableRecord
  2
FENCELINE2
 70
     0
  3
Fenceline square ----[]-----[]----[]-----[]----
 72
    65
 73
     4
 40
36.83
 49
6.349999999999999
 74
     0
 49
-2.54
 74
     4
 75
   132
340
33
 46
2.54
 50
0.0
 44
-2.54
 45
0.0
 49
-2.54
 74
     0
 49
25.4
 74
     0
  0
LTYPE
  5
57
330
5
100
AcDbSymbolTableRecord
100
AcDbLinetypeTableRecord
  2
GAS_LINE
 70
     0
  3
Gas line ----GAS----GAS----GAS----GAS----GAS---
 72
    65
 73
     3
 40
24.13
 49
12.7
 74
     0
 49
-5.08
 74
     2
 75
     0
340
11
 46
2.54
 50
0.0
 44
-2.54
 45
-1.27
  9
GAS
 49
-6.349999999999999
 74
     0
  0
LTYPE
  5
58
330
5
100
AcDbSymbolTableRecord
100
AcDbLinetypeTableRecord
  2
HIDDEN
 70
     0
  3
Hidden __ __ __ __ __ __ __ __ __ __ __ __ __ _
 72
    65
 73
     2
 40
9.524999999999998
 49
6.349999999999999
 74
     0
 49
-3.174999999999999
 74
     0
  0
LTYPE
  5
59
330
5
100
AcDbSymbolTableRecord
100
AcDbLinetypeTableRecord
  2
HIDDEN2
 70
     0
  3
Hidden (.5x) _ _ _ _ _ _ _ _ _ _ _ _ _ _ _ _ _
 72
    65
 73
     2
 40
4.762499999999999
 49
3.174999999999999
 74
     0
 49
-1.587499999999999
 74
     0
  0
LTYPE
  5
5A
330
5
100
AcDbSymbolTableRecord
100
AcDbLinetypeTableRecord
  2
HIDDENX2
 70
     0
  3
Hidden (2x) ____ ____ ____ ____ ____ ____ ____
 72
    65
 73
     2
 40
19.05
 49
12.7
 74
     0
 49
-6.349999999999999
 74
     0
  0
LTYPE
  5
5B
330
5
100
AcDbSymbolTableRecord
100
AcDbLinetypeTableRecord
  2
HOT_WATER_SUPPLY
 70
     0
  3
Hot water supply ---- HW ---- HW ---- HW ----
 72
    65
 73
     3
 40
22.86
 49
12.7
 74
     0
 49
-5.08
 74
     2
 75
     0
340
11
 46
2.54
 50
0.0
 44
-2.54
 45
-1.27
  9
HW
 49
-5.08
 74
     0
  0
LTYPE
  5
5C
330
5
100
AcDbSymbolTableRecord
100
AcDbLinetypeTableRecord
  2
PHANTOM
 70
     0
  3
Phantom ______  __  __  ______  __  __  ______
 72
    65
 73
     6
 40
63.5
 49
31.75
 74
     0
 49
-6.349999999999999
 74
     0
 49
6.349999999999999
 74
     0
 49
-6.349999999999999
 74
     0
 49
6.349999999999999
 74
     0
 49
-6.349999999999999
 74
     0
  0
LTYPE
  5
5D
330
5
100
AcDbSymbolTableRecord
100
AcDbLinetypeTableRecord
  2
PHANTOM2
 70
     0
  3
Phantom (.5x) ___ _ _ ___ _ _ ___ _ _ ___ _ _
 72
    65
 73
     6
 40
31.75
 49
15.875
 74
     0
 49
-3.174999999999999
 74
     0
 49
3.174999999999999
 74
     0
 49
-3.174999999999999
 74
     0
 49
3.174999999999999
 74
     0
 49
-3.174999999999999
 74
     0
  0
LTYPE
  5
5E
330
5
100
AcDbSymbolTableRecord
100
AcDbLinetypeTableRecord
  2
PHANTOMX2
 70
     0
  3
Phantom (2x) ____________    ____    ____   _
 72
    65
 73
     6
 40
127.0
 49
63.5
 74
     0
 49
-12.7
 74
     0
 49
12.7
 74
     0
 49
-12.7
 74
     0
 49
12.7
 74
     0
 49
-12.7
 74
     0
  0
LTYPE
  5
5F
330
5
100
AcDbSymbolTableRecord
100
AcDbLinetypeTableRecord
  2
TRACKS
 70
     0
  3
Tracks -|-|-|-|-|-|-|-|-|-|-|-|-|-|-|-|-|-|-|-|
 72
    65
 73
     2
 40
7.62
 49
3.81
 74
     4
 75
   130
340
33
 46
6.349999999999999
 50
0.0
 44
0.0
 45
0.0
 49
3.81
 74
     0
  0
LTYPE
  5
60
330
5
100
AcDbSymbolTableRecord
100
AcDbLinetypeTableRecord
  2
ZIGZAG
 70
     0
  3
Zig zag /\/\/\/\/\/\/\/\/\/\/\/\/\/\/\/\/\/\/\/
 72
    65
 73
     4
 40
20.32254
 49
0.00254
 74
     0
 49
-5.08
 74
     4
 75
   131
340
33
 46
5.08
 50
0.0
 44
-5.08
 45
0.0
 49
-10.16
 74
     4
 75
   131
340
33
 46
5.08
 50
180.0
 44
5.08
 45
0.0
 49
-5.08
 74
     0
  0
ENDTAB
  0
TABLE
  2
LAYER
  5
2
102
{ACAD_XDICTIONARY
360
3327
102
}
330
0
100
AcDbSymbolTable
 70
    10
  0
LAYER
  5
10
330
2
100
AcDbSymbolTableRecord
100
AcDbLayerTableRecord
  2
0
 70
     0
 62
     7
  6
Continuous
370
    -3
390
F
  0
LAYER
  5
C3
330
2
100
AcDbSymbolTableRecord
100
AcDbLayerTableRecord
  2
Defpoints
 70
     0
 62
     7
  6
Continuous
290
     0
370
    -3
390
F
  0
LAYER
  5
256
330
2
100
AcDbSymbolTableRecord
100
AcDbLayerTableRecord
  2
センター
 70
     0
 62
     7
  6
CENTER2
370
    18
390
F
  0
LAYER
  5
268
330
2
100
AcDbSymbolTableRecord
100
AcDbLayerTableRecord
  2
実形
 70
     0
 62
     7
  6
Continuous
370
    -3
390
F
  0
LAYER
  5
269
330
2
100
AcDbSymbolTableRecord
100
AcDbLayerTableRecord
  2
補助
 70
     0
 62
     7
  6
Continuous
370
    -3
390
F
  0
LAYER
  5
26A
330
2
100
AcDbSymbolTableRecord
100
AcDbLayerTableRecord
  2
寸法
 70
     0
 62
     7
  6
Continuous
370
    18
390
F
  0
LAYER
  5
26B
330
2
100
AcDbSymbolTableRecord
100
AcDbLayerTableRecord
  2
ハッチング
 70
     0
 62
     7
  6
Continuous
370
    18
390
F
  0
LAYER
  5
26D
330
2
100
AcDbSymbolTableRecord
100
AcDbLayerTableRecord
  2
文字
 70
     0
 62
     7
  6
Continuous
370
    -3
390
F
  0
LAYER
  5
209E
330
2
100
AcDbSymbolTableRecord
100
AcDbLayerTableRecord
  2
Cen
 70
     0
 62
     7
  6
CENTER2
370
    15
390
F
  0
LAYER
  5
262D
330
2
100
AcDbSymbolTableRecord
100
AcDbLayerTableRecord
  2
実形（補助）
 70
     0
 62
     6
  6
Continuous
370
    -3
390
F
  0
ENDTAB
  0
TABLE
  2
STYLE
  5
3
330
0
100
AcDbSymbolTable
 70
     3
  0
STYLE
  5
11
330
3
100
AcDbSymbolTableRecord
100
AcDbTextStyleTableRecord
  2
Standard
 70
     0
 40
0.0
 41
1.0
 50
0.0
 71
     0
 42
25.0
  3
txt.shx
  4
bigfont.shx
  0
STYLE
  5
33
330
3
100
AcDbSymbolTableRecord
100
AcDbTextStyleTableRecord
  2

 70
     1
 40
0.0
 41
1.0
 50
0.0
 71
     0
 42
2.5
  3
ltypeshp.shx
  4

  0
STYLE
  5
332A
330
3
100
AcDbSymbolTableRecord
100
AcDbTextStyleTableRecord
  2
明朝
 70
     0
 40
0.0
 41
1.0
 50
0.0
 71
     0
 42
25.0
  3
MS Mincho.ttf
  4

1001
ACAD
1000
MS Mincho
1071
    32785
  0
ENDTAB
  0
TABLE
  2
VIEW
  5
6
330
0
100
AcDbSymbolTable
 70
     0
  0
ENDTAB
  0
TABLE
  2
UCS
  5
7
330
0
100
AcDbSymbolTable
 70
     0
  0
ENDTAB
  0
TABLE
  2
APPID
  5
9
330
0
100
AcDbSymbolTable
 70
     1
  0
APPID
  5
12
330
9
100
AcDbSymbolTableRecord
100
AcDbRegAppTableRecord
  2
ACAD
 70
     0
  0
ENDTAB
  0
TABLE
  2
DIMSTYLE
  5
A
330
0
100
AcDbSymbolTable
 70
     1
100
AcDbDimStyleTable
 71
     1
340
27
  0
DIMSTYLE
105
27
102
{ACAD_REACTORS
330
368
330
44B
330
4A3
330
4BE
330
4CC
330
532
330
548
330
569
330
57F
330
35B
330
3CE
330
3DC
330
3F6
330
4F8
330
505
330
173D
330
17AE
330
22EC
330
22FA
330
2339
330
2347
330
2356
330
2364
330
2CC1
330
2CBF
330
2CC0
102
}
330
A
100
AcDbSymbolTableRecord
100
AcDbDimStyleTableRecord
  2
ISO-25
 70
     0
 41
35.0
 42
65.0
 43
3.75
 44
0.0
 73
     0
 74
     0
 77
     1
 78
     8
140
25.0
141
2.5
143
0.03937007874016
147
6.25
171
     3
172
     1
271
     2
272
     2
274
     3
283
     0
284
     8
340
11
341
DA
342
D0
371
    15
372
    15
  0
ENDTAB
  0
TABLE
  2
BLOCK_RECORD
  5
1
330
0
100
AcDbSymbolTable
 70
    30
  0
BLOCK_RECORD
  5
1F
102
{ACAD_XDICTIONARY
360
3352
102
}
330
1
100
AcDbSymbolTableRecord
100
AcDbBlockTableRecord
  2
*Model_Space
340
22
  0
BLOCK_RECORD
  5
1B
330
1
100
AcDbSymbolTableRecord
100
AcDbBlockTableRecord
  2
*Paper_Space
340
1E
  0
BLOCK_RECORD
  5
23
330
1
100
AcDbSymbolTableRecord
100
AcDbBlockTableRecord
  2
*Paper_Space0
340
26
  0
BLOCK_RECORD
  5
D0
330
1
100
AcDbSymbolTableRecord
100
AcDbBlockTableRecord
  2
_DotSmall
340
0
102
{BLKREFS
331
313C
331
313D
331
3145
331
3146
331
314E
331
314F
331
3157
331
3158
331
31DF
331
31E0
331
31F4
331
31F5
331
320F
331
3210
331
3220
331
3221
331
322A
331
322B
331
323B
331
323C
331
3245
331
3246
331
3257
331
3258
331
3269
331
326A
331
3271
331
3272
331
327A
331
327B
331
3283
331
3284
331
328B
331
328C
331
3294
331
3295
331
32A7
331
32A8
331
32B0
331
32B1
331
32B9
331
32BA
331
32C2
331
32C3
331
32CB
331
32CC
331
32DD
331
32DE
331
32E6
331
32E7
331
32EF
331
32F0
102
}
  0
BLOCK_RECORD
  5
D4
330
1
100
AcDbSymbolTableRecord
100
AcDbBlockTableRecord
  2
_Origin2
340
0
  0
BLOCK_RECORD
  5
DA
330
1
100
AcDbSymbolTableRecord
100
AcDbBlockTableRecord
  2
_Open30
340
0
  0
BLOCK_RECORD
  5
35C
330
1
100
AcDbSymbolTableRecord
100
AcDbBlockTableRecord
  2
*D4
340
0
  0
BLOCK_RECORD
  5
369
330
1
100
AcDbSymbolTableRecord
100
AcDbBlockTableRecord
  2
*D5
340
0
  0
BLOCK_RECORD
  5
3CF
330
1
100
AcDbSymbolTableRecord
100
AcDbBlockTableRecord
  2
*D6
340
0
  0
BLOCK_RECORD
  5
3DD
330
1
100
AcDbSymbolTableRecord
100
AcDbBlockTableRecord
  2
*D7
340
0
  0
BLOCK_RECORD
  5
3F7
330
1
100
AcDbSymbolTableRecord
100
AcDbBlockTableRecord
  2
*D8
340
0
  0
BLOCK_RECORD
  5
44C
330
1
100
AcDbSymbolTableRecord
100
AcDbBlockTableRecord
  2
*D9
340
0
  0
BLOCK_RECORD
  5
4A4
330
1
100
AcDbSymbolTableRecord
100
AcDbBlockTableRecord
  2
*D10
340
0
  0
BLOCK_RECORD
  5
4BF
330
1
100
AcDbSymbolTableRecord
100
AcDbBlockTableRecord
  2
*D11
340
0
  0
BLOCK_RECORD
  5
4CD
330
1
100
AcDbSymbolTableRecord
100
AcDbBlockTableRecord
  2
*D12
340
0
  0
BLOCK_RECORD
  5
4F9
330
1
100
AcDbSymbolTableRecord
100
AcDbBlockTableRecord
  2
*D13
340
0
  0
BLOCK_RECORD
  5
506
330
1
100
AcDbSymbolTableRecord
100
AcDbBlockTableRecord
  2
*D14
340
0
  0
BLOCK_RECORD
  5
533
330
1
100
AcDbSymbolTableRecord
100
AcDbBlockTableRecord
  2
*D15
340
0
  0
BLOCK_RECORD
  5
549
330
1
100
AcDbSymbolTableRecord
100
AcDbBlockTableRecord
  2
*D16
340
0
  0
BLOCK_RECORD
  5
56A
330
1
100
AcDbSymbolTableRecord
100
AcDbBlockTableRecord
  2
*D17
340
0
  0
BLOCK_RECORD
  5
580
330
1
100
AcDbSymbolTableRecord
100
AcDbBlockTableRecord
  2
*D18
340
0
  0
BLOCK_RECORD
  5
173E
330
1
100
AcDbSymbolTableRecord
100
AcDbBlockTableRecord
  2
*D19
340
0
  0
BLOCK_RECORD
  5
17AF
330
1
100
AcDbSymbolTableRecord
100
AcDbBlockTableRecord
  2
*D20
340
0
  0
BLOCK_RECORD
  5
22ED
330
1
100
AcDbSymbolTableRecord
100
AcDbBlockTableRecord
  2
*D21
340
0
  0
BLOCK_RECORD
  5
22FB
330
1
100
AcDbSymbolTableRecord
100
AcDbBlockTableRecord
  2
*D22
340
0
  0
BLOCK_RECORD
  5
233A
330
1
100
AcDbSymbolTableRecord
100
AcDbBlockTableRecord
  2
*D23
340
0
  0
BLOCK_RECORD
  5
2348
330
1
100
AcDbSymbolTableRecord
100
AcDbBlockTableRecord
  2
*D24
340
0
  0
BLOCK_RECORD
  5
2357
330
1
100
AcDbSymbolTableRecord
100
AcDbBlockTableRecord
  2
*D25
340
0
  0
BLOCK_RECORD
  5
2365
330
1
100
AcDbSymbolTableRecord
100
AcDbBlockTableRecord
  2
*D26
340
0
  0
BLOCK_RECORD
  5
2CC2
330
1
100
AcDbSymbolTableRecord
100
AcDbBlockTableRecord
  2
*D27
340
0
  0
BLOCK_RECORD
  5
2CCE
330
1
100
AcDbSymbolTableRecord
100
AcDbBlockTableRecord
  2
*D28
340
0
  0
BLOCK_RECORD
  5
2CDA
330
1
100
AcDbSymbolTableRecord
100
AcDbBlockTableRecord
  2
*D29
340
0
  0
ENDTAB
  0
ENDSEC
  0
SECTION
  2
BLOCKS
  0
BLOCK
  5
20
330
1F
100
AcDbEntity
  8
0
100
AcDbBlockBegin
  2
*Model_Space
 70
     0
 10
0.0
 20
0.0
 30
0.0
  3
*Model_Space
  1

  0
ENDBLK
  5
21
330
1F
100
AcDbEntity
  8
0
100
AcDbBlockEnd
  0
BLOCK
  5
1C
330
1B
100
AcDbEntity
 67
     1
  8
0
100
AcDbBlockBegin
  2
*Paper_Space
 70
     0
 10
0.0
 20
0.0
 30
0.0
  3
*Paper_Space
  1

  0
ENDBLK
  5
1D
330
1B
100
AcDbEntity
 67
     1
  8
0
100
AcDbBlockEnd
  0
BLOCK
  5
24
330
23
100
AcDbEntity
  8
0
100
AcDbBlockBegin
  2
*Paper_Space0
 70
     0
 10
0.0
 20
0.0
 30
0.0
  3
*Paper_Space0
  1

  0
ENDBLK
  5
25
330
23
100
AcDbEntity
  8
0
100
AcDbBlockEnd
  0
BLOCK
  5
D2
330
D0
100
AcDbEntity
  8
0
100
AcDbBlockBegin
  2
_DotSmall
 70
     0
 10
0.0
 20
0.0
 30
0.0
  3
_DotSmall
  1

  0
LWPOLYLINE
  5
D1
330
D0
100
AcDbEntity
  8
0
 62
     0
100
AcDbPolyline
 90
        2
 70
     1
 43
0.5
 10
-0.0625
 20
0.0
 42
1.0
 10
0.0625
 20
0.0
 42
1.0
  0
ENDBLK
  5
D3
330
D0
100
AcDbEntity
  8
0
100
AcDbBlockEnd
  0
BLOCK
  5
D8
330
D4
100
AcDbEntity
  8
0
100
AcDbBlockBegin
  2
_Origin2
 70
     0
 10
0.0
 20
0.0
 30
0.0
  3
_Origin2
  1

  0
CIRCLE
  5
D5
330
D4
100
AcDbEntity
  8
0
 62
     0
370
    -2
100
AcDbCircle
 10
0.0
 20
0.0
 30
0.0
 40
0.5
  0
CIRCLE
  5
D6
330
D4
100
AcDbEntity
  8
0
 62
     0
370
    -2
100
AcDbCircle
 10
0.0
 20
0.0
 30
0.0
 40
0.25
  0
LINE
  5
D7
330
D4
100
AcDbEntity
  8
0
 62
     0
370
    -2
100
AcDbLine
 10
-0.5
 20
0.0
 30
0.0
 11
-1.0
 21
0.0
 31
0.0
  0
ENDBLK
  5
D9
330
D4
100
AcDbEntity
  8
0
100
AcDbBlockEnd
  0
BLOCK
  5
DE
330
DA
100
AcDbEntity
  8
0
100
AcDbBlockBegin
  2
_Open30
 70
     0
 10
0.0
 20
0.0
 30
0.0
  3
_Open30
  1

  0
LINE
  5
DB
330
DA
100
AcDbEntity
  8
0
 62
     0
370
    -2
100
AcDbLine
 10
-1.0
 20
0.26794919
 30
0.0
 11
0.0
 21
0.0
 31
0.0
  0
LINE
  5
DC
330
DA
100
AcDbEntity
  8
0
 62
     0
370
    -2
100
AcDbLine
 10
0.0
 20
0.0
 30
0.0
 11
-1.0
 21
-0.26794919
 31
0.0
  0
LINE
  5
DD
330
DA
100
AcDbEntity
  8
0
 62
     0
370
    -2
100
AcDbLine
 10
0.0
 20
0.0
 30
0.0
 11
-1.0
 21
0.0
 31
0.0
  0
ENDBLK
  5
DF
330
DA
100
AcDbEntity
  8
0
100
AcDbBlockEnd
  0
BLOCK
  5
366
330
35C
100
AcDbEntity
  8
0
100
AcDbBlockBegin
  2
*D4
 70
     1
 10
0.0
 20
0.0
 30
0.0
  3
*D4
  1

  0
LINE
  5
3226
330
35C
100
AcDbEntity
  8
実形
 62
     0
370
    15
100
AcDbLine
 10
1165.487072769309
 20
1523.643702698764
 30
0.0
 11
1165.487072769309
 21
1604.077434156575
 31
0.0
  0
LINE
  5
3227
330
35C
100
AcDbEntity
  8
実形
 62
     0
370
    15
100
AcDbLine
 10
980.4870727693096
 20
1555.221622744612
 30
0.0
 11
980.4870727693096
 21
1604.077434156575
 31
0.0
  0
LINE
  5
3228
330
35C
100
AcDbEntity
  8
実形
 62
     0
370
    18
100
AcDbLine
 10
1165.487072769309
 20
1604.077434156575
 30
0.0
 11
980.4870727693096
 21
1604.077434156575
 31
0.0
  0
MTEXT
  5
3229
330
35C
100
AcDbEntity
  8
実形
 62
     0
100
AcDbMText
 10
1072.773250406093
 20
1624.033247036456
 30
0.0
 40
25.0
 41
0.0
 71
     5
 72
     1
  1
185
 73
     1
 44
1.0
1001
ACAD
1000
MTEXTBEGIN
1070
    73
1070
     1
1070
    44
1040
1.0
1070
    74
1070
     0
1000
MTEXTEND
  0
INSERT
  5
322A
330
35C
100
AcDbEntity
  8
実形
 62
     0
370
    18
100
AcDbBlockReference
  2
_DotSmall
 10
1165.487072769309
 20
1604.077434156575
 30
0.0
 41
35.0
 42
35.0
 43
35.0
  0
INSERT
  5
322B
330
35C
100
AcDbEntity
  8
実形
 62
     0
370
    18
100
AcDbBlockReference
  2
_DotSmall
 10
980.4870727693096
 20
1604.077434156575
 30
0.0
 41
35.0
 42
35.0
 43
35.0
 50
180.0
  0
POINT
  5
322C
330
35C
100
AcDbEntity
  8
Defpoints
 62
     0
100
AcDbPoint
 10
1165.487072769309
 20
1443.643702698764
 30
0.0
  0
POINT
  5
322D
330
35C
100
AcDbEntity
  8
Defpoints
 62
     0
100
AcDbPoint
 10
980.4870727693096
 20
1475.221622744612
 30
0.0
  0
POINT
  5
322E
330
35C
100
AcDbEntity
  8
Defpoints
 62
     0
100
AcDbPoint
 10
980.4870727693096
 20
1604.077434156575
 30
0.0
  0
ENDBLK
  5
367
330
35C
100
AcDbEntity
  8
0
100
AcDbBlockEnd
  0
BLOCK
  5
373
330
369
100
AcDbEntity
  8
0
100
AcDbBlockBegin
  2
*D5
 70
     1
 10
0.0
 20
0.0
 30
0.0
  3
*D5
  1

  0
LINE
  5
326E
330
369
100
AcDbEntity
  8
実形
 62
     0
370
    15
100
AcDbLine
 10
1389.226714838874
 20
1158.643702698764
 30
0.0
 11
1433.090085388291
 21
1158.643702698764
 31
0.0
  0
LINE
  5
326F
330
369
100
AcDbEntity
  8
実形
 62
     0
370
    15
100
AcDbLine
 10
1345.48707276931
 20
1343.643702698764
 30
0.0
 11
1433.090085388291
 21
1343.643702698764
 31
0.0
  0
LINE
  5
3270
330
369
100
AcDbEntity
  8
実形
 62
     0
370
    18
100
AcDbLine
 10
1433.090085388291
 20
1158.643702698764
 30
0.0
 11
1433.090085388291
 21
1343.643702698764
 31
0.0
  0
INSERT
  5
3271
330
369
100
AcDbEntity
  8
実形
 62
     0
370
    18
100
AcDbBlockReference
  2
_DotSmall
 10
1433.090085388291
 20
1158.643702698764
 30
0.0
 41
35.0
 42
35.0
 43
35.0
 50
270.0
  0
INSERT
  5
3272
330
369
100
AcDbEntity
  8
実形
 62
     0
370
    18
100
AcDbBlockReference
  2
_DotSmall
 10
1433.090085388291
 20
1343.643702698764
 30
0.0
 41
35.0
 42
35.0
 43
35.0
 50
90.0
  0
MTEXT
  5
3273
330
369
100
AcDbEntity
  8
実形
 62
     0
100
AcDbMText
 10
1414.340085388291
 20
1251.143702698764
 30
0.0
 40
25.0
 41
0.0
 71
     5
 72
     1
  1
185
 11
0.0000000000000001
 21
1.0
 31
0.0
 73
     1
 44
1.0
1001
ACAD
1000
MTEXTBEGIN
1070
    73
1070
     1
1070
    44
1040
1.0
1070
    74
1070
     0
1000
MTEXTEND
  0
POINT
  5
3274
330
369
100
AcDbEntity
  8
Defpoints
 62
     0
100
AcDbPoint
 10
1309.226714838874
 20
1158.643702698764
 30
0.0
  0
POINT
  5
3275
330
369
100
AcDbEntity
  8
Defpoints
 62
     0
100
AcDbPoint
 10
1265.48707276931
 20
1343.643702698764
 30
0.0
  0
POINT
  5
3276
330
369
100
AcDbEntity
  8
Defpoints
 62
     0
100
AcDbPoint
 10
1433.090085388291
 20
1343.643702698764
 30
0.0
  0
ENDBLK
  5
374
330
369
100
AcDbEntity
  8
0
100
AcDbBlockEnd
  0
BLOCK
  5
3DA
330
3CF
100
AcDbEntity
  8
0
100
AcDbBlockBegin
  2
*D6
 70
     1
 10
0.0
 20
0.0
 30
0.0
  3
*D6
  1

  0
LINE
  5
32AC
330
3CF
100
AcDbEntity
  8
実形
 62
     0
370
    15
100
AcDbLine
 10
935.4870727693096
 20
1528.643702698764
 30
0.0
 11
821.5494844725489
 21
1528.643702698764
 31
0.0
  0
LINE
  5
32AD
330
3CF
100
AcDbEntity
  8
実形
 62
     0
370
    15
100
AcDbLine
 10
935.4870727693096
 20
1493.643702698764
 30
0.0
 11
821.5494844725489
 21
1493.643702698764
 31
0.0
  0
LINE
  5
32AE
330
3CF
100
AcDbEntity
  8
実形
 62
     0
370
    18
100
AcDbLine
 10
821.5494844725489
 20
1528.643702698764
 30
0.0
 11
821.5494844725489
 21
1493.643702698764
 31
0.0
  0
MTEXT
  5
32AF
330
3CF
100
AcDbEntity
  8
実形
 62
     0
100
AcDbMText
 10
800.7814647866444
 20
1500.080666120265
 30
0.0
 40
25.0
 41
0.0
 71
     5
 72
     1
  1
33
 11
0.0000000000000001
 21
1.0
 31
0.0
 73
     1
 44
1.0
1001
ACAD
1000
MTEXTBEGIN
1070
    73
1070
     1
1070
    44
1040
1.0
1070
    74
1070
     0
1000
MTEXTEND
  0
INSERT
  5
32B0
330
3CF
100
AcDbEntity
  8
実形
 62
     0
370
    18
100
AcDbBlockReference
  2
_DotSmall
 10
821.5494844725489
 20
1528.643702698764
 30
0.0
 41
35.0
 42
35.0
 43
35.0
 50
90.0
  0
INSERT
  5
32B1
330
3CF
100
AcDbEntity
  8
実形
 62
     0
370
    18
100
AcDbBlockReference
  2
_DotSmall
 10
821.5494844725489
 20
1493.643702698764
 30
0.0
 41
35.0
 42
35.0
 43
35.0
 50
270.0
  0
POINT
  5
32B2
330
3CF
100
AcDbEntity
  8
Defpoints
 62
     0
100
AcDbPoint
 10
1000.48707276931
 20
1528.643702698764
 30
0.0
  0
POINT
  5
32B3
330
3CF
100
AcDbEntity
  8
Defpoints
 62
     0
100
AcDbPoint
 10
1000.48707276931
 20
1493.643702698764
 30
0.0
  0
POINT
  5
32B4
330
3CF
100
AcDbEntity
  8
Defpoints
 62
     0
100
AcDbPoint
 10
821.5494844725489
 20
1493.643702698764
 30
0.0
  0
ENDBLK
  5
3DB
330
3CF
100
AcDbEntity
  8
0
100
AcDbBlockEnd
  0
BLOCK
  5
3E7
330
3DD
100
AcDbEntity
  8
0
100
AcDbBlockBegin
  2
*D7
 70
     1
 10
0.0
 20
0.0
 30
0.0
  3
*D7
  1

  0
LINE
  5
321D
330
3DD
100
AcDbEntity
  8
実形
 62
     0
370
    15
100
AcDbLine
 10
935.4870727693096
 20
1493.643702698764
 30
0.0
 11
821.5494844725482
 21
1493.643702698764
 31
0.0
  0
LINE
  5
321E
330
3DD
100
AcDbEntity
  8
実形
 62
     0
370
    15
100
AcDbLine
 10
933.8642961676258
 20
1193.643702698764
 30
0.0
 11
821.549484472548
 21
1193.643702698764
 31
0.0
  0
LINE
  5
321F
330
3DD
100
AcDbEntity
  8
実形
 62
     0
370
    18
100
AcDbLine
 10
821.5494844725482
 20
1493.643702698764
 30
0.0
 11
821.549484472548
 21
1193.643702698764
 31
0.0
  0
INSERT
  5
3220
330
3DD
100
AcDbEntity
  8
実形
 62
     0
370
    18
100
AcDbBlockReference
  2
_DotSmall
 10
821.5494844725482
 20
1493.643702698764
 30
0.0
 41
35.0
 42
35.0
 43
35.0
 50
90.0
  0
INSERT
  5
3221
330
3DD
100
AcDbEntity
  8
実形
 62
     0
370
    18
100
AcDbBlockReference
  2
_DotSmall
 10
821.549484472548
 20
1193.643702698764
 30
0.0
 41
35.0
 42
35.0
 43
35.0
 50
270.0
  0
MTEXT
  5
3222
330
3DD
100
AcDbEntity
  8
実形
 62
     0
100
AcDbMText
 10
802.799484472548
 20
1343.643702698764
 30
0.0
 40
25.0
 41
0.0
 71
     5
 72
     1
  1
300
 11
0.0000000000000001
 21
1.0
 31
0.0
 73
     1
 44
1.0
1001
ACAD
1000
MTEXTBEGIN
1070
    73
1070
     1
1070
    44
1040
1.0
1070
    74
1070
     0
1000
MTEXTEND
  0
POINT
  5
3223
330
3DD
100
AcDbEntity
  8
Defpoints
 62
     0
100
AcDbPoint
 10
1000.48707276931
 20
1493.643702698764
 30
0.0
  0
POINT
  5
3224
330
3DD
100
AcDbEntity
  8
Defpoints
 62
     0
100
AcDbPoint
 10
998.8642961676259
 20
1193.643702698764
 30
0.0
  0
POINT
  5
3225
330
3DD
100
AcDbEntity
  8
Defpoints
 62
     0
100
AcDbPoint
 10
821.549484472548
 20
1193.643702698764
 30
0.0
  0
ENDBLK
  5
3E8
330
3DD
100
AcDbEntity
  8
0
100
AcDbBlockEnd
  0
BLOCK
  5
401
330
3F7
100
AcDbEntity
  8
0
100
AcDbBlockBegin
  2
*D8
 70
     1
 10
0.0
 20
0.0
 30
0.0
  3
*D8
  1

  0
LINE
  5
31DC
330
3F7
100
AcDbEntity
  8
実形
 62
     0
370
    15
100
AcDbLine
 10
935.4870727693096
 20
1528.643702698764
 30
0.0
 11
753.5494844725482
 21
1528.643702698764
 31
0.0
  0
LINE
  5
31DD
330
3F7
100
AcDbEntity
  8
実形
 62
     0
370
    15
100
AcDbLine
 10
935.4870727693096
 20
1158.643702698764
 30
0.0
 11
753.5494844725481
 21
1158.643702698764
 31
0.0
  0
LINE
  5
31DE
330
3F7
100
AcDbEntity
  8
実形
 62
     0
370
    18
100
AcDbLine
 10
753.5494844725482
 20
1528.643702698764
 30
0.0
 11
753.5494844725481
 21
1158.643702698764
 31
0.0
  0
INSERT
  5
31DF
330
3F7
100
AcDbEntity
  8
実形
 62
     0
370
    18
100
AcDbBlockReference
  2
_DotSmall
 10
753.5494844725482
 20
1528.643702698764
 30
0.0
 41
35.0
 42
35.0
 43
35.0
 50
90.0
  0
INSERT
  5
31E0
330
3F7
100
AcDbEntity
  8
実形
 62
     0
370
    18
100
AcDbBlockReference
  2
_DotSmall
 10
753.5494844725481
 20
1158.643702698764
 30
0.0
 41
35.0
 42
35.0
 43
35.0
 50
270.0
  0
MTEXT
  5
31E1
330
3F7
100
AcDbEntity
  8
実形
 62
     0
100
AcDbMText
 10
734.7994844725479
 20
1343.643702698764
 30
0.0
 40
25.0
 41
0.0
 71
     5
 72
     1
  1
370
 11
0.0000000000000001
 21
1.0
 31
0.0
 73
     1
 44
1.0
1001
ACAD
1000
MTEXTBEGIN
1070
    73
1070
     1
1070
    44
1040
1.0
1070
    74
1070
     0
1000
MTEXTEND
  0
POINT
  5
31E2
330
3F7
100
AcDbEntity
  8
Defpoints
 62
     0
100
AcDbPoint
 10
1000.48707276931
 20
1528.643702698764
 30
0.0
  0
POINT
  5
31E3
330
3F7
100
AcDbEntity
  8
Defpoints
 62
     0
100
AcDbPoint
 10
1000.48707276931
 20
1158.643702698764
 30
0.0
  0
POINT
  5
31E4
330
3F7
100
AcDbEntity
  8
Defpoints
 62
     0
100
AcDbPoint
 10
753.5494844725481
 20
1158.643702698764
 30
0.0
  0
ENDBLK
  5
402
330
3F7
100
AcDbEntity
  8
0
100
AcDbBlockEnd
  0
BLOCK
  5
456
330
44C
100
AcDbEntity
  8
0
100
AcDbBlockBegin
  2
*D9
 70
     1
 10
0.0
 20
0.0
 30
0.0
  3
*D9
  1

  0
LINE
  5
3241
330
44C
100
AcDbEntity
  8
実形
 62
     0
370
    15
100
AcDbLine
 10
1015.487072769309
 20
1113.643702698764
 30
0.0
 11
1015.487072769309
 21
1025.71158492871
 31
0.0
  0
LINE
  5
3242
330
44C
100
AcDbEntity
  8
実形
 62
     0
370
    15
100
AcDbLine
 10
1315.487072769309
 20
1112.020926097081
 30
0.0
 11
1315.487072769309
 21
1025.71158492871
 31
0.0
  0
LINE
  5
3243
330
44C
100
AcDbEntity
  8
実形
 62
     0
370
    18
100
AcDbLine
 10
1015.487072769309
 20
1025.71158492871
 30
0.0
 11
1315.487072769309
 21
1025.71158492871
 31
0.0
  0
MTEXT
  5
3244
330
44C
100
AcDbEntity
  8
実形
 62
     0
100
AcDbMText
 10
1169.896242750164
 20
1050.325941437018
 30
0.0
 40
25.0
 41
0.0
 71
     5
 72
     1
  1
300
 73
     1
 44
1.0
1001
ACAD
1000
MTEXTBEGIN
1070
    73
1070
     1
1070
    44
1040
1.0
1070
    74
1070
     0
1000
MTEXTEND
  0
INSERT
  5
3245
330
44C
100
AcDbEntity
  8
実形
 62
     0
370
    18
100
AcDbBlockReference
  2
_DotSmall
 10
1015.487072769309
 20
1025.71158492871
 30
0.0
 41
35.0
 42
35.0
 43
35.0
 50
180.0
  0
INSERT
  5
3246
330
44C
100
AcDbEntity
  8
実形
 62
     0
370
    18
100
AcDbBlockReference
  2
_DotSmall
 10
1315.487072769309
 20
1025.71158492871
 30
0.0
 41
35.0
 42
35.0
 43
35.0
  0
POINT
  5
3247
330
44C
100
AcDbEntity
  8
Defpoints
 62
     0
100
AcDbPoint
 10
1015.487072769309
 20
1178.643702698764
 30
0.0
  0
POINT
  5
3248
330
44C
100
AcDbEntity
  8
Defpoints
 62
     0
100
AcDbPoint
 10
1315.487072769309
 20
1177.020926097081
 30
0.0
  0
POINT
  5
3249
330
44C
100
AcDbEntity
  8
Defpoints
 62
     0
100
AcDbPoint
 10
1315.487072769309
 20
1025.71158492871
 30
0.0
  0
ENDBLK
  5
457
330
44C
100
AcDbEntity
  8
0
100
AcDbBlockEnd
  0
BLOCK
  5
4AE
330
4A4
100
AcDbEntity
  8
0
100
AcDbBlockBegin
  2
*D10
 70
     1
 10
0.0
 20
0.0
 30
0.0
  3
*D10
  1

  0
LINE
  5
3238
330
4A4
100
AcDbEntity
  8
実形
 62
     0
370
    15
100
AcDbLine
 10
980.4870727693096
 20
1110.643702698764
 30
0.0
 11
980.4870727693096
 21
947.9196747728401
 31
0.0
  0
LINE
  5
3239
330
4A4
100
AcDbEntity
  8
実形
 62
     0
370
    15
100
AcDbLine
 10
1350.48707276931
 20
1110.643702698764
 30
0.0
 11
1350.48707276931
 21
947.9196747728401
 31
0.0
  0
LINE
  5
323A
330
4A4
100
AcDbEntity
  8
実形
 62
     0
370
    18
100
AcDbLine
 10
980.4870727693096
 20
947.9196747728401
 30
0.0
 11
1350.48707276931
 21
947.9196747728401
 31
0.0
  0
INSERT
  5
323B
330
4A4
100
AcDbEntity
  8
実形
 62
     0
370
    18
100
AcDbBlockReference
  2
_DotSmall
 10
980.4870727693096
 20
947.9196747728401
 30
0.0
 41
35.0
 42
35.0
 43
35.0
 50
180.0
  0
INSERT
  5
323C
330
4A4
100
AcDbEntity
  8
実形
 62
     0
370
    18
100
AcDbBlockReference
  2
_DotSmall
 10
1350.48707276931
 20
947.9196747728401
 30
0.0
 41
35.0
 42
35.0
 43
35.0
  0
MTEXT
  5
323D
330
4A4
100
AcDbEntity
  8
実形
 62
     0
100
AcDbMText
 10
1165.487072769309
 20
966.6696747728401
 30
0.0
 40
25.0
 41
0.0
 71
     5
 72
     1
  1
370
 73
     1
 44
1.0
1001
ACAD
1000
MTEXTBEGIN
1070
    73
1070
     1
1070
    44
1040
1.0
1070
    74
1070
     0
1000
MTEXTEND
  0
POINT
  5
323E
330
4A4
100
AcDbEntity
  8
Defpoints
 62
     0
100
AcDbPoint
 10
980.4870727693096
 20
1175.643702698764
 30
0.0
  0
POINT
  5
323F
330
4A4
100
AcDbEntity
  8
Defpoints
 62
     0
100
AcDbPoint
 10
1350.48707276931
 20
1175.643702698764
 30
0.0
  0
POINT
  5
3240
330
4A4
100
AcDbEntity
  8
Defpoints
 62
     0
100
AcDbPoint
 10
1350.48707276931
 20
947.9196747728401
 30
0.0
  0
ENDBLK
  5
4AF
330
4A4
100
AcDbEntity
  8
0
100
AcDbBlockEnd
  0
BLOCK
  5
4CA
330
4BF
100
AcDbEntity
  8
0
100
AcDbBlockBegin
  2
*D11
 70
     1
 10
0.0
 20
0.0
 30
0.0
  3
*D11
  1

  0
LINE
  5
3154
330
4BF
100
AcDbEntity
  8
実形
 62
     0
370
    15
100
AcDbLine
 10
1395.48707276931
 20
603.6437026987642
 30
0.0
 11
1439.378823257017
 21
603.6437026987642
 31
0.0
  0
LINE
  5
3155
330
4BF
100
AcDbEntity
  8
実形
 62
     0
370
    15
100
AcDbLine
 10
1395.48707276931
 20
588.6437026987643
 30
0.0
 11
1439.378823257017
 21
588.6437026987643
 31
0.0
  0
LINE
  5
3156
330
4BF
100
AcDbEntity
  8
実形
 62
     0
370
    18
100
AcDbLine
 10
1439.378823257017
 20
603.6437026987642
 30
0.0
 11
1439.378823257017
 21
588.6437026987643
 31
0.0
  0
INSERT
  5
3157
330
4BF
100
AcDbEntity
  8
実形
 62
     0
370
    18
100
AcDbBlockReference
  2
_DotSmall
 10
1439.378823257017
 20
603.6437026987642
 30
0.0
 41
35.0
 42
35.0
 43
35.0
 50
90.0
  0
INSERT
  5
3158
330
4BF
100
AcDbEntity
  8
実形
 62
     0
370
    18
100
AcDbBlockReference
  2
_DotSmall
 10
1439.378823257017
 20
588.6437026987643
 30
0.0
 41
35.0
 42
35.0
 43
35.0
 50
270.0
  0
POINT
  5
3159
330
4BF
100
AcDbEntity
  8
Defpoints
 62
     0
100
AcDbPoint
 10
1330.487072769309
 20
603.6437026987642
 30
0.0
  0
POINT
  5
315A
330
4BF
100
AcDbEntity
  8
Defpoints
 62
     0
100
AcDbPoint
 10
1330.487072769309
 20
588.6437026987643
 30
0.0
  0
POINT
  5
315B
330
4BF
100
AcDbEntity
  8
Defpoints
 62
     0
100
AcDbPoint
 10
1439.378823257017
 20
588.6437026987643
 30
0.0
  0
ENDBLK
  5
4CB
330
4BF
100
AcDbEntity
  8
0
100
AcDbBlockEnd
  0
BLOCK
  5
4D7
330
4CD
100
AcDbEntity
  8
0
100
AcDbBlockBegin
  2
*D12
 70
     1
 10
0.0
 20
0.0
 30
0.0
  3
*D12
  1

  0
LINE
  5
3139
330
4CD
100
AcDbEntity
  8
実形
 62
     0
370
    15
100
AcDbLine
 10
1383.48707276931
 20
738.6437026987643
 30
0.0
 11
1478.119447591898
 21
738.6437026987643
 31
0.0
  0
LINE
  5
313A
330
4CD
100
AcDbEntity
  8
実形
 62
     0
370
    15
100
AcDbLine
 10
1395.48707276931
 20
588.6437026987643
 30
0.0
 11
1478.119447591898
 21
588.6437026987643
 31
0.0
  0
LINE
  5
313B
330
4CD
100
AcDbEntity
  8
実形
 62
     0
370
    18
100
AcDbLine
 10
1478.119447591898
 20
738.6437026987643
 30
0.0
 11
1478.119447591898
 21
588.6437026987643
 31
0.0
  0
INSERT
  5
313C
330
4CD
100
AcDbEntity
  8
実形
 62
     0
370
    18
100
AcDbBlockReference
  2
_DotSmall
 10
1478.119447591898
 20
738.6437026987643
 30
0.0
 41
35.0
 42
35.0
 43
35.0
 50
90.0
  0
INSERT
  5
313D
330
4CD
100
AcDbEntity
  8
実形
 62
     0
370
    18
100
AcDbBlockReference
  2
_DotSmall
 10
1478.119447591898
 20
588.6437026987643
 30
0.0
 41
35.0
 42
35.0
 43
35.0
 50
270.0
  0
MTEXT
  5
313E
330
4CD
100
AcDbEntity
  8
実形
 62
     0
100
AcDbMText
 10
1459.369447591898
 20
663.6437026987644
 30
0.0
 40
25.0
 41
0.0
 71
     5
 72
     1
  1
150
 11
0.0000000000000001
 21
1.0
 31
0.0
 73
     1
 44
1.0
1001
ACAD
1000
MTEXTBEGIN
1070
    73
1070
     1
1070
    44
1040
1.0
1070
    74
1070
     0
1000
MTEXTEND
  0
POINT
  5
313F
330
4CD
100
AcDbEntity
  8
Defpoints
 62
     0
100
AcDbPoint
 10
1318.48707276931
 20
738.6437026987643
 30
0.0
  0
POINT
  5
3140
330
4CD
100
AcDbEntity
  8
Defpoints
 62
     0
100
AcDbPoint
 10
1330.487072769309
 20
588.6437026987643
 30
0.0
  0
POINT
  5
3141
330
4CD
100
AcDbEntity
  8
Defpoints
 62
     0
100
AcDbPoint
 10
1478.119447591898
 20
588.6437026987643
 30
0.0
  0
ENDBLK
  5
4D8
330
4CD
100
AcDbEntity
  8
0
100
AcDbBlockEnd
  0
BLOCK
  5
503
330
4F9
100
AcDbEntity
  8
0
100
AcDbBlockBegin
  2
*D13
 70
     1
 10
0.0
 20
0.0
 30
0.0
  3
*D13
  1

  0
LINE
  5
314B
330
4F9
100
AcDbEntity
  8
実形
 62
     0
370
    15
100
AcDbLine
 10
1121.487072769309
 20
515.6437026987642
 30
0.0
 11
1121.487072769309
 21
467.9898148309721
 31
0.0
  0
LINE
  5
314C
330
4F9
100
AcDbEntity
  8
実形
 62
     0
370
    15
100
AcDbLine
 10
1209.48707276931
 20
515.6437026987642
 30
0.0
 11
1209.48707276931
 21
467.9898148309721
 31
0.0
  0
LINE
  5
314D
330
4F9
100
AcDbEntity
  8
実形
 62
     0
370
    18
100
AcDbLine
 10
1121.487072769309
 20
467.9898148309721
 30
0.0
 11
1209.48707276931
 21
467.9898148309721
 31
0.0
  0
INSERT
  5
314E
330
4F9
100
AcDbEntity
  8
実形
 62
     0
370
    18
100
AcDbBlockReference
  2
_DotSmall
 10
1121.487072769309
 20
467.9898148309721
 30
0.0
 41
35.0
 42
35.0
 43
35.0
 50
180.0
  0
INSERT
  5
314F
330
4F9
100
AcDbEntity
  8
実形
 62
     0
370
    18
100
AcDbBlockReference
  2
_DotSmall
 10
1209.48707276931
 20
467.9898148309721
 30
0.0
 41
35.0
 42
35.0
 43
35.0
  0
MTEXT
  5
3150
330
4F9
100
AcDbEntity
  8
実形
 62
     0
100
AcDbMText
 10
1165.487072769309
 20
486.7398148309721
 30
0.0
 40
25.0
 41
0.0
 71
     5
 72
     1
  1
88
 73
     1
 44
1.0
1001
ACAD
1000
MTEXTBEGIN
1070
    73
1070
     1
1070
    44
1040
1.0
1070
    74
1070
     0
1000
MTEXTEND
  0
POINT
  5
3151
330
4F9
100
AcDbEntity
  8
Defpoints
 62
     0
100
AcDbPoint
 10
1121.487072769309
 20
580.6437026987643
 30
0.0
  0
POINT
  5
3152
330
4F9
100
AcDbEntity
  8
Defpoints
 62
     0
100
AcDbPoint
 10
1209.48707276931
 20
580.6437026987643
 30
0.0
  0
POINT
  5
3153
330
4F9
100
AcDbEntity
  8
Defpoints
 62
     0
100
AcDbPoint
 10
1209.48707276931
 20
467.9898148309721
 30
0.0
  0
ENDBLK
  5
504
330
4F9
100
AcDbEntity
  8
0
100
AcDbBlockEnd
  0
BLOCK
  5
510
330
506
100
AcDbEntity
  8
0
100
AcDbBlockBegin
  2
*D14
 70
     1
 10
0.0
 20
0.0
 30
0.0
  3
*D14
  1

  0
LINE
  5
3142
330
506
100
AcDbEntity
  8
実形
 62
     0
370
    15
100
AcDbLine
 10
1107.487072769309
 20
515.6437026987642
 30
0.0
 11
1107.487072769309
 21
423.520656059698
 31
0.0
  0
LINE
  5
3143
330
506
100
AcDbEntity
  8
実形
 62
     0
370
    15
100
AcDbLine
 10
1223.487072769309
 20
515.6437026987642
 30
0.0
 11
1223.487072769309
 21
423.520656059698
 31
0.0
  0
LINE
  5
3144
330
506
100
AcDbEntity
  8
実形
 62
     0
370
    18
100
AcDbLine
 10
1107.487072769309
 20
423.520656059698
 30
0.0
 11
1223.487072769309
 21
423.520656059698
 31
0.0
  0
INSERT
  5
3145
330
506
100
AcDbEntity
  8
実形
 62
     0
370
    18
100
AcDbBlockReference
  2
_DotSmall
 10
1107.487072769309
 20
423.520656059698
 30
0.0
 41
35.0
 42
35.0
 43
35.0
 50
180.0
  0
INSERT
  5
3146
330
506
100
AcDbEntity
  8
実形
 62
     0
370
    18
100
AcDbBlockReference
  2
_DotSmall
 10
1223.487072769309
 20
423.520656059698
 30
0.0
 41
35.0
 42
35.0
 43
35.0
  0
MTEXT
  5
3147
330
506
100
AcDbEntity
  8
実形
 62
     0
100
AcDbMText
 10
1165.487072769309
 20
442.270656059698
 30
0.0
 40
25.0
 41
0.0
 71
     5
 72
     1
  1
116
 73
     1
 44
1.0
1001
ACAD
1000
MTEXTBEGIN
1070
    73
1070
     1
1070
    44
1040
1.0
1070
    74
1070
     0
1000
MTEXTEND
  0
POINT
  5
3148
330
506
100
AcDbEntity
  8
Defpoints
 62
     0
100
AcDbPoint
 10
1107.487072769309
 20
580.6437026987643
 30
0.0
  0
POINT
  5
3149
330
506
100
AcDbEntity
  8
Defpoints
 62
     0
100
AcDbPoint
 10
1223.487072769309
 20
580.6437026987643
 30
0.0
  0
POINT
  5
314A
330
506
100
AcDbEntity
  8
Defpoints
 62
     0
100
AcDbPoint
 10
1223.487072769309
 20
423.520656059698
 30
0.0
  0
ENDBLK
  5
511
330
506
100
AcDbEntity
  8
0
100
AcDbBlockEnd
  0
BLOCK
  5
53E
330
533
100
AcDbEntity
  8
0
100
AcDbBlockBegin
  2
*D15
 70
     1
 10
0.0
 20
0.0
 30
0.0
  3
*D15
  1

  0
LINE
  5
3280
330
533
100
AcDbEntity
  8
実形
 62
     0
370
    15
100
AcDbLine
 10
1830.487072769309
 20
1113.643702698764
 30
0.0
 11
1830.487072769309
 21
1025.71158492871
 31
0.0
  0
LINE
  5
3281
330
533
100
AcDbEntity
  8
実形
 62
     0
370
    15
100
AcDbLine
 10
1815.487072769309
 20
1113.643702698764
 30
0.0
 11
1815.487072769309
 21
1025.71158492871
 31
0.0
  0
LINE
  5
3282
330
533
100
AcDbEntity
  8
実形
 62
     0
370
    18
100
AcDbLine
 10
1830.487072769309
 20
1025.71158492871
 30
0.0
 11
1815.487072769309
 21
1025.71158492871
 31
0.0
  0
INSERT
  5
3283
330
533
100
AcDbEntity
  8
実形
 62
     0
370
    18
100
AcDbBlockReference
  2
_DotSmall
 10
1830.487072769309
 20
1025.71158492871
 30
0.0
 41
35.0
 42
35.0
 43
35.0
  0
INSERT
  5
3284
330
533
100
AcDbEntity
  8
実形
 62
     0
370
    18
100
AcDbBlockReference
  2
_DotSmall
 10
1815.487072769309
 20
1025.71158492871
 30
0.0
 41
35.0
 42
35.0
 43
35.0
 50
180.0
  0
POINT
  5
3285
330
533
100
AcDbEntity
  8
Defpoints
 62
     0
100
AcDbPoint
 10
1830.487072769309
 20
1178.643702698764
 30
0.0
  0
POINT
  5
3286
330
533
100
AcDbEntity
  8
Defpoints
 62
     0
100
AcDbPoint
 10
1815.487072769309
 20
1178.643702698764
 30
0.0
  0
POINT
  5
3287
330
533
100
AcDbEntity
  8
Defpoints
 62
     0
100
AcDbPoint
 10
1815.487072769309
 20
1025.71158492871
 30
0.0
  0
ENDBLK
  5
53F
330
533
100
AcDbEntity
  8
0
100
AcDbBlockEnd
  0
BLOCK
  5
553
330
549
100
AcDbEntity
  8
0
100
AcDbBlockBegin
  2
*D16
 70
     1
 10
0.0
 20
0.0
 30
0.0
  3
*D16
  1

  0
LINE
  5
3277
330
549
100
AcDbEntity
  8
実形
 62
     0
370
    15
100
AcDbLine
 10
1830.487072769309
 20
1113.643702698764
 30
0.0
 11
1830.487072769309
 21
945.7321747728402
 31
0.0
  0
LINE
  5
3278
330
549
100
AcDbEntity
  8
実形
 62
     0
370
    15
100
AcDbLine
 10
1680.487072769309
 20
1113.643702698764
 30
0.0
 11
1680.487072769309
 21
945.7321747728402
 31
0.0
  0
LINE
  5
3279
330
549
100
AcDbEntity
  8
実形
 62
     0
370
    18
100
AcDbLine
 10
1830.487072769309
 20
945.7321747728402
 30
0.0
 11
1680.487072769309
 21
945.7321747728402
 31
0.0
  0
INSERT
  5
327A
330
549
100
AcDbEntity
  8
実形
 62
     0
370
    18
100
AcDbBlockReference
  2
_DotSmall
 10
1830.487072769309
 20
945.7321747728402
 30
0.0
 41
35.0
 42
35.0
 43
35.0
  0
INSERT
  5
327B
330
549
100
AcDbEntity
  8
実形
 62
     0
370
    18
100
AcDbBlockReference
  2
_DotSmall
 10
1680.487072769309
 20
945.7321747728402
 30
0.0
 41
35.0
 42
35.0
 43
35.0
 50
180.0
  0
MTEXT
  5
327C
330
549
100
AcDbEntity
  8
実形
 62
     0
100
AcDbMText
 10
1755.487072769309
 20
964.4821747728402
 30
0.0
 40
25.0
 41
0.0
 71
     5
 72
     1
  1
150
 73
     1
 44
1.0
1001
ACAD
1000
MTEXTBEGIN
1070
    73
1070
     1
1070
    44
1040
1.0
1070
    74
1070
     0
1000
MTEXTEND
  0
POINT
  5
327D
330
549
100
AcDbEntity
  8
Defpoints
 62
     0
100
AcDbPoint
 10
1830.487072769309
 20
1178.643702698764
 30
0.0
  0
POINT
  5
327E
330
549
100
AcDbEntity
  8
Defpoints
 62
     0
100
AcDbPoint
 10
1680.487072769309
 20
1178.643702698764
 30
0.0
  0
POINT
  5
327F
330
549
100
AcDbEntity
  8
Defpoints
 62
     0
100
AcDbPoint
 10
1680.487072769309
 20
945.7321747728402
 30
0.0
  0
ENDBLK
  5
554
330
549
100
AcDbEntity
  8
0
100
AcDbBlockEnd
  0
BLOCK
  5
574
330
56A
100
AcDbEntity
  8
0
100
AcDbBlockBegin
  2
*D17
 70
     1
 10
0.0
 20
0.0
 30
0.0
  3
*D17
  1

  0
LINE
  5
3291
330
56A
100
AcDbEntity
  8
実形
 62
     0
370
    15
100
AcDbLine
 10
1903.48707276931
 20
1387.643702698764
 30
0.0
 11
1949.724362349555
 21
1387.643702698764
 31
0.0
  0
LINE
  5
3292
330
56A
100
AcDbEntity
  8
実形
 62
     0
370
    15
100
AcDbLine
 10
1903.48707276931
 20
1299.643702698764
 30
0.0
 11
1949.724362349555
 21
1299.643702698764
 31
0.0
  0
LINE
  5
3293
330
56A
100
AcDbEntity
  8
実形
 62
     0
370
    18
100
AcDbLine
 10
1949.724362349555
 20
1387.643702698764
 30
0.0
 11
1949.724362349555
 21
1299.643702698764
 31
0.0
  0
INSERT
  5
3294
330
56A
100
AcDbEntity
  8
実形
 62
     0
370
    18
100
AcDbBlockReference
  2
_DotSmall
 10
1949.724362349555
 20
1387.643702698764
 30
0.0
 41
35.0
 42
35.0
 43
35.0
 50
90.0
  0
INSERT
  5
3295
330
56A
100
AcDbEntity
  8
実形
 62
     0
370
    18
100
AcDbBlockReference
  2
_DotSmall
 10
1949.724362349555
 20
1299.643702698764
 30
0.0
 41
35.0
 42
35.0
 43
35.0
 50
270.0
  0
MTEXT
  5
3296
330
56A
100
AcDbEntity
  8
実形
 62
     0
100
AcDbMText
 10
1930.974362349555
 20
1343.643702698764
 30
0.0
 40
25.0
 41
0.0
 71
     5
 72
     1
  1
88
 11
0.0000000000000001
 21
1.0
 31
0.0
 73
     1
 44
1.0
1001
ACAD
1000
MTEXTBEGIN
1070
    73
1070
     1
1070
    44
1040
1.0
1070
    74
1070
     0
1000
MTEXTEND
  0
POINT
  5
3297
330
56A
100
AcDbEntity
  8
Defpoints
 62
     0
100
AcDbPoint
 10
1838.48707276931
 20
1387.643702698764
 30
0.0
  0
POINT
  5
3298
330
56A
100
AcDbEntity
  8
Defpoints
 62
     0
100
AcDbPoint
 10
1838.48707276931
 20
1299.643702698764
 30
0.0
  0
POINT
  5
3299
330
56A
100
AcDbEntity
  8
Defpoints
 62
     0
100
AcDbPoint
 10
1949.724362349555
 20
1299.643702698764
 30
0.0
  0
ENDBLK
  5
575
330
56A
100
AcDbEntity
  8
0
100
AcDbBlockEnd
  0
BLOCK
  5
58A
330
580
100
AcDbEntity
  8
0
100
AcDbBlockBegin
  2
*D18
 70
     1
 10
0.0
 20
0.0
 30
0.0
  3
*D18
  1

  0
LINE
  5
3288
330
580
100
AcDbEntity
  8
実形
 62
     0
370
    15
100
AcDbLine
 10
1903.48707276931
 20
1401.643702698764
 30
0.0
 11
1997.528541853197
 21
1401.643702698764
 31
0.0
  0
LINE
  5
3289
330
580
100
AcDbEntity
  8
実形
 62
     0
370
    15
100
AcDbLine
 10
1903.48707276931
 20
1285.643702698764
 30
0.0
 11
1997.528541853197
 21
1285.643702698764
 31
0.0
  0
LINE
  5
328A
330
580
100
AcDbEntity
  8
実形
 62
     0
370
    18
100
AcDbLine
 10
1997.528541853197
 20
1401.643702698764
 30
0.0
 11
1997.528541853197
 21
1285.643702698764
 31
0.0
  0
INSERT
  5
328B
330
580
100
AcDbEntity
  8
実形
 62
     0
370
    18
100
AcDbBlockReference
  2
_DotSmall
 10
1997.528541853197
 20
1401.643702698764
 30
0.0
 41
35.0
 42
35.0
 43
35.0
 50
90.0
  0
INSERT
  5
328C
330
580
100
AcDbEntity
  8
実形
 62
     0
370
    18
100
AcDbBlockReference
  2
_DotSmall
 10
1997.528541853197
 20
1285.643702698764
 30
0.0
 41
35.0
 42
35.0
 43
35.0
 50
270.0
  0
MTEXT
  5
328D
330
580
100
AcDbEntity
  8
実形
 62
     0
100
AcDbMText
 10
1978.778541853197
 20
1343.643702698764
 30
0.0
 40
25.0
 41
0.0
 71
     5
 72
     1
  1
116
 11
0.0000000000000001
 21
1.0
 31
0.0
 73
     1
 44
1.0
1001
ACAD
1000
MTEXTBEGIN
1070
    73
1070
     1
1070
    44
1040
1.0
1070
    74
1070
     0
1000
MTEXTEND
  0
POINT
  5
328E
330
580
100
AcDbEntity
  8
Defpoints
 62
     0
100
AcDbPoint
 10
1838.48707276931
 20
1401.643702698764
 30
0.0
  0
POINT
  5
328F
330
580
100
AcDbEntity
  8
Defpoints
 62
     0
100
AcDbPoint
 10
1838.48707276931
 20
1285.643702698764
 30
0.0
  0
POINT
  5
3290
330
580
100
AcDbEntity
  8
Defpoints
 62
     0
100
AcDbPoint
 10
1997.528541853197
 20
1285.643702698764
 30
0.0
  0
ENDBLK
  5
58B
330
580
100
AcDbEntity
  8
0
100
AcDbBlockEnd
  0
BLOCK
  5
1749
330
173E
100
AcDbEntity
  8
0
100
AcDbBlockBegin
  2
*D19
 70
     1
 10
0.0
 20
0.0
 30
0.0
  3
*D19
  1

  0
LINE
  5
32D9
330
173E
100
AcDbEntity
  8
実形
 62
     0
370
    18
100
AcDbLine
 10
1015.487072769309
 20
1113.643702698764
 30
0.0
 11
1015.487072769309
 21
1025.71158492871
 31
0.0
  0
LINE
  5
32DA
330
173E
100
AcDbEntity
  8
実形
 62
     0
370
    18
100
AcDbLine
 10
980.4870727693096
 20
1113.643702698764
 30
0.0
 11
980.4870727693096
 21
1025.71158492871
 31
0.0
  0
LINE
  5
32DB
330
173E
100
AcDbEntity
  8
実形
 62
     0
370
    18
100
AcDbLine
 10
1015.487072769309
 20
1025.71158492871
 30
0.0
 11
980.4870727693096
 21
1025.71158492871
 31
0.0
  0
MTEXT
  5
32DC
330
173E
100
AcDbEntity
  8
実形
 62
     0
100
AcDbMText
 10
947.8613460838387
 20
1023.908315631444
 30
0.0
 40
25.0
 41
0.0
 71
     5
 72
     1
  1
33
 73
     1
 44
1.0
1001
ACAD
1000
MTEXTBEGIN
1070
    73
1070
     1
1070
    44
1040
1.0
1070
    74
1070
     0
1000
MTEXTEND
  0
INSERT
  5
32DD
330
173E
100
AcDbEntity
  8
実形
 62
     0
370
    18
100
AcDbBlockReference
  2
_DotSmall
 10
1015.487072769309
 20
1025.71158492871
 30
0.0
 41
35.0
 42
35.0
 43
35.0
  0
INSERT
  5
32DE
330
173E
100
AcDbEntity
  8
実形
 62
     0
370
    18
100
AcDbBlockReference
  2
_DotSmall
 10
980.4870727693096
 20
1025.71158492871
 30
0.0
 41
35.0
 42
35.0
 43
35.0
 50
180.0
  0
POINT
  5
32DF
330
173E
100
AcDbEntity
  8
Defpoints
 62
     0
100
AcDbPoint
 10
1015.487072769309
 20
1178.643702698764
 30
0.0
  0
POINT
  5
32E0
330
173E
100
AcDbEntity
  8
Defpoints
 62
     0
100
AcDbPoint
 10
980.4870727693096
 20
1178.643702698764
 30
0.0
  0
POINT
  5
32E1
330
173E
100
AcDbEntity
  8
Defpoints
 62
     0
100
AcDbPoint
 10
980.4870727693096
 20
1025.71158492871
 30
0.0
  0
ENDBLK
  5
174A
330
173E
100
AcDbEntity
  8
0
100
AcDbBlockEnd
  0
BLOCK
  5
17BA
330
17AF
100
AcDbEntity
  8
0
100
AcDbBlockBegin
  2
*D20
 70
     1
 10
0.0
 20
0.0
 30
0.0
  3
*D20
  1

  0
LINE
  5
320B
330
17AF
100
AcDbEntity
  8
実形
 62
     0
370
    18
100
AcDbLine
 10
933.8642961676258
 20
1193.643702698764
 30
0.0
 11
821.5494844725483
 21
1193.643702698764
 31
0.0
  0
LINE
  5
320C
330
17AF
100
AcDbEntity
  8
実形
 62
     0
370
    18
100
AcDbLine
 10
935.4870727693096
 20
1158.643702698764
 30
0.0
 11
821.5494844725483
 21
1158.643702698764
 31
0.0
  0
LINE
  5
320D
330
17AF
100
AcDbEntity
  8
実形
 62
     0
370
    18
100
AcDbLine
 10
821.5494844725483
 20
1193.643702698764
 30
0.0
 11
821.5494844725483
 21
1158.643702698764
 31
0.0
  0
MTEXT
  5
320E
330
17AF
100
AcDbEntity
  8
実形
 62
     0
100
AcDbMText
 10
800.8911902118416
 20
1186.475732011184
 30
0.0
 40
25.0
 41
0.0
 71
     5
 72
     1
  1
33
 11
0.0000000000000001
 21
1.0
 31
0.0
 73
     1
 44
1.0
1001
ACAD
1000
MTEXTBEGIN
1070
    73
1070
     1
1070
    44
1040
1.0
1070
    74
1070
     0
1000
MTEXTEND
  0
INSERT
  5
320F
330
17AF
100
AcDbEntity
  8
実形
 62
     0
370
    18
100
AcDbBlockReference
  2
_DotSmall
 10
821.5494844725483
 20
1193.643702698764
 30
0.0
 41
35.0
 42
35.0
 43
35.0
 50
90.0
  0
INSERT
  5
3210
330
17AF
100
AcDbEntity
  8
実形
 62
     0
370
    18
100
AcDbBlockReference
  2
_DotSmall
 10
821.5494844725483
 20
1158.643702698764
 30
0.0
 41
35.0
 42
35.0
 43
35.0
 50
270.0
  0
POINT
  5
3211
330
17AF
100
AcDbEntity
  8
Defpoints
 62
     0
100
AcDbPoint
 10
998.8642961676259
 20
1193.643702698764
 30
0.0
  0
POINT
  5
3212
330
17AF
100
AcDbEntity
  8
Defpoints
 62
     0
100
AcDbPoint
 10
1000.48707276931
 20
1158.643702698764
 30
0.0
  0
POINT
  5
3213
330
17AF
100
AcDbEntity
  8
Defpoints
 62
     0
100
AcDbPoint
 10
821.5494844725483
 20
1158.643702698764
 30
0.0
  0
ENDBLK
  5
17BB
330
17AF
100
AcDbEntity
  8
0
100
AcDbBlockEnd
  0
BLOCK
  5
22F8
330
22ED
100
AcDbEntity
  8
0
100
AcDbBlockBegin
  2
*D21
 70
     1
 10
0.0
 20
0.0
 30
0.0
  3
*D21
  1

  0
LINE
  5
32B5
330
22ED
100
AcDbEntity
  8
実形
 62
     0
370
    18
100
AcDbLine
 10
935.4870727693096
 20
1528.643702698764
 30
0.0
 11
889.5494844725481
 21
1528.643702698764
 31
0.0
  0
LINE
  5
32B6
330
22ED
100
AcDbEntity
  8
実形
 62
     0
370
    18
100
AcDbLine
 10
935.4870727693096
 20
1508.643702698764
 30
0.0
 11
889.5494844725481
 21
1508.643702698764
 31
0.0
  0
LINE
  5
32B7
330
22ED
100
AcDbEntity
  8
実形
 62
     0
370
    18
100
AcDbLine
 10
889.5494844725481
 20
1528.643702698764
 30
0.0
 11
889.5494844725481
 21
1508.643702698764
 31
0.0
  0
MTEXT
  5
32B8
330
22ED
100
AcDbEntity
  8
実形
 62
     0
100
AcDbMText
 10
868.2006137418065
 20
1555.930677570225
 30
0.0
 40
25.0
 41
0.0
 71
     5
 72
     1
  1
20
 11
0.0000000000000001
 21
1.0
 31
0.0
 73
     1
 44
1.0
1001
ACAD
1000
MTEXTBEGIN
1070
    73
1070
     1
1070
    44
1040
1.0
1070
    74
1070
     0
1000
MTEXTEND
  0
INSERT
  5
32B9
330
22ED
100
AcDbEntity
  8
実形
 62
     0
370
    18
100
AcDbBlockReference
  2
_DotSmall
 10
889.5494844725481
 20
1528.643702698764
 30
0.0
 41
35.0
 42
35.0
 43
35.0
 50
90.0
  0
INSERT
  5
32BA
330
22ED
100
AcDbEntity
  8
実形
 62
     0
370
    18
100
AcDbBlockReference
  2
_DotSmall
 10
889.5494844725481
 20
1508.643702698764
 30
0.0
 41
35.0
 42
35.0
 43
35.0
 50
270.0
  0
POINT
  5
32BB
330
22ED
100
AcDbEntity
  8
Defpoints
 62
     0
100
AcDbPoint
 10
1000.48707276931
 20
1528.643702698764
 30
0.0
  0
POINT
  5
32BC
330
22ED
100
AcDbEntity
  8
Defpoints
 62
     0
100
AcDbPoint
 10
1000.48707276931
 20
1508.643702698764
 30
0.0
  0
POINT
  5
32BD
330
22ED
100
AcDbEntity
  8
Defpoints
 62
     0
100
AcDbPoint
 10
889.5494844725481
 20
1508.643702698764
 30
0.0
  0
ENDBLK
  5
22F9
330
22ED
100
AcDbEntity
  8
0
100
AcDbBlockEnd
  0
BLOCK
  5
2305
330
22FB
100
AcDbEntity
  8
0
100
AcDbBlockBegin
  2
*D22
 70
     1
 10
0.0
 20
0.0
 30
0.0
  3
*D22
  1

  0
LINE
  5
32BE
330
22FB
100
AcDbEntity
  8
実形
 62
     0
370
    18
100
AcDbLine
 10
935.4870727693096
 20
1508.643702698764
 30
0.0
 11
889.5494844725481
 21
1508.643702698764
 31
0.0
  0
LINE
  5
32BF
330
22FB
100
AcDbEntity
  8
実形
 62
     0
370
    18
100
AcDbLine
 10
935.4870727693096
 20
1493.643702698764
 30
0.0
 11
889.5494844725481
 21
1493.643702698764
 31
0.0
  0
LINE
  5
32C0
330
22FB
100
AcDbEntity
  8
実形
 62
     0
370
    18
100
AcDbLine
 10
889.5494844725481
 20
1508.643702698764
 30
0.0
 11
889.5494844725481
 21
1493.643702698764
 31
0.0
  0
MTEXT
  5
32C1
330
22FB
100
AcDbEntity
  8
実形
 62
     0
100
AcDbMText
 10
872.6360826561741
 20
1465.506845024861
 30
0.0
 40
25.0
 41
0.0
 71
     5
 72
     1
  1
15
 11
0.0000000000000001
 21
1.0
 31
0.0
 73
     1
 44
1.0
1001
ACAD
1000
MTEXTBEGIN
1070
    73
1070
     1
1070
    44
1040
1.0
1070
    74
1070
     0
1000
MTEXTEND
  0
INSERT
  5
32C2
330
22FB
100
AcDbEntity
  8
実形
 62
     0
370
    18
100
AcDbBlockReference
  2
_DotSmall
 10
889.5494844725481
 20
1508.643702698764
 30
0.0
 41
35.0
 42
35.0
 43
35.0
 50
90.0
  0
INSERT
  5
32C3
330
22FB
100
AcDbEntity
  8
実形
 62
     0
370
    18
100
AcDbBlockReference
  2
_DotSmall
 10
889.5494844725481
 20
1493.643702698764
 30
0.0
 41
35.0
 42
35.0
 43
35.0
 50
270.0
  0
POINT
  5
32C4
330
22FB
100
AcDbEntity
  8
Defpoints
 62
     0
100
AcDbPoint
 10
1000.48707276931
 20
1508.643702698764
 30
0.0
  0
POINT
  5
32C5
330
22FB
100
AcDbEntity
  8
Defpoints
 62
     0
100
AcDbPoint
 10
1000.48707276931
 20
1493.643702698764
 30
0.0
  0
POINT
  5
32C6
330
22FB
100
AcDbEntity
  8
Defpoints
 62
     0
100
AcDbPoint
 10
889.5494844725481
 20
1493.643702698764
 30
0.0
  0
ENDBLK
  5
2306
330
22FB
100
AcDbEntity
  8
0
100
AcDbBlockEnd
  0
BLOCK
  5
2345
330
233A
100
AcDbEntity
  8
0
100
AcDbBlockBegin
  2
*D23
 70
     1
 10
0.0
 20
0.0
 30
0.0
  3
*D23
  1

  0
LINE
  5
3253
330
233A
100
AcDbEntity
  8
実形
 62
     0
370
    18
100
AcDbLine
 10
980.4870727693096
 20
1113.643702698764
 30
0.0
 11
980.4870727693096
 21
1075.197210514488
 31
0.0
  0
LINE
  5
3254
330
233A
100
AcDbEntity
  8
実形
 62
     0
370
    18
100
AcDbLine
 10
1000.48707276931
 20
1113.643702698764
 30
0.0
 11
1000.48707276931
 21
1075.197210514488
 31
0.0
  0
LINE
  5
3255
330
233A
100
AcDbEntity
  8
実形
 62
     0
370
    18
100
AcDbLine
 10
980.4870727693096
 20
1075.197210514488
 30
0.0
 11
1000.48707276931
 21
1075.197210514488
 31
0.0
  0
MTEXT
  5
3256
330
233A
100
AcDbEntity
  8
実形
 62
     0
100
AcDbMText
 10
954.7657837183205
 20
1091.045750294493
 30
0.0
 40
25.0
 41
0.0
 71
     5
 72
     1
  1
20
 73
     1
 44
1.0
1001
ACAD
1000
MTEXTBEGIN
1070
    73
1070
     1
1070
    44
1040
1.0
1070
    74
1070
     0
1000
MTEXTEND
  0
INSERT
  5
3257
330
233A
100
AcDbEntity
  8
実形
 62
     0
370
    18
100
AcDbBlockReference
  2
_DotSmall
 10
980.4870727693096
 20
1075.197210514488
 30
0.0
 41
35.0
 42
35.0
 43
35.0
 50
180.0
  0
INSERT
  5
3258
330
233A
100
AcDbEntity
  8
実形
 62
     0
370
    18
100
AcDbBlockReference
  2
_DotSmall
 10
1000.48707276931
 20
1075.197210514488
 30
0.0
 41
35.0
 42
35.0
 43
35.0
  0
POINT
  5
3259
330
233A
100
AcDbEntity
  8
Defpoints
 62
     0
100
AcDbPoint
 10
980.4870727693096
 20
1178.643702698764
 30
0.0
  0
POINT
  5
325A
330
233A
100
AcDbEntity
  8
Defpoints
 62
     0
100
AcDbPoint
 10
1000.48707276931
 20
1178.643702698764
 30
0.0
  0
POINT
  5
325B
330
233A
100
AcDbEntity
  8
Defpoints
 62
     0
100
AcDbPoint
 10
1000.48707276931
 20
1075.197210514488
 30
0.0
  0
ENDBLK
  5
2346
330
233A
100
AcDbEntity
  8
0
100
AcDbBlockEnd
  0
BLOCK
  5
2354
330
2348
100
AcDbEntity
  8
0
100
AcDbBlockBegin
  2
*D24
 70
     1
 10
0.0
 20
0.0
 30
0.0
  3
*D24
  1

  0
LINE
  5
32E2
330
2348
100
AcDbEntity
  8
実形
 62
     0
370
    18
100
AcDbLine
 10
1000.48707276931
 20
1113.643702698764
 30
0.0
 11
1000.48707276931
 21
1075.197210514488
 31
0.0
  0
LINE
  5
32E3
330
2348
100
AcDbEntity
  8
実形
 62
     0
370
    18
100
AcDbLine
 10
1015.487072769309
 20
1113.643702698764
 30
0.0
 11
1015.487072769309
 21
1075.197210514488
 31
0.0
  0
LINE
  5
32E4
330
2348
100
AcDbEntity
  8
実形
 62
     0
370
    18
100
AcDbLine
 10
1000.48707276931
 20
1075.197210514488
 30
0.0
 11
1015.487072769309
 21
1075.197210514488
 31
0.0
  0
MTEXT
  5
32E5
330
2348
100
AcDbEntity
  8
実形
 62
     0
100
AcDbMText
 10
1042.496872418174
 20
1091.305295692237
 30
0.0
 40
25.0
 41
0.0
 71
     5
 72
     1
  1
15
 73
     1
 44
1.0
1001
ACAD
1000
MTEXTBEGIN
1070
    73
1070
     1
1070
    44
1040
1.0
1070
    74
1070
     0
1000
MTEXTEND
  0
INSERT
  5
32E6
330
2348
100
AcDbEntity
  8
実形
 62
     0
370
    18
100
AcDbBlockReference
  2
_DotSmall
 10
1000.48707276931
 20
1075.197210514488
 30
0.0
 41
35.0
 42
35.0
 43
35.0
 50
180.0
  0
INSERT
  5
32E7
330
2348
100
AcDbEntity
  8
実形
 62
     0
370
    18
100
AcDbBlockReference
  2
_DotSmall
 10
1015.487072769309
 20
1075.197210514488
 30
0.0
 41
35.0
 42
35.0
 43
35.0
  0
POINT
  5
32E8
330
2348
100
AcDbEntity
  8
Defpoints
 62
     0
100
AcDbPoint
 10
1000.48707276931
 20
1178.643702698764
 30
0.0
  0
POINT
  5
32E9
330
2348
100
AcDbEntity
  8
Defpoints
 62
     0
100
AcDbPoint
 10
1015.487072769309
 20
1178.643702698764
 30
0.0
  0
POINT
  5
32EA
330
2348
100
AcDbEntity
  8
Defpoints
 62
     0
100
AcDbPoint
 10
1015.487072769309
 20
1075.197210514488
 30
0.0
  0
ENDBLK
  5
2355
330
2348
100
AcDbEntity
  8
0
100
AcDbBlockEnd
  0
BLOCK
  5
2362
330
2357
100
AcDbEntity
  8
0
100
AcDbBlockBegin
  2
*D25
 70
     1
 10
0.0
 20
0.0
 30
0.0
  3
*D25
  1

  0
LINE
  5
32C7
330
2357
100
AcDbEntity
  8
実形
 62
     0
370
    18
100
AcDbLine
 10
933.8642961676258
 20
1193.643702698764
 30
0.0
 11
889.5494844725481
 21
1193.643702698764
 31
0.0
  0
LINE
  5
32C8
330
2357
100
AcDbEntity
  8
実形
 62
     0
370
    18
100
AcDbLine
 10
935.4870727693096
 20
1178.643702698764
 30
0.0
 11
889.5494844725481
 21
1178.643702698764
 31
0.0
  0
LINE
  5
32C9
330
2357
100
AcDbEntity
  8
実形
 62
     0
370
    18
100
AcDbLine
 10
889.5494844725481
 20
1193.643702698764
 30
0.0
 11
889.5494844725481
 21
1178.643702698764
 31
0.0
  0
MTEXT
  5
32CA
330
2357
100
AcDbEntity
  8
実形
 62
     0
100
AcDbMText
 10
869.9747982422996
 20
1222.603609041012
 30
0.0
 40
25.0
 41
0.0
 71
     5
 72
     1
  1
15
 11
0.0000000000000001
 21
1.0
 31
0.0
 73
     1
 44
1.0
1001
ACAD
1000
MTEXTBEGIN
1070
    73
1070
     1
1070
    44
1040
1.0
1070
    74
1070
     0
1000
MTEXTEND
  0
INSERT
  5
32CB
330
2357
100
AcDbEntity
  8
実形
 62
     0
370
    18
100
AcDbBlockReference
  2
_DotSmall
 10
889.5494844725481
 20
1193.643702698764
 30
0.0
 41
35.0
 42
35.0
 43
35.0
 50
90.0
  0
INSERT
  5
32CC
330
2357
100
AcDbEntity
  8
実形
 62
     0
370
    18
100
AcDbBlockReference
  2
_DotSmall
 10
889.5494844725481
 20
1178.643702698764
 30
0.0
 41
35.0
 42
35.0
 43
35.0
 50
270.0
  0
POINT
  5
32CD
330
2357
100
AcDbEntity
  8
Defpoints
 62
     0
100
AcDbPoint
 10
998.8642961676259
 20
1193.643702698764
 30
0.0
  0
POINT
  5
32CE
330
2357
100
AcDbEntity
  8
Defpoints
 62
     0
100
AcDbPoint
 10
1000.48707276931
 20
1178.643702698764
 30
0.0
  0
POINT
  5
32CF
330
2357
100
AcDbEntity
  8
Defpoints
 62
     0
100
AcDbPoint
 10
889.5494844725481
 20
1178.643702698764
 30
0.0
  0
ENDBLK
  5
2363
330
2357
100
AcDbEntity
  8
0
100
AcDbBlockEnd
  0
BLOCK
  5
236F
330
2365
100
AcDbEntity
  8
0
100
AcDbBlockBegin
  2
*D26
 70
     1
 10
0.0
 20
0.0
 30
0.0
  3
*D26
  1

  0
LINE
  5
31F0
330
2365
100
AcDbEntity
  8
実形
 62
     0
370
    18
100
AcDbLine
 10
935.4870727693096
 20
1178.643702698764
 30
0.0
 11
889.5494844725481
 21
1178.643702698764
 31
0.0
  0
LINE
  5
31F1
330
2365
100
AcDbEntity
  8
実形
 62
     0
370
    18
100
AcDbLine
 10
927.4870727693096
 20
1158.643702698764
 30
0.0
 11
889.5494844725481
 21
1158.643702698764
 31
0.0
  0
LINE
  5
31F2
330
2365
100
AcDbEntity
  8
実形
 62
     0
370
    18
100
AcDbLine
 10
889.5494844725481
 20
1178.643702698764
 30
0.0
 11
889.5494844725481
 21
1158.643702698764
 31
0.0
  0
MTEXT
  5
31F3
330
2365
100
AcDbEntity
  8
実形
 62
     0
100
AcDbMText
 10
874.0914160104793
 20
1125.59110293036
 30
0.0
 40
25.0
 41
0.0
 71
     5
 72
     1
  1
20
 11
0.0000000000000001
 21
1.0
 31
0.0
 73
     1
 44
1.0
1001
ACAD
1000
MTEXTBEGIN
1070
    73
1070
     1
1070
    44
1040
1.0
1070
    74
1070
     0
1000
MTEXTEND
  0
INSERT
  5
31F4
330
2365
100
AcDbEntity
  8
実形
 62
     0
370
    18
100
AcDbBlockReference
  2
_DotSmall
 10
889.5494844725481
 20
1178.643702698764
 30
0.0
 41
35.0
 42
35.0
 43
35.0
 50
90.0
  0
INSERT
  5
31F5
330
2365
100
AcDbEntity
  8
実形
 62
     0
370
    18
100
AcDbBlockReference
  2
_DotSmall
 10
889.5494844725481
 20
1158.643702698764
 30
0.0
 41
35.0
 42
35.0
 43
35.0
 50
270.0
  0
POINT
  5
31F6
330
2365
100
AcDbEntity
  8
Defpoints
 62
     0
100
AcDbPoint
 10
1000.48707276931
 20
1178.643702698764
 30
0.0
  0
POINT
  5
31F7
330
2365
100
AcDbEntity
  8
Defpoints
 62
     0
100
AcDbPoint
 10
992.4870727693097
 20
1158.643702698764
 30
0.0
  0
POINT
  5
31F8
330
2365
100
AcDbEntity
  8
Defpoints
 62
     0
100
AcDbPoint
 10
889.5494844725481
 20
1158.643702698764
 30
0.0
  0
ENDBLK
  5
2370
330
2365
100
AcDbEntity
  8
0
100
AcDbBlockEnd
  0
BLOCK
  5
2CCC
330
2CC2
100
AcDbEntity
  8
0
100
AcDbBlockBegin
  2
*D27
 70
     1
 10
0.0
 20
0.0
 30
0.0
  3
*D27
  1

  0
LINE
  5
32EB
330
2CC2
100
AcDbEntity
  8
実形
 62
     0
370
    18
100
AcDbLine
 10
1315.487072769309
 20
1113.643702698764
 30
0.0
 11
1315.487072769309
 21
1025.71158492871
 31
0.0
  0
LINE
  5
32EC
330
2CC2
100
AcDbEntity
  8
実形
 62
     0
370
    18
100
AcDbLine
 10
1350.48707276931
 20
1113.643702698764
 30
0.0
 11
1350.48707276931
 21
1025.71158492871
 31
0.0
  0
LINE
  5
32ED
330
2CC2
100
AcDbEntity
  8
実形
 62
     0
370
    18
100
AcDbLine
 10
1315.487072769309
 20
1025.71158492871
 30
0.0
 11
1350.48707276931
 21
1025.71158492871
 31
0.0
  0
MTEXT
  5
32EE
330
2CC2
100
AcDbEntity
  8
実形
 62
     0
100
AcDbMText
 10
1382.710747104966
 20
1024.317847943677
 30
0.0
 40
25.0
 41
0.0
 71
     5
 72
     1
  1
33
 73
     1
 44
1.0
1001
ACAD
1000
MTEXTBEGIN
1070
    73
1070
     1
1070
    44
1040
1.0
1070
    74
1070
     0
1000
MTEXTEND
  0
INSERT
  5
32EF
330
2CC2
100
AcDbEntity
  8
実形
 62
     0
370
    18
100
AcDbBlockReference
  2
_DotSmall
 10
1315.487072769309
 20
1025.71158492871
 30
0.0
 41
35.0
 42
35.0
 43
35.0
 50
180.0
  0
INSERT
  5
32F0
330
2CC2
100
AcDbEntity
  8
実形
 62
     0
370
    18
100
AcDbBlockReference
  2
_DotSmall
 10
1350.48707276931
 20
1025.71158492871
 30
0.0
 41
35.0
 42
35.0
 43
35.0
  0
POINT
  5
32F1
330
2CC2
100
AcDbEntity
  8
Defpoints
 62
     0
100
AcDbPoint
 10
1315.487072769309
 20
1178.643702698764
 30
0.0
  0
POINT
  5
32F2
330
2CC2
100
AcDbEntity
  8
Defpoints
 62
     0
100
AcDbPoint
 10
1350.48707276931
 20
1178.643702698764
 30
0.0
  0
POINT
  5
32F3
330
2CC2
100
AcDbEntity
  8
Defpoints
 62
     0
100
AcDbPoint
 10
1350.48707276931
 20
1025.71158492871
 30
0.0
  0
ENDBLK
  5
2CCD
330
2CC2
100
AcDbEntity
  8
0
100
AcDbBlockEnd
  0
BLOCK
  5
2CD8
330
2CCE
100
AcDbEntity
  8
0
100
AcDbBlockBegin
  2
*D28
 70
     1
 10
0.0
 20
0.0
 30
0.0
  3
*D28
  1

  0
LINE
  5
3265
330
2CCE
100
AcDbEntity
  8
実形
 62
     0
370
    18
100
AcDbLine
 10
1350.48707276931
 20
1113.643702698764
 30
0.0
 11
1350.48707276931
 21
1075.197210514488
 31
0.0
  0
LINE
  5
3266
330
2CCE
100
AcDbEntity
  8
実形
 62
     0
370
    18
100
AcDbLine
 10
1330.487072769309
 20
1113.643702698764
 30
0.0
 11
1330.487072769309
 21
1075.197210514488
 31
0.0
  0
LINE
  5
3267
330
2CCE
100
AcDbEntity
  8
実形
 62
     0
370
    18
100
AcDbLine
 10
1350.48707276931
 20
1075.197210514488
 30
0.0
 11
1330.487072769309
 21
1075.197210514488
 31
0.0
  0
MTEXT
  5
3268
330
2CCE
100
AcDbEntity
  8
実形
 62
     0
100
AcDbMText
 10
1378.208361820299
 20
1091.045750294493
 30
0.0
 40
25.0
 41
0.0
 71
     5
 72
     1
  1
20
 73
     1
 44
1.0
1001
ACAD
1000
MTEXTBEGIN
1070
    73
1070
     1
1070
    44
1040
1.0
1070
    74
1070
     0
1000
MTEXTEND
  0
INSERT
  5
3269
330
2CCE
100
AcDbEntity
  8
実形
 62
     0
370
    18
100
AcDbBlockReference
  2
_DotSmall
 10
1350.48707276931
 20
1075.197210514488
 30
0.0
 41
35.0
 42
35.0
 43
35.0
  0
INSERT
  5
326A
330
2CCE
100
AcDbEntity
  8
実形
 62
     0
370
    18
100
AcDbBlockReference
  2
_DotSmall
 10
1330.487072769309
 20
1075.197210514488
 30
0.0
 41
35.0
 42
35.0
 43
35.0
 50
180.0
  0
POINT
  5
326B
330
2CCE
100
AcDbEntity
  8
Defpoints
 62
     0
100
AcDbPoint
 10
1350.48707276931
 20
1178.643702698764
 30
0.0
  0
POINT
  5
326C
330
2CCE
100
AcDbEntity
  8
Defpoints
 62
     0
100
AcDbPoint
 10
1330.487072769309
 20
1178.643702698764
 30
0.0
  0
POINT
  5
326D
330
2CCE
100
AcDbEntity
  8
Defpoints
 62
     0
100
AcDbPoint
 10
1330.487072769309
 20
1075.197210514488
 30
0.0
  0
ENDBLK
  5
2CD9
330
2CCE
100
AcDbEntity
  8
0
100
AcDbBlockEnd
  0
BLOCK
  5
2CE4
330
2CDA
100
AcDbEntity
  8
0
100
AcDbBlockBegin
  2
*D29
 70
     1
 10
0.0
 20
0.0
 30
0.0
  3
*D29
  1

  0
LINE
  5
32A3
330
2CDA
100
AcDbEntity
  8
実形
 62
     0
370
    18
100
AcDbLine
 10
1330.487072769309
 20
1113.643702698764
 30
0.0
 11
1330.487072769309
 21
1075.197210514488
 31
0.0
  0
LINE
  5
32A4
330
2CDA
100
AcDbEntity
  8
実形
 62
     0
370
    18
100
AcDbLine
 10
1315.487072769309
 20
1113.643702698764
 30
0.0
 11
1315.487072769309
 21
1075.197210514488
 31
0.0
  0
LINE
  5
32A5
330
2CDA
100
AcDbEntity
  8
実形
 62
     0
370
    18
100
AcDbLine
 10
1330.487072769309
 20
1075.197210514488
 30
0.0
 11
1315.487072769309
 21
1075.197210514488
 31
0.0
  0
MTEXT
  5
32A6
330
2CDA
100
AcDbEntity
  8
実形
 62
     0
100
AcDbMText
 10
1285.61958426605
 20
1091.439767510858
 30
0.0
 40
25.0
 41
0.0
 71
     5
 72
     1
  1
15
 73
     1
 44
1.0
1001
ACAD
1000
MTEXTBEGIN
1070
    73
1070
     1
1070
    44
1040
1.0
1070
    74
1070
     0
1000
MTEXTEND
  0
INSERT
  5
32A7
330
2CDA
100
AcDbEntity
  8
実形
 62
     0
370
    18
100
AcDbBlockReference
  2
_DotSmall
 10
1330.487072769309
 20
1075.197210514488
 30
0.0
 41
35.0
 42
35.0
 43
35.0
  0
INSERT
  5
32A8
330
2CDA
100
AcDbEntity
  8
実形
 62
     0
370
    18
100
AcDbBlockReference
  2
_DotSmall
 10
1315.487072769309
 20
1075.197210514488
 30
0.0
 41
35.0
 42
35.0
 43
35.0
 50
180.0
  0
POINT
  5
32A9
330
2CDA
100
AcDbEntity
  8
Defpoints
 62
     0
100
AcDbPoint
 10
1330.487072769309
 20
1178.643702698764
 30
0.0
  0
POINT
  5
32AA
330
2CDA
100
AcDbEntity
  8
Defpoints
 62
     0
100
AcDbPoint
 10
1315.487072769309
 20
1178.643702698764
 30
0.0
  0
POINT
  5
32AB
330
2CDA
100
AcDbEntity
  8
Defpoints
 62
     0
100
AcDbPoint
 10
1315.487072769309
 20
1075.197210514488
 30
0.0
  0
ENDBLK
  5
2CE5
330
2CDA
100
AcDbEntity
  8
0
100
AcDbBlockEnd
  0
ENDSEC
  0
SECTION
  2
ENTITIES
  0
LINE
  5
73
330
1F
100
AcDbEntity
  8
0
100
AcDbLine
 10
109.0
 20
4.0
 30
0.0
 11
278.0
 21
4.0
 31
0.0
  0
LINE
  5
9C
330
1F
100
AcDbEntity
  8
補助
100
AcDbLine
 10
109.0
 20
4.0
 30
0.0
 11
2784.0
 21
4.0
 31
0.0
  0
LINE
  5
A0
330
1F
100
AcDbEntity
  8
補助
100
AcDbLine
 10
2784.0
 20
2024.0
 30
0.0
 11
109.0
 21
2024.0
 31
0.0
  0
LINE
  5
A5
330
1F
100
AcDbEntity
  8
補助
100
AcDbLine
 10
2784.0
 20
4.0
 30
0.0
 11
2784.0
 21
2024.0
 31
0.0
  0
LINE
  5
2E6
330
1F
100
AcDbEntity
  8
実形
100
AcDbLine
 10
1333.48707276931
 20
733.6437026987641
 30
0.0
 11
997.4870727693096
 21
733.6437026987641
 31
0.0
  0
LINE
  5
2FE
330
1F
100
AcDbEntity
  8
実形
100
AcDbLine
 10
1685.48707276931
 20
1511.643702698764
 30
0.0
 11
1685.48707276931
 21
1175.643702698764
 31
0.0
  0
LINE
  5
33A
330
1F
100
AcDbEntity
  8
センター
 48
0.5
370
    15
100
AcDbLine
 10
1090.761955972336
 20
1343.643702698764
 30
0.0
 11
1350.48707276931
 21
1343.643702698764
 31
0.0
  0
LINE
  5
33B
330
1F
100
AcDbEntity
  8
センター
 48
0.5
370
    15
100
AcDbLine
 10
1165.487072769309
 20
1528.643702698764
 30
0.0
 11
1165.487072769309
 21
1268.91858590179
 31
0.0
  0
LINE
  5
33C
330
1F
100
AcDbEntity
  8
センター
 48
0.5
370
    15
100
AcDbLine
 10
1165.487072769309
 20
647.3009334416856
 30
0.0
 11
1167.48707276931
 21
525.3693724097847
 31
0.0
  0
LINE
  5
33D
330
1F
100
AcDbEntity
  8
センター
 48
0.5
370
    15
100
AcDbLine
 10
1769.130803385541
 20
1343.643702698764
 30
0.0
 11
1895.280713470408
 21
1343.643702698764
 31
0.0
  0
DIMENSION
  5
35B
330
1F
100
AcDbEntity
  8
実形
100
AcDbDimension
  2
*D4
 10
980.4870727693096
 20
1604.077434156575
 30
0.0
 11
1072.773250406093
 21
1624.033247036456
 31
0.0
 70
   160
 71
     5
 42
185.0
  3
ISO-25
100
AcDbAlignedDimension
 13
1165.487072769309
 23
1443.643702698764
 33
0.0
 14
980.4870727693096
 24
1475.221622744612
 34
0.0
 50
180.0
100
AcDbRotatedDimension
1001
ACAD
1000
DSTYLE
1002
{
1070
    42
1040
80.0
1070
   279
1070
     2
1070
   371
1070
    18
1002
}
  0
DIMENSION
  5
368
330
1F
100
AcDbEntity
  8
実形
100
AcDbDimension
  2
*D5
 10
1433.090085388291
 20
1343.643702698764
 30
0.0
 11
1414.340085388291
 21
1251.143702698764
 31
0.0
 70
    32
 71
     5
 42
185.0
  3
ISO-25
100
AcDbAlignedDimension
 13
1309.226714838874
 23
1158.643702698764
 33
0.0
 14
1265.48707276931
 24
1343.643702698764
 34
0.0
 50
90.0
100
AcDbRotatedDimension
1001
ACAD
1000
DSTYLE
1002
{
1070
    42
1040
80.0
1070
   371
1070
    18
1002
}
  0
DIMENSION
  5
3CE
330
1F
100
AcDbEntity
  8
実形
100
AcDbDimension
  2
*D6
 10
821.5494844725489
 20
1493.643702698764
 30
0.0
 11
800.7814647866444
 21
1500.080666120265
 31
0.0
 70
   160
  1
33
 71
     5
 42
35.0
  3
ISO-25
100
AcDbAlignedDimension
 13
1000.48707276931
 23
1528.643702698764
 33
0.0
 14
1000.48707276931
 24
1493.643702698764
 34
0.0
 50
90.0
100
AcDbRotatedDimension
1001
ACAD
1000
DSTYLE
1002
{
1070
   147
1040
1.0
1070
   279
1070
     2
1070
   371
1070
    18
1002
}
  0
DIMENSION
  5
3DC
330
1F
100
AcDbEntity
  8
実形
100
AcDbDimension
  2
*D7
 10
821.549484472548
 20
1193.643702698764
 30
0.0
 11
802.799484472548
 21
1343.643702698764
 31
0.0
 70
    32
 71
     5
 42
300.0
  3
ISO-25
100
AcDbAlignedDimension
 13
1000.48707276931
 23
1493.643702698764
 33
0.0
 14
998.8642961676259
 24
1193.643702698764
 34
0.0
 50
90.0
100
AcDbRotatedDimension
1001
ACAD
1000
DSTYLE
1002
{
1070
   281
1070
     0
1070
   371
1070
    18
1070
   279
1070
     1
1002
}
  0
DIMENSION
  5
3F6
330
1F
100
AcDbEntity
  8
実形
100
AcDbDimension
  2
*D8
 10
753.5494844725481
 20
1158.643702698764
 30
0.0
 11
734.7994844725479
 21
1343.643702698764
 31
0.0
 70
    32
 71
     5
 42
370.0
  3
ISO-25
100
AcDbAlignedDimension
 13
1000.48707276931
 23
1528.643702698764
 33
0.0
 14
1000.48707276931
 24
1158.643702698764
 34
0.0
 50
90.0
100
AcDbRotatedDimension
1001
ACAD
1000
DSTYLE
1002
{
1070
   371
1070
    18
1002
}
  0
DIMENSION
  5
44B
330
1F
100
AcDbEntity
  8
実形
100
AcDbDimension
  2
*D9
 10
1315.487072769309
 20
1025.71158492871
 30
0.0
 11
1169.896242750164
 21
1050.325941437018
 31
0.0
 70
   160
 71
     5
 42
300.0
  3
ISO-25
100
AcDbAlignedDimension
 13
1015.487072769309
 23
1178.643702698764
 33
0.0
 14
1315.487072769309
 24
1177.020926097081
 34
0.0
100
AcDbRotatedDimension
1001
ACAD
1000
DSTYLE
1002
{
1070
   371
1070
    18
1070
   279
1070
     2
1002
}
  0
DIMENSION
  5
4A3
330
1F
100
AcDbEntity
  8
実形
100
AcDbDimension
  2
*D10
 10
1350.48707276931
 20
947.9196747728401
 30
0.0
 11
1165.487072769309
 21
966.6696747728401
 31
0.0
 70
    32
 71
     5
 42
370.0
  3
ISO-25
100
AcDbAlignedDimension
 13
980.4870727693096
 23
1175.643702698764
 33
0.0
 14
1350.48707276931
 24
1175.643702698764
 34
0.0
100
AcDbRotatedDimension
1001
ACAD
1000
DSTYLE
1002
{
1070
   371
1070
    18
1002
}
  0
DIMENSION
  5
4BE
330
1F
100
AcDbEntity
  8
実形
100
AcDbDimension
  2
*D11
 10
1439.378823257017
 20
588.6437026987643
 30
0.0
 11
1439.378823257017
 21
596.1437026987645
 31
0.0
 70
    32
  1
 
 71
     5
 42
15.0
  3
ISO-25
100
AcDbAlignedDimension
 13
1330.487072769309
 23
603.6437026987642
 33
0.0
 14
1330.487072769309
 24
588.6437026987643
 34
0.0
 50
90.0
100
AcDbRotatedDimension
1001
ACAD
1000
DSTYLE
1002
{
1070
   371
1070
    18
1002
}
  0
DIMENSION
  5
4CC
330
1F
100
AcDbEntity
  8
実形
100
AcDbDimension
  2
*D12
 10
1478.119447591898
 20
588.6437026987643
 30
0.0
 11
1459.369447591898
 21
663.6437026987644
 31
0.0
 70
    32
 71
     5
 42
150.0
  3
ISO-25
100
AcDbAlignedDimension
 13
1318.48707276931
 23
738.6437026987643
 33
0.0
 14
1330.487072769309
 24
588.6437026987643
 34
0.0
 50
90.0
100
AcDbRotatedDimension
1001
ACAD
1000
DSTYLE
1002
{
1070
   371
1070
    18
1002
}
  0
TEXT
  5
4F7
330
1F
100
AcDbEntity
  8
実形
100
AcDbText
 10
1442.432524969021
 20
537.2642792959236
 30
0.0
 40
25.0
  1
15
 50
90.0
100
AcDbText
  0
DIMENSION
  5
4F8
330
1F
100
AcDbEntity
  8
実形
100
AcDbDimension
  2
*D13
 10
1209.48707276931
 20
467.9898148309721
 30
0.0
 11
1165.487072769309
 21
486.7398148309721
 31
0.0
 70
    32
 71
     5
 42
88.0
  3
ISO-25
100
AcDbAlignedDimension
 13
1121.487072769309
 23
580.6437026987643
 33
0.0
 14
1209.48707276931
 24
580.6437026987643
 34
0.0
100
AcDbRotatedDimension
1001
ACAD
1000
DSTYLE
1002
{
1070
   371
1070
    18
1002
}
  0
DIMENSION
  5
505
330
1F
100
AcDbEntity
  8
実形
100
AcDbDimension
  2
*D14
 10
1223.487072769309
 20
423.520656059698
 30
0.0
 11
1165.487072769309
 21
442.270656059698
 31
0.0
 70
    32
 71
     5
 42
116.0
  3
ISO-25
100
AcDbAlignedDimension
 13
1107.487072769309
 23
580.6437026987643
 33
0.0
 14
1223.487072769309
 24
580.6437026987643
 34
0.0
100
AcDbRotatedDimension
1001
ACAD
1000
DSTYLE
1002
{
1070
   371
1070
    18
1002
}
  0
DIMENSION
  5
532
330
1F
100
AcDbEntity
  8
実形
100
AcDbDimension
  2
*D15
 10
1815.487072769309
 20
1025.71158492871
 30
0.0
 11
1822.98707276931
 21
1025.71158492871
 31
0.0
 70
    32
  1
 
 71
     5
 42
15.0
  3
ISO-25
100
AcDbAlignedDimension
 13
1830.487072769309
 23
1178.643702698764
 33
0.0
 14
1815.487072769309
 24
1178.643702698764
 34
0.0
100
AcDbRotatedDimension
1001
ACAD
1000
DSTYLE
1002
{
1070
   371
1070
    18
1002
}
  0
DIMENSION
  5
548
330
1F
100
AcDbEntity
  8
実形
100
AcDbDimension
  2
*D16
 10
1680.487072769309
 20
945.7321747728402
 30
0.0
 11
1755.487072769309
 21
964.4821747728402
 31
0.0
 70
    32
 71
     5
 42
150.0
  3
ISO-25
100
AcDbAlignedDimension
 13
1830.487072769309
 23
1178.643702698764
 33
0.0
 14
1680.487072769309
 24
1178.643702698764
 34
0.0
100
AcDbRotatedDimension
1001
ACAD
1000
DSTYLE
1002
{
1070
   371
1070
    18
1002
}
  0
TEXT
  5
555
330
1F
100
AcDbEntity
  8
実形
100
AcDbText
 10
1846.727431258216
 20
1031.99624143029
 30
0.0
 40
25.0
  1
15
100
AcDbText
  0
DIMENSION
  5
569
330
1F
100
AcDbEntity
  8
実形
100
AcDbDimension
  2
*D17
 10
1949.724362349555
 20
1299.643702698764
 30
0.0
 11
1930.974362349555
 21
1343.643702698764
 31
0.0
 70
    32
 71
     5
 42
88.0
  3
ISO-25
100
AcDbAlignedDimension
 13
1838.48707276931
 23
1387.643702698764
 33
0.0
 14
1838.48707276931
 24
1299.643702698764
 34
0.0
 50
90.0
100
AcDbRotatedDimension
1001
ACAD
1000
DSTYLE
1002
{
1070
   371
1070
    18
1002
}
  0
DIMENSION
  5
57F
330
1F
100
AcDbEntity
  8
実形
100
AcDbDimension
  2
*D18
 10
1997.528541853197
 20
1285.643702698764
 30
0.0
 11
1978.778541853197
 21
1343.643702698764
 31
0.0
 70
    32
 71
     5
 42
116.0
  3
ISO-25
100
AcDbAlignedDimension
 13
1838.48707276931
 23
1401.643702698764
 33
0.0
 14
1838.48707276931
 24
1285.643702698764
 34
0.0
 50
90.0
100
AcDbRotatedDimension
1001
ACAD
1000
DSTYLE
1002
{
1070
   371
1070
    18
1002
}
  0
LINE
  5
F27
330
1F
100
AcDbEntity
  8
実形
100
AcDbLine
 10
1333.48707276931
 20
733.6437026987641
 30
0.0
 11
997.4870727693096
 21
733.6437026987641
 31
0.0
  0
LINE
  5
1238
330
1F
100
AcDbEntity
  8
実形
100
AcDbLine
 10
980.4870727693096
 20
733.6437026987641
 30
0.0
 11
1350.48707276931
 21
733.6437026987641
 31
0.0
  0
LINE
  5
12A9
330
1F
100
AcDbEntity
  8
実形
100
AcDbLine
 10
1685.48707276931
 20
1511.643702698764
 30
0.0
 11
1685.48707276931
 21
1175.643702698764
 31
0.0
  0
DIMENSION
  5
173D
330
1F
100
AcDbEntity
  8
実形
100
AcDbDimension
  2
*D19
 10
980.4870727693096
 20
1025.71158492871
 30
0.0
 11
947.8613460838387
 21
1023.908315631444
 31
0.0
 70
   160
  1
33
 71
     5
 42
35.0
  3
ISO-25
100
AcDbAlignedDimension
 13
1015.487072769309
 23
1178.643702698764
 33
0.0
 14
980.4870727693096
 24
1178.643702698764
 34
0.0
100
AcDbRotatedDimension
1001
ACAD
1000
DSTYLE
1002
{
1070
   279
1070
     2
1070
   282
1070
     0
1070
   281
1070
     0
1070
   371
1070
    18
1070
   372
1070
    18
1002
}
  0
DIMENSION
  5
17AE
330
1F
100
AcDbEntity
  8
実形
100
AcDbDimension
  2
*D20
 10
821.5494844725483
 20
1158.643702698764
 30
0.0
 11
800.8911902118416
 21
1186.475732011184
 31
0.0
 70
   160
  1
33
 71
     5
 42
35.0
  3
ISO-25
100
AcDbAlignedDimension
 13
998.8642961676259
 23
1193.643702698764
 33
0.0
 14
1000.48707276931
 24
1158.643702698764
 34
0.0
 50
90.0
100
AcDbRotatedDimension
1001
ACAD
1000
DSTYLE
1002
{
1070
   279
1070
     2
1070
   371
1070
    18
1070
   372
1070
    18
1002
}
  0
LINE
  5
1877
330
1F
100
AcDbEntity
  8
実形
100
AcDbLine
 10
1000.48707276931
 20
1478.643702698764
 30
0.0
 11
1000.48707276931
 21
1208.643702698764
 31
0.0
  0
LINE
  5
1878
330
1F
100
AcDbEntity
  8
実形
100
AcDbLine
 10
1030.487072769309
 20
1178.643702698764
 30
0.0
 11
1300.48707276931
 21
1178.643702698764
 31
0.0
  0
LINE
  5
1879
330
1F
100
AcDbEntity
  8
実形
100
AcDbLine
 10
1330.487072769309
 20
1208.643702698764
 30
0.0
 11
1330.487072769309
 21
1478.643702698764
 31
0.0
  0
LINE
  5
187A
330
1F
100
AcDbEntity
  8
実形
100
AcDbLine
 10
1300.48707276931
 20
1508.643702698764
 30
0.0
 11
1030.487072769309
 21
1508.643702698764
 31
0.0
  0
LINE
  5
187B
330
1F
100
AcDbEntity
  8
実形
100
AcDbLine
 10
992.4870727693097
 20
1528.643702698764
 30
0.0
 11
1338.487072769309
 21
1528.643702698764
 31
0.0
  0
LINE
  5
187C
330
1F
100
AcDbEntity
  8
実形
100
AcDbLine
 10
1350.48707276931
 20
1518.643702698764
 30
0.0
 11
1350.48707276931
 21
1170.643702698764
 31
0.0
  0
LINE
  5
187D
330
1F
100
AcDbEntity
  8
実形
100
AcDbLine
 10
1338.487072769309
 20
1158.643702698764
 30
0.0
 11
992.4870727693097
 21
1158.643702698764
 31
0.0
  0
LINE
  5
187E
330
1F
100
AcDbEntity
  8
実形
100
AcDbLine
 10
980.4870727693096
 20
1170.643702698764
 30
0.0
 11
980.4870727693096
 21
1518.643702698764
 31
0.0
  0
ARC
  5
187F
330
1F
100
AcDbEntity
  8
実形
100
AcDbCircle
 10
1300.48707276931
 20
1208.643702698764
 30
0.0
 40
30.0
100
AcDbArc
 50
270.0
 51
0.0
  0
ARC
  5
1880
330
1F
100
AcDbEntity
  8
実形
100
AcDbCircle
 10
1300.48707276931
 20
1478.643702698764
 30
0.0
 40
30.0
100
AcDbArc
 50
0.0
 51
90.0
  0
ARC
  5
1881
330
1F
100
AcDbEntity
  8
実形
100
AcDbCircle
 10
1030.487072769309
 20
1478.643702698764
 30
0.0
 40
30.0
100
AcDbArc
 50
90.00000000000005
 51
180.0
  0
ARC
  5
1882
330
1F
100
AcDbEntity
  8
実形
100
AcDbCircle
 10
1030.487072769309
 20
1208.643702698764
 30
0.0
 40
30.0
100
AcDbArc
 50
180.0
 51
270.0000000000001
  0
ARC
  5
1883
330
1F
100
AcDbEntity
  8
実形
100
AcDbCircle
 10
994.14270768792
 20
1172.299337617374
 30
0.0
 40
13.7556349186104
100
AcDbArc
 50
186.9129077606313
 51
263.0870922393682
  0
ARC
  5
1884
330
1F
100
AcDbEntity
  8
実形
100
AcDbCircle
 10
992.2160095143004
 20
1516.768978604775
 30
0.0
 40
11.87781745930514
100
AcDbArc
 50
88.69234150761467
 51
170.9188006769161
  0
ARC
  5
1885
330
1F
100
AcDbEntity
  8
実形
100
AcDbCircle
 10
1338.758136024319
 20
1516.768978604775
 30
0.0
 40
11.87781745930525
100
AcDbArc
 50
9.081199323084941
 51
91.3076584923853
  0
ARC
  5
1886
330
1F
100
AcDbEntity
  8
実形
100
AcDbCircle
 10
1336.831437850699
 20
1172.299337617374
 30
0.0
 40
13.75563491861029
100
AcDbArc
 50
276.9129077606314
 51
353.0870922393686
  0
LINE
  5
1887
330
1F
100
AcDbEntity
  8
実形
100
AcDbLine
 10
992.4870727693097
 20
1523.643702698764
 30
0.0
 11
1338.487072769309
 21
1523.643702698764
 31
0.0
  0
ARC
  5
1888
330
1F
100
AcDbEntity
  8
実形
100
AcDbCircle
 10
1338.741402633613
 20
1516.59976450879
 30
0.0
 40
7.048528137423859
100
AcDbArc
 50
16.85680962374227
 51
92.06783479230931
  0
LINE
  5
1889
330
1F
100
AcDbEntity
  8
実形
100
AcDbLine
 10
1345.48707276931
 20
1518.643702698764
 30
0.0
 11
1345.48707276931
 21
1170.643702698764
 31
0.0
  0
ARC
  5
188A
330
1F
100
AcDbEntity
  8
実形
100
AcDbCircle
 10
1336.590016494462
 20
1172.540758973612
 30
0.0
 40
9.09705627484773
100
AcDbArc
 50
282.0365239010989
 51
347.9634760989012
  0
LINE
  5
188B
330
1F
100
AcDbEntity
  8
実形
100
AcDbLine
 10
1338.487072769309
 20
1163.643702698764
 30
0.0
 11
992.4870727693097
 21
1163.643702698764
 31
0.0
  0
ARC
  5
188C
330
1F
100
AcDbEntity
  8
実形
100
AcDbCircle
 10
994.3841290441573
 20
1172.540758973612
 30
0.0
 40
9.09705627484773
100
AcDbArc
 50
192.0365239010988
 51
257.9634760989011
  0
LINE
  5
188D
330
1F
100
AcDbEntity
  8
実形
100
AcDbLine
 10
985.4870727693096
 20
1170.643702698764
 30
0.0
 11
985.4870727693096
 21
1518.643702698764
 31
0.0
  0
ARC
  5
188E
330
1F
100
AcDbEntity
  8
実形
100
AcDbCircle
 10
992.2327429050055
 20
1516.59976450879
 30
0.0
 40
7.048528137423891
100
AcDbArc
 50
87.93216520769069
 51
163.1431903762577
  0
LINE
  5
188F
330
1F
100
AcDbEntity
  8
実形
100
AcDbLine
 10
1300.48707276931
 20
1513.643702698764
 30
0.0
 11
1030.487072769309
 21
1513.643702698764
 31
0.0
  0
ARC
  5
1890
330
1F
100
AcDbEntity
  8
実形
100
AcDbCircle
 10
1300.48707276931
 20
1478.643702698764
 30
0.0
 40
35.0
100
AcDbArc
 50
0.0
 51
90.0
  0
LINE
  5
1891
330
1F
100
AcDbEntity
  8
実形
100
AcDbLine
 10
1335.48707276931
 20
1208.643702698764
 30
0.0
 11
1335.48707276931
 21
1478.643702698764
 31
0.0
  0
ARC
  5
1892
330
1F
100
AcDbEntity
  8
実形
100
AcDbCircle
 10
1300.48707276931
 20
1208.643702698764
 30
0.0
 40
35.0
100
AcDbArc
 50
270.0
 51
0.0
  0
LINE
  5
1893
330
1F
100
AcDbEntity
  8
実形
100
AcDbLine
 10
1030.487072769309
 20
1173.643702698764
 30
0.0
 11
1300.48707276931
 21
1173.643702698764
 31
0.0
  0
ARC
  5
1894
330
1F
100
AcDbEntity
  8
実形
100
AcDbCircle
 10
1030.487072769309
 20
1208.643702698764
 30
0.0
 40
35.0
100
AcDbArc
 50
180.0
 51
270.0000000000001
  0
LINE
  5
1895
330
1F
100
AcDbEntity
  8
実形
100
AcDbLine
 10
995.4870727693096
 20
1478.643702698764
 30
0.0
 11
995.4870727693096
 21
1208.643702698764
 31
0.0
  0
ARC
  5
1896
330
1F
100
AcDbEntity
  8
実形
100
AcDbCircle
 10
1030.487072769309
 20
1478.643702698764
 30
0.0
 40
35.0
100
AcDbArc
 50
90.00000000000005
 51
180.0
  0
LINE
  5
18A0
330
1F
100
AcDbEntity
  8
実形
100
AcDbLine
 10
985.4870727693096
 20
738.6437026987642
 30
0.0
 11
1345.48707276931
 21
738.6437026987642
 31
0.0
  0
LINE
  5
18A1
330
1F
100
AcDbEntity
  8
実形
100
AcDbLine
 10
1345.48707276931
 20
738.6437026987642
 30
0.0
 11
1350.48707276931
 21
733.6437026987641
 31
0.0
  0
LINE
  5
18A2
330
1F
100
AcDbEntity
  8
実形
100
AcDbLine
 10
985.4870727693096
 20
738.6437026987642
 30
0.0
 11
980.4870727693096
 21
733.6437026987641
 31
0.0
  0
LINE
  5
18B3
330
1F
100
AcDbEntity
  8
実形
100
AcDbLine
 10
995.4870727693096
 20
733.6437026987641
 30
0.0
 11
995.4870727693096
 21
723.6437026987641
 31
0.0
  0
LINE
  5
18B4
330
1F
100
AcDbEntity
  8
実形
100
AcDbLine
 10
995.4870727693096
 20
723.6437026987641
 30
0.0
 11
1335.48707276931
 21
723.6437026987641
 31
0.0
  0
LINE
  5
18B5
330
1F
100
AcDbEntity
  8
実形
100
AcDbLine
 10
1335.48707276931
 20
723.6437026987641
 30
0.0
 11
1335.48707276931
 21
733.6437026987641
 31
0.0
  0
LINE
  5
18B7
330
1F
100
AcDbEntity
  8
実形
100
AcDbLine
 10
1695.48707276931
 20
1513.643702698764
 30
0.0
 11
1695.48707276931
 21
1173.643702698764
 31
0.0
  0
LINE
  5
18B8
330
1F
100
AcDbEntity
  8
実形
100
AcDbLine
 10
1680.487072769309
 20
1523.643702698764
 30
0.0
 11
1680.487072769309
 21
1163.643702698764
 31
0.0
  0
LINE
  5
18B9
330
1F
100
AcDbEntity
  8
実形
100
AcDbLine
 10
1685.48707276931
 20
1528.643702698764
 30
0.0
 11
1685.48707276931
 21
1158.643702698764
 31
0.0
  0
LINE
  5
18BA
330
1F
100
AcDbEntity
  8
実形
100
AcDbLine
 10
1685.48707276931
 20
1175.643702698764
 30
0.0
 11
1685.48707276931
 21
1511.643702698764
 31
0.0
  0
LINE
  5
18BB
330
1F
100
AcDbEntity
  8
実形
100
AcDbLine
 10
1685.48707276931
 20
1175.643702698764
 30
0.0
 11
1685.48707276931
 21
1511.643702698764
 31
0.0
  0
LINE
  5
18BD
330
1F
100
AcDbEntity
  8
実形
100
AcDbLine
 10
1680.487072769309
 20
1163.643702698764
 30
0.0
 11
1685.48707276931
 21
1158.643702698764
 31
0.0
  0
LINE
  5
18BE
330
1F
100
AcDbEntity
  8
実形
100
AcDbLine
 10
1685.48707276931
 20
1513.643702698764
 30
0.0
 11
1695.48707276931
 21
1513.643702698764
 31
0.0
  0
LINE
  5
18BF
330
1F
100
AcDbEntity
  8
実形
100
AcDbLine
 10
1680.487072769309
 20
1523.643702698764
 30
0.0
 11
1685.48707276931
 21
1528.643702698764
 31
0.0
  0
DIMENSION
  5
22EC
330
1F
100
AcDbEntity
  8
実形
100
AcDbDimension
  2
*D21
 10
889.5494844725481
 20
1508.643702698764
 30
0.0
 11
868.2006137418065
 21
1555.930677570225
 31
0.0
 70
   160
 71
     5
 42
20.0
  3
ISO-25
100
AcDbAlignedDimension
 13
1000.48707276931
 23
1528.643702698764
 33
0.0
 14
1000.48707276931
 24
1508.643702698764
 34
0.0
 50
90.0
100
AcDbRotatedDimension
1001
ACAD
1000
DSTYLE
1002
{
1070
   279
1070
     2
1070
   371
1070
    18
1070
   372
1070
    18
1002
}
  0
DIMENSION
  5
22FA
330
1F
100
AcDbEntity
  8
実形
100
AcDbDimension
  2
*D22
 10
889.5494844725481
 20
1493.643702698764
 30
0.0
 11
872.6360826561741
 21
1465.506845024861
 31
0.0
 70
   160
 71
     5
 42
15.0
  3
ISO-25
100
AcDbAlignedDimension
 13
1000.48707276931
 23
1508.643702698764
 33
0.0
 14
1000.48707276931
 24
1493.643702698764
 34
0.0
 50
90.0
100
AcDbRotatedDimension
1001
ACAD
1000
DSTYLE
1002
{
1070
   279
1070
     2
1070
   371
1070
    18
1070
   372
1070
    18
1002
}
  0
DIMENSION
  5
2339
330
1F
100
AcDbEntity
  8
実形
100
AcDbDimension
  2
*D23
 10
1000.48707276931
 20
1075.197210514488
 30
0.0
 11
954.7657837183205
 21
1091.045750294493
 31
0.0
 70
   160
 71
     5
 42
20.0
  3
ISO-25
100
AcDbAlignedDimension
 13
980.4870727693096
 23
1178.643702698764
 33
0.0
 14
1000.48707276931
 24
1178.643702698764
 34
0.0
100
AcDbRotatedDimension
1001
ACAD
1000
DSTYLE
1002
{
1070
   279
1070
     2
1070
   371
1070
    18
1070
   372
1070
    18
1002
}
  0
DIMENSION
  5
2347
330
1F
100
AcDbEntity
  8
実形
100
AcDbDimension
  2
*D24
 10
1015.487072769309
 20
1075.197210514488
 30
0.0
 11
1042.496872418174
 21
1091.305295692237
 31
0.0
 70
   160
 71
     5
 42
15.0
  3
ISO-25
100
AcDbAlignedDimension
 13
1000.48707276931
 23
1178.643702698764
 33
0.0
 14
1015.487072769309
 24
1178.643702698764
 34
0.0
100
AcDbRotatedDimension
1001
ACAD
1000
DSTYLE
1002
{
1070
   279
1070
     2
1070
   371
1070
    18
1070
   372
1070
    18
1002
}
  0
DIMENSION
  5
2356
330
1F
100
AcDbEntity
  8
実形
100
AcDbDimension
  2
*D25
 10
889.5494844725481
 20
1178.643702698764
 30
0.0
 11
869.9747982422996
 21
1222.603609041012
 31
0.0
 70
   160
 71
     5
 42
15.0
  3
ISO-25
100
AcDbAlignedDimension
 13
998.8642961676259
 23
1193.643702698764
 33
0.0
 14
1000.48707276931
 24
1178.643702698764
 34
0.0
 50
90.0
100
AcDbRotatedDimension
1001
ACAD
1000
DSTYLE
1002
{
1070
   279
1070
     2
1070
   371
1070
    18
1070
   372
1070
    18
1002
}
  0
DIMENSION
  5
2364
330
1F
100
AcDbEntity
  8
実形
100
AcDbDimension
  2
*D26
 10
889.5494844725481
 20
1158.643702698764
 30
0.0
 11
874.0914160104793
 21
1125.59110293036
 31
0.0
 70
   160
 71
     5
 42
20.0
  3
ISO-25
100
AcDbAlignedDimension
 13
1000.48707276931
 23
1178.643702698764
 33
0.0
 14
992.4870727693097
 24
1158.643702698764
 34
0.0
 50
90.0
100
AcDbRotatedDimension
1001
ACAD
1000
DSTYLE
1002
{
1070
   279
1070
     2
1070
   371
1070
    18
1070
   372
1070
    18
1002
}
  0
CIRCLE
  5
2BBF
330
1F
100
AcDbEntity
  8
実形
100
AcDbCircle
 10
1165.487072769309
 20
1343.643702698764
 30
0.0
 40
44.0
  0
CIRCLE
  5
2BC0
330
1F
100
AcDbEntity
  8
実形
100
AcDbCircle
 10
1165.487072769309
 20
1343.643702698764
 30
0.0
 40
58.0
  0
LINE
  5
2BC1
330
1F
100
AcDbEntity
  8
実形
100
AcDbLine
 10
1015.487072769309
 20
1438.643702698764
 30
0.0
 11
1015.487072769309
 21
1248.643702698764
 31
0.0
  0
LINE
  5
2BC2
330
1F
100
AcDbEntity
  8
実形
100
AcDbLine
 10
1070.487072769309
 20
1193.643702698764
 30
0.0
 11
1260.48707276931
 21
1193.643702698764
 31
0.0
  0
LINE
  5
2BC3
330
1F
100
AcDbEntity
  8
実形
100
AcDbLine
 10
1315.487072769309
 20
1248.643702698764
 30
0.0
 11
1315.48707276931
 21
1438.643702698764
 31
0.0
  0
LINE
  5
2BC4
330
1F
100
AcDbEntity
  8
実形
100
AcDbLine
 10
1260.48707276931
 20
1493.643702698764
 30
0.0
 11
1070.487072769309
 21
1493.643702698764
 31
0.0
  0
LINE
  5
2BCE
330
1F
100
AcDbEntity
  8
実形
100
AcDbLine
 10
1695.48707276931
 20
1493.643702698764
 30
0.0
 11
1794.233049483727
 21
1493.643702698764
 31
0.0
  0
LINE
  5
2BCF
330
1F
100
AcDbEntity
  8
実形
100
AcDbLine
 10
1818.907241345756
 20
1472.666668763225
 30
0.0
 11
1830.487072769309
 21
1401.643702698764
 31
0.0
  0
LINE
  5
2BD0
330
1F
100
AcDbEntity
  8
実形
100
AcDbLine
 10
1830.487072769309
 20
1401.643702698764
 30
0.0
 11
1838.48707276931
 21
1401.643702698764
 31
0.0
  0
LINE
  5
2BD1
330
1F
100
AcDbEntity
  8
実形
100
AcDbLine
 10
1838.48707276931
 20
1401.643702698764
 30
0.0
 11
1838.48707276931
 21
1285.643702698764
 31
0.0
  0
LINE
  5
2BD2
330
1F
100
AcDbEntity
  8
実形
100
AcDbLine
 10
1838.48707276931
 20
1285.643702698764
 30
0.0
 11
1830.487072769309
 21
1285.643702698764
 31
0.0
  0
LINE
  5
2BD3
330
1F
100
AcDbEntity
  8
実形
100
AcDbLine
 10
1830.487072769309
 20
1285.643702698764
 30
0.0
 11
1818.907241345756
 21
1214.620736634303
 31
0.0
  0
LINE
  5
2BD4
330
1F
100
AcDbEntity
  8
実形
100
AcDbLine
 10
1794.233049483728
 20
1193.643702698764
 30
0.0
 11
1695.48707276931
 21
1193.643702698764
 31
0.0
  0
LINE
  5
2BD5
330
1F
100
AcDbEntity
  8
実形
100
AcDbLine
 10
1830.487072769309
 20
1401.643702698764
 30
0.0
 11
1830.487072769309
 21
1285.643702698764
 31
0.0
  0
LINE
  5
2BD6
330
1F
100
AcDbEntity
  8
実形
100
AcDbLine
 10
1315.487072769309
 20
723.6437026987641
 30
0.0
 11
1315.487072769309
 21
624.8977259843463
 31
0.0
  0
LINE
  5
2BD7
330
1F
100
AcDbEntity
  8
実形
100
AcDbLine
 10
1294.510038833771
 20
600.2235341223178
 30
0.0
 11
1223.487072769309
 21
588.6437026987643
 31
0.0
  0
LINE
  5
2BD8
330
1F
100
AcDbEntity
  8
実形
100
AcDbLine
 10
1223.487072769309
 20
588.6437026987643
 30
0.0
 11
1223.487072769309
 21
580.6437026987643
 31
0.0
  0
LINE
  5
2BD9
330
1F
100
AcDbEntity
  8
実形
100
AcDbLine
 10
1223.487072769309
 20
580.6437026987643
 30
0.0
 11
1107.487072769309
 21
580.6437026987643
 31
0.0
  0
LINE
  5
2BDA
330
1F
100
AcDbEntity
  8
実形
100
AcDbLine
 10
1107.487072769309
 20
580.6437026987643
 30
0.0
 11
1107.487072769309
 21
588.6437026987643
 31
0.0
  0
LINE
  5
2BDB
330
1F
100
AcDbEntity
  8
実形
100
AcDbLine
 10
1107.487072769309
 20
588.6437026987643
 30
0.0
 11
1036.464106704848
 21
600.2235341223178
 31
0.0
  0
LINE
  5
2BDC
330
1F
100
AcDbEntity
  8
実形
100
AcDbLine
 10
1015.487072769309
 20
624.8977259843463
 30
0.0
 11
1015.487072769309
 21
723.6437026987641
 31
0.0
  0
LINE
  5
2BDE
330
1F
100
AcDbEntity
  8
実形
100
AcDbLine
 10
1223.487072769309
 20
588.6437026987643
 30
0.0
 11
1107.487072769309
 21
588.6437026987643
 31
0.0
  0
ARC
  5
2BDF
330
1F
100
AcDbEntity
  8
実形
100
AcDbCircle
 10
1070.487072769309
 20
1438.643702698764
 30
0.0
 40
55.0
100
AcDbArc
 50
90.0
 51
180.0
  0
ARC
  5
2BE0
330
1F
100
AcDbEntity
  8
実形
100
AcDbCircle
 10
1070.487072769309
 20
1248.643702698764
 30
0.0
 40
55.0
100
AcDbArc
 50
180.0
 51
270.0
  0
ARC
  5
2BE1
330
1F
100
AcDbEntity
  8
実形
100
AcDbCircle
 10
1260.48707276931
 20
1248.643702698764
 30
0.0
 40
55.0
100
AcDbArc
 50
270.0
 51
0.0
  0
ARC
  5
2BE2
330
1F
100
AcDbEntity
  8
実形
100
AcDbCircle
 10
1260.48707276931
 20
1438.643702698764
 30
0.0
 40
55.0
100
AcDbArc
 50
0.0
 51
90.0
  0
ARC
  5
2BE3
330
1F
100
AcDbEntity
  8
実形
100
AcDbCircle
 10
1040.487072769309
 20
624.8977259843463
 30
0.0
 40
25.0
100
AcDbArc
 50
180.0
 51
260.7397784688286
  0
ARC
  5
2BE4
330
1F
100
AcDbEntity
  8
実形
100
AcDbCircle
 10
1290.487072769309
 20
624.8977259843463
 30
0.0
 40
25.0
100
AcDbArc
 50
279.2602215311715
 51
0.0
  0
ARC
  5
2BE5
330
1F
100
AcDbEntity
  8
実形
100
AcDbCircle
 10
1794.233049483728
 20
1218.643702698764
 30
0.0
 40
25.0
100
AcDbArc
 50
270.0
 51
350.7397784688286
  0
ARC
  5
2BE6
330
1F
100
AcDbEntity
  8
実形
100
AcDbCircle
 10
1794.233049483727
 20
1468.643702698764
 30
0.0
 40
25.0
100
AcDbArc
 50
9.260221531171477
 51
90.0
  0
DIMENSION
  5
2CBF
330
1F
100
AcDbEntity
  8
実形
100
AcDbDimension
  2
*D28
 10
1330.487072769309
 20
1075.197210514488
 30
0.0
 11
1378.208361820299
 21
1091.045750294493
 31
0.0
 70
   160
 71
     5
 42
20.0
  3
ISO-25
100
AcDbAlignedDimension
 13
1350.48707276931
 23
1178.643702698764
 33
0.0
 14
1330.487072769309
 24
1178.643702698764
 34
0.0
 50
180.0
100
AcDbRotatedDimension
1001
ACAD
1000
DSTYLE
1002
{
1070
   279
1070
     2
1070
   371
1070
    18
1070
   372
1070
    18
1002
}
  0
DIMENSION
  5
2CC0
330
1F
100
AcDbEntity
  8
実形
100
AcDbDimension
  2
*D29
 10
1315.487072769309
 20
1075.197210514488
 30
0.0
 11
1285.61958426605
 21
1091.439767510858
 31
0.0
 70
   160
 71
     5
 42
15.0
  3
ISO-25
100
AcDbAlignedDimension
 13
1330.487072769309
 23
1178.643702698764
 33
0.0
 14
1315.487072769309
 24
1178.643702698764
 34
0.0
 50
180.0
100
AcDbRotatedDimension
1001
ACAD
1000
DSTYLE
1002
{
1070
   279
1070
     2
1070
   371
1070
    18
1070
   372
1070
    18
1002
}
  0
DIMENSION
  5
2CC1
330
1F
100
AcDbEntity
  8
実形
100
AcDbDimension
  2
*D27
 10
1350.48707276931
 20
1025.71158492871
 30
0.0
 11
1382.710747104966
 21
1024.317847943677
 31
0.0
 70
   160
  1
33
 71
     5
 42
35.0
  3
ISO-25
100
AcDbAlignedDimension
 13
1315.487072769309
 23
1178.643702698764
 33
0.0
 14
1350.48707276931
 24
1178.643702698764
 34
0.0
 50
180.0
100
AcDbRotatedDimension
1001
ACAD
1000
DSTYLE
1002
{
1070
   279
1070
     2
1070
   282
1070
     0
1070
   281
1070
     0
1070
   371
1070
    18
1070
   372
1070
    18
1002
}
  0
LINE
  5
2D01
330
1F
100
AcDbEntity
  8
実形
100
AcDbLine
 10
1695.48707276931
 20
1173.643702698764
 30
0.0
 11
1685.48707276931
 21
1173.643702698764
 31
0.0
  0
LINE
  5
3044
330
1F
100
AcDbEntity
  8
補助
100
AcDbLine
 10
1894.0
 20
2024.0
 30
0.0
 11
2784.0
 21
2024.0
 31
0.0
  0
LINE
  5
3051
330
1F
100
AcDbEntity
  8
補助
100
AcDbLine
 10
2784.0
 20
1829.0
 30
0.0
 11
2784.0
 21
2024.0
 31
0.0
  0
LINE
  5
3052
330
1F
100
AcDbEntity
  8
補助
100
AcDbLine
 10
2784.0
 20
2024.0
 30
0.0
 11
2784.000000000001
 21
1829.0
 31
0.0
  0
TEXT
  5
3053
330
1F
100
AcDbEntity
  8
0
100
AcDbText
 10
363.2991915588209
 20
127.2997766317869
 30
0.0
 40
30.0
  1
※オーバーシンクの穴あけは片側－７mm（全体で－１４mm）、４角３Rにてお願いします。
100
AcDbText
  0
TEXT
  5
3054
330
1F
100
AcDbEntity
  8
0
100
AcDbText
 10
363.2991915588209
 20
65.32511254901715
 30
0.0
 40
30.0
  1
※アンダーシンクとしての穴あけ加工はかぶり寸法を考慮して現物合わせにてお願いします。
100
AcDbText
  0
TEXT
  5
3055
330
1F
100
AcDbEntity
  8
補助
100
AcDbText
 10
2086.666666666667
 20
84.0
 30
0.0
 40
35.0
  1
尺度
 72
     4
 11
2124.0
 21
101.5
 31
0.0
100
AcDbText
  0
TEXT
  5
3056
330
1F
100
AcDbEntity
  8
補助
100
AcDbText
 10
2086.666666666667
 20
149.0
 30
0.0
 40
35.0
  1
品番
 72
     4
 11
2124.0
 21
166.5
 31
0.0
100
AcDbText
  0
LINE
  5
3057
330
1F
100
AcDbEntity
  8
補助
100
AcDbLine
 10
2064.0
 20
69.0
 30
0.0
 11
2784.0
 21
69.0
 31
0.0
  0
LINE
  5
3058
330
1F
100
AcDbEntity
  8
補助
100
AcDbLine
 10
2064.0
 20
199.0
 30
0.0
 11
2784.0
 21
199.0
 31
0.0
  0
LINE
  5
3059
330
1F
100
AcDbEntity
  8
補助
100
AcDbLine
 10
2064.0
 20
134.0
 30
0.0
 11
2784.0
 21
134.0
 31
0.0
  0
LINE
  5
305A
330
1F
100
AcDbEntity
  8
補助
100
AcDbLine
 10
2064.0
 20
4.0
 30
0.0
 11
2064.0
 21
199.0
 31
0.0
  0
TEXT
  5
305B
330
1F
100
AcDbEntity
  8
補助
100
AcDbText
 10
2300.255774665348
 20
16.49999999999999
 30
0.0
 40
40.0
  1
中外交易株式会社
 72
     4
 11
2488.255774665347
 21
36.5
 31
0.0
100
AcDbText
  0
LINE
  5
305C
330
1F
100
AcDbEntity
  8
補助
100
AcDbLine
 10
2184.0
 20
69.0
 30
0.0
 11
2784.0
 21
69.0
 31
0.0
  0
TEXT
  5
305D
330
1F
100
AcDbEntity
  8
0
100
AcDbText
 10
2303.166666666667
 20
149.0
 30
0.0
 40
35.0
  1
YME370-370S
 72
     4
 11
2484.0
 21
166.5
 31
0.0
100
AcDbText
  0
LINE
  5
305E
102
{ACAD_REACTORS
330
306B
102
}
330
1F
100
AcDbEntity
  8
補助
370
     5
100
AcDbLine
 10
2207.843923164362
 20
40.53787547858519
 30
0.0
 11
2183.255774665347
 21
40.53787547858519
 31
0.0
  0
LINE
  5
305F
102
{ACAD_REACTORS
330
306B
102
}
330
1F
100
AcDbEntity
  8
補助
370
     5
100
AcDbLine
 10
2183.255774665347
 20
40.53787547858519
 30
0.0
 11
2183.255774665347
 21
30.53787547858519
 31
0.0
  0
LINE
  5
3060
102
{ACAD_REACTORS
330
306B
102
}
330
1F
100
AcDbEntity
  8
補助
370
     5
100
AcDbLine
 10
2183.255774665347
 20
30.53787547858519
 30
0.0
 11
2207.346428692676
 21
30.53787547858519
 31
0.0
  0
LINE
  5
3061
102
{ACAD_REACTORS
330
306B
102
}
330
1F
100
AcDbEntity
  8
補助
370
     5
100
AcDbLine
 10
2210.641894042939
 20
56.5
 30
0.0
 11
2210.641894042939
 21
16.5
 31
0.0
  0
LINE
  5
3062
102
{ACAD_REACTORS
330
306B
102
}
330
1F
100
AcDbEntity
  8
補助
370
     5
100
AcDbLine
 10
2210.641894042939
 20
16.5
 30
0.0
 11
2245.64189404294
 21
16.5
 31
0.0
  0
LINE
  5
3063
102
{ACAD_REACTORS
330
306B
102
}
330
1F
100
AcDbEntity
  8
補助
370
     5
100
AcDbLine
 10
2245.64189404294
 20
16.5
 30
0.0
 11
2210.641894042939
 21
36.5
 31
0.0
  0
LINE
  5
3064
102
{ACAD_REACTORS
330
306B
102
}
330
1F
100
AcDbEntity
  8
補助
370
     5
100
AcDbLine
 10
2210.641894042939
 20
36.5
 30
0.0
 11
2245.64189404294
 21
56.5
 31
0.0
  0
LINE
  5
3065
102
{ACAD_REACTORS
330
306B
102
}
330
1F
100
AcDbEntity
  8
補助
370
     5
100
AcDbLine
 10
2245.64189404294
 20
56.5
 30
0.0
 11
2210.641894042939
 21
56.5
 31
0.0
  0
LINE
  5
3066
102
{ACAD_REACTORS
330
306B
102
}
330
1F
100
AcDbEntity
  8
補助
370
     5
100
AcDbLine
 10
2276.75434681301
 20
40.53787547858519
 30
0.0
 11
2252.166198313995
 21
40.53787547858519
 31
0.0
  0
LINE
  5
3067
102
{ACAD_REACTORS
330
306B
102
}
330
1F
100
AcDbEntity
  8
補助
370
     5
100
AcDbLine
 10
2252.166198313995
 20
40.53787547858519
 30
0.0
 11
2252.166198313995
 21
30.53787547858519
 31
0.0
  0
LINE
  5
3068
102
{ACAD_REACTORS
330
306B
102
}
330
1F
100
AcDbEntity
  8
補助
370
     5
100
AcDbLine
 10
2252.166198313995
 20
30.53787547858519
 30
0.0
 11
2276.256852341323
 21
30.53787547858519
 31
0.0
  0
ARC
  5
3069
102
{ACAD_REACTORS
330
306B
102
}
330
1F
100
AcDbEntity
  8
補助
370
     5
100
AcDbCircle
 10
2188.255774665348
 20
36.5
 30
0.0
 40
20.0
100
AcDbArc
 50
11.64772366707613
 51
342.6561058784706
  0
ARC
  5
306A
102
{ACAD_REACTORS
330
306B
102
}
330
1F
100
AcDbEntity
  8
補助
370
     5
100
AcDbCircle
 10
2257.166198313996
 20
36.5
 30
0.0
 40
20.0
100
AcDbArc
 50
11.64772366707613
 51
342.6561058784706
  0
HATCH
  5
306B
330
1F
100
AcDbEntity
  8
補助
100
AcDbHatch
 10
0.0
 20
0.0
 30
0.0
210
0.0
220
0.0
230
1.0
  2
SOLID
 70
     1
 71
     1
 91
        3
 92
        1
 93
        4
 72
     2
 10
2257.166198313996
 20
36.5
 40
20.0
 50
11.64772366707613
 51
342.6561058784706
 73
     1
 72
     1
 10
2276.256852341323
 20
30.53787547858519
 11
2252.166198313995
 21
30.53787547858519
 72
     1
 10
2252.166198313995
 20
30.53787547858519
 11
2252.166198313995
 21
40.53787547858519
 72
     1
 10
2252.166198313995
 20
40.53787547858519
 11
2276.75434681301
 21
40.53787547858519
 97
        4
330
306A
330
3068
330
3067
330
3066
 92
        1
 93
        4
 72
     2
 10
2188.255774665348
 20
36.5
 40
20.0
 50
11.64772366707613
 51
342.6561058784706
 73
     1
 72
     1
 10
2207.346428692676
 20
30.53787547858519
 11
2183.255774665347
 21
30.53787547858519
 72
     1
 10
2183.255774665347
 20
30.53787547858519
 11
2183.255774665347
 21
40.53787547858519
 72
     1
 10
2183.255774665347
 20
40.53787547858519
 11
2207.843923164362
 21
40.53787547858519
 97
        4
330
3069
330
3060
330
305F
330
305E
 92
        1
 93
        5
 72
     1
 10
2245.64189404294
 20
56.5
 11
2210.641894042939
 21
56.5
 72
     1
 10
2210.641894042939
 20
56.5
 11
2210.641894042939
 21
16.5
 72
     1
 10
2210.641894042939
 20
16.5
 11
2245.64189404294
 21
16.5
 72
     1
 10
2245.64189404294
 20
16.5
 11
2210.641894042939
 21
36.5
 72
     1
 10
2210.641894042939
 20
36.5
 11
2245.64189404294
 21
56.5
 97
        5
330
3065
330
3061
330
3062
330
3063
330
3064
 75
     0
 76
     1
 98
        1
 10
-60.0
 20
0.0
  0
LINE
  5
306C
330
1F
100
AcDbEntity
  8
補助
100
AcDbLine
 10
2184.0
 20
69.0
 30
0.0
 11
2184.0
 21
199.0
 31
0.0
  0
TEXT
  5
306D
330
1F
100
AcDbEntity
  8
0
100
AcDbText
 10
2430.916666666667
 20
84.0
 30
0.0
 40
35.0
  1
1：10
 72
     4
 11
2484.0
 21
101.5
 31
0.0
100
AcDbText
  0
LINE
  5
306E
330
1F
100
AcDbEntity
  8
補助
100
AcDbLine
 10
2784.0
 20
69.0
 30
0.0
 11
2784.0
 21
134.0
 31
0.0
  0
LINE
  5
306F
330
1F
100
AcDbEntity
  8
補助
100
AcDbLine
 10
2784.0
 20
134.0
 30
0.0
 11
2784.0
 21
199.0
 31
0.0
  0
LINE
  5
3070
330
1F
100
AcDbEntity
  8
補助
100
AcDbLine
 10
2784.0
 20
4.0
 30
0.0
 11
2784.0
 21
69.0
 31
0.0
  0
LINE
  5
3342
330
1F
100
AcDbEntity
  8
補助
 62
     0
100
AcDbLine
 10
2784.0
 20
1959.000000000001
 30
0.0
 11
2019.387286519283
 21
1959.000000000002
 31
0.0
  0
LINE
  5
3343
330
1F
100
AcDbEntity
  8
補助
 62
     0
100
AcDbLine
 10
2784.0
 20
1894.000000000001
 30
0.0
 11
2019.387286519283
 21
1894.000000000001
 31
0.0
  0
LINE
  5
3344
330
1F
100
AcDbEntity
  8
補助
 62
     0
100
AcDbLine
 10
2784.0
 20
1829.000000000001
 30
0.0
 11
2019.387286519283
 21
1829.000000000001
 31
0.0
  0
LINE
  5
3345
330
1F
100
AcDbEntity
  8
補助
 62
     0
100
AcDbLine
 10
2202.547653420927
 20
1829.000000000001
 30
0.0
 11
2202.547653420927
 21
2024.000000000002
 31
0.0
  0
LINE
  5
3346
330
1F
100
AcDbEntity
  8
補助
 62
     0
100
AcDbLine
 10
2019.387286519283
 20
1829.000000000001
 30
0.0
 11
2019.387286519283
 21
2024.000000000002
 31
0.0
  0
TEXT
  5
3347
330
1F
100
AcDbEntity
  8
補助
 62
     0
100
AcDbText
 10
2050.295698850121
 20
1976.328571428573
 30
0.0
 40
30.0
  1
部品名
  7
明朝
 72
     4
 11
2116.124270278692
 21
1991.500000000002
 31
0.0
100
AcDbText
  0
TEXT
  5
3348
330
1F
100
AcDbEntity
  8
補助
 62
     0
100
AcDbText
 10
2627.614285714286
 20
1976.07142857143
 30
0.0
 40
30.0
  1
厚さ
  7
明朝
 72
     4
 11
2671.5
 21
1991.500000000002
 31
0.0
100
AcDbText
  0
LINE
  5
3349
330
1F
100
AcDbEntity
  8
補助
 62
     0
100
AcDbLine
 10
2559.0
 20
1829.000000000001
 30
0.0
 11
2559.0
 21
2024.000000000002
 31
0.0
  0
TEXT
  5
334A
330
1F
100
AcDbEntity
  8
補助
 62
     0
100
AcDbText
 10
2338.490869919937
 20
1975.947979478156
 30
0.0
 40
30.0
  1
材質
  7
明朝
 72
     4
 11
2382.376584205651
 21
1991.119408049584
 31
0.0
100
AcDbText
  0
TEXT
  5
334B
330
1F
100
AcDbEntity
  8
実形
 62
     0
100
AcDbText
 10
2048.227810657788
 20
1910.557142857144
 30
0.0
 40
30.0
  1
ボウル
  7
明朝
 72
     4
 11
2114.056382086359
 21
1926.500000000001
 31
0.0
100
AcDbText
  0
TEXT
  5
334C
330
1F
100
AcDbEntity
  8
実形
 62
     0
100
AcDbText
 10
2594.700000000001
 20
1911.842857142858
 30
0.0
 40
30.0
  1
1.0ｍｍ
  7
明朝
 72
     4
 11
2671.500000000001
 21
1926.500000000001
 31
0.0
100
AcDbText
  0
TEXT
  5
334D
330
1F
100
AcDbEntity
  8
実形
 62
     0
100
AcDbText
 10
2261.016869107866
 20
1910.728571428572
 30
0.0
 40
30.0
  1
SUS304（BA）
  7
明朝
 72
     4
 11
2392.674011965008
 21
1926.500000000001
 31
0.0
100
AcDbText
  0
TEXT
  5
334E
330
1F
100
AcDbEntity
  8
実形
 62
     0
100
AcDbText
 10
2070.170667800645
 20
1846.242857142858
 30
0.0
 40
30.0
  1
天板
  7
明朝
 72
     4
 11
2114.056382086359
 21
1861.500000000001
 31
0.0
100
AcDbText
  0
TEXT
  5
334F
330
1F
100
AcDbEntity
  8
実形
 62
     0
100
AcDbText
 10
2594.700000000001
 20
1846.842857142858
 30
0.0
 40
30.0
  1
0.8ｍｍ
  7
明朝
 72
     4
 11
2671.500000000001
 21
1861.500000000001
 31
0.0
100
AcDbText
  0
TEXT
  5
3350
330
1F
100
AcDbEntity
  8
実形
 62
     0
100
AcDbText
 10
2218.959726250723
 20
1848.357142857144
 30
0.0
 40
25.0
  1
SUS304（市松ｴﾝﾎﾞｽ）
  7
明朝
 72
     4
 11
2392.674011965008
 21
1861.500000000001
 31
0.0
100
AcDbText
  0
LINE
  5
3351
330
1F
100
AcDbEntity
  8
補助
100
AcDbLine
 10
109.0
 20
4.0
 30
0.0
 11
109.0
 21
2024.0
 31
0.0
  0
VIEWPORT
  5
2E
102
{ACAD_XDICTIONARY
360
3373
102
}
330
1B
100
AcDbEntity
 67
     1
  8
0
100
AcDbViewport
 10
144.7270812988281
 20
101.2295806407928
 30
0.0
 40
411.6736216682419
 41
222.1517806396485
 68
     1
 69
     1
 12
144.7270812988281
 22
101.2295806407928
 13
0.0
 23
0.0
 14
10.0
 24
10.0
 15
10.0
 25
10.0
 16
0.0
 26
0.0
 36
1.0
 17
0.0
 27
0.0
 37
0.0
 42
50.0
 43
0.0
 44
0.0
 45
222.1517806396485
 50
0.0
 51
0.0
 72
   100
 90
    32800
  1

281
     0
 71
     1
 74
     0
110
0.0
120
0.0
130
0.0
111
1.0
121
0.0
131
0.0
112
0.0
122
1.0
132
0.0
 79
     0
146
0.0
  0
VIEWPORT
  5
30
102
{ACAD_XDICTIONARY
360
3375
102
}
330
1B
100
AcDbEntity
 67
     1
  8
0
100
AcDbViewport
 10
139.2237563133239
 20
101.2295821905136
 30
0.0
 40
222.7580101013184
 41
161.9673315048218
 68
     2
 69
     2
 12
210.0
 22
148.5
 13
0.0
 23
0.0
 14
10.0
 24
10.0
 15
10.0
 25
10.0
 16
0.0
 26
0.0
 36
1.0
 17
0.0
 27
0.0
 37
0.0
 42
50.0
 43
0.0
 44
0.0
 45
309.0686705647124
 50
0.0
 51
0.0
 72
   100
 90
    32864
  1

281
     0
 71
     1
 74
     0
110
0.0
120
0.0
130
0.0
111
1.0
121
0.0
131
0.0
112
0.0
122
1.0
132
0.0
 79
     0
146
0.0
  0
ENDSEC
  0
SECTION
  2
OBJECTS
  0
DICTIONARY
  5
C
330
0
100
AcDbDictionary
281
     1
  3
ACAD_COLOR
350
330A
  3
ACAD_GROUP
350
D
  3
ACAD_LAYOUT
350
1A
  3
ACAD_MATERIAL
350
3309
  3
ACAD_MLINESTYLE
350
17
  3
ACAD_PLOTSETTINGS
350
19
  3
ACAD_PLOTSTYLENAME
350
E
  3
ACAD_TABLESTYLE
350
330B
  3
AcadDim
350
124
  3
ACDBHEADERROUNDTRIPXREC
350
336C
  3
AcDbVariableDictionary
350
3312
  0
DICTIONARY
  5
3327
330
2
100
AcDbDictionary
280
     1
281
     1
  3
ACAD_LAYERFILTERS
360
3329
  3
ACAD_LAYERSTATES
360
332B
  3
ACLYDICTIONARY
360
3328
  0
DICTIONARY
  5
3352
330
1F
100
AcDbDictionary
280
     1
281
     1
  3
ACAD_SORTENTS
360
3353
  0
DICTIONARY
  5
3373
330
2E
100
AcDbDictionary
280
     1
281
     1
  3
ACAD_XREC_ROUNDTRIP
360
3374
  0
DICTIONARY
  5
3375
330
30
100
AcDbDictionary
280
     1
281
     1
  3
ACAD_XREC_ROUNDTRIP
360
3376
  0
DICTIONARY
  5
330A
102
{ACAD_REACTORS
330
C
102
}
330
C
100
AcDbDictionary
281
     1
  0
DICTIONARY
  5
D
102
{ACAD_REACTORS
330
C
102
}
330
C
100
AcDbDictionary
281
     1
  0
DICTIONARY
  5
1A
102
{ACAD_REACTORS
330
C
102
}
330
C
100
AcDbDictionary
281
     1
  3
Model
350
22
  3
ﾚｲｱｳﾄ1
350
1E
  3
ﾚｲｱｳﾄ2
350
26
  0
DICTIONARY
  5
3309
102
{ACAD_REACTORS
330
C
102
}
330
C
100
AcDbDictionary
281
     1
  0
DICTIONARY
  5
17
102
{ACAD_REACTORS
330
C
102
}
330
C
100
AcDbDictionary
281
     1
  3
Standard
350
18
  0
DICTIONARY
  5
19
102
{ACAD_REACTORS
330
C
102
}
330
C
100
AcDbDictionary
281
     1
  0
ACDBDICTIONARYWDFLT
  5
E
102
{ACAD_REACTORS
330
C
102
}
330
C
100
AcDbDictionary
281
     1
  3
Normal
350
F
100
AcDbDictionaryWithDefault
340
F
  0
DICTIONARY
  5
330B
102
{ACAD_REACTORS
330
C
102
}
330
C
100
AcDbDictionary
281
     1
  3
Standard
350
330C
  0
XRECORD
  5
124
102
{ACAD_REACTORS
330
C
102
}
330
C
100
AcDbXrecord
280
     1
 90
   990106
  3

 60
     0
 61
     0
 62
     1
 63
     3
 64
     0
 65
     0
 66
     0
 67
     3
 68
     1
 69
     0
 70
     0
 71
     0
 72
     0
 40
30.0
170
     0
  0
DICTIONARY
  5
336C
102
{ACAD_REACTORS
330
C
102
}
330
C
100
AcDbDictionary
281
     1
  0
DICTIONARY
  5
3312
102
{ACAD_REACTORS
330
C
102
}
330
C
100
AcDbDictionary
281
     1
  3
CTABLESTYLE
350
3313
  3
DIMASSOC
350
3369
  3
PROJECTNAME
350
336A
  0
DICTIONARY
  5
3329
102
{ACAD_REACTORS
330
3327
102
}
330
3327
100
AcDbDictionary
281
     1
  0
DICTIONARY
  5
332B
102
{ACAD_REACTORS
330
3327
102
}
330
3327
100
AcDbDictionary
281
     1
  0
DICTIONARY
  5
3328
102
{ACAD_REACTORS
330
3327
102
}
330
3327
100
AcDbDictionary
281
     1
1001
ACAD
1000
<All
  0
SORTENTSTABLE
  5
3353
102
{ACAD_REACTORS
330
3352
102
}
330
3352
100
AcDbSortentsTable
330
1F
331
3342
  5
3343
331
1878
  5
1879
331
12A9
  5
173D
331
1880
  5
1881
331
1888
  5
1889
331
2E6
  5
2FE
331
1890
  5
1891
331
2BDB
  5
2BDC
331
2364
  5
2BBF
331
2BE3
  5
2BE4
331
3052
  5
3053
331
305A
  5
305B
331
334A
  5
334B
331
2FE
  5
33A
331
18A0
  5
18A1
331
4CC
  5
4F7
331
18B8
  5
18B9
331
3062
  5
3063
331
306A
  5
306B
331
2BC4
  5
2BCE
331
2BD4
  5
2BD5
331
3343
  5
3344
331
1879
  5
187A
331
1881
  5
1882
331
1889
  5
188A
331
3CE
  5
3DC
331
1891
  5
1892
331
2BDC
  5
2BDE
331
2BE4
  5
2BE5
331
3053
  5
3054
331
305B
  5
305C
331
334B
  5
334C
331
A0
  5
A0
331
18A1
  5
18A2
331
18B9
  5
18BA
331
3F6
  5
44B
331
3063
  5
3064
331
306B
  5
306C
331
2BD5
  5
2BD6
331
2356
  5
2364
331
3344
  5
3345
331
187A
  5
187B
331
1882
  5
1883
331
188A
  5
188B
331
1892
  5
1893
331
2BE5
  5
2BE6
331
3044
  5
3051
331
3054
  5
3055
331
305C
  5
305D
331
334C
  5
334D
331
505
  5
532
331
18A2
  5
18B3
331
4BE
  5
4CC
331
18BA
  5
18BB
331
3064
  5
3065
331
306C
  5
306D
331
2347
  5
2356
331
2BCE
  5
2BCF
331
2BD6
  5
2BD7
331
3345
  5
3346
331
368
  5
3CE
331
187B
  5
187C
331
1883
  5
1884
331
555
  5
569
331
22FA
  5
2339
331
188B
  5
188C
331
1893
  5
1894
331
2BDE
  5
2BDF
331
2BE6
  5
2CBF
331
3055
  5
3056
331
305D
  5
305E
331
334D
  5
334E
331
18B3
  5
18B4
331
18BB
  5
18BD
331
3065
  5
3066
331
2BBF
  5
2BC0
331
306D
  5
306E
331
2BCF
  5
2BD0
331
2BD7
  5
2BD8
331
3346
  5
3347
331
187C
  5
187D
331
4F7
  5
4F8
331
1884
  5
1885
331
173D
  5
17AE
331
188C
  5
188D
331
1894
  5
1895
331
73
  5
73
331
2BDF
  5
2BE0
331
3056
  5
3057
331
2CBF
  5
2CC0
331
305E
  5
305F
331
334E
  5
334F
331
33A
  5
33B
331
18B4
  5
18B5
331
2339
  5
2347
331
3066
  5
3067
331
2BC0
  5
2BC1
331
306E
  5
306F
331
2BD0
  5
2BD1
331
3347
  5
3348
331
22EC
  5
22FA
331
187D
  5
187E
331
4F8
  5
505
331
1885
  5
1886
331
188D
  5
188E
331
1895
  5
1896
331
9C
  5
9C
331
2BD8
  5
2BD9
331
2BE0
  5
2BE1
331
3057
  5
3058
331
305F
  5
3060
331
334F
  5
3350
331
57F
  5
F27
331
33B
  5
33C
331
18B5
  5
18B7
331
17AE
  5
1877
331
35B
  5
368
331
18BD
  5
18BE
331
F27
  5
1238
331
2CC0
  5
2CC1
331
3067
  5
3068
331
2BC1
  5
2BC2
331
306F
  5
3070
331
2BD1
  5
2BD2
331
548
  5
555
331
187E
  5
187F
331
1886
  5
1887
331
188E
  5
188F
331
1896
  5
18A0
331
2BD9
  5
2BDA
331
2BE1
  5
2BE2
331
3058
  5
3059
331
3348
  5
3349
331
3350
  5
3351
331
A5
  5
A5
331
33C
  5
33D
331
18BE
  5
18BF
331
1877
  5
1878
331
2CC1
  5
2D01
331
3060
  5
3061
331
2BC2
  5
2BC3
331
3068
  5
3069
331
3070
  5
3342
331
2BD2
  5
2BD3
331
1238
  5
12A9
331
44B
  5
4A3
331
187F
  5
1880
331
1887
  5
1888
331
569
  5
57F
331
4A3
  5
4BE
331
188F
  5
1890
331
2D01
  5
3044
331
2BDA
  5
2BDB
331
2BE2
  5
2BE3
331
3051
  5
3052
331
3059
  5
305A
331
3349
  5
334A
331
3351
  5
2E6
331
3DC
  5
3F6
331
33D
  5
35B
331
532
  5
548
331
18B7
  5
18B8
331
18BF
  5
22EC
331
3061
  5
3062
331
3069
  5
306A
331
2BC3
  5
2BC4
331
2BD3
  5
2BD4
  0
XRECORD
  5
3374
102
{ACAD_REACTORS
330
3373
102
}
330
3373
100
AcDbXrecord
280
     1
102
SHADEPLOT
 70
     0
  0
XRECORD
  5
3376
102
{ACAD_REACTORS
330
3375
102
}
330
3375
100
AcDbXrecord
280
     1
102
SHADEPLOT
 70
     0
  0
LAYOUT
  5
22
102
{ACAD_XDICTIONARY
360
336F
102
}
102
{ACAD_REACTORS
330
1A
102
}
330
1A
100
AcDbPlotSettings
  1

  2
EPSON PM-800C
  4
A4
  6

 40
3.757083177566528
 41
14.7637300491333
 42
3.757080078125
 43
3.757080078125
 44
209.9733276367187
 45
296.9683227539062
 46
0.0
 47
0.0
 48
0.0
 49
0.0
140
0.0
141
0.0
142
1.0
143
10.0
 70
 11952
 72
     1
 73
     1
 74
     2
  7

 75
    20
147
0.1
148
0.0
149
0.0
100
AcDbLayout
  1
Model
 70
     1
 71
     0
 10
0.0
 20
0.0
 11
12.0
 21
9.0
 12
0.0
 22
0.0
 32
0.0
 14
0.0
 24
0.0
 34
0.0
 15
0.0
 25
0.0
 35
0.0
146
0.0
 13
0.0
 23
0.0
 33
0.0
 16
1.0
 26
0.0
 36
0.0
 17
0.0
 27
1.0
 37
0.0
 76
     0
330
1F
  0
LAYOUT
  5
1E
102
{ACAD_XDICTIONARY
360
336D
102
}
102
{ACAD_REACTORS
330
1A
102
}
330
1A
100
AcDbPlotSettings
  1

  2
EPSON PM-800C
  4
A4
  6

 40
3.757083177566528
 41
14.7637300491333
 42
3.757080078125
 43
3.757080078125
 44
209.9733276367187
 45
296.9683227539062
 46
0.0
 47
0.0
 48
0.0
 49
0.0
140
0.0
141
0.0
142
1.0
143
1.0
 70
   688
 72
     1
 73
     1
 74
     5
  7

 75
    16
147
1.0
148
0.0
149
0.0
100
AcDbLayout
  1
ﾚｲｱｳﾄ1
 70
     1
 71
     1
 10
-3.757080078125
 20
-3.757083177566528
 11
293.2112426757813
 21
206.2162444591522
 12
0.0
 22
0.0
 32
0.0
 14
27.8447512626648
 24
20.24591643810271
 34
0.0
 15
250.6027613639831
 25
182.2132479429245
 35
0.0
146
0.0
 13
0.0
 23
0.0
 33
0.0
 16
1.0
 26
0.0
 36
0.0
 17
0.0
 27
1.0
 37
0.0
 76
     0
330
1B
331
2E
  0
LAYOUT
  5
26
102
{ACAD_XDICTIONARY
360
3371
102
}
102
{ACAD_REACTORS
330
1A
102
}
330
1A
100
AcDbPlotSettings
  1

  2
EPSON PM-800C
  4

  6

 40
0.0
 41
0.0
 42
0.0
 43
0.0
 44
0.0
 45
0.0
 46
0.0
 47
0.0
 48
0.0
 49
0.0
140
0.0
141
0.0
142
1.0
143
1.0
 70
   688
 72
     0
 73
     0
 74
     5
  7

 75
    16
147
1.0
148
0.0
149
0.0
100
AcDbLayout
  1
ﾚｲｱｳﾄ2
 70
     1
 71
     2
 10
0.0
 20
0.0
 11
12.0
 21
9.0
 12
0.0
 22
0.0
 32
0.0
 14
0.0
 24
0.0
 34
0.0
 15
0.0
 25
0.0
 35
0.0
146
0.0
 13
0.0
 23
0.0
 33
0.0
 16
1.0
 26
0.0
 36
0.0
 17
0.0
 27
1.0
 37
0.0
 76
     0
330
23
  0
MLINESTYLE
  5
18
102
{ACAD_REACTORS
330
17
102
}
330
17
100
AcDbMlineStyle
  2
STANDARD
 70
     0
  3

 62
   256
 51
90.0
 52
90.0
 71
     2
 49
0.5
 62
   256
  6
BYLAYER
 49
-0.5
 62
   256
  6
BYLAYER
  0
ACDBPLACEHOLDER
  5
F
102
{ACAD_REACTORS
330
E
102
}
330
E
  0
TABLESTYLE
  5
330C
102
{ACAD_REACTORS
330
330B
102
}
330
330B
100
AcDbTableStyle
  3
Standard
 70
     0
 71
     0
 40
1.5
 41
1.5
280
     0
281
     0
  7
Standard
140
4.5
170
     2
 62
     0
 63
     7
283
     0
274
    -2
284
     1
 64
     0
275
    -2
285
     1
 65
     0
276
    -2
286
     1
 66
     0
277
    -2
287
     1
 67
     0
278
    -2
288
     1
 68
     0
279
    -2
289
     1
 69
     0
  7
Standard
140
6.0
170
     5
 62
     0
 63
     7
283
     0
274
    -2
284
     1
 64
     0
275
    -2
285
     1
 65
     0
276
    -2
286
     1
 66
     0
277
    -2
287
     1
 67
     0
278
    -2
288
     1
 68
     0
279
    -2
289
     1
 69
     0
  7
Standard
140
4.5
170
     5
 62
     0
 63
     7
283
     0
274
    -2
284
     1
 64
     0
275
    -2
285
     1
 65
     0
276
    -2
286
     1
 66
     0
277
    -2
287
     1
 67
     0
278
    -2
288
     1
 68
     0
279
    -2
289
     1
 69
     0
  0
DICTIONARYVAR
  5
3313
102
{ACAD_REACTORS
330
3312
102
}
330
3312
100
DictionaryVariables
280
     0
  1
STANDARD
  0
DICTIONARYVAR
  5
3369
102
{ACAD_REACTORS
330
3312
102
}
330
3312
100
DictionaryVariables
280
     0
  1
1
  0
DICTIONARYVAR
  5
336A
102
{ACAD_REACTORS
330
3312
102
}
330
3312
100
DictionaryVariables
280
     0
  1

  0
DICTIONARY
  5
336F
330
22
100
AcDbDictionary
280
     1
281
     1
  3
ACAD_XREC_ROUNDTRIP
360
3370
  0
DICTIONARY
  5
336D
330
1E
100
AcDbDictionary
280
     1
281
     1
  3
ACAD_XREC_ROUNDTRIP
360
336E
  0
DICTIONARY
  5
3371
330
26
100
AcDbDictionary
280
     1
281
     1
  3
ACAD_XREC_ROUNDTRIP
360
3372
  0
XRECORD
  5
3370
102
{ACAD_REACTORS
330
336F
102
}
330
336F
100
AcDbXrecord
280
     1
102
SHADEPLOT
 70
     0
102
SHADEPLOTRESLEVEL
 70
     2
102
SHADEPLOTCUSTOMDPI
 70
   300
  0
XRECORD
  5
336E
102
{ACAD_REACTORS
330
336D
102
}
330
336D
100
AcDbXrecord
280
     1
102
SHADEPLOT
 70
     0
102
SHADEPLOTRESLEVEL
 70
     2
102
SHADEPLOTCUSTOMDPI
 70
   300
  0
XRECORD
  5
3372
102
{ACAD_REACTORS
330
3371
102
}
330
3371
100
AcDbXrecord
280
     1
102
SHADEPLOT
 70
     0
102
SHADEPLOTRESLEVEL
 70
     2
102
SHADEPLOTCUSTOMDPI
 70
   300
  0
ENDSEC
  0
EOF
