  0
SECTION
  2
HEADER
  9
$ACADVER
  1
AC1015
  9
$ACADMAINTVER
 70
    20
  9
$DWGCODEPAGE
  3
ANSI_932
  9
$INSBASE
 10
0.0
 20
0.0
 30
0.0
  9
$EXTMIN
 10
109.0
 20
4.0
 30
0.0
  9
$EXTMAX
 10
2784.000000000001
 20
2024.000000000002
 30
0.0
  9
$LIMMIN
 10
0.0
 20
0.0
  9
$LIMMAX
 10
29700.0
 20
21000.0
  9
$ORTHOMODE
 70
     1
  9
$REGENMODE
 70
     1
  9
$FILLMODE
 70
     1
  9
$QTEXTMODE
 70
     0
  9
$MIRRTEXT
 70
     1
  9
$LTSCALE
 40
4.0
  9
$ATTMODE
 70
     1
  9
$TEXTSIZE
 40
25.0
  9
$TRACEWID
 40
1.0
  9
$TEXTSTYLE
  7
Standard
  9
$CLAYER
  8
実形
  9
$CELTYPE
  6
ByLayer
  9
$CECOLOR
 62
   256
  9
$CELTSCALE
 40
1.0
  9
$DISPSILH
 70
     0
  9
$DIMSCALE
 40
1.0
  9
$DIMASZ
 40
35.0
  9
$DIMEXO
 40
65.0
  9
$DIMDLI
 40
3.75
  9
$DIMRND
 40
0.0
  9
$DIMDLE
 40
0.0
  9
$DIMEXE
 40
0.0
  9
$DIMTP
 40
0.0
  9
$DIMTM
 40
0.0
  9
$DIMTXT
 40
25.0
  9
$DIMCEN
 40
2.5
  9
$DIMTSZ
 40
0.0
  9
$DIMTOL
 70
     0
  9
$DIMLIM
 70
     0
  9
$DIMTIH
 70
     0
  9
$DIMTOH
 70
     0
  9
$DIMSE1
 70
     0
  9
$DIMSE2
 70
     0
  9
$DIMTAD
 70
     1
  9
$DIMZIN
 70
     8
  9
$DIMBLK
  1
DotSmall
  9
$DIMASO
 70
     1
  9
$DIMSHO
 70
     1
  9
$DIMPOST
  1

  9
$DIMAPOST
  1

  9
$DIMALT
 70
     0
  9
$DIMALTD
 70
     3
  9
$DIMALTF
 40
0.03937007874016
  9
$DIMLFAC
 40
1.0
  9
$DIMTOFL
 70
     1
  9
$DIMTVP
 40
0.0
  9
$DIMTIX
 70
     0
  9
$DIMSOXD
 70
     0
  9
$DIMSAH
 70
     0
  9
$DIMBLK1
  1

  9
$DIMBLK2
  1

  9
$DIMSTYLE
  2
ISO-25
  9
$DIMCLRD
 70
     0
  9
$DIMCLRE
 70
     0
  9
$DIMCLRT
 70
     0
  9
$DIMTFAC
 40
1.0
  9
$DIMGAP
 40
6.25
  9
$DIMJUST
 70
     0
  9
$DIMSD1
 70
     0
  9
$DIMSD2
 70
     0
  9
$DIMTOLJ
 70
     0
  9
$DIMTZIN
 70
     8
  9
$DIMALTZ
 70
     0
  9
$DIMALTTZ
 70
     0
  9
$DIMUPT
 70
     0
  9
$DIMDEC
 70
     2
  9
$DIMTDEC
 70
     2
  9
$DIMALTU
 70
     2
  9
$DIMALTTD
 70
     3
  9
$DIMTXSTY
  7
Standard
  9
$DIMAUNIT
 70
     0
  9
$DIMADEC
 70
     0
  9
$DIMALTRND
 40
0.0
  9
$DIMAZIN
 70
     0
  9
$DIMDSEP
 70
    46
  9
$DIMATFIT
 70
     3
  9
$DIMFRAC
 70
     0
  9
$DIMLDRBLK
  1
Open30
  9
$DIMLUNIT
 70
     2
  9
$DIMLWD
 70
    18
  9
$DIMLWE
 70
    18
  9
$DIMTMOVE
 70
     0
  9
$LUNITS
 70
     2
  9
$LUPREC
 70
     2
  9
$SKETCHINC
 40
1.0
  9
$FILLETRAD
 40
60.0
  9
$AUNITS
 70
     0
  9
$AUPREC
 70
     0
  9
$MENU
  1
.
  9
$ELEVATION
 40
0.0
  9
$PELEVATION
 40
0.0
  9
$THICKNESS
 40
0.0
  9
$LIMCHECK
 70
     1
  9
$CHAMFERA
 40
10.0
  9
$CHAMFERB
 40
10.0
  9
$CHAMFERC
 40
20.0
  9
$CHAMFERD
 40
0.0
  9
$SKPOLY
 70
     0
  9
$TDCREATE
 40
2451673.575802199
  9
$TDUCREATE
 40
2451673.200802199
  9
$TDUPDATE
 40
2458810.731137246
  9
$TDUUPDATE
 40
2458810.356137246
  9
$TDINDWG
 40
1.2730121759
  9
$TDUSRTIMER
 40
1.2730114815
  9
$USRTIMER
 70
     1
  9
$ANGBASE
 50
0.0
  9
$ANGDIR
 70
     0
  9
$PDMODE
 70
     3
  9
$PDSIZE
 40
0.0
  9
$PLINEWID
 40
0.0
  9
$SPLFRAME
 70
     0
  9
$SPLINETYPE
 70
     6
  9
$SPLINESEGS
 70
     8
  9
$HANDSEED
  5
2380
  9
$SURFTAB1
 70
     6
  9
$SURFTAB2
 70
     6
  9
$SURFTYPE
 70
     6
  9
$SURFU
 70
     6
  9
$SURFV
 70
     6
  9
$UCSBASE
  2

  9
$UCSNAME
  2

  9
$UCSORG
 10
0.0
 20
0.0
 30
0.0
  9
$UCSXDIR
 10
1.0
 20
0.0
 30
0.0
  9
$UCSYDIR
 10
0.0
 20
1.0
 30
0.0
  9
$UCSORTHOREF
  2

  9
$UCSORTHOVIEW
 70
     0
  9
$UCSORGTOP
 10
0.0
 20
0.0
 30
0.0
  9
$UCSORGBOTTOM
 10
0.0
 20
0.0
 30
0.0
  9
$UCSORGLEFT
 10
0.0
 20
0.0
 30
0.0
  9
$UCSORGRIGHT
 10
0.0
 20
0.0
 30
0.0
  9
$UCSORGFRONT
 10
0.0
 20
0.0
 30
0.0
  9
$UCSORGBACK
 10
0.0
 20
0.0
 30
0.0
  9
$PUCSBASE
  2

  9
$PUCSNAME
  2

  9
$PUCSORG
 10
0.0
 20
0.0
 30
0.0
  9
$PUCSXDIR
 10
1.0
 20
0.0
 30
0.0
  9
$PUCSYDIR
 10
0.0
 20
1.0
 30
0.0
  9
$PUCSORTHOREF
  2

  9
$PUCSORTHOVIEW
 70
     0
  9
$PUCSORGTOP
 10
0.0
 20
0.0
 30
0.0
  9
$PUCSORGBOTTOM
 10
0.0
 20
0.0
 30
0.0
  9
$PUCSORGLEFT
 10
0.0
 20
0.0
 30
0.0
  9
$PUCSORGRIGHT
 10
0.0
 20
0.0
 30
0.0
  9
$PUCSORGFRONT
 10
0.0
 20
0.0
 30
0.0
  9
$PUCSORGBACK
 10
0.0
 20
0.0
 30
0.0
  9
$USERI1
 70
     0
  9
$USERI2
 70
     0
  9
$USERI3
 70
     0
  9
$USERI4
 70
     0
  9
$USERI5
 70
     0
  9
$USERR1
 40
0.0
  9
$USERR2
 40
0.0
  9
$USERR3
 40
0.0
  9
$USERR4
 40
0.0
  9
$USERR5
 40
0.0
  9
$WORLDVIEW
 70
     1
  9
$SHADEDGE
 70
     3
  9
$SHADEDIF
 70
    70
  9
$TILEMODE
 70
     1
  9
$MAXACTVP
 70
    64
  9
$PINSBASE
 10
0.0
 20
0.0
 30
0.0
  9
$PLIMCHECK
 70
     0
  9
$PEXTMIN
 10
27.8447512626648
 20
20.24591643810271
 30
0.0
  9
$PEXTMAX
 10
250.6027613639831
 20
182.2132479429245
 30
0.0
  9
$PLIMMIN
 10
-3.757080078125
 20
-3.757083177566528
  9
$PLIMMAX
 10
293.2112426757813
 20
206.2162444591522
  9
$UNITMODE
 70
     0
  9
$VISRETAIN
 70
     1
  9
$PLINEGEN
 70
     0
  9
$PSLTSCALE
 70
     1
  9
$TREEDEPTH
 70
  3020
  9
$CMLSTYLE
  2
Standard
  9
$CMLJUST
 70
     0
  9
$CMLSCALE
 40
20.0
  9
$PROXYGRAPHICS
 70
     1
  9
$MEASUREMENT
 70
     1
  9
$CELWEIGHT
370
    -1
  9
$ENDCAPS
280
     0
  9
$JOINSTYLE
280
     0
  9
$LWDISPLAY
290
     0
  9
$INSUNITS
 70
     4
  9
$HYPERLINKBASE
  1

  9
$STYLESHEET
  1

  9
$XEDIT
290
     1
  9
$CEPSNTYPE
380
     0
  9
$PSTYLEMODE
290
     1
  9
$FINGERPRINTGUID
  2
{C8EA1F16-24C9-11D4-9416-CE0A3B32152F}
  9
$VERSIONGUID
  2
{D2E9BFA5-B63F-4A6C-9C03-21D2344728CB}
  9
$EXTNAMES
290
     1
  9
$PSVPSCALE
 40
0.0
  9
$OLESTARTUP
290
     0
  0
ENDSEC
  0
SECTION
  2
CLASSES
  0
CLASS
  1
ACDBDICTIONARYWDFLT
  2
AcDbDictionaryWithDefault
  3
ObjectDBX Classes
 90
        0
280
     0
281
     0
  0
CLASS
  1
ACDBPLACEHOLDER
  2
AcDbPlaceHolder
  3
ObjectDBX Classes
 90
        0
280
     0
281
     0
  0
CLASS
  1
LAYOUT
  2
AcDbLayout
  3
ObjectDBX Classes
 90
        0
280
     0
281
     0
  0
CLASS
  1
TABLESTYLE
  2
AcDbTableStyle
  3
ObjectDBX Classes
 90
     2047
280
     0
281
     0
  0
CLASS
  1
DICTIONARYVAR
  2
AcDbDictionaryVar
  3
ObjectDBX Classes
 90
        0
280
     0
281
     0
  0
CLASS
  1
SORTENTSTABLE
  2
AcDbSortentsTable
  3
ObjectDBX Classes
 90
        0
280
     0
281
     0
  0
ENDSEC
  0
SECTION
  2
TABLES
  0
TABLE
  2
VPORT
  5
8
330
0
100
AcDbSymbolTable
 70
     2
  0
VPORT
  5
2374
330
8
100
AcDbSymbolTableRecord
100
AcDbViewportTableRecord
  2
*Active
 70
     0
 10
0.0
 20
0.0
 11
1.0
 21
1.0
 12
1699.85538243213
 22
889.5377026332099
 13
0.0
 23
0.0
 14
10.0
 24
10.0
 15
10.0
 25
10.0
 16
0.0
 26
0.0
 36
1.0
 17
0.0
 27
0.0
 37
0.0
 40
2840.628993655788
 41
1.29038112522686
 42
50.0
 43
0.0
 44
0.0
 50
0.0
 51
0.0
 71
     0
 72
   100
 73
     1
 74
     3
 75
     0
 76
     0
 77
     0
 78
     0
281
     0
 65
     1
110
0.0
120
0.0
130
0.0
111
1.0
121
0.0
131
0.0
112
0.0
122
1.0
132
0.0
 79
     0
146
0.0
  0
ENDTAB
  0
TABLE
  2
LTYPE
  5
5
330
0
100
AcDbSymbolTable
 70
    46
  0
LTYPE
  5
14
330
5
100
AcDbSymbolTableRecord
100
AcDbLinetypeTableRecord
  2
ByBlock
 70
     0
  3

 72
    65
 73
     0
 40
0.0
  0
LTYPE
  5
15
330
5
100
AcDbSymbolTableRecord
100
AcDbLinetypeTableRecord
  2
ByLayer
 70
     0
  3

 72
    65
 73
     0
 40
0.0
  0
LTYPE
  5
16
330
5
100
AcDbSymbolTableRecord
100
AcDbLinetypeTableRecord
  2
Continuous
 70
     0
  3
Solid line
 72
    65
 73
     0
 40
0.0
  0
LTYPE
  5
34
330
5
100
AcDbSymbolTableRecord
100
AcDbLinetypeTableRecord
  2
ACAD_ISO02W100
 70
     0
  3
ISO dash __ __ __ __ __ __ __ __ __ __ __ __ __
 72
    65
 73
     2
 40
15.0
 49
12.0
 74
     0
 49
-3.0
 74
     0
  0
LTYPE
  5
35
330
5
100
AcDbSymbolTableRecord
100
AcDbLinetypeTableRecord
  2
ACAD_ISO03W100
 70
     0
  3
ISO dash space __    __    __    __    __    __
 72
    65
 73
     2
 40
30.0
 49
12.0
 74
     0
 49
-18.0
 74
     0
  0
LTYPE
  5
36
330
5
100
AcDbSymbolTableRecord
100
AcDbLinetypeTableRecord
  2
ACAD_ISO04W100
 70
     0
  3
ISO long-dash dot ____ . ____ . ____ . ____ . _
 72
    65
 73
     4
 40
30.0
 49
24.0
 74
     0
 49
-3.0
 74
     0
 49
0.0
 74
     0
 49
-3.0
 74
     0
  0
LTYPE
  5
37
330
5
100
AcDbSymbolTableRecord
100
AcDbLinetypeTableRecord
  2
ACAD_ISO05W100
 70
     0
  3
ISO long-dash double-dot ____ .. ____ .. ____ .
 72
    65
 73
     6
 40
34.0
 49
24.0
 74
     0
 49
-3.0
 74
     0
 49
0.5
 74
     0
 49
-3.0
 74
     0
 49
0.5
 74
     0
 49
-3.0
 74
     0
  0
LTYPE
  5
38
330
5
100
AcDbSymbolTableRecord
100
AcDbLinetypeTableRecord
  2
ACAD_ISO06W100
 70
     0
  3
ISO long-dash triple-dot ____ ... ____ ... ____
 72
    65
 73
     8
 40
37.5
 49
24.0
 74
     0
 49
-3.0
 74
     0
 49
0.5
 74
     0
 49
-3.0
 74
     0
 49
0.5
 74
     0
 49
-3.0
 74
     0
 49
0.5
 74
     0
 49
-3.0
 74
     0
  0
LTYPE
  5
39
330
5
100
AcDbSymbolTableRecord
100
AcDbLinetypeTableRecord
  2
ACAD_ISO07W100
 70
     0
  3
ISO dot . . . . . . . . . . . . . . . . . . . .
 72
    65
 73
     2
 40
3.0
 49
0.0
 74
     0
 49
-3.0
 74
     0
  0
LTYPE
  5
3A
330
5
100
AcDbSymbolTableRecord
100
AcDbLinetypeTableRecord
  2
ACAD_ISO08W100
 70
     0
  3
ISO long-dash short-dash ____ __ ____ __ ____ _
 72
    65
 73
     4
 40
36.0
 49
24.0
 74
     0
 49
-3.0
 74
     0
 49
6.0
 74
     0
 49
-3.0
 74
     0
  0
LTYPE
  5
3B
330
5
100
AcDbSymbolTableRecord
100
AcDbLinetypeTableRecord
  2
ACAD_ISO09W100
 70
     0
  3
ISO long-dash double-short-dash ____ __ __ ____
 72
    65
 73
     6
 40
45.0
 49
24.0
 74
     0
 49
-3.0
 74
     0
 49
6.0
 74
     0
 49
-3.0
 74
     0
 49
6.0
 74
     0
 49
-3.0
 74
     0
  0
LTYPE
  5
3C
330
5
100
AcDbSymbolTableRecord
100
AcDbLinetypeTableRecord
  2
ACAD_ISO10W100
 70
     0
  3
ISO dash dot __ . __ . __ . __ . __ . __ . __ .
 72
    65
 73
     4
 40
18.0
 49
12.0
 74
     0
 49
-3.0
 74
     0
 49
0.0
 74
     0
 49
-3.0
 74
     0
  0
LTYPE
  5
3D
330
5
100
AcDbSymbolTableRecord
100
AcDbLinetypeTableRecord
  2
ACAD_ISO11W100
 70
     0
  3
ISO double-dash dot __ __ . __ __ . __ __ . __ 
 72
    65
 73
     6
 40
33.0
 49
12.0
 74
     0
 49
-3.0
 74
     0
 49
12.0
 74
     0
 49
-3.0
 74
     0
 49
0.0
 74
     0
 49
-3.0
 74
     0
  0
LTYPE
  5
3E
330
5
100
AcDbSymbolTableRecord
100
AcDbLinetypeTableRecord
  2
ACAD_ISO12W100
 70
     0
  3
ISO dash double-dot __ . . __ . . __ . . __ . .
 72
    65
 73
     6
 40
21.0
 49
12.0
 74
     0
 49
-3.0
 74
     0
 49
0.0
 74
     0
 49
-3.0
 74
     0
 49
0.0
 74
     0
 49
-3.0
 74
     0
  0
LTYPE
  5
3F
330
5
100
AcDbSymbolTableRecord
100
AcDbLinetypeTableRecord
  2
ACAD_ISO13W100
 70
     0
  3
ISO double-dash double-dot __ __ . . __ __ . . 
 72
    65
 73
     8
 40
36.0
 49
12.0
 74
     0
 49
-3.0
 74
     0
 49
12.0
 74
     0
 49
-3.0
 74
     0
 49
0.0
 74
     0
 49
-3.0
 74
     0
 49
0.0
 74
     0
 49
-3.0
 74
     0
  0
LTYPE
  5
40
330
5
100
AcDbSymbolTableRecord
100
AcDbLinetypeTableRecord
  2
ACAD_ISO14W100
 70
     0
  3
ISO dash triple-dot __ . . . __ . . . __ . . . 
 72
    65
 73
     8
 40
24.0
 49
12.0
 74
     0
 49
-3.0
 74
     0
 49
0.0
 74
     0
 49
-3.0
 74
     0
 49
0.0
 74
     0
 49
-3.0
 74
     0
 49
0.0
 74
     0
 49
-3.0
 74
     0
  0
LTYPE
  5
41
330
5
100
AcDbSymbolTableRecord
100
AcDbLinetypeTableRecord
  2
ACAD_ISO15W100
 70
     0
  3
ISO double-dash triple-dot __ __ . . . __ __ . 
 72
    65
 73
    10
 40
39.0
 49
12.0
 74
     0
 49
-3.0
 74
     0
 49
12.0
 74
     0
 49
-3.0
 74
     0
 49
0.0
 74
     0
 49
-3.0
 74
     0
 49
0.0
 74
     0
 49
-3.0
 74
     0
 49
0.0
 74
     0
 49
-3.0
 74
     0
  0
LTYPE
  5
42
330
5
100
AcDbSymbolTableRecord
100
AcDbLinetypeTableRecord
  2
BATTING
 70
     0
  3
Batting SSSSSSSSSSSSSSSSSSSSSSSSSSSSSSSSSSSSSSS
 72
    65
 73
     4
 40
10.16254
 49
0.00254
 74
     0
 49
-2.54
 74
     4
 75
   134
340
33
 46
2.54
 50
0.0
 44
-2.54
 45
0.0
 49
-5.08
 74
     4
 75
   134
340
33
 46
2.54
 50
180.0
 44
2.54
 45
0.0
 49
-2.54
 74
     0
  0
LTYPE
  5
43
330
5
100
AcDbSymbolTableRecord
100
AcDbLinetypeTableRecord
  2
BORDER
 70
     0
  3
Border __ __ . __ __ . __ __ . __ __ . __ __ .
 72
    65
 73
     6
 40
44.45
 49
12.7
 74
     0
 49
-6.349999999999999
 74
     0
 49
12.7
 74
     0
 49
-6.349999999999999
 74
     0
 49
0.0
 74
     0
 49
-6.349999999999999
 74
     0
  0
LTYPE
  5
44
330
5
100
AcDbSymbolTableRecord
100
AcDbLinetypeTableRecord
  2
BORDER2
 70
     0
  3
Border (.5x) __.__.__.__.__.__.__.__.__.__.__.
 72
    65
 73
     6
 40
22.225
 49
6.349999999999999
 74
     0
 49
-3.174999999999999
 74
     0
 49
6.349999999999999
 74
     0
 49
-3.174999999999999
 74
     0
 49
0.0
 74
     0
 49
-3.174999999999999
 74
     0
  0
LTYPE
  5
45
330
5
100
AcDbSymbolTableRecord
100
AcDbLinetypeTableRecord
  2
BORDERX2
 70
     0
  3
Border (2x) ____  ____  .  ____  ____  .  ___
 72
    65
 73
     6
 40
88.9
 49
25.4
 74
     0
 49
-12.7
 74
     0
 49
25.4
 74
     0
 49
-12.7
 74
     0
 49
0.0
 74
     0
 49
-12.7
 74
     0
  0
LTYPE
  5
46
330
5
100
AcDbSymbolTableRecord
100
AcDbLinetypeTableRecord
  2
CENTER
 70
     0
  3
Center ____ _ ____ _ ____ _ ____ _ ____ _ ____
 72
    65
 73
     4
 40
50.8
 49
31.75
 74
     0
 49
-6.349999999999999
 74
     0
 49
6.349999999999999
 74
     0
 49
-6.349999999999999
 74
     0
  0
LTYPE
  5
47
330
5
100
AcDbSymbolTableRecord
100
AcDbLinetypeTableRecord
  2
CENTER2
 70
     0
  3
Center (.5x) ___ _ ___ _ ___ _ ___ _ ___ _ ___
 72
    65
 73
     4
 40
28.575
 49
19.05
 74
     0
 49
-3.174999999999999
 74
     0
 49
3.174999999999999
 74
     0
 49
-3.174999999999999
 74
     0
  0
LTYPE
  5
48
330
5
100
AcDbSymbolTableRecord
100
AcDbLinetypeTableRecord
  2
CENTERX2
 70
     0
  3
Center (2x) ________  __  ________  __  _____
 72
    65
 73
     4
 40
101.6
 49
63.5
 74
     0
 49
-12.7
 74
     0
 49
12.7
 74
     0
 49
-12.7
 74
     0
  0
LTYPE
  5
49
330
5
100
AcDbSymbolTableRecord
100
AcDbLinetypeTableRecord
  2
DASHDOT
 70
     0
  3
Dash dot __ . __ . __ . __ . __ . __ . __ . __
 72
    65
 73
     4
 40
25.4
 49
12.7
 74
     0
 49
-6.349999999999999
 74
     0
 49
0.0
 74
     0
 49
-6.349999999999999
 74
     0
  0
LTYPE
  5
4A
330
5
100
AcDbSymbolTableRecord
100
AcDbLinetypeTableRecord
  2
DASHDOT2
 70
     0
  3
Dash dot (.5x) _._._._._._._._._._._._._._._.
 72
    65
 73
     4
 40
12.7
 49
6.349999999999999
 74
     0
 49
-3.174999999999999
 74
     0
 49
0.0
 74
     0
 49
-3.174999999999999
 74
     0
  0
LTYPE
  5
4B
330
5
100
AcDbSymbolTableRecord
100
AcDbLinetypeTableRecord
  2
DASHDOTX2
 70
     0
  3
Dash dot (2x) ____  .  ____  .  ____  .  ___
 72
    65
 73
     4
 40
50.8
 49
25.4
 74
     0
 49
-12.7
 74
     0
 49
0.0
 74
     0
 49
-12.7
 74
     0
  0
LTYPE
  5
4C
330
5
100
AcDbSymbolTableRecord
100
AcDbLinetypeTableRecord
  2
DASHED
 70
     0
  3
Dashed __ __ __ __ __ __ __ __ __ __ __ __ __ _
 72
    65
 73
     2
 40
19.05
 49
12.7
 74
     0
 49
-6.349999999999999
 74
     0
  0
LTYPE
  5
4D
330
5
100
AcDbSymbolTableRecord
100
AcDbLinetypeTableRecord
  2
DASHED2
 70
     0
  3
Dashed (.5x) _ _ _ _ _ _ _ _ _ _ _ _ _ _ _ _ _
 72
    65
 73
     2
 40
9.524999999999998
 49
6.349999999999999
 74
     0
 49
-3.174999999999999
 74
     0
  0
LTYPE
  5
4E
330
5
100
AcDbSymbolTableRecord
100
AcDbLinetypeTableRecord
  2
DASHEDX2
 70
     0
  3
Dashed (2x) ____  ____  ____  ____  ____  ___
 72
    65
 73
     2
 40
38.1
 49
25.4
 74
     0
 49
-12.7
 74
     0
  0
LTYPE
  5
4F
330
5
100
AcDbSymbolTableRecord
100
AcDbLinetypeTableRecord
  2
DIVIDE
 70
     0
  3
Divide ____ . . ____ . . ____ . . ____ . . ____
 72
    65
 73
     6
 40
31.75
 49
12.7
 74
     0
 49
-6.349999999999999
 74
     0
 49
0.0
 74
     0
 49
-6.349999999999999
 74
     0
 49
0.0
 74
     0
 49
-6.349999999999999
 74
     0
  0
LTYPE
  5
50
330
5
100
AcDbSymbolTableRecord
100
AcDbLinetypeTableRecord
  2
DIVIDE2
 70
     0
  3
Divide (.5x) __..__..__..__..__..__..__..__.._
 72
    65
 73
     6
 40
15.875
 49
6.349999999999999
 74
     0
 49
-3.174999999999999
 74
     0
 49
0.0
 74
     0
 49
-3.174999999999999
 74
     0
 49
0.0
 74
     0
 49
-3.174999999999999
 74
     0
  0
LTYPE
  5
51
330
5
100
AcDbSymbolTableRecord
100
AcDbLinetypeTableRecord
  2
DIVIDEX2
 70
     0
  3
Divide (2x) ________  .  .  ________  .  .  _
 72
    65
 73
     6
 40
63.49999999999999
 49
25.4
 74
     0
 49
-12.7
 74
     0
 49
0.0
 74
     0
 49
-12.7
 74
     0
 49
0.0
 74
     0
 49
-12.7
 74
     0
  0
LTYPE
  5
52
330
5
100
AcDbSymbolTableRecord
100
AcDbLinetypeTableRecord
  2
DOT
 70
     0
  3
Dot . . . . . . . . . . . . . . . . . . . . . .
 72
    65
 73
     2
 40
6.349999999999999
 49
0.0
 74
     0
 49
-6.349999999999999
 74
     0
  0
LTYPE
  5
53
330
5
100
AcDbSymbolTableRecord
100
AcDbLinetypeTableRecord
  2
DOT2
 70
     0
  3
Dot (.5x) .....................................
 72
    65
 73
     2
 40
3.174999999999999
 49
0.0
 74
     0
 49
-3.174999999999999
 74
     0
  0
LTYPE
  5
54
330
5
100
AcDbSymbolTableRecord
100
AcDbLinetypeTableRecord
  2
DOTX2
 70
     0
  3
Dot (2x) .  .  .  .  .  .  .  .  .  .  .  .  . 
 72
    65
 73
     2
 40
12.7
 49
0.0
 74
     0
 49
-12.7
 74
     0
  0
LTYPE
  5
55
330
5
100
AcDbSymbolTableRecord
100
AcDbLinetypeTableRecord
  2
FENCELINE1
 70
     0
  3
Fenceline circle ----0-----0----0-----0----0---
 72
    65
 73
     4
 40
36.83
 49
6.349999999999999
 74
     0
 49
-2.54
 74
     4
 75
   133
340
33
 46
2.54
 50
0.0
 44
-2.54
 45
0.0
 49
-2.54
 74
     0
 49
25.4
 74
     0
  0
LTYPE
  5
56
330
5
100
AcDbSymbolTableRecord
100
AcDbLinetypeTableRecord
  2
FENCELINE2
 70
     0
  3
Fenceline square ----[]-----[]----[]-----[]----
 72
    65
 73
     4
 40
36.83
 49
6.349999999999999
 74
     0
 49
-2.54
 74
     4
 75
   132
340
33
 46
2.54
 50
0.0
 44
-2.54
 45
0.0
 49
-2.54
 74
     0
 49
25.4
 74
     0
  0
LTYPE
  5
57
330
5
100
AcDbSymbolTableRecord
100
AcDbLinetypeTableRecord
  2
GAS_LINE
 70
     0
  3
Gas line ----GAS----GAS----GAS----GAS----GAS---
 72
    65
 73
     3
 40
24.13
 49
12.7
 74
     0
 49
-5.08
 74
     2
 75
     0
340
11
 46
2.54
 50
0.0
 44
-2.54
 45
-1.27
  9
GAS
 49
-6.349999999999999
 74
     0
  0
LTYPE
  5
58
330
5
100
AcDbSymbolTableRecord
100
AcDbLinetypeTableRecord
  2
HIDDEN
 70
     0
  3
Hidden __ __ __ __ __ __ __ __ __ __ __ __ __ _
 72
    65
 73
     2
 40
9.524999999999998
 49
6.349999999999999
 74
     0
 49
-3.174999999999999
 74
     0
  0
LTYPE
  5
59
330
5
100
AcDbSymbolTableRecord
100
AcDbLinetypeTableRecord
  2
HIDDEN2
 70
     0
  3
Hidden (.5x) _ _ _ _ _ _ _ _ _ _ _ _ _ _ _ _ _
 72
    65
 73
     2
 40
4.762499999999999
 49
3.174999999999999
 74
     0
 49
-1.587499999999999
 74
     0
  0
LTYPE
  5
5A
330
5
100
AcDbSymbolTableRecord
100
AcDbLinetypeTableRecord
  2
HIDDENX2
 70
     0
  3
Hidden (2x) ____ ____ ____ ____ ____ ____ ____
 72
    65
 73
     2
 40
19.05
 49
12.7
 74
     0
 49
-6.349999999999999
 74
     0
  0
LTYPE
  5
5B
330
5
100
AcDbSymbolTableRecord
100
AcDbLinetypeTableRecord
  2
HOT_WATER_SUPPLY
 70
     0
  3
Hot water supply ---- HW ---- HW ---- HW ----
 72
    65
 73
     3
 40
22.86
 49
12.7
 74
     0
 49
-5.08
 74
     2
 75
     0
340
11
 46
2.54
 50
0.0
 44
-2.54
 45
-1.27
  9
HW
 49
-5.08
 74
     0
  0
LTYPE
  5
5C
330
5
100
AcDbSymbolTableRecord
100
AcDbLinetypeTableRecord
  2
PHANTOM
 70
     0
  3
Phantom ______  __  __  ______  __  __  ______
 72
    65
 73
     6
 40
63.5
 49
31.75
 74
     0
 49
-6.349999999999999
 74
     0
 49
6.349999999999999
 74
     0
 49
-6.349999999999999
 74
     0
 49
6.349999999999999
 74
     0
 49
-6.349999999999999
 74
     0
  0
LTYPE
  5
5D
330
5
100
AcDbSymbolTableRecord
100
AcDbLinetypeTableRecord
  2
PHANTOM2
 70
     0
  3
Phantom (.5x) ___ _ _ ___ _ _ ___ _ _ ___ _ _
 72
    65
 73
     6
 40
31.75
 49
15.875
 74
     0
 49
-3.174999999999999
 74
     0
 49
3.174999999999999
 74
     0
 49
-3.174999999999999
 74
     0
 49
3.174999999999999
 74
     0
 49
-3.174999999999999
 74
     0
  0
LTYPE
  5
5E
330
5
100
AcDbSymbolTableRecord
100
AcDbLinetypeTableRecord
  2
PHANTOMX2
 70
     0
  3
Phantom (2x) ____________    ____    ____   _
 72
    65
 73
     6
 40
127.0
 49
63.5
 74
     0
 49
-12.7
 74
     0
 49
12.7
 74
     0
 49
-12.7
 74
     0
 49
12.7
 74
     0
 49
-12.7
 74
     0
  0
LTYPE
  5
5F
330
5
100
AcDbSymbolTableRecord
100
AcDbLinetypeTableRecord
  2
TRACKS
 70
     0
  3
Tracks -|-|-|-|-|-|-|-|-|-|-|-|-|-|-|-|-|-|-|-|
 72
    65
 73
     2
 40
7.62
 49
3.81
 74
     4
 75
   130
340
33
 46
6.349999999999999
 50
0.0
 44
0.0
 45
0.0
 49
3.81
 74
     0
  0
LTYPE
  5
60
330
5
100
AcDbSymbolTableRecord
100
AcDbLinetypeTableRecord
  2
ZIGZAG
 70
     0
  3
Zig zag /\/\/\/\/\/\/\/\/\/\/\/\/\/\/\/\/\/\/\/
 72
    65
 73
     4
 40
20.32254
 49
0.00254
 74
     0
 49
-5.08
 74
     4
 75
   131
340
33
 46
5.08
 50
0.0
 44
-5.08
 45
0.0
 49
-10.16
 74
     4
 75
   131
340
33
 46
5.08
 50
180.0
 44
5.08
 45
0.0
 49
-5.08
 74
     0
  0
ENDTAB
  0
TABLE
  2
LAYER
  5
2
102
{ACAD_XDICTIONARY
360
230B
102
}
330
0
100
AcDbSymbolTable
 70
     9
  0
LAYER
  5
10
330
2
100
AcDbSymbolTableRecord
100
AcDbLayerTableRecord
  2
0
 70
     0
 62
     7
  6
Continuous
370
    -3
390
F
  0
LAYER
  5
C3
330
2
100
AcDbSymbolTableRecord
100
AcDbLayerTableRecord
  2
Defpoints
 70
     0
 62
     7
  6
Continuous
290
     0
370
    -3
390
F
  0
LAYER
  5
256
330
2
100
AcDbSymbolTableRecord
100
AcDbLayerTableRecord
  2
センター
 70
     0
 62
     7
  6
CENTER2
370
    18
390
F
  0
LAYER
  5
268
330
2
100
AcDbSymbolTableRecord
100
AcDbLayerTableRecord
  2
実形
 70
     0
 62
     7
  6
Continuous
370
    -3
390
F
  0
LAYER
  5
269
330
2
100
AcDbSymbolTableRecord
100
AcDbLayerTableRecord
  2
補助
 70
     0
 62
     7
  6
Continuous
370
    -3
390
F
  0
LAYER
  5
26A
330
2
100
AcDbSymbolTableRecord
100
AcDbLayerTableRecord
  2
寸法
 70
     0
 62
     7
  6
Continuous
370
    18
390
F
  0
LAYER
  5
26B
330
2
100
AcDbSymbolTableRecord
100
AcDbLayerTableRecord
  2
ハッチング
 70
     0
 62
     7
  6
Continuous
370
    18
390
F
  0
LAYER
  5
26D
330
2
100
AcDbSymbolTableRecord
100
AcDbLayerTableRecord
  2
文字
 70
     0
 62
     7
  6
Continuous
370
    -3
390
F
  0
LAYER
  5
2169
330
2
100
AcDbSymbolTableRecord
100
AcDbLayerTableRecord
  2
Cen
 70
     0
 62
     7
  6
CENTER2
370
    15
390
F
  0
ENDTAB
  0
TABLE
  2
STYLE
  5
3
330
0
100
AcDbSymbolTable
 70
     3
  0
STYLE
  5
11
330
3
100
AcDbSymbolTableRecord
100
AcDbTextStyleTableRecord
  2
Standard
 70
     0
 40
0.0
 41
1.0
 50
0.0
 71
     0
 42
25.0
  3
txt.shx
  4
bigfont.shx
  0
STYLE
  5
33
330
3
100
AcDbSymbolTableRecord
100
AcDbTextStyleTableRecord
  2

 70
     1
 40
0.0
 41
1.0
 50
0.0
 71
     0
 42
2.5
  3
ltypeshp.shx
  4

  0
STYLE
  5
230E
330
3
100
AcDbSymbolTableRecord
100
AcDbTextStyleTableRecord
  2
明朝
 70
     0
 40
0.0
 41
1.0
 50
0.0
 71
     0
 42
25.0
  3
MS Mincho.ttf
  4

1001
ACAD
1000
MS Mincho
1071
    32785
  0
ENDTAB
  0
TABLE
  2
VIEW
  5
6
330
0
100
AcDbSymbolTable
 70
     0
  0
ENDTAB
  0
TABLE
  2
UCS
  5
7
330
0
100
AcDbSymbolTable
 70
     0
  0
ENDTAB
  0
TABLE
  2
APPID
  5
9
330
0
100
AcDbSymbolTable
 70
     1
  0
APPID
  5
12
330
9
100
AcDbSymbolTableRecord
100
AcDbRegAppTableRecord
  2
ACAD
 70
     0
  0
ENDTAB
  0
TABLE
  2
DIMSTYLE
  5
A
330
0
100
AcDbSymbolTable
 70
     1
100
AcDbDimStyleTable
 71
     1
340
27
  0
DIMSTYLE
105
27
102
{ACAD_REACTORS
330
368
330
44B
330
458
330
4A3
330
4BE
330
4CC
330
532
330
548
330
569
330
57F
330
35B
330
3CE
330
3DC
330
3F6
330
4F8
330
505
330
173D
330
17AE
330
1F43
330
1F51
330
1F5E
330
1F6C
330
1F79
330
1F87
102
}
330
A
100
AcDbSymbolTableRecord
100
AcDbDimStyleTableRecord
  2
ISO-25
 70
     0
 41
35.0
 42
65.0
 43
3.75
 44
0.0
 73
     0
 74
     0
 77
     1
 78
     8
140
25.0
141
2.5
143
0.03937007874016
147
6.25
171
     3
172
     1
271
     2
272
     2
274
     3
283
     0
284
     8
340
11
341
DA
342
D0
371
    15
372
    15
  0
ENDTAB
  0
TABLE
  2
BLOCK_RECORD
  5
1
330
0
100
AcDbSymbolTable
 70
    28
  0
BLOCK_RECORD
  5
1F
102
{ACAD_XDICTIONARY
360
2336
102
}
330
1
100
AcDbSymbolTableRecord
100
AcDbBlockTableRecord
  2
*Model_Space
340
22
  0
BLOCK_RECORD
  5
1B
330
1
100
AcDbSymbolTableRecord
100
AcDbBlockTableRecord
  2
*Paper_Space
340
1E
  0
BLOCK_RECORD
  5
23
330
1
100
AcDbSymbolTableRecord
100
AcDbBlockTableRecord
  2
*Paper_Space0
340
26
  0
BLOCK_RECORD
  5
D0
330
1
100
AcDbSymbolTableRecord
100
AcDbBlockTableRecord
  2
_DotSmall
340
0
102
{BLKREFS
331
2096
331
2097
331
209F
331
20A0
331
20A8
331
20A9
331
20B1
331
20B2
331
20F1
331
20F2
331
2153
331
2154
331
21E0
331
21E1
331
21E9
331
21EA
331
21F1
331
21F2
331
21FA
331
21FB
331
2203
331
2204
331
220C
331
220D
331
2226
331
2227
331
222F
331
2230
331
2238
331
2239
331
224B
331
224C
331
2266
331
2267
331
226F
331
2270
331
228F
331
2290
331
2298
331
2299
331
22A3
331
22A4
331
22AB
331
22AC
331
22BE
331
22BF
331
22D0
331
22D1
102
}
  0
BLOCK_RECORD
  5
D4
330
1
100
AcDbSymbolTableRecord
100
AcDbBlockTableRecord
  2
_Origin2
340
0
  0
BLOCK_RECORD
  5
DA
330
1
100
AcDbSymbolTableRecord
100
AcDbBlockTableRecord
  2
_Open30
340
0
  0
BLOCK_RECORD
  5
35C
330
1
100
AcDbSymbolTableRecord
100
AcDbBlockTableRecord
  2
*D4
340
0
  0
BLOCK_RECORD
  5
369
330
1
100
AcDbSymbolTableRecord
100
AcDbBlockTableRecord
  2
*D5
340
0
  0
BLOCK_RECORD
  5
3CF
330
1
100
AcDbSymbolTableRecord
100
AcDbBlockTableRecord
  2
*D6
340
0
  0
BLOCK_RECORD
  5
3DD
330
1
100
AcDbSymbolTableRecord
100
AcDbBlockTableRecord
  2
*D7
340
0
  0
BLOCK_RECORD
  5
3F7
330
1
100
AcDbSymbolTableRecord
100
AcDbBlockTableRecord
  2
*D8
340
0
  0
BLOCK_RECORD
  5
44C
330
1
100
AcDbSymbolTableRecord
100
AcDbBlockTableRecord
  2
*D9
340
0
  0
BLOCK_RECORD
  5
459
330
1
100
AcDbSymbolTableRecord
100
AcDbBlockTableRecord
  2
*D10
340
0
  0
BLOCK_RECORD
  5
4A4
330
1
100
AcDbSymbolTableRecord
100
AcDbBlockTableRecord
  2
*D11
340
0
  0
BLOCK_RECORD
  5
4BF
330
1
100
AcDbSymbolTableRecord
100
AcDbBlockTableRecord
  2
*D12
340
0
  0
BLOCK_RECORD
  5
4CD
330
1
100
AcDbSymbolTableRecord
100
AcDbBlockTableRecord
  2
*D13
340
0
  0
BLOCK_RECORD
  5
4F9
330
1
100
AcDbSymbolTableRecord
100
AcDbBlockTableRecord
  2
*D14
340
0
  0
BLOCK_RECORD
  5
506
330
1
100
AcDbSymbolTableRecord
100
AcDbBlockTableRecord
  2
*D15
340
0
  0
BLOCK_RECORD
  5
533
330
1
100
AcDbSymbolTableRecord
100
AcDbBlockTableRecord
  2
*D16
340
0
  0
BLOCK_RECORD
  5
549
330
1
100
AcDbSymbolTableRecord
100
AcDbBlockTableRecord
  2
*D17
340
0
  0
BLOCK_RECORD
  5
56A
330
1
100
AcDbSymbolTableRecord
100
AcDbBlockTableRecord
  2
*D18
340
0
  0
BLOCK_RECORD
  5
580
330
1
100
AcDbSymbolTableRecord
100
AcDbBlockTableRecord
  2
*D19
340
0
  0
BLOCK_RECORD
  5
173E
330
1
100
AcDbSymbolTableRecord
100
AcDbBlockTableRecord
  2
*D20
340
0
  0
BLOCK_RECORD
  5
17AF
330
1
100
AcDbSymbolTableRecord
100
AcDbBlockTableRecord
  2
*D21
340
0
  0
BLOCK_RECORD
  5
1F44
330
1
100
AcDbSymbolTableRecord
100
AcDbBlockTableRecord
  2
*D22
340
0
  0
BLOCK_RECORD
  5
1F52
330
1
100
AcDbSymbolTableRecord
100
AcDbBlockTableRecord
  2
*D23
340
0
  0
BLOCK_RECORD
  5
1F5F
330
1
100
AcDbSymbolTableRecord
100
AcDbBlockTableRecord
  2
*D24
340
0
  0
BLOCK_RECORD
  5
1F6D
330
1
100
AcDbSymbolTableRecord
100
AcDbBlockTableRecord
  2
*D25
340
0
  0
BLOCK_RECORD
  5
1F7A
330
1
100
AcDbSymbolTableRecord
100
AcDbBlockTableRecord
  2
*D26
340
0
  0
BLOCK_RECORD
  5
1F88
330
1
100
AcDbSymbolTableRecord
100
AcDbBlockTableRecord
  2
*D27
340
0
  0
ENDTAB
  0
ENDSEC
  0
SECTION
  2
BLOCKS
  0
BLOCK
  5
20
330
1F
100
AcDbEntity
  8
0
100
AcDbBlockBegin
  2
*Model_Space
 70
     0
 10
0.0
 20
0.0
 30
0.0
  3
*Model_Space
  1

  0
ENDBLK
  5
21
330
1F
100
AcDbEntity
  8
0
100
AcDbBlockEnd
  0
BLOCK
  5
1C
330
1B
100
AcDbEntity
 67
     1
  8
0
100
AcDbBlockBegin
  2
*Paper_Space
 70
     0
 10
0.0
 20
0.0
 30
0.0
  3
*Paper_Space
  1

  0
ENDBLK
  5
1D
330
1B
100
AcDbEntity
 67
     1
  8
0
100
AcDbBlockEnd
  0
BLOCK
  5
24
330
23
100
AcDbEntity
  8
0
100
AcDbBlockBegin
  2
*Paper_Space0
 70
     0
 10
0.0
 20
0.0
 30
0.0
  3
*Paper_Space0
  1

  0
ENDBLK
  5
25
330
23
100
AcDbEntity
  8
0
100
AcDbBlockEnd
  0
BLOCK
  5
D2
330
D0
100
AcDbEntity
  8
0
100
AcDbBlockBegin
  2
_DotSmall
 70
     0
 10
0.0
 20
0.0
 30
0.0
  3
_DotSmall
  1

  0
LWPOLYLINE
  5
D1
330
D0
100
AcDbEntity
  8
0
 62
     0
100
AcDbPolyline
 90
        2
 70
     1
 43
0.5
 10
-0.0625
 20
0.0
 42
1.0
 10
0.0625
 20
0.0
 42
1.0
  0
ENDBLK
  5
D3
330
D0
100
AcDbEntity
  8
0
100
AcDbBlockEnd
  0
BLOCK
  5
D8
330
D4
100
AcDbEntity
  8
0
100
AcDbBlockBegin
  2
_Origin2
 70
     0
 10
0.0
 20
0.0
 30
0.0
  3
_Origin2
  1

  0
CIRCLE
  5
D5
330
D4
100
AcDbEntity
  8
0
 62
     0
370
    -2
100
AcDbCircle
 10
0.0
 20
0.0
 30
0.0
 40
0.5
  0
CIRCLE
  5
D6
330
D4
100
AcDbEntity
  8
0
 62
     0
370
    -2
100
AcDbCircle
 10
0.0
 20
0.0
 30
0.0
 40
0.25
  0
LINE
  5
D7
330
D4
100
AcDbEntity
  8
0
 62
     0
370
    -2
100
AcDbLine
 10
-0.5
 20
0.0
 30
0.0
 11
-1.0
 21
0.0
 31
0.0
  0
ENDBLK
  5
D9
330
D4
100
AcDbEntity
  8
0
100
AcDbBlockEnd
  0
BLOCK
  5
DE
330
DA
100
AcDbEntity
  8
0
100
AcDbBlockBegin
  2
_Open30
 70
     0
 10
0.0
 20
0.0
 30
0.0
  3
_Open30
  1

  0
LINE
  5
DB
330
DA
100
AcDbEntity
  8
0
 62
     0
370
    -2
100
AcDbLine
 10
-1.0
 20
0.26794919
 30
0.0
 11
0.0
 21
0.0
 31
0.0
  0
LINE
  5
DC
330
DA
100
AcDbEntity
  8
0
 62
     0
370
    -2
100
AcDbLine
 10
0.0
 20
0.0
 30
0.0
 11
-1.0
 21
-0.26794919
 31
0.0
  0
LINE
  5
DD
330
DA
100
AcDbEntity
  8
0
 62
     0
370
    -2
100
AcDbLine
 10
0.0
 20
0.0
 30
0.0
 11
-1.0
 21
0.0
 31
0.0
  0
ENDBLK
  5
DF
330
DA
100
AcDbEntity
  8
0
100
AcDbBlockEnd
  0
BLOCK
  5
366
330
35C
100
AcDbEntity
  8
0
100
AcDbBlockBegin
  2
*D4
 70
     1
 10
0.0
 20
0.0
 30
0.0
  3
*D4
  1

  0
LINE
  5
20A5
330
35C
100
AcDbEntity
  8
実形
 62
     0
370
    15
100
AcDbLine
 10
1129.740242548418
 20
1386.730918811397
 30
0.0
 11
1129.740242548418
 21
1587.813654206817
 31
0.0
  0
LINE
  5
20A6
330
35C
100
AcDbEntity
  8
実形
 62
     0
370
    15
100
AcDbLine
 10
944.7402425484179
 20
1533.842099762682
 30
0.0
 11
944.7402425484179
 21
1587.813654206817
 31
0.0
  0
LINE
  5
20A7
330
35C
100
AcDbEntity
  8
実形
 62
     0
370
    18
100
AcDbLine
 10
1129.740242548418
 20
1587.813654206817
 30
0.0
 11
944.7402425484179
 21
1587.813654206817
 31
0.0
  0
INSERT
  5
20A8
330
35C
100
AcDbEntity
  8
実形
 62
     0
370
    18
100
AcDbBlockReference
  2
_DotSmall
 10
1129.740242548418
 20
1587.813654206817
 30
0.0
 41
35.0
 42
35.0
 43
35.0
  0
INSERT
  5
20A9
330
35C
100
AcDbEntity
  8
実形
 62
     0
370
    18
100
AcDbBlockReference
  2
_DotSmall
 10
944.7402425484179
 20
1587.813654206817
 30
0.0
 41
35.0
 42
35.0
 43
35.0
 50
180.0
  0
MTEXT
  5
20AA
330
35C
100
AcDbEntity
  8
実形
 62
     0
100
AcDbMText
 10
1037.240242548418
 20
1606.563654206817
 30
0.0
 40
25.0
 41
0.0
 71
     5
 72
     1
  1
185
 73
     1
 44
1.0
1001
ACAD
1000
MTEXTBEGIN
1070
    73
1070
     1
1070
    44
1040
1.0
1070
    74
1070
     0
1000
MTEXTEND
  0
POINT
  5
20AB
330
35C
100
AcDbEntity
  8
Defpoints
 62
     0
100
AcDbPoint
 10
1129.740242548418
 20
1321.730918811397
 30
0.0
  0
POINT
  5
20AC
330
35C
100
AcDbEntity
  8
Defpoints
 62
     0
100
AcDbPoint
 10
944.7402425484179
 20
1468.842099762682
 30
0.0
  0
POINT
  5
20AD
330
35C
100
AcDbEntity
  8
Defpoints
 62
     0
100
AcDbPoint
 10
944.7402425484179
 20
1587.813654206817
 30
0.0
  0
ENDBLK
  5
367
330
35C
100
AcDbEntity
  8
0
100
AcDbBlockEnd
  0
BLOCK
  5
373
330
369
100
AcDbEntity
  8
0
100
AcDbBlockBegin
  2
*D5
 70
     1
 10
0.0
 20
0.0
 30
0.0
  3
*D5
  1

  0
LINE
  5
2235
330
369
100
AcDbEntity
  8
実形
 62
     0
370
    15
100
AcDbLine
 10
1467.012119374303
 20
1073.516217955009
 30
0.0
 11
1527.343255167399
 21
1073.516217955009
 31
0.0
  0
LINE
  5
2236
330
369
100
AcDbEntity
  8
実形
 62
     0
370
    15
100
AcDbLine
 10
1379.740242548418
 20
1268.516217955009
 30
0.0
 11
1527.343255167399
 21
1268.516217955009
 31
0.0
  0
LINE
  5
2237
330
369
100
AcDbEntity
  8
実形
 62
     0
370
    18
100
AcDbLine
 10
1527.343255167399
 20
1073.516217955009
 30
0.0
 11
1527.343255167399
 21
1268.516217955009
 31
0.0
  0
INSERT
  5
2238
330
369
100
AcDbEntity
  8
実形
 62
     0
370
    18
100
AcDbBlockReference
  2
_DotSmall
 10
1527.343255167399
 20
1073.516217955009
 30
0.0
 41
35.0
 42
35.0
 43
35.0
 50
270.0
  0
INSERT
  5
2239
330
369
100
AcDbEntity
  8
実形
 62
     0
370
    18
100
AcDbBlockReference
  2
_DotSmall
 10
1527.343255167399
 20
1268.516217955009
 30
0.0
 41
35.0
 42
35.0
 43
35.0
 50
90.0
  0
MTEXT
  5
223A
330
369
100
AcDbEntity
  8
実形
 62
     0
100
AcDbMText
 10
1508.593255167399
 20
1171.016217955009
 30
0.0
 40
25.0
 41
0.0
 71
     5
 72
     1
  1
195
 11
0.0000000000000001
 21
1.0
 31
0.0
 73
     1
 44
1.0
1001
ACAD
1000
MTEXTBEGIN
1070
    73
1070
     1
1070
    44
1040
1.0
1070
    74
1070
     0
1000
MTEXTEND
  0
POINT
  5
223B
330
369
100
AcDbEntity
  8
Defpoints
 62
     0
100
AcDbPoint
 10
1402.012119374303
 20
1073.516217955009
 30
0.0
  0
POINT
  5
223C
330
369
100
AcDbEntity
  8
Defpoints
 62
     0
100
AcDbPoint
 10
1314.740242548418
 20
1268.516217955009
 30
0.0
  0
POINT
  5
223D
330
369
100
AcDbEntity
  8
Defpoints
 62
     0
100
AcDbPoint
 10
1527.343255167399
 20
1268.516217955009
 30
0.0
  0
ENDBLK
  5
374
330
369
100
AcDbEntity
  8
0
100
AcDbBlockEnd
  0
BLOCK
  5
3DA
330
3CF
100
AcDbEntity
  8
0
100
AcDbBlockBegin
  2
*D6
 70
     1
 10
0.0
 20
0.0
 30
0.0
  3
*D6
  1

  0
LINE
  5
2295
330
3CF
100
AcDbEntity
  8
実形
 62
     0
370
    15
100
AcDbLine
 10
897.7402425484179
 20
1513.516217955009
 30
0.0
 11
764.7402425484179
 21
1513.516217955009
 31
0.0
  0
LINE
  5
2296
330
3CF
100
AcDbEntity
  8
実形
 62
     0
370
    15
100
AcDbLine
 10
897.7402425484179
 20
1428.516217955009
 30
0.0
 11
764.7402425484179
 21
1428.516217955009
 31
0.0
  0
LINE
  5
2297
330
3CF
100
AcDbEntity
  8
実形
 62
     0
370
    18
100
AcDbLine
 10
764.7402425484179
 20
1513.516217955009
 30
0.0
 11
764.7402425484179
 21
1428.516217955009
 31
0.0
  0
INSERT
  5
2298
330
3CF
100
AcDbEntity
  8
実形
 62
     0
370
    18
100
AcDbBlockReference
  2
_DotSmall
 10
764.7402425484179
 20
1513.516217955009
 30
0.0
 41
35.0
 42
35.0
 43
35.0
 50
90.0
  0
INSERT
  5
2299
330
3CF
100
AcDbEntity
  8
実形
 62
     0
370
    18
100
AcDbBlockReference
  2
_DotSmall
 10
764.7402425484179
 20
1428.516217955009
 30
0.0
 41
35.0
 42
35.0
 43
35.0
 50
270.0
  0
MTEXT
  5
229A
330
3CF
100
AcDbEntity
  8
実形
 62
     0
100
AcDbMText
 10
745.9902425484176
 20
1471.016217955009
 30
0.0
 40
25.0
 41
0.0
 71
     5
 72
     1
  1
85
 11
0.0000000000000001
 21
1.0
 31
0.0
 73
     1
 44
1.0
1001
ACAD
1000
MTEXTBEGIN
1070
    73
1070
     1
1070
    44
1040
1.0
1070
    74
1070
     0
1000
MTEXTEND
  0
POINT
  5
229B
330
3CF
100
AcDbEntity
  8
Defpoints
 62
     0
100
AcDbPoint
 10
962.7402425484179
 20
1513.516217955009
 30
0.0
  0
POINT
  5
229C
330
3CF
100
AcDbEntity
  8
Defpoints
 62
     0
100
AcDbPoint
 10
962.7402425484179
 20
1428.516217955009
 30
0.0
  0
POINT
  5
229D
330
3CF
100
AcDbEntity
  8
Defpoints
 62
     0
100
AcDbPoint
 10
764.7402425484179
 20
1428.516217955009
 30
0.0
  0
ENDBLK
  5
3DB
330
3CF
100
AcDbEntity
  8
0
100
AcDbBlockEnd
  0
BLOCK
  5
3E7
330
3DD
100
AcDbEntity
  8
0
100
AcDbBlockBegin
  2
*D7
 70
     1
 10
0.0
 20
0.0
 30
0.0
  3
*D7
  1

  0
LINE
  5
228C
330
3DD
100
AcDbEntity
  8
実形
 62
     0
370
    15
100
AcDbLine
 10
897.7402425484179
 20
1428.516217955009
 30
0.0
 11
764.7402425484179
 21
1428.516217955009
 31
0.0
  0
LINE
  5
228D
330
3DD
100
AcDbEntity
  8
実形
 62
     0
370
    15
100
AcDbLine
 10
897.7402425484179
 20
1108.516217955009
 30
0.0
 11
764.7402425484179
 21
1108.516217955009
 31
0.0
  0
LINE
  5
228E
330
3DD
100
AcDbEntity
  8
実形
 62
     0
370
    18
100
AcDbLine
 10
764.7402425484179
 20
1428.516217955009
 30
0.0
 11
764.7402425484179
 21
1108.516217955009
 31
0.0
  0
INSERT
  5
228F
330
3DD
100
AcDbEntity
  8
実形
 62
     0
370
    18
100
AcDbBlockReference
  2
_DotSmall
 10
764.7402425484179
 20
1428.516217955009
 30
0.0
 41
35.0
 42
35.0
 43
35.0
 50
90.0
  0
INSERT
  5
2290
330
3DD
100
AcDbEntity
  8
実形
 62
     0
370
    18
100
AcDbBlockReference
  2
_DotSmall
 10
764.7402425484179
 20
1108.516217955009
 30
0.0
 41
35.0
 42
35.0
 43
35.0
 50
270.0
  0
MTEXT
  5
2291
330
3DD
100
AcDbEntity
  8
実形
 62
     0
100
AcDbMText
 10
745.9902425484178
 20
1268.516217955009
 30
0.0
 40
25.0
 41
0.0
 71
     5
 72
     1
  1
320
 11
0.0000000000000001
 21
1.0
 31
0.0
 73
     1
 44
1.0
1001
ACAD
1000
MTEXTBEGIN
1070
    73
1070
     1
1070
    44
1040
1.0
1070
    74
1070
     0
1000
MTEXTEND
  0
POINT
  5
2292
330
3DD
100
AcDbEntity
  8
Defpoints
 62
     0
100
AcDbPoint
 10
962.7402425484179
 20
1428.516217955009
 30
0.0
  0
POINT
  5
2293
330
3DD
100
AcDbEntity
  8
Defpoints
 62
     0
100
AcDbPoint
 10
962.7402425484179
 20
1108.516217955009
 30
0.0
  0
POINT
  5
2294
330
3DD
100
AcDbEntity
  8
Defpoints
 62
     0
100
AcDbPoint
 10
764.7402425484179
 20
1108.516217955009
 30
0.0
  0
ENDBLK
  5
3E8
330
3DD
100
AcDbEntity
  8
0
100
AcDbBlockEnd
  0
BLOCK
  5
401
330
3F7
100
AcDbEntity
  8
0
100
AcDbBlockBegin
  2
*D8
 70
     1
 10
0.0
 20
0.0
 30
0.0
  3
*D8
  1

  0
LINE
  5
20AE
330
3F7
100
AcDbEntity
  8
実形
 62
     0
370
    15
100
AcDbLine
 10
897.7402425484179
 20
1513.516217955009
 30
0.0
 11
694.7402425484179
 21
1513.516217955009
 31
0.0
  0
LINE
  5
20AF
330
3F7
100
AcDbEntity
  8
実形
 62
     0
370
    15
100
AcDbLine
 10
897.7402425484179
 20
1073.516217955009
 30
0.0
 11
694.7402425484178
 21
1073.516217955009
 31
0.0
  0
LINE
  5
20B0
330
3F7
100
AcDbEntity
  8
実形
 62
     0
370
    18
100
AcDbLine
 10
694.7402425484179
 20
1513.516217955009
 30
0.0
 11
694.7402425484178
 21
1073.516217955009
 31
0.0
  0
INSERT
  5
20B1
330
3F7
100
AcDbEntity
  8
実形
 62
     0
370
    18
100
AcDbBlockReference
  2
_DotSmall
 10
694.7402425484179
 20
1513.516217955009
 30
0.0
 41
35.0
 42
35.0
 43
35.0
 50
90.0
  0
INSERT
  5
20B2
330
3F7
100
AcDbEntity
  8
実形
 62
     0
370
    18
100
AcDbBlockReference
  2
_DotSmall
 10
694.7402425484178
 20
1073.516217955009
 30
0.0
 41
35.0
 42
35.0
 43
35.0
 50
270.0
  0
MTEXT
  5
20B3
330
3F7
100
AcDbEntity
  8
実形
 62
     0
100
AcDbMText
 10
675.9902425484177
 20
1293.516217955009
 30
0.0
 40
25.0
 41
0.0
 71
     5
 72
     1
  1
440
 11
0.0000000000000001
 21
1.0
 31
0.0
 73
     1
 44
1.0
1001
ACAD
1000
MTEXTBEGIN
1070
    73
1070
     1
1070
    44
1040
1.0
1070
    74
1070
     0
1000
MTEXTEND
  0
POINT
  5
20B4
330
3F7
100
AcDbEntity
  8
Defpoints
 62
     0
100
AcDbPoint
 10
962.7402425484179
 20
1513.516217955009
 30
0.0
  0
POINT
  5
20B5
330
3F7
100
AcDbEntity
  8
Defpoints
 62
     0
100
AcDbPoint
 10
962.7402425484179
 20
1073.516217955009
 30
0.0
  0
POINT
  5
20B6
330
3F7
100
AcDbEntity
  8
Defpoints
 62
     0
100
AcDbPoint
 10
694.7402425484178
 20
1073.516217955009
 30
0.0
  0
ENDBLK
  5
402
330
3F7
100
AcDbEntity
  8
0
100
AcDbBlockEnd
  0
BLOCK
  5
456
330
44C
100
AcDbEntity
  8
0
100
AcDbBlockBegin
  2
*D9
 70
     1
 10
0.0
 20
0.0
 30
0.0
  3
*D9
  1

  0
LINE
  5
209C
330
44C
100
AcDbEntity
  8
実形
 62
     0
370
    15
100
AcDbLine
 10
979.7402425484177
 20
1024.020064336465
 30
0.0
 11
979.7402425484177
 21
893.5162179550088
 31
0.0
  0
LINE
  5
209D
330
44C
100
AcDbEntity
  8
実形
 62
     0
370
    15
100
AcDbLine
 10
1409.740242548418
 20
1024.020064336465
 30
0.0
 11
1409.740242548418
 21
893.5162179550088
 31
0.0
  0
LINE
  5
209E
330
44C
100
AcDbEntity
  8
実形
 62
     0
370
    18
100
AcDbLine
 10
979.7402425484177
 20
893.5162179550088
 30
0.0
 11
1409.740242548418
 21
893.5162179550088
 31
0.0
  0
INSERT
  5
209F
330
44C
100
AcDbEntity
  8
実形
 62
     0
370
    18
100
AcDbBlockReference
  2
_DotSmall
 10
979.7402425484177
 20
893.5162179550088
 30
0.0
 41
35.0
 42
35.0
 43
35.0
 50
180.0
  0
INSERT
  5
20A0
330
44C
100
AcDbEntity
  8
実形
 62
     0
370
    18
100
AcDbBlockReference
  2
_DotSmall
 10
1409.740242548418
 20
893.5162179550088
 30
0.0
 41
35.0
 42
35.0
 43
35.0
  0
MTEXT
  5
20A1
330
44C
100
AcDbEntity
  8
実形
 62
     0
100
AcDbMText
 10
1194.740242548418
 20
912.2662179550088
 30
0.0
 40
25.0
 41
0.0
 71
     5
 72
     1
  1
430
 73
     1
 44
1.0
1001
ACAD
1000
MTEXTBEGIN
1070
    73
1070
     1
1070
    44
1040
1.0
1070
    74
1070
     0
1000
MTEXTEND
  0
POINT
  5
20A2
330
44C
100
AcDbEntity
  8
Defpoints
 62
     0
100
AcDbPoint
 10
979.7402425484177
 20
1089.020064336465
 30
0.0
  0
POINT
  5
20A3
330
44C
100
AcDbEntity
  8
Defpoints
 62
     0
100
AcDbPoint
 10
1409.740242548418
 20
1089.020064336465
 30
0.0
  0
POINT
  5
20A4
330
44C
100
AcDbEntity
  8
Defpoints
 62
     0
100
AcDbPoint
 10
1409.740242548418
 20
893.5162179550088
 30
0.0
  0
ENDBLK
  5
457
330
44C
100
AcDbEntity
  8
0
100
AcDbBlockEnd
  0
BLOCK
  5
465
330
459
100
AcDbEntity
  8
0
100
AcDbBlockBegin
  2
*D10
 70
     1
 10
0.0
 20
0.0
 30
0.0
  3
*D10
  1

  0
LINE
  5
214F
330
459
100
AcDbEntity
  8
実形
 62
     0
370
    15
100
AcDbLine
 10
1409.740242548418
 20
1024.020064336465
 30
0.0
 11
1409.740242548418
 21
893.5162179550088
 31
0.0
  0
LINE
  5
2150
330
459
100
AcDbEntity
  8
実形
 62
     0
370
    15
100
AcDbLine
 10
1444.740242548418
 20
1026.516217955009
 30
0.0
 11
1444.740242548418
 21
893.5162179550088
 31
0.0
  0
LINE
  5
2151
330
459
100
AcDbEntity
  8
実形
 62
     0
370
    18
100
AcDbLine
 10
1409.740242548418
 20
893.5162179550088
 30
0.0
 11
1444.740242548418
 21
893.5162179550088
 31
0.0
  0
MTEXT
  5
2152
330
459
100
AcDbEntity
  8
実形
 62
     0
100
AcDbMText
 10
1378.246803578813
 20
916.2225012240623
 30
0.0
 40
25.0
 41
0.0
 71
     5
 72
     1
  1
35
 73
     1
 44
1.0
1001
ACAD
1000
MTEXTBEGIN
1070
    73
1070
     1
1070
    44
1040
1.0
1070
    74
1070
     0
1000
MTEXTEND
  0
INSERT
  5
2153
330
459
100
AcDbEntity
  8
実形
 62
     0
370
    18
100
AcDbBlockReference
  2
_DotSmall
 10
1409.740242548418
 20
893.5162179550088
 30
0.0
 41
35.0
 42
35.0
 43
35.0
 50
180.0
  0
INSERT
  5
2154
330
459
100
AcDbEntity
  8
実形
 62
     0
370
    18
100
AcDbBlockReference
  2
_DotSmall
 10
1444.740242548418
 20
893.5162179550088
 30
0.0
 41
35.0
 42
35.0
 43
35.0
  0
POINT
  5
2155
330
459
100
AcDbEntity
  8
Defpoints
 62
     0
100
AcDbPoint
 10
1409.740242548418
 20
1089.020064336465
 30
0.0
  0
POINT
  5
2156
330
459
100
AcDbEntity
  8
Defpoints
 62
     0
100
AcDbPoint
 10
1444.740242548418
 20
1091.516217955009
 30
0.0
  0
POINT
  5
2157
330
459
100
AcDbEntity
  8
Defpoints
 62
     0
100
AcDbPoint
 10
1444.740242548418
 20
893.5162179550088
 30
0.0
  0
ENDBLK
  5
466
330
459
100
AcDbEntity
  8
0
100
AcDbBlockEnd
  0
BLOCK
  5
4AE
330
4A4
100
AcDbEntity
  8
0
100
AcDbBlockBegin
  2
*D11
 70
     1
 10
0.0
 20
0.0
 30
0.0
  3
*D11
  1

  0
LINE
  5
2093
330
4A4
100
AcDbEntity
  8
実形
 62
     0
370
    15
100
AcDbLine
 10
944.7402425484179
 20
1023.516217955009
 30
0.0
 11
944.7402425484179
 21
823.5162179550089
 31
0.0
  0
LINE
  5
2094
330
4A4
100
AcDbEntity
  8
実形
 62
     0
370
    15
100
AcDbLine
 10
1444.740242548418
 20
1023.516217955009
 30
0.0
 11
1444.740242548418
 21
823.5162179550089
 31
0.0
  0
LINE
  5
2095
330
4A4
100
AcDbEntity
  8
実形
 62
     0
370
    18
100
AcDbLine
 10
944.7402425484179
 20
823.5162179550089
 30
0.0
 11
1444.740242548418
 21
823.5162179550089
 31
0.0
  0
INSERT
  5
2096
330
4A4
100
AcDbEntity
  8
実形
 62
     0
370
    18
100
AcDbBlockReference
  2
_DotSmall
 10
944.7402425484179
 20
823.5162179550089
 30
0.0
 41
35.0
 42
35.0
 43
35.0
 50
180.0
  0
INSERT
  5
2097
330
4A4
100
AcDbEntity
  8
実形
 62
     0
370
    18
100
AcDbBlockReference
  2
_DotSmall
 10
1444.740242548418
 20
823.5162179550089
 30
0.0
 41
35.0
 42
35.0
 43
35.0
  0
MTEXT
  5
2098
330
4A4
100
AcDbEntity
  8
実形
 62
     0
100
AcDbMText
 10
1194.740242548418
 20
842.2662179550089
 30
0.0
 40
25.0
 41
0.0
 71
     5
 72
     1
  1
500
 73
     1
 44
1.0
1001
ACAD
1000
MTEXTBEGIN
1070
    73
1070
     1
1070
    44
1040
1.0
1070
    74
1070
     0
1000
MTEXTEND
  0
POINT
  5
2099
330
4A4
100
AcDbEntity
  8
Defpoints
 62
     0
100
AcDbPoint
 10
944.7402425484179
 20
1088.516217955009
 30
0.0
  0
POINT
  5
209A
330
4A4
100
AcDbEntity
  8
Defpoints
 62
     0
100
AcDbPoint
 10
1444.740242548418
 20
1088.516217955009
 30
0.0
  0
POINT
  5
209B
330
4A4
100
AcDbEntity
  8
Defpoints
 62
     0
100
AcDbPoint
 10
1444.740242548418
 20
823.5162179550089
 30
0.0
  0
ENDBLK
  5
4AF
330
4A4
100
AcDbEntity
  8
0
100
AcDbBlockEnd
  0
BLOCK
  5
4CA
330
4BF
100
AcDbEntity
  8
0
100
AcDbBlockBegin
  2
*D12
 70
     1
 10
0.0
 20
0.0
 30
0.0
  3
*D12
  1

  0
LINE
  5
21E6
330
4BF
100
AcDbEntity
  8
実形
 62
     0
370
    15
100
AcDbLine
 10
1479.740242548418
 20
554.2899123224515
 30
0.0
 11
1533.631993036125
 21
554.2899123224515
 31
0.0
  0
LINE
  5
21E7
330
4BF
100
AcDbEntity
  8
実形
 62
     0
370
    15
100
AcDbLine
 10
1479.740242548418
 20
539.2899123224515
 30
0.0
 11
1533.631993036125
 21
539.2899123224515
 31
0.0
  0
LINE
  5
21E8
330
4BF
100
AcDbEntity
  8
実形
 62
     0
370
    18
100
AcDbLine
 10
1533.631993036125
 20
554.2899123224515
 30
0.0
 11
1533.631993036125
 21
539.2899123224515
 31
0.0
  0
INSERT
  5
21E9
330
4BF
100
AcDbEntity
  8
実形
 62
     0
370
    18
100
AcDbBlockReference
  2
_DotSmall
 10
1533.631993036125
 20
554.2899123224515
 30
0.0
 41
35.0
 42
35.0
 43
35.0
 50
90.0
  0
INSERT
  5
21EA
330
4BF
100
AcDbEntity
  8
実形
 62
     0
370
    18
100
AcDbBlockReference
  2
_DotSmall
 10
1533.631993036125
 20
539.2899123224515
 30
0.0
 41
35.0
 42
35.0
 43
35.0
 50
270.0
  0
POINT
  5
21EB
330
4BF
100
AcDbEntity
  8
Defpoints
 62
     0
100
AcDbPoint
 10
1414.740242548418
 20
554.2899123224515
 30
0.0
  0
POINT
  5
21EC
330
4BF
100
AcDbEntity
  8
Defpoints
 62
     0
100
AcDbPoint
 10
1414.740242548418
 20
539.2899123224515
 30
0.0
  0
POINT
  5
21ED
330
4BF
100
AcDbEntity
  8
Defpoints
 62
     0
100
AcDbPoint
 10
1533.631993036125
 20
539.2899123224515
 30
0.0
  0
ENDBLK
  5
4CB
330
4BF
100
AcDbEntity
  8
0
100
AcDbBlockEnd
  0
BLOCK
  5
4D7
330
4CD
100
AcDbEntity
  8
0
100
AcDbBlockBegin
  2
*D13
 70
     1
 10
0.0
 20
0.0
 30
0.0
  3
*D13
  1

  0
LINE
  5
21DD
330
4CD
100
AcDbEntity
  8
実形
 62
     0
370
    15
100
AcDbLine
 10
1479.740242548418
 20
723.2899123224516
 30
0.0
 11
1572.372617371006
 21
723.2899123224516
 31
0.0
  0
LINE
  5
21DE
330
4CD
100
AcDbEntity
  8
実形
 62
     0
370
    15
100
AcDbLine
 10
1479.740242548418
 20
539.2899123224515
 30
0.0
 11
1572.372617371006
 21
539.2899123224515
 31
0.0
  0
LINE
  5
21DF
330
4CD
100
AcDbEntity
  8
実形
 62
     0
370
    18
100
AcDbLine
 10
1572.372617371006
 20
723.2899123224516
 30
0.0
 11
1572.372617371006
 21
539.2899123224515
 31
0.0
  0
INSERT
  5
21E0
330
4CD
100
AcDbEntity
  8
実形
 62
     0
370
    18
100
AcDbBlockReference
  2
_DotSmall
 10
1572.372617371006
 20
723.2899123224516
 30
0.0
 41
35.0
 42
35.0
 43
35.0
 50
90.0
  0
INSERT
  5
21E1
330
4CD
100
AcDbEntity
  8
実形
 62
     0
370
    18
100
AcDbBlockReference
  2
_DotSmall
 10
1572.372617371006
 20
539.2899123224515
 30
0.0
 41
35.0
 42
35.0
 43
35.0
 50
270.0
  0
MTEXT
  5
21E2
330
4CD
100
AcDbEntity
  8
実形
 62
     0
100
AcDbMText
 10
1553.622617371006
 20
631.2899123224518
 30
0.0
 40
25.0
 41
0.0
 71
     5
 72
     1
  1
184
 11
0.0000000000000001
 21
1.0
 31
0.0
 73
     1
 44
1.0
1001
ACAD
1000
MTEXTBEGIN
1070
    73
1070
     1
1070
    44
1040
1.0
1070
    74
1070
     0
1000
MTEXTEND
  0
POINT
  5
21E3
330
4CD
100
AcDbEntity
  8
Defpoints
 62
     0
100
AcDbPoint
 10
1414.740242548418
 20
723.2899123224516
 30
0.0
  0
POINT
  5
21E4
330
4CD
100
AcDbEntity
  8
Defpoints
 62
     0
100
AcDbPoint
 10
1414.740242548418
 20
539.2899123224515
 30
0.0
  0
POINT
  5
21E5
330
4CD
100
AcDbEntity
  8
Defpoints
 62
     0
100
AcDbPoint
 10
1572.372617371006
 20
539.2899123224515
 30
0.0
  0
ENDBLK
  5
4D8
330
4CD
100
AcDbEntity
  8
0
100
AcDbBlockEnd
  0
BLOCK
  5
503
330
4F9
100
AcDbEntity
  8
0
100
AcDbBlockBegin
  2
*D14
 70
     1
 10
0.0
 20
0.0
 30
0.0
  3
*D14
  1

  0
LINE
  5
21F7
330
4F9
100
AcDbEntity
  8
実形
 62
     0
370
    15
100
AcDbLine
 10
1085.740242548418
 20
464.2899123224515
 30
0.0
 11
1085.740242548418
 21
412.8625050213786
 31
0.0
  0
LINE
  5
21F8
330
4F9
100
AcDbEntity
  8
実形
 62
     0
370
    15
100
AcDbLine
 10
1173.740242548418
 20
464.2899123224515
 30
0.0
 11
1173.740242548418
 21
412.8625050213786
 31
0.0
  0
LINE
  5
21F9
330
4F9
100
AcDbEntity
  8
実形
 62
     0
370
    18
100
AcDbLine
 10
1085.740242548418
 20
412.8625050213786
 30
0.0
 11
1173.740242548418
 21
412.8625050213786
 31
0.0
  0
INSERT
  5
21FA
330
4F9
100
AcDbEntity
  8
実形
 62
     0
370
    18
100
AcDbBlockReference
  2
_DotSmall
 10
1085.740242548418
 20
412.8625050213786
 30
0.0
 41
35.0
 42
35.0
 43
35.0
 50
180.0
  0
INSERT
  5
21FB
330
4F9
100
AcDbEntity
  8
実形
 62
     0
370
    18
100
AcDbBlockReference
  2
_DotSmall
 10
1173.740242548418
 20
412.8625050213786
 30
0.0
 41
35.0
 42
35.0
 43
35.0
  0
MTEXT
  5
21FC
330
4F9
100
AcDbEntity
  8
実形
 62
     0
100
AcDbMText
 10
1129.740242548418
 20
431.6125050213786
 30
0.0
 40
25.0
 41
0.0
 71
     5
 72
     1
  1
88
 73
     1
 44
1.0
1001
ACAD
1000
MTEXTBEGIN
1070
    73
1070
     1
1070
    44
1040
1.0
1070
    74
1070
     0
1000
MTEXTEND
  0
POINT
  5
21FD
330
4F9
100
AcDbEntity
  8
Defpoints
 62
     0
100
AcDbPoint
 10
1085.740242548418
 20
529.2899123224515
 30
0.0
  0
POINT
  5
21FE
330
4F9
100
AcDbEntity
  8
Defpoints
 62
     0
100
AcDbPoint
 10
1173.740242548418
 20
529.2899123224515
 30
0.0
  0
POINT
  5
21FF
330
4F9
100
AcDbEntity
  8
Defpoints
 62
     0
100
AcDbPoint
 10
1173.740242548418
 20
412.8625050213786
 30
0.0
  0
ENDBLK
  5
504
330
4F9
100
AcDbEntity
  8
0
100
AcDbBlockEnd
  0
BLOCK
  5
510
330
506
100
AcDbEntity
  8
0
100
AcDbBlockBegin
  2
*D15
 70
     1
 10
0.0
 20
0.0
 30
0.0
  3
*D15
  1

  0
LINE
  5
21EE
330
506
100
AcDbEntity
  8
実形
 62
     0
370
    15
100
AcDbLine
 10
1071.740242548418
 20
464.2899123224515
 30
0.0
 11
1071.740242548418
 21
352.9031064524497
 31
0.0
  0
LINE
  5
21EF
330
506
100
AcDbEntity
  8
実形
 62
     0
370
    15
100
AcDbLine
 10
1187.740242548418
 20
464.2899123224515
 30
0.0
 11
1187.740242548418
 21
352.9031064524497
 31
0.0
  0
LINE
  5
21F0
330
506
100
AcDbEntity
  8
実形
 62
     0
370
    18
100
AcDbLine
 10
1071.740242548418
 20
352.9031064524497
 30
0.0
 11
1187.740242548418
 21
352.9031064524497
 31
0.0
  0
INSERT
  5
21F1
330
506
100
AcDbEntity
  8
実形
 62
     0
370
    18
100
AcDbBlockReference
  2
_DotSmall
 10
1071.740242548418
 20
352.9031064524497
 30
0.0
 41
35.0
 42
35.0
 43
35.0
 50
180.0
  0
INSERT
  5
21F2
330
506
100
AcDbEntity
  8
実形
 62
     0
370
    18
100
AcDbBlockReference
  2
_DotSmall
 10
1187.740242548418
 20
352.9031064524497
 30
0.0
 41
35.0
 42
35.0
 43
35.0
  0
MTEXT
  5
21F3
330
506
100
AcDbEntity
  8
実形
 62
     0
100
AcDbMText
 10
1129.740242548418
 20
371.6531064524497
 30
0.0
 40
25.0
 41
0.0
 71
     5
 72
     1
  1
116
 73
     1
 44
1.0
1001
ACAD
1000
MTEXTBEGIN
1070
    73
1070
     1
1070
    44
1040
1.0
1070
    74
1070
     0
1000
MTEXTEND
  0
POINT
  5
21F4
330
506
100
AcDbEntity
  8
Defpoints
 62
     0
100
AcDbPoint
 10
1071.740242548418
 20
529.2899123224515
 30
0.0
  0
POINT
  5
21F5
330
506
100
AcDbEntity
  8
Defpoints
 62
     0
100
AcDbPoint
 10
1187.740242548418
 20
529.2899123224515
 30
0.0
  0
POINT
  5
21F6
330
506
100
AcDbEntity
  8
Defpoints
 62
     0
100
AcDbPoint
 10
1187.740242548418
 20
352.9031064524497
 30
0.0
  0
ENDBLK
  5
511
330
506
100
AcDbEntity
  8
0
100
AcDbBlockEnd
  0
BLOCK
  5
53E
330
533
100
AcDbEntity
  8
0
100
AcDbBlockBegin
  2
*D16
 70
     1
 10
0.0
 20
0.0
 30
0.0
  3
*D16
  1

  0
LINE
  5
2209
330
533
100
AcDbEntity
  8
実形
 62
     0
370
    15
100
AcDbLine
 10
1863.189106620492
 20
1038.516217955009
 30
0.0
 11
1863.189106620492
 21
940.5841001849545
 31
0.0
  0
LINE
  5
220A
330
533
100
AcDbEntity
  8
実形
 62
     0
370
    15
100
AcDbLine
 10
1848.189106620491
 20
1038.516217955009
 30
0.0
 11
1848.189106620491
 21
940.5841001849545
 31
0.0
  0
LINE
  5
220B
330
533
100
AcDbEntity
  8
実形
 62
     0
370
    18
100
AcDbLine
 10
1863.189106620492
 20
940.5841001849545
 30
0.0
 11
1848.189106620491
 21
940.5841001849545
 31
0.0
  0
INSERT
  5
220C
330
533
100
AcDbEntity
  8
実形
 62
     0
370
    18
100
AcDbBlockReference
  2
_DotSmall
 10
1863.189106620492
 20
940.5841001849545
 30
0.0
 41
35.0
 42
35.0
 43
35.0
  0
INSERT
  5
220D
330
533
100
AcDbEntity
  8
実形
 62
     0
370
    18
100
AcDbBlockReference
  2
_DotSmall
 10
1848.189106620491
 20
940.5841001849545
 30
0.0
 41
35.0
 42
35.0
 43
35.0
 50
180.0
  0
POINT
  5
220E
330
533
100
AcDbEntity
  8
Defpoints
 62
     0
100
AcDbPoint
 10
1863.189106620492
 20
1103.516217955009
 30
0.0
  0
POINT
  5
220F
330
533
100
AcDbEntity
  8
Defpoints
 62
     0
100
AcDbPoint
 10
1848.189106620491
 20
1103.516217955009
 30
0.0
  0
POINT
  5
2210
330
533
100
AcDbEntity
  8
Defpoints
 62
     0
100
AcDbPoint
 10
1848.189106620491
 20
940.5841001849545
 30
0.0
  0
ENDBLK
  5
53F
330
533
100
AcDbEntity
  8
0
100
AcDbBlockEnd
  0
BLOCK
  5
553
330
549
100
AcDbEntity
  8
0
100
AcDbBlockBegin
  2
*D17
 70
     1
 10
0.0
 20
0.0
 30
0.0
  3
*D17
  1

  0
LINE
  5
2200
330
549
100
AcDbEntity
  8
実形
 62
     0
370
    15
100
AcDbLine
 10
1863.189106620492
 20
1023.516217955009
 30
0.0
 11
1863.189106620492
 21
860.6046900290849
 31
0.0
  0
LINE
  5
2201
330
549
100
AcDbEntity
  8
実形
 62
     0
370
    15
100
AcDbLine
 10
1679.189106620492
 20
1026.516217955009
 30
0.0
 11
1679.189106620492
 21
860.6046900290849
 31
0.0
  0
LINE
  5
2202
330
549
100
AcDbEntity
  8
実形
 62
     0
370
    18
100
AcDbLine
 10
1863.189106620492
 20
860.6046900290849
 30
0.0
 11
1679.189106620492
 21
860.6046900290849
 31
0.0
  0
INSERT
  5
2203
330
549
100
AcDbEntity
  8
実形
 62
     0
370
    18
100
AcDbBlockReference
  2
_DotSmall
 10
1863.189106620492
 20
860.6046900290849
 30
0.0
 41
35.0
 42
35.0
 43
35.0
  0
INSERT
  5
2204
330
549
100
AcDbEntity
  8
実形
 62
     0
370
    18
100
AcDbBlockReference
  2
_DotSmall
 10
1679.189106620492
 20
860.6046900290849
 30
0.0
 41
35.0
 42
35.0
 43
35.0
 50
180.0
  0
MTEXT
  5
2205
330
549
100
AcDbEntity
  8
実形
 62
     0
100
AcDbMText
 10
1771.189106620491
 20
879.3546900290849
 30
0.0
 40
25.0
 41
0.0
 71
     5
 72
     1
  1
184
 73
     1
 44
1.0
1001
ACAD
1000
MTEXTBEGIN
1070
    73
1070
     1
1070
    44
1040
1.0
1070
    74
1070
     0
1000
MTEXTEND
  0
POINT
  5
2206
330
549
100
AcDbEntity
  8
Defpoints
 62
     0
100
AcDbPoint
 10
1863.189106620492
 20
1088.516217955009
 30
0.0
  0
POINT
  5
2207
330
549
100
AcDbEntity
  8
Defpoints
 62
     0
100
AcDbPoint
 10
1679.189106620492
 20
1091.516217955009
 30
0.0
  0
POINT
  5
2208
330
549
100
AcDbEntity
  8
Defpoints
 62
     0
100
AcDbPoint
 10
1679.189106620492
 20
860.6046900290849
 30
0.0
  0
ENDBLK
  5
554
330
549
100
AcDbEntity
  8
0
100
AcDbBlockEnd
  0
BLOCK
  5
574
330
56A
100
AcDbEntity
  8
0
100
AcDbBlockBegin
  2
*D18
 70
     1
 10
0.0
 20
0.0
 30
0.0
  3
*D18
  1

  0
LINE
  5
222C
330
56A
100
AcDbEntity
  8
実形
 62
     0
370
    15
100
AcDbLine
 10
1938.189106620492
 20
1312.516217955009
 30
0.0
 11
1983.495250712412
 21
1312.516217955009
 31
0.0
  0
LINE
  5
222D
330
56A
100
AcDbEntity
  8
実形
 62
     0
370
    15
100
AcDbLine
 10
1938.189106620492
 20
1224.516217955009
 30
0.0
 11
1983.495250712412
 21
1224.516217955009
 31
0.0
  0
LINE
  5
222E
330
56A
100
AcDbEntity
  8
実形
 62
     0
370
    18
100
AcDbLine
 10
1983.495250712412
 20
1312.516217955009
 30
0.0
 11
1983.495250712412
 21
1224.516217955009
 31
0.0
  0
INSERT
  5
222F
330
56A
100
AcDbEntity
  8
実形
 62
     0
370
    18
100
AcDbBlockReference
  2
_DotSmall
 10
1983.495250712412
 20
1312.516217955009
 30
0.0
 41
35.0
 42
35.0
 43
35.0
 50
90.0
  0
INSERT
  5
2230
330
56A
100
AcDbEntity
  8
実形
 62
     0
370
    18
100
AcDbBlockReference
  2
_DotSmall
 10
1983.495250712412
 20
1224.516217955009
 30
0.0
 41
35.0
 42
35.0
 43
35.0
 50
270.0
  0
MTEXT
  5
2231
330
56A
100
AcDbEntity
  8
実形
 62
     0
100
AcDbMText
 10
1964.745250712411
 20
1268.516217955009
 30
0.0
 40
25.0
 41
0.0
 71
     5
 72
     1
  1
88
 11
0.0000000000000001
 21
1.0
 31
0.0
 73
     1
 44
1.0
1001
ACAD
1000
MTEXTBEGIN
1070
    73
1070
     1
1070
    44
1040
1.0
1070
    74
1070
     0
1000
MTEXTEND
  0
POINT
  5
2232
330
56A
100
AcDbEntity
  8
Defpoints
 62
     0
100
AcDbPoint
 10
1873.189106620491
 20
1312.516217955009
 30
0.0
  0
POINT
  5
2233
330
56A
100
AcDbEntity
  8
Defpoints
 62
     0
100
AcDbPoint
 10
1873.189106620491
 20
1224.516217955009
 30
0.0
  0
POINT
  5
2234
330
56A
100
AcDbEntity
  8
Defpoints
 62
     0
100
AcDbPoint
 10
1983.495250712412
 20
1224.516217955009
 30
0.0
  0
ENDBLK
  5
575
330
56A
100
AcDbEntity
  8
0
100
AcDbBlockEnd
  0
BLOCK
  5
58A
330
580
100
AcDbEntity
  8
0
100
AcDbBlockBegin
  2
*D19
 70
     1
 10
0.0
 20
0.0
 30
0.0
  3
*D19
  1

  0
LINE
  5
2223
330
580
100
AcDbEntity
  8
実形
 62
     0
370
    15
100
AcDbLine
 10
1938.189106620492
 20
1326.516217955009
 30
0.0
 11
2048.416838677253
 21
1326.516217955009
 31
0.0
  0
LINE
  5
2224
330
580
100
AcDbEntity
  8
実形
 62
     0
370
    15
100
AcDbLine
 10
1938.189106620492
 20
1210.516217955009
 30
0.0
 11
2048.416838677253
 21
1210.516217955009
 31
0.0
  0
LINE
  5
2225
330
580
100
AcDbEntity
  8
実形
 62
     0
370
    18
100
AcDbLine
 10
2048.416838677253
 20
1326.516217955009
 30
0.0
 11
2048.416838677253
 21
1210.516217955009
 31
0.0
  0
INSERT
  5
2226
330
580
100
AcDbEntity
  8
実形
 62
     0
370
    18
100
AcDbBlockReference
  2
_DotSmall
 10
2048.416838677253
 20
1326.516217955009
 30
0.0
 41
35.0
 42
35.0
 43
35.0
 50
90.0
  0
INSERT
  5
2227
330
580
100
AcDbEntity
  8
実形
 62
     0
370
    18
100
AcDbBlockReference
  2
_DotSmall
 10
2048.416838677253
 20
1210.516217955009
 30
0.0
 41
35.0
 42
35.0
 43
35.0
 50
270.0
  0
MTEXT
  5
2228
330
580
100
AcDbEntity
  8
実形
 62
     0
100
AcDbMText
 10
2029.666838677253
 20
1268.516217955009
 30
0.0
 40
25.0
 41
0.0
 71
     5
 72
     1
  1
116
 11
0.0000000000000001
 21
1.0
 31
0.0
 73
     1
 44
1.0
1001
ACAD
1000
MTEXTBEGIN
1070
    73
1070
     1
1070
    44
1040
1.0
1070
    74
1070
     0
1000
MTEXTEND
  0
POINT
  5
2229
330
580
100
AcDbEntity
  8
Defpoints
 62
     0
100
AcDbPoint
 10
1873.189106620491
 20
1326.516217955009
 30
0.0
  0
POINT
  5
222A
330
580
100
AcDbEntity
  8
Defpoints
 62
     0
100
AcDbPoint
 10
1873.189106620491
 20
1210.516217955009
 30
0.0
  0
POINT
  5
222B
330
580
100
AcDbEntity
  8
Defpoints
 62
     0
100
AcDbPoint
 10
2048.416838677253
 20
1210.516217955009
 30
0.0
  0
ENDBLK
  5
58B
330
580
100
AcDbEntity
  8
0
100
AcDbBlockEnd
  0
BLOCK
  5
1749
330
173E
100
AcDbEntity
  8
0
100
AcDbBlockBegin
  2
*D20
 70
     1
 10
0.0
 20
0.0
 30
0.0
  3
*D20
  1

  0
LINE
  5
20ED
330
173E
100
AcDbEntity
  8
実形
 62
     0
370
    18
100
AcDbLine
 10
979.7402425484179
 20
1024.020064336465
 30
0.0
 11
979.7402425484179
 21
893.5162179550088
 31
0.0
  0
LINE
  5
20EE
330
173E
100
AcDbEntity
  8
実形
 62
     0
370
    18
100
AcDbLine
 10
944.7402425484179
 20
1023.516217955009
 30
0.0
 11
944.7402425484179
 21
893.5162179550088
 31
0.0
  0
LINE
  5
20EF
330
173E
100
AcDbEntity
  8
実形
 62
     0
370
    18
100
AcDbLine
 10
979.7402425484179
 20
893.5162179550088
 30
0.0
 11
944.7402425484179
 21
893.5162179550088
 31
0.0
  0
MTEXT
  5
20F0
330
173E
100
AcDbEntity
  8
実形
 62
     0
100
AcDbMText
 10
1013.758801117615
 20
916.2225012240623
 30
0.0
 40
25.0
 41
0.0
 71
     5
 72
     1
  1
35
 73
     1
 44
1.0
1001
ACAD
1000
MTEXTBEGIN
1070
    73
1070
     1
1070
    44
1040
1.0
1070
    74
1070
     0
1000
MTEXTEND
  0
INSERT
  5
20F1
330
173E
100
AcDbEntity
  8
実形
 62
     0
370
    18
100
AcDbBlockReference
  2
_DotSmall
 10
979.7402425484179
 20
893.5162179550088
 30
0.0
 41
35.0
 42
35.0
 43
35.0
  0
INSERT
  5
20F2
330
173E
100
AcDbEntity
  8
実形
 62
     0
370
    18
100
AcDbBlockReference
  2
_DotSmall
 10
944.7402425484179
 20
893.5162179550088
 30
0.0
 41
35.0
 42
35.0
 43
35.0
 50
180.0
  0
POINT
  5
20F3
330
173E
100
AcDbEntity
  8
Defpoints
 62
     0
100
AcDbPoint
 10
979.7402425484179
 20
1089.020064336465
 30
0.0
  0
POINT
  5
20F4
330
173E
100
AcDbEntity
  8
Defpoints
 62
     0
100
AcDbPoint
 10
944.7402425484179
 20
1088.516217955009
 30
0.0
  0
POINT
  5
20F5
330
173E
100
AcDbEntity
  8
Defpoints
 62
     0
100
AcDbPoint
 10
944.7402425484179
 20
893.5162179550088
 30
0.0
  0
ENDBLK
  5
174A
330
173E
100
AcDbEntity
  8
0
100
AcDbBlockEnd
  0
BLOCK
  5
17BA
330
17AF
100
AcDbEntity
  8
0
100
AcDbBlockBegin
  2
*D21
 70
     1
 10
0.0
 20
0.0
 30
0.0
  3
*D21
  1

  0
LINE
  5
2247
330
17AF
100
AcDbEntity
  8
実形
 62
     0
370
    18
100
AcDbLine
 10
897.7402425484179
 20
1108.516217955009
 30
0.0
 11
764.7402425484179
 21
1108.516217955009
 31
0.0
  0
LINE
  5
2248
330
17AF
100
AcDbEntity
  8
実形
 62
     0
370
    18
100
AcDbLine
 10
897.7402425484179
 20
1073.516217955009
 30
0.0
 11
764.7402425484179
 21
1073.516217955009
 31
0.0
  0
LINE
  5
2249
330
17AF
100
AcDbEntity
  8
実形
 62
     0
370
    18
100
AcDbLine
 10
764.7402425484179
 20
1108.516217955009
 30
0.0
 11
764.7402425484179
 21
1073.516217955009
 31
0.0
  0
MTEXT
  5
224A
330
17AF
100
AcDbEntity
  8
実形
 62
     0
100
AcDbMText
 10
739.8536218044882
 20
1100.936640835342
 30
0.0
 40
25.0
 41
0.0
 71
     5
 72
     1
  1
35
 11
0.0000000000000001
 21
1.0
 31
0.0
 73
     1
 44
1.0
1001
ACAD
1000
MTEXTBEGIN
1070
    73
1070
     1
1070
    44
1040
1.0
1070
    74
1070
     0
1000
MTEXTEND
  0
INSERT
  5
224B
330
17AF
100
AcDbEntity
  8
実形
 62
     0
370
    18
100
AcDbBlockReference
  2
_DotSmall
 10
764.7402425484179
 20
1108.516217955009
 30
0.0
 41
35.0
 42
35.0
 43
35.0
 50
90.0
  0
INSERT
  5
224C
330
17AF
100
AcDbEntity
  8
実形
 62
     0
370
    18
100
AcDbBlockReference
  2
_DotSmall
 10
764.7402425484179
 20
1073.516217955009
 30
0.0
 41
35.0
 42
35.0
 43
35.0
 50
270.0
  0
POINT
  5
224D
330
17AF
100
AcDbEntity
  8
Defpoints
 62
     0
100
AcDbPoint
 10
962.7402425484179
 20
1108.516217955009
 30
0.0
  0
POINT
  5
224E
330
17AF
100
AcDbEntity
  8
Defpoints
 62
     0
100
AcDbPoint
 10
962.7402425484179
 20
1073.516217955009
 30
0.0
  0
POINT
  5
224F
330
17AF
100
AcDbEntity
  8
Defpoints
 62
     0
100
AcDbPoint
 10
764.7402425484179
 20
1073.516217955009
 30
0.0
  0
ENDBLK
  5
17BB
330
17AF
100
AcDbEntity
  8
0
100
AcDbBlockEnd
  0
BLOCK
  5
1F4F
330
1F44
100
AcDbEntity
  8
0
100
AcDbBlockBegin
  2
*D22
 70
     1
 10
0.0
 20
0.0
 30
0.0
  3
*D22
  1

  0
LINE
  5
229F
330
1F44
100
AcDbEntity
  8
実形
 62
     0
370
    18
100
AcDbLine
 10
897.7402425484179
 20
1513.516217955009
 30
0.0
 11
834.7402425484178
 21
1513.516217955009
 31
0.0
  0
LINE
  5
22A0
330
1F44
100
AcDbEntity
  8
実形
 62
     0
370
    18
100
AcDbLine
 10
897.7402425484179
 20
1493.516217955009
 30
0.0
 11
834.7402425484178
 21
1493.516217955009
 31
0.0
  0
LINE
  5
22A1
330
1F44
100
AcDbEntity
  8
実形
 62
     0
370
    18
100
AcDbLine
 10
834.7402425484178
 20
1513.516217955009
 30
0.0
 11
834.7402425484178
 21
1493.516217955009
 31
0.0
  0
MTEXT
  5
22A2
330
1F44
100
AcDbEntity
  8
実形
 62
     0
100
AcDbMText
 10
816.570893973143
 20
1541.427253618292
 30
0.0
 40
25.0
 41
0.0
 71
     5
 72
     1
  1
20
 11
0.0000000000000001
 21
1.0
 31
0.0
 73
     1
 44
1.0
1001
ACAD
1000
MTEXTBEGIN
1070
    73
1070
     1
1070
    44
1040
1.0
1070
    74
1070
     0
1000
MTEXTEND
  0
INSERT
  5
22A3
330
1F44
100
AcDbEntity
  8
実形
 62
     0
370
    18
100
AcDbBlockReference
  2
_DotSmall
 10
834.7402425484178
 20
1513.516217955009
 30
0.0
 41
35.0
 42
35.0
 43
35.0
 50
90.0
  0
INSERT
  5
22A4
330
1F44
100
AcDbEntity
  8
実形
 62
     0
370
    18
100
AcDbBlockReference
  2
_DotSmall
 10
834.7402425484178
 20
1493.516217955009
 30
0.0
 41
35.0
 42
35.0
 43
35.0
 50
270.0
  0
POINT
  5
22A5
330
1F44
100
AcDbEntity
  8
Defpoints
 62
     0
100
AcDbPoint
 10
962.7402425484179
 20
1513.516217955009
 30
0.0
  0
POINT
  5
22A6
330
1F44
100
AcDbEntity
  8
Defpoints
 62
     0
100
AcDbPoint
 10
962.7402425484179
 20
1493.516217955009
 30
0.0
  0
POINT
  5
22A7
330
1F44
100
AcDbEntity
  8
Defpoints
 62
     0
100
AcDbPoint
 10
834.7402425484178
 20
1493.516217955009
 30
0.0
  0
ENDBLK
  5
1F50
330
1F44
100
AcDbEntity
  8
0
100
AcDbBlockEnd
  0
BLOCK
  5
1F5C
330
1F52
100
AcDbEntity
  8
0
100
AcDbBlockBegin
  2
*D23
 70
     1
 10
0.0
 20
0.0
 30
0.0
  3
*D23
  1

  0
LINE
  5
22A8
330
1F52
100
AcDbEntity
  8
実形
 62
     0
370
    18
100
AcDbLine
 10
897.7402425484179
 20
1493.516217955009
 30
0.0
 11
834.7402425484178
 21
1493.516217955009
 31
0.0
  0
LINE
  5
22A9
330
1F52
100
AcDbEntity
  8
実形
 62
     0
370
    18
100
AcDbLine
 10
897.7402425484179
 20
1428.516217955008
 30
0.0
 11
834.7402425484178
 21
1428.516217955008
 31
0.0
  0
LINE
  5
22AA
330
1F52
100
AcDbEntity
  8
実形
 62
     0
370
    18
100
AcDbLine
 10
834.7402425484178
 20
1493.516217955009
 30
0.0
 11
834.7402425484178
 21
1428.516217955008
 31
0.0
  0
INSERT
  5
22AB
330
1F52
100
AcDbEntity
  8
実形
 62
     0
370
    18
100
AcDbBlockReference
  2
_DotSmall
 10
834.7402425484178
 20
1493.516217955009
 30
0.0
 41
35.0
 42
35.0
 43
35.0
 50
90.0
  0
INSERT
  5
22AC
330
1F52
100
AcDbEntity
  8
実形
 62
     0
370
    18
100
AcDbBlockReference
  2
_DotSmall
 10
834.7402425484178
 20
1428.516217955008
 30
0.0
 41
35.0
 42
35.0
 43
35.0
 50
270.0
  0
MTEXT
  5
22AD
330
1F52
100
AcDbEntity
  8
実形
 62
     0
100
AcDbMText
 10
815.9902425484176
 20
1461.016217955009
 30
0.0
 40
25.0
 41
0.0
 71
     5
 72
     1
  1
65
 11
0.0000000000000001
 21
1.0
 31
0.0
 73
     1
 44
1.0
1001
ACAD
1000
MTEXTBEGIN
1070
    73
1070
     1
1070
    44
1040
1.0
1070
    74
1070
     0
1000
MTEXTEND
  0
POINT
  5
22AE
330
1F52
100
AcDbEntity
  8
Defpoints
 62
     0
100
AcDbPoint
 10
962.7402425484179
 20
1493.516217955009
 30
0.0
  0
POINT
  5
22AF
330
1F52
100
AcDbEntity
  8
Defpoints
 62
     0
100
AcDbPoint
 10
962.7402425484179
 20
1428.516217955008
 30
0.0
  0
POINT
  5
22B0
330
1F52
100
AcDbEntity
  8
Defpoints
 62
     0
100
AcDbPoint
 10
834.7402425484178
 20
1428.516217955008
 30
0.0
  0
ENDBLK
  5
1F5D
330
1F52
100
AcDbEntity
  8
0
100
AcDbBlockEnd
  0
BLOCK
  5
1F6A
330
1F5F
100
AcDbEntity
  8
0
100
AcDbBlockBegin
  2
*D24
 70
     1
 10
0.0
 20
0.0
 30
0.0
  3
*D24
  1

  0
LINE
  5
2262
330
1F5F
100
AcDbEntity
  8
実形
 62
     0
370
    18
100
AcDbLine
 10
897.7402425484179
 20
1108.516217955009
 30
0.0
 11
834.7402425484178
 21
1108.516217955009
 31
0.0
  0
LINE
  5
2263
330
1F5F
100
AcDbEntity
  8
実形
 62
     0
370
    18
100
AcDbLine
 10
897.7402425484179
 20
1093.516217955009
 30
0.0
 11
834.7402425484178
 21
1093.516217955009
 31
0.0
  0
LINE
  5
2264
330
1F5F
100
AcDbEntity
  8
実形
 62
     0
370
    18
100
AcDbLine
 10
834.7402425484178
 20
1108.516217955009
 30
0.0
 11
834.7402425484178
 21
1093.516217955009
 31
0.0
  0
MTEXT
  5
2265
330
1F5F
100
AcDbEntity
  8
実形
 62
     0
100
AcDbMText
 10
815.0231586545633
 20
1131.58560030936
 30
0.0
 40
25.0
 41
0.0
 71
     5
 72
     1
  1
15
 11
0.0000000000000001
 21
1.0
 31
0.0
 73
     1
 44
1.0
1001
ACAD
1000
MTEXTBEGIN
1070
    73
1070
     1
1070
    44
1040
1.0
1070
    74
1070
     0
1000
MTEXTEND
  0
INSERT
  5
2266
330
1F5F
100
AcDbEntity
  8
実形
 62
     0
370
    18
100
AcDbBlockReference
  2
_DotSmall
 10
834.7402425484178
 20
1108.516217955009
 30
0.0
 41
35.0
 42
35.0
 43
35.0
 50
90.0
  0
INSERT
  5
2267
330
1F5F
100
AcDbEntity
  8
実形
 62
     0
370
    18
100
AcDbBlockReference
  2
_DotSmall
 10
834.7402425484178
 20
1093.516217955009
 30
0.0
 41
35.0
 42
35.0
 43
35.0
 50
270.0
  0
POINT
  5
2268
330
1F5F
100
AcDbEntity
  8
Defpoints
 62
     0
100
AcDbPoint
 10
962.7402425484179
 20
1108.516217955009
 30
0.0
  0
POINT
  5
2269
330
1F5F
100
AcDbEntity
  8
Defpoints
 62
     0
100
AcDbPoint
 10
962.7402425484179
 20
1093.516217955009
 30
0.0
  0
POINT
  5
226A
330
1F5F
100
AcDbEntity
  8
Defpoints
 62
     0
100
AcDbPoint
 10
834.7402425484178
 20
1093.516217955009
 30
0.0
  0
ENDBLK
  5
1F6B
330
1F5F
100
AcDbEntity
  8
0
100
AcDbBlockEnd
  0
BLOCK
  5
1F77
330
1F6D
100
AcDbEntity
  8
0
100
AcDbBlockBegin
  2
*D25
 70
     1
 10
0.0
 20
0.0
 30
0.0
  3
*D25
  1

  0
LINE
  5
226B
330
1F6D
100
AcDbEntity
  8
実形
 62
     0
370
    18
100
AcDbLine
 10
897.7402425484179
 20
1093.516217955009
 30
0.0
 11
834.7402425484178
 21
1093.516217955009
 31
0.0
  0
LINE
  5
226C
330
1F6D
100
AcDbEntity
  8
実形
 62
     0
370
    18
100
AcDbLine
 10
897.7402425484179
 20
1073.516217955009
 30
0.0
 11
834.7402425484178
 21
1073.516217955009
 31
0.0
  0
LINE
  5
226D
330
1F6D
100
AcDbEntity
  8
実形
 62
     0
370
    18
100
AcDbLine
 10
834.7402425484178
 20
1093.516217955009
 30
0.0
 11
834.7402425484178
 21
1073.516217955009
 31
0.0
  0
MTEXT
  5
226E
330
1F6D
100
AcDbEntity
  8
実形
 62
     0
100
AcDbMText
 10
816.570893973143
 20
1048.070695970099
 30
0.0
 40
25.0
 41
0.0
 71
     5
 72
     1
  1
20
 11
0.0000000000000001
 21
1.0
 31
0.0
 73
     1
 44
1.0
1001
ACAD
1000
MTEXTBEGIN
1070
    73
1070
     1
1070
    44
1040
1.0
1070
    74
1070
     0
1000
MTEXTEND
  0
INSERT
  5
226F
330
1F6D
100
AcDbEntity
  8
実形
 62
     0
370
    18
100
AcDbBlockReference
  2
_DotSmall
 10
834.7402425484178
 20
1093.516217955009
 30
0.0
 41
35.0
 42
35.0
 43
35.0
 50
90.0
  0
INSERT
  5
2270
330
1F6D
100
AcDbEntity
  8
実形
 62
     0
370
    18
100
AcDbBlockReference
  2
_DotSmall
 10
834.7402425484178
 20
1073.516217955009
 30
0.0
 41
35.0
 42
35.0
 43
35.0
 50
270.0
  0
POINT
  5
2271
330
1F6D
100
AcDbEntity
  8
Defpoints
 62
     0
100
AcDbPoint
 10
962.7402425484179
 20
1093.516217955009
 30
0.0
  0
POINT
  5
2272
330
1F6D
100
AcDbEntity
  8
Defpoints
 62
     0
100
AcDbPoint
 10
962.7402425484179
 20
1073.516217955009
 30
0.0
  0
POINT
  5
2273
330
1F6D
100
AcDbEntity
  8
Defpoints
 62
     0
100
AcDbPoint
 10
834.7402425484178
 20
1073.516217955009
 30
0.0
  0
ENDBLK
  5
1F78
330
1F6D
100
AcDbEntity
  8
0
100
AcDbBlockEnd
  0
BLOCK
  5
1F85
330
1F7A
100
AcDbEntity
  8
0
100
AcDbBlockBegin
  2
*D26
 70
     1
 10
0.0
 20
0.0
 30
0.0
  3
*D26
  1

  0
LINE
  5
22BA
330
1F7A
100
AcDbEntity
  8
実形
 62
     0
370
    18
100
AcDbLine
 10
944.7402425484179
 20
1028.516217955009
 30
0.0
 11
944.7402425484179
 21
963.5162179550089
 31
0.0
  0
LINE
  5
22BB
330
1F7A
100
AcDbEntity
  8
実形
 62
     0
370
    18
100
AcDbLine
 10
964.7402425484179
 20
1028.516217955009
 30
0.0
 11
964.7402425484179
 21
963.5162179550089
 31
0.0
  0
LINE
  5
22BC
330
1F7A
100
AcDbEntity
  8
実形
 62
     0
370
    18
100
AcDbLine
 10
944.7402425484179
 20
963.5162179550089
 30
0.0
 11
964.7402425484179
 21
963.5162179550089
 31
0.0
  0
MTEXT
  5
22BD
330
1F7A
100
AcDbEntity
  8
実形
 62
     0
100
AcDbMText
 10
917.1732114399128
 20
983.1146564366553
 30
0.0
 40
25.0
 41
0.0
 71
     5
 72
     1
  1
20
 73
     1
 44
1.0
1001
ACAD
1000
MTEXTBEGIN
1070
    73
1070
     1
1070
    44
1040
1.0
1070
    74
1070
     0
1000
MTEXTEND
  0
INSERT
  5
22BE
330
1F7A
100
AcDbEntity
  8
実形
 62
     0
370
    18
100
AcDbBlockReference
  2
_DotSmall
 10
944.7402425484179
 20
963.5162179550089
 30
0.0
 41
35.0
 42
35.0
 43
35.0
 50
180.0
  0
INSERT
  5
22BF
330
1F7A
100
AcDbEntity
  8
実形
 62
     0
370
    18
100
AcDbBlockReference
  2
_DotSmall
 10
964.7402425484179
 20
963.5162179550089
 30
0.0
 41
35.0
 42
35.0
 43
35.0
  0
POINT
  5
22C0
330
1F7A
100
AcDbEntity
  8
Defpoints
 62
     0
100
AcDbPoint
 10
944.7402425484179
 20
1093.516217955009
 30
0.0
  0
POINT
  5
22C1
330
1F7A
100
AcDbEntity
  8
Defpoints
 62
     0
100
AcDbPoint
 10
964.7402425484179
 20
1093.516217955009
 30
0.0
  0
POINT
  5
22C2
330
1F7A
100
AcDbEntity
  8
Defpoints
 62
     0
100
AcDbPoint
 10
964.7402425484179
 20
963.5162179550089
 30
0.0
  0
ENDBLK
  5
1F86
330
1F7A
100
AcDbEntity
  8
0
100
AcDbBlockEnd
  0
BLOCK
  5
1F94
330
1F88
100
AcDbEntity
  8
0
100
AcDbBlockBegin
  2
*D27
 70
     1
 10
0.0
 20
0.0
 30
0.0
  3
*D27
  1

  0
LINE
  5
22CC
330
1F88
100
AcDbEntity
  8
実形
 62
     0
370
    18
100
AcDbLine
 10
964.7402425484179
 20
1028.516217955009
 30
0.0
 11
964.7402425484179
 21
963.5162179550089
 31
0.0
  0
LINE
  5
22CD
330
1F88
100
AcDbEntity
  8
実形
 62
     0
370
    18
100
AcDbLine
 10
979.7402425484179
 20
1028.516217955009
 30
0.0
 11
979.7402425484179
 21
963.5162179550089
 31
0.0
  0
LINE
  5
22CE
330
1F88
100
AcDbEntity
  8
実形
 62
     0
370
    18
100
AcDbLine
 10
964.7402425484179
 20
963.5162179550089
 30
0.0
 11
979.7402425484179
 21
963.5162179550089
 31
0.0
  0
MTEXT
  5
22CF
330
1F88
100
AcDbEntity
  8
実形
 62
     0
100
AcDbMText
 10
1005.39370722507
 20
980.0215131498907
 30
0.0
 40
25.0
 41
0.0
 71
     5
 72
     1
  1
15
 73
     1
 44
1.0
1001
ACAD
1000
MTEXTBEGIN
1070
    73
1070
     1
1070
    44
1040
1.0
1070
    74
1070
     0
1000
MTEXTEND
  0
INSERT
  5
22D0
330
1F88
100
AcDbEntity
  8
実形
 62
     0
370
    18
100
AcDbBlockReference
  2
_DotSmall
 10
964.7402425484179
 20
963.5162179550089
 30
0.0
 41
35.0
 42
35.0
 43
35.0
 50
180.0
  0
INSERT
  5
22D1
330
1F88
100
AcDbEntity
  8
実形
 62
     0
370
    18
100
AcDbBlockReference
  2
_DotSmall
 10
979.7402425484179
 20
963.5162179550089
 30
0.0
 41
35.0
 42
35.0
 43
35.0
  0
POINT
  5
22D2
330
1F88
100
AcDbEntity
  8
Defpoints
 62
     0
100
AcDbPoint
 10
964.7402425484179
 20
1093.516217955009
 30
0.0
  0
POINT
  5
22D3
330
1F88
100
AcDbEntity
  8
Defpoints
 62
     0
100
AcDbPoint
 10
979.7402425484179
 20
1093.516217955009
 30
0.0
  0
POINT
  5
22D4
330
1F88
100
AcDbEntity
  8
Defpoints
 62
     0
100
AcDbPoint
 10
979.7402425484179
 20
963.5162179550089
 30
0.0
  0
ENDBLK
  5
1F95
330
1F88
100
AcDbEntity
  8
0
100
AcDbBlockEnd
  0
ENDSEC
  0
SECTION
  2
ENTITIES
  0
LINE
  5
73
330
1F
100
AcDbEntity
  8
0
100
AcDbLine
 10
109.0
 20
4.0
 30
0.0
 11
278.0
 21
4.0
 31
0.0
  0
LINE
  5
9C
330
1F
100
AcDbEntity
  8
補助
100
AcDbLine
 10
109.0
 20
4.0
 30
0.0
 11
2784.0
 21
4.0
 31
0.0
  0
LINE
  5
A0
330
1F
100
AcDbEntity
  8
補助
100
AcDbLine
 10
2784.0
 20
2024.0
 30
0.0
 11
109.0
 21
2024.0
 31
0.0
  0
LINE
  5
A5
330
1F
100
AcDbEntity
  8
補助
100
AcDbLine
 10
2784.0
 20
4.0
 30
0.0
 11
2784.0
 21
2024.0
 31
0.0
  0
LINE
  5
2E6
330
1F
100
AcDbEntity
  8
実形
100
AcDbLine
 10
959.7402425484178
 20
718.2899123224515
 30
0.0
 11
1429.740242548418
 21
718.2899123224515
 31
0.0
  0
CIRCLE
  5
2EB
330
1F
100
AcDbEntity
  8
実形
100
AcDbCircle
 10
1129.740242548418
 20
1268.516217955009
 30
0.0
 40
44.0
  0
CIRCLE
  5
2EE
330
1F
100
AcDbEntity
  8
実形
100
AcDbCircle
 10
1129.740242548418
 20
1268.516217955009
 30
0.0
 40
58.0
  0
LINE
  5
2FE
330
1F
100
AcDbEntity
  8
実形
100
AcDbLine
 10
1684.189106620491
 20
1498.516217955009
 30
0.0
 11
1684.189106620491
 21
1088.516217955009
 31
0.0
  0
LINE
  5
33A
330
1F
100
AcDbEntity
  8
センター
 48
0.5
370
    15
100
AcDbLine
 10
1001.390140401011
 20
1268.516217955009
 30
0.0
 11
1374.077654242827
 21
1268.516217955009
 31
0.0
  0
LINE
  5
33B
330
1F
100
AcDbEntity
  8
センター
 48
0.5
370
    15
100
AcDbLine
 10
1129.740242548418
 20
1388.208134321394
 30
0.0
 11
1129.740242548418
 21
1144.824301588624
 31
0.0
  0
LINE
  5
33C
330
1F
100
AcDbEntity
  8
センター
 48
0.5
370
    15
100
AcDbLine
 10
1129.740242548418
 20
602.506536197865
 30
0.0
 11
1129.740242548418
 21
461.0907158905647
 31
0.0
  0
LINE
  5
33D
330
1F
100
AcDbEntity
  8
センター
 48
0.5
370
    15
100
AcDbLine
 10
1786.653317941534
 20
1268.516217955009
 30
0.0
 11
1895.564270198596
 21
1268.516217955009
 31
0.0
  0
DIMENSION
  5
35B
330
1F
100
AcDbEntity
  8
実形
100
AcDbDimension
  2
*D4
 10
944.7402425484179
 20
1587.813654206817
 30
0.0
 11
1037.240242548418
 21
1606.563654206817
 31
0.0
 70
    32
 71
     5
 42
185.0
  3
ISO-25
100
AcDbAlignedDimension
 13
1129.740242548418
 23
1321.730918811397
 33
0.0
 14
944.7402425484179
 24
1468.842099762682
 34
0.0
100
AcDbRotatedDimension
1001
ACAD
1000
DSTYLE
1002
{
1070
   371
1070
    18
1002
}
  0
DIMENSION
  5
368
330
1F
100
AcDbEntity
  8
実形
100
AcDbDimension
  2
*D5
 10
1527.343255167399
 20
1268.516217955009
 30
0.0
 11
1508.593255167399
 21
1171.016217955009
 31
0.0
 70
    32
 71
     5
 42
195.0
  3
ISO-25
100
AcDbAlignedDimension
 13
1402.012119374303
 23
1073.516217955009
 33
0.0
 14
1314.740242548418
 24
1268.516217955009
 34
0.0
 50
90.0
100
AcDbRotatedDimension
1001
ACAD
1000
DSTYLE
1002
{
1070
   371
1070
    18
1002
}
  0
DIMENSION
  5
3CE
330
1F
100
AcDbEntity
  8
実形
100
AcDbDimension
  2
*D6
 10
764.7402425484179
 20
1428.516217955009
 30
0.0
 11
745.9902425484176
 21
1471.016217955009
 31
0.0
 70
    32
  1
85
 71
     5
 42
85.00000000000023
  3
ISO-25
100
AcDbAlignedDimension
 13
962.7402425484179
 23
1513.516217955009
 33
0.0
 14
962.7402425484179
 24
1428.516217955009
 34
0.0
 50
90.0
100
AcDbRotatedDimension
1001
ACAD
1000
DSTYLE
1002
{
1070
   371
1070
    18
1002
}
  0
DIMENSION
  5
3DC
330
1F
100
AcDbEntity
  8
実形
100
AcDbDimension
  2
*D7
 10
764.7402425484179
 20
1108.516217955009
 30
0.0
 11
745.9902425484178
 21
1268.516217955009
 31
0.0
 70
    32
 71
     5
 42
319.9999999999998
  3
ISO-25
100
AcDbAlignedDimension
 13
962.7402425484179
 23
1428.516217955009
 33
0.0
 14
962.7402425484179
 24
1108.516217955009
 34
0.0
 50
90.0
100
AcDbRotatedDimension
1001
ACAD
1000
DSTYLE
1002
{
1070
   281
1070
     0
1070
   371
1070
    18
1070
   279
1070
     1
1002
}
  0
DIMENSION
  5
3F6
330
1F
100
AcDbEntity
  8
実形
100
AcDbDimension
  2
*D8
 10
694.7402425484178
 20
1073.516217955009
 30
0.0
 11
675.9902425484177
 21
1293.516217955009
 31
0.0
 70
    32
 71
     5
 42
440.0
  3
ISO-25
100
AcDbAlignedDimension
 13
962.7402425484179
 23
1513.516217955009
 33
0.0
 14
962.7402425484179
 24
1073.516217955009
 34
0.0
 50
90.0
100
AcDbRotatedDimension
1001
ACAD
1000
DSTYLE
1002
{
1070
   371
1070
    18
1002
}
  0
DIMENSION
  5
44B
330
1F
100
AcDbEntity
  8
実形
100
AcDbDimension
  2
*D9
 10
1409.740242548418
 20
893.5162179550088
 30
0.0
 11
1194.740242548418
 21
912.2662179550088
 31
0.0
 70
    32
 71
     5
 42
430.0000000000003
  3
ISO-25
100
AcDbAlignedDimension
 13
979.7402425484177
 23
1089.020064336465
 33
0.0
 14
1409.740242548418
 24
1089.020064336465
 34
0.0
100
AcDbRotatedDimension
1001
ACAD
1000
DSTYLE
1002
{
1070
   371
1070
    18
1070
   279
1070
     1
1002
}
  0
DIMENSION
  5
458
330
1F
100
AcDbEntity
  8
実形
100
AcDbDimension
  2
*D10
 10
1444.740242548418
 20
893.5162179550088
 30
0.0
 11
1378.246803578813
 21
916.2225012240623
 31
0.0
 70
   160
  1
35
 71
     5
 42
34.99999999999977
  3
ISO-25
100
AcDbAlignedDimension
 13
1409.740242548418
 23
1089.020064336465
 33
0.0
 14
1444.740242548418
 24
1091.516217955009
 34
0.0
100
AcDbRotatedDimension
1001
ACAD
1000
DSTYLE
1002
{
1070
   281
1070
     0
1070
   371
1070
    18
1070
   279
1070
     2
1002
}
  0
DIMENSION
  5
4A3
330
1F
100
AcDbEntity
  8
実形
100
AcDbDimension
  2
*D11
 10
1444.740242548418
 20
823.5162179550089
 30
0.0
 11
1194.740242548418
 21
842.2662179550089
 31
0.0
 70
    32
 71
     5
 42
500.0
  3
ISO-25
100
AcDbAlignedDimension
 13
944.7402425484179
 23
1088.516217955009
 33
0.0
 14
1444.740242548418
 24
1088.516217955009
 34
0.0
100
AcDbRotatedDimension
1001
ACAD
1000
DSTYLE
1002
{
1070
   371
1070
    18
1002
}
  0
DIMENSION
  5
4BE
330
1F
100
AcDbEntity
  8
実形
100
AcDbDimension
  2
*D12
 10
1533.631993036125
 20
539.2899123224515
 30
0.0
 11
1533.631993036125
 21
546.7899123224517
 31
0.0
 70
    32
  1
 
 71
     5
 42
15.0
  3
ISO-25
100
AcDbAlignedDimension
 13
1414.740242548418
 23
554.2899123224515
 33
0.0
 14
1414.740242548418
 24
539.2899123224515
 34
0.0
 50
90.0
100
AcDbRotatedDimension
1001
ACAD
1000
DSTYLE
1002
{
1070
   371
1070
    18
1002
}
  0
DIMENSION
  5
4CC
330
1F
100
AcDbEntity
  8
実形
100
AcDbDimension
  2
*D13
 10
1572.372617371006
 20
539.2899123224515
 30
0.0
 11
1553.622617371006
 21
631.2899123224518
 31
0.0
 70
    32
 71
     5
 42
184.0000000000001
  3
ISO-25
100
AcDbAlignedDimension
 13
1414.740242548418
 23
723.2899123224516
 33
0.0
 14
1414.740242548418
 24
539.2899123224515
 34
0.0
 50
90.0
100
AcDbRotatedDimension
1001
ACAD
1000
DSTYLE
1002
{
1070
   371
1070
    18
1002
}
  0
TEXT
  5
4F7
330
1F
100
AcDbEntity
  8
実形
100
AcDbText
 10
1536.685694748129
 20
479.9840291192172
 30
0.0
 40
25.0
  1
15
 50
90.0
100
AcDbText
  0
DIMENSION
  5
4F8
330
1F
100
AcDbEntity
  8
実形
100
AcDbDimension
  2
*D14
 10
1173.740242548418
 20
412.8625050213786
 30
0.0
 11
1129.740242548418
 21
431.6125050213786
 31
0.0
 70
    32
 71
     5
 42
88.0
  3
ISO-25
100
AcDbAlignedDimension
 13
1085.740242548418
 23
529.2899123224515
 33
0.0
 14
1173.740242548418
 24
529.2899123224515
 34
0.0
100
AcDbRotatedDimension
1001
ACAD
1000
DSTYLE
1002
{
1070
   371
1070
    18
1002
}
  0
DIMENSION
  5
505
330
1F
100
AcDbEntity
  8
実形
100
AcDbDimension
  2
*D15
 10
1187.740242548418
 20
352.9031064524497
 30
0.0
 11
1129.740242548418
 21
371.6531064524497
 31
0.0
 70
    32
 71
     5
 42
116.0
  3
ISO-25
100
AcDbAlignedDimension
 13
1071.740242548418
 23
529.2899123224515
 33
0.0
 14
1187.740242548418
 24
529.2899123224515
 34
0.0
100
AcDbRotatedDimension
1001
ACAD
1000
DSTYLE
1002
{
1070
   371
1070
    18
1002
}
  0
DIMENSION
  5
532
330
1F
100
AcDbEntity
  8
実形
100
AcDbDimension
  2
*D16
 10
1848.189106620491
 20
940.5841001849545
 30
0.0
 11
1855.689106620491
 21
940.5841001849545
 31
0.0
 70
    32
  1
 
 71
     5
 42
15.0
  3
ISO-25
100
AcDbAlignedDimension
 13
1863.189106620492
 23
1103.516217955009
 33
0.0
 14
1848.189106620491
 24
1103.516217955009
 34
0.0
100
AcDbRotatedDimension
1001
ACAD
1000
DSTYLE
1002
{
1070
   371
1070
    18
1002
}
  0
DIMENSION
  5
548
330
1F
100
AcDbEntity
  8
実形
100
AcDbDimension
  2
*D17
 10
1679.189106620492
 20
860.6046900290849
 30
0.0
 11
1771.189106620491
 21
879.3546900290849
 31
0.0
 70
    32
 71
     5
 42
184.0
  3
ISO-25
100
AcDbAlignedDimension
 13
1863.189106620492
 23
1088.516217955009
 33
0.0
 14
1679.189106620492
 24
1091.516217955009
 34
0.0
100
AcDbRotatedDimension
1001
ACAD
1000
DSTYLE
1002
{
1070
   371
1070
    18
1002
}
  0
TEXT
  5
555
330
1F
100
AcDbEntity
  8
実形
100
AcDbText
 10
1890.175390596756
 20
942.8720978193501
 30
0.0
 40
25.0
  1
15
100
AcDbText
  0
DIMENSION
  5
569
330
1F
100
AcDbEntity
  8
実形
100
AcDbDimension
  2
*D18
 10
1983.495250712412
 20
1224.516217955009
 30
0.0
 11
1964.745250712411
 21
1268.516217955009
 31
0.0
 70
    32
 71
     5
 42
88.0
  3
ISO-25
100
AcDbAlignedDimension
 13
1873.189106620491
 23
1312.516217955009
 33
0.0
 14
1873.189106620491
 24
1224.516217955009
 34
0.0
 50
90.0
100
AcDbRotatedDimension
1001
ACAD
1000
DSTYLE
1002
{
1070
   371
1070
    18
1002
}
  0
DIMENSION
  5
57F
330
1F
100
AcDbEntity
  8
実形
100
AcDbDimension
  2
*D19
 10
2048.416838677253
 20
1210.516217955009
 30
0.0
 11
2029.666838677253
 21
1268.516217955009
 31
0.0
 70
    32
 71
     5
 42
116.0
  3
ISO-25
100
AcDbAlignedDimension
 13
1873.189106620491
 23
1326.516217955009
 33
0.0
 14
1873.189106620491
 24
1210.516217955009
 34
0.0
 50
90.0
100
AcDbRotatedDimension
1001
ACAD
1000
DSTYLE
1002
{
1070
   371
1070
    18
1002
}
  0
LINE
  5
F27
330
1F
100
AcDbEntity
  8
実形
100
AcDbLine
 10
959.7402425484178
 20
718.2899123224515
 30
0.0
 11
1429.740242548418
 21
718.2899123224515
 31
0.0
  0
LINE
  5
1238
330
1F
100
AcDbEntity
  8
実形
100
AcDbLine
 10
1444.740242548418
 20
718.2899123224515
 30
0.0
 11
944.7402425484179
 21
718.2899123224515
 31
0.0
  0
LINE
  5
123B
330
1F
100
AcDbEntity
  8
実形
100
AcDbLine
 10
1071.740242548418
 20
539.2899123224515
 30
0.0
 11
1071.740242548418
 21
529.2899123224515
 31
0.0
  0
LINE
  5
123C
330
1F
100
AcDbEntity
  8
実形
100
AcDbLine
 10
1071.740242548418
 20
529.2899123224515
 30
0.0
 11
1187.740242548418
 21
529.2899123224515
 31
0.0
  0
LINE
  5
123D
330
1F
100
AcDbEntity
  8
実形
100
AcDbLine
 10
1187.740242548418
 20
529.2899123224515
 30
0.0
 11
1187.740242548418
 21
539.2899123224515
 31
0.0
  0
LINE
  5
123E
330
1F
100
AcDbEntity
  8
実形
100
AcDbLine
 10
1187.740242548418
 20
539.2899123224515
 30
0.0
 11
1071.740242548418
 21
539.2899123224515
 31
0.0
  0
LINE
  5
12A9
330
1F
100
AcDbEntity
  8
実形
100
AcDbLine
 10
1684.189106620491
 20
1498.516217955009
 30
0.0
 11
1684.189106620491
 21
1088.516217955009
 31
0.0
  0
LINE
  5
12AC
330
1F
100
AcDbEntity
  8
実形
100
AcDbLine
 10
1863.189106620492
 20
1210.516217955009
 30
0.0
 11
1873.189106620491
 21
1210.516217955009
 31
0.0
  0
LINE
  5
12AD
330
1F
100
AcDbEntity
  8
実形
100
AcDbLine
 10
1873.189106620491
 20
1210.516217955009
 30
0.0
 11
1873.189106620491
 21
1326.516217955009
 31
0.0
  0
LINE
  5
12AE
330
1F
100
AcDbEntity
  8
実形
100
AcDbLine
 10
1873.189106620491
 20
1326.516217955009
 30
0.0
 11
1863.189106620492
 21
1326.516217955009
 31
0.0
  0
LINE
  5
12AF
330
1F
100
AcDbEntity
  8
実形
100
AcDbLine
 10
1863.189106620492
 20
1326.516217955009
 30
0.0
 11
1863.189106620492
 21
1210.516217955009
 31
0.0
  0
LINE
  5
15F5
330
1F
100
AcDbEntity
  8
実形
100
AcDbLine
 10
1409.740242548418
 20
708.2899123224516
 30
0.0
 11
1409.740242548418
 21
582.6810838985164
 31
0.0
  0
LINE
  5
15F6
330
1F
100
AcDbEntity
  8
実形
100
AcDbLine
 10
1381.392144339714
 20
552.7265980830009
 30
0.0
 11
1187.740242548418
 21
539.2899123224515
 31
0.0
  0
LINE
  5
15F7
330
1F
100
AcDbEntity
  8
実形
100
AcDbLine
 10
1071.740242548418
 20
539.2899123224515
 30
0.0
 11
1001.425423009352
 21
548.0345718048744
 31
0.0
  0
LINE
  5
15F8
330
1F
100
AcDbEntity
  8
実形
100
AcDbLine
 10
979.7402425484179
 20
576.8592795403012
 30
0.0
 11
979.7402425484177
 21
708.2899123224516
 31
0.0
  0
LINE
  5
15F9
330
1F
100
AcDbEntity
  8
実形
100
AcDbLine
 10
1694.189106620491
 20
1108.516217955009
 30
0.0
 11
1821.733227843635
 21
1108.516217955009
 31
0.0
  0
LINE
  5
15FA
330
1F
100
AcDbEntity
  8
実形
100
AcDbLine
 10
1851.497700202808
 20
1134.764393708054
 30
0.0
 11
1863.189106620492
 21
1210.516217955009
 31
0.0
  0
LINE
  5
15FB
330
1F
100
AcDbEntity
  8
実形
100
AcDbLine
 10
1694.189106620491
 20
1428.516217955009
 30
0.0
 11
1821.573878671658
 21
1428.516217955009
 31
0.0
  0
LINE
  5
15FC
330
1F
100
AcDbEntity
  8
実形
100
AcDbLine
 10
1851.360183826265
 20
1402.090574573562
 30
0.0
 11
1863.189106620492
 21
1326.516217955009
 31
0.0
  0
DIMENSION
  5
173D
330
1F
100
AcDbEntity
  8
実形
100
AcDbDimension
  2
*D20
 10
944.7402425484179
 20
893.5162179550088
 30
0.0
 11
1013.758801117615
 21
916.2225012240623
 31
0.0
 70
   160
  1
35
 71
     5
 42
35.0
  3
ISO-25
100
AcDbAlignedDimension
 13
979.7402425484179
 23
1089.020064336465
 33
0.0
 14
944.7402425484179
 24
1088.516217955009
 34
0.0
100
AcDbRotatedDimension
1001
ACAD
1000
DSTYLE
1002
{
1070
   279
1070
     2
1070
   282
1070
     0
1070
   281
1070
     0
1070
   371
1070
    18
1070
   372
1070
    18
1002
}
  0
DIMENSION
  5
17AE
330
1F
100
AcDbEntity
  8
実形
100
AcDbDimension
  2
*D21
 10
764.7402425484179
 20
1073.516217955009
 30
0.0
 11
739.8536218044882
 21
1100.936640835342
 31
0.0
 70
   160
  1
35
 71
     5
 42
35.0
  3
ISO-25
100
AcDbAlignedDimension
 13
962.7402425484179
 23
1108.516217955009
 33
0.0
 14
962.7402425484179
 24
1073.516217955009
 34
0.0
 50
90.0
100
AcDbRotatedDimension
1001
ACAD
1000
DSTYLE
1002
{
1070
   279
1070
     2
1070
   371
1070
    18
1070
   372
1070
    18
1002
}
  0
LINE
  5
1877
330
1F
100
AcDbEntity
  8
実形
100
AcDbLine
 10
964.7402425484179
 20
1463.516217955009
 30
0.0
 11
964.7402425484179
 21
1123.516217955009
 31
0.0
  0
LINE
  5
1878
330
1F
100
AcDbEntity
  8
実形
100
AcDbLine
 10
994.7402425484179
 20
1093.516217955009
 30
0.0
 11
1394.740242548418
 21
1093.516217955009
 31
0.0
  0
LINE
  5
1879
330
1F
100
AcDbEntity
  8
実形
100
AcDbLine
 10
1424.740242548418
 20
1123.516217955009
 30
0.0
 11
1424.740242548418
 21
1463.516217955009
 31
0.0
  0
LINE
  5
187A
330
1F
100
AcDbEntity
  8
実形
100
AcDbLine
 10
1394.740242548418
 20
1493.516217955009
 30
0.0
 11
994.7402425484179
 21
1493.516217955009
 31
0.0
  0
LINE
  5
187B
330
1F
100
AcDbEntity
  8
実形
100
AcDbLine
 10
954.7402425484179
 20
1513.516217955009
 30
0.0
 11
1434.740242548418
 21
1513.516217955008
 31
0.0
  0
LINE
  5
187C
330
1F
100
AcDbEntity
  8
実形
100
AcDbLine
 10
1444.740242548418
 20
1503.516217955009
 30
0.0
 11
1444.740242548418
 21
1083.516217955009
 31
0.0
  0
LINE
  5
187D
330
1F
100
AcDbEntity
  8
実形
100
AcDbLine
 10
1434.740242548418
 20
1073.516217955009
 30
0.0
 11
954.7402425484179
 21
1073.516217955009
 31
0.0
  0
LINE
  5
187E
330
1F
100
AcDbEntity
  8
実形
100
AcDbLine
 10
944.7402425484179
 20
1083.516217955009
 30
0.0
 11
944.7402425484179
 21
1503.516217955009
 31
0.0
  0
ARC
  5
187F
330
1F
100
AcDbEntity
  8
実形
100
AcDbCircle
 10
1394.740242548418
 20
1123.516217955009
 30
0.0
 40
30.0
100
AcDbArc
 50
270.0
 51
0.0
  0
ARC
  5
1880
330
1F
100
AcDbEntity
  8
実形
100
AcDbCircle
 10
1394.740242548418
 20
1463.516217955009
 30
0.0
 40
30.0
100
AcDbArc
 50
0.0
 51
90.0
  0
ARC
  5
1881
330
1F
100
AcDbEntity
  8
実形
100
AcDbCircle
 10
994.7402425484179
 20
1463.516217955009
 30
0.0
 40
30.0
100
AcDbArc
 50
90.00000000000005
 51
180.0
  0
ARC
  5
1882
330
1F
100
AcDbEntity
  8
実形
100
AcDbCircle
 10
994.7402425484179
 20
1123.516217955009
 30
0.0
 40
30.0
100
AcDbArc
 50
180.0
 51
270.0000000000001
  0
ARC
  5
1883
330
1F
100
AcDbEntity
  8
実形
100
AcDbCircle
 10
954.7402425484179
 20
1083.516217955009
 30
0.0
 40
10.0
100
AcDbArc
 50
180.0
 51
270.0
  0
ARC
  5
1884
330
1F
100
AcDbEntity
  8
実形
100
AcDbCircle
 10
954.7402425484179
 20
1503.516217955009
 30
0.0
 40
10.0
100
AcDbArc
 50
90.0
 51
180.0
  0
ARC
  5
1885
330
1F
100
AcDbEntity
  8
実形
100
AcDbCircle
 10
1434.740242548418
 20
1503.516217955009
 30
0.0
 40
10.0
100
AcDbArc
 50
0.0
 51
90.0
  0
ARC
  5
1886
330
1F
100
AcDbEntity
  8
実形
100
AcDbCircle
 10
1434.740242548418
 20
1083.516217955009
 30
0.0
 40
10.0
100
AcDbArc
 50
270.0
 51
0.0
  0
LINE
  5
1887
330
1F
100
AcDbEntity
  8
実形
100
AcDbLine
 10
954.7402425484179
 20
1508.516217955009
 30
0.0
 11
1434.740242548418
 21
1508.516217955009
 31
0.0
  0
ARC
  5
1888
330
1F
100
AcDbEntity
  8
実形
100
AcDbCircle
 10
1434.740242548418
 20
1503.516217955009
 30
0.0
 40
5.0
100
AcDbArc
 50
0.0
 51
90.0
  0
LINE
  5
1889
330
1F
100
AcDbEntity
  8
実形
100
AcDbLine
 10
1439.740242548418
 20
1503.516217955009
 30
0.0
 11
1439.740242548418
 21
1083.516217955009
 31
0.0
  0
ARC
  5
188A
330
1F
100
AcDbEntity
  8
実形
100
AcDbCircle
 10
1434.740242548418
 20
1083.516217955009
 30
0.0
 40
5.0
100
AcDbArc
 50
270.0
 51
0.0
  0
LINE
  5
188B
330
1F
100
AcDbEntity
  8
実形
100
AcDbLine
 10
1434.740242548418
 20
1078.516217955009
 30
0.0
 11
954.7402425484179
 21
1078.516217955009
 31
0.0
  0
ARC
  5
188C
330
1F
100
AcDbEntity
  8
実形
100
AcDbCircle
 10
954.7402425484179
 20
1083.516217955009
 30
0.0
 40
5.0
100
AcDbArc
 50
180.0
 51
270.0
  0
LINE
  5
188D
330
1F
100
AcDbEntity
  8
実形
100
AcDbLine
 10
949.7402425484178
 20
1083.516217955009
 30
0.0
 11
949.7402425484178
 21
1503.516217955009
 31
0.0
  0
ARC
  5
188E
330
1F
100
AcDbEntity
  8
実形
100
AcDbCircle
 10
954.7402425484179
 20
1503.516217955009
 30
0.0
 40
5.0
100
AcDbArc
 50
90.0
 51
180.0
  0
LINE
  5
188F
330
1F
100
AcDbEntity
  8
実形
100
AcDbLine
 10
1394.740242548418
 20
1498.516217955009
 30
0.0
 11
994.7402425484179
 21
1498.516217955009
 31
0.0
  0
ARC
  5
1890
330
1F
100
AcDbEntity
  8
実形
100
AcDbCircle
 10
1394.740242548418
 20
1463.516217955009
 30
0.0
 40
35.0
100
AcDbArc
 50
0.0
 51
90.0
  0
LINE
  5
1891
330
1F
100
AcDbEntity
  8
実形
100
AcDbLine
 10
1429.740242548418
 20
1123.516217955009
 30
0.0
 11
1429.740242548418
 21
1463.516217955009
 31
0.0
  0
ARC
  5
1892
330
1F
100
AcDbEntity
  8
実形
100
AcDbCircle
 10
1394.740242548418
 20
1123.516217955009
 30
0.0
 40
35.0
100
AcDbArc
 50
270.0
 51
0.0
  0
LINE
  5
1893
330
1F
100
AcDbEntity
  8
実形
100
AcDbLine
 10
994.7402425484179
 20
1088.516217955009
 30
0.0
 11
1394.740242548418
 21
1088.516217955009
 31
0.0
  0
ARC
  5
1894
330
1F
100
AcDbEntity
  8
実形
100
AcDbCircle
 10
994.7402425484179
 20
1123.516217955009
 30
0.0
 40
35.0
100
AcDbArc
 50
180.0
 51
270.0000000000001
  0
LINE
  5
1895
330
1F
100
AcDbEntity
  8
実形
100
AcDbLine
 10
959.7402425484178
 20
1463.516217955009
 30
0.0
 11
959.7402425484178
 21
1123.516217955009
 31
0.0
  0
ARC
  5
1896
330
1F
100
AcDbEntity
  8
実形
100
AcDbCircle
 10
994.7402425484179
 20
1463.516217955009
 30
0.0
 40
35.0
100
AcDbArc
 50
90.00000000000005
 51
180.0
  0
LINE
  5
18A0
330
1F
100
AcDbEntity
  8
実形
100
AcDbLine
 10
1439.740242548418
 20
723.2899123224515
 30
0.0
 11
949.7402425484178
 21
723.2899123224515
 31
0.0
  0
LINE
  5
18A1
330
1F
100
AcDbEntity
  8
実形
100
AcDbLine
 10
949.7402425484178
 20
723.2899123224515
 30
0.0
 11
944.7402425484179
 21
718.2899123224515
 31
0.0
  0
LINE
  5
18A2
330
1F
100
AcDbEntity
  8
実形
100
AcDbLine
 10
1439.740242548418
 20
723.2899123224515
 30
0.0
 11
1444.740242548418
 21
718.2899123224515
 31
0.0
  0
LINE
  5
18B3
330
1F
100
AcDbEntity
  8
実形
100
AcDbLine
 10
1431.740242548418
 20
718.2899123224515
 30
0.0
 11
1431.740242548418
 21
708.2899123224515
 31
0.0
  0
LINE
  5
18B4
330
1F
100
AcDbEntity
  8
実形
100
AcDbLine
 10
1431.740242548418
 20
708.2899123224515
 30
0.0
 11
957.7402425484178
 21
708.2899123224515
 31
0.0
  0
LINE
  5
18B5
330
1F
100
AcDbEntity
  8
実形
100
AcDbLine
 10
957.7402425484178
 20
708.2899123224515
 30
0.0
 11
957.7402425484178
 21
718.2899123224515
 31
0.0
  0
LINE
  5
18B7
330
1F
100
AcDbEntity
  8
実形
100
AcDbLine
 10
1694.189106620491
 20
1500.516217955009
 30
0.0
 11
1694.189106620491
 21
1086.516217955009
 31
0.0
  0
LINE
  5
18B8
330
1F
100
AcDbEntity
  8
実形
100
AcDbLine
 10
1679.189106620492
 20
1508.516217955009
 30
0.0
 11
1679.189106620492
 21
1078.516217955009
 31
0.0
  0
LINE
  5
18B9
330
1F
100
AcDbEntity
  8
実形
100
AcDbLine
 10
1684.189106620491
 20
1513.516217955009
 30
0.0
 11
1684.189106620491
 21
1073.516217955009
 31
0.0
  0
LINE
  5
18BA
330
1F
100
AcDbEntity
  8
実形
100
AcDbLine
 10
1684.189106620491
 20
1088.516217955009
 30
0.0
 11
1684.189106620491
 21
1498.516217955009
 31
0.0
  0
LINE
  5
18BB
330
1F
100
AcDbEntity
  8
実形
100
AcDbLine
 10
1684.189106620491
 20
1088.516217955009
 30
0.0
 11
1684.189106620491
 21
1498.516217955009
 31
0.0
  0
LINE
  5
18BC
330
1F
100
AcDbEntity
  8
実形
100
AcDbLine
 10
1694.189106620491
 20
1086.516217955009
 30
0.0
 11
1684.189106620491
 21
1086.516217955009
 31
0.0
  0
LINE
  5
18BD
330
1F
100
AcDbEntity
  8
実形
100
AcDbLine
 10
1679.189106620492
 20
1078.516217955009
 30
0.0
 11
1684.189106620491
 21
1073.516217955009
 31
0.0
  0
LINE
  5
18BE
330
1F
100
AcDbEntity
  8
実形
100
AcDbLine
 10
1684.189106620491
 20
1500.516217955009
 30
0.0
 11
1694.189106620491
 21
1500.516217955009
 31
0.0
  0
LINE
  5
18BF
330
1F
100
AcDbEntity
  8
実形
100
AcDbLine
 10
1679.189106620492
 20
1508.516217955009
 30
0.0
 11
1684.189106620491
 21
1513.516217955009
 31
0.0
  0
ARC
  5
1A16
330
1F
100
AcDbEntity
  8
実形
100
AcDbCircle
 10
1009.740242548418
 20
576.8592795403012
 30
0.0
 40
30.0
100
AcDbArc
 50
180.0
 51
253.9091836511478
  0
ARC
  5
1A17
330
1F
100
AcDbEntity
  8
実形
100
AcDbCircle
 10
1379.740242548417
 20
582.6810838985164
 30
0.0
 40
30.0
100
AcDbArc
 50
273.156496470365
 51
0.0
  0
ARC
  5
1A93
330
1F
100
AcDbEntity
  8
実形
100
AcDbCircle
 10
1821.573878671658
 20
1398.516217955009
 30
0.0
 40
30.0
100
AcDbArc
 50
6.84277341263092
 51
90.0000000000001
  0
ARC
  5
1A94
330
1F
100
AcDbEntity
  8
実形
100
AcDbCircle
 10
1821.733227843635
 20
1138.516217955009
 30
0.0
 40
30.0
100
AcDbArc
 50
270.0
 51
352.8157326075731
  0
ARC
  5
1ECA
330
1F
100
AcDbEntity
  8
実形
100
AcDbCircle
 10
1194.740242548418
 20
4708.516217955009
 30
0.0
 40
3600.0
100
AcDbArc
 50
267.5714789433942
 51
272.4285210566058
  0
ARC
  5
1ECB
330
1F
100
AcDbEntity
  8
実形
100
AcDbCircle
 10
1194.740242548418
 20
-2171.483782044991
 30
0.0
 40
3600.0
100
AcDbArc
 50
87.57147894339416
 51
92.42852105660583
  0
ARC
  5
1ED3
330
1F
100
AcDbEntity
  8
実形
100
AcDbCircle
 10
1979.740242548418
 20
1268.516217955009
 30
0.0
 40
1000.0
100
AcDbArc
 50
174.0880137346724
 51
185.9119862653275
  0
ARC
  5
1ED5
330
1F
100
AcDbEntity
  8
実形
100
AcDbCircle
 10
409.7402425484179
 20
1268.516217955009
 30
0.0
 40
1000.0
100
AcDbArc
 50
354.0880137346724
 51
5.911986265327565
  0
ARC
  5
1ED6
330
1F
100
AcDbEntity
  8
実形
100
AcDbCircle
 10
1344.740656251364
 20
1365.336806547105
 30
0.0
 40
60.0
100
AcDbArc
 50
5.911986265327517
 51
87.57147894339444
  0
ARC
  5
1ED7
330
1F
100
AcDbEntity
  8
実形
100
AcDbCircle
 10
1344.740656251364
 20
1171.695629362912
 30
0.0
 40
60.0
100
AcDbArc
 50
272.4285210566038
 51
354.0880137346721
  0
ARC
  5
1ED8
330
1F
100
AcDbEntity
  8
実形
100
AcDbCircle
 10
1044.739828845472
 20
1171.695629362912
 30
0.0
 40
60.0
100
AcDbArc
 50
185.9119862653275
 51
267.5714789433948
  0
ARC
  5
1ED9
330
1F
100
AcDbEntity
  8
実形
100
AcDbCircle
 10
1044.739828845472
 20
1365.336806547105
 30
0.0
 40
60.0
100
AcDbArc
 50
92.42852105660523
 51
174.0880137346723
  0
DIMENSION
  5
1F43
330
1F
100
AcDbEntity
  8
実形
100
AcDbDimension
  2
*D22
 10
834.7402425484178
 20
1493.516217955009
 30
0.0
 11
816.570893973143
 21
1541.427253618292
 31
0.0
 70
   160
 71
     5
 42
20.0
  3
ISO-25
100
AcDbAlignedDimension
 13
962.7402425484179
 23
1513.516217955009
 33
0.0
 14
962.7402425484179
 24
1493.516217955009
 34
0.0
 50
90.0
100
AcDbRotatedDimension
1001
ACAD
1000
DSTYLE
1002
{
1070
   279
1070
     2
1070
   371
1070
    18
1070
   372
1070
    18
1002
}
  0
DIMENSION
  5
1F51
330
1F
100
AcDbEntity
  8
実形
100
AcDbDimension
  2
*D23
 10
834.7402425484178
 20
1428.516217955008
 30
0.0
 11
815.9902425484176
 21
1461.016217955009
 31
0.0
 70
    32
 71
     5
 42
65.00000000000046
  3
ISO-25
100
AcDbAlignedDimension
 13
962.7402425484179
 23
1493.516217955009
 33
0.0
 14
962.7402425484179
 24
1428.516217955008
 34
0.0
 50
90.0
100
AcDbRotatedDimension
1001
ACAD
1000
DSTYLE
1002
{
1070
   279
1070
     2
1070
   371
1070
    18
1070
   372
1070
    18
1002
}
  0
DIMENSION
  5
1F5E
330
1F
100
AcDbEntity
  8
実形
100
AcDbDimension
  2
*D24
 10
834.7402425484178
 20
1093.516217955009
 30
0.0
 11
815.0231586545633
 21
1131.58560030936
 31
0.0
 70
   160
 71
     5
 42
15.0
  3
ISO-25
100
AcDbAlignedDimension
 13
962.7402425484179
 23
1108.516217955009
 33
0.0
 14
962.7402425484179
 24
1093.516217955009
 34
0.0
 50
90.0
100
AcDbRotatedDimension
1001
ACAD
1000
DSTYLE
1002
{
1070
   279
1070
     2
1070
   371
1070
    18
1070
   372
1070
    18
1002
}
  0
DIMENSION
  5
1F6C
330
1F
100
AcDbEntity
  8
実形
100
AcDbDimension
  2
*D25
 10
834.7402425484178
 20
1073.516217955009
 30
0.0
 11
816.570893973143
 21
1048.070695970099
 31
0.0
 70
   160
 71
     5
 42
20.0
  3
ISO-25
100
AcDbAlignedDimension
 13
962.7402425484179
 23
1093.516217955009
 33
0.0
 14
962.7402425484179
 24
1073.516217955009
 34
0.0
 50
90.0
100
AcDbRotatedDimension
1001
ACAD
1000
DSTYLE
1002
{
1070
   279
1070
     2
1070
   371
1070
    18
1070
   372
1070
    18
1002
}
  0
DIMENSION
  5
1F79
330
1F
100
AcDbEntity
  8
実形
100
AcDbDimension
  2
*D26
 10
964.7402425484179
 20
963.5162179550089
 30
0.0
 11
917.1732114399128
 21
983.1146564366553
 31
0.0
 70
   160
 71
     5
 42
20.0
  3
ISO-25
100
AcDbAlignedDimension
 13
944.7402425484179
 23
1093.516217955009
 33
0.0
 14
964.7402425484179
 24
1093.516217955009
 34
0.0
100
AcDbRotatedDimension
1001
ACAD
1000
DSTYLE
1002
{
1070
   279
1070
     2
1070
   371
1070
    18
1070
   372
1070
    18
1002
}
  0
DIMENSION
  5
1F87
330
1F
100
AcDbEntity
  8
実形
100
AcDbDimension
  2
*D27
 10
979.7402425484179
 20
963.5162179550089
 30
0.0
 11
1005.39370722507
 21
980.0215131498907
 31
0.0
 70
   160
 71
     5
 42
15.0
  3
ISO-25
100
AcDbAlignedDimension
 13
964.7402425484179
 23
1093.516217955009
 33
0.0
 14
979.7402425484179
 24
1093.516217955009
 34
0.0
100
AcDbRotatedDimension
1001
ACAD
1000
DSTYLE
1002
{
1070
   279
1070
     2
1070
   371
1070
    18
1070
   372
1070
    18
1002
}
  0
TEXT
  5
219E
330
1F
100
AcDbEntity
  8
0
100
AcDbText
 10
363.2991915588209
 20
127.2997766317869
 30
0.0
 40
30.0
  1
※オーバーシンクの穴あけは片側－７mm（全体で－１４mm）、４角３Rにてお願いします。
100
AcDbText
  0
TEXT
  5
219F
330
1F
100
AcDbEntity
  8
0
100
AcDbText
 10
363.2991915588209
 20
65.32511254901715
 30
0.0
 40
30.0
  1
※アンダーシンクとしての穴あけ加工はかぶり寸法を考慮して現物合わせにてお願いします。
100
AcDbText
  0
LINE
  5
21A0
330
1F
100
AcDbEntity
  8
補助
100
AcDbLine
 10
2064.0
 20
134.0
 30
0.0
 11
2784.0
 21
134.0
 31
0.0
  0
LINE
  5
21A1
330
1F
100
AcDbEntity
  8
補助
100
AcDbLine
 10
2064.0
 20
199.0
 30
0.0
 11
2784.0
 21
199.0
 31
0.0
  0
LINE
  5
21A2
330
1F
100
AcDbEntity
  8
補助
100
AcDbLine
 10
2064.0
 20
69.0
 30
0.0
 11
2784.0
 21
69.0
 31
0.0
  0
TEXT
  5
21A3
330
1F
100
AcDbEntity
  8
補助
100
AcDbText
 10
2086.666666666667
 20
149.0
 30
0.0
 40
35.0
  1
品番
 72
     4
 11
2124.0
 21
166.5
 31
0.0
100
AcDbText
  0
TEXT
  5
21A4
330
1F
100
AcDbEntity
  8
補助
100
AcDbText
 10
2086.666666666667
 20
84.0
 30
0.0
 40
35.0
  1
尺度
 72
     4
 11
2124.0
 21
101.5
 31
0.0
100
AcDbText
  0
LINE
  5
21A5
330
1F
100
AcDbEntity
  8
補助
100
AcDbLine
 10
2064.0
 20
4.0
 30
0.0
 11
2064.0
 21
199.0
 31
0.0
  0
LINE
  5
21A6
330
1F
100
AcDbEntity
  8
補助
100
AcDbLine
 10
2184.0
 20
69.0
 30
0.0
 11
2784.0
 21
69.0
 31
0.0
  0
TEXT
  5
21A7
330
1F
100
AcDbEntity
  8
0
100
AcDbText
 10
2306.083333333333
 20
149.0
 30
0.0
 40
35.0
  1
YME500-440S
 72
     4
 11
2484.0
 21
166.5
 31
0.0
100
AcDbText
  0
TEXT
  5
21A8
330
1F
100
AcDbEntity
  8
補助
100
AcDbText
 10
2300.255774665348
 20
16.49999999999999
 30
0.0
 40
40.0
  1
中外交易株式会社
 72
     4
 11
2488.255774665347
 21
36.5
 31
0.0
100
AcDbText
  0
LINE
  5
21A9
330
1F
100
AcDbEntity
  8
補助
100
AcDbLine
 10
2184.0
 20
69.0
 30
0.0
 11
2184.0
 21
199.0
 31
0.0
  0
HATCH
  5
21AA
330
1F
100
AcDbEntity
  8
補助
100
AcDbHatch
 10
0.0
 20
0.0
 30
0.0
210
0.0
220
0.0
230
1.0
  2
SOLID
 70
     1
 71
     1
 91
        3
 92
        1
 93
        4
 72
     2
 10
2257.166198313996
 20
36.5
 40
20.0
 50
11.64772366707613
 51
342.6561058784706
 73
     1
 72
     1
 10
2276.256852341323
 20
30.53787547858519
 11
2252.166198313995
 21
30.53787547858519
 72
     1
 10
2252.166198313995
 20
30.53787547858519
 11
2252.166198313995
 21
40.53787547858519
 72
     1
 10
2252.166198313995
 20
40.53787547858519
 11
2276.75434681301
 21
40.53787547858519
 97
        4
330
21AB
330
21AD
330
21AE
330
21AF
 92
        1
 93
        4
 72
     2
 10
2188.255774665348
 20
36.5
 40
20.0
 50
11.64772366707613
 51
342.6561058784706
 73
     1
 72
     1
 10
2207.346428692676
 20
30.53787547858519
 11
2183.255774665347
 21
30.53787547858519
 72
     1
 10
2183.255774665347
 20
30.53787547858519
 11
2183.255774665347
 21
40.53787547858519
 72
     1
 10
2183.255774665347
 20
40.53787547858519
 11
2207.843923164362
 21
40.53787547858519
 97
        4
330
21AC
330
21B5
330
21B6
330
21B7
 92
        1
 93
        5
 72
     1
 10
2245.64189404294
 20
56.5
 11
2210.641894042939
 21
56.5
 72
     1
 10
2210.641894042939
 20
56.5
 11
2210.641894042939
 21
16.5
 72
     1
 10
2210.641894042939
 20
16.5
 11
2245.64189404294
 21
16.5
 72
     1
 10
2245.64189404294
 20
16.5
 11
2210.641894042939
 21
36.5
 72
     1
 10
2210.641894042939
 20
36.5
 11
2245.64189404294
 21
56.5
 97
        5
330
21B0
330
21B4
330
21B3
330
21B2
330
21B1
 75
     0
 76
     1
 98
        1
 10
-60.0
 20
0.0
  0
ARC
  5
21AB
102
{ACAD_REACTORS
330
21AA
102
}
330
1F
100
AcDbEntity
  8
補助
370
     5
100
AcDbCircle
 10
2257.166198313996
 20
36.5
 30
0.0
 40
20.0
100
AcDbArc
 50
11.64772366707613
 51
342.6561058784706
  0
ARC
  5
21AC
102
{ACAD_REACTORS
330
21AA
102
}
330
1F
100
AcDbEntity
  8
補助
370
     5
100
AcDbCircle
 10
2188.255774665348
 20
36.5
 30
0.0
 40
20.0
100
AcDbArc
 50
11.64772366707613
 51
342.6561058784706
  0
LINE
  5
21AD
102
{ACAD_REACTORS
330
21AA
102
}
330
1F
100
AcDbEntity
  8
補助
370
     5
100
AcDbLine
 10
2252.166198313995
 20
30.53787547858519
 30
0.0
 11
2276.256852341323
 21
30.53787547858519
 31
0.0
  0
LINE
  5
21AE
102
{ACAD_REACTORS
330
21AA
102
}
330
1F
100
AcDbEntity
  8
補助
370
     5
100
AcDbLine
 10
2252.166198313995
 20
40.53787547858519
 30
0.0
 11
2252.166198313995
 21
30.53787547858519
 31
0.0
  0
LINE
  5
21AF
102
{ACAD_REACTORS
330
21AA
102
}
330
1F
100
AcDbEntity
  8
補助
370
     5
100
AcDbLine
 10
2276.75434681301
 20
40.53787547858519
 30
0.0
 11
2252.166198313995
 21
40.53787547858519
 31
0.0
  0
LINE
  5
21B0
102
{ACAD_REACTORS
330
21AA
102
}
330
1F
100
AcDbEntity
  8
補助
370
     5
100
AcDbLine
 10
2245.64189404294
 20
56.5
 30
0.0
 11
2210.641894042939
 21
56.5
 31
0.0
  0
LINE
  5
21B1
102
{ACAD_REACTORS
330
21AA
102
}
330
1F
100
AcDbEntity
  8
補助
370
     5
100
AcDbLine
 10
2210.641894042939
 20
36.5
 30
0.0
 11
2245.64189404294
 21
56.5
 31
0.0
  0
LINE
  5
21B2
102
{ACAD_REACTORS
330
21AA
102
}
330
1F
100
AcDbEntity
  8
補助
370
     5
100
AcDbLine
 10
2245.64189404294
 20
16.5
 30
0.0
 11
2210.641894042939
 21
36.5
 31
0.0
  0
LINE
  5
21B3
102
{ACAD_REACTORS
330
21AA
102
}
330
1F
100
AcDbEntity
  8
補助
370
     5
100
AcDbLine
 10
2210.641894042939
 20
16.5
 30
0.0
 11
2245.64189404294
 21
16.5
 31
0.0
  0
LINE
  5
21B4
102
{ACAD_REACTORS
330
21AA
102
}
330
1F
100
AcDbEntity
  8
補助
370
     5
100
AcDbLine
 10
2210.641894042939
 20
56.5
 30
0.0
 11
2210.641894042939
 21
16.5
 31
0.0
  0
LINE
  5
21B5
102
{ACAD_REACTORS
330
21AA
102
}
330
1F
100
AcDbEntity
  8
補助
370
     5
100
AcDbLine
 10
2183.255774665347
 20
30.53787547858519
 30
0.0
 11
2207.346428692676
 21
30.53787547858519
 31
0.0
  0
LINE
  5
21B6
102
{ACAD_REACTORS
330
21AA
102
}
330
1F
100
AcDbEntity
  8
補助
370
     5
100
AcDbLine
 10
2183.255774665347
 20
40.53787547858519
 30
0.0
 11
2183.255774665347
 21
30.53787547858519
 31
0.0
  0
LINE
  5
21B7
102
{ACAD_REACTORS
330
21AA
102
}
330
1F
100
AcDbEntity
  8
補助
370
     5
100
AcDbLine
 10
2207.843923164362
 20
40.53787547858519
 30
0.0
 11
2183.255774665347
 21
40.53787547858519
 31
0.0
  0
TEXT
  5
21B8
330
1F
100
AcDbEntity
  8
0
100
AcDbText
 10
2430.916666666667
 20
84.0
 30
0.0
 40
35.0
  1
1：10
 72
     4
 11
2484.0
 21
101.5
 31
0.0
100
AcDbText
  0
LINE
  5
21B9
330
1F
100
AcDbEntity
  8
補助
100
AcDbLine
 10
2784.0
 20
4.0
 30
0.0
 11
2784.0
 21
69.0
 31
0.0
  0
LINE
  5
21BA
330
1F
100
AcDbEntity
  8
補助
100
AcDbLine
 10
2784.0
 20
134.0
 30
0.0
 11
2784.0
 21
199.0
 31
0.0
  0
LINE
  5
21BB
330
1F
100
AcDbEntity
  8
補助
100
AcDbLine
 10
2784.0
 20
69.0
 30
0.0
 11
2784.0
 21
134.0
 31
0.0
  0
LINE
  5
21BC
330
1F
100
AcDbEntity
  8
補助
100
AcDbLine
 10
1894.0
 20
2024.0
 30
0.0
 11
2784.0
 21
2024.0
 31
0.0
  0
LINE
  5
21CC
330
1F
100
AcDbEntity
  8
補助
100
AcDbLine
 10
2784.0
 20
2024.0
 30
0.0
 11
2784.000000000001
 21
1829.0
 31
0.0
  0
LINE
  5
21CD
330
1F
100
AcDbEntity
  8
補助
100
AcDbLine
 10
2784.0
 20
1829.0
 30
0.0
 11
2784.0
 21
2024.0
 31
0.0
  0
LINE
  5
2335
330
1F
100
AcDbEntity
  8
補助
100
AcDbLine
 10
109.0
 20
4.0
 30
0.0
 11
109.0
 21
2024.0
 31
0.0
  0
LINE
  5
234E
330
1F
100
AcDbEntity
  8
補助
 62
     0
100
AcDbLine
 10
2784.0
 20
1959.000000000001
 30
0.0
 11
2019.387286519283
 21
1959.000000000002
 31
0.0
  0
LINE
  5
234F
330
1F
100
AcDbEntity
  8
補助
 62
     0
100
AcDbLine
 10
2784.0
 20
1894.000000000001
 30
0.0
 11
2019.387286519283
 21
1894.000000000001
 31
0.0
  0
LINE
  5
2350
330
1F
100
AcDbEntity
  8
補助
 62
     0
100
AcDbLine
 10
2784.0
 20
1829.000000000001
 30
0.0
 11
2019.387286519283
 21
1829.000000000001
 31
0.0
  0
LINE
  5
2351
330
1F
100
AcDbEntity
  8
補助
 62
     0
100
AcDbLine
 10
2202.547653420927
 20
1829.000000000001
 30
0.0
 11
2202.547653420927
 21
2024.000000000002
 31
0.0
  0
LINE
  5
2352
330
1F
100
AcDbEntity
  8
補助
 62
     0
100
AcDbLine
 10
2019.387286519283
 20
1829.000000000001
 30
0.0
 11
2019.387286519283
 21
2024.000000000002
 31
0.0
  0
TEXT
  5
2353
330
1F
100
AcDbEntity
  8
補助
 62
     0
100
AcDbText
 10
2050.295698850121
 20
1976.328571428573
 30
0.0
 40
30.0
  1
部品名
  7
明朝
 72
     4
 11
2116.124270278692
 21
1991.500000000002
 31
0.0
100
AcDbText
  0
TEXT
  5
2354
330
1F
100
AcDbEntity
  8
補助
 62
     0
100
AcDbText
 10
2627.614285714286
 20
1976.07142857143
 30
0.0
 40
30.0
  1
厚さ
  7
明朝
 72
     4
 11
2671.5
 21
1991.500000000002
 31
0.0
100
AcDbText
  0
LINE
  5
2355
330
1F
100
AcDbEntity
  8
補助
 62
     0
100
AcDbLine
 10
2559.0
 20
1829.000000000001
 30
0.0
 11
2559.0
 21
2024.000000000002
 31
0.0
  0
TEXT
  5
2356
330
1F
100
AcDbEntity
  8
補助
 62
     0
100
AcDbText
 10
2338.490869919937
 20
1975.947979478156
 30
0.0
 40
30.0
  1
材質
  7
明朝
 72
     4
 11
2382.376584205651
 21
1991.119408049584
 31
0.0
100
AcDbText
  0
TEXT
  5
2357
330
1F
100
AcDbEntity
  8
実形
 62
     0
100
AcDbText
 10
2048.227810657788
 20
1910.557142857144
 30
0.0
 40
30.0
  1
ボウル
  7
明朝
 72
     4
 11
2114.056382086359
 21
1926.500000000001
 31
0.0
100
AcDbText
  0
TEXT
  5
2358
330
1F
100
AcDbEntity
  8
実形
 62
     0
100
AcDbText
 10
2594.700000000001
 20
1911.842857142858
 30
0.0
 40
30.0
  1
0.6ｍｍ
  7
明朝
 72
     4
 11
2671.500000000001
 21
1926.500000000001
 31
0.0
100
AcDbText
  0
TEXT
  5
2359
330
1F
100
AcDbEntity
  8
実形
 62
     0
100
AcDbText
 10
2261.016869107866
 20
1910.728571428572
 30
0.0
 40
30.0
  1
SUS304（BA）
  7
明朝
 72
     4
 11
2392.674011965008
 21
1926.500000000001
 31
0.0
100
AcDbText
  0
TEXT
  5
235A
330
1F
100
AcDbEntity
  8
実形
 62
     0
100
AcDbText
 10
2070.170667800645
 20
1846.242857142858
 30
0.0
 40
30.0
  1
天板
  7
明朝
 72
     4
 11
2114.056382086359
 21
1861.500000000001
 31
0.0
100
AcDbText
  0
TEXT
  5
235B
330
1F
100
AcDbEntity
  8
実形
 62
     0
100
AcDbText
 10
2594.700000000001
 20
1846.842857142858
 30
0.0
 40
30.0
  1
0.8ｍｍ
  7
明朝
 72
     4
 11
2671.500000000001
 21
1861.500000000001
 31
0.0
100
AcDbText
  0
TEXT
  5
235C
330
1F
100
AcDbEntity
  8
実形
 62
     0
100
AcDbText
 10
2218.959726250723
 20
1848.357142857144
 30
0.0
 40
25.0
  1
SUS304（市松ｴﾝﾎﾞｽ）
  7
明朝
 72
     4
 11
2392.674011965008
 21
1861.500000000001
 31
0.0
100
AcDbText
  0
VIEWPORT
  5
2E
102
{ACAD_XDICTIONARY
360
237C
102
}
330
1B
100
AcDbEntity
 67
     1
  8
0
100
AcDbViewport
 10
144.7270812988281
 20
101.2295806407928
 30
0.0
 40
411.6736216682419
 41
222.1517806396485
 68
     1
 69
     1
 12
144.7270812988281
 22
101.2295806407928
 13
0.0
 23
0.0
 14
10.0
 24
10.0
 15
10.0
 25
10.0
 16
0.0
 26
0.0
 36
1.0
 17
0.0
 27
0.0
 37
0.0
 42
50.0
 43
0.0
 44
0.0
 45
222.1517806396485
 50
0.0
 51
0.0
 72
   100
 90
    32800
  1

281
     0
 71
     1
 74
     0
110
0.0
120
0.0
130
0.0
111
1.0
121
0.0
131
0.0
112
0.0
122
1.0
132
0.0
 79
     0
146
0.0
  0
VIEWPORT
  5
30
102
{ACAD_XDICTIONARY
360
237E
102
}
330
1B
100
AcDbEntity
 67
     1
  8
0
100
AcDbViewport
 10
139.2237563133239
 20
101.2295821905136
 30
0.0
 40
222.7580101013184
 41
161.9673315048218
 68
     2
 69
     2
 12
210.0
 22
148.5
 13
0.0
 23
0.0
 14
10.0
 24
10.0
 15
10.0
 25
10.0
 16
0.0
 26
0.0
 36
1.0
 17
0.0
 27
0.0
 37
0.0
 42
50.0
 43
0.0
 44
0.0
 45
309.0686705647124
 50
0.0
 51
0.0
 72
   100
 90
    32864
  1

281
     0
 71
     1
 74
     0
110
0.0
120
0.0
130
0.0
111
1.0
121
0.0
131
0.0
112
0.0
122
1.0
132
0.0
 79
     0
146
0.0
  0
ENDSEC
  0
SECTION
  2
OBJECTS
  0
DICTIONARY
  5
C
330
0
100
AcDbDictionary
281
     1
  3
ACAD_COLOR
350
22E4
  3
ACAD_GROUP
350
D
  3
ACAD_LAYOUT
350
1A
  3
ACAD_MATERIAL
350
22E3
  3
ACAD_MLINESTYLE
350
17
  3
ACAD_PLOTSETTINGS
350
19
  3
ACAD_PLOTSTYLENAME
350
E
  3
ACAD_TABLESTYLE
350
22E5
  3
AcadDim
350
124
  3
ACDBHEADERROUNDTRIPXREC
350
2375
  3
AcDbVariableDictionary
350
22EC
  0
DICTIONARY
  5
230B
330
2
100
AcDbDictionary
280
     1
281
     1
  3
ACAD_LAYERFILTERS
360
230D
  3
ACAD_LAYERSTATES
360
230F
  3
ACLYDICTIONARY
360
230C
  0
DICTIONARY
  5
2336
330
1F
100
AcDbDictionary
280
     1
281
     1
  3
ACAD_SORTENTS
360
2337
  0
DICTIONARY
  5
237C
330
2E
100
AcDbDictionary
280
     1
281
     1
  3
ACAD_XREC_ROUNDTRIP
360
237D
  0
DICTIONARY
  5
237E
330
30
100
AcDbDictionary
280
     1
281
     1
  3
ACAD_XREC_ROUNDTRIP
360
237F
  0
DICTIONARY
  5
22E4
102
{ACAD_REACTORS
330
C
102
}
330
C
100
AcDbDictionary
281
     1
  0
DICTIONARY
  5
D
102
{ACAD_REACTORS
330
C
102
}
330
C
100
AcDbDictionary
281
     1
  0
DICTIONARY
  5
1A
102
{ACAD_REACTORS
330
C
102
}
330
C
100
AcDbDictionary
281
     1
  3
Model
350
22
  3
ﾚｲｱｳﾄ1
350
1E
  3
ﾚｲｱｳﾄ2
350
26
  0
DICTIONARY
  5
22E3
102
{ACAD_REACTORS
330
C
102
}
330
C
100
AcDbDictionary
281
     1
  0
DICTIONARY
  5
17
102
{ACAD_REACTORS
330
C
102
}
330
C
100
AcDbDictionary
281
     1
  3
Standard
350
18
  0
DICTIONARY
  5
19
102
{ACAD_REACTORS
330
C
102
}
330
C
100
AcDbDictionary
281
     1
  0
ACDBDICTIONARYWDFLT
  5
E
102
{ACAD_REACTORS
330
C
102
}
330
C
100
AcDbDictionary
281
     1
  3
Normal
350
F
100
AcDbDictionaryWithDefault
340
F
  0
DICTIONARY
  5
22E5
102
{ACAD_REACTORS
330
C
102
}
330
C
100
AcDbDictionary
281
     1
  3
Standard
350
22E6
  0
XRECORD
  5
124
102
{ACAD_REACTORS
330
C
102
}
330
C
100
AcDbXrecord
280
     1
 90
   990106
  3

 60
     0
 61
     0
 62
     1
 63
     3
 64
     0
 65
     0
 66
     0
 67
     3
 68
     1
 69
     0
 70
     0
 71
     0
 72
     0
 40
30.0
170
     0
  0
DICTIONARY
  5
2375
102
{ACAD_REACTORS
330
C
102
}
330
C
100
AcDbDictionary
281
     1
  0
DICTIONARY
  5
22EC
102
{ACAD_REACTORS
330
C
102
}
330
C
100
AcDbDictionary
281
     1
  3
CTABLESTYLE
350
22ED
  3
DIMASSOC
350
2372
  3
PROJECTNAME
350
2373
  0
DICTIONARY
  5
230D
102
{ACAD_REACTORS
330
230B
102
}
330
230B
100
AcDbDictionary
281
     1
  0
DICTIONARY
  5
230F
102
{ACAD_REACTORS
330
230B
102
}
330
230B
100
AcDbDictionary
281
     1
  0
DICTIONARY
  5
230C
102
{ACAD_REACTORS
330
230B
102
}
330
230B
100
AcDbDictionary
281
     1
1001
ACAD
1000
<All
  0
SORTENTSTABLE
  5
2337
102
{ACAD_REACTORS
330
2336
102
}
330
2336
100
AcDbSortentsTable
330
1F
331
1ED6
  5
1ED7
331
21A3
  5
21A4
331
21AB
  5
21AC
331
21B3
  5
21B4
331
1895
  5
1896
331
18B5
  5
18B7
331
F27
  5
1238
331
17AE
  5
1877
331
548
  5
555
331
21BB
  5
21BC
331
18BF
  5
1A16
331
1F5E
  5
1F6C
331
1A17
  5
1A93
331
A5
  5
A5
331
12AF
  5
15F5
331
33C
  5
33D
331
187E
  5
187F
331
15F7
  5
15F8
331
1886
  5
1887
331
188E
  5
188F
331
1ED7
  5
1ED8
331
21A4
  5
21A5
331
21AC
  5
21AD
331
21B4
  5
21B5
331
1896
  5
18A0
331
44B
  5
458
331
18B8
  5
18B9
331
21BC
  5
21CC
331
21CC
  5
21CD
331
1238
  5
123B
331
1877
  5
1878
331
3DC
  5
3F6
331
569
  5
57F
331
4A3
  5
4BE
331
33D
  5
35B
331
187F
  5
1880
331
1887
  5
1888
331
15F8
  5
15F9
331
188F
  5
1890
331
1ED8
  5
1ED9
331
21A5
  5
21A6
331
21AD
  5
21AE
331
1F87
  5
219E
331
21B5
  5
21B6
331
532
  5
548
331
73
  5
73
331
18B7
  5
18B8
331
2E6
  5
2EB
331
18B9
  5
18BA
331
21CD
  5
2326
331
219E
  5
219F
331
2EE
  5
2FE
331
1878
  5
1879
331
2FE
  5
33A
331
12A9
  5
12AC
331
1880
  5
1881
331
15F9
  5
15FA
331
1888
  5
1889
331
1ED9
  5
1F43
331
21A6
  5
21A7
331
21AE
  5
21AF
331
21B6
  5
21B7
331
1890
  5
1891
331
18A0
  5
18A1
331
4CC
  5
4F7
331
9C
  5
9C
331
1F51
  5
1F5E
331
18BA
  5
18BB
331
1ECA
  5
1ECB
331
219F
  5
21A0
331
A0
  5
A0
331
3CE
  5
3DC
331
1879
  5
187A
331
1881
  5
1882
331
1889
  5
188A
331
15FA
  5
15FB
331
1F79
  5
1F87
331
21A7
  5
21A8
331
21AF
  5
21B0
331
21B7
  5
21B8
331
1891
  5
1892
331
3F6
  5
44B
331
18A1
  5
18A2
331
18BB
  5
18BC
331
1A93
  5
1A94
331
1ECB
  5
1ED3
331
123B
  5
123C
331
187A
  5
187B
331
1882
  5
1883
331
15FB
  5
15FC
331
505
  5
532
331
188A
  5
188B
331
1ED3
  5
1ED5
331
21A0
  5
21A1
331
21A8
  5
21A9
331
1F43
  5
1F51
331
21B0
  5
21B1
331
4BE
  5
4CC
331
368
  5
3CE
331
1892
  5
1893
331
18A2
  5
18B3
331
21B8
  5
21B9
331
18BC
  5
18BD
331
1A94
  5
1C4E
331
123C
  5
123D
331
555
  5
569
331
12AC
  5
12AD
331
187B
  5
187C
331
1883
  5
1884
331
188B
  5
188C
331
15FC
  5
173D
331
21A1
  5
21A2
331
21A9
  5
21AA
331
21B1
  5
21B2
331
1893
  5
1894
331
18B3
  5
18B4
331
21B9
  5
21BA
331
18BD
  5
18BE
331
1F6C
  5
1F79
331
458
  5
4A3
331
123D
  5
123E
331
187C
  5
187D
331
33A
  5
33B
331
4F7
  5
4F8
331
12AD
  5
12AE
331
1884
  5
1885
331
15F5
  5
15F6
331
2335
  5
2E6
331
188C
  5
188D
331
1ED5
  5
1ED6
331
21A2
  5
21A3
331
21AA
  5
21AB
331
21B2
  5
21B3
331
1894
  5
1895
331
173D
  5
17AE
331
18B4
  5
18B5
331
18BE
  5
18BF
331
21BA
  5
21BB
331
1A16
  5
1A17
331
2EB
  5
2EE
331
123E
  5
12A9
331
12AE
  5
12AF
331
33B
  5
33C
331
4F8
  5
505
331
187D
  5
187E
331
1885
  5
1886
331
15F6
  5
15F7
331
35B
  5
368
331
188D
  5
188E
331
57F
  5
F27
  0
XRECORD
  5
237D
102
{ACAD_REACTORS
330
237C
102
}
330
237C
100
AcDbXrecord
280
     1
102
SHADEPLOT
 70
     0
  0
XRECORD
  5
237F
102
{ACAD_REACTORS
330
237E
102
}
330
237E
100
AcDbXrecord
280
     1
102
SHADEPLOT
 70
     0
  0
LAYOUT
  5
22
102
{ACAD_XDICTIONARY
360
2378
102
}
102
{ACAD_REACTORS
330
1A
102
}
330
1A
100
AcDbPlotSettings
  1

  2
EPSON PM-800C
  4
A4
  6

 40
3.757083177566528
 41
14.7637300491333
 42
3.757080078125
 43
3.757080078125
 44
209.9733276367187
 45
296.9683227539062
 46
0.0
 47
0.0
 48
0.0
 49
0.0
140
0.0
141
0.0
142
1.0
143
10.0
 70
 11952
 72
     1
 73
     1
 74
     2
  7

 75
    20
147
0.1
148
0.0
149
0.0
100
AcDbLayout
  1
Model
 70
     1
 71
     0
 10
0.0
 20
0.0
 11
12.0
 21
9.0
 12
0.0
 22
0.0
 32
0.0
 14
0.0
 24
0.0
 34
0.0
 15
0.0
 25
0.0
 35
0.0
146
0.0
 13
0.0
 23
0.0
 33
0.0
 16
1.0
 26
0.0
 36
0.0
 17
0.0
 27
1.0
 37
0.0
 76
     0
330
1F
  0
LAYOUT
  5
1E
102
{ACAD_XDICTIONARY
360
2376
102
}
102
{ACAD_REACTORS
330
1A
102
}
330
1A
100
AcDbPlotSettings
  1

  2
EPSON PM-800C
  4
A4
  6

 40
3.757083177566528
 41
14.7637300491333
 42
3.757080078125
 43
3.757080078125
 44
209.9733276367187
 45
296.9683227539062
 46
0.0
 47
0.0
 48
0.0
 49
0.0
140
0.0
141
0.0
142
1.0
143
1.0
 70
   688
 72
     1
 73
     1
 74
     5
  7

 75
    16
147
1.0
148
0.0
149
0.0
100
AcDbLayout
  1
ﾚｲｱｳﾄ1
 70
     1
 71
     1
 10
-3.757080078125
 20
-3.757083177566528
 11
293.2112426757813
 21
206.2162444591522
 12
0.0
 22
0.0
 32
0.0
 14
27.8447512626648
 24
20.24591643810271
 34
0.0
 15
250.6027613639831
 25
182.2132479429245
 35
0.0
146
0.0
 13
0.0
 23
0.0
 33
0.0
 16
1.0
 26
0.0
 36
0.0
 17
0.0
 27
1.0
 37
0.0
 76
     0
330
1B
331
2E
  0
LAYOUT
  5
26
102
{ACAD_XDICTIONARY
360
237A
102
}
102
{ACAD_REACTORS
330
1A
102
}
330
1A
100
AcDbPlotSettings
  1

  2
EPSON PM-800C
  4

  6

 40
0.0
 41
0.0
 42
0.0
 43
0.0
 44
0.0
 45
0.0
 46
0.0
 47
0.0
 48
0.0
 49
0.0
140
0.0
141
0.0
142
1.0
143
1.0
 70
   688
 72
     0
 73
     0
 74
     5
  7

 75
    16
147
1.0
148
0.0
149
0.0
100
AcDbLayout
  1
ﾚｲｱｳﾄ2
 70
     1
 71
     2
 10
0.0
 20
0.0
 11
12.0
 21
9.0
 12
0.0
 22
0.0
 32
0.0
 14
0.0
 24
0.0
 34
0.0
 15
0.0
 25
0.0
 35
0.0
146
0.0
 13
0.0
 23
0.0
 33
0.0
 16
1.0
 26
0.0
 36
0.0
 17
0.0
 27
1.0
 37
0.0
 76
     0
330
23
  0
MLINESTYLE
  5
18
102
{ACAD_REACTORS
330
17
102
}
330
17
100
AcDbMlineStyle
  2
STANDARD
 70
     0
  3

 62
   256
 51
90.0
 52
90.0
 71
     2
 49
0.5
 62
   256
  6
BYLAYER
 49
-0.5
 62
   256
  6
BYLAYER
  0
ACDBPLACEHOLDER
  5
F
102
{ACAD_REACTORS
330
E
102
}
330
E
  0
TABLESTYLE
  5
22E6
102
{ACAD_REACTORS
330
22E5
102
}
330
22E5
100
AcDbTableStyle
  3
Standard
 70
     0
 71
     0
 40
1.5
 41
1.5
280
     0
281
     0
  7
Standard
140
4.5
170
     2
 62
     0
 63
     7
283
     0
274
    -2
284
     1
 64
     0
275
    -2
285
     1
 65
     0
276
    -2
286
     1
 66
     0
277
    -2
287
     1
 67
     0
278
    -2
288
     1
 68
     0
279
    -2
289
     1
 69
     0
  7
Standard
140
6.0
170
     5
 62
     0
 63
     7
283
     0
274
    -2
284
     1
 64
     0
275
    -2
285
     1
 65
     0
276
    -2
286
     1
 66
     0
277
    -2
287
     1
 67
     0
278
    -2
288
     1
 68
     0
279
    -2
289
     1
 69
     0
  7
Standard
140
4.5
170
     5
 62
     0
 63
     7
283
     0
274
    -2
284
     1
 64
     0
275
    -2
285
     1
 65
     0
276
    -2
286
     1
 66
     0
277
    -2
287
     1
 67
     0
278
    -2
288
     1
 68
     0
279
    -2
289
     1
 69
     0
  0
DICTIONARYVAR
  5
22ED
102
{ACAD_REACTORS
330
22EC
102
}
330
22EC
100
DictionaryVariables
280
     0
  1
STANDARD
  0
DICTIONARYVAR
  5
2372
102
{ACAD_REACTORS
330
22EC
102
}
330
22EC
100
DictionaryVariables
280
     0
  1
1
  0
DICTIONARYVAR
  5
2373
102
{ACAD_REACTORS
330
22EC
102
}
330
22EC
100
DictionaryVariables
280
     0
  1

  0
DICTIONARY
  5
2378
330
22
100
AcDbDictionary
280
     1
281
     1
  3
ACAD_XREC_ROUNDTRIP
360
2379
  0
DICTIONARY
  5
2376
330
1E
100
AcDbDictionary
280
     1
281
     1
  3
ACAD_XREC_ROUNDTRIP
360
2377
  0
DICTIONARY
  5
237A
330
26
100
AcDbDictionary
280
     1
281
     1
  3
ACAD_XREC_ROUNDTRIP
360
237B
  0
XRECORD
  5
2379
102
{ACAD_REACTORS
330
2378
102
}
330
2378
100
AcDbXrecord
280
     1
102
SHADEPLOT
 70
     0
102
SHADEPLOTRESLEVEL
 70
     2
102
SHADEPLOTCUSTOMDPI
 70
   300
  0
XRECORD
  5
2377
102
{ACAD_REACTORS
330
2376
102
}
330
2376
100
AcDbXrecord
280
     1
102
SHADEPLOT
 70
     0
102
SHADEPLOTRESLEVEL
 70
     2
102
SHADEPLOTCUSTOMDPI
 70
   300
  0
XRECORD
  5
237B
102
{ACAD_REACTORS
330
237A
102
}
330
237A
100
AcDbXrecord
280
     1
102
SHADEPLOT
 70
     0
102
SHADEPLOTRESLEVEL
 70
     2
102
SHADEPLOTCUSTOMDPI
 70
   300
  0
ENDSEC
  0
EOF
