  0
SECTION
  2
HEADER
  9
$ACADVER
  1
AC1015
  9
$ACADMAINTVER
 70
    20
  9
$DWGCODEPAGE
  3
ANSI_932
  9
$INSBASE
 10
0.0
 20
0.0
 30
0.0
  9
$EXTMIN
 10
-429.3425161373325
 20
4.0
 30
0.0
  9
$EXTMAX
 10
2784.000000000001
 20
2024.0
 30
0.0
  9
$LIMMIN
 10
0.0
 20
0.0
  9
$LIMMAX
 10
29700.0
 20
21000.0
  9
$ORTHOMODE
 70
     0
  9
$REGENMODE
 70
     1
  9
$FILLMODE
 70
     1
  9
$QTEXTMODE
 70
     0
  9
$MIRRTEXT
 70
     1
  9
$LTSCALE
 40
4.0
  9
$ATTMODE
 70
     1
  9
$TEXTSIZE
 40
35.0
  9
$TRACEWID
 40
1.0
  9
$TEXTSTYLE
  7
Standard
  9
$CLAYER
  8
実形
  9
$CELTYPE
  6
ByLayer
  9
$CECOLOR
 62
     3
  9
$CELTSCALE
 40
1.0
  9
$DISPSILH
 70
     0
  9
$DIMSCALE
 40
1.0
  9
$DIMASZ
 40
30.0
  9
$DIMEXO
 40
65.0
  9
$DIMDLI
 40
3.75
  9
$DIMRND
 40
0.0
  9
$DIMDLE
 40
0.0
  9
$DIMEXE
 40
0.0
  9
$DIMTP
 40
0.0
  9
$DIMTM
 40
0.0
  9
$DIMTXT
 40
25.0
  9
$DIMCEN
 40
2.5
  9
$DIMTSZ
 40
0.0
  9
$DIMTOL
 70
     0
  9
$DIMLIM
 70
     0
  9
$DIMTIH
 70
     0
  9
$DIMTOH
 70
     0
  9
$DIMSE1
 70
     0
  9
$DIMSE2
 70
     0
  9
$DIMTAD
 70
     1
  9
$DIMZIN
 70
     8
  9
$DIMBLK
  1
DotSmall
  9
$DIMASO
 70
     1
  9
$DIMSHO
 70
     1
  9
$DIMPOST
  1

  9
$DIMAPOST
  1

  9
$DIMALT
 70
     0
  9
$DIMALTD
 70
     3
  9
$DIMALTF
 40
0.03937007874016
  9
$DIMLFAC
 40
1.0
  9
$DIMTOFL
 70
     1
  9
$DIMTVP
 40
0.0
  9
$DIMTIX
 70
     0
  9
$DIMSOXD
 70
     0
  9
$DIMSAH
 70
     0
  9
$DIMBLK1
  1

  9
$DIMBLK2
  1

  9
$DIMSTYLE
  2
ISO-25
  9
$DIMCLRD
 70
     0
  9
$DIMCLRE
 70
     0
  9
$DIMCLRT
 70
     0
  9
$DIMTFAC
 40
1.0
  9
$DIMGAP
 40
6.25
  9
$DIMJUST
 70
     0
  9
$DIMSD1
 70
     0
  9
$DIMSD2
 70
     0
  9
$DIMTOLJ
 70
     0
  9
$DIMTZIN
 70
     8
  9
$DIMALTZ
 70
     0
  9
$DIMALTTZ
 70
     0
  9
$DIMUPT
 70
     0
  9
$DIMDEC
 70
     2
  9
$DIMTDEC
 70
     2
  9
$DIMALTU
 70
     2
  9
$DIMALTTD
 70
     3
  9
$DIMTXSTY
  7
Standard
  9
$DIMAUNIT
 70
     0
  9
$DIMADEC
 70
     0
  9
$DIMALTRND
 40
0.0
  9
$DIMAZIN
 70
     0
  9
$DIMDSEP
 70
    46
  9
$DIMATFIT
 70
     3
  9
$DIMFRAC
 70
     0
  9
$DIMLDRBLK
  1
Open30
  9
$DIMLUNIT
 70
     2
  9
$DIMLWD
 70
    15
  9
$DIMLWE
 70
    15
  9
$DIMTMOVE
 70
     1
  9
$LUNITS
 70
     2
  9
$LUPREC
 70
     2
  9
$SKETCHINC
 40
1.0
  9
$FILLETRAD
 40
7.0
  9
$AUNITS
 70
     0
  9
$AUPREC
 70
     0
  9
$MENU
  1
.
  9
$ELEVATION
 40
0.0
  9
$PELEVATION
 40
0.0
  9
$THICKNESS
 40
0.0
  9
$LIMCHECK
 70
     1
  9
$CHAMFERA
 40
10.0
  9
$CHAMFERB
 40
10.0
  9
$CHAMFERC
 40
20.0
  9
$CHAMFERD
 40
0.0
  9
$SKPOLY
 70
     0
  9
$TDCREATE
 40
2451673.575802199
  9
$TDUCREATE
 40
2451673.200802199
  9
$TDUPDATE
 40
2458809.800953796
  9
$TDUUPDATE
 40
2458809.425953796
  9
$TDINDWG
 40
1.3125742130
  9
$TDUSRTIMER
 40
1.3125735185
  9
$USRTIMER
 70
     1
  9
$ANGBASE
 50
0.0
  9
$ANGDIR
 70
     0
  9
$PDMODE
 70
     0
  9
$PDSIZE
 40
0.0
  9
$PLINEWID
 40
0.0
  9
$SPLFRAME
 70
     0
  9
$SPLINETYPE
 70
     6
  9
$SPLINESEGS
 70
     8
  9
$HANDSEED
  5
2A3D
  9
$SURFTAB1
 70
     6
  9
$SURFTAB2
 70
     6
  9
$SURFTYPE
 70
     6
  9
$SURFU
 70
     6
  9
$SURFV
 70
     6
  9
$UCSBASE
  2

  9
$UCSNAME
  2

  9
$UCSORG
 10
0.0
 20
0.0
 30
0.0
  9
$UCSXDIR
 10
1.0
 20
0.0
 30
0.0
  9
$UCSYDIR
 10
0.0
 20
1.0
 30
0.0
  9
$UCSORTHOREF
  2

  9
$UCSORTHOVIEW
 70
     0
  9
$UCSORGTOP
 10
0.0
 20
0.0
 30
0.0
  9
$UCSORGBOTTOM
 10
0.0
 20
0.0
 30
0.0
  9
$UCSORGLEFT
 10
0.0
 20
0.0
 30
0.0
  9
$UCSORGRIGHT
 10
0.0
 20
0.0
 30
0.0
  9
$UCSORGFRONT
 10
0.0
 20
0.0
 30
0.0
  9
$UCSORGBACK
 10
0.0
 20
0.0
 30
0.0
  9
$PUCSBASE
  2

  9
$PUCSNAME
  2

  9
$PUCSORG
 10
0.0
 20
0.0
 30
0.0
  9
$PUCSXDIR
 10
1.0
 20
0.0
 30
0.0
  9
$PUCSYDIR
 10
0.0
 20
1.0
 30
0.0
  9
$PUCSORTHOREF
  2

  9
$PUCSORTHOVIEW
 70
     0
  9
$PUCSORGTOP
 10
0.0
 20
0.0
 30
0.0
  9
$PUCSORGBOTTOM
 10
0.0
 20
0.0
 30
0.0
  9
$PUCSORGLEFT
 10
0.0
 20
0.0
 30
0.0
  9
$PUCSORGRIGHT
 10
0.0
 20
0.0
 30
0.0
  9
$PUCSORGFRONT
 10
0.0
 20
0.0
 30
0.0
  9
$PUCSORGBACK
 10
0.0
 20
0.0
 30
0.0
  9
$USERI1
 70
     0
  9
$USERI2
 70
     0
  9
$USERI3
 70
     0
  9
$USERI4
 70
     0
  9
$USERI5
 70
     0
  9
$USERR1
 40
0.0
  9
$USERR2
 40
0.0
  9
$USERR3
 40
0.0
  9
$USERR4
 40
0.0
  9
$USERR5
 40
0.0
  9
$WORLDVIEW
 70
     1
  9
$SHADEDGE
 70
     3
  9
$SHADEDIF
 70
    70
  9
$TILEMODE
 70
     1
  9
$MAXACTVP
 70
    64
  9
$PINSBASE
 10
0.0
 20
0.0
 30
0.0
  9
$PLIMCHECK
 70
     0
  9
$PEXTMIN
 10
27.8447512626648
 20
20.24591643810271
 30
0.0
  9
$PEXTMAX
 10
250.6027613639831
 20
182.2132479429245
 30
0.0
  9
$PLIMMIN
 10
-3.757080078125
 20
-3.757083177566528
  9
$PLIMMAX
 10
293.2112426757813
 20
206.2162444591522
  9
$UNITMODE
 70
     0
  9
$VISRETAIN
 70
     1
  9
$PLINEGEN
 70
     0
  9
$PSLTSCALE
 70
     1
  9
$TREEDEPTH
 70
  3020
  9
$CMLSTYLE
  2
Standard
  9
$CMLJUST
 70
     0
  9
$CMLSCALE
 40
20.0
  9
$PROXYGRAPHICS
 70
     1
  9
$MEASUREMENT
 70
     1
  9
$CELWEIGHT
370
    -1
  9
$ENDCAPS
280
     0
  9
$JOINSTYLE
280
     0
  9
$LWDISPLAY
290
     0
  9
$INSUNITS
 70
     4
  9
$HYPERLINKBASE
  1

  9
$STYLESHEET
  1

  9
$XEDIT
290
     1
  9
$CEPSNTYPE
380
     0
  9
$PSTYLEMODE
290
     1
  9
$FINGERPRINTGUID
  2
{C8EA1F16-24C9-11D4-9416-CE0A3B32152F}
  9
$VERSIONGUID
  2
{42C67B5F-F3F4-41F8-8D53-2F52A7AF0537}
  9
$EXTNAMES
290
     1
  9
$PSVPSCALE
 40
0.0
  9
$OLESTARTUP
290
     0
  0
ENDSEC
  0
SECTION
  2
CLASSES
  0
CLASS
  1
ACDBDICTIONARYWDFLT
  2
AcDbDictionaryWithDefault
  3
ObjectDBX Classes
 90
        0
280
     0
281
     0
  0
CLASS
  1
ACDBPLACEHOLDER
  2
AcDbPlaceHolder
  3
ObjectDBX Classes
 90
        0
280
     0
281
     0
  0
CLASS
  1
LAYOUT
  2
AcDbLayout
  3
ObjectDBX Classes
 90
        0
280
     0
281
     0
  0
CLASS
  1
DICTIONARYVAR
  2
AcDbDictionaryVar
  3
ObjectDBX Classes
 90
        0
280
     0
281
     0
  0
CLASS
  1
TABLESTYLE
  2
AcDbTableStyle
  3
ObjectDBX Classes
 90
     2047
280
     0
281
     0
  0
CLASS
  1
SORTENTSTABLE
  2
AcDbSortentsTable
  3
ObjectDBX Classes
 90
        0
280
     0
281
     0
  0
ENDSEC
  0
SECTION
  2
TABLES
  0
TABLE
  2
VPORT
  5
8
330
0
100
AcDbSymbolTable
 70
     2
  0
VPORT
  5
2A31
330
8
100
AcDbSymbolTableRecord
100
AcDbViewportTableRecord
  2
*Active
 70
     0
 10
0.0
 20
0.0
 11
1.0
 21
1.0
 12
1394.141334839449
 22
868.4576125677486
 13
0.0
 23
0.0
 14
10.0
 24
10.0
 15
10.0
 25
10.0
 16
0.0
 26
0.0
 36
1.0
 17
0.0
 27
0.0
 37
0.0
 40
2645.4443612158
 41
1.29038112522686
 42
50.0
 43
0.0
 44
0.0
 50
0.0
 51
0.0
 71
     0
 72
   100
 73
     1
 74
     3
 75
     0
 76
     0
 77
     0
 78
     0
281
     0
 65
     1
110
0.0
120
0.0
130
0.0
111
1.0
121
0.0
131
0.0
112
0.0
122
1.0
132
0.0
 79
     0
146
0.0
  0
ENDTAB
  0
TABLE
  2
LTYPE
  5
5
330
0
100
AcDbSymbolTable
 70
    46
  0
LTYPE
  5
14
330
5
100
AcDbSymbolTableRecord
100
AcDbLinetypeTableRecord
  2
ByBlock
 70
     0
  3

 72
    65
 73
     0
 40
0.0
  0
LTYPE
  5
15
330
5
100
AcDbSymbolTableRecord
100
AcDbLinetypeTableRecord
  2
ByLayer
 70
     0
  3

 72
    65
 73
     0
 40
0.0
  0
LTYPE
  5
16
330
5
100
AcDbSymbolTableRecord
100
AcDbLinetypeTableRecord
  2
Continuous
 70
     0
  3
Solid line
 72
    65
 73
     0
 40
0.0
  0
LTYPE
  5
34
330
5
100
AcDbSymbolTableRecord
100
AcDbLinetypeTableRecord
  2
ACAD_ISO02W100
 70
     0
  3
ISO dash __ __ __ __ __ __ __ __ __ __ __ __ __
 72
    65
 73
     2
 40
15.0
 49
12.0
 74
     0
 49
-3.0
 74
     0
  0
LTYPE
  5
35
330
5
100
AcDbSymbolTableRecord
100
AcDbLinetypeTableRecord
  2
ACAD_ISO03W100
 70
     0
  3
ISO dash space __    __    __    __    __    __
 72
    65
 73
     2
 40
30.0
 49
12.0
 74
     0
 49
-18.0
 74
     0
  0
LTYPE
  5
36
330
5
100
AcDbSymbolTableRecord
100
AcDbLinetypeTableRecord
  2
ACAD_ISO04W100
 70
     0
  3
ISO long-dash dot ____ . ____ . ____ . ____ . _
 72
    65
 73
     4
 40
30.0
 49
24.0
 74
     0
 49
-3.0
 74
     0
 49
0.0
 74
     0
 49
-3.0
 74
     0
  0
LTYPE
  5
37
330
5
100
AcDbSymbolTableRecord
100
AcDbLinetypeTableRecord
  2
ACAD_ISO05W100
 70
     0
  3
ISO long-dash double-dot ____ .. ____ .. ____ .
 72
    65
 73
     6
 40
34.0
 49
24.0
 74
     0
 49
-3.0
 74
     0
 49
0.5
 74
     0
 49
-3.0
 74
     0
 49
0.5
 74
     0
 49
-3.0
 74
     0
  0
LTYPE
  5
38
330
5
100
AcDbSymbolTableRecord
100
AcDbLinetypeTableRecord
  2
ACAD_ISO06W100
 70
     0
  3
ISO long-dash triple-dot ____ ... ____ ... ____
 72
    65
 73
     8
 40
37.5
 49
24.0
 74
     0
 49
-3.0
 74
     0
 49
0.5
 74
     0
 49
-3.0
 74
     0
 49
0.5
 74
     0
 49
-3.0
 74
     0
 49
0.5
 74
     0
 49
-3.0
 74
     0
  0
LTYPE
  5
39
330
5
100
AcDbSymbolTableRecord
100
AcDbLinetypeTableRecord
  2
ACAD_ISO07W100
 70
     0
  3
ISO dot . . . . . . . . . . . . . . . . . . . .
 72
    65
 73
     2
 40
3.0
 49
0.0
 74
     0
 49
-3.0
 74
     0
  0
LTYPE
  5
3A
330
5
100
AcDbSymbolTableRecord
100
AcDbLinetypeTableRecord
  2
ACAD_ISO08W100
 70
     0
  3
ISO long-dash short-dash ____ __ ____ __ ____ _
 72
    65
 73
     4
 40
36.0
 49
24.0
 74
     0
 49
-3.0
 74
     0
 49
6.0
 74
     0
 49
-3.0
 74
     0
  0
LTYPE
  5
3B
330
5
100
AcDbSymbolTableRecord
100
AcDbLinetypeTableRecord
  2
ACAD_ISO09W100
 70
     0
  3
ISO long-dash double-short-dash ____ __ __ ____
 72
    65
 73
     6
 40
45.0
 49
24.0
 74
     0
 49
-3.0
 74
     0
 49
6.0
 74
     0
 49
-3.0
 74
     0
 49
6.0
 74
     0
 49
-3.0
 74
     0
  0
LTYPE
  5
3C
330
5
100
AcDbSymbolTableRecord
100
AcDbLinetypeTableRecord
  2
ACAD_ISO10W100
 70
     0
  3
ISO dash dot __ . __ . __ . __ . __ . __ . __ .
 72
    65
 73
     4
 40
18.0
 49
12.0
 74
     0
 49
-3.0
 74
     0
 49
0.0
 74
     0
 49
-3.0
 74
     0
  0
LTYPE
  5
3D
330
5
100
AcDbSymbolTableRecord
100
AcDbLinetypeTableRecord
  2
ACAD_ISO11W100
 70
     0
  3
ISO double-dash dot __ __ . __ __ . __ __ . __ 
 72
    65
 73
     6
 40
33.0
 49
12.0
 74
     0
 49
-3.0
 74
     0
 49
12.0
 74
     0
 49
-3.0
 74
     0
 49
0.0
 74
     0
 49
-3.0
 74
     0
  0
LTYPE
  5
3E
330
5
100
AcDbSymbolTableRecord
100
AcDbLinetypeTableRecord
  2
ACAD_ISO12W100
 70
     0
  3
ISO dash double-dot __ . . __ . . __ . . __ . .
 72
    65
 73
     6
 40
21.0
 49
12.0
 74
     0
 49
-3.0
 74
     0
 49
0.0
 74
     0
 49
-3.0
 74
     0
 49
0.0
 74
     0
 49
-3.0
 74
     0
  0
LTYPE
  5
3F
330
5
100
AcDbSymbolTableRecord
100
AcDbLinetypeTableRecord
  2
ACAD_ISO13W100
 70
     0
  3
ISO double-dash double-dot __ __ . . __ __ . . 
 72
    65
 73
     8
 40
36.0
 49
12.0
 74
     0
 49
-3.0
 74
     0
 49
12.0
 74
     0
 49
-3.0
 74
     0
 49
0.0
 74
     0
 49
-3.0
 74
     0
 49
0.0
 74
     0
 49
-3.0
 74
     0
  0
LTYPE
  5
40
330
5
100
AcDbSymbolTableRecord
100
AcDbLinetypeTableRecord
  2
ACAD_ISO14W100
 70
     0
  3
ISO dash triple-dot __ . . . __ . . . __ . . . 
 72
    65
 73
     8
 40
24.0
 49
12.0
 74
     0
 49
-3.0
 74
     0
 49
0.0
 74
     0
 49
-3.0
 74
     0
 49
0.0
 74
     0
 49
-3.0
 74
     0
 49
0.0
 74
     0
 49
-3.0
 74
     0
  0
LTYPE
  5
41
330
5
100
AcDbSymbolTableRecord
100
AcDbLinetypeTableRecord
  2
ACAD_ISO15W100
 70
     0
  3
ISO double-dash triple-dot __ __ . . . __ __ . 
 72
    65
 73
    10
 40
39.0
 49
12.0
 74
     0
 49
-3.0
 74
     0
 49
12.0
 74
     0
 49
-3.0
 74
     0
 49
0.0
 74
     0
 49
-3.0
 74
     0
 49
0.0
 74
     0
 49
-3.0
 74
     0
 49
0.0
 74
     0
 49
-3.0
 74
     0
  0
LTYPE
  5
42
330
5
100
AcDbSymbolTableRecord
100
AcDbLinetypeTableRecord
  2
BATTING
 70
     0
  3
Batting SSSSSSSSSSSSSSSSSSSSSSSSSSSSSSSSSSSSSSS
 72
    65
 73
     4
 40
10.16254
 49
0.00254
 74
     0
 49
-2.54
 74
     4
 75
   134
340
33
 46
2.54
 50
0.0
 44
-2.54
 45
0.0
 49
-5.08
 74
     4
 75
   134
340
33
 46
2.54
 50
180.0
 44
2.54
 45
0.0
 49
-2.54
 74
     0
  0
LTYPE
  5
43
330
5
100
AcDbSymbolTableRecord
100
AcDbLinetypeTableRecord
  2
BORDER
 70
     0
  3
Border __ __ . __ __ . __ __ . __ __ . __ __ .
 72
    65
 73
     6
 40
44.45
 49
12.7
 74
     0
 49
-6.349999999999999
 74
     0
 49
12.7
 74
     0
 49
-6.349999999999999
 74
     0
 49
0.0
 74
     0
 49
-6.349999999999999
 74
     0
  0
LTYPE
  5
44
330
5
100
AcDbSymbolTableRecord
100
AcDbLinetypeTableRecord
  2
BORDER2
 70
     0
  3
Border (.5x) __.__.__.__.__.__.__.__.__.__.__.
 72
    65
 73
     6
 40
22.225
 49
6.349999999999999
 74
     0
 49
-3.174999999999999
 74
     0
 49
6.349999999999999
 74
     0
 49
-3.174999999999999
 74
     0
 49
0.0
 74
     0
 49
-3.174999999999999
 74
     0
  0
LTYPE
  5
45
330
5
100
AcDbSymbolTableRecord
100
AcDbLinetypeTableRecord
  2
BORDERX2
 70
     0
  3
Border (2x) ____  ____  .  ____  ____  .  ___
 72
    65
 73
     6
 40
88.9
 49
25.4
 74
     0
 49
-12.7
 74
     0
 49
25.4
 74
     0
 49
-12.7
 74
     0
 49
0.0
 74
     0
 49
-12.7
 74
     0
  0
LTYPE
  5
46
330
5
100
AcDbSymbolTableRecord
100
AcDbLinetypeTableRecord
  2
CENTER
 70
     0
  3
Center ____ _ ____ _ ____ _ ____ _ ____ _ ____
 72
    65
 73
     4
 40
50.8
 49
31.75
 74
     0
 49
-6.349999999999999
 74
     0
 49
6.349999999999999
 74
     0
 49
-6.349999999999999
 74
     0
  0
LTYPE
  5
47
330
5
100
AcDbSymbolTableRecord
100
AcDbLinetypeTableRecord
  2
CENTER2
 70
     0
  3
Center (.5x) ___ _ ___ _ ___ _ ___ _ ___ _ ___
 72
    65
 73
     4
 40
28.575
 49
19.05
 74
     0
 49
-3.174999999999999
 74
     0
 49
3.174999999999999
 74
     0
 49
-3.174999999999999
 74
     0
  0
LTYPE
  5
48
330
5
100
AcDbSymbolTableRecord
100
AcDbLinetypeTableRecord
  2
CENTERX2
 70
     0
  3
Center (2x) ________  __  ________  __  _____
 72
    65
 73
     4
 40
101.6
 49
63.5
 74
     0
 49
-12.7
 74
     0
 49
12.7
 74
     0
 49
-12.7
 74
     0
  0
LTYPE
  5
49
330
5
100
AcDbSymbolTableRecord
100
AcDbLinetypeTableRecord
  2
DASHDOT
 70
     0
  3
Dash dot __ . __ . __ . __ . __ . __ . __ . __
 72
    65
 73
     4
 40
25.4
 49
12.7
 74
     0
 49
-6.349999999999999
 74
     0
 49
0.0
 74
     0
 49
-6.349999999999999
 74
     0
  0
LTYPE
  5
4A
330
5
100
AcDbSymbolTableRecord
100
AcDbLinetypeTableRecord
  2
DASHDOT2
 70
     0
  3
Dash dot (.5x) _._._._._._._._._._._._._._._.
 72
    65
 73
     4
 40
12.7
 49
6.349999999999999
 74
     0
 49
-3.174999999999999
 74
     0
 49
0.0
 74
     0
 49
-3.174999999999999
 74
     0
  0
LTYPE
  5
4B
330
5
100
AcDbSymbolTableRecord
100
AcDbLinetypeTableRecord
  2
DASHDOTX2
 70
     0
  3
Dash dot (2x) ____  .  ____  .  ____  .  ___
 72
    65
 73
     4
 40
50.8
 49
25.4
 74
     0
 49
-12.7
 74
     0
 49
0.0
 74
     0
 49
-12.7
 74
     0
  0
LTYPE
  5
4C
330
5
100
AcDbSymbolTableRecord
100
AcDbLinetypeTableRecord
  2
DASHED
 70
     0
  3
Dashed __ __ __ __ __ __ __ __ __ __ __ __ __ _
 72
    65
 73
     2
 40
19.05
 49
12.7
 74
     0
 49
-6.349999999999999
 74
     0
  0
LTYPE
  5
4D
330
5
100
AcDbSymbolTableRecord
100
AcDbLinetypeTableRecord
  2
DASHED2
 70
     0
  3
Dashed (.5x) _ _ _ _ _ _ _ _ _ _ _ _ _ _ _ _ _
 72
    65
 73
     2
 40
9.524999999999998
 49
6.349999999999999
 74
     0
 49
-3.174999999999999
 74
     0
  0
LTYPE
  5
4E
330
5
100
AcDbSymbolTableRecord
100
AcDbLinetypeTableRecord
  2
DASHEDX2
 70
     0
  3
Dashed (2x) ____  ____  ____  ____  ____  ___
 72
    65
 73
     2
 40
38.1
 49
25.4
 74
     0
 49
-12.7
 74
     0
  0
LTYPE
  5
4F
330
5
100
AcDbSymbolTableRecord
100
AcDbLinetypeTableRecord
  2
DIVIDE
 70
     0
  3
Divide ____ . . ____ . . ____ . . ____ . . ____
 72
    65
 73
     6
 40
31.75
 49
12.7
 74
     0
 49
-6.349999999999999
 74
     0
 49
0.0
 74
     0
 49
-6.349999999999999
 74
     0
 49
0.0
 74
     0
 49
-6.349999999999999
 74
     0
  0
LTYPE
  5
50
330
5
100
AcDbSymbolTableRecord
100
AcDbLinetypeTableRecord
  2
DIVIDE2
 70
     0
  3
Divide (.5x) __..__..__..__..__..__..__..__.._
 72
    65
 73
     6
 40
15.875
 49
6.349999999999999
 74
     0
 49
-3.174999999999999
 74
     0
 49
0.0
 74
     0
 49
-3.174999999999999
 74
     0
 49
0.0
 74
     0
 49
-3.174999999999999
 74
     0
  0
LTYPE
  5
51
330
5
100
AcDbSymbolTableRecord
100
AcDbLinetypeTableRecord
  2
DIVIDEX2
 70
     0
  3
Divide (2x) ________  .  .  ________  .  .  _
 72
    65
 73
     6
 40
63.49999999999999
 49
25.4
 74
     0
 49
-12.7
 74
     0
 49
0.0
 74
     0
 49
-12.7
 74
     0
 49
0.0
 74
     0
 49
-12.7
 74
     0
  0
LTYPE
  5
52
330
5
100
AcDbSymbolTableRecord
100
AcDbLinetypeTableRecord
  2
DOT
 70
     0
  3
Dot . . . . . . . . . . . . . . . . . . . . . .
 72
    65
 73
     2
 40
6.349999999999999
 49
0.0
 74
     0
 49
-6.349999999999999
 74
     0
  0
LTYPE
  5
53
330
5
100
AcDbSymbolTableRecord
100
AcDbLinetypeTableRecord
  2
DOT2
 70
     0
  3
Dot (.5x) .....................................
 72
    65
 73
     2
 40
3.174999999999999
 49
0.0
 74
     0
 49
-3.174999999999999
 74
     0
  0
LTYPE
  5
54
330
5
100
AcDbSymbolTableRecord
100
AcDbLinetypeTableRecord
  2
DOTX2
 70
     0
  3
Dot (2x) .  .  .  .  .  .  .  .  .  .  .  .  . 
 72
    65
 73
     2
 40
12.7
 49
0.0
 74
     0
 49
-12.7
 74
     0
  0
LTYPE
  5
55
330
5
100
AcDbSymbolTableRecord
100
AcDbLinetypeTableRecord
  2
FENCELINE1
 70
     0
  3
Fenceline circle ----0-----0----0-----0----0---
 72
    65
 73
     4
 40
36.83
 49
6.349999999999999
 74
     0
 49
-2.54
 74
     4
 75
   133
340
33
 46
2.54
 50
0.0
 44
-2.54
 45
0.0
 49
-2.54
 74
     0
 49
25.4
 74
     0
  0
LTYPE
  5
56
330
5
100
AcDbSymbolTableRecord
100
AcDbLinetypeTableRecord
  2
FENCELINE2
 70
     0
  3
Fenceline square ----[]-----[]----[]-----[]----
 72
    65
 73
     4
 40
36.83
 49
6.349999999999999
 74
     0
 49
-2.54
 74
     4
 75
   132
340
33
 46
2.54
 50
0.0
 44
-2.54
 45
0.0
 49
-2.54
 74
     0
 49
25.4
 74
     0
  0
LTYPE
  5
57
330
5
100
AcDbSymbolTableRecord
100
AcDbLinetypeTableRecord
  2
GAS_LINE
 70
     0
  3
Gas line ----GAS----GAS----GAS----GAS----GAS---
 72
    65
 73
     3
 40
24.13
 49
12.7
 74
     0
 49
-5.08
 74
     2
 75
     0
340
11
 46
2.54
 50
0.0
 44
-2.54
 45
-1.27
  9
GAS
 49
-6.349999999999999
 74
     0
  0
LTYPE
  5
58
330
5
100
AcDbSymbolTableRecord
100
AcDbLinetypeTableRecord
  2
HIDDEN
 70
     0
  3
Hidden __ __ __ __ __ __ __ __ __ __ __ __ __ _
 72
    65
 73
     2
 40
9.524999999999998
 49
6.349999999999999
 74
     0
 49
-3.174999999999999
 74
     0
  0
LTYPE
  5
59
330
5
100
AcDbSymbolTableRecord
100
AcDbLinetypeTableRecord
  2
HIDDEN2
 70
     0
  3
Hidden (.5x) _ _ _ _ _ _ _ _ _ _ _ _ _ _ _ _ _
 72
    65
 73
     2
 40
4.762499999999999
 49
3.174999999999999
 74
     0
 49
-1.587499999999999
 74
     0
  0
LTYPE
  5
5A
330
5
100
AcDbSymbolTableRecord
100
AcDbLinetypeTableRecord
  2
HIDDENX2
 70
     0
  3
Hidden (2x) ____ ____ ____ ____ ____ ____ ____
 72
    65
 73
     2
 40
19.05
 49
12.7
 74
     0
 49
-6.349999999999999
 74
     0
  0
LTYPE
  5
5B
330
5
100
AcDbSymbolTableRecord
100
AcDbLinetypeTableRecord
  2
HOT_WATER_SUPPLY
 70
     0
  3
Hot water supply ---- HW ---- HW ---- HW ----
 72
    65
 73
     3
 40
22.86
 49
12.7
 74
     0
 49
-5.08
 74
     2
 75
     0
340
11
 46
2.54
 50
0.0
 44
-2.54
 45
-1.27
  9
HW
 49
-5.08
 74
     0
  0
LTYPE
  5
5C
330
5
100
AcDbSymbolTableRecord
100
AcDbLinetypeTableRecord
  2
PHANTOM
 70
     0
  3
Phantom ______  __  __  ______  __  __  ______
 72
    65
 73
     6
 40
63.5
 49
31.75
 74
     0
 49
-6.349999999999999
 74
     0
 49
6.349999999999999
 74
     0
 49
-6.349999999999999
 74
     0
 49
6.349999999999999
 74
     0
 49
-6.349999999999999
 74
     0
  0
LTYPE
  5
5D
330
5
100
AcDbSymbolTableRecord
100
AcDbLinetypeTableRecord
  2
PHANTOM2
 70
     0
  3
Phantom (.5x) ___ _ _ ___ _ _ ___ _ _ ___ _ _
 72
    65
 73
     6
 40
31.75
 49
15.875
 74
     0
 49
-3.174999999999999
 74
     0
 49
3.174999999999999
 74
     0
 49
-3.174999999999999
 74
     0
 49
3.174999999999999
 74
     0
 49
-3.174999999999999
 74
     0
  0
LTYPE
  5
5E
330
5
100
AcDbSymbolTableRecord
100
AcDbLinetypeTableRecord
  2
PHANTOMX2
 70
     0
  3
Phantom (2x) ____________    ____    ____   _
 72
    65
 73
     6
 40
127.0
 49
63.5
 74
     0
 49
-12.7
 74
     0
 49
12.7
 74
     0
 49
-12.7
 74
     0
 49
12.7
 74
     0
 49
-12.7
 74
     0
  0
LTYPE
  5
5F
330
5
100
AcDbSymbolTableRecord
100
AcDbLinetypeTableRecord
  2
TRACKS
 70
     0
  3
Tracks -|-|-|-|-|-|-|-|-|-|-|-|-|-|-|-|-|-|-|-|
 72
    65
 73
     2
 40
7.62
 49
3.81
 74
     4
 75
   130
340
33
 46
6.349999999999999
 50
0.0
 44
0.0
 45
0.0
 49
3.81
 74
     0
  0
LTYPE
  5
60
330
5
100
AcDbSymbolTableRecord
100
AcDbLinetypeTableRecord
  2
ZIGZAG
 70
     0
  3
Zig zag /\/\/\/\/\/\/\/\/\/\/\/\/\/\/\/\/\/\/\/
 72
    65
 73
     4
 40
20.32254
 49
0.00254
 74
     0
 49
-5.08
 74
     4
 75
   131
340
33
 46
5.08
 50
0.0
 44
-5.08
 45
0.0
 49
-10.16
 74
     4
 75
   131
340
33
 46
5.08
 50
180.0
 44
5.08
 45
0.0
 49
-5.08
 74
     0
  0
ENDTAB
  0
TABLE
  2
LAYER
  5
2
102
{ACAD_XDICTIONARY
360
1A37
102
}
330
0
100
AcDbSymbolTable
 70
     7
  0
LAYER
  5
10
330
2
100
AcDbSymbolTableRecord
100
AcDbLayerTableRecord
  2
0
 70
     0
 62
     7
  6
Continuous
370
    -3
390
F
  0
LAYER
  5
C3
330
2
100
AcDbSymbolTableRecord
100
AcDbLayerTableRecord
  2
Defpoints
 70
     0
 62
     7
  6
Continuous
290
     0
370
    -3
390
F
  0
LAYER
  5
256
330
2
100
AcDbSymbolTableRecord
100
AcDbLayerTableRecord
  2
Cen
 70
     0
 62
     7
  6
CENTER2
370
    15
390
F
  0
LAYER
  5
5DF
330
2
100
AcDbSymbolTableRecord
100
AcDbLayerTableRecord
  2
実形
 70
     0
 62
     7
  6
Continuous
370
    -3
390
F
  0
LAYER
  5
60C
330
2
100
AcDbSymbolTableRecord
100
AcDbLayerTableRecord
  2
補助
 70
     0
 62
     7
  6
Continuous
370
    -3
390
F
  0
LAYER
  5
619
330
2
100
AcDbSymbolTableRecord
100
AcDbLayerTableRecord
  2
センター
 70
     0
 62
     7
  6
CENTER2
370
    18
390
F
  0
LAYER
  5
61A
330
2
100
AcDbSymbolTableRecord
100
AcDbLayerTableRecord
  2
寸法
 70
     0
 62
     7
  6
Continuous
370
    18
390
F
  0
ENDTAB
  0
TABLE
  2
STYLE
  5
3
330
0
100
AcDbSymbolTable
 70
     4
  0
STYLE
  5
11
330
3
100
AcDbSymbolTableRecord
100
AcDbTextStyleTableRecord
  2
Standard
 70
     0
 40
0.0
 41
1.0
 50
0.0
 71
     0
 42
35.0
  3
txt.shx
  4
bigfont.shx
  0
STYLE
  5
33
330
3
100
AcDbSymbolTableRecord
100
AcDbTextStyleTableRecord
  2

 70
     1
 40
0.0
 41
1.0
 50
0.0
 71
     0
 42
2.5
  3
ltypeshp.shx
  4

  0
STYLE
  5
1BE6
330
3
100
AcDbSymbolTableRecord
100
AcDbTextStyleTableRecord
  2
ms明朝
 70
     0
 40
0.0
 41
1.0
 50
0.0
 71
     0
 42
25.0
  3
MS Mincho.ttf
  4

1001
ACAD
1000
MS Mincho
1071
    32785
  0
STYLE
  5
1BE7
330
3
100
AcDbSymbolTableRecord
100
AcDbTextStyleTableRecord
  2
明朝
 70
     0
 40
0.0
 41
1.0
 50
0.0
 71
     0
 42
25.0
  3
MS Mincho.ttf
  4

1001
ACAD
1000
MS Mincho
1071
    32785
  0
ENDTAB
  0
TABLE
  2
VIEW
  5
6
330
0
100
AcDbSymbolTable
 70
     0
  0
ENDTAB
  0
TABLE
  2
UCS
  5
7
330
0
100
AcDbSymbolTable
 70
     0
  0
ENDTAB
  0
TABLE
  2
APPID
  5
9
330
0
100
AcDbSymbolTable
 70
     1
  0
APPID
  5
12
330
9
100
AcDbSymbolTableRecord
100
AcDbRegAppTableRecord
  2
ACAD
 70
     0
  0
ENDTAB
  0
TABLE
  2
DIMSTYLE
  5
A
330
0
100
AcDbSymbolTable
 70
     1
100
AcDbDimStyleTable
 71
     1
340
27
  0
DIMSTYLE
105
27
102
{ACAD_REACTORS
330
473
330
480
330
586
330
1A81
330
1A82
330
1A83
330
1A84
330
1EC5
330
1EE2
330
1F2C
330
1F4A
330
1F57
330
1F89
330
1FBA
330
204F
330
207F
330
2095
330
20D9
330
2121
330
212E
330
2175
330
384
330
3BF
330
2885
330
2886
102
}
330
A
100
AcDbSymbolTableRecord
100
AcDbDimStyleTableRecord
  2
ISO-25
 70
     0
 41
30.0
 42
65.0
 43
3.75
 44
0.0
 73
     0
 74
     0
 77
     1
 78
     8
140
25.0
141
2.5
143
0.03937007874016
147
6.25
171
     3
172
     1
271
     2
272
     2
274
     3
283
     0
284
     8
340
11
341
DA
342
D0
371
    15
372
    15
  0
ENDTAB
  0
TABLE
  2
BLOCK_RECORD
  5
1
330
0
100
AcDbSymbolTable
 70
    32
  0
BLOCK_RECORD
  5
1F
102
{ACAD_XDICTIONARY
360
1C06
102
}
330
1
100
AcDbSymbolTableRecord
100
AcDbBlockTableRecord
  2
*Model_Space
340
22
  0
BLOCK_RECORD
  5
1B
330
1
100
AcDbSymbolTableRecord
100
AcDbBlockTableRecord
  2
*Paper_Space
340
1E
  0
BLOCK_RECORD
  5
23
330
1
100
AcDbSymbolTableRecord
100
AcDbBlockTableRecord
  2
*Paper_Space0
340
26
  0
BLOCK_RECORD
  5
D0
330
1
100
AcDbSymbolTableRecord
100
AcDbBlockTableRecord
  2
_DotSmall
340
0
102
{BLKREFS
331
1E04
331
1E05
331
2415
331
2416
331
250C
331
250D
331
2515
331
2516
331
251E
331
251F
331
2526
331
2527
331
2852
331
2853
331
28AF
331
28B0
331
28B7
331
28B8
331
28E2
331
28E3
331
28EA
331
28EB
331
28F4
331
28F5
331
28FD
331
28FE
331
2905
331
2906
331
290E
331
290F
331
2917
331
2918
331
2921
331
2922
331
292A
331
292B
331
2932
331
2933
331
293B
331
293C
331
2945
331
2946
331
294D
331
294E
331
2957
331
2958
331
295F
331
2960
331
2971
331
2972
331
29DD
331
29DE
102
}
  0
BLOCK_RECORD
  5
D4
330
1
100
AcDbSymbolTableRecord
100
AcDbBlockTableRecord
  2
_Origin2
340
0
  0
BLOCK_RECORD
  5
DA
330
1
100
AcDbSymbolTableRecord
100
AcDbBlockTableRecord
  2
_Open30
340
0
  0
BLOCK_RECORD
  5
385
330
1
100
AcDbSymbolTableRecord
100
AcDbBlockTableRecord
  2
*D4
340
0
  0
BLOCK_RECORD
  5
3C0
330
1
100
AcDbSymbolTableRecord
100
AcDbBlockTableRecord
  2
*D6
340
0
  0
BLOCK_RECORD
  5
474
330
1
100
AcDbSymbolTableRecord
100
AcDbBlockTableRecord
  2
*D7
340
0
  0
BLOCK_RECORD
  5
481
330
1
100
AcDbSymbolTableRecord
100
AcDbBlockTableRecord
  2
*D8
340
0
  0
BLOCK_RECORD
  5
587
330
1
100
AcDbSymbolTableRecord
100
AcDbBlockTableRecord
  2
*D9
340
0
  0
BLOCK_RECORD
  5
1A85
330
1
100
AcDbSymbolTableRecord
100
AcDbBlockTableRecord
  2
*D10
340
0
  0
BLOCK_RECORD
  5
1A91
330
1
100
AcDbSymbolTableRecord
100
AcDbBlockTableRecord
  2
*D11
340
0
  0
BLOCK_RECORD
  5
1A9D
330
1
100
AcDbSymbolTableRecord
100
AcDbBlockTableRecord
  2
*D12
340
0
  0
BLOCK_RECORD
  5
1AA9
330
1
100
AcDbSymbolTableRecord
100
AcDbBlockTableRecord
  2
*D13
340
0
  0
BLOCK_RECORD
  5
1BDA
330
1
100
AcDbSymbolTableRecord
100
AcDbBlockTableRecord
  2
_Dot
340
0
  0
BLOCK_RECORD
  5
1BDF
102
{ACAD_XDICTIONARY
360
1BE2
102
}
330
1
100
AcDbSymbolTableRecord
100
AcDbBlockTableRecord
  2
A$C6E975202
340
0
  0
BLOCK_RECORD
  5
1EC6
330
1
100
AcDbSymbolTableRecord
100
AcDbBlockTableRecord
  2
*D16
340
0
  0
BLOCK_RECORD
  5
1EE3
330
1
100
AcDbSymbolTableRecord
100
AcDbBlockTableRecord
  2
*D17
340
0
  0
BLOCK_RECORD
  5
1F2D
330
1
100
AcDbSymbolTableRecord
100
AcDbBlockTableRecord
  2
*D18
340
0
  0
BLOCK_RECORD
  5
1F4B
330
1
100
AcDbSymbolTableRecord
100
AcDbBlockTableRecord
  2
*D19
340
0
  0
BLOCK_RECORD
  5
1F58
330
1
100
AcDbSymbolTableRecord
100
AcDbBlockTableRecord
  2
*D20
340
0
  0
BLOCK_RECORD
  5
1F8A
330
1
100
AcDbSymbolTableRecord
100
AcDbBlockTableRecord
  2
*D21
340
0
  0
BLOCK_RECORD
  5
1FBB
330
1
100
AcDbSymbolTableRecord
100
AcDbBlockTableRecord
  2
*D22
340
0
  0
BLOCK_RECORD
  5
2050
330
1
100
AcDbSymbolTableRecord
100
AcDbBlockTableRecord
  2
*D23
340
0
  0
BLOCK_RECORD
  5
2080
330
1
100
AcDbSymbolTableRecord
100
AcDbBlockTableRecord
  2
*D24
340
0
  0
BLOCK_RECORD
  5
2096
330
1
100
AcDbSymbolTableRecord
100
AcDbBlockTableRecord
  2
*D25
340
0
  0
BLOCK_RECORD
  5
20DA
330
1
100
AcDbSymbolTableRecord
100
AcDbBlockTableRecord
  2
*D26
340
0
  0
BLOCK_RECORD
  5
2122
330
1
100
AcDbSymbolTableRecord
100
AcDbBlockTableRecord
  2
*D27
340
0
  0
BLOCK_RECORD
  5
212F
330
1
100
AcDbSymbolTableRecord
100
AcDbBlockTableRecord
  2
*D28
340
0
  0
BLOCK_RECORD
  5
2176
330
1
100
AcDbSymbolTableRecord
100
AcDbBlockTableRecord
  2
*D29
340
0
  0
BLOCK_RECORD
  5
2893
330
1
100
AcDbSymbolTableRecord
100
AcDbBlockTableRecord
  2
*D30
340
0
  0
BLOCK_RECORD
  5
289F
330
1
100
AcDbSymbolTableRecord
100
AcDbBlockTableRecord
  2
*D31
340
0
  0
ENDTAB
  0
ENDSEC
  0
SECTION
  2
BLOCKS
  0
BLOCK
  5
20
330
1F
100
AcDbEntity
  8
0
100
AcDbBlockBegin
  2
*Model_Space
 70
     0
 10
0.0
 20
0.0
 30
0.0
  3
*Model_Space
  1

  0
ENDBLK
  5
21
330
1F
100
AcDbEntity
  8
0
100
AcDbBlockEnd
  0
BLOCK
  5
1C
330
1B
100
AcDbEntity
 67
     1
  8
0
100
AcDbBlockBegin
  2
*Paper_Space
 70
     0
 10
0.0
 20
0.0
 30
0.0
  3
*Paper_Space
  1

  0
ENDBLK
  5
1D
330
1B
100
AcDbEntity
 67
     1
  8
0
100
AcDbBlockEnd
  0
BLOCK
  5
24
330
23
100
AcDbEntity
  8
0
100
AcDbBlockBegin
  2
*Paper_Space0
 70
     0
 10
0.0
 20
0.0
 30
0.0
  3
*Paper_Space0
  1

  0
ENDBLK
  5
25
330
23
100
AcDbEntity
  8
0
100
AcDbBlockEnd
  0
BLOCK
  5
D2
330
D0
100
AcDbEntity
  8
0
100
AcDbBlockBegin
  2
_DotSmall
 70
     0
 10
0.0
 20
0.0
 30
0.0
  3
_DotSmall
  1

  0
LWPOLYLINE
  5
D1
330
D0
100
AcDbEntity
  8
0
 62
     0
100
AcDbPolyline
 90
        2
 70
     1
 43
0.5
 10
-0.0625
 20
0.0
 42
1.0
 10
0.0625
 20
0.0
 42
1.0
  0
ENDBLK
  5
D3
330
D0
100
AcDbEntity
  8
0
100
AcDbBlockEnd
  0
BLOCK
  5
D8
330
D4
100
AcDbEntity
  8
0
100
AcDbBlockBegin
  2
_Origin2
 70
     0
 10
0.0
 20
0.0
 30
0.0
  3
_Origin2
  1

  0
CIRCLE
  5
D5
330
D4
100
AcDbEntity
  8
0
 62
     0
370
    -2
100
AcDbCircle
 10
0.0
 20
0.0
 30
0.0
 40
0.5
  0
CIRCLE
  5
D6
330
D4
100
AcDbEntity
  8
0
 62
     0
370
    -2
100
AcDbCircle
 10
0.0
 20
0.0
 30
0.0
 40
0.25
  0
LINE
  5
D7
330
D4
100
AcDbEntity
  8
0
 62
     0
370
    -2
100
AcDbLine
 10
-0.5
 20
0.0
 30
0.0
 11
-1.0
 21
0.0
 31
0.0
  0
ENDBLK
  5
D9
330
D4
100
AcDbEntity
  8
0
100
AcDbBlockEnd
  0
BLOCK
  5
DE
330
DA
100
AcDbEntity
  8
0
100
AcDbBlockBegin
  2
_Open30
 70
     0
 10
0.0
 20
0.0
 30
0.0
  3
_Open30
  1

  0
LINE
  5
DB
330
DA
100
AcDbEntity
  8
0
 62
     0
370
    -2
100
AcDbLine
 10
-1.0
 20
0.26794919
 30
0.0
 11
0.0
 21
0.0
 31
0.0
  0
LINE
  5
DC
330
DA
100
AcDbEntity
  8
0
 62
     0
370
    -2
100
AcDbLine
 10
0.0
 20
0.0
 30
0.0
 11
-1.0
 21
-0.26794919
 31
0.0
  0
LINE
  5
DD
330
DA
100
AcDbEntity
  8
0
 62
     0
370
    -2
100
AcDbLine
 10
0.0
 20
0.0
 30
0.0
 11
-1.0
 21
0.0
 31
0.0
  0
ENDBLK
  5
DF
330
DA
100
AcDbEntity
  8
0
100
AcDbBlockEnd
  0
BLOCK
  5
38F
330
385
100
AcDbEntity
  8
0
100
AcDbBlockBegin
  2
*D4
 70
     1
 10
0.0
 20
0.0
 30
0.0
  3
*D4
  1

  0
LINE
  5
295C
330
385
100
AcDbEntity
  8
0
 62
     0
370
    15
100
AcDbLine
 10
1076.834439861693
 20
1488.86010153411
 30
0.0
 11
1110.681658380447
 21
1488.86010153411
 31
0.0
  0
LINE
  5
295D
330
385
100
AcDbEntity
  8
0
 62
     0
370
    15
100
AcDbLine
 10
1032.977907243228
 20
1648.86010153411
 30
0.0
 11
1110.681658380447
 21
1648.86010153411
 31
0.0
  0
LINE
  5
295E
330
385
100
AcDbEntity
  8
0
 62
     0
370
    15
100
AcDbLine
 10
1110.681658380447
 20
1488.86010153411
 30
0.0
 11
1110.681658380447
 21
1648.86010153411
 31
0.0
  0
INSERT
  5
295F
330
385
100
AcDbEntity
  8
0
 62
     0
370
    15
100
AcDbBlockReference
  2
_DotSmall
 10
1110.681658380447
 20
1488.86010153411
 30
0.0
 41
30.0
 42
30.0
 43
30.0
 50
270.0
  0
INSERT
  5
2960
330
385
100
AcDbEntity
  8
0
 62
     0
370
    15
100
AcDbBlockReference
  2
_DotSmall
 10
1110.681658380447
 20
1648.86010153411
 30
0.0
 41
30.0
 42
30.0
 43
30.0
 50
90.0
  0
MTEXT
  5
2961
330
385
100
AcDbEntity
  8
0
 62
     0
100
AcDbMText
 10
1091.931658380447
 20
1533.410495785237
 30
0.0
 40
25.0
 41
0.0
 71
     5
 72
     1
  1
160
 11
0.0000000000000001
 21
1.0
 31
0.0
 73
     1
 44
1.0
1001
ACAD
1000
MTEXTBEGIN
1070
    73
1070
     1
1070
    44
1040
1.0
1070
    74
1070
     0
1000
MTEXTEND
  0
POINT
  5
2962
330
385
100
AcDbEntity
  8
Defpoints
 62
     0
100
AcDbPoint
 10
1011.834439861694
 20
1488.86010153411
 30
0.0
  0
POINT
  5
2963
330
385
100
AcDbEntity
  8
Defpoints
 62
     0
100
AcDbPoint
 10
967.977907243228
 20
1648.86010153411
 30
0.0
  0
POINT
  5
2964
330
385
100
AcDbEntity
  8
Defpoints
 62
     0
100
AcDbPoint
 10
1110.681658380447
 20
1648.86010153411
 30
0.0
  0
ENDBLK
  5
390
330
385
100
AcDbEntity
  8
0
100
AcDbBlockEnd
  0
BLOCK
  5
3CA
330
3C0
100
AcDbEntity
  8
0
100
AcDbBlockBegin
  2
*D6
 70
     1
 10
0.0
 20
0.0
 30
0.0
  3
*D6
  1

  0
LINE
  5
296E
330
3C0
100
AcDbEntity
  8
0
 62
     0
370
    15
100
AcDbLine
 10
824.2194694065011
 20
1764.725195104287
 30
0.0
 11
824.2194694065011
 21
1781.236161018235
 31
0.0
  0
LINE
  5
296F
330
3C0
100
AcDbEntity
  8
0
 62
     0
370
    15
100
AcDbLine
 10
1084.219469406501
 20
1764.725195104287
 30
0.0
 11
1084.219469406501
 21
1781.236161018235
 31
0.0
  0
LINE
  5
2970
330
3C0
100
AcDbEntity
  8
0
 62
     0
370
    15
100
AcDbLine
 10
824.2194694065011
 20
1781.236161018235
 30
0.0
 11
1084.219469406501
 21
1781.236161018235
 31
0.0
  0
INSERT
  5
2971
330
3C0
100
AcDbEntity
  8
0
 62
     0
370
    15
100
AcDbBlockReference
  2
_DotSmall
 10
824.2194694065011
 20
1781.236161018235
 30
0.0
 41
30.0
 42
30.0
 43
30.0
 50
180.0
  0
INSERT
  5
2972
330
3C0
100
AcDbEntity
  8
0
 62
     0
370
    15
100
AcDbBlockReference
  2
_DotSmall
 10
1084.219469406501
 20
1781.236161018235
 30
0.0
 41
30.0
 42
30.0
 43
30.0
  0
MTEXT
  5
2973
330
3C0
100
AcDbEntity
  8
0
 62
     0
100
AcDbMText
 10
954.219469406501
 20
1799.986161018235
 30
0.0
 40
25.0
 41
0.0
 71
     5
 72
     1
  1
260
 73
     1
 44
1.0
1001
ACAD
1000
MTEXTBEGIN
1070
    73
1070
     1
1070
    44
1040
1.0
1070
    74
1070
     0
1000
MTEXTEND
  0
POINT
  5
2974
330
3C0
100
AcDbEntity
  8
Defpoints
 62
     0
100
AcDbPoint
 10
824.2194694065011
 20
1699.725195104287
 30
0.0
  0
POINT
  5
2975
330
3C0
100
AcDbEntity
  8
Defpoints
 62
     0
100
AcDbPoint
 10
1084.219469406501
 20
1699.725195104287
 30
0.0
  0
POINT
  5
2976
330
3C0
100
AcDbEntity
  8
Defpoints
 62
     0
100
AcDbPoint
 10
1084.219469406501
 20
1781.236161018235
 30
0.0
  0
ENDBLK
  5
3CB
330
3C0
100
AcDbEntity
  8
0
100
AcDbBlockEnd
  0
BLOCK
  5
47E
330
474
100
AcDbEntity
  8
0
100
AcDbBlockBegin
  2
*D7
 70
     1
 10
0.0
 20
0.0
 30
0.0
  3
*D7
  1

  0
LINE
  5
284F
330
474
100
AcDbEntity
  8
0
 62
     0
370
    15
100
AcDbLine
 10
1033.719469406501
 20
459.2929064030613
 30
0.0
 11
1033.719469406501
 21
402.8984317050462
 31
0.0
  0
LINE
  5
2850
330
474
100
AcDbEntity
  8
0
 62
     0
370
    15
100
AcDbLine
 10
874.7194694065008
 20
459.2929064030616
 30
0.0
 11
874.7194694065008
 21
402.8984317050462
 31
0.0
  0
LINE
  5
2851
330
474
100
AcDbEntity
  8
0
 62
     0
370
    15
100
AcDbLine
 10
1033.719469406501
 20
402.8984317050462
 30
0.0
 11
874.7194694065008
 21
402.8984317050462
 31
0.0
  0
INSERT
  5
2852
330
474
100
AcDbEntity
  8
0
 62
     0
370
    15
100
AcDbBlockReference
  2
_DotSmall
 10
1033.719469406501
 20
402.8984317050462
 30
0.0
 41
30.0
 42
30.0
 43
30.0
  0
INSERT
  5
2853
330
474
100
AcDbEntity
  8
0
 62
     0
370
    15
100
AcDbBlockReference
  2
_DotSmall
 10
874.7194694065008
 20
402.8984317050462
 30
0.0
 41
30.0
 42
30.0
 43
30.0
 50
180.0
  0
MTEXT
  5
2854
330
474
100
AcDbEntity
  8
0
 62
     0
100
AcDbMText
 10
954.219469406501
 20
421.6484317050462
 30
0.0
 40
25.0
 41
0.0
 71
     5
 72
     1
  1
159
 73
     1
 44
1.0
1001
ACAD
1000
MTEXTBEGIN
1070
    73
1070
     1
1070
    44
1040
1.0
1070
    74
1070
     0
1000
MTEXTEND
  0
POINT
  5
2855
330
474
100
AcDbEntity
  8
Defpoints
 62
     0
100
AcDbPoint
 10
1033.719469406501
 20
524.2929064030613
 30
0.0
  0
POINT
  5
2856
330
474
100
AcDbEntity
  8
Defpoints
 62
     0
100
AcDbPoint
 10
874.7194694065008
 20
524.2929064030615
 30
0.0
  0
POINT
  5
2857
330
474
100
AcDbEntity
  8
Defpoints
 62
     0
100
AcDbPoint
 10
874.7194694065008
 20
402.8984317050462
 30
0.0
  0
ENDBLK
  5
47F
330
474
100
AcDbEntity
  8
0
100
AcDbBlockEnd
  0
BLOCK
  5
48B
330
481
100
AcDbEntity
  8
0
100
AcDbBlockBegin
  2
*D8
 70
     1
 10
0.0
 20
0.0
 30
0.0
  3
*D8
  1

  0
LINE
  5
2412
330
481
100
AcDbEntity
  8
0
 62
     0
370
    15
100
AcDbLine
 10
1044.719469406501
 20
596.2929064030613
 30
0.0
 11
1044.719469406501
 21
633.445930941033
 31
0.0
  0
LINE
  5
2413
330
481
100
AcDbEntity
  8
0
 62
     0
370
    15
100
AcDbLine
 10
863.719469406501
 20
596.2929064030614
 30
0.0
 11
863.719469406501
 21
633.445930941033
 31
0.0
  0
LINE
  5
2414
330
481
100
AcDbEntity
  8
0
 62
     0
370
    15
100
AcDbLine
 10
1044.719469406501
 20
633.445930941033
 30
0.0
 11
863.719469406501
 21
633.445930941033
 31
0.0
  0
INSERT
  5
2415
330
481
100
AcDbEntity
  8
0
 62
     0
370
    15
100
AcDbBlockReference
  2
_DotSmall
 10
1044.719469406501
 20
633.445930941033
 30
0.0
 41
30.0
 42
30.0
 43
30.0
  0
INSERT
  5
2416
330
481
100
AcDbEntity
  8
0
 62
     0
370
    15
100
AcDbBlockReference
  2
_DotSmall
 10
863.719469406501
 20
633.445930941033
 30
0.0
 41
30.0
 42
30.0
 43
30.0
 50
180.0
  0
MTEXT
  5
2417
330
481
100
AcDbEntity
  8
0
 62
     0
100
AcDbMText
 10
954.219469406501
 20
652.195930941033
 30
0.0
 40
25.0
 41
0.0
 71
     5
 72
     1
  1
181
 73
     1
 44
1.0
1001
ACAD
1000
MTEXTBEGIN
1070
    73
1070
     1
1070
    44
1040
1.0
1070
    74
1070
     0
1000
MTEXTEND
  0
POINT
  5
2418
330
481
100
AcDbEntity
  8
Defpoints
 62
     0
100
AcDbPoint
 10
1044.719469406501
 20
531.2929064030613
 30
0.0
  0
POINT
  5
2419
330
481
100
AcDbEntity
  8
Defpoints
 62
     0
100
AcDbPoint
 10
863.719469406501
 20
531.2929064030615
 30
0.0
  0
POINT
  5
241A
330
481
100
AcDbEntity
  8
Defpoints
 62
     0
100
AcDbPoint
 10
863.719469406501
 20
633.445930941033
 30
0.0
  0
ENDBLK
  5
48C
330
481
100
AcDbEntity
  8
0
100
AcDbBlockEnd
  0
BLOCK
  5
593
330
587
100
AcDbEntity
  8
0
100
AcDbBlockBegin
  2
*D9
 70
     1
 10
0.0
 20
0.0
 30
0.0
  3
*D9
  1

  0
LINE
  5
29D9
330
587
100
AcDbEntity
  8
0
 62
     0
370
    15
100
AcDbLine
 10
807.4744054304028
 20
1633.86010153411
 30
0.0
 11
796.4469088348606
 21
1633.86010153411
 31
0.0
  0
LINE
  5
29DA
330
587
100
AcDbEntity
  8
0
 62
     0
370
    15
100
AcDbLine
 10
824.2194694065011
 20
1648.86010153411
 30
0.0
 11
796.4469088348606
 21
1648.86010153411
 31
0.0
  0
LINE
  5
29DB
330
587
100
AcDbEntity
  8
0
 62
     0
370
    15
100
AcDbLine
 10
796.4469088348606
 20
1633.86010153411
 30
0.0
 11
796.4469088348606
 21
1648.86010153411
 31
0.0
  0
MTEXT
  5
29DC
330
587
100
AcDbEntity
  8
0
 62
     0
100
AcDbMText
 10
768.7085264120524
 20
1624.338644820605
 30
0.0
 40
25.0
 41
0.0
 71
     5
 72
     1
  1
16
 11
0.0000000000000001
 21
1.0
 31
0.0
 73
     1
 44
1.0
1001
ACAD
1000
MTEXTBEGIN
1070
    73
1070
     1
1070
    44
1040
1.0
1070
    74
1070
     0
1000
MTEXTEND
  0
INSERT
  5
29DD
330
587
100
AcDbEntity
  8
0
 62
     0
370
    15
100
AcDbBlockReference
  2
_DotSmall
 10
796.4469088348606
 20
1633.86010153411
 30
0.0
 41
30.0
 42
30.0
 43
30.0
 50
270.0
  0
INSERT
  5
29DE
330
587
100
AcDbEntity
  8
0
 62
     0
370
    15
100
AcDbBlockReference
  2
_DotSmall
 10
796.4469088348606
 20
1648.86010153411
 30
0.0
 41
30.0
 42
30.0
 43
30.0
 50
90.0
  0
POINT
  5
29DF
330
587
100
AcDbEntity
  8
Defpoints
 62
     0
100
AcDbPoint
 10
872.4744054304029
 20
1633.86010153411
 30
0.0
  0
POINT
  5
29E0
330
587
100
AcDbEntity
  8
Defpoints
 62
     0
100
AcDbPoint
 10
889.2194694065009
 20
1648.86010153411
 30
0.0
  0
POINT
  5
29E1
330
587
100
AcDbEntity
  8
Defpoints
 62
     0
100
AcDbPoint
 10
796.4469088348606
 20
1648.86010153411
 30
0.0
  0
ENDBLK
  5
594
330
587
100
AcDbEntity
  8
0
100
AcDbBlockEnd
  0
BLOCK
  5
1A8F
330
1A85
100
AcDbEntity
  8
0
100
AcDbBlockBegin
  2
*D10
 70
     1
 10
0.0
 20
0.0
 30
0.0
  3
*D10
  1

  0
LINE
  5
2508
330
1A85
100
AcDbEntity
  8
実形
 62
     0
370
    15
100
AcDbLine
 10
629.2194694065011
 20
721.2929064030616
 30
0.0
 11
576.0988019500781
 21
721.2929064030616
 31
0.0
  0
LINE
  5
2509
330
1A85
100
AcDbEntity
  8
実形
 62
     0
370
    15
100
AcDbLine
 10
629.2194694065013
 20
706.2929064030615
 30
0.0
 11
576.0988019500781
 21
706.2929064030615
 31
0.0
  0
LINE
  5
250A
330
1A85
100
AcDbEntity
  8
実形
 62
     0
370
    15
100
AcDbLine
 10
576.0988019500781
 20
721.2929064030616
 30
0.0
 11
576.0988019500781
 21
706.2929064030615
 31
0.0
  0
MTEXT
  5
250B
330
1A85
100
AcDbEntity
  8
実形
 62
     0
100
AcDbMText
 10
542.2013255389646
 20
754.6594034738628
 30
0.0
 40
25.0
 41
0.0
 71
     5
 72
     1
  1
15
 11
0.0000000000000001
 21
1.0
 31
0.0
 73
     1
 44
1.0
1001
ACAD
1000
MTEXTBEGIN
1070
    73
1070
     1
1070
    44
1040
1.0
1070
    74
1070
     0
1000
MTEXTEND
  0
INSERT
  5
250C
330
1A85
100
AcDbEntity
  8
実形
 62
     0
370
    15
100
AcDbBlockReference
  2
_DotSmall
 10
576.0988019500781
 20
721.2929064030616
 30
0.0
 41
30.0
 42
30.0
 43
30.0
 50
90.0
  0
INSERT
  5
250D
330
1A85
100
AcDbEntity
  8
実形
 62
     0
370
    15
100
AcDbBlockReference
  2
_DotSmall
 10
576.0988019500781
 20
706.2929064030615
 30
0.0
 41
30.0
 42
30.0
 43
30.0
 50
270.0
  0
POINT
  5
250E
330
1A85
100
AcDbEntity
  8
Defpoints
 62
     0
100
AcDbPoint
 10
694.2194694065011
 20
721.2929064030616
 30
0.0
  0
POINT
  5
250F
330
1A85
100
AcDbEntity
  8
Defpoints
 62
     0
100
AcDbPoint
 10
694.2194694065014
 20
706.2929064030615
 30
0.0
  0
POINT
  5
2510
330
1A85
100
AcDbEntity
  8
Defpoints
 62
     0
100
AcDbPoint
 10
576.0988019500781
 20
706.2929064030615
 30
0.0
  0
ENDBLK
  5
1A90
330
1A85
100
AcDbEntity
  8
0
100
AcDbBlockEnd
  0
BLOCK
  5
1A9B
330
1A91
100
AcDbEntity
  8
0
100
AcDbBlockBegin
  2
*D11
 70
     1
 10
0.0
 20
0.0
 30
0.0
  3
*D11
  1

  0
LINE
  5
2511
330
1A91
100
AcDbEntity
  8
実形
 62
     0
370
    15
100
AcDbLine
 10
628.4249501627397
 20
546.6184532789384
 30
0.0
 11
576.0988019500781
 21
546.6184532789384
 31
0.0
  0
LINE
  5
2512
330
1A91
100
AcDbEntity
  8
実形
 62
     0
370
    15
100
AcDbLine
 10
628.4015604892991
 20
531.2929064030616
 30
0.0
 11
576.0988019500781
 21
531.2929064030616
 31
0.0
  0
LINE
  5
2513
330
1A91
100
AcDbEntity
  8
実形
 62
     0
370
    15
100
AcDbLine
 10
576.0988019500781
 20
546.6184532789384
 30
0.0
 11
576.0988019500781
 21
531.2929064030616
 31
0.0
  0
MTEXT
  5
2514
330
1A91
100
AcDbEntity
  8
実形
 62
     0
100
AcDbMText
 10
550.3765526899768
 20
555.546370566951
 30
0.0
 40
25.0
 41
0.0
 71
     5
 72
     1
  1
15
 11
0.0000000000000001
 21
1.0
 31
0.0
 73
     1
 44
1.0
1001
ACAD
1000
MTEXTBEGIN
1070
    73
1070
     1
1070
    44
1040
1.0
1070
    74
1070
     0
1000
MTEXTEND
  0
INSERT
  5
2515
330
1A91
100
AcDbEntity
  8
実形
 62
     0
370
    15
100
AcDbBlockReference
  2
_DotSmall
 10
576.0988019500781
 20
546.6184532789384
 30
0.0
 41
30.0
 42
30.0
 43
30.0
 50
90.0
  0
INSERT
  5
2516
330
1A91
100
AcDbEntity
  8
実形
 62
     0
370
    15
100
AcDbBlockReference
  2
_DotSmall
 10
576.0988019500781
 20
531.2929064030616
 30
0.0
 41
30.0
 42
30.0
 43
30.0
 50
270.0
  0
POINT
  5
2517
330
1A91
100
AcDbEntity
  8
Defpoints
 62
     0
100
AcDbPoint
 10
693.4249501627397
 20
546.6184532789384
 30
0.0
  0
POINT
  5
2518
330
1A91
100
AcDbEntity
  8
Defpoints
 62
     0
100
AcDbPoint
 10
693.4015604892992
 20
531.2929064030616
 30
0.0
  0
POINT
  5
2519
330
1A91
100
AcDbEntity
  8
Defpoints
 62
     0
100
AcDbPoint
 10
576.0988019500781
 20
531.2929064030616
 30
0.0
  0
ENDBLK
  5
1A9C
330
1A91
100
AcDbEntity
  8
0
100
AcDbBlockEnd
  0
BLOCK
  5
1AA7
330
1A9D
100
AcDbEntity
  8
0
100
AcDbBlockBegin
  2
*D12
 70
     1
 10
0.0
 20
0.0
 30
0.0
  3
*D12
  1

  0
LINE
  5
251A
330
1A9D
100
AcDbEntity
  8
実形
 62
     0
370
    15
100
AcDbLine
 10
628.8009862401739
 20
521.2929064030616
 30
0.0
 11
576.0988019500781
 21
521.2929064030616
 31
0.0
  0
LINE
  5
251B
330
1A9D
100
AcDbEntity
  8
実形
 62
     0
370
    15
100
AcDbLine
 10
600.0421584208234
 20
546.4764336217627
 30
0.0
 11
576.0988019500781
 21
546.4764336217627
 31
0.0
  0
LINE
  5
251C
330
1A9D
100
AcDbEntity
  8
実形
 62
     0
370
    15
100
AcDbLine
 10
576.0988019500781
 20
521.2929064030616
 30
0.0
 11
576.0988019500781
 21
546.4764336217627
 31
0.0
  0
MTEXT
  5
251D
330
1A9D
100
AcDbEntity
  8
実形
 62
     0
100
AcDbMText
 10
546.2953627520326
 20
507.0879948184039
 30
0.0
 40
25.0
 41
0.0
 71
     5
 72
     1
  1
7
 11
0.0000000000000001
 21
1.0
 31
0.0
 73
     1
 44
1.0
1001
ACAD
1000
MTEXTBEGIN
1070
    73
1070
     1
1070
    44
1040
1.0
1070
    74
1070
     0
1000
MTEXTEND
  0
INSERT
  5
251E
330
1A9D
100
AcDbEntity
  8
実形
 62
     0
370
    15
100
AcDbBlockReference
  2
_DotSmall
 10
576.0988019500781
 20
521.2929064030616
 30
0.0
 41
30.0
 42
30.0
 43
30.0
 50
270.0
  0
INSERT
  5
251F
330
1A9D
100
AcDbEntity
  8
実形
 62
     0
370
    15
100
AcDbBlockReference
  2
_DotSmall
 10
576.0988019500781
 20
546.4764336217627
 30
0.0
 41
30.0
 42
30.0
 43
30.0
 50
90.0
  0
POINT
  5
2520
330
1A9D
100
AcDbEntity
  8
Defpoints
 62
     0
100
AcDbPoint
 10
693.800986240174
 20
521.2929064030616
 30
0.0
  0
POINT
  5
2521
330
1A9D
100
AcDbEntity
  8
Defpoints
 62
     0
100
AcDbPoint
 10
665.0421584208234
 20
546.4764336217627
 30
0.0
  0
POINT
  5
2522
330
1A9D
100
AcDbEntity
  8
Defpoints
 62
     0
100
AcDbPoint
 10
576.0988019500781
 20
546.4764336217627
 30
0.0
  0
ENDBLK
  5
1AA8
330
1A9D
100
AcDbEntity
  8
0
100
AcDbBlockEnd
  0
BLOCK
  5
1AB3
330
1AA9
100
AcDbEntity
  8
0
100
AcDbBlockBegin
  2
*D13
 70
     1
 10
0.0
 20
0.0
 30
0.0
  3
*D13
  1

  0
LINE
  5
2523
330
1AA9
100
AcDbEntity
  8
実形
 62
     0
370
    15
100
AcDbLine
 10
593.8433360776397
 20
721.2929064030616
 30
0.0
 11
489.5579035118916
 21
721.2929064030616
 31
0.0
  0
LINE
  5
2524
330
1AA9
100
AcDbEntity
  8
実形
 62
     0
370
    15
100
AcDbLine
 10
593.8433360776397
 20
531.2929064030616
 30
0.0
 11
489.5579035118916
 21
531.2929064030616
 31
0.0
  0
LINE
  5
2525
330
1AA9
100
AcDbEntity
  8
実形
 62
     0
370
    15
100
AcDbLine
 10
489.5579035118916
 20
721.2929064030616
 30
0.0
 11
489.5579035118916
 21
531.2929064030616
 31
0.0
  0
INSERT
  5
2526
330
1AA9
100
AcDbEntity
  8
実形
 62
     0
370
    15
100
AcDbBlockReference
  2
_DotSmall
 10
489.5579035118916
 20
721.2929064030616
 30
0.0
 41
30.0
 42
30.0
 43
30.0
 50
90.0
  0
INSERT
  5
2527
330
1AA9
100
AcDbEntity
  8
実形
 62
     0
370
    15
100
AcDbBlockReference
  2
_DotSmall
 10
489.5579035118916
 20
531.2929064030616
 30
0.0
 41
30.0
 42
30.0
 43
30.0
 50
270.0
  0
MTEXT
  5
2528
330
1AA9
100
AcDbEntity
  8
実形
 62
     0
100
AcDbMText
 10
470.8079035118915
 20
626.2929064030617
 30
0.0
 40
25.0
 41
0.0
 71
     5
 72
     1
  1
190
 11
0.0000000000000001
 21
1.0
 31
0.0
 73
     1
 44
1.0
1001
ACAD
1000
MTEXTBEGIN
1070
    73
1070
     1
1070
    44
1040
1.0
1070
    74
1070
     0
1000
MTEXTEND
  0
POINT
  5
2529
330
1AA9
100
AcDbEntity
  8
Defpoints
 62
     0
100
AcDbPoint
 10
658.8433360776397
 20
721.2929064030616
 30
0.0
  0
POINT
  5
252A
330
1AA9
100
AcDbEntity
  8
Defpoints
 62
     0
100
AcDbPoint
 10
658.8433360776397
 20
531.2929064030616
 30
0.0
  0
POINT
  5
252B
330
1AA9
100
AcDbEntity
  8
Defpoints
 62
     0
100
AcDbPoint
 10
489.5579035118916
 20
531.2929064030616
 30
0.0
  0
ENDBLK
  5
1AB4
330
1AA9
100
AcDbEntity
  8
0
100
AcDbBlockEnd
  0
BLOCK
  5
1BDB
330
1BDA
100
AcDbEntity
  8
0
100
AcDbBlockBegin
  2
_Dot
 70
     0
 10
0.0
 20
0.0
 30
0.0
  3
_Dot
  1

  0
LWPOLYLINE
  5
1BDC
330
1BDA
100
AcDbEntity
  8
0
 62
     0
100
AcDbPolyline
 90
        2
 70
     1
 43
0.5
 10
-0.25
 20
0.0
 42
1.0
 10
0.25
 20
0.0
 42
1.0
  0
LINE
  5
1BDD
330
1BDA
100
AcDbEntity
  8
0
 62
     0
370
    -2
100
AcDbLine
 10
-0.5
 20
0.0
 30
0.0
 11
-1.0
 21
0.0
 31
0.0
  0
ENDBLK
  5
1BDE
330
1BDA
100
AcDbEntity
  8
0
100
AcDbBlockEnd
  0
BLOCK
  5
1BE4
330
1BDF
100
AcDbEntity
  8
0
100
AcDbBlockBegin
  2
A$C6E975202
 70
     0
 10
0.0
 20
0.0
 30
0.0
  3
A$C6E975202
  1

  0
TEXT
  5
1BE0
330
1BDF
100
AcDbEntity
  8
寸法
 62
     0
100
AcDbText
 10
-0.0000081959879021
 20
873.0585266975676
 30
0.0
 40
60.0
  1
36φ
 11
-0.0000081959879026
 21
865.0585266975676
 31
0.0
100
AcDbText
 73
     1
  0
TEXT
  5
1BE1
330
1BDF
100
AcDbEntity
  8
寸法
 62
     0
100
AcDbText
 10
242.8378485608664
 20
0.0000025042498537
 30
0.0
 40
55.0
  1
PRS800-520GRM-OFR
 11
242.8378485608664
 21
-7.333330829083479
 31
0.0
100
AcDbText
 73
     1
  0
ENDBLK
  5
1BE5
330
1BDF
100
AcDbEntity
  8
0
100
AcDbBlockEnd
  0
BLOCK
  5
1ED0
330
1EC6
100
AcDbEntity
  8
0
 62
     3
100
AcDbBlockBegin
  2
*D16
 70
     1
 10
0.0
 20
0.0
 30
0.0
  3
*D16
  1

  0
LINE
  5
28E7
330
1EC6
100
AcDbEntity
  8
実形
 62
     0
370
    15
100
AcDbLine
 10
612.2194694065009
 20
1683.86010153411
 30
0.0
 11
412.4131539938335
 21
1683.86010153411
 31
0.0
  0
LINE
  5
28E8
330
1EC6
100
AcDbEntity
  8
実形
 62
     0
370
    15
100
AcDbLine
 10
612.2194694065009
 20
1143.86010153411
 30
0.0
 11
412.4131539938333
 21
1143.86010153411
 31
0.0
  0
LINE
  5
28E9
330
1EC6
100
AcDbEntity
  8
実形
 62
     0
370
    15
100
AcDbLine
 10
412.4131539938335
 20
1683.86010153411
 30
0.0
 11
412.4131539938333
 21
1143.86010153411
 31
0.0
  0
INSERT
  5
28EA
330
1EC6
100
AcDbEntity
  8
実形
 62
     0
370
    15
100
AcDbBlockReference
  2
_DotSmall
 10
412.4131539938335
 20
1683.86010153411
 30
0.0
 41
30.0
 42
30.0
 43
30.0
 50
90.0
  0
INSERT
  5
28EB
330
1EC6
100
AcDbEntity
  8
実形
 62
     0
370
    15
100
AcDbBlockReference
  2
_DotSmall
 10
412.4131539938333
 20
1143.86010153411
 30
0.0
 41
30.0
 42
30.0
 43
30.0
 50
270.0
  0
MTEXT
  5
28EC
330
1EC6
100
AcDbEntity
  8
実形
 62
     0
100
AcDbMText
 10
393.6631539938332
 20
1413.86010153411
 30
0.0
 40
25.0
 41
0.0
 71
     5
 72
     1
  1
540
 11
0.0000000000000001
 21
1.0
 31
0.0
 73
     1
 44
1.0
1001
ACAD
1000
MTEXTBEGIN
1070
    73
1070
     1
1070
    44
1040
1.0
1070
    74
1070
     0
1000
MTEXTEND
  0
POINT
  5
28ED
330
1EC6
100
AcDbEntity
  8
Defpoints
 62
     0
100
AcDbPoint
 10
677.2194694065009
 20
1683.86010153411
 30
0.0
  0
POINT
  5
28EE
330
1EC6
100
AcDbEntity
  8
Defpoints
 62
     0
100
AcDbPoint
 10
677.2194694065009
 20
1143.86010153411
 30
0.0
  0
POINT
  5
28EF
330
1EC6
100
AcDbEntity
  8
Defpoints
 62
     0
100
AcDbPoint
 10
412.4131539938333
 20
1143.86010153411
 30
0.0
  0
ENDBLK
  5
1ED1
330
1EC6
100
AcDbEntity
  8
0
 62
     3
100
AcDbBlockEnd
  0
BLOCK
  5
1EED
330
1EE3
100
AcDbEntity
  8
0
 62
     3
100
AcDbBlockBegin
  2
*D17
 70
     1
 10
0.0
 20
0.0
 30
0.0
  3
*D17
  1

  0
LINE
  5
2914
330
1EE3
100
AcDbEntity
  8
実形
 62
     0
370
    15
100
AcDbLine
 10
612.2194694065009
 20
1648.86010153411
 30
0.0
 11
535.9795328742037
 21
1648.86010153411
 31
0.0
  0
LINE
  5
2915
330
1EE3
100
AcDbEntity
  8
実形
 62
     0
370
    15
100
AcDbLine
 10
612.219469406501
 20
1568.86010153411
 30
0.0
 11
535.9795328742037
 21
1568.86010153411
 31
0.0
  0
LINE
  5
2916
330
1EE3
100
AcDbEntity
  8
実形
 62
     0
370
    15
100
AcDbLine
 10
535.9795328742037
 20
1648.86010153411
 30
0.0
 11
535.9795328742037
 21
1568.86010153411
 31
0.0
  0
INSERT
  5
2917
330
1EE3
100
AcDbEntity
  8
実形
 62
     0
370
    15
100
AcDbBlockReference
  2
_DotSmall
 10
535.9795328742037
 20
1648.86010153411
 30
0.0
 41
30.0
 42
30.0
 43
30.0
 50
90.0
  0
INSERT
  5
2918
330
1EE3
100
AcDbEntity
  8
実形
 62
     0
370
    15
100
AcDbBlockReference
  2
_DotSmall
 10
535.9795328742037
 20
1568.86010153411
 30
0.0
 41
30.0
 42
30.0
 43
30.0
 50
270.0
  0
MTEXT
  5
2919
330
1EE3
100
AcDbEntity
  8
実形
 62
     0
100
AcDbMText
 10
517.2295328742035
 20
1608.86010153411
 30
0.0
 40
25.0
 41
0.0
 71
     5
 72
     1
  1
80
 11
0.0000000000000001
 21
1.0
 31
0.0
 73
     1
 44
1.0
1001
ACAD
1000
MTEXTBEGIN
1070
    73
1070
     1
1070
    44
1040
1.0
1070
    74
1070
     0
1000
MTEXTEND
  0
POINT
  5
291A
330
1EE3
100
AcDbEntity
  8
Defpoints
 62
     0
100
AcDbPoint
 10
677.2194694065009
 20
1648.86010153411
 30
0.0
  0
POINT
  5
291B
330
1EE3
100
AcDbEntity
  8
Defpoints
 62
     0
100
AcDbPoint
 10
677.219469406501
 20
1568.86010153411
 30
0.0
  0
POINT
  5
291C
330
1EE3
100
AcDbEntity
  8
Defpoints
 62
     0
100
AcDbPoint
 10
535.9795328742037
 20
1568.86010153411
 30
0.0
  0
ENDBLK
  5
1EEE
330
1EE3
100
AcDbEntity
  8
0
 62
     3
100
AcDbBlockEnd
  0
BLOCK
  5
1F37
330
1F2D
100
AcDbEntity
  8
0
 62
     3
100
AcDbBlockBegin
  2
*D18
 70
     1
 10
0.0
 20
0.0
 30
0.0
  3
*D18
  1

  0
LINE
  5
290B
330
1F2D
100
AcDbEntity
  8
実形
 62
     0
370
    15
100
AcDbLine
 10
612.2194694065009
 20
1568.86010153411
 30
0.0
 11
535.9795328742037
 21
1568.86010153411
 31
0.0
  0
LINE
  5
290C
330
1F2D
100
AcDbEntity
  8
実形
 62
     0
370
    15
100
AcDbLine
 10
612.2194694065009
 20
1193.86010153411
 30
0.0
 11
535.9795328742036
 21
1193.86010153411
 31
0.0
  0
LINE
  5
290D
330
1F2D
100
AcDbEntity
  8
実形
 62
     0
370
    15
100
AcDbLine
 10
535.9795328742037
 20
1568.86010153411
 30
0.0
 11
535.9795328742036
 21
1193.86010153411
 31
0.0
  0
INSERT
  5
290E
330
1F2D
100
AcDbEntity
  8
実形
 62
     0
370
    15
100
AcDbBlockReference
  2
_DotSmall
 10
535.9795328742037
 20
1568.86010153411
 30
0.0
 41
30.0
 42
30.0
 43
30.0
 50
90.0
  0
INSERT
  5
290F
330
1F2D
100
AcDbEntity
  8
実形
 62
     0
370
    15
100
AcDbBlockReference
  2
_DotSmall
 10
535.9795328742036
 20
1193.86010153411
 30
0.0
 41
30.0
 42
30.0
 43
30.0
 50
270.0
  0
MTEXT
  5
2910
330
1F2D
100
AcDbEntity
  8
実形
 62
     0
100
AcDbMText
 10
517.2295328742035
 20
1381.360101534111
 30
0.0
 40
25.0
 41
0.0
 71
     5
 72
     1
  1
375
 11
0.0000000000000001
 21
1.0
 31
0.0
 73
     1
 44
1.0
1001
ACAD
1000
MTEXTBEGIN
1070
    73
1070
     1
1070
    44
1040
1.0
1070
    74
1070
     0
1000
MTEXTEND
  0
POINT
  5
2911
330
1F2D
100
AcDbEntity
  8
Defpoints
 62
     0
100
AcDbPoint
 10
677.2194694065009
 20
1568.86010153411
 30
0.0
  0
POINT
  5
2912
330
1F2D
100
AcDbEntity
  8
Defpoints
 62
     0
100
AcDbPoint
 10
677.2194694065009
 20
1193.86010153411
 30
0.0
  0
POINT
  5
2913
330
1F2D
100
AcDbEntity
  8
Defpoints
 62
     0
100
AcDbPoint
 10
535.9795328742036
 20
1193.86010153411
 30
0.0
  0
ENDBLK
  5
1F38
330
1F2D
100
AcDbEntity
  8
0
 62
     3
100
AcDbBlockEnd
  0
BLOCK
  5
1F55
330
1F4B
100
AcDbEntity
  8
0
 62
     3
100
AcDbBlockBegin
  2
*D19
 70
     1
 10
0.0
 20
0.0
 30
0.0
  3
*D19
  1

  0
LINE
  5
2902
330
1F4B
100
AcDbEntity
  8
実形
 62
     0
370
    15
100
AcDbLine
 10
612.2194694065009
 20
1648.86010153411
 30
0.0
 11
479.0371556738017
 21
1648.86010153411
 31
0.0
  0
LINE
  5
2903
330
1F4B
100
AcDbEntity
  8
実形
 62
     0
370
    15
100
AcDbLine
 10
612.2194694065009
 20
1178.86010153411
 30
0.0
 11
479.0371556738017
 21
1178.86010153411
 31
0.0
  0
LINE
  5
2904
330
1F4B
100
AcDbEntity
  8
実形
 62
     0
370
    15
100
AcDbLine
 10
479.0371556738017
 20
1648.86010153411
 30
0.0
 11
479.0371556738017
 21
1178.86010153411
 31
0.0
  0
INSERT
  5
2905
330
1F4B
100
AcDbEntity
  8
実形
 62
     0
370
    15
100
AcDbBlockReference
  2
_DotSmall
 10
479.0371556738017
 20
1648.86010153411
 30
0.0
 41
30.0
 42
30.0
 43
30.0
 50
90.0
  0
INSERT
  5
2906
330
1F4B
100
AcDbEntity
  8
実形
 62
     0
370
    15
100
AcDbBlockReference
  2
_DotSmall
 10
479.0371556738017
 20
1178.86010153411
 30
0.0
 41
30.0
 42
30.0
 43
30.0
 50
270.0
  0
MTEXT
  5
2907
330
1F4B
100
AcDbEntity
  8
実形
 62
     0
100
AcDbMText
 10
460.2871556738016
 20
1413.86010153411
 30
0.0
 40
25.0
 41
0.0
 71
     5
 72
     1
  1
470
 11
0.0000000000000001
 21
1.0
 31
0.0
 73
     1
 44
1.0
1001
ACAD
1000
MTEXTBEGIN
1070
    73
1070
     1
1070
    44
1040
1.0
1070
    74
1070
     0
1000
MTEXTEND
  0
POINT
  5
2908
330
1F4B
100
AcDbEntity
  8
Defpoints
 62
     0
100
AcDbPoint
 10
677.2194694065009
 20
1648.86010153411
 30
0.0
  0
POINT
  5
2909
330
1F4B
100
AcDbEntity
  8
Defpoints
 62
     0
100
AcDbPoint
 10
677.2194694065009
 20
1178.86010153411
 30
0.0
  0
POINT
  5
290A
330
1F4B
100
AcDbEntity
  8
Defpoints
 62
     0
100
AcDbPoint
 10
479.0371556738017
 20
1178.86010153411
 30
0.0
  0
ENDBLK
  5
1F56
330
1F4B
100
AcDbEntity
  8
0
 62
     3
100
AcDbBlockEnd
  0
BLOCK
  5
1F62
330
1F58
100
AcDbEntity
  8
0
 62
     3
100
AcDbBlockBegin
  2
*D20
 70
     1
 10
0.0
 20
0.0
 30
0.0
  3
*D20
  1

  0
LINE
  5
28DE
330
1F58
100
AcDbEntity
  8
実形
 62
     0
370
    15
100
AcDbLine
 10
612.2194694065009
 20
1683.86010153411
 30
0.0
 11
479.0371556738018
 21
1683.86010153411
 31
0.0
  0
LINE
  5
28DF
330
1F58
100
AcDbEntity
  8
実形
 62
     0
370
    15
100
AcDbLine
 10
612.2194694065009
 20
1143.86010153411
 30
0.0
 11
479.0371556738016
 21
1143.86010153411
 31
0.0
  0
LINE
  5
28E0
330
1F58
100
AcDbEntity
  8
実形
 62
     0
370
    15
100
AcDbLine
 10
479.0371556738018
 20
1683.86010153411
 30
0.0
 11
479.0371556738016
 21
1143.86010153411
 31
0.0
  0
MTEXT
  5
28E1
330
1F58
100
AcDbEntity
  8
実形
 62
     0
100
AcDbMText
 10
446.6587117670205
 20
1170.405656525167
 30
0.0
 40
25.0
 41
0.0
 71
     5
 72
     1
  1
35
 11
0.0000000000000001
 21
1.0
 31
0.0
 73
     1
 44
1.0
1001
ACAD
1000
MTEXTBEGIN
1070
    73
1070
     1
1070
    44
1040
1.0
1070
    74
1070
     0
1000
MTEXTEND
  0
INSERT
  5
28E2
330
1F58
100
AcDbEntity
  8
実形
 62
     0
370
    15
100
AcDbBlockReference
  2
_DotSmall
 10
479.0371556738018
 20
1683.86010153411
 30
0.0
 41
30.0
 42
30.0
 43
30.0
 50
90.0
  0
INSERT
  5
28E3
330
1F58
100
AcDbEntity
  8
実形
 62
     0
370
    15
100
AcDbBlockReference
  2
_DotSmall
 10
479.0371556738016
 20
1143.86010153411
 30
0.0
 41
30.0
 42
30.0
 43
30.0
 50
270.0
  0
POINT
  5
28E4
330
1F58
100
AcDbEntity
  8
Defpoints
 62
     0
100
AcDbPoint
 10
677.2194694065009
 20
1683.86010153411
 30
0.0
  0
POINT
  5
28E5
330
1F58
100
AcDbEntity
  8
Defpoints
 62
     0
100
AcDbPoint
 10
677.2194694065009
 20
1143.86010153411
 30
0.0
  0
POINT
  5
28E6
330
1F58
100
AcDbEntity
  8
Defpoints
 62
     0
100
AcDbPoint
 10
479.0371556738016
 20
1143.86010153411
 30
0.0
  0
ENDBLK
  5
1F63
330
1F58
100
AcDbEntity
  8
0
 62
     3
100
AcDbBlockEnd
  0
BLOCK
  5
1F94
330
1F8A
100
AcDbEntity
  8
0
 62
     3
100
AcDbBlockBegin
  2
*D21
 70
     1
 10
0.0
 20
0.0
 30
0.0
  3
*D21
  1

  0
LINE
  5
28F0
330
1F8A
100
AcDbEntity
  8
実形
 62
     0
370
    15
100
AcDbLine
 10
612.2194694065009
 20
1683.86010153411
 30
0.0
 11
479.0371556738019
 21
1683.86010153411
 31
0.0
  0
LINE
  5
28F1
330
1F8A
100
AcDbEntity
  8
実形
 62
     0
370
    15
100
AcDbLine
 10
612.2194694065009
 20
1143.86010153411
 30
0.0
 11
479.0371556738017
 21
1143.86010153411
 31
0.0
  0
LINE
  5
28F2
330
1F8A
100
AcDbEntity
  8
実形
 62
     0
370
    15
100
AcDbLine
 10
479.0371556738019
 20
1683.86010153411
 30
0.0
 11
479.0371556738017
 21
1143.86010153411
 31
0.0
  0
MTEXT
  5
28F3
330
1F8A
100
AcDbEntity
  8
実形
 62
     0
100
AcDbMText
 10
453.0032215927458
 20
1648.900560911108
 30
0.0
 40
25.0
 41
0.0
 71
     5
 72
     1
  1
35
 11
0.0000000000000001
 21
1.0
 31
0.0
 73
     1
 44
1.0
1001
ACAD
1000
MTEXTBEGIN
1070
    73
1070
     1
1070
    44
1040
1.0
1070
    74
1070
     0
1000
MTEXTEND
  0
INSERT
  5
28F4
330
1F8A
100
AcDbEntity
  8
実形
 62
     0
370
    15
100
AcDbBlockReference
  2
_DotSmall
 10
479.0371556738019
 20
1683.86010153411
 30
0.0
 41
30.0
 42
30.0
 43
30.0
 50
90.0
  0
INSERT
  5
28F5
330
1F8A
100
AcDbEntity
  8
実形
 62
     0
370
    15
100
AcDbBlockReference
  2
_DotSmall
 10
479.0371556738017
 20
1143.86010153411
 30
0.0
 41
30.0
 42
30.0
 43
30.0
 50
270.0
  0
POINT
  5
28F6
330
1F8A
100
AcDbEntity
  8
Defpoints
 62
     0
100
AcDbPoint
 10
677.2194694065009
 20
1683.86010153411
 30
0.0
  0
POINT
  5
28F7
330
1F8A
100
AcDbEntity
  8
Defpoints
 62
     0
100
AcDbPoint
 10
677.2194694065009
 20
1143.86010153411
 30
0.0
  0
POINT
  5
28F8
330
1F8A
100
AcDbEntity
  8
Defpoints
 62
     0
100
AcDbPoint
 10
479.0371556738017
 20
1143.86010153411
 30
0.0
  0
ENDBLK
  5
1F95
330
1F8A
100
AcDbEntity
  8
0
 62
     3
100
AcDbBlockEnd
  0
BLOCK
  5
1FC5
330
1FBB
100
AcDbEntity
  8
0
 62
     3
100
AcDbBlockBegin
  2
*D22
 70
     1
 10
0.0
 20
0.0
 30
0.0
  3
*D22
  1

  0
LINE
  5
28F9
330
1FBB
100
AcDbEntity
  8
実形
 62
     0
370
    15
100
AcDbLine
 10
612.2194694065009
 20
1648.86010153411
 30
0.0
 11
535.9795328742037
 21
1648.86010153411
 31
0.0
  0
LINE
  5
28FA
330
1FBB
100
AcDbEntity
  8
実形
 62
     0
370
    15
100
AcDbLine
 10
612.2194694065009
 20
1178.86010153411
 30
0.0
 11
535.9795328742036
 21
1178.86010153411
 31
0.0
  0
LINE
  5
28FB
330
1FBB
100
AcDbEntity
  8
実形
 62
     0
370
    15
100
AcDbLine
 10
535.9795328742037
 20
1648.86010153411
 30
0.0
 11
535.9795328742036
 21
1178.86010153411
 31
0.0
  0
MTEXT
  5
28FC
330
1FBB
100
AcDbEntity
  8
実形
 62
     0
100
AcDbMText
 10
507.2649173593871
 20
1205.712909372276
 30
0.0
 40
25.0
 41
0.0
 71
     5
 72
     1
  1
15
 11
0.0000000000000001
 21
1.0
 31
0.0
 73
     1
 44
1.0
1001
ACAD
1000
MTEXTBEGIN
1070
    73
1070
     1
1070
    44
1040
1.0
1070
    74
1070
     0
1000
MTEXTEND
  0
INSERT
  5
28FD
330
1FBB
100
AcDbEntity
  8
実形
 62
     0
370
    15
100
AcDbBlockReference
  2
_DotSmall
 10
535.9795328742037
 20
1648.86010153411
 30
0.0
 41
30.0
 42
30.0
 43
30.0
 50
90.0
  0
INSERT
  5
28FE
330
1FBB
100
AcDbEntity
  8
実形
 62
     0
370
    15
100
AcDbBlockReference
  2
_DotSmall
 10
535.9795328742036
 20
1178.86010153411
 30
0.0
 41
30.0
 42
30.0
 43
30.0
 50
270.0
  0
POINT
  5
28FF
330
1FBB
100
AcDbEntity
  8
Defpoints
 62
     0
100
AcDbPoint
 10
677.2194694065009
 20
1648.86010153411
 30
0.0
  0
POINT
  5
2900
330
1FBB
100
AcDbEntity
  8
Defpoints
 62
     0
100
AcDbPoint
 10
677.2194694065009
 20
1178.86010153411
 30
0.0
  0
POINT
  5
2901
330
1FBB
100
AcDbEntity
  8
Defpoints
 62
     0
100
AcDbPoint
 10
535.9795328742036
 20
1178.86010153411
 30
0.0
  0
ENDBLK
  5
1FC6
330
1FBB
100
AcDbEntity
  8
0
 62
     3
100
AcDbBlockEnd
  0
BLOCK
  5
205A
330
2050
100
AcDbEntity
  8
0
 62
     3
100
AcDbBlockBegin
  2
*D23
 70
     1
 10
0.0
 20
0.0
 30
0.0
  3
*D23
  1

  0
LINE
  5
2953
330
2050
100
AcDbEntity
  8
実形
 62
     0
370
    15
100
AcDbLine
 10
709.2194694065011
 20
1090.833394069355
 30
0.0
 11
709.2194694065011
 21
1036.807958926578
 31
0.0
  0
LINE
  5
2954
330
2050
100
AcDbEntity
  8
実形
 62
     0
370
    15
100
AcDbLine
 10
1199.219469406501
 20
1090.833394069355
 30
0.0
 11
1199.219469406501
 21
1036.807958926578
 31
0.0
  0
LINE
  5
2955
330
2050
100
AcDbEntity
  8
実形
 62
     0
370
    15
100
AcDbLine
 10
709.2194694065011
 20
1036.807958926578
 30
0.0
 11
1199.219469406501
 21
1036.807958926578
 31
0.0
  0
MTEXT
  5
2956
330
2050
100
AcDbEntity
  8
実形
 62
     0
100
AcDbMText
 10
736.8733243192401
 20
1057.436532268721
 30
0.0
 40
25.0
 41
0.0
 71
     5
 72
     1
  1
15
 73
     1
 44
1.0
1001
ACAD
1000
MTEXTBEGIN
1070
    73
1070
     1
1070
    44
1040
1.0
1070
    74
1070
     0
1000
MTEXTEND
  0
INSERT
  5
2957
330
2050
100
AcDbEntity
  8
実形
 62
     0
370
    15
100
AcDbBlockReference
  2
_DotSmall
 10
709.2194694065011
 20
1036.807958926578
 30
0.0
 41
30.0
 42
30.0
 43
30.0
 50
180.0
  0
INSERT
  5
2958
330
2050
100
AcDbEntity
  8
実形
 62
     0
370
    15
100
AcDbBlockReference
  2
_DotSmall
 10
1199.219469406501
 20
1036.807958926578
 30
0.0
 41
30.0
 42
30.0
 43
30.0
  0
POINT
  5
2959
330
2050
100
AcDbEntity
  8
Defpoints
 62
     0
100
AcDbPoint
 10
709.2194694065011
 20
1155.833394069355
 30
0.0
  0
POINT
  5
295A
330
2050
100
AcDbEntity
  8
Defpoints
 62
     0
100
AcDbPoint
 10
1199.219469406501
 20
1155.833394069355
 30
0.0
  0
POINT
  5
295B
330
2050
100
AcDbEntity
  8
Defpoints
 62
     0
100
AcDbPoint
 10
1199.219469406501
 20
1036.807958926578
 30
0.0
  0
ENDBLK
  5
205B
330
2050
100
AcDbEntity
  8
0
 62
     3
100
AcDbBlockEnd
  0
BLOCK
  5
208A
330
2080
100
AcDbEntity
  8
0
 62
     3
100
AcDbBlockBegin
  2
*D24
 70
     1
 10
0.0
 20
0.0
 30
0.0
  3
*D24
  1

  0
LINE
  5
294A
330
2080
100
AcDbEntity
  8
実形
 62
     0
370
    15
100
AcDbLine
 10
694.219469406501
 20
1090.833394069355
 30
0.0
 11
694.219469406501
 21
978.3996316766378
 31
0.0
  0
LINE
  5
294B
330
2080
100
AcDbEntity
  8
実形
 62
     0
370
    15
100
AcDbLine
 10
1214.219469406501
 20
1090.833394069355
 30
0.0
 11
1214.219469406501
 21
978.3996316766378
 31
0.0
  0
LINE
  5
294C
330
2080
100
AcDbEntity
  8
実形
 62
     0
370
    15
100
AcDbLine
 10
694.219469406501
 20
978.3996316766378
 30
0.0
 11
1214.219469406501
 21
978.3996316766378
 31
0.0
  0
INSERT
  5
294D
330
2080
100
AcDbEntity
  8
実形
 62
     0
370
    15
100
AcDbBlockReference
  2
_DotSmall
 10
694.219469406501
 20
978.3996316766378
 30
0.0
 41
30.0
 42
30.0
 43
30.0
 50
180.0
  0
INSERT
  5
294E
330
2080
100
AcDbEntity
  8
実形
 62
     0
370
    15
100
AcDbBlockReference
  2
_DotSmall
 10
1214.219469406501
 20
978.3996316766378
 30
0.0
 41
30.0
 42
30.0
 43
30.0
  0
MTEXT
  5
294F
330
2080
100
AcDbEntity
  8
実形
 62
     0
100
AcDbMText
 10
954.219469406501
 20
997.1496316766378
 30
0.0
 40
25.0
 41
0.0
 71
     5
 72
     1
  1
520
 73
     1
 44
1.0
1001
ACAD
1000
MTEXTBEGIN
1070
    73
1070
     1
1070
    44
1040
1.0
1070
    74
1070
     0
1000
MTEXTEND
  0
POINT
  5
2950
330
2080
100
AcDbEntity
  8
Defpoints
 62
     0
100
AcDbPoint
 10
694.219469406501
 20
1155.833394069355
 30
0.0
  0
POINT
  5
2951
330
2080
100
AcDbEntity
  8
Defpoints
 62
     0
100
AcDbPoint
 10
1214.219469406501
 20
1155.833394069355
 30
0.0
  0
POINT
  5
2952
330
2080
100
AcDbEntity
  8
Defpoints
 62
     0
100
AcDbPoint
 10
1214.219469406501
 20
978.3996316766378
 30
0.0
  0
ENDBLK
  5
208B
330
2080
100
AcDbEntity
  8
0
 62
     3
100
AcDbBlockEnd
  0
BLOCK
  5
20A0
330
2096
100
AcDbEntity
  8
0
 62
     3
100
AcDbBlockBegin
  2
*D25
 70
     1
 10
0.0
 20
0.0
 30
0.0
  3
*D25
  1

  0
LINE
  5
2941
330
2096
100
AcDbEntity
  8
実形
 62
     0
370
    15
100
AcDbLine
 10
694.219469406501
 20
1090.833394069355
 30
0.0
 11
694.219469406501
 21
1036.807958926578
 31
0.0
  0
LINE
  5
2942
330
2096
100
AcDbEntity
  8
実形
 62
     0
370
    15
100
AcDbLine
 10
1214.219469406501
 20
1090.833394069355
 30
0.0
 11
1214.219469406501
 21
1036.807958926578
 31
0.0
  0
LINE
  5
2943
330
2096
100
AcDbEntity
  8
実形
 62
     0
370
    15
100
AcDbLine
 10
694.219469406501
 20
1036.807958926578
 30
0.0
 11
1214.219469406501
 21
1036.807958926578
 31
0.0
  0
MTEXT
  5
2944
330
2096
100
AcDbEntity
  8
実形
 62
     0
100
AcDbMText
 10
1166.31348566579
 20
1055.557958926578
 30
0.0
 40
25.0
 41
0.0
 71
     5
 72
     1
  1
15
 73
     1
 44
1.0
1001
ACAD
1000
MTEXTBEGIN
1070
    73
1070
     1
1070
    44
1040
1.0
1070
    74
1070
     0
1000
MTEXTEND
  0
INSERT
  5
2945
330
2096
100
AcDbEntity
  8
実形
 62
     0
370
    15
100
AcDbBlockReference
  2
_DotSmall
 10
694.219469406501
 20
1036.807958926578
 30
0.0
 41
30.0
 42
30.0
 43
30.0
 50
180.0
  0
INSERT
  5
2946
330
2096
100
AcDbEntity
  8
実形
 62
     0
370
    15
100
AcDbBlockReference
  2
_DotSmall
 10
1214.219469406501
 20
1036.807958926578
 30
0.0
 41
30.0
 42
30.0
 43
30.0
  0
POINT
  5
2947
330
2096
100
AcDbEntity
  8
Defpoints
 62
     0
100
AcDbPoint
 10
694.219469406501
 20
1155.833394069355
 30
0.0
  0
POINT
  5
2948
330
2096
100
AcDbEntity
  8
Defpoints
 62
     0
100
AcDbPoint
 10
1214.219469406501
 20
1155.833394069355
 30
0.0
  0
POINT
  5
2949
330
2096
100
AcDbEntity
  8
Defpoints
 62
     0
100
AcDbPoint
 10
1214.219469406501
 20
1036.807958926578
 30
0.0
  0
ENDBLK
  5
20A1
330
2096
100
AcDbEntity
  8
0
 62
     3
100
AcDbBlockEnd
  0
BLOCK
  5
20E4
330
20DA
100
AcDbEntity
  8
0
100
AcDbBlockBegin
  2
*D26
 70
     1
 10
0.0
 20
0.0
 30
0.0
  3
*D26
  1

  0
LINE
  5
2938
330
20DA
100
AcDbEntity
  8
実形
 62
     0
370
    15
100
AcDbLine
 10
694.219469406501
 20
1090.833394069355
 30
0.0
 11
694.219469406501
 21
1036.807958926578
 31
0.0
  0
LINE
  5
2939
330
20DA
100
AcDbEntity
  8
実形
 62
     0
370
    15
100
AcDbLine
 10
1214.219469406501
 20
1090.833394069355
 30
0.0
 11
1214.219469406501
 21
1036.807958926578
 31
0.0
  0
LINE
  5
293A
330
20DA
100
AcDbEntity
  8
実形
 62
     0
370
    15
100
AcDbLine
 10
694.219469406501
 20
1036.807958926578
 30
0.0
 11
1214.219469406501
 21
1036.807958926578
 31
0.0
  0
INSERT
  5
293B
330
20DA
100
AcDbEntity
  8
実形
 62
     0
370
    15
100
AcDbBlockReference
  2
_DotSmall
 10
694.219469406501
 20
1036.807958926578
 30
0.0
 41
30.0
 42
30.0
 43
30.0
 50
180.0
  0
INSERT
  5
293C
330
20DA
100
AcDbEntity
  8
実形
 62
     0
370
    15
100
AcDbBlockReference
  2
_DotSmall
 10
1214.219469406501
 20
1036.807958926578
 30
0.0
 41
30.0
 42
30.0
 43
30.0
  0
MTEXT
  5
293D
330
20DA
100
AcDbEntity
  8
実形
 62
     0
100
AcDbMText
 10
954.2194694065013
 20
1055.557958926578
 30
0.0
 40
25.0
 41
0.0
 71
     5
 72
     1
  1
490
 73
     1
 44
1.0
1001
ACAD
1000
MTEXTBEGIN
1070
    73
1070
     1
1070
    44
1040
1.0
1070
    74
1070
     0
1000
MTEXTEND
  0
POINT
  5
293E
330
20DA
100
AcDbEntity
  8
Defpoints
 62
     0
100
AcDbPoint
 10
694.219469406501
 20
1155.833394069355
 30
0.0
  0
POINT
  5
293F
330
20DA
100
AcDbEntity
  8
Defpoints
 62
     0
100
AcDbPoint
 10
1214.219469406501
 20
1155.833394069355
 30
0.0
  0
POINT
  5
2940
330
20DA
100
AcDbEntity
  8
Defpoints
 62
     0
100
AcDbPoint
 10
1214.219469406501
 20
1036.807958926578
 30
0.0
  0
ENDBLK
  5
20E5
330
20DA
100
AcDbEntity
  8
0
100
AcDbBlockEnd
  0
BLOCK
  5
212C
330
2122
100
AcDbEntity
  8
0
100
AcDbBlockBegin
  2
*D27
 70
     1
 10
0.0
 20
0.0
 30
0.0
  3
*D27
  1

  0
LINE
  5
292F
330
2122
100
AcDbEntity
  8
実形
 62
     0
370
    15
100
AcDbLine
 10
659.219469406501
 20
1090.833394069355
 30
0.0
 11
659.219469406501
 21
920.1151315116613
 31
0.0
  0
LINE
  5
2930
330
2122
100
AcDbEntity
  8
実形
 62
     0
370
    15
100
AcDbLine
 10
1249.219469406501
 20
1090.833394069355
 30
0.0
 11
1249.219469406501
 21
920.1151315116613
 31
0.0
  0
LINE
  5
2931
330
2122
100
AcDbEntity
  8
実形
 62
     0
370
    15
100
AcDbLine
 10
659.219469406501
 20
920.1151315116613
 30
0.0
 11
1249.219469406501
 21
920.1151315116613
 31
0.0
  0
INSERT
  5
2932
330
2122
100
AcDbEntity
  8
実形
 62
     0
370
    15
100
AcDbBlockReference
  2
_DotSmall
 10
659.219469406501
 20
920.1151315116613
 30
0.0
 41
30.0
 42
30.0
 43
30.0
 50
180.0
  0
INSERT
  5
2933
330
2122
100
AcDbEntity
  8
実形
 62
     0
370
    15
100
AcDbBlockReference
  2
_DotSmall
 10
1249.219469406501
 20
920.1151315116613
 30
0.0
 41
30.0
 42
30.0
 43
30.0
  0
MTEXT
  5
2934
330
2122
100
AcDbEntity
  8
実形
 62
     0
100
AcDbMText
 10
954.2194694065011
 20
938.8651315116613
 30
0.0
 40
25.0
 41
0.0
 71
     5
 72
     1
  1
590
 73
     1
 44
1.0
1001
ACAD
1000
MTEXTBEGIN
1070
    73
1070
     1
1070
    44
1040
1.0
1070
    74
1070
     0
1000
MTEXTEND
  0
POINT
  5
2935
330
2122
100
AcDbEntity
  8
Defpoints
 62
     0
100
AcDbPoint
 10
659.219469406501
 20
1155.833394069355
 30
0.0
  0
POINT
  5
2936
330
2122
100
AcDbEntity
  8
Defpoints
 62
     0
100
AcDbPoint
 10
1249.219469406501
 20
1155.833394069356
 30
0.0
  0
POINT
  5
2937
330
2122
100
AcDbEntity
  8
Defpoints
 62
     0
100
AcDbPoint
 10
1249.219469406501
 20
920.1151315116613
 30
0.0
  0
ENDBLK
  5
212D
330
2122
100
AcDbEntity
  8
0
100
AcDbBlockEnd
  0
BLOCK
  5
2139
330
212F
100
AcDbEntity
  8
0
100
AcDbBlockBegin
  2
*D28
 70
     1
 10
0.0
 20
0.0
 30
0.0
  3
*D28
  1

  0
LINE
  5
291D
330
212F
100
AcDbEntity
  8
実形
 62
     0
370
    15
100
AcDbLine
 10
659.219469406501
 20
1090.833394069355
 30
0.0
 11
659.219469406501
 21
978.3996316766378
 31
0.0
  0
LINE
  5
291E
330
212F
100
AcDbEntity
  8
実形
 62
     0
370
    15
100
AcDbLine
 10
1249.219469406501
 20
1090.833394069355
 30
0.0
 11
1249.219469406501
 21
978.3996316766378
 31
0.0
  0
LINE
  5
291F
330
212F
100
AcDbEntity
  8
実形
 62
     0
370
    15
100
AcDbLine
 10
659.219469406501
 20
978.3996316766378
 30
0.0
 11
1249.219469406501
 21
978.3996316766378
 31
0.0
  0
MTEXT
  5
2920
330
212F
100
AcDbEntity
  8
実形
 62
     0
100
AcDbMText
 10
1183.030652624147
 20
1002.285437058329
 30
0.0
 40
25.0
 41
0.0
 71
     5
 72
     1
  1
35
 73
     1
 44
1.0
1001
ACAD
1000
MTEXTBEGIN
1070
    73
1070
     1
1070
    44
1040
1.0
1070
    74
1070
     0
1000
MTEXTEND
  0
INSERT
  5
2921
330
212F
100
AcDbEntity
  8
実形
 62
     0
370
    15
100
AcDbBlockReference
  2
_DotSmall
 10
659.219469406501
 20
978.3996316766378
 30
0.0
 41
30.0
 42
30.0
 43
30.0
 50
180.0
  0
INSERT
  5
2922
330
212F
100
AcDbEntity
  8
実形
 62
     0
370
    15
100
AcDbBlockReference
  2
_DotSmall
 10
1249.219469406501
 20
978.3996316766378
 30
0.0
 41
30.0
 42
30.0
 43
30.0
  0
POINT
  5
2923
330
212F
100
AcDbEntity
  8
Defpoints
 62
     0
100
AcDbPoint
 10
659.219469406501
 20
1155.833394069355
 30
0.0
  0
POINT
  5
2924
330
212F
100
AcDbEntity
  8
Defpoints
 62
     0
100
AcDbPoint
 10
1249.219469406501
 20
1155.833394069356
 30
0.0
  0
POINT
  5
2925
330
212F
100
AcDbEntity
  8
Defpoints
 62
     0
100
AcDbPoint
 10
1249.219469406501
 20
978.3996316766378
 30
0.0
  0
ENDBLK
  5
213A
330
212F
100
AcDbEntity
  8
0
100
AcDbBlockEnd
  0
BLOCK
  5
2180
330
2176
100
AcDbEntity
  8
0
100
AcDbBlockBegin
  2
*D29
 70
     1
 10
0.0
 20
0.0
 30
0.0
  3
*D29
  1

  0
LINE
  5
2926
330
2176
100
AcDbEntity
  8
実形
 62
     0
370
    15
100
AcDbLine
 10
659.219469406501
 20
1090.833394069355
 30
0.0
 11
659.219469406501
 21
978.3996316766378
 31
0.0
  0
LINE
  5
2927
330
2176
100
AcDbEntity
  8
実形
 62
     0
370
    15
100
AcDbLine
 10
1249.219469406501
 20
1075.374773889132
 30
0.0
 11
1249.219469406501
 21
978.3996316766378
 31
0.0
  0
LINE
  5
2928
330
2176
100
AcDbEntity
  8
実形
 62
     0
370
    15
100
AcDbLine
 10
659.219469406501
 20
978.3996316766378
 30
0.0
 11
1249.219469406501
 21
978.3996316766378
 31
0.0
  0
MTEXT
  5
2929
330
2176
100
AcDbEntity
  8
実形
 62
     0
100
AcDbMText
 10
722.5021062038095
 20
1001.821025430189
 30
0.0
 40
25.0
 41
0.0
 71
     5
 72
     1
  1
35
 73
     1
 44
1.0
1001
ACAD
1000
MTEXTBEGIN
1070
    73
1070
     1
1070
    44
1040
1.0
1070
    74
1070
     0
1000
MTEXTEND
  0
INSERT
  5
292A
330
2176
100
AcDbEntity
  8
実形
 62
     0
370
    15
100
AcDbBlockReference
  2
_DotSmall
 10
659.219469406501
 20
978.3996316766378
 30
0.0
 41
30.0
 42
30.0
 43
30.0
 50
180.0
  0
INSERT
  5
292B
330
2176
100
AcDbEntity
  8
実形
 62
     0
370
    15
100
AcDbBlockReference
  2
_DotSmall
 10
1249.219469406501
 20
978.3996316766378
 30
0.0
 41
30.0
 42
30.0
 43
30.0
  0
POINT
  5
292C
330
2176
100
AcDbEntity
  8
Defpoints
 62
     0
100
AcDbPoint
 10
659.219469406501
 20
1155.833394069355
 30
0.0
  0
POINT
  5
292D
330
2176
100
AcDbEntity
  8
Defpoints
 62
     0
100
AcDbPoint
 10
1249.219469406501
 20
1140.374773889132
 30
0.0
  0
POINT
  5
292E
330
2176
100
AcDbEntity
  8
Defpoints
 62
     0
100
AcDbPoint
 10
1249.219469406501
 20
978.3996316766378
 30
0.0
  0
ENDBLK
  5
2181
330
2176
100
AcDbEntity
  8
0
100
AcDbBlockEnd
  0
BLOCK
  5
289D
330
2893
100
AcDbEntity
  8
0
 62
     3
100
AcDbBlockBegin
  2
*D30
 70
     1
 10
0.0
 20
0.0
 30
0.0
  3
*D30
  1

  0
LINE
  5
28AB
330
2893
100
AcDbEntity
  8
実形
 62
     0
370
    15
100
AcDbLine
 10
629.2194694065013
 20
721.2929064030616
 30
0.0
 11
576.0988019500784
 21
721.2929064030616
 31
0.0
  0
LINE
  5
28AC
330
2893
100
AcDbEntity
  8
実形
 62
     0
370
    15
100
AcDbLine
 10
629.2194694065016
 20
706.2929064030615
 30
0.0
 11
576.0988019500784
 21
706.2929064030615
 31
0.0
  0
LINE
  5
28AD
330
2893
100
AcDbEntity
  8
実形
 62
     0
370
    15
100
AcDbLine
 10
576.0988019500784
 20
721.2929064030616
 30
0.0
 11
576.0988019500784
 21
706.2929064030615
 31
0.0
  0
MTEXT
  5
28AE
330
2893
100
AcDbEntity
  8
実形
 62
     0
100
AcDbMText
 10
542.2013255389648
 20
754.6594034738628
 30
0.0
 40
25.0
 41
0.0
 71
     5
 72
     1
  1
15
 11
0.0000000000000001
 21
1.0
 31
0.0
 73
     1
 44
1.0
1001
ACAD
1000
MTEXTBEGIN
1070
    73
1070
     1
1070
    44
1040
1.0
1070
    74
1070
     0
1000
MTEXTEND
  0
INSERT
  5
28AF
330
2893
100
AcDbEntity
  8
実形
 62
     0
370
    15
100
AcDbBlockReference
  2
_DotSmall
 10
576.0988019500784
 20
721.2929064030616
 30
0.0
 41
30.0
 42
30.0
 43
30.0
 50
90.0
  0
INSERT
  5
28B0
330
2893
100
AcDbEntity
  8
実形
 62
     0
370
    15
100
AcDbBlockReference
  2
_DotSmall
 10
576.0988019500784
 20
706.2929064030615
 30
0.0
 41
30.0
 42
30.0
 43
30.0
 50
270.0
  0
POINT
  5
28B1
330
2893
100
AcDbEntity
  8
Defpoints
 62
     0
100
AcDbPoint
 10
694.2194694065014
 20
721.2929064030616
 30
0.0
  0
POINT
  5
28B2
330
2893
100
AcDbEntity
  8
Defpoints
 62
     0
100
AcDbPoint
 10
694.2194694065015
 20
706.2929064030615
 30
0.0
  0
POINT
  5
28B3
330
2893
100
AcDbEntity
  8
Defpoints
 62
     0
100
AcDbPoint
 10
576.0988019500784
 20
706.2929064030615
 30
0.0
  0
ENDBLK
  5
289E
330
2893
100
AcDbEntity
  8
0
 62
     3
100
AcDbBlockEnd
  0
BLOCK
  5
28A9
330
289F
100
AcDbEntity
  8
0
 62
     3
100
AcDbBlockBegin
  2
*D31
 70
     1
 10
0.0
 20
0.0
 30
0.0
  3
*D31
  1

  0
LINE
  5
28B4
330
289F
100
AcDbEntity
  8
実形
 62
     0
370
    15
100
AcDbLine
 10
593.8433360776399
 20
721.2929064030616
 30
0.0
 11
489.5579035118919
 21
721.2929064030616
 31
0.0
  0
LINE
  5
28B5
330
289F
100
AcDbEntity
  8
実形
 62
     0
370
    15
100
AcDbLine
 10
593.8433360776399
 20
531.2929064030616
 30
0.0
 11
489.5579035118918
 21
531.2929064030616
 31
0.0
  0
LINE
  5
28B6
330
289F
100
AcDbEntity
  8
実形
 62
     0
370
    15
100
AcDbLine
 10
489.5579035118919
 20
721.2929064030616
 30
0.0
 11
489.5579035118918
 21
531.2929064030616
 31
0.0
  0
INSERT
  5
28B7
330
289F
100
AcDbEntity
  8
実形
 62
     0
370
    15
100
AcDbBlockReference
  2
_DotSmall
 10
489.5579035118919
 20
721.2929064030616
 30
0.0
 41
30.0
 42
30.0
 43
30.0
 50
90.0
  0
INSERT
  5
28B8
330
289F
100
AcDbEntity
  8
実形
 62
     0
370
    15
100
AcDbBlockReference
  2
_DotSmall
 10
489.5579035118918
 20
531.2929064030616
 30
0.0
 41
30.0
 42
30.0
 43
30.0
 50
270.0
  0
MTEXT
  5
28B9
330
289F
100
AcDbEntity
  8
実形
 62
     0
100
AcDbMText
 10
470.8079035118918
 20
626.2929064030617
 30
0.0
 40
25.0
 41
0.0
 71
     5
 72
     1
  1
190
 11
0.0000000000000001
 21
1.0
 31
0.0
 73
     1
 44
1.0
1001
ACAD
1000
MTEXTBEGIN
1070
    73
1070
     1
1070
    44
1040
1.0
1070
    74
1070
     0
1000
MTEXTEND
  0
POINT
  5
28BA
330
289F
100
AcDbEntity
  8
Defpoints
 62
     0
100
AcDbPoint
 10
658.8433360776399
 20
721.2929064030616
 30
0.0
  0
POINT
  5
28BB
330
289F
100
AcDbEntity
  8
Defpoints
 62
     0
100
AcDbPoint
 10
658.8433360776399
 20
531.2929064030616
 30
0.0
  0
POINT
  5
28BC
330
289F
100
AcDbEntity
  8
Defpoints
 62
     0
100
AcDbPoint
 10
489.5579035118918
 20
531.2929064030616
 30
0.0
  0
ENDBLK
  5
28AA
330
289F
100
AcDbEntity
  8
0
 62
     3
100
AcDbBlockEnd
  0
ENDSEC
  0
SECTION
  2
ENTITIES
  0
LINE
  5
9C
330
1F
100
AcDbEntity
  8
補助
100
AcDbLine
 10
111.0
 20
4.0
 30
0.0
 11
2784.0
 21
4.0
 31
0.0
  0
LINE
  5
A0
330
1F
100
AcDbEntity
  8
補助
100
AcDbLine
 10
2784.0
 20
2024.0
 30
0.0
 11
111.0
 21
2024.0
 31
0.0
  0
LINE
  5
A5
330
1F
100
AcDbEntity
  8
補助
100
AcDbLine
 10
2784.0
 20
4.0
 30
0.0
 11
2784.0
 21
2024.0
 31
0.0
  0
LINE
  5
A8
330
1F
100
AcDbEntity
  8
補助
100
AcDbLine
 10
2184.0
 20
69.0
 30
0.0
 11
2184.0
 21
199.0
 31
0.0
  0
LINE
  5
A9
330
1F
100
AcDbEntity
  8
補助
100
AcDbLine
 10
2184.0
 20
69.0
 30
0.0
 11
2784.0
 21
69.0
 31
0.0
  0
LINE
  5
AA
330
1F
100
AcDbEntity
  8
補助
100
AcDbLine
 10
2064.0
 20
134.0
 30
0.0
 11
2784.0
 21
134.0
 31
0.0
  0
LINE
  5
AB
330
1F
100
AcDbEntity
  8
補助
100
AcDbLine
 10
2064.0
 20
199.0
 30
0.0
 11
2784.0
 21
199.0
 31
0.0
  0
LINE
  5
AD
330
1F
100
AcDbEntity
  8
補助
100
AcDbLine
 10
2784.0
 20
4.0
 30
0.0
 11
2784.0
 21
69.0
 31
0.0
  0
LINE
  5
260
330
1F
100
AcDbEntity
  8
0
100
AcDbLine
 10
1214.219469406501
 20
1258.86010153411
 30
0.0
 11
1214.219469406501
 21
1568.860101534109
 31
0.0
  0
LINE
  5
262
330
1F
100
AcDbEntity
  8
0
100
AcDbLine
 10
694.2194694065008
 20
1503.86010153411
 30
0.0
 11
694.2194694065009
 21
1258.86010153411
 31
0.0
  0
LINE
  5
32D
330
1F
100
AcDbEntity
  8
0
100
AcDbLine
 10
1214.219469406501
 20
1258.86010153411
 30
0.0
 11
1214.219469406501
 21
1458.86010153411
 31
0.0
  0
CIRCLE
  5
334
330
1F
100
AcDbEntity
  8
0
100
AcDbCircle
 10
954.219469406501
 20
1488.86010153411
 30
0.0
 40
79.0
  0
CIRCLE
  5
335
330
1F
100
AcDbEntity
  8
0
100
AcDbCircle
 10
954.219469406501
 20
1488.86010153411
 30
0.0
 40
90.5
  0
DIMENSION
  5
384
330
1F
100
AcDbEntity
  8
0
100
AcDbDimension
  2
*D4
 10
1110.681658380447
 20
1648.86010153411
 30
0.0
 11
1110.681658380447
 21
1533.410495785237
 31
0.0
 70
   160
 71
     5
 42
160.0
  3
ISO-25
100
AcDbAlignedDimension
 13
1011.834439861694
 23
1488.86010153411
 33
0.0
 14
967.977907243228
 24
1648.86010153411
 34
0.0
 50
90.0
100
AcDbRotatedDimension
  0
LINE
  5
39A
330
1F
100
AcDbEntity
  8
Cen
 48
0.8
100
AcDbLine
 10
1088.327031085579
 20
1488.86010153411
 30
0.0
 11
820.1119077274224
 21
1488.86010153411
 31
0.0
  0
LINE
  5
39B
330
1F
100
AcDbEntity
  8
Cen
 48
0.8
100
AcDbLine
 10
954.219469406501
 20
1366.382700623617
 30
0.0
 11
954.219469406501
 21
1593.337502444603
 31
0.0
  0
DIMENSION
  5
3BF
330
1F
100
AcDbEntity
  8
0
100
AcDbDimension
  2
*D6
 10
1084.219469406501
 20
1781.236161018235
 30
0.0
 11
954.219469406501
 21
1799.986161018235
 31
0.0
 70
    32
 71
     5
 42
260.0
  3
ISO-25
100
AcDbAlignedDimension
 13
824.2194694065011
 23
1699.725195104287
 33
0.0
 14
1084.219469406501
 24
1699.725195104287
 34
0.0
100
AcDbRotatedDimension
  0
LINE
  5
3DD
330
1F
100
AcDbEntity
  8
Cen
100
AcDbLine
 10
1084.219469406501
 20
1763.741538093873
 30
0.0
 11
1084.219469406501
 21
1601.86010153411
 31
0.0
  0
LINE
  5
3DE
330
1F
100
AcDbEntity
  8
Cen
100
AcDbLine
 10
824.2194694065011
 20
1766.194943536106
 30
0.0
 11
824.2194694065011
 21
1601.86010153411
 31
0.0
  0
CIRCLE
  5
3DF
330
1F
100
AcDbEntity
  8
Cen
100
AcDbCircle
 10
1084.219469406501
 20
1633.86010153411
 30
0.0
 40
6.0
  0
CIRCLE
  5
3E0
330
1F
100
AcDbEntity
  8
Cen
100
AcDbCircle
 10
824.2194694065011
 20
1633.86010153411
 30
0.0
 40
6.0
  0
DIMENSION
  5
473
330
1F
100
AcDbEntity
  8
0
100
AcDbDimension
  2
*D7
 10
874.7194694065008
 20
402.8984317050462
 30
0.0
 11
954.219469406501
 21
421.6484317050462
 31
0.0
 70
    32
  1
159
 71
     5
 42
159.0000000000002
  3
ISO-25
100
AcDbAlignedDimension
 13
1033.719469406501
 23
524.2929064030613
 33
0.0
 14
874.7194694065008
 24
524.2929064030615
 34
0.0
100
AcDbRotatedDimension
  0
DIMENSION
  5
480
330
1F
100
AcDbEntity
  8
0
100
AcDbDimension
  2
*D8
 10
863.719469406501
 20
633.445930941033
 30
0.0
 11
954.219469406501
 21
652.195930941033
 31
0.0
 70
    32
 71
     5
 42
181.0
  3
ISO-25
100
AcDbAlignedDimension
 13
1044.719469406501
 23
531.2929064030613
 33
0.0
 14
863.719469406501
 24
531.2929064030615
 34
0.0
100
AcDbRotatedDimension
  0
LINE
  5
48E
330
1F
100
AcDbEntity
  8
Cen
100
AcDbLine
 10
954.219469406501
 20
614.5984983582966
 30
0.0
 11
954.219469406501
 21
500.0383644579369
 31
0.0
  0
LINE
  5
48F
330
1F
100
AcDbEntity
  8
0
100
AcDbLine
 10
1623.676615367452
 20
1175.86010153411
 30
0.0
 11
1623.676615367452
 21
1161.86010153411
 31
0.0
  0
LINE
  5
49D
330
1F
100
AcDbEntity
  8
0
100
AcDbLine
 10
1638.676615367452
 20
1190.86010153411
 30
0.0
 11
1638.676615367452
 21
1181.86010153411
 31
0.0
  0
LINE
  5
49E
330
1F
100
AcDbEntity
  8
0
100
AcDbLine
 10
1813.676615367453
 20
1538.860101534109
 30
0.0
 11
1813.676615367453
 21
1399.235101534114
 31
0.0
  0
LINE
  5
4AE
330
1F
100
AcDbEntity
  8
Cen
100
AcDbLine
 10
1719.082785587245
 20
1487.86010153411
 30
0.0
 11
1849.737197822567
 21
1487.86010153411
 31
0.0
  0
LEADER
  5
50F
330
1F
100
AcDbEntity
  8
0
100
AcDbLeader
  3
ISO-25
 40
25.0
 41
41.66666666666666
 76
     2
 10
1091.730817186158
 20
1639.80634227478
 30
0.0
 10
1116.063845828514
 20
1725.216116655412
 30
0.0
211
-1.0
221
0.0
231
0.0
210
0.0
220
0.0
230
-1.0
213
0.0
223
12.5
233
0.0
1001
ACAD
1000
DSTYLE
1002
{
1070
    41
1040
25.0
1070
   147
1040
6.25
1070
    77
1070
     0
1070
    73
1070
     1
1070
    74
1070
     1
1070
   342
1005
DA
1002
}
  0
TEXT
  5
511
330
1F
100
AcDbEntity
  8
0
100
AcDbText
 10
1106.58433616996
 20
1737.825042911197
 30
0.0
 40
25.0
  1
12%%C
 72
     2
 11
1164.917669503294
 21
1734.491709577864
 31
0.0
100
AcDbText
 73
     1
  0
MTEXT
  5
532
330
1F
100
AcDbEntity
  8
0
100
AcDbMText
 10
1469.226616777811
 20
1181.110374981098
 30
0.0
 40
25.0
 41
0.0
 71
     9
 72
     1
  1

 73
     1
 44
1.0
1001
ACAD
1000
MTEXTBEGIN
1070
    73
1070
     1
1070
    44
1040
1.0
1070
    74
1070
     0
1000
MTEXTEND
  0
LEADER
  5
533
330
1F
100
AcDbEntity
  8
0
100
AcDbLeader
  3
ISO-25
 40
25.0
 41
16.66666666666666
 76
     2
 10
1182.807314091026
 20
1197.420589173031
 30
0.0
 10
1085.259294762999
 20
1257.149685968043
 30
0.0
213
-97.31675022588753
223
44.53196128345098
233
0.0
1001
ACAD
1000
DSTYLE
1002
{
1070
    41
1040
25.0
1070
   147
1040
6.25
1070
    77
1070
     0
1070
    73
1070
     1
1070
    74
1070
     1
1070
   279
1070
     1
1070
   342
1005
DA
1002
}
  0
TEXT
  5
537
330
1F
100
AcDbEntity
  8
0
100
AcDbText
 10
1012.455161698702
 20
1252.475031360633
 30
0.0
 40
25.0
  1
80R
 72
     2
 11
1074.955161698702
 21
1249.1416980273
 31
0.0
100
AcDbText
 73
     1
  0
LEADER
  5
53A
330
1F
100
AcDbEntity
  8
0
100
AcDbLeader
  3
ISO-25
 40
25.0
 41
16.66666666666666
 76
     2
 10
1182.164221704629
 20
1221.048703221138
 30
0.0
 10
1128.7656075112
 20
1297.189639952476
 30
0.0
213
0.0
223
12.5
233
0.0
1001
ACAD
1000
DSTYLE
1002
{
1070
    41
1040
25.0
1070
   147
1040
6.25
1070
    77
1070
     0
1070
    73
1070
     1
1070
    74
1070
     1
1070
   279
1070
     1
1070
   342
1005
DA
1002
}
  0
TEXT
  5
53C
330
1F
100
AcDbEntity
  8
0
100
AcDbText
 10
1055.229516023397
 20
1295.946979496779
 30
0.0
 40
25.0
  1
65R
 72
     2
 11
1121.896182690064
 21
1292.613646163446
 31
0.0
100
AcDbText
 73
     1
  0
LEADER
  5
53D
330
1F
100
AcDbEntity
  8
0
100
AcDbLeader
  3
ISO-25
 40
25.0
 41
16.66666666666666
 76
     2
 10
876.5102053579102
 20
1196.553318899198
 30
0.0
 10
902.2862354548296
 20
1243.387885852636
 30
0.0
213
0.0
223
-12.5
233
0.0
1001
ACAD
1000
DSTYLE
1002
{
1070
    41
1040
25.0
1070
   147
1040
6.25
1070
    77
1070
     0
1070
    73
1070
     1
1070
    74
1070
     1
1070
   279
1070
     1
1070
   342
1005
DA
1002
}
  0
TEXT
  5
53F
330
1F
100
AcDbEntity
  8
0
100
AcDbText
 10
877.0653372380857
 20
1258.013236762618
 30
0.0
 40
25.0
  1
10000R
 11
877.0653372380857
 21
1254.679903429285
 31
0.0
100
AcDbText
 73
     1
  0
LEADER
  5
540
330
1F
100
AcDbEntity
  8
0
100
AcDbLeader
  3
ISO-25
 76
     2
 10
1188.287255831115
 20
1355.069230630536
 30
0.0
 10
1116.16354931805
 20
1355.448738047424
 30
0.0
1001
ACAD
1000
DSTYLE
1002
{
1070
    41
1040
25.0
1070
   147
1040
6.25
1070
    77
1070
     0
1070
    73
1070
     1
1070
    74
1070
     1
1070
   279
1070
     1
1070
   342
1005
DA
1002
}
  0
TEXT
  5
54B
330
1F
100
AcDbEntity
  8
0
100
AcDbText
 10
986.4783853636749
 20
1343.884010478094
 30
0.0
 40
25.0
  1
10000R
 72
     2
 11
1103.145052030341
 21
1356.384010478093
 31
0.0
100
AcDbText
 73
     2
  0
LEADER
  5
54C
330
1F
100
AcDbEntity
  8
0
100
AcDbLeader
  3
ISO-25
 40
25.0
 41
16.66666666666666
 76
     2
 10
1190.567209293036
 20
1616.792650714482
 30
0.0
 10
1171.348696604696
 20
1511.514854585138
 30
0.0
213
0.0
223
12.5
233
0.0
1001
ACAD
1000
DSTYLE
1002
{
1070
    41
1040
25.0
1070
   147
1040
6.25
1070
    77
1070
     0
1070
    73
1070
     1
1070
    74
1070
     1
1070
   279
1070
     1
1070
   342
1005
DA
1002
}
  0
TEXT
  5
54E
330
1F
100
AcDbEntity
  8
0
100
AcDbText
 10
1128.467883108675
 20
1478.819322542989
 30
0.0
 40
25.0
  1
80R
 72
     2
 11
1190.967883108675
 21
1475.485989209656
 31
0.0
100
AcDbText
 73
     1
  0
LEADER
  5
558
330
1F
100
AcDbEntity
  8
0
100
AcDbLeader
  3
ISO-25
 40
25.0
 41
16.66666666666666
 76
     2
 10
873.5958322271626
 20
1622.794335427214
 30
0.0
 10
922.4019443800662
 20
1606.878319042653
 30
0.0
213
0.0
223
-12.5
233
0.0
1001
ACAD
1000
DSTYLE
1002
{
1070
    41
1040
25.0
1070
   147
1040
6.25
1070
    77
1070
     0
1070
    73
1070
     1
1070
    74
1070
     1
1070
   279
1070
     1
1070
   342
1005
DA
1002
}
  0
TEXT
  5
55A
330
1F
100
AcDbEntity
  8
0
100
AcDbText
 10
930.4162636141118
 20
1590.438781532761
 30
0.0
 40
25.0
  1
45R
 11
930.4162636141118
 21
1587.105448199428
 31
0.0
100
AcDbText
 73
     1
  0
MTEXT
  5
55C
330
1F
100
AcDbEntity
  8
0
100
AcDbMText
 10
1010.02660136874
 20
1423.470120422065
 30
0.0
 40
25.0
 41
0.0
 71
     1
 72
     1
  1

 73
     1
 44
1.0
1001
ACAD
1000
MTEXTBEGIN
1070
    73
1070
     1
1070
    44
1040
1.0
1070
    74
1070
     0
1000
MTEXTEND
  0
LINE
  5
56A
330
1F
100
AcDbEntity
  8
補助
100
AcDbLine
 10
2784.0
 20
134.0
 30
0.0
 11
2784.0
 21
199.0
 31
0.0
  0
TEXT
  5
56C
330
1F
100
AcDbEntity
  8
0
100
AcDbText
 10
2233.166666666667
 20
149.0
 30
0.0
 40
35.0
  1
YME590-540S-GRM
 72
     4
 11
2484.0
 21
166.5
 31
0.0
100
AcDbText
  0
DIMENSION
  5
586
330
1F
100
AcDbEntity
  8
0
100
AcDbDimension
  2
*D9
 10
796.4469088348606
 20
1648.86010153411
 30
0.0
 11
768.7085264120524
 21
1624.338644820605
 31
0.0
 70
   160
  1
16
 71
     5
 42
15.00000000000023
  3
ISO-25
100
AcDbAlignedDimension
 13
872.4744054304029
 23
1633.86010153411
 33
0.0
 14
889.2194694065009
 24
1648.86010153411
 34
0.0
 50
90.0
100
AcDbRotatedDimension
1001
ACAD
1000
DSTYLE
1002
{
1070
   279
1070
     2
1002
}
  0
LINE
  5
59F
330
1F
100
AcDbEntity
  8
Cen
100
AcDbLine
 10
805.2113190226018
 20
1633.86010153411
 30
0.0
 11
839.7320405368345
 21
1633.86010153411
 31
0.0
  0
LINE
  5
5A0
330
1F
100
AcDbEntity
  8
Cen
100
AcDbLine
 10
1068.431807024556
 20
1633.86010153411
 30
0.0
 11
1101.334366982949
 21
1633.86010153411
 31
0.0
  0
MTEXT
  5
5A9
330
1F
100
AcDbEntity
  8
Cen
100
AcDbMText
 10
1527.939315450184
 20
552.4831097022406
 30
0.0
 40
25.0
 41
0.0
 71
     9
 72
     1
  1

 73
     1
 44
1.0
1001
ACAD
1000
MTEXTBEGIN
1070
    73
1070
     1
1070
    44
1040
1.0
1070
    74
1070
     0
1000
MTEXTEND
  0
LEADER
  5
5AA
330
1F
100
AcDbEntity
  8
Cen
100
AcDbLeader
  3
ISO-25
 40
25.0
 41
16.66666666666666
 76
     2
 10
1181.721855904906
 20
557.8186372064733
 30
0.0
 10
1152.845443602878
 20
607.6631352539338
 30
0.0
213
0.0
223
12.5
233
0.0
1001
ACAD
1000
DSTYLE
1002
{
1070
    41
1040
25.0
1070
   147
1040
6.25
1070
    77
1070
     0
1070
   279
1070
     1
1002
}
  0
TEXT
  5
5AD
330
1F
100
AcDbEntity
  8
0
100
AcDbText
 10
1096.405178670503
 20
615.5333221265932
 30
0.0
 40
25.0
  1
30R
100
AcDbText
  0
LINE
  5
5D0
330
1F
100
AcDbEntity
  8
補助
100
AcDbLine
 10
2784.0
 20
69.0
 30
0.0
 11
2784.0
 21
134.0
 31
0.0
  0
TEXT
  5
5D2
330
1F
100
AcDbEntity
  8
0
100
AcDbText
 10
2430.916666666667
 20
84.0
 30
0.0
 40
35.0
  1
1：10
 72
     4
 11
2484.0
 21
101.5
 31
0.0
100
AcDbText
  0
TEXT
  5
5D8
330
1F
100
AcDbEntity
  8
0
100
AcDbText
 10
231.1659029702105
 20
53.51169987015055
 30
0.0
 40
30.0
  1
※実寸には製造上の誤差が多少生ずる場合があります。シンクの穴あけ加工は現物合わせにてお願いします。
100
AcDbText
  0
TEXT
  5
5F4
330
1F
100
AcDbEntity
  8
補助
100
AcDbText
 10
2300.255774665348
 20
16.49999999999999
 30
0.0
 40
40.0
  1
中外交易株式会社
 72
     4
 11
2488.255774665347
 21
36.5
 31
0.0
100
AcDbText
  0
LINE
  5
5F5
330
1F
100
AcDbEntity
  8
補助
100
AcDbLine
 10
2064.0
 20
69.0
 30
0.0
 11
2784.0
 21
69.0
 31
0.0
  0
HATCH
  5
5F6
330
1F
100
AcDbEntity
  8
補助
100
AcDbHatch
 10
0.0
 20
0.0
 30
0.0
210
0.0
220
0.0
230
1.0
  2
SOLID
 70
     1
 71
     1
 91
        3
 92
        1
 93
        4
 72
     2
 10
2257.166198313996
 20
36.5
 40
20.0
 50
11.6477236670766
 51
342.6561058784691
 73
     1
 72
     1
 10
2276.256852341323
 20
30.53787547858514
 11
2252.166198313995
 21
30.53787547858519
 72
     1
 10
2252.166198313995
 20
30.53787547858519
 11
2252.166198313995
 21
40.53787547858519
 72
     1
 10
2252.166198313995
 20
40.53787547858519
 11
2276.75434681301
 21
40.53787547858519
 97
        4
330
5F7
330
5F9
330
5FA
330
5FB
 92
        1
 93
        4
 72
     2
 10
2188.255774665348
 20
36.5
 40
20.0
 50
11.6477236670766
 51
342.6561058784691
 73
     1
 72
     1
 10
2207.346428692676
 20
30.53787547858514
 11
2183.255774665347
 21
30.53787547858519
 72
     1
 10
2183.255774665347
 20
30.53787547858519
 11
2183.255774665347
 21
40.53787547858519
 72
     1
 10
2183.255774665347
 20
40.53787547858519
 11
2207.843923164362
 21
40.53787547858519
 97
        4
330
5F8
330
601
330
602
330
603
 92
        1
 93
        5
 72
     1
 10
2245.64189404294
 20
56.5
 11
2210.641894042939
 21
56.5
 72
     1
 10
2210.641894042939
 20
56.5
 11
2210.641894042939
 21
16.5
 72
     1
 10
2210.641894042939
 20
16.5
 11
2245.64189404294
 21
16.5
 72
     1
 10
2245.64189404294
 20
16.5
 11
2210.641894042939
 21
36.5
 72
     1
 10
2210.641894042939
 20
36.5
 11
2245.64189404294
 21
56.5
 97
        5
330
5FC
330
600
330
5FF
330
5FE
330
5FD
 75
     0
 76
     1
 98
        1
 10
-60.0
 20
0.0
  0
ARC
  5
5F7
102
{ACAD_REACTORS
330
5F6
102
}
330
1F
100
AcDbEntity
  8
補助
370
     5
100
AcDbCircle
 10
2257.166198313996
 20
36.5
 30
0.0
 40
20.0
100
AcDbArc
 50
11.6477236670766
 51
342.6561058784691
  0
ARC
  5
5F8
102
{ACAD_REACTORS
330
5F6
102
}
330
1F
100
AcDbEntity
  8
補助
370
     5
100
AcDbCircle
 10
2188.255774665348
 20
36.5
 30
0.0
 40
20.0
100
AcDbArc
 50
11.6477236670766
 51
342.6561058784691
  0
LINE
  5
5F9
102
{ACAD_REACTORS
330
5F6
102
}
330
1F
100
AcDbEntity
  8
補助
370
     5
100
AcDbLine
 10
2252.166198313995
 20
30.53787547858519
 30
0.0
 11
2276.256852341323
 21
30.53787547858514
 31
0.0
  0
LINE
  5
5FA
102
{ACAD_REACTORS
330
5F6
102
}
330
1F
100
AcDbEntity
  8
補助
370
     5
100
AcDbLine
 10
2252.166198313995
 20
40.53787547858519
 30
0.0
 11
2252.166198313995
 21
30.53787547858519
 31
0.0
  0
LINE
  5
5FB
102
{ACAD_REACTORS
330
5F6
102
}
330
1F
100
AcDbEntity
  8
補助
370
     5
100
AcDbLine
 10
2276.75434681301
 20
40.53787547858519
 30
0.0
 11
2252.166198313995
 21
40.53787547858519
 31
0.0
  0
LINE
  5
5FC
102
{ACAD_REACTORS
330
5F6
102
}
330
1F
100
AcDbEntity
  8
補助
370
     5
100
AcDbLine
 10
2245.64189404294
 20
56.5
 30
0.0
 11
2210.641894042939
 21
56.5
 31
0.0
  0
LINE
  5
5FD
102
{ACAD_REACTORS
330
5F6
102
}
330
1F
100
AcDbEntity
  8
補助
370
     5
100
AcDbLine
 10
2210.641894042939
 20
36.5
 30
0.0
 11
2245.64189404294
 21
56.5
 31
0.0
  0
LINE
  5
5FE
102
{ACAD_REACTORS
330
5F6
102
}
330
1F
100
AcDbEntity
  8
補助
370
     5
100
AcDbLine
 10
2245.64189404294
 20
16.5
 30
0.0
 11
2210.641894042939
 21
36.5
 31
0.0
  0
LINE
  5
5FF
102
{ACAD_REACTORS
330
5F6
102
}
330
1F
100
AcDbEntity
  8
補助
370
     5
100
AcDbLine
 10
2210.641894042939
 20
16.5
 30
0.0
 11
2245.64189404294
 21
16.5
 31
0.0
  0
LINE
  5
600
102
{ACAD_REACTORS
330
5F6
102
}
330
1F
100
AcDbEntity
  8
補助
370
     5
100
AcDbLine
 10
2210.641894042939
 20
56.5
 30
0.0
 11
2210.641894042939
 21
16.5
 31
0.0
  0
LINE
  5
601
102
{ACAD_REACTORS
330
5F6
102
}
330
1F
100
AcDbEntity
  8
補助
370
     5
100
AcDbLine
 10
2183.255774665347
 20
30.53787547858519
 30
0.0
 11
2207.346428692676
 21
30.53787547858514
 31
0.0
  0
LINE
  5
602
102
{ACAD_REACTORS
330
5F6
102
}
330
1F
100
AcDbEntity
  8
補助
370
     5
100
AcDbLine
 10
2183.255774665347
 20
40.53787547858519
 30
0.0
 11
2183.255774665347
 21
30.53787547858519
 31
0.0
  0
LINE
  5
603
102
{ACAD_REACTORS
330
5F6
102
}
330
1F
100
AcDbEntity
  8
補助
370
     5
100
AcDbLine
 10
2207.843923164362
 20
40.53787547858519
 30
0.0
 11
2183.255774665347
 21
40.53787547858519
 31
0.0
  0
LINE
  5
A29
330
1F
100
AcDbEntity
  8
補助
100
AcDbLine
 10
2064.0
 20
4.0
 30
0.0
 11
2064.0
 21
199.0
 31
0.0
  0
TEXT
  5
A2C
330
1F
100
AcDbEntity
  8
補助
100
AcDbText
 10
2086.666666666667
 20
149.0
 30
0.0
 40
35.0
  1
品番
 72
     4
 11
2124.0
 21
166.5
 31
0.0
100
AcDbText
  0
TEXT
  5
A2D
330
1F
100
AcDbEntity
  8
補助
100
AcDbText
 10
2086.666666666667
 20
84.0
 30
0.0
 40
35.0
  1
尺度
 72
     4
 11
2124.0
 21
101.5
 31
0.0
100
AcDbText
  0
LINE
  5
1A44
330
1F
100
AcDbEntity
  8
0
100
AcDbLine
 10
1821.676615367452
 20
1580.23510153411
 30
0.0
 11
1821.676615367452
 21
1399.23510153411
 31
0.0
  0
LINE
  5
1A46
330
1F
100
AcDbEntity
  8
実形
100
AcDbLine
 10
1813.676615367453
 20
1580.23510153411
 30
0.0
 11
1821.676615367452
 21
1580.23510153411
 31
0.0
  0
LINE
  5
1A47
330
1F
100
AcDbEntity
  8
実形
100
AcDbLine
 10
1813.676615367452
 20
1399.23510153411
 30
0.0
 11
1821.676615367452
 21
1399.23510153411
 31
0.0
  0
DIMENSION
  5
1A81
330
1F
100
AcDbEntity
  8
実形
100
AcDbDimension
  2
*D10
 10
576.0988019500781
 20
706.2929064030615
 30
0.0
 11
560.9513255389646
 21
754.6594034738628
 31
0.0
 70
   160
 71
     5
 42
15.0
  3
ISO-25
100
AcDbAlignedDimension
 13
694.2194694065011
 23
721.2929064030616
 33
0.0
 14
694.2194694065014
 24
706.2929064030615
 34
0.0
 50
90.0
100
AcDbRotatedDimension
1001
ACAD
1000
DSTYLE
1002
{
1070
   279
1070
     1
1002
}
  0
DIMENSION
  5
1A82
330
1F
100
AcDbEntity
  8
実形
100
AcDbDimension
  2
*D11
 10
576.0988019500781
 20
531.2929064030616
 30
0.0
 11
569.1265526899768
 21
555.546370566951
 31
0.0
 70
   160
  1
15
 71
     5
 42
15.32554687587674
  3
ISO-25
100
AcDbAlignedDimension
 13
693.4249501627397
 23
546.6184532789384
 33
0.0
 14
693.4015604892992
 24
531.2929064030616
 34
0.0
 50
90.0
100
AcDbRotatedDimension
1001
ACAD
1000
DSTYLE
1002
{
1070
   279
1070
     1
1002
}
  0
DIMENSION
  5
1A83
330
1F
100
AcDbEntity
  8
実形
100
AcDbDimension
  2
*D12
 10
576.0988019500781
 20
546.4764336217627
 30
0.0
 11
565.0453627520326
 21
507.0879948184039
 31
0.0
 70
   160
  1
7
 71
     5
 42
25.18352721870122
  3
ISO-25
100
AcDbAlignedDimension
 13
693.800986240174
 23
521.2929064030616
 33
0.0
 14
665.0421584208234
 24
546.4764336217627
 34
0.0
 50
90.0
100
AcDbRotatedDimension
1001
ACAD
1000
DSTYLE
1002
{
1070
   279
1070
     1
1002
}
  0
DIMENSION
  5
1A84
330
1F
100
AcDbEntity
  8
実形
100
AcDbDimension
  2
*D13
 10
489.5579035118916
 20
531.2929064030616
 30
0.0
 11
470.8079035118915
 21
626.2929064030617
 31
0.0
 70
    32
 71
     5
 42
189.9999999999998
  3
ISO-25
100
AcDbAlignedDimension
 13
658.8433360776397
 23
721.2929064030616
 33
0.0
 14
658.8433360776397
 24
531.2929064030616
 34
0.0
 50
90.0
100
AcDbRotatedDimension
1001
ACAD
1000
DSTYLE
1002
{
1070
   279
1070
     1
1002
}
  0
LINE
  5
1BFA
330
1F
100
AcDbEntity
  8
補助
100
AcDbLine
 10
2784.000000000001
 20
1959.0
 30
0.0
 11
2019.387286519283
 21
1959.0
 31
0.0
  0
LINE
  5
1BFB
330
1F
100
AcDbEntity
  8
補助
100
AcDbLine
 10
2784.000000000001
 20
1894.0
 30
0.0
 11
2019.387286519283
 21
1894.0
 31
0.0
  0
LINE
  5
1BFC
330
1F
100
AcDbEntity
  8
補助
100
AcDbLine
 10
2202.547653420927
 20
1894.0
 30
0.0
 11
2202.547653420927
 21
2024.0
 31
0.0
  0
LINE
  5
1BFD
330
1F
100
AcDbEntity
  8
補助
100
AcDbLine
 10
2019.387286519283
 20
1894.0
 30
0.0
 11
2019.387286519283
 21
2024.0
 31
0.0
  0
TEXT
  5
1BFE
330
1F
100
AcDbEntity
  8
補助
100
AcDbText
 10
2050.295698850121
 20
1976.328571428572
 30
0.0
 40
30.0
  1
部品名
  7
明朝
 72
     4
 11
2116.124270278692
 21
1991.5
 31
0.0
100
AcDbText
  0
TEXT
  5
1BFF
330
1F
100
AcDbEntity
  8
補助
100
AcDbText
 10
2627.614285714287
 20
1976.071428571429
 30
0.0
 40
30.0
  1
厚さ
  7
明朝
 72
     4
 11
2671.5
 21
1991.5
 31
0.0
100
AcDbText
  0
LINE
  5
1C00
330
1F
100
AcDbEntity
  8
補助
100
AcDbLine
 10
2559.0
 20
1894.0
 30
0.0
 11
2559.000000000001
 21
2024.0
 31
0.0
  0
TEXT
  5
1C01
330
1F
100
AcDbEntity
  8
補助
100
AcDbText
 10
2338.490869919937
 20
1975.947979478154
 30
0.0
 40
30.0
  1
材質
  7
明朝
 72
     4
 11
2382.376584205651
 21
1991.119408049583
 31
0.0
100
AcDbText
  0
LINE
  5
1C05
330
1F
100
AcDbEntity
  8
補助
100
AcDbLine
 10
111.0
 20
2024.0
 30
0.0
 11
111.0
 21
4.0
 31
0.0
  0
LINE
  5
1DDB
330
1F
100
AcDbEntity
  8
実形
100
AcDbLine
 10
694.219469406501
 20
1258.86010153411
 30
0.0
 11
694.219469406501
 21
1568.86010153411
 31
0.0
  0
LINE
  5
1DFF
330
1F
100
AcDbEntity
  8
実形
100
AcDbLine
 10
884.2194694065009
 20
1648.86010153411
 30
0.0
 11
954.219469406501
 21
1648.86010153411
 31
0.0
  0
LEADER
  5
1E15
330
1F
100
AcDbEntity
  8
0
100
AcDbLeader
  3
ISO-25
 40
25.0
 41
16.66666666666666
 76
     2
 10
830.5523298026219
 20
1576.21689082849
 30
0.0
 10
819.605912954934
 20
1522.348831546739
 30
0.0
213
0.0
223
-12.5
233
0.0
1001
ACAD
1000
DSTYLE
1002
{
1070
    41
1040
25.0
1070
   147
1040
6.25
1070
    77
1070
     0
1070
    73
1070
     1
1070
    74
1070
     1
1070
   279
1070
     1
1070
   342
1005
DA
1002
}
  0
TEXT
  5
1E16
330
1F
100
AcDbEntity
  8
0
100
AcDbText
 10
774.3924685477414
 20
1488.879476417258
 30
0.0
 40
25.0
  1
60R
 11
774.3924685477414
 21
1485.546143083925
 31
0.0
100
AcDbText
 73
     1
  0
LEADER
  5
1E1F
330
1F
100
AcDbEntity
  8
0
100
AcDbLeader
  3
ISO-25
 40
25.0
 41
16.66666666666666
 76
     2
 10
733.4867172402354
 20
1547.625469269971
 30
0.0
 10
745.165980377098
 20
1469.948995957995
 30
0.0
213
0.0
223
-12.5
233
0.0
1001
ACAD
1000
DSTYLE
1002
{
1070
    41
1040
25.0
1070
   147
1040
6.25
1070
    77
1070
     0
1070
    73
1070
     1
1070
    74
1070
     1
1070
   279
1070
     1
1070
   342
1005
DA
1002
}
  0
TEXT
  5
1E20
330
1F
100
AcDbEntity
  8
0
100
AcDbText
 10
720.44929858449
 20
1437.300979519974
 30
0.0
 40
25.0
  1
65R
 11
720.44929858449
 21
1433.967646186641
 31
0.0
100
AcDbText
 73
     1
  0
LINE
  5
1E23
330
1F
100
AcDbEntity
  8
実形
100
AcDbLine
 10
954.2194694065013
 20
1648.86010153411
 30
0.0
 11
781.6994986630946
 21
1648.86010153411
 31
0.0
  0
LINE
  5
1E24
330
1F
100
AcDbEntity
  8
実形
100
AcDbLine
 10
954.2194694065011
 20
1178.86010153411
 30
0.0
 11
781.6994986630947
 21
1178.86010153411
 31
0.0
  0
LINE
  5
1E4C
330
1F
100
AcDbEntity
  8
実形
100
AcDbLine
 10
954.219469406501
 20
1193.86010153411
 30
0.0
 11
781.6994986630946
 21
1193.86010153411
 31
0.0
  0
LINE
  5
1E4F
330
1F
100
AcDbEntity
  8
実形
100
AcDbLine
 10
709.219469406501
 20
1258.86010153411
 30
0.0
 11
709.2194694065009
 21
1503.86010153411
 31
0.0
  0
DIMENSION
  5
1EC5
330
1F
100
AcDbEntity
  8
実形
100
AcDbDimension
  2
*D16
 10
412.4131539938333
 20
1143.86010153411
 30
0.0
 11
393.6631539938332
 21
1413.86010153411
 31
0.0
 70
    32
 71
     5
 42
539.9999999999997
  3
ISO-25
100
AcDbAlignedDimension
 13
677.2194694065009
 23
1683.86010153411
 33
0.0
 14
677.2194694065009
 24
1143.86010153411
 34
0.0
 50
90.0
100
AcDbRotatedDimension
1001
ACAD
1000
DSTYLE
1002
{
1070
   279
1070
     1
1002
}
  0
LINE
  5
1ED4
330
1F
100
AcDbEntity
  8
実形
100
AcDbLine
 10
954.2194694065011
 20
1632.86010153411
 30
0.0
 11
889.2194694065011
 21
1632.86010153411
 31
0.0
  0
DIMENSION
  5
1EE2
330
1F
100
AcDbEntity
  8
実形
100
AcDbDimension
  2
*D17
 10
535.9795328742037
 20
1568.86010153411
 30
0.0
 11
517.2295328742035
 21
1608.86010153411
 31
0.0
 70
    32
 71
     5
 42
79.99999999999932
  3
ISO-25
100
AcDbAlignedDimension
 13
677.2194694065009
 23
1648.86010153411
 33
0.0
 14
677.219469406501
 24
1568.86010153411
 34
0.0
 50
90.0
100
AcDbRotatedDimension
1001
ACAD
1000
DSTYLE
1002
{
1070
   279
1070
     1
1002
}
  0
DIMENSION
  5
1F2C
330
1F
100
AcDbEntity
  8
実形
100
AcDbDimension
  2
*D18
 10
535.9795328742036
 20
1193.86010153411
 30
0.0
 11
517.2295328742035
 21
1381.360101534111
 31
0.0
 70
    32
 71
     5
 42
375.0000000000002
  3
ISO-25
100
AcDbAlignedDimension
 13
677.2194694065009
 23
1568.86010153411
 33
0.0
 14
677.2194694065009
 24
1193.86010153411
 34
0.0
 50
90.0
100
AcDbRotatedDimension
1001
ACAD
1000
DSTYLE
1002
{
1070
   279
1070
     1
1002
}
  0
DIMENSION
  5
1F4A
330
1F
100
AcDbEntity
  8
実形
100
AcDbDimension
  2
*D19
 10
479.0371556738017
 20
1178.86010153411
 30
0.0
 11
460.2871556738016
 21
1413.86010153411
 31
0.0
 70
    32
 71
     5
 42
469.9999999999997
  3
ISO-25
100
AcDbAlignedDimension
 13
677.2194694065009
 23
1648.86010153411
 33
0.0
 14
677.2194694065009
 24
1178.86010153411
 34
0.0
 50
90.0
100
AcDbRotatedDimension
1001
ACAD
1000
DSTYLE
1002
{
1070
   279
1070
     1
1002
}
  0
DIMENSION
  5
1F57
330
1F
100
AcDbEntity
  8
実形
100
AcDbDimension
  2
*D20
 10
479.0371556738016
 20
1143.86010153411
 30
0.0
 11
465.4087117670205
 21
1170.405656525167
 31
0.0
 70
   160
  1
35
 71
     5
 42
539.9999999999997
  3
ISO-25
100
AcDbAlignedDimension
 13
677.2194694065009
 23
1683.86010153411
 33
0.0
 14
677.2194694065009
 24
1143.86010153411
 34
0.0
 50
90.0
100
AcDbRotatedDimension
1001
ACAD
1000
DSTYLE
1002
{
1070
   279
1070
     1
1002
}
  0
DIMENSION
  5
1F89
330
1F
100
AcDbEntity
  8
実形
100
AcDbDimension
  2
*D21
 10
479.0371556738017
 20
1143.86010153411
 30
0.0
 11
471.7532215927458
 21
1648.900560911108
 31
0.0
 70
   160
  1
35
 71
     5
 42
539.9999999999997
  3
ISO-25
100
AcDbAlignedDimension
 13
677.2194694065009
 23
1683.86010153411
 33
0.0
 14
677.2194694065009
 24
1143.86010153411
 34
0.0
 50
90.0
100
AcDbRotatedDimension
1001
ACAD
1000
DSTYLE
1002
{
1070
   279
1070
     1
1002
}
  0
DIMENSION
  5
1FBA
330
1F
100
AcDbEntity
  8
実形
100
AcDbDimension
  2
*D22
 10
535.9795328742036
 20
1178.86010153411
 30
0.0
 11
526.0149173593871
 21
1205.712909372276
 31
0.0
 70
   160
  1
15
 71
     5
 42
469.9999999999997
  3
ISO-25
100
AcDbAlignedDimension
 13
677.2194694065009
 23
1648.86010153411
 33
0.0
 14
677.2194694065009
 24
1178.86010153411
 34
0.0
 50
90.0
100
AcDbRotatedDimension
1001
ACAD
1000
DSTYLE
1002
{
1070
   279
1070
     1
1002
}
  0
ARC
  5
2033
330
1F
100
AcDbEntity
  8
実形
100
AcDbCircle
 10
889.2194694065011
 20
1587.86010153411
 30
0.0
 40
45.0
100
AcDbArc
 50
90.0
 51
160.8933140200214
  0
LINE
  5
2035
330
1F
100
AcDbEntity
  8
実形
100
AcDbLine
 10
774.2194694065009
 20
1568.86010153411
 30
0.0
 11
781.6994986630947
 21
1568.860101534109
 31
0.0
  0
ARC
  5
2038
330
1F
100
AcDbEntity
  8
実形
100
AcDbCircle
 10
792.7552308031261
 20
1628.860101534109
 30
0.0
 40
60.0
100
AcDbArc
 50
270.0000000000003
 51
334.0340321821692
  0
ARC
  5
203D
330
1F
100
AcDbEntity
  8
実形
100
AcDbCircle
 10
774.2194694065009
 20
1503.86010153411
 30
0.0
 40
65.0
100
AcDbArc
 50
90.0
 51
180.0
  0
ARC
  5
203E
330
1F
100
AcDbEntity
  8
実形
100
AcDbCircle
 10
774.219469406501
 20
1258.86010153411
 30
0.0
 40
65.0
100
AcDbArc
 50
180.0
 51
270.0
  0
DIMENSION
  5
204F
330
1F
100
AcDbEntity
  8
実形
100
AcDbDimension
  2
*D23
 10
1199.219469406501
 20
1036.807958926578
 30
0.0
 11
736.8733243192401
 21
1038.686532268721
 31
0.0
 70
   160
  1
15
 71
     5
 42
490.0000000000003
  3
ISO-25
100
AcDbAlignedDimension
 13
709.2194694065011
 23
1155.833394069355
 33
0.0
 14
1199.219469406501
 24
1155.833394069355
 34
0.0
100
AcDbRotatedDimension
1001
ACAD
1000
DSTYLE
1002
{
1070
   279
1070
     1
1002
}
  0
DIMENSION
  5
207F
330
1F
100
AcDbEntity
  8
実形
100
AcDbDimension
  2
*D24
 10
1214.219469406501
 20
978.3996316766378
 30
0.0
 11
954.219469406501
 21
997.1496316766378
 31
0.0
 70
    32
 71
     5
 42
520.0
  3
ISO-25
100
AcDbAlignedDimension
 13
694.219469406501
 23
1155.833394069355
 33
0.0
 14
1214.219469406501
 24
1155.833394069355
 34
0.0
100
AcDbRotatedDimension
1001
ACAD
1000
DSTYLE
1002
{
1070
   279
1070
     1
1002
}
  0
DIMENSION
  5
2095
330
1F
100
AcDbEntity
  8
実形
100
AcDbDimension
  2
*D25
 10
1214.219469406501
 20
1036.807958926578
 30
0.0
 11
1166.31348566579
 21
1036.807958926578
 31
0.0
 70
   160
  1
15
 71
     5
 42
520.0000000000004
  3
ISO-25
100
AcDbAlignedDimension
 13
694.219469406501
 23
1155.833394069355
 33
0.0
 14
1214.219469406501
 24
1155.833394069355
 34
0.0
100
AcDbRotatedDimension
1001
ACAD
1000
DSTYLE
1002
{
1070
   279
1070
     1
1002
}
  0
DIMENSION
  5
20D9
330
1F
100
AcDbEntity
  8
実形
100
AcDbDimension
  2
*D26
 10
1214.219469406501
 20
1036.807958926578
 30
0.0
 11
954.2194694065013
 21
1055.557958926578
 31
0.0
 70
    32
  1
490
 71
     5
 42
520.0000000000004
  3
ISO-25
100
AcDbAlignedDimension
 13
694.219469406501
 23
1155.833394069355
 33
0.0
 14
1214.219469406501
 24
1155.833394069355
 34
0.0
100
AcDbRotatedDimension
1001
ACAD
1000
DSTYLE
1002
{
1070
   279
1070
     1
1002
}
  0
DIMENSION
  5
2121
330
1F
100
AcDbEntity
  8
実形
100
AcDbDimension
  2
*D27
 10
1249.219469406501
 20
920.1151315116613
 30
0.0
 11
954.2194694065011
 21
938.8651315116613
 31
0.0
 70
    32
 71
     5
 42
590.0000000000002
  3
ISO-25
100
AcDbAlignedDimension
 13
659.219469406501
 23
1155.833394069355
 33
0.0
 14
1249.219469406501
 24
1155.833394069356
 34
0.0
100
AcDbRotatedDimension
1001
ACAD
1000
DSTYLE
1002
{
1070
   279
1070
     1
1002
}
  0
DIMENSION
  5
212E
330
1F
100
AcDbEntity
  8
実形
100
AcDbDimension
  2
*D28
 10
1249.219469406501
 20
978.3996316766378
 30
0.0
 11
1183.030652624147
 21
983.535437058329
 31
0.0
 70
   160
  1
35
 71
     5
 42
590.0000000000002
  3
ISO-25
100
AcDbAlignedDimension
 13
659.219469406501
 23
1155.833394069355
 33
0.0
 14
1249.219469406501
 24
1155.833394069356
 34
0.0
100
AcDbRotatedDimension
1001
ACAD
1000
DSTYLE
1002
{
1070
   279
1070
     1
1002
}
  0
DIMENSION
  5
2175
330
1F
100
AcDbEntity
  8
実形
100
AcDbDimension
  2
*D29
 10
1249.219469406501
 20
978.3996316766378
 30
0.0
 11
722.5021062038095
 21
983.0710254301893
 31
0.0
 70
   160
  1
35
 71
     5
 42
590.0000000000002
  3
ISO-25
100
AcDbAlignedDimension
 13
659.219469406501
 23
1155.833394069355
 33
0.0
 14
1249.219469406501
 24
1140.374773889132
 34
0.0
100
AcDbRotatedDimension
1001
ACAD
1000
DSTYLE
1002
{
1070
   279
1070
     1
1002
}
  0
ARC
  5
21A0
330
1F
100
AcDbEntity
  8
実形
100
AcDbCircle
 10
774.219469406501
 20
1568.86010153411
 30
0.0
 40
80.0
100
AcDbArc
 50
90.0
 51
180.0
  0
ARC
  5
21A3
330
1F
100
AcDbEntity
  8
実形
100
AcDbCircle
 10
774.219469406501
 20
1258.86010153411
 30
0.0
 40
80.0
100
AcDbArc
 50
180.0
 51
270.0
  0
LINE
  5
21A5
330
1F
100
AcDbEntity
  8
0
100
AcDbLine
 10
1214.219469406502
 20
1503.860101534109
 30
0.0
 11
1214.219469406501
 21
1258.860101534109
 31
0.0
  0
ARC
  5
21A6
330
1F
100
AcDbEntity
  8
実形
100
AcDbCircle
 10
1019.219469406501
 20
1587.86010153411
 30
0.0
 40
45.0
100
AcDbArc
 50
19.10668597997854
 51
89.99999999999994
  0
LINE
  5
21A7
330
1F
100
AcDbEntity
  8
実形
100
AcDbLine
 10
1214.219469406501
 20
1258.860101534109
 30
0.0
 11
1214.219469406501
 21
1568.860101534109
 31
0.0
  0
ARC
  5
21A8
330
1F
100
AcDbEntity
  8
実形
100
AcDbCircle
 10
1134.219469406501
 20
1258.86010153411
 30
0.0
 40
80.0
100
AcDbArc
 50
269.9999999999999
 51
360.0
  0
LINE
  5
21AB
330
1F
100
AcDbEntity
  8
実形
100
AcDbLine
 10
1199.219469406501
 20
1258.86010153411
 30
0.0
 11
1199.219469406501
 21
1503.860101534109
 31
0.0
  0
ARC
  5
21AC
330
1F
100
AcDbEntity
  8
実形
100
AcDbCircle
 10
1134.219469406501
 20
1258.86010153411
 30
0.0
 40
65.0
100
AcDbArc
 50
269.9999999999999
 51
360.0
  0
LINE
  5
21AD
330
1F
100
AcDbEntity
  8
実形
100
AcDbLine
 10
954.2194694065013
 20
1648.86010153411
 30
0.0
 11
1126.739440149907
 21
1648.86010153411
 31
0.0
  0
ARC
  5
21AE
330
1F
100
AcDbEntity
  8
実形
100
AcDbCircle
 10
1134.219469406501
 20
1568.860101534109
 30
0.0
 40
80.0
100
AcDbArc
 50
360.0
 51
89.99999999999994
  0
LINE
  5
21AF
330
1F
100
AcDbEntity
  8
実形
100
AcDbLine
 10
954.2194694065015
 20
1632.86010153411
 30
0.0
 11
1019.219469406501
 21
1632.86010153411
 31
0.0
  0
LINE
  5
21B2
330
1F
100
AcDbEntity
  8
実形
100
AcDbLine
 10
954.219469406501
 20
1178.86010153411
 30
0.0
 11
1126.739440149907
 21
1178.86010153411
 31
0.0
  0
LINE
  5
21B4
330
1F
100
AcDbEntity
  8
実形
100
AcDbLine
 10
954.2194694065011
 20
1193.86010153411
 30
0.0
 11
1126.739440149907
 21
1193.86010153411
 31
0.0
  0
LINE
  5
21B5
330
1F
100
AcDbEntity
  8
実形
100
AcDbLine
 10
1134.219469406501
 20
1568.860101534109
 30
0.0
 11
1126.739440149907
 21
1568.860101534109
 31
0.0
  0
ARC
  5
21B6
330
1F
100
AcDbEntity
  8
実形
100
AcDbCircle
 10
1134.219469406501
 20
1503.860101534109
 30
0.0
 40
65.0
100
AcDbArc
 50
360.0
 51
89.99999999999994
  0
ARC
  5
21B7
330
1F
100
AcDbEntity
  8
実形
100
AcDbCircle
 10
1115.683708009876
 20
1628.860101534109
 30
0.0
 40
60.0
100
AcDbArc
 50
205.9659678178308
 51
269.9999999999997
  0
LINE
  5
21C7
330
1F
100
AcDbEntity
  8
Cen
 48
0.8
100
AcDbLine
 10
1088.327031085579
 20
1488.86010153411
 30
0.0
 11
820.1119077274224
 21
1488.86010153411
 31
0.0
  0
LINE
  5
2254
330
1F
100
AcDbEntity
  8
実形
100
AcDbLine
 10
875.2194694065011
 20
531.2929064030615
 30
0.0
 11
954.2194694065011
 21
531.2929064030615
 31
0.0
  0
LINE
  5
2256
330
1F
100
AcDbEntity
  8
実形
100
AcDbLine
 10
875.2194694065011
 20
521.2929064030613
 30
0.0
 11
954.2194694065011
 21
521.2929064030613
 31
0.0
  0
LINE
  5
22EB
330
1F
100
AcDbEntity
  8
0
100
AcDbLine
 10
691.219469406501
 20
721.2929064030614
 30
0.0
 11
677.2194694065009
 21
721.2929064030616
 31
0.0
  0
LINE
  5
22EC
330
1F
100
AcDbEntity
  8
0
100
AcDbLine
 10
709.2194694065012
 20
703.2929064030615
 30
0.0
 11
709.2194694065014
 21
573.5213428086581
 31
0.0
  0
LINE
  5
22F1
330
1F
100
AcDbEntity
  8
実形
100
AcDbLine
 10
954.2194694065011
 20
531.2929064030615
 30
0.0
 11
863.719469406501
 21
531.2929064030615
 31
0.0
  0
LINE
  5
22F2
330
1F
100
AcDbEntity
  8
実形
100
AcDbLine
 10
954.2194694065011
 20
521.2929064030613
 30
0.0
 11
863.719469406501
 21
521.2929064030613
 31
0.0
  0
LINE
  5
22F3
330
1F
100
AcDbEntity
  8
実形
100
AcDbLine
 10
706.2194694065013
 20
706.2929064030615
 30
0.0
 11
697.219469406501
 21
706.2929064030615
 31
0.0
  0
LINE
  5
22F4
330
1F
100
AcDbEntity
  8
実形
100
AcDbLine
 10
706.2194694065013
 20
706.2929064030615
 30
0.0
 11
781.6994986630946
 21
706.2929064030615
 31
0.0
  0
ARC
  5
239A
330
1F
100
AcDbEntity
  8
実形
100
AcDbCircle
 10
706.2194694065013
 20
703.2929064030615
 30
0.0
 40
3.0
100
AcDbArc
 50
0.0
 51
90.0
  0
LINE
  5
239E
330
1F
100
AcDbEntity
  8
実形
100
AcDbLine
 10
677.2194694065009
 20
721.2929064030616
 30
0.0
 11
781.6994986630947
 21
721.2929064030617
 31
0.0
  0
LINE
  5
23FE
330
1F
100
AcDbEntity
  8
実形
100
AcDbLine
 10
1641.676615367452
 20
1568.860101534109
 30
0.0
 11
1783.676615367453
 21
1568.860101534109
 31
0.0
  0
LINE
  5
2405
330
1F
100
AcDbEntity
  8
実形
100
AcDbLine
 10
863.719469406501
 20
521.2929064030613
 30
0.0
 11
863.719469406501
 21
531.2929064030615
 31
0.0
  0
LINE
  5
243C
330
1F
100
AcDbEntity
  8
実形
100
AcDbLine
 10
1623.676615367452
 20
1665.86010153411
 30
0.0
 11
1623.676615367452
 21
1651.86010153411
 31
0.0
  0
LINE
  5
243E
330
1F
100
AcDbEntity
  8
実形
100
AcDbLine
 10
1638.676615367452
 20
1645.86010153411
 30
0.0
 11
1638.676615367453
 21
1636.86010153411
 31
0.0
  0
LINE
  5
243F
330
1F
100
AcDbEntity
  8
実形
100
AcDbLine
 10
1641.676615367453
 20
1633.86010153411
 30
0.0
 11
1775.916673373918
 21
1633.86010153411
 31
0.0
  0
LINE
  5
2441
330
1F
100
AcDbEntity
  8
実形
100
AcDbLine
 10
1641.676615367453
 20
1633.860101534109
 30
0.0
 11
1775.916673373918
 21
1633.86010153411
 31
0.0
  0
LINE
  5
2443
330
1F
100
AcDbEntity
  8
実形
100
AcDbLine
 10
1813.676615367453
 20
1580.23510153411
 30
0.0
 11
1804.807691280662
 21
1611.941505144387
 31
0.0
  0
LINE
  5
2444
330
1F
100
AcDbEntity
  8
実形
100
AcDbLine
 10
1813.676615367452
 20
1399.23510153411
 30
0.0
 11
1800.708121665833
 21
1221.674808602771
 31
0.0
  0
LINE
  5
2445
330
1F
100
AcDbEntity
  8
実形
100
AcDbLine
 10
1623.676615367452
 20
1161.86010153411
 30
0.0
 11
1623.676615367452
 21
1178.86010153411
 31
0.0
  0
LINE
  5
2447
330
1F
100
AcDbEntity
  8
実形
100
AcDbLine
 10
1638.676615367452
 20
1181.86010153411
 30
0.0
 11
1638.676615367452
 21
1190.86010153411
 31
0.0
  0
LINE
  5
2448
330
1F
100
AcDbEntity
  8
実形
100
AcDbLine
 10
1641.676615367452
 20
1193.86010153411
 30
0.0
 11
1770.787819280927
 21
1193.86010153411
 31
0.0
  0
LINE
  5
2449
330
1F
100
AcDbEntity
  8
実形
100
AcDbLine
 10
1641.676615367452
 20
1193.86010153411
 30
0.0
 11
1770.787819280927
 21
1193.86010153411
 31
0.0
  0
ARC
  5
244A
330
1F
100
AcDbEntity
  8
実形
100
AcDbCircle
 10
1775.916673373918
 20
1603.86010153411
 30
0.0
 40
30.0
100
AcDbArc
 50
15.62738373912136
 51
90.0
  0
ARC
  5
244C
330
1F
100
AcDbEntity
  8
実形
100
AcDbCircle
 10
1770.787819280927
 20
1223.86010153411
 30
0.0
 40
30.0
100
AcDbArc
 50
270.0
 51
355.8226981567738
  0
ARC
  5
2457
330
1F
100
AcDbEntity
  8
実形
100
AcDbCircle
 10
1783.676615367453
 20
1538.860101534109
 30
0.0
 40
30.0
100
AcDbArc
 50
0.0
 51
90.0
  0
LINE
  5
2458
330
1F
100
AcDbEntity
  8
実形
100
AcDbLine
 10
1813.676615367453
 20
1538.860101534109
 30
0.0
 11
1813.676615367454
 21
1580.23510153411
 31
0.0
  0
ARC
  5
245C
330
1F
100
AcDbEntity
  8
実形
100
AcDbCircle
 10
1641.676615367452
 20
1190.86010153411
 30
0.0
 40
3.0
100
AcDbArc
 50
90.0
 51
179.9999999999999
  0
ARC
  5
245F
330
1F
100
AcDbEntity
  8
実形
100
AcDbCircle
 10
1641.676615367453
 20
1636.86010153411
 30
0.0
 40
3.0
100
AcDbArc
 50
180.0
 51
269.9999999999999
  0
LINE
  5
2461
330
1F
100
AcDbEntity
  8
実形
100
AcDbLine
 10
1623.676615367452
 20
1665.86010153411
 30
0.0
 11
1623.676615367452
 21
1161.86010153411
 31
0.0
  0
LINE
  5
2462
330
1F
100
AcDbEntity
  8
実形
100
AcDbLine
 10
1638.676615367453
 20
1571.86010153411
 30
0.0
 11
1638.676615367453
 21
1641.36010153411
 31
0.0
  0
ARC
  5
2463
330
1F
100
AcDbEntity
  8
実形
100
AcDbCircle
 10
1641.676615367452
 20
1571.86010153411
 30
0.0
 40
3.0
100
AcDbArc
 50
179.9999999999999
 51
270.0
  0
LINE
  5
2464
330
1F
100
AcDbEntity
  8
実形
100
AcDbLine
 10
1638.676615367453
 20
1606.61010153411
 30
0.0
 11
1638.676615367452
 21
1186.36010153411
 31
0.0
  0
LINE
  5
24FF
330
1F
100
AcDbEntity
  8
実形
100
AcDbLine
 10
781.6994986630946
 20
1178.86010153411
 30
0.0
 11
774.219469406501
 21
1178.86010153411
 31
0.0
  0
LINE
  5
2500
330
1F
100
AcDbEntity
  8
実形
100
AcDbLine
 10
781.6994986630946
 20
1193.86010153411
 30
0.0
 11
774.219469406501
 21
1193.86010153411
 31
0.0
  0
LINE
  5
2501
330
1F
100
AcDbEntity
  8
実形
100
AcDbLine
 10
781.6994986630947
 20
1568.860101534109
 30
0.0
 11
792.5387505959707
 21
1568.860101534109
 31
0.0
  0
LINE
  5
2502
330
1F
100
AcDbEntity
  8
実形
100
AcDbLine
 10
781.6994986630946
 20
1648.860101534111
 30
0.0
 11
774.219469406501
 21
1648.86010153411
 31
0.0
  0
LINE
  5
2505
330
1F
100
AcDbEntity
  8
実形
100
AcDbLine
 10
781.6994986630947
 20
706.2929064030613
 30
0.0
 11
954.219469406501
 21
706.2929064030613
 31
0.0
  0
LINE
  5
2506
330
1F
100
AcDbEntity
  8
実形
100
AcDbLine
 10
781.6994986630946
 20
721.2929064030613
 30
0.0
 11
954.2194694065011
 21
721.2929064030613
 31
0.0
  0
LINE
  5
25AC
330
1F
100
AcDbEntity
  8
実形
100
AcDbLine
 10
863.719469406501
 20
531.2929064030615
 30
0.0
 11
736.3204788847192
 21
543.6617404343025
 31
0.0
  0
ARC
  5
25AD
330
1F
100
AcDbEntity
  8
実形
100
AcDbCircle
 10
739.2194694065014
 20
573.5213428086581
 30
0.0
 40
30.0
100
AcDbArc
 50
180.0
 51
264.4546826911379
  0
LINE
  5
25B2
330
1F
100
AcDbEntity
  8
実形
100
AcDbLine
 10
1033.219469406501
 20
531.2929064030615
 30
0.0
 11
954.219469406501
 21
531.2929064030615
 31
0.0
  0
LINE
  5
25B3
330
1F
100
AcDbEntity
  8
実形
100
AcDbLine
 10
1033.219469406501
 20
521.2929064030613
 30
0.0
 11
954.219469406501
 21
521.2929064030613
 31
0.0
  0
LINE
  5
25B4
330
1F
100
AcDbEntity
  8
0
100
AcDbLine
 10
1217.219469406501
 20
721.2929064030614
 30
0.0
 11
1231.219469406501
 21
721.2929064030616
 31
0.0
  0
LINE
  5
25B5
330
1F
100
AcDbEntity
  8
0
100
AcDbLine
 10
1199.219469406501
 20
703.2929064030615
 30
0.0
 11
1199.2194694065
 21
573.5213428086581
 31
0.0
  0
ARC
  5
25B6
330
1F
100
AcDbEntity
  8
実形
100
AcDbCircle
 10
1202.219469406501
 20
703.2929064030615
 30
0.0
 40
3.0
100
AcDbArc
 50
90.0
 51
180.0
  0
LINE
  5
25B7
330
1F
100
AcDbEntity
  8
実形
100
AcDbLine
 10
954.219469406501
 20
531.2929064030615
 30
0.0
 11
1044.719469406501
 21
531.2929064030615
 31
0.0
  0
LINE
  5
25B8
330
1F
100
AcDbEntity
  8
実形
100
AcDbLine
 10
954.219469406501
 20
521.2929064030613
 30
0.0
 11
1044.719469406501
 21
521.2929064030613
 31
0.0
  0
LINE
  5
25B9
330
1F
100
AcDbEntity
  8
実形
100
AcDbLine
 10
1202.219469406501
 20
706.2929064030615
 30
0.0
 11
1211.219469406501
 21
706.2929064030615
 31
0.0
  0
LINE
  5
25BA
330
1F
100
AcDbEntity
  8
実形
100
AcDbLine
 10
1202.219469406501
 20
706.2929064030615
 30
0.0
 11
1126.739440149907
 21
706.2929064030615
 31
0.0
  0
LINE
  5
25BB
330
1F
100
AcDbEntity
  8
実形
100
AcDbLine
 10
1126.739440149907
 20
706.2929064030613
 30
0.0
 11
954.219469406501
 21
706.2929064030613
 31
0.0
  0
LINE
  5
25BC
330
1F
100
AcDbEntity
  8
実形
100
AcDbLine
 10
1231.219469406501
 20
721.2929064030616
 30
0.0
 11
1126.739440149907
 21
721.2929064030617
 31
0.0
  0
LINE
  5
25BD
330
1F
100
AcDbEntity
  8
実形
100
AcDbLine
 10
1126.739440149907
 20
721.2929064030613
 30
0.0
 11
954.219469406501
 21
721.2929064030613
 31
0.0
  0
LINE
  5
25BE
330
1F
100
AcDbEntity
  8
実形
100
AcDbLine
 10
1044.719469406501
 20
521.2929064030613
 30
0.0
 11
1044.719469406501
 21
531.2929064030615
 31
0.0
  0
LINE
  5
25BF
330
1F
100
AcDbEntity
  8
実形
100
AcDbLine
 10
1044.719469406501
 20
531.2929064030615
 30
0.0
 11
1172.118459928283
 21
543.6617404343025
 31
0.0
  0
ARC
  5
25C0
330
1F
100
AcDbEntity
  8
実形
100
AcDbCircle
 10
1169.219469406501
 20
573.5213428086581
 30
0.0
 40
30.0
100
AcDbArc
 50
275.5453173088621
 51
360.0
  0
LINE
  5
25C3
330
1F
100
AcDbEntity
  8
実形
100
AcDbLine
 10
1126.739440149907
 20
1178.86010153411
 30
0.0
 11
1134.219469406501
 21
1178.86010153411
 31
0.0
  0
LINE
  5
25C4
330
1F
100
AcDbEntity
  8
実形
100
AcDbLine
 10
1126.739440149907
 20
1193.86010153411
 30
0.0
 11
1134.219469406501
 21
1193.86010153411
 31
0.0
  0
LINE
  5
25C5
330
1F
100
AcDbEntity
  8
実形
100
AcDbLine
 10
1126.739440149907
 20
1568.860101534109
 30
0.0
 11
1115.900188217032
 21
1568.860101534109
 31
0.0
  0
LINE
  5
25C6
330
1F
100
AcDbEntity
  8
実形
100
AcDbLine
 10
1126.739440149907
 20
1648.86010153411
 30
0.0
 11
1134.219469406501
 21
1648.86010153411
 31
0.0
  0
LEADER
  5
2777
330
1F
100
AcDbEntity
  8
Cen
100
AcDbLeader
  3
ISO-25
 40
25.0
 41
16.66666666666666
 76
     2
 10
1778.672115556303
 20
1208.511326191266
 30
0.0
 10
1749.795703254275
 20
1258.355824238727
 30
0.0
213
0.0
223
12.5
233
0.0
1001
ACAD
1000
DSTYLE
1002
{
1070
    41
1040
25.0
1070
   147
1040
6.25
1070
    77
1070
     0
1070
   279
1070
     1
1002
}
  0
TEXT
  5
2778
330
1F
100
AcDbEntity
  8
0
100
AcDbText
 10
1693.355438321901
 20
1266.226011111386
 30
0.0
 40
25.0
  1
30R
100
AcDbText
  0
LINE
  5
277D
330
1F
100
AcDbEntity
  8
実形
100
AcDbLine
 10
671.2194694065011
 20
1143.86010153411
 30
0.0
 11
1237.219469406501
 21
1143.86010153411
 31
0.0
  0
LINE
  5
277E
330
1F
100
AcDbEntity
  8
実形
100
AcDbLine
 10
1249.219469406501
 20
1155.86010153411
 30
0.0
 11
1249.219469406501
 21
1671.86010153411
 31
0.0
  0
LINE
  5
277F
330
1F
100
AcDbEntity
  8
実形
100
AcDbLine
 10
671.2194694065011
 20
1683.86010153411
 30
0.0
 11
1237.219469406501
 21
1683.86010153411
 31
0.0
  0
LINE
  5
2780
330
1F
100
AcDbEntity
  8
実形
100
AcDbLine
 10
659.219469406501
 20
1155.86010153411
 30
0.0
 11
659.2194694065011
 21
1671.86010153411
 31
0.0
  0
LINE
  5
282F
330
1F
100
AcDbEntity
  8
実形
100
AcDbLine
 10
671.2194694065011
 20
1148.86010153411
 30
0.0
 11
1237.219469406501
 21
1148.86010153411
 31
0.0
  0
LINE
  5
2830
330
1F
100
AcDbEntity
  8
実形
100
AcDbLine
 10
664.219469406501
 20
1155.86010153411
 30
0.0
 11
664.219469406501
 21
1671.86010153411
 31
0.0
  0
LINE
  5
2831
330
1F
100
AcDbEntity
  8
実形
100
AcDbLine
 10
1244.219469406501
 20
1155.86010153411
 30
0.0
 11
1244.219469406501
 21
1671.86010153411
 31
0.0
  0
LINE
  5
2832
330
1F
100
AcDbEntity
  8
実形
100
AcDbLine
 10
671.2194694065011
 20
1678.86010153411
 30
0.0
 11
1237.219469406501
 21
1678.86010153411
 31
0.0
  0
ARC
  5
2833
330
1F
100
AcDbEntity
  8
実形
100
AcDbCircle
 10
1237.219469406501
 20
1155.86010153411
 30
0.0
 40
12.0
100
AcDbArc
 50
270.0
 51
0.0
  0
ARC
  5
2834
330
1F
100
AcDbEntity
  8
実形
100
AcDbCircle
 10
1237.219469406501
 20
1671.86010153411
 30
0.0
 40
12.0
100
AcDbArc
 50
0.0
 51
90.0
  0
ARC
  5
2835
330
1F
100
AcDbEntity
  8
実形
100
AcDbCircle
 10
671.2194694065011
 20
1671.86010153411
 30
0.0
 40
12.0
100
AcDbArc
 50
90.00000000000003
 51
180.0
  0
ARC
  5
2836
330
1F
100
AcDbEntity
  8
実形
100
AcDbCircle
 10
671.2194694065011
 20
1155.86010153411
 30
0.0
 40
12.0
100
AcDbArc
 50
180.0
 51
270.0
  0
ARC
  5
2837
330
1F
100
AcDbEntity
  8
実形
100
AcDbCircle
 10
671.2194694065011
 20
1155.86010153411
 30
0.0
 40
7.0
100
AcDbArc
 50
180.0
 51
270.0
  0
ARC
  5
2838
330
1F
100
AcDbEntity
  8
実形
100
AcDbCircle
 10
671.2194694065011
 20
1671.86010153411
 30
0.0
 40
7.0
100
AcDbArc
 50
90.0
 51
180.0
  0
ARC
  5
2839
330
1F
100
AcDbEntity
  8
実形
100
AcDbCircle
 10
1237.219469406501
 20
1671.86010153411
 30
0.0
 40
7.0
100
AcDbArc
 50
0.0
 51
89.99999999999998
  0
ARC
  5
283B
330
1F
100
AcDbEntity
  8
実形
100
AcDbCircle
 10
1237.219469406501
 20
1155.86010153411
 30
0.0
 40
7.0
100
AcDbArc
 50
270.0
 51
0.0
  0
DIMENSION
  5
2885
330
1F
100
AcDbEntity
  8
実形
100
AcDbDimension
  2
*D30
 10
576.0988019500784
 20
706.2929064030615
 30
0.0
 11
560.9513255389648
 21
754.6594034738628
 31
0.0
 70
   160
 71
     5
 42
15.0
  3
ISO-25
100
AcDbAlignedDimension
 13
694.2194694065014
 23
721.2929064030616
 33
0.0
 14
694.2194694065015
 24
706.2929064030615
 34
0.0
 50
90.0
100
AcDbRotatedDimension
1001
ACAD
1000
DSTYLE
1002
{
1070
   279
1070
     1
1002
}
  0
DIMENSION
  5
2886
330
1F
100
AcDbEntity
  8
実形
100
AcDbDimension
  2
*D31
 10
489.5579035118918
 20
531.2929064030616
 30
0.0
 11
470.8079035118918
 21
626.2929064030617
 31
0.0
 70
    32
 71
     5
 42
189.9999999999998
  3
ISO-25
100
AcDbAlignedDimension
 13
658.8433360776399
 23
721.2929064030616
 33
0.0
 14
658.8433360776399
 24
531.2929064030616
 34
0.0
 50
90.0
100
AcDbRotatedDimension
1001
ACAD
1000
DSTYLE
1002
{
1070
   279
1070
     1
1002
}
  0
LINE
  5
2887
330
1F
100
AcDbEntity
  8
0
100
AcDbLine
 10
691.2194694065012
 20
721.2929064030614
 30
0.0
 11
677.2194694065011
 21
721.2929064030616
 31
0.0
  0
LINE
  5
2889
330
1F
100
AcDbEntity
  8
0
100
AcDbLine
 10
691.2194694065012
 20
721.2929064030616
 30
0.0
 11
677.219469406501
 21
721.2929064030616
 31
0.0
  0
LINE
  5
288C
330
1F
100
AcDbEntity
  8
実形
100
AcDbLine
 10
671.2194694065009
 20
716.2929064030614
 30
0.0
 11
671.2194694065011
 21
706.2929064030615
 31
0.0
  0
LINE
  5
288D
330
1F
100
AcDbEntity
  8
実形
100
AcDbLine
 10
674.2194694065009
 20
716.2929064030614
 30
0.0
 11
674.219469406501
 21
706.2929064030615
 31
0.0
  0
LINE
  5
288E
330
1F
100
AcDbEntity
  8
実形
100
AcDbLine
 10
677.219469406501
 20
721.2929064030616
 30
0.0
 11
664.2194694065011
 21
721.2929064030616
 31
0.0
  0
LINE
  5
288F
330
1F
100
AcDbEntity
  8
実形
100
AcDbLine
 10
1157.971959797783
 20
716.2929064030615
 30
0.0
 11
659.219469406501
 21
716.2929064030615
 31
0.0
  0
LINE
  5
2890
330
1F
100
AcDbEntity
  8
実形
100
AcDbLine
 10
664.219469406501
 20
721.2929064030616
 30
0.0
 11
659.219469406501
 21
716.2929064030615
 31
0.0
  0
LINE
  5
2892
330
1F
100
AcDbEntity
  8
実形
100
AcDbLine
 10
674.219469406501
 20
706.2929064030615
 30
0.0
 11
694.2194694065014
 21
706.2929064030615
 31
0.0
  0
LINE
  5
28D0
330
1F
100
AcDbEntity
  8
0
100
AcDbLine
 10
1217.219469406501
 20
721.2929064030616
 30
0.0
 11
1231.219469406501
 21
721.2929064030616
 31
0.0
  0
LINE
  5
28D5
330
1F
100
AcDbEntity
  8
0
100
AcDbLine
 10
1217.2194694065
 20
721.2929064030616
 30
0.0
 11
1231.219469406501
 21
721.2929064030616
 31
0.0
  0
LINE
  5
28D6
330
1F
100
AcDbEntity
  8
0
100
AcDbLine
 10
1217.219469406501
 20
721.2929064030675
 30
0.0
 11
1231.219469406501
 21
721.2929064030678
 31
0.0
  0
LINE
  5
28D7
330
1F
100
AcDbEntity
  8
実形
100
AcDbLine
 10
1237.219469406501
 20
716.2929064030677
 30
0.0
 11
1237.219469406501
 21
706.2929064030678
 31
0.0
  0
LINE
  5
28D8
330
1F
100
AcDbEntity
  8
実形
100
AcDbLine
 10
1234.219469406501
 20
716.2929064030677
 30
0.0
 11
1234.219469406501
 21
706.2929064030678
 31
0.0
  0
LINE
  5
28D9
330
1F
100
AcDbEntity
  8
実形
100
AcDbLine
 10
1231.219469406501
 20
721.2929064030678
 30
0.0
 11
1244.219469406501
 21
721.2929064030679
 31
0.0
  0
LINE
  5
28DA
330
1F
100
AcDbEntity
  8
実形
100
AcDbLine
 10
750.4669790152186
 20
716.2929064030602
 30
0.0
 11
1249.219469406501
 21
716.292906403068
 31
0.0
  0
LINE
  5
28DB
330
1F
100
AcDbEntity
  8
実形
100
AcDbLine
 10
1244.219469406501
 20
721.2929064030679
 30
0.0
 11
1249.219469406501
 21
716.292906403068
 31
0.0
  0
LINE
  5
28DC
330
1F
100
AcDbEntity
  8
実形
100
AcDbLine
 10
1214.2194694065
 20
706.2929064030615
 30
0.0
 11
1234.219469406501
 21
706.2929064030615
 31
0.0
  0
LINE
  5
2994
330
1F
100
AcDbEntity
  8
0
100
AcDbLine
 10
1623.676615367452
 20
1175.86010153411
 30
0.0
 11
1623.676615367452
 21
1161.86010153411
 31
0.0
  0
LINE
  5
2995
330
1F
100
AcDbEntity
  8
0
100
AcDbLine
 10
1638.676615367452
 20
1190.86010153411
 30
0.0
 11
1638.676615367452
 21
1181.86010153411
 31
0.0
  0
LINE
  5
2996
330
1F
100
AcDbEntity
  8
実形
100
AcDbLine
 10
1623.676615367452
 20
1161.86010153411
 30
0.0
 11
1623.676615367452
 21
1178.86010153411
 31
0.0
  0
LINE
  5
2997
330
1F
100
AcDbEntity
  8
実形
100
AcDbLine
 10
1638.676615367452
 20
1181.86010153411
 30
0.0
 11
1638.676615367452
 21
1190.86010153411
 31
0.0
  0
LINE
  5
2998
330
1F
100
AcDbEntity
  8
実形
100
AcDbLine
 10
1623.676615367452
 20
1665.86010153411
 30
0.0
 11
1623.676615367452
 21
1161.86010153411
 31
0.0
  0
LINE
  5
2999
330
1F
100
AcDbEntity
  8
0
100
AcDbLine
 10
1623.676615367451
 20
1678.86010153411
 30
0.0
 11
1623.676615367452
 21
1148.86010153411
 31
0.0
  0
LINE
  5
299A
330
1F
100
AcDbEntity
  8
0
100
AcDbLine
 10
1623.676615367452
 20
1175.86010153411
 30
0.0
 11
1623.676615367452
 21
1161.86010153411
 31
0.0
  0
LINE
  5
299B
330
1F
100
AcDbEntity
  8
実形
100
AcDbLine
 10
1623.676615367452
 20
1403.750610889927
 30
0.0
 11
1623.676615367452
 21
1161.86010153411
 31
0.0
  0
LINE
  5
299C
330
1F
100
AcDbEntity
  8
実形
100
AcDbLine
 10
1628.676615367453
 20
1155.86010153411
 30
0.0
 11
1638.676615367452
 21
1155.86010153411
 31
0.0
  0
LINE
  5
299D
330
1F
100
AcDbEntity
  8
実形
100
AcDbLine
 10
1628.676615367453
 20
1158.86010153411
 30
0.0
 11
1638.676615367452
 21
1158.86010153411
 31
0.0
  0
LINE
  5
299E
330
1F
100
AcDbEntity
  8
実形
100
AcDbLine
 10
1623.676615367452
 20
1161.86010153411
 30
0.0
 11
1623.676615367452
 21
1148.86010153411
 31
0.0
  0
LINE
  5
299F
330
1F
100
AcDbEntity
  8
実形
100
AcDbLine
 10
1628.676615367453
 20
1433.969592178293
 30
0.0
 11
1628.676615367453
 21
1143.86010153411
 31
0.0
  0
LINE
  5
29A0
330
1F
100
AcDbEntity
  8
実形
100
AcDbLine
 10
1623.676615367452
 20
1148.86010153411
 30
0.0
 11
1628.676615367453
 21
1143.86010153411
 31
0.0
  0
LINE
  5
29A1
330
1F
100
AcDbEntity
  8
実形
100
AcDbLine
 10
1623.676615367459
 20
1161.860101534111
 30
0.0
 11
1623.676615367455
 21
1403.750610889927
 31
0.0
  0
LINE
  5
29A2
330
1F
100
AcDbEntity
  8
0
100
AcDbLine
 10
1623.676615367451
 20
1148.860101534111
 30
0.0
 11
1623.676615367452
 21
1678.860101534111
 31
0.0
  0
LINE
  5
29A3
330
1F
100
AcDbEntity
  8
実形
100
AcDbLine
 10
1638.676615367452
 20
1158.86010153411
 30
0.0
 11
1638.676615367452
 21
1181.86010153411
 31
0.0
  0
LINE
  5
29B9
330
1F
100
AcDbEntity
  8
実形
100
AcDbLine
 10
1623.676615367452
 20
1665.860101534109
 30
0.0
 11
1623.676615367452
 21
1651.86010153411
 31
0.0
  0
LINE
  5
29BA
330
1F
100
AcDbEntity
  8
実形
100
AcDbLine
 10
1623.676615367452
 20
1665.860101534109
 30
0.0
 11
1623.676615367452
 21
1161.86010153411
 31
0.0
  0
LINE
  5
29BB
330
1F
100
AcDbEntity
  8
実形
 62
     3
100
AcDbLine
 10
1623.676615367452
 20
1665.860101534109
 30
0.0
 11
1623.676615367452
 21
1678.86010153411
 31
0.0
  0
LINE
  5
29BC
330
1F
100
AcDbEntity
  8
0
100
AcDbLine
 10
1623.676615367451
 20
1678.860101534109
 30
0.0
 11
1623.676615367452
 21
1148.86010153411
 31
0.0
  0
LINE
  5
29BD
330
1F
100
AcDbEntity
  8
0
100
AcDbLine
 10
1623.676615367451
 20
1148.860101534111
 30
0.0
 11
1623.676615367452
 21
1678.86010153411
 31
0.0
  0
LINE
  5
29BE
330
1F
100
AcDbEntity
  8
0
100
AcDbLine
 10
1623.676615367452
 20
1651.86010153411
 30
0.0
 11
1623.676615367452
 21
1665.86010153411
 31
0.0
  0
LINE
  5
29BF
330
1F
100
AcDbEntity
  8
実形
100
AcDbLine
 10
1623.676615367452
 20
1423.969592178293
 30
0.0
 11
1623.676615367452
 21
1665.86010153411
 31
0.0
  0
LINE
  5
29C0
330
1F
100
AcDbEntity
  8
実形
100
AcDbLine
 10
1628.676615367453
 20
1671.86010153411
 30
0.0
 11
1638.676615367452
 21
1671.86010153411
 31
0.0
  0
LINE
  5
29C1
330
1F
100
AcDbEntity
  8
実形
100
AcDbLine
 10
1628.676615367453
 20
1668.86010153411
 30
0.0
 11
1638.676615367452
 21
1668.86010153411
 31
0.0
  0
LINE
  5
29C2
330
1F
100
AcDbEntity
  8
実形
100
AcDbLine
 10
1623.676615367452
 20
1665.86010153411
 30
0.0
 11
1623.676615367452
 21
1678.86010153411
 31
0.0
  0
LINE
  5
29C3
330
1F
100
AcDbEntity
  8
実形
100
AcDbLine
 10
1628.676615367452
 20
1423.969592178293
 30
0.0
 11
1628.676615367453
 21
1683.86010153411
 31
0.0
  0
LINE
  5
29C4
330
1F
100
AcDbEntity
  8
実形
100
AcDbLine
 10
1623.676615367452
 20
1678.86010153411
 30
0.0
 11
1628.676615367453
 21
1683.86010153411
 31
0.0
  0
LINE
  5
29C5
330
1F
100
AcDbEntity
  8
実形
100
AcDbLine
 10
1623.676615367459
 20
1665.86010153411
 30
0.0
 11
1623.676615367454
 21
1423.969592178293
 31
0.0
  0
LINE
  5
29C6
330
1F
100
AcDbEntity
  8
実形
100
AcDbLine
 10
1638.676615367452
 20
1668.86010153411
 30
0.0
 11
1638.676615367453
 21
1641.360101534109
 31
0.0
  0
LINE
  5
2A06
330
1F
100
AcDbEntity
  8
補助
100
AcDbLine
 10
2784.0
 20
1829.0
 30
0.0
 11
2019.387286519282
 21
1829.0
 31
0.0
  0
LINE
  5
2A07
330
1F
100
AcDbEntity
  8
補助
100
AcDbLine
 10
2202.547653420927
 20
1829.0
 30
0.0
 11
2202.547653420927
 21
1959.0
 31
0.0
  0
LINE
  5
2A08
330
1F
100
AcDbEntity
  8
補助
100
AcDbLine
 10
2019.387286519283
 20
1829.0
 30
0.0
 11
2019.387286519283
 21
1959.0
 31
0.0
  0
LINE
  5
2A09
330
1F
100
AcDbEntity
  8
補助
100
AcDbLine
 10
2559.0
 20
1829.0
 30
0.0
 11
2559.0
 21
1959.0
 31
0.0
  0
TEXT
  5
2A0A
330
1F
100
AcDbEntity
  8
実形
100
AcDbText
 10
2048.227810657787
 20
1845.557142857142
 30
0.0
 40
30.0
  1
ボウル
  7
明朝
 72
     4
 11
2114.056382086358
 21
1861.499999999999
 31
0.0
100
AcDbText
  0
TEXT
  5
2A0B
330
1F
100
AcDbEntity
  8
実形
100
AcDbText
 10
2594.7
 20
1846.842857142856
 30
0.0
 40
30.0
  1
0.7ｍｍ
  7
明朝
 72
     4
 11
2671.5
 21
1861.499999999999
 31
0.0
100
AcDbText
  0
TEXT
  5
2A0C
330
1F
100
AcDbEntity
  8
実形
100
AcDbText
 10
2261.016869107865
 20
1845.728571428571
 30
0.0
 40
30.0
  1
SUS304（BA）
  7
明朝
 72
     4
 11
2392.674011965008
 21
1861.499999999999
 31
0.0
100
AcDbText
  0
TEXT
  5
2A16
330
1F
100
AcDbEntity
  8
実形
100
AcDbText
 10
2070.170667800645
 20
1911.242857142857
 30
0.0
 40
30.0
  1
天板
  7
明朝
 72
     4
 11
2114.056382086359
 21
1926.5
 31
0.0
100
AcDbText
  0
TEXT
  5
2A17
330
1F
100
AcDbEntity
  8
実形
100
AcDbText
 10
2594.700000000001
 20
1911.842857142856
 30
0.0
 40
30.0
  1
0.7ｍｍ
  7
明朝
 72
     4
 11
2671.500000000001
 21
1926.5
 31
0.0
100
AcDbText
  0
TEXT
  5
2A18
330
1F
100
AcDbEntity
  8
実形
100
AcDbText
 10
2217.131154822152
 20
1910.728571428571
 30
0.0
 40
30.0
  1
SUS304（市松EB）
  7
明朝
 72
     4
 11
2392.674011965008
 21
1926.5
 31
0.0
100
AcDbText
  0
VIEWPORT
  5
2E
102
{ACAD_XDICTIONARY
360
2A39
102
}
330
1B
100
AcDbEntity
 67
     1
  8
0
100
AcDbViewport
 10
144.7270812988281
 20
101.2295806407928
 30
0.0
 40
411.6736216682419
 41
222.1517806396485
 68
     1
 69
     1
 12
144.7270812988281
 22
101.2295806407928
 13
0.0
 23
0.0
 14
10.0
 24
10.0
 15
10.0
 25
10.0
 16
0.0
 26
0.0
 36
1.0
 17
0.0
 27
0.0
 37
0.0
 42
50.0
 43
0.0
 44
0.0
 45
222.1517806396485
 50
0.0
 51
0.0
 72
   100
 90
    32800
  1

281
     0
 71
     1
 74
     0
110
0.0
120
0.0
130
0.0
111
1.0
121
0.0
131
0.0
112
0.0
122
1.0
132
0.0
 79
     0
146
0.0
  0
VIEWPORT
  5
30
102
{ACAD_XDICTIONARY
360
2A3B
102
}
330
1B
100
AcDbEntity
 67
     1
  8
0
100
AcDbViewport
 10
139.2237563133239
 20
101.2295821905136
 30
0.0
 40
222.7580101013184
 41
161.9673315048218
 68
     2
 69
     2
 12
210.0
 22
148.5
 13
0.0
 23
0.0
 14
10.0
 24
10.0
 15
10.0
 25
10.0
 16
0.0
 26
0.0
 36
1.0
 17
0.0
 27
0.0
 37
0.0
 42
50.0
 43
0.0
 44
0.0
 45
309.0686705647124
 50
0.0
 51
0.0
 72
   100
 90
    32864
  1

281
     0
 71
     1
 74
     0
110
0.0
120
0.0
130
0.0
111
1.0
121
0.0
131
0.0
112
0.0
122
1.0
132
0.0
 79
     0
146
0.0
  0
ENDSEC
  0
SECTION
  2
OBJECTS
  0
DICTIONARY
  5
C
330
0
100
AcDbDictionary
281
     1
  3
ACAD_COLOR
350
19F9
  3
ACAD_GROUP
350
D
  3
ACAD_LAYOUT
350
1A
  3
ACAD_MATERIAL
350
19F8
  3
ACAD_MLINESTYLE
350
17
  3
ACAD_PLOTSETTINGS
350
19
  3
ACAD_PLOTSTYLENAME
350
E
  3
ACAD_TABLESTYLE
350
19FA
  3
AcadDim
350
5B1
  3
ACDBHEADERROUNDTRIPXREC
350
2A32
  3
AcDbVariableDictionary
350
96D
  0
DICTIONARY
  5
1A37
330
2
100
AcDbDictionary
280
     1
281
     1
  3
ACAD_LAYERFILTERS
360
1BD9
  3
ACAD_LAYERSTATES
360
1A38
  3
ACLYDICTIONARY
360
1BD8
  0
DICTIONARY
  5
1C06
330
1F
100
AcDbDictionary
280
     1
281
     1
  3
ACAD_SORTENTS
360
1C07
  0
DICTIONARY
  5
1BE2
330
1BDF
100
AcDbDictionary
280
     1
281
     1
  3
ACAD_SORTENTS
360
1BE3
  0
DICTIONARY
  5
2A39
330
2E
100
AcDbDictionary
280
     1
281
     1
  3
ACAD_XREC_ROUNDTRIP
360
2A3A
  0
DICTIONARY
  5
2A3B
330
30
100
AcDbDictionary
280
     1
281
     1
  3
ACAD_XREC_ROUNDTRIP
360
2A3C
  0
DICTIONARY
  5
19F9
102
{ACAD_REACTORS
330
C
102
}
330
C
100
AcDbDictionary
281
     1
  0
DICTIONARY
  5
D
102
{ACAD_REACTORS
330
C
102
}
330
C
100
AcDbDictionary
281
     1
  0
DICTIONARY
  5
1A
102
{ACAD_REACTORS
330
C
102
}
330
C
100
AcDbDictionary
281
     1
  3
Model
350
22
  3
ﾚｲｱｳﾄ1
350
1E
  3
ﾚｲｱｳﾄ2
350
26
  0
DICTIONARY
  5
19F8
102
{ACAD_REACTORS
330
C
102
}
330
C
100
AcDbDictionary
281
     1
  0
DICTIONARY
  5
17
102
{ACAD_REACTORS
330
C
102
}
330
C
100
AcDbDictionary
281
     1
  3
Standard
350
18
  0
DICTIONARY
  5
19
102
{ACAD_REACTORS
330
C
102
}
330
C
100
AcDbDictionary
281
     1
  0
ACDBDICTIONARYWDFLT
  5
E
102
{ACAD_REACTORS
330
C
102
}
330
C
100
AcDbDictionary
281
     1
  3
Normal
350
F
100
AcDbDictionaryWithDefault
340
F
  0
DICTIONARY
  5
19FA
102
{ACAD_REACTORS
330
C
102
}
330
C
100
AcDbDictionary
281
     1
  3
Standard
350
19FB
  0
XRECORD
  5
5B1
102
{ACAD_REACTORS
330
C
102
}
330
C
100
AcDbXrecord
280
     1
 90
   990106
  3

 60
     0
 61
     0
 62
     1
 63
     3
 64
     0
 65
     0
 66
     0
 67
     3
 68
     1
 69
     0
 70
     0
 71
     0
 72
     0
 40
5.637859010809637
170
     0
340
0
  0
DICTIONARY
  5
2A32
102
{ACAD_REACTORS
330
C
102
}
330
C
100
AcDbDictionary
281
     1
  0
DICTIONARY
  5
96D
102
{ACAD_REACTORS
330
C
102
}
330
C
100
AcDbDictionary
281
     1
  3
CTABLESTYLE
350
1A01
  3
DIMASSOC
350
2A2F
  3
PROJECTNAME
350
2A30
  3
SORTENTS
350
96E
  0
DICTIONARY
  5
1BD9
102
{ACAD_REACTORS
330
1A37
102
}
330
1A37
100
AcDbDictionary
281
     1
  0
DICTIONARY
  5
1A38
102
{ACAD_REACTORS
330
1A37
102
}
330
1A37
100
AcDbDictionary
281
     1
  0
DICTIONARY
  5
1BD8
102
{ACAD_REACTORS
330
1A37
102
}
330
1A37
100
AcDbDictionary
281
     1
1001
ACAD
1000
<All
  0
SORTENTSTABLE
  5
1C07
102
{ACAD_REACTORS
330
1C06
102
}
330
1C06
100
AcDbSortentsTable
330
1F
331
49E
  5
537
331
2033
  5
203A
331
1EC5
  5
21B0
331
2447
  5
2502
331
25C3
  5
22F1
331
2457
  5
53A
331
28D9
  5
28D9
331
A9
  5
AA
331
1A82
  5
1E55
331
4AE
  5
53C
331
3DF
  5
407
331
5F4
  5
EB1
331
5FC
  5
EFC
331
1E16
  5
219E
331
1BFF
  5
1F4A
331
2892
  5
2892
331
25AC
  5
25B4
331
25B4
  5
25BB
331
2833
  5
2836
331
2505
  5
2457
331
25BC
  5
25C4
331
283B
  5
2838
331
54E
  5
5D2
331
5AD
  5
600
331
48F
  5
4AE
331
9C
  5
9C
331
2448
  5
2503
331
22F1
  5
2448
331
1DFF
  5
20D9
331
25C4
  5
236D
331
28DA
  5
28DA
331
AA
  5
AB
331
1A83
  5
1E96
331
50F
  5
5A0
331
A2C
  5
1525
331
3E0
  5
40A
331
586
  5
5FA
331
5F5
  5
EB2
331
537
  5
5B0
331
5FD
  5
1422
331
1E1F
  5
219F
331
21B2
  5
22F0
331
1C00
  5
1F57
331
1E4F
  5
207F
331
25AD
  5
2446
331
25B5
  5
25BC
331
2834
  5
277D
331
2506
  5
245A
331
25BD
  5
25C5
331
53F
  5
5B8
331
262
  5
263
331
480
  5
4A7
331
1A44
  5
1E23
331
A5
  5
A8
331
2441
  5
245B
331
2035
  5
2202
331
2449
  5
245E
331
22F2
  5
2449
331
203D
  5
222D
331
239A
  5
2447
331
21A3
  5
2040
331
25C5
  5
236F
331
28DB
  5
28DB
331
277D
  5
2839
331
288C
  5
288C
331
AB
  5
AD
331
1A84
  5
1EA4
331
A2D
  5
15B6
331
5F6
  5
EB6
331
39A
  5
3B2
331
5FE
  5
1496
331
21AB
  5
2281
331
1E20
  5
21A0
331
1C01
  5
1F89
331
245F
  5
24F9
331
25B6
  5
25BD
331
2835
  5
277B
331
24FF
  5
21AA
331
25BE
  5
25C6
331
540
  5
5B9
331
59F
  5
5FB
331
22EB
  5
2442
331
22F3
  5
244C
331
203E
  5
2095
331
2095
  5
2258
331
1F57
  5
21B6
331
244A
  5
24FC
331
25C6
  5
2284
331
28DC
  5
28DC
331
2885
  5
2885
331
277E
  5
2835
331
288D
  5
288D
331
558
  5
5D8
331
511
  5
5A1
331
5F7
  5
EBB
331
39B
  5
3DE
331
5FF
  5
1499
331
21AC
  5
2282
331
2458
  5
2506
331
1BFA
  5
1F0B
331
21B4
  5
22F4
331
2254
  5
23FA
331
2500
  5
21AF
331
25B7
  5
25BE
331
2836
  5
2832
331
25BF
  5
25C7
331
5A0
  5
5FC
331
334
  5
339
331
1A46
  5
1E24
331
2443
  5
24FB
331
22EC
  5
2445
331
2175
  5
225F
331
22F4
  5
2455
331
21A5
  5
226D
331
204F
  5
2256
331
2777
  5
2777
331
28D5
  5
28D5
331
277F
  5
277A
331
2886
  5
2886
331
288E
  5
288E
331
5D0
  5
DCC
331
384
  5
39B
331
AD
  5
25F
331
5D8
  5
EAE
331
532
  5
5AD
331
5F8
  5
EDE
331
473
  5
49E
331
21AD
  5
2283
331
1BFB
  5
1F2C
331
21B5
  5
236E
331
2461
  5
25AA
331
212E
  5
225D
331
207F
  5
2257
331
243C
  5
245F
331
282F
  5
283B
331
2501
  5
2220
331
25B8
  5
25BF
331
2837
  5
2834
331
53A
  5
5B2
331
600
  5
149B
331
5A9
  5
5FE
331
32D
  5
32F
331
335
  5
33C
331
1A47
  5
1E4C
331
A0
  5
A5
331
1DDB
  5
203E
331
2444
  5
24FD
331
2038
  5
2254
331
244C
  5
24FE
331
1EE2
  5
21B1
331
25C0
  5
274E
331
21A6
  5
227B
331
28D6
  5
28D6
331
2778
  5
2778
331
2887
  5
2887
331
288F
  5
288F
331
55A
  5
5F4
331
56A
  5
5F8
331
533
  5
5AE
331
5F9
  5
EDF
331
1F89
  5
21B7
331
2405
  5
245D
331
21AE
  5
22B5
331
1E23
  5
21A1
331
1BFC
  5
1F45
331
21B6
  5
239E
331
2780
  5
2831
331
2462
  5
25AD
331
2256
  5
243C
331
2830
  5
2833
331
2838
  5
282F
331
2502
  5
21A3
331
25B9
  5
25C0
331
601
  5
149C
331
54B
  5
5BA
331
5AA
  5
5FF
331
1F4A
  5
21B4
331
2445
  5
24FF
331
239E
  5
2458
331
21A7
  5
227C
331
23FE
  5
245C
331
28D7
  5
28D7
331
5D2
  5
E80
331
A29
  5
1524
331
3DD
  5
3E3
331
5FA
  5
EE1
331
21AF
  5
22B7
331
1E24
  5
21A9
331
1FBA
  5
21BA
331
1BFD
  5
1F46
331
21B7
  5
23F9
331
2890
  5
2890
331
1E4C
  5
21AE
331
1C05
  5
A0
331
21C7
  5
3BF
331
2463
  5
25AE
331
243E
  5
2462
331
25B2
  5
25B9
331
2831
  5
2837
331
25BA
  5
25C2
331
2839
  5
2780
331
53C
  5
5B4
331
602
  5
149D
331
54C
  5
5D0
331
49D
  5
532
331
1ED4
  5
21A5
331
21A0
  5
21A4
331
20D9
  5
225B
331
28D0
  5
28D0
331
28D8
  5
28D8
331
2889
  5
2889
331
A8
  5
A9
331
1A81
  5
1E4D
331
55C
  5
5F5
331
56C
  5
5F9
331
3DE
  5
3E4
331
5FB
  5
EE2
331
21A8
  5
227E
331
1E15
  5
2175
331
2121
  5
225C
331
1F2C
  5
21B2
331
1BFE
  5
1F48
331
245C
  5
2504
331
2464
  5
25B3
331
243F
  5
2464
331
25B3
  5
25BA
331
2832
  5
277E
331
25BB
  5
25C3
331
53D
  5
5B7
331
603
  5
149E
331
260
  5
261
331
3BF
  5
3E0
331
48E
  5
4AA
  0
SORTENTSTABLE
  5
1BE3
102
{ACAD_REACTORS
330
1BE2
102
}
330
1BE2
100
AcDbSortentsTable
330
1BDF
  0
XRECORD
  5
2A3A
102
{ACAD_REACTORS
330
2A39
102
}
330
2A39
100
AcDbXrecord
280
     1
102
SHADEPLOT
 70
     0
  0
XRECORD
  5
2A3C
102
{ACAD_REACTORS
330
2A3B
102
}
330
2A3B
100
AcDbXrecord
280
     1
102
SHADEPLOT
 70
     0
  0
LAYOUT
  5
22
102
{ACAD_XDICTIONARY
360
2A35
102
}
102
{ACAD_REACTORS
330
1A
102
}
330
1A
100
AcDbPlotSettings
  1

  2
EPSON PM-800C
  4
A4
  6

 40
3.757083177566528
 41
14.7637300491333
 42
3.757080078125
 43
3.757080078125
 44
209.9733276367187
 45
296.9683227539062
 46
0.0
 47
0.0
 48
0.0
 49
0.0
140
0.0
141
0.0
142
1.0
143
10.0
 70
 11952
 72
     1
 73
     1
 74
     2
  7

 75
    20
147
0.1
148
0.0
149
0.0
100
AcDbLayout
  1
Model
 70
     1
 71
     0
 10
0.0
 20
0.0
 11
12.0
 21
9.0
 12
0.0
 22
0.0
 32
0.0
 14
0.0
 24
0.0
 34
0.0
 15
0.0
 25
0.0
 35
0.0
146
0.0
 13
0.0
 23
0.0
 33
0.0
 16
1.0
 26
0.0
 36
0.0
 17
0.0
 27
1.0
 37
0.0
 76
     0
330
1F
  0
LAYOUT
  5
1E
102
{ACAD_XDICTIONARY
360
2A33
102
}
102
{ACAD_REACTORS
330
1A
102
}
330
1A
100
AcDbPlotSettings
  1

  2
EPSON PM-800C
  4
A4
  6

 40
3.757083177566528
 41
14.7637300491333
 42
3.757080078125
 43
3.757080078125
 44
209.9733276367187
 45
296.9683227539062
 46
0.0
 47
0.0
 48
0.0
 49
0.0
140
0.0
141
0.0
142
1.0
143
1.0
 70
   688
 72
     1
 73
     1
 74
     5
  7

 75
    16
147
1.0
148
0.0
149
0.0
100
AcDbLayout
  1
ﾚｲｱｳﾄ1
 70
     1
 71
     1
 10
-3.757080078125
 20
-3.757083177566528
 11
293.2112426757813
 21
206.2162444591522
 12
0.0
 22
0.0
 32
0.0
 14
27.8447512626648
 24
20.24591643810271
 34
0.0
 15
250.6027613639831
 25
182.2132479429245
 35
0.0
146
0.0
 13
0.0
 23
0.0
 33
0.0
 16
1.0
 26
0.0
 36
0.0
 17
0.0
 27
1.0
 37
0.0
 76
     0
330
1B
331
2E
  0
LAYOUT
  5
26
102
{ACAD_XDICTIONARY
360
2A37
102
}
102
{ACAD_REACTORS
330
1A
102
}
330
1A
100
AcDbPlotSettings
  1

  2
EPSON PM-800C
  4

  6

 40
0.0
 41
0.0
 42
0.0
 43
0.0
 44
0.0
 45
0.0
 46
0.0
 47
0.0
 48
0.0
 49
0.0
140
0.0
141
0.0
142
1.0
143
1.0
 70
   688
 72
     0
 73
     0
 74
     5
  7

 75
    16
147
1.0
148
0.0
149
0.0
100
AcDbLayout
  1
ﾚｲｱｳﾄ2
 70
     1
 71
     2
 10
0.0
 20
0.0
 11
12.0
 21
9.0
 12
0.0
 22
0.0
 32
0.0
 14
0.0
 24
0.0
 34
0.0
 15
0.0
 25
0.0
 35
0.0
146
0.0
 13
0.0
 23
0.0
 33
0.0
 16
1.0
 26
0.0
 36
0.0
 17
0.0
 27
1.0
 37
0.0
 76
     0
330
23
  0
MLINESTYLE
  5
18
102
{ACAD_REACTORS
330
17
102
}
330
17
100
AcDbMlineStyle
  2
STANDARD
 70
     0
  3

 62
   256
 51
90.0
 52
90.0
 71
     2
 49
0.5
 62
   256
  6
BYLAYER
 49
-0.5
 62
   256
  6
BYLAYER
  0
ACDBPLACEHOLDER
  5
F
102
{ACAD_REACTORS
330
E
102
}
330
E
  0
TABLESTYLE
  5
19FB
102
{ACAD_REACTORS
330
19FA
102
}
330
19FA
100
AcDbTableStyle
  3
Standard
 70
     0
 71
     0
 40
1.5
 41
1.5
280
     0
281
     0
  7
Standard
140
4.5
170
     2
 62
     0
 63
     7
283
     0
274
    -2
284
     1
 64
     0
275
    -2
285
     1
 65
     0
276
    -2
286
     1
 66
     0
277
    -2
287
     1
 67
     0
278
    -2
288
     1
 68
     0
279
    -2
289
     1
 69
     0
  7
Standard
140
6.0
170
     5
 62
     0
 63
     7
283
     0
274
    -2
284
     1
 64
     0
275
    -2
285
     1
 65
     0
276
    -2
286
     1
 66
     0
277
    -2
287
     1
 67
     0
278
    -2
288
     1
 68
     0
279
    -2
289
     1
 69
     0
  7
Standard
140
4.5
170
     5
 62
     0
 63
     7
283
     0
274
    -2
284
     1
 64
     0
275
    -2
285
     1
 65
     0
276
    -2
286
     1
 66
     0
277
    -2
287
     1
 67
     0
278
    -2
288
     1
 68
     0
279
    -2
289
     1
 69
     0
  0
DICTIONARYVAR
  5
1A01
102
{ACAD_REACTORS
330
96D
102
}
330
96D
100
DictionaryVariables
280
     0
  1
STANDARD
  0
DICTIONARYVAR
  5
2A2F
102
{ACAD_REACTORS
330
96D
102
}
330
96D
100
DictionaryVariables
280
     0
  1
1
  0
DICTIONARYVAR
  5
2A30
102
{ACAD_REACTORS
330
96D
102
}
330
96D
100
DictionaryVariables
280
     0
  1

  0
DICTIONARYVAR
  5
96E
102
{ACAD_REACTORS
330
96D
102
}
330
96D
100
DictionaryVariables
280
     0
  1
96
  0
DICTIONARY
  5
2A35
330
22
100
AcDbDictionary
280
     1
281
     1
  3
ACAD_XREC_ROUNDTRIP
360
2A36
  0
DICTIONARY
  5
2A33
330
1E
100
AcDbDictionary
280
     1
281
     1
  3
ACAD_XREC_ROUNDTRIP
360
2A34
  0
DICTIONARY
  5
2A37
330
26
100
AcDbDictionary
280
     1
281
     1
  3
ACAD_XREC_ROUNDTRIP
360
2A38
  0
XRECORD
  5
2A36
102
{ACAD_REACTORS
330
2A35
102
}
330
2A35
100
AcDbXrecord
280
     1
102
SHADEPLOT
 70
     0
102
SHADEPLOTRESLEVEL
 70
     2
102
SHADEPLOTCUSTOMDPI
 70
   300
  0
XRECORD
  5
2A34
102
{ACAD_REACTORS
330
2A33
102
}
330
2A33
100
AcDbXrecord
280
     1
102
SHADEPLOT
 70
     0
102
SHADEPLOTRESLEVEL
 70
     2
102
SHADEPLOTCUSTOMDPI
 70
   300
  0
XRECORD
  5
2A38
102
{ACAD_REACTORS
330
2A37
102
}
330
2A37
100
AcDbXrecord
280
     1
102
SHADEPLOT
 70
     0
102
SHADEPLOTRESLEVEL
 70
     2
102
SHADEPLOTCUSTOMDPI
 70
   300
  0
ENDSEC
  0
EOF
