  0
SECTION
  2
HEADER
  9
$ACADVER
  1
AC1015
  9
$ACADMAINTVER
 70
    20
  9
$DWGCODEPAGE
  3
ANSI_932
  9
$INSBASE
 10
0.0
 20
0.0
 30
0.0
  9
$EXTMIN
 10
109.0
 20
4.0
 30
0.0
  9
$EXTMAX
 10
2784.000000000001
 20
2024.000000000002
 30
0.0
  9
$LIMMIN
 10
0.0
 20
0.0
  9
$LIMMAX
 10
29700.0
 20
21000.0
  9
$ORTHOMODE
 70
     0
  9
$REGENMODE
 70
     1
  9
$FILLMODE
 70
     1
  9
$QTEXTMODE
 70
     0
  9
$MIRRTEXT
 70
     1
  9
$LTSCALE
 40
4.0
  9
$ATTMODE
 70
     1
  9
$TEXTSIZE
 40
25.0
  9
$TRACEWID
 40
1.0
  9
$TEXTSTYLE
  7
Standard
  9
$CLAYER
  8
実形
  9
$CELTYPE
  6
ByLayer
  9
$CECOLOR
 62
   256
  9
$CELTSCALE
 40
1.0
  9
$DISPSILH
 70
     0
  9
$DIMSCALE
 40
1.0
  9
$DIMASZ
 40
35.0
  9
$DIMEXO
 40
65.0
  9
$DIMDLI
 40
3.75
  9
$DIMRND
 40
0.0
  9
$DIMDLE
 40
0.0
  9
$DIMEXE
 40
0.0
  9
$DIMTP
 40
0.0
  9
$DIMTM
 40
0.0
  9
$DIMTXT
 40
25.0
  9
$DIMCEN
 40
2.5
  9
$DIMTSZ
 40
0.0
  9
$DIMTOL
 70
     0
  9
$DIMLIM
 70
     0
  9
$DIMTIH
 70
     0
  9
$DIMTOH
 70
     0
  9
$DIMSE1
 70
     0
  9
$DIMSE2
 70
     0
  9
$DIMTAD
 70
     1
  9
$DIMZIN
 70
     8
  9
$DIMBLK
  1
DotSmall
  9
$DIMASO
 70
     1
  9
$DIMSHO
 70
     1
  9
$DIMPOST
  1

  9
$DIMAPOST
  1

  9
$DIMALT
 70
     0
  9
$DIMALTD
 70
     3
  9
$DIMALTF
 40
0.03937007874016
  9
$DIMLFAC
 40
1.0
  9
$DIMTOFL
 70
     1
  9
$DIMTVP
 40
0.0
  9
$DIMTIX
 70
     0
  9
$DIMSOXD
 70
     0
  9
$DIMSAH
 70
     0
  9
$DIMBLK1
  1

  9
$DIMBLK2
  1

  9
$DIMSTYLE
  2
ISO-25
  9
$DIMCLRD
 70
     0
  9
$DIMCLRE
 70
     0
  9
$DIMCLRT
 70
     0
  9
$DIMTFAC
 40
1.0
  9
$DIMGAP
 40
6.25
  9
$DIMJUST
 70
     0
  9
$DIMSD1
 70
     0
  9
$DIMSD2
 70
     0
  9
$DIMTOLJ
 70
     0
  9
$DIMTZIN
 70
     8
  9
$DIMALTZ
 70
     0
  9
$DIMALTTZ
 70
     0
  9
$DIMUPT
 70
     0
  9
$DIMDEC
 70
     2
  9
$DIMTDEC
 70
     2
  9
$DIMALTU
 70
     2
  9
$DIMALTTD
 70
     3
  9
$DIMTXSTY
  7
Standard
  9
$DIMAUNIT
 70
     0
  9
$DIMADEC
 70
     0
  9
$DIMALTRND
 40
0.0
  9
$DIMAZIN
 70
     0
  9
$DIMDSEP
 70
    46
  9
$DIMATFIT
 70
     3
  9
$DIMFRAC
 70
     0
  9
$DIMLDRBLK
  1
Open30
  9
$DIMLUNIT
 70
     2
  9
$DIMLWD
 70
    18
  9
$DIMLWE
 70
    18
  9
$DIMTMOVE
 70
     0
  9
$LUNITS
 70
     2
  9
$LUPREC
 70
     2
  9
$SKETCHINC
 40
1.0
  9
$FILLETRAD
 40
30.0
  9
$AUNITS
 70
     0
  9
$AUPREC
 70
     0
  9
$MENU
  1
.
  9
$ELEVATION
 40
0.0
  9
$PELEVATION
 40
0.0
  9
$THICKNESS
 40
0.0
  9
$LIMCHECK
 70
     1
  9
$CHAMFERA
 40
10.0
  9
$CHAMFERB
 40
10.0
  9
$CHAMFERC
 40
20.0
  9
$CHAMFERD
 40
0.0
  9
$SKPOLY
 70
     0
  9
$TDCREATE
 40
2451673.575802199
  9
$TDUCREATE
 40
2451673.200802199
  9
$TDUPDATE
 40
2458810.732994665
  9
$TDUUPDATE
 40
2458810.357994664
  9
$TDINDWG
 40
1.1653623727
  9
$TDUSRTIMER
 40
1.1653616782
  9
$USRTIMER
 70
     1
  9
$ANGBASE
 50
0.0
  9
$ANGDIR
 70
     0
  9
$PDMODE
 70
     3
  9
$PDSIZE
 40
0.0
  9
$PLINEWID
 40
0.0
  9
$SPLFRAME
 70
     0
  9
$SPLINETYPE
 70
     6
  9
$SPLINESEGS
 70
     8
  9
$HANDSEED
  5
2563
  9
$SURFTAB1
 70
     6
  9
$SURFTAB2
 70
     6
  9
$SURFTYPE
 70
     6
  9
$SURFU
 70
     6
  9
$SURFV
 70
     6
  9
$UCSBASE
  2

  9
$UCSNAME
  2

  9
$UCSORG
 10
0.0
 20
0.0
 30
0.0
  9
$UCSXDIR
 10
1.0
 20
0.0
 30
0.0
  9
$UCSYDIR
 10
0.0
 20
1.0
 30
0.0
  9
$UCSORTHOREF
  2

  9
$UCSORTHOVIEW
 70
     0
  9
$UCSORGTOP
 10
0.0
 20
0.0
 30
0.0
  9
$UCSORGBOTTOM
 10
0.0
 20
0.0
 30
0.0
  9
$UCSORGLEFT
 10
0.0
 20
0.0
 30
0.0
  9
$UCSORGRIGHT
 10
0.0
 20
0.0
 30
0.0
  9
$UCSORGFRONT
 10
0.0
 20
0.0
 30
0.0
  9
$UCSORGBACK
 10
0.0
 20
0.0
 30
0.0
  9
$PUCSBASE
  2

  9
$PUCSNAME
  2

  9
$PUCSORG
 10
0.0
 20
0.0
 30
0.0
  9
$PUCSXDIR
 10
1.0
 20
0.0
 30
0.0
  9
$PUCSYDIR
 10
0.0
 20
1.0
 30
0.0
  9
$PUCSORTHOREF
  2

  9
$PUCSORTHOVIEW
 70
     0
  9
$PUCSORGTOP
 10
0.0
 20
0.0
 30
0.0
  9
$PUCSORGBOTTOM
 10
0.0
 20
0.0
 30
0.0
  9
$PUCSORGLEFT
 10
0.0
 20
0.0
 30
0.0
  9
$PUCSORGRIGHT
 10
0.0
 20
0.0
 30
0.0
  9
$PUCSORGFRONT
 10
0.0
 20
0.0
 30
0.0
  9
$PUCSORGBACK
 10
0.0
 20
0.0
 30
0.0
  9
$USERI1
 70
     0
  9
$USERI2
 70
     0
  9
$USERI3
 70
     0
  9
$USERI4
 70
     0
  9
$USERI5
 70
     0
  9
$USERR1
 40
0.0
  9
$USERR2
 40
0.0
  9
$USERR3
 40
0.0
  9
$USERR4
 40
0.0
  9
$USERR5
 40
0.0
  9
$WORLDVIEW
 70
     1
  9
$SHADEDGE
 70
     3
  9
$SHADEDIF
 70
    70
  9
$TILEMODE
 70
     1
  9
$MAXACTVP
 70
    64
  9
$PINSBASE
 10
0.0
 20
0.0
 30
0.0
  9
$PLIMCHECK
 70
     0
  9
$PEXTMIN
 10
27.8447512626648
 20
20.24591643810271
 30
0.0
  9
$PEXTMAX
 10
250.6027613639831
 20
182.2132479429245
 30
0.0
  9
$PLIMMIN
 10
-3.757080078125
 20
-3.757083177566528
  9
$PLIMMAX
 10
293.2112426757813
 20
206.2162444591522
  9
$UNITMODE
 70
     0
  9
$VISRETAIN
 70
     1
  9
$PLINEGEN
 70
     0
  9
$PSLTSCALE
 70
     1
  9
$TREEDEPTH
 70
  3020
  9
$CMLSTYLE
  2
Standard
  9
$CMLJUST
 70
     0
  9
$CMLSCALE
 40
20.0
  9
$PROXYGRAPHICS
 70
     1
  9
$MEASUREMENT
 70
     1
  9
$CELWEIGHT
370
    -1
  9
$ENDCAPS
280
     0
  9
$JOINSTYLE
280
     0
  9
$LWDISPLAY
290
     0
  9
$INSUNITS
 70
     4
  9
$HYPERLINKBASE
  1

  9
$STYLESHEET
  1

  9
$XEDIT
290
     1
  9
$CEPSNTYPE
380
     0
  9
$PSTYLEMODE
290
     1
  9
$FINGERPRINTGUID
  2
{C8EA1F16-24C9-11D4-9416-CE0A3B32152F}
  9
$VERSIONGUID
  2
{8859C712-2A5D-4C9D-B3BC-F8A879C97200}
  9
$EXTNAMES
290
     1
  9
$PSVPSCALE
 40
0.0
  9
$OLESTARTUP
290
     0
  0
ENDSEC
  0
SECTION
  2
CLASSES
  0
CLASS
  1
ACDBDICTIONARYWDFLT
  2
AcDbDictionaryWithDefault
  3
ObjectDBX Classes
 90
        0
280
     0
281
     0
  0
CLASS
  1
ACDBPLACEHOLDER
  2
AcDbPlaceHolder
  3
ObjectDBX Classes
 90
        0
280
     0
281
     0
  0
CLASS
  1
LAYOUT
  2
AcDbLayout
  3
ObjectDBX Classes
 90
        0
280
     0
281
     0
  0
CLASS
  1
TABLESTYLE
  2
AcDbTableStyle
  3
ObjectDBX Classes
 90
     2047
280
     0
281
     0
  0
CLASS
  1
SORTENTSTABLE
  2
AcDbSortentsTable
  3
ObjectDBX Classes
 90
        0
280
     0
281
     0
  0
CLASS
  1
DICTIONARYVAR
  2
AcDbDictionaryVar
  3
ObjectDBX Classes
 90
        0
280
     0
281
     0
  0
ENDSEC
  0
SECTION
  2
TABLES
  0
TABLE
  2
VPORT
  5
8
330
0
100
AcDbSymbolTable
 70
     2
  0
VPORT
  5
2557
330
8
100
AcDbSymbolTableRecord
100
AcDbViewportTableRecord
  2
*Active
 70
     0
 10
0.0
 20
0.0
 11
1.0
 21
1.0
 12
1690.110425793501
 22
964.5950139445316
 13
0.0
 23
0.0
 14
10.0
 24
10.0
 15
10.0
 25
10.0
 16
0.0
 26
0.0
 36
1.0
 17
0.0
 27
0.0
 37
0.0
 40
2630.787382051108
 41
1.29038112522686
 42
50.0
 43
0.0
 44
0.0
 50
0.0
 51
0.0
 71
     0
 72
   100
 73
     1
 74
     3
 75
     0
 76
     0
 77
     0
 78
     0
281
     0
 65
     1
110
0.0
120
0.0
130
0.0
111
1.0
121
0.0
131
0.0
112
0.0
122
1.0
132
0.0
 79
     0
146
0.0
  0
ENDTAB
  0
TABLE
  2
LTYPE
  5
5
330
0
100
AcDbSymbolTable
 70
    46
  0
LTYPE
  5
14
330
5
100
AcDbSymbolTableRecord
100
AcDbLinetypeTableRecord
  2
ByBlock
 70
     0
  3

 72
    65
 73
     0
 40
0.0
  0
LTYPE
  5
15
330
5
100
AcDbSymbolTableRecord
100
AcDbLinetypeTableRecord
  2
ByLayer
 70
     0
  3

 72
    65
 73
     0
 40
0.0
  0
LTYPE
  5
16
330
5
100
AcDbSymbolTableRecord
100
AcDbLinetypeTableRecord
  2
Continuous
 70
     0
  3
Solid line
 72
    65
 73
     0
 40
0.0
  0
LTYPE
  5
34
330
5
100
AcDbSymbolTableRecord
100
AcDbLinetypeTableRecord
  2
ACAD_ISO02W100
 70
     0
  3
ISO dash __ __ __ __ __ __ __ __ __ __ __ __ __
 72
    65
 73
     2
 40
15.0
 49
12.0
 74
     0
 49
-3.0
 74
     0
  0
LTYPE
  5
35
330
5
100
AcDbSymbolTableRecord
100
AcDbLinetypeTableRecord
  2
ACAD_ISO03W100
 70
     0
  3
ISO dash space __    __    __    __    __    __
 72
    65
 73
     2
 40
30.0
 49
12.0
 74
     0
 49
-18.0
 74
     0
  0
LTYPE
  5
36
330
5
100
AcDbSymbolTableRecord
100
AcDbLinetypeTableRecord
  2
ACAD_ISO04W100
 70
     0
  3
ISO long-dash dot ____ . ____ . ____ . ____ . _
 72
    65
 73
     4
 40
30.0
 49
24.0
 74
     0
 49
-3.0
 74
     0
 49
0.0
 74
     0
 49
-3.0
 74
     0
  0
LTYPE
  5
37
330
5
100
AcDbSymbolTableRecord
100
AcDbLinetypeTableRecord
  2
ACAD_ISO05W100
 70
     0
  3
ISO long-dash double-dot ____ .. ____ .. ____ .
 72
    65
 73
     6
 40
34.0
 49
24.0
 74
     0
 49
-3.0
 74
     0
 49
0.5
 74
     0
 49
-3.0
 74
     0
 49
0.5
 74
     0
 49
-3.0
 74
     0
  0
LTYPE
  5
38
330
5
100
AcDbSymbolTableRecord
100
AcDbLinetypeTableRecord
  2
ACAD_ISO06W100
 70
     0
  3
ISO long-dash triple-dot ____ ... ____ ... ____
 72
    65
 73
     8
 40
37.5
 49
24.0
 74
     0
 49
-3.0
 74
     0
 49
0.5
 74
     0
 49
-3.0
 74
     0
 49
0.5
 74
     0
 49
-3.0
 74
     0
 49
0.5
 74
     0
 49
-3.0
 74
     0
  0
LTYPE
  5
39
330
5
100
AcDbSymbolTableRecord
100
AcDbLinetypeTableRecord
  2
ACAD_ISO07W100
 70
     0
  3
ISO dot . . . . . . . . . . . . . . . . . . . .
 72
    65
 73
     2
 40
3.0
 49
0.0
 74
     0
 49
-3.0
 74
     0
  0
LTYPE
  5
3A
330
5
100
AcDbSymbolTableRecord
100
AcDbLinetypeTableRecord
  2
ACAD_ISO08W100
 70
     0
  3
ISO long-dash short-dash ____ __ ____ __ ____ _
 72
    65
 73
     4
 40
36.0
 49
24.0
 74
     0
 49
-3.0
 74
     0
 49
6.0
 74
     0
 49
-3.0
 74
     0
  0
LTYPE
  5
3B
330
5
100
AcDbSymbolTableRecord
100
AcDbLinetypeTableRecord
  2
ACAD_ISO09W100
 70
     0
  3
ISO long-dash double-short-dash ____ __ __ ____
 72
    65
 73
     6
 40
45.0
 49
24.0
 74
     0
 49
-3.0
 74
     0
 49
6.0
 74
     0
 49
-3.0
 74
     0
 49
6.0
 74
     0
 49
-3.0
 74
     0
  0
LTYPE
  5
3C
330
5
100
AcDbSymbolTableRecord
100
AcDbLinetypeTableRecord
  2
ACAD_ISO10W100
 70
     0
  3
ISO dash dot __ . __ . __ . __ . __ . __ . __ .
 72
    65
 73
     4
 40
18.0
 49
12.0
 74
     0
 49
-3.0
 74
     0
 49
0.0
 74
     0
 49
-3.0
 74
     0
  0
LTYPE
  5
3D
330
5
100
AcDbSymbolTableRecord
100
AcDbLinetypeTableRecord
  2
ACAD_ISO11W100
 70
     0
  3
ISO double-dash dot __ __ . __ __ . __ __ . __ 
 72
    65
 73
     6
 40
33.0
 49
12.0
 74
     0
 49
-3.0
 74
     0
 49
12.0
 74
     0
 49
-3.0
 74
     0
 49
0.0
 74
     0
 49
-3.0
 74
     0
  0
LTYPE
  5
3E
330
5
100
AcDbSymbolTableRecord
100
AcDbLinetypeTableRecord
  2
ACAD_ISO12W100
 70
     0
  3
ISO dash double-dot __ . . __ . . __ . . __ . .
 72
    65
 73
     6
 40
21.0
 49
12.0
 74
     0
 49
-3.0
 74
     0
 49
0.0
 74
     0
 49
-3.0
 74
     0
 49
0.0
 74
     0
 49
-3.0
 74
     0
  0
LTYPE
  5
3F
330
5
100
AcDbSymbolTableRecord
100
AcDbLinetypeTableRecord
  2
ACAD_ISO13W100
 70
     0
  3
ISO double-dash double-dot __ __ . . __ __ . . 
 72
    65
 73
     8
 40
36.0
 49
12.0
 74
     0
 49
-3.0
 74
     0
 49
12.0
 74
     0
 49
-3.0
 74
     0
 49
0.0
 74
     0
 49
-3.0
 74
     0
 49
0.0
 74
     0
 49
-3.0
 74
     0
  0
LTYPE
  5
40
330
5
100
AcDbSymbolTableRecord
100
AcDbLinetypeTableRecord
  2
ACAD_ISO14W100
 70
     0
  3
ISO dash triple-dot __ . . . __ . . . __ . . . 
 72
    65
 73
     8
 40
24.0
 49
12.0
 74
     0
 49
-3.0
 74
     0
 49
0.0
 74
     0
 49
-3.0
 74
     0
 49
0.0
 74
     0
 49
-3.0
 74
     0
 49
0.0
 74
     0
 49
-3.0
 74
     0
  0
LTYPE
  5
41
330
5
100
AcDbSymbolTableRecord
100
AcDbLinetypeTableRecord
  2
ACAD_ISO15W100
 70
     0
  3
ISO double-dash triple-dot __ __ . . . __ __ . 
 72
    65
 73
    10
 40
39.0
 49
12.0
 74
     0
 49
-3.0
 74
     0
 49
12.0
 74
     0
 49
-3.0
 74
     0
 49
0.0
 74
     0
 49
-3.0
 74
     0
 49
0.0
 74
     0
 49
-3.0
 74
     0
 49
0.0
 74
     0
 49
-3.0
 74
     0
  0
LTYPE
  5
42
330
5
100
AcDbSymbolTableRecord
100
AcDbLinetypeTableRecord
  2
BATTING
 70
     0
  3
Batting SSSSSSSSSSSSSSSSSSSSSSSSSSSSSSSSSSSSSSS
 72
    65
 73
     4
 40
10.16254
 49
0.00254
 74
     0
 49
-2.54
 74
     4
 75
   134
340
33
 46
2.54
 50
0.0
 44
-2.54
 45
0.0
 49
-5.08
 74
     4
 75
   134
340
33
 46
2.54
 50
180.0
 44
2.54
 45
0.0
 49
-2.54
 74
     0
  0
LTYPE
  5
43
330
5
100
AcDbSymbolTableRecord
100
AcDbLinetypeTableRecord
  2
BORDER
 70
     0
  3
Border __ __ . __ __ . __ __ . __ __ . __ __ .
 72
    65
 73
     6
 40
44.45
 49
12.7
 74
     0
 49
-6.349999999999999
 74
     0
 49
12.7
 74
     0
 49
-6.349999999999999
 74
     0
 49
0.0
 74
     0
 49
-6.349999999999999
 74
     0
  0
LTYPE
  5
44
330
5
100
AcDbSymbolTableRecord
100
AcDbLinetypeTableRecord
  2
BORDER2
 70
     0
  3
Border (.5x) __.__.__.__.__.__.__.__.__.__.__.
 72
    65
 73
     6
 40
22.225
 49
6.349999999999999
 74
     0
 49
-3.174999999999999
 74
     0
 49
6.349999999999999
 74
     0
 49
-3.174999999999999
 74
     0
 49
0.0
 74
     0
 49
-3.174999999999999
 74
     0
  0
LTYPE
  5
45
330
5
100
AcDbSymbolTableRecord
100
AcDbLinetypeTableRecord
  2
BORDERX2
 70
     0
  3
Border (2x) ____  ____  .  ____  ____  .  ___
 72
    65
 73
     6
 40
88.9
 49
25.4
 74
     0
 49
-12.7
 74
     0
 49
25.4
 74
     0
 49
-12.7
 74
     0
 49
0.0
 74
     0
 49
-12.7
 74
     0
  0
LTYPE
  5
46
330
5
100
AcDbSymbolTableRecord
100
AcDbLinetypeTableRecord
  2
CENTER
 70
     0
  3
Center ____ _ ____ _ ____ _ ____ _ ____ _ ____
 72
    65
 73
     4
 40
50.8
 49
31.75
 74
     0
 49
-6.349999999999999
 74
     0
 49
6.349999999999999
 74
     0
 49
-6.349999999999999
 74
     0
  0
LTYPE
  5
47
330
5
100
AcDbSymbolTableRecord
100
AcDbLinetypeTableRecord
  2
CENTER2
 70
     0
  3
Center (.5x) ___ _ ___ _ ___ _ ___ _ ___ _ ___
 72
    65
 73
     4
 40
28.575
 49
19.05
 74
     0
 49
-3.174999999999999
 74
     0
 49
3.174999999999999
 74
     0
 49
-3.174999999999999
 74
     0
  0
LTYPE
  5
48
330
5
100
AcDbSymbolTableRecord
100
AcDbLinetypeTableRecord
  2
CENTERX2
 70
     0
  3
Center (2x) ________  __  ________  __  _____
 72
    65
 73
     4
 40
101.6
 49
63.5
 74
     0
 49
-12.7
 74
     0
 49
12.7
 74
     0
 49
-12.7
 74
     0
  0
LTYPE
  5
49
330
5
100
AcDbSymbolTableRecord
100
AcDbLinetypeTableRecord
  2
DASHDOT
 70
     0
  3
Dash dot __ . __ . __ . __ . __ . __ . __ . __
 72
    65
 73
     4
 40
25.4
 49
12.7
 74
     0
 49
-6.349999999999999
 74
     0
 49
0.0
 74
     0
 49
-6.349999999999999
 74
     0
  0
LTYPE
  5
4A
330
5
100
AcDbSymbolTableRecord
100
AcDbLinetypeTableRecord
  2
DASHDOT2
 70
     0
  3
Dash dot (.5x) _._._._._._._._._._._._._._._.
 72
    65
 73
     4
 40
12.7
 49
6.349999999999999
 74
     0
 49
-3.174999999999999
 74
     0
 49
0.0
 74
     0
 49
-3.174999999999999
 74
     0
  0
LTYPE
  5
4B
330
5
100
AcDbSymbolTableRecord
100
AcDbLinetypeTableRecord
  2
DASHDOTX2
 70
     0
  3
Dash dot (2x) ____  .  ____  .  ____  .  ___
 72
    65
 73
     4
 40
50.8
 49
25.4
 74
     0
 49
-12.7
 74
     0
 49
0.0
 74
     0
 49
-12.7
 74
     0
  0
LTYPE
  5
4C
330
5
100
AcDbSymbolTableRecord
100
AcDbLinetypeTableRecord
  2
DASHED
 70
     0
  3
Dashed __ __ __ __ __ __ __ __ __ __ __ __ __ _
 72
    65
 73
     2
 40
19.05
 49
12.7
 74
     0
 49
-6.349999999999999
 74
     0
  0
LTYPE
  5
4D
330
5
100
AcDbSymbolTableRecord
100
AcDbLinetypeTableRecord
  2
DASHED2
 70
     0
  3
Dashed (.5x) _ _ _ _ _ _ _ _ _ _ _ _ _ _ _ _ _
 72
    65
 73
     2
 40
9.524999999999998
 49
6.349999999999999
 74
     0
 49
-3.174999999999999
 74
     0
  0
LTYPE
  5
4E
330
5
100
AcDbSymbolTableRecord
100
AcDbLinetypeTableRecord
  2
DASHEDX2
 70
     0
  3
Dashed (2x) ____  ____  ____  ____  ____  ___
 72
    65
 73
     2
 40
38.1
 49
25.4
 74
     0
 49
-12.7
 74
     0
  0
LTYPE
  5
4F
330
5
100
AcDbSymbolTableRecord
100
AcDbLinetypeTableRecord
  2
DIVIDE
 70
     0
  3
Divide ____ . . ____ . . ____ . . ____ . . ____
 72
    65
 73
     6
 40
31.75
 49
12.7
 74
     0
 49
-6.349999999999999
 74
     0
 49
0.0
 74
     0
 49
-6.349999999999999
 74
     0
 49
0.0
 74
     0
 49
-6.349999999999999
 74
     0
  0
LTYPE
  5
50
330
5
100
AcDbSymbolTableRecord
100
AcDbLinetypeTableRecord
  2
DIVIDE2
 70
     0
  3
Divide (.5x) __..__..__..__..__..__..__..__.._
 72
    65
 73
     6
 40
15.875
 49
6.349999999999999
 74
     0
 49
-3.174999999999999
 74
     0
 49
0.0
 74
     0
 49
-3.174999999999999
 74
     0
 49
0.0
 74
     0
 49
-3.174999999999999
 74
     0
  0
LTYPE
  5
51
330
5
100
AcDbSymbolTableRecord
100
AcDbLinetypeTableRecord
  2
DIVIDEX2
 70
     0
  3
Divide (2x) ________  .  .  ________  .  .  _
 72
    65
 73
     6
 40
63.49999999999999
 49
25.4
 74
     0
 49
-12.7
 74
     0
 49
0.0
 74
     0
 49
-12.7
 74
     0
 49
0.0
 74
     0
 49
-12.7
 74
     0
  0
LTYPE
  5
52
330
5
100
AcDbSymbolTableRecord
100
AcDbLinetypeTableRecord
  2
DOT
 70
     0
  3
Dot . . . . . . . . . . . . . . . . . . . . . .
 72
    65
 73
     2
 40
6.349999999999999
 49
0.0
 74
     0
 49
-6.349999999999999
 74
     0
  0
LTYPE
  5
53
330
5
100
AcDbSymbolTableRecord
100
AcDbLinetypeTableRecord
  2
DOT2
 70
     0
  3
Dot (.5x) .....................................
 72
    65
 73
     2
 40
3.174999999999999
 49
0.0
 74
     0
 49
-3.174999999999999
 74
     0
  0
LTYPE
  5
54
330
5
100
AcDbSymbolTableRecord
100
AcDbLinetypeTableRecord
  2
DOTX2
 70
     0
  3
Dot (2x) .  .  .  .  .  .  .  .  .  .  .  .  . 
 72
    65
 73
     2
 40
12.7
 49
0.0
 74
     0
 49
-12.7
 74
     0
  0
LTYPE
  5
55
330
5
100
AcDbSymbolTableRecord
100
AcDbLinetypeTableRecord
  2
FENCELINE1
 70
     0
  3
Fenceline circle ----0-----0----0-----0----0---
 72
    65
 73
     4
 40
36.83
 49
6.349999999999999
 74
     0
 49
-2.54
 74
     4
 75
   133
340
33
 46
2.54
 50
0.0
 44
-2.54
 45
0.0
 49
-2.54
 74
     0
 49
25.4
 74
     0
  0
LTYPE
  5
56
330
5
100
AcDbSymbolTableRecord
100
AcDbLinetypeTableRecord
  2
FENCELINE2
 70
     0
  3
Fenceline square ----[]-----[]----[]-----[]----
 72
    65
 73
     4
 40
36.83
 49
6.349999999999999
 74
     0
 49
-2.54
 74
     4
 75
   132
340
33
 46
2.54
 50
0.0
 44
-2.54
 45
0.0
 49
-2.54
 74
     0
 49
25.4
 74
     0
  0
LTYPE
  5
57
330
5
100
AcDbSymbolTableRecord
100
AcDbLinetypeTableRecord
  2
GAS_LINE
 70
     0
  3
Gas line ----GAS----GAS----GAS----GAS----GAS---
 72
    65
 73
     3
 40
24.13
 49
12.7
 74
     0
 49
-5.08
 74
     2
 75
     0
340
11
 46
2.54
 50
0.0
 44
-2.54
 45
-1.27
  9
GAS
 49
-6.349999999999999
 74
     0
  0
LTYPE
  5
58
330
5
100
AcDbSymbolTableRecord
100
AcDbLinetypeTableRecord
  2
HIDDEN
 70
     0
  3
Hidden __ __ __ __ __ __ __ __ __ __ __ __ __ _
 72
    65
 73
     2
 40
9.524999999999998
 49
6.349999999999999
 74
     0
 49
-3.174999999999999
 74
     0
  0
LTYPE
  5
59
330
5
100
AcDbSymbolTableRecord
100
AcDbLinetypeTableRecord
  2
HIDDEN2
 70
     0
  3
Hidden (.5x) _ _ _ _ _ _ _ _ _ _ _ _ _ _ _ _ _
 72
    65
 73
     2
 40
4.762499999999999
 49
3.174999999999999
 74
     0
 49
-1.587499999999999
 74
     0
  0
LTYPE
  5
5A
330
5
100
AcDbSymbolTableRecord
100
AcDbLinetypeTableRecord
  2
HIDDENX2
 70
     0
  3
Hidden (2x) ____ ____ ____ ____ ____ ____ ____
 72
    65
 73
     2
 40
19.05
 49
12.7
 74
     0
 49
-6.349999999999999
 74
     0
  0
LTYPE
  5
5B
330
5
100
AcDbSymbolTableRecord
100
AcDbLinetypeTableRecord
  2
HOT_WATER_SUPPLY
 70
     0
  3
Hot water supply ---- HW ---- HW ---- HW ----
 72
    65
 73
     3
 40
22.86
 49
12.7
 74
     0
 49
-5.08
 74
     2
 75
     0
340
11
 46
2.54
 50
0.0
 44
-2.54
 45
-1.27
  9
HW
 49
-5.08
 74
     0
  0
LTYPE
  5
5C
330
5
100
AcDbSymbolTableRecord
100
AcDbLinetypeTableRecord
  2
PHANTOM
 70
     0
  3
Phantom ______  __  __  ______  __  __  ______
 72
    65
 73
     6
 40
63.5
 49
31.75
 74
     0
 49
-6.349999999999999
 74
     0
 49
6.349999999999999
 74
     0
 49
-6.349999999999999
 74
     0
 49
6.349999999999999
 74
     0
 49
-6.349999999999999
 74
     0
  0
LTYPE
  5
5D
330
5
100
AcDbSymbolTableRecord
100
AcDbLinetypeTableRecord
  2
PHANTOM2
 70
     0
  3
Phantom (.5x) ___ _ _ ___ _ _ ___ _ _ ___ _ _
 72
    65
 73
     6
 40
31.75
 49
15.875
 74
     0
 49
-3.174999999999999
 74
     0
 49
3.174999999999999
 74
     0
 49
-3.174999999999999
 74
     0
 49
3.174999999999999
 74
     0
 49
-3.174999999999999
 74
     0
  0
LTYPE
  5
5E
330
5
100
AcDbSymbolTableRecord
100
AcDbLinetypeTableRecord
  2
PHANTOMX2
 70
     0
  3
Phantom (2x) ____________    ____    ____   _
 72
    65
 73
     6
 40
127.0
 49
63.5
 74
     0
 49
-12.7
 74
     0
 49
12.7
 74
     0
 49
-12.7
 74
     0
 49
12.7
 74
     0
 49
-12.7
 74
     0
  0
LTYPE
  5
5F
330
5
100
AcDbSymbolTableRecord
100
AcDbLinetypeTableRecord
  2
TRACKS
 70
     0
  3
Tracks -|-|-|-|-|-|-|-|-|-|-|-|-|-|-|-|-|-|-|-|
 72
    65
 73
     2
 40
7.62
 49
3.81
 74
     4
 75
   130
340
33
 46
6.349999999999999
 50
0.0
 44
0.0
 45
0.0
 49
3.81
 74
     0
  0
LTYPE
  5
60
330
5
100
AcDbSymbolTableRecord
100
AcDbLinetypeTableRecord
  2
ZIGZAG
 70
     0
  3
Zig zag /\/\/\/\/\/\/\/\/\/\/\/\/\/\/\/\/\/\/\/
 72
    65
 73
     4
 40
20.32254
 49
0.00254
 74
     0
 49
-5.08
 74
     4
 75
   131
340
33
 46
5.08
 50
0.0
 44
-5.08
 45
0.0
 49
-10.16
 74
     4
 75
   131
340
33
 46
5.08
 50
180.0
 44
5.08
 45
0.0
 49
-5.08
 74
     0
  0
ENDTAB
  0
TABLE
  2
LAYER
  5
2
102
{ACAD_XDICTIONARY
360
2510
102
}
330
0
100
AcDbSymbolTable
 70
     9
  0
LAYER
  5
10
330
2
100
AcDbSymbolTableRecord
100
AcDbLayerTableRecord
  2
0
 70
     0
 62
     7
  6
Continuous
370
    -3
390
F
  0
LAYER
  5
C3
330
2
100
AcDbSymbolTableRecord
100
AcDbLayerTableRecord
  2
Defpoints
 70
     0
 62
     7
  6
Continuous
290
     0
370
    -3
390
F
  0
LAYER
  5
256
330
2
100
AcDbSymbolTableRecord
100
AcDbLayerTableRecord
  2
センター
 70
     0
 62
     7
  6
CENTER2
370
    18
390
F
  0
LAYER
  5
268
330
2
100
AcDbSymbolTableRecord
100
AcDbLayerTableRecord
  2
実形
 70
     0
 62
     7
  6
Continuous
370
    -3
390
F
  0
LAYER
  5
269
330
2
100
AcDbSymbolTableRecord
100
AcDbLayerTableRecord
  2
補助
 70
     0
 62
     7
  6
Continuous
370
    -3
390
F
  0
LAYER
  5
26A
330
2
100
AcDbSymbolTableRecord
100
AcDbLayerTableRecord
  2
寸法
 70
     0
 62
     7
  6
Continuous
370
    18
390
F
  0
LAYER
  5
26B
330
2
100
AcDbSymbolTableRecord
100
AcDbLayerTableRecord
  2
ハッチング
 70
     0
 62
     7
  6
Continuous
370
    18
390
F
  0
LAYER
  5
26D
330
2
100
AcDbSymbolTableRecord
100
AcDbLayerTableRecord
  2
文字
 70
     0
 62
     7
  6
Continuous
370
    -3
390
F
  0
LAYER
  5
2214
330
2
100
AcDbSymbolTableRecord
100
AcDbLayerTableRecord
  2
Cen
 70
     0
 62
     7
  6
CENTER2
370
    15
390
F
  0
ENDTAB
  0
TABLE
  2
STYLE
  5
3
330
0
100
AcDbSymbolTable
 70
     3
  0
STYLE
  5
11
330
3
100
AcDbSymbolTableRecord
100
AcDbTextStyleTableRecord
  2
Standard
 70
     0
 40
0.0
 41
1.0
 50
0.0
 71
     0
 42
25.0
  3
txt.shx
  4
bigfont.shx
  0
STYLE
  5
33
330
3
100
AcDbSymbolTableRecord
100
AcDbTextStyleTableRecord
  2

 70
     1
 40
0.0
 41
1.0
 50
0.0
 71
     0
 42
2.5
  3
ltypeshp.shx
  4

  0
STYLE
  5
2513
330
3
100
AcDbSymbolTableRecord
100
AcDbTextStyleTableRecord
  2
明朝
 70
     0
 40
0.0
 41
1.0
 50
0.0
 71
     0
 42
25.0
  3
MS Mincho.ttf
  4

1001
ACAD
1000
MS Mincho
1071
    32785
  0
ENDTAB
  0
TABLE
  2
VIEW
  5
6
330
0
100
AcDbSymbolTable
 70
     0
  0
ENDTAB
  0
TABLE
  2
UCS
  5
7
330
0
100
AcDbSymbolTable
 70
     0
  0
ENDTAB
  0
TABLE
  2
APPID
  5
9
330
0
100
AcDbSymbolTable
 70
     1
  0
APPID
  5
12
330
9
100
AcDbSymbolTableRecord
100
AcDbRegAppTableRecord
  2
ACAD
 70
     0
  0
ENDTAB
  0
TABLE
  2
DIMSTYLE
  5
A
330
0
100
AcDbSymbolTable
 70
     1
100
AcDbDimStyleTable
 71
     1
340
27
  0
DIMSTYLE
105
27
102
{ACAD_REACTORS
330
368
330
44B
330
458
330
4A3
330
4BE
330
4CC
330
532
330
548
330
569
330
57F
330
35B
330
3CE
330
3DC
330
3F6
330
4F8
330
505
330
173D
330
17AE
330
1F59
330
1F67
330
1F74
330
1F82
330
1F8F
330
1F9D
102
}
330
A
100
AcDbSymbolTableRecord
100
AcDbDimStyleTableRecord
  2
ISO-25
 70
     0
 41
35.0
 42
65.0
 43
3.75
 44
0.0
 73
     0
 74
     0
 77
     1
 78
     8
140
25.0
141
2.5
143
0.03937007874016
147
6.25
171
     3
172
     1
271
     2
272
     2
274
     3
283
     0
284
     8
340
11
341
DA
342
D0
371
    15
372
    15
  0
ENDTAB
  0
TABLE
  2
BLOCK_RECORD
  5
1
330
0
100
AcDbSymbolTable
 70
    28
  0
BLOCK_RECORD
  5
1F
102
{ACAD_XDICTIONARY
360
253B
102
}
330
1
100
AcDbSymbolTableRecord
100
AcDbBlockTableRecord
  2
*Model_Space
340
22
  0
BLOCK_RECORD
  5
1B
330
1
100
AcDbSymbolTableRecord
100
AcDbBlockTableRecord
  2
*Paper_Space
340
1E
  0
BLOCK_RECORD
  5
23
330
1
100
AcDbSymbolTableRecord
100
AcDbBlockTableRecord
  2
*Paper_Space0
340
26
  0
BLOCK_RECORD
  5
D0
330
1
100
AcDbSymbolTableRecord
100
AcDbBlockTableRecord
  2
_DotSmall
340
0
102
{BLKREFS
331
227D
331
227E
331
2285
331
2286
331
228E
331
228F
331
22A9
331
22AA
331
2327
331
2328
331
232F
331
2330
331
2405
331
2406
331
2444
331
2445
331
244E
331
244F
331
2457
331
2458
331
245F
331
2460
331
2469
331
246A
331
2471
331
2472
331
247B
331
247C
331
2496
331
2497
331
24A8
331
24A9
331
24B7
331
24B8
331
24C0
331
24C1
331
24C9
331
24CA
331
24D2
331
24D3
331
24DA
331
24DB
331
24E3
331
24E4
331
24EC
331
24ED
331
24F5
331
24F6
102
}
  0
BLOCK_RECORD
  5
D4
330
1
100
AcDbSymbolTableRecord
100
AcDbBlockTableRecord
  2
_Origin2
340
0
  0
BLOCK_RECORD
  5
DA
330
1
100
AcDbSymbolTableRecord
100
AcDbBlockTableRecord
  2
_Open30
340
0
  0
BLOCK_RECORD
  5
35C
330
1
100
AcDbSymbolTableRecord
100
AcDbBlockTableRecord
  2
*D4
340
0
  0
BLOCK_RECORD
  5
369
330
1
100
AcDbSymbolTableRecord
100
AcDbBlockTableRecord
  2
*D5
340
0
  0
BLOCK_RECORD
  5
3CF
330
1
100
AcDbSymbolTableRecord
100
AcDbBlockTableRecord
  2
*D6
340
0
  0
BLOCK_RECORD
  5
3DD
330
1
100
AcDbSymbolTableRecord
100
AcDbBlockTableRecord
  2
*D7
340
0
  0
BLOCK_RECORD
  5
3F7
330
1
100
AcDbSymbolTableRecord
100
AcDbBlockTableRecord
  2
*D8
340
0
  0
BLOCK_RECORD
  5
44C
330
1
100
AcDbSymbolTableRecord
100
AcDbBlockTableRecord
  2
*D9
340
0
  0
BLOCK_RECORD
  5
459
330
1
100
AcDbSymbolTableRecord
100
AcDbBlockTableRecord
  2
*D10
340
0
  0
BLOCK_RECORD
  5
4A4
330
1
100
AcDbSymbolTableRecord
100
AcDbBlockTableRecord
  2
*D11
340
0
  0
BLOCK_RECORD
  5
4BF
330
1
100
AcDbSymbolTableRecord
100
AcDbBlockTableRecord
  2
*D12
340
0
  0
BLOCK_RECORD
  5
4CD
330
1
100
AcDbSymbolTableRecord
100
AcDbBlockTableRecord
  2
*D13
340
0
  0
BLOCK_RECORD
  5
4F9
330
1
100
AcDbSymbolTableRecord
100
AcDbBlockTableRecord
  2
*D14
340
0
  0
BLOCK_RECORD
  5
506
330
1
100
AcDbSymbolTableRecord
100
AcDbBlockTableRecord
  2
*D15
340
0
  0
BLOCK_RECORD
  5
533
330
1
100
AcDbSymbolTableRecord
100
AcDbBlockTableRecord
  2
*D16
340
0
  0
BLOCK_RECORD
  5
549
330
1
100
AcDbSymbolTableRecord
100
AcDbBlockTableRecord
  2
*D17
340
0
  0
BLOCK_RECORD
  5
56A
330
1
100
AcDbSymbolTableRecord
100
AcDbBlockTableRecord
  2
*D18
340
0
  0
BLOCK_RECORD
  5
580
330
1
100
AcDbSymbolTableRecord
100
AcDbBlockTableRecord
  2
*D19
340
0
  0
BLOCK_RECORD
  5
173E
330
1
100
AcDbSymbolTableRecord
100
AcDbBlockTableRecord
  2
*D20
340
0
  0
BLOCK_RECORD
  5
17AF
330
1
100
AcDbSymbolTableRecord
100
AcDbBlockTableRecord
  2
*D21
340
0
  0
BLOCK_RECORD
  5
1F5A
330
1
100
AcDbSymbolTableRecord
100
AcDbBlockTableRecord
  2
*D22
340
0
  0
BLOCK_RECORD
  5
1F68
330
1
100
AcDbSymbolTableRecord
100
AcDbBlockTableRecord
  2
*D23
340
0
  0
BLOCK_RECORD
  5
1F75
330
1
100
AcDbSymbolTableRecord
100
AcDbBlockTableRecord
  2
*D24
340
0
  0
BLOCK_RECORD
  5
1F83
330
1
100
AcDbSymbolTableRecord
100
AcDbBlockTableRecord
  2
*D25
340
0
  0
BLOCK_RECORD
  5
1F90
330
1
100
AcDbSymbolTableRecord
100
AcDbBlockTableRecord
  2
*D26
340
0
  0
BLOCK_RECORD
  5
1F9E
330
1
100
AcDbSymbolTableRecord
100
AcDbBlockTableRecord
  2
*D27
340
0
  0
ENDTAB
  0
ENDSEC
  0
SECTION
  2
BLOCKS
  0
BLOCK
  5
20
330
1F
100
AcDbEntity
  8
0
100
AcDbBlockBegin
  2
*Model_Space
 70
     0
 10
0.0
 20
0.0
 30
0.0
  3
*Model_Space
  1

  0
ENDBLK
  5
21
330
1F
100
AcDbEntity
  8
0
100
AcDbBlockEnd
  0
BLOCK
  5
1C
330
1B
100
AcDbEntity
 67
     1
  8
0
100
AcDbBlockBegin
  2
*Paper_Space
 70
     0
 10
0.0
 20
0.0
 30
0.0
  3
*Paper_Space
  1

  0
ENDBLK
  5
1D
330
1B
100
AcDbEntity
 67
     1
  8
0
100
AcDbBlockEnd
  0
BLOCK
  5
24
330
23
100
AcDbEntity
  8
0
100
AcDbBlockBegin
  2
*Paper_Space0
 70
     0
 10
0.0
 20
0.0
 30
0.0
  3
*Paper_Space0
  1

  0
ENDBLK
  5
25
330
23
100
AcDbEntity
  8
0
100
AcDbBlockEnd
  0
BLOCK
  5
D2
330
D0
100
AcDbEntity
  8
0
100
AcDbBlockBegin
  2
_DotSmall
 70
     0
 10
0.0
 20
0.0
 30
0.0
  3
_DotSmall
  1

  0
LWPOLYLINE
  5
D1
330
D0
100
AcDbEntity
  8
0
 62
     0
100
AcDbPolyline
 90
        2
 70
     1
 43
0.5
 10
-0.0625
 20
0.0
 42
1.0
 10
0.0625
 20
0.0
 42
1.0
  0
ENDBLK
  5
D3
330
D0
100
AcDbEntity
  8
0
100
AcDbBlockEnd
  0
BLOCK
  5
D8
330
D4
100
AcDbEntity
  8
0
100
AcDbBlockBegin
  2
_Origin2
 70
     0
 10
0.0
 20
0.0
 30
0.0
  3
_Origin2
  1

  0
CIRCLE
  5
D5
330
D4
100
AcDbEntity
  8
0
 62
     0
370
    -2
100
AcDbCircle
 10
0.0
 20
0.0
 30
0.0
 40
0.5
  0
CIRCLE
  5
D6
330
D4
100
AcDbEntity
  8
0
 62
     0
370
    -2
100
AcDbCircle
 10
0.0
 20
0.0
 30
0.0
 40
0.25
  0
LINE
  5
D7
330
D4
100
AcDbEntity
  8
0
 62
     0
370
    -2
100
AcDbLine
 10
-0.5
 20
0.0
 30
0.0
 11
-1.0
 21
0.0
 31
0.0
  0
ENDBLK
  5
D9
330
D4
100
AcDbEntity
  8
0
100
AcDbBlockEnd
  0
BLOCK
  5
DE
330
DA
100
AcDbEntity
  8
0
100
AcDbBlockBegin
  2
_Open30
 70
     0
 10
0.0
 20
0.0
 30
0.0
  3
_Open30
  1

  0
LINE
  5
DB
330
DA
100
AcDbEntity
  8
0
 62
     0
370
    -2
100
AcDbLine
 10
-1.0
 20
0.26794919
 30
0.0
 11
0.0
 21
0.0
 31
0.0
  0
LINE
  5
DC
330
DA
100
AcDbEntity
  8
0
 62
     0
370
    -2
100
AcDbLine
 10
0.0
 20
0.0
 30
0.0
 11
-1.0
 21
-0.26794919
 31
0.0
  0
LINE
  5
DD
330
DA
100
AcDbEntity
  8
0
 62
     0
370
    -2
100
AcDbLine
 10
0.0
 20
0.0
 30
0.0
 11
-1.0
 21
0.0
 31
0.0
  0
ENDBLK
  5
DF
330
DA
100
AcDbEntity
  8
0
100
AcDbBlockEnd
  0
BLOCK
  5
366
330
35C
100
AcDbEntity
  8
0
100
AcDbBlockBegin
  2
*D4
 70
     1
 10
0.0
 20
0.0
 30
0.0
  3
*D4
  1

  0
LINE
  5
228B
330
35C
100
AcDbEntity
  8
実形
 62
     0
370
    15
100
AcDbLine
 10
1175.988642071077
 20
1484.295128186952
 30
0.0
 11
1175.988642071077
 21
1695.09256443876
 31
0.0
  0
LINE
  5
228C
330
35C
100
AcDbEntity
  8
実形
 62
     0
370
    15
100
AcDbLine
 10
990.9886420710773
 20
1638.47759353233
 30
0.0
 11
990.9886420710773
 21
1695.09256443876
 31
0.0
  0
LINE
  5
228D
330
35C
100
AcDbEntity
  8
実形
 62
     0
370
    18
100
AcDbLine
 10
1175.988642071077
 20
1695.09256443876
 30
0.0
 11
990.9886420710773
 21
1695.09256443876
 31
0.0
  0
INSERT
  5
228E
330
35C
100
AcDbEntity
  8
実形
 62
     0
370
    18
100
AcDbBlockReference
  2
_DotSmall
 10
1175.988642071077
 20
1695.09256443876
 30
0.0
 41
35.0
 42
35.0
 43
35.0
  0
INSERT
  5
228F
330
35C
100
AcDbEntity
  8
実形
 62
     0
370
    18
100
AcDbBlockReference
  2
_DotSmall
 10
990.9886420710773
 20
1695.09256443876
 30
0.0
 41
35.0
 42
35.0
 43
35.0
 50
180.0
  0
MTEXT
  5
2290
330
35C
100
AcDbEntity
  8
実形
 62
     0
100
AcDbMText
 10
1083.488642071077
 20
1713.84256443876
 30
0.0
 40
25.0
 41
0.0
 71
     5
 72
     1
  1
185
 73
     1
 44
1.0
1001
ACAD
1000
MTEXTBEGIN
1070
    73
1070
     1
1070
    44
1040
1.0
1070
    74
1070
     0
1000
MTEXTEND
  0
POINT
  5
2291
330
35C
100
AcDbEntity
  8
Defpoints
 62
     0
100
AcDbPoint
 10
1175.988642071077
 20
1419.295128186952
 30
0.0
  0
POINT
  5
2292
330
35C
100
AcDbEntity
  8
Defpoints
 62
     0
100
AcDbPoint
 10
990.9886420710773
 20
1573.47759353233
 30
0.0
  0
POINT
  5
2293
330
35C
100
AcDbEntity
  8
Defpoints
 62
     0
100
AcDbPoint
 10
990.9886420710773
 20
1695.09256443876
 30
0.0
  0
ENDBLK
  5
367
330
35C
100
AcDbEntity
  8
0
100
AcDbBlockEnd
  0
BLOCK
  5
373
330
369
100
AcDbEntity
  8
0
100
AcDbBlockBegin
  2
*D5
 70
     1
 10
0.0
 20
0.0
 30
0.0
  3
*D5
  1

  0
LINE
  5
2402
330
369
100
AcDbEntity
  8
実形
 62
     0
370
    15
100
AcDbLine
 10
1616.728284140641
 20
1090.795128186952
 30
0.0
 11
1673.591654690058
 21
1090.795128186952
 31
0.0
  0
LINE
  5
2403
330
369
100
AcDbEntity
  8
実形
 62
     0
370
    15
100
AcDbLine
 10
1475.988642071077
 20
1330.795128186952
 30
0.0
 11
1673.591654690058
 21
1330.795128186952
 31
0.0
  0
LINE
  5
2404
330
369
100
AcDbEntity
  8
実形
 62
     0
370
    18
100
AcDbLine
 10
1673.591654690058
 20
1090.795128186952
 30
0.0
 11
1673.591654690058
 21
1330.795128186952
 31
0.0
  0
INSERT
  5
2405
330
369
100
AcDbEntity
  8
実形
 62
     0
370
    18
100
AcDbBlockReference
  2
_DotSmall
 10
1673.591654690058
 20
1090.795128186952
 30
0.0
 41
35.0
 42
35.0
 43
35.0
 50
270.0
  0
INSERT
  5
2406
330
369
100
AcDbEntity
  8
実形
 62
     0
370
    18
100
AcDbBlockReference
  2
_DotSmall
 10
1673.591654690058
 20
1330.795128186952
 30
0.0
 41
35.0
 42
35.0
 43
35.0
 50
90.0
  0
MTEXT
  5
2407
330
369
100
AcDbEntity
  8
実形
 62
     0
100
AcDbMText
 10
1654.841654690059
 20
1210.795128186952
 30
0.0
 40
25.0
 41
0.0
 71
     5
 72
     1
  1
240
 11
0.0000000000000001
 21
1.0
 31
0.0
 73
     1
 44
1.0
1001
ACAD
1000
MTEXTBEGIN
1070
    73
1070
     1
1070
    44
1040
1.0
1070
    74
1070
     0
1000
MTEXTEND
  0
POINT
  5
2408
330
369
100
AcDbEntity
  8
Defpoints
 62
     0
100
AcDbPoint
 10
1551.728284140641
 20
1090.795128186952
 30
0.0
  0
POINT
  5
2409
330
369
100
AcDbEntity
  8
Defpoints
 62
     0
100
AcDbPoint
 10
1410.988642071077
 20
1330.795128186952
 30
0.0
  0
POINT
  5
240A
330
369
100
AcDbEntity
  8
Defpoints
 62
     0
100
AcDbPoint
 10
1673.591654690058
 20
1330.795128186952
 30
0.0
  0
ENDBLK
  5
374
330
369
100
AcDbEntity
  8
0
100
AcDbBlockEnd
  0
BLOCK
  5
3DA
330
3CF
100
AcDbEntity
  8
0
100
AcDbBlockBegin
  2
*D6
 70
     1
 10
0.0
 20
0.0
 30
0.0
  3
*D6
  1

  0
LINE
  5
245C
330
3CF
100
AcDbEntity
  8
実形
 62
     0
370
    15
100
AcDbLine
 10
943.9886420710772
 20
1620.795128186952
 30
0.0
 11
810.9886420710772
 21
1620.795128186952
 31
0.0
  0
LINE
  5
245D
330
3CF
100
AcDbEntity
  8
実形
 62
     0
370
    15
100
AcDbLine
 10
943.9886420710772
 20
1535.795128186952
 30
0.0
 11
810.9886420710772
 21
1535.795128186952
 31
0.0
  0
LINE
  5
245E
330
3CF
100
AcDbEntity
  8
実形
 62
     0
370
    18
100
AcDbLine
 10
810.9886420710772
 20
1620.795128186952
 30
0.0
 11
810.9886420710772
 21
1535.795128186952
 31
0.0
  0
INSERT
  5
245F
330
3CF
100
AcDbEntity
  8
実形
 62
     0
370
    18
100
AcDbBlockReference
  2
_DotSmall
 10
810.9886420710772
 20
1620.795128186952
 30
0.0
 41
35.0
 42
35.0
 43
35.0
 50
90.0
  0
INSERT
  5
2460
330
3CF
100
AcDbEntity
  8
実形
 62
     0
370
    18
100
AcDbBlockReference
  2
_DotSmall
 10
810.9886420710772
 20
1535.795128186952
 30
0.0
 41
35.0
 42
35.0
 43
35.0
 50
270.0
  0
MTEXT
  5
2461
330
3CF
100
AcDbEntity
  8
実形
 62
     0
100
AcDbMText
 10
792.238642071077
 20
1578.295128186952
 30
0.0
 40
25.0
 41
0.0
 71
     5
 72
     1
  1
85
 11
0.0000000000000001
 21
1.0
 31
0.0
 73
     1
 44
1.0
1001
ACAD
1000
MTEXTBEGIN
1070
    73
1070
     1
1070
    44
1040
1.0
1070
    74
1070
     0
1000
MTEXTEND
  0
POINT
  5
2462
330
3CF
100
AcDbEntity
  8
Defpoints
 62
     0
100
AcDbPoint
 10
1008.988642071077
 20
1620.795128186952
 30
0.0
  0
POINT
  5
2463
330
3CF
100
AcDbEntity
  8
Defpoints
 62
     0
100
AcDbPoint
 10
1008.988642071077
 20
1535.795128186952
 30
0.0
  0
POINT
  5
2464
330
3CF
100
AcDbEntity
  8
Defpoints
 62
     0
100
AcDbPoint
 10
810.9886420710772
 20
1535.795128186952
 30
0.0
  0
ENDBLK
  5
3DB
330
3CF
100
AcDbEntity
  8
0
100
AcDbBlockEnd
  0
BLOCK
  5
3E7
330
3DD
100
AcDbEntity
  8
0
100
AcDbBlockBegin
  2
*D7
 70
     1
 10
0.0
 20
0.0
 30
0.0
  3
*D7
  1

  0
LINE
  5
2441
330
3DD
100
AcDbEntity
  8
実形
 62
     0
370
    15
100
AcDbLine
 10
943.9886420710772
 20
1535.795128186952
 30
0.0
 11
810.9886420710774
 21
1535.795128186952
 31
0.0
  0
LINE
  5
2442
330
3DD
100
AcDbEntity
  8
実形
 62
     0
370
    15
100
AcDbLine
 10
943.9886420710772
 20
1125.795128186952
 30
0.0
 11
810.9886420710772
 21
1125.795128186952
 31
0.0
  0
LINE
  5
2443
330
3DD
100
AcDbEntity
  8
実形
 62
     0
370
    18
100
AcDbLine
 10
810.9886420710774
 20
1535.795128186952
 30
0.0
 11
810.9886420710772
 21
1125.795128186952
 31
0.0
  0
INSERT
  5
2444
330
3DD
100
AcDbEntity
  8
実形
 62
     0
370
    18
100
AcDbBlockReference
  2
_DotSmall
 10
810.9886420710774
 20
1535.795128186952
 30
0.0
 41
35.0
 42
35.0
 43
35.0
 50
90.0
  0
INSERT
  5
2445
330
3DD
100
AcDbEntity
  8
実形
 62
     0
370
    18
100
AcDbBlockReference
  2
_DotSmall
 10
810.9886420710772
 20
1125.795128186952
 30
0.0
 41
35.0
 42
35.0
 43
35.0
 50
270.0
  0
MTEXT
  5
2446
330
3DD
100
AcDbEntity
  8
実形
 62
     0
100
AcDbMText
 10
792.2386420710771
 20
1330.795128186952
 30
0.0
 40
25.0
 41
0.0
 71
     5
 72
     1
  1
410
 11
0.0000000000000001
 21
1.0
 31
0.0
 73
     1
 44
1.0
1001
ACAD
1000
MTEXTBEGIN
1070
    73
1070
     1
1070
    44
1040
1.0
1070
    74
1070
     0
1000
MTEXTEND
  0
POINT
  5
2447
330
3DD
100
AcDbEntity
  8
Defpoints
 62
     0
100
AcDbPoint
 10
1008.988642071077
 20
1535.795128186952
 30
0.0
  0
POINT
  5
2448
330
3DD
100
AcDbEntity
  8
Defpoints
 62
     0
100
AcDbPoint
 10
1008.988642071077
 20
1125.795128186952
 30
0.0
  0
POINT
  5
2449
330
3DD
100
AcDbEntity
  8
Defpoints
 62
     0
100
AcDbPoint
 10
810.9886420710772
 20
1125.795128186952
 30
0.0
  0
ENDBLK
  5
3E8
330
3DD
100
AcDbEntity
  8
0
100
AcDbBlockEnd
  0
BLOCK
  5
401
330
3F7
100
AcDbEntity
  8
0
100
AcDbBlockBegin
  2
*D8
 70
     1
 10
0.0
 20
0.0
 30
0.0
  3
*D8
  1

  0
LINE
  5
22A6
330
3F7
100
AcDbEntity
  8
実形
 62
     0
370
    15
100
AcDbLine
 10
943.9886420710772
 20
1620.795128186952
 30
0.0
 11
740.9886420710773
 21
1620.795128186952
 31
0.0
  0
LINE
  5
22A7
330
3F7
100
AcDbEntity
  8
実形
 62
     0
370
    15
100
AcDbLine
 10
943.9886420710772
 20
1090.795128186952
 30
0.0
 11
740.9886420710773
 21
1090.795128186952
 31
0.0
  0
LINE
  5
22A8
330
3F7
100
AcDbEntity
  8
実形
 62
     0
370
    18
100
AcDbLine
 10
740.9886420710773
 20
1620.795128186952
 30
0.0
 11
740.9886420710773
 21
1090.795128186952
 31
0.0
  0
INSERT
  5
22A9
330
3F7
100
AcDbEntity
  8
実形
 62
     0
370
    18
100
AcDbBlockReference
  2
_DotSmall
 10
740.9886420710773
 20
1620.795128186952
 30
0.0
 41
35.0
 42
35.0
 43
35.0
 50
90.0
  0
INSERT
  5
22AA
330
3F7
100
AcDbEntity
  8
実形
 62
     0
370
    18
100
AcDbBlockReference
  2
_DotSmall
 10
740.9886420710773
 20
1090.795128186952
 30
0.0
 41
35.0
 42
35.0
 43
35.0
 50
270.0
  0
MTEXT
  5
22AB
330
3F7
100
AcDbEntity
  8
実形
 62
     0
100
AcDbMText
 10
722.2386420710771
 20
1355.795128186952
 30
0.0
 40
25.0
 41
0.0
 71
     5
 72
     1
  1
530
 11
0.0000000000000001
 21
1.0
 31
0.0
 73
     1
 44
1.0
1001
ACAD
1000
MTEXTBEGIN
1070
    73
1070
     1
1070
    44
1040
1.0
1070
    74
1070
     0
1000
MTEXTEND
  0
POINT
  5
22AC
330
3F7
100
AcDbEntity
  8
Defpoints
 62
     0
100
AcDbPoint
 10
1008.988642071077
 20
1620.795128186952
 30
0.0
  0
POINT
  5
22AD
330
3F7
100
AcDbEntity
  8
Defpoints
 62
     0
100
AcDbPoint
 10
1008.988642071077
 20
1090.795128186952
 30
0.0
  0
POINT
  5
22AE
330
3F7
100
AcDbEntity
  8
Defpoints
 62
     0
100
AcDbPoint
 10
740.9886420710773
 20
1090.795128186952
 30
0.0
  0
ENDBLK
  5
402
330
3F7
100
AcDbEntity
  8
0
100
AcDbBlockEnd
  0
BLOCK
  5
456
330
44C
100
AcDbEntity
  8
0
100
AcDbBlockBegin
  2
*D9
 70
     1
 10
0.0
 20
0.0
 30
0.0
  3
*D9
  1

  0
LINE
  5
232C
330
44C
100
AcDbEntity
  8
実形
 62
     0
370
    15
100
AcDbLine
 10
1025.988642071077
 20
1041.298974568408
 30
0.0
 11
1025.988642071077
 21
910.7951281869517
 31
0.0
  0
LINE
  5
232D
330
44C
100
AcDbEntity
  8
実形
 62
     0
370
    15
100
AcDbLine
 10
1555.988642071077
 20
1041.298974568408
 30
0.0
 11
1555.988642071077
 21
910.7951281869517
 31
0.0
  0
LINE
  5
232E
330
44C
100
AcDbEntity
  8
実形
 62
     0
370
    18
100
AcDbLine
 10
1025.988642071077
 20
910.7951281869517
 30
0.0
 11
1555.988642071077
 21
910.7951281869517
 31
0.0
  0
INSERT
  5
232F
330
44C
100
AcDbEntity
  8
実形
 62
     0
370
    18
100
AcDbBlockReference
  2
_DotSmall
 10
1025.988642071077
 20
910.7951281869517
 30
0.0
 41
35.0
 42
35.0
 43
35.0
 50
180.0
  0
INSERT
  5
2330
330
44C
100
AcDbEntity
  8
実形
 62
     0
370
    18
100
AcDbBlockReference
  2
_DotSmall
 10
1555.988642071077
 20
910.7951281869517
 30
0.0
 41
35.0
 42
35.0
 43
35.0
  0
MTEXT
  5
2331
330
44C
100
AcDbEntity
  8
実形
 62
     0
100
AcDbMText
 10
1290.988642071077
 20
929.5451281869517
 30
0.0
 40
25.0
 41
0.0
 71
     5
 72
     1
  1
530
 73
     1
 44
1.0
1001
ACAD
1000
MTEXTBEGIN
1070
    73
1070
     1
1070
    44
1040
1.0
1070
    74
1070
     0
1000
MTEXTEND
  0
POINT
  5
2332
330
44C
100
AcDbEntity
  8
Defpoints
 62
     0
100
AcDbPoint
 10
1025.988642071077
 20
1106.298974568408
 30
0.0
  0
POINT
  5
2333
330
44C
100
AcDbEntity
  8
Defpoints
 62
     0
100
AcDbPoint
 10
1555.988642071077
 20
1106.298974568408
 30
0.0
  0
POINT
  5
2334
330
44C
100
AcDbEntity
  8
Defpoints
 62
     0
100
AcDbPoint
 10
1555.988642071077
 20
910.7951281869517
 30
0.0
  0
ENDBLK
  5
457
330
44C
100
AcDbEntity
  8
0
100
AcDbBlockEnd
  0
BLOCK
  5
465
330
459
100
AcDbEntity
  8
0
100
AcDbBlockBegin
  2
*D10
 70
     1
 10
0.0
 20
0.0
 30
0.0
  3
*D10
  1

  0
LINE
  5
2323
330
459
100
AcDbEntity
  8
実形
 62
     0
370
    15
100
AcDbLine
 10
1555.988642071077
 20
1041.298974568408
 30
0.0
 11
1555.988642071077
 21
910.7951281869517
 31
0.0
  0
LINE
  5
2324
330
459
100
AcDbEntity
  8
実形
 62
     0
370
    15
100
AcDbLine
 10
1590.988642071077
 20
1043.795128186951
 30
0.0
 11
1590.988642071077
 21
910.7951281869517
 31
0.0
  0
LINE
  5
2325
330
459
100
AcDbEntity
  8
実形
 62
     0
370
    18
100
AcDbLine
 10
1555.988642071077
 20
910.7951281869517
 30
0.0
 11
1590.988642071077
 21
910.7951281869517
 31
0.0
  0
MTEXT
  5
2326
330
459
100
AcDbEntity
  8
実形
 62
     0
100
AcDbMText
 10
1525.947155115502
 20
931.2045643715974
 30
0.0
 40
25.0
 41
0.0
 71
     5
 72
     1
  1
35
 73
     1
 44
1.0
1001
ACAD
1000
MTEXTBEGIN
1070
    73
1070
     1
1070
    44
1040
1.0
1070
    74
1070
     0
1000
MTEXTEND
  0
INSERT
  5
2327
330
459
100
AcDbEntity
  8
実形
 62
     0
370
    18
100
AcDbBlockReference
  2
_DotSmall
 10
1555.988642071077
 20
910.7951281869517
 30
0.0
 41
35.0
 42
35.0
 43
35.0
 50
180.0
  0
INSERT
  5
2328
330
459
100
AcDbEntity
  8
実形
 62
     0
370
    18
100
AcDbBlockReference
  2
_DotSmall
 10
1590.988642071077
 20
910.7951281869517
 30
0.0
 41
35.0
 42
35.0
 43
35.0
  0
POINT
  5
2329
330
459
100
AcDbEntity
  8
Defpoints
 62
     0
100
AcDbPoint
 10
1555.988642071077
 20
1106.298974568408
 30
0.0
  0
POINT
  5
232A
330
459
100
AcDbEntity
  8
Defpoints
 62
     0
100
AcDbPoint
 10
1590.988642071077
 20
1108.795128186952
 30
0.0
  0
POINT
  5
232B
330
459
100
AcDbEntity
  8
Defpoints
 62
     0
100
AcDbPoint
 10
1590.988642071077
 20
910.7951281869517
 30
0.0
  0
ENDBLK
  5
466
330
459
100
AcDbEntity
  8
0
100
AcDbBlockEnd
  0
BLOCK
  5
4AE
330
4A4
100
AcDbEntity
  8
0
100
AcDbBlockBegin
  2
*D11
 70
     1
 10
0.0
 20
0.0
 30
0.0
  3
*D11
  1

  0
LINE
  5
2282
330
4A4
100
AcDbEntity
  8
実形
 62
     0
370
    15
100
AcDbLine
 10
990.9886420710773
 20
1040.795128186952
 30
0.0
 11
990.9886420710773
 21
840.7951281869518
 31
0.0
  0
LINE
  5
2283
330
4A4
100
AcDbEntity
  8
実形
 62
     0
370
    15
100
AcDbLine
 10
1590.988642071077
 20
1040.795128186952
 30
0.0
 11
1590.988642071077
 21
840.7951281869518
 31
0.0
  0
LINE
  5
2284
330
4A4
100
AcDbEntity
  8
実形
 62
     0
370
    18
100
AcDbLine
 10
990.9886420710773
 20
840.7951281869518
 30
0.0
 11
1590.988642071077
 21
840.7951281869518
 31
0.0
  0
INSERT
  5
2285
330
4A4
100
AcDbEntity
  8
実形
 62
     0
370
    18
100
AcDbBlockReference
  2
_DotSmall
 10
990.9886420710773
 20
840.7951281869518
 30
0.0
 41
35.0
 42
35.0
 43
35.0
 50
180.0
  0
INSERT
  5
2286
330
4A4
100
AcDbEntity
  8
実形
 62
     0
370
    18
100
AcDbBlockReference
  2
_DotSmall
 10
1590.988642071077
 20
840.7951281869518
 30
0.0
 41
35.0
 42
35.0
 43
35.0
  0
MTEXT
  5
2287
330
4A4
100
AcDbEntity
  8
実形
 62
     0
100
AcDbMText
 10
1290.988642071077
 20
859.5451281869518
 30
0.0
 40
25.0
 41
0.0
 71
     5
 72
     1
  1
600
 73
     1
 44
1.0
1001
ACAD
1000
MTEXTBEGIN
1070
    73
1070
     1
1070
    44
1040
1.0
1070
    74
1070
     0
1000
MTEXTEND
  0
POINT
  5
2288
330
4A4
100
AcDbEntity
  8
Defpoints
 62
     0
100
AcDbPoint
 10
990.9886420710773
 20
1105.795128186952
 30
0.0
  0
POINT
  5
2289
330
4A4
100
AcDbEntity
  8
Defpoints
 62
     0
100
AcDbPoint
 10
1590.988642071077
 20
1105.795128186952
 30
0.0
  0
POINT
  5
228A
330
4A4
100
AcDbEntity
  8
Defpoints
 62
     0
100
AcDbPoint
 10
1590.988642071077
 20
840.7951281869518
 30
0.0
  0
ENDBLK
  5
4AF
330
4A4
100
AcDbEntity
  8
0
100
AcDbBlockEnd
  0
BLOCK
  5
4CA
330
4BF
100
AcDbEntity
  8
0
100
AcDbBlockBegin
  2
*D12
 70
     1
 10
0.0
 20
0.0
 30
0.0
  3
*D12
  1

  0
LINE
  5
24CF
330
4BF
100
AcDbEntity
  8
寸法
 62
     0
370
    15
100
AcDbLine
 10
1625.988642071077
 20
557.4714311752086
 30
0.0
 11
1679.880392558784
 21
557.4714311752086
 31
0.0
  0
LINE
  5
24D0
330
4BF
100
AcDbEntity
  8
寸法
 62
     0
370
    15
100
AcDbLine
 10
1625.988642071077
 20
542.4714311752086
 30
0.0
 11
1679.880392558784
 21
542.4714311752086
 31
0.0
  0
LINE
  5
24D1
330
4BF
100
AcDbEntity
  8
寸法
 62
     0
370
    18
100
AcDbLine
 10
1679.880392558784
 20
557.4714311752086
 30
0.0
 11
1679.880392558784
 21
542.4714311752086
 31
0.0
  0
INSERT
  5
24D2
330
4BF
100
AcDbEntity
  8
寸法
 62
     0
370
    18
100
AcDbBlockReference
  2
_DotSmall
 10
1679.880392558784
 20
557.4714311752086
 30
0.0
 41
35.0
 42
35.0
 43
35.0
 50
90.0
  0
INSERT
  5
24D3
330
4BF
100
AcDbEntity
  8
寸法
 62
     0
370
    18
100
AcDbBlockReference
  2
_DotSmall
 10
1679.880392558784
 20
542.4714311752086
 30
0.0
 41
35.0
 42
35.0
 43
35.0
 50
270.0
  0
POINT
  5
24D4
330
4BF
100
AcDbEntity
  8
Defpoints
 62
     0
100
AcDbPoint
 10
1560.988642071077
 20
557.4714311752086
 30
0.0
  0
POINT
  5
24D5
330
4BF
100
AcDbEntity
  8
Defpoints
 62
     0
100
AcDbPoint
 10
1560.988642071077
 20
542.4714311752086
 30
0.0
  0
POINT
  5
24D6
330
4BF
100
AcDbEntity
  8
Defpoints
 62
     0
100
AcDbPoint
 10
1679.880392558784
 20
542.4714311752086
 30
0.0
  0
ENDBLK
  5
4CB
330
4BF
100
AcDbEntity
  8
0
100
AcDbBlockEnd
  0
BLOCK
  5
4D7
330
4CD
100
AcDbEntity
  8
0
100
AcDbBlockBegin
  2
*D13
 70
     1
 10
0.0
 20
0.0
 30
0.0
  3
*D13
  1

  0
LINE
  5
24B4
330
4CD
100
AcDbEntity
  8
実形
 62
     0
370
    15
100
AcDbLine
 10
1625.988642071077
 20
736.4714311752087
 30
0.0
 11
1718.621016893666
 21
736.4714311752087
 31
0.0
  0
LINE
  5
24B5
330
4CD
100
AcDbEntity
  8
実形
 62
     0
370
    15
100
AcDbLine
 10
1625.988642071077
 20
542.4714311752086
 30
0.0
 11
1718.621016893666
 21
542.4714311752086
 31
0.0
  0
LINE
  5
24B6
330
4CD
100
AcDbEntity
  8
実形
 62
     0
370
    18
100
AcDbLine
 10
1718.621016893666
 20
736.4714311752087
 30
0.0
 11
1718.621016893666
 21
542.4714311752086
 31
0.0
  0
INSERT
  5
24B7
330
4CD
100
AcDbEntity
  8
実形
 62
     0
370
    18
100
AcDbBlockReference
  2
_DotSmall
 10
1718.621016893666
 20
736.4714311752087
 30
0.0
 41
35.0
 42
35.0
 43
35.0
 50
90.0
  0
INSERT
  5
24B8
330
4CD
100
AcDbEntity
  8
実形
 62
     0
370
    18
100
AcDbBlockReference
  2
_DotSmall
 10
1718.621016893666
 20
542.4714311752086
 30
0.0
 41
35.0
 42
35.0
 43
35.0
 50
270.0
  0
MTEXT
  5
24B9
330
4CD
100
AcDbEntity
  8
実形
 62
     0
100
AcDbMText
 10
1699.871016893666
 20
639.4714311752089
 30
0.0
 40
25.0
 41
0.0
 71
     5
 72
     1
  1
194
 11
0.0000000000000001
 21
1.0
 31
0.0
 73
     1
 44
1.0
1001
ACAD
1000
MTEXTBEGIN
1070
    73
1070
     1
1070
    44
1040
1.0
1070
    74
1070
     0
1000
MTEXTEND
  0
POINT
  5
24BA
330
4CD
100
AcDbEntity
  8
Defpoints
 62
     0
100
AcDbPoint
 10
1560.988642071077
 20
736.4714311752087
 30
0.0
  0
POINT
  5
24BB
330
4CD
100
AcDbEntity
  8
Defpoints
 62
     0
100
AcDbPoint
 10
1560.988642071077
 20
542.4714311752086
 30
0.0
  0
POINT
  5
24BC
330
4CD
100
AcDbEntity
  8
Defpoints
 62
     0
100
AcDbPoint
 10
1718.621016893666
 20
542.4714311752086
 30
0.0
  0
ENDBLK
  5
4D8
330
4CD
100
AcDbEntity
  8
0
100
AcDbBlockEnd
  0
BLOCK
  5
503
330
4F9
100
AcDbEntity
  8
0
100
AcDbBlockBegin
  2
*D14
 70
     1
 10
0.0
 20
0.0
 30
0.0
  3
*D14
  1

  0
LINE
  5
24C6
330
4F9
100
AcDbEntity
  8
実形
 62
     0
370
    15
100
AcDbLine
 10
1095.988642071077
 20
467.4714311752086
 30
0.0
 11
1095.988642071077
 21
416.0440238741357
 31
0.0
  0
LINE
  5
24C7
330
4F9
100
AcDbEntity
  8
実形
 62
     0
370
    15
100
AcDbLine
 10
1255.988642071077
 20
467.4714311752086
 30
0.0
 11
1255.988642071077
 21
416.0440238741357
 31
0.0
  0
LINE
  5
24C8
330
4F9
100
AcDbEntity
  8
実形
 62
     0
370
    18
100
AcDbLine
 10
1095.988642071077
 20
416.0440238741357
 30
0.0
 11
1255.988642071077
 21
416.0440238741357
 31
0.0
  0
INSERT
  5
24C9
330
4F9
100
AcDbEntity
  8
実形
 62
     0
370
    18
100
AcDbBlockReference
  2
_DotSmall
 10
1095.988642071077
 20
416.0440238741357
 30
0.0
 41
35.0
 42
35.0
 43
35.0
 50
180.0
  0
INSERT
  5
24CA
330
4F9
100
AcDbEntity
  8
実形
 62
     0
370
    18
100
AcDbBlockReference
  2
_DotSmall
 10
1255.988642071077
 20
416.0440238741357
 30
0.0
 41
35.0
 42
35.0
 43
35.0
  0
MTEXT
  5
24CB
330
4F9
100
AcDbEntity
  8
実形
 62
     0
100
AcDbMText
 10
1175.988642071077
 20
434.7940238741357
 30
0.0
 40
25.0
 41
0.0
 71
     5
 72
     1
  1
160
 73
     1
 44
1.0
1001
ACAD
1000
MTEXTBEGIN
1070
    73
1070
     1
1070
    44
1040
1.0
1070
    74
1070
     0
1000
MTEXTEND
  0
POINT
  5
24CC
330
4F9
100
AcDbEntity
  8
Defpoints
 62
     0
100
AcDbPoint
 10
1095.988642071077
 20
532.4714311752086
 30
0.0
  0
POINT
  5
24CD
330
4F9
100
AcDbEntity
  8
Defpoints
 62
     0
100
AcDbPoint
 10
1255.988642071077
 20
532.4714311752086
 30
0.0
  0
POINT
  5
24CE
330
4F9
100
AcDbEntity
  8
Defpoints
 62
     0
100
AcDbPoint
 10
1255.988642071077
 20
416.0440238741357
 30
0.0
  0
ENDBLK
  5
504
330
4F9
100
AcDbEntity
  8
0
100
AcDbBlockEnd
  0
BLOCK
  5
510
330
506
100
AcDbEntity
  8
0
100
AcDbBlockBegin
  2
*D15
 70
     1
 10
0.0
 20
0.0
 30
0.0
  3
*D15
  1

  0
LINE
  5
24BD
330
506
100
AcDbEntity
  8
実形
 62
     0
370
    15
100
AcDbLine
 10
1085.488642071077
 20
467.4714311752086
 30
0.0
 11
1085.488642071077
 21
356.0846253052068
 31
0.0
  0
LINE
  5
24BE
330
506
100
AcDbEntity
  8
実形
 62
     0
370
    15
100
AcDbLine
 10
1266.488642071077
 20
467.4714311752086
 30
0.0
 11
1266.488642071077
 21
356.0846253052068
 31
0.0
  0
LINE
  5
24BF
330
506
100
AcDbEntity
  8
実形
 62
     0
370
    18
100
AcDbLine
 10
1085.488642071077
 20
356.0846253052068
 30
0.0
 11
1266.488642071077
 21
356.0846253052068
 31
0.0
  0
INSERT
  5
24C0
330
506
100
AcDbEntity
  8
実形
 62
     0
370
    18
100
AcDbBlockReference
  2
_DotSmall
 10
1085.488642071077
 20
356.0846253052068
 30
0.0
 41
35.0
 42
35.0
 43
35.0
 50
180.0
  0
INSERT
  5
24C1
330
506
100
AcDbEntity
  8
実形
 62
     0
370
    18
100
AcDbBlockReference
  2
_DotSmall
 10
1266.488642071077
 20
356.0846253052068
 30
0.0
 41
35.0
 42
35.0
 43
35.0
  0
MTEXT
  5
24C2
330
506
100
AcDbEntity
  8
実形
 62
     0
100
AcDbMText
 10
1175.988642071077
 20
374.8346253052068
 30
0.0
 40
25.0
 41
0.0
 71
     5
 72
     1
  1
181
 73
     1
 44
1.0
1001
ACAD
1000
MTEXTBEGIN
1070
    73
1070
     1
1070
    44
1040
1.0
1070
    74
1070
     0
1000
MTEXTEND
  0
POINT
  5
24C3
330
506
100
AcDbEntity
  8
Defpoints
 62
     0
100
AcDbPoint
 10
1085.488642071077
 20
532.4714311752086
 30
0.0
  0
POINT
  5
24C4
330
506
100
AcDbEntity
  8
Defpoints
 62
     0
100
AcDbPoint
 10
1266.488642071077
 20
532.4714311752086
 30
0.0
  0
POINT
  5
24C5
330
506
100
AcDbEntity
  8
Defpoints
 62
     0
100
AcDbPoint
 10
1266.488642071077
 20
356.0846253052068
 30
0.0
  0
ENDBLK
  5
511
330
506
100
AcDbEntity
  8
0
100
AcDbBlockEnd
  0
BLOCK
  5
53E
330
533
100
AcDbEntity
  8
0
100
AcDbBlockBegin
  2
*D16
 70
     1
 10
0.0
 20
0.0
 30
0.0
  3
*D16
  1

  0
LINE
  5
24F2
330
533
100
AcDbEntity
  8
実形
 62
     0
370
    15
100
AcDbLine
 10
2014.467473248793
 20
1048.06850724726
 30
0.0
 11
2014.467473248793
 21
950.1363894772062
 31
0.0
  0
LINE
  5
24F3
330
533
100
AcDbEntity
  8
実形
 62
     0
370
    15
100
AcDbLine
 10
1999.467473248793
 20
1048.06850724726
 30
0.0
 11
1999.467473248793
 21
950.1363894772062
 31
0.0
  0
LINE
  5
24F4
330
533
100
AcDbEntity
  8
実形
 62
     0
370
    18
100
AcDbLine
 10
2014.467473248793
 20
950.1363894772062
 30
0.0
 11
1999.467473248793
 21
950.1363894772062
 31
0.0
  0
INSERT
  5
24F5
330
533
100
AcDbEntity
  8
実形
 62
     0
370
    18
100
AcDbBlockReference
  2
_DotSmall
 10
2014.467473248793
 20
950.1363894772062
 30
0.0
 41
35.0
 42
35.0
 43
35.0
  0
INSERT
  5
24F6
330
533
100
AcDbEntity
  8
実形
 62
     0
370
    18
100
AcDbBlockReference
  2
_DotSmall
 10
1999.467473248793
 20
950.1363894772062
 30
0.0
 41
35.0
 42
35.0
 43
35.0
 50
180.0
  0
POINT
  5
24F7
330
533
100
AcDbEntity
  8
Defpoints
 62
     0
100
AcDbPoint
 10
2014.467473248793
 20
1113.068507247261
 30
0.0
  0
POINT
  5
24F8
330
533
100
AcDbEntity
  8
Defpoints
 62
     0
100
AcDbPoint
 10
1999.467473248793
 20
1113.068507247261
 30
0.0
  0
POINT
  5
24F9
330
533
100
AcDbEntity
  8
Defpoints
 62
     0
100
AcDbPoint
 10
1999.467473248793
 20
950.1363894772062
 30
0.0
  0
ENDBLK
  5
53F
330
533
100
AcDbEntity
  8
0
100
AcDbBlockEnd
  0
BLOCK
  5
553
330
549
100
AcDbEntity
  8
0
100
AcDbBlockBegin
  2
*D17
 70
     1
 10
0.0
 20
0.0
 30
0.0
  3
*D17
  1

  0
LINE
  5
24E9
330
549
100
AcDbEntity
  8
実形
 62
     0
370
    15
100
AcDbLine
 10
2014.467473248793
 20
1033.06850724726
 30
0.0
 11
2014.467473248793
 21
870.1569793213366
 31
0.0
  0
LINE
  5
24EA
330
549
100
AcDbEntity
  8
実形
 62
     0
370
    15
100
AcDbLine
 10
1820.467473248793
 20
1036.06850724726
 30
0.0
 11
1820.467473248793
 21
870.1569793213366
 31
0.0
  0
LINE
  5
24EB
330
549
100
AcDbEntity
  8
実形
 62
     0
370
    18
100
AcDbLine
 10
2014.467473248793
 20
870.1569793213366
 30
0.0
 11
1820.467473248793
 21
870.1569793213366
 31
0.0
  0
INSERT
  5
24EC
330
549
100
AcDbEntity
  8
実形
 62
     0
370
    18
100
AcDbBlockReference
  2
_DotSmall
 10
2014.467473248793
 20
870.1569793213366
 30
0.0
 41
35.0
 42
35.0
 43
35.0
  0
INSERT
  5
24ED
330
549
100
AcDbEntity
  8
実形
 62
     0
370
    18
100
AcDbBlockReference
  2
_DotSmall
 10
1820.467473248793
 20
870.1569793213366
 30
0.0
 41
35.0
 42
35.0
 43
35.0
 50
180.0
  0
MTEXT
  5
24EE
330
549
100
AcDbEntity
  8
実形
 62
     0
100
AcDbMText
 10
1917.467473248793
 20
888.9069793213366
 30
0.0
 40
25.0
 41
0.0
 71
     5
 72
     1
  1
194
 73
     1
 44
1.0
1001
ACAD
1000
MTEXTBEGIN
1070
    73
1070
     1
1070
    44
1040
1.0
1070
    74
1070
     0
1000
MTEXTEND
  0
POINT
  5
24EF
330
549
100
AcDbEntity
  8
Defpoints
 62
     0
100
AcDbPoint
 10
2014.467473248793
 20
1098.06850724726
 30
0.0
  0
POINT
  5
24F0
330
549
100
AcDbEntity
  8
Defpoints
 62
     0
100
AcDbPoint
 10
1820.467473248793
 20
1101.06850724726
 30
0.0
  0
POINT
  5
24F1
330
549
100
AcDbEntity
  8
Defpoints
 62
     0
100
AcDbPoint
 10
1820.467473248793
 20
870.1569793213366
 30
0.0
  0
ENDBLK
  5
554
330
549
100
AcDbEntity
  8
0
100
AcDbBlockEnd
  0
BLOCK
  5
574
330
56A
100
AcDbEntity
  8
0
100
AcDbBlockBegin
  2
*D18
 70
     1
 10
0.0
 20
0.0
 30
0.0
  3
*D18
  1

  0
LINE
  5
24E0
330
56A
100
AcDbEntity
  8
実形
 62
     0
370
    15
100
AcDbLine
 10
2089.467473248793
 20
1410.798507247261
 30
0.0
 11
2134.773617340713
 21
1410.798507247261
 31
0.0
  0
LINE
  5
24E1
330
56A
100
AcDbEntity
  8
実形
 62
     0
370
    15
100
AcDbLine
 10
2089.467473248793
 20
1250.79850724726
 30
0.0
 11
2134.773617340713
 21
1250.79850724726
 31
0.0
  0
LINE
  5
24E2
330
56A
100
AcDbEntity
  8
実形
 62
     0
370
    18
100
AcDbLine
 10
2134.773617340713
 20
1410.798507247261
 30
0.0
 11
2134.773617340713
 21
1250.79850724726
 31
0.0
  0
INSERT
  5
24E3
330
56A
100
AcDbEntity
  8
実形
 62
     0
370
    18
100
AcDbBlockReference
  2
_DotSmall
 10
2134.773617340713
 20
1410.798507247261
 30
0.0
 41
35.0
 42
35.0
 43
35.0
 50
90.0
  0
INSERT
  5
24E4
330
56A
100
AcDbEntity
  8
実形
 62
     0
370
    18
100
AcDbBlockReference
  2
_DotSmall
 10
2134.773617340713
 20
1250.79850724726
 30
0.0
 41
35.0
 42
35.0
 43
35.0
 50
270.0
  0
MTEXT
  5
24E5
330
56A
100
AcDbEntity
  8
実形
 62
     0
100
AcDbMText
 10
2116.023617340712
 20
1330.798507247261
 30
0.0
 40
25.0
 41
0.0
 71
     5
 72
     1
  1
160
 11
0.0000000000000001
 21
1.0
 31
0.0
 73
     1
 44
1.0
1001
ACAD
1000
MTEXTBEGIN
1070
    73
1070
     1
1070
    44
1040
1.0
1070
    74
1070
     0
1000
MTEXTEND
  0
POINT
  5
24E6
330
56A
100
AcDbEntity
  8
Defpoints
 62
     0
100
AcDbPoint
 10
2024.467473248793
 20
1410.798507247261
 30
0.0
  0
POINT
  5
24E7
330
56A
100
AcDbEntity
  8
Defpoints
 62
     0
100
AcDbPoint
 10
2024.467473248793
 20
1250.79850724726
 30
0.0
  0
POINT
  5
24E8
330
56A
100
AcDbEntity
  8
Defpoints
 62
     0
100
AcDbPoint
 10
2134.773617340713
 20
1250.79850724726
 30
0.0
  0
ENDBLK
  5
575
330
56A
100
AcDbEntity
  8
0
100
AcDbBlockEnd
  0
BLOCK
  5
58A
330
580
100
AcDbEntity
  8
0
100
AcDbBlockBegin
  2
*D19
 70
     1
 10
0.0
 20
0.0
 30
0.0
  3
*D19
  1

  0
LINE
  5
24D7
330
580
100
AcDbEntity
  8
実形
 62
     0
370
    15
100
AcDbLine
 10
2089.467473248793
 20
1421.298507247261
 30
0.0
 11
2199.695205305555
 21
1421.298507247261
 31
0.0
  0
LINE
  5
24D8
330
580
100
AcDbEntity
  8
実形
 62
     0
370
    15
100
AcDbLine
 10
2089.467473248793
 20
1240.29850724726
 30
0.0
 11
2199.695205305555
 21
1240.29850724726
 31
0.0
  0
LINE
  5
24D9
330
580
100
AcDbEntity
  8
実形
 62
     0
370
    18
100
AcDbLine
 10
2199.695205305555
 20
1421.298507247261
 30
0.0
 11
2199.695205305555
 21
1240.29850724726
 31
0.0
  0
INSERT
  5
24DA
330
580
100
AcDbEntity
  8
実形
 62
     0
370
    18
100
AcDbBlockReference
  2
_DotSmall
 10
2199.695205305555
 20
1421.298507247261
 30
0.0
 41
35.0
 42
35.0
 43
35.0
 50
90.0
  0
INSERT
  5
24DB
330
580
100
AcDbEntity
  8
実形
 62
     0
370
    18
100
AcDbBlockReference
  2
_DotSmall
 10
2199.695205305555
 20
1240.29850724726
 30
0.0
 41
35.0
 42
35.0
 43
35.0
 50
270.0
  0
MTEXT
  5
24DC
330
580
100
AcDbEntity
  8
実形
 62
     0
100
AcDbMText
 10
2180.945205305555
 20
1330.798507247261
 30
0.0
 40
25.0
 41
0.0
 71
     5
 72
     1
  1
181
 11
0.0000000000000001
 21
1.0
 31
0.0
 73
     1
 44
1.0
1001
ACAD
1000
MTEXTBEGIN
1070
    73
1070
     1
1070
    44
1040
1.0
1070
    74
1070
     0
1000
MTEXTEND
  0
POINT
  5
24DD
330
580
100
AcDbEntity
  8
Defpoints
 62
     0
100
AcDbPoint
 10
2024.467473248793
 20
1421.298507247261
 30
0.0
  0
POINT
  5
24DE
330
580
100
AcDbEntity
  8
Defpoints
 62
     0
100
AcDbPoint
 10
2024.467473248793
 20
1240.29850724726
 30
0.0
  0
POINT
  5
24DF
330
580
100
AcDbEntity
  8
Defpoints
 62
     0
100
AcDbPoint
 10
2199.695205305555
 20
1240.29850724726
 30
0.0
  0
ENDBLK
  5
58B
330
580
100
AcDbEntity
  8
0
100
AcDbBlockEnd
  0
BLOCK
  5
1749
330
173E
100
AcDbEntity
  8
0
100
AcDbBlockBegin
  2
*D20
 70
     1
 10
0.0
 20
0.0
 30
0.0
  3
*D20
  1

  0
LINE
  5
2279
330
173E
100
AcDbEntity
  8
実形
 62
     0
370
    18
100
AcDbLine
 10
1025.988642071077
 20
1041.298974568408
 30
0.0
 11
1025.988642071077
 21
910.7951281869517
 31
0.0
  0
LINE
  5
227A
330
173E
100
AcDbEntity
  8
実形
 62
     0
370
    18
100
AcDbLine
 10
990.9886420710773
 20
1040.795128186952
 30
0.0
 11
990.9886420710773
 21
910.7951281869517
 31
0.0
  0
LINE
  5
227B
330
173E
100
AcDbEntity
  8
実形
 62
     0
370
    18
100
AcDbLine
 10
1025.988642071077
 20
910.7951281869517
 30
0.0
 11
990.9886420710773
 21
910.7951281869517
 31
0.0
  0
MTEXT
  5
227C
330
173E
100
AcDbEntity
  8
実形
 62
     0
100
AcDbMText
 10
1058.344693513732
 20
931.2045643715974
 30
0.0
 40
25.0
 41
0.0
 71
     5
 72
     1
  1
35
 73
     1
 44
1.0
1001
ACAD
1000
MTEXTBEGIN
1070
    73
1070
     1
1070
    44
1040
1.0
1070
    74
1070
     0
1000
MTEXTEND
  0
INSERT
  5
227D
330
173E
100
AcDbEntity
  8
実形
 62
     0
370
    18
100
AcDbBlockReference
  2
_DotSmall
 10
1025.988642071077
 20
910.7951281869517
 30
0.0
 41
35.0
 42
35.0
 43
35.0
  0
INSERT
  5
227E
330
173E
100
AcDbEntity
  8
実形
 62
     0
370
    18
100
AcDbBlockReference
  2
_DotSmall
 10
990.9886420710773
 20
910.7951281869517
 30
0.0
 41
35.0
 42
35.0
 43
35.0
 50
180.0
  0
POINT
  5
227F
330
173E
100
AcDbEntity
  8
Defpoints
 62
     0
100
AcDbPoint
 10
1025.988642071077
 20
1106.298974568408
 30
0.0
  0
POINT
  5
2280
330
173E
100
AcDbEntity
  8
Defpoints
 62
     0
100
AcDbPoint
 10
990.9886420710773
 20
1105.795128186952
 30
0.0
  0
POINT
  5
2281
330
173E
100
AcDbEntity
  8
Defpoints
 62
     0
100
AcDbPoint
 10
990.9886420710773
 20
910.7951281869517
 30
0.0
  0
ENDBLK
  5
174A
330
173E
100
AcDbEntity
  8
0
100
AcDbBlockEnd
  0
BLOCK
  5
17BA
330
17AF
100
AcDbEntity
  8
0
100
AcDbBlockBegin
  2
*D21
 70
     1
 10
0.0
 20
0.0
 30
0.0
  3
*D21
  1

  0
LINE
  5
2465
330
17AF
100
AcDbEntity
  8
実形
 62
     0
370
    18
100
AcDbLine
 10
943.9886420710772
 20
1125.795128186952
 30
0.0
 11
810.9886420710775
 21
1125.795128186952
 31
0.0
  0
LINE
  5
2466
330
17AF
100
AcDbEntity
  8
実形
 62
     0
370
    18
100
AcDbLine
 10
943.9886420710772
 20
1090.795128186952
 30
0.0
 11
810.9886420710775
 21
1090.795128186952
 31
0.0
  0
LINE
  5
2467
330
17AF
100
AcDbEntity
  8
実形
 62
     0
370
    18
100
AcDbLine
 10
810.9886420710775
 20
1125.795128186952
 30
0.0
 11
810.9886420710775
 21
1090.795128186952
 31
0.0
  0
MTEXT
  5
2468
330
17AF
100
AcDbEntity
  8
実形
 62
     0
100
AcDbMText
 10
787.6274703523322
 20
1118.215551067285
 30
0.0
 40
25.0
 41
0.0
 71
     5
 72
     1
  1
35
 11
0.0000000000000001
 21
1.0
 31
0.0
 73
     1
 44
1.0
1001
ACAD
1000
MTEXTBEGIN
1070
    73
1070
     1
1070
    44
1040
1.0
1070
    74
1070
     0
1000
MTEXTEND
  0
INSERT
  5
2469
330
17AF
100
AcDbEntity
  8
実形
 62
     0
370
    18
100
AcDbBlockReference
  2
_DotSmall
 10
810.9886420710775
 20
1125.795128186952
 30
0.0
 41
35.0
 42
35.0
 43
35.0
 50
90.0
  0
INSERT
  5
246A
330
17AF
100
AcDbEntity
  8
実形
 62
     0
370
    18
100
AcDbBlockReference
  2
_DotSmall
 10
810.9886420710775
 20
1090.795128186952
 30
0.0
 41
35.0
 42
35.0
 43
35.0
 50
270.0
  0
POINT
  5
246B
330
17AF
100
AcDbEntity
  8
Defpoints
 62
     0
100
AcDbPoint
 10
1008.988642071077
 20
1125.795128186952
 30
0.0
  0
POINT
  5
246C
330
17AF
100
AcDbEntity
  8
Defpoints
 62
     0
100
AcDbPoint
 10
1008.988642071077
 20
1090.795128186952
 30
0.0
  0
POINT
  5
246D
330
17AF
100
AcDbEntity
  8
Defpoints
 62
     0
100
AcDbPoint
 10
810.9886420710775
 20
1090.795128186952
 30
0.0
  0
ENDBLK
  5
17BB
330
17AF
100
AcDbEntity
  8
0
100
AcDbBlockEnd
  0
BLOCK
  5
1F65
330
1F5A
100
AcDbEntity
  8
0
100
AcDbBlockBegin
  2
*D22
 70
     1
 10
0.0
 20
0.0
 30
0.0
  3
*D22
  1

  0
LINE
  5
2477
330
1F5A
100
AcDbEntity
  8
実形
 62
     0
370
    18
100
AcDbLine
 10
943.9886420710772
 20
1620.795128186952
 30
0.0
 11
880.9886420710773
 21
1620.795128186952
 31
0.0
  0
LINE
  5
2478
330
1F5A
100
AcDbEntity
  8
実形
 62
     0
370
    18
100
AcDbLine
 10
943.9886420710772
 20
1600.795128186952
 30
0.0
 11
880.9886420710773
 21
1600.795128186952
 31
0.0
  0
LINE
  5
2479
330
1F5A
100
AcDbEntity
  8
実形
 62
     0
370
    18
100
AcDbLine
 10
880.9886420710773
 20
1620.795128186952
 30
0.0
 11
880.9886420710773
 21
1600.795128186952
 31
0.0
  0
MTEXT
  5
247A
330
1F5A
100
AcDbEntity
  8
実形
 62
     0
100
AcDbMText
 10
859.818730432029
 20
1644.380652419872
 30
0.0
 40
25.0
 41
0.0
 71
     5
 72
     1
  1
20
 11
0.0000000000000001
 21
1.0
 31
0.0
 73
     1
 44
1.0
1001
ACAD
1000
MTEXTBEGIN
1070
    73
1070
     1
1070
    44
1040
1.0
1070
    74
1070
     0
1000
MTEXTEND
  0
INSERT
  5
247B
330
1F5A
100
AcDbEntity
  8
実形
 62
     0
370
    18
100
AcDbBlockReference
  2
_DotSmall
 10
880.9886420710773
 20
1620.795128186952
 30
0.0
 41
35.0
 42
35.0
 43
35.0
 50
90.0
  0
INSERT
  5
247C
330
1F5A
100
AcDbEntity
  8
実形
 62
     0
370
    18
100
AcDbBlockReference
  2
_DotSmall
 10
880.9886420710773
 20
1600.795128186952
 30
0.0
 41
35.0
 42
35.0
 43
35.0
 50
270.0
  0
POINT
  5
247D
330
1F5A
100
AcDbEntity
  8
Defpoints
 62
     0
100
AcDbPoint
 10
1008.988642071077
 20
1620.795128186952
 30
0.0
  0
POINT
  5
247E
330
1F5A
100
AcDbEntity
  8
Defpoints
 62
     0
100
AcDbPoint
 10
1008.988642071077
 20
1600.795128186952
 30
0.0
  0
POINT
  5
247F
330
1F5A
100
AcDbEntity
  8
Defpoints
 62
     0
100
AcDbPoint
 10
880.9886420710773
 20
1600.795128186952
 30
0.0
  0
ENDBLK
  5
1F66
330
1F5A
100
AcDbEntity
  8
0
100
AcDbBlockEnd
  0
BLOCK
  5
1F72
330
1F68
100
AcDbEntity
  8
0
100
AcDbBlockBegin
  2
*D23
 70
     1
 10
0.0
 20
0.0
 30
0.0
  3
*D23
  1

  0
LINE
  5
246E
330
1F68
100
AcDbEntity
  8
実形
 62
     0
370
    18
100
AcDbLine
 10
943.9886420710772
 20
1600.795128186952
 30
0.0
 11
880.9886420710773
 21
1600.795128186952
 31
0.0
  0
LINE
  5
246F
330
1F68
100
AcDbEntity
  8
実形
 62
     0
370
    18
100
AcDbLine
 10
943.9886420710772
 20
1535.795128186951
 30
0.0
 11
880.9886420710773
 21
1535.795128186951
 31
0.0
  0
LINE
  5
2470
330
1F68
100
AcDbEntity
  8
実形
 62
     0
370
    18
100
AcDbLine
 10
880.9886420710773
 20
1600.795128186952
 30
0.0
 11
880.9886420710773
 21
1535.795128186951
 31
0.0
  0
INSERT
  5
2471
330
1F68
100
AcDbEntity
  8
実形
 62
     0
370
    18
100
AcDbBlockReference
  2
_DotSmall
 10
880.9886420710773
 20
1600.795128186952
 30
0.0
 41
35.0
 42
35.0
 43
35.0
 50
90.0
  0
INSERT
  5
2472
330
1F68
100
AcDbEntity
  8
実形
 62
     0
370
    18
100
AcDbBlockReference
  2
_DotSmall
 10
880.9886420710773
 20
1535.795128186951
 30
0.0
 41
35.0
 42
35.0
 43
35.0
 50
270.0
  0
MTEXT
  5
2473
330
1F68
100
AcDbEntity
  8
実形
 62
     0
100
AcDbMText
 10
862.2386420710769
 20
1568.295128186952
 30
0.0
 40
25.0
 41
0.0
 71
     5
 72
     1
  1
65
 11
0.0000000000000001
 21
1.0
 31
0.0
 73
     1
 44
1.0
1001
ACAD
1000
MTEXTBEGIN
1070
    73
1070
     1
1070
    44
1040
1.0
1070
    74
1070
     0
1000
MTEXTEND
  0
POINT
  5
2474
330
1F68
100
AcDbEntity
  8
Defpoints
 62
     0
100
AcDbPoint
 10
1008.988642071077
 20
1600.795128186952
 30
0.0
  0
POINT
  5
2475
330
1F68
100
AcDbEntity
  8
Defpoints
 62
     0
100
AcDbPoint
 10
1008.988642071077
 20
1535.795128186951
 30
0.0
  0
POINT
  5
2476
330
1F68
100
AcDbEntity
  8
Defpoints
 62
     0
100
AcDbPoint
 10
880.9886420710773
 20
1535.795128186951
 30
0.0
  0
ENDBLK
  5
1F73
330
1F68
100
AcDbEntity
  8
0
100
AcDbBlockEnd
  0
BLOCK
  5
1F80
330
1F75
100
AcDbEntity
  8
0
100
AcDbBlockBegin
  2
*D24
 70
     1
 10
0.0
 20
0.0
 30
0.0
  3
*D24
  1

  0
LINE
  5
2453
330
1F75
100
AcDbEntity
  8
実形
 62
     0
370
    18
100
AcDbLine
 10
943.9886420710772
 20
1125.795128186952
 30
0.0
 11
880.9886420710773
 21
1125.795128186952
 31
0.0
  0
LINE
  5
2454
330
1F75
100
AcDbEntity
  8
実形
 62
     0
370
    18
100
AcDbLine
 10
943.9886420710772
 20
1110.795128186952
 30
0.0
 11
880.9886420710773
 21
1110.795128186952
 31
0.0
  0
LINE
  5
2455
330
1F75
100
AcDbEntity
  8
実形
 62
     0
370
    18
100
AcDbLine
 10
880.9886420710773
 20
1125.795128186952
 30
0.0
 11
880.9886420710773
 21
1110.795128186952
 31
0.0
  0
MTEXT
  5
2456
330
1F75
100
AcDbEntity
  8
実形
 62
     0
100
AcDbMText
 10
858.1780228903935
 20
1149.256105510551
 30
0.0
 40
25.0
 41
0.0
 71
     5
 72
     1
  1
15
 11
0.0000000000000001
 21
1.0
 31
0.0
 73
     1
 44
1.0
1001
ACAD
1000
MTEXTBEGIN
1070
    73
1070
     1
1070
    44
1040
1.0
1070
    74
1070
     0
1000
MTEXTEND
  0
INSERT
  5
2457
330
1F75
100
AcDbEntity
  8
実形
 62
     0
370
    18
100
AcDbBlockReference
  2
_DotSmall
 10
880.9886420710773
 20
1125.795128186952
 30
0.0
 41
35.0
 42
35.0
 43
35.0
 50
90.0
  0
INSERT
  5
2458
330
1F75
100
AcDbEntity
  8
実形
 62
     0
370
    18
100
AcDbBlockReference
  2
_DotSmall
 10
880.9886420710773
 20
1110.795128186952
 30
0.0
 41
35.0
 42
35.0
 43
35.0
 50
270.0
  0
POINT
  5
2459
330
1F75
100
AcDbEntity
  8
Defpoints
 62
     0
100
AcDbPoint
 10
1008.988642071077
 20
1125.795128186952
 30
0.0
  0
POINT
  5
245A
330
1F75
100
AcDbEntity
  8
Defpoints
 62
     0
100
AcDbPoint
 10
1008.988642071077
 20
1110.795128186952
 30
0.0
  0
POINT
  5
245B
330
1F75
100
AcDbEntity
  8
Defpoints
 62
     0
100
AcDbPoint
 10
880.9886420710773
 20
1110.795128186952
 30
0.0
  0
ENDBLK
  5
1F81
330
1F75
100
AcDbEntity
  8
0
100
AcDbBlockEnd
  0
BLOCK
  5
1F8D
330
1F83
100
AcDbEntity
  8
0
100
AcDbBlockBegin
  2
*D25
 70
     1
 10
0.0
 20
0.0
 30
0.0
  3
*D25
  1

  0
LINE
  5
244A
330
1F83
100
AcDbEntity
  8
実形
 62
     0
370
    18
100
AcDbLine
 10
943.9886420710772
 20
1110.795128186952
 30
0.0
 11
880.9886420710773
 21
1110.795128186952
 31
0.0
  0
LINE
  5
244B
330
1F83
100
AcDbEntity
  8
実形
 62
     0
370
    18
100
AcDbLine
 10
943.9886420710772
 20
1090.795128186952
 30
0.0
 11
880.9886420710773
 21
1090.795128186952
 31
0.0
  0
LINE
  5
244C
330
1F83
100
AcDbEntity
  8
実形
 62
     0
370
    18
100
AcDbLine
 10
880.9886420710773
 20
1110.795128186952
 30
0.0
 11
880.9886420710773
 21
1090.795128186952
 31
0.0
  0
MTEXT
  5
244D
330
1F83
100
AcDbEntity
  8
実形
 62
     0
100
AcDbMText
 10
861.4594379736645
 20
1064.002871042677
 30
0.0
 40
25.0
 41
0.0
 71
     5
 72
     1
  1
20
 11
0.0000000000000001
 21
1.0
 31
0.0
 73
     1
 44
1.0
1001
ACAD
1000
MTEXTBEGIN
1070
    73
1070
     1
1070
    44
1040
1.0
1070
    74
1070
     0
1000
MTEXTEND
  0
INSERT
  5
244E
330
1F83
100
AcDbEntity
  8
実形
 62
     0
370
    18
100
AcDbBlockReference
  2
_DotSmall
 10
880.9886420710773
 20
1110.795128186952
 30
0.0
 41
35.0
 42
35.0
 43
35.0
 50
90.0
  0
INSERT
  5
244F
330
1F83
100
AcDbEntity
  8
実形
 62
     0
370
    18
100
AcDbBlockReference
  2
_DotSmall
 10
880.9886420710773
 20
1090.795128186952
 30
0.0
 41
35.0
 42
35.0
 43
35.0
 50
270.0
  0
POINT
  5
2450
330
1F83
100
AcDbEntity
  8
Defpoints
 62
     0
100
AcDbPoint
 10
1008.988642071077
 20
1110.795128186952
 30
0.0
  0
POINT
  5
2451
330
1F83
100
AcDbEntity
  8
Defpoints
 62
     0
100
AcDbPoint
 10
1008.988642071077
 20
1090.795128186952
 30
0.0
  0
POINT
  5
2452
330
1F83
100
AcDbEntity
  8
Defpoints
 62
     0
100
AcDbPoint
 10
880.9886420710773
 20
1090.795128186952
 30
0.0
  0
ENDBLK
  5
1F8E
330
1F83
100
AcDbEntity
  8
0
100
AcDbBlockEnd
  0
BLOCK
  5
1F9B
330
1F90
100
AcDbEntity
  8
0
100
AcDbBlockBegin
  2
*D26
 70
     1
 10
0.0
 20
0.0
 30
0.0
  3
*D26
  1

  0
LINE
  5
2492
330
1F90
100
AcDbEntity
  8
実形
 62
     0
370
    18
100
AcDbLine
 10
990.9886420710773
 20
1045.795128186952
 30
0.0
 11
990.9886420710773
 21
980.7951281869518
 31
0.0
  0
LINE
  5
2493
330
1F90
100
AcDbEntity
  8
実形
 62
     0
370
    18
100
AcDbLine
 10
1010.988642071077
 20
1045.795128186952
 30
0.0
 11
1010.988642071077
 21
980.7951281869518
 31
0.0
  0
LINE
  5
2494
330
1F90
100
AcDbEntity
  8
実形
 62
     0
370
    18
100
AcDbLine
 10
990.9886420710773
 20
980.7951281869518
 30
0.0
 11
1010.988642071077
 21
980.7951281869518
 31
0.0
  0
MTEXT
  5
2495
330
1F90
100
AcDbEntity
  8
実形
 62
     0
100
AcDbMText
 10
964.8241926435293
 20
996.7839739622149
 30
0.0
 40
25.0
 41
0.0
 71
     5
 72
     1
  1
20
 73
     1
 44
1.0
1001
ACAD
1000
MTEXTBEGIN
1070
    73
1070
     1
1070
    44
1040
1.0
1070
    74
1070
     0
1000
MTEXTEND
  0
INSERT
  5
2496
330
1F90
100
AcDbEntity
  8
実形
 62
     0
370
    18
100
AcDbBlockReference
  2
_DotSmall
 10
990.9886420710773
 20
980.7951281869518
 30
0.0
 41
35.0
 42
35.0
 43
35.0
 50
180.0
  0
INSERT
  5
2497
330
1F90
100
AcDbEntity
  8
実形
 62
     0
370
    18
100
AcDbBlockReference
  2
_DotSmall
 10
1010.988642071077
 20
980.7951281869518
 30
0.0
 41
35.0
 42
35.0
 43
35.0
  0
POINT
  5
2498
330
1F90
100
AcDbEntity
  8
Defpoints
 62
     0
100
AcDbPoint
 10
990.9886420710773
 20
1110.795128186952
 30
0.0
  0
POINT
  5
2499
330
1F90
100
AcDbEntity
  8
Defpoints
 62
     0
100
AcDbPoint
 10
1010.988642071077
 20
1110.795128186952
 30
0.0
  0
POINT
  5
249A
330
1F90
100
AcDbEntity
  8
Defpoints
 62
     0
100
AcDbPoint
 10
1010.988642071077
 20
980.7951281869518
 30
0.0
  0
ENDBLK
  5
1F9C
330
1F90
100
AcDbEntity
  8
0
100
AcDbBlockEnd
  0
BLOCK
  5
1FAA
330
1F9E
100
AcDbEntity
  8
0
100
AcDbBlockBegin
  2
*D27
 70
     1
 10
0.0
 20
0.0
 30
0.0
  3
*D27
  1

  0
LINE
  5
24A4
330
1F9E
100
AcDbEntity
  8
実形
 62
     0
370
    18
100
AcDbLine
 10
1010.988642071077
 20
1045.795128186952
 30
0.0
 11
1010.988642071077
 21
980.7951281869518
 31
0.0
  0
LINE
  5
24A5
330
1F9E
100
AcDbEntity
  8
実形
 62
     0
370
    18
100
AcDbLine
 10
1025.988642071077
 20
1045.795128186952
 30
0.0
 11
1025.988642071077
 21
980.7951281869518
 31
0.0
  0
LINE
  5
24A6
330
1F9E
100
AcDbEntity
  8
実形
 62
     0
370
    18
100
AcDbLine
 10
1010.988642071077
 20
980.7951281869518
 30
0.0
 11
1025.988642071077
 21
980.7951281869518
 31
0.0
  0
MTEXT
  5
24A7
330
1F9E
100
AcDbEntity
  8
実形
 62
     0
100
AcDbMText
 10
1051.781846247491
 20
996.7839739622149
 30
0.0
 40
25.0
 41
0.0
 71
     5
 72
     1
  1
15
 73
     1
 44
1.0
1001
ACAD
1000
MTEXTBEGIN
1070
    73
1070
     1
1070
    44
1040
1.0
1070
    74
1070
     0
1000
MTEXTEND
  0
INSERT
  5
24A8
330
1F9E
100
AcDbEntity
  8
実形
 62
     0
370
    18
100
AcDbBlockReference
  2
_DotSmall
 10
1010.988642071077
 20
980.7951281869518
 30
0.0
 41
35.0
 42
35.0
 43
35.0
 50
180.0
  0
INSERT
  5
24A9
330
1F9E
100
AcDbEntity
  8
実形
 62
     0
370
    18
100
AcDbBlockReference
  2
_DotSmall
 10
1025.988642071077
 20
980.7951281869518
 30
0.0
 41
35.0
 42
35.0
 43
35.0
  0
POINT
  5
24AA
330
1F9E
100
AcDbEntity
  8
Defpoints
 62
     0
100
AcDbPoint
 10
1010.988642071077
 20
1110.795128186952
 30
0.0
  0
POINT
  5
24AB
330
1F9E
100
AcDbEntity
  8
Defpoints
 62
     0
100
AcDbPoint
 10
1025.988642071077
 20
1110.795128186952
 30
0.0
  0
POINT
  5
24AC
330
1F9E
100
AcDbEntity
  8
Defpoints
 62
     0
100
AcDbPoint
 10
1025.988642071077
 20
980.7951281869518
 30
0.0
  0
ENDBLK
  5
1FAB
330
1F9E
100
AcDbEntity
  8
0
100
AcDbBlockEnd
  0
ENDSEC
  0
SECTION
  2
ENTITIES
  0
LINE
  5
73
330
1F
100
AcDbEntity
  8
0
100
AcDbLine
 10
109.0
 20
4.0
 30
0.0
 11
278.0
 21
4.0
 31
0.0
  0
LINE
  5
9C
330
1F
100
AcDbEntity
  8
補助
100
AcDbLine
 10
109.0
 20
4.0
 30
0.0
 11
2784.0
 21
4.0
 31
0.0
  0
LINE
  5
A0
330
1F
100
AcDbEntity
  8
補助
100
AcDbLine
 10
2784.0
 20
2024.0
 30
0.0
 11
109.0
 21
2024.0
 31
0.0
  0
LINE
  5
A5
330
1F
100
AcDbEntity
  8
補助
100
AcDbLine
 10
2784.0
 20
4.0
 30
0.0
 11
2784.0
 21
2024.0
 31
0.0
  0
LINE
  5
2E6
330
1F
100
AcDbEntity
  8
実形
100
AcDbLine
 10
1005.988642071077
 20
731.4714311752086
 30
0.0
 11
1575.988642071077
 21
731.4714311752086
 31
0.0
  0
LINE
  5
2FE
330
1F
100
AcDbEntity
  8
実形
100
AcDbLine
 10
1825.467473248792
 20
1605.798507247261
 30
0.0
 11
1825.467473248792
 21
1105.79850724726
 31
0.0
  0
LINE
  5
33A
330
1F
100
AcDbEntity
  8
センター
 48
0.5
370
    15
100
AcDbLine
 10
1056.83499803139
 20
1330.795128186952
 30
0.0
 11
1527.58715010838
 21
1330.795128186952
 31
0.0
  0
LINE
  5
33B
330
1F
100
AcDbEntity
  8
センター
 48
0.5
370
    15
100
AcDbLine
 10
1175.988642071077
 20
1525.896312361388
 30
0.0
 11
1175.988642071077
 21
1190.887630318284
 31
0.0
  0
LINE
  5
33C
330
1F
100
AcDbEntity
  8
実形
 48
0.5
370
    15
100
AcDbLine
 10
1175.988642071077
 20
630.6880550506221
 30
0.0
 11
1175.988642071077
 21
464.2722347433219
 31
0.0
  0
LINE
  5
33D
330
1F
100
AcDbEntity
  8
センター
 48
0.5
370
    15
100
AcDbLine
 10
1937.931684569836
 20
1330.798507247261
 30
0.0
 11
2046.842636826898
 21
1330.798507247261
 31
0.0
  0
DIMENSION
  5
35B
330
1F
100
AcDbEntity
  8
実形
100
AcDbDimension
  2
*D4
 10
990.9886420710773
 20
1695.09256443876
 30
0.0
 11
1083.488642071077
 21
1713.84256443876
 31
0.0
 70
    32
 71
     5
 42
185.0
  3
ISO-25
100
AcDbAlignedDimension
 13
1175.988642071077
 23
1419.295128186952
 33
0.0
 14
990.9886420710773
 24
1573.47759353233
 34
0.0
100
AcDbRotatedDimension
1001
ACAD
1000
DSTYLE
1002
{
1070
   371
1070
    18
1002
}
  0
DIMENSION
  5
368
330
1F
100
AcDbEntity
  8
実形
100
AcDbDimension
  2
*D5
 10
1673.591654690058
 20
1330.795128186952
 30
0.0
 11
1654.841654690059
 21
1210.795128186952
 31
0.0
 70
    32
 71
     5
 42
239.9999999999998
  3
ISO-25
100
AcDbAlignedDimension
 13
1551.728284140641
 23
1090.795128186952
 33
0.0
 14
1410.988642071077
 24
1330.795128186952
 34
0.0
 50
90.0
100
AcDbRotatedDimension
1001
ACAD
1000
DSTYLE
1002
{
1070
   371
1070
    18
1002
}
  0
DIMENSION
  5
3CE
330
1F
100
AcDbEntity
  8
実形
100
AcDbDimension
  2
*D6
 10
810.9886420710772
 20
1535.795128186952
 30
0.0
 11
792.238642071077
 21
1578.295128186952
 31
0.0
 70
    32
  1
85
 71
     5
 42
85.0
  3
ISO-25
100
AcDbAlignedDimension
 13
1008.988642071077
 23
1620.795128186952
 33
0.0
 14
1008.988642071077
 24
1535.795128186952
 34
0.0
 50
90.0
100
AcDbRotatedDimension
1001
ACAD
1000
DSTYLE
1002
{
1070
   371
1070
    18
1002
}
  0
DIMENSION
  5
3DC
330
1F
100
AcDbEntity
  8
実形
100
AcDbDimension
  2
*D7
 10
810.9886420710772
 20
1125.795128186952
 30
0.0
 11
792.2386420710771
 21
1330.795128186952
 31
0.0
 70
    32
 71
     5
 42
410.0
  3
ISO-25
100
AcDbAlignedDimension
 13
1008.988642071077
 23
1535.795128186952
 33
0.0
 14
1008.988642071077
 24
1125.795128186952
 34
0.0
 50
90.0
100
AcDbRotatedDimension
1001
ACAD
1000
DSTYLE
1002
{
1070
   281
1070
     0
1070
   371
1070
    18
1070
   279
1070
     1
1002
}
  0
DIMENSION
  5
3F6
330
1F
100
AcDbEntity
  8
実形
100
AcDbDimension
  2
*D8
 10
740.9886420710773
 20
1090.795128186952
 30
0.0
 11
722.2386420710771
 21
1355.795128186952
 31
0.0
 70
    32
 71
     5
 42
530.0
  3
ISO-25
100
AcDbAlignedDimension
 13
1008.988642071077
 23
1620.795128186952
 33
0.0
 14
1008.988642071077
 24
1090.795128186952
 34
0.0
 50
90.0
100
AcDbRotatedDimension
1001
ACAD
1000
DSTYLE
1002
{
1070
   371
1070
    18
1002
}
  0
DIMENSION
  5
44B
330
1F
100
AcDbEntity
  8
実形
100
AcDbDimension
  2
*D9
 10
1555.988642071077
 20
910.7951281869517
 30
0.0
 11
1290.988642071077
 21
929.5451281869517
 31
0.0
 70
    32
 71
     5
 42
530.0000000000002
  3
ISO-25
100
AcDbAlignedDimension
 13
1025.988642071077
 23
1106.298974568408
 33
0.0
 14
1555.988642071077
 24
1106.298974568408
 34
0.0
100
AcDbRotatedDimension
1001
ACAD
1000
DSTYLE
1002
{
1070
   371
1070
    18
1070
   279
1070
     1
1002
}
  0
DIMENSION
  5
458
330
1F
100
AcDbEntity
  8
実形
100
AcDbDimension
  2
*D10
 10
1590.988642071077
 20
910.7951281869517
 30
0.0
 11
1525.947155115502
 21
931.2045643715974
 31
0.0
 70
   160
  1
35
 71
     5
 42
34.99999999999977
  3
ISO-25
100
AcDbAlignedDimension
 13
1555.988642071077
 23
1106.298974568408
 33
0.0
 14
1590.988642071077
 24
1108.795128186952
 34
0.0
100
AcDbRotatedDimension
1001
ACAD
1000
DSTYLE
1002
{
1070
   281
1070
     0
1070
   371
1070
    18
1070
   279
1070
     2
1002
}
  0
DIMENSION
  5
4A3
330
1F
100
AcDbEntity
  8
実形
100
AcDbDimension
  2
*D11
 10
1590.988642071077
 20
840.7951281869518
 30
0.0
 11
1290.988642071077
 21
859.5451281869518
 31
0.0
 70
    32
 71
     5
 42
600.0
  3
ISO-25
100
AcDbAlignedDimension
 13
990.9886420710773
 23
1105.795128186952
 33
0.0
 14
1590.988642071077
 24
1105.795128186952
 34
0.0
100
AcDbRotatedDimension
1001
ACAD
1000
DSTYLE
1002
{
1070
   371
1070
    18
1002
}
  0
DIMENSION
  5
4BE
330
1F
100
AcDbEntity
  8
寸法
100
AcDbDimension
  2
*D12
 10
1679.880392558784
 20
542.4714311752086
 30
0.0
 11
1679.880392558784
 21
549.9714311752089
 31
0.0
 70
    32
  1
 
 71
     5
 42
15.0
  3
ISO-25
100
AcDbAlignedDimension
 13
1560.988642071077
 23
557.4714311752086
 33
0.0
 14
1560.988642071077
 24
542.4714311752086
 34
0.0
 50
90.0
100
AcDbRotatedDimension
1001
ACAD
1000
DSTYLE
1002
{
1070
   371
1070
    18
1002
}
  0
DIMENSION
  5
4CC
330
1F
100
AcDbEntity
  8
実形
100
AcDbDimension
  2
*D13
 10
1718.621016893666
 20
542.4714311752086
 30
0.0
 11
1699.871016893666
 21
639.4714311752089
 31
0.0
 70
    32
 71
     5
 42
194.0000000000001
  3
ISO-25
100
AcDbAlignedDimension
 13
1560.988642071077
 23
736.4714311752087
 33
0.0
 14
1560.988642071077
 24
542.4714311752086
 34
0.0
 50
90.0
100
AcDbRotatedDimension
1001
ACAD
1000
DSTYLE
1002
{
1070
   371
1070
    18
1002
}
  0
TEXT
  5
4F7
330
1F
100
AcDbEntity
  8
実形
100
AcDbText
 10
1682.934094270789
 20
483.1655479719743
 30
0.0
 40
25.0
  1
15
 50
90.0
100
AcDbText
  0
DIMENSION
  5
4F8
330
1F
100
AcDbEntity
  8
実形
100
AcDbDimension
  2
*D14
 10
1255.988642071077
 20
416.0440238741357
 30
0.0
 11
1175.988642071077
 21
434.7940238741357
 31
0.0
 70
    32
 71
     5
 42
160.0
  3
ISO-25
100
AcDbAlignedDimension
 13
1095.988642071077
 23
532.4714311752086
 33
0.0
 14
1255.988642071077
 24
532.4714311752086
 34
0.0
100
AcDbRotatedDimension
1001
ACAD
1000
DSTYLE
1002
{
1070
   371
1070
    18
1002
}
  0
DIMENSION
  5
505
330
1F
100
AcDbEntity
  8
実形
100
AcDbDimension
  2
*D15
 10
1266.488642071077
 20
356.0846253052068
 30
0.0
 11
1175.988642071077
 21
374.8346253052068
 31
0.0
 70
    32
 71
     5
 42
181.0
  3
ISO-25
100
AcDbAlignedDimension
 13
1085.488642071077
 23
532.4714311752086
 33
0.0
 14
1266.488642071077
 24
532.4714311752086
 34
0.0
100
AcDbRotatedDimension
1001
ACAD
1000
DSTYLE
1002
{
1070
   371
1070
    18
1002
}
  0
DIMENSION
  5
532
330
1F
100
AcDbEntity
  8
実形
100
AcDbDimension
  2
*D16
 10
1999.467473248793
 20
950.1363894772062
 30
0.0
 11
2006.967473248793
 21
950.1363894772062
 31
0.0
 70
    32
  1
 
 71
     5
 42
15.0
  3
ISO-25
100
AcDbAlignedDimension
 13
2014.467473248793
 23
1113.068507247261
 33
0.0
 14
1999.467473248793
 24
1113.068507247261
 34
0.0
100
AcDbRotatedDimension
1001
ACAD
1000
DSTYLE
1002
{
1070
   371
1070
    18
1002
}
  0
DIMENSION
  5
548
330
1F
100
AcDbEntity
  8
実形
100
AcDbDimension
  2
*D17
 10
1820.467473248793
 20
870.1569793213366
 30
0.0
 11
1917.467473248793
 21
888.9069793213366
 31
0.0
 70
    32
 71
     5
 42
194.0
  3
ISO-25
100
AcDbAlignedDimension
 13
2014.467473248793
 23
1098.06850724726
 33
0.0
 14
1820.467473248793
 24
1101.06850724726
 34
0.0
100
AcDbRotatedDimension
1001
ACAD
1000
DSTYLE
1002
{
1070
   371
1070
    18
1002
}
  0
TEXT
  5
555
330
1F
100
AcDbEntity
  8
実形
100
AcDbText
 10
2041.453757225057
 20
952.4243871116018
 30
0.0
 40
25.0
  1
15
100
AcDbText
  0
DIMENSION
  5
569
330
1F
100
AcDbEntity
  8
実形
100
AcDbDimension
  2
*D18
 10
2134.773617340713
 20
1250.79850724726
 30
0.0
 11
2116.023617340712
 21
1330.798507247261
 31
0.0
 70
    32
 71
     5
 42
160.0
  3
ISO-25
100
AcDbAlignedDimension
 13
2024.467473248793
 23
1410.798507247261
 33
0.0
 14
2024.467473248793
 24
1250.79850724726
 34
0.0
 50
90.0
100
AcDbRotatedDimension
1001
ACAD
1000
DSTYLE
1002
{
1070
   371
1070
    18
1002
}
  0
DIMENSION
  5
57F
330
1F
100
AcDbEntity
  8
実形
100
AcDbDimension
  2
*D19
 10
2199.695205305555
 20
1240.29850724726
 30
0.0
 11
2180.945205305555
 21
1330.798507247261
 31
0.0
 70
    32
 71
     5
 42
181.0
  3
ISO-25
100
AcDbAlignedDimension
 13
2024.467473248793
 23
1421.298507247261
 33
0.0
 14
2024.467473248793
 24
1240.29850724726
 34
0.0
 50
90.0
100
AcDbRotatedDimension
1001
ACAD
1000
DSTYLE
1002
{
1070
   371
1070
    18
1002
}
  0
LINE
  5
F27
330
1F
100
AcDbEntity
  8
実形
100
AcDbLine
 10
1005.988642071077
 20
731.4714311752086
 30
0.0
 11
1575.988642071077
 21
731.4714311752086
 31
0.0
  0
LINE
  5
1238
330
1F
100
AcDbEntity
  8
実形
100
AcDbLine
 10
1590.988642071077
 20
731.4714311752086
 30
0.0
 11
990.9886420710773
 21
731.4714311752086
 31
0.0
  0
LINE
  5
123B
330
1F
100
AcDbEntity
  8
実形
100
AcDbLine
 10
1085.488642071077
 20
542.4714311752086
 30
0.0
 11
1085.488642071077
 21
532.4714311752086
 31
0.0
  0
LINE
  5
123C
330
1F
100
AcDbEntity
  8
実形
100
AcDbLine
 10
1085.488642071077
 20
532.4714311752086
 30
0.0
 11
1266.488642071077
 21
532.4714311752086
 31
0.0
  0
LINE
  5
123D
330
1F
100
AcDbEntity
  8
実形
100
AcDbLine
 10
1266.488642071077
 20
532.4714311752086
 30
0.0
 11
1266.488642071077
 21
542.4714311752086
 31
0.0
  0
LINE
  5
123E
330
1F
100
AcDbEntity
  8
実形
100
AcDbLine
 10
1266.488642071077
 20
542.4714311752086
 30
0.0
 11
1085.488642071077
 21
542.4714311752086
 31
0.0
  0
LINE
  5
12A9
330
1F
100
AcDbEntity
  8
実形
100
AcDbLine
 10
1825.467473248792
 20
1605.798507247261
 30
0.0
 11
1825.467473248792
 21
1105.79850724726
 31
0.0
  0
LINE
  5
12AC
330
1F
100
AcDbEntity
  8
実形
100
AcDbLine
 10
2014.467473248793
 20
1240.29850724726
 30
0.0
 11
2024.467473248793
 21
1240.29850724726
 31
0.0
  0
LINE
  5
12AD
330
1F
100
AcDbEntity
  8
実形
100
AcDbLine
 10
2024.467473248793
 20
1240.29850724726
 30
0.0
 11
2024.467473248793
 21
1421.298507247261
 31
0.0
  0
LINE
  5
12AE
330
1F
100
AcDbEntity
  8
実形
100
AcDbLine
 10
2024.467473248793
 20
1421.298507247261
 30
0.0
 11
2014.467473248793
 21
1421.298507247261
 31
0.0
  0
LINE
  5
12AF
330
1F
100
AcDbEntity
  8
実形
100
AcDbLine
 10
2014.467473248793
 20
1421.298507247261
 30
0.0
 11
2014.467473248793
 21
1240.29850724726
 31
0.0
  0
LINE
  5
15F5
330
1F
100
AcDbEntity
  8
実形
100
AcDbLine
 10
1555.988642071077
 20
721.4714311752087
 30
0.0
 11
1555.988642071077
 21
585.9572695765258
 31
0.0
  0
LINE
  5
15F8
330
1F
100
AcDbEntity
  8
実形
100
AcDbLine
 10
1025.988642071077
 20
580.8470444343328
 30
0.0
 11
1025.988642071077
 21
721.4714311752087
 31
0.0
  0
LINE
  5
15F9
330
1F
100
AcDbEntity
  8
実形
100
AcDbLine
 10
1835.467473248792
 20
1125.79850724726
 30
0.0
 11
1973.141267235743
 21
1125.798507247261
 31
0.0
  0
LINE
  5
15FB
330
1F
100
AcDbEntity
  8
実形
100
AcDbLine
 10
1835.467473248792
 20
1535.798507247261
 30
0.0
 11
1973.141267235743
 21
1535.798507247261
 31
0.0
  0
DIMENSION
  5
173D
330
1F
100
AcDbEntity
  8
実形
100
AcDbDimension
  2
*D20
 10
990.9886420710773
 20
910.7951281869517
 30
0.0
 11
1058.344693513732
 21
931.2045643715974
 31
0.0
 70
   160
  1
35
 71
     5
 42
35.0
  3
ISO-25
100
AcDbAlignedDimension
 13
1025.988642071077
 23
1106.298974568408
 33
0.0
 14
990.9886420710773
 24
1105.795128186952
 34
0.0
100
AcDbRotatedDimension
1001
ACAD
1000
DSTYLE
1002
{
1070
   279
1070
     2
1070
   282
1070
     0
1070
   281
1070
     0
1070
   371
1070
    18
1070
   372
1070
    18
1002
}
  0
DIMENSION
  5
17AE
330
1F
100
AcDbEntity
  8
実形
100
AcDbDimension
  2
*D21
 10
810.9886420710775
 20
1090.795128186952
 30
0.0
 11
787.6274703523322
 21
1118.215551067285
 31
0.0
 70
   160
  1
35
 71
     5
 42
35.0
  3
ISO-25
100
AcDbAlignedDimension
 13
1008.988642071077
 23
1125.795128186952
 33
0.0
 14
1008.988642071077
 24
1090.795128186952
 34
0.0
 50
90.0
100
AcDbRotatedDimension
1001
ACAD
1000
DSTYLE
1002
{
1070
   279
1070
     2
1070
   371
1070
    18
1070
   372
1070
    18
1002
}
  0
LINE
  5
1877
330
1F
100
AcDbEntity
  8
実形
100
AcDbLine
 10
1010.988642071077
 20
1570.795128186952
 30
0.0
 11
1010.988642071077
 21
1140.795128186952
 31
0.0
  0
LINE
  5
1878
330
1F
100
AcDbEntity
  8
実形
100
AcDbLine
 10
1040.988642071077
 20
1110.795128186952
 30
0.0
 11
1540.988642071077
 21
1110.795128186952
 31
0.0
  0
LINE
  5
1879
330
1F
100
AcDbEntity
  8
実形
100
AcDbLine
 10
1570.988642071077
 20
1140.795128186952
 30
0.0
 11
1570.988642071077
 21
1572.795128186952
 31
0.0
  0
LINE
  5
187A
330
1F
100
AcDbEntity
  8
実形
100
AcDbLine
 10
1540.988642071077
 20
1600.795128186952
 30
0.0
 11
1038.988642071077
 21
1600.795128186952
 31
0.0
  0
LINE
  5
187B
330
1F
100
AcDbEntity
  8
実形
100
AcDbLine
 10
1000.988642071077
 20
1620.795128186952
 30
0.0
 11
1580.988642071077
 21
1620.795128186951
 31
0.0
  0
LINE
  5
187C
330
1F
100
AcDbEntity
  8
実形
100
AcDbLine
 10
1590.988642071077
 20
1610.795128186952
 30
0.0
 11
1590.988642071077
 21
1100.795128186952
 31
0.0
  0
LINE
  5
187D
330
1F
100
AcDbEntity
  8
実形
100
AcDbLine
 10
1580.988642071077
 20
1090.795128186952
 30
0.0
 11
1000.988642071077
 21
1090.795128186952
 31
0.0
  0
LINE
  5
187E
330
1F
100
AcDbEntity
  8
実形
100
AcDbLine
 10
990.9886420710773
 20
1100.795128186952
 30
0.0
 11
990.9886420710773
 21
1610.795128186952
 31
0.0
  0
ARC
  5
187F
330
1F
100
AcDbEntity
  8
実形
100
AcDbCircle
 10
1540.988642071077
 20
1140.795128186952
 30
0.0
 40
30.0
100
AcDbArc
 50
270.0
 51
0.0
  0
ARC
  5
1880
330
1F
100
AcDbEntity
  8
実形
100
AcDbCircle
 10
1540.988642071077
 20
1570.795128186952
 30
0.0
 40
30.0
100
AcDbArc
 50
0.0
 51
90.0
  0
ARC
  5
1881
330
1F
100
AcDbEntity
  8
実形
100
AcDbCircle
 10
1040.988642071077
 20
1570.795128186952
 30
0.0
 40
30.0
100
AcDbArc
 50
90.00000000000005
 51
180.0
  0
ARC
  5
1882
330
1F
100
AcDbEntity
  8
実形
100
AcDbCircle
 10
1040.988642071077
 20
1140.795128186952
 30
0.0
 40
30.0
100
AcDbArc
 50
180.0
 51
270.0000000000001
  0
ARC
  5
1883
330
1F
100
AcDbEntity
  8
実形
100
AcDbCircle
 10
1000.988642071077
 20
1100.795128186952
 30
0.0
 40
10.0
100
AcDbArc
 50
180.0
 51
270.0
  0
ARC
  5
1884
330
1F
100
AcDbEntity
  8
実形
100
AcDbCircle
 10
1000.988642071077
 20
1610.795128186952
 30
0.0
 40
10.0
100
AcDbArc
 50
90.0
 51
180.0
  0
ARC
  5
1885
330
1F
100
AcDbEntity
  8
実形
100
AcDbCircle
 10
1580.988642071077
 20
1610.795128186952
 30
0.0
 40
10.0
100
AcDbArc
 50
0.0
 51
90.0
  0
ARC
  5
1886
330
1F
100
AcDbEntity
  8
実形
100
AcDbCircle
 10
1580.988642071077
 20
1100.795128186952
 30
0.0
 40
10.0
100
AcDbArc
 50
270.0
 51
0.0
  0
LINE
  5
1887
330
1F
100
AcDbEntity
  8
実形
100
AcDbLine
 10
1000.988642071077
 20
1615.795128186952
 30
0.0
 11
1580.988642071077
 21
1615.795128186951
 31
0.0
  0
ARC
  5
1888
330
1F
100
AcDbEntity
  8
実形
100
AcDbCircle
 10
1580.988642071077
 20
1610.795128186952
 30
0.0
 40
5.0
100
AcDbArc
 50
0.0
 51
90.0
  0
LINE
  5
1889
330
1F
100
AcDbEntity
  8
実形
100
AcDbLine
 10
1585.988642071077
 20
1610.795128186952
 30
0.0
 11
1585.988642071077
 21
1100.795128186952
 31
0.0
  0
ARC
  5
188A
330
1F
100
AcDbEntity
  8
実形
100
AcDbCircle
 10
1580.988642071077
 20
1100.795128186952
 30
0.0
 40
5.0
100
AcDbArc
 50
270.0
 51
0.0
  0
LINE
  5
188B
330
1F
100
AcDbEntity
  8
実形
100
AcDbLine
 10
1580.988642071077
 20
1095.795128186952
 30
0.0
 11
1000.988642071077
 21
1095.795128186952
 31
0.0
  0
ARC
  5
188C
330
1F
100
AcDbEntity
  8
実形
100
AcDbCircle
 10
1000.988642071077
 20
1100.795128186952
 30
0.0
 40
5.0
100
AcDbArc
 50
180.0
 51
270.0
  0
LINE
  5
188D
330
1F
100
AcDbEntity
  8
実形
100
AcDbLine
 10
995.9886420710772
 20
1100.795128186952
 30
0.0
 11
995.9886420710772
 21
1610.795128186952
 31
0.0
  0
ARC
  5
188E
330
1F
100
AcDbEntity
  8
実形
100
AcDbCircle
 10
1000.988642071077
 20
1610.795128186952
 30
0.0
 40
5.0
100
AcDbArc
 50
90.0
 51
180.0
  0
LINE
  5
188F
330
1F
100
AcDbEntity
  8
実形
100
AcDbLine
 10
1540.988642071077
 20
1605.795128186952
 30
0.0
 11
1038.988642071077
 21
1605.795128186952
 31
0.0
  0
ARC
  5
1890
330
1F
100
AcDbEntity
  8
実形
100
AcDbCircle
 10
1540.988642071077
 20
1570.795128186952
 30
0.0
 40
35.0
100
AcDbArc
 50
0.0
 51
90.0
  0
LINE
  5
1891
330
1F
100
AcDbEntity
  8
実形
100
AcDbLine
 10
1575.988642071077
 20
1140.795128186952
 30
0.0
 11
1575.988642071077
 21
1572.795128186952
 31
0.0
  0
ARC
  5
1892
330
1F
100
AcDbEntity
  8
実形
100
AcDbCircle
 10
1540.988642071077
 20
1140.795128186952
 30
0.0
 40
35.0
100
AcDbArc
 50
270.0
 51
0.0
  0
LINE
  5
1893
330
1F
100
AcDbEntity
  8
実形
100
AcDbLine
 10
1040.988642071077
 20
1105.795128186952
 30
0.0
 11
1540.988642071077
 21
1105.795128186952
 31
0.0
  0
ARC
  5
1894
330
1F
100
AcDbEntity
  8
実形
100
AcDbCircle
 10
1040.988642071077
 20
1140.795128186952
 30
0.0
 40
35.0
100
AcDbArc
 50
180.0
 51
270.0000000000001
  0
LINE
  5
1895
330
1F
100
AcDbEntity
  8
実形
100
AcDbLine
 10
1005.988642071077
 20
1570.795128186952
 30
0.0
 11
1005.988642071077
 21
1140.795128186952
 31
0.0
  0
ARC
  5
1896
330
1F
100
AcDbEntity
  8
実形
100
AcDbCircle
 10
1040.988642071077
 20
1570.795128186952
 30
0.0
 40
35.0
100
AcDbArc
 50
90.00000000000005
 51
180.0
  0
LINE
  5
18A0
330
1F
100
AcDbEntity
  8
実形
100
AcDbLine
 10
1585.988642071077
 20
736.4714311752086
 30
0.0
 11
995.9886420710772
 21
736.4714311752086
 31
0.0
  0
LINE
  5
18A1
330
1F
100
AcDbEntity
  8
実形
100
AcDbLine
 10
995.9886420710772
 20
736.4714311752086
 30
0.0
 11
990.9886420710773
 21
731.4714311752086
 31
0.0
  0
LINE
  5
18A2
330
1F
100
AcDbEntity
  8
実形
100
AcDbLine
 10
1585.988642071077
 20
736.4714311752086
 30
0.0
 11
1590.988642071077
 21
731.4714311752086
 31
0.0
  0
LINE
  5
18B3
330
1F
100
AcDbEntity
  8
実形
100
AcDbLine
 10
1577.988642071077
 20
731.4714311752086
 30
0.0
 11
1577.988642071077
 21
721.4714311752086
 31
0.0
  0
LINE
  5
18B4
330
1F
100
AcDbEntity
  8
実形
100
AcDbLine
 10
1577.988642071077
 20
721.4714311752086
 30
0.0
 11
1003.988642071077
 21
721.4714311752086
 31
0.0
  0
LINE
  5
18B5
330
1F
100
AcDbEntity
  8
実形
100
AcDbLine
 10
1003.988642071077
 20
721.4714311752086
 30
0.0
 11
1003.988642071077
 21
731.4714311752086
 31
0.0
  0
LINE
  5
18B7
330
1F
100
AcDbEntity
  8
実形
100
AcDbLine
 10
1835.467473248793
 20
1607.798507247261
 30
0.0
 11
1835.467473248793
 21
1103.79850724726
 31
0.0
  0
LINE
  5
18B8
330
1F
100
AcDbEntity
  8
実形
100
AcDbLine
 10
1820.467473248793
 20
1615.79850724726
 30
0.0
 11
1820.467473248793
 21
1095.79850724726
 31
0.0
  0
LINE
  5
18B9
330
1F
100
AcDbEntity
  8
実形
100
AcDbLine
 10
1825.467473248792
 20
1620.79850724726
 30
0.0
 11
1825.467473248792
 21
1090.798507247261
 31
0.0
  0
LINE
  5
18BA
330
1F
100
AcDbEntity
  8
実形
100
AcDbLine
 10
1825.467473248792
 20
1105.79850724726
 30
0.0
 11
1825.467473248792
 21
1605.798507247261
 31
0.0
  0
LINE
  5
18BB
330
1F
100
AcDbEntity
  8
実形
100
AcDbLine
 10
1825.467473248792
 20
1105.79850724726
 30
0.0
 11
1825.467473248792
 21
1605.798507247261
 31
0.0
  0
LINE
  5
18BC
330
1F
100
AcDbEntity
  8
実形
100
AcDbLine
 10
1835.467473248793
 20
1103.79850724726
 30
0.0
 11
1825.467473248792
 21
1103.79850724726
 31
0.0
  0
LINE
  5
18BD
330
1F
100
AcDbEntity
  8
実形
100
AcDbLine
 10
1820.467473248793
 20
1095.79850724726
 30
0.0
 11
1825.467473248792
 21
1090.798507247261
 31
0.0
  0
LINE
  5
18BE
330
1F
100
AcDbEntity
  8
実形
100
AcDbLine
 10
1825.467473248792
 20
1607.798507247261
 30
0.0
 11
1835.467473248793
 21
1607.798507247261
 31
0.0
  0
LINE
  5
18BF
330
1F
100
AcDbEntity
  8
実形
100
AcDbLine
 10
1820.467473248793
 20
1615.79850724726
 30
0.0
 11
1825.467473248792
 21
1620.79850724726
 31
0.0
  0
CIRCLE
  5
1D77
330
1F
100
AcDbEntity
  8
実形
100
AcDbCircle
 10
1175.988642071077
 20
1330.795128186952
 30
0.0
 40
80.0
  0
CIRCLE
  5
1D78
330
1F
100
AcDbEntity
  8
実形
100
AcDbCircle
 10
1175.988642071077
 20
1330.795128186952
 30
0.0
 40
90.5
  0
LINE
  5
1D9D
330
1F
100
AcDbEntity
  8
実形
100
AcDbLine
 10
1085.488642071077
 20
542.4714311752086
 30
0.0
 11
1048.655069311295
 21
551.7572058205318
 31
0.0
  0
LINE
  5
1D9E
330
1F
100
AcDbEntity
  8
実形
100
AcDbLine
 10
1266.488642071077
 20
542.4714311752086
 30
0.0
 11
1527.540963903376
 21
555.9974582131515
 31
0.0
  0
ARC
  5
1D9F
330
1F
100
AcDbEntity
  8
実形
100
AcDbCircle
 10
1525.988642071077
 20
585.9572695765258
 30
0.0
 40
30.0
100
AcDbArc
 50
272.9660408899871
 51
359.9999999999999
  0
ARC
  5
1DA0
330
1F
100
AcDbEntity
  8
実形
100
AcDbCircle
 10
1055.988642071077
 20
580.8470444343328
 30
0.0
 40
30.0
100
AcDbArc
 50
180.0000000000001
 51
255.8505239136549
  0
ARC
  5
1E14
330
1F
100
AcDbEntity
  8
実形
100
AcDbCircle
 10
1110.917809337859
 20
1448.743906754861
 30
0.0
 40
80.0
100
AcDbArc
 50
94.46826354911985
 51
175.2385291145085
  0
ARC
  5
1E15
330
1F
100
AcDbEntity
  8
実形
100
AcDbCircle
 10
1291.661784081419
 20
-864.2047774130123
 30
0.0
 40
2400.0
100
AcDbArc
 50
85.56387661480613
 51
94.46826354911985
  0
ARC
  5
1E16
330
1F
100
AcDbEntity
  8
実形
100
AcDbCircle
 10
1471.108277999732
 20
1448.844931482243
 30
0.0
 40
80.0
100
AcDbArc
 50
4.765561274858534
 51
85.56387661480613
  0
ARC
  5
1E17
330
1F
100
AcDbEntity
  8
実形
100
AcDbCircle
 10
56.01725292092851
 20
1330.872940139294
 30
0.0
 40
1500.0
100
AcDbArc
 50
355.2333129261465
 51
4.765561274858534
  0
ARC
  5
1E18
330
1F
100
AcDbEntity
  8
実形
100
AcDbCircle
 10
1471.105959706809
 20
1212.873143838355
 30
0.0
 40
80.0
100
AcDbArc
 50
274.4520315965514
 51
355.2333129261465
  0
ARC
  5
1E19
330
1F
100
AcDbEntity
  8
実形
100
AcDbCircle
 10
1291.017252920928
 20
3525.872940139294
 30
0.0
 40
2400.0
100
AcDbArc
 50
265.5479684034486
 51
274.4520315965514
  0
ARC
  5
1E1A
330
1F
100
AcDbEntity
  8
実形
100
AcDbCircle
 10
1110.928546135047
 20
1212.873143838355
 30
0.0
 40
80.0
100
AcDbArc
 50
184.7666870738535
 51
265.5479684034486
  0
ARC
  5
1E1B
330
1F
100
AcDbEntity
  8
実形
100
AcDbCircle
 10
2526.017252920929
 20
1330.872940139294
 30
0.0
 40
1500.0
100
AcDbArc
 50
175.2385291145085
 51
184.7666870738535
  0
LINE
  5
1E40
330
1F
100
AcDbEntity
  8
実形
100
AcDbLine
 10
2014.467473248793
 20
1240.29850724726
 30
0.0
 11
2002.887101950697
 21
1151.901673005127
 31
0.0
  0
LINE
  5
1E41
330
1F
100
AcDbEntity
  8
実形
100
AcDbLine
 10
2014.467473248793
 20
1421.298507247261
 30
0.0
 11
2002.887101950697
 21
1509.695341489395
 31
0.0
  0
ARC
  5
1E42
330
1F
100
AcDbEntity
  8
実形
100
AcDbCircle
 10
1973.141267235743
 20
1505.798507247261
 30
0.0
 40
30.0
100
AcDbArc
 50
7.463494459985321
 51
90.00000000000019
  0
ARC
  5
1E43
330
1F
100
AcDbEntity
  8
実形
100
AcDbCircle
 10
1973.141267235743
 20
1155.798507247261
 30
0.0
 40
30.0
100
AcDbArc
 50
270.0
 51
352.5365055400146
  0
DIMENSION
  5
1F59
330
1F
100
AcDbEntity
  8
実形
100
AcDbDimension
  2
*D22
 10
880.9886420710773
 20
1600.795128186952
 30
0.0
 11
859.818730432029
 21
1644.380652419872
 31
0.0
 70
   160
 71
     5
 42
20.0
  3
ISO-25
100
AcDbAlignedDimension
 13
1008.988642071077
 23
1620.795128186952
 33
0.0
 14
1008.988642071077
 24
1600.795128186952
 34
0.0
 50
90.0
100
AcDbRotatedDimension
1001
ACAD
1000
DSTYLE
1002
{
1070
   279
1070
     2
1070
   371
1070
    18
1070
   372
1070
    18
1002
}
  0
DIMENSION
  5
1F67
330
1F
100
AcDbEntity
  8
実形
100
AcDbDimension
  2
*D23
 10
880.9886420710773
 20
1535.795128186951
 30
0.0
 11
862.2386420710769
 21
1568.295128186952
 31
0.0
 70
    32
 71
     5
 42
65.00000000000023
  3
ISO-25
100
AcDbAlignedDimension
 13
1008.988642071077
 23
1600.795128186952
 33
0.0
 14
1008.988642071077
 24
1535.795128186951
 34
0.0
 50
90.0
100
AcDbRotatedDimension
1001
ACAD
1000
DSTYLE
1002
{
1070
   279
1070
     2
1070
   371
1070
    18
1070
   372
1070
    18
1002
}
  0
DIMENSION
  5
1F74
330
1F
100
AcDbEntity
  8
実形
100
AcDbDimension
  2
*D24
 10
880.9886420710773
 20
1110.795128186952
 30
0.0
 11
858.1780228903935
 21
1149.256105510551
 31
0.0
 70
   160
 71
     5
 42
15.0
  3
ISO-25
100
AcDbAlignedDimension
 13
1008.988642071077
 23
1125.795128186952
 33
0.0
 14
1008.988642071077
 24
1110.795128186952
 34
0.0
 50
90.0
100
AcDbRotatedDimension
1001
ACAD
1000
DSTYLE
1002
{
1070
   279
1070
     2
1070
   371
1070
    18
1070
   372
1070
    18
1002
}
  0
DIMENSION
  5
1F82
330
1F
100
AcDbEntity
  8
実形
100
AcDbDimension
  2
*D25
 10
880.9886420710773
 20
1090.795128186952
 30
0.0
 11
861.4594379736645
 21
1064.002871042677
 31
0.0
 70
   160
 71
     5
 42
20.0
  3
ISO-25
100
AcDbAlignedDimension
 13
1008.988642071077
 23
1110.795128186952
 33
0.0
 14
1008.988642071077
 24
1090.795128186952
 34
0.0
 50
90.0
100
AcDbRotatedDimension
1001
ACAD
1000
DSTYLE
1002
{
1070
   279
1070
     2
1070
   371
1070
    18
1070
   372
1070
    18
1002
}
  0
DIMENSION
  5
1F8F
330
1F
100
AcDbEntity
  8
実形
100
AcDbDimension
  2
*D26
 10
1010.988642071077
 20
980.7951281869518
 30
0.0
 11
964.8241926435293
 21
996.7839739622149
 31
0.0
 70
   160
 71
     5
 42
20.0
  3
ISO-25
100
AcDbAlignedDimension
 13
990.9886420710773
 23
1110.795128186952
 33
0.0
 14
1010.988642071077
 24
1110.795128186952
 34
0.0
100
AcDbRotatedDimension
1001
ACAD
1000
DSTYLE
1002
{
1070
   279
1070
     2
1070
   371
1070
    18
1070
   372
1070
    18
1002
}
  0
DIMENSION
  5
1F9D
330
1F
100
AcDbEntity
  8
実形
100
AcDbDimension
  2
*D27
 10
1025.988642071077
 20
980.7951281869518
 30
0.0
 11
1051.781846247491
 21
996.7839739622149
 31
0.0
 70
   160
 71
     5
 42
15.0
  3
ISO-25
100
AcDbAlignedDimension
 13
1010.988642071077
 23
1110.795128186952
 33
0.0
 14
1025.988642071077
 24
1110.795128186952
 34
0.0
100
AcDbRotatedDimension
1001
ACAD
1000
DSTYLE
1002
{
1070
   279
1070
     2
1070
   371
1070
    18
1070
   372
1070
    18
1002
}
  0
TEXT
  5
2249
330
1F
100
AcDbEntity
  8
0
100
AcDbText
 10
363.2991915588209
 20
127.2997766317869
 30
0.0
 40
30.0
  1
※オーバーシンクの穴あけは片側－７mm（全体で－１４mm）、４角３Rにてお願いします。
100
AcDbText
  0
TEXT
  5
224A
330
1F
100
AcDbEntity
  8
0
100
AcDbText
 10
363.2991915588209
 20
65.32511254901715
 30
0.0
 40
30.0
  1
※アンダーシンクとしての穴あけ加工はかぶり寸法を考慮して現物合わせにてお願いします。
100
AcDbText
  0
LINE
  5
224B
330
1F
100
AcDbEntity
  8
補助
100
AcDbLine
 10
2064.0
 20
134.0
 30
0.0
 11
2784.0
 21
134.0
 31
0.0
  0
LINE
  5
224C
330
1F
100
AcDbEntity
  8
補助
100
AcDbLine
 10
2064.0
 20
199.0
 30
0.0
 11
2784.0
 21
199.0
 31
0.0
  0
LINE
  5
224D
330
1F
100
AcDbEntity
  8
補助
100
AcDbLine
 10
2064.0
 20
69.0
 30
0.0
 11
2784.0
 21
69.0
 31
0.0
  0
TEXT
  5
224E
330
1F
100
AcDbEntity
  8
補助
100
AcDbText
 10
2086.666666666667
 20
149.0
 30
0.0
 40
35.0
  1
品番
 72
     4
 11
2124.0
 21
166.5
 31
0.0
100
AcDbText
  0
TEXT
  5
224F
330
1F
100
AcDbEntity
  8
補助
100
AcDbText
 10
2086.666666666667
 20
84.0
 30
0.0
 40
35.0
  1
尺度
 72
     4
 11
2124.0
 21
101.5
 31
0.0
100
AcDbText
  0
LINE
  5
2250
330
1F
100
AcDbEntity
  8
補助
100
AcDbLine
 10
2064.0
 20
4.0
 30
0.0
 11
2064.0
 21
199.0
 31
0.0
  0
LINE
  5
2251
330
1F
100
AcDbEntity
  8
補助
100
AcDbLine
 10
2184.0
 20
69.0
 30
0.0
 11
2784.0
 21
69.0
 31
0.0
  0
TEXT
  5
2252
330
1F
100
AcDbEntity
  8
0
100
AcDbText
 10
2306.083333333333
 20
149.0
 30
0.0
 40
35.0
  1
YME600-530S
 72
     4
 11
2484.0
 21
166.5
 31
0.0
100
AcDbText
  0
TEXT
  5
2253
330
1F
100
AcDbEntity
  8
補助
100
AcDbText
 10
2300.255774665348
 20
16.49999999999999
 30
0.0
 40
40.0
  1
中外交易株式会社
 72
     4
 11
2488.255774665347
 21
36.5
 31
0.0
100
AcDbText
  0
LINE
  5
2254
330
1F
100
AcDbEntity
  8
補助
100
AcDbLine
 10
2184.0
 20
69.0
 30
0.0
 11
2184.0
 21
199.0
 31
0.0
  0
HATCH
  5
2255
330
1F
100
AcDbEntity
  8
補助
100
AcDbHatch
 10
0.0
 20
0.0
 30
0.0
210
0.0
220
0.0
230
1.0
  2
SOLID
 70
     1
 71
     1
 91
        3
 92
        1
 93
        4
 72
     2
 10
2257.166198313996
 20
36.5
 40
20.0
 50
11.64772366707613
 51
342.6561058784706
 73
     1
 72
     1
 10
2276.256852341323
 20
30.53787547858519
 11
2252.166198313995
 21
30.53787547858519
 72
     1
 10
2252.166198313995
 20
30.53787547858519
 11
2252.166198313995
 21
40.53787547858519
 72
     1
 10
2252.166198313995
 20
40.53787547858519
 11
2276.75434681301
 21
40.53787547858519
 97
        4
330
2256
330
2258
330
2259
330
225A
 92
        1
 93
        4
 72
     2
 10
2188.255774665348
 20
36.5
 40
20.0
 50
11.64772366707613
 51
342.6561058784706
 73
     1
 72
     1
 10
2207.346428692676
 20
30.53787547858519
 11
2183.255774665347
 21
30.53787547858519
 72
     1
 10
2183.255774665347
 20
30.53787547858519
 11
2183.255774665347
 21
40.53787547858519
 72
     1
 10
2183.255774665347
 20
40.53787547858519
 11
2207.843923164362
 21
40.53787547858519
 97
        4
330
2257
330
2260
330
2261
330
2262
 92
        1
 93
        5
 72
     1
 10
2245.64189404294
 20
56.5
 11
2210.641894042939
 21
56.5
 72
     1
 10
2210.641894042939
 20
56.5
 11
2210.641894042939
 21
16.5
 72
     1
 10
2210.641894042939
 20
16.5
 11
2245.64189404294
 21
16.5
 72
     1
 10
2245.64189404294
 20
16.5
 11
2210.641894042939
 21
36.5
 72
     1
 10
2210.641894042939
 20
36.5
 11
2245.64189404294
 21
56.5
 97
        5
330
225B
330
225F
330
225E
330
225D
330
225C
 75
     0
 76
     1
 98
        1
 10
-60.0
 20
0.0
  0
ARC
  5
2256
102
{ACAD_REACTORS
330
2255
102
}
330
1F
100
AcDbEntity
  8
補助
370
     5
100
AcDbCircle
 10
2257.166198313996
 20
36.5
 30
0.0
 40
20.0
100
AcDbArc
 50
11.64772366707613
 51
342.6561058784706
  0
ARC
  5
2257
102
{ACAD_REACTORS
330
2255
102
}
330
1F
100
AcDbEntity
  8
補助
370
     5
100
AcDbCircle
 10
2188.255774665348
 20
36.5
 30
0.0
 40
20.0
100
AcDbArc
 50
11.64772366707613
 51
342.6561058784706
  0
LINE
  5
2258
102
{ACAD_REACTORS
330
2255
102
}
330
1F
100
AcDbEntity
  8
補助
370
     5
100
AcDbLine
 10
2252.166198313995
 20
30.53787547858519
 30
0.0
 11
2276.256852341323
 21
30.53787547858519
 31
0.0
  0
LINE
  5
2259
102
{ACAD_REACTORS
330
2255
102
}
330
1F
100
AcDbEntity
  8
補助
370
     5
100
AcDbLine
 10
2252.166198313995
 20
40.53787547858519
 30
0.0
 11
2252.166198313995
 21
30.53787547858519
 31
0.0
  0
LINE
  5
225A
102
{ACAD_REACTORS
330
2255
102
}
330
1F
100
AcDbEntity
  8
補助
370
     5
100
AcDbLine
 10
2276.75434681301
 20
40.53787547858519
 30
0.0
 11
2252.166198313995
 21
40.53787547858519
 31
0.0
  0
LINE
  5
225B
102
{ACAD_REACTORS
330
2255
102
}
330
1F
100
AcDbEntity
  8
補助
370
     5
100
AcDbLine
 10
2245.64189404294
 20
56.5
 30
0.0
 11
2210.641894042939
 21
56.5
 31
0.0
  0
LINE
  5
225C
102
{ACAD_REACTORS
330
2255
102
}
330
1F
100
AcDbEntity
  8
補助
370
     5
100
AcDbLine
 10
2210.641894042939
 20
36.5
 30
0.0
 11
2245.64189404294
 21
56.5
 31
0.0
  0
LINE
  5
225D
102
{ACAD_REACTORS
330
2255
102
}
330
1F
100
AcDbEntity
  8
補助
370
     5
100
AcDbLine
 10
2245.64189404294
 20
16.5
 30
0.0
 11
2210.641894042939
 21
36.5
 31
0.0
  0
LINE
  5
225E
102
{ACAD_REACTORS
330
2255
102
}
330
1F
100
AcDbEntity
  8
補助
370
     5
100
AcDbLine
 10
2210.641894042939
 20
16.5
 30
0.0
 11
2245.64189404294
 21
16.5
 31
0.0
  0
LINE
  5
225F
102
{ACAD_REACTORS
330
2255
102
}
330
1F
100
AcDbEntity
  8
補助
370
     5
100
AcDbLine
 10
2210.641894042939
 20
56.5
 30
0.0
 11
2210.641894042939
 21
16.5
 31
0.0
  0
LINE
  5
2260
102
{ACAD_REACTORS
330
2255
102
}
330
1F
100
AcDbEntity
  8
補助
370
     5
100
AcDbLine
 10
2183.255774665347
 20
30.53787547858519
 30
0.0
 11
2207.346428692676
 21
30.53787547858519
 31
0.0
  0
LINE
  5
2261
102
{ACAD_REACTORS
330
2255
102
}
330
1F
100
AcDbEntity
  8
補助
370
     5
100
AcDbLine
 10
2183.255774665347
 20
40.53787547858519
 30
0.0
 11
2183.255774665347
 21
30.53787547858519
 31
0.0
  0
LINE
  5
2262
102
{ACAD_REACTORS
330
2255
102
}
330
1F
100
AcDbEntity
  8
補助
370
     5
100
AcDbLine
 10
2207.843923164362
 20
40.53787547858519
 30
0.0
 11
2183.255774665347
 21
40.53787547858519
 31
0.0
  0
TEXT
  5
2263
330
1F
100
AcDbEntity
  8
0
100
AcDbText
 10
2430.916666666667
 20
84.0
 30
0.0
 40
35.0
  1
1：10
 72
     4
 11
2484.0
 21
101.5
 31
0.0
100
AcDbText
  0
LINE
  5
2264
330
1F
100
AcDbEntity
  8
補助
100
AcDbLine
 10
2784.0
 20
4.0
 30
0.0
 11
2784.0
 21
69.0
 31
0.0
  0
LINE
  5
2265
330
1F
100
AcDbEntity
  8
補助
100
AcDbLine
 10
2784.0
 20
134.0
 30
0.0
 11
2784.0
 21
199.0
 31
0.0
  0
LINE
  5
2266
330
1F
100
AcDbEntity
  8
補助
100
AcDbLine
 10
2784.0
 20
69.0
 30
0.0
 11
2784.0
 21
134.0
 31
0.0
  0
LINE
  5
2267
330
1F
100
AcDbEntity
  8
補助
100
AcDbLine
 10
1894.0
 20
2024.0
 30
0.0
 11
2784.0
 21
2024.0
 31
0.0
  0
LINE
  5
2277
330
1F
100
AcDbEntity
  8
補助
100
AcDbLine
 10
2784.0
 20
2024.0
 30
0.0
 11
2784.000000000001
 21
1829.0
 31
0.0
  0
LINE
  5
2278
330
1F
100
AcDbEntity
  8
補助
100
AcDbLine
 10
2784.0
 20
1829.0
 30
0.0
 11
2784.0
 21
2024.0
 31
0.0
  0
LINE
  5
252B
330
1F
100
AcDbEntity
  8
補助
 62
     0
100
AcDbLine
 10
2784.0
 20
1959.000000000001
 30
0.0
 11
2019.387286519283
 21
1959.000000000002
 31
0.0
  0
LINE
  5
252C
330
1F
100
AcDbEntity
  8
補助
 62
     0
100
AcDbLine
 10
2784.0
 20
1894.000000000001
 30
0.0
 11
2019.387286519283
 21
1894.000000000001
 31
0.0
  0
LINE
  5
252D
330
1F
100
AcDbEntity
  8
補助
 62
     0
100
AcDbLine
 10
2784.0
 20
1829.000000000001
 30
0.0
 11
2019.387286519283
 21
1829.000000000001
 31
0.0
  0
LINE
  5
252E
330
1F
100
AcDbEntity
  8
補助
 62
     0
100
AcDbLine
 10
2202.547653420927
 20
1829.000000000001
 30
0.0
 11
2202.547653420927
 21
2024.000000000002
 31
0.0
  0
LINE
  5
252F
330
1F
100
AcDbEntity
  8
補助
 62
     0
100
AcDbLine
 10
2019.387286519283
 20
1829.000000000001
 30
0.0
 11
2019.387286519283
 21
2024.000000000002
 31
0.0
  0
TEXT
  5
2530
330
1F
100
AcDbEntity
  8
補助
 62
     0
100
AcDbText
 10
2050.295698850121
 20
1976.328571428573
 30
0.0
 40
30.0
  1
部品名
  7
明朝
 72
     4
 11
2116.124270278692
 21
1991.500000000002
 31
0.0
100
AcDbText
  0
TEXT
  5
2531
330
1F
100
AcDbEntity
  8
補助
 62
     0
100
AcDbText
 10
2627.614285714286
 20
1976.07142857143
 30
0.0
 40
30.0
  1
厚さ
  7
明朝
 72
     4
 11
2671.5
 21
1991.500000000002
 31
0.0
100
AcDbText
  0
LINE
  5
2532
330
1F
100
AcDbEntity
  8
補助
 62
     0
100
AcDbLine
 10
2559.0
 20
1829.000000000001
 30
0.0
 11
2559.0
 21
2024.000000000002
 31
0.0
  0
TEXT
  5
2533
330
1F
100
AcDbEntity
  8
補助
 62
     0
100
AcDbText
 10
2338.490869919937
 20
1975.947979478156
 30
0.0
 40
30.0
  1
材質
  7
明朝
 72
     4
 11
2382.376584205651
 21
1991.119408049584
 31
0.0
100
AcDbText
  0
TEXT
  5
2534
330
1F
100
AcDbEntity
  8
実形
 62
     0
100
AcDbText
 10
2048.227810657788
 20
1910.557142857144
 30
0.0
 40
30.0
  1
ボウル
  7
明朝
 72
     4
 11
2114.056382086359
 21
1926.500000000001
 31
0.0
100
AcDbText
  0
TEXT
  5
2535
330
1F
100
AcDbEntity
  8
実形
 62
     0
100
AcDbText
 10
2594.700000000001
 20
1911.842857142858
 30
0.0
 40
30.0
  1
0.6ｍｍ
  7
明朝
 72
     4
 11
2671.500000000001
 21
1926.500000000001
 31
0.0
100
AcDbText
  0
TEXT
  5
2536
330
1F
100
AcDbEntity
  8
実形
 62
     0
100
AcDbText
 10
2261.016869107866
 20
1910.728571428572
 30
0.0
 40
30.0
  1
SUS304（BA）
  7
明朝
 72
     4
 11
2392.674011965008
 21
1926.500000000001
 31
0.0
100
AcDbText
  0
TEXT
  5
2537
330
1F
100
AcDbEntity
  8
実形
 62
     0
100
AcDbText
 10
2070.170667800645
 20
1846.242857142858
 30
0.0
 40
30.0
  1
天板
  7
明朝
 72
     4
 11
2114.056382086359
 21
1861.500000000001
 31
0.0
100
AcDbText
  0
TEXT
  5
2538
330
1F
100
AcDbEntity
  8
実形
 62
     0
100
AcDbText
 10
2594.700000000001
 20
1846.842857142858
 30
0.0
 40
30.0
  1
0.8ｍｍ
  7
明朝
 72
     4
 11
2671.500000000001
 21
1861.500000000001
 31
0.0
100
AcDbText
  0
TEXT
  5
2539
330
1F
100
AcDbEntity
  8
実形
 62
     0
100
AcDbText
 10
2218.959726250723
 20
1848.357142857144
 30
0.0
 40
25.0
  1
SUS304（市松ｴﾝﾎﾞｽ）
  7
明朝
 72
     4
 11
2392.674011965008
 21
1861.500000000001
 31
0.0
100
AcDbText
  0
LINE
  5
253A
330
1F
100
AcDbEntity
  8
補助
100
AcDbLine
 10
109.0
 20
4.0
 30
0.0
 11
109.0
 21
2024.0
 31
0.0
  0
VIEWPORT
  5
2E
102
{ACAD_XDICTIONARY
360
255F
102
}
330
1B
100
AcDbEntity
 67
     1
  8
0
100
AcDbViewport
 10
144.7270812988281
 20
101.2295806407928
 30
0.0
 40
411.6736216682419
 41
222.1517806396485
 68
     1
 69
     1
 12
144.7270812988281
 22
101.2295806407928
 13
0.0
 23
0.0
 14
10.0
 24
10.0
 15
10.0
 25
10.0
 16
0.0
 26
0.0
 36
1.0
 17
0.0
 27
0.0
 37
0.0
 42
50.0
 43
0.0
 44
0.0
 45
222.1517806396485
 50
0.0
 51
0.0
 72
   100
 90
    32800
  1

281
     0
 71
     1
 74
     0
110
0.0
120
0.0
130
0.0
111
1.0
121
0.0
131
0.0
112
0.0
122
1.0
132
0.0
 79
     0
146
0.0
  0
VIEWPORT
  5
30
102
{ACAD_XDICTIONARY
360
2561
102
}
330
1B
100
AcDbEntity
 67
     1
  8
0
100
AcDbViewport
 10
139.2237563133239
 20
101.2295821905136
 30
0.0
 40
222.7580101013184
 41
161.9673315048218
 68
     2
 69
     2
 12
210.0
 22
148.5
 13
0.0
 23
0.0
 14
10.0
 24
10.0
 15
10.0
 25
10.0
 16
0.0
 26
0.0
 36
1.0
 17
0.0
 27
0.0
 37
0.0
 42
50.0
 43
0.0
 44
0.0
 45
309.0686705647124
 50
0.0
 51
0.0
 72
   100
 90
    32864
  1

281
     0
 71
     1
 74
     0
110
0.0
120
0.0
130
0.0
111
1.0
121
0.0
131
0.0
112
0.0
122
1.0
132
0.0
 79
     0
146
0.0
  0
ENDSEC
  0
SECTION
  2
OBJECTS
  0
DICTIONARY
  5
C
330
0
100
AcDbDictionary
281
     1
  3
ACAD_COLOR
350
2509
  3
ACAD_GROUP
350
D
  3
ACAD_LAYOUT
350
1A
  3
ACAD_MATERIAL
350
2508
  3
ACAD_MLINESTYLE
350
17
  3
ACAD_PLOTSETTINGS
350
19
  3
ACAD_PLOTSTYLENAME
350
E
  3
ACAD_TABLESTYLE
350
250A
  3
AcadDim
350
124
  3
ACDBHEADERROUNDTRIPXREC
350
2558
  3
AcDbVariableDictionary
350
2546
  0
DICTIONARY
  5
2510
330
2
100
AcDbDictionary
280
     1
281
     1
  3
ACAD_LAYERFILTERS
360
2512
  3
ACAD_LAYERSTATES
360
2514
  3
ACLYDICTIONARY
360
2511
  0
DICTIONARY
  5
253B
330
1F
100
AcDbDictionary
280
     1
281
     1
  3
ACAD_SORTENTS
360
253C
  0
DICTIONARY
  5
255F
330
2E
100
AcDbDictionary
280
     1
281
     1
  3
ACAD_XREC_ROUNDTRIP
360
2560
  0
DICTIONARY
  5
2561
330
30
100
AcDbDictionary
280
     1
281
     1
  3
ACAD_XREC_ROUNDTRIP
360
2562
  0
DICTIONARY
  5
2509
102
{ACAD_REACTORS
330
C
102
}
330
C
100
AcDbDictionary
281
     1
  0
DICTIONARY
  5
D
102
{ACAD_REACTORS
330
C
102
}
330
C
100
AcDbDictionary
281
     1
  0
DICTIONARY
  5
1A
102
{ACAD_REACTORS
330
C
102
}
330
C
100
AcDbDictionary
281
     1
  3
Model
350
22
  3
ﾚｲｱｳﾄ1
350
1E
  3
ﾚｲｱｳﾄ2
350
26
  0
DICTIONARY
  5
2508
102
{ACAD_REACTORS
330
C
102
}
330
C
100
AcDbDictionary
281
     1
  0
DICTIONARY
  5
17
102
{ACAD_REACTORS
330
C
102
}
330
C
100
AcDbDictionary
281
     1
  3
Standard
350
18
  0
DICTIONARY
  5
19
102
{ACAD_REACTORS
330
C
102
}
330
C
100
AcDbDictionary
281
     1
  0
ACDBDICTIONARYWDFLT
  5
E
102
{ACAD_REACTORS
330
C
102
}
330
C
100
AcDbDictionary
281
     1
  3
Normal
350
F
100
AcDbDictionaryWithDefault
340
F
  0
DICTIONARY
  5
250A
102
{ACAD_REACTORS
330
C
102
}
330
C
100
AcDbDictionary
281
     1
  3
Standard
350
250B
  0
XRECORD
  5
124
102
{ACAD_REACTORS
330
C
102
}
330
C
100
AcDbXrecord
280
     1
 90
   990106
  3

 60
     0
 61
     0
 62
     1
 63
     3
 64
     0
 65
     0
 66
     0
 67
     3
 68
     1
 69
     0
 70
     0
 71
     0
 72
     0
 40
30.0
170
     0
  0
DICTIONARY
  5
2558
102
{ACAD_REACTORS
330
C
102
}
330
C
100
AcDbDictionary
281
     1
  0
DICTIONARY
  5
2546
102
{ACAD_REACTORS
330
C
102
}
330
C
100
AcDbDictionary
281
     1
  3
CTABLESTYLE
350
2547
  3
DIMASSOC
350
2555
  3
PROJECTNAME
350
2556
  0
DICTIONARY
  5
2512
102
{ACAD_REACTORS
330
2510
102
}
330
2510
100
AcDbDictionary
281
     1
  0
DICTIONARY
  5
2514
102
{ACAD_REACTORS
330
2510
102
}
330
2510
100
AcDbDictionary
281
     1
  0
DICTIONARY
  5
2511
102
{ACAD_REACTORS
330
2510
102
}
330
2510
100
AcDbDictionary
281
     1
1001
ACAD
1000
<All
  0
SORTENTSTABLE
  5
253C
102
{ACAD_REACTORS
330
253B
102
}
330
253B
100
AcDbSortentsTable
330
1F
331
1F8F
  5
1F9D
331
225E
  5
225F
331
1E18
  5
1E19
331
532
  5
548
331
2531
  5
2532
331
2266
  5
2267
331
1E40
  5
1E41
331
18B7
  5
18B8
331
2539
  5
253A
331
2E6
  5
2FE
331
18BF
  5
1D77
331
12A9
  5
12AC
331
2FE
  5
33A
331
1878
  5
1879
331
1880
  5
1881
331
224F
  5
2250
331
15F9
  5
15FB
331
1888
  5
1889
331
1890
  5
1891
331
2257
  5
2258
331
18A0
  5
18A1
331
1E19
  5
1E1A
331
225F
  5
2260
331
4CC
  5
4F7
331
2267
  5
2277
331
1E41
  5
1E42
331
2532
  5
2533
331
253A
  5
2E6
331
2277
  5
2278
331
3CE
  5
3DC
331
1F59
  5
1F67
331
18B8
  5
18B9
331
A0
  5
A0
331
1879
  5
187A
331
1881
  5
1882
331
1889
  5
188A
331
2250
  5
2251
331
1891
  5
1892
331
3F6
  5
44B
331
2258
  5
2259
331
252B
  5
252C
331
2260
  5
2261
331
1E1A
  5
1E1B
331
18A1
  5
18A2
331
2533
  5
2534
331
1E42
  5
1E43
331
18B9
  5
18BA
331
2278
  5
252B
331
123B
  5
123C
331
187A
  5
187B
331
2249
  5
224A
331
1882
  5
1883
331
15FB
  5
173D
331
1F82
  5
1F8F
331
2251
  5
2252
331
505
  5
532
331
188A
  5
188B
331
1892
  5
1893
331
4BE
  5
4CC
331
368
  5
3CE
331
2259
  5
225A
331
18A2
  5
18B3
331
252C
  5
252D
331
1E1B
  5
1E40
331
2261
  5
2262
331
1E43
  5
1F59
331
2534
  5
2535
331
123C
  5
123D
331
18BA
  5
18BB
331
555
  5
569
331
12AC
  5
12AD
331
187B
  5
187C
331
1883
  5
1884
331
224A
  5
224B
331
2252
  5
2253
331
188B
  5
188C
331
1893
  5
1894
331
225A
  5
225B
331
1E14
  5
1E15
331
252D
  5
252E
331
2262
  5
2263
331
18B3
  5
18B4
331
2535
  5
2536
331
18BB
  5
18BC
331
458
  5
4A3
331
123D
  5
123E
331
12AD
  5
12AE
331
33A
  5
33B
331
4F7
  5
4F8
331
187C
  5
187D
331
224B
  5
224C
331
15F5
  5
15F8
331
1884
  5
1885
331
1D9D
  5
1D9E
331
1F74
  5
1F82
331
2253
  5
2254
331
188C
  5
188D
331
1894
  5
1895
331
173D
  5
17AE
331
1E15
  5
1E16
331
225B
  5
225C
331
2263
  5
2264
331
252E
  5
252F
331
18B4
  5
18B5
331
2536
  5
2537
331
123E
  5
12A9
331
18BC
  5
18BD
331
187D
  5
187E
331
12AE
  5
12AF
331
33B
  5
33C
331
4F8
  5
505
331
35B
  5
368
331
1885
  5
1886
331
1D9E
  5
1D9F
331
224C
  5
224D
331
188D
  5
188E
331
2254
  5
2255
331
57F
  5
F27
331
1895
  5
1896
331
73
  5
73
331
225C
  5
225D
331
1E16
  5
1E17
331
252F
  5
2530
331
2264
  5
2265
331
18B5
  5
18B7
331
2537
  5
2538
331
548
  5
555
331
F27
  5
1238
331
1F9D
  5
2249
331
17AE
  5
1877
331
18BD
  5
18BE
331
1D77
  5
1D78
331
A5
  5
A5
331
12AF
  5
15F5
331
33C
  5
33D
331
187E
  5
187F
331
224D
  5
224E
331
1D9F
  5
1DA0
331
1886
  5
1887
331
188E
  5
188F
331
2255
  5
2256
331
1896
  5
18A0
331
9C
  5
9C
331
1E17
  5
1E18
331
225D
  5
225E
331
2265
  5
2266
331
44B
  5
458
331
2530
  5
2531
331
1238
  5
123B
331
2538
  5
2539
331
18BE
  5
18BF
331
1877
  5
1878
331
1F67
  5
1F74
331
3DC
  5
3F6
331
569
  5
57F
331
1D78
  5
1D9D
331
187F
  5
1880
331
4A3
  5
4BE
331
33D
  5
35B
331
1887
  5
1888
331
1DA0
  5
1E14
331
224E
  5
224F
331
15F8
  5
15F9
331
2256
  5
2257
331
188F
  5
1890
  0
XRECORD
  5
2560
102
{ACAD_REACTORS
330
255F
102
}
330
255F
100
AcDbXrecord
280
     1
102
SHADEPLOT
 70
     0
  0
XRECORD
  5
2562
102
{ACAD_REACTORS
330
2561
102
}
330
2561
100
AcDbXrecord
280
     1
102
SHADEPLOT
 70
     0
  0
LAYOUT
  5
22
102
{ACAD_XDICTIONARY
360
255B
102
}
102
{ACAD_REACTORS
330
1A
102
}
330
1A
100
AcDbPlotSettings
  1

  2
EPSON PM-800C
  4
A4
  6

 40
3.757083177566528
 41
14.7637300491333
 42
3.757080078125
 43
3.757080078125
 44
209.9733276367187
 45
296.9683227539062
 46
0.0
 47
0.0
 48
0.0
 49
0.0
140
0.0
141
0.0
142
1.0
143
10.0
 70
 11952
 72
     1
 73
     1
 74
     2
  7

 75
    20
147
0.1
148
0.0
149
0.0
100
AcDbLayout
  1
Model
 70
     1
 71
     0
 10
0.0
 20
0.0
 11
12.0
 21
9.0
 12
0.0
 22
0.0
 32
0.0
 14
0.0
 24
0.0
 34
0.0
 15
0.0
 25
0.0
 35
0.0
146
0.0
 13
0.0
 23
0.0
 33
0.0
 16
1.0
 26
0.0
 36
0.0
 17
0.0
 27
1.0
 37
0.0
 76
     0
330
1F
  0
LAYOUT
  5
1E
102
{ACAD_XDICTIONARY
360
2559
102
}
102
{ACAD_REACTORS
330
1A
102
}
330
1A
100
AcDbPlotSettings
  1

  2
EPSON PM-800C
  4
A4
  6

 40
3.757083177566528
 41
14.7637300491333
 42
3.757080078125
 43
3.757080078125
 44
209.9733276367187
 45
296.9683227539062
 46
0.0
 47
0.0
 48
0.0
 49
0.0
140
0.0
141
0.0
142
1.0
143
1.0
 70
   688
 72
     1
 73
     1
 74
     5
  7

 75
    16
147
1.0
148
0.0
149
0.0
100
AcDbLayout
  1
ﾚｲｱｳﾄ1
 70
     1
 71
     1
 10
-3.757080078125
 20
-3.757083177566528
 11
293.2112426757813
 21
206.2162444591522
 12
0.0
 22
0.0
 32
0.0
 14
27.8447512626648
 24
20.24591643810271
 34
0.0
 15
250.6027613639831
 25
182.2132479429245
 35
0.0
146
0.0
 13
0.0
 23
0.0
 33
0.0
 16
1.0
 26
0.0
 36
0.0
 17
0.0
 27
1.0
 37
0.0
 76
     0
330
1B
331
2E
  0
LAYOUT
  5
26
102
{ACAD_XDICTIONARY
360
255D
102
}
102
{ACAD_REACTORS
330
1A
102
}
330
1A
100
AcDbPlotSettings
  1

  2
EPSON PM-800C
  4

  6

 40
0.0
 41
0.0
 42
0.0
 43
0.0
 44
0.0
 45
0.0
 46
0.0
 47
0.0
 48
0.0
 49
0.0
140
0.0
141
0.0
142
1.0
143
1.0
 70
   688
 72
     0
 73
     0
 74
     5
  7

 75
    16
147
1.0
148
0.0
149
0.0
100
AcDbLayout
  1
ﾚｲｱｳﾄ2
 70
     1
 71
     2
 10
0.0
 20
0.0
 11
12.0
 21
9.0
 12
0.0
 22
0.0
 32
0.0
 14
0.0
 24
0.0
 34
0.0
 15
0.0
 25
0.0
 35
0.0
146
0.0
 13
0.0
 23
0.0
 33
0.0
 16
1.0
 26
0.0
 36
0.0
 17
0.0
 27
1.0
 37
0.0
 76
     0
330
23
  0
MLINESTYLE
  5
18
102
{ACAD_REACTORS
330
17
102
}
330
17
100
AcDbMlineStyle
  2
STANDARD
 70
     0
  3

 62
   256
 51
90.0
 52
90.0
 71
     2
 49
0.5
 62
   256
  6
BYLAYER
 49
-0.5
 62
   256
  6
BYLAYER
  0
ACDBPLACEHOLDER
  5
F
102
{ACAD_REACTORS
330
E
102
}
330
E
  0
TABLESTYLE
  5
250B
102
{ACAD_REACTORS
330
250A
102
}
330
250A
100
AcDbTableStyle
  3
Standard
 70
     0
 71
     0
 40
1.5
 41
1.5
280
     0
281
     0
  7
Standard
140
4.5
170
     2
 62
     0
 63
     7
283
     0
274
    -2
284
     1
 64
     0
275
    -2
285
     1
 65
     0
276
    -2
286
     1
 66
     0
277
    -2
287
     1
 67
     0
278
    -2
288
     1
 68
     0
279
    -2
289
     1
 69
     0
  7
Standard
140
6.0
170
     5
 62
     0
 63
     7
283
     0
274
    -2
284
     1
 64
     0
275
    -2
285
     1
 65
     0
276
    -2
286
     1
 66
     0
277
    -2
287
     1
 67
     0
278
    -2
288
     1
 68
     0
279
    -2
289
     1
 69
     0
  7
Standard
140
4.5
170
     5
 62
     0
 63
     7
283
     0
274
    -2
284
     1
 64
     0
275
    -2
285
     1
 65
     0
276
    -2
286
     1
 66
     0
277
    -2
287
     1
 67
     0
278
    -2
288
     1
 68
     0
279
    -2
289
     1
 69
     0
  0
DICTIONARYVAR
  5
2547
102
{ACAD_REACTORS
330
2546
102
}
330
2546
100
DictionaryVariables
280
     0
  1
STANDARD
  0
DICTIONARYVAR
  5
2555
102
{ACAD_REACTORS
330
2546
102
}
330
2546
100
DictionaryVariables
280
     0
  1
1
  0
DICTIONARYVAR
  5
2556
102
{ACAD_REACTORS
330
2546
102
}
330
2546
100
DictionaryVariables
280
     0
  1

  0
DICTIONARY
  5
255B
330
22
100
AcDbDictionary
280
     1
281
     1
  3
ACAD_XREC_ROUNDTRIP
360
255C
  0
DICTIONARY
  5
2559
330
1E
100
AcDbDictionary
280
     1
281
     1
  3
ACAD_XREC_ROUNDTRIP
360
255A
  0
DICTIONARY
  5
255D
330
26
100
AcDbDictionary
280
     1
281
     1
  3
ACAD_XREC_ROUNDTRIP
360
255E
  0
XRECORD
  5
255C
102
{ACAD_REACTORS
330
255B
102
}
330
255B
100
AcDbXrecord
280
     1
102
SHADEPLOT
 70
     0
102
SHADEPLOTRESLEVEL
 70
     2
102
SHADEPLOTCUSTOMDPI
 70
   300
  0
XRECORD
  5
255A
102
{ACAD_REACTORS
330
2559
102
}
330
2559
100
AcDbXrecord
280
     1
102
SHADEPLOT
 70
     0
102
SHADEPLOTRESLEVEL
 70
     2
102
SHADEPLOTCUSTOMDPI
 70
   300
  0
XRECORD
  5
255E
102
{ACAD_REACTORS
330
255D
102
}
330
255D
100
AcDbXrecord
280
     1
102
SHADEPLOT
 70
     0
102
SHADEPLOTRESLEVEL
 70
     2
102
SHADEPLOTCUSTOMDPI
 70
   300
  0
ENDSEC
  0
EOF
