  0
SECTION
  2
HEADER
  9
$ACADVER
  1
AC1015
  9
$ACADMAINTVER
 70
    20
  9
$DWGCODEPAGE
  3
ANSI_932
  9
$INSBASE
 10
0.0
 20
0.0
 30
0.0
  9
$EXTMIN
 10
109.0
 20
4.0
 30
0.0
  9
$EXTMAX
 10
2784.000000000001
 20
2024.000000000002
 30
0.0
  9
$LIMMIN
 10
0.0
 20
0.0
  9
$LIMMAX
 10
29700.0
 20
21000.0
  9
$ORTHOMODE
 70
     1
  9
$REGENMODE
 70
     1
  9
$FILLMODE
 70
     1
  9
$QTEXTMODE
 70
     0
  9
$MIRRTEXT
 70
     1
  9
$LTSCALE
 40
4.0
  9
$ATTMODE
 70
     1
  9
$TEXTSIZE
 40
25.0
  9
$TRACEWID
 40
1.0
  9
$TEXTSTYLE
  7
Standard
  9
$CLAYER
  8
実形
  9
$CELTYPE
  6
ByLayer
  9
$CECOLOR
 62
   256
  9
$CELTSCALE
 40
1.0
  9
$DISPSILH
 70
     0
  9
$DIMSCALE
 40
1.0
  9
$DIMASZ
 40
35.0
  9
$DIMEXO
 40
65.0
  9
$DIMDLI
 40
3.75
  9
$DIMRND
 40
0.0
  9
$DIMDLE
 40
0.0
  9
$DIMEXE
 40
0.0
  9
$DIMTP
 40
0.0
  9
$DIMTM
 40
0.0
  9
$DIMTXT
 40
25.0
  9
$DIMCEN
 40
2.5
  9
$DIMTSZ
 40
0.0
  9
$DIMTOL
 70
     0
  9
$DIMLIM
 70
     0
  9
$DIMTIH
 70
     0
  9
$DIMTOH
 70
     0
  9
$DIMSE1
 70
     0
  9
$DIMSE2
 70
     0
  9
$DIMTAD
 70
     1
  9
$DIMZIN
 70
     8
  9
$DIMBLK
  1
DotSmall
  9
$DIMASO
 70
     1
  9
$DIMSHO
 70
     1
  9
$DIMPOST
  1

  9
$DIMAPOST
  1

  9
$DIMALT
 70
     0
  9
$DIMALTD
 70
     3
  9
$DIMALTF
 40
0.03937007874016
  9
$DIMLFAC
 40
1.0
  9
$DIMTOFL
 70
     1
  9
$DIMTVP
 40
0.0
  9
$DIMTIX
 70
     0
  9
$DIMSOXD
 70
     0
  9
$DIMSAH
 70
     0
  9
$DIMBLK1
  1

  9
$DIMBLK2
  1

  9
$DIMSTYLE
  2
ISO-25
  9
$DIMCLRD
 70
     0
  9
$DIMCLRE
 70
     0
  9
$DIMCLRT
 70
     0
  9
$DIMTFAC
 40
1.0
  9
$DIMGAP
 40
6.25
  9
$DIMJUST
 70
     0
  9
$DIMSD1
 70
     0
  9
$DIMSD2
 70
     0
  9
$DIMTOLJ
 70
     0
  9
$DIMTZIN
 70
     8
  9
$DIMALTZ
 70
     0
  9
$DIMALTTZ
 70
     0
  9
$DIMUPT
 70
     0
  9
$DIMDEC
 70
     2
  9
$DIMTDEC
 70
     2
  9
$DIMALTU
 70
     2
  9
$DIMALTTD
 70
     3
  9
$DIMTXSTY
  7
Standard
  9
$DIMAUNIT
 70
     0
  9
$DIMADEC
 70
     0
  9
$DIMALTRND
 40
0.0
  9
$DIMAZIN
 70
     0
  9
$DIMDSEP
 70
    46
  9
$DIMATFIT
 70
     3
  9
$DIMFRAC
 70
     0
  9
$DIMLDRBLK
  1
Open30
  9
$DIMLUNIT
 70
     2
  9
$DIMLWD
 70
    18
  9
$DIMLWE
 70
    18
  9
$DIMTMOVE
 70
     0
  9
$LUNITS
 70
     2
  9
$LUPREC
 70
     2
  9
$SKETCHINC
 40
1.0
  9
$FILLETRAD
 40
30.0
  9
$AUNITS
 70
     0
  9
$AUPREC
 70
     0
  9
$MENU
  1
.
  9
$ELEVATION
 40
0.0
  9
$PELEVATION
 40
0.0
  9
$THICKNESS
 40
0.0
  9
$LIMCHECK
 70
     1
  9
$CHAMFERA
 40
10.0
  9
$CHAMFERB
 40
10.0
  9
$CHAMFERC
 40
20.0
  9
$CHAMFERD
 40
0.0
  9
$SKPOLY
 70
     0
  9
$TDCREATE
 40
2451673.575802199
  9
$TDUCREATE
 40
2451673.200802199
  9
$TDUPDATE
 40
2458810.723486192
  9
$TDUUPDATE
 40
2458810.348486192
  9
$TDINDWG
 40
1.3964983449
  9
$TDUSRTIMER
 40
1.3964976505
  9
$USRTIMER
 70
     1
  9
$ANGBASE
 50
0.0
  9
$ANGDIR
 70
     0
  9
$PDMODE
 70
     3
  9
$PDSIZE
 40
0.0
  9
$PLINEWID
 40
0.0
  9
$SPLFRAME
 70
     0
  9
$SPLINETYPE
 70
     6
  9
$SPLINESEGS
 70
     8
  9
$HANDSEED
  5
2FC1
  9
$SURFTAB1
 70
     6
  9
$SURFTAB2
 70
     6
  9
$SURFTYPE
 70
     6
  9
$SURFU
 70
     6
  9
$SURFV
 70
     6
  9
$UCSBASE
  2

  9
$UCSNAME
  2

  9
$UCSORG
 10
0.0
 20
0.0
 30
0.0
  9
$UCSXDIR
 10
1.0
 20
0.0
 30
0.0
  9
$UCSYDIR
 10
0.0
 20
1.0
 30
0.0
  9
$UCSORTHOREF
  2

  9
$UCSORTHOVIEW
 70
     0
  9
$UCSORGTOP
 10
0.0
 20
0.0
 30
0.0
  9
$UCSORGBOTTOM
 10
0.0
 20
0.0
 30
0.0
  9
$UCSORGLEFT
 10
0.0
 20
0.0
 30
0.0
  9
$UCSORGRIGHT
 10
0.0
 20
0.0
 30
0.0
  9
$UCSORGFRONT
 10
0.0
 20
0.0
 30
0.0
  9
$UCSORGBACK
 10
0.0
 20
0.0
 30
0.0
  9
$PUCSBASE
  2

  9
$PUCSNAME
  2

  9
$PUCSORG
 10
0.0
 20
0.0
 30
0.0
  9
$PUCSXDIR
 10
1.0
 20
0.0
 30
0.0
  9
$PUCSYDIR
 10
0.0
 20
1.0
 30
0.0
  9
$PUCSORTHOREF
  2

  9
$PUCSORTHOVIEW
 70
     0
  9
$PUCSORGTOP
 10
0.0
 20
0.0
 30
0.0
  9
$PUCSORGBOTTOM
 10
0.0
 20
0.0
 30
0.0
  9
$PUCSORGLEFT
 10
0.0
 20
0.0
 30
0.0
  9
$PUCSORGRIGHT
 10
0.0
 20
0.0
 30
0.0
  9
$PUCSORGFRONT
 10
0.0
 20
0.0
 30
0.0
  9
$PUCSORGBACK
 10
0.0
 20
0.0
 30
0.0
  9
$USERI1
 70
     0
  9
$USERI2
 70
     0
  9
$USERI3
 70
     0
  9
$USERI4
 70
     0
  9
$USERI5
 70
     0
  9
$USERR1
 40
0.0
  9
$USERR2
 40
0.0
  9
$USERR3
 40
0.0
  9
$USERR4
 40
0.0
  9
$USERR5
 40
0.0
  9
$WORLDVIEW
 70
     1
  9
$SHADEDGE
 70
     3
  9
$SHADEDIF
 70
    70
  9
$TILEMODE
 70
     1
  9
$MAXACTVP
 70
    64
  9
$PINSBASE
 10
0.0
 20
0.0
 30
0.0
  9
$PLIMCHECK
 70
     0
  9
$PEXTMIN
 10
27.8447512626648
 20
20.24591643810271
 30
0.0
  9
$PEXTMAX
 10
250.6027613639831
 20
182.2132479429245
 30
0.0
  9
$PLIMMIN
 10
-3.757080078125
 20
-3.757083177566528
  9
$PLIMMAX
 10
293.2112426757813
 20
206.2162444591522
  9
$UNITMODE
 70
     0
  9
$VISRETAIN
 70
     1
  9
$PLINEGEN
 70
     0
  9
$PSLTSCALE
 70
     1
  9
$TREEDEPTH
 70
  3020
  9
$CMLSTYLE
  2
Standard
  9
$CMLJUST
 70
     0
  9
$CMLSCALE
 40
20.0
  9
$PROXYGRAPHICS
 70
     1
  9
$MEASUREMENT
 70
     1
  9
$CELWEIGHT
370
    -1
  9
$ENDCAPS
280
     0
  9
$JOINSTYLE
280
     0
  9
$LWDISPLAY
290
     1
  9
$INSUNITS
 70
     4
  9
$HYPERLINKBASE
  1

  9
$STYLESHEET
  1

  9
$XEDIT
290
     1
  9
$CEPSNTYPE
380
     0
  9
$PSTYLEMODE
290
     1
  9
$FINGERPRINTGUID
  2
{C8EA1F16-24C9-11D4-9416-CE0A3B32152F}
  9
$VERSIONGUID
  2
{B4E78CA5-D151-4E38-B203-222921453F1E}
  9
$EXTNAMES
290
     1
  9
$PSVPSCALE
 40
0.0
  9
$OLESTARTUP
290
     0
  0
ENDSEC
  0
SECTION
  2
CLASSES
  0
CLASS
  1
ACDBDICTIONARYWDFLT
  2
AcDbDictionaryWithDefault
  3
ObjectDBX Classes
 90
        0
280
     0
281
     0
  0
CLASS
  1
ACDBPLACEHOLDER
  2
AcDbPlaceHolder
  3
ObjectDBX Classes
 90
        0
280
     0
281
     0
  0
CLASS
  1
LAYOUT
  2
AcDbLayout
  3
ObjectDBX Classes
 90
        0
280
     0
281
     0
  0
CLASS
  1
TABLESTYLE
  2
AcDbTableStyle
  3
ObjectDBX Classes
 90
     2047
280
     0
281
     0
  0
CLASS
  1
DICTIONARYVAR
  2
AcDbDictionaryVar
  3
ObjectDBX Classes
 90
        0
280
     0
281
     0
  0
CLASS
  1
SORTENTSTABLE
  2
AcDbSortentsTable
  3
ObjectDBX Classes
 90
        0
280
     0
281
     0
  0
ENDSEC
  0
SECTION
  2
TABLES
  0
TABLE
  2
VPORT
  5
8
330
0
100
AcDbSymbolTable
 70
     2
  0
VPORT
  5
2FB5
330
8
100
AcDbSymbolTableRecord
100
AcDbViewportTableRecord
  2
*Active
 70
     0
 10
0.0
 20
0.0
 11
1.0
 21
1.0
 12
1544.838793824502
 22
802.874662717892
 13
0.0
 23
0.0
 14
10.0
 24
10.0
 15
10.0
 25
10.0
 16
0.0
 26
0.0
 36
1.0
 17
0.0
 27
0.0
 37
0.0
 40
2522.252997274317
 41
1.29038112522686
 42
50.0
 43
0.0
 44
0.0
 50
0.0
 51
0.0
 71
     0
 72
   100
 73
     1
 74
     3
 75
     0
 76
     0
 77
     0
 78
     0
281
     0
 65
     1
110
0.0
120
0.0
130
0.0
111
1.0
121
0.0
131
0.0
112
0.0
122
1.0
132
0.0
 79
     0
146
0.0
  0
ENDTAB
  0
TABLE
  2
LTYPE
  5
5
330
0
100
AcDbSymbolTable
 70
    46
  0
LTYPE
  5
14
330
5
100
AcDbSymbolTableRecord
100
AcDbLinetypeTableRecord
  2
ByBlock
 70
     0
  3

 72
    65
 73
     0
 40
0.0
  0
LTYPE
  5
15
330
5
100
AcDbSymbolTableRecord
100
AcDbLinetypeTableRecord
  2
ByLayer
 70
     0
  3

 72
    65
 73
     0
 40
0.0
  0
LTYPE
  5
16
330
5
100
AcDbSymbolTableRecord
100
AcDbLinetypeTableRecord
  2
Continuous
 70
     0
  3
Solid line
 72
    65
 73
     0
 40
0.0
  0
LTYPE
  5
34
330
5
100
AcDbSymbolTableRecord
100
AcDbLinetypeTableRecord
  2
ACAD_ISO02W100
 70
     0
  3
ISO dash __ __ __ __ __ __ __ __ __ __ __ __ __
 72
    65
 73
     2
 40
15.0
 49
12.0
 74
     0
 49
-3.0
 74
     0
  0
LTYPE
  5
35
330
5
100
AcDbSymbolTableRecord
100
AcDbLinetypeTableRecord
  2
ACAD_ISO03W100
 70
     0
  3
ISO dash space __    __    __    __    __    __
 72
    65
 73
     2
 40
30.0
 49
12.0
 74
     0
 49
-18.0
 74
     0
  0
LTYPE
  5
36
330
5
100
AcDbSymbolTableRecord
100
AcDbLinetypeTableRecord
  2
ACAD_ISO04W100
 70
     0
  3
ISO long-dash dot ____ . ____ . ____ . ____ . _
 72
    65
 73
     4
 40
30.0
 49
24.0
 74
     0
 49
-3.0
 74
     0
 49
0.0
 74
     0
 49
-3.0
 74
     0
  0
LTYPE
  5
37
330
5
100
AcDbSymbolTableRecord
100
AcDbLinetypeTableRecord
  2
ACAD_ISO05W100
 70
     0
  3
ISO long-dash double-dot ____ .. ____ .. ____ .
 72
    65
 73
     6
 40
34.0
 49
24.0
 74
     0
 49
-3.0
 74
     0
 49
0.5
 74
     0
 49
-3.0
 74
     0
 49
0.5
 74
     0
 49
-3.0
 74
     0
  0
LTYPE
  5
38
330
5
100
AcDbSymbolTableRecord
100
AcDbLinetypeTableRecord
  2
ACAD_ISO06W100
 70
     0
  3
ISO long-dash triple-dot ____ ... ____ ... ____
 72
    65
 73
     8
 40
37.5
 49
24.0
 74
     0
 49
-3.0
 74
     0
 49
0.5
 74
     0
 49
-3.0
 74
     0
 49
0.5
 74
     0
 49
-3.0
 74
     0
 49
0.5
 74
     0
 49
-3.0
 74
     0
  0
LTYPE
  5
39
330
5
100
AcDbSymbolTableRecord
100
AcDbLinetypeTableRecord
  2
ACAD_ISO07W100
 70
     0
  3
ISO dot . . . . . . . . . . . . . . . . . . . .
 72
    65
 73
     2
 40
3.0
 49
0.0
 74
     0
 49
-3.0
 74
     0
  0
LTYPE
  5
3A
330
5
100
AcDbSymbolTableRecord
100
AcDbLinetypeTableRecord
  2
ACAD_ISO08W100
 70
     0
  3
ISO long-dash short-dash ____ __ ____ __ ____ _
 72
    65
 73
     4
 40
36.0
 49
24.0
 74
     0
 49
-3.0
 74
     0
 49
6.0
 74
     0
 49
-3.0
 74
     0
  0
LTYPE
  5
3B
330
5
100
AcDbSymbolTableRecord
100
AcDbLinetypeTableRecord
  2
ACAD_ISO09W100
 70
     0
  3
ISO long-dash double-short-dash ____ __ __ ____
 72
    65
 73
     6
 40
45.0
 49
24.0
 74
     0
 49
-3.0
 74
     0
 49
6.0
 74
     0
 49
-3.0
 74
     0
 49
6.0
 74
     0
 49
-3.0
 74
     0
  0
LTYPE
  5
3C
330
5
100
AcDbSymbolTableRecord
100
AcDbLinetypeTableRecord
  2
ACAD_ISO10W100
 70
     0
  3
ISO dash dot __ . __ . __ . __ . __ . __ . __ .
 72
    65
 73
     4
 40
18.0
 49
12.0
 74
     0
 49
-3.0
 74
     0
 49
0.0
 74
     0
 49
-3.0
 74
     0
  0
LTYPE
  5
3D
330
5
100
AcDbSymbolTableRecord
100
AcDbLinetypeTableRecord
  2
ACAD_ISO11W100
 70
     0
  3
ISO double-dash dot __ __ . __ __ . __ __ . __ 
 72
    65
 73
     6
 40
33.0
 49
12.0
 74
     0
 49
-3.0
 74
     0
 49
12.0
 74
     0
 49
-3.0
 74
     0
 49
0.0
 74
     0
 49
-3.0
 74
     0
  0
LTYPE
  5
3E
330
5
100
AcDbSymbolTableRecord
100
AcDbLinetypeTableRecord
  2
ACAD_ISO12W100
 70
     0
  3
ISO dash double-dot __ . . __ . . __ . . __ . .
 72
    65
 73
     6
 40
21.0
 49
12.0
 74
     0
 49
-3.0
 74
     0
 49
0.0
 74
     0
 49
-3.0
 74
     0
 49
0.0
 74
     0
 49
-3.0
 74
     0
  0
LTYPE
  5
3F
330
5
100
AcDbSymbolTableRecord
100
AcDbLinetypeTableRecord
  2
ACAD_ISO13W100
 70
     0
  3
ISO double-dash double-dot __ __ . . __ __ . . 
 72
    65
 73
     8
 40
36.0
 49
12.0
 74
     0
 49
-3.0
 74
     0
 49
12.0
 74
     0
 49
-3.0
 74
     0
 49
0.0
 74
     0
 49
-3.0
 74
     0
 49
0.0
 74
     0
 49
-3.0
 74
     0
  0
LTYPE
  5
40
330
5
100
AcDbSymbolTableRecord
100
AcDbLinetypeTableRecord
  2
ACAD_ISO14W100
 70
     0
  3
ISO dash triple-dot __ . . . __ . . . __ . . . 
 72
    65
 73
     8
 40
24.0
 49
12.0
 74
     0
 49
-3.0
 74
     0
 49
0.0
 74
     0
 49
-3.0
 74
     0
 49
0.0
 74
     0
 49
-3.0
 74
     0
 49
0.0
 74
     0
 49
-3.0
 74
     0
  0
LTYPE
  5
41
330
5
100
AcDbSymbolTableRecord
100
AcDbLinetypeTableRecord
  2
ACAD_ISO15W100
 70
     0
  3
ISO double-dash triple-dot __ __ . . . __ __ . 
 72
    65
 73
    10
 40
39.0
 49
12.0
 74
     0
 49
-3.0
 74
     0
 49
12.0
 74
     0
 49
-3.0
 74
     0
 49
0.0
 74
     0
 49
-3.0
 74
     0
 49
0.0
 74
     0
 49
-3.0
 74
     0
 49
0.0
 74
     0
 49
-3.0
 74
     0
  0
LTYPE
  5
42
330
5
100
AcDbSymbolTableRecord
100
AcDbLinetypeTableRecord
  2
BATTING
 70
     0
  3
Batting SSSSSSSSSSSSSSSSSSSSSSSSSSSSSSSSSSSSSSS
 72
    65
 73
     4
 40
10.16254
 49
0.00254
 74
     0
 49
-2.54
 74
     4
 75
   134
340
33
 46
2.54
 50
0.0
 44
-2.54
 45
0.0
 49
-5.08
 74
     4
 75
   134
340
33
 46
2.54
 50
180.0
 44
2.54
 45
0.0
 49
-2.54
 74
     0
  0
LTYPE
  5
43
330
5
100
AcDbSymbolTableRecord
100
AcDbLinetypeTableRecord
  2
BORDER
 70
     0
  3
Border __ __ . __ __ . __ __ . __ __ . __ __ .
 72
    65
 73
     6
 40
44.45
 49
12.7
 74
     0
 49
-6.349999999999999
 74
     0
 49
12.7
 74
     0
 49
-6.349999999999999
 74
     0
 49
0.0
 74
     0
 49
-6.349999999999999
 74
     0
  0
LTYPE
  5
44
330
5
100
AcDbSymbolTableRecord
100
AcDbLinetypeTableRecord
  2
BORDER2
 70
     0
  3
Border (.5x) __.__.__.__.__.__.__.__.__.__.__.
 72
    65
 73
     6
 40
22.225
 49
6.349999999999999
 74
     0
 49
-3.174999999999999
 74
     0
 49
6.349999999999999
 74
     0
 49
-3.174999999999999
 74
     0
 49
0.0
 74
     0
 49
-3.174999999999999
 74
     0
  0
LTYPE
  5
45
330
5
100
AcDbSymbolTableRecord
100
AcDbLinetypeTableRecord
  2
BORDERX2
 70
     0
  3
Border (2x) ____  ____  .  ____  ____  .  ___
 72
    65
 73
     6
 40
88.9
 49
25.4
 74
     0
 49
-12.7
 74
     0
 49
25.4
 74
     0
 49
-12.7
 74
     0
 49
0.0
 74
     0
 49
-12.7
 74
     0
  0
LTYPE
  5
46
330
5
100
AcDbSymbolTableRecord
100
AcDbLinetypeTableRecord
  2
CENTER
 70
     0
  3
Center ____ _ ____ _ ____ _ ____ _ ____ _ ____
 72
    65
 73
     4
 40
50.8
 49
31.75
 74
     0
 49
-6.349999999999999
 74
     0
 49
6.349999999999999
 74
     0
 49
-6.349999999999999
 74
     0
  0
LTYPE
  5
47
330
5
100
AcDbSymbolTableRecord
100
AcDbLinetypeTableRecord
  2
CENTER2
 70
     0
  3
Center (.5x) ___ _ ___ _ ___ _ ___ _ ___ _ ___
 72
    65
 73
     4
 40
28.575
 49
19.05
 74
     0
 49
-3.174999999999999
 74
     0
 49
3.174999999999999
 74
     0
 49
-3.174999999999999
 74
     0
  0
LTYPE
  5
48
330
5
100
AcDbSymbolTableRecord
100
AcDbLinetypeTableRecord
  2
CENTERX2
 70
     0
  3
Center (2x) ________  __  ________  __  _____
 72
    65
 73
     4
 40
101.6
 49
63.5
 74
     0
 49
-12.7
 74
     0
 49
12.7
 74
     0
 49
-12.7
 74
     0
  0
LTYPE
  5
49
330
5
100
AcDbSymbolTableRecord
100
AcDbLinetypeTableRecord
  2
DASHDOT
 70
     0
  3
Dash dot __ . __ . __ . __ . __ . __ . __ . __
 72
    65
 73
     4
 40
25.4
 49
12.7
 74
     0
 49
-6.349999999999999
 74
     0
 49
0.0
 74
     0
 49
-6.349999999999999
 74
     0
  0
LTYPE
  5
4A
330
5
100
AcDbSymbolTableRecord
100
AcDbLinetypeTableRecord
  2
DASHDOT2
 70
     0
  3
Dash dot (.5x) _._._._._._._._._._._._._._._.
 72
    65
 73
     4
 40
12.7
 49
6.349999999999999
 74
     0
 49
-3.174999999999999
 74
     0
 49
0.0
 74
     0
 49
-3.174999999999999
 74
     0
  0
LTYPE
  5
4B
330
5
100
AcDbSymbolTableRecord
100
AcDbLinetypeTableRecord
  2
DASHDOTX2
 70
     0
  3
Dash dot (2x) ____  .  ____  .  ____  .  ___
 72
    65
 73
     4
 40
50.8
 49
25.4
 74
     0
 49
-12.7
 74
     0
 49
0.0
 74
     0
 49
-12.7
 74
     0
  0
LTYPE
  5
4C
330
5
100
AcDbSymbolTableRecord
100
AcDbLinetypeTableRecord
  2
DASHED
 70
     0
  3
Dashed __ __ __ __ __ __ __ __ __ __ __ __ __ _
 72
    65
 73
     2
 40
19.05
 49
12.7
 74
     0
 49
-6.349999999999999
 74
     0
  0
LTYPE
  5
4D
330
5
100
AcDbSymbolTableRecord
100
AcDbLinetypeTableRecord
  2
DASHED2
 70
     0
  3
Dashed (.5x) _ _ _ _ _ _ _ _ _ _ _ _ _ _ _ _ _
 72
    65
 73
     2
 40
9.524999999999998
 49
6.349999999999999
 74
     0
 49
-3.174999999999999
 74
     0
  0
LTYPE
  5
4E
330
5
100
AcDbSymbolTableRecord
100
AcDbLinetypeTableRecord
  2
DASHEDX2
 70
     0
  3
Dashed (2x) ____  ____  ____  ____  ____  ___
 72
    65
 73
     2
 40
38.1
 49
25.4
 74
     0
 49
-12.7
 74
     0
  0
LTYPE
  5
4F
330
5
100
AcDbSymbolTableRecord
100
AcDbLinetypeTableRecord
  2
DIVIDE
 70
     0
  3
Divide ____ . . ____ . . ____ . . ____ . . ____
 72
    65
 73
     6
 40
31.75
 49
12.7
 74
     0
 49
-6.349999999999999
 74
     0
 49
0.0
 74
     0
 49
-6.349999999999999
 74
     0
 49
0.0
 74
     0
 49
-6.349999999999999
 74
     0
  0
LTYPE
  5
50
330
5
100
AcDbSymbolTableRecord
100
AcDbLinetypeTableRecord
  2
DIVIDE2
 70
     0
  3
Divide (.5x) __..__..__..__..__..__..__..__.._
 72
    65
 73
     6
 40
15.875
 49
6.349999999999999
 74
     0
 49
-3.174999999999999
 74
     0
 49
0.0
 74
     0
 49
-3.174999999999999
 74
     0
 49
0.0
 74
     0
 49
-3.174999999999999
 74
     0
  0
LTYPE
  5
51
330
5
100
AcDbSymbolTableRecord
100
AcDbLinetypeTableRecord
  2
DIVIDEX2
 70
     0
  3
Divide (2x) ________  .  .  ________  .  .  _
 72
    65
 73
     6
 40
63.49999999999999
 49
25.4
 74
     0
 49
-12.7
 74
     0
 49
0.0
 74
     0
 49
-12.7
 74
     0
 49
0.0
 74
     0
 49
-12.7
 74
     0
  0
LTYPE
  5
52
330
5
100
AcDbSymbolTableRecord
100
AcDbLinetypeTableRecord
  2
DOT
 70
     0
  3
Dot . . . . . . . . . . . . . . . . . . . . . .
 72
    65
 73
     2
 40
6.349999999999999
 49
0.0
 74
     0
 49
-6.349999999999999
 74
     0
  0
LTYPE
  5
53
330
5
100
AcDbSymbolTableRecord
100
AcDbLinetypeTableRecord
  2
DOT2
 70
     0
  3
Dot (.5x) .....................................
 72
    65
 73
     2
 40
3.174999999999999
 49
0.0
 74
     0
 49
-3.174999999999999
 74
     0
  0
LTYPE
  5
54
330
5
100
AcDbSymbolTableRecord
100
AcDbLinetypeTableRecord
  2
DOTX2
 70
     0
  3
Dot (2x) .  .  .  .  .  .  .  .  .  .  .  .  . 
 72
    65
 73
     2
 40
12.7
 49
0.0
 74
     0
 49
-12.7
 74
     0
  0
LTYPE
  5
55
330
5
100
AcDbSymbolTableRecord
100
AcDbLinetypeTableRecord
  2
FENCELINE1
 70
     0
  3
Fenceline circle ----0-----0----0-----0----0---
 72
    65
 73
     4
 40
36.83
 49
6.349999999999999
 74
     0
 49
-2.54
 74
     4
 75
   133
340
33
 46
2.54
 50
0.0
 44
-2.54
 45
0.0
 49
-2.54
 74
     0
 49
25.4
 74
     0
  0
LTYPE
  5
56
330
5
100
AcDbSymbolTableRecord
100
AcDbLinetypeTableRecord
  2
FENCELINE2
 70
     0
  3
Fenceline square ----[]-----[]----[]-----[]----
 72
    65
 73
     4
 40
36.83
 49
6.349999999999999
 74
     0
 49
-2.54
 74
     4
 75
   132
340
33
 46
2.54
 50
0.0
 44
-2.54
 45
0.0
 49
-2.54
 74
     0
 49
25.4
 74
     0
  0
LTYPE
  5
57
330
5
100
AcDbSymbolTableRecord
100
AcDbLinetypeTableRecord
  2
GAS_LINE
 70
     0
  3
Gas line ----GAS----GAS----GAS----GAS----GAS---
 72
    65
 73
     3
 40
24.13
 49
12.7
 74
     0
 49
-5.08
 74
     2
 75
     0
340
11
 46
2.54
 50
0.0
 44
-2.54
 45
-1.27
  9
GAS
 49
-6.349999999999999
 74
     0
  0
LTYPE
  5
58
330
5
100
AcDbSymbolTableRecord
100
AcDbLinetypeTableRecord
  2
HIDDEN
 70
     0
  3
Hidden __ __ __ __ __ __ __ __ __ __ __ __ __ _
 72
    65
 73
     2
 40
9.524999999999998
 49
6.349999999999999
 74
     0
 49
-3.174999999999999
 74
     0
  0
LTYPE
  5
59
330
5
100
AcDbSymbolTableRecord
100
AcDbLinetypeTableRecord
  2
HIDDEN2
 70
     0
  3
Hidden (.5x) _ _ _ _ _ _ _ _ _ _ _ _ _ _ _ _ _
 72
    65
 73
     2
 40
4.762499999999999
 49
3.174999999999999
 74
     0
 49
-1.587499999999999
 74
     0
  0
LTYPE
  5
5A
330
5
100
AcDbSymbolTableRecord
100
AcDbLinetypeTableRecord
  2
HIDDENX2
 70
     0
  3
Hidden (2x) ____ ____ ____ ____ ____ ____ ____
 72
    65
 73
     2
 40
19.05
 49
12.7
 74
     0
 49
-6.349999999999999
 74
     0
  0
LTYPE
  5
5B
330
5
100
AcDbSymbolTableRecord
100
AcDbLinetypeTableRecord
  2
HOT_WATER_SUPPLY
 70
     0
  3
Hot water supply ---- HW ---- HW ---- HW ----
 72
    65
 73
     3
 40
22.86
 49
12.7
 74
     0
 49
-5.08
 74
     2
 75
     0
340
11
 46
2.54
 50
0.0
 44
-2.54
 45
-1.27
  9
HW
 49
-5.08
 74
     0
  0
LTYPE
  5
5C
330
5
100
AcDbSymbolTableRecord
100
AcDbLinetypeTableRecord
  2
PHANTOM
 70
     0
  3
Phantom ______  __  __  ______  __  __  ______
 72
    65
 73
     6
 40
63.5
 49
31.75
 74
     0
 49
-6.349999999999999
 74
     0
 49
6.349999999999999
 74
     0
 49
-6.349999999999999
 74
     0
 49
6.349999999999999
 74
     0
 49
-6.349999999999999
 74
     0
  0
LTYPE
  5
5D
330
5
100
AcDbSymbolTableRecord
100
AcDbLinetypeTableRecord
  2
PHANTOM2
 70
     0
  3
Phantom (.5x) ___ _ _ ___ _ _ ___ _ _ ___ _ _
 72
    65
 73
     6
 40
31.75
 49
15.875
 74
     0
 49
-3.174999999999999
 74
     0
 49
3.174999999999999
 74
     0
 49
-3.174999999999999
 74
     0
 49
3.174999999999999
 74
     0
 49
-3.174999999999999
 74
     0
  0
LTYPE
  5
5E
330
5
100
AcDbSymbolTableRecord
100
AcDbLinetypeTableRecord
  2
PHANTOMX2
 70
     0
  3
Phantom (2x) ____________    ____    ____   _
 72
    65
 73
     6
 40
127.0
 49
63.5
 74
     0
 49
-12.7
 74
     0
 49
12.7
 74
     0
 49
-12.7
 74
     0
 49
12.7
 74
     0
 49
-12.7
 74
     0
  0
LTYPE
  5
5F
330
5
100
AcDbSymbolTableRecord
100
AcDbLinetypeTableRecord
  2
TRACKS
 70
     0
  3
Tracks -|-|-|-|-|-|-|-|-|-|-|-|-|-|-|-|-|-|-|-|
 72
    65
 73
     2
 40
7.62
 49
3.81
 74
     4
 75
   130
340
33
 46
6.349999999999999
 50
0.0
 44
0.0
 45
0.0
 49
3.81
 74
     0
  0
LTYPE
  5
60
330
5
100
AcDbSymbolTableRecord
100
AcDbLinetypeTableRecord
  2
ZIGZAG
 70
     0
  3
Zig zag /\/\/\/\/\/\/\/\/\/\/\/\/\/\/\/\/\/\/\/
 72
    65
 73
     4
 40
20.32254
 49
0.00254
 74
     0
 49
-5.08
 74
     4
 75
   131
340
33
 46
5.08
 50
0.0
 44
-5.08
 45
0.0
 49
-10.16
 74
     4
 75
   131
340
33
 46
5.08
 50
180.0
 44
5.08
 45
0.0
 49
-5.08
 74
     0
  0
ENDTAB
  0
TABLE
  2
LAYER
  5
2
102
{ACAD_XDICTIONARY
360
2F31
102
}
330
0
100
AcDbSymbolTable
 70
    10
  0
LAYER
  5
10
330
2
100
AcDbSymbolTableRecord
100
AcDbLayerTableRecord
  2
0
 70
     0
 62
     7
  6
Continuous
370
    -3
390
F
  0
LAYER
  5
C3
330
2
100
AcDbSymbolTableRecord
100
AcDbLayerTableRecord
  2
Defpoints
 70
     0
 62
     7
  6
Continuous
290
     0
370
    -3
390
F
  0
LAYER
  5
256
330
2
100
AcDbSymbolTableRecord
100
AcDbLayerTableRecord
  2
センター
 70
     0
 62
     7
  6
CENTER2
370
    18
390
F
  0
LAYER
  5
268
330
2
100
AcDbSymbolTableRecord
100
AcDbLayerTableRecord
  2
実形
 70
     0
 62
     7
  6
Continuous
370
    -3
390
F
  0
LAYER
  5
269
330
2
100
AcDbSymbolTableRecord
100
AcDbLayerTableRecord
  2
補助
 70
     0
 62
     7
  6
Continuous
370
    -3
390
F
  0
LAYER
  5
26A
330
2
100
AcDbSymbolTableRecord
100
AcDbLayerTableRecord
  2
寸法
 70
     0
 62
     7
  6
Continuous
370
    18
390
F
  0
LAYER
  5
26B
330
2
100
AcDbSymbolTableRecord
100
AcDbLayerTableRecord
  2
ハッチング
 70
     0
 62
     7
  6
Continuous
370
    18
390
F
  0
LAYER
  5
26D
330
2
100
AcDbSymbolTableRecord
100
AcDbLayerTableRecord
  2
文字
 70
     0
 62
     7
  6
Continuous
370
    -3
390
F
  0
LAYER
  5
209E
330
2
100
AcDbSymbolTableRecord
100
AcDbLayerTableRecord
  2
Cen
 70
     0
 62
     7
  6
CENTER2
370
    15
390
F
  0
LAYER
  5
262D
330
2
100
AcDbSymbolTableRecord
100
AcDbLayerTableRecord
  2
実形（補助）
 70
     0
 62
     7
  6
Continuous
370
    -3
390
F
  0
ENDTAB
  0
TABLE
  2
STYLE
  5
3
330
0
100
AcDbSymbolTable
 70
     3
  0
STYLE
  5
11
330
3
100
AcDbSymbolTableRecord
100
AcDbTextStyleTableRecord
  2
Standard
 70
     0
 40
0.0
 41
1.0
 50
0.0
 71
     0
 42
25.0
  3
txt.shx
  4
bigfont.shx
  0
STYLE
  5
33
330
3
100
AcDbSymbolTableRecord
100
AcDbTextStyleTableRecord
  2

 70
     1
 40
0.0
 41
1.0
 50
0.0
 71
     0
 42
2.5
  3
ltypeshp.shx
  4

  0
STYLE
  5
2F34
330
3
100
AcDbSymbolTableRecord
100
AcDbTextStyleTableRecord
  2
明朝
 70
     0
 40
0.0
 41
1.0
 50
0.0
 71
     0
 42
25.0
  3
MS Mincho.ttf
  4

1001
ACAD
1000
MS Mincho
1071
    32785
  0
ENDTAB
  0
TABLE
  2
VIEW
  5
6
330
0
100
AcDbSymbolTable
 70
     0
  0
ENDTAB
  0
TABLE
  2
UCS
  5
7
330
0
100
AcDbSymbolTable
 70
     0
  0
ENDTAB
  0
TABLE
  2
APPID
  5
9
330
0
100
AcDbSymbolTable
 70
     1
  0
APPID
  5
12
330
9
100
AcDbSymbolTableRecord
100
AcDbRegAppTableRecord
  2
ACAD
 70
     0
  0
ENDTAB
  0
TABLE
  2
DIMSTYLE
  5
A
330
0
100
AcDbSymbolTable
 70
     1
100
AcDbDimStyleTable
 71
     1
340
27
  0
DIMSTYLE
105
27
102
{ACAD_REACTORS
330
368
330
44B
330
458
330
4A3
330
4BE
330
4CC
330
532
330
548
330
569
330
57F
330
35B
330
3CE
330
3DC
330
3F6
330
4F8
330
505
330
173D
330
17AE
330
22EC
330
22FA
330
2339
330
2347
330
2356
330
2364
330
2860
102
}
330
A
100
AcDbSymbolTableRecord
100
AcDbDimStyleTableRecord
  2
ISO-25
 70
     0
 41
35.0
 42
65.0
 43
3.75
 44
0.0
 73
     0
 74
     0
 77
     1
 78
     8
140
25.0
141
2.5
143
0.03937007874016
147
6.25
171
     3
172
     1
271
     2
272
     2
274
     3
283
     0
284
     8
340
11
341
DA
342
D0
371
    15
372
    15
  0
ENDTAB
  0
TABLE
  2
BLOCK_RECORD
  5
1
330
0
100
AcDbSymbolTable
 70
    30
  0
BLOCK_RECORD
  5
1F
102
{ACAD_XDICTIONARY
360
2F70
102
}
330
1
100
AcDbSymbolTableRecord
100
AcDbBlockTableRecord
  2
*Model_Space
340
22
  0
BLOCK_RECORD
  5
1B
330
1
100
AcDbSymbolTableRecord
100
AcDbBlockTableRecord
  2
*Paper_Space
340
1E
  0
BLOCK_RECORD
  5
23
330
1
100
AcDbSymbolTableRecord
100
AcDbBlockTableRecord
  2
*Paper_Space0
340
26
  0
BLOCK_RECORD
  5
D0
330
1
100
AcDbSymbolTableRecord
100
AcDbBlockTableRecord
  2
_DotSmall
340
0
102
{BLKREFS
331
2D0C
331
2D0D
331
2D15
331
2D16
331
2D39
331
2D3A
331
2D42
331
2D43
331
2D4C
331
2D4D
331
2D55
331
2D56
331
2D79
331
2D7A
331
2D8B
331
2D8C
331
2DBF
331
2DC0
331
2E17
331
2E18
331
2E20
331
2E21
331
2E29
331
2E2A
331
2E32
331
2E33
331
2E44
331
2E45
331
2E56
331
2E57
331
2E79
331
2E7A
331
2E83
331
2E84
331
2EAE
331
2EAF
331
2EB7
331
2EB8
331
2EBF
331
2EC0
331
2EC8
331
2EC9
331
2ED2
331
2ED3
331
2EDB
331
2EDC
331
2EE4
331
2EE5
331
2EED
331
2EEE
102
}
  0
BLOCK_RECORD
  5
D4
330
1
100
AcDbSymbolTableRecord
100
AcDbBlockTableRecord
  2
_Origin2
340
0
  0
BLOCK_RECORD
  5
DA
330
1
100
AcDbSymbolTableRecord
100
AcDbBlockTableRecord
  2
_Open30
340
0
  0
BLOCK_RECORD
  5
35C
330
1
100
AcDbSymbolTableRecord
100
AcDbBlockTableRecord
  2
*D4
340
0
  0
BLOCK_RECORD
  5
369
330
1
100
AcDbSymbolTableRecord
100
AcDbBlockTableRecord
  2
*D5
340
0
  0
BLOCK_RECORD
  5
3CF
330
1
100
AcDbSymbolTableRecord
100
AcDbBlockTableRecord
  2
*D6
340
0
  0
BLOCK_RECORD
  5
3DD
330
1
100
AcDbSymbolTableRecord
100
AcDbBlockTableRecord
  2
*D7
340
0
  0
BLOCK_RECORD
  5
3F7
330
1
100
AcDbSymbolTableRecord
100
AcDbBlockTableRecord
  2
*D8
340
0
  0
BLOCK_RECORD
  5
44C
330
1
100
AcDbSymbolTableRecord
100
AcDbBlockTableRecord
  2
*D9
340
0
  0
BLOCK_RECORD
  5
459
330
1
100
AcDbSymbolTableRecord
100
AcDbBlockTableRecord
  2
*D10
340
0
  0
BLOCK_RECORD
  5
4A4
330
1
100
AcDbSymbolTableRecord
100
AcDbBlockTableRecord
  2
*D11
340
0
  0
BLOCK_RECORD
  5
4BF
330
1
100
AcDbSymbolTableRecord
100
AcDbBlockTableRecord
  2
*D12
340
0
  0
BLOCK_RECORD
  5
4CD
330
1
100
AcDbSymbolTableRecord
100
AcDbBlockTableRecord
  2
*D13
340
0
  0
BLOCK_RECORD
  5
4F9
330
1
100
AcDbSymbolTableRecord
100
AcDbBlockTableRecord
  2
*D14
340
0
  0
BLOCK_RECORD
  5
506
330
1
100
AcDbSymbolTableRecord
100
AcDbBlockTableRecord
  2
*D15
340
0
  0
BLOCK_RECORD
  5
533
330
1
100
AcDbSymbolTableRecord
100
AcDbBlockTableRecord
  2
*D16
340
0
  0
BLOCK_RECORD
  5
549
330
1
100
AcDbSymbolTableRecord
100
AcDbBlockTableRecord
  2
*D17
340
0
  0
BLOCK_RECORD
  5
56A
330
1
100
AcDbSymbolTableRecord
100
AcDbBlockTableRecord
  2
*D18
340
0
  0
BLOCK_RECORD
  5
580
330
1
100
AcDbSymbolTableRecord
100
AcDbBlockTableRecord
  2
*D19
340
0
  0
BLOCK_RECORD
  5
173E
330
1
100
AcDbSymbolTableRecord
100
AcDbBlockTableRecord
  2
*D20
340
0
  0
BLOCK_RECORD
  5
17AF
330
1
100
AcDbSymbolTableRecord
100
AcDbBlockTableRecord
  2
*D21
340
0
  0
BLOCK_RECORD
  5
22ED
330
1
100
AcDbSymbolTableRecord
100
AcDbBlockTableRecord
  2
*D22
340
0
  0
BLOCK_RECORD
  5
22FB
330
1
100
AcDbSymbolTableRecord
100
AcDbBlockTableRecord
  2
*D23
340
0
  0
BLOCK_RECORD
  5
233A
330
1
100
AcDbSymbolTableRecord
100
AcDbBlockTableRecord
  2
*D24
340
0
  0
BLOCK_RECORD
  5
2348
330
1
100
AcDbSymbolTableRecord
100
AcDbBlockTableRecord
  2
*D25
340
0
  0
BLOCK_RECORD
  5
2357
330
1
100
AcDbSymbolTableRecord
100
AcDbBlockTableRecord
  2
*D26
340
0
  0
BLOCK_RECORD
  5
2365
330
1
100
AcDbSymbolTableRecord
100
AcDbBlockTableRecord
  2
*D27
340
0
  0
BLOCK_RECORD
  5
2861
330
1
100
AcDbSymbolTableRecord
100
AcDbBlockTableRecord
  2
*D28
340
0
  0
BLOCK_RECORD
  5
2F36
102
{ACAD_XDICTIONARY
360
2F46
102
}
330
1
100
AcDbSymbolTableRecord
100
AcDbBlockTableRecord
  2
A$C454B3D2D
340
0
  0
ENDTAB
  0
ENDSEC
  0
SECTION
  2
BLOCKS
  0
BLOCK
  5
20
330
1F
100
AcDbEntity
  8
0
100
AcDbBlockBegin
  2
*Model_Space
 70
     0
 10
0.0
 20
0.0
 30
0.0
  3
*Model_Space
  1

  0
ENDBLK
  5
21
330
1F
100
AcDbEntity
  8
0
100
AcDbBlockEnd
  0
BLOCK
  5
1C
330
1B
100
AcDbEntity
 67
     1
  8
0
100
AcDbBlockBegin
  2
*Paper_Space
 70
     0
 10
0.0
 20
0.0
 30
0.0
  3
*Paper_Space
  1

  0
ENDBLK
  5
1D
330
1B
100
AcDbEntity
 67
     1
  8
0
100
AcDbBlockEnd
  0
BLOCK
  5
24
330
23
100
AcDbEntity
  8
0
100
AcDbBlockBegin
  2
*Paper_Space0
 70
     0
 10
0.0
 20
0.0
 30
0.0
  3
*Paper_Space0
  1

  0
ENDBLK
  5
25
330
23
100
AcDbEntity
  8
0
100
AcDbBlockEnd
  0
BLOCK
  5
D2
330
D0
100
AcDbEntity
  8
0
100
AcDbBlockBegin
  2
_DotSmall
 70
     0
 10
0.0
 20
0.0
 30
0.0
  3
_DotSmall
  1

  0
LWPOLYLINE
  5
D1
330
D0
100
AcDbEntity
  8
0
 62
     0
100
AcDbPolyline
 90
        2
 70
     1
 43
0.5
 10
-0.0625
 20
0.0
 42
1.0
 10
0.0625
 20
0.0
 42
1.0
  0
ENDBLK
  5
D3
330
D0
100
AcDbEntity
  8
0
100
AcDbBlockEnd
  0
BLOCK
  5
D8
330
D4
100
AcDbEntity
  8
0
100
AcDbBlockBegin
  2
_Origin2
 70
     0
 10
0.0
 20
0.0
 30
0.0
  3
_Origin2
  1

  0
CIRCLE
  5
D5
330
D4
100
AcDbEntity
  8
0
 62
     0
370
    -2
100
AcDbCircle
 10
0.0
 20
0.0
 30
0.0
 40
0.5
  0
CIRCLE
  5
D6
330
D4
100
AcDbEntity
  8
0
 62
     0
370
    -2
100
AcDbCircle
 10
0.0
 20
0.0
 30
0.0
 40
0.25
  0
LINE
  5
D7
330
D4
100
AcDbEntity
  8
0
 62
     0
370
    -2
100
AcDbLine
 10
-0.5
 20
0.0
 30
0.0
 11
-1.0
 21
0.0
 31
0.0
  0
ENDBLK
  5
D9
330
D4
100
AcDbEntity
  8
0
100
AcDbBlockEnd
  0
BLOCK
  5
DE
330
DA
100
AcDbEntity
  8
0
100
AcDbBlockBegin
  2
_Open30
 70
     0
 10
0.0
 20
0.0
 30
0.0
  3
_Open30
  1

  0
LINE
  5
DB
330
DA
100
AcDbEntity
  8
0
 62
     0
370
    -2
100
AcDbLine
 10
-1.0
 20
0.26794919
 30
0.0
 11
0.0
 21
0.0
 31
0.0
  0
LINE
  5
DC
330
DA
100
AcDbEntity
  8
0
 62
     0
370
    -2
100
AcDbLine
 10
0.0
 20
0.0
 30
0.0
 11
-1.0
 21
-0.26794919
 31
0.0
  0
LINE
  5
DD
330
DA
100
AcDbEntity
  8
0
 62
     0
370
    -2
100
AcDbLine
 10
0.0
 20
0.0
 30
0.0
 11
-1.0
 21
0.0
 31
0.0
  0
ENDBLK
  5
DF
330
DA
100
AcDbEntity
  8
0
100
AcDbBlockEnd
  0
BLOCK
  5
366
330
35C
100
AcDbEntity
  8
0
100
AcDbBlockBegin
  2
*D4
 70
     1
 10
0.0
 20
0.0
 30
0.0
  3
*D4
  1

  0
LINE
  5
2D51
330
35C
100
AcDbEntity
  8
実形
 62
     0
370
    15
100
AcDbLine
 10
1021.168709978468
 20
1450.188735706413
 30
0.0
 11
1021.168709978468
 21
1588.781362074224
 31
0.0
  0
LINE
  5
2D52
330
35C
100
AcDbEntity
  8
実形
 62
     0
370
    15
100
AcDbLine
 10
826.1687099784685
 20
1557.355545041483
 30
0.0
 11
826.1687099784685
 21
1588.781362074224
 31
0.0
  0
LINE
  5
2D53
330
35C
100
AcDbEntity
  8
実形
 62
     0
370
    18
100
AcDbLine
 10
1021.168709978468
 20
1588.781362074224
 30
0.0
 11
826.1687099784685
 21
1588.781362074224
 31
0.0
  0
MTEXT
  5
2D54
330
35C
100
AcDbEntity
  8
実形
 62
     0
100
AcDbMText
 10
916.4548876152521
 20
1612.059823897723
 30
0.0
 40
25.0
 41
0.0
 71
     5
 72
     1
  1
195
 73
     1
 44
1.0
1001
ACAD
1000
MTEXTBEGIN
1070
    73
1070
     1
1070
    44
1040
1.0
1070
    74
1070
     0
1000
MTEXTEND
  0
INSERT
  5
2D55
330
35C
100
AcDbEntity
  8
実形
 62
     0
370
    18
100
AcDbBlockReference
  2
_DotSmall
 10
1021.168709978468
 20
1588.781362074224
 30
0.0
 41
35.0
 42
35.0
 43
35.0
  0
INSERT
  5
2D56
330
35C
100
AcDbEntity
  8
実形
 62
     0
370
    18
100
AcDbBlockReference
  2
_DotSmall
 10
826.1687099784685
 20
1588.781362074224
 30
0.0
 41
35.0
 42
35.0
 43
35.0
 50
180.0
  0
POINT
  5
2D57
330
35C
100
AcDbEntity
  8
Defpoints
 62
     0
100
AcDbPoint
 10
1021.168709978468
 20
1440.188735706413
 30
0.0
  0
POINT
  5
2D58
330
35C
100
AcDbEntity
  8
Defpoints
 62
     0
100
AcDbPoint
 10
826.1687099784685
 20
1547.355545041483
 30
0.0
  0
POINT
  5
2D59
330
35C
100
AcDbEntity
  8
Defpoints
 62
     0
100
AcDbPoint
 10
826.1687099784685
 20
1588.781362074224
 30
0.0
  0
ENDBLK
  5
367
330
35C
100
AcDbEntity
  8
0
100
AcDbBlockEnd
  0
BLOCK
  5
373
330
369
100
AcDbEntity
  8
0
100
AcDbBlockBegin
  2
*D5
 70
     1
 10
0.0
 20
0.0
 30
0.0
  3
*D5
  1

  0
LINE
  5
2DBC
330
369
100
AcDbEntity
  8
実形
 62
     0
370
    15
100
AcDbLine
 10
1561.908352048033
 20
1114.588722100505
 30
0.0
 11
1618.77172259745
 21
1114.588722100505
 31
0.0
  0
LINE
  5
2DBD
330
369
100
AcDbEntity
  8
実形
 62
     0
370
    15
100
AcDbLine
 10
1493.963639043818
 20
1319.588722100505
 30
0.0
 11
1618.77172259745
 21
1319.588722100505
 31
0.0
  0
LINE
  5
2DBE
330
369
100
AcDbEntity
  8
実形
 62
     0
370
    18
100
AcDbLine
 10
1618.77172259745
 20
1114.588722100505
 30
0.0
 11
1618.77172259745
 21
1319.588722100505
 31
0.0
  0
INSERT
  5
2DBF
330
369
100
AcDbEntity
  8
実形
 62
     0
370
    18
100
AcDbBlockReference
  2
_DotSmall
 10
1618.77172259745
 20
1114.588722100505
 30
0.0
 41
35.0
 42
35.0
 43
35.0
 50
270.0
  0
INSERT
  5
2DC0
330
369
100
AcDbEntity
  8
実形
 62
     0
370
    18
100
AcDbBlockReference
  2
_DotSmall
 10
1618.77172259745
 20
1319.588722100505
 30
0.0
 41
35.0
 42
35.0
 43
35.0
 50
90.0
  0
MTEXT
  5
2DC1
330
369
100
AcDbEntity
  8
実形
 62
     0
100
AcDbMText
 10
1600.02172259745
 20
1217.088722100505
 30
0.0
 40
25.0
 41
0.0
 71
     5
 72
     1
  1
205
 11
0.0000000000000001
 21
1.0
 31
0.0
 73
     1
 44
1.0
1001
ACAD
1000
MTEXTBEGIN
1070
    73
1070
     1
1070
    44
1040
1.0
1070
    74
1070
     0
1000
MTEXTEND
  0
POINT
  5
2DC2
330
369
100
AcDbEntity
  8
Defpoints
 62
     0
100
AcDbPoint
 10
1496.908352048033
 20
1114.588722100505
 30
0.0
  0
POINT
  5
2DC3
330
369
100
AcDbEntity
  8
Defpoints
 62
     0
100
AcDbPoint
 10
1428.963639043818
 20
1319.588722100505
 30
0.0
  0
POINT
  5
2DC4
330
369
100
AcDbEntity
  8
Defpoints
 62
     0
100
AcDbPoint
 10
1618.77172259745
 20
1319.588722100505
 30
0.0
  0
ENDBLK
  5
374
330
369
100
AcDbEntity
  8
0
100
AcDbBlockEnd
  0
BLOCK
  5
3DA
330
3CF
100
AcDbEntity
  8
0
100
AcDbBlockBegin
  2
*D6
 70
     1
 10
0.0
 20
0.0
 30
0.0
  3
*D6
  1

  0
LINE
  5
2D48
330
3CF
100
AcDbEntity
  8
実形
 62
     0
370
    15
100
AcDbLine
 10
779.1687099784685
 20
1524.588722100505
 30
0.0
 11
667.2311216817078
 21
1524.588722100505
 31
0.0
  0
LINE
  5
2D49
330
3CF
100
AcDbEntity
  8
実形
 62
     0
370
    15
100
AcDbLine
 10
779.1687099784685
 20
1479.588722100505
 30
0.0
 11
667.2311216817078
 21
1479.588722100505
 31
0.0
  0
LINE
  5
2D4A
330
3CF
100
AcDbEntity
  8
実形
 62
     0
370
    18
100
AcDbLine
 10
667.2311216817078
 20
1524.588722100505
 30
0.0
 11
667.2311216817078
 21
1479.588722100505
 31
0.0
  0
MTEXT
  5
2D4B
330
3CF
100
AcDbEntity
  8
実形
 62
     0
100
AcDbMText
 10
647.4738965373425
 20
1495.166599233906
 30
0.0
 40
25.0
 41
0.0
 71
     5
 72
     1
  1
45
 11
0.0000000000000001
 21
1.0
 31
0.0
 73
     1
 44
1.0
1001
ACAD
1000
MTEXTBEGIN
1070
    73
1070
     1
1070
    44
1040
1.0
1070
    74
1070
     0
1000
MTEXTEND
  0
INSERT
  5
2D4C
330
3CF
100
AcDbEntity
  8
実形
 62
     0
370
    18
100
AcDbBlockReference
  2
_DotSmall
 10
667.2311216817078
 20
1524.588722100505
 30
0.0
 41
35.0
 42
35.0
 43
35.0
 50
90.0
  0
INSERT
  5
2D4D
330
3CF
100
AcDbEntity
  8
実形
 62
     0
370
    18
100
AcDbBlockReference
  2
_DotSmall
 10
667.2311216817078
 20
1479.588722100505
 30
0.0
 41
35.0
 42
35.0
 43
35.0
 50
270.0
  0
POINT
  5
2D4E
330
3CF
100
AcDbEntity
  8
Defpoints
 62
     0
100
AcDbPoint
 10
844.1687099784685
 20
1524.588722100505
 30
0.0
  0
POINT
  5
2D4F
330
3CF
100
AcDbEntity
  8
Defpoints
 62
     0
100
AcDbPoint
 10
844.1687099784685
 20
1479.588722100505
 30
0.0
  0
POINT
  5
2D50
330
3CF
100
AcDbEntity
  8
Defpoints
 62
     0
100
AcDbPoint
 10
667.2311216817078
 20
1479.588722100505
 30
0.0
  0
ENDBLK
  5
3DB
330
3CF
100
AcDbEntity
  8
0
100
AcDbBlockEnd
  0
BLOCK
  5
3E7
330
3DD
100
AcDbEntity
  8
0
100
AcDbBlockBegin
  2
*D7
 70
     1
 10
0.0
 20
0.0
 30
0.0
  3
*D7
  1

  0
LINE
  5
2D3F
330
3DD
100
AcDbEntity
  8
実形
 62
     0
370
    15
100
AcDbLine
 10
779.1687099784685
 20
1479.588722100505
 30
0.0
 11
667.2311216817071
 21
1479.588722100505
 31
0.0
  0
LINE
  5
2D40
330
3DD
100
AcDbEntity
  8
実形
 62
     0
370
    15
100
AcDbLine
 10
779.1687099784685
 20
1159.588722100505
 30
0.0
 11
667.231121681707
 21
1159.588722100505
 31
0.0
  0
LINE
  5
2D41
330
3DD
100
AcDbEntity
  8
実形
 62
     0
370
    18
100
AcDbLine
 10
667.2311216817071
 20
1479.588722100505
 30
0.0
 11
667.231121681707
 21
1159.588722100505
 31
0.0
  0
INSERT
  5
2D42
330
3DD
100
AcDbEntity
  8
実形
 62
     0
370
    18
100
AcDbBlockReference
  2
_DotSmall
 10
667.2311216817071
 20
1479.588722100505
 30
0.0
 41
35.0
 42
35.0
 43
35.0
 50
90.0
  0
INSERT
  5
2D43
330
3DD
100
AcDbEntity
  8
実形
 62
     0
370
    18
100
AcDbBlockReference
  2
_DotSmall
 10
667.231121681707
 20
1159.588722100505
 30
0.0
 41
35.0
 42
35.0
 43
35.0
 50
270.0
  0
MTEXT
  5
2D44
330
3DD
100
AcDbEntity
  8
実形
 62
     0
100
AcDbMText
 10
648.4811216817068
 20
1319.588722100505
 30
0.0
 40
25.0
 41
0.0
 71
     5
 72
     1
  1
320
 11
0.0000000000000001
 21
1.0
 31
0.0
 73
     1
 44
1.0
1001
ACAD
1000
MTEXTBEGIN
1070
    73
1070
     1
1070
    44
1040
1.0
1070
    74
1070
     0
1000
MTEXTEND
  0
POINT
  5
2D45
330
3DD
100
AcDbEntity
  8
Defpoints
 62
     0
100
AcDbPoint
 10
844.1687099784685
 20
1479.588722100505
 30
0.0
  0
POINT
  5
2D46
330
3DD
100
AcDbEntity
  8
Defpoints
 62
     0
100
AcDbPoint
 10
844.1687099784685
 20
1159.588722100505
 30
0.0
  0
POINT
  5
2D47
330
3DD
100
AcDbEntity
  8
Defpoints
 62
     0
100
AcDbPoint
 10
667.231121681707
 20
1159.588722100505
 30
0.0
  0
ENDBLK
  5
3E8
330
3DD
100
AcDbEntity
  8
0
100
AcDbBlockEnd
  0
BLOCK
  5
401
330
3F7
100
AcDbEntity
  8
0
100
AcDbBlockBegin
  2
*D8
 70
     1
 10
0.0
 20
0.0
 30
0.0
  3
*D8
  1

  0
LINE
  5
2D36
330
3F7
100
AcDbEntity
  8
実形
 62
     0
370
    15
100
AcDbLine
 10
779.1687099784685
 20
1524.588722100505
 30
0.0
 11
599.2311216817071
 21
1524.588722100505
 31
0.0
  0
LINE
  5
2D37
330
3F7
100
AcDbEntity
  8
実形
 62
     0
370
    15
100
AcDbLine
 10
779.1687099784685
 20
1114.588722100505
 30
0.0
 11
599.231121681707
 21
1114.588722100505
 31
0.0
  0
LINE
  5
2D38
330
3F7
100
AcDbEntity
  8
実形
 62
     0
370
    18
100
AcDbLine
 10
599.2311216817071
 20
1524.588722100505
 30
0.0
 11
599.231121681707
 21
1114.588722100505
 31
0.0
  0
INSERT
  5
2D39
330
3F7
100
AcDbEntity
  8
実形
 62
     0
370
    18
100
AcDbBlockReference
  2
_DotSmall
 10
599.2311216817071
 20
1524.588722100505
 30
0.0
 41
35.0
 42
35.0
 43
35.0
 50
90.0
  0
INSERT
  5
2D3A
330
3F7
100
AcDbEntity
  8
実形
 62
     0
370
    18
100
AcDbBlockReference
  2
_DotSmall
 10
599.231121681707
 20
1114.588722100505
 30
0.0
 41
35.0
 42
35.0
 43
35.0
 50
270.0
  0
MTEXT
  5
2D3B
330
3F7
100
AcDbEntity
  8
実形
 62
     0
100
AcDbMText
 10
580.4811216817069
 20
1319.588722100505
 30
0.0
 40
25.0
 41
0.0
 71
     5
 72
     1
  1
410
 11
0.0000000000000001
 21
1.0
 31
0.0
 73
     1
 44
1.0
1001
ACAD
1000
MTEXTBEGIN
1070
    73
1070
     1
1070
    44
1040
1.0
1070
    74
1070
     0
1000
MTEXTEND
  0
POINT
  5
2D3C
330
3F7
100
AcDbEntity
  8
Defpoints
 62
     0
100
AcDbPoint
 10
844.1687099784685
 20
1524.588722100505
 30
0.0
  0
POINT
  5
2D3D
330
3F7
100
AcDbEntity
  8
Defpoints
 62
     0
100
AcDbPoint
 10
844.1687099784685
 20
1114.588722100505
 30
0.0
  0
POINT
  5
2D3E
330
3F7
100
AcDbEntity
  8
Defpoints
 62
     0
100
AcDbPoint
 10
599.231121681707
 20
1114.588722100505
 30
0.0
  0
ENDBLK
  5
402
330
3F7
100
AcDbEntity
  8
0
100
AcDbBlockEnd
  0
BLOCK
  5
456
330
44C
100
AcDbEntity
  8
0
100
AcDbBlockBegin
  2
*D9
 70
     1
 10
0.0
 20
0.0
 30
0.0
  3
*D9
  1

  0
LINE
  5
2D12
330
44C
100
AcDbEntity
  8
実形
 62
     0
370
    15
100
AcDbLine
 10
871.1687099784684
 20
1067.588722100505
 30
0.0
 11
871.1687099784684
 21
981.6566043304506
 31
0.0
  0
LINE
  5
2D13
330
44C
100
AcDbEntity
  8
実形
 62
     0
370
    15
100
AcDbLine
 10
1301.168709978468
 20
1067.588722100505
 30
0.0
 11
1301.168709978468
 21
981.6566043304506
 31
0.0
  0
LINE
  5
2D14
330
44C
100
AcDbEntity
  8
実形
 62
     0
370
    18
100
AcDbLine
 10
871.1687099784684
 20
981.6566043304506
 30
0.0
 11
1301.168709978468
 21
981.6566043304506
 31
0.0
  0
INSERT
  5
2D15
330
44C
100
AcDbEntity
  8
実形
 62
     0
370
    18
100
AcDbBlockReference
  2
_DotSmall
 10
871.1687099784684
 20
981.6566043304506
 30
0.0
 41
35.0
 42
35.0
 43
35.0
 50
180.0
  0
INSERT
  5
2D16
330
44C
100
AcDbEntity
  8
実形
 62
     0
370
    18
100
AcDbBlockReference
  2
_DotSmall
 10
1301.168709978468
 20
981.6566043304506
 30
0.0
 41
35.0
 42
35.0
 43
35.0
  0
MTEXT
  5
2D17
330
44C
100
AcDbEntity
  8
実形
 62
     0
100
AcDbMText
 10
1086.168709978468
 20
1000.40660433045
 30
0.0
 40
25.0
 41
0.0
 71
     5
 72
     1
  1
430
 73
     1
 44
1.0
1001
ACAD
1000
MTEXTBEGIN
1070
    73
1070
     1
1070
    44
1040
1.0
1070
    74
1070
     0
1000
MTEXTEND
  0
POINT
  5
2D18
330
44C
100
AcDbEntity
  8
Defpoints
 62
     0
100
AcDbPoint
 10
871.1687099784684
 20
1132.588722100505
 30
0.0
  0
POINT
  5
2D19
330
44C
100
AcDbEntity
  8
Defpoints
 62
     0
100
AcDbPoint
 10
1301.168709978468
 20
1132.588722100505
 30
0.0
  0
POINT
  5
2D1A
330
44C
100
AcDbEntity
  8
Defpoints
 62
     0
100
AcDbPoint
 10
1301.168709978468
 20
981.6566043304506
 30
0.0
  0
ENDBLK
  5
457
330
44C
100
AcDbEntity
  8
0
100
AcDbBlockEnd
  0
BLOCK
  5
465
330
459
100
AcDbEntity
  8
0
100
AcDbBlockBegin
  2
*D10
 70
     1
 10
0.0
 20
0.0
 30
0.0
  3
*D10
  1

  0
LINE
  5
2E7F
330
459
100
AcDbEntity
  8
実形
 62
     0
370
    15
100
AcDbLine
 10
1516.168709978468
 20
1069.588722100505
 30
0.0
 11
1516.168709978468
 21
981.6566043304506
 31
0.0
  0
LINE
  5
2E80
330
459
100
AcDbEntity
  8
実形
 62
     0
370
    15
100
AcDbLine
 10
1536.168709978468
 20
1067.588722100505
 30
0.0
 11
1536.168709978468
 21
981.6566043304506
 31
0.0
  0
LINE
  5
2E81
330
459
100
AcDbEntity
  8
実形
 62
     0
370
    18
100
AcDbLine
 10
1516.168709978468
 20
981.6566043304506
 30
0.0
 11
1536.168709978468
 21
981.6566043304506
 31
0.0
  0
MTEXT
  5
2E82
330
459
100
AcDbEntity
  8
実形
 62
     0
100
AcDbMText
 10
1509.389148352604
 20
954.8698276678234
 30
0.0
 40
25.0
 41
0.0
 71
     5
 72
     1
  1
20
 73
     1
 44
1.0
1001
ACAD
1000
MTEXTBEGIN
1070
    73
1070
     1
1070
    44
1040
1.0
1070
    74
1070
     0
1000
MTEXTEND
  0
INSERT
  5
2E83
330
459
100
AcDbEntity
  8
実形
 62
     0
370
    18
100
AcDbBlockReference
  2
_DotSmall
 10
1516.168709978468
 20
981.6566043304506
 30
0.0
 41
35.0
 42
35.0
 43
35.0
 50
180.0
  0
INSERT
  5
2E84
330
459
100
AcDbEntity
  8
実形
 62
     0
370
    18
100
AcDbBlockReference
  2
_DotSmall
 10
1536.168709978468
 20
981.6566043304506
 30
0.0
 41
35.0
 42
35.0
 43
35.0
  0
POINT
  5
2E85
330
459
100
AcDbEntity
  8
Defpoints
 62
     0
100
AcDbPoint
 10
1516.168709978468
 20
1134.588722100505
 30
0.0
  0
POINT
  5
2E86
330
459
100
AcDbEntity
  8
Defpoints
 62
     0
100
AcDbPoint
 10
1536.168709978468
 20
1132.588722100505
 30
0.0
  0
POINT
  5
2E87
330
459
100
AcDbEntity
  8
Defpoints
 62
     0
100
AcDbPoint
 10
1536.168709978468
 20
981.6566043304506
 30
0.0
  0
ENDBLK
  5
466
330
459
100
AcDbEntity
  8
0
100
AcDbBlockEnd
  0
BLOCK
  5
4AE
330
4A4
100
AcDbEntity
  8
0
100
AcDbBlockBegin
  2
*D11
 70
     1
 10
0.0
 20
0.0
 30
0.0
  3
*D11
  1

  0
LINE
  5
2D09
330
4A4
100
AcDbEntity
  8
実形
 62
     0
370
    15
100
AcDbLine
 10
826.1687099784685
 20
1064.588722100505
 30
0.0
 11
826.1687099784685
 21
903.864694174581
 31
0.0
  0
LINE
  5
2D0A
330
4A4
100
AcDbEntity
  8
実形
 62
     0
370
    15
100
AcDbLine
 10
1536.168709978468
 20
1064.588722100505
 30
0.0
 11
1536.168709978468
 21
903.864694174581
 31
0.0
  0
LINE
  5
2D0B
330
4A4
100
AcDbEntity
  8
実形
 62
     0
370
    18
100
AcDbLine
 10
826.1687099784685
 20
903.864694174581
 30
0.0
 11
1536.168709978468
 21
903.864694174581
 31
0.0
  0
INSERT
  5
2D0C
330
4A4
100
AcDbEntity
  8
実形
 62
     0
370
    18
100
AcDbBlockReference
  2
_DotSmall
 10
826.1687099784685
 20
903.864694174581
 30
0.0
 41
35.0
 42
35.0
 43
35.0
 50
180.0
  0
INSERT
  5
2D0D
330
4A4
100
AcDbEntity
  8
実形
 62
     0
370
    18
100
AcDbBlockReference
  2
_DotSmall
 10
1536.168709978468
 20
903.864694174581
 30
0.0
 41
35.0
 42
35.0
 43
35.0
  0
MTEXT
  5
2D0E
330
4A4
100
AcDbEntity
  8
実形
 62
     0
100
AcDbMText
 10
1181.168709978468
 20
922.614694174581
 30
0.0
 40
25.0
 41
0.0
 71
     5
 72
     1
  1
710
 73
     1
 44
1.0
1001
ACAD
1000
MTEXTBEGIN
1070
    73
1070
     1
1070
    44
1040
1.0
1070
    74
1070
     0
1000
MTEXTEND
  0
POINT
  5
2D0F
330
4A4
100
AcDbEntity
  8
Defpoints
 62
     0
100
AcDbPoint
 10
826.1687099784685
 20
1129.588722100505
 30
0.0
  0
POINT
  5
2D10
330
4A4
100
AcDbEntity
  8
Defpoints
 62
     0
100
AcDbPoint
 10
1536.168709978468
 20
1129.588722100505
 30
0.0
  0
POINT
  5
2D11
330
4A4
100
AcDbEntity
  8
Defpoints
 62
     0
100
AcDbPoint
 10
1536.168709978468
 20
903.864694174581
 30
0.0
  0
ENDBLK
  5
4AF
330
4A4
100
AcDbEntity
  8
0
100
AcDbBlockEnd
  0
BLOCK
  5
4CA
330
4BF
100
AcDbEntity
  8
0
100
AcDbBlockBegin
  2
*D12
 70
     1
 10
0.0
 20
0.0
 30
0.0
  3
*D12
  1

  0
LINE
  5
2EB4
330
4BF
100
AcDbEntity
  8
実形
 62
     0
370
    15
100
AcDbLine
 10
1571.168709978468
 20
574.0678533777127
 30
0.0
 11
1625.060460466175
 21
574.0678533777127
 31
0.0
  0
LINE
  5
2EB5
330
4BF
100
AcDbEntity
  8
実形
 62
     0
370
    15
100
AcDbLine
 10
1571.168709978468
 20
559.0678533777126
 30
0.0
 11
1625.060460466175
 21
559.0678533777126
 31
0.0
  0
LINE
  5
2EB6
330
4BF
100
AcDbEntity
  8
実形
 62
     0
370
    18
100
AcDbLine
 10
1625.060460466175
 20
574.0678533777127
 30
0.0
 11
1625.060460466175
 21
559.0678533777126
 31
0.0
  0
INSERT
  5
2EB7
330
4BF
100
AcDbEntity
  8
実形
 62
     0
370
    18
100
AcDbBlockReference
  2
_DotSmall
 10
1625.060460466175
 20
574.0678533777127
 30
0.0
 41
35.0
 42
35.0
 43
35.0
 50
90.0
  0
INSERT
  5
2EB8
330
4BF
100
AcDbEntity
  8
実形
 62
     0
370
    18
100
AcDbBlockReference
  2
_DotSmall
 10
1625.060460466175
 20
559.0678533777126
 30
0.0
 41
35.0
 42
35.0
 43
35.0
 50
270.0
  0
POINT
  5
2EB9
330
4BF
100
AcDbEntity
  8
Defpoints
 62
     0
100
AcDbPoint
 10
1506.168709978468
 20
574.0678533777127
 30
0.0
  0
POINT
  5
2EBA
330
4BF
100
AcDbEntity
  8
Defpoints
 62
     0
100
AcDbPoint
 10
1506.168709978468
 20
559.0678533777126
 30
0.0
  0
POINT
  5
2EBB
330
4BF
100
AcDbEntity
  8
Defpoints
 62
     0
100
AcDbPoint
 10
1625.060460466175
 20
559.0678533777126
 30
0.0
  0
ENDBLK
  5
4CB
330
4BF
100
AcDbEntity
  8
0
100
AcDbBlockEnd
  0
BLOCK
  5
4D7
330
4CD
100
AcDbEntity
  8
0
100
AcDbBlockBegin
  2
*D13
 70
     1
 10
0.0
 20
0.0
 30
0.0
  3
*D13
  1

  0
LINE
  5
2EAB
330
4CD
100
AcDbEntity
  8
実形
 62
     0
370
    15
100
AcDbLine
 10
1571.168709978468
 20
743.0678533777128
 30
0.0
 11
1663.801084801057
 21
743.0678533777128
 31
0.0
  0
LINE
  5
2EAC
330
4CD
100
AcDbEntity
  8
実形
 62
     0
370
    15
100
AcDbLine
 10
1571.168709978468
 20
559.0678533777126
 30
0.0
 11
1663.801084801057
 21
559.0678533777126
 31
0.0
  0
LINE
  5
2EAD
330
4CD
100
AcDbEntity
  8
実形
 62
     0
370
    18
100
AcDbLine
 10
1663.801084801057
 20
743.0678533777128
 30
0.0
 11
1663.801084801057
 21
559.0678533777126
 31
0.0
  0
INSERT
  5
2EAE
330
4CD
100
AcDbEntity
  8
実形
 62
     0
370
    18
100
AcDbBlockReference
  2
_DotSmall
 10
1663.801084801057
 20
743.0678533777128
 30
0.0
 41
35.0
 42
35.0
 43
35.0
 50
90.0
  0
INSERT
  5
2EAF
330
4CD
100
AcDbEntity
  8
実形
 62
     0
370
    18
100
AcDbBlockReference
  2
_DotSmall
 10
1663.801084801057
 20
559.0678533777126
 30
0.0
 41
35.0
 42
35.0
 43
35.0
 50
270.0
  0
MTEXT
  5
2EB0
330
4CD
100
AcDbEntity
  8
実形
 62
     0
100
AcDbMText
 10
1645.051084801057
 20
651.067853377713
 30
0.0
 40
25.0
 41
0.0
 71
     5
 72
     1
  1
184
 11
0.0000000000000001
 21
1.0
 31
0.0
 73
     1
 44
1.0
1001
ACAD
1000
MTEXTBEGIN
1070
    73
1070
     1
1070
    44
1040
1.0
1070
    74
1070
     0
1000
MTEXTEND
  0
POINT
  5
2EB1
330
4CD
100
AcDbEntity
  8
Defpoints
 62
     0
100
AcDbPoint
 10
1506.168709978468
 20
743.0678533777128
 30
0.0
  0
POINT
  5
2EB2
330
4CD
100
AcDbEntity
  8
Defpoints
 62
     0
100
AcDbPoint
 10
1506.168709978468
 20
559.0678533777126
 30
0.0
  0
POINT
  5
2EB3
330
4CD
100
AcDbEntity
  8
Defpoints
 62
     0
100
AcDbPoint
 10
1663.801084801057
 20
559.0678533777126
 30
0.0
  0
ENDBLK
  5
4D8
330
4CD
100
AcDbEntity
  8
0
100
AcDbBlockEnd
  0
BLOCK
  5
503
330
4F9
100
AcDbEntity
  8
0
100
AcDbBlockBegin
  2
*D14
 70
     1
 10
0.0
 20
0.0
 30
0.0
  3
*D14
  1

  0
LINE
  5
2EC5
330
4F9
100
AcDbEntity
  8
実形
 62
     0
370
    15
100
AcDbLine
 10
977.1687099784685
 20
486.0678533777127
 30
0.0
 11
977.1687099784685
 21
432.6404460766398
 31
0.0
  0
LINE
  5
2EC6
330
4F9
100
AcDbEntity
  8
実形
 62
     0
370
    15
100
AcDbLine
 10
1065.168709978468
 20
486.0678533777127
 30
0.0
 11
1065.168709978468
 21
432.6404460766398
 31
0.0
  0
LINE
  5
2EC7
330
4F9
100
AcDbEntity
  8
実形
 62
     0
370
    18
100
AcDbLine
 10
977.1687099784685
 20
432.6404460766398
 30
0.0
 11
1065.168709978468
 21
432.6404460766398
 31
0.0
  0
INSERT
  5
2EC8
330
4F9
100
AcDbEntity
  8
実形
 62
     0
370
    18
100
AcDbBlockReference
  2
_DotSmall
 10
977.1687099784685
 20
432.6404460766398
 30
0.0
 41
35.0
 42
35.0
 43
35.0
 50
180.0
  0
INSERT
  5
2EC9
330
4F9
100
AcDbEntity
  8
実形
 62
     0
370
    18
100
AcDbBlockReference
  2
_DotSmall
 10
1065.168709978468
 20
432.6404460766398
 30
0.0
 41
35.0
 42
35.0
 43
35.0
  0
MTEXT
  5
2ECA
330
4F9
100
AcDbEntity
  8
実形
 62
     0
100
AcDbMText
 10
1021.168709978468
 20
451.3904460766398
 30
0.0
 40
25.0
 41
0.0
 71
     5
 72
     1
  1
88
 73
     1
 44
1.0
1001
ACAD
1000
MTEXTBEGIN
1070
    73
1070
     1
1070
    44
1040
1.0
1070
    74
1070
     0
1000
MTEXTEND
  0
POINT
  5
2ECB
330
4F9
100
AcDbEntity
  8
Defpoints
 62
     0
100
AcDbPoint
 10
977.1687099784685
 20
551.0678533777126
 30
0.0
  0
POINT
  5
2ECC
330
4F9
100
AcDbEntity
  8
Defpoints
 62
     0
100
AcDbPoint
 10
1065.168709978468
 20
551.0678533777126
 30
0.0
  0
POINT
  5
2ECD
330
4F9
100
AcDbEntity
  8
Defpoints
 62
     0
100
AcDbPoint
 10
1065.168709978468
 20
432.6404460766398
 30
0.0
  0
ENDBLK
  5
504
330
4F9
100
AcDbEntity
  8
0
100
AcDbBlockEnd
  0
BLOCK
  5
510
330
506
100
AcDbEntity
  8
0
100
AcDbBlockBegin
  2
*D15
 70
     1
 10
0.0
 20
0.0
 30
0.0
  3
*D15
  1

  0
LINE
  5
2EBC
330
506
100
AcDbEntity
  8
実形
 62
     0
370
    15
100
AcDbLine
 10
963.1687099784684
 20
486.0678533777127
 30
0.0
 11
963.1687099784684
 21
372.6810475077109
 31
0.0
  0
LINE
  5
2EBD
330
506
100
AcDbEntity
  8
実形
 62
     0
370
    15
100
AcDbLine
 10
1079.168709978468
 20
486.0678533777127
 30
0.0
 11
1079.168709978468
 21
372.6810475077109
 31
0.0
  0
LINE
  5
2EBE
330
506
100
AcDbEntity
  8
実形
 62
     0
370
    18
100
AcDbLine
 10
963.1687099784684
 20
372.6810475077109
 30
0.0
 11
1079.168709978468
 21
372.6810475077109
 31
0.0
  0
INSERT
  5
2EBF
330
506
100
AcDbEntity
  8
実形
 62
     0
370
    18
100
AcDbBlockReference
  2
_DotSmall
 10
963.1687099784684
 20
372.6810475077109
 30
0.0
 41
35.0
 42
35.0
 43
35.0
 50
180.0
  0
INSERT
  5
2EC0
330
506
100
AcDbEntity
  8
実形
 62
     0
370
    18
100
AcDbBlockReference
  2
_DotSmall
 10
1079.168709978468
 20
372.6810475077109
 30
0.0
 41
35.0
 42
35.0
 43
35.0
  0
MTEXT
  5
2EC1
330
506
100
AcDbEntity
  8
実形
 62
     0
100
AcDbMText
 10
1021.168709978468
 20
391.4310475077109
 30
0.0
 40
25.0
 41
0.0
 71
     5
 72
     1
  1
116
 73
     1
 44
1.0
1001
ACAD
1000
MTEXTBEGIN
1070
    73
1070
     1
1070
    44
1040
1.0
1070
    74
1070
     0
1000
MTEXTEND
  0
POINT
  5
2EC2
330
506
100
AcDbEntity
  8
Defpoints
 62
     0
100
AcDbPoint
 10
963.1687099784684
 20
551.0678533777126
 30
0.0
  0
POINT
  5
2EC3
330
506
100
AcDbEntity
  8
Defpoints
 62
     0
100
AcDbPoint
 10
1079.168709978468
 20
551.0678533777126
 30
0.0
  0
POINT
  5
2EC4
330
506
100
AcDbEntity
  8
Defpoints
 62
     0
100
AcDbPoint
 10
1079.168709978468
 20
372.6810475077109
 30
0.0
  0
ENDBLK
  5
511
330
506
100
AcDbEntity
  8
0
100
AcDbBlockEnd
  0
BLOCK
  5
53E
330
533
100
AcDbEntity
  8
0
100
AcDbBlockBegin
  2
*D16
 70
     1
 10
0.0
 20
0.0
 30
0.0
  3
*D16
  1

  0
LINE
  5
2EEA
330
533
100
AcDbEntity
  8
実形
 62
     0
370
    15
100
AcDbLine
 10
1949.09504950323
 20
1079.588722100505
 30
0.0
 11
1949.09504950323
 21
981.6566043304506
 31
0.0
  0
LINE
  5
2EEB
330
533
100
AcDbEntity
  8
実形
 62
     0
370
    15
100
AcDbLine
 10
1934.09504950323
 20
1079.588722100505
 30
0.0
 11
1934.09504950323
 21
981.6566043304506
 31
0.0
  0
LINE
  5
2EEC
330
533
100
AcDbEntity
  8
実形
 62
     0
370
    18
100
AcDbLine
 10
1949.09504950323
 20
981.6566043304506
 30
0.0
 11
1934.09504950323
 21
981.6566043304506
 31
0.0
  0
INSERT
  5
2EED
330
533
100
AcDbEntity
  8
実形
 62
     0
370
    18
100
AcDbBlockReference
  2
_DotSmall
 10
1949.09504950323
 20
981.6566043304506
 30
0.0
 41
35.0
 42
35.0
 43
35.0
  0
INSERT
  5
2EEE
330
533
100
AcDbEntity
  8
実形
 62
     0
370
    18
100
AcDbBlockReference
  2
_DotSmall
 10
1934.09504950323
 20
981.6566043304506
 30
0.0
 41
35.0
 42
35.0
 43
35.0
 50
180.0
  0
POINT
  5
2EEF
330
533
100
AcDbEntity
  8
Defpoints
 62
     0
100
AcDbPoint
 10
1949.09504950323
 20
1144.588722100505
 30
0.0
  0
POINT
  5
2EF0
330
533
100
AcDbEntity
  8
Defpoints
 62
     0
100
AcDbPoint
 10
1934.09504950323
 20
1144.588722100505
 30
0.0
  0
POINT
  5
2EF1
330
533
100
AcDbEntity
  8
Defpoints
 62
     0
100
AcDbPoint
 10
1934.09504950323
 20
981.6566043304506
 30
0.0
  0
ENDBLK
  5
53F
330
533
100
AcDbEntity
  8
0
100
AcDbBlockEnd
  0
BLOCK
  5
553
330
549
100
AcDbEntity
  8
0
100
AcDbBlockBegin
  2
*D17
 70
     1
 10
0.0
 20
0.0
 30
0.0
  3
*D17
  1

  0
LINE
  5
2EE1
330
549
100
AcDbEntity
  8
実形
 62
     0
370
    15
100
AcDbLine
 10
1949.09504950323
 20
1064.588722100505
 30
0.0
 11
1949.09504950323
 21
901.677194174581
 31
0.0
  0
LINE
  5
2EE2
330
549
100
AcDbEntity
  8
実形
 62
     0
370
    15
100
AcDbLine
 10
1765.09504950323
 20
1067.588722100505
 30
0.0
 11
1765.09504950323
 21
901.677194174581
 31
0.0
  0
LINE
  5
2EE3
330
549
100
AcDbEntity
  8
実形
 62
     0
370
    18
100
AcDbLine
 10
1949.09504950323
 20
901.677194174581
 30
0.0
 11
1765.09504950323
 21
901.677194174581
 31
0.0
  0
INSERT
  5
2EE4
330
549
100
AcDbEntity
  8
実形
 62
     0
370
    18
100
AcDbBlockReference
  2
_DotSmall
 10
1949.09504950323
 20
901.677194174581
 30
0.0
 41
35.0
 42
35.0
 43
35.0
  0
INSERT
  5
2EE5
330
549
100
AcDbEntity
  8
実形
 62
     0
370
    18
100
AcDbBlockReference
  2
_DotSmall
 10
1765.09504950323
 20
901.677194174581
 30
0.0
 41
35.0
 42
35.0
 43
35.0
 50
180.0
  0
MTEXT
  5
2EE6
330
549
100
AcDbEntity
  8
実形
 62
     0
100
AcDbMText
 10
1857.09504950323
 20
920.427194174581
 30
0.0
 40
25.0
 41
0.0
 71
     5
 72
     1
  1
184
 73
     1
 44
1.0
1001
ACAD
1000
MTEXTBEGIN
1070
    73
1070
     1
1070
    44
1040
1.0
1070
    74
1070
     0
1000
MTEXTEND
  0
POINT
  5
2EE7
330
549
100
AcDbEntity
  8
Defpoints
 62
     0
100
AcDbPoint
 10
1949.09504950323
 20
1129.588722100505
 30
0.0
  0
POINT
  5
2EE8
330
549
100
AcDbEntity
  8
Defpoints
 62
     0
100
AcDbPoint
 10
1765.09504950323
 20
1132.588722100505
 30
0.0
  0
POINT
  5
2EE9
330
549
100
AcDbEntity
  8
Defpoints
 62
     0
100
AcDbPoint
 10
1765.09504950323
 20
901.677194174581
 30
0.0
  0
ENDBLK
  5
554
330
549
100
AcDbEntity
  8
0
100
AcDbBlockEnd
  0
BLOCK
  5
574
330
56A
100
AcDbEntity
  8
0
100
AcDbBlockBegin
  2
*D18
 70
     1
 10
0.0
 20
0.0
 30
0.0
  3
*D18
  1

  0
LINE
  5
2ED8
330
56A
100
AcDbEntity
  8
実形
 62
     0
370
    15
100
AcDbLine
 10
2022.09504950323
 20
1363.588722100505
 30
0.0
 11
2069.401193595151
 21
1363.588722100505
 31
0.0
  0
LINE
  5
2ED9
330
56A
100
AcDbEntity
  8
実形
 62
     0
370
    15
100
AcDbLine
 10
2022.09504950323
 20
1275.588722100505
 30
0.0
 11
2069.401193595151
 21
1275.588722100505
 31
0.0
  0
LINE
  5
2EDA
330
56A
100
AcDbEntity
  8
実形
 62
     0
370
    18
100
AcDbLine
 10
2069.401193595151
 20
1363.588722100505
 30
0.0
 11
2069.401193595151
 21
1275.588722100505
 31
0.0
  0
INSERT
  5
2EDB
330
56A
100
AcDbEntity
  8
実形
 62
     0
370
    18
100
AcDbBlockReference
  2
_DotSmall
 10
2069.401193595151
 20
1363.588722100505
 30
0.0
 41
35.0
 42
35.0
 43
35.0
 50
90.0
  0
INSERT
  5
2EDC
330
56A
100
AcDbEntity
  8
実形
 62
     0
370
    18
100
AcDbBlockReference
  2
_DotSmall
 10
2069.401193595151
 20
1275.588722100505
 30
0.0
 41
35.0
 42
35.0
 43
35.0
 50
270.0
  0
MTEXT
  5
2EDD
330
56A
100
AcDbEntity
  8
実形
 62
     0
100
AcDbMText
 10
2050.65119359515
 20
1319.588722100505
 30
0.0
 40
25.0
 41
0.0
 71
     5
 72
     1
  1
88
 11
0.0000000000000001
 21
1.0
 31
0.0
 73
     1
 44
1.0
1001
ACAD
1000
MTEXTBEGIN
1070
    73
1070
     1
1070
    44
1040
1.0
1070
    74
1070
     0
1000
MTEXTEND
  0
POINT
  5
2EDE
330
56A
100
AcDbEntity
  8
Defpoints
 62
     0
100
AcDbPoint
 10
1957.09504950323
 20
1363.588722100505
 30
0.0
  0
POINT
  5
2EDF
330
56A
100
AcDbEntity
  8
Defpoints
 62
     0
100
AcDbPoint
 10
1957.09504950323
 20
1275.588722100505
 30
0.0
  0
POINT
  5
2EE0
330
56A
100
AcDbEntity
  8
Defpoints
 62
     0
100
AcDbPoint
 10
2069.401193595151
 20
1275.588722100505
 30
0.0
  0
ENDBLK
  5
575
330
56A
100
AcDbEntity
  8
0
100
AcDbBlockEnd
  0
BLOCK
  5
58A
330
580
100
AcDbEntity
  8
0
100
AcDbBlockBegin
  2
*D19
 70
     1
 10
0.0
 20
0.0
 30
0.0
  3
*D19
  1

  0
LINE
  5
2ECF
330
580
100
AcDbEntity
  8
実形
 62
     0
370
    15
100
AcDbLine
 10
2022.09504950323
 20
1377.588722100505
 30
0.0
 11
2134.322781559992
 21
1377.588722100505
 31
0.0
  0
LINE
  5
2ED0
330
580
100
AcDbEntity
  8
実形
 62
     0
370
    15
100
AcDbLine
 10
2022.09504950323
 20
1261.588722100505
 30
0.0
 11
2134.322781559992
 21
1261.588722100505
 31
0.0
  0
LINE
  5
2ED1
330
580
100
AcDbEntity
  8
実形
 62
     0
370
    18
100
AcDbLine
 10
2134.322781559992
 20
1377.588722100505
 30
0.0
 11
2134.322781559992
 21
1261.588722100505
 31
0.0
  0
INSERT
  5
2ED2
330
580
100
AcDbEntity
  8
実形
 62
     0
370
    18
100
AcDbBlockReference
  2
_DotSmall
 10
2134.322781559992
 20
1377.588722100505
 30
0.0
 41
35.0
 42
35.0
 43
35.0
 50
90.0
  0
INSERT
  5
2ED3
330
580
100
AcDbEntity
  8
実形
 62
     0
370
    18
100
AcDbBlockReference
  2
_DotSmall
 10
2134.322781559992
 20
1261.588722100505
 30
0.0
 41
35.0
 42
35.0
 43
35.0
 50
270.0
  0
MTEXT
  5
2ED4
330
580
100
AcDbEntity
  8
実形
 62
     0
100
AcDbMText
 10
2115.572781559992
 20
1319.588722100505
 30
0.0
 40
25.0
 41
0.0
 71
     5
 72
     1
  1
116
 11
0.0000000000000001
 21
1.0
 31
0.0
 73
     1
 44
1.0
1001
ACAD
1000
MTEXTBEGIN
1070
    73
1070
     1
1070
    44
1040
1.0
1070
    74
1070
     0
1000
MTEXTEND
  0
POINT
  5
2ED5
330
580
100
AcDbEntity
  8
Defpoints
 62
     0
100
AcDbPoint
 10
1957.09504950323
 20
1377.588722100505
 30
0.0
  0
POINT
  5
2ED6
330
580
100
AcDbEntity
  8
Defpoints
 62
     0
100
AcDbPoint
 10
1957.09504950323
 20
1261.588722100505
 30
0.0
  0
POINT
  5
2ED7
330
580
100
AcDbEntity
  8
Defpoints
 62
     0
100
AcDbPoint
 10
2134.322781559992
 20
1261.588722100505
 30
0.0
  0
ENDBLK
  5
58B
330
580
100
AcDbEntity
  8
0
100
AcDbBlockEnd
  0
BLOCK
  5
1749
330
173E
100
AcDbEntity
  8
0
100
AcDbBlockBegin
  2
*D20
 70
     1
 10
0.0
 20
0.0
 30
0.0
  3
*D20
  1

  0
LINE
  5
2D75
330
173E
100
AcDbEntity
  8
実形
 62
     0
370
    18
100
AcDbLine
 10
871.1687099784684
 20
1067.588722100505
 30
0.0
 11
871.1687099784684
 21
981.6566043304506
 31
0.0
  0
LINE
  5
2D76
330
173E
100
AcDbEntity
  8
実形
 62
     0
370
    18
100
AcDbLine
 10
826.1687099784685
 20
1067.588722100505
 30
0.0
 11
826.1687099784685
 21
981.6566043304506
 31
0.0
  0
LINE
  5
2D77
330
173E
100
AcDbEntity
  8
実形
 62
     0
370
    18
100
AcDbLine
 10
871.1687099784684
 20
981.6566043304506
 30
0.0
 11
826.1687099784685
 21
981.6566043304506
 31
0.0
  0
MTEXT
  5
2D78
330
173E
100
AcDbEntity
  8
実形
 62
     0
100
AcDbMText
 10
857.7183911804986
 20
948.2897564528412
 30
0.0
 40
25.0
 41
0.0
 71
     5
 72
     1
  1
45
 73
     1
 44
1.0
1001
ACAD
1000
MTEXTBEGIN
1070
    73
1070
     1
1070
    44
1040
1.0
1070
    74
1070
     0
1000
MTEXTEND
  0
INSERT
  5
2D79
330
173E
100
AcDbEntity
  8
実形
 62
     0
370
    18
100
AcDbBlockReference
  2
_DotSmall
 10
871.1687099784684
 20
981.6566043304506
 30
0.0
 41
35.0
 42
35.0
 43
35.0
  0
INSERT
  5
2D7A
330
173E
100
AcDbEntity
  8
実形
 62
     0
370
    18
100
AcDbBlockReference
  2
_DotSmall
 10
826.1687099784685
 20
981.6566043304506
 30
0.0
 41
35.0
 42
35.0
 43
35.0
 50
180.0
  0
POINT
  5
2D7B
330
173E
100
AcDbEntity
  8
Defpoints
 62
     0
100
AcDbPoint
 10
871.1687099784684
 20
1132.588722100505
 30
0.0
  0
POINT
  5
2D7C
330
173E
100
AcDbEntity
  8
Defpoints
 62
     0
100
AcDbPoint
 10
826.1687099784685
 20
1132.588722100505
 30
0.0
  0
POINT
  5
2D7D
330
173E
100
AcDbEntity
  8
Defpoints
 62
     0
100
AcDbPoint
 10
826.1687099784685
 20
981.6566043304506
 30
0.0
  0
ENDBLK
  5
174A
330
173E
100
AcDbEntity
  8
0
100
AcDbBlockEnd
  0
BLOCK
  5
17BA
330
17AF
100
AcDbEntity
  8
0
100
AcDbBlockBegin
  2
*D21
 70
     1
 10
0.0
 20
0.0
 30
0.0
  3
*D21
  1

  0
LINE
  5
2D87
330
17AF
100
AcDbEntity
  8
実形
 62
     0
370
    18
100
AcDbLine
 10
779.1687099784685
 20
1159.588722100505
 30
0.0
 11
667.2311216817072
 21
1159.588722100505
 31
0.0
  0
LINE
  5
2D88
330
17AF
100
AcDbEntity
  8
実形
 62
     0
370
    18
100
AcDbLine
 10
779.1687099784685
 20
1114.588722100505
 30
0.0
 11
667.2311216817072
 21
1114.588722100505
 31
0.0
  0
LINE
  5
2D89
330
17AF
100
AcDbEntity
  8
実形
 62
     0
370
    18
100
AcDbLine
 10
667.2311216817072
 20
1159.588722100505
 30
0.0
 11
667.2311216817072
 21
1114.588722100505
 31
0.0
  0
MTEXT
  5
2D8A
330
17AF
100
AcDbEntity
  8
実形
 62
     0
100
AcDbMText
 10
644.5728274210004
 20
1142.420751412925
 30
0.0
 40
25.0
 41
0.0
 71
     5
 72
     1
  1
45
 11
0.0000000000000001
 21
1.0
 31
0.0
 73
     1
 44
1.0
1001
ACAD
1000
MTEXTBEGIN
1070
    73
1070
     1
1070
    44
1040
1.0
1070
    74
1070
     0
1000
MTEXTEND
  0
INSERT
  5
2D8B
330
17AF
100
AcDbEntity
  8
実形
 62
     0
370
    18
100
AcDbBlockReference
  2
_DotSmall
 10
667.2311216817072
 20
1159.588722100505
 30
0.0
 41
35.0
 42
35.0
 43
35.0
 50
90.0
  0
INSERT
  5
2D8C
330
17AF
100
AcDbEntity
  8
実形
 62
     0
370
    18
100
AcDbBlockReference
  2
_DotSmall
 10
667.2311216817072
 20
1114.588722100505
 30
0.0
 41
35.0
 42
35.0
 43
35.0
 50
270.0
  0
POINT
  5
2D8D
330
17AF
100
AcDbEntity
  8
Defpoints
 62
     0
100
AcDbPoint
 10
844.1687099784685
 20
1159.588722100505
 30
0.0
  0
POINT
  5
2D8E
330
17AF
100
AcDbEntity
  8
Defpoints
 62
     0
100
AcDbPoint
 10
844.1687099784685
 20
1114.588722100505
 30
0.0
  0
POINT
  5
2D8F
330
17AF
100
AcDbEntity
  8
Defpoints
 62
     0
100
AcDbPoint
 10
667.2311216817072
 20
1114.588722100505
 30
0.0
  0
ENDBLK
  5
17BB
330
17AF
100
AcDbEntity
  8
0
100
AcDbBlockEnd
  0
BLOCK
  5
22F8
330
22ED
100
AcDbEntity
  8
0
100
AcDbBlockBegin
  2
*D22
 70
     1
 10
0.0
 20
0.0
 30
0.0
  3
*D22
  1

  0
LINE
  5
2E1C
330
22ED
100
AcDbEntity
  8
実形
 62
     0
370
    18
100
AcDbLine
 10
779.1687099784685
 20
1524.588722100505
 30
0.0
 11
735.231121681707
 21
1524.588722100505
 31
0.0
  0
LINE
  5
2E1D
330
22ED
100
AcDbEntity
  8
実形
 62
     0
370
    18
100
AcDbLine
 10
781.1687099784685
 20
1504.588722100505
 30
0.0
 11
735.231121681707
 21
1504.588722100505
 31
0.0
  0
LINE
  5
2E1E
330
22ED
100
AcDbEntity
  8
実形
 62
     0
370
    18
100
AcDbLine
 10
735.231121681707
 20
1524.588722100505
 30
0.0
 11
735.231121681707
 21
1504.588722100505
 31
0.0
  0
MTEXT
  5
2E1F
330
22ED
100
AcDbEntity
  8
実形
 62
     0
100
AcDbMText
 10
715.3872464765036
 20
1549.057514489794
 30
0.0
 40
25.0
 41
0.0
 71
     5
 72
     1
  1
20
 11
0.0000000000000001
 21
1.0
 31
0.0
 73
     1
 44
1.0
1001
ACAD
1000
MTEXTBEGIN
1070
    73
1070
     1
1070
    44
1040
1.0
1070
    74
1070
     0
1000
MTEXTEND
  0
INSERT
  5
2E20
330
22ED
100
AcDbEntity
  8
実形
 62
     0
370
    18
100
AcDbBlockReference
  2
_DotSmall
 10
735.231121681707
 20
1524.588722100505
 30
0.0
 41
35.0
 42
35.0
 43
35.0
 50
90.0
  0
INSERT
  5
2E21
330
22ED
100
AcDbEntity
  8
実形
 62
     0
370
    18
100
AcDbBlockReference
  2
_DotSmall
 10
735.231121681707
 20
1504.588722100505
 30
0.0
 41
35.0
 42
35.0
 43
35.0
 50
270.0
  0
POINT
  5
2E22
330
22ED
100
AcDbEntity
  8
Defpoints
 62
     0
100
AcDbPoint
 10
844.1687099784685
 20
1524.588722100505
 30
0.0
  0
POINT
  5
2E23
330
22ED
100
AcDbEntity
  8
Defpoints
 62
     0
100
AcDbPoint
 10
846.1687099784684
 20
1504.588722100505
 30
0.0
  0
POINT
  5
2E24
330
22ED
100
AcDbEntity
  8
Defpoints
 62
     0
100
AcDbPoint
 10
735.231121681707
 20
1504.588722100505
 30
0.0
  0
ENDBLK
  5
22F9
330
22ED
100
AcDbEntity
  8
0
100
AcDbBlockEnd
  0
BLOCK
  5
2305
330
22FB
100
AcDbEntity
  8
0
100
AcDbBlockBegin
  2
*D23
 70
     1
 10
0.0
 20
0.0
 30
0.0
  3
*D23
  1

  0
LINE
  5
2E13
330
22FB
100
AcDbEntity
  8
実形
 62
     0
370
    18
100
AcDbLine
 10
781.1687099784685
 20
1504.588722100505
 30
0.0
 11
735.231121681707
 21
1504.588722100505
 31
0.0
  0
LINE
  5
2E14
330
22FB
100
AcDbEntity
  8
実形
 62
     0
370
    18
100
AcDbLine
 10
779.1687099784685
 20
1479.588722100505
 30
0.0
 11
735.231121681707
 21
1479.588722100505
 31
0.0
  0
LINE
  5
2E15
330
22FB
100
AcDbEntity
  8
実形
 62
     0
370
    18
100
AcDbLine
 10
735.231121681707
 20
1504.588722100505
 30
0.0
 11
735.231121681707
 21
1479.588722100505
 31
0.0
  0
MTEXT
  5
2E16
330
22FB
100
AcDbEntity
  8
実形
 62
     0
100
AcDbMText
 10
719.3821463976373
 20
1455.247400896839
 30
0.0
 40
25.0
 41
0.0
 71
     5
 72
     1
  1
25
 11
0.0000000000000001
 21
1.0
 31
0.0
 73
     1
 44
1.0
1001
ACAD
1000
MTEXTBEGIN
1070
    73
1070
     1
1070
    44
1040
1.0
1070
    74
1070
     0
1000
MTEXTEND
  0
INSERT
  5
2E17
330
22FB
100
AcDbEntity
  8
実形
 62
     0
370
    18
100
AcDbBlockReference
  2
_DotSmall
 10
735.231121681707
 20
1504.588722100505
 30
0.0
 41
35.0
 42
35.0
 43
35.0
 50
90.0
  0
INSERT
  5
2E18
330
22FB
100
AcDbEntity
  8
実形
 62
     0
370
    18
100
AcDbBlockReference
  2
_DotSmall
 10
735.231121681707
 20
1479.588722100505
 30
0.0
 41
35.0
 42
35.0
 43
35.0
 50
270.0
  0
POINT
  5
2E19
330
22FB
100
AcDbEntity
  8
Defpoints
 62
     0
100
AcDbPoint
 10
846.1687099784684
 20
1504.588722100505
 30
0.0
  0
POINT
  5
2E1A
330
22FB
100
AcDbEntity
  8
Defpoints
 62
     0
100
AcDbPoint
 10
844.1687099784685
 20
1479.588722100505
 30
0.0
  0
POINT
  5
2E1B
330
22FB
100
AcDbEntity
  8
Defpoints
 62
     0
100
AcDbPoint
 10
735.231121681707
 20
1479.588722100505
 30
0.0
  0
ENDBLK
  5
2306
330
22FB
100
AcDbEntity
  8
0
100
AcDbBlockEnd
  0
BLOCK
  5
2345
330
233A
100
AcDbEntity
  8
0
100
AcDbBlockBegin
  2
*D24
 70
     1
 10
0.0
 20
0.0
 30
0.0
  3
*D24
  1

  0
LINE
  5
2E52
330
233A
100
AcDbEntity
  8
実形
 62
     0
370
    18
100
AcDbLine
 10
826.1687099784685
 20
1069.588722100505
 30
0.0
 11
826.1687099784685
 21
1031.142229916229
 31
0.0
  0
LINE
  5
2E53
330
233A
100
AcDbEntity
  8
実形
 62
     0
370
    18
100
AcDbLine
 10
846.1687099784684
 20
1069.588722100505
 30
0.0
 11
846.1687099784684
 21
1031.142229916229
 31
0.0
  0
LINE
  5
2E54
330
233A
100
AcDbEntity
  8
実形
 62
     0
370
    18
100
AcDbLine
 10
826.1687099784685
 20
1031.142229916229
 30
0.0
 11
846.1687099784684
 21
1031.142229916229
 31
0.0
  0
MTEXT
  5
2E55
330
233A
100
AcDbEntity
  8
実形
 62
     0
100
AcDbMText
 10
798.4474209274794
 20
1046.990769696234
 30
0.0
 40
25.0
 41
0.0
 71
     5
 72
     1
  1
20
 73
     1
 44
1.0
1001
ACAD
1000
MTEXTBEGIN
1070
    73
1070
     1
1070
    44
1040
1.0
1070
    74
1070
     0
1000
MTEXTEND
  0
INSERT
  5
2E56
330
233A
100
AcDbEntity
  8
実形
 62
     0
370
    18
100
AcDbBlockReference
  2
_DotSmall
 10
826.1687099784685
 20
1031.142229916229
 30
0.0
 41
35.0
 42
35.0
 43
35.0
 50
180.0
  0
INSERT
  5
2E57
330
233A
100
AcDbEntity
  8
実形
 62
     0
370
    18
100
AcDbBlockReference
  2
_DotSmall
 10
846.1687099784684
 20
1031.142229916229
 30
0.0
 41
35.0
 42
35.0
 43
35.0
  0
POINT
  5
2E58
330
233A
100
AcDbEntity
  8
Defpoints
 62
     0
100
AcDbPoint
 10
826.1687099784685
 20
1134.588722100505
 30
0.0
  0
POINT
  5
2E59
330
233A
100
AcDbEntity
  8
Defpoints
 62
     0
100
AcDbPoint
 10
846.1687099784684
 20
1134.588722100505
 30
0.0
  0
POINT
  5
2E5A
330
233A
100
AcDbEntity
  8
Defpoints
 62
     0
100
AcDbPoint
 10
846.1687099784684
 20
1031.142229916229
 30
0.0
  0
ENDBLK
  5
2346
330
233A
100
AcDbEntity
  8
0
100
AcDbBlockEnd
  0
BLOCK
  5
2354
330
2348
100
AcDbEntity
  8
0
100
AcDbBlockBegin
  2
*D25
 70
     1
 10
0.0
 20
0.0
 30
0.0
  3
*D25
  1

  0
LINE
  5
2E40
330
2348
100
AcDbEntity
  8
実形
 62
     0
370
    18
100
AcDbLine
 10
846.1687099784684
 20
1069.588722100505
 30
0.0
 11
846.1687099784684
 21
1031.142229916229
 31
0.0
  0
LINE
  5
2E41
330
2348
100
AcDbEntity
  8
実形
 62
     0
370
    18
100
AcDbLine
 10
871.1687099784684
 20
1069.588722100505
 30
0.0
 11
871.1687099784684
 21
1031.142229916229
 31
0.0
  0
LINE
  5
2E42
330
2348
100
AcDbEntity
  8
実形
 62
     0
370
    18
100
AcDbLine
 10
846.1687099784684
 20
1031.142229916229
 30
0.0
 11
871.1687099784684
 21
1031.142229916229
 31
0.0
  0
MTEXT
  5
2E43
330
2348
100
AcDbEntity
  8
実形
 62
     0
100
AcDbMText
 10
903.270193280332
 20
1047.384786912599
 30
0.0
 40
25.0
 41
0.0
 71
     5
 72
     1
  1
25
 73
     1
 44
1.0
1001
ACAD
1000
MTEXTBEGIN
1070
    73
1070
     1
1070
    44
1040
1.0
1070
    74
1070
     0
1000
MTEXTEND
  0
INSERT
  5
2E44
330
2348
100
AcDbEntity
  8
実形
 62
     0
370
    18
100
AcDbBlockReference
  2
_DotSmall
 10
846.1687099784684
 20
1031.142229916229
 30
0.0
 41
35.0
 42
35.0
 43
35.0
 50
180.0
  0
INSERT
  5
2E45
330
2348
100
AcDbEntity
  8
実形
 62
     0
370
    18
100
AcDbBlockReference
  2
_DotSmall
 10
871.1687099784684
 20
1031.142229916229
 30
0.0
 41
35.0
 42
35.0
 43
35.0
  0
POINT
  5
2E46
330
2348
100
AcDbEntity
  8
Defpoints
 62
     0
100
AcDbPoint
 10
846.1687099784684
 20
1134.588722100505
 30
0.0
  0
POINT
  5
2E47
330
2348
100
AcDbEntity
  8
Defpoints
 62
     0
100
AcDbPoint
 10
871.1687099784684
 20
1134.588722100505
 30
0.0
  0
POINT
  5
2E48
330
2348
100
AcDbEntity
  8
Defpoints
 62
     0
100
AcDbPoint
 10
871.1687099784684
 20
1031.142229916229
 30
0.0
  0
ENDBLK
  5
2355
330
2348
100
AcDbEntity
  8
0
100
AcDbBlockEnd
  0
BLOCK
  5
2362
330
2357
100
AcDbEntity
  8
0
100
AcDbBlockBegin
  2
*D26
 70
     1
 10
0.0
 20
0.0
 30
0.0
  3
*D26
  1

  0
LINE
  5
2E2E
330
2357
100
AcDbEntity
  8
実形
 62
     0
370
    18
100
AcDbLine
 10
779.1687099784685
 20
1159.588722100505
 30
0.0
 11
735.231121681707
 21
1159.588722100505
 31
0.0
  0
LINE
  5
2E2F
330
2357
100
AcDbEntity
  8
実形
 62
     0
370
    18
100
AcDbLine
 10
781.1687099784685
 20
1134.588722100505
 30
0.0
 11
735.231121681707
 21
1134.588722100505
 31
0.0
  0
LINE
  5
2E30
330
2357
100
AcDbEntity
  8
実形
 62
     0
370
    18
100
AcDbLine
 10
735.231121681707
 20
1159.588722100505
 30
0.0
 11
735.231121681707
 21
1134.588722100505
 31
0.0
  0
MTEXT
  5
2E31
330
2357
100
AcDbEntity
  8
実形
 62
     0
100
AcDbMText
 10
714.5777061876524
 20
1188.798472956567
 30
0.0
 40
25.0
 41
0.0
 71
     5
 72
     1
  1
25
 11
0.0000000000000001
 21
1.0
 31
0.0
 73
     1
 44
1.0
1001
ACAD
1000
MTEXTBEGIN
1070
    73
1070
     1
1070
    44
1040
1.0
1070
    74
1070
     0
1000
MTEXTEND
  0
INSERT
  5
2E32
330
2357
100
AcDbEntity
  8
実形
 62
     0
370
    18
100
AcDbBlockReference
  2
_DotSmall
 10
735.231121681707
 20
1159.588722100505
 30
0.0
 41
35.0
 42
35.0
 43
35.0
 50
90.0
  0
INSERT
  5
2E33
330
2357
100
AcDbEntity
  8
実形
 62
     0
370
    18
100
AcDbBlockReference
  2
_DotSmall
 10
735.231121681707
 20
1134.588722100505
 30
0.0
 41
35.0
 42
35.0
 43
35.0
 50
270.0
  0
POINT
  5
2E34
330
2357
100
AcDbEntity
  8
Defpoints
 62
     0
100
AcDbPoint
 10
844.1687099784685
 20
1159.588722100505
 30
0.0
  0
POINT
  5
2E35
330
2357
100
AcDbEntity
  8
Defpoints
 62
     0
100
AcDbPoint
 10
846.1687099784684
 20
1134.588722100505
 30
0.0
  0
POINT
  5
2E36
330
2357
100
AcDbEntity
  8
Defpoints
 62
     0
100
AcDbPoint
 10
735.231121681707
 20
1134.588722100505
 30
0.0
  0
ENDBLK
  5
2363
330
2357
100
AcDbEntity
  8
0
100
AcDbBlockEnd
  0
BLOCK
  5
236F
330
2365
100
AcDbEntity
  8
0
100
AcDbBlockBegin
  2
*D27
 70
     1
 10
0.0
 20
0.0
 30
0.0
  3
*D27
  1

  0
LINE
  5
2E25
330
2365
100
AcDbEntity
  8
実形
 62
     0
370
    18
100
AcDbLine
 10
781.1687099784685
 20
1134.588722100505
 30
0.0
 11
735.231121681707
 21
1134.588722100505
 31
0.0
  0
LINE
  5
2E26
330
2365
100
AcDbEntity
  8
実形
 62
     0
370
    18
100
AcDbLine
 10
771.1687099784685
 20
1114.588722100505
 30
0.0
 11
735.231121681707
 21
1114.588722100505
 31
0.0
  0
LINE
  5
2E27
330
2365
100
AcDbEntity
  8
実形
 62
     0
370
    18
100
AcDbLine
 10
735.231121681707
 20
1134.588722100505
 30
0.0
 11
735.231121681707
 21
1114.588722100505
 31
0.0
  0
MTEXT
  5
2E28
330
2365
100
AcDbEntity
  8
実形
 62
     0
100
AcDbMText
 10
717.7730532196383
 20
1081.5361223321
 30
0.0
 40
25.0
 41
0.0
 71
     5
 72
     1
  1
20
 11
0.0000000000000001
 21
1.0
 31
0.0
 73
     1
 44
1.0
1001
ACAD
1000
MTEXTBEGIN
1070
    73
1070
     1
1070
    44
1040
1.0
1070
    74
1070
     0
1000
MTEXTEND
  0
INSERT
  5
2E29
330
2365
100
AcDbEntity
  8
実形
 62
     0
370
    18
100
AcDbBlockReference
  2
_DotSmall
 10
735.231121681707
 20
1134.588722100505
 30
0.0
 41
35.0
 42
35.0
 43
35.0
 50
90.0
  0
INSERT
  5
2E2A
330
2365
100
AcDbEntity
  8
実形
 62
     0
370
    18
100
AcDbBlockReference
  2
_DotSmall
 10
735.231121681707
 20
1114.588722100505
 30
0.0
 41
35.0
 42
35.0
 43
35.0
 50
270.0
  0
POINT
  5
2E2B
330
2365
100
AcDbEntity
  8
Defpoints
 62
     0
100
AcDbPoint
 10
846.1687099784684
 20
1134.588722100505
 30
0.0
  0
POINT
  5
2E2C
330
2365
100
AcDbEntity
  8
Defpoints
 62
     0
100
AcDbPoint
 10
836.1687099784685
 20
1114.588722100505
 30
0.0
  0
POINT
  5
2E2D
330
2365
100
AcDbEntity
  8
Defpoints
 62
     0
100
AcDbPoint
 10
735.231121681707
 20
1114.588722100505
 30
0.0
  0
ENDBLK
  5
2370
330
2365
100
AcDbEntity
  8
0
100
AcDbBlockEnd
  0
BLOCK
  5
286B
330
2861
100
AcDbEntity
  8
0
100
AcDbBlockBegin
  2
*D28
 70
     1
 10
0.0
 20
0.0
 30
0.0
  3
*D28
  1

  0
LINE
  5
2E76
330
2861
100
AcDbEntity
  8
実形
 62
     0
370
    18
100
AcDbLine
 10
1301.168709978468
 20
1067.588722100505
 30
0.0
 11
1301.168709978468
 21
981.6566043304506
 31
0.0
  0
LINE
  5
2E77
330
2861
100
AcDbEntity
  8
実形
 62
     0
370
    18
100
AcDbLine
 10
1516.168709978468
 20
1069.588722100505
 30
0.0
 11
1516.168709978468
 21
981.6566043304506
 31
0.0
  0
LINE
  5
2E78
330
2861
100
AcDbEntity
  8
実形
 62
     0
370
    18
100
AcDbLine
 10
1301.168709978468
 20
981.6566043304506
 30
0.0
 11
1516.168709978468
 21
981.6566043304506
 31
0.0
  0
INSERT
  5
2E79
330
2861
100
AcDbEntity
  8
実形
 62
     0
370
    18
100
AcDbBlockReference
  2
_DotSmall
 10
1301.168709978468
 20
981.6566043304506
 30
0.0
 41
35.0
 42
35.0
 43
35.0
 50
180.0
  0
INSERT
  5
2E7A
330
2861
100
AcDbEntity
  8
実形
 62
     0
370
    18
100
AcDbBlockReference
  2
_DotSmall
 10
1516.168709978468
 20
981.6566043304506
 30
0.0
 41
35.0
 42
35.0
 43
35.0
  0
MTEXT
  5
2E7B
330
2861
100
AcDbEntity
  8
実形
 62
     0
100
AcDbMText
 10
1408.668709978468
 20
1000.40660433045
 30
0.0
 40
25.0
 41
0.0
 71
     5
 72
     1
  1
215
 73
     1
 44
1.0
1001
ACAD
1000
MTEXTBEGIN
1070
    73
1070
     1
1070
    44
1040
1.0
1070
    74
1070
     0
1000
MTEXTEND
  0
POINT
  5
2E7C
330
2861
100
AcDbEntity
  8
Defpoints
 62
     0
100
AcDbPoint
 10
1301.168709978468
 20
1132.588722100505
 30
0.0
  0
POINT
  5
2E7D
330
2861
100
AcDbEntity
  8
Defpoints
 62
     0
100
AcDbPoint
 10
1516.168709978468
 20
1134.588722100505
 30
0.0
  0
POINT
  5
2E7E
330
2861
100
AcDbEntity
  8
Defpoints
 62
     0
100
AcDbPoint
 10
1516.168709978468
 20
981.6566043304506
 30
0.0
  0
ENDBLK
  5
286C
330
2861
100
AcDbEntity
  8
0
100
AcDbBlockEnd
  0
BLOCK
  5
2F48
330
2F36
100
AcDbEntity
  8
0
100
AcDbBlockBegin
  2
A$C454B3D2D
 70
     0
 10
0.0
 20
0.0
 30
0.0
  3
A$C454B3D2D
  1

  0
LINE
  5
2F37
330
2F36
100
AcDbEntity
  8
補助
 62
     0
100
AcDbLine
 10
764.6127110213219
 20
130.0000051959373
 30
0.0
 11
-0.0000024593955459
 21
130.0000051959375
 31
0.0
  0
LINE
  5
2F38
330
2F36
100
AcDbEntity
  8
補助
 62
     0
100
AcDbLine
 10
764.6127110213219
 20
65.00000519593732
 30
0.0
 11
-0.0000024593955459
 21
65.00000519593732
 31
0.0
  0
LINE
  5
2F39
330
2F36
100
AcDbEntity
  8
補助
 62
     0
100
AcDbLine
 10
764.6127110213219
 20
0.0000051959373195
 30
0.0
 11
-0.0000024593955459
 21
0.0000051959373195
 31
0.0
  0
LINE
  5
2F3A
330
2F36
100
AcDbEntity
  8
補助
 62
     0
100
AcDbLine
 10
183.1603644422484
 20
0.0000051959370921
 30
0.0
 11
183.1603644422484
 21
195.0000051959375
 31
0.0
  0
LINE
  5
2F3B
330
2F36
100
AcDbEntity
  8
補助
 62
     0
100
AcDbLine
 10
-0.0000024593955459
 20
0.0000051959370921
 30
0.0
 11
-0.0000024593955459
 21
195.0000051959375
 31
0.0
  0
TEXT
  5
2F3C
330
2F36
100
AcDbEntity
  8
補助
 62
     0
100
AcDbText
 10
30.9084098714427
 20
147.328576624509
 30
0.0
 40
30.0
  1
部品名
  7
明朝
 72
     4
 11
96.73698130001412
 21
162.5000051959375
 31
0.0
100
AcDbText
  0
TEXT
  5
2F3D
330
2F36
100
AcDbEntity
  8
補助
 62
     0
100
AcDbText
 10
608.2269967356077
 20
147.0714337673661
 30
0.0
 40
30.0
  1
厚さ
  7
明朝
 72
     4
 11
652.1127110213219
 21
162.5000051959375
 31
0.0
100
AcDbText
  0
LINE
  5
2F3E
330
2F36
100
AcDbEntity
  8
補助
 62
     0
100
AcDbLine
 10
539.6127110213219
 20
0.0000051959370921
 30
0.0
 11
539.6127110213219
 21
195.0000051959375
 31
0.0
  0
TEXT
  5
2F3F
330
2F36
100
AcDbEntity
  8
補助
 62
     0
100
AcDbText
 10
319.1035809412586
 20
146.9479846740917
 30
0.0
 40
30.0
  1
材質
  7
明朝
 72
     4
 11
362.9892952269729
 21
162.1194132455202
 31
0.0
100
AcDbText
  0
TEXT
  5
2F40
330
2F36
100
AcDbEntity
  8
実形
 62
     0
100
AcDbText
 10
28.84052167910954
 20
81.55714805307994
 30
0.0
 40
30.0
  1
ボウル
  7
明朝
 72
     4
 11
94.66909310768096
 21
97.5000051959371
 31
0.0
100
AcDbText
  0
TEXT
  5
2F41
330
2F36
100
AcDbEntity
  8
実形
 62
     0
100
AcDbText
 10
575.3127110213228
 20
82.84286233879424
 30
0.0
 40
30.0
  1
1.0ｍｍ
  7
明朝
 72
     4
 11
652.1127110213228
 21
97.5000051959371
 31
0.0
100
AcDbText
  0
TEXT
  5
2F42
330
2F36
100
AcDbEntity
  8
実形
 62
     0
100
AcDbText
 10
241.6295801291876
 20
81.72857662450851
 30
0.0
 40
30.0
  1
SUS304（HL）
  7
明朝
 72
     4
 11
373.2867229863304
 21
97.5000051959371
 31
0.0
100
AcDbText
  0
TEXT
  5
2F43
330
2F36
100
AcDbEntity
  8
実形
 62
     0
100
AcDbText
 10
50.78337882196668
 20
17.24286233879423
 30
0.0
 40
30.0
  1
天板
  7
明朝
 72
     4
 11
94.66909310768096
 21
32.50000519593709
 31
0.0
100
AcDbText
  0
TEXT
  5
2F44
330
2F36
100
AcDbEntity
  8
実形
 62
     0
100
AcDbText
 10
575.3127110213228
 20
17.84286233879423
 30
0.0
 40
30.0
  1
1.0ｍｍ
  7
明朝
 72
     4
 11
652.1127110213228
 21
32.50000519593709
 31
0.0
100
AcDbText
  0
TEXT
  5
2F45
330
2F36
100
AcDbEntity
  8
実形
 62
     0
100
AcDbText
 10
241.6295801291876
 20
16.72857662450852
 30
0.0
 40
30.0
  1
SUS304（HL）
  7
明朝
 72
     4
 11
373.2867229863304
 21
32.50000519593709
 31
0.0
100
AcDbText
  0
ENDBLK
  5
2F49
330
2F36
100
AcDbEntity
  8
0
100
AcDbBlockEnd
  0
ENDSEC
  0
SECTION
  2
ENTITIES
  0
LINE
  5
73
330
1F
100
AcDbEntity
  8
0
100
AcDbLine
 10
109.0
 20
4.0
 30
0.0
 11
278.0
 21
4.0
 31
0.0
  0
LINE
  5
9C
330
1F
100
AcDbEntity
  8
補助
100
AcDbLine
 10
109.0
 20
4.0
 30
0.0
 11
2784.0
 21
4.0
 31
0.0
  0
LINE
  5
A0
330
1F
100
AcDbEntity
  8
補助
100
AcDbLine
 10
2784.0
 20
2024.0
 30
0.0
 11
109.0
 21
2024.0
 31
0.0
  0
LINE
  5
A5
330
1F
100
AcDbEntity
  8
補助
100
AcDbLine
 10
2784.0
 20
4.0
 30
0.0
 11
2784.0
 21
2024.0
 31
0.0
  0
LINE
  5
2E6
330
1F
100
AcDbEntity
  8
実形
100
AcDbLine
 10
1521.168709978468
 20
738.0678533777127
 30
0.0
 11
841.1687099784685
 21
738.0678533777127
 31
0.0
  0
LINE
  5
2FE
330
1F
100
AcDbEntity
  8
実形
100
AcDbLine
 10
1770.09504950323
 20
1509.588722100505
 30
0.0
 11
1770.09504950323
 21
1129.588722100505
 31
0.0
  0
LINE
  5
33A
330
1F
100
AcDbEntity
  8
センター
 48
0.5
370
    15
100
AcDbLine
 10
902.0150659387818
 20
1319.588722100505
 30
0.0
 11
1513.756160320167
 21
1319.588722100505
 31
0.0
  0
LINE
  5
33B
330
1F
100
AcDbEntity
  8
センター
 48
0.5
370
    15
100
AcDbLine
 10
1021.168709978468
 20
1454.646656290608
 30
0.0
 11
1021.168709978468
 21
1184.530787910402
 31
0.0
  0
LINE
  5
33C
330
1F
100
AcDbEntity
  8
センター
 48
0.5
370
    15
100
AcDbLine
 10
1021.168709978468
 20
637.2844772531261
 30
0.0
 11
1021.168709978468
 21
480.8686569458259
 31
0.0
  0
LINE
  5
33D
330
1F
100
AcDbEntity
  8
センター
 48
0.5
370
    15
100
AcDbLine
 10
1872.559260824273
 20
1319.588722100505
 30
0.0
 11
1981.470213081335
 21
1319.588722100505
 31
0.0
  0
DIMENSION
  5
35B
330
1F
100
AcDbEntity
  8
実形
100
AcDbDimension
  2
*D4
 10
826.1687099784685
 20
1588.781362074224
 30
0.0
 11
916.4548876152521
 21
1612.059823897723
 31
0.0
 70
   160
 71
     5
 42
195.0
  3
ISO-25
100
AcDbAlignedDimension
 13
1021.168709978468
 23
1440.188735706413
 33
0.0
 14
826.1687099784685
 24
1547.355545041483
 34
0.0
 50
180.0
100
AcDbRotatedDimension
1001
ACAD
1000
DSTYLE
1002
{
1070
    42
1040
10.0
1070
   279
1070
     2
1070
   371
1070
    18
1002
}
  0
DIMENSION
  5
368
330
1F
100
AcDbEntity
  8
実形
100
AcDbDimension
  2
*D5
 10
1618.77172259745
 20
1319.588722100505
 30
0.0
 11
1600.02172259745
 21
1217.088722100505
 31
0.0
 70
    32
 71
     5
 42
205.0
  3
ISO-25
100
AcDbAlignedDimension
 13
1496.908352048033
 23
1114.588722100505
 33
0.0
 14
1428.963639043818
 24
1319.588722100505
 34
0.0
 50
90.0
100
AcDbRotatedDimension
1001
ACAD
1000
DSTYLE
1002
{
1070
   371
1070
    18
1002
}
  0
DIMENSION
  5
3CE
330
1F
100
AcDbEntity
  8
実形
100
AcDbDimension
  2
*D6
 10
667.2311216817078
 20
1479.588722100505
 30
0.0
 11
647.4738965373425
 21
1495.166599233906
 31
0.0
 70
   160
  1
45
 71
     5
 42
45.0
  3
ISO-25
100
AcDbAlignedDimension
 13
844.1687099784685
 23
1524.588722100505
 33
0.0
 14
844.1687099784685
 24
1479.588722100505
 34
0.0
 50
90.0
100
AcDbRotatedDimension
1001
ACAD
1000
DSTYLE
1002
{
1070
   279
1070
     2
1070
   371
1070
    18
1002
}
  0
DIMENSION
  5
3DC
330
1F
100
AcDbEntity
  8
実形
100
AcDbDimension
  2
*D7
 10
667.231121681707
 20
1159.588722100505
 30
0.0
 11
648.4811216817068
 21
1319.588722100505
 31
0.0
 70
    32
 71
     5
 42
320.0
  3
ISO-25
100
AcDbAlignedDimension
 13
844.1687099784685
 23
1479.588722100505
 33
0.0
 14
844.1687099784685
 24
1159.588722100505
 34
0.0
 50
90.0
100
AcDbRotatedDimension
1001
ACAD
1000
DSTYLE
1002
{
1070
   281
1070
     0
1070
   371
1070
    18
1070
   279
1070
     1
1002
}
  0
DIMENSION
  5
3F6
330
1F
100
AcDbEntity
  8
実形
100
AcDbDimension
  2
*D8
 10
599.231121681707
 20
1114.588722100505
 30
0.0
 11
580.4811216817069
 21
1319.588722100505
 31
0.0
 70
    32
 71
     5
 42
410.0
  3
ISO-25
100
AcDbAlignedDimension
 13
844.1687099784685
 23
1524.588722100505
 33
0.0
 14
844.1687099784685
 24
1114.588722100505
 34
0.0
 50
90.0
100
AcDbRotatedDimension
1001
ACAD
1000
DSTYLE
1002
{
1070
   371
1070
    18
1002
}
  0
DIMENSION
  5
44B
330
1F
100
AcDbEntity
  8
実形
100
AcDbDimension
  2
*D9
 10
1301.168709978468
 20
981.6566043304506
 30
0.0
 11
1086.168709978468
 21
1000.40660433045
 31
0.0
 70
    32
 71
     5
 42
430.0
  3
ISO-25
100
AcDbAlignedDimension
 13
871.1687099784684
 23
1132.588722100505
 33
0.0
 14
1301.168709978468
 24
1132.588722100505
 34
0.0
100
AcDbRotatedDimension
1001
ACAD
1000
DSTYLE
1002
{
1070
   371
1070
    18
1070
   279
1070
     1
1002
}
  0
DIMENSION
  5
458
330
1F
100
AcDbEntity
  8
実形
100
AcDbDimension
  2
*D10
 10
1536.168709978468
 20
981.6566043304506
 30
0.0
 11
1509.389148352604
 21
954.8698276678234
 31
0.0
 70
   160
  1
20
 71
     5
 42
20.0
  3
ISO-25
100
AcDbAlignedDimension
 13
1516.168709978468
 23
1134.588722100505
 33
0.0
 14
1536.168709978468
 24
1132.588722100505
 34
0.0
100
AcDbRotatedDimension
1001
ACAD
1000
DSTYLE
1002
{
1070
   281
1070
     0
1070
   371
1070
    18
1070
   279
1070
     2
1002
}
  0
DIMENSION
  5
4A3
330
1F
100
AcDbEntity
  8
実形
100
AcDbDimension
  2
*D11
 10
1536.168709978468
 20
903.864694174581
 30
0.0
 11
1181.168709978468
 21
922.614694174581
 31
0.0
 70
    32
 71
     5
 42
710.0
  3
ISO-25
100
AcDbAlignedDimension
 13
826.1687099784685
 23
1129.588722100505
 33
0.0
 14
1536.168709978468
 24
1129.588722100505
 34
0.0
100
AcDbRotatedDimension
1001
ACAD
1000
DSTYLE
1002
{
1070
   371
1070
    18
1002
}
  0
DIMENSION
  5
4BE
330
1F
100
AcDbEntity
  8
実形
100
AcDbDimension
  2
*D12
 10
1625.060460466175
 20
559.0678533777126
 30
0.0
 11
1625.060460466175
 21
566.5678533777129
 31
0.0
 70
    32
  1
 
 71
     5
 42
15.0
  3
ISO-25
100
AcDbAlignedDimension
 13
1506.168709978468
 23
574.0678533777127
 33
0.0
 14
1506.168709978468
 24
559.0678533777126
 34
0.0
 50
90.0
100
AcDbRotatedDimension
1001
ACAD
1000
DSTYLE
1002
{
1070
   371
1070
    18
1002
}
  0
DIMENSION
  5
4CC
330
1F
100
AcDbEntity
  8
実形
100
AcDbDimension
  2
*D13
 10
1663.801084801057
 20
559.0678533777126
 30
0.0
 11
1645.051084801057
 21
651.067853377713
 31
0.0
 70
    32
 71
     5
 42
184.0000000000001
  3
ISO-25
100
AcDbAlignedDimension
 13
1506.168709978468
 23
743.0678533777128
 33
0.0
 14
1506.168709978468
 24
559.0678533777126
 34
0.0
 50
90.0
100
AcDbRotatedDimension
1001
ACAD
1000
DSTYLE
1002
{
1070
   371
1070
    18
1002
}
  0
TEXT
  5
4F7
330
1F
100
AcDbEntity
  8
実形
100
AcDbText
 10
1628.11416217818
 20
499.7619701744784
 30
0.0
 40
25.0
  1
15
 50
90.0
100
AcDbText
  0
DIMENSION
  5
4F8
330
1F
100
AcDbEntity
  8
実形
100
AcDbDimension
  2
*D14
 10
1065.168709978468
 20
432.6404460766398
 30
0.0
 11
1021.168709978468
 21
451.3904460766398
 31
0.0
 70
    32
 71
     5
 42
88.0
  3
ISO-25
100
AcDbAlignedDimension
 13
977.1687099784685
 23
551.0678533777126
 33
0.0
 14
1065.168709978468
 24
551.0678533777126
 34
0.0
100
AcDbRotatedDimension
1001
ACAD
1000
DSTYLE
1002
{
1070
   371
1070
    18
1002
}
  0
DIMENSION
  5
505
330
1F
100
AcDbEntity
  8
実形
100
AcDbDimension
  2
*D15
 10
1079.168709978468
 20
372.6810475077109
 30
0.0
 11
1021.168709978468
 21
391.4310475077109
 31
0.0
 70
    32
 71
     5
 42
116.0
  3
ISO-25
100
AcDbAlignedDimension
 13
963.1687099784684
 23
551.0678533777126
 33
0.0
 14
1079.168709978468
 24
551.0678533777126
 34
0.0
100
AcDbRotatedDimension
1001
ACAD
1000
DSTYLE
1002
{
1070
   371
1070
    18
1002
}
  0
DIMENSION
  5
532
330
1F
100
AcDbEntity
  8
実形
100
AcDbDimension
  2
*D16
 10
1934.09504950323
 20
981.6566043304506
 30
0.0
 11
1941.59504950323
 21
981.6566043304506
 31
0.0
 70
    32
  1
 
 71
     5
 42
15.0
  3
ISO-25
100
AcDbAlignedDimension
 13
1949.09504950323
 23
1144.588722100505
 33
0.0
 14
1934.09504950323
 24
1144.588722100505
 34
0.0
100
AcDbRotatedDimension
1001
ACAD
1000
DSTYLE
1002
{
1070
   371
1070
    18
1002
}
  0
DIMENSION
  5
548
330
1F
100
AcDbEntity
  8
実形
100
AcDbDimension
  2
*D17
 10
1765.09504950323
 20
901.677194174581
 30
0.0
 11
1857.09504950323
 21
920.427194174581
 31
0.0
 70
    32
 71
     5
 42
184.0
  3
ISO-25
100
AcDbAlignedDimension
 13
1949.09504950323
 23
1129.588722100505
 33
0.0
 14
1765.09504950323
 24
1132.588722100505
 34
0.0
100
AcDbRotatedDimension
1001
ACAD
1000
DSTYLE
1002
{
1070
   371
1070
    18
1002
}
  0
TEXT
  5
555
330
1F
100
AcDbEntity
  8
実形
100
AcDbText
 10
1963.861258406787
 20
987.9412608320313
 30
0.0
 40
25.0
  1
15
100
AcDbText
  0
DIMENSION
  5
569
330
1F
100
AcDbEntity
  8
実形
100
AcDbDimension
  2
*D18
 10
2069.401193595151
 20
1275.588722100505
 30
0.0
 11
2050.65119359515
 21
1319.588722100505
 31
0.0
 70
    32
 71
     5
 42
88.0
  3
ISO-25
100
AcDbAlignedDimension
 13
1957.09504950323
 23
1363.588722100505
 33
0.0
 14
1957.09504950323
 24
1275.588722100505
 34
0.0
 50
90.0
100
AcDbRotatedDimension
1001
ACAD
1000
DSTYLE
1002
{
1070
   371
1070
    18
1002
}
  0
DIMENSION
  5
57F
330
1F
100
AcDbEntity
  8
実形
100
AcDbDimension
  2
*D19
 10
2134.322781559992
 20
1261.588722100505
 30
0.0
 11
2115.572781559992
 21
1319.588722100505
 31
0.0
 70
    32
 71
     5
 42
116.0
  3
ISO-25
100
AcDbAlignedDimension
 13
1957.09504950323
 23
1377.588722100505
 33
0.0
 14
1957.09504950323
 24
1261.588722100505
 34
0.0
 50
90.0
100
AcDbRotatedDimension
1001
ACAD
1000
DSTYLE
1002
{
1070
   371
1070
    18
1002
}
  0
LINE
  5
F27
330
1F
100
AcDbEntity
  8
実形
100
AcDbLine
 10
1521.168709978468
 20
738.0678533777127
 30
0.0
 11
841.1687099784685
 21
738.0678533777127
 31
0.0
  0
LINE
  5
1238
330
1F
100
AcDbEntity
  8
実形
100
AcDbLine
 10
826.1687099784685
 20
738.0678533777127
 30
0.0
 11
1536.168709978468
 21
738.0678533777127
 31
0.0
  0
LINE
  5
12A9
330
1F
100
AcDbEntity
  8
実形
100
AcDbLine
 10
1770.09504950323
 20
1509.588722100505
 30
0.0
 11
1770.09504950323
 21
1129.588722100505
 31
0.0
  0
DIMENSION
  5
173D
330
1F
100
AcDbEntity
  8
実形
100
AcDbDimension
  2
*D20
 10
826.1687099784685
 20
981.6566043304506
 30
0.0
 11
857.7183911804986
 21
948.2897564528412
 31
0.0
 70
   160
  1
45
 71
     5
 42
45.0
  3
ISO-25
100
AcDbAlignedDimension
 13
871.1687099784684
 23
1132.588722100505
 33
0.0
 14
826.1687099784685
 24
1132.588722100505
 34
0.0
100
AcDbRotatedDimension
1001
ACAD
1000
DSTYLE
1002
{
1070
   279
1070
     2
1070
   282
1070
     0
1070
   281
1070
     0
1070
   371
1070
    18
1070
   372
1070
    18
1002
}
  0
DIMENSION
  5
17AE
330
1F
100
AcDbEntity
  8
実形
100
AcDbDimension
  2
*D21
 10
667.2311216817072
 20
1114.588722100505
 30
0.0
 11
644.5728274210004
 21
1142.420751412925
 31
0.0
 70
   160
  1
45
 71
     5
 42
45.0
  3
ISO-25
100
AcDbAlignedDimension
 13
844.1687099784685
 23
1159.588722100505
 33
0.0
 14
844.1687099784685
 24
1114.588722100505
 34
0.0
 50
90.0
100
AcDbRotatedDimension
1001
ACAD
1000
DSTYLE
1002
{
1070
   279
1070
     2
1070
   371
1070
    18
1070
   372
1070
    18
1002
}
  0
LINE
  5
1877
330
1F
100
AcDbEntity
  8
実形
100
AcDbLine
 10
846.1687099784684
 20
1474.588722100505
 30
0.0
 11
846.1687099784684
 21
1164.588722100505
 31
0.0
  0
LINE
  5
1878
330
1F
100
AcDbEntity
  8
実形
100
AcDbLine
 10
876.1687099784685
 20
1134.588722100505
 30
0.0
 11
1486.168709978468
 21
1134.588722100505
 31
0.0
  0
LINE
  5
1879
330
1F
100
AcDbEntity
  8
実形
100
AcDbLine
 10
1516.168709978468
 20
1164.588722100505
 30
0.0
 11
1516.168709978468
 21
1474.588722100505
 31
0.0
  0
LINE
  5
187A
330
1F
100
AcDbEntity
  8
実形
100
AcDbLine
 10
1486.168709978468
 20
1504.588722100505
 30
0.0
 11
876.1687099784685
 21
1504.588722100505
 31
0.0
  0
LINE
  5
187B
330
1F
100
AcDbEntity
  8
実形
100
AcDbLine
 10
836.1687099784685
 20
1524.588722100505
 30
0.0
 11
1526.168709978468
 21
1524.588722100505
 31
0.0
  0
LINE
  5
187C
330
1F
100
AcDbEntity
  8
実形
100
AcDbLine
 10
1536.168709978468
 20
1514.588722100505
 30
0.0
 11
1536.168709978468
 21
1124.588722100505
 31
0.0
  0
LINE
  5
187D
330
1F
100
AcDbEntity
  8
実形
100
AcDbLine
 10
1526.168709978468
 20
1114.588722100505
 30
0.0
 11
836.1687099784685
 21
1114.588722100505
 31
0.0
  0
LINE
  5
187E
330
1F
100
AcDbEntity
  8
実形
100
AcDbLine
 10
826.1687099784685
 20
1124.588722100505
 30
0.0
 11
826.1687099784685
 21
1514.588722100505
 31
0.0
  0
ARC
  5
187F
330
1F
100
AcDbEntity
  8
実形
100
AcDbCircle
 10
1486.168709978468
 20
1164.588722100505
 30
0.0
 40
30.0
100
AcDbArc
 50
270.0
 51
0.0
  0
ARC
  5
1880
330
1F
100
AcDbEntity
  8
実形
100
AcDbCircle
 10
1486.168709978468
 20
1474.588722100505
 30
0.0
 40
30.0
100
AcDbArc
 50
0.0
 51
90.0
  0
ARC
  5
1881
330
1F
100
AcDbEntity
  8
実形
100
AcDbCircle
 10
876.1687099784685
 20
1474.588722100505
 30
0.0
 40
30.0
100
AcDbArc
 50
90.00000000000005
 51
180.0
  0
ARC
  5
1882
330
1F
100
AcDbEntity
  8
実形
100
AcDbCircle
 10
876.1687099784685
 20
1164.588722100505
 30
0.0
 40
30.0
100
AcDbArc
 50
180.0
 51
270.0000000000001
  0
ARC
  5
1883
330
1F
100
AcDbEntity
  8
実形
100
AcDbCircle
 10
836.1687099784685
 20
1124.588722100505
 30
0.0
 40
10.0
100
AcDbArc
 50
180.0
 51
270.0
  0
ARC
  5
1884
330
1F
100
AcDbEntity
  8
実形
100
AcDbCircle
 10
836.1687099784685
 20
1514.588722100505
 30
0.0
 40
10.0
100
AcDbArc
 50
90.0
 51
180.0
  0
ARC
  5
1885
330
1F
100
AcDbEntity
  8
実形
100
AcDbCircle
 10
1526.168709978468
 20
1514.588722100505
 30
0.0
 40
10.0
100
AcDbArc
 50
0.0
 51
90.0
  0
ARC
  5
1886
330
1F
100
AcDbEntity
  8
実形
100
AcDbCircle
 10
1526.168709978468
 20
1124.588722100505
 30
0.0
 40
10.0
100
AcDbArc
 50
270.0
 51
0.0
  0
LINE
  5
1887
330
1F
100
AcDbEntity
  8
実形
100
AcDbLine
 10
836.1687099784685
 20
1519.588722100505
 30
0.0
 11
1526.168709978468
 21
1519.588722100505
 31
0.0
  0
ARC
  5
1888
330
1F
100
AcDbEntity
  8
実形
100
AcDbCircle
 10
1526.168709978468
 20
1514.588722100505
 30
0.0
 40
5.0
100
AcDbArc
 50
0.0
 51
90.0
  0
LINE
  5
1889
330
1F
100
AcDbEntity
  8
実形
100
AcDbLine
 10
1531.168709978468
 20
1514.588722100505
 30
0.0
 11
1531.168709978468
 21
1124.588722100505
 31
0.0
  0
ARC
  5
188A
330
1F
100
AcDbEntity
  8
実形
100
AcDbCircle
 10
1526.168709978468
 20
1124.588722100505
 30
0.0
 40
5.0
100
AcDbArc
 50
270.0
 51
0.0
  0
LINE
  5
188B
330
1F
100
AcDbEntity
  8
実形
100
AcDbLine
 10
1526.168709978468
 20
1119.588722100505
 30
0.0
 11
836.1687099784685
 21
1119.588722100505
 31
0.0
  0
ARC
  5
188C
330
1F
100
AcDbEntity
  8
実形
100
AcDbCircle
 10
836.1687099784685
 20
1124.588722100505
 30
0.0
 40
5.0
100
AcDbArc
 50
180.0
 51
270.0
  0
LINE
  5
188D
330
1F
100
AcDbEntity
  8
実形
100
AcDbLine
 10
831.1687099784686
 20
1124.588722100505
 30
0.0
 11
831.1687099784686
 21
1514.588722100505
 31
0.0
  0
ARC
  5
188E
330
1F
100
AcDbEntity
  8
実形
100
AcDbCircle
 10
836.1687099784685
 20
1514.588722100505
 30
0.0
 40
5.0
100
AcDbArc
 50
90.0
 51
180.0
  0
LINE
  5
188F
330
1F
100
AcDbEntity
  8
実形
100
AcDbLine
 10
1486.168709978468
 20
1509.588722100505
 30
0.0
 11
876.1687099784685
 21
1509.588722100505
 31
0.0
  0
ARC
  5
1890
330
1F
100
AcDbEntity
  8
実形
100
AcDbCircle
 10
1486.168709978468
 20
1474.588722100505
 30
0.0
 40
35.0
100
AcDbArc
 50
0.0
 51
90.0
  0
LINE
  5
1891
330
1F
100
AcDbEntity
  8
実形
100
AcDbLine
 10
1521.168709978468
 20
1164.588722100505
 30
0.0
 11
1521.168709978468
 21
1474.588722100505
 31
0.0
  0
ARC
  5
1892
330
1F
100
AcDbEntity
  8
実形
100
AcDbCircle
 10
1486.168709978468
 20
1164.588722100505
 30
0.0
 40
35.0
100
AcDbArc
 50
270.0
 51
0.0
  0
LINE
  5
1893
330
1F
100
AcDbEntity
  8
実形
100
AcDbLine
 10
876.1687099784685
 20
1129.588722100505
 30
0.0
 11
1486.168709978468
 21
1129.588722100505
 31
0.0
  0
ARC
  5
1894
330
1F
100
AcDbEntity
  8
実形
100
AcDbCircle
 10
876.1687099784685
 20
1164.588722100505
 30
0.0
 40
35.0
100
AcDbArc
 50
180.0
 51
270.0000000000001
  0
LINE
  5
1895
330
1F
100
AcDbEntity
  8
実形
100
AcDbLine
 10
841.1687099784685
 20
1474.588722100505
 30
0.0
 11
841.1687099784685
 21
1164.588722100505
 31
0.0
  0
ARC
  5
1896
330
1F
100
AcDbEntity
  8
実形
100
AcDbCircle
 10
876.1687099784685
 20
1474.588722100505
 30
0.0
 40
35.0
100
AcDbArc
 50
90.00000000000005
 51
180.0
  0
LINE
  5
18A0
330
1F
100
AcDbEntity
  8
実形
100
AcDbLine
 10
831.1687099784686
 20
743.0678533777126
 30
0.0
 11
1531.168709978468
 21
743.0678533777126
 31
0.0
  0
LINE
  5
18A1
330
1F
100
AcDbEntity
  8
実形
100
AcDbLine
 10
1531.168709978468
 20
743.0678533777126
 30
0.0
 11
1536.168709978468
 21
738.0678533777127
 31
0.0
  0
LINE
  5
18A2
330
1F
100
AcDbEntity
  8
実形
100
AcDbLine
 10
831.1687099784686
 20
743.0678533777126
 30
0.0
 11
826.1687099784685
 21
738.0678533777127
 31
0.0
  0
LINE
  5
18B3
330
1F
100
AcDbEntity
  8
実形
100
AcDbLine
 10
839.1687099784686
 20
738.0678533777127
 30
0.0
 11
839.1687099784686
 21
728.0678533777127
 31
0.0
  0
LINE
  5
18B4
330
1F
100
AcDbEntity
  8
実形
100
AcDbLine
 10
839.1687099784686
 20
728.0678533777127
 30
0.0
 11
1523.168709978468
 21
728.0678533777127
 31
0.0
  0
LINE
  5
18B5
330
1F
100
AcDbEntity
  8
実形
100
AcDbLine
 10
1523.168709978468
 20
728.0678533777127
 30
0.0
 11
1523.168709978468
 21
738.0678533777127
 31
0.0
  0
LINE
  5
18B7
330
1F
100
AcDbEntity
  8
実形
100
AcDbLine
 10
1780.09504950323
 20
1511.588722100505
 30
0.0
 11
1780.09504950323
 21
1127.588722100505
 31
0.0
  0
LINE
  5
18B8
330
1F
100
AcDbEntity
  8
実形
100
AcDbLine
 10
1765.09504950323
 20
1519.588722100505
 30
0.0
 11
1765.09504950323
 21
1119.588722100505
 31
0.0
  0
LINE
  5
18B9
330
1F
100
AcDbEntity
  8
実形
100
AcDbLine
 10
1770.09504950323
 20
1524.588722100505
 30
0.0
 11
1770.09504950323
 21
1114.588722100505
 31
0.0
  0
LINE
  5
18BA
330
1F
100
AcDbEntity
  8
実形
100
AcDbLine
 10
1770.09504950323
 20
1129.588722100505
 30
0.0
 11
1770.09504950323
 21
1509.588722100505
 31
0.0
  0
LINE
  5
18BB
330
1F
100
AcDbEntity
  8
実形
100
AcDbLine
 10
1770.09504950323
 20
1129.588722100505
 30
0.0
 11
1770.09504950323
 21
1509.588722100505
 31
0.0
  0
LINE
  5
18BC
330
1F
100
AcDbEntity
  8
実形
100
AcDbLine
 10
1780.09504950323
 20
1127.588722100505
 30
0.0
 11
1770.09504950323
 21
1127.588722100505
 31
0.0
  0
LINE
  5
18BD
330
1F
100
AcDbEntity
  8
実形
100
AcDbLine
 10
1765.09504950323
 20
1119.588722100505
 30
0.0
 11
1770.09504950323
 21
1114.588722100505
 31
0.0
  0
LINE
  5
18BE
330
1F
100
AcDbEntity
  8
実形
100
AcDbLine
 10
1770.09504950323
 20
1511.588722100505
 30
0.0
 11
1780.09504950323
 21
1511.588722100505
 31
0.0
  0
LINE
  5
18BF
330
1F
100
AcDbEntity
  8
実形
100
AcDbLine
 10
1765.09504950323
 20
1519.588722100505
 30
0.0
 11
1770.09504950323
 21
1524.588722100505
 31
0.0
  0
DIMENSION
  5
22EC
330
1F
100
AcDbEntity
  8
実形
100
AcDbDimension
  2
*D22
 10
735.231121681707
 20
1504.588722100505
 30
0.0
 11
715.3872464765036
 21
1549.057514489794
 31
0.0
 70
   160
 71
     5
 42
20.0
  3
ISO-25
100
AcDbAlignedDimension
 13
844.1687099784685
 23
1524.588722100505
 33
0.0
 14
846.1687099784684
 24
1504.588722100505
 34
0.0
 50
90.0
100
AcDbRotatedDimension
1001
ACAD
1000
DSTYLE
1002
{
1070
   279
1070
     2
1070
   371
1070
    18
1070
   372
1070
    18
1002
}
  0
DIMENSION
  5
22FA
330
1F
100
AcDbEntity
  8
実形
100
AcDbDimension
  2
*D23
 10
735.231121681707
 20
1479.588722100505
 30
0.0
 11
719.3821463976373
 21
1455.247400896839
 31
0.0
 70
   160
 71
     5
 42
25.0
  3
ISO-25
100
AcDbAlignedDimension
 13
846.1687099784684
 23
1504.588722100505
 33
0.0
 14
844.1687099784685
 24
1479.588722100505
 34
0.0
 50
90.0
100
AcDbRotatedDimension
1001
ACAD
1000
DSTYLE
1002
{
1070
   279
1070
     2
1070
   371
1070
    18
1070
   372
1070
    18
1002
}
  0
DIMENSION
  5
2339
330
1F
100
AcDbEntity
  8
実形
100
AcDbDimension
  2
*D24
 10
846.1687099784684
 20
1031.142229916229
 30
0.0
 11
798.4474209274794
 21
1046.990769696234
 31
0.0
 70
   160
 71
     5
 42
20.0
  3
ISO-25
100
AcDbAlignedDimension
 13
826.1687099784685
 23
1134.588722100505
 33
0.0
 14
846.1687099784684
 24
1134.588722100505
 34
0.0
100
AcDbRotatedDimension
1001
ACAD
1000
DSTYLE
1002
{
1070
   279
1070
     2
1070
   371
1070
    18
1070
   372
1070
    18
1002
}
  0
DIMENSION
  5
2347
330
1F
100
AcDbEntity
  8
実形
100
AcDbDimension
  2
*D25
 10
871.1687099784684
 20
1031.142229916229
 30
0.0
 11
903.270193280332
 21
1047.384786912599
 31
0.0
 70
   160
 71
     5
 42
25.0
  3
ISO-25
100
AcDbAlignedDimension
 13
846.1687099784684
 23
1134.588722100505
 33
0.0
 14
871.1687099784684
 24
1134.588722100505
 34
0.0
100
AcDbRotatedDimension
1001
ACAD
1000
DSTYLE
1002
{
1070
   279
1070
     2
1070
   371
1070
    18
1070
   372
1070
    18
1002
}
  0
DIMENSION
  5
2356
330
1F
100
AcDbEntity
  8
実形
100
AcDbDimension
  2
*D26
 10
735.231121681707
 20
1134.588722100505
 30
0.0
 11
714.5777061876524
 21
1188.798472956567
 31
0.0
 70
   160
 71
     5
 42
25.0
  3
ISO-25
100
AcDbAlignedDimension
 13
844.1687099784685
 23
1159.588722100505
 33
0.0
 14
846.1687099784684
 24
1134.588722100505
 34
0.0
 50
90.0
100
AcDbRotatedDimension
1001
ACAD
1000
DSTYLE
1002
{
1070
   279
1070
     2
1070
   371
1070
    18
1070
   372
1070
    18
1002
}
  0
DIMENSION
  5
2364
330
1F
100
AcDbEntity
  8
実形
100
AcDbDimension
  2
*D27
 10
735.231121681707
 20
1114.588722100505
 30
0.0
 11
717.7730532196383
 21
1081.5361223321
 31
0.0
 70
   160
 71
     5
 42
20.0
  3
ISO-25
100
AcDbAlignedDimension
 13
846.1687099784684
 23
1134.588722100505
 33
0.0
 14
836.1687099784685
 24
1114.588722100505
 34
0.0
 50
90.0
100
AcDbRotatedDimension
1001
ACAD
1000
DSTYLE
1002
{
1070
   279
1070
     2
1070
   371
1070
    18
1070
   372
1070
    18
1002
}
  0
DIMENSION
  5
2860
330
1F
100
AcDbEntity
  8
実形
100
AcDbDimension
  2
*D28
 10
1516.168709978468
 20
981.6566043304506
 30
0.0
 11
1408.668709978468
 21
1000.40660433045
 31
0.0
 70
    32
 71
     5
 42
215.0
  3
ISO-25
100
AcDbAlignedDimension
 13
1301.168709978468
 23
1132.588722100505
 33
0.0
 14
1516.168709978468
 24
1134.588722100505
 34
0.0
100
AcDbRotatedDimension
1001
ACAD
1000
DSTYLE
1002
{
1070
   371
1070
    18
1070
   372
1070
    18
1002
}
  0
CIRCLE
  5
2B77
330
1F
100
AcDbEntity
  8
実形
100
AcDbCircle
 10
1021.168709978468
 20
1319.588722100505
 30
0.0
 40
44.0
  0
CIRCLE
  5
2B78
330
1F
100
AcDbEntity
  8
実形
100
AcDbCircle
 10
1021.168709978468
 20
1319.588722100505
 30
0.0
 40
58.0
  0
LINE
  5
2B87
330
1F
100
AcDbEntity
  8
実形
100
AcDbLine
 10
871.1687099784684
 20
728.0678533777127
 30
0.0
 11
871.1687099784686
 21
599.5726813204109
 31
0.0
  0
LINE
  5
2B88
330
1F
100
AcDbEntity
  8
実形
100
AcDbLine
 10
896.3411507011151
 20
569.9636510859768
 30
0.0
 11
963.1687099784684
 21
559.0678533777126
 31
0.0
  0
LINE
  5
2B89
330
1F
100
AcDbEntity
  8
実形
100
AcDbLine
 10
963.1687099784684
 20
559.0678533777126
 30
0.0
 11
1079.168709978468
 21
559.0678533777126
 31
0.0
  0
LINE
  5
2B8A
330
1F
100
AcDbEntity
  8
実形
100
AcDbLine
 10
1079.168709978468
 20
559.0678533777126
 30
0.0
 11
1273.191125718238
 21
572.1774760628322
 31
0.0
  0
LINE
  5
2B8B
330
1F
100
AcDbEntity
  8
実形
100
AcDbLine
 10
1301.168709978468
 20
602.109229011424
 30
0.0
 11
1301.168709978468
 21
728.0678533777127
 31
0.0
  0
LINE
  5
2B8C
330
1F
100
AcDbEntity
  8
実形
100
AcDbLine
 10
1079.168709978468
 20
559.0678533777126
 30
0.0
 11
1079.168709978468
 21
551.0678533777126
 31
0.0
  0
LINE
  5
2B8D
330
1F
100
AcDbEntity
  8
実形
100
AcDbLine
 10
1079.168709978468
 20
551.0678533777126
 30
0.0
 11
963.1687099784684
 21
551.0678533777126
 31
0.0
  0
LINE
  5
2B8E
330
1F
100
AcDbEntity
  8
実形
100
AcDbLine
 10
963.1687099784684
 20
551.0678533777126
 30
0.0
 11
963.1687099784684
 21
559.0678533777126
 31
0.0
  0
LINE
  5
2BB8
330
1F
100
AcDbEntity
  8
実形
100
AcDbLine
 10
1780.09504950323
 20
1479.588722100505
 30
0.0
 11
1908.184154895984
 21
1479.588722100505
 31
0.0
  0
LINE
  5
2BB9
330
1F
100
AcDbEntity
  8
実形
100
AcDbLine
 10
1937.86492895693
 20
1453.95354181535
 30
0.0
 11
1949.09504950323
 21
1377.588722100505
 31
0.0
  0
LINE
  5
2BBA
330
1F
100
AcDbEntity
  8
実形
100
AcDbLine
 10
1949.09504950323
 20
1377.588722100505
 30
0.0
 11
1949.09504950323
 21
1261.588722100505
 31
0.0
  0
LINE
  5
2BBB
330
1F
100
AcDbEntity
  8
実形
100
AcDbLine
 10
1949.09504950323
 20
1261.588722100505
 30
0.0
 11
1937.86492895693
 21
1185.22390238566
 31
0.0
  0
LINE
  5
2BBC
330
1F
100
AcDbEntity
  8
実形
100
AcDbLine
 10
1908.184154895984
 20
1159.588722100505
 30
0.0
 11
1770.09504950323
 21
1159.588722100505
 31
0.0
  0
LINE
  5
2BBD
330
1F
100
AcDbEntity
  8
実形
100
AcDbLine
 10
1949.09504950323
 20
1377.588722100505
 30
0.0
 11
1957.09504950323
 21
1377.588722100505
 31
0.0
  0
LINE
  5
2BBE
330
1F
100
AcDbEntity
  8
実形
100
AcDbLine
 10
1957.09504950323
 20
1377.588722100505
 30
0.0
 11
1957.09504950323
 21
1261.588722100505
 31
0.0
  0
ARC
  5
2BE8
330
1F
100
AcDbEntity
  8
実形
100
AcDbCircle
 10
1871.168709978469
 20
1319.588722100505
 30
0.0
 40
1000.0
100
AcDbArc
 50
174.0880137346724
 51
185.9119862653275
  0
ARC
  5
2BED
330
1F
100
AcDbEntity
  8
実形
100
AcDbCircle
 10
1086.168709978468
 20
4759.588722100505
 30
0.0
 40
3600.0
100
AcDbArc
 50
267.5714789433942
 51
272.4285210566058
  0
ARC
  5
2BEE
330
1F
100
AcDbEntity
  8
実形
100
AcDbCircle
 10
301.1687099784686
 20
1319.588722100505
 30
0.0
 40
1000.0
100
AcDbArc
 50
354.0880137346724
 51
5.911986265327565
  0
ARC
  5
2BEF
330
1F
100
AcDbEntity
  8
実形
100
AcDbCircle
 10
1086.168709978468
 20
-2120.411277899495
 30
0.0
 40
3600.0
100
AcDbArc
 50
87.57147894339416
 51
92.42852105660583
  0
ARC
  5
2BF0
330
1F
100
AcDbEntity
  8
実形
100
AcDbCircle
 10
936.1682962755226
 20
1416.409310692601
 30
0.0
 40
60.0
100
AcDbArc
 50
92.42852105660523
 51
174.0880137346723
  0
ARC
  5
2BF1
330
1F
100
AcDbEntity
  8
実形
100
AcDbCircle
 10
936.1682962755226
 20
1222.768133508408
 30
0.0
 40
60.0
100
AcDbArc
 50
185.9119862653275
 51
267.5714789433948
  0
ARC
  5
2BF2
330
1F
100
AcDbEntity
  8
実形
100
AcDbCircle
 10
1236.169123681414
 20
1222.768133508408
 30
0.0
 40
60.0
100
AcDbArc
 50
272.4285210566038
 51
354.0880137346721
  0
ARC
  5
2BF3
330
1F
100
AcDbEntity
  8
実形
100
AcDbCircle
 10
1236.169123681414
 20
1416.409310692601
 30
0.0
 40
60.0
100
AcDbArc
 50
5.911986265327517
 51
87.57147894339444
  0
ARC
  5
2BF4
330
1F
100
AcDbEntity
  8
実形
100
AcDbCircle
 10
901.1687099784687
 20
599.5726813204109
 30
0.0
 40
30.0
100
AcDbArc
 50
180.0
 51
260.7397784688286
  0
ARC
  5
2BF5
330
1F
100
AcDbEntity
  8
実形
100
AcDbCircle
 10
1271.168709978468
 20
602.109229011424
 30
0.0
 40
30.0
100
AcDbArc
 50
273.8654611698517
 51
0.0
  0
ARC
  5
2BF6
330
1F
100
AcDbEntity
  8
実形
100
AcDbCircle
 10
1908.184154895984
 20
1189.588722100505
 30
0.0
 40
30.0
100
AcDbArc
 50
270.0
 51
351.6341138759675
  0
ARC
  5
2BF7
330
1F
100
AcDbEntity
  8
実形
100
AcDbCircle
 10
1908.184154895984
 20
1449.588722100505
 30
0.0
 40
30.0
100
AcDbArc
 50
8.365886124032579
 51
90.0
  0
LINE
  5
2BF8
330
1F
100
AcDbEntity
  8
実形
100
AcDbLine
 10
1957.09504950323
 20
1261.588722100505
 30
0.0
 11
1957.09504950323
 21
1261.588722100505
 31
0.0
  0
LINE
  5
2BF9
330
1F
100
AcDbEntity
  8
実形
100
AcDbLine
 10
1957.09504950323
 20
1261.588722100505
 30
0.0
 11
1949.09504950323
 21
1261.588722100505
 31
0.0
  0
LINE
  5
2C95
330
1F
100
AcDbEntity
  8
補助
100
AcDbLine
 10
1894.0
 20
2024.0
 30
0.0
 11
2784.0
 21
2024.0
 31
0.0
  0
LINE
  5
2CA2
330
1F
100
AcDbEntity
  8
補助
100
AcDbLine
 10
2784.0
 20
1829.0
 30
0.0
 11
2784.0
 21
2024.0
 31
0.0
  0
LINE
  5
2CA3
330
1F
100
AcDbEntity
  8
補助
100
AcDbLine
 10
2784.0
 20
2024.0
 30
0.0
 11
2784.000000000001
 21
1829.0
 31
0.0
  0
TEXT
  5
2CA4
330
1F
100
AcDbEntity
  8
0
100
AcDbText
 10
363.2991915588209
 20
127.2997766317869
 30
0.0
 40
30.0
  1
※オーバーシンクの穴あけは片側－７mm（全体で－１４mm）、４角３Rにてお願いします。
100
AcDbText
  0
TEXT
  5
2CA5
330
1F
100
AcDbEntity
  8
0
100
AcDbText
 10
363.2991915588209
 20
65.32511254901715
 30
0.0
 40
30.0
  1
※アンダーシンクとしての穴あけ加工はかぶり寸法を考慮して現物合わせにてお願いします。
100
AcDbText
  0
TEXT
  5
2CA6
330
1F
100
AcDbEntity
  8
補助
100
AcDbText
 10
2086.666666666667
 20
84.0
 30
0.0
 40
35.0
  1
尺度
 72
     4
 11
2124.0
 21
101.5
 31
0.0
100
AcDbText
  0
TEXT
  5
2CA7
330
1F
100
AcDbEntity
  8
補助
100
AcDbText
 10
2086.666666666667
 20
149.0
 30
0.0
 40
35.0
  1
品番
 72
     4
 11
2124.0
 21
166.5
 31
0.0
100
AcDbText
  0
LINE
  5
2CA8
330
1F
100
AcDbEntity
  8
補助
100
AcDbLine
 10
2064.0
 20
69.0
 30
0.0
 11
2784.0
 21
69.0
 31
0.0
  0
LINE
  5
2CA9
330
1F
100
AcDbEntity
  8
補助
100
AcDbLine
 10
2064.0
 20
199.0
 30
0.0
 11
2784.0
 21
199.0
 31
0.0
  0
LINE
  5
2CAA
330
1F
100
AcDbEntity
  8
補助
100
AcDbLine
 10
2064.0
 20
134.0
 30
0.0
 11
2784.0
 21
134.0
 31
0.0
  0
LINE
  5
2CAB
330
1F
100
AcDbEntity
  8
補助
100
AcDbLine
 10
2064.0
 20
4.0
 30
0.0
 11
2064.0
 21
199.0
 31
0.0
  0
TEXT
  5
2CAC
330
1F
100
AcDbEntity
  8
補助
100
AcDbText
 10
2300.255774665348
 20
16.49999999999999
 30
0.0
 40
40.0
  1
中外交易株式会社
 72
     4
 11
2488.255774665347
 21
36.5
 31
0.0
100
AcDbText
  0
LINE
  5
2CAD
330
1F
100
AcDbEntity
  8
補助
100
AcDbLine
 10
2184.0
 20
69.0
 30
0.0
 11
2784.0
 21
69.0
 31
0.0
  0
TEXT
  5
2CAE
330
1F
100
AcDbEntity
  8
0
100
AcDbText
 10
2314.833333333334
 20
149.0
 30
0.0
 40
35.0
  1
YME710-410K
 72
     4
 11
2484.0
 21
166.5
 31
0.0
100
AcDbText
  0
LINE
  5
2CAF
102
{ACAD_REACTORS
330
2CBC
102
}
330
1F
100
AcDbEntity
  8
補助
370
     5
100
AcDbLine
 10
2207.843923164362
 20
40.53787547858519
 30
0.0
 11
2183.255774665347
 21
40.53787547858519
 31
0.0
  0
LINE
  5
2CB0
102
{ACAD_REACTORS
330
2CBC
102
}
330
1F
100
AcDbEntity
  8
補助
370
     5
100
AcDbLine
 10
2183.255774665347
 20
40.53787547858519
 30
0.0
 11
2183.255774665347
 21
30.53787547858519
 31
0.0
  0
LINE
  5
2CB1
102
{ACAD_REACTORS
330
2CBC
102
}
330
1F
100
AcDbEntity
  8
補助
370
     5
100
AcDbLine
 10
2183.255774665347
 20
30.53787547858519
 30
0.0
 11
2207.346428692676
 21
30.53787547858519
 31
0.0
  0
LINE
  5
2CB2
102
{ACAD_REACTORS
330
2CBC
102
}
330
1F
100
AcDbEntity
  8
補助
370
     5
100
AcDbLine
 10
2210.641894042939
 20
56.5
 30
0.0
 11
2210.641894042939
 21
16.5
 31
0.0
  0
LINE
  5
2CB3
102
{ACAD_REACTORS
330
2CBC
102
}
330
1F
100
AcDbEntity
  8
補助
370
     5
100
AcDbLine
 10
2210.641894042939
 20
16.5
 30
0.0
 11
2245.64189404294
 21
16.5
 31
0.0
  0
LINE
  5
2CB4
102
{ACAD_REACTORS
330
2CBC
102
}
330
1F
100
AcDbEntity
  8
補助
370
     5
100
AcDbLine
 10
2245.64189404294
 20
16.5
 30
0.0
 11
2210.641894042939
 21
36.5
 31
0.0
  0
LINE
  5
2CB5
102
{ACAD_REACTORS
330
2CBC
102
}
330
1F
100
AcDbEntity
  8
補助
370
     5
100
AcDbLine
 10
2210.641894042939
 20
36.5
 30
0.0
 11
2245.64189404294
 21
56.5
 31
0.0
  0
LINE
  5
2CB6
102
{ACAD_REACTORS
330
2CBC
102
}
330
1F
100
AcDbEntity
  8
補助
370
     5
100
AcDbLine
 10
2245.64189404294
 20
56.5
 30
0.0
 11
2210.641894042939
 21
56.5
 31
0.0
  0
LINE
  5
2CB7
102
{ACAD_REACTORS
330
2CBC
102
}
330
1F
100
AcDbEntity
  8
補助
370
     5
100
AcDbLine
 10
2276.75434681301
 20
40.53787547858519
 30
0.0
 11
2252.166198313995
 21
40.53787547858519
 31
0.0
  0
LINE
  5
2CB8
102
{ACAD_REACTORS
330
2CBC
102
}
330
1F
100
AcDbEntity
  8
補助
370
     5
100
AcDbLine
 10
2252.166198313995
 20
40.53787547858519
 30
0.0
 11
2252.166198313995
 21
30.53787547858519
 31
0.0
  0
LINE
  5
2CB9
102
{ACAD_REACTORS
330
2CBC
102
}
330
1F
100
AcDbEntity
  8
補助
370
     5
100
AcDbLine
 10
2252.166198313995
 20
30.53787547858519
 30
0.0
 11
2276.256852341323
 21
30.53787547858519
 31
0.0
  0
ARC
  5
2CBA
102
{ACAD_REACTORS
330
2CBC
102
}
330
1F
100
AcDbEntity
  8
補助
370
     5
100
AcDbCircle
 10
2188.255774665348
 20
36.5
 30
0.0
 40
20.0
100
AcDbArc
 50
11.64772366707613
 51
342.6561058784706
  0
ARC
  5
2CBB
102
{ACAD_REACTORS
330
2CBC
102
}
330
1F
100
AcDbEntity
  8
補助
370
     5
100
AcDbCircle
 10
2257.166198313996
 20
36.5
 30
0.0
 40
20.0
100
AcDbArc
 50
11.64772366707613
 51
342.6561058784706
  0
HATCH
  5
2CBC
330
1F
100
AcDbEntity
  8
補助
100
AcDbHatch
 10
0.0
 20
0.0
 30
0.0
210
0.0
220
0.0
230
1.0
  2
SOLID
 70
     1
 71
     1
 91
        3
 92
        1
 93
        4
 72
     2
 10
2257.166198313996
 20
36.5
 40
20.0
 50
11.64772366707613
 51
342.6561058784706
 73
     1
 72
     1
 10
2276.256852341323
 20
30.53787547858519
 11
2252.166198313995
 21
30.53787547858519
 72
     1
 10
2252.166198313995
 20
30.53787547858519
 11
2252.166198313995
 21
40.53787547858519
 72
     1
 10
2252.166198313995
 20
40.53787547858519
 11
2276.75434681301
 21
40.53787547858519
 97
        4
330
2CBB
330
2CB9
330
2CB8
330
2CB7
 92
        1
 93
        4
 72
     2
 10
2188.255774665348
 20
36.5
 40
20.0
 50
11.64772366707613
 51
342.6561058784706
 73
     1
 72
     1
 10
2207.346428692676
 20
30.53787547858519
 11
2183.255774665347
 21
30.53787547858519
 72
     1
 10
2183.255774665347
 20
30.53787547858519
 11
2183.255774665347
 21
40.53787547858519
 72
     1
 10
2183.255774665347
 20
40.53787547858519
 11
2207.843923164362
 21
40.53787547858519
 97
        4
330
2CBA
330
2CB1
330
2CB0
330
2CAF
 92
        1
 93
        5
 72
     1
 10
2245.64189404294
 20
56.5
 11
2210.641894042939
 21
56.5
 72
     1
 10
2210.641894042939
 20
56.5
 11
2210.641894042939
 21
16.5
 72
     1
 10
2210.641894042939
 20
16.5
 11
2245.64189404294
 21
16.5
 72
     1
 10
2245.64189404294
 20
16.5
 11
2210.641894042939
 21
36.5
 72
     1
 10
2210.641894042939
 20
36.5
 11
2245.64189404294
 21
56.5
 97
        5
330
2CB6
330
2CB2
330
2CB3
330
2CB4
330
2CB5
 75
     0
 76
     1
 98
        1
 10
-60.0
 20
0.0
  0
LINE
  5
2CBD
330
1F
100
AcDbEntity
  8
補助
100
AcDbLine
 10
2184.0
 20
69.0
 30
0.0
 11
2184.0
 21
199.0
 31
0.0
  0
TEXT
  5
2CBE
330
1F
100
AcDbEntity
  8
0
100
AcDbText
 10
2430.916666666667
 20
84.0
 30
0.0
 40
35.0
  1
1：10
 72
     4
 11
2484.0
 21
101.5
 31
0.0
100
AcDbText
  0
LINE
  5
2CBF
330
1F
100
AcDbEntity
  8
補助
100
AcDbLine
 10
2784.0
 20
69.0
 30
0.0
 11
2784.0
 21
134.0
 31
0.0
  0
LINE
  5
2CC0
330
1F
100
AcDbEntity
  8
補助
100
AcDbLine
 10
2784.0
 20
134.0
 30
0.0
 11
2784.0
 21
199.0
 31
0.0
  0
LINE
  5
2CC1
330
1F
100
AcDbEntity
  8
補助
100
AcDbLine
 10
2784.0
 20
4.0
 30
0.0
 11
2784.0
 21
69.0
 31
0.0
  0
LINE
  5
2F60
330
1F
100
AcDbEntity
  8
補助
 62
     0
100
AcDbLine
 10
2784.0
 20
1959.000000000001
 30
0.0
 11
2019.387286519283
 21
1959.000000000002
 31
0.0
  0
LINE
  5
2F61
330
1F
100
AcDbEntity
  8
補助
 62
     0
100
AcDbLine
 10
2784.0
 20
1894.000000000001
 30
0.0
 11
2019.387286519283
 21
1894.000000000001
 31
0.0
  0
LINE
  5
2F62
330
1F
100
AcDbEntity
  8
補助
 62
     0
100
AcDbLine
 10
2784.0
 20
1829.000000000001
 30
0.0
 11
2019.387286519283
 21
1829.000000000001
 31
0.0
  0
LINE
  5
2F63
330
1F
100
AcDbEntity
  8
補助
 62
     0
100
AcDbLine
 10
2202.547653420927
 20
1829.000000000001
 30
0.0
 11
2202.547653420927
 21
2024.000000000002
 31
0.0
  0
LINE
  5
2F64
330
1F
100
AcDbEntity
  8
補助
 62
     0
100
AcDbLine
 10
2019.387286519283
 20
1829.000000000001
 30
0.0
 11
2019.387286519283
 21
2024.000000000002
 31
0.0
  0
TEXT
  5
2F65
330
1F
100
AcDbEntity
  8
補助
 62
     0
100
AcDbText
 10
2050.295698850121
 20
1976.328571428573
 30
0.0
 40
30.0
  1
部品名
  7
明朝
 72
     4
 11
2116.124270278692
 21
1991.500000000002
 31
0.0
100
AcDbText
  0
TEXT
  5
2F66
330
1F
100
AcDbEntity
  8
補助
 62
     0
100
AcDbText
 10
2627.614285714286
 20
1976.07142857143
 30
0.0
 40
30.0
  1
厚さ
  7
明朝
 72
     4
 11
2671.5
 21
1991.500000000002
 31
0.0
100
AcDbText
  0
LINE
  5
2F67
330
1F
100
AcDbEntity
  8
補助
 62
     0
100
AcDbLine
 10
2559.0
 20
1829.000000000001
 30
0.0
 11
2559.0
 21
2024.000000000002
 31
0.0
  0
TEXT
  5
2F68
330
1F
100
AcDbEntity
  8
補助
 62
     0
100
AcDbText
 10
2338.490869919937
 20
1975.947979478156
 30
0.0
 40
30.0
  1
材質
  7
明朝
 72
     4
 11
2382.376584205651
 21
1991.119408049584
 31
0.0
100
AcDbText
  0
TEXT
  5
2F69
330
1F
100
AcDbEntity
  8
実形
 62
     0
100
AcDbText
 10
2048.227810657788
 20
1910.557142857144
 30
0.0
 40
30.0
  1
ボウル
  7
明朝
 72
     4
 11
2114.056382086359
 21
1926.500000000001
 31
0.0
100
AcDbText
  0
TEXT
  5
2F6A
330
1F
100
AcDbEntity
  8
実形
 62
     0
100
AcDbText
 10
2594.700000000001
 20
1911.842857142858
 30
0.0
 40
30.0
  1
0.6ｍｍ
  7
明朝
 72
     4
 11
2671.500000000001
 21
1926.500000000001
 31
0.0
100
AcDbText
  0
TEXT
  5
2F6B
330
1F
100
AcDbEntity
  8
実形
 62
     0
100
AcDbText
 10
2261.016869107866
 20
1910.728571428572
 30
0.0
 40
30.0
  1
SUS304（BA）
  7
明朝
 72
     4
 11
2392.674011965008
 21
1926.500000000001
 31
0.0
100
AcDbText
  0
TEXT
  5
2F6C
330
1F
100
AcDbEntity
  8
実形
 62
     0
100
AcDbText
 10
2070.170667800645
 20
1846.242857142858
 30
0.0
 40
30.0
  1
天板
  7
明朝
 72
     4
 11
2114.056382086359
 21
1861.500000000001
 31
0.0
100
AcDbText
  0
TEXT
  5
2F6D
330
1F
100
AcDbEntity
  8
実形
 62
     0
100
AcDbText
 10
2594.700000000001
 20
1846.842857142858
 30
0.0
 40
30.0
  1
0.8ｍｍ
  7
明朝
 72
     4
 11
2671.500000000001
 21
1861.500000000001
 31
0.0
100
AcDbText
  0
TEXT
  5
2F6E
330
1F
100
AcDbEntity
  8
実形
 62
     0
100
AcDbText
 10
2218.959726250723
 20
1848.357142857144
 30
0.0
 40
25.0
  1
SUS304（市松ｴﾝﾎﾞｽ）
  7
明朝
 72
     4
 11
2392.674011965008
 21
1861.500000000001
 31
0.0
100
AcDbText
  0
LINE
  5
2FA5
330
1F
100
AcDbEntity
  8
実形
100
AcDbLine
 10
109.0
 20
2024.0
 30
0.0
 11
109.0
 21
4.0
 31
0.0
  0
VIEWPORT
  5
2E
102
{ACAD_XDICTIONARY
360
2FBD
102
}
330
1B
100
AcDbEntity
 67
     1
  8
0
100
AcDbViewport
 10
144.7270812988281
 20
101.2295806407928
 30
0.0
 40
411.6736216682419
 41
222.1517806396485
 68
     1
 69
     1
 12
144.7270812988281
 22
101.2295806407928
 13
0.0
 23
0.0
 14
10.0
 24
10.0
 15
10.0
 25
10.0
 16
0.0
 26
0.0
 36
1.0
 17
0.0
 27
0.0
 37
0.0
 42
50.0
 43
0.0
 44
0.0
 45
222.1517806396485
 50
0.0
 51
0.0
 72
   100
 90
    32800
  1

281
     0
 71
     1
 74
     0
110
0.0
120
0.0
130
0.0
111
1.0
121
0.0
131
0.0
112
0.0
122
1.0
132
0.0
 79
     0
146
0.0
  0
VIEWPORT
  5
30
102
{ACAD_XDICTIONARY
360
2FBF
102
}
330
1B
100
AcDbEntity
 67
     1
  8
0
100
AcDbViewport
 10
139.2237563133239
 20
101.2295821905136
 30
0.0
 40
222.7580101013184
 41
161.9673315048218
 68
     2
 69
     2
 12
210.0
 22
148.5
 13
0.0
 23
0.0
 14
10.0
 24
10.0
 15
10.0
 25
10.0
 16
0.0
 26
0.0
 36
1.0
 17
0.0
 27
0.0
 37
0.0
 42
50.0
 43
0.0
 44
0.0
 45
309.0686705647124
 50
0.0
 51
0.0
 72
   100
 90
    32864
  1

281
     0
 71
     1
 74
     0
110
0.0
120
0.0
130
0.0
111
1.0
121
0.0
131
0.0
112
0.0
122
1.0
132
0.0
 79
     0
146
0.0
  0
ENDSEC
  0
SECTION
  2
OBJECTS
  0
DICTIONARY
  5
C
330
0
100
AcDbDictionary
281
     1
  3
ACAD_COLOR
350
2F0A
  3
ACAD_GROUP
350
D
  3
ACAD_LAYOUT
350
1A
  3
ACAD_MATERIAL
350
2F09
  3
ACAD_MLINESTYLE
350
17
  3
ACAD_PLOTSETTINGS
350
19
  3
ACAD_PLOTSTYLENAME
350
E
  3
ACAD_TABLESTYLE
350
2F0B
  3
AcadDim
350
124
  3
ACDBHEADERROUNDTRIPXREC
350
2FB6
  3
AcDbVariableDictionary
350
2F12
  0
DICTIONARY
  5
2F31
330
2
100
AcDbDictionary
280
     1
281
     1
  3
ACAD_LAYERFILTERS
360
2F33
  3
ACAD_LAYERSTATES
360
2F35
  3
ACLYDICTIONARY
360
2F32
  0
DICTIONARY
  5
2F70
330
1F
100
AcDbDictionary
280
     1
281
     1
  3
ACAD_SORTENTS
360
2F71
  0
DICTIONARY
  5
2F46
330
2F36
100
AcDbDictionary
280
     1
281
     1
  3
ACAD_SORTENTS
360
2F47
  0
DICTIONARY
  5
2FBD
330
2E
100
AcDbDictionary
280
     1
281
     1
  3
ACAD_XREC_ROUNDTRIP
360
2FBE
  0
DICTIONARY
  5
2FBF
330
30
100
AcDbDictionary
280
     1
281
     1
  3
ACAD_XREC_ROUNDTRIP
360
2FC0
  0
DICTIONARY
  5
2F0A
102
{ACAD_REACTORS
330
C
102
}
330
C
100
AcDbDictionary
281
     1
  0
DICTIONARY
  5
D
102
{ACAD_REACTORS
330
C
102
}
330
C
100
AcDbDictionary
281
     1
  0
DICTIONARY
  5
1A
102
{ACAD_REACTORS
330
C
102
}
330
C
100
AcDbDictionary
281
     1
  3
Model
350
22
  3
ﾚｲｱｳﾄ1
350
1E
  3
ﾚｲｱｳﾄ2
350
26
  0
DICTIONARY
  5
2F09
102
{ACAD_REACTORS
330
C
102
}
330
C
100
AcDbDictionary
281
     1
  0
DICTIONARY
  5
17
102
{ACAD_REACTORS
330
C
102
}
330
C
100
AcDbDictionary
281
     1
  3
Standard
350
18
  0
DICTIONARY
  5
19
102
{ACAD_REACTORS
330
C
102
}
330
C
100
AcDbDictionary
281
     1
  0
ACDBDICTIONARYWDFLT
  5
E
102
{ACAD_REACTORS
330
C
102
}
330
C
100
AcDbDictionary
281
     1
  3
Normal
350
F
100
AcDbDictionaryWithDefault
340
F
  0
DICTIONARY
  5
2F0B
102
{ACAD_REACTORS
330
C
102
}
330
C
100
AcDbDictionary
281
     1
  3
Standard
350
2F0C
  0
XRECORD
  5
124
102
{ACAD_REACTORS
330
C
102
}
330
C
100
AcDbXrecord
280
     1
 90
   990106
  3

 60
     0
 61
     0
 62
     1
 63
     3
 64
     0
 65
     0
 66
     0
 67
     3
 68
     1
 69
     0
 70
     0
 71
     0
 72
     0
 40
30.0
170
     0
  0
DICTIONARY
  5
2FB6
102
{ACAD_REACTORS
330
C
102
}
330
C
100
AcDbDictionary
281
     1
  0
DICTIONARY
  5
2F12
102
{ACAD_REACTORS
330
C
102
}
330
C
100
AcDbDictionary
281
     1
  3
CTABLESTYLE
350
2F13
  3
DIMASSOC
350
2FB3
  3
PROJECTNAME
350
2FB4
  0
DICTIONARY
  5
2F33
102
{ACAD_REACTORS
330
2F31
102
}
330
2F31
100
AcDbDictionary
281
     1
  0
DICTIONARY
  5
2F35
102
{ACAD_REACTORS
330
2F31
102
}
330
2F31
100
AcDbDictionary
281
     1
  0
DICTIONARY
  5
2F32
102
{ACAD_REACTORS
330
2F31
102
}
330
2F31
100
AcDbDictionary
281
     1
1001
ACAD
1000
<All
  0
SORTENTSTABLE
  5
2F71
102
{ACAD_REACTORS
330
2F70
102
}
330
2F70
100
AcDbSortentsTable
330
1F
331
2364
  5
2B78
331
2CA2
  5
2CA5
331
2CAA
  5
2CAD
331
18BB
  5
18BE
331
458
  5
4CC
331
187C
  5
187F
331
1884
  5
1887
331
2B8B
  5
2B8E
331
2CB2
  5
2CB5
331
2F62
  5
2F65
331
2BBB
  5
2BBE
331
2CBA
  5
2CBD
331
2F6A
  5
2F6D
331
2BF3
  5
2BF6
331
33A
  5
33D
331
4F7
  5
532
331
188C
  5
188F
331
173D
  5
1878
331
1894
  5
18A0
331
18B4
  5
18B8
331
2CA3
  5
2CA6
331
2CAB
  5
2CAE
331
18BC
  5
18BF
331
187D
  5
1880
331
22EC
  5
2347
331
1885
  5
1888
331
2B8C
  5
2BB8
331
2CB3
  5
2CB6
331
2F63
  5
2F66
331
2BBC
  5
2BE8
331
2CBB
  5
2CBE
331
2F6B
  5
2F6E
331
2BF4
  5
2BF7
331
33B
  5
35B
331
4F8
  5
548
331
188D
  5
1890
331
35B
  5
3DC
331
1895
  5
18A1
331
57F
  5
12A9
331
17AE
  5
1879
331
18B5
  5
18B9
331
2356
  5
2B77
331
2CA4
  5
2CA7
331
2CAC
  5
2CAF
331
18BD
  5
22EC
331
548
  5
57F
331
F27
  5
173D
331
187E
  5
1881
331
1886
  5
1889
331
2B8D
  5
2BB9
331
2CB4
  5
2CB7
331
2F64
  5
2F67
331
2BBD
  5
2BED
331
2CBC
  5
2CBF
331
2F6C
  5
2F6F
331
2BED
  5
2BF0
331
2347
  5
2860
331
2BF5
  5
2BF8
331
A5
  5
A5
331
33C
  5
368
331
188E
  5
1891
331
1896
  5
18A2
331
2C95
  5
2CA4
331
2CA5
  5
2CA8
331
2CAD
  5
2CB0
331
44B
  5
4BE
331
18BE
  5
22FA
331
1238
  5
17AE
331
1877
  5
187A
331
187F
  5
1882
331
1887
  5
188A
331
2B8E
  5
2BBA
331
2CB5
  5
2CB8
331
2F65
  5
2F68
331
2BBE
  5
2BEE
331
2CBD
  5
2CC0
331
2F6D
  5
2FA3
331
2BEE
  5
2BF1
331
2BF6
  5
2BF9
331
3DC
  5
458
331
569
  5
1238
331
33D
  5
3CE
331
4A3
  5
4F7
331
188F
  5
1892
331
18B7
  5
18BA
331
2B77
  5
2B88
331
2B87
  5
2B8A
331
2CA6
  5
2CA9
331
2CAE
  5
2CB1
331
532
  5
569
331
18BF
  5
2339
331
1878
  5
187B
331
2E6
  5
33B
331
1880
  5
1883
331
73
  5
73
331
2CB6
  5
2CB9
331
2F66
  5
2F69
331
2339
  5
2364
331
2860
  5
2B87
331
2CBE
  5
2CC1
331
2F6E
  5
2FA4
331
2BEF
  5
2BF2
331
2BF7
  5
2C95
331
2FE
  5
33C
331
12A9
  5
1877
331
1888
  5
188B
331
1890
  5
1893
331
18A0
  5
18B3
331
2B78
  5
2B89
331
2CA7
  5
2CAA
331
2CAF
  5
2CB2
331
4CC
  5
505
331
18B8
  5
18BB
331
3CE
  5
44B
331
1879
  5
187C
331
1881
  5
1884
331
9C
  5
9C
331
22FA
  5
2356
331
2B88
  5
2B8B
331
2BB8
  5
2BBB
331
2CB7
  5
2CBA
331
2F67
  5
2F6A
331
2BE8
  5
2BEF
331
2CBF
  5
2F60
331
2BF0
  5
2BF3
331
A0
  5
A0
331
1889
  5
188C
331
1891
  5
1894
331
18A1
  5
18B4
331
3F6
  5
4A3
331
2BF8
  5
2CA2
331
2CA8
  5
2CAB
331
18B9
  5
18BC
331
187A
  5
187D
331
1882
  5
1885
331
2F60
  5
2F63
331
2B89
  5
2B8C
331
2CB0
  5
2CB3
331
2F68
  5
2F6B
331
2BB9
  5
2BBC
331
2CB8
  5
2CBB
331
2CC0
  5
2F61
331
2BF1
  5
2BF4
331
188A
  5
188D
331
1892
  5
1895
331
505
  5
555
331
18A2
  5
18B5
331
4BE
  5
4F8
331
2BF9
  5
2CA3
331
2CA9
  5
2CAC
331
368
  5
3F6
331
18BA
  5
18BD
331
187B
  5
187E
331
555
  5
F27
331
1883
  5
1886
331
2F61
  5
2F64
331
2B8A
  5
2B8D
331
2CB1
  5
2CB4
331
2F69
  5
2F6C
331
2BBA
  5
2BBD
331
2CB9
  5
2CBC
331
2CC1
  5
2F62
331
2BF2
  5
2BF5
331
188B
  5
188E
331
1893
  5
1896
331
18B3
  5
18B7
  0
SORTENTSTABLE
  5
2F47
102
{ACAD_REACTORS
330
2F46
102
}
330
2F46
100
AcDbSortentsTable
330
2F36
  0
XRECORD
  5
2FBE
102
{ACAD_REACTORS
330
2FBD
102
}
330
2FBD
100
AcDbXrecord
280
     1
102
SHADEPLOT
 70
     0
  0
XRECORD
  5
2FC0
102
{ACAD_REACTORS
330
2FBF
102
}
330
2FBF
100
AcDbXrecord
280
     1
102
SHADEPLOT
 70
     0
  0
LAYOUT
  5
22
102
{ACAD_XDICTIONARY
360
2FB9
102
}
102
{ACAD_REACTORS
330
1A
102
}
330
1A
100
AcDbPlotSettings
  1

  2
EPSON PM-800C
  4
A4
  6

 40
3.757083177566528
 41
14.7637300491333
 42
3.757080078125
 43
3.757080078125
 44
209.9733276367187
 45
296.9683227539062
 46
0.0
 47
0.0
 48
0.0
 49
0.0
140
0.0
141
0.0
142
1.0
143
10.0
 70
 11952
 72
     1
 73
     1
 74
     2
  7

 75
    20
147
0.1
148
0.0
149
0.0
100
AcDbLayout
  1
Model
 70
     1
 71
     0
 10
0.0
 20
0.0
 11
12.0
 21
9.0
 12
0.0
 22
0.0
 32
0.0
 14
0.0
 24
0.0
 34
0.0
 15
0.0
 25
0.0
 35
0.0
146
0.0
 13
0.0
 23
0.0
 33
0.0
 16
1.0
 26
0.0
 36
0.0
 17
0.0
 27
1.0
 37
0.0
 76
     0
330
1F
  0
LAYOUT
  5
1E
102
{ACAD_XDICTIONARY
360
2FB7
102
}
102
{ACAD_REACTORS
330
1A
102
}
330
1A
100
AcDbPlotSettings
  1

  2
EPSON PM-800C
  4
A4
  6

 40
3.757083177566528
 41
14.7637300491333
 42
3.757080078125
 43
3.757080078125
 44
209.9733276367187
 45
296.9683227539062
 46
0.0
 47
0.0
 48
0.0
 49
0.0
140
0.0
141
0.0
142
1.0
143
1.0
 70
   688
 72
     1
 73
     1
 74
     5
  7

 75
    16
147
1.0
148
0.0
149
0.0
100
AcDbLayout
  1
ﾚｲｱｳﾄ1
 70
     1
 71
     1
 10
-3.757080078125
 20
-3.757083177566528
 11
293.2112426757813
 21
206.2162444591522
 12
0.0
 22
0.0
 32
0.0
 14
27.8447512626648
 24
20.24591643810271
 34
0.0
 15
250.6027613639831
 25
182.2132479429245
 35
0.0
146
0.0
 13
0.0
 23
0.0
 33
0.0
 16
1.0
 26
0.0
 36
0.0
 17
0.0
 27
1.0
 37
0.0
 76
     0
330
1B
331
2E
  0
LAYOUT
  5
26
102
{ACAD_XDICTIONARY
360
2FBB
102
}
102
{ACAD_REACTORS
330
1A
102
}
330
1A
100
AcDbPlotSettings
  1

  2
EPSON PM-800C
  4

  6

 40
0.0
 41
0.0
 42
0.0
 43
0.0
 44
0.0
 45
0.0
 46
0.0
 47
0.0
 48
0.0
 49
0.0
140
0.0
141
0.0
142
1.0
143
1.0
 70
   688
 72
     0
 73
     0
 74
     5
  7

 75
    16
147
1.0
148
0.0
149
0.0
100
AcDbLayout
  1
ﾚｲｱｳﾄ2
 70
     1
 71
     2
 10
0.0
 20
0.0
 11
12.0
 21
9.0
 12
0.0
 22
0.0
 32
0.0
 14
0.0
 24
0.0
 34
0.0
 15
0.0
 25
0.0
 35
0.0
146
0.0
 13
0.0
 23
0.0
 33
0.0
 16
1.0
 26
0.0
 36
0.0
 17
0.0
 27
1.0
 37
0.0
 76
     0
330
23
  0
MLINESTYLE
  5
18
102
{ACAD_REACTORS
330
17
102
}
330
17
100
AcDbMlineStyle
  2
STANDARD
 70
     0
  3

 62
   256
 51
90.0
 52
90.0
 71
     2
 49
0.5
 62
   256
  6
BYLAYER
 49
-0.5
 62
   256
  6
BYLAYER
  0
ACDBPLACEHOLDER
  5
F
102
{ACAD_REACTORS
330
E
102
}
330
E
  0
TABLESTYLE
  5
2F0C
102
{ACAD_REACTORS
330
2F0B
102
}
330
2F0B
100
AcDbTableStyle
  3
Standard
 70
     0
 71
     0
 40
1.5
 41
1.5
280
     0
281
     0
  7
Standard
140
4.5
170
     2
 62
     0
 63
     7
283
     0
274
    -2
284
     1
 64
     0
275
    -2
285
     1
 65
     0
276
    -2
286
     1
 66
     0
277
    -2
287
     1
 67
     0
278
    -2
288
     1
 68
     0
279
    -2
289
     1
 69
     0
  7
Standard
140
6.0
170
     5
 62
     0
 63
     7
283
     0
274
    -2
284
     1
 64
     0
275
    -2
285
     1
 65
     0
276
    -2
286
     1
 66
     0
277
    -2
287
     1
 67
     0
278
    -2
288
     1
 68
     0
279
    -2
289
     1
 69
     0
  7
Standard
140
4.5
170
     5
 62
     0
 63
     7
283
     0
274
    -2
284
     1
 64
     0
275
    -2
285
     1
 65
     0
276
    -2
286
     1
 66
     0
277
    -2
287
     1
 67
     0
278
    -2
288
     1
 68
     0
279
    -2
289
     1
 69
     0
  0
DICTIONARYVAR
  5
2F13
102
{ACAD_REACTORS
330
2F12
102
}
330
2F12
100
DictionaryVariables
280
     0
  1
STANDARD
  0
DICTIONARYVAR
  5
2FB3
102
{ACAD_REACTORS
330
2F12
102
}
330
2F12
100
DictionaryVariables
280
     0
  1
1
  0
DICTIONARYVAR
  5
2FB4
102
{ACAD_REACTORS
330
2F12
102
}
330
2F12
100
DictionaryVariables
280
     0
  1

  0
DICTIONARY
  5
2FB9
330
22
100
AcDbDictionary
280
     1
281
     1
  3
ACAD_XREC_ROUNDTRIP
360
2FBA
  0
DICTIONARY
  5
2FB7
330
1E
100
AcDbDictionary
280
     1
281
     1
  3
ACAD_XREC_ROUNDTRIP
360
2FB8
  0
DICTIONARY
  5
2FBB
330
26
100
AcDbDictionary
280
     1
281
     1
  3
ACAD_XREC_ROUNDTRIP
360
2FBC
  0
XRECORD
  5
2FBA
102
{ACAD_REACTORS
330
2FB9
102
}
330
2FB9
100
AcDbXrecord
280
     1
102
SHADEPLOT
 70
     0
102
SHADEPLOTRESLEVEL
 70
     2
102
SHADEPLOTCUSTOMDPI
 70
   300
  0
XRECORD
  5
2FB8
102
{ACAD_REACTORS
330
2FB7
102
}
330
2FB7
100
AcDbXrecord
280
     1
102
SHADEPLOT
 70
     0
102
SHADEPLOTRESLEVEL
 70
     2
102
SHADEPLOTCUSTOMDPI
 70
   300
  0
XRECORD
  5
2FBC
102
{ACAD_REACTORS
330
2FBB
102
}
330
2FBB
100
AcDbXrecord
280
     1
102
SHADEPLOT
 70
     0
102
SHADEPLOTRESLEVEL
 70
     2
102
SHADEPLOTCUSTOMDPI
 70
   300
  0
ENDSEC
  0
EOF
