  0
SECTION
  2
HEADER
  9
$ACADVER
  1
AC1015
  9
$ACADMAINTVER
 70
    20
  9
$DWGCODEPAGE
  3
ANSI_932
  9
$INSBASE
 10
0.0
 20
0.0
 30
0.0
  9
$EXTMIN
 10
109.0
 20
4.0
 30
0.0
  9
$EXTMAX
 10
2784.000000000001
 20
2024.000000000002
 30
0.0
  9
$LIMMIN
 10
0.0
 20
0.0
  9
$LIMMAX
 10
29700.0
 20
21000.0
  9
$ORTHOMODE
 70
     1
  9
$REGENMODE
 70
     1
  9
$FILLMODE
 70
     1
  9
$QTEXTMODE
 70
     0
  9
$MIRRTEXT
 70
     1
  9
$LTSCALE
 40
4.0
  9
$ATTMODE
 70
     1
  9
$TEXTSIZE
 40
35.0
  9
$TRACEWID
 40
1.0
  9
$TEXTSTYLE
  7
Standard
  9
$CLAYER
  8
実形
  9
$CELTYPE
  6
ByLayer
  9
$CECOLOR
 62
   256
  9
$CELTSCALE
 40
1.0
  9
$DISPSILH
 70
     0
  9
$DIMSCALE
 40
1.0
  9
$DIMASZ
 40
30.0
  9
$DIMEXO
 40
65.0
  9
$DIMDLI
 40
3.75
  9
$DIMRND
 40
0.0
  9
$DIMDLE
 40
0.0
  9
$DIMEXE
 40
0.0
  9
$DIMTP
 40
0.0
  9
$DIMTM
 40
0.0
  9
$DIMTXT
 40
25.0
  9
$DIMCEN
 40
2.5
  9
$DIMTSZ
 40
0.0
  9
$DIMTOL
 70
     0
  9
$DIMLIM
 70
     0
  9
$DIMTIH
 70
     0
  9
$DIMTOH
 70
     0
  9
$DIMSE1
 70
     0
  9
$DIMSE2
 70
     0
  9
$DIMTAD
 70
     1
  9
$DIMZIN
 70
     8
  9
$DIMBLK
  1
DotSmall
  9
$DIMASO
 70
     1
  9
$DIMSHO
 70
     1
  9
$DIMPOST
  1

  9
$DIMAPOST
  1

  9
$DIMALT
 70
     0
  9
$DIMALTD
 70
     3
  9
$DIMALTF
 40
0.03937007874016
  9
$DIMLFAC
 40
1.0
  9
$DIMTOFL
 70
     1
  9
$DIMTVP
 40
0.0
  9
$DIMTIX
 70
     0
  9
$DIMSOXD
 70
     0
  9
$DIMSAH
 70
     0
  9
$DIMBLK1
  1

  9
$DIMBLK2
  1

  9
$DIMSTYLE
  2
ISO-25
  9
$DIMCLRD
 70
     0
  9
$DIMCLRE
 70
     0
  9
$DIMCLRT
 70
     0
  9
$DIMTFAC
 40
1.0
  9
$DIMGAP
 40
6.25
  9
$DIMJUST
 70
     0
  9
$DIMSD1
 70
     0
  9
$DIMSD2
 70
     0
  9
$DIMTOLJ
 70
     0
  9
$DIMTZIN
 70
     8
  9
$DIMALTZ
 70
     0
  9
$DIMALTTZ
 70
     0
  9
$DIMUPT
 70
     0
  9
$DIMDEC
 70
     2
  9
$DIMTDEC
 70
     2
  9
$DIMALTU
 70
     2
  9
$DIMALTTD
 70
     3
  9
$DIMTXSTY
  7
Standard
  9
$DIMAUNIT
 70
     0
  9
$DIMADEC
 70
     0
  9
$DIMALTRND
 40
0.0
  9
$DIMAZIN
 70
     0
  9
$DIMDSEP
 70
    46
  9
$DIMATFIT
 70
     3
  9
$DIMFRAC
 70
     0
  9
$DIMLDRBLK
  1
Open30
  9
$DIMLUNIT
 70
     2
  9
$DIMLWD
 70
    15
  9
$DIMLWE
 70
    15
  9
$DIMTMOVE
 70
     1
  9
$LUNITS
 70
     2
  9
$LUPREC
 70
     2
  9
$SKETCHINC
 40
1.0
  9
$FILLETRAD
 40
7.0
  9
$AUNITS
 70
     0
  9
$AUPREC
 70
     0
  9
$MENU
  1
.
  9
$ELEVATION
 40
0.0
  9
$PELEVATION
 40
0.0
  9
$THICKNESS
 40
0.0
  9
$LIMCHECK
 70
     1
  9
$CHAMFERA
 40
10.0
  9
$CHAMFERB
 40
10.0
  9
$CHAMFERC
 40
20.0
  9
$CHAMFERD
 40
0.0
  9
$SKPOLY
 70
     0
  9
$TDCREATE
 40
2451673.575802199
  9
$TDUCREATE
 40
2451673.200802199
  9
$TDUPDATE
 40
2458809.788780730
  9
$TDUUPDATE
 40
2458809.413780730
  9
$TDINDWG
 40
1.1632049306
  9
$TDUSRTIMER
 40
1.1632042361
  9
$USRTIMER
 70
     1
  9
$ANGBASE
 50
0.0
  9
$ANGDIR
 70
     0
  9
$PDMODE
 70
     0
  9
$PDSIZE
 40
0.0
  9
$PLINEWID
 40
0.0
  9
$SPLFRAME
 70
     0
  9
$SPLINETYPE
 70
     6
  9
$SPLINESEGS
 70
     8
  9
$HANDSEED
  5
1921
  9
$SURFTAB1
 70
     6
  9
$SURFTAB2
 70
     6
  9
$SURFTYPE
 70
     6
  9
$SURFU
 70
     6
  9
$SURFV
 70
     6
  9
$UCSBASE
  2

  9
$UCSNAME
  2

  9
$UCSORG
 10
0.0
 20
0.0
 30
0.0
  9
$UCSXDIR
 10
1.0
 20
0.0
 30
0.0
  9
$UCSYDIR
 10
0.0
 20
1.0
 30
0.0
  9
$UCSORTHOREF
  2

  9
$UCSORTHOVIEW
 70
     0
  9
$UCSORGTOP
 10
0.0
 20
0.0
 30
0.0
  9
$UCSORGBOTTOM
 10
0.0
 20
0.0
 30
0.0
  9
$UCSORGLEFT
 10
0.0
 20
0.0
 30
0.0
  9
$UCSORGRIGHT
 10
0.0
 20
0.0
 30
0.0
  9
$UCSORGFRONT
 10
0.0
 20
0.0
 30
0.0
  9
$UCSORGBACK
 10
0.0
 20
0.0
 30
0.0
  9
$PUCSBASE
  2

  9
$PUCSNAME
  2

  9
$PUCSORG
 10
0.0
 20
0.0
 30
0.0
  9
$PUCSXDIR
 10
1.0
 20
0.0
 30
0.0
  9
$PUCSYDIR
 10
0.0
 20
1.0
 30
0.0
  9
$PUCSORTHOREF
  2

  9
$PUCSORTHOVIEW
 70
     0
  9
$PUCSORGTOP
 10
0.0
 20
0.0
 30
0.0
  9
$PUCSORGBOTTOM
 10
0.0
 20
0.0
 30
0.0
  9
$PUCSORGLEFT
 10
0.0
 20
0.0
 30
0.0
  9
$PUCSORGRIGHT
 10
0.0
 20
0.0
 30
0.0
  9
$PUCSORGFRONT
 10
0.0
 20
0.0
 30
0.0
  9
$PUCSORGBACK
 10
0.0
 20
0.0
 30
0.0
  9
$USERI1
 70
     0
  9
$USERI2
 70
     0
  9
$USERI3
 70
     0
  9
$USERI4
 70
     0
  9
$USERI5
 70
     0
  9
$USERR1
 40
0.0
  9
$USERR2
 40
0.0
  9
$USERR3
 40
0.0
  9
$USERR4
 40
0.0
  9
$USERR5
 40
0.0
  9
$WORLDVIEW
 70
     1
  9
$SHADEDGE
 70
     3
  9
$SHADEDIF
 70
    70
  9
$TILEMODE
 70
     1
  9
$MAXACTVP
 70
    64
  9
$PINSBASE
 10
0.0
 20
0.0
 30
0.0
  9
$PLIMCHECK
 70
     0
  9
$PEXTMIN
 10
27.8447512626648
 20
20.24591643810271
 30
0.0
  9
$PEXTMAX
 10
250.6027613639831
 20
182.2132479429245
 30
0.0
  9
$PLIMMIN
 10
-3.757080078125
 20
-3.757083177566528
  9
$PLIMMAX
 10
293.2112426757813
 20
206.2162444591522
  9
$UNITMODE
 70
     0
  9
$VISRETAIN
 70
     1
  9
$PLINEGEN
 70
     0
  9
$PSLTSCALE
 70
     1
  9
$TREEDEPTH
 70
  3020
  9
$CMLSTYLE
  2
Standard
  9
$CMLJUST
 70
     0
  9
$CMLSCALE
 40
20.0
  9
$PROXYGRAPHICS
 70
     1
  9
$MEASUREMENT
 70
     1
  9
$CELWEIGHT
370
    -1
  9
$ENDCAPS
280
     0
  9
$JOINSTYLE
280
     0
  9
$LWDISPLAY
290
     0
  9
$INSUNITS
 70
     4
  9
$HYPERLINKBASE
  1

  9
$STYLESHEET
  1

  9
$XEDIT
290
     1
  9
$CEPSNTYPE
380
     0
  9
$PSTYLEMODE
290
     1
  9
$FINGERPRINTGUID
  2
{C8EA1F16-24C9-11D4-9416-CE0A3B32152F}
  9
$VERSIONGUID
  2
{24990DD7-DEE6-4442-8480-950314E63ECB}
  9
$EXTNAMES
290
     1
  9
$PSVPSCALE
 40
0.0
  9
$OLESTARTUP
290
     0
  0
ENDSEC
  0
SECTION
  2
CLASSES
  0
CLASS
  1
ACDBDICTIONARYWDFLT
  2
AcDbDictionaryWithDefault
  3
ObjectDBX Classes
 90
        0
280
     0
281
     0
  0
CLASS
  1
ACDBPLACEHOLDER
  2
AcDbPlaceHolder
  3
ObjectDBX Classes
 90
        0
280
     0
281
     0
  0
CLASS
  1
LAYOUT
  2
AcDbLayout
  3
ObjectDBX Classes
 90
        0
280
     0
281
     0
  0
CLASS
  1
DICTIONARYVAR
  2
AcDbDictionaryVar
  3
ObjectDBX Classes
 90
        0
280
     0
281
     0
  0
CLASS
  1
TABLESTYLE
  2
AcDbTableStyle
  3
ObjectDBX Classes
 90
     2047
280
     0
281
     0
  0
CLASS
  1
SORTENTSTABLE
  2
AcDbSortentsTable
  3
ObjectDBX Classes
 90
        0
280
     0
281
     0
  0
ENDSEC
  0
SECTION
  2
TABLES
  0
TABLE
  2
VPORT
  5
8
330
0
100
AcDbSymbolTable
 70
     2
  0
VPORT
  5
1915
330
8
100
AcDbSymbolTableRecord
100
AcDbViewportTableRecord
  2
*Active
 70
     0
 10
0.0
 20
0.0
 11
1.0
 21
1.0
 12
1720.389182284612
 22
835.6916272482658
 13
0.0
 23
0.0
 14
10.0
 24
10.0
 15
10.0
 25
10.0
 16
0.0
 26
0.0
 36
1.0
 17
0.0
 27
0.0
 37
0.0
 40
2724.656315483473
 41
1.29038112522686
 42
50.0
 43
0.0
 44
0.0
 50
0.0
 51
0.0
 71
     0
 72
   100
 73
     1
 74
     3
 75
     0
 76
     0
 77
     0
 78
     0
281
     0
 65
     1
110
0.0
120
0.0
130
0.0
111
1.0
121
0.0
131
0.0
112
0.0
122
1.0
132
0.0
 79
     0
146
0.0
  0
ENDTAB
  0
TABLE
  2
LTYPE
  5
5
330
0
100
AcDbSymbolTable
 70
    46
  0
LTYPE
  5
14
330
5
100
AcDbSymbolTableRecord
100
AcDbLinetypeTableRecord
  2
ByBlock
 70
     0
  3

 72
    65
 73
     0
 40
0.0
  0
LTYPE
  5
15
330
5
100
AcDbSymbolTableRecord
100
AcDbLinetypeTableRecord
  2
ByLayer
 70
     0
  3

 72
    65
 73
     0
 40
0.0
  0
LTYPE
  5
16
330
5
100
AcDbSymbolTableRecord
100
AcDbLinetypeTableRecord
  2
Continuous
 70
     0
  3
Solid line
 72
    65
 73
     0
 40
0.0
  0
LTYPE
  5
34
330
5
100
AcDbSymbolTableRecord
100
AcDbLinetypeTableRecord
  2
ACAD_ISO02W100
 70
     0
  3
ISO dash __ __ __ __ __ __ __ __ __ __ __ __ __
 72
    65
 73
     2
 40
15.0
 49
12.0
 74
     0
 49
-3.0
 74
     0
  0
LTYPE
  5
35
330
5
100
AcDbSymbolTableRecord
100
AcDbLinetypeTableRecord
  2
ACAD_ISO03W100
 70
     0
  3
ISO dash space __    __    __    __    __    __
 72
    65
 73
     2
 40
30.0
 49
12.0
 74
     0
 49
-18.0
 74
     0
  0
LTYPE
  5
36
330
5
100
AcDbSymbolTableRecord
100
AcDbLinetypeTableRecord
  2
ACAD_ISO04W100
 70
     0
  3
ISO long-dash dot ____ . ____ . ____ . ____ . _
 72
    65
 73
     4
 40
30.0
 49
24.0
 74
     0
 49
-3.0
 74
     0
 49
0.0
 74
     0
 49
-3.0
 74
     0
  0
LTYPE
  5
37
330
5
100
AcDbSymbolTableRecord
100
AcDbLinetypeTableRecord
  2
ACAD_ISO05W100
 70
     0
  3
ISO long-dash double-dot ____ .. ____ .. ____ .
 72
    65
 73
     6
 40
34.0
 49
24.0
 74
     0
 49
-3.0
 74
     0
 49
0.5
 74
     0
 49
-3.0
 74
     0
 49
0.5
 74
     0
 49
-3.0
 74
     0
  0
LTYPE
  5
38
330
5
100
AcDbSymbolTableRecord
100
AcDbLinetypeTableRecord
  2
ACAD_ISO06W100
 70
     0
  3
ISO long-dash triple-dot ____ ... ____ ... ____
 72
    65
 73
     8
 40
37.5
 49
24.0
 74
     0
 49
-3.0
 74
     0
 49
0.5
 74
     0
 49
-3.0
 74
     0
 49
0.5
 74
     0
 49
-3.0
 74
     0
 49
0.5
 74
     0
 49
-3.0
 74
     0
  0
LTYPE
  5
39
330
5
100
AcDbSymbolTableRecord
100
AcDbLinetypeTableRecord
  2
ACAD_ISO07W100
 70
     0
  3
ISO dot . . . . . . . . . . . . . . . . . . . .
 72
    65
 73
     2
 40
3.0
 49
0.0
 74
     0
 49
-3.0
 74
     0
  0
LTYPE
  5
3A
330
5
100
AcDbSymbolTableRecord
100
AcDbLinetypeTableRecord
  2
ACAD_ISO08W100
 70
     0
  3
ISO long-dash short-dash ____ __ ____ __ ____ _
 72
    65
 73
     4
 40
36.0
 49
24.0
 74
     0
 49
-3.0
 74
     0
 49
6.0
 74
     0
 49
-3.0
 74
     0
  0
LTYPE
  5
3B
330
5
100
AcDbSymbolTableRecord
100
AcDbLinetypeTableRecord
  2
ACAD_ISO09W100
 70
     0
  3
ISO long-dash double-short-dash ____ __ __ ____
 72
    65
 73
     6
 40
45.0
 49
24.0
 74
     0
 49
-3.0
 74
     0
 49
6.0
 74
     0
 49
-3.0
 74
     0
 49
6.0
 74
     0
 49
-3.0
 74
     0
  0
LTYPE
  5
3C
330
5
100
AcDbSymbolTableRecord
100
AcDbLinetypeTableRecord
  2
ACAD_ISO10W100
 70
     0
  3
ISO dash dot __ . __ . __ . __ . __ . __ . __ .
 72
    65
 73
     4
 40
18.0
 49
12.0
 74
     0
 49
-3.0
 74
     0
 49
0.0
 74
     0
 49
-3.0
 74
     0
  0
LTYPE
  5
3D
330
5
100
AcDbSymbolTableRecord
100
AcDbLinetypeTableRecord
  2
ACAD_ISO11W100
 70
     0
  3
ISO double-dash dot __ __ . __ __ . __ __ . __ 
 72
    65
 73
     6
 40
33.0
 49
12.0
 74
     0
 49
-3.0
 74
     0
 49
12.0
 74
     0
 49
-3.0
 74
     0
 49
0.0
 74
     0
 49
-3.0
 74
     0
  0
LTYPE
  5
3E
330
5
100
AcDbSymbolTableRecord
100
AcDbLinetypeTableRecord
  2
ACAD_ISO12W100
 70
     0
  3
ISO dash double-dot __ . . __ . . __ . . __ . .
 72
    65
 73
     6
 40
21.0
 49
12.0
 74
     0
 49
-3.0
 74
     0
 49
0.0
 74
     0
 49
-3.0
 74
     0
 49
0.0
 74
     0
 49
-3.0
 74
     0
  0
LTYPE
  5
3F
330
5
100
AcDbSymbolTableRecord
100
AcDbLinetypeTableRecord
  2
ACAD_ISO13W100
 70
     0
  3
ISO double-dash double-dot __ __ . . __ __ . . 
 72
    65
 73
     8
 40
36.0
 49
12.0
 74
     0
 49
-3.0
 74
     0
 49
12.0
 74
     0
 49
-3.0
 74
     0
 49
0.0
 74
     0
 49
-3.0
 74
     0
 49
0.0
 74
     0
 49
-3.0
 74
     0
  0
LTYPE
  5
40
330
5
100
AcDbSymbolTableRecord
100
AcDbLinetypeTableRecord
  2
ACAD_ISO14W100
 70
     0
  3
ISO dash triple-dot __ . . . __ . . . __ . . . 
 72
    65
 73
     8
 40
24.0
 49
12.0
 74
     0
 49
-3.0
 74
     0
 49
0.0
 74
     0
 49
-3.0
 74
     0
 49
0.0
 74
     0
 49
-3.0
 74
     0
 49
0.0
 74
     0
 49
-3.0
 74
     0
  0
LTYPE
  5
41
330
5
100
AcDbSymbolTableRecord
100
AcDbLinetypeTableRecord
  2
ACAD_ISO15W100
 70
     0
  3
ISO double-dash triple-dot __ __ . . . __ __ . 
 72
    65
 73
    10
 40
39.0
 49
12.0
 74
     0
 49
-3.0
 74
     0
 49
12.0
 74
     0
 49
-3.0
 74
     0
 49
0.0
 74
     0
 49
-3.0
 74
     0
 49
0.0
 74
     0
 49
-3.0
 74
     0
 49
0.0
 74
     0
 49
-3.0
 74
     0
  0
LTYPE
  5
42
330
5
100
AcDbSymbolTableRecord
100
AcDbLinetypeTableRecord
  2
BATTING
 70
     0
  3
Batting SSSSSSSSSSSSSSSSSSSSSSSSSSSSSSSSSSSSSSS
 72
    65
 73
     4
 40
10.16254
 49
0.00254
 74
     0
 49
-2.54
 74
     4
 75
   134
340
33
 46
2.54
 50
0.0
 44
-2.54
 45
0.0
 49
-5.08
 74
     4
 75
   134
340
33
 46
2.54
 50
180.0
 44
2.54
 45
0.0
 49
-2.54
 74
     0
  0
LTYPE
  5
43
330
5
100
AcDbSymbolTableRecord
100
AcDbLinetypeTableRecord
  2
BORDER
 70
     0
  3
Border __ __ . __ __ . __ __ . __ __ . __ __ .
 72
    65
 73
     6
 40
44.45
 49
12.7
 74
     0
 49
-6.349999999999999
 74
     0
 49
12.7
 74
     0
 49
-6.349999999999999
 74
     0
 49
0.0
 74
     0
 49
-6.349999999999999
 74
     0
  0
LTYPE
  5
44
330
5
100
AcDbSymbolTableRecord
100
AcDbLinetypeTableRecord
  2
BORDER2
 70
     0
  3
Border (.5x) __.__.__.__.__.__.__.__.__.__.__.
 72
    65
 73
     6
 40
22.225
 49
6.349999999999999
 74
     0
 49
-3.174999999999999
 74
     0
 49
6.349999999999999
 74
     0
 49
-3.174999999999999
 74
     0
 49
0.0
 74
     0
 49
-3.174999999999999
 74
     0
  0
LTYPE
  5
45
330
5
100
AcDbSymbolTableRecord
100
AcDbLinetypeTableRecord
  2
BORDERX2
 70
     0
  3
Border (2x) ____  ____  .  ____  ____  .  ___
 72
    65
 73
     6
 40
88.9
 49
25.4
 74
     0
 49
-12.7
 74
     0
 49
25.4
 74
     0
 49
-12.7
 74
     0
 49
0.0
 74
     0
 49
-12.7
 74
     0
  0
LTYPE
  5
46
330
5
100
AcDbSymbolTableRecord
100
AcDbLinetypeTableRecord
  2
CENTER
 70
     0
  3
Center ____ _ ____ _ ____ _ ____ _ ____ _ ____
 72
    65
 73
     4
 40
50.8
 49
31.75
 74
     0
 49
-6.349999999999999
 74
     0
 49
6.349999999999999
 74
     0
 49
-6.349999999999999
 74
     0
  0
LTYPE
  5
47
330
5
100
AcDbSymbolTableRecord
100
AcDbLinetypeTableRecord
  2
CENTER2
 70
     0
  3
Center (.5x) ___ _ ___ _ ___ _ ___ _ ___ _ ___
 72
    65
 73
     4
 40
28.575
 49
19.05
 74
     0
 49
-3.174999999999999
 74
     0
 49
3.174999999999999
 74
     0
 49
-3.174999999999999
 74
     0
  0
LTYPE
  5
48
330
5
100
AcDbSymbolTableRecord
100
AcDbLinetypeTableRecord
  2
CENTERX2
 70
     0
  3
Center (2x) ________  __  ________  __  _____
 72
    65
 73
     4
 40
101.6
 49
63.5
 74
     0
 49
-12.7
 74
     0
 49
12.7
 74
     0
 49
-12.7
 74
     0
  0
LTYPE
  5
49
330
5
100
AcDbSymbolTableRecord
100
AcDbLinetypeTableRecord
  2
DASHDOT
 70
     0
  3
Dash dot __ . __ . __ . __ . __ . __ . __ . __
 72
    65
 73
     4
 40
25.4
 49
12.7
 74
     0
 49
-6.349999999999999
 74
     0
 49
0.0
 74
     0
 49
-6.349999999999999
 74
     0
  0
LTYPE
  5
4A
330
5
100
AcDbSymbolTableRecord
100
AcDbLinetypeTableRecord
  2
DASHDOT2
 70
     0
  3
Dash dot (.5x) _._._._._._._._._._._._._._._.
 72
    65
 73
     4
 40
12.7
 49
6.349999999999999
 74
     0
 49
-3.174999999999999
 74
     0
 49
0.0
 74
     0
 49
-3.174999999999999
 74
     0
  0
LTYPE
  5
4B
330
5
100
AcDbSymbolTableRecord
100
AcDbLinetypeTableRecord
  2
DASHDOTX2
 70
     0
  3
Dash dot (2x) ____  .  ____  .  ____  .  ___
 72
    65
 73
     4
 40
50.8
 49
25.4
 74
     0
 49
-12.7
 74
     0
 49
0.0
 74
     0
 49
-12.7
 74
     0
  0
LTYPE
  5
4C
330
5
100
AcDbSymbolTableRecord
100
AcDbLinetypeTableRecord
  2
DASHED
 70
     0
  3
Dashed __ __ __ __ __ __ __ __ __ __ __ __ __ _
 72
    65
 73
     2
 40
19.05
 49
12.7
 74
     0
 49
-6.349999999999999
 74
     0
  0
LTYPE
  5
4D
330
5
100
AcDbSymbolTableRecord
100
AcDbLinetypeTableRecord
  2
DASHED2
 70
     0
  3
Dashed (.5x) _ _ _ _ _ _ _ _ _ _ _ _ _ _ _ _ _
 72
    65
 73
     2
 40
9.524999999999998
 49
6.349999999999999
 74
     0
 49
-3.174999999999999
 74
     0
  0
LTYPE
  5
4E
330
5
100
AcDbSymbolTableRecord
100
AcDbLinetypeTableRecord
  2
DASHEDX2
 70
     0
  3
Dashed (2x) ____  ____  ____  ____  ____  ___
 72
    65
 73
     2
 40
38.1
 49
25.4
 74
     0
 49
-12.7
 74
     0
  0
LTYPE
  5
4F
330
5
100
AcDbSymbolTableRecord
100
AcDbLinetypeTableRecord
  2
DIVIDE
 70
     0
  3
Divide ____ . . ____ . . ____ . . ____ . . ____
 72
    65
 73
     6
 40
31.75
 49
12.7
 74
     0
 49
-6.349999999999999
 74
     0
 49
0.0
 74
     0
 49
-6.349999999999999
 74
     0
 49
0.0
 74
     0
 49
-6.349999999999999
 74
     0
  0
LTYPE
  5
50
330
5
100
AcDbSymbolTableRecord
100
AcDbLinetypeTableRecord
  2
DIVIDE2
 70
     0
  3
Divide (.5x) __..__..__..__..__..__..__..__.._
 72
    65
 73
     6
 40
15.875
 49
6.349999999999999
 74
     0
 49
-3.174999999999999
 74
     0
 49
0.0
 74
     0
 49
-3.174999999999999
 74
     0
 49
0.0
 74
     0
 49
-3.174999999999999
 74
     0
  0
LTYPE
  5
51
330
5
100
AcDbSymbolTableRecord
100
AcDbLinetypeTableRecord
  2
DIVIDEX2
 70
     0
  3
Divide (2x) ________  .  .  ________  .  .  _
 72
    65
 73
     6
 40
63.49999999999999
 49
25.4
 74
     0
 49
-12.7
 74
     0
 49
0.0
 74
     0
 49
-12.7
 74
     0
 49
0.0
 74
     0
 49
-12.7
 74
     0
  0
LTYPE
  5
52
330
5
100
AcDbSymbolTableRecord
100
AcDbLinetypeTableRecord
  2
DOT
 70
     0
  3
Dot . . . . . . . . . . . . . . . . . . . . . .
 72
    65
 73
     2
 40
6.349999999999999
 49
0.0
 74
     0
 49
-6.349999999999999
 74
     0
  0
LTYPE
  5
53
330
5
100
AcDbSymbolTableRecord
100
AcDbLinetypeTableRecord
  2
DOT2
 70
     0
  3
Dot (.5x) .....................................
 72
    65
 73
     2
 40
3.174999999999999
 49
0.0
 74
     0
 49
-3.174999999999999
 74
     0
  0
LTYPE
  5
54
330
5
100
AcDbSymbolTableRecord
100
AcDbLinetypeTableRecord
  2
DOTX2
 70
     0
  3
Dot (2x) .  .  .  .  .  .  .  .  .  .  .  .  . 
 72
    65
 73
     2
 40
12.7
 49
0.0
 74
     0
 49
-12.7
 74
     0
  0
LTYPE
  5
55
330
5
100
AcDbSymbolTableRecord
100
AcDbLinetypeTableRecord
  2
FENCELINE1
 70
     0
  3
Fenceline circle ----0-----0----0-----0----0---
 72
    65
 73
     4
 40
36.83
 49
6.349999999999999
 74
     0
 49
-2.54
 74
     4
 75
   133
340
33
 46
2.54
 50
0.0
 44
-2.54
 45
0.0
 49
-2.54
 74
     0
 49
25.4
 74
     0
  0
LTYPE
  5
56
330
5
100
AcDbSymbolTableRecord
100
AcDbLinetypeTableRecord
  2
FENCELINE2
 70
     0
  3
Fenceline square ----[]-----[]----[]-----[]----
 72
    65
 73
     4
 40
36.83
 49
6.349999999999999
 74
     0
 49
-2.54
 74
     4
 75
   132
340
33
 46
2.54
 50
0.0
 44
-2.54
 45
0.0
 49
-2.54
 74
     0
 49
25.4
 74
     0
  0
LTYPE
  5
57
330
5
100
AcDbSymbolTableRecord
100
AcDbLinetypeTableRecord
  2
GAS_LINE
 70
     0
  3
Gas line ----GAS----GAS----GAS----GAS----GAS---
 72
    65
 73
     3
 40
24.13
 49
12.7
 74
     0
 49
-5.08
 74
     2
 75
     0
340
11
 46
2.54
 50
0.0
 44
-2.54
 45
-1.27
  9
GAS
 49
-6.349999999999999
 74
     0
  0
LTYPE
  5
58
330
5
100
AcDbSymbolTableRecord
100
AcDbLinetypeTableRecord
  2
HIDDEN
 70
     0
  3
Hidden __ __ __ __ __ __ __ __ __ __ __ __ __ _
 72
    65
 73
     2
 40
9.524999999999998
 49
6.349999999999999
 74
     0
 49
-3.174999999999999
 74
     0
  0
LTYPE
  5
59
330
5
100
AcDbSymbolTableRecord
100
AcDbLinetypeTableRecord
  2
HIDDEN2
 70
     0
  3
Hidden (.5x) _ _ _ _ _ _ _ _ _ _ _ _ _ _ _ _ _
 72
    65
 73
     2
 40
4.762499999999999
 49
3.174999999999999
 74
     0
 49
-1.587499999999999
 74
     0
  0
LTYPE
  5
5A
330
5
100
AcDbSymbolTableRecord
100
AcDbLinetypeTableRecord
  2
HIDDENX2
 70
     0
  3
Hidden (2x) ____ ____ ____ ____ ____ ____ ____
 72
    65
 73
     2
 40
19.05
 49
12.7
 74
     0
 49
-6.349999999999999
 74
     0
  0
LTYPE
  5
5B
330
5
100
AcDbSymbolTableRecord
100
AcDbLinetypeTableRecord
  2
HOT_WATER_SUPPLY
 70
     0
  3
Hot water supply ---- HW ---- HW ---- HW ----
 72
    65
 73
     3
 40
22.86
 49
12.7
 74
     0
 49
-5.08
 74
     2
 75
     0
340
11
 46
2.54
 50
0.0
 44
-2.54
 45
-1.27
  9
HW
 49
-5.08
 74
     0
  0
LTYPE
  5
5C
330
5
100
AcDbSymbolTableRecord
100
AcDbLinetypeTableRecord
  2
PHANTOM
 70
     0
  3
Phantom ______  __  __  ______  __  __  ______
 72
    65
 73
     6
 40
63.5
 49
31.75
 74
     0
 49
-6.349999999999999
 74
     0
 49
6.349999999999999
 74
     0
 49
-6.349999999999999
 74
     0
 49
6.349999999999999
 74
     0
 49
-6.349999999999999
 74
     0
  0
LTYPE
  5
5D
330
5
100
AcDbSymbolTableRecord
100
AcDbLinetypeTableRecord
  2
PHANTOM2
 70
     0
  3
Phantom (.5x) ___ _ _ ___ _ _ ___ _ _ ___ _ _
 72
    65
 73
     6
 40
31.75
 49
15.875
 74
     0
 49
-3.174999999999999
 74
     0
 49
3.174999999999999
 74
     0
 49
-3.174999999999999
 74
     0
 49
3.174999999999999
 74
     0
 49
-3.174999999999999
 74
     0
  0
LTYPE
  5
5E
330
5
100
AcDbSymbolTableRecord
100
AcDbLinetypeTableRecord
  2
PHANTOMX2
 70
     0
  3
Phantom (2x) ____________    ____    ____   _
 72
    65
 73
     6
 40
127.0
 49
63.5
 74
     0
 49
-12.7
 74
     0
 49
12.7
 74
     0
 49
-12.7
 74
     0
 49
12.7
 74
     0
 49
-12.7
 74
     0
  0
LTYPE
  5
5F
330
5
100
AcDbSymbolTableRecord
100
AcDbLinetypeTableRecord
  2
TRACKS
 70
     0
  3
Tracks -|-|-|-|-|-|-|-|-|-|-|-|-|-|-|-|-|-|-|-|
 72
    65
 73
     2
 40
7.62
 49
3.81
 74
     4
 75
   130
340
33
 46
6.349999999999999
 50
0.0
 44
0.0
 45
0.0
 49
3.81
 74
     0
  0
LTYPE
  5
60
330
5
100
AcDbSymbolTableRecord
100
AcDbLinetypeTableRecord
  2
ZIGZAG
 70
     0
  3
Zig zag /\/\/\/\/\/\/\/\/\/\/\/\/\/\/\/\/\/\/\/
 72
    65
 73
     4
 40
20.32254
 49
0.00254
 74
     0
 49
-5.08
 74
     4
 75
   131
340
33
 46
5.08
 50
0.0
 44
-5.08
 45
0.0
 49
-10.16
 74
     4
 75
   131
340
33
 46
5.08
 50
180.0
 44
5.08
 45
0.0
 49
-5.08
 74
     0
  0
ENDTAB
  0
TABLE
  2
LAYER
  5
2
102
{ACAD_XDICTIONARY
360
18B7
102
}
330
0
100
AcDbSymbolTable
 70
     7
  0
LAYER
  5
10
330
2
100
AcDbSymbolTableRecord
100
AcDbLayerTableRecord
  2
0
 70
     0
 62
     7
  6
Continuous
370
    -3
390
F
  0
LAYER
  5
C3
330
2
100
AcDbSymbolTableRecord
100
AcDbLayerTableRecord
  2
Defpoints
 70
     0
 62
     7
  6
Continuous
290
     0
370
    -3
390
F
  0
LAYER
  5
256
330
2
100
AcDbSymbolTableRecord
100
AcDbLayerTableRecord
  2
Cen
 70
     0
 62
     7
  6
CENTER2
370
    15
390
F
  0
LAYER
  5
5DF
330
2
100
AcDbSymbolTableRecord
100
AcDbLayerTableRecord
  2
実形
 70
     0
 62
     7
  6
Continuous
370
    -3
390
F
  0
LAYER
  5
60C
330
2
100
AcDbSymbolTableRecord
100
AcDbLayerTableRecord
  2
補助
 70
     0
 62
     7
  6
Continuous
370
    -3
390
F
  0
LAYER
  5
619
330
2
100
AcDbSymbolTableRecord
100
AcDbLayerTableRecord
  2
センター
 70
     0
 62
     7
  6
CENTER2
370
    18
390
F
  0
LAYER
  5
61A
330
2
100
AcDbSymbolTableRecord
100
AcDbLayerTableRecord
  2
寸法
 70
     0
 62
     7
  6
Continuous
370
    18
390
F
  0
ENDTAB
  0
TABLE
  2
STYLE
  5
3
330
0
100
AcDbSymbolTable
 70
     3
  0
STYLE
  5
11
330
3
100
AcDbSymbolTableRecord
100
AcDbTextStyleTableRecord
  2
Standard
 70
     0
 40
0.0
 41
1.0
 50
0.0
 71
     0
 42
35.0
  3
txt.shx
  4
bigfont.shx
  0
STYLE
  5
33
330
3
100
AcDbSymbolTableRecord
100
AcDbTextStyleTableRecord
  2

 70
     1
 40
0.0
 41
1.0
 50
0.0
 71
     0
 42
2.5
  3
ltypeshp.shx
  4

  0
STYLE
  5
18BD
330
3
100
AcDbSymbolTableRecord
100
AcDbTextStyleTableRecord
  2
明朝
 70
     0
 40
0.0
 41
1.0
 50
0.0
 71
     0
 42
25.0
  3
MS Mincho.ttf
  4

1001
ACAD
1000
MS Mincho
1071
    32785
  0
ENDTAB
  0
TABLE
  2
VIEW
  5
6
330
0
100
AcDbSymbolTable
 70
     0
  0
ENDTAB
  0
TABLE
  2
UCS
  5
7
330
0
100
AcDbSymbolTable
 70
     0
  0
ENDTAB
  0
TABLE
  2
APPID
  5
9
330
0
100
AcDbSymbolTable
 70
     1
  0
APPID
  5
12
330
9
100
AcDbSymbolTableRecord
100
AcDbRegAppTableRecord
  2
ACAD
 70
     0
  0
ENDTAB
  0
TABLE
  2
DIMSTYLE
  5
A
330
0
100
AcDbSymbolTable
 70
     1
100
AcDbDimStyleTable
 71
     1
340
27
  0
DIMSTYLE
105
27
102
{ACAD_REACTORS
330
42D
330
464
330
304
330
28B
330
2B3
330
270
330
298
330
2DC
330
2A6
330
27E
330
31C
330
2F7
330
DFA
330
1456
330
145D
330
1460
330
1462
330
1463
330
1481
330
1483
330
1485
330
1486
330
148C
330
14C4
330
1714
102
}
330
A
100
AcDbSymbolTableRecord
100
AcDbDimStyleTableRecord
  2
ISO-25
 70
     0
 41
30.0
 42
65.0
 43
3.75
 44
0.0
 73
     0
 74
     0
 77
     1
 78
     8
140
25.0
141
2.5
143
0.03937007874016
147
6.25
171
     3
172
     1
271
     2
272
     2
274
     3
283
     0
284
     8
340
11
341
DA
342
D0
371
    15
372
    15
  0
ENDTAB
  0
TABLE
  2
BLOCK_RECORD
  5
1
330
0
100
AcDbSymbolTable
 70
    30
  0
BLOCK_RECORD
  5
1F
102
{ACAD_XDICTIONARY
360
18BB
102
}
330
1
100
AcDbSymbolTableRecord
100
AcDbBlockTableRecord
  2
*Model_Space
340
22
  0
BLOCK_RECORD
  5
1B
330
1
100
AcDbSymbolTableRecord
100
AcDbBlockTableRecord
  2
*Paper_Space
340
1E
  0
BLOCK_RECORD
  5
23
330
1
100
AcDbSymbolTableRecord
100
AcDbBlockTableRecord
  2
*Paper_Space0
340
26
  0
BLOCK_RECORD
  5
D0
330
1
100
AcDbSymbolTableRecord
100
AcDbBlockTableRecord
  2
_DotSmall
340
0
102
{BLKREFS
331
100B
331
100C
331
1025
331
1026
331
102E
331
102F
331
1038
331
1039
331
169A
331
169B
331
16A3
331
16A4
331
16AC
331
16AD
331
16BE
331
16BF
331
16D0
331
16D1
331
16DA
331
16DB
331
16E3
331
16E4
331
16EC
331
16ED
331
16F5
331
16F6
331
1705
331
1706
331
170F
331
1710
331
175B
331
175C
331
1788
331
1789
331
179A
331
179B
331
17A3
331
17A4
331
17AD
331
17AE
331
17B5
331
17B6
331
17BE
331
17BF
331
17C8
331
17C9
331
17D3
331
17D4
331
1874
331
1875
331
18E9
331
18EA
102
}
  0
BLOCK_RECORD
  5
D4
330
1
100
AcDbSymbolTableRecord
100
AcDbBlockTableRecord
  2
_Origin2
340
0
  0
BLOCK_RECORD
  5
DA
330
1
100
AcDbSymbolTableRecord
100
AcDbBlockTableRecord
  2
_Open30
340
0
  0
BLOCK_RECORD
  5
271
330
1
100
AcDbSymbolTableRecord
100
AcDbBlockTableRecord
  2
*D4
340
0
  0
BLOCK_RECORD
  5
27F
330
1
100
AcDbSymbolTableRecord
100
AcDbBlockTableRecord
  2
*D5
340
0
  0
BLOCK_RECORD
  5
28C
330
1
100
AcDbSymbolTableRecord
100
AcDbBlockTableRecord
  2
*D6
340
0
  0
BLOCK_RECORD
  5
299
330
1
100
AcDbSymbolTableRecord
100
AcDbBlockTableRecord
  2
*D7
340
0
  0
BLOCK_RECORD
  5
2A7
330
1
100
AcDbSymbolTableRecord
100
AcDbBlockTableRecord
  2
*D8
340
0
  0
BLOCK_RECORD
  5
2B4
330
1
100
AcDbSymbolTableRecord
100
AcDbBlockTableRecord
  2
*D9
340
0
  0
BLOCK_RECORD
  5
2DD
330
1
100
AcDbSymbolTableRecord
100
AcDbBlockTableRecord
  2
*D10
340
0
  0
BLOCK_RECORD
  5
2F8
330
1
100
AcDbSymbolTableRecord
100
AcDbBlockTableRecord
  2
*D11
340
0
  0
BLOCK_RECORD
  5
305
330
1
100
AcDbSymbolTableRecord
100
AcDbBlockTableRecord
  2
*D12
340
0
  0
BLOCK_RECORD
  5
31D
330
1
100
AcDbSymbolTableRecord
100
AcDbBlockTableRecord
  2
*D13
340
0
  0
BLOCK_RECORD
  5
42E
330
1
100
AcDbSymbolTableRecord
100
AcDbBlockTableRecord
  2
*D14
340
0
  0
BLOCK_RECORD
  5
465
330
1
100
AcDbSymbolTableRecord
100
AcDbBlockTableRecord
  2
*D15
340
0
  0
BLOCK_RECORD
  5
DFB
330
1
100
AcDbSymbolTableRecord
100
AcDbBlockTableRecord
  2
*D16
340
0
  0
BLOCK_RECORD
  5
14CE
330
1
100
AcDbSymbolTableRecord
100
AcDbBlockTableRecord
  2
*D17
340
0
  0
BLOCK_RECORD
  5
14DA
330
1
100
AcDbSymbolTableRecord
100
AcDbBlockTableRecord
  2
*D18
340
0
  0
BLOCK_RECORD
  5
14E6
330
1
100
AcDbSymbolTableRecord
100
AcDbBlockTableRecord
  2
*D19
340
0
  0
BLOCK_RECORD
  5
14F2
330
1
100
AcDbSymbolTableRecord
100
AcDbBlockTableRecord
  2
*D20
340
0
  0
BLOCK_RECORD
  5
14FE
330
1
100
AcDbSymbolTableRecord
100
AcDbBlockTableRecord
  2
*D21
340
0
  0
BLOCK_RECORD
  5
152F
330
1
100
AcDbSymbolTableRecord
100
AcDbBlockTableRecord
  2
*D22
340
0
  0
BLOCK_RECORD
  5
153B
330
1
100
AcDbSymbolTableRecord
100
AcDbBlockTableRecord
  2
*D23
340
0
  0
BLOCK_RECORD
  5
1547
330
1
100
AcDbSymbolTableRecord
100
AcDbBlockTableRecord
  2
*D24
340
0
  0
BLOCK_RECORD
  5
1553
330
1
100
AcDbSymbolTableRecord
100
AcDbBlockTableRecord
  2
*D25
340
0
  0
BLOCK_RECORD
  5
155F
330
1
100
AcDbSymbolTableRecord
100
AcDbBlockTableRecord
  2
*D26
340
0
  0
BLOCK_RECORD
  5
1577
330
1
100
AcDbSymbolTableRecord
100
AcDbBlockTableRecord
  2
*D27
340
0
  0
BLOCK_RECORD
  5
1715
330
1
100
AcDbSymbolTableRecord
100
AcDbBlockTableRecord
  2
*D28
340
0
  0
ENDTAB
  0
ENDSEC
  0
SECTION
  2
BLOCKS
  0
BLOCK
  5
20
330
1F
100
AcDbEntity
  8
0
100
AcDbBlockBegin
  2
*Model_Space
 70
     0
 10
0.0
 20
0.0
 30
0.0
  3
*Model_Space
  1

  0
ENDBLK
  5
21
330
1F
100
AcDbEntity
  8
0
100
AcDbBlockEnd
  0
BLOCK
  5
1C
330
1B
100
AcDbEntity
 67
     1
  8
0
100
AcDbBlockBegin
  2
*Paper_Space
 70
     0
 10
0.0
 20
0.0
 30
0.0
  3
*Paper_Space
  1

  0
ENDBLK
  5
1D
330
1B
100
AcDbEntity
 67
     1
  8
0
100
AcDbBlockEnd
  0
BLOCK
  5
24
330
23
100
AcDbEntity
  8
0
100
AcDbBlockBegin
  2
*Paper_Space0
 70
     0
 10
0.0
 20
0.0
 30
0.0
  3
*Paper_Space0
  1

  0
ENDBLK
  5
25
330
23
100
AcDbEntity
  8
0
100
AcDbBlockEnd
  0
BLOCK
  5
D2
330
D0
100
AcDbEntity
  8
0
100
AcDbBlockBegin
  2
_DotSmall
 70
     0
 10
0.0
 20
0.0
 30
0.0
  3
_DotSmall
  1

  0
LWPOLYLINE
  5
D1
330
D0
100
AcDbEntity
  8
0
 62
     0
100
AcDbPolyline
 90
        2
 70
     1
 43
0.5
 10
-0.0625
 20
0.0
 42
1.0
 10
0.0625
 20
0.0
 42
1.0
  0
ENDBLK
  5
D3
330
D0
100
AcDbEntity
  8
0
100
AcDbBlockEnd
  0
BLOCK
  5
D8
330
D4
100
AcDbEntity
  8
0
100
AcDbBlockBegin
  2
_Origin2
 70
     0
 10
0.0
 20
0.0
 30
0.0
  3
_Origin2
  1

  0
CIRCLE
  5
D5
330
D4
100
AcDbEntity
  8
0
 62
     0
370
    -2
100
AcDbCircle
 10
0.0
 20
0.0
 30
0.0
 40
0.5
  0
CIRCLE
  5
D6
330
D4
100
AcDbEntity
  8
0
 62
     0
370
    -2
100
AcDbCircle
 10
0.0
 20
0.0
 30
0.0
 40
0.25
  0
LINE
  5
D7
330
D4
100
AcDbEntity
  8
0
 62
     0
370
    -2
100
AcDbLine
 10
-0.5
 20
0.0
 30
0.0
 11
-1.0
 21
0.0
 31
0.0
  0
ENDBLK
  5
D9
330
D4
100
AcDbEntity
  8
0
100
AcDbBlockEnd
  0
BLOCK
  5
DE
330
DA
100
AcDbEntity
  8
0
100
AcDbBlockBegin
  2
_Open30
 70
     0
 10
0.0
 20
0.0
 30
0.0
  3
_Open30
  1

  0
LINE
  5
DB
330
DA
100
AcDbEntity
  8
0
 62
     0
370
    -2
100
AcDbLine
 10
-1.0
 20
0.26794919
 30
0.0
 11
0.0
 21
0.0
 31
0.0
  0
LINE
  5
DC
330
DA
100
AcDbEntity
  8
0
 62
     0
370
    -2
100
AcDbLine
 10
0.0
 20
0.0
 30
0.0
 11
-1.0
 21
-0.26794919
 31
0.0
  0
LINE
  5
DD
330
DA
100
AcDbEntity
  8
0
 62
     0
370
    -2
100
AcDbLine
 10
0.0
 20
0.0
 30
0.0
 11
-1.0
 21
0.0
 31
0.0
  0
ENDBLK
  5
DF
330
DA
100
AcDbEntity
  8
0
100
AcDbBlockEnd
  0
BLOCK
  5
27C
330
271
100
AcDbEntity
  8
0
100
AcDbBlockBegin
  2
*D4
 70
     1
 10
0.0
 20
0.0
 30
0.0
  3
*D4
  1

  0
LINE
  5
1757
330
271
100
AcDbEntity
  8
0
 62
     0
370
    15
100
AcDbLine
 10
727.5840414949498
 20
1055.093561842788
 30
0.0
 11
687.8335393780535
 21
1055.093561842788
 31
0.0
  0
LINE
  5
1758
330
271
100
AcDbEntity
  8
0
 62
     0
370
    15
100
AcDbLine
 10
727.5840414949498
 20
1070.093561842788
 30
0.0
 11
687.8335393780535
 21
1070.093561842788
 31
0.0
  0
LINE
  5
1759
330
271
100
AcDbEntity
  8
0
 62
     0
370
    15
100
AcDbLine
 10
687.8335393780535
 20
1055.093561842788
 30
0.0
 11
687.8335393780535
 21
1070.093561842788
 31
0.0
  0
LINE
  5
175A
330
271
100
AcDbEntity
  8
0
 62
     0
370
    15
100
AcDbLine
 10
687.8335393780535
 20
1070.093561842788
 30
0.0
 11
687.8335393780535
 21
1145.926895176121
 31
0.0
  0
INSERT
  5
175B
330
271
100
AcDbEntity
  8
0
 62
     0
370
    15
100
AcDbBlockReference
  2
_DotSmall
 10
687.8335393780535
 20
1055.093561842788
 30
0.0
 41
30.0
 42
30.0
 43
30.0
 50
270.0
  0
INSERT
  5
175C
330
271
100
AcDbEntity
  8
0
 62
     0
370
    15
100
AcDbBlockReference
  2
_DotSmall
 10
687.8335393780535
 20
1070.093561842788
 30
0.0
 41
30.0
 42
30.0
 43
30.0
 50
90.0
  0
MTEXT
  5
175D
330
271
100
AcDbEntity
  8
0
 62
     0
100
AcDbMText
 10
669.0835393780534
 20
1123.010228509455
 30
0.0
 40
25.0
 41
0.0
 71
     5
 72
     1
  1
15
 11
0.0000000000000001
 21
1.0
 31
0.0
 73
     1
 44
1.0
1001
ACAD
1000
MTEXTBEGIN
1070
    73
1070
     1
1070
    44
1040
1.0
1070
    74
1070
     0
1000
MTEXTEND
  0
POINT
  5
175E
330
271
100
AcDbEntity
  8
Defpoints
 62
     0
100
AcDbPoint
 10
792.5840414949498
 20
1055.093561842788
 30
0.0
  0
POINT
  5
175F
330
271
100
AcDbEntity
  8
Defpoints
 62
     0
100
AcDbPoint
 10
792.5840414949498
 20
1070.093561842788
 30
0.0
  0
POINT
  5
1760
330
271
100
AcDbEntity
  8
Defpoints
 62
     0
100
AcDbPoint
 10
687.8335393780535
 20
1070.093561842788
 30
0.0
  0
ENDBLK
  5
27D
330
271
100
AcDbEntity
  8
0
100
AcDbBlockEnd
  0
BLOCK
  5
289
330
27F
100
AcDbEntity
  8
0
100
AcDbBlockBegin
  2
*D5
 70
     1
 10
0.0
 20
0.0
 30
0.0
  3
*D5
  1

  0
LINE
  5
1797
330
27F
100
AcDbEntity
  8
0
 62
     0
370
    15
100
AcDbLine
 10
792.5840414949498
 20
1070.093561842788
 30
0.0
 11
687.8335393780535
 21
1070.093561842788
 31
0.0
  0
LINE
  5
1798
330
27F
100
AcDbEntity
  8
0
 62
     0
370
    15
100
AcDbLine
 10
792.5840414949496
 20
1500.093561842788
 30
0.0
 11
687.8335393780536
 21
1500.093561842788
 31
0.0
  0
LINE
  5
1799
330
27F
100
AcDbEntity
  8
0
 62
     0
370
    15
100
AcDbLine
 10
687.8335393780535
 20
1070.093561842788
 30
0.0
 11
687.8335393780536
 21
1500.093561842788
 31
0.0
  0
INSERT
  5
179A
330
27F
100
AcDbEntity
  8
0
 62
     0
370
    15
100
AcDbBlockReference
  2
_DotSmall
 10
687.8335393780535
 20
1070.093561842788
 30
0.0
 41
30.0
 42
30.0
 43
30.0
 50
270.0
  0
INSERT
  5
179B
330
27F
100
AcDbEntity
  8
0
 62
     0
370
    15
100
AcDbBlockReference
  2
_DotSmall
 10
687.8335393780536
 20
1500.093561842788
 30
0.0
 41
30.0
 42
30.0
 43
30.0
 50
90.0
  0
MTEXT
  5
179C
330
27F
100
AcDbEntity
  8
0
 62
     0
100
AcDbMText
 10
669.0835393780534
 20
1285.093561842789
 30
0.0
 40
25.0
 41
0.0
 71
     5
 72
     1
  1
430
 11
0.0000000000000001
 21
1.0
 31
0.0
 73
     1
 44
1.0
1001
ACAD
1000
MTEXTBEGIN
1070
    73
1070
     1
1070
    44
1040
1.0
1070
    74
1070
     0
1000
MTEXTEND
  0
POINT
  5
179D
330
27F
100
AcDbEntity
  8
Defpoints
 62
     0
100
AcDbPoint
 10
792.5840414949498
 20
1070.093561842788
 30
0.0
  0
POINT
  5
179E
330
27F
100
AcDbEntity
  8
Defpoints
 62
     0
100
AcDbPoint
 10
792.5840414949496
 20
1500.093561842788
 30
0.0
  0
POINT
  5
179F
330
27F
100
AcDbEntity
  8
Defpoints
 62
     0
100
AcDbPoint
 10
687.8335393780536
 20
1500.093561842788
 30
0.0
  0
ENDBLK
  5
28A
330
27F
100
AcDbEntity
  8
0
100
AcDbBlockEnd
  0
BLOCK
  5
296
330
28C
100
AcDbEntity
  8
0
100
AcDbBlockBegin
  2
*D6
 70
     1
 10
0.0
 20
0.0
 30
0.0
  3
*D6
  1

  0
LINE
  5
17A0
330
28C
100
AcDbEntity
  8
0
 62
     0
370
    15
100
AcDbLine
 10
792.5840414949496
 20
1500.093561842788
 30
0.0
 11
687.8335393780536
 21
1500.093561842788
 31
0.0
  0
LINE
  5
17A1
330
28C
100
AcDbEntity
  8
0
 62
     0
370
    15
100
AcDbLine
 10
792.5840414949496
 20
1575.093561842788
 30
0.0
 11
687.8335393780536
 21
1575.093561842788
 31
0.0
  0
LINE
  5
17A2
330
28C
100
AcDbEntity
  8
0
 62
     0
370
    15
100
AcDbLine
 10
687.8335393780536
 20
1500.093561842788
 30
0.0
 11
687.8335393780536
 21
1575.093561842788
 31
0.0
  0
INSERT
  5
17A3
330
28C
100
AcDbEntity
  8
0
 62
     0
370
    15
100
AcDbBlockReference
  2
_DotSmall
 10
687.8335393780536
 20
1500.093561842788
 30
0.0
 41
30.0
 42
30.0
 43
30.0
 50
270.0
  0
INSERT
  5
17A4
330
28C
100
AcDbEntity
  8
0
 62
     0
370
    15
100
AcDbBlockReference
  2
_DotSmall
 10
687.8335393780536
 20
1575.093561842788
 30
0.0
 41
30.0
 42
30.0
 43
30.0
 50
90.0
  0
MTEXT
  5
17A5
330
28C
100
AcDbEntity
  8
0
 62
     0
100
AcDbMText
 10
669.0835393780534
 20
1537.593561842788
 30
0.0
 40
25.0
 41
0.0
 71
     5
 72
     1
  1
75
 11
0.0000000000000001
 21
1.0
 31
0.0
 73
     1
 44
1.0
1001
ACAD
1000
MTEXTBEGIN
1070
    73
1070
     1
1070
    44
1040
1.0
1070
    74
1070
     0
1000
MTEXTEND
  0
POINT
  5
17A6
330
28C
100
AcDbEntity
  8
Defpoints
 62
     0
100
AcDbPoint
 10
792.5840414949496
 20
1500.093561842788
 30
0.0
  0
POINT
  5
17A7
330
28C
100
AcDbEntity
  8
Defpoints
 62
     0
100
AcDbPoint
 10
792.5840414949496
 20
1575.093561842788
 30
0.0
  0
POINT
  5
17A8
330
28C
100
AcDbEntity
  8
Defpoints
 62
     0
100
AcDbPoint
 10
687.8335393780536
 20
1575.093561842788
 30
0.0
  0
ENDBLK
  5
297
330
28C
100
AcDbEntity
  8
0
100
AcDbBlockEnd
  0
BLOCK
  5
2A4
330
299
100
AcDbEntity
  8
0
100
AcDbBlockBegin
  2
*D7
 70
     1
 10
0.0
 20
0.0
 30
0.0
  3
*D7
  1

  0
LINE
  5
17C4
330
299
100
AcDbEntity
  8
0
 62
     0
370
    15
100
AcDbLine
 10
792.5840414949496
 20
1020.093561842788
 30
0.0
 11
615.2051194749211
 21
1020.093561842788
 31
0.0
  0
LINE
  5
17C5
330
299
100
AcDbEntity
  8
0
 62
     0
370
    15
100
AcDbLine
 10
792.5840414949498
 20
1055.093561842788
 30
0.0
 11
615.2051194749211
 21
1055.093561842788
 31
0.0
  0
LINE
  5
17C6
330
299
100
AcDbEntity
  8
0
 62
     0
370
    15
100
AcDbLine
 10
615.2051194749211
 20
1020.093561842788
 30
0.0
 11
615.2051194749211
 21
1055.093561842788
 31
0.0
  0
MTEXT
  5
17C7
330
299
100
AcDbEntity
  8
0
 62
     0
100
AcDbMText
 10
593.2442089100813
 20
1049.233430008754
 30
0.0
 40
25.0
 41
0.0
 71
     5
 72
     1
  1
35
 11
0.0000000000000001
 21
1.0
 31
0.0
 73
     1
 44
1.0
1001
ACAD
1000
MTEXTBEGIN
1070
    73
1070
     1
1070
    44
1040
1.0
1070
    74
1070
     0
1000
MTEXTEND
  0
INSERT
  5
17C8
330
299
100
AcDbEntity
  8
0
 62
     0
370
    15
100
AcDbBlockReference
  2
_DotSmall
 10
615.2051194749211
 20
1020.093561842788
 30
0.0
 41
30.0
 42
30.0
 43
30.0
 50
270.0
  0
INSERT
  5
17C9
330
299
100
AcDbEntity
  8
0
 62
     0
370
    15
100
AcDbBlockReference
  2
_DotSmall
 10
615.2051194749211
 20
1055.093561842788
 30
0.0
 41
30.0
 42
30.0
 43
30.0
 50
90.0
  0
POINT
  5
17CA
330
299
100
AcDbEntity
  8
Defpoints
 62
     0
100
AcDbPoint
 10
792.5840414949496
 20
1020.093561842788
 30
0.0
  0
POINT
  5
17CB
330
299
100
AcDbEntity
  8
Defpoints
 62
     0
100
AcDbPoint
 10
792.5840414949498
 20
1055.093561842788
 30
0.0
  0
POINT
  5
17CC
330
299
100
AcDbEntity
  8
Defpoints
 62
     0
100
AcDbPoint
 10
615.2051194749211
 20
1055.093561842788
 30
0.0
  0
ENDBLK
  5
2A5
330
299
100
AcDbEntity
  8
0
100
AcDbBlockEnd
  0
BLOCK
  5
2B1
330
2A7
100
AcDbEntity
  8
0
100
AcDbBlockBegin
  2
*D8
 70
     1
 10
0.0
 20
0.0
 30
0.0
  3
*D8
  1

  0
LINE
  5
17B2
330
2A7
100
AcDbEntity
  8
0
 62
     0
370
    15
100
AcDbLine
 10
792.5840414949498
 20
1055.093561842788
 30
0.0
 11
615.205119474921
 21
1055.093561842788
 31
0.0
  0
LINE
  5
17B3
330
2A7
100
AcDbEntity
  8
0
 62
     0
370
    15
100
AcDbLine
 10
792.5840414949496
 20
1575.093561842788
 30
0.0
 11
615.2051194749211
 21
1575.093561842788
 31
0.0
  0
LINE
  5
17B4
330
2A7
100
AcDbEntity
  8
0
 62
     0
370
    15
100
AcDbLine
 10
615.205119474921
 20
1055.093561842788
 30
0.0
 11
615.2051194749211
 21
1575.093561842788
 31
0.0
  0
INSERT
  5
17B5
330
2A7
100
AcDbEntity
  8
0
 62
     0
370
    15
100
AcDbBlockReference
  2
_DotSmall
 10
615.205119474921
 20
1055.093561842788
 30
0.0
 41
30.0
 42
30.0
 43
30.0
 50
270.0
  0
INSERT
  5
17B6
330
2A7
100
AcDbEntity
  8
0
 62
     0
370
    15
100
AcDbBlockReference
  2
_DotSmall
 10
615.2051194749211
 20
1575.093561842788
 30
0.0
 41
30.0
 42
30.0
 43
30.0
 50
90.0
  0
MTEXT
  5
17B7
330
2A7
100
AcDbEntity
  8
0
 62
     0
100
AcDbMText
 10
596.4551194749209
 20
1315.093561842789
 30
0.0
 40
25.0
 41
0.0
 71
     5
 72
     1
  1
520
 11
0.0000000000000001
 21
1.0
 31
0.0
 73
     1
 44
1.0
1001
ACAD
1000
MTEXTBEGIN
1070
    73
1070
     1
1070
    44
1040
1.0
1070
    74
1070
     0
1000
MTEXTEND
  0
POINT
  5
17B8
330
2A7
100
AcDbEntity
  8
Defpoints
 62
     0
100
AcDbPoint
 10
792.5840414949498
 20
1055.093561842788
 30
0.0
  0
POINT
  5
17B9
330
2A7
100
AcDbEntity
  8
Defpoints
 62
     0
100
AcDbPoint
 10
792.5840414949496
 20
1575.093561842788
 30
0.0
  0
POINT
  5
17BA
330
2A7
100
AcDbEntity
  8
Defpoints
 62
     0
100
AcDbPoint
 10
615.2051194749211
 20
1575.093561842788
 30
0.0
  0
ENDBLK
  5
2B2
330
2A7
100
AcDbEntity
  8
0
100
AcDbBlockEnd
  0
BLOCK
  5
2BE
330
2B4
100
AcDbEntity
  8
0
100
AcDbBlockBegin
  2
*D9
 70
     1
 10
0.0
 20
0.0
 30
0.0
  3
*D9
  1

  0
LINE
  5
17A9
330
2B4
100
AcDbEntity
  8
0
 62
     0
370
    15
100
AcDbLine
 10
792.5840414949496
 20
1575.093561842788
 30
0.0
 11
615.2051194749211
 21
1575.093561842788
 31
0.0
  0
LINE
  5
17AA
330
2B4
100
AcDbEntity
  8
0
 62
     0
370
    15
100
AcDbLine
 10
792.5840414949496
 20
1610.093561842789
 30
0.0
 11
615.2051194749211
 21
1610.093561842789
 31
0.0
  0
LINE
  5
17AB
330
2B4
100
AcDbEntity
  8
0
 62
     0
370
    15
100
AcDbLine
 10
615.2051194749211
 20
1575.093561842788
 30
0.0
 11
615.2051194749211
 21
1610.093561842789
 31
0.0
  0
MTEXT
  5
17AC
330
2B4
100
AcDbEntity
  8
0
 62
     0
100
AcDbMText
 10
593.2442089100813
 20
1581.461311335788
 30
0.0
 40
25.0
 41
0.0
 71
     5
 72
     1
  1
35
 11
0.0000000000000001
 21
1.0
 31
0.0
 73
     1
 44
1.0
1001
ACAD
1000
MTEXTBEGIN
1070
    73
1070
     1
1070
    44
1040
1.0
1070
    74
1070
     0
1000
MTEXTEND
  0
INSERT
  5
17AD
330
2B4
100
AcDbEntity
  8
0
 62
     0
370
    15
100
AcDbBlockReference
  2
_DotSmall
 10
615.2051194749211
 20
1575.093561842788
 30
0.0
 41
30.0
 42
30.0
 43
30.0
 50
270.0
  0
INSERT
  5
17AE
330
2B4
100
AcDbEntity
  8
0
 62
     0
370
    15
100
AcDbBlockReference
  2
_DotSmall
 10
615.2051194749211
 20
1610.093561842789
 30
0.0
 41
30.0
 42
30.0
 43
30.0
 50
90.0
  0
POINT
  5
17AF
330
2B4
100
AcDbEntity
  8
Defpoints
 62
     0
100
AcDbPoint
 10
792.5840414949496
 20
1575.093561842788
 30
0.0
  0
POINT
  5
17B0
330
2B4
100
AcDbEntity
  8
Defpoints
 62
     0
100
AcDbPoint
 10
792.5840414949496
 20
1610.093561842789
 30
0.0
  0
POINT
  5
17B1
330
2B4
100
AcDbEntity
  8
Defpoints
 62
     0
100
AcDbPoint
 10
615.2051194749211
 20
1610.093561842789
 30
0.0
  0
ENDBLK
  5
2BF
330
2B4
100
AcDbEntity
  8
0
100
AcDbBlockEnd
  0
BLOCK
  5
2E7
330
2DD
100
AcDbEntity
  8
0
100
AcDbBlockBegin
  2
*D10
 70
     1
 10
0.0
 20
0.0
 30
0.0
  3
*D10
  1

  0
LINE
  5
17BB
330
2DD
100
AcDbEntity
  8
0
 62
     0
370
    15
100
AcDbLine
 10
792.5840414949496
 20
1020.093561842788
 30
0.0
 11
545.734467105607
 21
1020.093561842788
 31
0.0
  0
LINE
  5
17BC
330
2DD
100
AcDbEntity
  8
0
 62
     0
370
    15
100
AcDbLine
 10
792.5840414949496
 20
1610.093561842789
 30
0.0
 11
545.7344671056071
 21
1610.093561842789
 31
0.0
  0
LINE
  5
17BD
330
2DD
100
AcDbEntity
  8
0
 62
     0
370
    15
100
AcDbLine
 10
545.734467105607
 20
1020.093561842788
 30
0.0
 11
545.7344671056071
 21
1610.093561842789
 31
0.0
  0
INSERT
  5
17BE
330
2DD
100
AcDbEntity
  8
0
 62
     0
370
    15
100
AcDbBlockReference
  2
_DotSmall
 10
545.734467105607
 20
1020.093561842788
 30
0.0
 41
30.0
 42
30.0
 43
30.0
 50
270.0
  0
INSERT
  5
17BF
330
2DD
100
AcDbEntity
  8
0
 62
     0
370
    15
100
AcDbBlockReference
  2
_DotSmall
 10
545.7344671056071
 20
1610.093561842789
 30
0.0
 41
30.0
 42
30.0
 43
30.0
 50
90.0
  0
MTEXT
  5
17C0
330
2DD
100
AcDbEntity
  8
0
 62
     0
100
AcDbMText
 10
526.9844671056069
 20
1315.093561842789
 30
0.0
 40
25.0
 41
0.0
 71
     5
 72
     1
  1
590
 11
0.0000000000000001
 21
1.0
 31
0.0
 73
     1
 44
1.0
1001
ACAD
1000
MTEXTBEGIN
1070
    73
1070
     1
1070
    44
1040
1.0
1070
    74
1070
     0
1000
MTEXTEND
  0
POINT
  5
17C1
330
2DD
100
AcDbEntity
  8
Defpoints
 62
     0
100
AcDbPoint
 10
792.5840414949496
 20
1020.093561842788
 30
0.0
  0
POINT
  5
17C2
330
2DD
100
AcDbEntity
  8
Defpoints
 62
     0
100
AcDbPoint
 10
792.5840414949496
 20
1610.093561842789
 30
0.0
  0
POINT
  5
17C3
330
2DD
100
AcDbEntity
  8
Defpoints
 62
     0
100
AcDbPoint
 10
545.7344671056071
 20
1610.093561842789
 30
0.0
  0
ENDBLK
  5
2E8
330
2DD
100
AcDbEntity
  8
0
100
AcDbBlockEnd
  0
BLOCK
  5
302
330
2F8
100
AcDbEntity
  8
0
100
AcDbBlockBegin
  2
*D11
 70
     1
 10
0.0
 20
0.0
 30
0.0
  3
*D11
  1

  0
LINE
  5
102B
330
2F8
100
AcDbEntity
  8
0
 62
     0
370
    15
100
AcDbLine
 10
889.5107194732053
 20
955.0935618427883
 30
0.0
 11
889.5107194732053
 21
916.1857900480718
 31
0.0
  0
LINE
  5
102C
330
2F8
100
AcDbEntity
  8
0
 62
     0
370
    15
100
AcDbLine
 10
1539.510719473205
 20
955.0935618427882
 30
0.0
 11
1539.510719473205
 21
916.1857900480718
 31
0.0
  0
LINE
  5
102D
330
2F8
100
AcDbEntity
  8
0
 62
     0
370
    15
100
AcDbLine
 10
889.5107194732053
 20
916.1857900480718
 30
0.0
 11
1539.510719473205
 21
916.1857900480718
 31
0.0
  0
INSERT
  5
102E
330
2F8
100
AcDbEntity
  8
0
 62
     0
370
    15
100
AcDbBlockReference
  2
_DotSmall
 10
889.5107194732053
 20
916.1857900480718
 30
0.0
 41
30.0
 42
30.0
 43
30.0
 50
180.0
  0
INSERT
  5
102F
330
2F8
100
AcDbEntity
  8
0
 62
     0
370
    15
100
AcDbBlockReference
  2
_DotSmall
 10
1539.510719473205
 20
916.1857900480718
 30
0.0
 41
30.0
 42
30.0
 43
30.0
  0
MTEXT
  5
1030
330
2F8
100
AcDbEntity
  8
0
 62
     0
100
AcDbMText
 10
1214.510719473205
 20
934.9357900480718
 30
0.0
 40
25.0
 41
0.0
 71
     5
 72
     1
  1
650
 73
     1
 44
1.0
1001
ACAD
1000
MTEXTBEGIN
1070
    73
1070
     1
1070
    44
1040
1.0
1070
    74
1070
     0
1000
MTEXTEND
  0
POINT
  5
1031
330
2F8
100
AcDbEntity
  8
Defpoints
 62
     0
100
AcDbPoint
 10
889.5107194732053
 20
1020.093561842788
 30
0.0
  0
POINT
  5
1032
330
2F8
100
AcDbEntity
  8
Defpoints
 62
     0
100
AcDbPoint
 10
1539.510719473205
 20
1020.093561842788
 30
0.0
  0
POINT
  5
1033
330
2F8
100
AcDbEntity
  8
Defpoints
 62
     0
100
AcDbPoint
 10
1539.510719473205
 20
916.1857900480718
 30
0.0
  0
ENDBLK
  5
303
330
2F8
100
AcDbEntity
  8
0
100
AcDbBlockEnd
  0
BLOCK
  5
311
330
305
100
AcDbEntity
  8
0
100
AcDbBlockBegin
  2
*D12
 70
     1
 10
0.0
 20
0.0
 30
0.0
  3
*D12
  1

  0
LINE
  5
1034
330
305
100
AcDbEntity
  8
0
 62
     0
370
    15
100
AcDbLine
 10
1539.510719473205
 20
955.0935618427882
 30
0.0
 11
1539.510719473205
 21
916.1857900480718
 31
0.0
  0
LINE
  5
1035
330
305
100
AcDbEntity
  8
0
 62
     0
370
    15
100
AcDbLine
 10
1574.510719473205
 20
955.0935618427883
 30
0.0
 11
1574.510719473205
 21
916.1857900480718
 31
0.0
  0
LINE
  5
1036
330
305
100
AcDbEntity
  8
0
 62
     0
370
    15
100
AcDbLine
 10
1539.510719473205
 20
916.1857900480718
 30
0.0
 11
1574.510719473205
 21
916.1857900480718
 31
0.0
  0
MTEXT
  5
1037
330
305
100
AcDbEntity
  8
0
 62
     0
100
AcDbMText
 10
1496.052503888749
 20
934.9357900480718
 30
0.0
 40
25.0
 41
0.0
 71
     5
 72
     1
  1
35
 73
     1
 44
1.0
1001
ACAD
1000
MTEXTBEGIN
1070
    73
1070
     1
1070
    44
1040
1.0
1070
    74
1070
     0
1000
MTEXTEND
  0
INSERT
  5
1038
330
305
100
AcDbEntity
  8
0
 62
     0
370
    15
100
AcDbBlockReference
  2
_DotSmall
 10
1539.510719473205
 20
916.1857900480718
 30
0.0
 41
30.0
 42
30.0
 43
30.0
 50
180.0
  0
INSERT
  5
1039
330
305
100
AcDbEntity
  8
0
 62
     0
370
    15
100
AcDbBlockReference
  2
_DotSmall
 10
1574.510719473205
 20
916.1857900480718
 30
0.0
 41
30.0
 42
30.0
 43
30.0
  0
POINT
  5
103A
330
305
100
AcDbEntity
  8
Defpoints
 62
     0
100
AcDbPoint
 10
1539.510719473205
 20
1020.093561842788
 30
0.0
  0
POINT
  5
103B
330
305
100
AcDbEntity
  8
Defpoints
 62
     0
100
AcDbPoint
 10
1574.510719473205
 20
1020.093561842788
 30
0.0
  0
POINT
  5
103C
330
305
100
AcDbEntity
  8
Defpoints
 62
     0
100
AcDbPoint
 10
1574.510719473205
 20
916.1857900480718
 30
0.0
  0
ENDBLK
  5
312
330
305
100
AcDbEntity
  8
0
100
AcDbBlockEnd
  0
BLOCK
  5
327
330
31D
100
AcDbEntity
  8
0
100
AcDbBlockBegin
  2
*D13
 70
     1
 10
0.0
 20
0.0
 30
0.0
  3
*D13
  1

  0
LINE
  5
1022
330
31D
100
AcDbEntity
  8
0
 62
     0
370
    15
100
AcDbLine
 10
854.5107194732052
 20
955.0935618427883
 30
0.0
 11
854.5107194732052
 21
845.8270180928648
 31
0.0
  0
LINE
  5
1023
330
31D
100
AcDbEntity
  8
0
 62
     0
370
    15
100
AcDbLine
 10
1574.510719473205
 20
955.0935618427883
 30
0.0
 11
1574.510719473205
 21
845.8270180928648
 31
0.0
  0
LINE
  5
1024
330
31D
100
AcDbEntity
  8
0
 62
     0
370
    15
100
AcDbLine
 10
854.5107194732052
 20
845.8270180928648
 30
0.0
 11
1574.510719473205
 21
845.8270180928648
 31
0.0
  0
INSERT
  5
1025
330
31D
100
AcDbEntity
  8
0
 62
     0
370
    15
100
AcDbBlockReference
  2
_DotSmall
 10
854.5107194732052
 20
845.8270180928648
 30
0.0
 41
30.0
 42
30.0
 43
30.0
 50
180.0
  0
INSERT
  5
1026
330
31D
100
AcDbEntity
  8
0
 62
     0
370
    15
100
AcDbBlockReference
  2
_DotSmall
 10
1574.510719473205
 20
845.8270180928648
 30
0.0
 41
30.0
 42
30.0
 43
30.0
  0
MTEXT
  5
1027
330
31D
100
AcDbEntity
  8
0
 62
     0
100
AcDbMText
 10
1214.510719473205
 20
864.5770180928648
 30
0.0
 40
25.0
 41
0.0
 71
     5
 72
     1
  1
720
 73
     1
 44
1.0
1001
ACAD
1000
MTEXTBEGIN
1070
    73
1070
     1
1070
    44
1040
1.0
1070
    74
1070
     0
1000
MTEXTEND
  0
POINT
  5
1028
330
31D
100
AcDbEntity
  8
Defpoints
 62
     0
100
AcDbPoint
 10
854.5107194732052
 20
1020.093561842788
 30
0.0
  0
POINT
  5
1029
330
31D
100
AcDbEntity
  8
Defpoints
 62
     0
100
AcDbPoint
 10
1574.510719473205
 20
1020.093561842788
 30
0.0
  0
POINT
  5
102A
330
31D
100
AcDbEntity
  8
Defpoints
 62
     0
100
AcDbPoint
 10
1574.510719473205
 20
845.8270180928648
 30
0.0
  0
ENDBLK
  5
328
330
31D
100
AcDbEntity
  8
0
100
AcDbBlockEnd
  0
BLOCK
  5
439
330
42E
100
AcDbEntity
  8
0
100
AcDbBlockBegin
  2
*D14
 70
     1
 10
0.0
 20
0.0
 30
0.0
  3
*D14
  1

  0
LINE
  5
170B
330
42E
100
AcDbEntity
  8
0
 62
     0
370
    15
100
AcDbLine
 10
1626.510719473204
 20
627.5263667117398
 30
0.0
 11
1674.168661429106
 21
627.5263667117398
 31
0.0
  0
LINE
  5
170C
330
42E
100
AcDbEntity
  8
0
 62
     0
370
    15
100
AcDbLine
 10
1626.510719473204
 20
642.5263667117397
 30
0.0
 11
1674.168661429106
 21
642.5263667117397
 31
0.0
  0
LINE
  5
170D
330
42E
100
AcDbEntity
  8
0
 62
     0
370
    15
100
AcDbLine
 10
1674.168661429106
 20
627.5263667117398
 30
0.0
 11
1674.168661429106
 21
642.5263667117397
 31
0.0
  0
MTEXT
  5
170E
330
42E
100
AcDbEntity
  8
0
 62
     0
100
AcDbMText
 10
1700.226413520772
 20
672.2958293667952
 30
0.0
 40
25.0
 41
0.0
 71
     5
 72
     1
  1
15
 11
0.0000000000000001
 21
1.0
 31
0.0
 73
     1
 44
1.0
1001
ACAD
1000
MTEXTBEGIN
1070
    73
1070
     1
1070
    44
1040
1.0
1070
    74
1070
     0
1000
MTEXTEND
  0
INSERT
  5
170F
330
42E
100
AcDbEntity
  8
0
 62
     0
370
    15
100
AcDbBlockReference
  2
_DotSmall
 10
1674.168661429106
 20
627.5263667117398
 30
0.0
 41
30.0
 42
30.0
 43
30.0
 50
270.0
  0
INSERT
  5
1710
330
42E
100
AcDbEntity
  8
0
 62
     0
370
    15
100
AcDbBlockReference
  2
_DotSmall
 10
1674.168661429106
 20
642.5263667117397
 30
0.0
 41
30.0
 42
30.0
 43
30.0
 50
90.0
  0
POINT
  5
1711
330
42E
100
AcDbEntity
  8
Defpoints
 62
     0
100
AcDbPoint
 10
1561.510719473204
 20
627.5263667117398
 30
0.0
  0
POINT
  5
1712
330
42E
100
AcDbEntity
  8
Defpoints
 62
     0
100
AcDbPoint
 10
1561.510719473204
 20
642.5263667117397
 30
0.0
  0
POINT
  5
1713
330
42E
100
AcDbEntity
  8
Defpoints
 62
     0
100
AcDbPoint
 10
1674.168661429106
 20
642.5263667117397
 30
0.0
  0
ENDBLK
  5
43A
330
42E
100
AcDbEntity
  8
0
100
AcDbBlockEnd
  0
BLOCK
  5
46F
330
465
100
AcDbEntity
  8
0
100
AcDbBlockBegin
  2
*D15
 70
     1
 10
0.0
 20
0.0
 30
0.0
  3
*D15
  1

  0
LINE
  5
1702
330
465
100
AcDbEntity
  8
0
 62
     0
370
    15
100
AcDbLine
 10
1626.510719473204
 20
642.5263667117397
 30
0.0
 11
1752.800877861608
 21
642.5263667117397
 31
0.0
  0
LINE
  5
1703
330
465
100
AcDbEntity
  8
0
 62
     0
370
    15
100
AcDbLine
 10
1626.510719473204
 20
452.5263667117399
 30
0.0
 11
1752.800877861607
 21
452.5263667117398
 31
0.0
  0
LINE
  5
1704
330
465
100
AcDbEntity
  8
0
 62
     0
370
    15
100
AcDbLine
 10
1752.800877861608
 20
642.5263667117397
 30
0.0
 11
1752.800877861607
 21
452.5263667117398
 31
0.0
  0
INSERT
  5
1705
330
465
100
AcDbEntity
  8
0
 62
     0
370
    15
100
AcDbBlockReference
  2
_DotSmall
 10
1752.800877861608
 20
642.5263667117397
 30
0.0
 41
30.0
 42
30.0
 43
30.0
 50
90.0
  0
INSERT
  5
1706
330
465
100
AcDbEntity
  8
0
 62
     0
370
    15
100
AcDbBlockReference
  2
_DotSmall
 10
1752.800877861607
 20
452.5263667117398
 30
0.0
 41
30.0
 42
30.0
 43
30.0
 50
270.0
  0
MTEXT
  5
1707
330
465
100
AcDbEntity
  8
0
 62
     0
100
AcDbMText
 10
1734.050877861607
 20
547.52636671174
 30
0.0
 40
25.0
 41
0.0
 71
     5
 72
     1
  1
190
 11
0.0000000000000001
 21
1.0
 31
0.0
 73
     1
 44
1.0
1001
ACAD
1000
MTEXTBEGIN
1070
    73
1070
     1
1070
    44
1040
1.0
1070
    74
1070
     0
1000
MTEXTEND
  0
POINT
  5
1708
330
465
100
AcDbEntity
  8
Defpoints
 62
     0
100
AcDbPoint
 10
1561.510719473204
 20
642.5263667117397
 30
0.0
  0
POINT
  5
1709
330
465
100
AcDbEntity
  8
Defpoints
 62
     0
100
AcDbPoint
 10
1561.510719473204
 20
452.5263667117399
 30
0.0
  0
POINT
  5
170A
330
465
100
AcDbEntity
  8
Defpoints
 62
     0
100
AcDbPoint
 10
1752.800877861607
 20
452.5263667117398
 30
0.0
  0
ENDBLK
  5
470
330
465
100
AcDbEntity
  8
0
100
AcDbBlockEnd
  0
BLOCK
  5
E07
330
DFB
100
AcDbEntity
  8
0
100
AcDbBlockBegin
  2
*D16
 70
     1
 10
0.0
 20
0.0
 30
0.0
  3
*D16
  1

  0
LINE
  5
1007
330
DFB
100
AcDbEntity
  8
実形
 62
     0
370
    15
100
AcDbLine
 10
889.5107194732053
 20
955.0935618427883
 30
0.0
 11
889.5107194732053
 21
916.1857900480718
 31
0.0
  0
LINE
  5
1008
330
DFB
100
AcDbEntity
  8
実形
 62
     0
370
    15
100
AcDbLine
 10
854.5107194732052
 20
955.0935618427883
 30
0.0
 11
854.5107194732052
 21
916.1857900480718
 31
0.0
  0
LINE
  5
1009
330
DFB
100
AcDbEntity
  8
実形
 62
     0
370
    15
100
AcDbLine
 10
889.5107194732053
 20
916.1857900480718
 30
0.0
 11
854.5107194732052
 21
916.1857900480718
 31
0.0
  0
MTEXT
  5
100A
330
DFB
100
AcDbEntity
  8
実形
 62
     0
100
AcDbMText
 10
918.3352548357269
 20
935.3717174741568
 30
0.0
 40
25.0
 41
0.0
 71
     5
 72
     1
  1
35
 73
     1
 44
1.0
1001
ACAD
1000
MTEXTBEGIN
1070
    73
1070
     1
1070
    44
1040
1.0
1070
    74
1070
     0
1000
MTEXTEND
  0
INSERT
  5
100B
330
DFB
100
AcDbEntity
  8
実形
 62
     0
370
    15
100
AcDbBlockReference
  2
_DotSmall
 10
889.5107194732053
 20
916.1857900480718
 30
0.0
 41
30.0
 42
30.0
 43
30.0
  0
INSERT
  5
100C
330
DFB
100
AcDbEntity
  8
実形
 62
     0
370
    15
100
AcDbBlockReference
  2
_DotSmall
 10
854.5107194732052
 20
916.1857900480718
 30
0.0
 41
30.0
 42
30.0
 43
30.0
 50
180.0
  0
POINT
  5
100D
330
DFB
100
AcDbEntity
  8
Defpoints
 62
     0
100
AcDbPoint
 10
889.5107194732053
 20
1020.093561842788
 30
0.0
  0
POINT
  5
100E
330
DFB
100
AcDbEntity
  8
Defpoints
 62
     0
100
AcDbPoint
 10
854.5107194732052
 20
1020.093561842788
 30
0.0
  0
POINT
  5
100F
330
DFB
100
AcDbEntity
  8
Defpoints
 62
     0
100
AcDbPoint
 10
854.5107194732052
 20
916.1857900480718
 30
0.0
  0
ENDBLK
  5
E08
330
DFB
100
AcDbEntity
  8
0
100
AcDbBlockEnd
  0
BLOCK
  5
14D8
330
14CE
100
AcDbEntity
  8
0
100
AcDbBlockBegin
  2
*D17
 70
     1
 10
0.0
 20
0.0
 30
0.0
  3
*D17
  1

  0
LINE
  5
16D6
330
14CE
100
AcDbEntity
  8
実形
 62
     0
370
    15
100
AcDbLine
 10
1049.010719473205
 20
517.5263667117398
 30
0.0
 11
1049.010719473205
 21
554.6793912497117
 31
0.0
  0
LINE
  5
16D7
330
14CE
100
AcDbEntity
  8
実形
 62
     0
370
    15
100
AcDbLine
 10
1029.010719473205
 20
517.5263667117404
 30
0.0
 11
1029.010719473205
 21
554.6793912497117
 31
0.0
  0
LINE
  5
16D8
330
14CE
100
AcDbEntity
  8
実形
 62
     0
370
    15
100
AcDbLine
 10
1049.010719473205
 20
554.6793912497117
 30
0.0
 11
1029.010719473205
 21
554.6793912497117
 31
0.0
  0
MTEXT
  5
16D9
330
14CE
100
AcDbEntity
  8
実形
 62
     0
100
AcDbMText
 10
1038.170999818037
 20
578.5903999645641
 30
0.0
 40
25.0
 41
0.0
 71
     5
 72
     1
  1
20
 73
     1
 44
1.0
1001
ACAD
1000
MTEXTBEGIN
1070
    73
1070
     1
1070
    44
1040
1.0
1070
    74
1070
     0
1000
MTEXTEND
  0
INSERT
  5
16DA
330
14CE
100
AcDbEntity
  8
実形
 62
     0
370
    15
100
AcDbBlockReference
  2
_DotSmall
 10
1049.010719473205
 20
554.6793912497117
 30
0.0
 41
30.0
 42
30.0
 43
30.0
  0
INSERT
  5
16DB
330
14CE
100
AcDbEntity
  8
実形
 62
     0
370
    15
100
AcDbBlockReference
  2
_DotSmall
 10
1029.010719473205
 20
554.6793912497117
 30
0.0
 41
30.0
 42
30.0
 43
30.0
 50
180.0
  0
POINT
  5
16DC
330
14CE
100
AcDbEntity
  8
Defpoints
 62
     0
100
AcDbPoint
 10
1049.010719473205
 20
452.5263667117399
 30
0.0
  0
POINT
  5
16DD
330
14CE
100
AcDbEntity
  8
Defpoints
 62
     0
100
AcDbPoint
 10
1029.010719473205
 20
452.5263667117403
 30
0.0
  0
POINT
  5
16DE
330
14CE
100
AcDbEntity
  8
Defpoints
 62
     0
100
AcDbPoint
 10
1029.010719473205
 20
554.6793912497117
 30
0.0
  0
ENDBLK
  5
14D9
330
14CE
100
AcDbEntity
  8
0
100
AcDbBlockEnd
  0
BLOCK
  5
14E4
330
14DA
100
AcDbEntity
  8
0
100
AcDbBlockBegin
  2
*D18
 70
     1
 10
0.0
 20
0.0
 30
0.0
  3
*D18
  1

  0
LINE
  5
17CF
330
14DA
100
AcDbEntity
  8
0
 62
     0
370
    15
100
AcDbLine
 10
992.7656554971068
 20
1560.093561842788
 30
0.0
 11
981.7381589015647
 21
1560.093561842788
 31
0.0
  0
LINE
  5
17D0
330
14DA
100
AcDbEntity
  8
0
 62
     0
370
    15
100
AcDbLine
 10
1009.510719473205
 20
1575.093561842789
 30
0.0
 11
981.7381589015647
 21
1575.093561842789
 31
0.0
  0
LINE
  5
17D1
330
14DA
100
AcDbEntity
  8
0
 62
     0
370
    15
100
AcDbLine
 10
981.7381589015647
 20
1560.093561842788
 30
0.0
 11
981.7381589015647
 21
1575.093561842789
 31
0.0
  0
MTEXT
  5
17D2
330
14DA
100
AcDbEntity
  8
0
 62
     0
100
AcDbMText
 10
955.5971495860376
 20
1550.691120803756
 30
0.0
 40
25.0
 41
0.0
 71
     5
 72
     1
  1
15
 11
0.0000000000000001
 21
1.0
 31
0.0
 73
     1
 44
1.0
1001
ACAD
1000
MTEXTBEGIN
1070
    73
1070
     1
1070
    44
1040
1.0
1070
    74
1070
     0
1000
MTEXTEND
  0
INSERT
  5
17D3
330
14DA
100
AcDbEntity
  8
0
 62
     0
370
    15
100
AcDbBlockReference
  2
_DotSmall
 10
981.7381589015647
 20
1560.093561842788
 30
0.0
 41
30.0
 42
30.0
 43
30.0
 50
270.0
  0
INSERT
  5
17D4
330
14DA
100
AcDbEntity
  8
0
 62
     0
370
    15
100
AcDbBlockReference
  2
_DotSmall
 10
981.7381589015647
 20
1575.093561842789
 30
0.0
 41
30.0
 42
30.0
 43
30.0
 50
90.0
  0
POINT
  5
17D5
330
14DA
100
AcDbEntity
  8
Defpoints
 62
     0
100
AcDbPoint
 10
1057.765655497107
 20
1560.093561842788
 30
0.0
  0
POINT
  5
17D6
330
14DA
100
AcDbEntity
  8
Defpoints
 62
     0
100
AcDbPoint
 10
1074.510719473205
 20
1575.093561842789
 30
0.0
  0
POINT
  5
17D7
330
14DA
100
AcDbEntity
  8
Defpoints
 62
     0
100
AcDbPoint
 10
981.7381589015647
 20
1575.093561842789
 30
0.0
  0
ENDBLK
  5
14E5
330
14DA
100
AcDbEntity
  8
0
100
AcDbBlockEnd
  0
BLOCK
  5
14F0
330
14E6
100
AcDbEntity
  8
0
100
AcDbBlockBegin
  2
*D19
 70
     1
 10
0.0
 20
0.0
 30
0.0
  3
*D19
  1

  0
LINE
  5
16A9
330
14E6
100
AcDbEntity
  8
0
 62
     0
370
    15
100
AcDbLine
 10
1009.510719473205
 20
1722.093561842789
 30
0.0
 11
1009.510719473205
 21
1738.604527756736
 31
0.0
  0
LINE
  5
16AA
330
14E6
100
AcDbEntity
  8
0
 62
     0
370
    15
100
AcDbLine
 10
1269.510719473205
 20
1722.093561842789
 30
0.0
 11
1269.510719473205
 21
1738.604527756736
 31
0.0
  0
LINE
  5
16AB
330
14E6
100
AcDbEntity
  8
0
 62
     0
370
    15
100
AcDbLine
 10
1009.510719473205
 20
1738.604527756736
 30
0.0
 11
1269.510719473205
 21
1738.604527756736
 31
0.0
  0
INSERT
  5
16AC
330
14E6
100
AcDbEntity
  8
0
 62
     0
370
    15
100
AcDbBlockReference
  2
_DotSmall
 10
1009.510719473205
 20
1738.604527756736
 30
0.0
 41
30.0
 42
30.0
 43
30.0
 50
180.0
  0
INSERT
  5
16AD
330
14E6
100
AcDbEntity
  8
0
 62
     0
370
    15
100
AcDbBlockReference
  2
_DotSmall
 10
1269.510719473205
 20
1738.604527756736
 30
0.0
 41
30.0
 42
30.0
 43
30.0
  0
MTEXT
  5
16AE
330
14E6
100
AcDbEntity
  8
0
 62
     0
100
AcDbMText
 10
1139.510719473205
 20
1757.354527756736
 30
0.0
 40
25.0
 41
0.0
 71
     5
 72
     1
  1
260
 73
     1
 44
1.0
1001
ACAD
1000
MTEXTBEGIN
1070
    73
1070
     1
1070
    44
1040
1.0
1070
    74
1070
     0
1000
MTEXTEND
  0
POINT
  5
16AF
330
14E6
100
AcDbEntity
  8
Defpoints
 62
     0
100
AcDbPoint
 10
1009.510719473205
 20
1657.093561842789
 30
0.0
  0
POINT
  5
16B0
330
14E6
100
AcDbEntity
  8
Defpoints
 62
     0
100
AcDbPoint
 10
1269.510719473205
 20
1657.093561842789
 30
0.0
  0
POINT
  5
16B1
330
14E6
100
AcDbEntity
  8
Defpoints
 62
     0
100
AcDbPoint
 10
1269.510719473205
 20
1738.604527756736
 30
0.0
  0
ENDBLK
  5
14F1
330
14E6
100
AcDbEntity
  8
0
100
AcDbBlockEnd
  0
BLOCK
  5
14FC
330
14F2
100
AcDbEntity
  8
0
100
AcDbBlockBegin
  2
*D20
 70
     1
 10
0.0
 20
0.0
 30
0.0
  3
*D20
  1

  0
LINE
  5
16A0
330
14F2
100
AcDbEntity
  8
0
 62
     0
370
    15
100
AcDbLine
 10
1266.07100322889
 20
1405.093561842788
 30
0.0
 11
1299.918221747644
 21
1405.093561842788
 31
0.0
  0
LINE
  5
16A1
330
14F2
100
AcDbEntity
  8
0
 62
     0
370
    15
100
AcDbLine
 10
1014.510719473205
 20
1575.093561842789
 30
0.0
 11
1299.918221747644
 21
1575.093561842789
 31
0.0
  0
LINE
  5
16A2
330
14F2
100
AcDbEntity
  8
0
 62
     0
370
    15
100
AcDbLine
 10
1299.918221747644
 20
1405.093561842788
 30
0.0
 11
1299.918221747644
 21
1575.093561842789
 31
0.0
  0
INSERT
  5
16A3
330
14F2
100
AcDbEntity
  8
0
 62
     0
370
    15
100
AcDbBlockReference
  2
_DotSmall
 10
1299.918221747644
 20
1405.093561842788
 30
0.0
 41
30.0
 42
30.0
 43
30.0
 50
270.0
  0
INSERT
  5
16A4
330
14F2
100
AcDbEntity
  8
0
 62
     0
370
    15
100
AcDbBlockReference
  2
_DotSmall
 10
1299.918221747644
 20
1575.093561842789
 30
0.0
 41
30.0
 42
30.0
 43
30.0
 50
90.0
  0
MTEXT
  5
16A5
330
14F2
100
AcDbEntity
  8
0
 62
     0
100
AcDbMText
 10
1281.168221747644
 20
1458.643956093915
 30
0.0
 40
25.0
 41
0.0
 71
     5
 72
     1
  1
170
 11
0.0000000000000001
 21
1.0
 31
0.0
 73
     1
 44
1.0
1001
ACAD
1000
MTEXTBEGIN
1070
    73
1070
     1
1070
    44
1040
1.0
1070
    74
1070
     0
1000
MTEXTEND
  0
POINT
  5
16A6
330
14F2
100
AcDbEntity
  8
Defpoints
 62
     0
100
AcDbPoint
 10
1201.07100322889
 20
1405.093561842788
 30
0.0
  0
POINT
  5
16A7
330
14F2
100
AcDbEntity
  8
Defpoints
 62
     0
100
AcDbPoint
 10
949.5107194732051
 20
1575.093561842789
 30
0.0
  0
POINT
  5
16A8
330
14F2
100
AcDbEntity
  8
Defpoints
 62
     0
100
AcDbPoint
 10
1299.918221747644
 20
1575.093561842789
 30
0.0
  0
ENDBLK
  5
14FD
330
14F2
100
AcDbEntity
  8
0
100
AcDbBlockEnd
  0
BLOCK
  5
1508
330
14FE
100
AcDbEntity
  8
0
100
AcDbBlockBegin
  2
*D21
 70
     1
 10
0.0
 20
0.0
 30
0.0
  3
*D21
  1

  0
LINE
  5
1697
330
14FE
100
AcDbEntity
  8
0
 62
     0
370
    15
100
AcDbLine
 10
1139.510719473205
 20
1301.83647365201
 30
0.0
 11
1139.510719473205
 21
1207.556483900574
 31
0.0
  0
LINE
  5
1698
330
14FE
100
AcDbEntity
  8
0
 62
     0
370
    15
100
AcDbLine
 10
889.5107194732052
 20
1320.093561842789
 30
0.0
 11
889.5107194732052
 21
1207.556483900574
 31
0.0
  0
LINE
  5
1699
330
14FE
100
AcDbEntity
  8
0
 62
     0
370
    15
100
AcDbLine
 10
1139.510719473205
 20
1207.556483900574
 30
0.0
 11
889.5107194732052
 21
1207.556483900574
 31
0.0
  0
INSERT
  5
169A
330
14FE
100
AcDbEntity
  8
0
 62
     0
370
    15
100
AcDbBlockReference
  2
_DotSmall
 10
1139.510719473205
 20
1207.556483900574
 30
0.0
 41
30.0
 42
30.0
 43
30.0
  0
INSERT
  5
169B
330
14FE
100
AcDbEntity
  8
0
 62
     0
370
    15
100
AcDbBlockReference
  2
_DotSmall
 10
889.5107194732052
 20
1207.556483900574
 30
0.0
 41
30.0
 42
30.0
 43
30.0
 50
180.0
  0
MTEXT
  5
169C
330
14FE
100
AcDbEntity
  8
0
 62
     0
100
AcDbMText
 10
1014.510719473205
 20
1226.306483900574
 30
0.0
 40
25.0
 41
0.0
 71
     5
 72
     1
  1
250
 73
     1
 44
1.0
1001
ACAD
1000
MTEXTBEGIN
1070
    73
1070
     1
1070
    44
1040
1.0
1070
    74
1070
     0
1000
MTEXTEND
  0
POINT
  5
169D
330
14FE
100
AcDbEntity
  8
Defpoints
 62
     0
100
AcDbPoint
 10
1139.510719473205
 20
1366.83647365201
 30
0.0
  0
POINT
  5
169E
330
14FE
100
AcDbEntity
  8
Defpoints
 62
     0
100
AcDbPoint
 10
889.5107194732052
 20
1385.093561842789
 30
0.0
  0
POINT
  5
169F
330
14FE
100
AcDbEntity
  8
Defpoints
 62
     0
100
AcDbPoint
 10
889.5107194732052
 20
1207.556483900574
 30
0.0
  0
ENDBLK
  5
1509
330
14FE
100
AcDbEntity
  8
0
100
AcDbBlockEnd
  0
BLOCK
  5
1539
330
152F
100
AcDbEntity
  8
0
100
AcDbBlockBegin
  2
*D22
 70
     1
 10
0.0
 20
0.0
 30
0.0
  3
*D22
  1

  0
LINE
  5
16DF
330
152F
100
AcDbEntity
  8
実形
 62
     0
370
    15
100
AcDbLine
 10
1230.010719473205
 20
517.5263667117398
 30
0.0
 11
1230.010719473205
 21
554.6793912497117
 31
0.0
  0
LINE
  5
16E0
330
152F
100
AcDbEntity
  8
実形
 62
     0
370
    15
100
AcDbLine
 10
1250.010719473205
 20
517.5263667117404
 30
0.0
 11
1250.010719473205
 21
554.6793912497117
 31
0.0
  0
LINE
  5
16E1
330
152F
100
AcDbEntity
  8
実形
 62
     0
370
    15
100
AcDbLine
 10
1230.010719473205
 20
554.6793912497117
 30
0.0
 11
1250.010719473205
 21
554.6793912497117
 31
0.0
  0
MTEXT
  5
16E2
330
152F
100
AcDbEntity
  8
実形
 62
     0
100
AcDbMText
 10
1239.561093852695
 20
577.939080219892
 30
0.0
 40
25.0
 41
0.0
 71
     5
 72
     1
  1
20
 73
     1
 44
1.0
1001
ACAD
1000
MTEXTBEGIN
1070
    73
1070
     1
1070
    44
1040
1.0
1070
    74
1070
     0
1000
MTEXTEND
  0
INSERT
  5
16E3
330
152F
100
AcDbEntity
  8
実形
 62
     0
370
    15
100
AcDbBlockReference
  2
_DotSmall
 10
1230.010719473205
 20
554.6793912497117
 30
0.0
 41
30.0
 42
30.0
 43
30.0
 50
180.0
  0
INSERT
  5
16E4
330
152F
100
AcDbEntity
  8
実形
 62
     0
370
    15
100
AcDbBlockReference
  2
_DotSmall
 10
1250.010719473205
 20
554.6793912497117
 30
0.0
 41
30.0
 42
30.0
 43
30.0
  0
POINT
  5
16E5
330
152F
100
AcDbEntity
  8
Defpoints
 62
     0
100
AcDbPoint
 10
1230.010719473205
 20
452.5263667117399
 30
0.0
  0
POINT
  5
16E6
330
152F
100
AcDbEntity
  8
Defpoints
 62
     0
100
AcDbPoint
 10
1250.010719473205
 20
452.5263667117403
 30
0.0
  0
POINT
  5
16E7
330
152F
100
AcDbEntity
  8
Defpoints
 62
     0
100
AcDbPoint
 10
1250.010719473205
 20
554.6793912497117
 30
0.0
  0
ENDBLK
  5
153A
330
152F
100
AcDbEntity
  8
0
100
AcDbBlockEnd
  0
BLOCK
  5
1545
330
153B
100
AcDbEntity
  8
0
100
AcDbBlockBegin
  2
*D23
 70
     1
 10
0.0
 20
0.0
 30
0.0
  3
*D23
  1

  0
LINE
  5
16CD
330
153B
100
AcDbEntity
  8
0
 62
     0
370
    15
100
AcDbLine
 10
1230.010719473205
 20
517.5263667117398
 30
0.0
 11
1230.010719473205
 21
554.6793912497117
 31
0.0
  0
LINE
  5
16CE
330
153B
100
AcDbEntity
  8
0
 62
     0
370
    15
100
AcDbLine
 10
1049.010719473205
 20
517.5263667117398
 30
0.0
 11
1049.010719473205
 21
554.6793912497117
 31
0.0
  0
LINE
  5
16CF
330
153B
100
AcDbEntity
  8
0
 62
     0
370
    15
100
AcDbLine
 10
1230.010719473205
 20
554.6793912497117
 30
0.0
 11
1049.010719473205
 21
554.6793912497117
 31
0.0
  0
INSERT
  5
16D0
330
153B
100
AcDbEntity
  8
0
 62
     0
370
    15
100
AcDbBlockReference
  2
_DotSmall
 10
1230.010719473205
 20
554.6793912497117
 30
0.0
 41
30.0
 42
30.0
 43
30.0
  0
INSERT
  5
16D1
330
153B
100
AcDbEntity
  8
0
 62
     0
370
    15
100
AcDbBlockReference
  2
_DotSmall
 10
1049.010719473205
 20
554.6793912497117
 30
0.0
 41
30.0
 42
30.0
 43
30.0
 50
180.0
  0
MTEXT
  5
16D2
330
153B
100
AcDbEntity
  8
0
 62
     0
100
AcDbMText
 10
1139.510719473205
 20
573.4293912497117
 30
0.0
 40
25.0
 41
0.0
 71
     5
 72
     1
  1
181
 73
     1
 44
1.0
1001
ACAD
1000
MTEXTBEGIN
1070
    73
1070
     1
1070
    44
1040
1.0
1070
    74
1070
     0
1000
MTEXTEND
  0
POINT
  5
16D3
330
153B
100
AcDbEntity
  8
Defpoints
 62
     0
100
AcDbPoint
 10
1230.010719473205
 20
452.5263667117399
 30
0.0
  0
POINT
  5
16D4
330
153B
100
AcDbEntity
  8
Defpoints
 62
     0
100
AcDbPoint
 10
1049.010719473205
 20
452.5263667117399
 30
0.0
  0
POINT
  5
16D5
330
153B
100
AcDbEntity
  8
Defpoints
 62
     0
100
AcDbPoint
 10
1049.010719473205
 20
554.6793912497117
 30
0.0
  0
ENDBLK
  5
1546
330
153B
100
AcDbEntity
  8
0
100
AcDbBlockEnd
  0
BLOCK
  5
1551
330
1547
100
AcDbEntity
  8
0
100
AcDbBlockBegin
  2
*D24
 70
     1
 10
0.0
 20
0.0
 30
0.0
  3
*D24
  1

  0
LINE
  5
16F1
330
1547
100
AcDbEntity
  8
実形
 62
     0
370
    15
100
AcDbLine
 10
1621.510719473204
 20
472.5263667117403
 30
0.0
 11
1667.530487996086
 21
472.5263667117403
 31
0.0
  0
LINE
  5
16F2
330
1547
100
AcDbEntity
  8
実形
 62
     0
370
    15
100
AcDbLine
 10
1621.510719473204
 20
445.5263667117399
 30
0.0
 11
1667.530487996086
 21
445.5263667117399
 31
0.0
  0
LINE
  5
16F3
330
1547
100
AcDbEntity
  8
実形
 62
     0
370
    15
100
AcDbLine
 10
1667.530487996086
 20
472.5263667117403
 30
0.0
 11
1667.530487996086
 21
445.5263667117399
 31
0.0
  0
MTEXT
  5
16F4
330
1547
100
AcDbEntity
  8
実形
 62
     0
100
AcDbMText
 10
1650.751360625608
 20
427.9591484759887
 30
0.0
 40
25.0
 41
0.0
 71
     5
 72
     1
  1
7
 11
0.0000000000000001
 21
1.0
 31
0.0
 73
     1
 44
1.0
1001
ACAD
1000
MTEXTBEGIN
1070
    73
1070
     1
1070
    44
1040
1.0
1070
    74
1070
     0
1000
MTEXTEND
  0
INSERT
  5
16F5
330
1547
100
AcDbEntity
  8
実形
 62
     0
370
    15
100
AcDbBlockReference
  2
_DotSmall
 10
1667.530487996086
 20
472.5263667117403
 30
0.0
 41
30.0
 42
30.0
 43
30.0
 50
90.0
  0
INSERT
  5
16F6
330
1547
100
AcDbEntity
  8
実形
 62
     0
370
    15
100
AcDbBlockReference
  2
_DotSmall
 10
1667.530487996086
 20
445.5263667117399
 30
0.0
 41
30.0
 42
30.0
 43
30.0
 50
270.0
  0
POINT
  5
16F7
330
1547
100
AcDbEntity
  8
Defpoints
 62
     0
100
AcDbPoint
 10
1556.510719473204
 20
472.5263667117403
 30
0.0
  0
POINT
  5
16F8
330
1547
100
AcDbEntity
  8
Defpoints
 62
     0
100
AcDbPoint
 10
1556.510719473204
 20
445.5263667117399
 30
0.0
  0
POINT
  5
16F9
330
1547
100
AcDbEntity
  8
Defpoints
 62
     0
100
AcDbPoint
 10
1667.530487996086
 20
445.5263667117399
 30
0.0
  0
ENDBLK
  5
1552
330
1547
100
AcDbEntity
  8
0
100
AcDbBlockEnd
  0
BLOCK
  5
155D
330
1553
100
AcDbEntity
  8
0
100
AcDbBlockBegin
  2
*D25
 70
     1
 10
0.0
 20
0.0
 30
0.0
  3
*D25
  1

  0
LINE
  5
16E8
330
1553
100
AcDbEntity
  8
0
 62
     0
370
    15
100
AcDbLine
 10
1621.510719473204
 20
472.5263667117403
 30
0.0
 11
1667.530487996086
 21
472.5263667117403
 31
0.0
  0
LINE
  5
16E9
330
1553
100
AcDbEntity
  8
0
 62
     0
370
    15
100
AcDbLine
 10
1621.510719473205
 20
452.5263667117403
 30
0.0
 11
1667.530487996086
 21
452.5263667117402
 31
0.0
  0
LINE
  5
16EA
330
1553
100
AcDbEntity
  8
0
 62
     0
370
    15
100
AcDbLine
 10
1667.530487996086
 20
472.5263667117403
 30
0.0
 11
1667.530487996086
 21
452.5263667117402
 31
0.0
  0
MTEXT
  5
16EB
330
1553
100
AcDbEntity
  8
0
 62
     0
100
AcDbMText
 10
1647.511819373361
 20
498.5346080459469
 30
0.0
 40
25.0
 41
0.0
 71
     5
 72
     1
  1
20
 11
0.0000000000000001
 21
1.0
 31
0.0
 73
     1
 44
1.0
1001
ACAD
1000
MTEXTBEGIN
1070
    73
1070
     1
1070
    44
1040
1.0
1070
    74
1070
     0
1000
MTEXTEND
  0
INSERT
  5
16EC
330
1553
100
AcDbEntity
  8
0
 62
     0
370
    15
100
AcDbBlockReference
  2
_DotSmall
 10
1667.530487996086
 20
472.5263667117403
 30
0.0
 41
30.0
 42
30.0
 43
30.0
 50
90.0
  0
INSERT
  5
16ED
330
1553
100
AcDbEntity
  8
0
 62
     0
370
    15
100
AcDbBlockReference
  2
_DotSmall
 10
1667.530487996086
 20
452.5263667117402
 30
0.0
 41
30.0
 42
30.0
 43
30.0
 50
270.0
  0
POINT
  5
16EE
330
1553
100
AcDbEntity
  8
Defpoints
 62
     0
100
AcDbPoint
 10
1556.510719473204
 20
472.5263667117403
 30
0.0
  0
POINT
  5
16EF
330
1553
100
AcDbEntity
  8
Defpoints
 62
     0
100
AcDbPoint
 10
1556.510719473205
 20
452.5263667117403
 30
0.0
  0
POINT
  5
16F0
330
1553
100
AcDbEntity
  8
Defpoints
 62
     0
100
AcDbPoint
 10
1667.530487996086
 20
452.5263667117402
 30
0.0
  0
ENDBLK
  5
155E
330
1553
100
AcDbEntity
  8
0
100
AcDbBlockEnd
  0
BLOCK
  5
1569
330
155F
100
AcDbEntity
  8
0
100
AcDbBlockBegin
  2
*D26
 70
     1
 10
0.0
 20
0.0
 30
0.0
  3
*D26
  1

  0
LINE
  5
1871
330
155F
100
AcDbEntity
  8
0
 62
     0
370
    15
100
AcDbLine
 10
1219.010719473205
 20
380.5263667117399
 30
0.0
 11
1219.010719473205
 21
324.1318920137248
 31
0.0
  0
LINE
  5
1872
330
155F
100
AcDbEntity
  8
0
 62
     0
370
    15
100
AcDbLine
 10
1060.010719473205
 20
380.5263667117404
 30
0.0
 11
1060.010719473205
 21
324.1318920137248
 31
0.0
  0
LINE
  5
1873
330
155F
100
AcDbEntity
  8
0
 62
     0
370
    15
100
AcDbLine
 10
1219.010719473205
 20
324.1318920137248
 30
0.0
 11
1060.010719473205
 21
324.1318920137248
 31
0.0
  0
INSERT
  5
1874
330
155F
100
AcDbEntity
  8
0
 62
     0
370
    15
100
AcDbBlockReference
  2
_DotSmall
 10
1219.010719473205
 20
324.1318920137248
 30
0.0
 41
30.0
 42
30.0
 43
30.0
  0
INSERT
  5
1875
330
155F
100
AcDbEntity
  8
0
 62
     0
370
    15
100
AcDbBlockReference
  2
_DotSmall
 10
1060.010719473205
 20
324.1318920137248
 30
0.0
 41
30.0
 42
30.0
 43
30.0
 50
180.0
  0
MTEXT
  5
1876
330
155F
100
AcDbEntity
  8
0
 62
     0
100
AcDbMText
 10
1139.510719473205
 20
342.8818920137248
 30
0.0
 40
25.0
 41
0.0
 71
     5
 72
     1
  1
158
 73
     1
 44
1.0
1001
ACAD
1000
MTEXTBEGIN
1070
    73
1070
     1
1070
    44
1040
1.0
1070
    74
1070
     0
1000
MTEXTEND
  0
POINT
  5
1877
330
155F
100
AcDbEntity
  8
Defpoints
 62
     0
100
AcDbPoint
 10
1219.010719473205
 20
445.5263667117399
 30
0.0
  0
POINT
  5
1878
330
155F
100
AcDbEntity
  8
Defpoints
 62
     0
100
AcDbPoint
 10
1060.010719473205
 20
445.5263667117403
 30
0.0
  0
POINT
  5
1879
330
155F
100
AcDbEntity
  8
Defpoints
 62
     0
100
AcDbPoint
 10
1060.010719473205
 20
324.1318920137248
 30
0.0
  0
ENDBLK
  5
156A
330
155F
100
AcDbEntity
  8
0
100
AcDbBlockEnd
  0
BLOCK
  5
1581
330
1577
100
AcDbEntity
  8
0
100
AcDbBlockBegin
  2
*D27
 70
     1
 10
0.0
 20
0.0
 30
0.0
  3
*D27
  1

  0
LINE
  5
16BB
330
1577
100
AcDbEntity
  8
0
 62
     0
370
    15
100
AcDbLine
 10
1074.510719473205
 20
1657.093561842789
 30
0.0
 11
1074.510719473205
 21
1687.21151828995
 31
0.0
  0
LINE
  5
16BC
330
1577
100
AcDbEntity
  8
0
 62
     0
370
    15
100
AcDbLine
 10
1204.510719473205
 20
1657.093561842789
 30
0.0
 11
1204.510719473205
 21
1687.21151828995
 31
0.0
  0
LINE
  5
16BD
330
1577
100
AcDbEntity
  8
0
 62
     0
370
    15
100
AcDbLine
 10
1074.510719473205
 20
1687.21151828995
 30
0.0
 11
1204.510719473205
 21
1687.21151828995
 31
0.0
  0
INSERT
  5
16BE
330
1577
100
AcDbEntity
  8
0
 62
     0
370
    15
100
AcDbBlockReference
  2
_DotSmall
 10
1074.510719473205
 20
1687.21151828995
 30
0.0
 41
30.0
 42
30.0
 43
30.0
 50
180.0
  0
INSERT
  5
16BF
330
1577
100
AcDbEntity
  8
0
 62
     0
370
    15
100
AcDbBlockReference
  2
_DotSmall
 10
1204.510719473205
 20
1687.21151828995
 30
0.0
 41
30.0
 42
30.0
 43
30.0
  0
MTEXT
  5
16C0
330
1577
100
AcDbEntity
  8
0
 62
     0
100
AcDbMText
 10
1139.510719473205
 20
1705.96151828995
 30
0.0
 40
25.0
 41
0.0
 71
     5
 72
     1
  1
130
 73
     1
 44
1.0
1001
ACAD
1000
MTEXTBEGIN
1070
    73
1070
     1
1070
    44
1040
1.0
1070
    74
1070
     0
1000
MTEXTEND
  0
POINT
  5
16C1
330
1577
100
AcDbEntity
  8
Defpoints
 62
     0
100
AcDbPoint
 10
1074.510719473205
 20
1592.093561842789
 30
0.0
  0
POINT
  5
16C2
330
1577
100
AcDbEntity
  8
Defpoints
 62
     0
100
AcDbPoint
 10
1204.510719473205
 20
1592.093561842789
 30
0.0
  0
POINT
  5
16C3
330
1577
100
AcDbEntity
  8
Defpoints
 62
     0
100
AcDbPoint
 10
1204.510719473205
 20
1687.21151828995
 30
0.0
  0
ENDBLK
  5
1582
330
1577
100
AcDbEntity
  8
0
100
AcDbBlockEnd
  0
BLOCK
  5
171F
330
1715
100
AcDbEntity
  8
0
100
AcDbBlockBegin
  2
*D28
 70
     1
 10
0.0
 20
0.0
 30
0.0
  3
*D28
  1

  0
LINE
  5
1785
330
1715
100
AcDbEntity
  8
実形
 62
     0
370
    15
100
AcDbLine
 10
789.5107194732053
 20
1500.093561842789
 30
0.0
 11
751.8347692323441
 21
1500.093561842789
 31
0.0
  0
LINE
  5
1786
330
1715
100
AcDbEntity
  8
実形
 62
     0
370
    15
100
AcDbLine
 10
789.5107194732054
 20
1285.093561842789
 30
0.0
 11
751.8347692323441
 21
1285.093561842789
 31
0.0
  0
LINE
  5
1787
330
1715
100
AcDbEntity
  8
実形
 62
     0
370
    15
100
AcDbLine
 10
751.8347692323441
 20
1500.093561842789
 30
0.0
 11
751.8347692323441
 21
1285.093561842789
 31
0.0
  0
INSERT
  5
1788
330
1715
100
AcDbEntity
  8
実形
 62
     0
370
    15
100
AcDbBlockReference
  2
_DotSmall
 10
751.8347692323441
 20
1500.093561842789
 30
0.0
 41
30.0
 42
30.0
 43
30.0
 50
90.0
  0
INSERT
  5
1789
330
1715
100
AcDbEntity
  8
実形
 62
     0
370
    15
100
AcDbBlockReference
  2
_DotSmall
 10
751.8347692323441
 20
1285.093561842789
 30
0.0
 41
30.0
 42
30.0
 43
30.0
 50
270.0
  0
MTEXT
  5
178A
330
1715
100
AcDbEntity
  8
実形
 62
     0
100
AcDbMText
 10
733.0847692323438
 20
1392.593561842789
 30
0.0
 40
25.0
 41
0.0
 71
     5
 72
     1
  1
215
 11
0.0000000000000001
 21
1.0
 31
0.0
 73
     1
 44
1.0
1001
ACAD
1000
MTEXTBEGIN
1070
    73
1070
     1
1070
    44
1040
1.0
1070
    74
1070
     0
1000
MTEXTEND
  0
POINT
  5
178B
330
1715
100
AcDbEntity
  8
Defpoints
 62
     0
100
AcDbPoint
 10
854.5107194732052
 20
1500.093561842789
 30
0.0
  0
POINT
  5
178C
330
1715
100
AcDbEntity
  8
Defpoints
 62
     0
100
AcDbPoint
 10
854.5107194732054
 20
1285.093561842789
 30
0.0
  0
POINT
  5
178D
330
1715
100
AcDbEntity
  8
Defpoints
 62
     0
100
AcDbPoint
 10
751.8347692323441
 20
1285.093561842789
 30
0.0
  0
ENDBLK
  5
1720
330
1715
100
AcDbEntity
  8
0
100
AcDbBlockEnd
  0
ENDSEC
  0
SECTION
  2
ENTITIES
  0
LINE
  5
9C
330
1F
100
AcDbEntity
  8
補助
100
AcDbLine
 10
109.0
 20
4.0
 30
0.0
 11
2784.0
 21
4.0
 31
0.0
  0
LINE
  5
A0
330
1F
100
AcDbEntity
  8
補助
100
AcDbLine
 10
2784.0
 20
2024.0
 30
0.0
 11
109.0
 21
2024.0
 31
0.0
  0
LINE
  5
A5
330
1F
100
AcDbEntity
  8
補助
100
AcDbLine
 10
2784.0
 20
4.0
 30
0.0
 11
2784.0
 21
2024.0
 31
0.0
  0
LINE
  5
A8
330
1F
100
AcDbEntity
  8
補助
100
AcDbLine
 10
2184.0
 20
69.0
 30
0.0
 11
2184.0
 21
199.0
 31
0.0
  0
LINE
  5
A9
330
1F
100
AcDbEntity
  8
補助
100
AcDbLine
 10
2184.0
 20
69.0
 30
0.0
 11
2784.0
 21
69.0
 31
0.0
  0
LINE
  5
AA
330
1F
100
AcDbEntity
  8
補助
100
AcDbLine
 10
2064.0
 20
134.0
 30
0.0
 11
2784.0
 21
134.0
 31
0.0
  0
LINE
  5
AB
330
1F
100
AcDbEntity
  8
補助
100
AcDbLine
 10
2064.0
 20
199.0
 30
0.0
 11
2784.0
 21
199.0
 31
0.0
  0
LINE
  5
AD
330
1F
100
AcDbEntity
  8
補助
100
AcDbLine
 10
2784.0
 20
4.0
 30
0.0
 11
2784.0
 21
69.0
 31
0.0
  0
DIMENSION
  5
270
330
1F
100
AcDbEntity
  8
0
100
AcDbDimension
  2
*D4
 10
687.8335393780535
 20
1070.093561842788
 30
0.0
 11
669.0835393780534
 21
1123.010228509455
 31
0.0
 70
    32
 71
     5
 42
15.0
  3
ISO-25
100
AcDbAlignedDimension
 13
792.5840414949498
 23
1055.093561842788
 33
0.0
 14
792.5840414949498
 24
1070.093561842788
 34
0.0
 50
90.0
100
AcDbRotatedDimension
  0
DIMENSION
  5
27E
330
1F
100
AcDbEntity
  8
0
100
AcDbDimension
  2
*D5
 10
687.8335393780536
 20
1500.093561842788
 30
0.0
 11
669.0835393780534
 21
1285.093561842789
 31
0.0
 70
    32
 71
     5
 42
430.0
  3
ISO-25
100
AcDbAlignedDimension
 13
792.5840414949498
 23
1070.093561842788
 33
0.0
 14
792.5840414949496
 24
1500.093561842788
 34
0.0
 50
90.0
100
AcDbRotatedDimension
1001
ACAD
1000
DSTYLE
1002
{
1070
    42
1040
0.0
1070
   279
1070
     1
1002
}
  0
DIMENSION
  5
28B
330
1F
100
AcDbEntity
  8
0
100
AcDbDimension
  2
*D6
 10
687.8335393780536
 20
1575.093561842788
 30
0.0
 11
669.0835393780534
 21
1537.593561842788
 31
0.0
 70
    32
 71
     5
 42
75.0
  3
ISO-25
100
AcDbAlignedDimension
 13
792.5840414949496
 23
1500.093561842788
 33
0.0
 14
792.5840414949496
 24
1575.093561842788
 34
0.0
 50
90.0
100
AcDbRotatedDimension
1001
ACAD
1000
DSTYLE
1002
{
1070
    42
1040
0.0
1070
   279
1070
     1
1002
}
  0
DIMENSION
  5
298
330
1F
100
AcDbEntity
  8
0
100
AcDbDimension
  2
*D7
 10
615.2051194749211
 20
1055.093561842788
 30
0.0
 11
593.2442089100813
 21
1049.233430008754
 31
0.0
 70
   160
 71
     5
 42
35.0
  3
ISO-25
100
AcDbAlignedDimension
 13
792.5840414949496
 23
1020.093561842788
 33
0.0
 14
792.5840414949498
 24
1055.093561842788
 34
0.0
 50
90.0
100
AcDbRotatedDimension
1001
ACAD
1000
DSTYLE
1002
{
1070
    42
1040
0.0
1070
   279
1070
     2
1002
}
  0
DIMENSION
  5
2A6
330
1F
100
AcDbEntity
  8
0
100
AcDbDimension
  2
*D8
 10
615.2051194749211
 20
1575.093561842788
 30
0.0
 11
596.4551194749209
 21
1315.093561842789
 31
0.0
 70
    32
 71
     5
 42
520.0
  3
ISO-25
100
AcDbAlignedDimension
 13
792.5840414949498
 23
1055.093561842788
 33
0.0
 14
792.5840414949496
 24
1575.093561842788
 34
0.0
 50
90.0
100
AcDbRotatedDimension
1001
ACAD
1000
DSTYLE
1002
{
1070
    42
1040
0.0
1070
   279
1070
     1
1002
}
  0
DIMENSION
  5
2B3
330
1F
100
AcDbEntity
  8
0
100
AcDbDimension
  2
*D9
 10
615.2051194749211
 20
1610.093561842789
 30
0.0
 11
593.2442089100813
 21
1581.461311335788
 31
0.0
 70
   160
 71
     5
 42
35.00000000000046
  3
ISO-25
100
AcDbAlignedDimension
 13
792.5840414949496
 23
1575.093561842788
 33
0.0
 14
792.5840414949496
 24
1610.093561842789
 34
0.0
 50
90.0
100
AcDbRotatedDimension
1001
ACAD
1000
DSTYLE
1002
{
1070
    42
1040
0.0
1070
   279
1070
     2
1002
}
  0
DIMENSION
  5
2DC
330
1F
100
AcDbEntity
  8
0
100
AcDbDimension
  2
*D10
 10
545.7344671056071
 20
1610.093561842789
 30
0.0
 11
526.9844671056069
 21
1315.093561842789
 31
0.0
 70
    32
 71
     5
 42
590.0000000000004
  3
ISO-25
100
AcDbAlignedDimension
 13
792.5840414949496
 23
1020.093561842788
 33
0.0
 14
792.5840414949496
 24
1610.093561842789
 34
0.0
 50
90.0
100
AcDbRotatedDimension
1001
ACAD
1000
DSTYLE
1002
{
1070
    42
1040
0.0
1002
}
  0
DIMENSION
  5
2F7
330
1F
100
AcDbEntity
  8
0
100
AcDbDimension
  2
*D11
 10
1539.510719473205
 20
916.1857900480718
 30
0.0
 11
1214.510719473205
 21
934.9357900480718
 31
0.0
 70
    32
 71
     5
 42
649.9999999999999
  3
ISO-25
100
AcDbAlignedDimension
 13
889.5107194732053
 23
1020.093561842788
 33
0.0
 14
1539.510719473205
 24
1020.093561842788
 34
0.0
100
AcDbRotatedDimension
1001
ACAD
1000
DSTYLE
1002
{
1070
   279
1070
     1
1002
}
  0
DIMENSION
  5
304
330
1F
100
AcDbEntity
  8
0
100
AcDbDimension
  2
*D12
 10
1574.510719473205
 20
916.1857900480718
 30
0.0
 11
1496.052503888749
 21
916.1857900480718
 31
0.0
 70
   160
 71
     5
 42
35.0
  3
ISO-25
100
AcDbAlignedDimension
 13
1539.510719473205
 23
1020.093561842788
 33
0.0
 14
1574.510719473205
 24
1020.093561842788
 34
0.0
100
AcDbRotatedDimension
1001
ACAD
1000
DSTYLE
1002
{
1070
   279
1070
     1
1002
}
  0
DIMENSION
  5
31C
330
1F
100
AcDbEntity
  8
0
100
AcDbDimension
  2
*D13
 10
1574.510719473205
 20
845.8270180928648
 30
0.0
 11
1214.510719473205
 21
864.5770180928648
 31
0.0
 70
    32
 71
     5
 42
719.9999999999999
  3
ISO-25
100
AcDbAlignedDimension
 13
854.5107194732052
 23
1020.093561842788
 33
0.0
 14
1574.510719473205
 24
1020.093561842788
 34
0.0
100
AcDbRotatedDimension
  0
LINE
  5
407
330
1F
100
AcDbEntity
  8
0
100
AcDbLine
 10
859.5107194732053
 20
642.5263667117398
 30
0.0
 11
1569.510719473205
 21
642.5263667117397
 31
0.0
  0
LINE
  5
40D
330
1F
100
AcDbEntity
  8
0
100
AcDbLine
 10
889.5107194732059
 20
627.5263667117398
 30
0.0
 11
1539.510719473205
 21
627.5263667117396
 31
0.0
  0
DIMENSION
  5
42D
330
1F
100
AcDbEntity
  8
0
100
AcDbDimension
  2
*D14
 10
1674.168661429106
 20
642.5263667117397
 30
0.0
 11
1700.226413520772
 21
672.2958293667952
 31
0.0
 70
   160
 71
     5
 42
15.0
  3
ISO-25
100
AcDbAlignedDimension
 13
1561.510719473204
 23
627.5263667117398
 33
0.0
 14
1561.510719473204
 24
642.5263667117397
 34
0.0
 50
90.0
100
AcDbRotatedDimension
1001
ACAD
1000
DSTYLE
1002
{
1070
   279
1070
     2
1002
}
  0
DIMENSION
  5
464
330
1F
100
AcDbEntity
  8
0
100
AcDbDimension
  2
*D15
 10
1752.800877861607
 20
452.5263667117398
 30
0.0
 11
1734.050877861607
 21
547.52636671174
 31
0.0
 70
    32
 71
     5
 42
189.9999999999998
  3
ISO-25
100
AcDbAlignedDimension
 13
1561.510719473204
 23
642.5263667117397
 33
0.0
 14
1561.510719473204
 24
452.5263667117399
 34
0.0
 50
90.0
100
AcDbRotatedDimension
  0
LINE
  5
48F
330
1F
100
AcDbEntity
  8
0
100
AcDbLine
 10
1888.967865434157
 20
1610.093561842789
 30
0.0
 11
1888.967865434156
 21
1020.093561842788
 31
0.0
  0
LINE
  5
492
330
1F
100
AcDbEntity
  8
0
100
AcDbLine
 10
1903.967865434157
 20
1575.093561842789
 30
0.0
 11
2048.967865434157
 21
1575.093561842789
 31
0.0
  0
LINE
  5
493
330
1F
100
AcDbEntity
  8
0
100
AcDbLine
 10
1906.967865434157
 20
1500.093561842789
 30
0.0
 11
2048.967865434157
 21
1500.093561842788
 31
0.0
  0
LINE
  5
495
330
1F
100
AcDbEntity
  8
0
100
AcDbLine
 10
1903.967865434156
 20
1070.093561842788
 30
0.0
 11
2040.16977788473
 21
1070.093561842788
 31
0.0
  0
LINE
  5
496
330
1F
100
AcDbEntity
  8
0
100
AcDbLine
 10
1903.967865434157
 20
1067.093561842788
 30
0.0
 11
1903.967865434156
 21
1058.093561842788
 31
0.0
  0
LINE
  5
49A
330
1F
100
AcDbEntity
  8
0
100
AcDbLine
 10
1903.967865434157
 20
1575.093561842788
 30
0.0
 11
1903.967865434157
 21
1503.093561842788
 31
0.0
  0
ARC
  5
49B
330
1F
100
AcDbEntity
  8
0
100
AcDbCircle
 10
1906.967865434157
 20
1503.093561842788
 30
0.0
 40
3.0
100
AcDbArc
 50
179.9999999999999
 51
270.0
  0
LINE
  5
49D
330
1F
100
AcDbEntity
  8
0
100
AcDbLine
 10
1903.967865434157
 20
1503.093561842788
 30
0.0
 11
1903.967865434156
 21
1035.093561842788
 31
0.0
  0
LINE
  5
49E
330
1F
100
AcDbEntity
  8
0
100
AcDbLine
 10
2078.967865434158
 20
1470.093561842788
 30
0.0
 11
2078.967865434157
 21
1314.593561842793
 31
0.0
  0
LINE
  5
4A3
330
1F
100
AcDbEntity
  8
0
100
AcDbLine
 10
2086.967865434157
 20
1484.593561842788
 30
0.0
 11
2086.967865434157
 21
1325.593561842788
 31
0.0
  0
LINE
  5
4A4
330
1F
100
AcDbEntity
  8
0
100
AcDbLine
 10
2078.967865434158
 20
1495.593561842788
 30
0.0
 11
2086.967865434157
 21
1484.593561842788
 31
0.0
  0
LINE
  5
4A5
330
1F
100
AcDbEntity
  8
0
100
AcDbLine
 10
2078.967865434157
 20
1314.593561842788
 30
0.0
 11
2086.967865434157
 21
1325.593561842788
 31
0.0
  0
LINE
  5
4A7
330
1F
100
AcDbEntity
  8
0
100
AcDbLine
 10
2078.967865434157
 20
1314.593561842789
 30
0.0
 11
2070.144717422
 21
1098.867592945558
 31
0.0
  0
ARC
  5
4A9
330
1F
100
AcDbEntity
  8
0
100
AcDbCircle
 10
2048.967865434157
 20
1545.093561842788
 30
0.0
 40
30.0
100
AcDbArc
 50
359.9999999999999
 51
89.99999999999992
  0
ARC
  5
4AA
330
1F
100
AcDbEntity
  8
0
100
AcDbCircle
 10
2040.16977788473
 20
1100.093561842788
 30
0.0
 40
30.0
100
AcDbArc
 50
270.0
 51
357.6579196915298
  0
ARC
  5
4AB
330
1F
100
AcDbEntity
  8
0
100
AcDbCircle
 10
2048.967865434157
 20
1470.093561842788
 30
0.0
 40
30.0
100
AcDbArc
 50
359.9999999999999
 51
89.99999999999992
  0
LINE
  5
4AC
330
1F
100
AcDbEntity
  8
0
100
AcDbLine
 10
2078.967865434158
 20
1545.093561842788
 30
0.0
 11
2078.967865434158
 21
1470.093561842788
 31
0.0
  0
LINE
  5
4AE
330
1F
100
AcDbEntity
  8
Cen
100
AcDbLine
 10
1984.374035653949
 20
1403.218561842788
 30
0.0
 11
2115.028447889272
 21
1403.218561842788
 31
0.0
  0
MTEXT
  5
532
330
1F
100
AcDbEntity
  8
0
100
AcDbMText
 10
1469.226616777811
 20
1181.110374981098
 30
0.0
 40
25.0
 41
0.0
 71
     9
 72
     1
  1

 73
     1
 44
1.0
1001
ACAD
1000
MTEXTBEGIN
1070
    73
1070
     1
1070
    44
1040
1.0
1070
    74
1070
     0
1000
MTEXTEND
  0
MTEXT
  5
55C
330
1F
100
AcDbEntity
  8
0
100
AcDbMText
 10
1010.02660136874
 20
1423.470120422065
 30
0.0
 40
25.0
 41
0.0
 71
     1
 72
     1
  1

 73
     1
 44
1.0
1001
ACAD
1000
MTEXTBEGIN
1070
    73
1070
     1
1070
    44
1040
1.0
1070
    74
1070
     0
1000
MTEXTEND
  0
LINE
  5
56A
330
1F
100
AcDbEntity
  8
補助
100
AcDbLine
 10
2784.0
 20
134.0
 30
0.0
 11
2784.0
 21
199.0
 31
0.0
  0
TEXT
  5
56C
330
1F
100
AcDbEntity
  8
0
100
AcDbText
 10
2198.166666666667
 20
149.0
 30
0.0
 40
35.0
  1
YME720-590S-GRM-L
 72
     4
 11
2484.0
 21
166.5
 31
0.0
100
AcDbText
  0
MTEXT
  5
5A9
330
1F
100
AcDbEntity
  8
Cen
100
AcDbMText
 10
1527.939315450184
 20
552.4831097022406
 30
0.0
 40
25.0
 41
0.0
 71
     9
 72
     1
  1

 73
     1
 44
1.0
1001
ACAD
1000
MTEXTBEGIN
1070
    73
1070
     1
1070
    44
1040
1.0
1070
    74
1070
     0
1000
MTEXTEND
  0
LINE
  5
5D0
330
1F
100
AcDbEntity
  8
補助
100
AcDbLine
 10
2784.0
 20
69.0
 30
0.0
 11
2784.0
 21
134.0
 31
0.0
  0
TEXT
  5
5D2
330
1F
100
AcDbEntity
  8
0
100
AcDbText
 10
2430.916666666667
 20
84.0
 30
0.0
 40
35.0
  1
1：10
 72
     4
 11
2484.0
 21
101.5
 31
0.0
100
AcDbText
  0
TEXT
  5
5D8
330
1F
100
AcDbEntity
  8
0
100
AcDbText
 10
231.1659029702105
 20
53.51169987015055
 30
0.0
 40
30.0
  1
※実寸には製造上の誤差が多少生ずる場合があります。シンクの穴あけ加工は現物合わせにてお願いします。
100
AcDbText
  0
TEXT
  5
5F4
330
1F
100
AcDbEntity
  8
補助
100
AcDbText
 10
2300.255774665348
 20
16.49999999999999
 30
0.0
 40
40.0
  1
中外交易株式会社
 72
     4
 11
2488.255774665347
 21
36.5
 31
0.0
100
AcDbText
  0
LINE
  5
5F5
330
1F
100
AcDbEntity
  8
補助
100
AcDbLine
 10
2064.0
 20
69.0
 30
0.0
 11
2784.0
 21
69.0
 31
0.0
  0
HATCH
  5
5F6
330
1F
100
AcDbEntity
  8
補助
100
AcDbHatch
 10
0.0
 20
0.0
 30
0.0
210
0.0
220
0.0
230
1.0
  2
SOLID
 70
     1
 71
     1
 91
        3
 92
        1
 93
        4
 72
     2
 10
2257.166198313996
 20
36.5
 40
20.0
 50
11.6477236670766
 51
342.6561058784691
 73
     1
 72
     1
 10
2276.256852341323
 20
30.53787547858514
 11
2252.166198313995
 21
30.53787547858519
 72
     1
 10
2252.166198313995
 20
30.53787547858519
 11
2252.166198313995
 21
40.53787547858519
 72
     1
 10
2252.166198313995
 20
40.53787547858519
 11
2276.75434681301
 21
40.53787547858519
 97
        4
330
5F7
330
5F9
330
5FA
330
5FB
 92
        1
 93
        4
 72
     2
 10
2188.255774665348
 20
36.5
 40
20.0
 50
11.6477236670766
 51
342.6561058784691
 73
     1
 72
     1
 10
2207.346428692676
 20
30.53787547858514
 11
2183.255774665347
 21
30.53787547858519
 72
     1
 10
2183.255774665347
 20
30.53787547858519
 11
2183.255774665347
 21
40.53787547858519
 72
     1
 10
2183.255774665347
 20
40.53787547858519
 11
2207.843923164362
 21
40.53787547858519
 97
        4
330
5F8
330
601
330
602
330
603
 92
        1
 93
        5
 72
     1
 10
2245.64189404294
 20
56.5
 11
2210.641894042939
 21
56.5
 72
     1
 10
2210.641894042939
 20
56.5
 11
2210.641894042939
 21
16.5
 72
     1
 10
2210.641894042939
 20
16.5
 11
2245.64189404294
 21
16.5
 72
     1
 10
2245.64189404294
 20
16.5
 11
2210.641894042939
 21
36.5
 72
     1
 10
2210.641894042939
 20
36.5
 11
2245.64189404294
 21
56.5
 97
        5
330
5FC
330
600
330
5FF
330
5FE
330
5FD
 75
     0
 76
     1
 98
        1
 10
-60.0
 20
0.0
  0
ARC
  5
5F7
102
{ACAD_REACTORS
330
5F6
102
}
330
1F
100
AcDbEntity
  8
補助
370
     5
100
AcDbCircle
 10
2257.166198313996
 20
36.5
 30
0.0
 40
20.0
100
AcDbArc
 50
11.6477236670766
 51
342.6561058784691
  0
ARC
  5
5F8
102
{ACAD_REACTORS
330
5F6
102
}
330
1F
100
AcDbEntity
  8
補助
370
     5
100
AcDbCircle
 10
2188.255774665348
 20
36.5
 30
0.0
 40
20.0
100
AcDbArc
 50
11.6477236670766
 51
342.6561058784691
  0
LINE
  5
5F9
102
{ACAD_REACTORS
330
5F6
102
}
330
1F
100
AcDbEntity
  8
補助
370
     5
100
AcDbLine
 10
2252.166198313995
 20
30.53787547858519
 30
0.0
 11
2276.256852341323
 21
30.53787547858514
 31
0.0
  0
LINE
  5
5FA
102
{ACAD_REACTORS
330
5F6
102
}
330
1F
100
AcDbEntity
  8
補助
370
     5
100
AcDbLine
 10
2252.166198313995
 20
40.53787547858519
 30
0.0
 11
2252.166198313995
 21
30.53787547858519
 31
0.0
  0
LINE
  5
5FB
102
{ACAD_REACTORS
330
5F6
102
}
330
1F
100
AcDbEntity
  8
補助
370
     5
100
AcDbLine
 10
2276.75434681301
 20
40.53787547858519
 30
0.0
 11
2252.166198313995
 21
40.53787547858519
 31
0.0
  0
LINE
  5
5FC
102
{ACAD_REACTORS
330
5F6
102
}
330
1F
100
AcDbEntity
  8
補助
370
     5
100
AcDbLine
 10
2245.64189404294
 20
56.5
 30
0.0
 11
2210.641894042939
 21
56.5
 31
0.0
  0
LINE
  5
5FD
102
{ACAD_REACTORS
330
5F6
102
}
330
1F
100
AcDbEntity
  8
補助
370
     5
100
AcDbLine
 10
2210.641894042939
 20
36.5
 30
0.0
 11
2245.64189404294
 21
56.5
 31
0.0
  0
LINE
  5
5FE
102
{ACAD_REACTORS
330
5F6
102
}
330
1F
100
AcDbEntity
  8
補助
370
     5
100
AcDbLine
 10
2245.64189404294
 20
16.5
 30
0.0
 11
2210.641894042939
 21
36.5
 31
0.0
  0
LINE
  5
5FF
102
{ACAD_REACTORS
330
5F6
102
}
330
1F
100
AcDbEntity
  8
補助
370
     5
100
AcDbLine
 10
2210.641894042939
 20
16.5
 30
0.0
 11
2245.64189404294
 21
16.5
 31
0.0
  0
LINE
  5
600
102
{ACAD_REACTORS
330
5F6
102
}
330
1F
100
AcDbEntity
  8
補助
370
     5
100
AcDbLine
 10
2210.641894042939
 20
56.5
 30
0.0
 11
2210.641894042939
 21
16.5
 31
0.0
  0
LINE
  5
601
102
{ACAD_REACTORS
330
5F6
102
}
330
1F
100
AcDbEntity
  8
補助
370
     5
100
AcDbLine
 10
2183.255774665347
 20
30.53787547858519
 30
0.0
 11
2207.346428692676
 21
30.53787547858514
 31
0.0
  0
LINE
  5
602
102
{ACAD_REACTORS
330
5F6
102
}
330
1F
100
AcDbEntity
  8
補助
370
     5
100
AcDbLine
 10
2183.255774665347
 20
40.53787547858519
 30
0.0
 11
2183.255774665347
 21
30.53787547858519
 31
0.0
  0
LINE
  5
603
102
{ACAD_REACTORS
330
5F6
102
}
330
1F
100
AcDbEntity
  8
補助
370
     5
100
AcDbLine
 10
2207.843923164362
 20
40.53787547858519
 30
0.0
 11
2183.255774665347
 21
40.53787547858519
 31
0.0
  0
LINE
  5
A29
330
1F
100
AcDbEntity
  8
補助
100
AcDbLine
 10
2064.0
 20
4.0
 30
0.0
 11
2064.0
 21
199.0
 31
0.0
  0
TEXT
  5
A2C
330
1F
100
AcDbEntity
  8
補助
100
AcDbText
 10
2086.666666666667
 20
149.0
 30
0.0
 40
35.0
  1
品番
 72
     4
 11
2124.0
 21
166.5
 31
0.0
100
AcDbText
  0
TEXT
  5
A2D
330
1F
100
AcDbEntity
  8
補助
100
AcDbText
 10
2086.666666666667
 20
84.0
 30
0.0
 40
35.0
  1
尺度
 72
     4
 11
2124.0
 21
101.5
 31
0.0
100
AcDbText
  0
LINE
  5
C3A
330
1F
100
AcDbEntity
  8
0
100
AcDbLine
 10
1562.510719473206
 20
1605.093561842788
 30
0.0
 11
866.5107194732053
 21
1605.093561842789
 31
0.0
  0
LINE
  5
C3B
330
1F
100
AcDbEntity
  8
0
100
AcDbLine
 10
1569.510719473205
 20
1032.093561842788
 30
0.0
 11
1569.510719473206
 21
1598.093561842788
 31
0.0
  0
LINE
  5
C3C
330
1F
100
AcDbEntity
  8
0
100
AcDbLine
 10
866.5107194732055
 20
1025.093561842788
 30
0.0
 11
1562.510719473205
 21
1025.093561842788
 31
0.0
  0
LINE
  5
C3D
330
1F
100
AcDbEntity
  8
0
100
AcDbLine
 10
859.5107194732053
 20
1598.093561842789
 30
0.0
 11
859.5107194732054
 21
1032.093561842788
 31
0.0
  0
LINE
  5
C42
330
1F
100
AcDbEntity
  8
0
100
AcDbLine
 10
1562.510719473206
 20
1610.093561842788
 30
0.0
 11
866.5107194732051
 21
1610.093561842789
 31
0.0
  0
LINE
  5
C43
330
1F
100
AcDbEntity
  8
0
100
AcDbLine
 10
1574.510719473205
 20
1032.093561842788
 30
0.0
 11
1574.510719473206
 21
1598.093561842788
 31
0.0
  0
LINE
  5
C44
330
1F
100
AcDbEntity
  8
0
100
AcDbLine
 10
866.5107194732055
 20
1020.093561842788
 30
0.0
 11
1562.510719473205
 21
1020.093561842788
 31
0.0
  0
LINE
  5
C48
330
1F
100
AcDbEntity
  8
0
100
AcDbLine
 10
854.5107194732052
 20
1598.093561842789
 30
0.0
 11
854.5107194732056
 21
1032.093561842788
 31
0.0
  0
LINE
  5
D50
330
1F
100
AcDbEntity
  8
0
100
AcDbLine
 10
854.5107194732052
 20
637.52636671174
 30
0.0
 11
1574.510719473205
 21
637.5263667117397
 31
0.0
  0
LINE
  5
D55
330
1F
100
AcDbEntity
  8
実形
100
AcDbLine
 10
866.5107194732053
 20
637.52636671174
 30
0.0
 11
866.5107194732053
 21
627.5263667117396
 31
0.0
  0
LINE
  5
D56
330
1F
100
AcDbEntity
  8
実形
100
AcDbLine
 10
1562.510719473205
 20
637.5263667117397
 30
0.0
 11
1562.510719473205
 21
627.5263667117396
 31
0.0
  0
LINE
  5
D59
330
1F
100
AcDbEntity
  8
実形
100
AcDbLine
 10
859.5107194732053
 20
642.5263667117398
 30
0.0
 11
854.5107194732052
 21
637.52636671174
 31
0.0
  0
LINE
  5
D5A
330
1F
100
AcDbEntity
  8
実形
100
AcDbLine
 10
869.5107194732052
 20
637.52636671174
 30
0.0
 11
869.5107194732052
 21
627.5263667117396
 31
0.0
  0
LINE
  5
D5B
330
1F
100
AcDbEntity
  8
実形
100
AcDbLine
 10
869.5107194732052
 20
627.5263667117396
 30
0.0
 11
889.5107194732059
 21
627.5263667117398
 31
0.0
  0
LINE
  5
D5C
330
1F
100
AcDbEntity
  8
実形
100
AcDbLine
 10
1569.510719473205
 20
642.5263667117397
 30
0.0
 11
1574.510719473205
 21
637.5263667117397
 31
0.0
  0
LINE
  5
D5D
330
1F
100
AcDbEntity
  8
実形
100
AcDbLine
 10
1559.510719473205
 20
637.5263667117397
 30
0.0
 11
1559.510719473205
 21
627.5263667117396
 31
0.0
  0
LINE
  5
D5E
330
1F
100
AcDbEntity
  8
実形
100
AcDbLine
 10
1559.510719473205
 20
627.5263667117396
 30
0.0
 11
1539.510719473205
 21
627.5263667117396
 31
0.0
  0
LINE
  5
D67
330
1F
100
AcDbEntity
  8
0
100
AcDbLine
 10
1893.967865434157
 20
1605.093561842788
 30
0.0
 11
1893.967865434157
 21
1025.093561842788
 31
0.0
  0
LINE
  5
D6C
330
1F
100
AcDbEntity
  8
実形
100
AcDbLine
 10
1888.967865434157
 20
1610.093561842789
 30
0.0
 11
1893.967865434157
 21
1605.093561842788
 31
0.0
  0
LINE
  5
D6E
330
1F
100
AcDbEntity
  8
実形
100
AcDbLine
 10
1893.967865434157
 20
1598.093561842788
 30
0.0
 11
1903.967865434157
 21
1598.093561842788
 31
0.0
  0
LINE
  5
D6F
330
1F
100
AcDbEntity
  8
実形
100
AcDbLine
 10
1893.967865434157
 20
1595.093561842788
 30
0.0
 11
1903.967865434157
 21
1595.093561842788
 31
0.0
  0
LINE
  5
D70
330
1F
100
AcDbEntity
  8
実形
100
AcDbLine
 10
1903.967865434157
 20
1595.093561842788
 30
0.0
 11
1903.967865434157
 21
1575.093561842789
 31
0.0
  0
LINE
  5
D71
330
1F
100
AcDbEntity
  8
実形
100
AcDbLine
 10
1888.967865434156
 20
1020.093561842788
 30
0.0
 11
1893.967865434157
 21
1025.093561842788
 31
0.0
  0
LINE
  5
D72
330
1F
100
AcDbEntity
  8
実形
100
AcDbLine
 10
1893.967865434157
 20
1032.093561842788
 30
0.0
 11
1903.967865434156
 21
1032.093561842788
 31
0.0
  0
LINE
  5
D73
330
1F
100
AcDbEntity
  8
実形
100
AcDbLine
 10
1893.967865434157
 20
1035.093561842788
 30
0.0
 11
1903.967865434156
 21
1035.093561842788
 31
0.0
  0
LINE
  5
D74
330
1F
100
AcDbEntity
  8
実形
100
AcDbLine
 10
1903.967865434156
 20
1035.093561842788
 30
0.0
 11
1903.967865434156
 21
1070.093561842788
 31
0.0
  0
TEXT
  5
DC1
330
1F
100
AcDbEntity
  8
0
100
AcDbText
 10
1930.650962839028
 20
1126.664831604261
 30
0.0
 40
25.0
  1
30R
100
AcDbText
  0
LEADER
  5
DC2
330
1F
100
AcDbEntity
  8
Cen
100
AcDbLeader
  3
ISO-25
 40
25.0
 41
16.66666666666666
 76
     2
 10
2050.958070520015
 20
1094.74474552753
 30
0.0
 10
2001.843105795481
 20
1130.616826823538
 30
0.0
213
0.0
223
12.5
233
0.0
1001
ACAD
1000
DSTYLE
1002
{
1070
   147
1040
6.25
1070
    77
1070
     0
1070
   279
1070
     1
1002
}
  0
ARC
  5
DEA
330
1F
100
AcDbEntity
  8
0
100
AcDbCircle
 10
866.5107194732051
 20
1598.093561842789
 30
0.0
 40
12.0
100
AcDbArc
 50
89.99999999999998
 51
180.0
  0
ARC
  5
DEC
330
1F
100
AcDbEntity
  8
0
100
AcDbCircle
 10
1562.510719473206
 20
1598.093561842788
 30
0.0
 40
12.0
100
AcDbArc
 50
360.0
 51
89.99999999999998
  0
ARC
  5
DED
330
1F
100
AcDbEntity
  8
0
100
AcDbCircle
 10
1562.510719473205
 20
1032.093561842788
 30
0.0
 40
12.0
100
AcDbArc
 50
270.0
 51
360.0
  0
ARC
  5
DEE
330
1F
100
AcDbEntity
  8
0
100
AcDbCircle
 10
866.5107194732055
 20
1032.093561842788
 30
0.0
 40
12.0
100
AcDbArc
 50
180.0
 51
270.0
  0
ARC
  5
DEF
330
1F
100
AcDbEntity
  8
0
100
AcDbCircle
 10
866.5107194732053
 20
1598.093561842789
 30
0.0
 40
7.0
100
AcDbArc
 50
89.99999999999998
 51
180.0
  0
ARC
  5
DF0
330
1F
100
AcDbEntity
  8
0
100
AcDbCircle
 10
866.5107194732055
 20
1032.093561842788
 30
0.0
 40
7.0
100
AcDbArc
 50
180.0
 51
270.0
  0
ARC
  5
DF1
330
1F
100
AcDbEntity
  8
0
100
AcDbCircle
 10
1562.510719473205
 20
1032.093561842788
 30
0.0
 40
7.0
100
AcDbArc
 50
270.0
 51
360.0
  0
ARC
  5
DF2
330
1F
100
AcDbEntity
  8
0
100
AcDbCircle
 10
1562.510719473206
 20
1598.093561842788
 30
0.0
 40
7.0
100
AcDbArc
 50
360.0
 51
89.99999999999998
  0
DIMENSION
  5
DFA
330
1F
100
AcDbEntity
  8
実形
100
AcDbDimension
  2
*D16
 10
854.5107194732052
 20
916.1857900480718
 30
0.0
 11
918.3352548357269
 21
935.3717174741568
 31
0.0
 70
   160
 71
     5
 42
35.0
  3
ISO-25
100
AcDbAlignedDimension
 13
889.5107194732053
 23
1020.093561842788
 33
0.0
 14
854.5107194732052
 24
1020.093561842788
 34
0.0
100
AcDbRotatedDimension
1001
ACAD
1000
DSTYLE
1002
{
1070
   279
1070
     2
1002
}
  0
LINE
  5
F95
330
1F
100
AcDbEntity
  8
補助
100
AcDbLine
 10
1894.0
 20
2024.0
 30
0.0
 11
2784.0
 21
2024.0
 31
0.0
  0
LINE
  5
FA5
330
1F
100
AcDbEntity
  8
補助
100
AcDbLine
 10
2784.0
 20
2024.0
 30
0.0
 11
2784.000000000001
 21
1829.0
 31
0.0
  0
LINE
  5
FA6
330
1F
100
AcDbEntity
  8
補助
100
AcDbLine
 10
2784.0
 20
1829.0
 30
0.0
 11
2784.0
 21
2024.0
 31
0.0
  0
DIMENSION
  5
1456
330
1F
100
AcDbEntity
  8
実形
100
AcDbDimension
  2
*D17
 10
1029.010719473205
 20
554.6793912497117
 30
0.0
 11
1038.170999818037
 21
559.8403999645641
 31
0.0
 70
   160
 71
     5
 42
20.0
  3
ISO-25
100
AcDbAlignedDimension
 13
1049.010719473205
 23
452.5263667117399
 33
0.0
 14
1029.010719473205
 24
452.5263667117403
 34
0.0
100
AcDbRotatedDimension
1001
ACAD
1000
DSTYLE
1002
{
1070
   279
1070
     1
1002
}
  0
LINE
  5
1457
330
1F
100
AcDbEntity
  8
実形
100
AcDbLine
 10
1029.010719473205
 20
454.5263667117403
 30
0.0
 11
1049.010719473205
 21
452.5263667117399
 31
0.0
  0
LINE
  5
1458
330
1F
100
AcDbEntity
  8
実形
370
    13
100
AcDbLine
 10
912.9467309761233
 20
1390.603594870193
 30
0.0
 11
1059.783155130717
 21
1311.312373414998
 31
0.0
  0
LINE
  5
1459
330
1F
100
AcDbEntity
  8
実形
370
    13
100
AcDbLine
 10
912.9467309761233
 20
1390.603594870193
 30
0.0
 11
1057.408155130717
 21
1307.198752747022
 31
0.0
  0
ARC
  5
145A
330
1F
100
AcDbEntity
  8
0
100
AcDbCircle
 10
949.5107194732051
 20
1600.093561842789
 30
0.0
 40
100.0
100
AcDbArc
 50
281.5369590328207
 51
327.1335352609031
  0
ARC
  5
145B
330
1F
100
AcDbEntity
  8
0
100
AcDbCircle
 10
1087.260492612764
 20
1511.093561842788
 30
0.0
 40
64.0
100
AcDbArc
 50
90.0
 51
147.133535260903
  0
CIRCLE
  5
145C
330
1F
100
AcDbEntity
  8
0
370
    13
100
AcDbCircle
 10
1139.510719473205
 20
1405.093561842788
 30
0.0
 40
110.5
  0
DIMENSION
  5
145D
330
1F
100
AcDbEntity
  8
0
100
AcDbDimension
  2
*D18
 10
981.7381589015647
 20
1575.093561842789
 30
0.0
 11
955.5971495860376
 21
1550.691120803756
 31
0.0
 70
   160
 71
     5
 42
15.00000000000045
  3
ISO-25
100
AcDbAlignedDimension
 13
1057.765655497107
 23
1560.093561842788
 33
0.0
 14
1074.510719473205
 24
1575.093561842789
 34
0.0
 50
90.0
100
AcDbRotatedDimension
1001
ACAD
1000
DSTYLE
1002
{
1070
   279
1070
     2
1002
}
  0
LINE
  5
145E
330
1F
100
AcDbEntity
  8
0
100
AcDbLine
 10
889.5107194732055
 20
627.5263667117399
 30
0.0
 11
1074.510719473205
 21
627.5263667117399
 31
0.0
  0
LINE
  5
145F
330
1F
100
AcDbEntity
  8
0
100
AcDbLine
 10
872.510719473205
 20
642.5263667117398
 30
0.0
 11
1556.510719473205
 21
642.5263667117398
 31
0.0
  0
DIMENSION
  5
1460
330
1F
100
AcDbEntity
  8
0
100
AcDbDimension
  2
*D19
 10
1269.510719473205
 20
1738.604527756736
 30
0.0
 11
1139.510719473205
 21
1757.354527756736
 31
0.0
 70
    32
 71
     5
 42
260.0
  3
ISO-25
100
AcDbAlignedDimension
 13
1009.510719473205
 23
1657.093561842789
 33
0.0
 14
1269.510719473205
 24
1657.093561842789
 34
0.0
100
AcDbRotatedDimension
  0
LINE
  5
1461
330
1F
100
AcDbEntity
  8
Cen
 48
0.8
100
AcDbLine
 10
1273.618281152284
 20
1405.093561842788
 30
0.0
 11
1005.403157794126
 21
1405.093561842788
 31
0.0
  0
DIMENSION
  5
1462
330
1F
100
AcDbEntity
  8
0
100
AcDbDimension
  2
*D20
 10
1299.918221747644
 20
1575.093561842789
 30
0.0
 11
1299.918221747644
 21
1458.643956093915
 31
0.0
 70
   160
 71
     5
 42
170.0000000000004
  3
ISO-25
100
AcDbAlignedDimension
 13
1201.07100322889
 23
1405.093561842788
 33
0.0
 14
949.5107194732051
 24
1575.093561842789
 34
0.0
 50
90.0
100
AcDbRotatedDimension
  0
DIMENSION
  5
1463
330
1F
100
AcDbEntity
  8
0
100
AcDbDimension
  2
*D21
 10
889.5107194732052
 20
1207.556483900574
 30
0.0
 11
1014.510719473205
 21
1226.306483900574
 31
0.0
 70
    32
 71
     5
 42
250.0
  3
ISO-25
100
AcDbAlignedDimension
 13
1139.510719473205
 23
1366.83647365201
 33
0.0
 14
889.5107194732052
 24
1385.093561842789
 34
0.0
100
AcDbRotatedDimension
  0
LINE
  5
1466
330
1F
100
AcDbEntity
  8
0
100
AcDbLine
 10
1004.510719473205
 20
1070.093561842788
 30
0.0
 11
1424.510719473205
 21
1070.093561842788
 31
0.0
  0
LINE
  5
1469
330
1F
100
AcDbEntity
  8
0
100
AcDbLine
 10
1479.510719473205
 20
1575.093561842789
 30
0.0
 11
949.5107194732051
 21
1575.093561842789
 31
0.0
  0
LINE
  5
146A
330
1F
100
AcDbEntity
  8
0
100
AcDbLine
 10
1004.510719473205
 20
1055.093561842788
 30
0.0
 11
1424.510719473205
 21
1055.093561842788
 31
0.0
  0
TEXT
  5
146B
330
1F
100
AcDbEntity
  8
0
100
AcDbText
 10
904.8465997584786
 20
532.0191532009105
 30
0.0
 40
25.0
  1
4500R
100
AcDbText
  0
LINE
  5
146C
330
1F
100
AcDbEntity
  8
0
100
AcDbLine
 10
889.5107194732059
 20
627.5263667117398
 30
0.0
 11
889.510719473205
 21
491.5727165095939
 31
0.0
  0
LEADER
  5
146D
330
1F
100
AcDbEntity
  8
Cen
100
AcDbLeader
  3
ISO-25
 40
25.0
 41
16.66666666666666
 76
     2
 10
968.2471617814814
 20
463.458787519912
 30
0.0
 10
945.5634600644476
 20
522.7297759175537
 30
0.0
213
0.0
223
12.5
233
0.0
1001
ACAD
1000
DSTYLE
1002
{
1070
    41
1040
25.0
1070
   147
1040
6.25
1070
    77
1070
     0
1070
   279
1070
     1
1002
}
  0
ARC
  5
146E
330
1F
100
AcDbEntity
  8
0
100
AcDbCircle
 10
919.5107194732051
 20
491.5727165095939
 30
0.0
 40
30.0
100
AcDbArc
 50
180.0
 51
268.1494069769954
  0
LINE
  5
146F
330
1F
100
AcDbEntity
  8
0
100
AcDbLine
 10
918.5419196982087
 20
461.5883634734525
 30
0.0
 11
1029.010719473205
 21
454.5263667117403
 31
0.0
  0
LINE
  5
1470
330
1F
100
AcDbEntity
  8
0
100
AcDbLine
 10
889.5107194732052
 20
1385.093561842789
 30
0.0
 11
889.5107194732052
 21
1170.093561842788
 31
0.0
  0
LINE
  5
1472
330
1F
100
AcDbEntity
  8
0
100
AcDbLine
 10
889.5107194732052
 20
1515.093561842789
 30
0.0
 11
889.5107194732052
 21
1185.093561842788
 31
0.0
  0
ARC
  5
1475
330
1F
100
AcDbEntity
  8
0
100
AcDbCircle
 10
1004.510719473205
 20
1170.093561842788
 30
0.0
 40
115.0
100
AcDbArc
 50
180.0
 51
270.0
  0
ARC
  5
1476
330
1F
100
AcDbEntity
  8
0
100
AcDbCircle
 10
1004.510719473205
 20
1185.093561842788
 30
0.0
 40
115.0
100
AcDbArc
 50
180.0
 51
270.0
  0
ARC
  5
1477
330
1F
100
AcDbEntity
  8
0
100
AcDbCircle
 10
989.5107194732052
 20
1404.134382420134
 30
0.0
 40
100.0
100
AcDbArc
 50
101.5369590328207
 51
180.0
  0
LINE
  5
1478
330
1F
100
AcDbEntity
  8
Cen
100
AcDbLine
 10
990.502569089306
 20
1560.093561842789
 30
0.0
 11
1025.023290603539
 21
1560.093561842789
 31
0.0
  0
LEADER
  5
1479
330
1F
100
AcDbEntity
  8
0
100
AcDbLeader
  3
ISO-25
 40
25.0
 41
16.66666666666666
 76
     2
 10
1004.264215034073
 20
1508.12512097892
 30
0.0
 10
1003.295016875134
 20
1447.105700298312
 30
0.0
213
0.0
223
12.5
233
0.0
1001
ACAD
1000
DSTYLE
1002
{
1070
    41
1040
25.0
1070
   147
1040
6.25
1070
    77
1070
     0
1070
    73
1070
     1
1070
    74
1070
     1
1070
   279
1070
     1
1070
   342
1005
DA
1002
}
  0
TEXT
  5
147A
330
1F
100
AcDbEntity
  8
0
100
AcDbText
 10
944.9220643808073
 20
1413.267342559447
 30
0.0
 40
25.0
  1
100R
 11
944.9220643808073
 21
1438.267342559447
 31
0.0
100
AcDbText
 73
     3
  0
LEADER
  5
147B
330
1F
100
AcDbEntity
  8
0
100
AcDbLeader
  3
ISO-25
 40
25.0
 41
16.66666666666666
 76
     2
 10
935.4508471741725
 20
1480.036814130878
 30
0.0
 10
974.2189419587864
 20
1448.074258873309
 30
0.0
213
0.0
223
-12.5
233
0.0
1001
ACAD
1000
DSTYLE
1002
{
1070
    41
1040
25.0
1070
   147
1040
6.25
1070
    77
1070
     0
1070
    73
1070
     1
1070
    74
1070
     1
1070
   279
1070
     1
1070
   342
1005
DA
1002
}
  0
CIRCLE
  5
147C
330
1F
100
AcDbEntity
  8
Cen
100
AcDbCircle
 10
1009.510719473205
 20
1560.093561842789
 30
0.0
 40
6.0
  0
LINE
  5
147D
330
1F
100
AcDbEntity
  8
Cen
100
AcDbLine
 10
1009.510719473205
 20
1722.093561842789
 30
0.0
 11
1009.510719473205
 21
1528.093561842789
 31
0.0
  0
ARC
  5
147F
330
1F
100
AcDbEntity
  8
0
100
AcDbCircle
 10
949.5107194732051
 20
1515.093561842789
 30
0.0
 40
60.0
100
AcDbArc
 50
90.0
 51
180.0
  0
TEXT
  5
1480
330
1F
100
AcDbEntity
  8
0
100
AcDbText
 10
1294.713458364953
 20
538.7082500715821
 30
0.0
 40
25.0
  1
4500R
100
AcDbText
  0
DIMENSION
  5
1481
330
1F
100
AcDbEntity
  8
実形
100
AcDbDimension
  2
*D22
 10
1250.010719473205
 20
554.6793912497117
 30
0.0
 11
1239.561093852695
 21
559.189080219892
 31
0.0
 70
   160
 71
     5
 42
20.0
  3
ISO-25
100
AcDbAlignedDimension
 13
1230.010719473205
 23
452.5263667117399
 33
0.0
 14
1250.010719473205
 24
452.5263667117403
 34
0.0
100
AcDbRotatedDimension
1001
ACAD
1000
DSTYLE
1002
{
1070
   279
1070
     1
1002
}
  0
TEXT
  5
1482
330
1F
100
AcDbEntity
  8
0
100
AcDbText
 10
1445.658333545036
 20
546.5784369442415
 30
0.0
 40
25.0
  1
30R
100
AcDbText
  0
DIMENSION
  5
1483
330
1F
100
AcDbEntity
  8
0
100
AcDbDimension
  2
*D23
 10
1049.010719473205
 20
554.6793912497117
 30
0.0
 11
1139.510719473205
 21
573.4293912497117
 31
0.0
 70
    32
 71
     5
 42
181.0
  3
ISO-25
100
AcDbAlignedDimension
 13
1230.010719473205
 23
452.5263667117399
 33
0.0
 14
1049.010719473205
 24
452.5263667117399
 34
0.0
100
AcDbRotatedDimension
  0
LINE
  5
1484
330
1F
100
AcDbEntity
  8
0
100
AcDbLine
 10
1539.510719473204
 20
627.5263667117399
 30
0.0
 11
1539.510719473205
 21
500.7190139358965
 31
0.0
  0
DIMENSION
  5
1485
330
1F
100
AcDbEntity
  8
実形
100
AcDbDimension
  2
*D24
 10
1667.530487996086
 20
445.5263667117399
 30
0.0
 11
1650.751360625608
 21
427.9591484759887
 31
0.0
 70
   160
  1
7
 71
     5
 42
27.00000000000045
  3
ISO-25
100
AcDbAlignedDimension
 13
1556.510719473204
 23
472.5263667117403
 33
0.0
 14
1556.510719473204
 24
445.5263667117399
 34
0.0
 50
90.0
100
AcDbRotatedDimension
1001
ACAD
1000
DSTYLE
1002
{
1070
   279
1070
     2
1002
}
  0
DIMENSION
  5
1486
330
1F
100
AcDbEntity
  8
0
100
AcDbDimension
  2
*D25
 10
1667.530487996086
 20
452.5263667117402
 30
0.0
 11
1647.511819373361
 21
498.5346080459469
 31
0.0
 70
   160
 71
     5
 42
20.0
  3
ISO-25
100
AcDbAlignedDimension
 13
1556.510719473204
 23
472.5263667117403
 33
0.0
 14
1556.510719473205
 24
452.5263667117403
 34
0.0
 50
90.0
100
AcDbRotatedDimension
1001
ACAD
1000
DSTYLE
1002
{
1070
   282
1070
     0
1070
   281
1070
     0
1070
   279
1070
     2
1002
}
  0
LINE
  5
1487
330
1F
100
AcDbEntity
  8
実形
100
AcDbLine
 10
1250.010719473207
 20
454.5263667117403
 30
0.0
 11
1389.66248169112
 21
459.4750948133789
 31
0.0
  0
LINE
  5
1488
330
1F
100
AcDbEntity
  8
0
100
AcDbLine
 10
1220.010719473205
 20
445.5263667117399
 30
0.0
 11
1230.010719473205
 21
445.5263667117399
 31
0.0
  0
LINE
  5
1489
330
1F
100
AcDbEntity
  8
0
100
AcDbLine
 10
1061.010719473205
 20
445.5263667117403
 30
0.0
 11
1218.010719473205
 21
445.5263667117399
 31
0.0
  0
LINE
  5
148A
330
1F
100
AcDbEntity
  8
実形
100
AcDbLine
 10
1230.010719473205
 20
452.5263667117399
 30
0.0
 11
1250.010719473205
 21
454.5263667117403
 31
0.0
  0
LINE
  5
148B
330
1F
100
AcDbEntity
  8
Cen
100
AcDbLine
 10
1139.510719473205
 20
535.8319586669751
 30
0.0
 11
1139.510719473205
 21
421.2718247666154
 31
0.0
  0
DIMENSION
  5
148C
330
1F
100
AcDbEntity
  8
0
100
AcDbDimension
  2
*D26
 10
1060.010719473205
 20
324.1318920137248
 30
0.0
 11
1139.510719473205
 21
342.8818920137248
 31
0.0
 70
    32
  1
158
 71
     5
 42
159.0
  3
ISO-25
100
AcDbAlignedDimension
 13
1219.010719473205
 23
445.5263667117399
 33
0.0
 14
1060.010719473205
 24
445.5263667117403
 34
0.0
100
AcDbRotatedDimension
  0
LINE
  5
148D
330
1F
100
AcDbEntity
  8
0
100
AcDbLine
 10
1049.010719473205
 20
452.5263667117399
 30
0.0
 11
1230.010719473205
 21
452.5263667117399
 31
0.0
  0
LINE
  5
148E
330
1F
100
AcDbEntity
  8
0
100
AcDbLine
 10
1230.010719473205
 20
452.5263667117399
 30
0.0
 11
1230.010719473205
 21
445.5263667117399
 31
0.0
  0
LINE
  5
148F
330
1F
100
AcDbEntity
  8
0
100
AcDbLine
 10
1049.010719473205
 20
452.5263667117399
 30
0.0
 11
1049.010719473205
 21
445.5263667117399
 31
0.0
  0
LINE
  5
1490
330
1F
100
AcDbEntity
  8
0
100
AcDbLine
 10
1049.010719473205
 20
445.5263667117403
 30
0.0
 11
1059.010719473205
 21
445.5263667117403
 31
0.0
  0
LEADER
  5
1491
330
1F
100
AcDbEntity
  8
Cen
100
AcDbLeader
  3
ISO-25
 40
25.0
 41
16.66666666666666
 76
     2
 10
1439.457706938773
 20
471.3289696893923
 30
0.0
 10
1387.905516596757
 20
524.2795788415521
 30
0.0
213
0.0
223
12.5
233
0.0
1001
ACAD
1000
DSTYLE
1002
{
1070
    41
1040
25.0
1070
   147
1040
6.25
1070
    77
1070
     0
1070
   279
1070
     1
1002
}
  0
LEADER
  5
1492
330
1F
100
AcDbEntity
  8
Cen
100
AcDbLeader
  3
ISO-25
 40
25.0
 41
16.66666666666666
 76
     2
 10
1335.765133054656
 20
460.8353918956924
 30
0.0
 10
1347.216021314964
 20
525.5912766536619
 30
0.0
213
0.0
223
12.5
233
0.0
1001
ACAD
1000
DSTYLE
1002
{
1070
    41
1040
25.0
1070
   147
1040
6.25
1070
    77
1070
     0
1070
   279
1070
     1
1002
}
  0
ARC
  5
1493
330
1F
100
AcDbEntity
  8
0
100
AcDbCircle
 10
1509.510719473205
 20
500.7190139358965
 30
0.0
 40
30.0
100
AcDbArc
 50
273.5578518661208
 51
0.0
  0
ARC
  5
1494
330
1F
100
AcDbEntity
  8
実形
100
AcDbCircle
 10
1389.609360729807
 20
460.9741539060994
 30
0.0
 40
1.5
100
AcDbArc
 50
272.0294956239807
 51
0.0
  0
ARC
  5
1495
330
1F
100
AcDbEntity
  8
実形
100
AcDbCircle
 10
1392.609360729807
 20
461.8897068638959
 30
0.0
 40
1.5
100
AcDbArc
 50
93.55785186612074
 51
180.0
  0
LINE
  5
1496
330
1F
100
AcDbEntity
  8
実形
100
AcDbLine
 10
1391.109360729807
 20
460.9741539060994
 30
0.0
 11
1391.109360729807
 21
461.8897068638959
 31
0.0
  0
LEADER
  5
1497
330
1F
100
AcDbEntity
  8
Cen
100
AcDbLeader
  3
ISO-25
 40
25.0
 41
16.66666666666666
 76
     2
 10
1530.975010779439
 20
488.8637520241216
 30
0.0
 10
1502.098598477411
 20
538.7082500715821
 30
0.0
213
0.0
223
12.5
233
0.0
1001
ACAD
1000
DSTYLE
1002
{
1070
    41
1040
25.0
1070
   147
1040
6.25
1070
    77
1070
     0
1070
   279
1070
     1
1002
}
  0
LINE
  5
1498
330
1F
100
AcDbEntity
  8
0
100
AcDbLine
 10
1511.372409387658
 20
470.7768344784419
 30
0.0
 11
1392.516276234084
 21
463.3868158367688
 31
0.0
  0
CIRCLE
  5
1499
102
{ACAD_REACTORS
330
149A
102
}
330
1F
100
AcDbEntity
  8
0
100
AcDbCircle
 10
1667.530487996086
 20
452.5263667117403
 30
0.0
 40
2.686192441042294
  0
HATCH
  5
149A
330
1F
100
AcDbEntity
  8
0
100
AcDbHatch
 10
0.0
 20
0.0
 30
0.0
210
0.0
220
0.0
230
1.0
  2
SOLID
 70
     1
 71
     1
 91
        1
 92
        7
 72
     1
 73
     1
 93
        2
 10
1670.216680437128
 20
452.5263667117403
 42
1.0
 10
1664.844295555044
 20
452.5263667117403
 42
1.0
 97
        1
330
1499
 75
     0
 76
     1
 47
0.4154898185022131
 98
        1
 10
1666.397514807804
 20
452.2252185010663
  0
HATCH
  5
149B
330
1F
100
AcDbEntity
  8
0
100
AcDbHatch
 10
0.0
 20
0.0
 30
0.0
210
0.0
220
0.0
230
1.0
  2
SOLID
 70
     1
 71
     0
 91
        1
 92
        7
 72
     1
 73
     1
 93
        2
 10
1664.844295555044
 20
472.5263667117403
 42
-1.0
 10
1670.216680437128
 20
472.5263667117403
 42
-1.0
 97
        0
 75
     0
 76
     1
 47
0.4154898185022131
 98
        1
 10
1666.397514807804
 20
472.2252185010663
  0
CIRCLE
  5
149C
330
1F
100
AcDbEntity
  8
0
100
AcDbCircle
 10
1667.530487996086
 20
472.5263667117403
 30
0.0
 40
2.686192441042294
  0
LINE
  5
149D
330
1F
100
AcDbEntity
  8
実形
370
    13
100
AcDbLine
 10
1220.032109603039
 20
1311.312373414998
 30
0.0
 11
1470.074909917087
 21
1450.18982392794
 31
0.0
  0
LINE
  5
149E
330
1F
100
AcDbEntity
  8
実形
370
    13
100
AcDbLine
 10
1222.407109603039
 20
1307.198752747021
 30
0.0
 11
1470.074909917087
 21
1450.18982392794
 31
0.0
  0
LEADER
  5
149F
330
1F
100
AcDbEntity
  8
0
100
AcDbLeader
  3
ISO-25
 40
25.0
 41
16.66666666666666
 76
     2
 10
1370.563019435878
 20
1494.037477258629
 30
0.0
 10
1402.197240975107
 20
1378.121930398161
 30
0.0
213
0.0
223
-12.5
233
0.0
1001
ACAD
1000
DSTYLE
1002
{
1070
    41
1040
25.0
1070
   147
1040
6.25
1070
    77
1070
     0
1070
    73
1070
     1
1070
    74
1070
     1
1070
   279
1070
     1
1070
   342
1005
DA
1002
}
  0
LINE
  5
14A0
330
1F
100
AcDbEntity
  8
Cen
 48
0.8
100
AcDbLine
 10
1139.510719473205
 20
1291.616160932295
 30
0.0
 11
1139.510719473205
 21
1518.570962753281
 31
0.0
  0
CIRCLE
  5
14A1
330
1F
100
AcDbEntity
  8
0
100
AcDbCircle
 10
1139.510719473205
 20
1405.093561842788
 30
0.0
 40
90.5
  0
CIRCLE
  5
14A2
330
1F
100
AcDbEntity
  8
0
100
AcDbCircle
 10
1139.510719473205
 20
1405.093561842788
 30
0.0
 40
79.5
  0
LINE
  5
14A3
330
1F
100
AcDbEntity
  8
0
100
AcDbLine
 10
1539.510719473205
 20
1170.093561842788
 30
0.0
 11
1539.510719473205
 21
1385.093561842789
 31
0.0
  0
LINE
  5
14A5
330
1F
100
AcDbEntity
  8
0
100
AcDbLine
 10
1539.510719473205
 20
1185.093561842788
 30
0.0
 11
1539.510719473205
 21
1515.093561842789
 31
0.0
  0
LINE
  5
14A7
330
1F
100
AcDbEntity
  8
0
100
AcDbLine
 10
1204.510719473205
 20
627.5263667117399
 30
0.0
 11
1539.510719473204
 21
627.5263667117399
 31
0.0
  0
ARC
  5
14AA
330
1F
100
AcDbEntity
  8
実形
370
    13
100
AcDbCircle
 10
1139.907632366878
 20
1450.092038917925
 30
0.0
 40
160.2489544723223
100
AcDbArc
 50
240.0000000000027
 51
299.9999999999973
  0
ARC
  5
14AB
330
1F
100
AcDbEntity
  8
実形
370
    13
100
AcDbCircle
 10
1139.907632366878
 20
1450.092038917925
 30
0.0
 40
164.9989544723223
100
AcDbArc
 50
240.0000000000027
 51
299.9999999999973
  0
TEXT
  5
14AC
330
1F
100
AcDbEntity
  8
0
100
AcDbText
 10
1128.589122067227
 20
1141.011501570336
 30
0.0
 40
25.0
  1
10000R
 11
1128.589122067227
 21
1137.678168237003
 31
0.0
100
AcDbText
 73
     1
  0
LEADER
  5
14AD
330
1F
100
AcDbEntity
  8
0
100
AcDbLeader
  3
ISO-25
 40
25.0
 41
16.66666666666666
 76
     2
 10
1128.033990187051
 20
1079.551583706916
 30
0.0
 10
1153.810020283971
 20
1126.386150660354
 30
0.0
213
0.0
223
-12.5
233
0.0
1001
ACAD
1000
DSTYLE
1002
{
1070
    41
1040
25.0
1070
   147
1040
6.25
1070
    77
1070
     0
1070
    73
1070
     1
1070
    74
1070
     1
1070
   279
1070
     1
1070
   342
1005
DA
1002
}
  0
TEXT
  5
14AE
330
1F
100
AcDbEntity
  8
0
100
AcDbText
 10
1354.820907678111
 20
1338.825684334753
 30
0.0
 40
25.0
  1
10000R
 11
1354.820907678111
 21
1363.825684334753
 31
0.0
100
AcDbText
 73
     3
  0
TEXT
  5
14AF
330
1F
100
AcDbEntity
  8
0
100
AcDbText
 10
1327.939238092364
 20
1269.170788345941
 30
0.0
 40
25.0
  1
5000R
 72
     2
 11
1432.105904759031
 21
1281.670788345941
 31
0.0
100
AcDbText
 73
     2
  0
LEADER
  5
14B0
330
1F
100
AcDbEntity
  8
0
100
AcDbLeader
  3
ISO-25
 76
     2
 10
1538.581876966687
 20
1281.670788345941
 30
0.0
 10
1442.410029488519
 20
1281.670788345941
 30
0.0
1001
ACAD
1000
DSTYLE
1002
{
1070
    41
1040
25.0
1070
   147
1040
6.25
1070
    77
1070
     0
1070
    73
1070
     1
1070
    74
1070
     1
1070
   279
1070
     1
1070
   342
1005
DA
1002
}
  0
TEXT
  5
14B1
330
1F
100
AcDbEntity
  8
0
100
AcDbText
 10
1376.569251470284
 20
1184.950147655937
 30
0.0
 40
25.0
  1
115R
 72
     2
 11
1451.569251470284
 21
1181.616814322604
 31
0.0
100
AcDbText
 73
     1
  0
LEADER
  5
14B2
330
1F
100
AcDbEntity
  8
0
100
AcDbLeader
  3
ISO-25
 40
25.0
 41
16.66666666666666
 76
     2
 10
1521.408335750875
 20
1126.704874573524
 30
0.0
 10
1458.43867629142
 20
1186.192808111635
 30
0.0
213
0.0
223
12.5
233
0.0
1001
ACAD
1000
DSTYLE
1002
{
1070
    41
1040
25.0
1070
   147
1040
6.25
1070
    77
1070
     0
1070
    73
1070
     1
1070
    74
1070
     1
1070
   279
1070
     1
1070
   342
1005
DA
1002
}
  0
TEXT
  5
14B3
330
1F
100
AcDbEntity
  8
0
100
AcDbText
 10
1329.628230478921
 20
1141.478199519792
 30
0.0
 40
25.0
  1
115R
 72
     2
 11
1404.628230478922
 21
1138.144866186459
 31
0.0
100
AcDbText
 73
     1
  0
LEADER
  5
14B4
330
1F
100
AcDbEntity
  8
0
100
AcDbLeader
  3
ISO-25
 40
25.0
 41
16.66666666666666
 76
     2
 10
1505.379697282782
 20
1090.096919501044
 30
0.0
 10
1414.932363543219
 20
1146.152854127202
 30
0.0
213
-97.31675022588753
223
44.53196128345098
233
0.0
1001
ACAD
1000
DSTYLE
1002
{
1070
    41
1040
25.0
1070
   147
1040
6.25
1070
    77
1070
     0
1070
    73
1070
     1
1070
    74
1070
     1
1070
   279
1070
     1
1070
   342
1005
DA
1002
}
  0
ARC
  5
14B7
330
1F
100
AcDbEntity
  8
0
100
AcDbCircle
 10
1424.510719473205
 20
1170.093561842788
 30
0.0
 40
115.0
100
AcDbArc
 50
270.0
 51
0.0
  0
ARC
  5
14B8
330
1F
100
AcDbEntity
  8
0
100
AcDbCircle
 10
1424.510719473205
 20
1185.093561842788
 30
0.0
 40
115.0
100
AcDbArc
 50
270.0
 51
0.0
  0
TEXT
  5
14B9
330
1F
100
AcDbEntity
  8
0
100
AcDbText
 10
1291.875586236665
 20
1664.058503219875
 30
0.0
 40
25.0
  1
12%%C
 72
     2
 11
1350.208919569998
 21
1660.725169886542
 31
0.0
100
AcDbText
 73
     1
  0
ARC
  5
14BA
330
1F
100
AcDbEntity
  8
0
100
AcDbCircle
 10
1329.510719473205
 20
1600.093561842789
 30
0.0
 40
100.0
100
AcDbArc
 50
212.8664647390969
 51
270.0
  0
LINE
  5
14BC
330
1F
100
AcDbEntity
  8
Cen
100
AcDbLine
 10
1253.72305709126
 20
1560.093561842788
 30
0.0
 11
1286.625617049653
 21
1560.093561842788
 31
0.0
  0
TEXT
  5
14BD
330
1F
100
AcDbEntity
  8
0
100
AcDbText
 10
1119.547396287582
 20
1524.816415143215
 30
0.0
 40
25.0
  1
64R
 11
1119.547396287582
 21
1521.483081809882
 31
0.0
100
AcDbText
 73
     1
  0
LEADER
  5
14BE
330
1F
100
AcDbEntity
  8
0
100
AcDbLeader
  3
ISO-25
 40
25.0
 41
16.66666666666666
 76
     2
 10
1056.601137634258
 20
1560.427486265478
 30
0.0
 10
1111.533077053536
 20
1537.400401633227
 30
0.0
213
0.0
223
-12.5
233
0.0
1001
ACAD
1000
DSTYLE
1002
{
1070
    41
1040
25.0
1070
   147
1040
6.25
1070
    77
1070
     0
1070
    73
1070
     1
1070
    74
1070
     1
1070
   279
1070
     1
1070
   342
1005
DA
1002
}
  0
LEADER
  5
14BF
330
1F
100
AcDbEntity
  8
0
100
AcDbLeader
  3
ISO-25
 40
25.0
 41
41.66666666666666
 76
     2
 10
1277.022067252863
 20
1566.039802583458
 30
0.0
 10
1301.355095895218
 20
1651.44957696409
 30
0.0
211
-1.0
221
0.0
231
0.0
210
0.0
220
0.0
230
-1.0
213
0.0
223
12.5
233
0.0
1001
ACAD
1000
DSTYLE
1002
{
1070
    41
1040
25.0
1070
   147
1040
6.25
1070
    77
1070
     0
1070
    73
1070
     1
1070
    74
1070
     1
1070
   342
1005
DA
1002
}
  0
LINE
  5
14C0
330
1F
100
AcDbEntity
  8
Cen
100
AcDbLine
 10
1204.510719473205
 20
1687.21151828995
 30
0.0
 11
1204.510719473205
 21
1560.093561842788
 31
0.0
  0
LINE
  5
14C1
330
1F
100
AcDbEntity
  8
Cen
100
AcDbLine
 10
1074.510719473205
 20
1687.21151828995
 30
0.0
 11
1074.510719473205
 21
1560.093561842788
 31
0.0
  0
CIRCLE
  5
14C2
330
1F
100
AcDbEntity
  8
Cen
100
AcDbCircle
 10
1269.510719473205
 20
1560.093561842788
 30
0.0
 40
6.0
  0
LINE
  5
14C3
330
1F
100
AcDbEntity
  8
Cen
100
AcDbLine
 10
1269.510719473205
 20
1722.093561842789
 30
0.0
 11
1269.510719473205
 21
1528.093561842789
 31
0.0
  0
DIMENSION
  5
14C4
330
1F
100
AcDbEntity
  8
0
100
AcDbDimension
  2
*D27
 10
1204.510719473205
 20
1687.21151828995
 30
0.0
 11
1139.510719473205
 21
1705.96151828995
 31
0.0
 70
    32
 71
     5
 42
130.0
  3
ISO-25
100
AcDbAlignedDimension
 13
1074.510719473205
 23
1592.093561842789
 33
0.0
 14
1204.510719473205
 24
1592.093561842789
 34
0.0
100
AcDbRotatedDimension
  0
ARC
  5
14C5
330
1F
100
AcDbEntity
  8
0
100
AcDbCircle
 10
1191.760946333646
 20
1511.093561842788
 30
0.0
 40
64.0
100
AcDbArc
 50
32.86646473909692
 51
90.0
  0
TEXT
  5
14C8
330
1F
100
AcDbEntity
  8
0
100
AcDbText
 10
1453.759133175379
 20
1405.052782851668
 30
0.0
 40
25.0
  1
60R
 72
     2
 11
1516.259133175379
 21
1401.719449518335
 31
0.0
100
AcDbText
 73
     1
  0
LEADER
  5
14C9
330
1F
100
AcDbEntity
  8
0
100
AcDbLeader
  3
ISO-25
 40
25.0
 41
16.66666666666666
 76
     2
 10
1527.132849489478
 20
1547.696388848605
 30
0.0
 10
1496.639946671401
 20
1437.748314893817
 30
0.0
213
0.0
223
12.5
233
0.0
1001
ACAD
1000
DSTYLE
1002
{
1070
    41
1040
25.0
1070
   147
1040
6.25
1070
    77
1070
     0
1070
    73
1070
     1
1070
    74
1070
     1
1070
   279
1070
     1
1070
   342
1005
DA
1002
}
  0
ARC
  5
14CB
330
1F
100
AcDbEntity
  8
0
100
AcDbCircle
 10
1479.510719473205
 20
1515.093561842789
 30
0.0
 40
60.0
100
AcDbArc
 50
0.0
 51
90.0
  0
ARC
  5
14CC
330
1F
100
AcDbEntity
  8
0
100
AcDbCircle
 10
1424.510719473205
 20
1385.093561842789
 30
0.0
 40
115.0
100
AcDbArc
 50
0.0
 51
90.0
  0
LINE
  5
14CD
330
1F
100
AcDbEntity
  8
0
100
AcDbLine
 10
1424.510719473205
 20
1500.093561842789
 30
0.0
 11
1329.510719473205
 21
1500.093561842789
 31
0.0
  0
DIMENSION
  5
1714
330
1F
100
AcDbEntity
  8
実形
100
AcDbDimension
  2
*D28
 10
751.8347692323441
 20
1285.093561842789
 30
0.0
 11
733.0847692323438
 21
1392.593561842789
 31
0.0
 70
    32
 71
     5
 42
215.0
  3
ISO-25
100
AcDbAlignedDimension
 13
854.5107194732052
 23
1500.093561842789
 33
0.0
 14
854.5107194732054
 24
1285.093561842789
 34
0.0
 50
90.0
100
AcDbRotatedDimension
1001
ACAD
1000
DSTYLE
1002
{
1070
   279
1070
     1
1002
}
  0
LINE
  5
18BA
330
1F
100
AcDbEntity
  8
補助
100
AcDbLine
 10
109.0
 20
4.0
 30
0.0
 11
109.0
 21
2024.0
 31
0.0
  0
LINE
  5
18D5
330
1F
100
AcDbEntity
  8
補助
 62
     0
100
AcDbLine
 10
2784.0
 20
1959.000000000001
 30
0.0
 11
2019.387286519283
 21
1959.000000000002
 31
0.0
  0
LINE
  5
18D6
330
1F
100
AcDbEntity
  8
補助
 62
     0
100
AcDbLine
 10
2784.0
 20
1894.000000000001
 30
0.0
 11
2019.387286519283
 21
1894.000000000001
 31
0.0
  0
LINE
  5
18D7
330
1F
100
AcDbEntity
  8
補助
 62
     0
100
AcDbLine
 10
2784.0
 20
1829.000000000001
 30
0.0
 11
2019.387286519283
 21
1829.000000000001
 31
0.0
  0
LINE
  5
18D8
330
1F
100
AcDbEntity
  8
補助
 62
     0
100
AcDbLine
 10
2202.547653420927
 20
1829.000000000002
 30
0.0
 11
2202.547653420927
 21
2024.000000000002
 31
0.0
  0
LINE
  5
18D9
330
1F
100
AcDbEntity
  8
補助
 62
     0
100
AcDbLine
 10
2019.387286519283
 20
1829.000000000002
 30
0.0
 11
2019.387286519283
 21
2024.000000000002
 31
0.0
  0
TEXT
  5
18DA
330
1F
100
AcDbEntity
  8
補助
 62
     0
100
AcDbText
 10
2050.295698850121
 20
1976.328571428573
 30
0.0
 40
30.0
  1
部品名
  7
明朝
 72
     4
 11
2116.124270278692
 21
1991.500000000002
 31
0.0
100
AcDbText
  0
TEXT
  5
18DB
330
1F
100
AcDbEntity
  8
補助
 62
     0
100
AcDbText
 10
2627.614285714286
 20
1976.07142857143
 30
0.0
 40
30.0
  1
厚さ
  7
明朝
 72
     4
 11
2671.5
 21
1991.500000000002
 31
0.0
100
AcDbText
  0
LINE
  5
18DC
330
1F
100
AcDbEntity
  8
補助
 62
     0
100
AcDbLine
 10
2559.000000000001
 20
1829.000000000002
 30
0.0
 11
2559.0
 21
2024.000000000002
 31
0.0
  0
TEXT
  5
18DD
330
1F
100
AcDbEntity
  8
補助
 62
     0
100
AcDbText
 10
2338.490869919937
 20
1975.947979478156
 30
0.0
 40
30.0
  1
材質
  7
明朝
 72
     4
 11
2382.376584205651
 21
1991.119408049584
 31
0.0
100
AcDbText
  0
TEXT
  5
18DE
330
1F
100
AcDbEntity
  8
実形
 62
     0
100
AcDbText
 10
2048.227810657788
 20
1910.557142857144
 30
0.0
 40
30.0
  1
ボウル
  7
明朝
 72
     4
 11
2114.056382086359
 21
1926.500000000001
 31
0.0
100
AcDbText
  0
TEXT
  5
18DF
330
1F
100
AcDbEntity
  8
実形
 62
     0
100
AcDbText
 10
2594.700000000001
 20
1911.842857142858
 30
0.0
 40
30.0
  1
0.7ｍｍ
  7
明朝
 72
     4
 11
2671.500000000001
 21
1926.500000000001
 31
0.0
100
AcDbText
  0
TEXT
  5
18E0
330
1F
100
AcDbEntity
  8
実形
 62
     0
100
AcDbText
 10
2261.900666790539
 20
1910.728571428572
 30
0.0
 40
30.0
  1
SUS304（BA)
  7
明朝
 72
     4
 11
2382.586381076253
 21
1926.500000000001
 31
0.0
100
AcDbText
  0
TEXT
  5
18E1
330
1F
100
AcDbEntity
  8
実形
 62
     0
100
AcDbText
 10
2070.170667800645
 20
1846.242857142858
 30
0.0
 40
30.0
  1
天板
  7
明朝
 72
     4
 11
2114.056382086359
 21
1861.500000000001
 31
0.0
100
AcDbText
  0
TEXT
  5
18E2
330
1F
100
AcDbEntity
  8
実形
 62
     0
100
AcDbText
 10
2594.700000000001
 20
1846.842857142858
 30
0.0
 40
30.0
  1
0.8ｍｍ
  7
明朝
 72
     4
 11
2671.500000000001
 21
1861.500000000001
 31
0.0
100
AcDbText
  0
TEXT
  5
18E3
330
1F
100
AcDbEntity
  8
実形
 62
     0
100
AcDbText
 10
2218.959726250723
 20
1848.357142857144
 30
0.0
 40
25.0
  1
SUS304（市松ｴﾝﾎﾞｽ）
  7
明朝
 72
     4
 11
2392.674011965008
 21
1861.500000000001
 31
0.0
100
AcDbText
  0
VIEWPORT
  5
2E
102
{ACAD_XDICTIONARY
360
191D
102
}
330
1B
100
AcDbEntity
 67
     1
  8
0
100
AcDbViewport
 10
144.7270812988281
 20
101.2295806407928
 30
0.0
 40
411.6736216682419
 41
222.1517806396485
 68
     1
 69
     1
 12
144.7270812988281
 22
101.2295806407928
 13
0.0
 23
0.0
 14
10.0
 24
10.0
 15
10.0
 25
10.0
 16
0.0
 26
0.0
 36
1.0
 17
0.0
 27
0.0
 37
0.0
 42
50.0
 43
0.0
 44
0.0
 45
222.1517806396485
 50
0.0
 51
0.0
 72
   100
 90
    32800
  1

281
     0
 71
     1
 74
     0
110
0.0
120
0.0
130
0.0
111
1.0
121
0.0
131
0.0
112
0.0
122
1.0
132
0.0
 79
     0
146
0.0
  0
VIEWPORT
  5
30
102
{ACAD_XDICTIONARY
360
191F
102
}
330
1B
100
AcDbEntity
 67
     1
  8
0
100
AcDbViewport
 10
139.2237563133239
 20
101.2295821905136
 30
0.0
 40
222.7580101013184
 41
161.9673315048218
 68
     2
 69
     2
 12
210.0
 22
148.5
 13
0.0
 23
0.0
 14
10.0
 24
10.0
 15
10.0
 25
10.0
 16
0.0
 26
0.0
 36
1.0
 17
0.0
 27
0.0
 37
0.0
 42
50.0
 43
0.0
 44
0.0
 45
309.0686705647124
 50
0.0
 51
0.0
 72
   100
 90
    32864
  1

281
     0
 71
     1
 74
     0
110
0.0
120
0.0
130
0.0
111
1.0
121
0.0
131
0.0
112
0.0
122
1.0
132
0.0
 79
     0
146
0.0
  0
ENDSEC
  0
SECTION
  2
OBJECTS
  0
DICTIONARY
  5
C
330
0
100
AcDbDictionary
281
     1
  3
ACAD_COLOR
350
185F
  3
ACAD_GROUP
350
D
  3
ACAD_LAYOUT
350
1A
  3
ACAD_MATERIAL
350
185E
  3
ACAD_MLINESTYLE
350
17
  3
ACAD_PLOTSETTINGS
350
19
  3
ACAD_PLOTSTYLENAME
350
E
  3
ACAD_TABLESTYLE
350
1860
  3
AcadDim
350
5B1
  3
ACDBHEADERROUNDTRIPXREC
350
1916
  3
AcDbVariableDictionary
350
96D
  0
DICTIONARY
  5
18B7
330
2
100
AcDbDictionary
280
     1
281
     1
  3
ACAD_LAYERFILTERS
360
18B9
  3
ACAD_LAYERSTATES
360
18BE
  3
ACLYDICTIONARY
360
18B8
  0
DICTIONARY
  5
18BB
330
1F
100
AcDbDictionary
280
     1
281
     1
  3
ACAD_SORTENTS
360
18BC
  0
DICTIONARY
  5
191D
330
2E
100
AcDbDictionary
280
     1
281
     1
  3
ACAD_XREC_ROUNDTRIP
360
191E
  0
DICTIONARY
  5
191F
330
30
100
AcDbDictionary
280
     1
281
     1
  3
ACAD_XREC_ROUNDTRIP
360
1920
  0
DICTIONARY
  5
185F
102
{ACAD_REACTORS
330
C
102
}
330
C
100
AcDbDictionary
281
     1
  0
DICTIONARY
  5
D
102
{ACAD_REACTORS
330
C
102
}
330
C
100
AcDbDictionary
281
     1
  0
DICTIONARY
  5
1A
102
{ACAD_REACTORS
330
C
102
}
330
C
100
AcDbDictionary
281
     1
  3
Model
350
22
  3
ﾚｲｱｳﾄ1
350
1E
  3
ﾚｲｱｳﾄ2
350
26
  0
DICTIONARY
  5
185E
102
{ACAD_REACTORS
330
C
102
}
330
C
100
AcDbDictionary
281
     1
  0
DICTIONARY
  5
17
102
{ACAD_REACTORS
330
C
102
}
330
C
100
AcDbDictionary
281
     1
  3
Standard
350
18
  0
DICTIONARY
  5
19
102
{ACAD_REACTORS
330
C
102
}
330
C
100
AcDbDictionary
281
     1
  0
ACDBDICTIONARYWDFLT
  5
E
102
{ACAD_REACTORS
330
C
102
}
330
C
100
AcDbDictionary
281
     1
  3
Normal
350
F
100
AcDbDictionaryWithDefault
340
F
  0
DICTIONARY
  5
1860
102
{ACAD_REACTORS
330
C
102
}
330
C
100
AcDbDictionary
281
     1
  3
Standard
350
1861
  0
XRECORD
  5
5B1
102
{ACAD_REACTORS
330
C
102
}
330
C
100
AcDbXrecord
280
     1
 90
   990106
  3

 60
     0
 61
     0
 62
     1
 63
     3
 64
     0
 65
     0
 66
     0
 67
     3
 68
     1
 69
     0
 70
     0
 71
     0
 72
     0
 40
5.637859010809637
170
     0
340
0
  0
DICTIONARY
  5
1916
102
{ACAD_REACTORS
330
C
102
}
330
C
100
AcDbDictionary
281
     1
  0
DICTIONARY
  5
96D
102
{ACAD_REACTORS
330
C
102
}
330
C
100
AcDbDictionary
281
     1
  3
CTABLESTYLE
350
1867
  3
DIMASSOC
350
1913
  3
PROJECTNAME
350
1914
  3
SORTENTS
350
96E
  0
DICTIONARY
  5
18B9
102
{ACAD_REACTORS
330
18B7
102
}
330
18B7
100
AcDbDictionary
281
     1
  0
DICTIONARY
  5
18BE
102
{ACAD_REACTORS
330
18B7
102
}
330
18B7
100
AcDbDictionary
281
     1
  0
DICTIONARY
  5
18B8
102
{ACAD_REACTORS
330
18B7
102
}
330
18B7
100
AcDbDictionary
281
     1
1001
ACAD
1000
<All
  0
SORTENTSTABLE
  5
18BC
102
{ACAD_REACTORS
330
18BB
102
}
330
18BB
100
AcDbSortentsTable
330
1F
331
5FB
  5
5FC
331
C42
  5
C43
331
DF1
  5
DF2
331
55C
  5
56A
331
603
  5
A29
331
56C
  5
5A9
331
1496
  5
1497
331
145F
  5
1460
331
149E
  5
149F
331
18DA
  5
18DB
331
146F
  5
1470
331
14AE
  5
14AF
331
18E2
  5
18E3
331
A9
  5
AA
331
298
  5
2A6
331
D5A
  5
D5B
331
495
  5
496
331
2F7
  5
304
331
49D
  5
49E
331
4A5
  5
4A7
331
D72
  5
D73
331
1477
  5
1478
331
147F
  5
1480
331
14BE
  5
14BF
331
1487
  5
1488
331
148F
  5
1490
331
DC2
  5
DEA
331
5F4
  5
5F5
331
C3B
  5
C3C
331
C43
  5
C44
331
DEA
  5
DEC
331
5FC
  5
5FD
331
DF2
  5
DFA
331
1458
  5
1459
331
9C
  5
9C
331
1460
  5
1461
331
1497
  5
1498
331
149F
  5
14A0
331
14A7
  5
14AA
331
18DB
  5
18DC
331
14AF
  5
14B0
331
18E3
  5
18E4
331
AA
  5
AB
331
407
  5
40D
331
D5B
  5
D5C
331
496
  5
49A
331
49E
  5
4A3
331
A2C
  5
A2D
331
D73
  5
D74
331
1470
  5
1472
331
DFA
  5
F95
331
1478
  5
1479
331
14B7
  5
14B8
331
14BF
  5
14C0
331
1480
  5
1481
331
1488
  5
1489
331
5F5
  5
5F6
331
C3C
  5
C3D
331
4AE
  5
532
331
5FD
  5
5FE
331
C44
  5
C48
331
1490
  5
1491
331
1459
  5
145A
331
1461
  5
1462
331
A5
  5
A5
331
1498
  5
1499
331
1469
  5
146A
331
14A0
  5
14A1
331
18DC
  5
18DD
331
AB
  5
AD
331
48F
  5
492
331
D5C
  5
D5D
331
D6C
  5
D6E
331
D74
  5
DC1
331
4A7
  5
4A9
331
A2D
  5
C3A
331
14B0
  5
14B1
331
14B8
  5
14B9
331
1479
  5
147A
331
1481
  5
1482
331
14C0
  5
14C1
331
1489
  5
148A
331
14C8
  5
14C9
331
1714
  5
18BA
331
C3D
  5
C42
331
5F6
  5
5F7
331
DEC
  5
DED
331
5FE
  5
5FF
331
28B
  5
298
331
D55
  5
D56
331
145A
  5
145B
331
1491
  5
1492
331
1462
  5
1463
331
1499
  5
149A
331
146A
  5
146B
331
14A1
  5
14A2
331
18D5
  5
18D5
331
18DD
  5
18DE
331
D5D
  5
D5E
331
2B3
  5
2DC
331
1472
  5
1475
331
14B1
  5
14B2
331
147A
  5
147B
331
14B9
  5
14BA
331
14C1
  5
14C2
331
1482
  5
1483
331
14C9
  5
14CB
331
148A
  5
148B
331
5F7
  5
5F8
331
DED
  5
DEE
331
5FF
  5
600
331
D56
  5
D59
331
1492
  5
1493
331
145B
  5
145C
331
1463
  5
1466
331
149A
  5
149B
331
18D6
  5
18D6
331
146B
  5
146C
331
14A2
  5
14A3
331
18DE
  5
18DF
331
14AA
  5
14AB
331
AD
  5
270
331
D5E
  5
D67
331
5D0
  5
5D2
331
5D8
  5
5F4
331
D6E
  5
D6F
331
14B2
  5
14B3
331
147B
  5
147C
331
14BA
  5
14BC
331
1483
  5
1484
331
14C2
  5
14C3
331
148B
  5
148C
331
F95
  5
F96
331
4A9
  5
4AA
331
2DC
  5
2F7
331
5F8
  5
5F9
331
DEE
  5
DEF
331
600
  5
601
331
FA5
  5
FA6
331
145C
  5
145D
331
A0
  5
A0
331
1493
  5
1494
331
149B
  5
149C
331
146C
  5
146D
331
14A3
  5
14A5
331
18D7
  5
18D7
331
14AB
  5
14AC
331
18DF
  5
18E0
331
5A9
  5
5D0
331
492
  5
493
331
49A
  5
49B
331
D67
  5
D6C
331
D6F
  5
D70
331
304
  5
31C
331
14B3
  5
14B4
331
147C
  5
147D
331
14C3
  5
14C4
331
1484
  5
1485
331
148C
  5
148D
331
14CB
  5
14CC
331
4AA
  5
4AB
331
5F9
  5
5FA
331
31C
  5
407
331
532
  5
55C
331
DEF
  5
DF0
331
601
  5
602
331
27E
  5
28B
331
C48
  5
D50
331
D50
  5
D55
331
56A
  5
56C
331
1494
  5
1495
331
FA6
  5
1456
331
145D
  5
145E
331
149C
  5
149D
331
18D8
  5
18D9
331
146D
  5
146E
331
18E0
  5
18E1
331
14AC
  5
14AD
331
493
  5
495
331
5D2
  5
5D8
331
2A6
  5
2B3
331
49B
  5
49D
331
D70
  5
D71
331
A29
  5
A2C
331
4A3
  5
4A4
331
14B4
  5
14B7
331
1475
  5
1476
331
147D
  5
147F
331
14BC
  5
14BD
331
1485
  5
1486
331
14C4
  5
14C5
331
1456
  5
1457
331
148D
  5
148E
331
14CC
  5
14CD
331
4AB
  5
4AC
331
464
  5
48F
331
5FA
  5
5FB
331
602
  5
603
331
DF0
  5
DF1
331
145E
  5
145F
331
1495
  5
1496
331
149D
  5
149E
331
1466
  5
1469
331
146E
  5
146F
331
14A5
  5
14A7
331
18D9
  5
18DA
331
14AD
  5
14AE
331
18E1
  5
18E2
331
A8
  5
A9
331
D59
  5
D5A
331
40D
  5
42D
331
42D
  5
464
331
4A4
  5
4A5
331
D71
  5
D72
331
1476
  5
1477
331
14BD
  5
14BE
331
14C5
  5
14C8
331
1486
  5
1487
331
148E
  5
148F
331
14CD
  5
1714
331
1457
  5
1458
331
18BA
  5
A8
331
C3A
  5
C3B
331
270
  5
27E
331
4AC
  5
4AE
331
DC1
  5
DC2
  0
XRECORD
  5
191E
102
{ACAD_REACTORS
330
191D
102
}
330
191D
100
AcDbXrecord
280
     1
102
SHADEPLOT
 70
     0
  0
XRECORD
  5
1920
102
{ACAD_REACTORS
330
191F
102
}
330
191F
100
AcDbXrecord
280
     1
102
SHADEPLOT
 70
     0
  0
LAYOUT
  5
22
102
{ACAD_XDICTIONARY
360
1919
102
}
102
{ACAD_REACTORS
330
1A
102
}
330
1A
100
AcDbPlotSettings
  1

  2
EPSON PM-800C
  4
A4
  6

 40
3.757083177566528
 41
14.7637300491333
 42
3.757080078125
 43
3.757080078125
 44
209.9733276367187
 45
296.9683227539062
 46
0.0
 47
0.0
 48
0.0
 49
0.0
140
0.0
141
0.0
142
1.0
143
10.0
 70
 11952
 72
     1
 73
     1
 74
     2
  7

 75
    20
147
0.1
148
0.0
149
0.0
100
AcDbLayout
  1
Model
 70
     1
 71
     0
 10
0.0
 20
0.0
 11
12.0
 21
9.0
 12
0.0
 22
0.0
 32
0.0
 14
0.0
 24
0.0
 34
0.0
 15
0.0
 25
0.0
 35
0.0
146
0.0
 13
0.0
 23
0.0
 33
0.0
 16
1.0
 26
0.0
 36
0.0
 17
0.0
 27
1.0
 37
0.0
 76
     0
330
1F
  0
LAYOUT
  5
1E
102
{ACAD_XDICTIONARY
360
1917
102
}
102
{ACAD_REACTORS
330
1A
102
}
330
1A
100
AcDbPlotSettings
  1

  2
EPSON PM-800C
  4
A4
  6

 40
3.757083177566528
 41
14.7637300491333
 42
3.757080078125
 43
3.757080078125
 44
209.9733276367187
 45
296.9683227539062
 46
0.0
 47
0.0
 48
0.0
 49
0.0
140
0.0
141
0.0
142
1.0
143
1.0
 70
   688
 72
     1
 73
     1
 74
     5
  7

 75
    16
147
1.0
148
0.0
149
0.0
100
AcDbLayout
  1
ﾚｲｱｳﾄ1
 70
     1
 71
     1
 10
-3.757080078125
 20
-3.757083177566528
 11
293.2112426757813
 21
206.2162444591522
 12
0.0
 22
0.0
 32
0.0
 14
27.8447512626648
 24
20.24591643810271
 34
0.0
 15
250.6027613639831
 25
182.2132479429245
 35
0.0
146
0.0
 13
0.0
 23
0.0
 33
0.0
 16
1.0
 26
0.0
 36
0.0
 17
0.0
 27
1.0
 37
0.0
 76
     0
330
1B
331
2E
  0
LAYOUT
  5
26
102
{ACAD_XDICTIONARY
360
191B
102
}
102
{ACAD_REACTORS
330
1A
102
}
330
1A
100
AcDbPlotSettings
  1

  2
EPSON PM-800C
  4

  6

 40
0.0
 41
0.0
 42
0.0
 43
0.0
 44
0.0
 45
0.0
 46
0.0
 47
0.0
 48
0.0
 49
0.0
140
0.0
141
0.0
142
1.0
143
1.0
 70
   688
 72
     0
 73
     0
 74
     5
  7

 75
    16
147
1.0
148
0.0
149
0.0
100
AcDbLayout
  1
ﾚｲｱｳﾄ2
 70
     1
 71
     2
 10
0.0
 20
0.0
 11
12.0
 21
9.0
 12
0.0
 22
0.0
 32
0.0
 14
0.0
 24
0.0
 34
0.0
 15
0.0
 25
0.0
 35
0.0
146
0.0
 13
0.0
 23
0.0
 33
0.0
 16
1.0
 26
0.0
 36
0.0
 17
0.0
 27
1.0
 37
0.0
 76
     0
330
23
  0
MLINESTYLE
  5
18
102
{ACAD_REACTORS
330
17
102
}
330
17
100
AcDbMlineStyle
  2
STANDARD
 70
     0
  3

 62
   256
 51
90.0
 52
90.0
 71
     2
 49
0.5
 62
   256
  6
BYLAYER
 49
-0.5
 62
   256
  6
BYLAYER
  0
ACDBPLACEHOLDER
  5
F
102
{ACAD_REACTORS
330
E
102
}
330
E
  0
TABLESTYLE
  5
1861
102
{ACAD_REACTORS
330
1860
102
}
330
1860
100
AcDbTableStyle
  3
Standard
 70
     0
 71
     0
 40
1.5
 41
1.5
280
     0
281
     0
  7
Standard
140
4.5
170
     2
 62
     0
 63
     7
283
     0
274
    -2
284
     1
 64
     0
275
    -2
285
     1
 65
     0
276
    -2
286
     1
 66
     0
277
    -2
287
     1
 67
     0
278
    -2
288
     1
 68
     0
279
    -2
289
     1
 69
     0
  7
Standard
140
6.0
170
     5
 62
     0
 63
     7
283
     0
274
    -2
284
     1
 64
     0
275
    -2
285
     1
 65
     0
276
    -2
286
     1
 66
     0
277
    -2
287
     1
 67
     0
278
    -2
288
     1
 68
     0
279
    -2
289
     1
 69
     0
  7
Standard
140
4.5
170
     5
 62
     0
 63
     7
283
     0
274
    -2
284
     1
 64
     0
275
    -2
285
     1
 65
     0
276
    -2
286
     1
 66
     0
277
    -2
287
     1
 67
     0
278
    -2
288
     1
 68
     0
279
    -2
289
     1
 69
     0
  0
DICTIONARYVAR
  5
1867
102
{ACAD_REACTORS
330
96D
102
}
330
96D
100
DictionaryVariables
280
     0
  1
STANDARD
  0
DICTIONARYVAR
  5
1913
102
{ACAD_REACTORS
330
96D
102
}
330
96D
100
DictionaryVariables
280
     0
  1
1
  0
DICTIONARYVAR
  5
1914
102
{ACAD_REACTORS
330
96D
102
}
330
96D
100
DictionaryVariables
280
     0
  1

  0
DICTIONARYVAR
  5
96E
102
{ACAD_REACTORS
330
96D
102
}
330
96D
100
DictionaryVariables
280
     0
  1
96
  0
DICTIONARY
  5
1919
330
22
100
AcDbDictionary
280
     1
281
     1
  3
ACAD_XREC_ROUNDTRIP
360
191A
  0
DICTIONARY
  5
1917
330
1E
100
AcDbDictionary
280
     1
281
     1
  3
ACAD_XREC_ROUNDTRIP
360
1918
  0
DICTIONARY
  5
191B
330
26
100
AcDbDictionary
280
     1
281
     1
  3
ACAD_XREC_ROUNDTRIP
360
191C
  0
XRECORD
  5
191A
102
{ACAD_REACTORS
330
1919
102
}
330
1919
100
AcDbXrecord
280
     1
102
SHADEPLOT
 70
     0
102
SHADEPLOTRESLEVEL
 70
     2
102
SHADEPLOTCUSTOMDPI
 70
   300
  0
XRECORD
  5
1918
102
{ACAD_REACTORS
330
1917
102
}
330
1917
100
AcDbXrecord
280
     1
102
SHADEPLOT
 70
     0
102
SHADEPLOTRESLEVEL
 70
     2
102
SHADEPLOTCUSTOMDPI
 70
   300
  0
XRECORD
  5
191C
102
{ACAD_REACTORS
330
191B
102
}
330
191B
100
AcDbXrecord
280
     1
102
SHADEPLOT
 70
     0
102
SHADEPLOTRESLEVEL
 70
     2
102
SHADEPLOTCUSTOMDPI
 70
   300
  0
ENDSEC
  0
EOF
