  0
SECTION
  2
HEADER
  9
$ACADVER
  1
AC1015
  9
$ACADMAINTVER
 70
    20
  9
$DWGCODEPAGE
  3
ANSI_932
  9
$INSBASE
 10
0.0
 20
0.0
 30
0.0
  9
$EXTMIN
 10
109.0
 20
4.0
 30
0.0
  9
$EXTMAX
 10
2784.000000000001
 20
2024.000000000002
 30
0.0
  9
$LIMMIN
 10
0.0
 20
0.0
  9
$LIMMAX
 10
29700.0
 20
21000.0
  9
$ORTHOMODE
 70
     0
  9
$REGENMODE
 70
     1
  9
$FILLMODE
 70
     1
  9
$QTEXTMODE
 70
     0
  9
$MIRRTEXT
 70
     1
  9
$LTSCALE
 40
4.0
  9
$ATTMODE
 70
     1
  9
$TEXTSIZE
 40
35.0
  9
$TRACEWID
 40
1.0
  9
$TEXTSTYLE
  7
Standard
  9
$CLAYER
  8
実形
  9
$CELTYPE
  6
ByLayer
  9
$CECOLOR
 62
   256
  9
$CELTSCALE
 40
1.0
  9
$DISPSILH
 70
     0
  9
$DIMSCALE
 40
1.0
  9
$DIMASZ
 40
30.0
  9
$DIMEXO
 40
65.0
  9
$DIMDLI
 40
3.75
  9
$DIMRND
 40
0.0
  9
$DIMDLE
 40
0.0
  9
$DIMEXE
 40
0.0
  9
$DIMTP
 40
0.0
  9
$DIMTM
 40
0.0
  9
$DIMTXT
 40
25.0
  9
$DIMCEN
 40
2.5
  9
$DIMTSZ
 40
0.0
  9
$DIMTOL
 70
     0
  9
$DIMLIM
 70
     0
  9
$DIMTIH
 70
     0
  9
$DIMTOH
 70
     0
  9
$DIMSE1
 70
     0
  9
$DIMSE2
 70
     0
  9
$DIMTAD
 70
     1
  9
$DIMZIN
 70
     8
  9
$DIMBLK
  1
DotSmall
  9
$DIMASO
 70
     1
  9
$DIMSHO
 70
     1
  9
$DIMPOST
  1

  9
$DIMAPOST
  1

  9
$DIMALT
 70
     0
  9
$DIMALTD
 70
     3
  9
$DIMALTF
 40
0.03937007874016
  9
$DIMLFAC
 40
1.0
  9
$DIMTOFL
 70
     1
  9
$DIMTVP
 40
0.0
  9
$DIMTIX
 70
     0
  9
$DIMSOXD
 70
     0
  9
$DIMSAH
 70
     0
  9
$DIMBLK1
  1

  9
$DIMBLK2
  1

  9
$DIMSTYLE
  2
ISO-25
  9
$DIMCLRD
 70
     0
  9
$DIMCLRE
 70
     0
  9
$DIMCLRT
 70
     0
  9
$DIMTFAC
 40
1.0
  9
$DIMGAP
 40
6.25
  9
$DIMJUST
 70
     0
  9
$DIMSD1
 70
     0
  9
$DIMSD2
 70
     0
  9
$DIMTOLJ
 70
     0
  9
$DIMTZIN
 70
     8
  9
$DIMALTZ
 70
     0
  9
$DIMALTTZ
 70
     0
  9
$DIMUPT
 70
     0
  9
$DIMDEC
 70
     2
  9
$DIMTDEC
 70
     2
  9
$DIMALTU
 70
     2
  9
$DIMALTTD
 70
     3
  9
$DIMTXSTY
  7
Standard
  9
$DIMAUNIT
 70
     0
  9
$DIMADEC
 70
     0
  9
$DIMALTRND
 40
0.0
  9
$DIMAZIN
 70
     0
  9
$DIMDSEP
 70
    46
  9
$DIMATFIT
 70
     3
  9
$DIMFRAC
 70
     0
  9
$DIMLDRBLK
  1
Open30
  9
$DIMLUNIT
 70
     2
  9
$DIMLWD
 70
    15
  9
$DIMLWE
 70
    15
  9
$DIMTMOVE
 70
     1
  9
$LUNITS
 70
     2
  9
$LUPREC
 70
     2
  9
$SKETCHINC
 40
1.0
  9
$FILLETRAD
 40
7.0
  9
$AUNITS
 70
     0
  9
$AUPREC
 70
     0
  9
$MENU
  1
.
  9
$ELEVATION
 40
0.0
  9
$PELEVATION
 40
0.0
  9
$THICKNESS
 40
0.0
  9
$LIMCHECK
 70
     1
  9
$CHAMFERA
 40
10.0
  9
$CHAMFERB
 40
10.0
  9
$CHAMFERC
 40
20.0
  9
$CHAMFERD
 40
0.0
  9
$SKPOLY
 70
     0
  9
$TDCREATE
 40
2451673.575802199
  9
$TDUCREATE
 40
2451673.200802199
  9
$TDUPDATE
 40
2458809.790851887
  9
$TDUUPDATE
 40
2458809.415851887
  9
$TDINDWG
 40
1.1744420370
  9
$TDUSRTIMER
 40
1.1744413426
  9
$USRTIMER
 70
     1
  9
$ANGBASE
 50
0.0
  9
$ANGDIR
 70
     0
  9
$PDMODE
 70
     0
  9
$PDSIZE
 40
0.0
  9
$PLINEWID
 40
0.0
  9
$SPLFRAME
 70
     0
  9
$SPLINETYPE
 70
     6
  9
$SPLINESEGS
 70
     8
  9
$HANDSEED
  5
1F9F
  9
$SURFTAB1
 70
     6
  9
$SURFTAB2
 70
     6
  9
$SURFTYPE
 70
     6
  9
$SURFU
 70
     6
  9
$SURFV
 70
     6
  9
$UCSBASE
  2

  9
$UCSNAME
  2

  9
$UCSORG
 10
0.0
 20
0.0
 30
0.0
  9
$UCSXDIR
 10
1.0
 20
0.0
 30
0.0
  9
$UCSYDIR
 10
0.0
 20
1.0
 30
0.0
  9
$UCSORTHOREF
  2

  9
$UCSORTHOVIEW
 70
     0
  9
$UCSORGTOP
 10
0.0
 20
0.0
 30
0.0
  9
$UCSORGBOTTOM
 10
0.0
 20
0.0
 30
0.0
  9
$UCSORGLEFT
 10
0.0
 20
0.0
 30
0.0
  9
$UCSORGRIGHT
 10
0.0
 20
0.0
 30
0.0
  9
$UCSORGFRONT
 10
0.0
 20
0.0
 30
0.0
  9
$UCSORGBACK
 10
0.0
 20
0.0
 30
0.0
  9
$PUCSBASE
  2

  9
$PUCSNAME
  2

  9
$PUCSORG
 10
0.0
 20
0.0
 30
0.0
  9
$PUCSXDIR
 10
1.0
 20
0.0
 30
0.0
  9
$PUCSYDIR
 10
0.0
 20
1.0
 30
0.0
  9
$PUCSORTHOREF
  2

  9
$PUCSORTHOVIEW
 70
     0
  9
$PUCSORGTOP
 10
0.0
 20
0.0
 30
0.0
  9
$PUCSORGBOTTOM
 10
0.0
 20
0.0
 30
0.0
  9
$PUCSORGLEFT
 10
0.0
 20
0.0
 30
0.0
  9
$PUCSORGRIGHT
 10
0.0
 20
0.0
 30
0.0
  9
$PUCSORGFRONT
 10
0.0
 20
0.0
 30
0.0
  9
$PUCSORGBACK
 10
0.0
 20
0.0
 30
0.0
  9
$USERI1
 70
     0
  9
$USERI2
 70
     0
  9
$USERI3
 70
     0
  9
$USERI4
 70
     0
  9
$USERI5
 70
     0
  9
$USERR1
 40
0.0
  9
$USERR2
 40
0.0
  9
$USERR3
 40
0.0
  9
$USERR4
 40
0.0
  9
$USERR5
 40
0.0
  9
$WORLDVIEW
 70
     1
  9
$SHADEDGE
 70
     3
  9
$SHADEDIF
 70
    70
  9
$TILEMODE
 70
     1
  9
$MAXACTVP
 70
    64
  9
$PINSBASE
 10
0.0
 20
0.0
 30
0.0
  9
$PLIMCHECK
 70
     0
  9
$PEXTMIN
 10
27.8447512626648
 20
20.24591643810271
 30
0.0
  9
$PEXTMAX
 10
250.6027613639831
 20
182.2132479429245
 30
0.0
  9
$PLIMMIN
 10
-3.757080078125
 20
-3.757083177566528
  9
$PLIMMAX
 10
293.2112426757813
 20
206.2162444591522
  9
$UNITMODE
 70
     0
  9
$VISRETAIN
 70
     1
  9
$PLINEGEN
 70
     0
  9
$PSLTSCALE
 70
     1
  9
$TREEDEPTH
 70
  3020
  9
$CMLSTYLE
  2
Standard
  9
$CMLJUST
 70
     0
  9
$CMLSCALE
 40
20.0
  9
$PROXYGRAPHICS
 70
     1
  9
$MEASUREMENT
 70
     1
  9
$CELWEIGHT
370
    -1
  9
$ENDCAPS
280
     0
  9
$JOINSTYLE
280
     0
  9
$LWDISPLAY
290
     0
  9
$INSUNITS
 70
     4
  9
$HYPERLINKBASE
  1

  9
$STYLESHEET
  1

  9
$XEDIT
290
     1
  9
$CEPSNTYPE
380
     0
  9
$PSTYLEMODE
290
     1
  9
$FINGERPRINTGUID
  2
{C8EA1F16-24C9-11D4-9416-CE0A3B32152F}
  9
$VERSIONGUID
  2
{864E5DB2-7EC3-4609-9C3F-041446BE3FBC}
  9
$EXTNAMES
290
     1
  9
$PSVPSCALE
 40
0.0
  9
$OLESTARTUP
290
     0
  0
ENDSEC
  0
SECTION
  2
CLASSES
  0
CLASS
  1
ACDBDICTIONARYWDFLT
  2
AcDbDictionaryWithDefault
  3
ObjectDBX Classes
 90
        0
280
     0
281
     0
  0
CLASS
  1
ACDBPLACEHOLDER
  2
AcDbPlaceHolder
  3
ObjectDBX Classes
 90
        0
280
     0
281
     0
  0
CLASS
  1
LAYOUT
  2
AcDbLayout
  3
ObjectDBX Classes
 90
        0
280
     0
281
     0
  0
CLASS
  1
DICTIONARYVAR
  2
AcDbDictionaryVar
  3
ObjectDBX Classes
 90
        0
280
     0
281
     0
  0
CLASS
  1
TABLESTYLE
  2
AcDbTableStyle
  3
ObjectDBX Classes
 90
     2047
280
     0
281
     0
  0
CLASS
  1
SORTENTSTABLE
  2
AcDbSortentsTable
  3
ObjectDBX Classes
 90
        0
280
     0
281
     0
  0
ENDSEC
  0
SECTION
  2
TABLES
  0
TABLE
  2
VPORT
  5
8
330
0
100
AcDbSymbolTable
 70
     2
  0
VPORT
  5
1F93
330
8
100
AcDbSymbolTableRecord
100
AcDbViewportTableRecord
  2
*Active
 70
     0
 10
0.0
 20
0.0
 11
1.0
 21
1.0
 12
1408.91087729673
 22
1112.389250002003
 13
0.0
 23
0.0
 14
10.0
 24
10.0
 15
10.0
 25
10.0
 16
0.0
 26
0.0
 36
1.0
 17
0.0
 27
0.0
 37
0.0
 40
2801.540126405585
 41
1.29038112522686
 42
50.0
 43
0.0
 44
0.0
 50
0.0
 51
0.0
 71
     0
 72
   100
 73
     1
 74
     3
 75
     0
 76
     0
 77
     0
 78
     0
281
     0
 65
     1
110
0.0
120
0.0
130
0.0
111
1.0
121
0.0
131
0.0
112
0.0
122
1.0
132
0.0
 79
     0
146
0.0
  0
ENDTAB
  0
TABLE
  2
LTYPE
  5
5
330
0
100
AcDbSymbolTable
 70
    46
  0
LTYPE
  5
14
330
5
100
AcDbSymbolTableRecord
100
AcDbLinetypeTableRecord
  2
ByBlock
 70
     0
  3

 72
    65
 73
     0
 40
0.0
  0
LTYPE
  5
15
330
5
100
AcDbSymbolTableRecord
100
AcDbLinetypeTableRecord
  2
ByLayer
 70
     0
  3

 72
    65
 73
     0
 40
0.0
  0
LTYPE
  5
16
330
5
100
AcDbSymbolTableRecord
100
AcDbLinetypeTableRecord
  2
Continuous
 70
     0
  3
Solid line
 72
    65
 73
     0
 40
0.0
  0
LTYPE
  5
34
330
5
100
AcDbSymbolTableRecord
100
AcDbLinetypeTableRecord
  2
ACAD_ISO02W100
 70
     0
  3
ISO dash __ __ __ __ __ __ __ __ __ __ __ __ __
 72
    65
 73
     2
 40
15.0
 49
12.0
 74
     0
 49
-3.0
 74
     0
  0
LTYPE
  5
35
330
5
100
AcDbSymbolTableRecord
100
AcDbLinetypeTableRecord
  2
ACAD_ISO03W100
 70
     0
  3
ISO dash space __    __    __    __    __    __
 72
    65
 73
     2
 40
30.0
 49
12.0
 74
     0
 49
-18.0
 74
     0
  0
LTYPE
  5
36
330
5
100
AcDbSymbolTableRecord
100
AcDbLinetypeTableRecord
  2
ACAD_ISO04W100
 70
     0
  3
ISO long-dash dot ____ . ____ . ____ . ____ . _
 72
    65
 73
     4
 40
30.0
 49
24.0
 74
     0
 49
-3.0
 74
     0
 49
0.0
 74
     0
 49
-3.0
 74
     0
  0
LTYPE
  5
37
330
5
100
AcDbSymbolTableRecord
100
AcDbLinetypeTableRecord
  2
ACAD_ISO05W100
 70
     0
  3
ISO long-dash double-dot ____ .. ____ .. ____ .
 72
    65
 73
     6
 40
34.0
 49
24.0
 74
     0
 49
-3.0
 74
     0
 49
0.5
 74
     0
 49
-3.0
 74
     0
 49
0.5
 74
     0
 49
-3.0
 74
     0
  0
LTYPE
  5
38
330
5
100
AcDbSymbolTableRecord
100
AcDbLinetypeTableRecord
  2
ACAD_ISO06W100
 70
     0
  3
ISO long-dash triple-dot ____ ... ____ ... ____
 72
    65
 73
     8
 40
37.5
 49
24.0
 74
     0
 49
-3.0
 74
     0
 49
0.5
 74
     0
 49
-3.0
 74
     0
 49
0.5
 74
     0
 49
-3.0
 74
     0
 49
0.5
 74
     0
 49
-3.0
 74
     0
  0
LTYPE
  5
39
330
5
100
AcDbSymbolTableRecord
100
AcDbLinetypeTableRecord
  2
ACAD_ISO07W100
 70
     0
  3
ISO dot . . . . . . . . . . . . . . . . . . . .
 72
    65
 73
     2
 40
3.0
 49
0.0
 74
     0
 49
-3.0
 74
     0
  0
LTYPE
  5
3A
330
5
100
AcDbSymbolTableRecord
100
AcDbLinetypeTableRecord
  2
ACAD_ISO08W100
 70
     0
  3
ISO long-dash short-dash ____ __ ____ __ ____ _
 72
    65
 73
     4
 40
36.0
 49
24.0
 74
     0
 49
-3.0
 74
     0
 49
6.0
 74
     0
 49
-3.0
 74
     0
  0
LTYPE
  5
3B
330
5
100
AcDbSymbolTableRecord
100
AcDbLinetypeTableRecord
  2
ACAD_ISO09W100
 70
     0
  3
ISO long-dash double-short-dash ____ __ __ ____
 72
    65
 73
     6
 40
45.0
 49
24.0
 74
     0
 49
-3.0
 74
     0
 49
6.0
 74
     0
 49
-3.0
 74
     0
 49
6.0
 74
     0
 49
-3.0
 74
     0
  0
LTYPE
  5
3C
330
5
100
AcDbSymbolTableRecord
100
AcDbLinetypeTableRecord
  2
ACAD_ISO10W100
 70
     0
  3
ISO dash dot __ . __ . __ . __ . __ . __ . __ .
 72
    65
 73
     4
 40
18.0
 49
12.0
 74
     0
 49
-3.0
 74
     0
 49
0.0
 74
     0
 49
-3.0
 74
     0
  0
LTYPE
  5
3D
330
5
100
AcDbSymbolTableRecord
100
AcDbLinetypeTableRecord
  2
ACAD_ISO11W100
 70
     0
  3
ISO double-dash dot __ __ . __ __ . __ __ . __ 
 72
    65
 73
     6
 40
33.0
 49
12.0
 74
     0
 49
-3.0
 74
     0
 49
12.0
 74
     0
 49
-3.0
 74
     0
 49
0.0
 74
     0
 49
-3.0
 74
     0
  0
LTYPE
  5
3E
330
5
100
AcDbSymbolTableRecord
100
AcDbLinetypeTableRecord
  2
ACAD_ISO12W100
 70
     0
  3
ISO dash double-dot __ . . __ . . __ . . __ . .
 72
    65
 73
     6
 40
21.0
 49
12.0
 74
     0
 49
-3.0
 74
     0
 49
0.0
 74
     0
 49
-3.0
 74
     0
 49
0.0
 74
     0
 49
-3.0
 74
     0
  0
LTYPE
  5
3F
330
5
100
AcDbSymbolTableRecord
100
AcDbLinetypeTableRecord
  2
ACAD_ISO13W100
 70
     0
  3
ISO double-dash double-dot __ __ . . __ __ . . 
 72
    65
 73
     8
 40
36.0
 49
12.0
 74
     0
 49
-3.0
 74
     0
 49
12.0
 74
     0
 49
-3.0
 74
     0
 49
0.0
 74
     0
 49
-3.0
 74
     0
 49
0.0
 74
     0
 49
-3.0
 74
     0
  0
LTYPE
  5
40
330
5
100
AcDbSymbolTableRecord
100
AcDbLinetypeTableRecord
  2
ACAD_ISO14W100
 70
     0
  3
ISO dash triple-dot __ . . . __ . . . __ . . . 
 72
    65
 73
     8
 40
24.0
 49
12.0
 74
     0
 49
-3.0
 74
     0
 49
0.0
 74
     0
 49
-3.0
 74
     0
 49
0.0
 74
     0
 49
-3.0
 74
     0
 49
0.0
 74
     0
 49
-3.0
 74
     0
  0
LTYPE
  5
41
330
5
100
AcDbSymbolTableRecord
100
AcDbLinetypeTableRecord
  2
ACAD_ISO15W100
 70
     0
  3
ISO double-dash triple-dot __ __ . . . __ __ . 
 72
    65
 73
    10
 40
39.0
 49
12.0
 74
     0
 49
-3.0
 74
     0
 49
12.0
 74
     0
 49
-3.0
 74
     0
 49
0.0
 74
     0
 49
-3.0
 74
     0
 49
0.0
 74
     0
 49
-3.0
 74
     0
 49
0.0
 74
     0
 49
-3.0
 74
     0
  0
LTYPE
  5
42
330
5
100
AcDbSymbolTableRecord
100
AcDbLinetypeTableRecord
  2
BATTING
 70
     0
  3
Batting SSSSSSSSSSSSSSSSSSSSSSSSSSSSSSSSSSSSSSS
 72
    65
 73
     4
 40
10.16254
 49
0.00254
 74
     0
 49
-2.54
 74
     4
 75
   134
340
33
 46
2.54
 50
0.0
 44
-2.54
 45
0.0
 49
-5.08
 74
     4
 75
   134
340
33
 46
2.54
 50
180.0
 44
2.54
 45
0.0
 49
-2.54
 74
     0
  0
LTYPE
  5
43
330
5
100
AcDbSymbolTableRecord
100
AcDbLinetypeTableRecord
  2
BORDER
 70
     0
  3
Border __ __ . __ __ . __ __ . __ __ . __ __ .
 72
    65
 73
     6
 40
44.45
 49
12.7
 74
     0
 49
-6.349999999999999
 74
     0
 49
12.7
 74
     0
 49
-6.349999999999999
 74
     0
 49
0.0
 74
     0
 49
-6.349999999999999
 74
     0
  0
LTYPE
  5
44
330
5
100
AcDbSymbolTableRecord
100
AcDbLinetypeTableRecord
  2
BORDER2
 70
     0
  3
Border (.5x) __.__.__.__.__.__.__.__.__.__.__.
 72
    65
 73
     6
 40
22.225
 49
6.349999999999999
 74
     0
 49
-3.174999999999999
 74
     0
 49
6.349999999999999
 74
     0
 49
-3.174999999999999
 74
     0
 49
0.0
 74
     0
 49
-3.174999999999999
 74
     0
  0
LTYPE
  5
45
330
5
100
AcDbSymbolTableRecord
100
AcDbLinetypeTableRecord
  2
BORDERX2
 70
     0
  3
Border (2x) ____  ____  .  ____  ____  .  ___
 72
    65
 73
     6
 40
88.9
 49
25.4
 74
     0
 49
-12.7
 74
     0
 49
25.4
 74
     0
 49
-12.7
 74
     0
 49
0.0
 74
     0
 49
-12.7
 74
     0
  0
LTYPE
  5
46
330
5
100
AcDbSymbolTableRecord
100
AcDbLinetypeTableRecord
  2
CENTER
 70
     0
  3
Center ____ _ ____ _ ____ _ ____ _ ____ _ ____
 72
    65
 73
     4
 40
50.8
 49
31.75
 74
     0
 49
-6.349999999999999
 74
     0
 49
6.349999999999999
 74
     0
 49
-6.349999999999999
 74
     0
  0
LTYPE
  5
47
330
5
100
AcDbSymbolTableRecord
100
AcDbLinetypeTableRecord
  2
CENTER2
 70
     0
  3
Center (.5x) ___ _ ___ _ ___ _ ___ _ ___ _ ___
 72
    65
 73
     4
 40
28.575
 49
19.05
 74
     0
 49
-3.174999999999999
 74
     0
 49
3.174999999999999
 74
     0
 49
-3.174999999999999
 74
     0
  0
LTYPE
  5
48
330
5
100
AcDbSymbolTableRecord
100
AcDbLinetypeTableRecord
  2
CENTERX2
 70
     0
  3
Center (2x) ________  __  ________  __  _____
 72
    65
 73
     4
 40
101.6
 49
63.5
 74
     0
 49
-12.7
 74
     0
 49
12.7
 74
     0
 49
-12.7
 74
     0
  0
LTYPE
  5
49
330
5
100
AcDbSymbolTableRecord
100
AcDbLinetypeTableRecord
  2
DASHDOT
 70
     0
  3
Dash dot __ . __ . __ . __ . __ . __ . __ . __
 72
    65
 73
     4
 40
25.4
 49
12.7
 74
     0
 49
-6.349999999999999
 74
     0
 49
0.0
 74
     0
 49
-6.349999999999999
 74
     0
  0
LTYPE
  5
4A
330
5
100
AcDbSymbolTableRecord
100
AcDbLinetypeTableRecord
  2
DASHDOT2
 70
     0
  3
Dash dot (.5x) _._._._._._._._._._._._._._._.
 72
    65
 73
     4
 40
12.7
 49
6.349999999999999
 74
     0
 49
-3.174999999999999
 74
     0
 49
0.0
 74
     0
 49
-3.174999999999999
 74
     0
  0
LTYPE
  5
4B
330
5
100
AcDbSymbolTableRecord
100
AcDbLinetypeTableRecord
  2
DASHDOTX2
 70
     0
  3
Dash dot (2x) ____  .  ____  .  ____  .  ___
 72
    65
 73
     4
 40
50.8
 49
25.4
 74
     0
 49
-12.7
 74
     0
 49
0.0
 74
     0
 49
-12.7
 74
     0
  0
LTYPE
  5
4C
330
5
100
AcDbSymbolTableRecord
100
AcDbLinetypeTableRecord
  2
DASHED
 70
     0
  3
Dashed __ __ __ __ __ __ __ __ __ __ __ __ __ _
 72
    65
 73
     2
 40
19.05
 49
12.7
 74
     0
 49
-6.349999999999999
 74
     0
  0
LTYPE
  5
4D
330
5
100
AcDbSymbolTableRecord
100
AcDbLinetypeTableRecord
  2
DASHED2
 70
     0
  3
Dashed (.5x) _ _ _ _ _ _ _ _ _ _ _ _ _ _ _ _ _
 72
    65
 73
     2
 40
9.524999999999998
 49
6.349999999999999
 74
     0
 49
-3.174999999999999
 74
     0
  0
LTYPE
  5
4E
330
5
100
AcDbSymbolTableRecord
100
AcDbLinetypeTableRecord
  2
DASHEDX2
 70
     0
  3
Dashed (2x) ____  ____  ____  ____  ____  ___
 72
    65
 73
     2
 40
38.1
 49
25.4
 74
     0
 49
-12.7
 74
     0
  0
LTYPE
  5
4F
330
5
100
AcDbSymbolTableRecord
100
AcDbLinetypeTableRecord
  2
DIVIDE
 70
     0
  3
Divide ____ . . ____ . . ____ . . ____ . . ____
 72
    65
 73
     6
 40
31.75
 49
12.7
 74
     0
 49
-6.349999999999999
 74
     0
 49
0.0
 74
     0
 49
-6.349999999999999
 74
     0
 49
0.0
 74
     0
 49
-6.349999999999999
 74
     0
  0
LTYPE
  5
50
330
5
100
AcDbSymbolTableRecord
100
AcDbLinetypeTableRecord
  2
DIVIDE2
 70
     0
  3
Divide (.5x) __..__..__..__..__..__..__..__.._
 72
    65
 73
     6
 40
15.875
 49
6.349999999999999
 74
     0
 49
-3.174999999999999
 74
     0
 49
0.0
 74
     0
 49
-3.174999999999999
 74
     0
 49
0.0
 74
     0
 49
-3.174999999999999
 74
     0
  0
LTYPE
  5
51
330
5
100
AcDbSymbolTableRecord
100
AcDbLinetypeTableRecord
  2
DIVIDEX2
 70
     0
  3
Divide (2x) ________  .  .  ________  .  .  _
 72
    65
 73
     6
 40
63.49999999999999
 49
25.4
 74
     0
 49
-12.7
 74
     0
 49
0.0
 74
     0
 49
-12.7
 74
     0
 49
0.0
 74
     0
 49
-12.7
 74
     0
  0
LTYPE
  5
52
330
5
100
AcDbSymbolTableRecord
100
AcDbLinetypeTableRecord
  2
DOT
 70
     0
  3
Dot . . . . . . . . . . . . . . . . . . . . . .
 72
    65
 73
     2
 40
6.349999999999999
 49
0.0
 74
     0
 49
-6.349999999999999
 74
     0
  0
LTYPE
  5
53
330
5
100
AcDbSymbolTableRecord
100
AcDbLinetypeTableRecord
  2
DOT2
 70
     0
  3
Dot (.5x) .....................................
 72
    65
 73
     2
 40
3.174999999999999
 49
0.0
 74
     0
 49
-3.174999999999999
 74
     0
  0
LTYPE
  5
54
330
5
100
AcDbSymbolTableRecord
100
AcDbLinetypeTableRecord
  2
DOTX2
 70
     0
  3
Dot (2x) .  .  .  .  .  .  .  .  .  .  .  .  . 
 72
    65
 73
     2
 40
12.7
 49
0.0
 74
     0
 49
-12.7
 74
     0
  0
LTYPE
  5
55
330
5
100
AcDbSymbolTableRecord
100
AcDbLinetypeTableRecord
  2
FENCELINE1
 70
     0
  3
Fenceline circle ----0-----0----0-----0----0---
 72
    65
 73
     4
 40
36.83
 49
6.349999999999999
 74
     0
 49
-2.54
 74
     4
 75
   133
340
33
 46
2.54
 50
0.0
 44
-2.54
 45
0.0
 49
-2.54
 74
     0
 49
25.4
 74
     0
  0
LTYPE
  5
56
330
5
100
AcDbSymbolTableRecord
100
AcDbLinetypeTableRecord
  2
FENCELINE2
 70
     0
  3
Fenceline square ----[]-----[]----[]-----[]----
 72
    65
 73
     4
 40
36.83
 49
6.349999999999999
 74
     0
 49
-2.54
 74
     4
 75
   132
340
33
 46
2.54
 50
0.0
 44
-2.54
 45
0.0
 49
-2.54
 74
     0
 49
25.4
 74
     0
  0
LTYPE
  5
57
330
5
100
AcDbSymbolTableRecord
100
AcDbLinetypeTableRecord
  2
GAS_LINE
 70
     0
  3
Gas line ----GAS----GAS----GAS----GAS----GAS---
 72
    65
 73
     3
 40
24.13
 49
12.7
 74
     0
 49
-5.08
 74
     2
 75
     0
340
11
 46
2.54
 50
0.0
 44
-2.54
 45
-1.27
  9
GAS
 49
-6.349999999999999
 74
     0
  0
LTYPE
  5
58
330
5
100
AcDbSymbolTableRecord
100
AcDbLinetypeTableRecord
  2
HIDDEN
 70
     0
  3
Hidden __ __ __ __ __ __ __ __ __ __ __ __ __ _
 72
    65
 73
     2
 40
9.524999999999998
 49
6.349999999999999
 74
     0
 49
-3.174999999999999
 74
     0
  0
LTYPE
  5
59
330
5
100
AcDbSymbolTableRecord
100
AcDbLinetypeTableRecord
  2
HIDDEN2
 70
     0
  3
Hidden (.5x) _ _ _ _ _ _ _ _ _ _ _ _ _ _ _ _ _
 72
    65
 73
     2
 40
4.762499999999999
 49
3.174999999999999
 74
     0
 49
-1.587499999999999
 74
     0
  0
LTYPE
  5
5A
330
5
100
AcDbSymbolTableRecord
100
AcDbLinetypeTableRecord
  2
HIDDENX2
 70
     0
  3
Hidden (2x) ____ ____ ____ ____ ____ ____ ____
 72
    65
 73
     2
 40
19.05
 49
12.7
 74
     0
 49
-6.349999999999999
 74
     0
  0
LTYPE
  5
5B
330
5
100
AcDbSymbolTableRecord
100
AcDbLinetypeTableRecord
  2
HOT_WATER_SUPPLY
 70
     0
  3
Hot water supply ---- HW ---- HW ---- HW ----
 72
    65
 73
     3
 40
22.86
 49
12.7
 74
     0
 49
-5.08
 74
     2
 75
     0
340
11
 46
2.54
 50
0.0
 44
-2.54
 45
-1.27
  9
HW
 49
-5.08
 74
     0
  0
LTYPE
  5
5C
330
5
100
AcDbSymbolTableRecord
100
AcDbLinetypeTableRecord
  2
PHANTOM
 70
     0
  3
Phantom ______  __  __  ______  __  __  ______
 72
    65
 73
     6
 40
63.5
 49
31.75
 74
     0
 49
-6.349999999999999
 74
     0
 49
6.349999999999999
 74
     0
 49
-6.349999999999999
 74
     0
 49
6.349999999999999
 74
     0
 49
-6.349999999999999
 74
     0
  0
LTYPE
  5
5D
330
5
100
AcDbSymbolTableRecord
100
AcDbLinetypeTableRecord
  2
PHANTOM2
 70
     0
  3
Phantom (.5x) ___ _ _ ___ _ _ ___ _ _ ___ _ _
 72
    65
 73
     6
 40
31.75
 49
15.875
 74
     0
 49
-3.174999999999999
 74
     0
 49
3.174999999999999
 74
     0
 49
-3.174999999999999
 74
     0
 49
3.174999999999999
 74
     0
 49
-3.174999999999999
 74
     0
  0
LTYPE
  5
5E
330
5
100
AcDbSymbolTableRecord
100
AcDbLinetypeTableRecord
  2
PHANTOMX2
 70
     0
  3
Phantom (2x) ____________    ____    ____   _
 72
    65
 73
     6
 40
127.0
 49
63.5
 74
     0
 49
-12.7
 74
     0
 49
12.7
 74
     0
 49
-12.7
 74
     0
 49
12.7
 74
     0
 49
-12.7
 74
     0
  0
LTYPE
  5
5F
330
5
100
AcDbSymbolTableRecord
100
AcDbLinetypeTableRecord
  2
TRACKS
 70
     0
  3
Tracks -|-|-|-|-|-|-|-|-|-|-|-|-|-|-|-|-|-|-|-|
 72
    65
 73
     2
 40
7.62
 49
3.81
 74
     4
 75
   130
340
33
 46
6.349999999999999
 50
0.0
 44
0.0
 45
0.0
 49
3.81
 74
     0
  0
LTYPE
  5
60
330
5
100
AcDbSymbolTableRecord
100
AcDbLinetypeTableRecord
  2
ZIGZAG
 70
     0
  3
Zig zag /\/\/\/\/\/\/\/\/\/\/\/\/\/\/\/\/\/\/\/
 72
    65
 73
     4
 40
20.32254
 49
0.00254
 74
     0
 49
-5.08
 74
     4
 75
   131
340
33
 46
5.08
 50
0.0
 44
-5.08
 45
0.0
 49
-10.16
 74
     4
 75
   131
340
33
 46
5.08
 50
180.0
 44
5.08
 45
0.0
 49
-5.08
 74
     0
  0
ENDTAB
  0
TABLE
  2
LAYER
  5
2
102
{ACAD_XDICTIONARY
360
1EA7
102
}
330
0
100
AcDbSymbolTable
 70
     7
  0
LAYER
  5
10
330
2
100
AcDbSymbolTableRecord
100
AcDbLayerTableRecord
  2
0
 70
     0
 62
     7
  6
Continuous
370
    -3
390
F
  0
LAYER
  5
C3
330
2
100
AcDbSymbolTableRecord
100
AcDbLayerTableRecord
  2
Defpoints
 70
     0
 62
     7
  6
Continuous
290
     0
370
    -3
390
F
  0
LAYER
  5
256
330
2
100
AcDbSymbolTableRecord
100
AcDbLayerTableRecord
  2
Cen
 70
     0
 62
     7
  6
CENTER2
370
    15
390
F
  0
LAYER
  5
5DF
330
2
100
AcDbSymbolTableRecord
100
AcDbLayerTableRecord
  2
実形
 70
     0
 62
     7
  6
Continuous
370
    -3
390
F
  0
LAYER
  5
60C
330
2
100
AcDbSymbolTableRecord
100
AcDbLayerTableRecord
  2
補助
 70
     0
 62
     7
  6
Continuous
370
    -3
390
F
  0
LAYER
  5
619
330
2
100
AcDbSymbolTableRecord
100
AcDbLayerTableRecord
  2
センター
 70
     0
 62
     7
  6
CENTER2
370
    18
390
F
  0
LAYER
  5
61A
330
2
100
AcDbSymbolTableRecord
100
AcDbLayerTableRecord
  2
寸法
 70
     0
 62
     7
  6
Continuous
370
    18
390
F
  0
ENDTAB
  0
TABLE
  2
STYLE
  5
3
330
0
100
AcDbSymbolTable
 70
     3
  0
STYLE
  5
11
330
3
100
AcDbSymbolTableRecord
100
AcDbTextStyleTableRecord
  2
Standard
 70
     0
 40
0.0
 41
1.0
 50
0.0
 71
     0
 42
35.0
  3
txt.shx
  4
bigfont.shx
  0
STYLE
  5
33
330
3
100
AcDbSymbolTableRecord
100
AcDbTextStyleTableRecord
  2

 70
     1
 40
0.0
 41
1.0
 50
0.0
 71
     0
 42
2.5
  3
ltypeshp.shx
  4

  0
STYLE
  5
1F23
330
3
100
AcDbSymbolTableRecord
100
AcDbTextStyleTableRecord
  2
明朝
 70
     0
 40
0.0
 41
1.0
 50
0.0
 71
     0
 42
25.0
  3
MS Mincho.ttf
  4

1001
ACAD
1000
MS Mincho
1071
    32785
  0
ENDTAB
  0
TABLE
  2
VIEW
  5
6
330
0
100
AcDbSymbolTable
 70
     0
  0
ENDTAB
  0
TABLE
  2
UCS
  5
7
330
0
100
AcDbSymbolTable
 70
     0
  0
ENDTAB
  0
TABLE
  2
APPID
  5
9
330
0
100
AcDbSymbolTable
 70
     1
  0
APPID
  5
12
330
9
100
AcDbSymbolTableRecord
100
AcDbRegAppTableRecord
  2
ACAD
 70
     0
  0
ENDTAB
  0
TABLE
  2
DIMSTYLE
  5
A
330
0
100
AcDbSymbolTable
 70
     1
100
AcDbDimStyleTable
 71
     1
340
27
  0
DIMSTYLE
105
27
102
{ACAD_REACTORS
330
42D
330
464
330
304
330
28B
330
2B3
330
270
330
298
330
2DC
330
2A6
330
27E
330
31C
330
2F7
330
DFA
330
1456
330
1481
330
1483
330
1485
330
1486
330
148C
330
1714
330
1902
330
1907
330
1920
330
1933
330
193D
330
193E
330
194A
330
1A87
330
1A88
330
1A89
330
1EBF
330
1EC0
330
1EC1
330
1EC2
102
}
330
A
100
AcDbSymbolTableRecord
100
AcDbDimStyleTableRecord
  2
ISO-25
 70
     0
 41
30.0
 42
65.0
 43
3.75
 44
0.0
 73
     0
 74
     0
 77
     1
 78
     8
140
25.0
141
2.5
143
0.03937007874016
147
6.25
171
     3
172
     1
271
     2
272
     2
274
     3
283
     0
284
     8
340
11
341
DA
342
D0
371
    15
372
    15
  0
ENDTAB
  0
TABLE
  2
BLOCK_RECORD
  5
1
330
0
100
AcDbSymbolTable
 70
    38
  0
BLOCK_RECORD
  5
1F
102
{ACAD_XDICTIONARY
360
1F4A
102
}
330
1
100
AcDbSymbolTableRecord
100
AcDbBlockTableRecord
  2
*Model_Space
340
22
  0
BLOCK_RECORD
  5
1B
330
1
100
AcDbSymbolTableRecord
100
AcDbBlockTableRecord
  2
*Paper_Space
340
1E
  0
BLOCK_RECORD
  5
23
330
1
100
AcDbSymbolTableRecord
100
AcDbBlockTableRecord
  2
*Paper_Space0
340
26
  0
BLOCK_RECORD
  5
D0
330
1
100
AcDbSymbolTableRecord
100
AcDbBlockTableRecord
  2
_DotSmall
340
0
102
{BLKREFS
331
1BE2
331
1BE3
331
1BEA
331
1BEB
331
1BF4
331
1BF5
331
1BFD
331
1BFE
331
1C05
331
1C06
331
1C0E
331
1C0F
331
1C17
331
1C18
331
1C21
331
1C22
331
1C2A
331
1C2B
331
1C32
331
1C33
331
1C3B
331
1C3C
331
1C44
331
1C45
331
1C4D
331
1C4E
331
1C57
331
1C58
331
1C60
331
1C61
331
1C6A
331
1C6B
331
1C73
331
1C74
331
1C7B
331
1C7C
331
1C85
331
1C86
331
1C8D
331
1C8E
331
1C96
331
1C97
331
1CA0
331
1CA1
331
1CA9
331
1CAA
331
1CB1
331
1CB2
331
1CBA
331
1CBB
331
1CC4
331
1CC5
331
1CCC
331
1CCD
331
1CD5
331
1CD6
331
1D11
331
1D12
331
1DC8
331
1DC9
331
1EF7
331
1EF8
331
1EFF
331
1F00
331
1F09
331
1F0A
331
1F12
331
1F13
102
}
  0
BLOCK_RECORD
  5
D4
330
1
100
AcDbSymbolTableRecord
100
AcDbBlockTableRecord
  2
_Origin2
340
0
  0
BLOCK_RECORD
  5
DA
330
1
100
AcDbSymbolTableRecord
100
AcDbBlockTableRecord
  2
_Open30
340
0
  0
BLOCK_RECORD
  5
271
330
1
100
AcDbSymbolTableRecord
100
AcDbBlockTableRecord
  2
*D4
340
0
  0
BLOCK_RECORD
  5
27F
330
1
100
AcDbSymbolTableRecord
100
AcDbBlockTableRecord
  2
*D5
340
0
  0
BLOCK_RECORD
  5
28C
330
1
100
AcDbSymbolTableRecord
100
AcDbBlockTableRecord
  2
*D6
340
0
  0
BLOCK_RECORD
  5
299
330
1
100
AcDbSymbolTableRecord
100
AcDbBlockTableRecord
  2
*D7
340
0
  0
BLOCK_RECORD
  5
2A7
330
1
100
AcDbSymbolTableRecord
100
AcDbBlockTableRecord
  2
*D8
340
0
  0
BLOCK_RECORD
  5
2B4
330
1
100
AcDbSymbolTableRecord
100
AcDbBlockTableRecord
  2
*D9
340
0
  0
BLOCK_RECORD
  5
2DD
330
1
100
AcDbSymbolTableRecord
100
AcDbBlockTableRecord
  2
*D10
340
0
  0
BLOCK_RECORD
  5
2F8
330
1
100
AcDbSymbolTableRecord
100
AcDbBlockTableRecord
  2
*D11
340
0
  0
BLOCK_RECORD
  5
305
330
1
100
AcDbSymbolTableRecord
100
AcDbBlockTableRecord
  2
*D12
340
0
  0
BLOCK_RECORD
  5
31D
330
1
100
AcDbSymbolTableRecord
100
AcDbBlockTableRecord
  2
*D13
340
0
  0
BLOCK_RECORD
  5
42E
330
1
100
AcDbSymbolTableRecord
100
AcDbBlockTableRecord
  2
*D14
340
0
  0
BLOCK_RECORD
  5
465
330
1
100
AcDbSymbolTableRecord
100
AcDbBlockTableRecord
  2
*D15
340
0
  0
BLOCK_RECORD
  5
DFB
330
1
100
AcDbSymbolTableRecord
100
AcDbBlockTableRecord
  2
*D16
340
0
  0
BLOCK_RECORD
  5
14CE
330
1
100
AcDbSymbolTableRecord
100
AcDbBlockTableRecord
  2
*D17
340
0
  0
BLOCK_RECORD
  5
152F
330
1
100
AcDbSymbolTableRecord
100
AcDbBlockTableRecord
  2
*D18
340
0
  0
BLOCK_RECORD
  5
153B
330
1
100
AcDbSymbolTableRecord
100
AcDbBlockTableRecord
  2
*D19
340
0
  0
BLOCK_RECORD
  5
1547
330
1
100
AcDbSymbolTableRecord
100
AcDbBlockTableRecord
  2
*D20
340
0
  0
BLOCK_RECORD
  5
1553
330
1
100
AcDbSymbolTableRecord
100
AcDbBlockTableRecord
  2
*D21
340
0
  0
BLOCK_RECORD
  5
155F
330
1
100
AcDbSymbolTableRecord
100
AcDbBlockTableRecord
  2
*D22
340
0
  0
BLOCK_RECORD
  5
1715
330
1
100
AcDbSymbolTableRecord
100
AcDbBlockTableRecord
  2
*D23
340
0
  0
BLOCK_RECORD
  5
1957
330
1
100
AcDbSymbolTableRecord
100
AcDbBlockTableRecord
  2
*D24
340
0
  0
BLOCK_RECORD
  5
1963
330
1
100
AcDbSymbolTableRecord
100
AcDbBlockTableRecord
  2
*D25
340
0
  0
BLOCK_RECORD
  5
196F
330
1
100
AcDbSymbolTableRecord
100
AcDbBlockTableRecord
  2
*D26
340
0
  0
BLOCK_RECORD
  5
197B
330
1
100
AcDbSymbolTableRecord
100
AcDbBlockTableRecord
  2
*D27
340
0
  0
BLOCK_RECORD
  5
1987
330
1
100
AcDbSymbolTableRecord
100
AcDbBlockTableRecord
  2
*D28
340
0
  0
BLOCK_RECORD
  5
1993
330
1
100
AcDbSymbolTableRecord
100
AcDbBlockTableRecord
  2
*D29
340
0
  0
BLOCK_RECORD
  5
199F
330
1
100
AcDbSymbolTableRecord
100
AcDbBlockTableRecord
  2
*D30
340
0
  0
BLOCK_RECORD
  5
1A99
330
1
100
AcDbSymbolTableRecord
100
AcDbBlockTableRecord
  2
*D31
340
0
  0
BLOCK_RECORD
  5
1AA5
330
1
100
AcDbSymbolTableRecord
100
AcDbBlockTableRecord
  2
*D32
340
0
  0
BLOCK_RECORD
  5
1AB1
330
1
100
AcDbSymbolTableRecord
100
AcDbBlockTableRecord
  2
*D33
340
0
  0
BLOCK_RECORD
  5
1EC3
330
1
100
AcDbSymbolTableRecord
100
AcDbBlockTableRecord
  2
*D34
340
0
  0
BLOCK_RECORD
  5
1ECF
330
1
100
AcDbSymbolTableRecord
100
AcDbBlockTableRecord
  2
*D35
340
0
  0
BLOCK_RECORD
  5
1EDB
330
1
100
AcDbSymbolTableRecord
100
AcDbBlockTableRecord
  2
*D36
340
0
  0
BLOCK_RECORD
  5
1EE7
330
1
100
AcDbSymbolTableRecord
100
AcDbBlockTableRecord
  2
*D37
340
0
  0
ENDTAB
  0
ENDSEC
  0
SECTION
  2
BLOCKS
  0
BLOCK
  5
20
330
1F
100
AcDbEntity
  8
0
100
AcDbBlockBegin
  2
*Model_Space
 70
     0
 10
0.0
 20
0.0
 30
0.0
  3
*Model_Space
  1

  0
ENDBLK
  5
21
330
1F
100
AcDbEntity
  8
0
100
AcDbBlockEnd
  0
BLOCK
  5
1C
330
1B
100
AcDbEntity
 67
     1
  8
0
100
AcDbBlockBegin
  2
*Paper_Space
 70
     0
 10
0.0
 20
0.0
 30
0.0
  3
*Paper_Space
  1

  0
ENDBLK
  5
1D
330
1B
100
AcDbEntity
 67
     1
  8
0
100
AcDbBlockEnd
  0
BLOCK
  5
24
330
23
100
AcDbEntity
  8
0
100
AcDbBlockBegin
  2
*Paper_Space0
 70
     0
 10
0.0
 20
0.0
 30
0.0
  3
*Paper_Space0
  1

  0
ENDBLK
  5
25
330
23
100
AcDbEntity
  8
0
100
AcDbBlockEnd
  0
BLOCK
  5
D2
330
D0
100
AcDbEntity
  8
0
100
AcDbBlockBegin
  2
_DotSmall
 70
     0
 10
0.0
 20
0.0
 30
0.0
  3
_DotSmall
  1

  0
LWPOLYLINE
  5
D1
330
D0
100
AcDbEntity
  8
0
 62
     0
100
AcDbPolyline
 90
        2
 70
     1
 43
0.5
 10
-0.0625
 20
0.0
 42
1.0
 10
0.0625
 20
0.0
 42
1.0
  0
ENDBLK
  5
D3
330
D0
100
AcDbEntity
  8
0
100
AcDbBlockEnd
  0
BLOCK
  5
D8
330
D4
100
AcDbEntity
  8
0
100
AcDbBlockBegin
  2
_Origin2
 70
     0
 10
0.0
 20
0.0
 30
0.0
  3
_Origin2
  1

  0
CIRCLE
  5
D5
330
D4
100
AcDbEntity
  8
0
 62
     0
370
    -2
100
AcDbCircle
 10
0.0
 20
0.0
 30
0.0
 40
0.5
  0
CIRCLE
  5
D6
330
D4
100
AcDbEntity
  8
0
 62
     0
370
    -2
100
AcDbCircle
 10
0.0
 20
0.0
 30
0.0
 40
0.25
  0
LINE
  5
D7
330
D4
100
AcDbEntity
  8
0
 62
     0
370
    -2
100
AcDbLine
 10
-0.5
 20
0.0
 30
0.0
 11
-1.0
 21
0.0
 31
0.0
  0
ENDBLK
  5
D9
330
D4
100
AcDbEntity
  8
0
100
AcDbBlockEnd
  0
BLOCK
  5
DE
330
DA
100
AcDbEntity
  8
0
100
AcDbBlockBegin
  2
_Open30
 70
     0
 10
0.0
 20
0.0
 30
0.0
  3
_Open30
  1

  0
LINE
  5
DB
330
DA
100
AcDbEntity
  8
0
 62
     0
370
    -2
100
AcDbLine
 10
-1.0
 20
0.26794919
 30
0.0
 11
0.0
 21
0.0
 31
0.0
  0
LINE
  5
DC
330
DA
100
AcDbEntity
  8
0
 62
     0
370
    -2
100
AcDbLine
 10
0.0
 20
0.0
 30
0.0
 11
-1.0
 21
-0.26794919
 31
0.0
  0
LINE
  5
DD
330
DA
100
AcDbEntity
  8
0
 62
     0
370
    -2
100
AcDbLine
 10
0.0
 20
0.0
 30
0.0
 11
-1.0
 21
0.0
 31
0.0
  0
ENDBLK
  5
DF
330
DA
100
AcDbEntity
  8
0
100
AcDbBlockEnd
  0
BLOCK
  5
27C
330
271
100
AcDbEntity
  8
0
100
AcDbBlockBegin
  2
*D4
 70
     1
 10
0.0
 20
0.0
 30
0.0
  3
*D4
  1

  0
LINE
  5
1C5C
330
271
100
AcDbEntity
  8
0
 62
     0
370
    15
100
AcDbLine
 10
727.5840414949498
 20
988.2546031975426
 30
0.0
 11
687.8335393780535
 21
988.2546031975426
 31
0.0
  0
LINE
  5
1C5D
330
271
100
AcDbEntity
  8
0
 62
     0
370
    15
100
AcDbLine
 10
727.5840414949498
 20
1003.254603197542
 30
0.0
 11
687.8335393780535
 21
1003.254603197542
 31
0.0
  0
LINE
  5
1C5E
330
271
100
AcDbEntity
  8
0
 62
     0
370
    15
100
AcDbLine
 10
687.8335393780535
 20
988.2546031975426
 30
0.0
 11
687.8335393780535
 21
1003.254603197542
 31
0.0
  0
LINE
  5
1C5F
330
271
100
AcDbEntity
  8
0
 62
     0
370
    15
100
AcDbLine
 10
687.8335393780535
 20
1003.254603197542
 30
0.0
 11
687.8335393780535
 21
1079.087936530876
 31
0.0
  0
INSERT
  5
1C60
330
271
100
AcDbEntity
  8
0
 62
     0
370
    15
100
AcDbBlockReference
  2
_DotSmall
 10
687.8335393780535
 20
988.2546031975426
 30
0.0
 41
30.0
 42
30.0
 43
30.0
 50
270.0
  0
INSERT
  5
1C61
330
271
100
AcDbEntity
  8
0
 62
     0
370
    15
100
AcDbBlockReference
  2
_DotSmall
 10
687.8335393780535
 20
1003.254603197542
 30
0.0
 41
30.0
 42
30.0
 43
30.0
 50
90.0
  0
MTEXT
  5
1C62
330
271
100
AcDbEntity
  8
0
 62
     0
100
AcDbMText
 10
669.0835393780534
 20
1056.171269864209
 30
0.0
 40
25.0
 41
0.0
 71
     5
 72
     1
  1
15
 11
0.0000000000000001
 21
1.0
 31
0.0
 73
     1
 44
1.0
1001
ACAD
1000
MTEXTBEGIN
1070
    73
1070
     1
1070
    44
1040
1.0
1070
    74
1070
     0
1000
MTEXTEND
  0
POINT
  5
1C63
330
271
100
AcDbEntity
  8
Defpoints
 62
     0
100
AcDbPoint
 10
792.5840414949498
 20
988.2546031975426
 30
0.0
  0
POINT
  5
1C64
330
271
100
AcDbEntity
  8
Defpoints
 62
     0
100
AcDbPoint
 10
792.5840414949498
 20
1003.254603197542
 30
0.0
  0
POINT
  5
1C65
330
271
100
AcDbEntity
  8
Defpoints
 62
     0
100
AcDbPoint
 10
687.8335393780535
 20
1003.254603197542
 30
0.0
  0
ENDBLK
  5
27D
330
271
100
AcDbEntity
  8
0
100
AcDbBlockEnd
  0
BLOCK
  5
289
330
27F
100
AcDbEntity
  8
0
100
AcDbBlockBegin
  2
*D5
 70
     1
 10
0.0
 20
0.0
 30
0.0
  3
*D5
  1

  0
LINE
  5
1C4A
330
27F
100
AcDbEntity
  8
0
 62
     0
370
    15
100
AcDbLine
 10
792.5840414949498
 20
1003.254603197542
 30
0.0
 11
687.8335393780535
 21
1003.254603197542
 31
0.0
  0
LINE
  5
1C4B
330
27F
100
AcDbEntity
  8
0
 62
     0
370
    15
100
AcDbLine
 10
792.5840414949496
 20
1433.254603197542
 30
0.0
 11
687.8335393780536
 21
1433.254603197542
 31
0.0
  0
LINE
  5
1C4C
330
27F
100
AcDbEntity
  8
0
 62
     0
370
    15
100
AcDbLine
 10
687.8335393780535
 20
1003.254603197542
 30
0.0
 11
687.8335393780536
 21
1433.254603197542
 31
0.0
  0
INSERT
  5
1C4D
330
27F
100
AcDbEntity
  8
0
 62
     0
370
    15
100
AcDbBlockReference
  2
_DotSmall
 10
687.8335393780535
 20
1003.254603197542
 30
0.0
 41
30.0
 42
30.0
 43
30.0
 50
270.0
  0
INSERT
  5
1C4E
330
27F
100
AcDbEntity
  8
0
 62
     0
370
    15
100
AcDbBlockReference
  2
_DotSmall
 10
687.8335393780536
 20
1433.254603197542
 30
0.0
 41
30.0
 42
30.0
 43
30.0
 50
90.0
  0
MTEXT
  5
1C4F
330
27F
100
AcDbEntity
  8
0
 62
     0
100
AcDbMText
 10
669.0835393780534
 20
1218.254603197543
 30
0.0
 40
25.0
 41
0.0
 71
     5
 72
     1
  1
430
 11
0.0000000000000001
 21
1.0
 31
0.0
 73
     1
 44
1.0
1001
ACAD
1000
MTEXTBEGIN
1070
    73
1070
     1
1070
    44
1040
1.0
1070
    74
1070
     0
1000
MTEXTEND
  0
POINT
  5
1C50
330
27F
100
AcDbEntity
  8
Defpoints
 62
     0
100
AcDbPoint
 10
792.5840414949498
 20
1003.254603197542
 30
0.0
  0
POINT
  5
1C51
330
27F
100
AcDbEntity
  8
Defpoints
 62
     0
100
AcDbPoint
 10
792.5840414949496
 20
1433.254603197542
 30
0.0
  0
POINT
  5
1C52
330
27F
100
AcDbEntity
  8
Defpoints
 62
     0
100
AcDbPoint
 10
687.8335393780536
 20
1433.254603197542
 30
0.0
  0
ENDBLK
  5
28A
330
27F
100
AcDbEntity
  8
0
100
AcDbBlockEnd
  0
BLOCK
  5
296
330
28C
100
AcDbEntity
  8
0
100
AcDbBlockBegin
  2
*D6
 70
     1
 10
0.0
 20
0.0
 30
0.0
  3
*D6
  1

  0
LINE
  5
1C8A
330
28C
100
AcDbEntity
  8
0
 62
     0
370
    15
100
AcDbLine
 10
792.5840414949496
 20
1433.254603197542
 30
0.0
 11
687.8335393780536
 21
1433.254603197542
 31
0.0
  0
LINE
  5
1C8B
330
28C
100
AcDbEntity
  8
0
 62
     0
370
    15
100
AcDbLine
 10
792.5840414949496
 20
1508.254603197542
 30
0.0
 11
687.8335393780536
 21
1508.254603197542
 31
0.0
  0
LINE
  5
1C8C
330
28C
100
AcDbEntity
  8
0
 62
     0
370
    15
100
AcDbLine
 10
687.8335393780536
 20
1433.254603197542
 30
0.0
 11
687.8335393780536
 21
1508.254603197542
 31
0.0
  0
INSERT
  5
1C8D
330
28C
100
AcDbEntity
  8
0
 62
     0
370
    15
100
AcDbBlockReference
  2
_DotSmall
 10
687.8335393780536
 20
1433.254603197542
 30
0.0
 41
30.0
 42
30.0
 43
30.0
 50
270.0
  0
INSERT
  5
1C8E
330
28C
100
AcDbEntity
  8
0
 62
     0
370
    15
100
AcDbBlockReference
  2
_DotSmall
 10
687.8335393780536
 20
1508.254603197542
 30
0.0
 41
30.0
 42
30.0
 43
30.0
 50
90.0
  0
MTEXT
  5
1C8F
330
28C
100
AcDbEntity
  8
0
 62
     0
100
AcDbMText
 10
669.0835393780534
 20
1470.754603197543
 30
0.0
 40
25.0
 41
0.0
 71
     5
 72
     1
  1
75
 11
0.0000000000000001
 21
1.0
 31
0.0
 73
     1
 44
1.0
1001
ACAD
1000
MTEXTBEGIN
1070
    73
1070
     1
1070
    44
1040
1.0
1070
    74
1070
     0
1000
MTEXTEND
  0
POINT
  5
1C90
330
28C
100
AcDbEntity
  8
Defpoints
 62
     0
100
AcDbPoint
 10
792.5840414949496
 20
1433.254603197542
 30
0.0
  0
POINT
  5
1C91
330
28C
100
AcDbEntity
  8
Defpoints
 62
     0
100
AcDbPoint
 10
792.5840414949496
 20
1508.254603197542
 30
0.0
  0
POINT
  5
1C92
330
28C
100
AcDbEntity
  8
Defpoints
 62
     0
100
AcDbPoint
 10
687.8335393780536
 20
1508.254603197542
 30
0.0
  0
ENDBLK
  5
297
330
28C
100
AcDbEntity
  8
0
100
AcDbBlockEnd
  0
BLOCK
  5
2A4
330
299
100
AcDbEntity
  8
0
100
AcDbBlockBegin
  2
*D7
 70
     1
 10
0.0
 20
0.0
 30
0.0
  3
*D7
  1

  0
LINE
  5
1C53
330
299
100
AcDbEntity
  8
0
 62
     0
370
    15
100
AcDbLine
 10
792.5840414949496
 20
953.2546031975426
 30
0.0
 11
615.2051194749211
 21
953.2546031975426
 31
0.0
  0
LINE
  5
1C54
330
299
100
AcDbEntity
  8
0
 62
     0
370
    15
100
AcDbLine
 10
792.5840414949498
 20
988.2546031975426
 30
0.0
 11
615.2051194749211
 21
988.2546031975426
 31
0.0
  0
LINE
  5
1C55
330
299
100
AcDbEntity
  8
0
 62
     0
370
    15
100
AcDbLine
 10
615.2051194749211
 20
953.2546031975426
 30
0.0
 11
615.2051194749211
 21
988.2546031975426
 31
0.0
  0
MTEXT
  5
1C56
330
299
100
AcDbEntity
  8
0
 62
     0
100
AcDbMText
 10
593.2442089100813
 20
982.3944713635087
 30
0.0
 40
25.0
 41
0.0
 71
     5
 72
     1
  1
35
 11
0.0000000000000001
 21
1.0
 31
0.0
 73
     1
 44
1.0
1001
ACAD
1000
MTEXTBEGIN
1070
    73
1070
     1
1070
    44
1040
1.0
1070
    74
1070
     0
1000
MTEXTEND
  0
INSERT
  5
1C57
330
299
100
AcDbEntity
  8
0
 62
     0
370
    15
100
AcDbBlockReference
  2
_DotSmall
 10
615.2051194749211
 20
953.2546031975426
 30
0.0
 41
30.0
 42
30.0
 43
30.0
 50
270.0
  0
INSERT
  5
1C58
330
299
100
AcDbEntity
  8
0
 62
     0
370
    15
100
AcDbBlockReference
  2
_DotSmall
 10
615.2051194749211
 20
988.2546031975426
 30
0.0
 41
30.0
 42
30.0
 43
30.0
 50
90.0
  0
POINT
  5
1C59
330
299
100
AcDbEntity
  8
Defpoints
 62
     0
100
AcDbPoint
 10
792.5840414949496
 20
953.2546031975426
 30
0.0
  0
POINT
  5
1C5A
330
299
100
AcDbEntity
  8
Defpoints
 62
     0
100
AcDbPoint
 10
792.5840414949498
 20
988.2546031975426
 30
0.0
  0
POINT
  5
1C5B
330
299
100
AcDbEntity
  8
Defpoints
 62
     0
100
AcDbPoint
 10
615.2051194749211
 20
988.2546031975426
 30
0.0
  0
ENDBLK
  5
2A5
330
299
100
AcDbEntity
  8
0
100
AcDbBlockEnd
  0
BLOCK
  5
2B1
330
2A7
100
AcDbEntity
  8
0
100
AcDbBlockBegin
  2
*D8
 70
     1
 10
0.0
 20
0.0
 30
0.0
  3
*D8
  1

  0
LINE
  5
1C41
330
2A7
100
AcDbEntity
  8
0
 62
     0
370
    15
100
AcDbLine
 10
792.5840414949498
 20
988.2546031975426
 30
0.0
 11
615.205119474921
 21
988.2546031975426
 31
0.0
  0
LINE
  5
1C42
330
2A7
100
AcDbEntity
  8
0
 62
     0
370
    15
100
AcDbLine
 10
792.5840414949496
 20
1508.254603197542
 30
0.0
 11
615.2051194749211
 21
1508.254603197542
 31
0.0
  0
LINE
  5
1C43
330
2A7
100
AcDbEntity
  8
0
 62
     0
370
    15
100
AcDbLine
 10
615.205119474921
 20
988.2546031975426
 30
0.0
 11
615.2051194749211
 21
1508.254603197542
 31
0.0
  0
INSERT
  5
1C44
330
2A7
100
AcDbEntity
  8
0
 62
     0
370
    15
100
AcDbBlockReference
  2
_DotSmall
 10
615.205119474921
 20
988.2546031975426
 30
0.0
 41
30.0
 42
30.0
 43
30.0
 50
270.0
  0
INSERT
  5
1C45
330
2A7
100
AcDbEntity
  8
0
 62
     0
370
    15
100
AcDbBlockReference
  2
_DotSmall
 10
615.2051194749211
 20
1508.254603197542
 30
0.0
 41
30.0
 42
30.0
 43
30.0
 50
90.0
  0
MTEXT
  5
1C46
330
2A7
100
AcDbEntity
  8
0
 62
     0
100
AcDbMText
 10
596.4551194749209
 20
1248.254603197543
 30
0.0
 40
25.0
 41
0.0
 71
     5
 72
     1
  1
520
 11
0.0000000000000001
 21
1.0
 31
0.0
 73
     1
 44
1.0
1001
ACAD
1000
MTEXTBEGIN
1070
    73
1070
     1
1070
    44
1040
1.0
1070
    74
1070
     0
1000
MTEXTEND
  0
POINT
  5
1C47
330
2A7
100
AcDbEntity
  8
Defpoints
 62
     0
100
AcDbPoint
 10
792.5840414949498
 20
988.2546031975426
 30
0.0
  0
POINT
  5
1C48
330
2A7
100
AcDbEntity
  8
Defpoints
 62
     0
100
AcDbPoint
 10
792.5840414949496
 20
1508.254603197542
 30
0.0
  0
POINT
  5
1C49
330
2A7
100
AcDbEntity
  8
Defpoints
 62
     0
100
AcDbPoint
 10
615.2051194749211
 20
1508.254603197542
 30
0.0
  0
ENDBLK
  5
2B2
330
2A7
100
AcDbEntity
  8
0
100
AcDbBlockEnd
  0
BLOCK
  5
2BE
330
2B4
100
AcDbEntity
  8
0
100
AcDbBlockBegin
  2
*D9
 70
     1
 10
0.0
 20
0.0
 30
0.0
  3
*D9
  1

  0
LINE
  5
1C6F
330
2B4
100
AcDbEntity
  8
0
 62
     0
370
    15
100
AcDbLine
 10
792.5840414949496
 20
1508.254603197542
 30
0.0
 11
615.2051194749211
 21
1508.254603197542
 31
0.0
  0
LINE
  5
1C70
330
2B4
100
AcDbEntity
  8
0
 62
     0
370
    15
100
AcDbLine
 10
792.5840414949496
 20
1543.254603197543
 30
0.0
 11
615.2051194749211
 21
1543.254603197543
 31
0.0
  0
LINE
  5
1C71
330
2B4
100
AcDbEntity
  8
0
 62
     0
370
    15
100
AcDbLine
 10
615.2051194749211
 20
1508.254603197542
 30
0.0
 11
615.2051194749211
 21
1543.254603197543
 31
0.0
  0
MTEXT
  5
1C72
330
2B4
100
AcDbEntity
  8
0
 62
     0
100
AcDbMText
 10
593.2442089100813
 20
1514.622352690542
 30
0.0
 40
25.0
 41
0.0
 71
     5
 72
     1
  1
35
 11
0.0000000000000001
 21
1.0
 31
0.0
 73
     1
 44
1.0
1001
ACAD
1000
MTEXTBEGIN
1070
    73
1070
     1
1070
    44
1040
1.0
1070
    74
1070
     0
1000
MTEXTEND
  0
INSERT
  5
1C73
330
2B4
100
AcDbEntity
  8
0
 62
     0
370
    15
100
AcDbBlockReference
  2
_DotSmall
 10
615.2051194749211
 20
1508.254603197542
 30
0.0
 41
30.0
 42
30.0
 43
30.0
 50
270.0
  0
INSERT
  5
1C74
330
2B4
100
AcDbEntity
  8
0
 62
     0
370
    15
100
AcDbBlockReference
  2
_DotSmall
 10
615.2051194749211
 20
1543.254603197543
 30
0.0
 41
30.0
 42
30.0
 43
30.0
 50
90.0
  0
POINT
  5
1C75
330
2B4
100
AcDbEntity
  8
Defpoints
 62
     0
100
AcDbPoint
 10
792.5840414949496
 20
1508.254603197542
 30
0.0
  0
POINT
  5
1C76
330
2B4
100
AcDbEntity
  8
Defpoints
 62
     0
100
AcDbPoint
 10
792.5840414949496
 20
1543.254603197543
 30
0.0
  0
POINT
  5
1C77
330
2B4
100
AcDbEntity
  8
Defpoints
 62
     0
100
AcDbPoint
 10
615.2051194749211
 20
1543.254603197543
 30
0.0
  0
ENDBLK
  5
2BF
330
2B4
100
AcDbEntity
  8
0
100
AcDbBlockEnd
  0
BLOCK
  5
2E7
330
2DD
100
AcDbEntity
  8
0
100
AcDbBlockBegin
  2
*D10
 70
     1
 10
0.0
 20
0.0
 30
0.0
  3
*D10
  1

  0
LINE
  5
1C38
330
2DD
100
AcDbEntity
  8
0
 62
     0
370
    15
100
AcDbLine
 10
792.5840414949496
 20
953.2546031975426
 30
0.0
 11
545.734467105607
 21
953.2546031975426
 31
0.0
  0
LINE
  5
1C39
330
2DD
100
AcDbEntity
  8
0
 62
     0
370
    15
100
AcDbLine
 10
792.5840414949496
 20
1543.254603197543
 30
0.0
 11
545.7344671056071
 21
1543.254603197543
 31
0.0
  0
LINE
  5
1C3A
330
2DD
100
AcDbEntity
  8
0
 62
     0
370
    15
100
AcDbLine
 10
545.734467105607
 20
953.2546031975426
 30
0.0
 11
545.7344671056071
 21
1543.254603197543
 31
0.0
  0
INSERT
  5
1C3B
330
2DD
100
AcDbEntity
  8
0
 62
     0
370
    15
100
AcDbBlockReference
  2
_DotSmall
 10
545.734467105607
 20
953.2546031975426
 30
0.0
 41
30.0
 42
30.0
 43
30.0
 50
270.0
  0
INSERT
  5
1C3C
330
2DD
100
AcDbEntity
  8
0
 62
     0
370
    15
100
AcDbBlockReference
  2
_DotSmall
 10
545.7344671056071
 20
1543.254603197543
 30
0.0
 41
30.0
 42
30.0
 43
30.0
 50
90.0
  0
MTEXT
  5
1C3D
330
2DD
100
AcDbEntity
  8
0
 62
     0
100
AcDbMText
 10
526.9844671056069
 20
1248.254603197543
 30
0.0
 40
25.0
 41
0.0
 71
     5
 72
     1
  1
590
 11
0.0000000000000001
 21
1.0
 31
0.0
 73
     1
 44
1.0
1001
ACAD
1000
MTEXTBEGIN
1070
    73
1070
     1
1070
    44
1040
1.0
1070
    74
1070
     0
1000
MTEXTEND
  0
POINT
  5
1C3E
330
2DD
100
AcDbEntity
  8
Defpoints
 62
     0
100
AcDbPoint
 10
792.5840414949496
 20
953.2546031975426
 30
0.0
  0
POINT
  5
1C3F
330
2DD
100
AcDbEntity
  8
Defpoints
 62
     0
100
AcDbPoint
 10
792.5840414949496
 20
1543.254603197543
 30
0.0
  0
POINT
  5
1C40
330
2DD
100
AcDbEntity
  8
Defpoints
 62
     0
100
AcDbPoint
 10
545.7344671056071
 20
1543.254603197543
 30
0.0
  0
ENDBLK
  5
2E8
330
2DD
100
AcDbEntity
  8
0
100
AcDbBlockEnd
  0
BLOCK
  5
302
330
2F8
100
AcDbEntity
  8
0
100
AcDbBlockBegin
  2
*D11
 70
     1
 10
0.0
 20
0.0
 30
0.0
  3
*D11
  1

  0
LINE
  5
1C0B
330
2F8
100
AcDbEntity
  8
0
 62
     0
370
    15
100
AcDbLine
 10
889.5107194732053
 20
888.2546031975426
 30
0.0
 11
889.5107194732053
 21
849.3468314028259
 31
0.0
  0
LINE
  5
1C0C
330
2F8
100
AcDbEntity
  8
0
 62
     0
370
    15
100
AcDbLine
 10
1539.510719473205
 20
888.2546031975422
 30
0.0
 11
1539.510719473205
 21
849.3468314028259
 31
0.0
  0
LINE
  5
1C0D
330
2F8
100
AcDbEntity
  8
0
 62
     0
370
    15
100
AcDbLine
 10
889.5107194732053
 20
849.3468314028259
 30
0.0
 11
1539.510719473205
 21
849.3468314028259
 31
0.0
  0
INSERT
  5
1C0E
330
2F8
100
AcDbEntity
  8
0
 62
     0
370
    15
100
AcDbBlockReference
  2
_DotSmall
 10
889.5107194732053
 20
849.3468314028259
 30
0.0
 41
30.0
 42
30.0
 43
30.0
 50
180.0
  0
INSERT
  5
1C0F
330
2F8
100
AcDbEntity
  8
0
 62
     0
370
    15
100
AcDbBlockReference
  2
_DotSmall
 10
1539.510719473205
 20
849.3468314028259
 30
0.0
 41
30.0
 42
30.0
 43
30.0
  0
MTEXT
  5
1C10
330
2F8
100
AcDbEntity
  8
0
 62
     0
100
AcDbMText
 10
1214.510719473205
 20
868.0968314028259
 30
0.0
 40
25.0
 41
0.0
 71
     5
 72
     1
  1
650
 73
     1
 44
1.0
1001
ACAD
1000
MTEXTBEGIN
1070
    73
1070
     1
1070
    44
1040
1.0
1070
    74
1070
     0
1000
MTEXTEND
  0
POINT
  5
1C11
330
2F8
100
AcDbEntity
  8
Defpoints
 62
     0
100
AcDbPoint
 10
889.5107194732053
 20
953.2546031975426
 30
0.0
  0
POINT
  5
1C12
330
2F8
100
AcDbEntity
  8
Defpoints
 62
     0
100
AcDbPoint
 10
1539.510719473205
 20
953.2546031975423
 30
0.0
  0
POINT
  5
1C13
330
2F8
100
AcDbEntity
  8
Defpoints
 62
     0
100
AcDbPoint
 10
1539.510719473205
 20
849.3468314028259
 30
0.0
  0
ENDBLK
  5
303
330
2F8
100
AcDbEntity
  8
0
100
AcDbBlockEnd
  0
BLOCK
  5
311
330
305
100
AcDbEntity
  8
0
100
AcDbBlockBegin
  2
*D12
 70
     1
 10
0.0
 20
0.0
 30
0.0
  3
*D12
  1

  0
LINE
  5
1CC0
330
305
100
AcDbEntity
  8
0
 62
     0
370
    15
100
AcDbLine
 10
1539.510719473205
 20
888.2546031975422
 30
0.0
 11
1539.510719473205
 21
849.3468314028259
 31
0.0
  0
LINE
  5
1CC1
330
305
100
AcDbEntity
  8
0
 62
     0
370
    15
100
AcDbLine
 10
1574.510719473205
 20
888.2546031975426
 30
0.0
 11
1574.510719473205
 21
849.3468314028259
 31
0.0
  0
LINE
  5
1CC2
330
305
100
AcDbEntity
  8
0
 62
     0
370
    15
100
AcDbLine
 10
1539.510719473205
 20
849.3468314028259
 30
0.0
 11
1574.510719473205
 21
849.3468314028259
 31
0.0
  0
MTEXT
  5
1CC3
330
305
100
AcDbEntity
  8
0
 62
     0
100
AcDbMText
 10
1496.052503888749
 20
868.0968314028259
 30
0.0
 40
25.0
 41
0.0
 71
     5
 72
     1
  1
35
 73
     1
 44
1.0
1001
ACAD
1000
MTEXTBEGIN
1070
    73
1070
     1
1070
    44
1040
1.0
1070
    74
1070
     0
1000
MTEXTEND
  0
INSERT
  5
1CC4
330
305
100
AcDbEntity
  8
0
 62
     0
370
    15
100
AcDbBlockReference
  2
_DotSmall
 10
1539.510719473205
 20
849.3468314028259
 30
0.0
 41
30.0
 42
30.0
 43
30.0
 50
180.0
  0
INSERT
  5
1CC5
330
305
100
AcDbEntity
  8
0
 62
     0
370
    15
100
AcDbBlockReference
  2
_DotSmall
 10
1574.510719473205
 20
849.3468314028259
 30
0.0
 41
30.0
 42
30.0
 43
30.0
  0
POINT
  5
1CC6
330
305
100
AcDbEntity
  8
Defpoints
 62
     0
100
AcDbPoint
 10
1539.510719473205
 20
953.2546031975423
 30
0.0
  0
POINT
  5
1CC7
330
305
100
AcDbEntity
  8
Defpoints
 62
     0
100
AcDbPoint
 10
1574.510719473205
 20
953.2546031975426
 30
0.0
  0
POINT
  5
1CC8
330
305
100
AcDbEntity
  8
Defpoints
 62
     0
100
AcDbPoint
 10
1574.510719473205
 20
849.3468314028259
 30
0.0
  0
ENDBLK
  5
312
330
305
100
AcDbEntity
  8
0
100
AcDbBlockEnd
  0
BLOCK
  5
327
330
31D
100
AcDbEntity
  8
0
100
AcDbBlockBegin
  2
*D13
 70
     1
 10
0.0
 20
0.0
 30
0.0
  3
*D13
  1

  0
LINE
  5
1C02
330
31D
100
AcDbEntity
  8
0
 62
     0
370
    15
100
AcDbLine
 10
854.5107194732052
 20
888.2546031975426
 30
0.0
 11
854.5107194732052
 21
778.988059447619
 31
0.0
  0
LINE
  5
1C03
330
31D
100
AcDbEntity
  8
0
 62
     0
370
    15
100
AcDbLine
 10
1574.510719473205
 20
888.2546031975426
 30
0.0
 11
1574.510719473205
 21
778.988059447619
 31
0.0
  0
LINE
  5
1C04
330
31D
100
AcDbEntity
  8
0
 62
     0
370
    15
100
AcDbLine
 10
854.5107194732052
 20
778.988059447619
 30
0.0
 11
1574.510719473205
 21
778.988059447619
 31
0.0
  0
INSERT
  5
1C05
330
31D
100
AcDbEntity
  8
0
 62
     0
370
    15
100
AcDbBlockReference
  2
_DotSmall
 10
854.5107194732052
 20
778.988059447619
 30
0.0
 41
30.0
 42
30.0
 43
30.0
 50
180.0
  0
INSERT
  5
1C06
330
31D
100
AcDbEntity
  8
0
 62
     0
370
    15
100
AcDbBlockReference
  2
_DotSmall
 10
1574.510719473205
 20
778.988059447619
 30
0.0
 41
30.0
 42
30.0
 43
30.0
  0
MTEXT
  5
1C07
330
31D
100
AcDbEntity
  8
0
 62
     0
100
AcDbMText
 10
1214.510719473205
 20
797.738059447619
 30
0.0
 40
25.0
 41
0.0
 71
     5
 72
     1
  1
720
 73
     1
 44
1.0
1001
ACAD
1000
MTEXTBEGIN
1070
    73
1070
     1
1070
    44
1040
1.0
1070
    74
1070
     0
1000
MTEXTEND
  0
POINT
  5
1C08
330
31D
100
AcDbEntity
  8
Defpoints
 62
     0
100
AcDbPoint
 10
854.5107194732052
 20
953.2546031975426
 30
0.0
  0
POINT
  5
1C09
330
31D
100
AcDbEntity
  8
Defpoints
 62
     0
100
AcDbPoint
 10
1574.510719473205
 20
953.2546031975426
 30
0.0
  0
POINT
  5
1C0A
330
31D
100
AcDbEntity
  8
Defpoints
 62
     0
100
AcDbPoint
 10
1574.510719473205
 20
778.988059447619
 30
0.0
  0
ENDBLK
  5
328
330
31D
100
AcDbEntity
  8
0
100
AcDbBlockEnd
  0
BLOCK
  5
439
330
42E
100
AcDbEntity
  8
0
100
AcDbBlockBegin
  2
*D14
 70
     1
 10
0.0
 20
0.0
 30
0.0
  3
*D14
  1

  0
LINE
  5
1C66
330
42E
100
AcDbEntity
  8
0
 62
     0
370
    15
100
AcDbLine
 10
802.5107194732063
 20
610.816622520003
 30
0.0
 11
754.8527775173043
 21
610.8166225200031
 31
0.0
  0
LINE
  5
1C67
330
42E
100
AcDbEntity
  8
0
 62
     0
370
    15
100
AcDbLine
 10
802.5107194732063
 20
625.8166225200031
 30
0.0
 11
754.8527775173043
 21
625.8166225200032
 31
0.0
  0
LINE
  5
1C68
330
42E
100
AcDbEntity
  8
0
 62
     0
370
    15
100
AcDbLine
 10
754.8527775173043
 20
610.8166225200031
 30
0.0
 11
754.8527775173043
 21
625.8166225200032
 31
0.0
  0
MTEXT
  5
1C69
330
42E
100
AcDbEntity
  8
0
 62
     0
100
AcDbMText
 10
728.7950254256384
 20
655.5860851750585
 30
0.0
 40
25.0
 41
0.0
 71
     5
 72
     1
  1
15
 11
0.0000000000000001
 21
1.0
 31
0.0
 73
     1
 44
1.0
1001
ACAD
1000
MTEXTBEGIN
1070
    73
1070
     1
1070
    44
1040
1.0
1070
    74
1070
     0
1000
MTEXTEND
  0
INSERT
  5
1C6A
330
42E
100
AcDbEntity
  8
0
 62
     0
370
    15
100
AcDbBlockReference
  2
_DotSmall
 10
754.8527775173043
 20
610.8166225200031
 30
0.0
 41
30.0
 42
30.0
 43
30.0
 50
270.0
  0
INSERT
  5
1C6B
330
42E
100
AcDbEntity
  8
0
 62
     0
370
    15
100
AcDbBlockReference
  2
_DotSmall
 10
754.8527775173043
 20
625.8166225200032
 30
0.0
 41
30.0
 42
30.0
 43
30.0
 50
90.0
  0
POINT
  5
1C6C
330
42E
100
AcDbEntity
  8
Defpoints
 62
     0
100
AcDbPoint
 10
867.5107194732063
 20
610.816622520003
 30
0.0
  0
POINT
  5
1C6D
330
42E
100
AcDbEntity
  8
Defpoints
 62
     0
100
AcDbPoint
 10
867.5107194732063
 20
625.8166225200031
 30
0.0
  0
POINT
  5
1C6E
330
42E
100
AcDbEntity
  8
Defpoints
 62
     0
100
AcDbPoint
 10
754.8527775173043
 20
625.8166225200032
 30
0.0
  0
ENDBLK
  5
43A
330
42E
100
AcDbEntity
  8
0
100
AcDbBlockEnd
  0
BLOCK
  5
46F
330
465
100
AcDbEntity
  8
0
100
AcDbBlockBegin
  2
*D15
 70
     1
 10
0.0
 20
0.0
 30
0.0
  3
*D15
  1

  0
LINE
  5
1C14
330
465
100
AcDbEntity
  8
0
 62
     0
370
    15
100
AcDbLine
 10
802.5107194732063
 20
625.8166225200031
 30
0.0
 11
676.2205610848032
 21
625.8166225200032
 31
0.0
  0
LINE
  5
1C15
330
465
100
AcDbEntity
  8
0
 62
     0
370
    15
100
AcDbLine
 10
802.5107194732065
 20
435.8166225200031
 30
0.0
 11
676.2205610848032
 21
435.8166225200031
 31
0.0
  0
LINE
  5
1C16
330
465
100
AcDbEntity
  8
0
 62
     0
370
    15
100
AcDbLine
 10
676.2205610848032
 20
625.8166225200032
 30
0.0
 11
676.2205610848032
 21
435.8166225200031
 31
0.0
  0
INSERT
  5
1C17
330
465
100
AcDbEntity
  8
0
 62
     0
370
    15
100
AcDbBlockReference
  2
_DotSmall
 10
676.2205610848032
 20
625.8166225200032
 30
0.0
 41
30.0
 42
30.0
 43
30.0
 50
90.0
  0
INSERT
  5
1C18
330
465
100
AcDbEntity
  8
0
 62
     0
370
    15
100
AcDbBlockReference
  2
_DotSmall
 10
676.2205610848032
 20
435.8166225200031
 30
0.0
 41
30.0
 42
30.0
 43
30.0
 50
270.0
  0
MTEXT
  5
1C19
330
465
100
AcDbEntity
  8
0
 62
     0
100
AcDbMText
 10
657.470561084803
 20
530.8166225200032
 30
0.0
 40
25.0
 41
0.0
 71
     5
 72
     1
  1
190
 11
0.0000000000000001
 21
1.0
 31
0.0
 73
     1
 44
1.0
1001
ACAD
1000
MTEXTBEGIN
1070
    73
1070
     1
1070
    44
1040
1.0
1070
    74
1070
     0
1000
MTEXTEND
  0
POINT
  5
1C1A
330
465
100
AcDbEntity
  8
Defpoints
 62
     0
100
AcDbPoint
 10
867.5107194732063
 20
625.8166225200031
 30
0.0
  0
POINT
  5
1C1B
330
465
100
AcDbEntity
  8
Defpoints
 62
     0
100
AcDbPoint
 10
867.5107194732065
 20
435.8166225200031
 30
0.0
  0
POINT
  5
1C1C
330
465
100
AcDbEntity
  8
Defpoints
 62
     0
100
AcDbPoint
 10
676.2205610848032
 20
435.8166225200031
 30
0.0
  0
ENDBLK
  5
470
330
465
100
AcDbEntity
  8
0
100
AcDbBlockEnd
  0
BLOCK
  5
E07
330
DFB
100
AcDbEntity
  8
0
100
AcDbBlockBegin
  2
*D16
 70
     1
 10
0.0
 20
0.0
 30
0.0
  3
*D16
  1

  0
LINE
  5
1BF9
330
DFB
100
AcDbEntity
  8
実形
 62
     0
370
    15
100
AcDbLine
 10
889.5107194732053
 20
888.2546031975426
 30
0.0
 11
889.5107194732053
 21
849.3468314028259
 31
0.0
  0
LINE
  5
1BFA
330
DFB
100
AcDbEntity
  8
実形
 62
     0
370
    15
100
AcDbLine
 10
854.5107194732052
 20
888.2546031975426
 30
0.0
 11
854.5107194732052
 21
849.3468314028259
 31
0.0
  0
LINE
  5
1BFB
330
DFB
100
AcDbEntity
  8
実形
 62
     0
370
    15
100
AcDbLine
 10
889.5107194732053
 20
849.3468314028259
 30
0.0
 11
854.5107194732052
 21
849.3468314028259
 31
0.0
  0
MTEXT
  5
1BFC
330
DFB
100
AcDbEntity
  8
実形
 62
     0
100
AcDbMText
 10
918.3352548357269
 20
868.532758828911
 30
0.0
 40
25.0
 41
0.0
 71
     5
 72
     1
  1
35
 73
     1
 44
1.0
1001
ACAD
1000
MTEXTBEGIN
1070
    73
1070
     1
1070
    44
1040
1.0
1070
    74
1070
     0
1000
MTEXTEND
  0
INSERT
  5
1BFD
330
DFB
100
AcDbEntity
  8
実形
 62
     0
370
    15
100
AcDbBlockReference
  2
_DotSmall
 10
889.5107194732053
 20
849.3468314028259
 30
0.0
 41
30.0
 42
30.0
 43
30.0
  0
INSERT
  5
1BFE
330
DFB
100
AcDbEntity
  8
実形
 62
     0
370
    15
100
AcDbBlockReference
  2
_DotSmall
 10
854.5107194732052
 20
849.3468314028259
 30
0.0
 41
30.0
 42
30.0
 43
30.0
 50
180.0
  0
POINT
  5
1BFF
330
DFB
100
AcDbEntity
  8
Defpoints
 62
     0
100
AcDbPoint
 10
889.5107194732053
 20
953.2546031975426
 30
0.0
  0
POINT
  5
1C00
330
DFB
100
AcDbEntity
  8
Defpoints
 62
     0
100
AcDbPoint
 10
854.5107194732052
 20
953.2546031975426
 30
0.0
  0
POINT
  5
1C01
330
DFB
100
AcDbEntity
  8
Defpoints
 62
     0
100
AcDbPoint
 10
854.5107194732052
 20
849.3468314028259
 30
0.0
  0
ENDBLK
  5
E08
330
DFB
100
AcDbEntity
  8
0
100
AcDbBlockEnd
  0
BLOCK
  5
14D8
330
14CE
100
AcDbEntity
  8
0
100
AcDbBlockBegin
  2
*D17
 70
     1
 10
0.0
 20
0.0
 30
0.0
  3
*D17
  1

  0
LINE
  5
1CA5
330
14CE
100
AcDbEntity
  8
実形
 62
     0
370
    15
100
AcDbLine
 10
1380.010719473206
 20
500.8166225200032
 30
0.0
 11
1380.010719473206
 21
537.9696470579749
 31
0.0
  0
LINE
  5
1CA6
330
14CE
100
AcDbEntity
  8
実形
 62
     0
370
    15
100
AcDbLine
 10
1400.010719473206
 20
500.8166225200036
 30
0.0
 11
1400.010719473206
 21
537.9696470579749
 31
0.0
  0
LINE
  5
1CA7
330
14CE
100
AcDbEntity
  8
実形
 62
     0
370
    15
100
AcDbLine
 10
1380.010719473206
 20
537.9696470579749
 30
0.0
 11
1400.010719473206
 21
537.9696470579749
 31
0.0
  0
MTEXT
  5
1CA8
330
14CE
100
AcDbEntity
  8
実形
 62
     0
100
AcDbMText
 10
1390.850439128374
 20
561.8806557728273
 30
0.0
 40
25.0
 41
0.0
 71
     5
 72
     1
  1
20
 73
     1
 44
1.0
1001
ACAD
1000
MTEXTBEGIN
1070
    73
1070
     1
1070
    44
1040
1.0
1070
    74
1070
     0
1000
MTEXTEND
  0
INSERT
  5
1CA9
330
14CE
100
AcDbEntity
  8
実形
 62
     0
370
    15
100
AcDbBlockReference
  2
_DotSmall
 10
1380.010719473206
 20
537.9696470579749
 30
0.0
 41
30.0
 42
30.0
 43
30.0
 50
180.0
  0
INSERT
  5
1CAA
330
14CE
100
AcDbEntity
  8
実形
 62
     0
370
    15
100
AcDbBlockReference
  2
_DotSmall
 10
1400.010719473206
 20
537.9696470579749
 30
0.0
 41
30.0
 42
30.0
 43
30.0
  0
POINT
  5
1CAB
330
14CE
100
AcDbEntity
  8
Defpoints
 62
     0
100
AcDbPoint
 10
1380.010719473206
 20
435.8166225200031
 30
0.0
  0
POINT
  5
1CAC
330
14CE
100
AcDbEntity
  8
Defpoints
 62
     0
100
AcDbPoint
 10
1400.010719473206
 20
435.8166225200036
 30
0.0
  0
POINT
  5
1CAD
330
14CE
100
AcDbEntity
  8
Defpoints
 62
     0
100
AcDbPoint
 10
1400.010719473206
 20
537.9696470579749
 30
0.0
  0
ENDBLK
  5
14D9
330
14CE
100
AcDbEntity
  8
0
100
AcDbBlockEnd
  0
BLOCK
  5
1539
330
152F
100
AcDbEntity
  8
0
100
AcDbBlockBegin
  2
*D18
 70
     1
 10
0.0
 20
0.0
 30
0.0
  3
*D18
  1

  0
LINE
  5
1C9C
330
152F
100
AcDbEntity
  8
実形
 62
     0
370
    15
100
AcDbLine
 10
1199.010719473206
 20
500.8166225200032
 30
0.0
 11
1199.010719473206
 21
537.9696470579749
 31
0.0
  0
LINE
  5
1C9D
330
152F
100
AcDbEntity
  8
実形
 62
     0
370
    15
100
AcDbLine
 10
1179.010719473206
 20
500.8166225200036
 30
0.0
 11
1179.010719473206
 21
537.9696470579749
 31
0.0
  0
LINE
  5
1C9E
330
152F
100
AcDbEntity
  8
実形
 62
     0
370
    15
100
AcDbLine
 10
1199.010719473206
 20
537.9696470579749
 30
0.0
 11
1179.010719473206
 21
537.9696470579749
 31
0.0
  0
MTEXT
  5
1C9F
330
152F
100
AcDbEntity
  8
実形
 62
     0
100
AcDbMText
 10
1189.460345093715
 20
561.2293360281553
 30
0.0
 40
25.0
 41
0.0
 71
     5
 72
     1
  1
20
 73
     1
 44
1.0
1001
ACAD
1000
MTEXTBEGIN
1070
    73
1070
     1
1070
    44
1040
1.0
1070
    74
1070
     0
1000
MTEXTEND
  0
INSERT
  5
1CA0
330
152F
100
AcDbEntity
  8
実形
 62
     0
370
    15
100
AcDbBlockReference
  2
_DotSmall
 10
1199.010719473206
 20
537.9696470579749
 30
0.0
 41
30.0
 42
30.0
 43
30.0
  0
INSERT
  5
1CA1
330
152F
100
AcDbEntity
  8
実形
 62
     0
370
    15
100
AcDbBlockReference
  2
_DotSmall
 10
1179.010719473206
 20
537.9696470579749
 30
0.0
 41
30.0
 42
30.0
 43
30.0
 50
180.0
  0
POINT
  5
1CA2
330
152F
100
AcDbEntity
  8
Defpoints
 62
     0
100
AcDbPoint
 10
1199.010719473206
 20
435.8166225200031
 30
0.0
  0
POINT
  5
1CA3
330
152F
100
AcDbEntity
  8
Defpoints
 62
     0
100
AcDbPoint
 10
1179.010719473206
 20
435.8166225200036
 30
0.0
  0
POINT
  5
1CA4
330
152F
100
AcDbEntity
  8
Defpoints
 62
     0
100
AcDbPoint
 10
1179.010719473206
 20
537.9696470579749
 30
0.0
  0
ENDBLK
  5
153A
330
152F
100
AcDbEntity
  8
0
100
AcDbBlockEnd
  0
BLOCK
  5
1545
330
153B
100
AcDbEntity
  8
0
100
AcDbBlockBegin
  2
*D19
 70
     1
 10
0.0
 20
0.0
 30
0.0
  3
*D19
  1

  0
LINE
  5
1C93
330
153B
100
AcDbEntity
  8
0
 62
     0
370
    15
100
AcDbLine
 10
1199.010719473206
 20
500.8166225200032
 30
0.0
 11
1199.010719473206
 21
537.9696470579749
 31
0.0
  0
LINE
  5
1C94
330
153B
100
AcDbEntity
  8
0
 62
     0
370
    15
100
AcDbLine
 10
1380.010719473206
 20
500.8166225200032
 30
0.0
 11
1380.010719473206
 21
537.9696470579749
 31
0.0
  0
LINE
  5
1C95
330
153B
100
AcDbEntity
  8
0
 62
     0
370
    15
100
AcDbLine
 10
1199.010719473206
 20
537.9696470579749
 30
0.0
 11
1380.010719473206
 21
537.9696470579749
 31
0.0
  0
INSERT
  5
1C96
330
153B
100
AcDbEntity
  8
0
 62
     0
370
    15
100
AcDbBlockReference
  2
_DotSmall
 10
1199.010719473206
 20
537.9696470579749
 30
0.0
 41
30.0
 42
30.0
 43
30.0
 50
180.0
  0
INSERT
  5
1C97
330
153B
100
AcDbEntity
  8
0
 62
     0
370
    15
100
AcDbBlockReference
  2
_DotSmall
 10
1380.010719473206
 20
537.9696470579749
 30
0.0
 41
30.0
 42
30.0
 43
30.0
  0
MTEXT
  5
1C98
330
153B
100
AcDbEntity
  8
0
 62
     0
100
AcDbMText
 10
1289.510719473206
 20
556.7196470579749
 30
0.0
 40
25.0
 41
0.0
 71
     5
 72
     1
  1
181
 73
     1
 44
1.0
1001
ACAD
1000
MTEXTBEGIN
1070
    73
1070
     1
1070
    44
1040
1.0
1070
    74
1070
     0
1000
MTEXTEND
  0
POINT
  5
1C99
330
153B
100
AcDbEntity
  8
Defpoints
 62
     0
100
AcDbPoint
 10
1199.010719473206
 20
435.8166225200031
 30
0.0
  0
POINT
  5
1C9A
330
153B
100
AcDbEntity
  8
Defpoints
 62
     0
100
AcDbPoint
 10
1380.010719473206
 20
435.8166225200031
 30
0.0
  0
POINT
  5
1C9B
330
153B
100
AcDbEntity
  8
Defpoints
 62
     0
100
AcDbPoint
 10
1380.010719473206
 20
537.9696470579749
 30
0.0
  0
ENDBLK
  5
1546
330
153B
100
AcDbEntity
  8
0
100
AcDbBlockEnd
  0
BLOCK
  5
1551
330
1547
100
AcDbEntity
  8
0
100
AcDbBlockBegin
  2
*D20
 70
     1
 10
0.0
 20
0.0
 30
0.0
  3
*D20
  1

  0
LINE
  5
1C26
330
1547
100
AcDbEntity
  8
実形
 62
     0
370
    15
100
AcDbLine
 10
807.5107194732064
 20
455.8166225200036
 30
0.0
 11
761.4909509503245
 21
455.8166225200036
 31
0.0
  0
LINE
  5
1C27
330
1547
100
AcDbEntity
  8
実形
 62
     0
370
    15
100
AcDbLine
 10
807.5107194732064
 20
428.8166225200032
 30
0.0
 11
761.4909509503245
 21
428.8166225200032
 31
0.0
  0
LINE
  5
1C28
330
1547
100
AcDbEntity
  8
実形
 62
     0
370
    15
100
AcDbLine
 10
761.4909509503245
 20
455.8166225200036
 30
0.0
 11
761.4909509503245
 21
428.8166225200032
 31
0.0
  0
MTEXT
  5
1C29
330
1547
100
AcDbEntity
  8
実形
 62
     0
100
AcDbMText
 10
778.2700783208024
 20
411.249404284252
 30
0.0
 40
25.0
 41
0.0
 71
     5
 72
     1
  1
7
 11
0.0000000000000001
 21
1.0
 31
0.0
 73
     1
 44
1.0
1001
ACAD
1000
MTEXTBEGIN
1070
    73
1070
     1
1070
    44
1040
1.0
1070
    74
1070
     0
1000
MTEXTEND
  0
INSERT
  5
1C2A
330
1547
100
AcDbEntity
  8
実形
 62
     0
370
    15
100
AcDbBlockReference
  2
_DotSmall
 10
761.4909509503245
 20
455.8166225200036
 30
0.0
 41
30.0
 42
30.0
 43
30.0
 50
90.0
  0
INSERT
  5
1C2B
330
1547
100
AcDbEntity
  8
実形
 62
     0
370
    15
100
AcDbBlockReference
  2
_DotSmall
 10
761.4909509503245
 20
428.8166225200032
 30
0.0
 41
30.0
 42
30.0
 43
30.0
 50
270.0
  0
POINT
  5
1C2C
330
1547
100
AcDbEntity
  8
Defpoints
 62
     0
100
AcDbPoint
 10
872.5107194732062
 20
455.8166225200036
 30
0.0
  0
POINT
  5
1C2D
330
1547
100
AcDbEntity
  8
Defpoints
 62
     0
100
AcDbPoint
 10
872.5107194732062
 20
428.8166225200032
 30
0.0
  0
POINT
  5
1C2E
330
1547
100
AcDbEntity
  8
Defpoints
 62
     0
100
AcDbPoint
 10
761.4909509503245
 20
428.8166225200032
 30
0.0
  0
ENDBLK
  5
1552
330
1547
100
AcDbEntity
  8
0
100
AcDbBlockEnd
  0
BLOCK
  5
155D
330
1553
100
AcDbEntity
  8
0
100
AcDbBlockBegin
  2
*D21
 70
     1
 10
0.0
 20
0.0
 30
0.0
  3
*D21
  1

  0
LINE
  5
1C1D
330
1553
100
AcDbEntity
  8
0
 62
     0
370
    15
100
AcDbLine
 10
807.5107194732064
 20
455.8166225200036
 30
0.0
 11
761.4909509503245
 21
455.8166225200036
 31
0.0
  0
LINE
  5
1C1E
330
1553
100
AcDbEntity
  8
0
 62
     0
370
    15
100
AcDbLine
 10
807.5107194732058
 20
435.8166225200036
 30
0.0
 11
761.4909509503245
 21
435.8166225200036
 31
0.0
  0
LINE
  5
1C1F
330
1553
100
AcDbEntity
  8
0
 62
     0
370
    15
100
AcDbLine
 10
761.4909509503245
 20
455.8166225200036
 30
0.0
 11
761.4909509503245
 21
435.8166225200036
 31
0.0
  0
MTEXT
  5
1C20
330
1553
100
AcDbEntity
  8
0
 62
     0
100
AcDbMText
 10
781.5096195730498
 20
481.8248638542102
 30
0.0
 40
25.0
 41
0.0
 71
     5
 72
     1
  1
20
 11
0.0000000000000001
 21
1.0
 31
0.0
 73
     1
 44
1.0
1001
ACAD
1000
MTEXTBEGIN
1070
    73
1070
     1
1070
    44
1040
1.0
1070
    74
1070
     0
1000
MTEXTEND
  0
INSERT
  5
1C21
330
1553
100
AcDbEntity
  8
0
 62
     0
370
    15
100
AcDbBlockReference
  2
_DotSmall
 10
761.4909509503245
 20
455.8166225200036
 30
0.0
 41
30.0
 42
30.0
 43
30.0
 50
90.0
  0
INSERT
  5
1C22
330
1553
100
AcDbEntity
  8
0
 62
     0
370
    15
100
AcDbBlockReference
  2
_DotSmall
 10
761.4909509503245
 20
435.8166225200036
 30
0.0
 41
30.0
 42
30.0
 43
30.0
 50
270.0
  0
POINT
  5
1C23
330
1553
100
AcDbEntity
  8
Defpoints
 62
     0
100
AcDbPoint
 10
872.5107194732062
 20
455.8166225200036
 30
0.0
  0
POINT
  5
1C24
330
1553
100
AcDbEntity
  8
Defpoints
 62
     0
100
AcDbPoint
 10
872.5107194732059
 20
435.8166225200036
 30
0.0
  0
POINT
  5
1C25
330
1553
100
AcDbEntity
  8
Defpoints
 62
     0
100
AcDbPoint
 10
761.4909509503245
 20
435.8166225200036
 30
0.0
  0
ENDBLK
  5
155E
330
1553
100
AcDbEntity
  8
0
100
AcDbBlockEnd
  0
BLOCK
  5
1569
330
155F
100
AcDbEntity
  8
0
100
AcDbBlockBegin
  2
*D22
 70
     1
 10
0.0
 20
0.0
 30
0.0
  3
*D22
  1

  0
LINE
  5
1DC5
330
155F
100
AcDbEntity
  8
0
 62
     0
370
    15
100
AcDbLine
 10
1210.010719473206
 20
363.8166225200032
 30
0.0
 11
1210.010719473206
 21
307.4221478219881
 31
0.0
  0
LINE
  5
1DC6
330
155F
100
AcDbEntity
  8
0
 62
     0
370
    15
100
AcDbLine
 10
1369.010719473206
 20
363.8166225200036
 30
0.0
 11
1369.010719473206
 21
307.4221478219881
 31
0.0
  0
LINE
  5
1DC7
330
155F
100
AcDbEntity
  8
0
 62
     0
370
    15
100
AcDbLine
 10
1210.010719473206
 20
307.4221478219881
 30
0.0
 11
1369.010719473206
 21
307.4221478219881
 31
0.0
  0
INSERT
  5
1DC8
330
155F
100
AcDbEntity
  8
0
 62
     0
370
    15
100
AcDbBlockReference
  2
_DotSmall
 10
1210.010719473206
 20
307.4221478219881
 30
0.0
 41
30.0
 42
30.0
 43
30.0
 50
180.0
  0
INSERT
  5
1DC9
330
155F
100
AcDbEntity
  8
0
 62
     0
370
    15
100
AcDbBlockReference
  2
_DotSmall
 10
1369.010719473206
 20
307.4221478219881
 30
0.0
 41
30.0
 42
30.0
 43
30.0
  0
MTEXT
  5
1DCA
330
155F
100
AcDbEntity
  8
0
 62
     0
100
AcDbMText
 10
1289.510719473206
 20
326.1721478219881
 30
0.0
 40
25.0
 41
0.0
 71
     5
 72
     1
  1
158
 73
     1
 44
1.0
1001
ACAD
1000
MTEXTBEGIN
1070
    73
1070
     1
1070
    44
1040
1.0
1070
    74
1070
     0
1000
MTEXTEND
  0
POINT
  5
1DCB
330
155F
100
AcDbEntity
  8
Defpoints
 62
     0
100
AcDbPoint
 10
1210.010719473206
 20
428.8166225200032
 30
0.0
  0
POINT
  5
1DCC
330
155F
100
AcDbEntity
  8
Defpoints
 62
     0
100
AcDbPoint
 10
1369.010719473206
 20
428.8166225200036
 30
0.0
  0
POINT
  5
1DCD
330
155F
100
AcDbEntity
  8
Defpoints
 62
     0
100
AcDbPoint
 10
1369.010719473206
 20
307.4221478219881
 30
0.0
  0
ENDBLK
  5
156A
330
155F
100
AcDbEntity
  8
0
100
AcDbBlockEnd
  0
BLOCK
  5
171F
330
1715
100
AcDbEntity
  8
0
100
AcDbBlockBegin
  2
*D23
 70
     1
 10
0.0
 20
0.0
 30
0.0
  3
*D23
  1

  0
LINE
  5
1C2F
330
1715
100
AcDbEntity
  8
実形
 62
     0
370
    15
100
AcDbLine
 10
789.5107194732053
 20
1433.254603197543
 30
0.0
 11
751.8347692323442
 21
1433.254603197543
 31
0.0
  0
LINE
  5
1C30
330
1715
100
AcDbEntity
  8
実形
 62
     0
370
    15
100
AcDbLine
 10
789.5107194732054
 20
1218.254603197543
 30
0.0
 11
751.8347692323441
 21
1218.254603197543
 31
0.0
  0
LINE
  5
1C31
330
1715
100
AcDbEntity
  8
実形
 62
     0
370
    15
100
AcDbLine
 10
751.8347692323442
 20
1433.254603197543
 30
0.0
 11
751.8347692323441
 21
1218.254603197543
 31
0.0
  0
INSERT
  5
1C32
330
1715
100
AcDbEntity
  8
実形
 62
     0
370
    15
100
AcDbBlockReference
  2
_DotSmall
 10
751.8347692323442
 20
1433.254603197543
 30
0.0
 41
30.0
 42
30.0
 43
30.0
 50
90.0
  0
INSERT
  5
1C33
330
1715
100
AcDbEntity
  8
実形
 62
     0
370
    15
100
AcDbBlockReference
  2
_DotSmall
 10
751.8347692323441
 20
1218.254603197543
 30
0.0
 41
30.0
 42
30.0
 43
30.0
 50
270.0
  0
MTEXT
  5
1C34
330
1715
100
AcDbEntity
  8
実形
 62
     0
100
AcDbMText
 10
733.0847692323439
 20
1325.754603197543
 30
0.0
 40
25.0
 41
0.0
 71
     5
 72
     1
  1
215
 11
0.0000000000000001
 21
1.0
 31
0.0
 73
     1
 44
1.0
1001
ACAD
1000
MTEXTBEGIN
1070
    73
1070
     1
1070
    44
1040
1.0
1070
    74
1070
     0
1000
MTEXTEND
  0
POINT
  5
1C35
330
1715
100
AcDbEntity
  8
Defpoints
 62
     0
100
AcDbPoint
 10
854.5107194732052
 20
1433.254603197543
 30
0.0
  0
POINT
  5
1C36
330
1715
100
AcDbEntity
  8
Defpoints
 62
     0
100
AcDbPoint
 10
854.5107194732054
 20
1218.254603197543
 30
0.0
  0
POINT
  5
1C37
330
1715
100
AcDbEntity
  8
Defpoints
 62
     0
100
AcDbPoint
 10
751.8347692323441
 20
1218.254603197543
 30
0.0
  0
ENDBLK
  5
1720
330
1715
100
AcDbEntity
  8
0
100
AcDbBlockEnd
  0
BLOCK
  5
1961
330
1957
100
AcDbEntity
  8
0
100
AcDbBlockBegin
  2
*D24
 70
     1
 10
0.0
 20
0.0
 30
0.0
  3
*D24
  1

  0
LINE
  5
1BE7
330
1957
100
AcDbEntity
  8
実形
 62
     0
370
    15
100
AcDbLine
 10
1119.510719473205
 20
1568.254603197543
 30
0.0
 11
1119.510719473205
 21
1592.681495128561
 31
0.0
  0
LINE
  5
1BE8
330
1957
100
AcDbEntity
  8
実形
 62
     0
370
    15
100
AcDbLine
 10
929.5107194732052
 20
1568.254603197543
 30
0.0
 11
929.5107194732052
 21
1592.681495128561
 31
0.0
  0
LINE
  5
1BE9
330
1957
100
AcDbEntity
  8
実形
 62
     0
370
    15
100
AcDbLine
 10
1119.510719473205
 20
1592.681495128561
 30
0.0
 11
929.5107194732052
 21
1592.681495128561
 31
0.0
  0
INSERT
  5
1BEA
330
1957
100
AcDbEntity
  8
実形
 62
     0
370
    15
100
AcDbBlockReference
  2
_DotSmall
 10
1119.510719473205
 20
1592.681495128561
 30
0.0
 41
30.0
 42
30.0
 43
30.0
  0
INSERT
  5
1BEB
330
1957
100
AcDbEntity
  8
実形
 62
     0
370
    15
100
AcDbBlockReference
  2
_DotSmall
 10
929.5107194732052
 20
1592.681495128561
 30
0.0
 41
30.0
 42
30.0
 43
30.0
 50
180.0
  0
MTEXT
  5
1BEC
330
1957
100
AcDbEntity
  8
実形
 62
     0
100
AcDbMText
 10
1024.510719473205
 20
1611.431495128561
 30
0.0
 40
25.0
 41
0.0
 71
     5
 72
     1
  1
190
 73
     1
 44
1.0
1001
ACAD
1000
MTEXTBEGIN
1070
    73
1070
     1
1070
    44
1040
1.0
1070
    74
1070
     0
1000
MTEXTEND
  0
POINT
  5
1BED
330
1957
100
AcDbEntity
  8
Defpoints
 62
     0
100
AcDbPoint
 10
1119.510719473205
 20
1503.254603197543
 30
0.0
  0
POINT
  5
1BEE
330
1957
100
AcDbEntity
  8
Defpoints
 62
     0
100
AcDbPoint
 10
929.5107194732052
 20
1503.254603197543
 30
0.0
  0
POINT
  5
1BEF
330
1957
100
AcDbEntity
  8
Defpoints
 62
     0
100
AcDbPoint
 10
929.5107194732052
 20
1592.681495128561
 30
0.0
  0
ENDBLK
  5
1962
330
1957
100
AcDbEntity
  8
0
100
AcDbBlockEnd
  0
BLOCK
  5
196D
330
1963
100
AcDbEntity
  8
0
100
AcDbBlockBegin
  2
*D25
 70
     1
 10
0.0
 20
0.0
 30
0.0
  3
*D25
  1

  0
LINE
  5
1CAE
330
1963
100
AcDbEntity
  8
0
 62
     0
370
    15
100
AcDbLine
 10
1162.95043571752
 20
1338.254603197543
 30
0.0
 11
1129.103217198767
 21
1338.254603197543
 31
0.0
  0
LINE
  5
1CAF
330
1963
100
AcDbEntity
  8
0
 62
     0
370
    15
100
AcDbLine
 10
1414.510719473206
 20
1508.254603197543
 30
0.0
 11
1129.103217198767
 21
1508.254603197543
 31
0.0
  0
LINE
  5
1CB0
330
1963
100
AcDbEntity
  8
0
 62
     0
370
    15
100
AcDbLine
 10
1129.103217198767
 20
1338.254603197543
 30
0.0
 11
1129.103217198767
 21
1508.254603197543
 31
0.0
  0
INSERT
  5
1CB1
330
1963
100
AcDbEntity
  8
0
 62
     0
370
    15
100
AcDbBlockReference
  2
_DotSmall
 10
1129.103217198767
 20
1338.254603197543
 30
0.0
 41
30.0
 42
30.0
 43
30.0
 50
270.0
  0
INSERT
  5
1CB2
330
1963
100
AcDbEntity
  8
0
 62
     0
370
    15
100
AcDbBlockReference
  2
_DotSmall
 10
1129.103217198767
 20
1508.254603197543
 30
0.0
 41
30.0
 42
30.0
 43
30.0
 50
90.0
  0
MTEXT
  5
1CB3
330
1963
100
AcDbEntity
  8
0
 62
     0
100
AcDbMText
 10
1110.353217198767
 20
1391.80499744867
 30
0.0
 40
25.0
 41
0.0
 71
     5
 72
     1
  1
170
 11
0.0000000000000001
 21
1.0
 31
0.0
 73
     1
 44
1.0
1001
ACAD
1000
MTEXTBEGIN
1070
    73
1070
     1
1070
    44
1040
1.0
1070
    74
1070
     0
1000
MTEXTEND
  0
POINT
  5
1CB4
330
1963
100
AcDbEntity
  8
Defpoints
 62
     0
100
AcDbPoint
 10
1227.95043571752
 20
1338.254603197543
 30
0.0
  0
POINT
  5
1CB5
330
1963
100
AcDbEntity
  8
Defpoints
 62
     0
100
AcDbPoint
 10
1479.510719473205
 20
1508.254603197543
 30
0.0
  0
POINT
  5
1CB6
330
1963
100
AcDbEntity
  8
Defpoints
 62
     0
100
AcDbPoint
 10
1129.103217198767
 20
1508.254603197543
 30
0.0
  0
ENDBLK
  5
196E
330
1963
100
AcDbEntity
  8
0
100
AcDbBlockEnd
  0
BLOCK
  5
1979
330
196F
100
AcDbEntity
  8
0
100
AcDbBlockBegin
  2
*D26
 70
     1
 10
0.0
 20
0.0
 30
0.0
  3
*D26
  1

  0
LINE
  5
1BF0
330
196F
100
AcDbEntity
  8
実形
 62
     0
370
    15
100
AcDbLine
 10
929.5107194732052
 20
1568.254603197543
 30
0.0
 11
929.5107194732052
 21
1592.681495128561
 31
0.0
  0
LINE
  5
1BF1
330
196F
100
AcDbEntity
  8
実形
 62
     0
370
    15
100
AcDbLine
 10
889.5107194732057
 20
1568.254603197543
 30
0.0
 11
889.5107194732057
 21
1592.681495128561
 31
0.0
  0
LINE
  5
1BF2
330
196F
100
AcDbEntity
  8
実形
 62
     0
370
    15
100
AcDbLine
 10
929.5107194732052
 20
1592.681495128561
 30
0.0
 11
889.5107194732057
 21
1592.681495128561
 31
0.0
  0
MTEXT
  5
1BF3
330
196F
100
AcDbEntity
  8
実形
 62
     0
100
AcDbMText
 10
911.061612352308
 20
1612.206920303477
 30
0.0
 40
25.0
 41
0.0
 71
     5
 72
     1
  1
40
 73
     1
 44
1.0
1001
ACAD
1000
MTEXTBEGIN
1070
    73
1070
     1
1070
    44
1040
1.0
1070
    74
1070
     0
1000
MTEXTEND
  0
INSERT
  5
1BF4
330
196F
100
AcDbEntity
  8
実形
 62
     0
370
    15
100
AcDbBlockReference
  2
_DotSmall
 10
929.5107194732052
 20
1592.681495128561
 30
0.0
 41
30.0
 42
30.0
 43
30.0
  0
INSERT
  5
1BF5
330
196F
100
AcDbEntity
  8
実形
 62
     0
370
    15
100
AcDbBlockReference
  2
_DotSmall
 10
889.5107194732057
 20
1592.681495128561
 30
0.0
 41
30.0
 42
30.0
 43
30.0
 50
180.0
  0
POINT
  5
1BF6
330
196F
100
AcDbEntity
  8
Defpoints
 62
     0
100
AcDbPoint
 10
929.5107194732052
 20
1503.254603197543
 30
0.0
  0
POINT
  5
1BF7
330
196F
100
AcDbEntity
  8
Defpoints
 62
     0
100
AcDbPoint
 10
889.5107194732057
 20
1503.254603197543
 30
0.0
  0
POINT
  5
1BF8
330
196F
100
AcDbEntity
  8
Defpoints
 62
     0
100
AcDbPoint
 10
889.5107194732057
 20
1592.681495128561
 30
0.0
  0
ENDBLK
  5
197A
330
196F
100
AcDbEntity
  8
0
100
AcDbBlockEnd
  0
BLOCK
  5
1985
330
197B
100
AcDbEntity
  8
0
100
AcDbBlockBegin
  2
*D27
 70
     1
 10
0.0
 20
0.0
 30
0.0
  3
*D27
  1

  0
LINE
  5
1CB7
330
197B
100
AcDbEntity
  8
0
 62
     0
370
    15
100
AcDbLine
 10
1289.510719473206
 20
1234.997515006764
 30
0.0
 11
1289.510719473206
 21
1140.717525255328
 31
0.0
  0
LINE
  5
1CB8
330
197B
100
AcDbEntity
  8
0
 62
     0
370
    15
100
AcDbLine
 10
1539.510719473206
 20
1253.254603197543
 30
0.0
 11
1539.510719473206
 21
1140.717525255328
 31
0.0
  0
LINE
  5
1CB9
330
197B
100
AcDbEntity
  8
0
 62
     0
370
    15
100
AcDbLine
 10
1289.510719473206
 20
1140.717525255328
 30
0.0
 11
1539.510719473206
 21
1140.717525255328
 31
0.0
  0
INSERT
  5
1CBA
330
197B
100
AcDbEntity
  8
0
 62
     0
370
    15
100
AcDbBlockReference
  2
_DotSmall
 10
1289.510719473206
 20
1140.717525255328
 30
0.0
 41
30.0
 42
30.0
 43
30.0
 50
180.0
  0
INSERT
  5
1CBB
330
197B
100
AcDbEntity
  8
0
 62
     0
370
    15
100
AcDbBlockReference
  2
_DotSmall
 10
1539.510719473206
 20
1140.717525255328
 30
0.0
 41
30.0
 42
30.0
 43
30.0
  0
MTEXT
  5
1CBC
330
197B
100
AcDbEntity
  8
0
 62
     0
100
AcDbMText
 10
1414.510719473206
 20
1159.467525255328
 30
0.0
 40
25.0
 41
0.0
 71
     5
 72
     1
  1
250
 73
     1
 44
1.0
1001
ACAD
1000
MTEXTBEGIN
1070
    73
1070
     1
1070
    44
1040
1.0
1070
    74
1070
     0
1000
MTEXTEND
  0
POINT
  5
1CBD
330
197B
100
AcDbEntity
  8
Defpoints
 62
     0
100
AcDbPoint
 10
1289.510719473206
 20
1299.997515006764
 30
0.0
  0
POINT
  5
1CBE
330
197B
100
AcDbEntity
  8
Defpoints
 62
     0
100
AcDbPoint
 10
1539.510719473206
 20
1318.254603197543
 30
0.0
  0
POINT
  5
1CBF
330
197B
100
AcDbEntity
  8
Defpoints
 62
     0
100
AcDbPoint
 10
1539.510719473206
 20
1140.717525255328
 30
0.0
  0
ENDBLK
  5
1986
330
197B
100
AcDbEntity
  8
0
100
AcDbBlockEnd
  0
BLOCK
  5
1991
330
1987
100
AcDbEntity
  8
0
100
AcDbBlockBegin
  2
*D28
 70
     1
 10
0.0
 20
0.0
 30
0.0
  3
*D28
  1

  0
LINE
  5
1D0D
330
1987
100
AcDbEntity
  8
0
 62
     0
370
    15
100
AcDbLine
 10
1402.765655497107
 20
1493.254603197543
 30
0.0
 11
1391.738158901565
 21
1493.254603197543
 31
0.0
  0
LINE
  5
1D0E
330
1987
100
AcDbEntity
  8
0
 62
     0
370
    15
100
AcDbLine
 10
1419.510719473205
 20
1508.254603197543
 30
0.0
 11
1391.738158901565
 21
1508.254603197543
 31
0.0
  0
LINE
  5
1D0F
330
1987
100
AcDbEntity
  8
0
 62
     0
370
    15
100
AcDbLine
 10
1391.738158901565
 20
1493.254603197543
 30
0.0
 11
1391.738158901565
 21
1508.254603197543
 31
0.0
  0
MTEXT
  5
1D10
330
1987
100
AcDbEntity
  8
0
 62
     0
100
AcDbMText
 10
1382.357575308962
 20
1456.933558892796
 30
0.0
 40
25.0
 41
0.0
 71
     5
 72
     1
  1
15
 11
0.0000000000000001
 21
1.0
 31
0.0
 73
     1
 44
1.0
1001
ACAD
1000
MTEXTBEGIN
1070
    73
1070
     1
1070
    44
1040
1.0
1070
    74
1070
     0
1000
MTEXTEND
  0
INSERT
  5
1D11
330
1987
100
AcDbEntity
  8
0
 62
     0
370
    15
100
AcDbBlockReference
  2
_DotSmall
 10
1391.738158901565
 20
1493.254603197543
 30
0.0
 41
30.0
 42
30.0
 43
30.0
 50
270.0
  0
INSERT
  5
1D12
330
1987
100
AcDbEntity
  8
0
 62
     0
370
    15
100
AcDbBlockReference
  2
_DotSmall
 10
1391.738158901565
 20
1508.254603197543
 30
0.0
 41
30.0
 42
30.0
 43
30.0
 50
90.0
  0
POINT
  5
1D13
330
1987
100
AcDbEntity
  8
Defpoints
 62
     0
100
AcDbPoint
 10
1467.765655497107
 20
1493.254603197543
 30
0.0
  0
POINT
  5
1D14
330
1987
100
AcDbEntity
  8
Defpoints
 62
     0
100
AcDbPoint
 10
1484.510719473205
 20
1508.254603197543
 30
0.0
  0
POINT
  5
1D15
330
1987
100
AcDbEntity
  8
Defpoints
 62
     0
100
AcDbPoint
 10
1391.738158901565
 20
1508.254603197543
 30
0.0
  0
ENDBLK
  5
1992
330
1987
100
AcDbEntity
  8
0
100
AcDbBlockEnd
  0
BLOCK
  5
199D
330
1993
100
AcDbEntity
  8
0
100
AcDbBlockBegin
  2
*D29
 70
     1
 10
0.0
 20
0.0
 30
0.0
  3
*D29
  1

  0
LINE
  5
1CC9
330
1993
100
AcDbEntity
  8
0
 62
     0
370
    15
100
AcDbLine
 10
1419.510719473205
 20
1655.254603197543
 30
0.0
 11
1419.510719473205
 21
1674.872450960062
 31
0.0
  0
LINE
  5
1CCA
330
1993
100
AcDbEntity
  8
0
 62
     0
370
    15
100
AcDbLine
 10
1159.510719473205
 20
1655.254603197543
 30
0.0
 11
1159.510719473205
 21
1674.872450960062
 31
0.0
  0
LINE
  5
1CCB
330
1993
100
AcDbEntity
  8
0
 62
     0
370
    15
100
AcDbLine
 10
1419.510719473205
 20
1674.872450960062
 30
0.0
 11
1159.510719473205
 21
1674.872450960062
 31
0.0
  0
INSERT
  5
1CCC
330
1993
100
AcDbEntity
  8
0
 62
     0
370
    15
100
AcDbBlockReference
  2
_DotSmall
 10
1419.510719473205
 20
1674.872450960062
 30
0.0
 41
30.0
 42
30.0
 43
30.0
  0
INSERT
  5
1CCD
330
1993
100
AcDbEntity
  8
0
 62
     0
370
    15
100
AcDbBlockReference
  2
_DotSmall
 10
1159.510719473205
 20
1674.872450960062
 30
0.0
 41
30.0
 42
30.0
 43
30.0
 50
180.0
  0
MTEXT
  5
1CCE
330
1993
100
AcDbEntity
  8
0
 62
     0
100
AcDbMText
 10
1289.510719473206
 20
1693.622450960063
 30
0.0
 40
25.0
 41
0.0
 71
     5
 72
     1
  1
260
 73
     1
 44
1.0
1001
ACAD
1000
MTEXTBEGIN
1070
    73
1070
     1
1070
    44
1040
1.0
1070
    74
1070
     0
1000
MTEXTEND
  0
POINT
  5
1CCF
330
1993
100
AcDbEntity
  8
Defpoints
 62
     0
100
AcDbPoint
 10
1419.510719473205
 20
1590.254603197543
 30
0.0
  0
POINT
  5
1CD0
330
1993
100
AcDbEntity
  8
Defpoints
 62
     0
100
AcDbPoint
 10
1159.510719473205
 20
1590.254603197543
 30
0.0
  0
POINT
  5
1CD1
330
1993
100
AcDbEntity
  8
Defpoints
 62
     0
100
AcDbPoint
 10
1159.510719473205
 20
1674.872450960062
 30
0.0
  0
ENDBLK
  5
199E
330
1993
100
AcDbEntity
  8
0
100
AcDbBlockEnd
  0
BLOCK
  5
19A9
330
199F
100
AcDbEntity
  8
0
100
AcDbBlockBegin
  2
*D30
 70
     1
 10
0.0
 20
0.0
 30
0.0
  3
*D30
  1

  0
LINE
  5
1CD2
330
199F
100
AcDbEntity
  8
0
 62
     0
370
    15
100
AcDbLine
 10
1354.510719473206
 20
1590.254603197543
 30
0.0
 11
1354.510719473206
 21
1620.372559644705
 31
0.0
  0
LINE
  5
1CD3
330
199F
100
AcDbEntity
  8
0
 62
     0
370
    15
100
AcDbLine
 10
1224.510719473206
 20
1590.254603197543
 30
0.0
 11
1224.510719473206
 21
1620.372559644705
 31
0.0
  0
LINE
  5
1CD4
330
199F
100
AcDbEntity
  8
0
 62
     0
370
    15
100
AcDbLine
 10
1354.510719473206
 20
1620.372559644705
 30
0.0
 11
1224.510719473206
 21
1620.372559644705
 31
0.0
  0
INSERT
  5
1CD5
330
199F
100
AcDbEntity
  8
0
 62
     0
370
    15
100
AcDbBlockReference
  2
_DotSmall
 10
1354.510719473206
 20
1620.372559644705
 30
0.0
 41
30.0
 42
30.0
 43
30.0
  0
INSERT
  5
1CD6
330
199F
100
AcDbEntity
  8
0
 62
     0
370
    15
100
AcDbBlockReference
  2
_DotSmall
 10
1224.510719473206
 20
1620.372559644705
 30
0.0
 41
30.0
 42
30.0
 43
30.0
 50
180.0
  0
MTEXT
  5
1CD7
330
199F
100
AcDbEntity
  8
0
 62
     0
100
AcDbMText
 10
1289.510719473206
 20
1639.122559644705
 30
0.0
 40
25.0
 41
0.0
 71
     5
 72
     1
  1
130
 73
     1
 44
1.0
1001
ACAD
1000
MTEXTBEGIN
1070
    73
1070
     1
1070
    44
1040
1.0
1070
    74
1070
     0
1000
MTEXTEND
  0
POINT
  5
1CD8
330
199F
100
AcDbEntity
  8
Defpoints
 62
     0
100
AcDbPoint
 10
1354.510719473206
 20
1525.254603197543
 30
0.0
  0
POINT
  5
1CD9
330
199F
100
AcDbEntity
  8
Defpoints
 62
     0
100
AcDbPoint
 10
1224.510719473206
 20
1525.254603197543
 30
0.0
  0
POINT
  5
1CDA
330
199F
100
AcDbEntity
  8
Defpoints
 62
     0
100
AcDbPoint
 10
1224.510719473206
 20
1620.372559644705
 30
0.0
  0
ENDBLK
  5
19AA
330
199F
100
AcDbEntity
  8
0
100
AcDbBlockEnd
  0
BLOCK
  5
1AA3
330
1A99
100
AcDbEntity
  8
0
100
AcDbBlockBegin
  2
*D31
 70
     1
 10
0.0
 20
0.0
 30
0.0
  3
*D31
  1

  0
LINE
  5
1C81
330
1A99
100
AcDbEntity
  8
実形
 62
     0
370
    15
100
AcDbLine
 10
781.5974023807512
 20
1508.254603197543
 30
0.0
 11
751.6269958531011
 21
1508.254603197543
 31
0.0
  0
LINE
  5
1C82
330
1A99
100
AcDbEntity
  8
実形
 62
     0
370
    15
100
AcDbLine
 10
772.7120078506759
 20
1444.254603197543
 30
0.0
 11
751.6269958531011
 21
1444.254603197543
 31
0.0
  0
LINE
  5
1C83
330
1A99
100
AcDbEntity
  8
実形
 62
     0
370
    15
100
AcDbLine
 10
751.6269958531011
 20
1508.254603197543
 30
0.0
 11
751.6269958531011
 21
1444.254603197543
 31
0.0
  0
MTEXT
  5
1C84
330
1A99
100
AcDbEntity
  8
実形
 62
     0
100
AcDbMText
 10
812.8559217751735
 20
1506.298741007314
 30
0.0
 40
25.0
 41
0.0
 71
     5
 72
     1
  1
5
 11
0.0000000000000001
 21
1.0
 31
0.0
 73
     1
 44
1.0
1001
ACAD
1000
MTEXTBEGIN
1070
    73
1070
     1
1070
    44
1040
1.0
1070
    74
1070
     0
1000
MTEXTEND
  0
INSERT
  5
1C85
330
1A99
100
AcDbEntity
  8
実形
 62
     0
370
    15
100
AcDbBlockReference
  2
_DotSmall
 10
751.6269958531011
 20
1508.254603197543
 30
0.0
 41
30.0
 42
30.0
 43
30.0
 50
90.0
  0
INSERT
  5
1C86
330
1A99
100
AcDbEntity
  8
実形
 62
     0
370
    15
100
AcDbBlockReference
  2
_DotSmall
 10
751.6269958531011
 20
1444.254603197543
 30
0.0
 41
30.0
 42
30.0
 43
30.0
 50
270.0
  0
POINT
  5
1C87
330
1A99
100
AcDbEntity
  8
Defpoints
 62
     0
100
AcDbPoint
 10
846.5974023807511
 20
1508.254603197543
 30
0.0
  0
POINT
  5
1C88
330
1A99
100
AcDbEntity
  8
Defpoints
 62
     0
100
AcDbPoint
 10
837.7120078506759
 20
1444.254603197543
 30
0.0
  0
POINT
  5
1C89
330
1A99
100
AcDbEntity
  8
Defpoints
 62
     0
100
AcDbPoint
 10
751.6269958531011
 20
1444.254603197543
 30
0.0
  0
ENDBLK
  5
1AA4
330
1A99
100
AcDbEntity
  8
0
100
AcDbBlockEnd
  0
BLOCK
  5
1AAF
330
1AA5
100
AcDbEntity
  8
0
100
AcDbBlockBegin
  2
*D32
 70
     1
 10
0.0
 20
0.0
 30
0.0
  3
*D32
  1

  0
LINE
  5
1C78
330
1AA5
100
AcDbEntity
  8
実形
 62
     0
370
    15
100
AcDbLine
 10
792.7148222879678
 20
1503.254603197543
 30
0.0
 11
751.6269958531011
 21
1503.254603197543
 31
0.0
  0
LINE
  5
1C79
330
1AA5
100
AcDbEntity
  8
実形
 62
     0
370
    15
100
AcDbLine
 10
792.7148222879678
 20
1444.254603197543
 30
0.0
 11
751.6269958531011
 21
1444.254603197543
 31
0.0
  0
LINE
  5
1C7A
330
1AA5
100
AcDbEntity
  8
実形
 62
     0
370
    15
100
AcDbLine
 10
751.6269958531011
 20
1503.254603197543
 30
0.0
 11
751.6269958531011
 21
1444.254603197543
 31
0.0
  0
INSERT
  5
1C7B
330
1AA5
100
AcDbEntity
  8
実形
 62
     0
370
    15
100
AcDbBlockReference
  2
_DotSmall
 10
751.6269958531011
 20
1503.254603197543
 30
0.0
 41
30.0
 42
30.0
 43
30.0
 50
90.0
  0
INSERT
  5
1C7C
330
1AA5
100
AcDbEntity
  8
実形
 62
     0
370
    15
100
AcDbBlockReference
  2
_DotSmall
 10
751.6269958531011
 20
1444.254603197543
 30
0.0
 41
30.0
 42
30.0
 43
30.0
 50
270.0
  0
MTEXT
  5
1C7D
330
1AA5
100
AcDbEntity
  8
実形
 62
     0
100
AcDbMText
 10
732.8769958531008
 20
1473.754603197543
 30
0.0
 40
25.0
 41
0.0
 71
     5
 72
     1
  1
59
 11
0.0000000000000001
 21
1.0
 31
0.0
 73
     1
 44
1.0
1001
ACAD
1000
MTEXTBEGIN
1070
    73
1070
     1
1070
    44
1040
1.0
1070
    74
1070
     0
1000
MTEXTEND
  0
POINT
  5
1C7E
330
1AA5
100
AcDbEntity
  8
Defpoints
 62
     0
100
AcDbPoint
 10
792.7148222879678
 20
1503.254603197543
 30
0.0
  0
POINT
  5
1C7F
330
1AA5
100
AcDbEntity
  8
Defpoints
 62
     0
100
AcDbPoint
 10
792.7148222879678
 20
1444.254603197543
 30
0.0
  0
POINT
  5
1C80
330
1AA5
100
AcDbEntity
  8
Defpoints
 62
     0
100
AcDbPoint
 10
751.6269958531011
 20
1444.254603197543
 30
0.0
  0
ENDBLK
  5
1AB0
330
1AA5
100
AcDbEntity
  8
0
100
AcDbBlockEnd
  0
BLOCK
  5
1ABB
330
1AB1
100
AcDbEntity
  8
0
100
AcDbBlockBegin
  2
*D33
 70
     1
 10
0.0
 20
0.0
 30
0.0
  3
*D33
  1

  0
LINE
  5
1BDE
330
1AB1
100
AcDbEntity
  8
実形
 62
     0
370
    15
100
AcDbLine
 10
929.5107194732052
 20
1568.254603197543
 30
0.0
 11
929.5107194732052
 21
1592.681495128561
 31
0.0
  0
LINE
  5
1BDF
330
1AB1
100
AcDbEntity
  8
実形
 62
     0
370
    15
100
AcDbLine
 10
889.5107194732057
 20
1568.254603197543
 30
0.0
 11
889.5107194732057
 21
1592.681495128561
 31
0.0
  0
LINE
  5
1BE0
330
1AB1
100
AcDbEntity
  8
実形
 62
     0
370
    15
100
AcDbLine
 10
929.5107194732052
 20
1592.681495128561
 30
0.0
 11
889.5107194732057
 21
1592.681495128561
 31
0.0
  0
MTEXT
  5
1BE1
330
1AB1
100
AcDbEntity
  8
実形
 62
     0
100
AcDbMText
 10
911.061612352308
 20
1612.206920303477
 30
0.0
 40
25.0
 41
0.0
 71
     5
 72
     1
  1
40
 73
     1
 44
1.0
1001
ACAD
1000
MTEXTBEGIN
1070
    73
1070
     1
1070
    44
1040
1.0
1070
    74
1070
     0
1000
MTEXTEND
  0
INSERT
  5
1BE2
330
1AB1
100
AcDbEntity
  8
実形
 62
     0
370
    15
100
AcDbBlockReference
  2
_DotSmall
 10
929.5107194732052
 20
1592.681495128561
 30
0.0
 41
30.0
 42
30.0
 43
30.0
  0
INSERT
  5
1BE3
330
1AB1
100
AcDbEntity
  8
実形
 62
     0
370
    15
100
AcDbBlockReference
  2
_DotSmall
 10
889.5107194732057
 20
1592.681495128561
 30
0.0
 41
30.0
 42
30.0
 43
30.0
 50
180.0
  0
POINT
  5
1BE4
330
1AB1
100
AcDbEntity
  8
Defpoints
 62
     0
100
AcDbPoint
 10
929.5107194732052
 20
1503.254603197543
 30
0.0
  0
POINT
  5
1BE5
330
1AB1
100
AcDbEntity
  8
Defpoints
 62
     0
100
AcDbPoint
 10
889.5107194732057
 20
1503.254603197543
 30
0.0
  0
POINT
  5
1BE6
330
1AB1
100
AcDbEntity
  8
Defpoints
 62
     0
100
AcDbPoint
 10
889.5107194732057
 20
1592.681495128561
 30
0.0
  0
ENDBLK
  5
1ABC
330
1AB1
100
AcDbEntity
  8
0
100
AcDbBlockEnd
  0
BLOCK
  5
1ECD
330
1EC3
100
AcDbEntity
  8
0
100
AcDbBlockBegin
  2
*D34
 70
     1
 10
0.0
 20
0.0
 30
0.0
  3
*D34
  1

  0
LINE
  5
1EF3
330
1EC3
100
AcDbEntity
  8
0
 62
     0
370
    15
100
AcDbLine
 10
1888.967865434157
 20
1560.754603197542
 30
0.0
 11
1888.967865434157
 21
1598.296985838963
 31
0.0
  0
LINE
  5
1EF4
330
1EC3
100
AcDbEntity
  8
0
 62
     0
370
    15
100
AcDbLine
 10
1903.967865434157
 20
1560.754603197542
 30
0.0
 11
1903.967865434157
 21
1598.296985838963
 31
0.0
  0
LINE
  5
1EF5
330
1EC3
100
AcDbEntity
  8
0
 62
     0
370
    15
100
AcDbLine
 10
1888.967865434157
 20
1598.296985838963
 30
0.0
 11
1903.967865434157
 21
1598.296985838963
 31
0.0
  0
MTEXT
  5
1EF6
330
1EC3
100
AcDbEntity
  8
0
 62
     0
100
AcDbMText
 10
1867.492554886326
 20
1620.308483769963
 30
0.0
 40
25.0
 41
0.0
 71
     5
 72
     1
  1
15
 73
     1
 44
1.0
1001
ACAD
1000
MTEXTBEGIN
1070
    73
1070
     1
1070
    44
1040
1.0
1070
    74
1070
     0
1000
MTEXTEND
  0
INSERT
  5
1EF7
330
1EC3
100
AcDbEntity
  8
0
 62
     0
370
    15
100
AcDbBlockReference
  2
_DotSmall
 10
1888.967865434157
 20
1598.296985838963
 30
0.0
 41
30.0
 42
30.0
 43
30.0
 50
180.0
  0
INSERT
  5
1EF8
330
1EC3
100
AcDbEntity
  8
0
 62
     0
370
    15
100
AcDbBlockReference
  2
_DotSmall
 10
1903.967865434157
 20
1598.296985838963
 30
0.0
 41
30.0
 42
30.0
 43
30.0
  0
POINT
  5
1EF9
330
1EC3
100
AcDbEntity
  8
Defpoints
 62
     0
100
AcDbPoint
 10
1888.967865434157
 20
1495.754603197543
 30
0.0
  0
POINT
  5
1EFA
330
1EC3
100
AcDbEntity
  8
Defpoints
 62
     0
100
AcDbPoint
 10
1903.967865434157
 20
1495.754603197543
 30
0.0
  0
POINT
  5
1EFB
330
1EC3
100
AcDbEntity
  8
Defpoints
 62
     0
100
AcDbPoint
 10
1903.967865434157
 20
1598.296985838963
 30
0.0
  0
ENDBLK
  5
1ECE
330
1EC3
100
AcDbEntity
  8
0
100
AcDbBlockEnd
  0
BLOCK
  5
1ED9
330
1ECF
100
AcDbEntity
  8
0
100
AcDbBlockBegin
  2
*D35
 70
     1
 10
0.0
 20
0.0
 30
0.0
  3
*D35
  1

  0
LINE
  5
1EFC
330
1ECF
100
AcDbEntity
  8
0
 62
     0
370
    15
100
AcDbLine
 10
1903.967865434157
 20
1560.754603197542
 30
0.0
 11
1903.967865434157
 21
1598.296985838963
 31
0.0
  0
LINE
  5
1EFD
330
1ECF
100
AcDbEntity
  8
0
 62
     0
370
    15
100
AcDbLine
 10
2002.967865434158
 20
1560.754603197542
 30
0.0
 11
2002.967865434158
 21
1598.296985838963
 31
0.0
  0
LINE
  5
1EFE
330
1ECF
100
AcDbEntity
  8
0
 62
     0
370
    15
100
AcDbLine
 10
1903.967865434157
 20
1598.296985838963
 30
0.0
 11
2002.967865434158
 21
1598.296985838963
 31
0.0
  0
INSERT
  5
1EFF
330
1ECF
100
AcDbEntity
  8
0
 62
     0
370
    15
100
AcDbBlockReference
  2
_DotSmall
 10
1903.967865434157
 20
1598.296985838963
 30
0.0
 41
30.0
 42
30.0
 43
30.0
 50
180.0
  0
INSERT
  5
1F00
330
1ECF
100
AcDbEntity
  8
0
 62
     0
370
    15
100
AcDbBlockReference
  2
_DotSmall
 10
2002.967865434158
 20
1598.296985838963
 30
0.0
 41
30.0
 42
30.0
 43
30.0
  0
MTEXT
  5
1F01
330
1ECF
100
AcDbEntity
  8
0
 62
     0
100
AcDbMText
 10
1953.467865434157
 20
1617.046985838963
 30
0.0
 40
25.0
 41
0.0
 71
     5
 72
     1
  1
99
 73
     1
 44
1.0
1001
ACAD
1000
MTEXTBEGIN
1070
    73
1070
     1
1070
    44
1040
1.0
1070
    74
1070
     0
1000
MTEXTEND
  0
POINT
  5
1F02
330
1ECF
100
AcDbEntity
  8
Defpoints
 62
     0
100
AcDbPoint
 10
1903.967865434157
 20
1495.754603197543
 30
0.0
  0
POINT
  5
1F03
330
1ECF
100
AcDbEntity
  8
Defpoints
 62
     0
100
AcDbPoint
 10
2002.967865434158
 20
1495.754603197543
 30
0.0
  0
POINT
  5
1F04
330
1ECF
100
AcDbEntity
  8
Defpoints
 62
     0
100
AcDbPoint
 10
2002.967865434158
 20
1598.296985838963
 30
0.0
  0
ENDBLK
  5
1EDA
330
1ECF
100
AcDbEntity
  8
0
100
AcDbBlockEnd
  0
BLOCK
  5
1EE5
330
1EDB
100
AcDbEntity
  8
0
100
AcDbBlockBegin
  2
*D36
 70
     1
 10
0.0
 20
0.0
 30
0.0
  3
*D36
  1

  0
LINE
  5
1F05
330
1EDB
100
AcDbEntity
  8
実形
 62
     0
370
    15
100
AcDbLine
 10
2002.967865434158
 20
1560.754603197542
 30
0.0
 11
2002.967865434158
 21
1598.416958169949
 31
0.0
  0
LINE
  5
1F06
330
1EDB
100
AcDbEntity
  8
実形
 62
     0
370
    15
100
AcDbLine
 10
2022.967865434157
 20
1560.754603197542
 30
0.0
 11
2022.967865434157
 21
1598.416958169949
 31
0.0
  0
LINE
  5
1F07
330
1EDB
100
AcDbEntity
  8
実形
 62
     0
370
    15
100
AcDbLine
 10
2002.967865434158
 20
1598.416958169949
 30
0.0
 11
2022.967865434157
 21
1598.416958169949
 31
0.0
  0
MTEXT
  5
1F08
330
1EDB
100
AcDbEntity
  8
実形
 62
     0
100
AcDbMText
 10
2034.384782572471
 20
1618.155225627317
 30
0.0
 40
25.0
 41
0.0
 71
     5
 72
     1
  1
20
 73
     1
 44
1.0
1001
ACAD
1000
MTEXTBEGIN
1070
    73
1070
     1
1070
    44
1040
1.0
1070
    74
1070
     0
1000
MTEXTEND
  0
INSERT
  5
1F09
330
1EDB
100
AcDbEntity
  8
実形
 62
     0
370
    15
100
AcDbBlockReference
  2
_DotSmall
 10
2002.967865434158
 20
1598.416958169949
 30
0.0
 41
30.0
 42
30.0
 43
30.0
 50
180.0
  0
INSERT
  5
1F0A
330
1EDB
100
AcDbEntity
  8
実形
 62
     0
370
    15
100
AcDbBlockReference
  2
_DotSmall
 10
2022.967865434157
 20
1598.416958169949
 30
0.0
 41
30.0
 42
30.0
 43
30.0
  0
POINT
  5
1F0B
330
1EDB
100
AcDbEntity
  8
Defpoints
 62
     0
100
AcDbPoint
 10
2002.967865434158
 20
1495.754603197543
 30
0.0
  0
POINT
  5
1F0C
330
1EDB
100
AcDbEntity
  8
Defpoints
 62
     0
100
AcDbPoint
 10
2022.967865434157
 20
1495.754603197543
 30
0.0
  0
POINT
  5
1F0D
330
1EDB
100
AcDbEntity
  8
Defpoints
 62
     0
100
AcDbPoint
 10
2022.967865434157
 20
1598.416958169949
 30
0.0
  0
ENDBLK
  5
1EE6
330
1EDB
100
AcDbEntity
  8
0
100
AcDbBlockEnd
  0
BLOCK
  5
1EF1
330
1EE7
100
AcDbEntity
  8
0
100
AcDbBlockBegin
  2
*D37
 70
     1
 10
0.0
 20
0.0
 30
0.0
  3
*D37
  1

  0
LINE
  5
1F0E
330
1EE7
100
AcDbEntity
  8
実形
 62
     0
370
    15
100
AcDbLine
 10
2087.967865434158
 20
1490.354603197542
 30
0.0
 11
2116.915410235281
 21
1490.354603197542
 31
0.0
  0
LINE
  5
1F0F
330
1EE7
100
AcDbEntity
  8
実形
 62
     0
370
    15
100
AcDbLine
 10
2087.967865434158
 20
1457.154603197543
 30
0.0
 11
2116.915410235281
 21
1457.154603197543
 31
0.0
  0
LINE
  5
1F10
330
1EE7
100
AcDbEntity
  8
実形
 62
     0
370
    15
100
AcDbLine
 10
2116.915410235281
 20
1490.354603197542
 30
0.0
 11
2116.915410235281
 21
1457.154603197543
 31
0.0
  0
MTEXT
  5
1F11
330
1EE7
100
AcDbEntity
  8
実形
 62
     0
100
AcDbMText
 10
2143.617277328336
 20
1472.831662894852
 30
0.0
 40
25.0
 41
0.0
 71
     5
 72
     1
  1
33.2
 11
0.0000000000000001
 21
1.0
 31
0.0
 73
     1
 44
1.0
1001
ACAD
1000
MTEXTBEGIN
1070
    73
1070
     1
1070
    44
1040
1.0
1070
    74
1070
     0
1000
MTEXTEND
  0
INSERT
  5
1F12
330
1EE7
100
AcDbEntity
  8
実形
 62
     0
370
    15
100
AcDbBlockReference
  2
_DotSmall
 10
2116.915410235281
 20
1490.354603197542
 30
0.0
 41
30.0
 42
30.0
 43
30.0
 50
90.0
  0
INSERT
  5
1F13
330
1EE7
100
AcDbEntity
  8
実形
 62
     0
370
    15
100
AcDbBlockReference
  2
_DotSmall
 10
2116.915410235281
 20
1457.154603197543
 30
0.0
 41
30.0
 42
30.0
 43
30.0
 50
270.0
  0
POINT
  5
1F14
330
1EE7
100
AcDbEntity
  8
Defpoints
 62
     0
100
AcDbPoint
 10
2022.967865434157
 20
1490.354603197542
 30
0.0
  0
POINT
  5
1F15
330
1EE7
100
AcDbEntity
  8
Defpoints
 62
     0
100
AcDbPoint
 10
2022.967865434157
 20
1457.154603197543
 30
0.0
  0
POINT
  5
1F16
330
1EE7
100
AcDbEntity
  8
Defpoints
 62
     0
100
AcDbPoint
 10
2116.915410235281
 20
1457.154603197543
 30
0.0
  0
ENDBLK
  5
1EF2
330
1EE7
100
AcDbEntity
  8
0
100
AcDbBlockEnd
  0
ENDSEC
  0
SECTION
  2
ENTITIES
  0
LINE
  5
9C
330
1F
100
AcDbEntity
  8
補助
100
AcDbLine
 10
109.0
 20
4.0
 30
0.0
 11
2784.0
 21
4.0
 31
0.0
  0
LINE
  5
A0
330
1F
100
AcDbEntity
  8
補助
100
AcDbLine
 10
2784.0
 20
2024.0
 30
0.0
 11
109.0
 21
2024.0
 31
0.0
  0
LINE
  5
A5
330
1F
100
AcDbEntity
  8
補助
100
AcDbLine
 10
2784.0
 20
4.0
 30
0.0
 11
2784.0
 21
2024.0
 31
0.0
  0
LINE
  5
A8
330
1F
100
AcDbEntity
  8
補助
100
AcDbLine
 10
2184.0
 20
69.0
 30
0.0
 11
2184.0
 21
199.0
 31
0.0
  0
LINE
  5
A9
330
1F
100
AcDbEntity
  8
補助
100
AcDbLine
 10
2184.0
 20
69.0
 30
0.0
 11
2784.0
 21
69.0
 31
0.0
  0
LINE
  5
AA
330
1F
100
AcDbEntity
  8
補助
100
AcDbLine
 10
2064.0
 20
134.0
 30
0.0
 11
2784.0
 21
134.0
 31
0.0
  0
LINE
  5
AB
330
1F
100
AcDbEntity
  8
補助
100
AcDbLine
 10
2064.0
 20
199.0
 30
0.0
 11
2784.0
 21
199.0
 31
0.0
  0
LINE
  5
AD
330
1F
100
AcDbEntity
  8
補助
100
AcDbLine
 10
2784.0
 20
4.0
 30
0.0
 11
2784.0
 21
69.0
 31
0.0
  0
DIMENSION
  5
270
330
1F
100
AcDbEntity
  8
0
100
AcDbDimension
  2
*D4
 10
687.8335393780535
 20
1003.254603197542
 30
0.0
 11
669.0835393780534
 21
1056.171269864209
 31
0.0
 70
    32
 71
     5
 42
15.0
  3
ISO-25
100
AcDbAlignedDimension
 13
792.5840414949498
 23
988.2546031975426
 33
0.0
 14
792.5840414949498
 24
1003.254603197542
 34
0.0
 50
90.0
100
AcDbRotatedDimension
  0
DIMENSION
  5
27E
330
1F
100
AcDbEntity
  8
0
100
AcDbDimension
  2
*D5
 10
687.8335393780536
 20
1433.254603197542
 30
0.0
 11
669.0835393780534
 21
1218.254603197543
 31
0.0
 70
    32
 71
     5
 42
430.0
  3
ISO-25
100
AcDbAlignedDimension
 13
792.5840414949498
 23
1003.254603197542
 33
0.0
 14
792.5840414949496
 24
1433.254603197542
 34
0.0
 50
90.0
100
AcDbRotatedDimension
1001
ACAD
1000
DSTYLE
1002
{
1070
    42
1040
0.0
1070
   279
1070
     1
1002
}
  0
DIMENSION
  5
28B
330
1F
100
AcDbEntity
  8
0
100
AcDbDimension
  2
*D6
 10
687.8335393780536
 20
1508.254603197542
 30
0.0
 11
669.0835393780534
 21
1470.754603197543
 31
0.0
 70
    32
 71
     5
 42
75.0
  3
ISO-25
100
AcDbAlignedDimension
 13
792.5840414949496
 23
1433.254603197542
 33
0.0
 14
792.5840414949496
 24
1508.254603197542
 34
0.0
 50
90.0
100
AcDbRotatedDimension
1001
ACAD
1000
DSTYLE
1002
{
1070
    42
1040
0.0
1070
   279
1070
     1
1002
}
  0
DIMENSION
  5
298
330
1F
100
AcDbEntity
  8
0
100
AcDbDimension
  2
*D7
 10
615.2051194749211
 20
988.2546031975426
 30
0.0
 11
593.2442089100813
 21
982.3944713635087
 31
0.0
 70
   160
 71
     5
 42
35.0
  3
ISO-25
100
AcDbAlignedDimension
 13
792.5840414949496
 23
953.2546031975426
 33
0.0
 14
792.5840414949498
 24
988.2546031975426
 34
0.0
 50
90.0
100
AcDbRotatedDimension
1001
ACAD
1000
DSTYLE
1002
{
1070
    42
1040
0.0
1070
   279
1070
     2
1002
}
  0
DIMENSION
  5
2A6
330
1F
100
AcDbEntity
  8
0
100
AcDbDimension
  2
*D8
 10
615.2051194749211
 20
1508.254603197542
 30
0.0
 11
596.4551194749209
 21
1248.254603197543
 31
0.0
 70
    32
 71
     5
 42
520.0
  3
ISO-25
100
AcDbAlignedDimension
 13
792.5840414949498
 23
988.2546031975426
 33
0.0
 14
792.5840414949496
 24
1508.254603197542
 34
0.0
 50
90.0
100
AcDbRotatedDimension
1001
ACAD
1000
DSTYLE
1002
{
1070
    42
1040
0.0
1070
   279
1070
     1
1002
}
  0
DIMENSION
  5
2B3
330
1F
100
AcDbEntity
  8
0
100
AcDbDimension
  2
*D9
 10
615.2051194749211
 20
1543.254603197543
 30
0.0
 11
593.2442089100813
 21
1514.622352690542
 31
0.0
 70
   160
 71
     5
 42
35.00000000000046
  3
ISO-25
100
AcDbAlignedDimension
 13
792.5840414949496
 23
1508.254603197542
 33
0.0
 14
792.5840414949496
 24
1543.254603197543
 34
0.0
 50
90.0
100
AcDbRotatedDimension
1001
ACAD
1000
DSTYLE
1002
{
1070
    42
1040
0.0
1070
   279
1070
     2
1002
}
  0
DIMENSION
  5
2DC
330
1F
100
AcDbEntity
  8
0
100
AcDbDimension
  2
*D10
 10
545.7344671056071
 20
1543.254603197543
 30
0.0
 11
526.9844671056069
 21
1248.254603197543
 31
0.0
 70
    32
 71
     5
 42
590.0000000000004
  3
ISO-25
100
AcDbAlignedDimension
 13
792.5840414949496
 23
953.2546031975426
 33
0.0
 14
792.5840414949496
 24
1543.254603197543
 34
0.0
 50
90.0
100
AcDbRotatedDimension
1001
ACAD
1000
DSTYLE
1002
{
1070
    42
1040
0.0
1002
}
  0
DIMENSION
  5
2F7
330
1F
100
AcDbEntity
  8
0
100
AcDbDimension
  2
*D11
 10
1539.510719473205
 20
849.3468314028259
 30
0.0
 11
1214.510719473205
 21
868.0968314028259
 31
0.0
 70
    32
 71
     5
 42
649.9999999999999
  3
ISO-25
100
AcDbAlignedDimension
 13
889.5107194732053
 23
953.2546031975426
 33
0.0
 14
1539.510719473205
 24
953.2546031975423
 34
0.0
100
AcDbRotatedDimension
1001
ACAD
1000
DSTYLE
1002
{
1070
   279
1070
     1
1002
}
  0
DIMENSION
  5
304
330
1F
100
AcDbEntity
  8
0
100
AcDbDimension
  2
*D12
 10
1574.510719473205
 20
849.3468314028259
 30
0.0
 11
1496.052503888749
 21
849.3468314028259
 31
0.0
 70
   160
 71
     5
 42
35.0
  3
ISO-25
100
AcDbAlignedDimension
 13
1539.510719473205
 23
953.2546031975423
 33
0.0
 14
1574.510719473205
 24
953.2546031975426
 34
0.0
100
AcDbRotatedDimension
1001
ACAD
1000
DSTYLE
1002
{
1070
   279
1070
     1
1002
}
  0
DIMENSION
  5
31C
330
1F
100
AcDbEntity
  8
0
100
AcDbDimension
  2
*D13
 10
1574.510719473205
 20
778.988059447619
 30
0.0
 11
1214.510719473205
 21
797.738059447619
 31
0.0
 70
    32
 71
     5
 42
719.9999999999999
  3
ISO-25
100
AcDbAlignedDimension
 13
854.5107194732052
 23
953.2546031975426
 33
0.0
 14
1574.510719473205
 24
953.2546031975426
 34
0.0
100
AcDbRotatedDimension
  0
LINE
  5
407
330
1F
100
AcDbEntity
  8
0
100
AcDbLine
 10
1569.510719473205
 20
625.8166225200032
 30
0.0
 11
859.5107194732058
 21
625.8166225200029
 31
0.0
  0
LINE
  5
40D
330
1F
100
AcDbEntity
  8
0
100
AcDbLine
 10
1539.510719473205
 20
610.816622520003
 30
0.0
 11
889.5107194732059
 21
610.8166225200029
 31
0.0
  0
DIMENSION
  5
42D
330
1F
100
AcDbEntity
  8
0
100
AcDbDimension
  2
*D14
 10
754.8527775173043
 20
625.8166225200032
 30
0.0
 11
728.7950254256384
 21
655.5860851750585
 31
0.0
 70
   160
 71
     5
 42
15.0
  3
ISO-25
100
AcDbAlignedDimension
 13
867.5107194732063
 23
610.816622520003
 33
0.0
 14
867.5107194732063
 24
625.8166225200031
 34
0.0
 50
90.0
100
AcDbRotatedDimension
1001
ACAD
1000
DSTYLE
1002
{
1070
   279
1070
     2
1002
}
  0
DIMENSION
  5
464
330
1F
100
AcDbEntity
  8
0
100
AcDbDimension
  2
*D15
 10
676.2205610848032
 20
435.8166225200031
 30
0.0
 11
657.470561084803
 21
530.8166225200032
 31
0.0
 70
    32
 71
     5
 42
189.9999999999999
  3
ISO-25
100
AcDbAlignedDimension
 13
867.5107194732063
 23
625.8166225200031
 33
0.0
 14
867.5107194732065
 24
435.8166225200031
 34
0.0
 50
90.0
100
AcDbRotatedDimension
  0
LINE
  5
48F
330
1F
100
AcDbEntity
  8
0
100
AcDbLine
 10
1888.967865434157
 20
1543.254603197543
 30
0.0
 11
1888.967865434156
 21
953.2546031975424
 31
0.0
  0
LINE
  5
492
330
1F
100
AcDbEntity
  8
0
100
AcDbLine
 10
1903.967865434157
 20
1508.254603197543
 30
0.0
 11
2048.967865434157
 21
1508.254603197543
 31
0.0
  0
LINE
  5
493
330
1F
100
AcDbEntity
  8
0
100
AcDbLine
 10
1906.967865434157
 20
1433.254603197543
 30
0.0
 11
2048.967865434157
 21
1433.254603197542
 31
0.0
  0
LINE
  5
495
330
1F
100
AcDbEntity
  8
0
100
AcDbLine
 10
1903.967865434156
 20
1003.254603197542
 30
0.0
 11
2040.16977788473
 21
1003.254603197542
 31
0.0
  0
LINE
  5
496
330
1F
100
AcDbEntity
  8
0
100
AcDbLine
 10
1903.967865434157
 20
1000.254603197542
 30
0.0
 11
1903.967865434156
 21
991.2546031975422
 31
0.0
  0
LINE
  5
49A
330
1F
100
AcDbEntity
  8
0
100
AcDbLine
 10
1903.967865434157
 20
1508.254603197542
 30
0.0
 11
1903.967865434157
 21
1436.254603197543
 31
0.0
  0
ARC
  5
49B
330
1F
100
AcDbEntity
  8
0
100
AcDbCircle
 10
1906.967865434157
 20
1436.254603197543
 30
0.0
 40
3.0
100
AcDbArc
 50
179.9999999999999
 51
270.0
  0
LINE
  5
49D
330
1F
100
AcDbEntity
  8
0
100
AcDbLine
 10
1903.967865434157
 20
1436.254603197543
 30
0.0
 11
1903.967865434156
 21
968.2546031975425
 31
0.0
  0
LINE
  5
49E
330
1F
100
AcDbEntity
  8
0
100
AcDbLine
 10
2078.967865434158
 20
1403.254603197543
 30
0.0
 11
2078.967865434157
 21
1247.754603197547
 31
0.0
  0
LINE
  5
4A3
330
1F
100
AcDbEntity
  8
0
100
AcDbLine
 10
2086.967865434157
 20
1417.754603197542
 30
0.0
 11
2086.967865434157
 21
1258.754603197542
 31
0.0
  0
LINE
  5
4A4
330
1F
100
AcDbEntity
  8
0
100
AcDbLine
 10
2078.967865434158
 20
1428.754603197542
 30
0.0
 11
2086.967865434157
 21
1417.754603197542
 31
0.0
  0
LINE
  5
4A5
330
1F
100
AcDbEntity
  8
0
100
AcDbLine
 10
2078.967865434157
 20
1247.754603197542
 30
0.0
 11
2086.967865434157
 21
1258.754603197542
 31
0.0
  0
LINE
  5
4A7
330
1F
100
AcDbEntity
  8
0
100
AcDbLine
 10
2078.967865434157
 20
1247.754603197543
 30
0.0
 11
2070.144717422
 21
1032.028634300312
 31
0.0
  0
ARC
  5
4A9
330
1F
100
AcDbEntity
  8
0
100
AcDbCircle
 10
2048.967865434157
 20
1478.254603197543
 30
0.0
 40
30.0
100
AcDbArc
 50
359.9999999999999
 51
89.99999999999992
  0
ARC
  5
4AA
330
1F
100
AcDbEntity
  8
0
100
AcDbCircle
 10
2040.16977788473
 20
1033.254603197542
 30
0.0
 40
30.0
100
AcDbArc
 50
270.0
 51
357.6579196915298
  0
ARC
  5
4AB
330
1F
100
AcDbEntity
  8
0
100
AcDbCircle
 10
2048.967865434157
 20
1403.254603197543
 30
0.0
 40
30.0
100
AcDbArc
 50
359.9999999999999
 51
89.99999999999992
  0
LINE
  5
4AC
330
1F
100
AcDbEntity
  8
0
100
AcDbLine
 10
2078.967865434158
 20
1478.254603197543
 30
0.0
 11
2078.967865434158
 21
1403.254603197543
 31
0.0
  0
LINE
  5
4AE
330
1F
100
AcDbEntity
  8
Cen
100
AcDbLine
 10
1984.374035653949
 20
1336.379603197542
 30
0.0
 11
2115.028447889272
 21
1336.379603197542
 31
0.0
  0
MTEXT
  5
532
330
1F
100
AcDbEntity
  8
0
100
AcDbMText
 10
1469.226616777811
 20
1181.110374981098
 30
0.0
 40
25.0
 41
0.0
 71
     9
 72
     1
  1

 73
     1
 44
1.0
1001
ACAD
1000
MTEXTBEGIN
1070
    73
1070
     1
1070
    44
1040
1.0
1070
    74
1070
     0
1000
MTEXTEND
  0
MTEXT
  5
55C
330
1F
100
AcDbEntity
  8
0
100
AcDbMText
 10
1010.02660136874
 20
1423.470120422065
 30
0.0
 40
25.0
 41
0.0
 71
     1
 72
     1
  1

 73
     1
 44
1.0
1001
ACAD
1000
MTEXTBEGIN
1070
    73
1070
     1
1070
    44
1040
1.0
1070
    74
1070
     0
1000
MTEXTEND
  0
LINE
  5
56A
330
1F
100
AcDbEntity
  8
補助
100
AcDbLine
 10
2784.0
 20
134.0
 30
0.0
 11
2784.0
 21
199.0
 31
0.0
  0
TEXT
  5
56C
330
1F
100
AcDbEntity
  8
0
100
AcDbText
 10
2209.0
 20
151.5
 30
0.0
 40
30.0
  1
YME720-590S-GRM-POL
 72
     4
 11
2484.0
 21
166.5
 31
0.0
100
AcDbText
  0
MTEXT
  5
5A9
330
1F
100
AcDbEntity
  8
Cen
100
AcDbMText
 10
1527.939315450184
 20
552.4831097022406
 30
0.0
 40
25.0
 41
0.0
 71
     9
 72
     1
  1

 73
     1
 44
1.0
1001
ACAD
1000
MTEXTBEGIN
1070
    73
1070
     1
1070
    44
1040
1.0
1070
    74
1070
     0
1000
MTEXTEND
  0
LINE
  5
5D0
330
1F
100
AcDbEntity
  8
補助
100
AcDbLine
 10
2784.0
 20
69.0
 30
0.0
 11
2784.0
 21
134.0
 31
0.0
  0
TEXT
  5
5D2
330
1F
100
AcDbEntity
  8
0
100
AcDbText
 10
2430.916666666667
 20
84.0
 30
0.0
 40
35.0
  1
1：10
 72
     4
 11
2484.0
 21
101.5
 31
0.0
100
AcDbText
  0
TEXT
  5
5D8
330
1F
100
AcDbEntity
  8
0
100
AcDbText
 10
231.1659029702105
 20
53.51169987015055
 30
0.0
 40
30.0
  1
※実寸には製造上の誤差が多少生ずる場合があります。シンクの穴あけ加工は現物合わせにてお願いします。
100
AcDbText
  0
TEXT
  5
5F4
330
1F
100
AcDbEntity
  8
補助
100
AcDbText
 10
2300.255774665348
 20
16.49999999999999
 30
0.0
 40
40.0
  1
中外交易株式会社
 72
     4
 11
2488.255774665347
 21
36.5
 31
0.0
100
AcDbText
  0
LINE
  5
5F5
330
1F
100
AcDbEntity
  8
補助
100
AcDbLine
 10
2064.0
 20
69.0
 30
0.0
 11
2784.0
 21
69.0
 31
0.0
  0
HATCH
  5
5F6
330
1F
100
AcDbEntity
  8
補助
100
AcDbHatch
 10
0.0
 20
0.0
 30
0.0
210
0.0
220
0.0
230
1.0
  2
SOLID
 70
     1
 71
     1
 91
        3
 92
        1
 93
        4
 72
     2
 10
2257.166198313996
 20
36.5
 40
20.0
 50
11.6477236670766
 51
342.6561058784691
 73
     1
 72
     1
 10
2276.256852341323
 20
30.53787547858514
 11
2252.166198313995
 21
30.53787547858519
 72
     1
 10
2252.166198313995
 20
30.53787547858519
 11
2252.166198313995
 21
40.53787547858519
 72
     1
 10
2252.166198313995
 20
40.53787547858519
 11
2276.75434681301
 21
40.53787547858519
 97
        4
330
5F7
330
5F9
330
5FA
330
5FB
 92
        1
 93
        4
 72
     2
 10
2188.255774665348
 20
36.5
 40
20.0
 50
11.6477236670766
 51
342.6561058784691
 73
     1
 72
     1
 10
2207.346428692676
 20
30.53787547858514
 11
2183.255774665347
 21
30.53787547858519
 72
     1
 10
2183.255774665347
 20
30.53787547858519
 11
2183.255774665347
 21
40.53787547858519
 72
     1
 10
2183.255774665347
 20
40.53787547858519
 11
2207.843923164362
 21
40.53787547858519
 97
        4
330
5F8
330
601
330
602
330
603
 92
        1
 93
        5
 72
     1
 10
2245.64189404294
 20
56.5
 11
2210.641894042939
 21
56.5
 72
     1
 10
2210.641894042939
 20
56.5
 11
2210.641894042939
 21
16.5
 72
     1
 10
2210.641894042939
 20
16.5
 11
2245.64189404294
 21
16.5
 72
     1
 10
2245.64189404294
 20
16.5
 11
2210.641894042939
 21
36.5
 72
     1
 10
2210.641894042939
 20
36.5
 11
2245.64189404294
 21
56.5
 97
        5
330
5FC
330
600
330
5FF
330
5FE
330
5FD
 75
     0
 76
     1
 98
        1
 10
-60.0
 20
0.0
  0
ARC
  5
5F7
102
{ACAD_REACTORS
330
5F6
102
}
330
1F
100
AcDbEntity
  8
補助
370
     5
100
AcDbCircle
 10
2257.166198313996
 20
36.5
 30
0.0
 40
20.0
100
AcDbArc
 50
11.6477236670766
 51
342.6561058784691
  0
ARC
  5
5F8
102
{ACAD_REACTORS
330
5F6
102
}
330
1F
100
AcDbEntity
  8
補助
370
     5
100
AcDbCircle
 10
2188.255774665348
 20
36.5
 30
0.0
 40
20.0
100
AcDbArc
 50
11.6477236670766
 51
342.6561058784691
  0
LINE
  5
5F9
102
{ACAD_REACTORS
330
5F6
102
}
330
1F
100
AcDbEntity
  8
補助
370
     5
100
AcDbLine
 10
2252.166198313995
 20
30.53787547858519
 30
0.0
 11
2276.256852341323
 21
30.53787547858514
 31
0.0
  0
LINE
  5
5FA
102
{ACAD_REACTORS
330
5F6
102
}
330
1F
100
AcDbEntity
  8
補助
370
     5
100
AcDbLine
 10
2252.166198313995
 20
40.53787547858519
 30
0.0
 11
2252.166198313995
 21
30.53787547858519
 31
0.0
  0
LINE
  5
5FB
102
{ACAD_REACTORS
330
5F6
102
}
330
1F
100
AcDbEntity
  8
補助
370
     5
100
AcDbLine
 10
2276.75434681301
 20
40.53787547858519
 30
0.0
 11
2252.166198313995
 21
40.53787547858519
 31
0.0
  0
LINE
  5
5FC
102
{ACAD_REACTORS
330
5F6
102
}
330
1F
100
AcDbEntity
  8
補助
370
     5
100
AcDbLine
 10
2245.64189404294
 20
56.5
 30
0.0
 11
2210.641894042939
 21
56.5
 31
0.0
  0
LINE
  5
5FD
102
{ACAD_REACTORS
330
5F6
102
}
330
1F
100
AcDbEntity
  8
補助
370
     5
100
AcDbLine
 10
2210.641894042939
 20
36.5
 30
0.0
 11
2245.64189404294
 21
56.5
 31
0.0
  0
LINE
  5
5FE
102
{ACAD_REACTORS
330
5F6
102
}
330
1F
100
AcDbEntity
  8
補助
370
     5
100
AcDbLine
 10
2245.64189404294
 20
16.5
 30
0.0
 11
2210.641894042939
 21
36.5
 31
0.0
  0
LINE
  5
5FF
102
{ACAD_REACTORS
330
5F6
102
}
330
1F
100
AcDbEntity
  8
補助
370
     5
100
AcDbLine
 10
2210.641894042939
 20
16.5
 30
0.0
 11
2245.64189404294
 21
16.5
 31
0.0
  0
LINE
  5
600
102
{ACAD_REACTORS
330
5F6
102
}
330
1F
100
AcDbEntity
  8
補助
370
     5
100
AcDbLine
 10
2210.641894042939
 20
56.5
 30
0.0
 11
2210.641894042939
 21
16.5
 31
0.0
  0
LINE
  5
601
102
{ACAD_REACTORS
330
5F6
102
}
330
1F
100
AcDbEntity
  8
補助
370
     5
100
AcDbLine
 10
2183.255774665347
 20
30.53787547858519
 30
0.0
 11
2207.346428692676
 21
30.53787547858514
 31
0.0
  0
LINE
  5
602
102
{ACAD_REACTORS
330
5F6
102
}
330
1F
100
AcDbEntity
  8
補助
370
     5
100
AcDbLine
 10
2183.255774665347
 20
40.53787547858519
 30
0.0
 11
2183.255774665347
 21
30.53787547858519
 31
0.0
  0
LINE
  5
603
102
{ACAD_REACTORS
330
5F6
102
}
330
1F
100
AcDbEntity
  8
補助
370
     5
100
AcDbLine
 10
2207.843923164362
 20
40.53787547858519
 30
0.0
 11
2183.255774665347
 21
40.53787547858519
 31
0.0
  0
LINE
  5
A29
330
1F
100
AcDbEntity
  8
補助
100
AcDbLine
 10
2064.0
 20
4.0
 30
0.0
 11
2064.0
 21
199.0
 31
0.0
  0
TEXT
  5
A2C
330
1F
100
AcDbEntity
  8
補助
100
AcDbText
 10
2086.666666666667
 20
149.0
 30
0.0
 40
35.0
  1
品番
 72
     4
 11
2124.0
 21
166.5
 31
0.0
100
AcDbText
  0
TEXT
  5
A2D
330
1F
100
AcDbEntity
  8
補助
100
AcDbText
 10
2086.666666666667
 20
84.0
 30
0.0
 40
35.0
  1
尺度
 72
     4
 11
2124.0
 21
101.5
 31
0.0
100
AcDbText
  0
LINE
  5
C3A
330
1F
100
AcDbEntity
  8
0
100
AcDbLine
 10
1562.510719473206
 20
1538.254603197542
 30
0.0
 11
866.5107194732055
 21
1538.254603197543
 31
0.0
  0
LINE
  5
C3B
330
1F
100
AcDbEntity
  8
0
100
AcDbLine
 10
1569.510719473205
 20
965.2546031975424
 30
0.0
 11
1569.510719473206
 21
1531.254603197542
 31
0.0
  0
LINE
  5
C3C
330
1F
100
AcDbEntity
  8
0
100
AcDbLine
 10
866.5107194732055
 20
958.2546031975427
 30
0.0
 11
1562.510719473205
 21
958.2546031975423
 31
0.0
  0
LINE
  5
C3D
330
1F
100
AcDbEntity
  8
0
100
AcDbLine
 10
859.5107194732054
 20
1531.254603197543
 30
0.0
 11
859.5107194732054
 21
965.2546031975427
 31
0.0
  0
LINE
  5
C42
330
1F
100
AcDbEntity
  8
0
100
AcDbLine
 10
1562.510719473206
 20
1543.254603197542
 30
0.0
 11
866.5107194732055
 21
1543.254603197543
 31
0.0
  0
LINE
  5
C43
330
1F
100
AcDbEntity
  8
0
100
AcDbLine
 10
1574.510719473205
 20
965.2546031975424
 30
0.0
 11
1574.510719473206
 21
1531.254603197542
 31
0.0
  0
LINE
  5
C44
330
1F
100
AcDbEntity
  8
0
100
AcDbLine
 10
866.5107194732055
 20
953.2546031975428
 30
0.0
 11
1562.510719473205
 21
953.2546031975423
 31
0.0
  0
LINE
  5
C48
330
1F
100
AcDbEntity
  8
0
100
AcDbLine
 10
854.5107194732054
 20
1531.254603197543
 30
0.0
 11
854.5107194732054
 21
965.2546031975427
 31
0.0
  0
LINE
  5
D50
330
1F
100
AcDbEntity
  8
0
100
AcDbLine
 10
1574.510719473205
 20
620.8166225200033
 30
0.0
 11
854.5107194732059
 21
620.8166225200029
 31
0.0
  0
LINE
  5
D55
330
1F
100
AcDbEntity
  8
実形
100
AcDbLine
 10
1562.510719473205
 20
620.8166225200033
 30
0.0
 11
1562.510719473205
 21
610.8166225200029
 31
0.0
  0
LINE
  5
D56
330
1F
100
AcDbEntity
  8
実形
100
AcDbLine
 10
866.5107194732055
 20
620.8166225200029
 30
0.0
 11
866.5107194732055
 21
610.8166225200029
 31
0.0
  0
LINE
  5
D59
330
1F
100
AcDbEntity
  8
実形
100
AcDbLine
 10
1569.510719473205
 20
625.8166225200032
 30
0.0
 11
1574.510719473205
 21
620.8166225200033
 31
0.0
  0
LINE
  5
D5A
330
1F
100
AcDbEntity
  8
実形
100
AcDbLine
 10
1559.510719473205
 20
620.8166225200033
 30
0.0
 11
1559.510719473205
 21
610.8166225200029
 31
0.0
  0
LINE
  5
D5B
330
1F
100
AcDbEntity
  8
実形
100
AcDbLine
 10
1559.510719473205
 20
610.8166225200029
 30
0.0
 11
1539.510719473205
 21
610.816622520003
 31
0.0
  0
LINE
  5
D5C
330
1F
100
AcDbEntity
  8
実形
100
AcDbLine
 10
859.5107194732058
 20
625.8166225200029
 30
0.0
 11
854.5107194732054
 21
620.8166225200029
 31
0.0
  0
LINE
  5
D5D
330
1F
100
AcDbEntity
  8
実形
100
AcDbLine
 10
869.5107194732054
 20
620.8166225200029
 30
0.0
 11
869.5107194732054
 21
610.8166225200029
 31
0.0
  0
LINE
  5
D5E
330
1F
100
AcDbEntity
  8
実形
100
AcDbLine
 10
869.5107194732054
 20
610.8166225200029
 30
0.0
 11
889.5107194732053
 21
610.8166225200029
 31
0.0
  0
LINE
  5
D67
330
1F
100
AcDbEntity
  8
0
100
AcDbLine
 10
1893.967865434157
 20
1538.254603197542
 30
0.0
 11
1893.967865434157
 21
958.2546031975423
 31
0.0
  0
LINE
  5
D6C
330
1F
100
AcDbEntity
  8
実形
100
AcDbLine
 10
1888.967865434157
 20
1543.254603197543
 30
0.0
 11
1893.967865434157
 21
1538.254603197542
 31
0.0
  0
LINE
  5
D6E
330
1F
100
AcDbEntity
  8
実形
100
AcDbLine
 10
1893.967865434157
 20
1531.254603197543
 30
0.0
 11
1903.967865434157
 21
1531.254603197543
 31
0.0
  0
LINE
  5
D6F
330
1F
100
AcDbEntity
  8
実形
100
AcDbLine
 10
1893.967865434157
 20
1528.254603197543
 30
0.0
 11
1903.967865434157
 21
1528.254603197543
 31
0.0
  0
LINE
  5
D70
330
1F
100
AcDbEntity
  8
実形
100
AcDbLine
 10
1903.967865434157
 20
1528.254603197543
 30
0.0
 11
1903.967865434157
 21
1508.254603197543
 31
0.0
  0
LINE
  5
D71
330
1F
100
AcDbEntity
  8
実形
100
AcDbLine
 10
1888.967865434156
 20
953.2546031975426
 30
0.0
 11
1893.967865434157
 21
958.2546031975423
 31
0.0
  0
LINE
  5
D72
330
1F
100
AcDbEntity
  8
実形
100
AcDbLine
 10
1893.967865434157
 20
965.2546031975425
 30
0.0
 11
1903.967865434156
 21
965.2546031975425
 31
0.0
  0
LINE
  5
D73
330
1F
100
AcDbEntity
  8
実形
100
AcDbLine
 10
1893.967865434157
 20
968.2546031975425
 30
0.0
 11
1903.967865434156
 21
968.2546031975425
 31
0.0
  0
LINE
  5
D74
330
1F
100
AcDbEntity
  8
実形
100
AcDbLine
 10
1903.967865434156
 20
968.2546031975425
 30
0.0
 11
1903.967865434156
 21
1003.254603197542
 31
0.0
  0
TEXT
  5
DC1
330
1F
100
AcDbEntity
  8
0
100
AcDbText
 10
1930.650962839028
 20
1059.825872959015
 30
0.0
 40
25.0
  1
30R
100
AcDbText
  0
LEADER
  5
DC2
330
1F
100
AcDbEntity
  8
Cen
100
AcDbLeader
  3
ISO-25
 40
25.0
 41
16.66666666666666
 76
     2
 10
2050.958070520015
 20
1027.905786882284
 30
0.0
 10
2001.843105795481
 20
1063.777868178292
 30
0.0
213
0.0
223
12.5
233
0.0
1001
ACAD
1000
DSTYLE
1002
{
1070
   147
1040
6.25
1070
    77
1070
     0
1070
   279
1070
     1
1002
}
  0
ARC
  5
DEA
330
1F
100
AcDbEntity
  8
0
100
AcDbCircle
 10
866.5107194732055
 20
1531.254603197543
 30
0.0
 40
12.0
100
AcDbArc
 50
89.99999999999998
 51
180.0
  0
ARC
  5
DEC
330
1F
100
AcDbEntity
  8
0
100
AcDbCircle
 10
1562.510719473206
 20
1531.254603197542
 30
0.0
 40
12.0
100
AcDbArc
 50
360.0
 51
89.99999999999998
  0
ARC
  5
DED
330
1F
100
AcDbEntity
  8
0
100
AcDbCircle
 10
1562.510719473205
 20
965.2546031975424
 30
0.0
 40
12.0
100
AcDbArc
 50
270.0
 51
360.0
  0
ARC
  5
DEE
330
1F
100
AcDbEntity
  8
0
100
AcDbCircle
 10
866.5107194732055
 20
965.2546031975427
 30
0.0
 40
12.0
100
AcDbArc
 50
180.0
 51
270.0
  0
ARC
  5
DEF
330
1F
100
AcDbEntity
  8
0
100
AcDbCircle
 10
866.5107194732055
 20
1531.254603197543
 30
0.0
 40
7.0
100
AcDbArc
 50
89.99999999999998
 51
180.0
  0
ARC
  5
DF0
330
1F
100
AcDbEntity
  8
0
100
AcDbCircle
 10
866.5107194732055
 20
965.2546031975427
 30
0.0
 40
7.0
100
AcDbArc
 50
180.0
 51
270.0
  0
ARC
  5
DF1
330
1F
100
AcDbEntity
  8
0
100
AcDbCircle
 10
1562.510719473205
 20
965.2546031975424
 30
0.0
 40
7.0
100
AcDbArc
 50
270.0
 51
360.0
  0
ARC
  5
DF2
330
1F
100
AcDbEntity
  8
0
100
AcDbCircle
 10
1562.510719473206
 20
1531.254603197542
 30
0.0
 40
7.0
100
AcDbArc
 50
360.0
 51
89.99999999999998
  0
DIMENSION
  5
DFA
330
1F
100
AcDbEntity
  8
実形
100
AcDbDimension
  2
*D16
 10
854.5107194732052
 20
849.3468314028259
 30
0.0
 11
918.3352548357269
 21
868.532758828911
 31
0.0
 70
   160
 71
     5
 42
35.0
  3
ISO-25
100
AcDbAlignedDimension
 13
889.5107194732053
 23
953.2546031975426
 33
0.0
 14
854.5107194732052
 24
953.2546031975426
 34
0.0
100
AcDbRotatedDimension
1001
ACAD
1000
DSTYLE
1002
{
1070
   279
1070
     2
1002
}
  0
LINE
  5
F95
330
1F
100
AcDbEntity
  8
補助
100
AcDbLine
 10
1894.0
 20
2024.0
 30
0.0
 11
2784.0
 21
2024.0
 31
0.0
  0
LINE
  5
FA5
330
1F
100
AcDbEntity
  8
補助
100
AcDbLine
 10
2784.0
 20
2024.0
 30
0.0
 11
2784.000000000001
 21
1829.0
 31
0.0
  0
LINE
  5
FA6
330
1F
100
AcDbEntity
  8
補助
100
AcDbLine
 10
2784.0
 20
1829.0
 30
0.0
 11
2784.0
 21
2024.0
 31
0.0
  0
DIMENSION
  5
1456
330
1F
100
AcDbEntity
  8
実形
100
AcDbDimension
  2
*D17
 10
1400.010719473206
 20
537.9696470579749
 30
0.0
 11
1390.850439128374
 21
543.1306557728273
 31
0.0
 70
   160
 71
     5
 42
20.0
  3
ISO-25
100
AcDbAlignedDimension
 13
1380.010719473206
 23
435.8166225200031
 33
0.0
 14
1400.010719473206
 24
435.8166225200036
 34
0.0
 50
180.0
100
AcDbRotatedDimension
1001
ACAD
1000
DSTYLE
1002
{
1070
   279
1070
     1
1002
}
  0
LINE
  5
1457
330
1F
100
AcDbEntity
  8
実形
100
AcDbLine
 10
1400.010719473206
 20
437.8166225200036
 30
0.0
 11
1380.010719473206
 21
435.8166225200031
 31
0.0
  0
LINE
  5
145E
330
1F
100
AcDbEntity
  8
0
100
AcDbLine
 10
1539.510719473205
 20
610.8166225200031
 30
0.0
 11
1354.510719473206
 21
610.8166225200031
 31
0.0
  0
LINE
  5
145F
330
1F
100
AcDbEntity
  8
0
100
AcDbLine
 10
1556.510719473206
 20
625.8166225200032
 30
0.0
 11
872.5107194732059
 21
625.8166225200032
 31
0.0
  0
LINE
  5
1469
330
1F
100
AcDbEntity
  8
0
100
AcDbLine
 10
949.5107194732055
 20
1508.254603197543
 30
0.0
 11
1479.510719473205
 21
1508.254603197543
 31
0.0
  0
TEXT
  5
146B
330
1F
100
AcDbEntity
  8
0
100
AcDbText
 10
1419.125664792724
 20
515.3094090091737
 30
0.0
 40
25.0
  1
4500R
100
AcDbText
  0
LINE
  5
146C
330
1F
100
AcDbEntity
  8
0
100
AcDbLine
 10
1539.510719473205
 20
610.816622520003
 30
0.0
 11
1539.510719473206
 21
474.8629723178571
 31
0.0
  0
LEADER
  5
146D
330
1F
100
AcDbEntity
  8
Cen
100
AcDbLeader
  3
ISO-25
 40
25.0
 41
16.66666666666666
 76
     2
 10
1460.774277164929
 20
446.7490433281752
 30
0.0
 10
1483.457978881963
 20
506.020031725817
 30
0.0
211
-1.0
221
0.0
231
0.0
210
0.0
220
0.0
230
-1.0
213
0.0
223
12.5
233
0.0
1001
ACAD
1000
DSTYLE
1002
{
1070
    41
1040
25.0
1070
   147
1040
6.25
1070
    77
1070
     0
1070
   279
1070
     1
1002
}
  0
ARC
  5
146E
330
1F
100
AcDbEntity
  8
0
100
AcDbCircle
 10
1509.510719473206
 20
474.8629723178571
 30
0.0
 40
30.0
100
AcDbArc
 50
271.8505930230045
 51
0.000000000000007
  0
LINE
  5
146F
330
1F
100
AcDbEntity
  8
0
100
AcDbLine
 10
1510.479519248202
 20
444.8786192817158
 30
0.0
 11
1400.010719473206
 21
437.8166225200036
 31
0.0
  0
TEXT
  5
1480
330
1F
100
AcDbEntity
  8
0
100
AcDbText
 10
1018.986821960925
 20
521.9985058798454
 30
0.0
 40
25.0
  1
4500R
100
AcDbText
  0
DIMENSION
  5
1481
330
1F
100
AcDbEntity
  8
実形
100
AcDbDimension
  2
*D18
 10
1179.010719473206
 20
537.9696470579749
 30
0.0
 11
1189.460345093715
 21
542.4793360281553
 31
0.0
 70
   160
 71
     5
 42
20.0
  3
ISO-25
100
AcDbAlignedDimension
 13
1199.010719473206
 23
435.8166225200031
 33
0.0
 14
1179.010719473206
 24
435.8166225200036
 34
0.0
 50
180.0
100
AcDbRotatedDimension
1001
ACAD
1000
DSTYLE
1002
{
1070
   279
1070
     1
1002
}
  0
TEXT
  5
1482
330
1F
100
AcDbEntity
  8
0
100
AcDbText
 10
918.491966837672
 20
529.8686927525047
 30
0.0
 40
25.0
  1
30R
100
AcDbText
  0
DIMENSION
  5
1483
330
1F
100
AcDbEntity
  8
0
100
AcDbDimension
  2
*D19
 10
1380.010719473206
 20
537.9696470579749
 30
0.0
 11
1289.510719473206
 21
556.7196470579749
 31
0.0
 70
    32
 71
     5
 42
181.0
  3
ISO-25
100
AcDbAlignedDimension
 13
1199.010719473206
 23
435.8166225200031
 33
0.0
 14
1380.010719473206
 24
435.8166225200031
 34
0.0
 50
180.0
100
AcDbRotatedDimension
  0
LINE
  5
1484
330
1F
100
AcDbEntity
  8
0
100
AcDbLine
 10
889.5107194732062
 20
610.8166225200031
 30
0.0
 11
889.5107194732059
 21
484.0092697441598
 31
0.0
  0
DIMENSION
  5
1485
330
1F
100
AcDbEntity
  8
実形
100
AcDbDimension
  2
*D20
 10
761.4909509503245
 20
428.8166225200032
 30
0.0
 11
778.2700783208024
 21
411.249404284252
 31
0.0
 70
   160
  1
7
 71
     5
 42
27.00000000000045
  3
ISO-25
100
AcDbAlignedDimension
 13
872.5107194732062
 23
455.8166225200036
 33
0.0
 14
872.5107194732062
 24
428.8166225200032
 34
0.0
 50
90.0
100
AcDbRotatedDimension
1001
ACAD
1000
DSTYLE
1002
{
1070
   279
1070
     2
1002
}
  0
DIMENSION
  5
1486
330
1F
100
AcDbEntity
  8
0
100
AcDbDimension
  2
*D21
 10
761.4909509503245
 20
435.8166225200036
 30
0.0
 11
781.5096195730498
 21
481.8248638542102
 31
0.0
 70
   160
 71
     5
 42
20.0
  3
ISO-25
100
AcDbAlignedDimension
 13
872.5107194732062
 23
455.8166225200036
 33
0.0
 14
872.5107194732059
 24
435.8166225200036
 34
0.0
 50
90.0
100
AcDbRotatedDimension
1001
ACAD
1000
DSTYLE
1002
{
1070
   282
1070
     0
1070
   281
1070
     0
1070
   279
1070
     2
1002
}
  0
LINE
  5
1487
330
1F
100
AcDbEntity
  8
実形
100
AcDbLine
 10
1179.010719473204
 20
437.8166225200036
 30
0.0
 11
1039.35895725529
 21
442.7653506216422
 31
0.0
  0
LINE
  5
1488
330
1F
100
AcDbEntity
  8
0
100
AcDbLine
 10
1209.010719473206
 20
428.8166225200032
 30
0.0
 11
1199.010719473206
 21
428.8166225200032
 31
0.0
  0
LINE
  5
1489
330
1F
100
AcDbEntity
  8
0
100
AcDbLine
 10
1368.010719473206
 20
428.8166225200036
 30
0.0
 11
1211.010719473205
 21
428.8166225200032
 31
0.0
  0
LINE
  5
148A
330
1F
100
AcDbEntity
  8
実形
100
AcDbLine
 10
1199.010719473206
 20
435.8166225200031
 30
0.0
 11
1179.010719473206
 21
437.8166225200036
 31
0.0
  0
LINE
  5
148B
330
1F
100
AcDbEntity
  8
Cen
100
AcDbLine
 10
1289.510719473206
 20
519.1222144752384
 30
0.0
 11
1289.510719473206
 21
404.5620805748788
 31
0.0
  0
DIMENSION
  5
148C
330
1F
100
AcDbEntity
  8
0
100
AcDbDimension
  2
*D22
 10
1369.010719473206
 20
307.4221478219881
 30
0.0
 11
1289.510719473206
 21
326.1721478219881
 31
0.0
 70
    32
  1
158
 71
     5
 42
159.0
  3
ISO-25
100
AcDbAlignedDimension
 13
1210.010719473206
 23
428.8166225200032
 33
0.0
 14
1369.010719473206
 24
428.8166225200036
 34
0.0
 50
180.0
100
AcDbRotatedDimension
  0
LINE
  5
148D
330
1F
100
AcDbEntity
  8
0
100
AcDbLine
 10
1380.010719473206
 20
435.8166225200031
 30
0.0
 11
1199.010719473206
 21
435.8166225200031
 31
0.0
  0
LINE
  5
148E
330
1F
100
AcDbEntity
  8
0
100
AcDbLine
 10
1199.010719473206
 20
435.8166225200031
 30
0.0
 11
1199.010719473206
 21
428.8166225200032
 31
0.0
  0
LINE
  5
148F
330
1F
100
AcDbEntity
  8
0
100
AcDbLine
 10
1380.010719473206
 20
435.8166225200031
 30
0.0
 11
1380.010719473206
 21
428.8166225200032
 31
0.0
  0
LINE
  5
1490
330
1F
100
AcDbEntity
  8
0
100
AcDbLine
 10
1380.010719473206
 20
428.8166225200036
 30
0.0
 11
1370.010719473206
 21
428.8166225200036
 31
0.0
  0
LEADER
  5
1491
330
1F
100
AcDbEntity
  8
Cen
100
AcDbLeader
  3
ISO-25
 40
25.0
 41
16.66666666666666
 76
     2
 10
989.563732007638
 20
454.6192254976556
 30
0.0
 10
1041.115922349653
 20
507.5698346498154
 30
0.0
211
-1.0
221
0.0
231
0.0
210
0.0
220
0.0
230
-1.0
213
0.0
223
12.5
233
0.0
1001
ACAD
1000
DSTYLE
1002
{
1070
    41
1040
25.0
1070
   147
1040
6.25
1070
    77
1070
     0
1070
   279
1070
     1
1002
}
  0
LEADER
  5
1492
330
1F
100
AcDbEntity
  8
Cen
100
AcDbLeader
  3
ISO-25
 40
25.0
 41
16.66666666666666
 76
     2
 10
1093.256305891754
 20
444.1256477039558
 30
0.0
 10
1081.805417631446
 20
508.8815324619251
 30
0.0
211
-1.0
221
0.0
231
0.0
210
0.0
220
0.0
230
-1.0
213
0.0
223
12.5
233
0.0
1001
ACAD
1000
DSTYLE
1002
{
1070
    41
1040
25.0
1070
   147
1040
6.25
1070
    77
1070
     0
1070
   279
1070
     1
1002
}
  0
ARC
  5
1493
330
1F
100
AcDbEntity
  8
0
100
AcDbCircle
 10
919.5107194732058
 20
484.0092697441598
 30
0.0
 40
30.0
100
AcDbArc
 50
180.0
 51
266.4421481338792
  0
ARC
  5
1494
330
1F
100
AcDbEntity
  8
実形
100
AcDbCircle
 10
1039.412078216604
 20
444.2644097143626
 30
0.0
 40
1.5
100
AcDbArc
 50
180.0
 51
267.9705043760193
  0
ARC
  5
1495
330
1F
100
AcDbEntity
  8
実形
100
AcDbCircle
 10
1036.412078216604
 20
445.1799626721593
 30
0.0
 40
1.5
100
AcDbArc
 50
0.000000000000007
 51
86.44214813387927
  0
LINE
  5
1496
330
1F
100
AcDbEntity
  8
実形
100
AcDbLine
 10
1037.912078216604
 20
444.2644097143626
 30
0.0
 11
1037.912078216604
 21
445.1799626721593
 31
0.0
  0
LEADER
  5
1497
330
1F
100
AcDbEntity
  8
Cen
100
AcDbLeader
  3
ISO-25
 40
25.0
 41
16.66666666666666
 76
     2
 10
898.0464281669714
 20
472.1540078323848
 30
0.0
 10
926.9228404689997
 20
521.9985058798454
 30
0.0
211
-1.0
221
0.0
231
0.0
210
0.0
220
0.0
230
-1.0
213
0.0
223
12.5
233
0.0
1001
ACAD
1000
DSTYLE
1002
{
1070
    41
1040
25.0
1070
   147
1040
6.25
1070
    77
1070
     0
1070
   279
1070
     1
1002
}
  0
LINE
  5
1498
330
1F
100
AcDbEntity
  8
0
100
AcDbLine
 10
917.6490295587527
 20
454.0670902867052
 30
0.0
 11
1036.505162712326
 21
446.6770716450321
 31
0.0
  0
CIRCLE
  5
1499
102
{ACAD_REACTORS
330
149A
102
}
330
1F
100
AcDbEntity
  8
0
100
AcDbCircle
 10
761.4909509503245
 20
435.8166225200036
 30
0.0
 40
2.686192441042294
  0
HATCH
  5
149A
330
1F
100
AcDbEntity
  8
0
100
AcDbHatch
 10
0.0
 20
0.0
 30
0.0
210
0.0
220
0.0
230
1.0
  2
SOLID
 70
     1
 71
     1
 91
        1
 92
        7
 72
     1
 73
     1
 93
        2
 10
764.1771433913667
 20
435.8166225200036
 42
1.0
 10
758.8047585092822
 20
435.8166225200036
 42
1.0
 97
        1
330
1499
 75
     0
 76
     1
 47
0.4154898185022131
 98
        1
 10
762.623924138607
 20
435.5154743093296
  0
HATCH
  5
149B
330
1F
100
AcDbEntity
  8
0
100
AcDbHatch
 10
0.0
 20
0.0
 30
0.0
210
0.0
220
0.0
230
1.0
  2
SOLID
 70
     1
 71
     0
 91
        1
 92
        7
 72
     1
 73
     1
 93
        2
 10
764.1771433913667
 20
455.8166225200036
 42
1.0
 10
758.8047585092822
 20
455.8166225200036
 42
1.0
 97
        0
 75
     0
 76
     1
 47
0.4154898185022131
 98
        1
 10
762.623924138607
 20
455.5154743093296
  0
CIRCLE
  5
149C
330
1F
100
AcDbEntity
  8
0
100
AcDbCircle
 10
761.4909509503245
 20
455.8166225200036
 30
0.0
 40
2.686192441042294
  0
LINE
  5
14A7
330
1F
100
AcDbEntity
  8
0
100
AcDbLine
 10
1224.510719473206
 20
610.8166225200031
 30
0.0
 11
889.5107194732062
 21
610.8166225200031
 31
0.0
  0
DIMENSION
  5
1714
330
1F
100
AcDbEntity
  8
実形
100
AcDbDimension
  2
*D23
 10
751.8347692323441
 20
1218.254603197543
 30
0.0
 11
733.0847692323439
 21
1325.754603197543
 31
0.0
 70
    32
 71
     5
 42
215.0
  3
ISO-25
100
AcDbAlignedDimension
 13
854.5107194732052
 23
1433.254603197543
 33
0.0
 14
854.5107194732054
 24
1218.254603197543
 34
0.0
 50
90.0
100
AcDbRotatedDimension
1001
ACAD
1000
DSTYLE
1002
{
1070
   279
1070
     1
1002
}
  0
DIMENSION
  5
1902
330
1F
100
AcDbEntity
  8
実形
100
AcDbDimension
  2
*D24
 10
929.5107194732052
 20
1592.681495128561
 30
0.0
 11
1024.510719473205
 21
1611.431495128561
 31
0.0
 70
    32
 71
     5
 42
190.0000000000002
  3
ISO-25
100
AcDbAlignedDimension
 13
1119.510719473205
 23
1503.254603197543
 33
0.0
 14
929.5107194732052
 24
1503.254603197543
 34
0.0
 50
180.0
100
AcDbRotatedDimension
1001
ACAD
1000
DSTYLE
1002
{
1070
   279
1070
     1
1002
}
  0
ARC
  5
1903
330
1F
100
AcDbEntity
  8
0
100
AcDbCircle
 10
1090.010719473205
 20
1473.754603197543
 30
0.0
 40
29.5
100
AcDbArc
 50
0.0
 51
90.0
  0
ARC
  5
1904
330
1F
100
AcDbEntity
  8
0
100
AcDbCircle
 10
1090.010719473205
 20
1473.754603197543
 30
0.0
 40
29.5
100
AcDbArc
 50
270.0
 51
0.0
  0
LINE
  5
1905
330
1F
100
AcDbEntity
  8
実形
370
    13
100
AcDbLine
 10
1208.989329343371
 20
1244.473414769752
 30
0.0
 11
958.9465290293237
 21
1383.350865282694
 31
0.0
  0
LINE
  5
1906
330
1F
100
AcDbEntity
  8
実形
370
    13
100
AcDbLine
 10
1206.614329343371
 20
1240.359794101776
 30
0.0
 11
958.9465290293237
 21
1383.350865282694
 31
0.0
  0
DIMENSION
  5
1907
330
1F
100
AcDbEntity
  8
0
100
AcDbDimension
  2
*D25
 10
1129.103217198767
 20
1508.254603197543
 30
0.0
 11
1129.103217198767
 21
1391.80499744867
 31
0.0
 70
   160
 71
     5
 42
170.0
  3
ISO-25
100
AcDbAlignedDimension
 13
1227.95043571752
 23
1338.254603197543
 33
0.0
 14
1479.510719473205
 24
1508.254603197543
 34
0.0
 50
90.0
100
AcDbRotatedDimension
  0
ARC
  5
1908
330
1F
100
AcDbEntity
  8
0
100
AcDbCircle
 10
1099.510719473205
 20
1533.254603197543
 30
0.0
 40
100.0
100
AcDbArc
 50
270.0
 51
327.1335352609031
  0
LINE
  5
1909
330
1F
100
AcDbEntity
  8
0
100
AcDbLine
 10
1424.510719473206
 20
1003.254603197543
 30
0.0
 11
1004.510719473205
 21
1003.254603197543
 31
0.0
  0
LINE
  5
190C
330
1F
100
AcDbEntity
  8
0
100
AcDbLine
 10
949.5107194732055
 20
1508.254603197543
 30
0.0
 11
1479.510719473205
 21
1508.254603197543
 31
0.0
  0
LINE
  5
190D
330
1F
100
AcDbEntity
  8
0
100
AcDbLine
 10
1424.510719473206
 20
988.2546031975429
 30
0.0
 11
1004.510719473205
 21
988.2546031975429
 31
0.0
  0
LEADER
  5
190F
330
1F
100
AcDbEntity
  8
0
100
AcDbLeader
  3
ISO-25
 40
25.0
 41
16.66666666666666
 76
     2
 10
1058.458419510533
 20
1427.198518613383
 30
0.0
 10
1026.824197971304
 20
1311.282971752915
 30
0.0
211
-1.0
221
0.0
231
0.0
210
0.0
220
0.0
230
-1.0
213
0.0
223
-12.5
233
0.0
1001
ACAD
1000
DSTYLE
1002
{
1070
    41
1040
25.0
1070
   147
1040
6.25
1070
    77
1070
     0
1070
    73
1070
     1
1070
    74
1070
     1
1070
   279
1070
     1
1070
   342
1005
DA
1002
}
  0
ARC
  5
1910
330
1F
100
AcDbEntity
  8
0
100
AcDbCircle
 10
1004.510719473205
 20
1318.254603197543
 30
0.0
 40
115.0
100
AcDbArc
 50
90.0
 51
180.0
  0
LINE
  5
1912
330
1F
100
AcDbEntity
  8
0
100
AcDbLine
 10
889.5107194732053
 20
1118.254603197543
 30
0.0
 11
889.5107194732053
 21
1448.254603197543
 31
0.0
  0
TEXT
  5
1913
330
1F
100
AcDbEntity
  8
0
100
AcDbText
 10
964.3717174273552
 20
1271.986725689508
 30
0.0
 40
25.0
  1
10000R
 11
964.3717174273552
 21
1296.986725689508
 31
0.0
100
AcDbText
 73
     3
  0
TEXT
  5
1914
330
1F
100
AcDbEntity
  8
0
100
AcDbText
 10
998.3162444134354
 20
1181.143687829965
 30
0.0
 40
25.0
  1
5000R
 72
     2
 11
1102.482911080102
 21
1193.643687829965
 31
0.0
100
AcDbText
 73
     2
  0
LEADER
  5
1915
330
1F
100
AcDbEntity
  8
0
100
AcDbLeader
  3
ISO-25
 76
     2
 10
890.4395619797234
 20
1193.643687829965
 30
0.0
 10
986.6114094578918
 20
1193.643687829965
 30
0.0
211
-1.0
221
0.0
231
0.0
210
0.0
220
0.0
230
-1.0
1001
ACAD
1000
DSTYLE
1002
{
1070
    41
1040
25.0
1070
   147
1040
6.25
1070
    77
1070
     0
1070
    73
1070
     1
1070
    74
1070
     1
1070
   279
1070
     1
1070
   342
1005
DA
1002
}
  0
TEXT
  5
1916
330
1F
100
AcDbEntity
  8
0
100
AcDbText
 10
979.3616077202095
 20
1118.111189010692
 30
0.0
 40
25.0
  1
115R
 72
     2
 11
1054.361607720209
 21
1114.777855677359
 31
0.0
100
AcDbText
 73
     1
  0
LEADER
  5
1917
330
1F
100
AcDbEntity
  8
0
100
AcDbLeader
  3
ISO-25
 40
25.0
 41
16.66666666666666
 76
     2
 10
907.6131031955357
 20
1059.865915928279
 30
0.0
 10
970.5827626549909
 20
1119.353849466389
 30
0.0
211
-1.0
221
0.0
231
0.0
210
0.0
220
0.0
230
-1.0
213
0.0
223
12.5
233
0.0
1001
ACAD
1000
DSTYLE
1002
{
1070
    41
1040
25.0
1070
   147
1040
6.25
1070
    77
1070
     0
1070
    73
1070
     1
1070
    74
1070
     1
1070
   279
1070
     1
1070
   342
1005
DA
1002
}
  0
TEXT
  5
1918
330
1F
100
AcDbEntity
  8
0
100
AcDbText
 10
1023.65986240693
 20
1074.639240874546
 30
0.0
 40
25.0
  1
115R
 72
     2
 11
1098.65986240693
 21
1071.305907541213
 31
0.0
100
AcDbText
 73
     1
  0
LEADER
  5
1919
330
1F
100
AcDbEntity
  8
0
100
AcDbLeader
  3
ISO-25
 40
25.0
 41
16.66666666666666
 76
     2
 10
923.6417416636289
 20
1023.257960855798
 30
0.0
 10
1014.089075403192
 20
1079.313895481956
 30
0.0
211
-1.0
221
0.0
231
0.0
210
0.0
220
0.0
230
-1.0
213
97.31675022588753
223
44.53196128345098
233
0.0
1001
ACAD
1000
DSTYLE
1002
{
1070
    41
1040
25.0
1070
   147
1040
6.25
1070
    77
1070
     0
1070
    73
1070
     1
1070
    74
1070
     1
1070
   279
1070
     1
1070
   342
1005
DA
1002
}
  0
ARC
  5
191D
330
1F
100
AcDbEntity
  8
0
100
AcDbCircle
 10
1004.510719473205
 20
1103.254603197543
 30
0.0
 40
115.0
100
AcDbArc
 50
180.0
 51
270.0
  0
LINE
  5
191E
330
1F
100
AcDbEntity
  8
0
100
AcDbLine
 10
889.5107194732053
 20
1103.254603197543
 30
0.0
 11
889.5107194732053
 21
1318.254603197543
 31
0.0
  0
ARC
  5
191F
330
1F
100
AcDbEntity
  8
0
100
AcDbCircle
 10
1004.510719473205
 20
1118.254603197543
 30
0.0
 40
115.0
100
AcDbArc
 50
180.0
 51
270.0
  0
DIMENSION
  5
1920
330
1F
100
AcDbEntity
  8
実形
100
AcDbDimension
  2
*D26
 10
889.5107194732057
 20
1592.681495128561
 30
0.0
 11
911.061612352308
 21
1593.456920303477
 31
0.0
 70
   160
 71
     5
 42
39.99999999999955
  3
ISO-25
100
AcDbAlignedDimension
 13
929.5107194732052
 23
1503.254603197543
 33
0.0
 14
889.5107194732057
 24
1503.254603197543
 34
0.0
 50
180.0
100
AcDbRotatedDimension
1001
ACAD
1000
DSTYLE
1002
{
1070
   279
1070
     1
1002
}
  0
LINE
  5
1921
330
1F
100
AcDbEntity
  8
0
100
AcDbLine
 10
959.0107194732054
 20
1503.254603197543
 30
0.0
 11
1090.010719473205
 21
1503.254603197543
 31
0.0
  0
LINE
  5
1922
330
1F
100
AcDbEntity
  8
0
100
AcDbLine
 10
959.010719473205
 20
1444.254603197543
 30
0.0
 11
1090.010719473205
 21
1444.254603197543
 31
0.0
  0
ARC
  5
1923
330
1F
100
AcDbEntity
  8
0
100
AcDbCircle
 10
959.010719473205
 20
1473.754603197543
 30
0.0
 40
29.5
100
AcDbArc
 50
180.0
 51
270.0
  0
ARC
  5
1924
330
1F
100
AcDbEntity
  8
0
100
AcDbCircle
 10
959.0107194732054
 20
1473.754603197543
 30
0.0
 40
29.5
100
AcDbArc
 50
90.0
 51
180.0
  0
LEADER
  5
1925
330
1F
100
AcDbEntity
  8
0
100
AcDbLeader
  3
ISO-25
 40
33.33333333333333
 41
16.66666666666667
 76
     2
 10
907.9644953336483
 20
1479.974604461015
 30
0.0
 10
939.089356427703
 20
1367.999111528807
 30
0.0
213
0.0
223
-12.5
233
0.0
1001
ACAD
1000
DSTYLE
1002
{
1070
   147
1040
6.25
1070
    77
1070
     0
1070
    73
1070
     1
1070
    74
1070
     1
1070
   279
1070
     1
1070
   342
1005
DA
1002
}
  0
TEXT
  5
1926
330
1F
100
AcDbEntity
  8
0
100
AcDbText
 10
907.9644953336483
 20
1332.747565920496
 30
0.0
 40
25.0
  1
60R
 72
     2
 11
970.4644953336483
 21
1329.414232587163
 31
0.0
100
AcDbText
 73
     1
  0
ARC
  5
1929
330
1F
100
AcDbEntity
  8
0
100
AcDbCircle
 10
949.5107194732055
 20
1448.254603197543
 30
0.0
 40
60.0
100
AcDbArc
 50
90.0
 51
180.0
  0
LINE
  5
192A
330
1F
100
AcDbEntity
  8
0
100
AcDbLine
 10
1004.510719473205
 20
1433.254603197543
 30
0.0
 11
1099.510719473205
 21
1433.254603197543
 31
0.0
  0
CIRCLE
  5
192B
330
1F
100
AcDbEntity
  8
0
370
    13
100
AcDbCircle
 10
1289.510719473206
 20
1338.254603197543
 30
0.0
 40
110.5
  0
LINE
  5
192C
330
1F
100
AcDbEntity
  8
Cen
 48
0.8
100
AcDbLine
 10
1289.510719473206
 20
1224.77720228705
 30
0.0
 11
1289.510719473206
 21
1451.732004108036
 31
0.0
  0
CIRCLE
  5
192D
330
1F
100
AcDbEntity
  8
0
100
AcDbCircle
 10
1289.510719473206
 20
1338.254603197543
 30
0.0
 40
90.5
  0
CIRCLE
  5
192E
330
1F
100
AcDbEntity
  8
0
100
AcDbCircle
 10
1289.510719473206
 20
1338.254603197543
 30
0.0
 40
79.5
  0
LINE
  5
1930
330
1F
100
AcDbEntity
  8
0
100
AcDbLine
 10
1539.510719473206
 20
1448.254603197543
 30
0.0
 11
1539.510719473206
 21
1118.254603197543
 31
0.0
  0
LINE
  5
1931
330
1F
100
AcDbEntity
  8
実形
370
    13
100
AcDbLine
 10
1516.074707970287
 20
1323.764636224948
 30
0.0
 11
1369.238283815694
 21
1244.473414769753
 31
0.0
  0
LINE
  5
1932
330
1F
100
AcDbEntity
  8
実形
370
    13
100
AcDbLine
 10
1516.074707970287
 20
1323.764636224948
 30
0.0
 11
1371.613283815694
 21
1240.359794101776
 31
0.0
  0
DIMENSION
  5
1933
330
1F
100
AcDbEntity
  8
0
100
AcDbDimension
  2
*D27
 10
1539.510719473206
 20
1140.717525255328
 30
0.0
 11
1414.510719473206
 21
1159.467525255328
 31
0.0
 70
    32
 71
     5
 42
250.0
  3
ISO-25
100
AcDbAlignedDimension
 13
1289.510719473206
 23
1299.997515006764
 33
0.0
 14
1539.510719473206
 24
1318.254603197543
 34
0.0
 50
180.0
100
AcDbRotatedDimension
  0
ARC
  5
1934
330
1F
100
AcDbEntity
  8
実形
370
    13
100
AcDbCircle
 10
1289.113806579533
 20
1383.253080272679
 30
0.0
 40
160.2489544723223
100
AcDbArc
 50
240.0000000000027
 51
299.9999999999973
  0
ARC
  5
1935
330
1F
100
AcDbEntity
  8
実形
370
    13
100
AcDbCircle
 10
1289.113806579533
 20
1383.253080272679
 30
0.0
 40
164.9989544723223
100
AcDbArc
 50
240.0000000000027
 51
299.9999999999973
  0
TEXT
  5
1936
330
1F
100
AcDbEntity
  8
0
100
AcDbText
 10
1180.819384028573
 20
1074.172542925091
 30
0.0
 40
25.0
  1
10000R
 11
1180.819384028573
 21
1070.839209591757
 31
0.0
100
AcDbText
 73
     1
  0
LEADER
  5
1937
330
1F
100
AcDbEntity
  8
0
100
AcDbLeader
  3
ISO-25
 40
25.0
 41
16.66666666666666
 76
     2
 10
1300.987448759359
 20
1012.71262506167
 30
0.0
 10
1275.211418662439
 20
1059.547192015108
 30
0.0
211
-1.0
221
0.0
231
0.0
210
0.0
220
0.0
230
-1.0
213
0.0
223
-12.5
233
0.0
1001
ACAD
1000
DSTYLE
1002
{
1070
    41
1040
25.0
1070
   147
1040
6.25
1070
    77
1070
     0
1070
    73
1070
     1
1070
    74
1070
     1
1070
   279
1070
     1
1070
   342
1005
DA
1002
}
  0
ARC
  5
1939
330
1F
100
AcDbEntity
  8
0
100
AcDbCircle
 10
1424.510719473206
 20
1103.254603197543
 30
0.0
 40
115.0
100
AcDbArc
 50
270.0
 51
0.0
  0
LINE
  5
193A
330
1F
100
AcDbEntity
  8
0
100
AcDbLine
 10
1539.510719473206
 20
1318.254603197543
 30
0.0
 11
1539.510719473206
 21
1103.254603197543
 31
0.0
  0
ARC
  5
193B
330
1F
100
AcDbEntity
  8
0
100
AcDbCircle
 10
1424.510719473206
 20
1118.254603197543
 30
0.0
 40
115.0
100
AcDbArc
 50
270.0
 51
0.0
  0
ARC
  5
193C
330
1F
100
AcDbEntity
  8
0
100
AcDbCircle
 10
1479.510719473205
 20
1533.254603197543
 30
0.0
 40
100.0
100
AcDbArc
 50
212.8664647390969
 51
258.4630409671793
  0
DIMENSION
  5
193D
330
1F
100
AcDbEntity
  8
0
100
AcDbDimension
  2
*D28
 10
1391.738158901565
 20
1508.254603197543
 30
0.0
 11
1382.357575308962
 21
1456.933558892796
 31
0.0
 70
   160
 71
     5
 42
15.0
  3
ISO-25
100
AcDbAlignedDimension
 13
1467.765655497107
 23
1493.254603197543
 33
0.0
 14
1484.510719473205
 24
1508.254603197543
 34
0.0
 50
90.0
100
AcDbRotatedDimension
1001
ACAD
1000
DSTYLE
1002
{
1070
   279
1070
     2
1002
}
  0
DIMENSION
  5
193E
330
1F
100
AcDbEntity
  8
0
100
AcDbDimension
  2
*D29
 10
1159.510719473205
 20
1674.872450960062
 30
0.0
 11
1289.510719473206
 21
1693.622450960063
 31
0.0
 70
    32
 71
     5
 42
260.0
  3
ISO-25
100
AcDbAlignedDimension
 13
1419.510719473205
 23
1590.254603197543
 33
0.0
 14
1159.510719473205
 24
1590.254603197543
 34
0.0
 50
180.0
100
AcDbRotatedDimension
  0
LINE
  5
193F
330
1F
100
AcDbEntity
  8
Cen
 48
0.8
100
AcDbLine
 10
1155.403157794127
 20
1338.254603197543
 30
0.0
 11
1423.618281152284
 21
1338.254603197543
 31
0.0
  0
LINE
  5
1940
330
1F
100
AcDbEntity
  8
0
100
AcDbLine
 10
1119.510719473205
 20
1473.754603197543
 30
0.0
 11
1119.510719473205
 21
1473.754603197543
 31
0.0
  0
ARC
  5
1941
330
1F
100
AcDbEntity
  8
0
100
AcDbCircle
 10
1341.760946333647
 20
1444.254603197543
 30
0.0
 40
64.0
100
AcDbArc
 50
32.86646473909692
 51
90.0
  0
LINE
  5
1943
330
1F
100
AcDbEntity
  8
Cen
100
AcDbLine
 10
1175.29838185515
 20
1493.254603197543
 30
0.0
 11
1142.395821896757
 21
1493.254603197543
 31
0.0
  0
TEXT
  5
1944
330
1F
100
AcDbEntity
  8
0
100
AcDbText
 10
1267.923844946723
 20
1461.569700540273
 30
0.0
 40
25.0
  1
64R
 11
1267.923844946723
 21
1458.23636720694
 31
0.0
100
AcDbText
 73
     1
  0
LEADER
  5
1945
330
1F
100
AcDbEntity
  8
0
100
AcDbLeader
  3
ISO-25
 40
25.0
 41
16.66666666666666
 76
     2
 10
1202.974979727099
 20
1490.931926947255
 30
0.0
 10
1257.099038993165
 20
1477.023502004822
 30
0.0
211
-1.0
221
0.0
231
0.0
210
0.0
220
0.0
230
-1.0
213
0.0
223
-12.5
233
0.0
1001
ACAD
1000
DSTYLE
1002
{
1070
    41
1040
25.0
1070
   147
1040
6.25
1070
    77
1070
     0
1070
    73
1070
     1
1070
    74
1070
     1
1070
   279
1070
     1
1070
   342
1005
DA
1002
}
  0
LINE
  5
1946
330
1F
100
AcDbEntity
  8
Cen
100
AcDbLine
 10
1224.510719473205
 20
1620.372559644705
 30
0.0
 11
1224.510719473206
 21
1493.254603197543
 31
0.0
  0
LINE
  5
1947
330
1F
100
AcDbEntity
  8
Cen
100
AcDbLine
 10
1354.510719473205
 20
1620.372559644705
 30
0.0
 11
1354.510719473206
 21
1493.254603197543
 31
0.0
  0
CIRCLE
  5
1948
330
1F
100
AcDbEntity
  8
Cen
100
AcDbCircle
 10
1159.510719473205
 20
1493.254603197543
 30
0.0
 40
6.0
  0
LINE
  5
1949
330
1F
100
AcDbEntity
  8
Cen
100
AcDbLine
 10
1159.510719473205
 20
1655.254603197543
 30
0.0
 11
1159.510719473205
 21
1461.254603197543
 31
0.0
  0
DIMENSION
  5
194A
330
1F
100
AcDbEntity
  8
0
100
AcDbDimension
  2
*D30
 10
1224.510719473206
 20
1620.372559644705
 30
0.0
 11
1289.510719473206
 21
1639.122559644705
 31
0.0
 70
    32
 71
     5
 42
130.0
  3
ISO-25
100
AcDbAlignedDimension
 13
1354.510719473206
 23
1525.254603197543
 33
0.0
 14
1224.510719473206
 24
1525.254603197543
 34
0.0
 50
180.0
100
AcDbRotatedDimension
  0
ARC
  5
194B
330
1F
100
AcDbEntity
  8
0
100
AcDbCircle
 10
1237.260492612765
 20
1444.254603197543
 30
0.0
 40
64.0
100
AcDbArc
 50
90.0
 51
147.133535260903
  0
ARC
  5
194C
330
1F
100
AcDbEntity
  8
0
100
AcDbCircle
 10
1439.510719473205
 20
1337.295423774889
 30
0.0
 40
100.0
100
AcDbArc
 50
0.0
 51
78.46304096717926
  0
LINE
  5
194D
330
1F
100
AcDbEntity
  8
Cen
100
AcDbLine
 10
1438.518869857105
 20
1493.254603197543
 30
0.0
 11
1403.998148342872
 21
1493.254603197543
 31
0.0
  0
LEADER
  5
194E
330
1F
100
AcDbEntity
  8
0
100
AcDbLeader
  3
ISO-25
 40
25.0
 41
16.66666666666666
 76
     2
 10
1424.757223912338
 20
1441.286162333675
 30
0.0
 10
1425.726422071277
 20
1380.266741653066
 30
0.0
211
-1.0
221
0.0
231
0.0
210
0.0
220
0.0
230
-1.0
213
0.0
223
12.5
233
0.0
1001
ACAD
1000
DSTYLE
1002
{
1070
    41
1040
25.0
1070
   147
1040
6.25
1070
    77
1070
     0
1070
    73
1070
     1
1070
    74
1070
     1
1070
   279
1070
     1
1070
   342
1005
DA
1002
}
  0
TEXT
  5
194F
330
1F
100
AcDbEntity
  8
0
100
AcDbText
 10
1406.039453518681
 20
1346.428383914201
 30
0.0
 40
25.0
  1
100R
 11
1406.039453518681
 21
1371.428383914201
 31
0.0
100
AcDbText
 73
     3
  0
LEADER
  5
1950
330
1F
100
AcDbEntity
  8
0
100
AcDbLeader
  3
ISO-25
 40
25.0
 41
16.66666666666666
 76
     2
 10
1493.570591772238
 20
1413.197855485633
 30
0.0
 10
1454.802496987624
 20
1381.235300228064
 30
0.0
211
-1.0
221
0.0
231
0.0
210
0.0
220
0.0
230
-1.0
213
0.0
223
-12.5
233
0.0
1001
ACAD
1000
DSTYLE
1002
{
1070
    41
1040
25.0
1070
   147
1040
6.25
1070
    77
1070
     0
1070
    73
1070
     1
1070
    74
1070
     1
1070
   279
1070
     1
1070
   342
1005
DA
1002
}
  0
TEXT
  5
1951
330
1F
100
AcDbEntity
  8
0
100
AcDbText
 10
1452.295618050984
 20
1597.21954457463
 30
0.0
 40
25.0
  1
12%%C
 72
     2
 11
1510.628951384318
 21
1593.886211241296
 31
0.0
100
AcDbText
 73
     1
  0
LEADER
  5
1952
330
1F
100
AcDbEntity
  8
0
100
AcDbLeader
  3
ISO-25
 40
25.0
 41
41.66666666666666
 76
     2
 10
1427.022067252863
 20
1499.200843938213
 30
0.0
 10
1451.355095895218
 20
1584.610618318845
 30
0.0
211
-1.0
221
0.0
231
0.0
210
0.0
220
0.0
230
-1.0
213
0.0
223
12.5
233
0.0
1001
ACAD
1000
DSTYLE
1002
{
1070
    41
1040
25.0
1070
   147
1040
6.25
1070
    77
1070
     0
1070
    73
1070
     1
1070
    74
1070
     1
1070
   342
1005
DA
1002
}
  0
CIRCLE
  5
1953
330
1F
100
AcDbEntity
  8
Cen
100
AcDbCircle
 10
1419.510719473205
 20
1493.254603197543
 30
0.0
 40
6.0
  0
LINE
  5
1954
330
1F
100
AcDbEntity
  8
Cen
100
AcDbLine
 10
1419.510719473205
 20
1655.254603197543
 30
0.0
 11
1419.510719473205
 21
1461.254603197543
 31
0.0
  0
ARC
  5
1956
330
1F
100
AcDbEntity
  8
0
100
AcDbCircle
 10
1479.510719473205
 20
1448.254603197543
 30
0.0
 40
60.0
100
AcDbArc
 50
0.0
 51
90.0
  0
DIMENSION
  5
1A87
330
1F
100
AcDbEntity
  8
実形
100
AcDbDimension
  2
*D31
 10
751.6269958531011
 20
1444.254603197543
 30
0.0
 11
812.8559217751735
 21
1506.298741007314
 31
0.0
 70
   160
  1
5
 71
     5
 42
64.0
  3
ISO-25
100
AcDbAlignedDimension
 13
846.5974023807511
 23
1508.254603197543
 33
0.0
 14
837.7120078506759
 24
1444.254603197543
 34
0.0
 50
90.0
100
AcDbRotatedDimension
1001
ACAD
1000
DSTYLE
1002
{
1070
   279
1070
     2
1002
}
  0
DIMENSION
  5
1A88
330
1F
100
AcDbEntity
  8
実形
100
AcDbDimension
  2
*D32
 10
751.6269958531011
 20
1444.254603197543
 30
0.0
 11
732.8769958531008
 21
1473.754603197543
 31
0.0
 70
    32
 71
     5
 42
59.0
  3
ISO-25
100
AcDbAlignedDimension
 13
792.7148222879678
 23
1503.254603197543
 33
0.0
 14
792.7148222879678
 24
1444.254603197543
 34
0.0
 50
90.0
100
AcDbRotatedDimension
1001
ACAD
1000
DSTYLE
1002
{
1070
    42
1040
0.0
1070
   279
1070
     1
1002
}
  0
DIMENSION
  5
1A89
330
1F
100
AcDbEntity
  8
実形
100
AcDbDimension
  2
*D33
 10
889.5107194732057
 20
1592.681495128561
 30
0.0
 11
911.061612352308
 21
1593.456920303477
 31
0.0
 70
   160
 71
     5
 42
39.99999999999955
  3
ISO-25
100
AcDbAlignedDimension
 13
929.5107194732052
 23
1503.254603197543
 33
0.0
 14
889.5107194732057
 24
1503.254603197543
 34
0.0
 50
180.0
100
AcDbRotatedDimension
1001
ACAD
1000
DSTYLE
1002
{
1070
   279
1070
     1
1002
}
  0
ARC
  5
1D6A
330
1F
100
AcDbEntity
  8
実形
370
    15
100
AcDbCircle
 10
1059.510719473205
 20
1473.754603197543
 30
0.0
 40
10.0
100
AcDbArc
 50
90.0
 51
180.0
  0
ARC
  5
1D6B
330
1F
100
AcDbEntity
  8
実形
370
    15
100
AcDbCircle
 10
1059.510719473205
 20
1473.754603197543
 30
0.0
 40
10.0
100
AcDbArc
 50
180.0
 51
270.0
  0
LINE
  5
1D6C
330
1F
100
AcDbEntity
  8
実形
370
    15
100
AcDbLine
 10
1049.510719473205
 20
1473.754603197543
 30
0.0
 11
1049.510719473205
 21
1473.754603197543
 31
0.0
  0
ARC
  5
1D6D
330
1F
100
AcDbEntity
  8
実形
370
    15
100
AcDbCircle
 10
1099.510719473205
 20
1473.754603197543
 30
0.0
 40
10.0
100
AcDbArc
 50
270.0
 51
0.0
  0
LINE
  5
1D6E
330
1F
100
AcDbEntity
  8
実形
370
    15
100
AcDbLine
 10
1099.510719473205
 20
1463.754603197542
 30
0.0
 11
1059.510719473205
 21
1463.754603197543
 31
0.0
  0
ARC
  5
1D6F
330
1F
100
AcDbEntity
  8
実形
370
    15
100
AcDbCircle
 10
1099.510719473205
 20
1473.754603197543
 30
0.0
 40
10.0
100
AcDbArc
 50
0.0
 51
90.0
  0
LINE
  5
1D70
330
1F
100
AcDbEntity
  8
実形
370
    15
100
AcDbLine
 10
1109.510719473205
 20
1473.754603197543
 30
0.0
 11
1109.510719473205
 21
1473.754603197543
 31
0.0
  0
LINE
  5
1D71
330
1F
100
AcDbEntity
  8
実形
370
    15
100
AcDbLine
 10
1059.510719473205
 20
1483.754603197542
 30
0.0
 11
1099.510719473205
 21
1483.754603197542
 31
0.0
  0
LINE
  5
1D72
330
1F
100
AcDbEntity
  8
実形
370
    15
100
AcDbLine
 10
1099.510719473205
 20
1468.754603197542
 30
0.0
 11
1059.510719473205
 21
1468.754603197543
 31
0.0
  0
ARC
  5
1D73
330
1F
100
AcDbEntity
  8
実形
370
    15
100
AcDbCircle
 10
1099.510719473205
 20
1473.754603197543
 30
0.0
 40
5.0
100
AcDbArc
 50
270.0
 51
0.0
  0
ARC
  5
1D74
330
1F
100
AcDbEntity
  8
実形
370
    15
100
AcDbCircle
 10
1099.510719473205
 20
1473.754603197543
 30
0.0
 40
5.0
100
AcDbArc
 50
0.0
 51
90.0
  0
LINE
  5
1D75
330
1F
100
AcDbEntity
  8
実形
370
    15
100
AcDbLine
 10
1059.510719473205
 20
1478.754603197543
 30
0.0
 11
1099.510719473205
 21
1478.754603197542
 31
0.0
  0
ARC
  5
1D76
330
1F
100
AcDbEntity
  8
実形
370
    15
100
AcDbCircle
 10
1059.510719473205
 20
1473.754603197543
 30
0.0
 40
5.0
100
AcDbArc
 50
90.0
 51
180.0
  0
ARC
  5
1D77
330
1F
100
AcDbEntity
  8
実形
370
    15
100
AcDbCircle
 10
1059.510719473205
 20
1473.754603197543
 30
0.0
 40
5.0
100
AcDbArc
 50
180.0
 51
270.0
  0
ARC
  5
1D78
330
1F
100
AcDbEntity
  8
実形
370
    15
100
AcDbCircle
 10
989.5107194732053
 20
1473.754603197543
 30
0.0
 40
5.0
100
AcDbArc
 50
270.0
 51
0.0
  0
ARC
  5
1D79
330
1F
100
AcDbEntity
  8
実形
370
    15
100
AcDbCircle
 10
989.5107194732053
 20
1473.754603197543
 30
0.0
 40
5.0
100
AcDbArc
 50
0.0
 51
90.0
  0
LINE
  5
1D7A
330
1F
100
AcDbEntity
  8
実形
370
    15
100
AcDbLine
 10
989.5107194732053
 20
1478.754603197543
 30
0.0
 11
949.5107194732053
 21
1478.754603197542
 31
0.0
  0
ARC
  5
1D7B
330
1F
100
AcDbEntity
  8
実形
370
    15
100
AcDbCircle
 10
949.5107194732053
 20
1473.754603197543
 30
0.0
 40
5.0
100
AcDbArc
 50
90.0
 51
180.0
  0
ARC
  5
1D7C
330
1F
100
AcDbEntity
  8
実形
370
    15
100
AcDbCircle
 10
949.5107194732053
 20
1473.754603197543
 30
0.0
 40
5.0
100
AcDbArc
 50
180.0
 51
270.0
  0
LINE
  5
1D7D
330
1F
100
AcDbEntity
  8
実形
370
    15
100
AcDbLine
 10
949.5107194732053
 20
1468.754603197542
 30
0.0
 11
989.5107194732053
 21
1468.754603197543
 31
0.0
  0
LINE
  5
1D7E
330
1F
100
AcDbEntity
  8
実形
370
    15
100
AcDbLine
 10
989.5107194732053
 20
1483.754603197542
 30
0.0
 11
949.5107194732053
 21
1483.754603197542
 31
0.0
  0
LINE
  5
1D7F
330
1F
100
AcDbEntity
  8
実形
100
AcDbLine
 10
939.5107194732053
 20
1473.754603197543
 30
0.0
 11
939.5107194732053
 21
1473.754603197543
 31
0.0
  0
ARC
  5
1D80
330
1F
100
AcDbEntity
  8
実形
370
    15
100
AcDbCircle
 10
949.5107194732053
 20
1473.754603197543
 30
0.0
 40
10.0
100
AcDbArc
 50
90.0
 51
180.0
  0
LINE
  5
1D81
330
1F
100
AcDbEntity
  8
実形
370
    15
100
AcDbLine
 10
949.5107194732053
 20
1463.754603197542
 30
0.0
 11
989.5107194732053
 21
1463.754603197543
 31
0.0
  0
ARC
  5
1D82
330
1F
100
AcDbEntity
  8
実形
370
    15
100
AcDbCircle
 10
949.5107194732053
 20
1473.754603197543
 30
0.0
 40
10.0
100
AcDbArc
 50
180.0
 51
270.0
  0
LINE
  5
1D83
330
1F
100
AcDbEntity
  8
実形
370
    15
100
AcDbLine
 10
999.5107194732053
 20
1473.754603197543
 30
0.0
 11
999.5107194732053
 21
1473.754603197543
 31
0.0
  0
ARC
  5
1D84
330
1F
100
AcDbEntity
  8
実形
370
    15
100
AcDbCircle
 10
989.5107194732053
 20
1473.754603197543
 30
0.0
 40
10.0
100
AcDbArc
 50
270.0
 51
0.0
  0
ARC
  5
1D85
330
1F
100
AcDbEntity
  8
実形
370
    15
100
AcDbCircle
 10
989.5107194732053
 20
1473.754603197543
 30
0.0
 40
10.0
100
AcDbArc
 50
0.0
 51
90.0
  0
LINE
  5
1D86
330
1F
100
AcDbEntity
  8
実形
370
    15
100
AcDbLine
 10
1023.010719473205
 20
1484.979575357864
 30
0.0
 11
1023.010719473205
 21
1476.254603197543
 31
0.0
  0
LINE
  5
1D87
330
1F
100
AcDbEntity
  8
実形
370
    15
100
AcDbLine
 10
1013.285747312883
 20
1475.254603197543
 30
0.0
 11
1022.010719473205
 21
1475.254603197543
 31
0.0
  0
ARC
  5
1D88
330
1F
100
AcDbEntity
  8
実形
370
    15
100
AcDbCircle
 10
1022.010719473205
 20
1476.254603197543
 30
0.0
 40
1.0
100
AcDbArc
 50
270.0
 51
0.0
  0
LINE
  5
1D89
330
1F
100
AcDbEntity
  8
実形
370
    15
100
AcDbLine
 10
1027.010719473205
 20
1475.254603197542
 30
0.0
 11
1035.735691633527
 21
1475.254603197543
 31
0.0
  0
LINE
  5
1D8A
330
1F
100
AcDbEntity
  8
実形
370
    15
100
AcDbLine
 10
1026.010719473205
 20
1484.979575357864
 30
0.0
 11
1026.010719473205
 21
1476.254603197542
 31
0.0
  0
ARC
  5
1D8B
330
1F
100
AcDbEntity
  8
実形
370
    15
100
AcDbCircle
 10
1027.010719473205
 20
1476.254603197542
 30
0.0
 40
1.0
100
AcDbArc
 50
180.0
 51
270.0
  0
LINE
  5
1D8C
330
1F
100
AcDbEntity
  8
実形
370
    15
100
AcDbLine
 10
1027.010719473205
 20
1472.254603197543
 30
0.0
 11
1035.735691633527
 21
1472.254603197543
 31
0.0
  0
LINE
  5
1D8D
330
1F
100
AcDbEntity
  8
実形
370
    15
100
AcDbLine
 10
1026.010719473205
 20
1471.254603197543
 30
0.0
 11
1026.010719473205
 21
1462.529631037221
 31
0.0
  0
ARC
  5
1D8E
330
1F
100
AcDbEntity
  8
実形
370
    15
100
AcDbCircle
 10
1027.010719473205
 20
1471.254603197543
 30
0.0
 40
1.0
100
AcDbArc
 50
90.0
 51
180.0
  0
LINE
  5
1D8F
330
1F
100
AcDbEntity
  8
実形
370
    15
100
AcDbLine
 10
1023.010719473205
 20
1471.254603197542
 30
0.0
 11
1023.010719473205
 21
1462.529631037221
 31
0.0
  0
LINE
  5
1D90
330
1F
100
AcDbEntity
  8
実形
370
    15
100
AcDbLine
 10
1013.285747312883
 20
1472.254603197543
 30
0.0
 11
1022.010719473205
 21
1472.254603197542
 31
0.0
  0
ARC
  5
1D91
330
1F
100
AcDbEntity
  8
実形
370
    15
100
AcDbCircle
 10
1022.010719473205
 20
1471.254603197542
 30
0.0
 40
1.0
100
AcDbArc
 50
0.0
 51
90.0
  0
ARC
  5
1D92
330
1F
100
AcDbEntity
  8
実形
370
    15
100
AcDbCircle
 10
1024.510719473205
 20
1473.754603197543
 30
0.0
 40
12.5
100
AcDbArc
 50
102.5558577985876
 51
167.4441422014173
  0
ARC
  5
1D93
330
1F
100
AcDbEntity
  8
実形
370
    15
100
AcDbCircle
 10
1022.010719473205
 20
1484.979575357864
 30
0.0
 40
1.0
100
AcDbArc
 50
0.0
 51
102.5558577985876
  0
ARC
  5
1D94
330
1F
100
AcDbEntity
  8
実形
370
    15
100
AcDbCircle
 10
1013.285747312883
 20
1476.254603197543
 30
0.0
 40
1.0
100
AcDbArc
 50
167.4441422014188
 51
270.0
  0
ARC
  5
1D95
330
1F
100
AcDbEntity
  8
実形
370
    15
100
AcDbCircle
 10
1024.510719473205
 20
1473.754603197543
 30
0.0
 40
12.5
100
AcDbArc
 50
192.5558577985826
 51
257.4441422014124
  0
ARC
  5
1D96
330
1F
100
AcDbEntity
  8
実形
370
    15
100
AcDbCircle
 10
1013.285747312883
 20
1471.254603197543
 30
0.0
 40
1.0
100
AcDbArc
 50
90.0
 51
192.5558577985812
  0
ARC
  5
1D97
330
1F
100
AcDbEntity
  8
実形
370
    15
100
AcDbCircle
 10
1022.010719473205
 20
1462.529631037221
 30
0.0
 40
1.0
100
AcDbArc
 50
257.4441422014124
 51
0.0
  0
ARC
  5
1D98
330
1F
100
AcDbEntity
  8
実形
370
    15
100
AcDbCircle
 10
1024.510719473205
 20
1473.754603197543
 30
0.0
 40
12.5
100
AcDbArc
 50
282.5558577985876
 51
347.4441422014174
  0
ARC
  5
1D99
330
1F
100
AcDbEntity
  8
実形
370
    15
100
AcDbCircle
 10
1027.010719473205
 20
1462.529631037221
 30
0.0
 40
1.0
100
AcDbArc
 50
180.0
 51
282.5558577985876
  0
ARC
  5
1D9A
330
1F
100
AcDbEntity
  8
実形
370
    15
100
AcDbCircle
 10
1035.735691633527
 20
1471.254603197542
 30
0.0
 40
1.0
100
AcDbArc
 50
347.4441422014174
 51
90.0
  0
ARC
  5
1D9B
330
1F
100
AcDbEntity
  8
実形
370
    15
100
AcDbCircle
 10
1024.510719473205
 20
1473.754603197543
 30
0.0
 40
12.5
100
AcDbArc
 50
12.55585779858264
 51
77.44414220141242
  0
ARC
  5
1D9C
330
1F
100
AcDbEntity
  8
実形
370
    15
100
AcDbCircle
 10
1035.735691633527
 20
1476.254603197542
 30
0.0
 40
1.0
100
AcDbArc
 50
270.0
 51
12.55585779858264
  0
ARC
  5
1D9D
330
1F
100
AcDbEntity
  8
実形
370
    15
100
AcDbCircle
 10
1027.010719473205
 20
1484.979575357864
 30
0.0
 40
1.0
100
AcDbArc
 50
77.44414220141242
 51
180.0
  0
LINE
  5
1D9E
330
1F
100
AcDbEntity
  8
0
100
AcDbLine
 10
959.010719473205
 20
1444.254603197543
 30
0.0
 11
1090.010719473205
 21
1444.254603197543
 31
0.0
  0
LINE
  5
1EB8
330
1F
100
AcDbEntity
  8
0
  6
HIDDEN2
100
AcDbLine
 10
1903.967865434157
 20
1502.754603197543
 30
0.0
 11
1999.967865434157
 21
1502.754603197543
 31
0.0
  0
LINE
  5
1EB9
330
1F
100
AcDbEntity
  8
0
  6
HIDDEN2
100
AcDbLine
 10
2002.967865434158
 20
1499.754603197543
 30
0.0
 11
2002.967865434158
 21
1447.754603197543
 31
0.0
  0
LINE
  5
1EBA
330
1F
100
AcDbEntity
  8
0
  6
HIDDEN2
100
AcDbLine
 10
1999.967865434158
 20
1444.754603197543
 30
0.0
 11
1903.967865434157
 21
1444.754603197543
 31
0.0
  0
LINE
  5
1EBB
330
1F
100
AcDbEntity
  8
0
  6
HIDDEN2
 48
0.5
100
AcDbLine
 10
2002.967865434158
 20
1457.154603197543
 30
0.0
 11
2022.967865434157
 21
1457.154603197543
 31
0.0
  0
LINE
  5
1EBC
330
1F
100
AcDbEntity
  8
0
  6
HIDDEN2
 48
0.5
100
AcDbLine
 10
2002.967865434158
 20
1490.354603197542
 30
0.0
 11
2022.967865434157
 21
1490.354603197542
 31
0.0
  0
LINE
  5
1EBD
330
1F
100
AcDbEntity
  8
0
  6
HIDDEN2
100
AcDbLine
 10
2022.967865434157
 20
1490.354603197542
 30
0.0
 11
2022.967865434157
 21
1457.154603197543
 31
0.0
  0
ARC
  5
1EBE
330
1F
100
AcDbEntity
  8
0
  6
HIDDEN2
 48
0.5
100
AcDbCircle
 10
1999.967865434158
 20
1447.754603197543
 30
0.0
 40
3.0
100
AcDbArc
 50
270.0
 51
0.0
  0
DIMENSION
  5
1EBF
330
1F
100
AcDbEntity
  8
0
100
AcDbDimension
  2
*D34
 10
1903.967865434157
 20
1598.296985838963
 30
0.0
 11
1867.492554886326
 21
1601.558483769963
 31
0.0
 70
   160
 71
     5
 42
15.0
  3
ISO-25
100
AcDbAlignedDimension
 13
1888.967865434157
 23
1495.754603197543
 33
0.0
 14
1903.967865434157
 24
1495.754603197543
 34
0.0
100
AcDbRotatedDimension
1001
ACAD
1000
DSTYLE
1002
{
1070
   279
1070
     1
1002
}
  0
DIMENSION
  5
1EC0
330
1F
100
AcDbEntity
  8
0
100
AcDbDimension
  2
*D35
 10
2002.967865434158
 20
1598.296985838963
 30
0.0
 11
1953.467865434157
 21
1617.046985838963
 31
0.0
 70
    32
 71
     5
 42
99.0
  3
ISO-25
100
AcDbAlignedDimension
 13
1903.967865434157
 23
1495.754603197543
 33
0.0
 14
2002.967865434158
 24
1495.754603197543
 34
0.0
100
AcDbRotatedDimension
1001
ACAD
1000
DSTYLE
1002
{
1070
   279
1070
     1
1002
}
  0
DIMENSION
  5
1EC1
330
1F
100
AcDbEntity
  8
実形
100
AcDbDimension
  2
*D36
 10
2022.967865434157
 20
1598.416958169949
 30
0.0
 11
2034.384782572471
 21
1599.405225627317
 31
0.0
 70
   160
 71
     5
 42
20.0
  3
ISO-25
100
AcDbAlignedDimension
 13
2002.967865434158
 23
1495.754603197543
 33
0.0
 14
2022.967865434157
 24
1495.754603197543
 34
0.0
100
AcDbRotatedDimension
1001
ACAD
1000
DSTYLE
1002
{
1070
   279
1070
     1
1002
}
  0
DIMENSION
  5
1EC2
330
1F
100
AcDbEntity
  8
実形
100
AcDbDimension
  2
*D37
 10
2116.915410235281
 20
1457.154603197543
 30
0.0
 11
2143.617277328336
 21
1472.831662894852
 31
0.0
 70
   160
 71
     5
 42
33.19999999999982
  3
ISO-25
100
AcDbAlignedDimension
 13
2022.967865434157
 23
1490.354603197542
 33
0.0
 14
2022.967865434157
 24
1457.154603197543
 34
0.0
 50
90.0
100
AcDbRotatedDimension
1001
ACAD
1000
DSTYLE
1002
{
1070
   175
1070
     0
1070
   172
1070
     1
1070
    75
1070
     0
1070
   279
1070
     2
1002
}
  0
LINE
  5
1F3A
330
1F
100
AcDbEntity
  8
補助
 62
     0
100
AcDbLine
 10
2784.0
 20
1959.000000000001
 30
0.0
 11
2019.387286519283
 21
1959.000000000002
 31
0.0
  0
LINE
  5
1F3B
330
1F
100
AcDbEntity
  8
補助
 62
     0
100
AcDbLine
 10
2784.0
 20
1894.000000000001
 30
0.0
 11
2019.387286519283
 21
1894.000000000001
 31
0.0
  0
LINE
  5
1F3C
330
1F
100
AcDbEntity
  8
補助
 62
     0
100
AcDbLine
 10
2784.0
 20
1829.000000000001
 30
0.0
 11
2019.387286519283
 21
1829.000000000001
 31
0.0
  0
LINE
  5
1F3D
330
1F
100
AcDbEntity
  8
補助
 62
     0
100
AcDbLine
 10
2202.547653420927
 20
1764.000000000001
 30
0.0
 11
2202.547653420927
 21
2024.000000000002
 31
0.0
  0
LINE
  5
1F3E
330
1F
100
AcDbEntity
  8
補助
 62
     0
100
AcDbLine
 10
2019.387286519283
 20
1764.000000000001
 30
0.0
 11
2019.387286519283
 21
2024.000000000002
 31
0.0
  0
TEXT
  5
1F3F
330
1F
100
AcDbEntity
  8
補助
 62
     0
100
AcDbText
 10
2050.295698850121
 20
1976.328571428573
 30
0.0
 40
30.0
  1
部品名
  7
明朝
 72
     4
 11
2116.124270278692
 21
1991.500000000002
 31
0.0
100
AcDbText
  0
TEXT
  5
1F40
330
1F
100
AcDbEntity
  8
補助
 62
     0
100
AcDbText
 10
2627.614285714286
 20
1976.07142857143
 30
0.0
 40
30.0
  1
厚さ
  7
明朝
 72
     4
 11
2671.5
 21
1991.500000000002
 31
0.0
100
AcDbText
  0
LINE
  5
1F41
330
1F
100
AcDbEntity
  8
補助
 62
     0
100
AcDbLine
 10
2559.000000000001
 20
1764.000000000001
 30
0.0
 11
2559.0
 21
2024.000000000002
 31
0.0
  0
TEXT
  5
1F42
330
1F
100
AcDbEntity
  8
補助
 62
     0
100
AcDbText
 10
2338.490869919937
 20
1975.947979478156
 30
0.0
 40
30.0
  1
材質
  7
明朝
 72
     4
 11
2382.376584205651
 21
1991.119408049584
 31
0.0
100
AcDbText
  0
TEXT
  5
1F43
330
1F
100
AcDbEntity
  8
実形
 62
     0
100
AcDbText
 10
2048.227810657788
 20
1910.557142857144
 30
0.0
 40
30.0
  1
ボウル
  7
明朝
 72
     4
 11
2114.056382086359
 21
1926.500000000001
 31
0.0
100
AcDbText
  0
TEXT
  5
1F44
330
1F
100
AcDbEntity
  8
実形
 62
     0
100
AcDbText
 10
2594.700000000001
 20
1911.842857142858
 30
0.0
 40
30.0
  1
0.7ｍｍ
  7
明朝
 72
     4
 11
2671.500000000001
 21
1926.500000000001
 31
0.0
100
AcDbText
  0
TEXT
  5
1F45
330
1F
100
AcDbEntity
  8
実形
 62
     0
100
AcDbText
 10
2261.900666790539
 20
1910.728571428572
 30
0.0
 40
30.0
  1
SUS304（BA)
  7
明朝
 72
     4
 11
2382.586381076253
 21
1926.500000000001
 31
0.0
100
AcDbText
  0
TEXT
  5
1F46
330
1F
100
AcDbEntity
  8
実形
 62
     0
100
AcDbText
 10
2070.170667800645
 20
1846.242857142858
 30
0.0
 40
30.0
  1
天板
  7
明朝
 72
     4
 11
2114.056382086359
 21
1861.500000000001
 31
0.0
100
AcDbText
  0
TEXT
  5
1F47
330
1F
100
AcDbEntity
  8
実形
 62
     0
100
AcDbText
 10
2594.700000000001
 20
1846.842857142858
 30
0.0
 40
30.0
  1
0.8ｍｍ
  7
明朝
 72
     4
 11
2671.500000000001
 21
1861.500000000001
 31
0.0
100
AcDbText
  0
TEXT
  5
1F48
330
1F
100
AcDbEntity
  8
実形
 62
     0
100
AcDbText
 10
2218.959726250723
 20
1848.357142857144
 30
0.0
 40
25.0
  1
SUS304（市松ｴﾝﾎﾞｽ）
  7
明朝
 72
     4
 11
2392.674011965008
 21
1861.500000000001
 31
0.0
100
AcDbText
  0
LINE
  5
1F49
330
1F
100
AcDbEntity
  8
補助
 62
     0
100
AcDbLine
 10
2784.0
 20
1764.000000000001
 30
0.0
 11
2019.387286519283
 21
1764.000000000001
 31
0.0
  0
TEXT
  5
1F54
330
1F
100
AcDbEntity
  8
実形
 62
     0
100
AcDbText
 10
2026.284953514931
 20
1780.557142857144
 30
0.0
 40
30.0
  1
ポケット
  7
明朝
 72
     4
 11
2114.056382086359
 21
1796.500000000001
 31
0.0
100
AcDbText
  0
TEXT
  5
1F66
330
1F
100
AcDbEntity
  8
実形
 62
     0
100
AcDbText
 10
2294.814952504824
 20
1781.242857142858
 30
0.0
 40
30.0
  1
樹脂(PP)
  7
明朝
 72
     4
 11
2382.586381076253
 21
1796.500000000001
 31
0.0
100
AcDbText
  0
TEXT
  5
1F6F
330
1F
100
AcDbEntity
  8
実形
 62
     0
100
AcDbText
 10
2616.642857142859
 20
1781.842857142858
 30
0.0
 40
30.0
  1
3ｍｍ
  7
明朝
 72
     4
 11
2671.500000000001
 21
1796.500000000001
 31
0.0
100
AcDbText
  0
LINE
  5
1F70
330
1F
100
AcDbEntity
  8
補助
100
AcDbLine
 10
109.0
 20
4.0
 30
0.0
 11
109.0
 21
2024.0
 31
0.0
  0
VIEWPORT
  5
2E
102
{ACAD_XDICTIONARY
360
1F9B
102
}
330
1B
100
AcDbEntity
 67
     1
  8
0
100
AcDbViewport
 10
144.7270812988281
 20
101.2295806407928
 30
0.0
 40
411.6736216682419
 41
222.1517806396485
 68
     1
 69
     1
 12
144.7270812988281
 22
101.2295806407928
 13
0.0
 23
0.0
 14
10.0
 24
10.0
 15
10.0
 25
10.0
 16
0.0
 26
0.0
 36
1.0
 17
0.0
 27
0.0
 37
0.0
 42
50.0
 43
0.0
 44
0.0
 45
222.1517806396485
 50
0.0
 51
0.0
 72
   100
 90
    32800
  1

281
     0
 71
     1
 74
     0
110
0.0
120
0.0
130
0.0
111
1.0
121
0.0
131
0.0
112
0.0
122
1.0
132
0.0
 79
     0
146
0.0
  0
VIEWPORT
  5
30
102
{ACAD_XDICTIONARY
360
1F9D
102
}
330
1B
100
AcDbEntity
 67
     1
  8
0
100
AcDbViewport
 10
139.2237563133239
 20
101.2295821905136
 30
0.0
 40
222.7580101013184
 41
161.9673315048218
 68
     2
 69
     2
 12
210.0
 22
148.5
 13
0.0
 23
0.0
 14
10.0
 24
10.0
 15
10.0
 25
10.0
 16
0.0
 26
0.0
 36
1.0
 17
0.0
 27
0.0
 37
0.0
 42
50.0
 43
0.0
 44
0.0
 45
309.0686705647124
 50
0.0
 51
0.0
 72
   100
 90
    32864
  1

281
     0
 71
     1
 74
     0
110
0.0
120
0.0
130
0.0
111
1.0
121
0.0
131
0.0
112
0.0
122
1.0
132
0.0
 79
     0
146
0.0
  0
ENDSEC
  0
SECTION
  2
OBJECTS
  0
DICTIONARY
  5
C
330
0
100
AcDbDictionary
281
     1
  3
ACAD_COLOR
350
1DBE
  3
ACAD_GROUP
350
D
  3
ACAD_LAYOUT
350
1A
  3
ACAD_MATERIAL
350
1DBD
  3
ACAD_MLINESTYLE
350
17
  3
ACAD_PLOTSETTINGS
350
19
  3
ACAD_PLOTSTYLENAME
350
E
  3
ACAD_TABLESTYLE
350
1DBF
  3
AcadDim
350
5B1
  3
ACDBHEADERROUNDTRIPXREC
350
1F94
  3
AcDbVariableDictionary
350
96D
  0
DICTIONARY
  5
1EA7
330
2
100
AcDbDictionary
280
     1
281
     1
  3
ACAD_LAYERFILTERS
360
1F22
  3
ACAD_LAYERSTATES
360
1EA8
  3
ACLYDICTIONARY
360
1F21
  0
DICTIONARY
  5
1F4A
330
1F
100
AcDbDictionary
280
     1
281
     1
  3
ACAD_SORTENTS
360
1F4B
  0
DICTIONARY
  5
1F9B
330
2E
100
AcDbDictionary
280
     1
281
     1
  3
ACAD_XREC_ROUNDTRIP
360
1F9C
  0
DICTIONARY
  5
1F9D
330
30
100
AcDbDictionary
280
     1
281
     1
  3
ACAD_XREC_ROUNDTRIP
360
1F9E
  0
DICTIONARY
  5
1DBE
102
{ACAD_REACTORS
330
C
102
}
330
C
100
AcDbDictionary
281
     1
  0
DICTIONARY
  5
D
102
{ACAD_REACTORS
330
C
102
}
330
C
100
AcDbDictionary
281
     1
  0
DICTIONARY
  5
1A
102
{ACAD_REACTORS
330
C
102
}
330
C
100
AcDbDictionary
281
     1
  3
Model
350
22
  3
ﾚｲｱｳﾄ1
350
1E
  3
ﾚｲｱｳﾄ2
350
26
  0
DICTIONARY
  5
1DBD
102
{ACAD_REACTORS
330
C
102
}
330
C
100
AcDbDictionary
281
     1
  0
DICTIONARY
  5
17
102
{ACAD_REACTORS
330
C
102
}
330
C
100
AcDbDictionary
281
     1
  3
Standard
350
18
  0
DICTIONARY
  5
19
102
{ACAD_REACTORS
330
C
102
}
330
C
100
AcDbDictionary
281
     1
  0
ACDBDICTIONARYWDFLT
  5
E
102
{ACAD_REACTORS
330
C
102
}
330
C
100
AcDbDictionary
281
     1
  3
Normal
350
F
100
AcDbDictionaryWithDefault
340
F
  0
DICTIONARY
  5
1DBF
102
{ACAD_REACTORS
330
C
102
}
330
C
100
AcDbDictionary
281
     1
  3
Standard
350
1DC0
  0
XRECORD
  5
5B1
102
{ACAD_REACTORS
330
C
102
}
330
C
100
AcDbXrecord
280
     1
 90
   990106
  3

 60
     0
 61
     0
 62
     1
 63
     3
 64
     0
 65
     0
 66
     0
 67
     3
 68
     1
 69
     0
 70
     0
 71
     0
 72
     0
 40
5.637859010809637
170
     0
340
0
  0
DICTIONARY
  5
1F94
102
{ACAD_REACTORS
330
C
102
}
330
C
100
AcDbDictionary
281
     1
  0
DICTIONARY
  5
96D
102
{ACAD_REACTORS
330
C
102
}
330
C
100
AcDbDictionary
281
     1
  3
CTABLESTYLE
350
1DCF
  3
DIMASSOC
350
1F91
  3
PROJECTNAME
350
1F92
  3
SORTENTS
350
96E
  0
DICTIONARY
  5
1F22
102
{ACAD_REACTORS
330
1EA7
102
}
330
1EA7
100
AcDbDictionary
281
     1
  0
DICTIONARY
  5
1EA8
102
{ACAD_REACTORS
330
1EA7
102
}
330
1EA7
100
AcDbDictionary
281
     1
  0
DICTIONARY
  5
1F21
102
{ACAD_REACTORS
330
1EA7
102
}
330
1EA7
100
AcDbDictionary
281
     1
1001
ACAD
1000
<All
  0
SORTENTSTABLE
  5
1F4B
102
{ACAD_REACTORS
330
1F4A
102
}
330
1F4A
100
AcDbSortentsTable
330
1F
331
A5
  5
A5
331
1D97
  5
1D98
331
1EBE
  5
1EBF
331
4AA
  5
4AB
331
5F9
  5
5FA
331
31C
  5
407
331
532
  5
55C
331
1954
  5
1956
331
14A7
  5
1714
331
191D
  5
191E
331
DEF
  5
DF0
331
C48
  5
D50
331
27E
  5
28B
331
601
  5
602
331
1925
  5
1926
331
D50
  5
D55
331
56A
  5
56C
331
192D
  5
192E
331
1D70
  5
1D71
331
1D78
  5
1D79
331
1F3D
  5
1F3F
331
1F45
  5
1F47
331
493
  5
495
331
1480
  5
1481
331
1935
  5
1936
331
5D2
  5
5D8
331
49B
  5
49D
331
2A6
  5
2B3
331
1488
  5
1489
331
193D
  5
193E
331
D70
  5
D71
331
4A3
  5
4A4
331
A29
  5
A2C
331
1490
  5
1491
331
1906
  5
1907
331
1945
  5
1946
331
1498
  5
1499
331
1916
  5
1917
331
194D
  5
194E
331
1D80
  5
1D81
331
1D88
  5
1D89
331
1D90
  5
1D91
331
1EBF
  5
1EC0
331
4AB
  5
4AC
331
464
  5
48F
331
5FA
  5
5FB
331
602
  5
603
331
DF0
  5
DF1
331
191E
  5
191F
331
1926
  5
1929
331
192E
  5
1930
331
1469
  5
146B
331
1D98
  5
1D99
331
1D71
  5
1D72
331
1D79
  5
1D7A
331
1F3E
  5
1F40
331
1F46
  5
1F48
331
A8
  5
A9
331
D59
  5
D5A
331
1481
  5
1482
331
40D
  5
42D
331
DFA
  5
F95
331
42D
  5
464
331
1489
  5
148A
331
1936
  5
1937
331
1907
  5
1908
331
D71
  5
D72
331
4A4
  5
4A5
331
1491
  5
1492
331
193E
  5
193F
331
1946
  5
1947
331
1499
  5
149A
331
190F
  5
1910
331
194E
  5
194F
331
1917
  5
1918
331
1D81
  5
1D82
331
1D89
  5
1D8A
331
1D91
  5
1D92
331
1EB8
  5
1EB9
331
1F66
  5
1F6F
331
1EC0
  5
1EC1
331
DC1
  5
DC2
331
270
  5
27E
331
4AC
  5
4AE
331
C3A
  5
C3B
331
5FB
  5
5FC
331
C42
  5
C43
331
1956
  5
1A87
331
DF1
  5
DF2
331
55C
  5
56A
331
603
  5
A29
331
191F
  5
1920
331
56C
  5
5A9
331
1D99
  5
1D9A
331
1D6A
  5
1D6B
331
1D72
  5
1D73
331
1D7A
  5
1D7B
331
1F3F
  5
1F41
331
1F47
  5
1F49
331
A9
  5
AA
331
298
  5
2A6
331
D5A
  5
D5B
331
2F7
  5
304
331
495
  5
496
331
1482
  5
1483
331
1937
  5
1939
331
49D
  5
49E
331
148A
  5
148B
331
193F
  5
1940
331
D72
  5
D73
331
4A5
  5
4A7
331
1492
  5
1493
331
1908
  5
1909
331
149A
  5
149B
331
1910
  5
1912
331
1947
  5
1948
331
194F
  5
1950
331
1D82
  5
1D83
331
1D8A
  5
1D8B
331
1D92
  5
1D93
331
1EB9
  5
1EBA
331
A0
  5
A0
331
1EC1
  5
1EC2
331
1F6F
  5
1F70
331
DC2
  5
DEA
331
C3B
  5
C3C
331
5F4
  5
5F5
331
C43
  5
C44
331
5FC
  5
5FD
331
DEA
  5
DEC
331
1918
  5
1919
331
DF2
  5
DFA
331
1920
  5
1921
331
146B
  5
146C
331
1D9A
  5
1D9B
331
1D6B
  5
1D6C
331
1D73
  5
1D74
331
1D7B
  5
1D7C
331
1F40
  5
1F42
331
AA
  5
AB
331
D5B
  5
D5C
331
407
  5
40D
331
1930
  5
1931
331
496
  5
49A
331
1483
  5
1484
331
49E
  5
4A3
331
148B
  5
148C
331
1909
  5
190C
331
A2C
  5
A2D
331
D73
  5
D74
331
1493
  5
1494
331
1940
  5
1941
331
1948
  5
1949
331
149B
  5
149C
331
1F48
  5
1F54
331
1D83
  5
1D84
331
1D8B
  5
1D8C
331
1D93
  5
1D94
331
1EBA
  5
1EBB
331
1EC2
  5
1F3A
331
5F5
  5
5F6
331
4AE
  5
532
331
C3C
  5
C3D
331
1950
  5
1951
331
C44
  5
C48
331
5FD
  5
5FE
331
1919
  5
191D
331
1921
  5
1922
331
1A87
  5
1A88
331
1929
  5
192A
331
146C
  5
146D
331
1D9B
  5
1D9C
331
1F70
  5
A8
331
1D6C
  5
1D6D
331
1D74
  5
1D75
331
1D7C
  5
1D7D
331
1F41
  5
1F43
331
AB
  5
AD
331
D5C
  5
D5D
331
48F
  5
492
331
1931
  5
1932
331
1484
  5
1485
331
1939
  5
193A
331
148C
  5
148D
331
1902
  5
1903
331
D6C
  5
D6E
331
1941
  5
1942
331
1494
  5
1495
331
D74
  5
DC1
331
4A7
  5
4A9
331
A2D
  5
C3A
331
1912
  5
1913
331
F95
  5
FA5
331
149C
  5
14A7
331
1949
  5
194A
331
1D84
  5
1D85
331
1F49
  5
1F3E
331
1D8C
  5
1D8D
331
1EBB
  5
1EBC
331
1D94
  5
1D95
331
C3D
  5
C42
331
5F6
  5
5F7
331
FA5
  5
FA6
331
1951
  5
1952
331
5FE
  5
5FF
331
DEC
  5
DED
331
1A88
  5
1A89
331
1922
  5
1923
331
28B
  5
298
331
192A
  5
192B
331
D55
  5
D56
331
146D
  5
146E
331
1D9C
  5
1D9D
331
1D6D
  5
1D6E
331
1D75
  5
1D76
331
1F3A
  5
1F3B
331
1D7D
  5
1D7E
331
1F42
  5
1F44
331
D5D
  5
D5E
331
1932
  5
1933
331
1485
  5
1486
331
1903
  5
1904
331
148D
  5
148E
331
193A
  5
193B
331
2B3
  5
2DC
331
1495
  5
1496
331
194A
  5
194B
331
1913
  5
1914
331
1D85
  5
1D86
331
1D8D
  5
1D8E
331
1D95
  5
1D96
331
1EBC
  5
1EBD
331
5F7
  5
5F8
331
1952
  5
1953
331
FA6
  5
1456
331
DED
  5
DEE
331
5FF
  5
600
331
1923
  5
1924
331
1456
  5
1457
331
1A89
  5
1D6A
331
145E
  5
145F
331
1714
  5
1902
331
192B
  5
192C
331
D56
  5
D59
331
146E
  5
146F
331
1D9D
  5
1D9E
331
1D6E
  5
1D6F
331
1D76
  5
1D77
331
1F3B
  5
1F3C
331
1D7E
  5
1D7F
331
1F43
  5
1F45
331
AD
  5
270
331
D5E
  5
D67
331
1933
  5
1934
331
1486
  5
1487
331
5D0
  5
5D2
331
193B
  5
193C
331
148E
  5
148F
331
1904
  5
1905
331
5D8
  5
5F4
331
D6E
  5
D6F
331
1943
  5
1944
331
1496
  5
1497
331
190C
  5
190D
331
1914
  5
1915
331
194B
  5
194C
331
1D86
  5
1D87
331
9C
  5
9C
331
1D8E
  5
1D8F
331
1EBD
  5
1EBE
331
1D96
  5
1D97
331
4A9
  5
4AA
331
2DC
  5
2F7
331
5F8
  5
5F9
331
1953
  5
1954
331
600
  5
601
331
DEE
  5
DEF
331
1924
  5
1925
331
1457
  5
145E
331
192C
  5
192D
331
145F
  5
1469
331
146F
  5
1480
331
1D9E
  5
1EB8
331
1D6F
  5
1D70
331
1D77
  5
1D78
331
1F3C
  5
1F3D
331
1D7F
  5
1D80
331
1F44
  5
1F46
331
5A9
  5
5D0
331
492
  5
493
331
1934
  5
1935
331
1487
  5
1488
331
D67
  5
D6C
331
49A
  5
49B
331
1905
  5
1906
331
148F
  5
1490
331
193C
  5
193D
331
304
  5
31C
331
D6F
  5
D70
331
1944
  5
1945
331
1497
  5
1498
331
190D
  5
190F
331
194C
  5
194D
331
1915
  5
1916
331
1D87
  5
1D88
331
1D8F
  5
1D90
331
1F54
  5
1F66
  0
XRECORD
  5
1F9C
102
{ACAD_REACTORS
330
1F9B
102
}
330
1F9B
100
AcDbXrecord
280
     1
102
SHADEPLOT
 70
     0
  0
XRECORD
  5
1F9E
102
{ACAD_REACTORS
330
1F9D
102
}
330
1F9D
100
AcDbXrecord
280
     1
102
SHADEPLOT
 70
     0
  0
LAYOUT
  5
22
102
{ACAD_XDICTIONARY
360
1F97
102
}
102
{ACAD_REACTORS
330
1A
102
}
330
1A
100
AcDbPlotSettings
  1

  2
EPSON PM-800C
  4
A4
  6

 40
3.757083177566528
 41
14.7637300491333
 42
3.757080078125
 43
3.757080078125
 44
209.9733276367187
 45
296.9683227539062
 46
0.0
 47
0.0
 48
0.0
 49
0.0
140
0.0
141
0.0
142
1.0
143
10.0
 70
 11952
 72
     1
 73
     1
 74
     2
  7

 75
    20
147
0.1
148
0.0
149
0.0
100
AcDbLayout
  1
Model
 70
     1
 71
     0
 10
0.0
 20
0.0
 11
12.0
 21
9.0
 12
0.0
 22
0.0
 32
0.0
 14
0.0
 24
0.0
 34
0.0
 15
0.0
 25
0.0
 35
0.0
146
0.0
 13
0.0
 23
0.0
 33
0.0
 16
1.0
 26
0.0
 36
0.0
 17
0.0
 27
1.0
 37
0.0
 76
     0
330
1F
  0
LAYOUT
  5
1E
102
{ACAD_XDICTIONARY
360
1F95
102
}
102
{ACAD_REACTORS
330
1A
102
}
330
1A
100
AcDbPlotSettings
  1

  2
EPSON PM-800C
  4
A4
  6

 40
3.757083177566528
 41
14.7637300491333
 42
3.757080078125
 43
3.757080078125
 44
209.9733276367187
 45
296.9683227539062
 46
0.0
 47
0.0
 48
0.0
 49
0.0
140
0.0
141
0.0
142
1.0
143
1.0
 70
   688
 72
     1
 73
     1
 74
     5
  7

 75
    16
147
1.0
148
0.0
149
0.0
100
AcDbLayout
  1
ﾚｲｱｳﾄ1
 70
     1
 71
     1
 10
-3.757080078125
 20
-3.757083177566528
 11
293.2112426757813
 21
206.2162444591522
 12
0.0
 22
0.0
 32
0.0
 14
27.8447512626648
 24
20.24591643810271
 34
0.0
 15
250.6027613639831
 25
182.2132479429245
 35
0.0
146
0.0
 13
0.0
 23
0.0
 33
0.0
 16
1.0
 26
0.0
 36
0.0
 17
0.0
 27
1.0
 37
0.0
 76
     0
330
1B
331
2E
  0
LAYOUT
  5
26
102
{ACAD_XDICTIONARY
360
1F99
102
}
102
{ACAD_REACTORS
330
1A
102
}
330
1A
100
AcDbPlotSettings
  1

  2
EPSON PM-800C
  4

  6

 40
0.0
 41
0.0
 42
0.0
 43
0.0
 44
0.0
 45
0.0
 46
0.0
 47
0.0
 48
0.0
 49
0.0
140
0.0
141
0.0
142
1.0
143
1.0
 70
   688
 72
     0
 73
     0
 74
     5
  7

 75
    16
147
1.0
148
0.0
149
0.0
100
AcDbLayout
  1
ﾚｲｱｳﾄ2
 70
     1
 71
     2
 10
0.0
 20
0.0
 11
12.0
 21
9.0
 12
0.0
 22
0.0
 32
0.0
 14
0.0
 24
0.0
 34
0.0
 15
0.0
 25
0.0
 35
0.0
146
0.0
 13
0.0
 23
0.0
 33
0.0
 16
1.0
 26
0.0
 36
0.0
 17
0.0
 27
1.0
 37
0.0
 76
     0
330
23
  0
MLINESTYLE
  5
18
102
{ACAD_REACTORS
330
17
102
}
330
17
100
AcDbMlineStyle
  2
STANDARD
 70
     0
  3

 62
   256
 51
90.0
 52
90.0
 71
     2
 49
0.5
 62
   256
  6
BYLAYER
 49
-0.5
 62
   256
  6
BYLAYER
  0
ACDBPLACEHOLDER
  5
F
102
{ACAD_REACTORS
330
E
102
}
330
E
  0
TABLESTYLE
  5
1DC0
102
{ACAD_REACTORS
330
1DBF
102
}
330
1DBF
100
AcDbTableStyle
  3
Standard
 70
     0
 71
     0
 40
1.5
 41
1.5
280
     0
281
     0
  7
Standard
140
4.5
170
     2
 62
     0
 63
     7
283
     0
274
    -2
284
     1
 64
     0
275
    -2
285
     1
 65
     0
276
    -2
286
     1
 66
     0
277
    -2
287
     1
 67
     0
278
    -2
288
     1
 68
     0
279
    -2
289
     1
 69
     0
  7
Standard
140
6.0
170
     5
 62
     0
 63
     7
283
     0
274
    -2
284
     1
 64
     0
275
    -2
285
     1
 65
     0
276
    -2
286
     1
 66
     0
277
    -2
287
     1
 67
     0
278
    -2
288
     1
 68
     0
279
    -2
289
     1
 69
     0
  7
Standard
140
4.5
170
     5
 62
     0
 63
     7
283
     0
274
    -2
284
     1
 64
     0
275
    -2
285
     1
 65
     0
276
    -2
286
     1
 66
     0
277
    -2
287
     1
 67
     0
278
    -2
288
     1
 68
     0
279
    -2
289
     1
 69
     0
  0
DICTIONARYVAR
  5
1DCF
102
{ACAD_REACTORS
330
96D
102
}
330
96D
100
DictionaryVariables
280
     0
  1
STANDARD
  0
DICTIONARYVAR
  5
1F91
102
{ACAD_REACTORS
330
96D
102
}
330
96D
100
DictionaryVariables
280
     0
  1
1
  0
DICTIONARYVAR
  5
1F92
102
{ACAD_REACTORS
330
96D
102
}
330
96D
100
DictionaryVariables
280
     0
  1

  0
DICTIONARYVAR
  5
96E
102
{ACAD_REACTORS
330
96D
102
}
330
96D
100
DictionaryVariables
280
     0
  1
96
  0
DICTIONARY
  5
1F97
330
22
100
AcDbDictionary
280
     1
281
     1
  3
ACAD_XREC_ROUNDTRIP
360
1F98
  0
DICTIONARY
  5
1F95
330
1E
100
AcDbDictionary
280
     1
281
     1
  3
ACAD_XREC_ROUNDTRIP
360
1F96
  0
DICTIONARY
  5
1F99
330
26
100
AcDbDictionary
280
     1
281
     1
  3
ACAD_XREC_ROUNDTRIP
360
1F9A
  0
XRECORD
  5
1F98
102
{ACAD_REACTORS
330
1F97
102
}
330
1F97
100
AcDbXrecord
280
     1
102
SHADEPLOT
 70
     0
102
SHADEPLOTRESLEVEL
 70
     2
102
SHADEPLOTCUSTOMDPI
 70
   300
  0
XRECORD
  5
1F96
102
{ACAD_REACTORS
330
1F95
102
}
330
1F95
100
AcDbXrecord
280
     1
102
SHADEPLOT
 70
     0
102
SHADEPLOTRESLEVEL
 70
     2
102
SHADEPLOTCUSTOMDPI
 70
   300
  0
XRECORD
  5
1F9A
102
{ACAD_REACTORS
330
1F99
102
}
330
1F99
100
AcDbXrecord
280
     1
102
SHADEPLOT
 70
     0
102
SHADEPLOTRESLEVEL
 70
     2
102
SHADEPLOTCUSTOMDPI
 70
   300
  0
ENDSEC
  0
EOF
