  0
SECTION
  2
HEADER
  9
$ACADVER
  1
AC1015
  9
$ACADMAINTVER
 70
    20
  9
$DWGCODEPAGE
  3
ANSI_932
  9
$INSBASE
 10
0.0
 20
0.0
 30
0.0
  9
$EXTMIN
 10
109.0
 20
4.0
 30
0.0
  9
$EXTMAX
 10
2784.000000000001
 20
2024.000000000002
 30
0.0
  9
$LIMMIN
 10
0.0
 20
0.0
  9
$LIMMAX
 10
29700.0
 20
21000.0
  9
$ORTHOMODE
 70
     0
  9
$REGENMODE
 70
     1
  9
$FILLMODE
 70
     1
  9
$QTEXTMODE
 70
     0
  9
$MIRRTEXT
 70
     1
  9
$LTSCALE
 40
4.0
  9
$ATTMODE
 70
     1
  9
$TEXTSIZE
 40
35.0
  9
$TRACEWID
 40
1.0
  9
$TEXTSTYLE
  7
Standard
  9
$CLAYER
  8
実形
  9
$CELTYPE
  6
ByLayer
  9
$CECOLOR
 62
   256
  9
$CELTSCALE
 40
1.0
  9
$DISPSILH
 70
     0
  9
$DIMSCALE
 40
1.0
  9
$DIMASZ
 40
30.0
  9
$DIMEXO
 40
65.0
  9
$DIMDLI
 40
3.75
  9
$DIMRND
 40
0.0
  9
$DIMDLE
 40
0.0
  9
$DIMEXE
 40
0.0
  9
$DIMTP
 40
0.0
  9
$DIMTM
 40
0.0
  9
$DIMTXT
 40
25.0
  9
$DIMCEN
 40
2.5
  9
$DIMTSZ
 40
0.0
  9
$DIMTOL
 70
     0
  9
$DIMLIM
 70
     0
  9
$DIMTIH
 70
     0
  9
$DIMTOH
 70
     0
  9
$DIMSE1
 70
     0
  9
$DIMSE2
 70
     0
  9
$DIMTAD
 70
     1
  9
$DIMZIN
 70
     8
  9
$DIMBLK
  1
DotSmall
  9
$DIMASO
 70
     1
  9
$DIMSHO
 70
     1
  9
$DIMPOST
  1

  9
$DIMAPOST
  1

  9
$DIMALT
 70
     0
  9
$DIMALTD
 70
     3
  9
$DIMALTF
 40
0.03937007874016
  9
$DIMLFAC
 40
1.0
  9
$DIMTOFL
 70
     1
  9
$DIMTVP
 40
0.0
  9
$DIMTIX
 70
     0
  9
$DIMSOXD
 70
     0
  9
$DIMSAH
 70
     0
  9
$DIMBLK1
  1

  9
$DIMBLK2
  1

  9
$DIMSTYLE
  2
ISO-25
  9
$DIMCLRD
 70
     0
  9
$DIMCLRE
 70
     0
  9
$DIMCLRT
 70
     0
  9
$DIMTFAC
 40
1.0
  9
$DIMGAP
 40
6.25
  9
$DIMJUST
 70
     0
  9
$DIMSD1
 70
     0
  9
$DIMSD2
 70
     0
  9
$DIMTOLJ
 70
     0
  9
$DIMTZIN
 70
     8
  9
$DIMALTZ
 70
     0
  9
$DIMALTTZ
 70
     0
  9
$DIMUPT
 70
     0
  9
$DIMDEC
 70
     2
  9
$DIMTDEC
 70
     2
  9
$DIMALTU
 70
     2
  9
$DIMALTTD
 70
     3
  9
$DIMTXSTY
  7
Standard
  9
$DIMAUNIT
 70
     0
  9
$DIMADEC
 70
     0
  9
$DIMALTRND
 40
0.0
  9
$DIMAZIN
 70
     0
  9
$DIMDSEP
 70
    46
  9
$DIMATFIT
 70
     3
  9
$DIMFRAC
 70
     0
  9
$DIMLDRBLK
  1
Open30
  9
$DIMLUNIT
 70
     2
  9
$DIMLWD
 70
    15
  9
$DIMLWE
 70
    15
  9
$DIMTMOVE
 70
     1
  9
$LUNITS
 70
     2
  9
$LUPREC
 70
     2
  9
$SKETCHINC
 40
1.0
  9
$FILLETRAD
 40
3.0
  9
$AUNITS
 70
     0
  9
$AUPREC
 70
     0
  9
$MENU
  1
.
  9
$ELEVATION
 40
0.0
  9
$PELEVATION
 40
0.0
  9
$THICKNESS
 40
0.0
  9
$LIMCHECK
 70
     1
  9
$CHAMFERA
 40
10.0
  9
$CHAMFERB
 40
10.0
  9
$CHAMFERC
 40
20.0
  9
$CHAMFERD
 40
0.0
  9
$SKPOLY
 70
     0
  9
$TDCREATE
 40
2451673.575802199
  9
$TDUCREATE
 40
2451673.200802199
  9
$TDUPDATE
 40
2458809.791379838
  9
$TDUUPDATE
 40
2458809.416379838
  9
$TDINDWG
 40
1.1675504514
  9
$TDUSRTIMER
 40
1.1675497569
  9
$USRTIMER
 70
     1
  9
$ANGBASE
 50
0.0
  9
$ANGDIR
 70
     0
  9
$PDMODE
 70
     0
  9
$PDSIZE
 40
0.0
  9
$PLINEWID
 40
0.0
  9
$SPLFRAME
 70
     0
  9
$SPLINETYPE
 70
     6
  9
$SPLINESEGS
 70
     8
  9
$HANDSEED
  5
2267
  9
$SURFTAB1
 70
     6
  9
$SURFTAB2
 70
     6
  9
$SURFTYPE
 70
     6
  9
$SURFU
 70
     6
  9
$SURFV
 70
     6
  9
$UCSBASE
  2

  9
$UCSNAME
  2

  9
$UCSORG
 10
0.0
 20
0.0
 30
0.0
  9
$UCSXDIR
 10
1.0
 20
0.0
 30
0.0
  9
$UCSYDIR
 10
0.0
 20
1.0
 30
0.0
  9
$UCSORTHOREF
  2

  9
$UCSORTHOVIEW
 70
     0
  9
$UCSORGTOP
 10
0.0
 20
0.0
 30
0.0
  9
$UCSORGBOTTOM
 10
0.0
 20
0.0
 30
0.0
  9
$UCSORGLEFT
 10
0.0
 20
0.0
 30
0.0
  9
$UCSORGRIGHT
 10
0.0
 20
0.0
 30
0.0
  9
$UCSORGFRONT
 10
0.0
 20
0.0
 30
0.0
  9
$UCSORGBACK
 10
0.0
 20
0.0
 30
0.0
  9
$PUCSBASE
  2

  9
$PUCSNAME
  2

  9
$PUCSORG
 10
0.0
 20
0.0
 30
0.0
  9
$PUCSXDIR
 10
1.0
 20
0.0
 30
0.0
  9
$PUCSYDIR
 10
0.0
 20
1.0
 30
0.0
  9
$PUCSORTHOREF
  2

  9
$PUCSORTHOVIEW
 70
     0
  9
$PUCSORGTOP
 10
0.0
 20
0.0
 30
0.0
  9
$PUCSORGBOTTOM
 10
0.0
 20
0.0
 30
0.0
  9
$PUCSORGLEFT
 10
0.0
 20
0.0
 30
0.0
  9
$PUCSORGRIGHT
 10
0.0
 20
0.0
 30
0.0
  9
$PUCSORGFRONT
 10
0.0
 20
0.0
 30
0.0
  9
$PUCSORGBACK
 10
0.0
 20
0.0
 30
0.0
  9
$USERI1
 70
     0
  9
$USERI2
 70
     0
  9
$USERI3
 70
     0
  9
$USERI4
 70
     0
  9
$USERI5
 70
     0
  9
$USERR1
 40
0.0
  9
$USERR2
 40
0.0
  9
$USERR3
 40
0.0
  9
$USERR4
 40
0.0
  9
$USERR5
 40
0.0
  9
$WORLDVIEW
 70
     1
  9
$SHADEDGE
 70
     3
  9
$SHADEDIF
 70
    70
  9
$TILEMODE
 70
     1
  9
$MAXACTVP
 70
    64
  9
$PINSBASE
 10
0.0
 20
0.0
 30
0.0
  9
$PLIMCHECK
 70
     0
  9
$PEXTMIN
 10
27.8447512626648
 20
20.24591643810271
 30
0.0
  9
$PEXTMAX
 10
250.6027613639831
 20
182.2132479429245
 30
0.0
  9
$PLIMMIN
 10
-3.757080078125
 20
-3.757083177566528
  9
$PLIMMAX
 10
293.2112426757813
 20
206.2162444591522
  9
$UNITMODE
 70
     0
  9
$VISRETAIN
 70
     1
  9
$PLINEGEN
 70
     0
  9
$PSLTSCALE
 70
     1
  9
$TREEDEPTH
 70
  3020
  9
$CMLSTYLE
  2
Standard
  9
$CMLJUST
 70
     0
  9
$CMLSCALE
 40
20.0
  9
$PROXYGRAPHICS
 70
     1
  9
$MEASUREMENT
 70
     1
  9
$CELWEIGHT
370
    -1
  9
$ENDCAPS
280
     0
  9
$JOINSTYLE
280
     0
  9
$LWDISPLAY
290
     0
  9
$INSUNITS
 70
     4
  9
$HYPERLINKBASE
  1

  9
$STYLESHEET
  1

  9
$XEDIT
290
     1
  9
$CEPSNTYPE
380
     0
  9
$PSTYLEMODE
290
     1
  9
$FINGERPRINTGUID
  2
{C8EA1F16-24C9-11D4-9416-CE0A3B32152F}
  9
$VERSIONGUID
  2
{589F2E5E-EA28-4473-B9A1-2C93188693F5}
  9
$EXTNAMES
290
     1
  9
$PSVPSCALE
 40
0.0
  9
$OLESTARTUP
290
     0
  0
ENDSEC
  0
SECTION
  2
CLASSES
  0
CLASS
  1
ACDBDICTIONARYWDFLT
  2
AcDbDictionaryWithDefault
  3
ObjectDBX Classes
 90
        0
280
     0
281
     0
  0
CLASS
  1
ACDBPLACEHOLDER
  2
AcDbPlaceHolder
  3
ObjectDBX Classes
 90
        0
280
     0
281
     0
  0
CLASS
  1
LAYOUT
  2
AcDbLayout
  3
ObjectDBX Classes
 90
        0
280
     0
281
     0
  0
CLASS
  1
DICTIONARYVAR
  2
AcDbDictionaryVar
  3
ObjectDBX Classes
 90
        0
280
     0
281
     0
  0
CLASS
  1
TABLESTYLE
  2
AcDbTableStyle
  3
ObjectDBX Classes
 90
     2047
280
     0
281
     0
  0
CLASS
  1
SORTENTSTABLE
  2
AcDbSortentsTable
  3
ObjectDBX Classes
 90
        0
280
     0
281
     0
  0
ENDSEC
  0
SECTION
  2
TABLES
  0
TABLE
  2
VPORT
  5
8
330
0
100
AcDbSymbolTable
 70
     2
  0
VPORT
  5
225B
330
8
100
AcDbSymbolTableRecord
100
AcDbViewportTableRecord
  2
*Active
 70
     0
 10
0.0
 20
0.0
 11
1.0
 21
1.0
 12
1924.134449505194
 22
928.7380765768002
 13
0.0
 23
0.0
 14
10.0
 24
10.0
 15
10.0
 25
10.0
 16
0.0
 26
0.0
 36
1.0
 17
0.0
 27
0.0
 37
0.0
 40
2911.703943606996
 41
1.29038112522686
 42
50.0
 43
0.0
 44
0.0
 50
0.0
 51
0.0
 71
     0
 72
   100
 73
     1
 74
     3
 75
     0
 76
     0
 77
     0
 78
     0
281
     0
 65
     1
110
0.0
120
0.0
130
0.0
111
1.0
121
0.0
131
0.0
112
0.0
122
1.0
132
0.0
 79
     0
146
0.0
  0
ENDTAB
  0
TABLE
  2
LTYPE
  5
5
330
0
100
AcDbSymbolTable
 70
    46
  0
LTYPE
  5
14
330
5
100
AcDbSymbolTableRecord
100
AcDbLinetypeTableRecord
  2
ByBlock
 70
     0
  3

 72
    65
 73
     0
 40
0.0
  0
LTYPE
  5
15
330
5
100
AcDbSymbolTableRecord
100
AcDbLinetypeTableRecord
  2
ByLayer
 70
     0
  3

 72
    65
 73
     0
 40
0.0
  0
LTYPE
  5
16
330
5
100
AcDbSymbolTableRecord
100
AcDbLinetypeTableRecord
  2
Continuous
 70
     0
  3
Solid line
 72
    65
 73
     0
 40
0.0
  0
LTYPE
  5
34
330
5
100
AcDbSymbolTableRecord
100
AcDbLinetypeTableRecord
  2
ACAD_ISO02W100
 70
     0
  3
ISO dash __ __ __ __ __ __ __ __ __ __ __ __ __
 72
    65
 73
     2
 40
15.0
 49
12.0
 74
     0
 49
-3.0
 74
     0
  0
LTYPE
  5
35
330
5
100
AcDbSymbolTableRecord
100
AcDbLinetypeTableRecord
  2
ACAD_ISO03W100
 70
     0
  3
ISO dash space __    __    __    __    __    __
 72
    65
 73
     2
 40
30.0
 49
12.0
 74
     0
 49
-18.0
 74
     0
  0
LTYPE
  5
36
330
5
100
AcDbSymbolTableRecord
100
AcDbLinetypeTableRecord
  2
ACAD_ISO04W100
 70
     0
  3
ISO long-dash dot ____ . ____ . ____ . ____ . _
 72
    65
 73
     4
 40
30.0
 49
24.0
 74
     0
 49
-3.0
 74
     0
 49
0.0
 74
     0
 49
-3.0
 74
     0
  0
LTYPE
  5
37
330
5
100
AcDbSymbolTableRecord
100
AcDbLinetypeTableRecord
  2
ACAD_ISO05W100
 70
     0
  3
ISO long-dash double-dot ____ .. ____ .. ____ .
 72
    65
 73
     6
 40
34.0
 49
24.0
 74
     0
 49
-3.0
 74
     0
 49
0.5
 74
     0
 49
-3.0
 74
     0
 49
0.5
 74
     0
 49
-3.0
 74
     0
  0
LTYPE
  5
38
330
5
100
AcDbSymbolTableRecord
100
AcDbLinetypeTableRecord
  2
ACAD_ISO06W100
 70
     0
  3
ISO long-dash triple-dot ____ ... ____ ... ____
 72
    65
 73
     8
 40
37.5
 49
24.0
 74
     0
 49
-3.0
 74
     0
 49
0.5
 74
     0
 49
-3.0
 74
     0
 49
0.5
 74
     0
 49
-3.0
 74
     0
 49
0.5
 74
     0
 49
-3.0
 74
     0
  0
LTYPE
  5
39
330
5
100
AcDbSymbolTableRecord
100
AcDbLinetypeTableRecord
  2
ACAD_ISO07W100
 70
     0
  3
ISO dot . . . . . . . . . . . . . . . . . . . .
 72
    65
 73
     2
 40
3.0
 49
0.0
 74
     0
 49
-3.0
 74
     0
  0
LTYPE
  5
3A
330
5
100
AcDbSymbolTableRecord
100
AcDbLinetypeTableRecord
  2
ACAD_ISO08W100
 70
     0
  3
ISO long-dash short-dash ____ __ ____ __ ____ _
 72
    65
 73
     4
 40
36.0
 49
24.0
 74
     0
 49
-3.0
 74
     0
 49
6.0
 74
     0
 49
-3.0
 74
     0
  0
LTYPE
  5
3B
330
5
100
AcDbSymbolTableRecord
100
AcDbLinetypeTableRecord
  2
ACAD_ISO09W100
 70
     0
  3
ISO long-dash double-short-dash ____ __ __ ____
 72
    65
 73
     6
 40
45.0
 49
24.0
 74
     0
 49
-3.0
 74
     0
 49
6.0
 74
     0
 49
-3.0
 74
     0
 49
6.0
 74
     0
 49
-3.0
 74
     0
  0
LTYPE
  5
3C
330
5
100
AcDbSymbolTableRecord
100
AcDbLinetypeTableRecord
  2
ACAD_ISO10W100
 70
     0
  3
ISO dash dot __ . __ . __ . __ . __ . __ . __ .
 72
    65
 73
     4
 40
18.0
 49
12.0
 74
     0
 49
-3.0
 74
     0
 49
0.0
 74
     0
 49
-3.0
 74
     0
  0
LTYPE
  5
3D
330
5
100
AcDbSymbolTableRecord
100
AcDbLinetypeTableRecord
  2
ACAD_ISO11W100
 70
     0
  3
ISO double-dash dot __ __ . __ __ . __ __ . __ 
 72
    65
 73
     6
 40
33.0
 49
12.0
 74
     0
 49
-3.0
 74
     0
 49
12.0
 74
     0
 49
-3.0
 74
     0
 49
0.0
 74
     0
 49
-3.0
 74
     0
  0
LTYPE
  5
3E
330
5
100
AcDbSymbolTableRecord
100
AcDbLinetypeTableRecord
  2
ACAD_ISO12W100
 70
     0
  3
ISO dash double-dot __ . . __ . . __ . . __ . .
 72
    65
 73
     6
 40
21.0
 49
12.0
 74
     0
 49
-3.0
 74
     0
 49
0.0
 74
     0
 49
-3.0
 74
     0
 49
0.0
 74
     0
 49
-3.0
 74
     0
  0
LTYPE
  5
3F
330
5
100
AcDbSymbolTableRecord
100
AcDbLinetypeTableRecord
  2
ACAD_ISO13W100
 70
     0
  3
ISO double-dash double-dot __ __ . . __ __ . . 
 72
    65
 73
     8
 40
36.0
 49
12.0
 74
     0
 49
-3.0
 74
     0
 49
12.0
 74
     0
 49
-3.0
 74
     0
 49
0.0
 74
     0
 49
-3.0
 74
     0
 49
0.0
 74
     0
 49
-3.0
 74
     0
  0
LTYPE
  5
40
330
5
100
AcDbSymbolTableRecord
100
AcDbLinetypeTableRecord
  2
ACAD_ISO14W100
 70
     0
  3
ISO dash triple-dot __ . . . __ . . . __ . . . 
 72
    65
 73
     8
 40
24.0
 49
12.0
 74
     0
 49
-3.0
 74
     0
 49
0.0
 74
     0
 49
-3.0
 74
     0
 49
0.0
 74
     0
 49
-3.0
 74
     0
 49
0.0
 74
     0
 49
-3.0
 74
     0
  0
LTYPE
  5
41
330
5
100
AcDbSymbolTableRecord
100
AcDbLinetypeTableRecord
  2
ACAD_ISO15W100
 70
     0
  3
ISO double-dash triple-dot __ __ . . . __ __ . 
 72
    65
 73
    10
 40
39.0
 49
12.0
 74
     0
 49
-3.0
 74
     0
 49
12.0
 74
     0
 49
-3.0
 74
     0
 49
0.0
 74
     0
 49
-3.0
 74
     0
 49
0.0
 74
     0
 49
-3.0
 74
     0
 49
0.0
 74
     0
 49
-3.0
 74
     0
  0
LTYPE
  5
42
330
5
100
AcDbSymbolTableRecord
100
AcDbLinetypeTableRecord
  2
BATTING
 70
     0
  3
Batting SSSSSSSSSSSSSSSSSSSSSSSSSSSSSSSSSSSSSSS
 72
    65
 73
     4
 40
10.16254
 49
0.00254
 74
     0
 49
-2.54
 74
     4
 75
   134
340
33
 46
2.54
 50
0.0
 44
-2.54
 45
0.0
 49
-5.08
 74
     4
 75
   134
340
33
 46
2.54
 50
180.0
 44
2.54
 45
0.0
 49
-2.54
 74
     0
  0
LTYPE
  5
43
330
5
100
AcDbSymbolTableRecord
100
AcDbLinetypeTableRecord
  2
BORDER
 70
     0
  3
Border __ __ . __ __ . __ __ . __ __ . __ __ .
 72
    65
 73
     6
 40
44.45
 49
12.7
 74
     0
 49
-6.349999999999999
 74
     0
 49
12.7
 74
     0
 49
-6.349999999999999
 74
     0
 49
0.0
 74
     0
 49
-6.349999999999999
 74
     0
  0
LTYPE
  5
44
330
5
100
AcDbSymbolTableRecord
100
AcDbLinetypeTableRecord
  2
BORDER2
 70
     0
  3
Border (.5x) __.__.__.__.__.__.__.__.__.__.__.
 72
    65
 73
     6
 40
22.225
 49
6.349999999999999
 74
     0
 49
-3.174999999999999
 74
     0
 49
6.349999999999999
 74
     0
 49
-3.174999999999999
 74
     0
 49
0.0
 74
     0
 49
-3.174999999999999
 74
     0
  0
LTYPE
  5
45
330
5
100
AcDbSymbolTableRecord
100
AcDbLinetypeTableRecord
  2
BORDERX2
 70
     0
  3
Border (2x) ____  ____  .  ____  ____  .  ___
 72
    65
 73
     6
 40
88.9
 49
25.4
 74
     0
 49
-12.7
 74
     0
 49
25.4
 74
     0
 49
-12.7
 74
     0
 49
0.0
 74
     0
 49
-12.7
 74
     0
  0
LTYPE
  5
46
330
5
100
AcDbSymbolTableRecord
100
AcDbLinetypeTableRecord
  2
CENTER
 70
     0
  3
Center ____ _ ____ _ ____ _ ____ _ ____ _ ____
 72
    65
 73
     4
 40
50.8
 49
31.75
 74
     0
 49
-6.349999999999999
 74
     0
 49
6.349999999999999
 74
     0
 49
-6.349999999999999
 74
     0
  0
LTYPE
  5
47
330
5
100
AcDbSymbolTableRecord
100
AcDbLinetypeTableRecord
  2
CENTER2
 70
     0
  3
Center (.5x) ___ _ ___ _ ___ _ ___ _ ___ _ ___
 72
    65
 73
     4
 40
28.575
 49
19.05
 74
     0
 49
-3.174999999999999
 74
     0
 49
3.174999999999999
 74
     0
 49
-3.174999999999999
 74
     0
  0
LTYPE
  5
48
330
5
100
AcDbSymbolTableRecord
100
AcDbLinetypeTableRecord
  2
CENTERX2
 70
     0
  3
Center (2x) ________  __  ________  __  _____
 72
    65
 73
     4
 40
101.6
 49
63.5
 74
     0
 49
-12.7
 74
     0
 49
12.7
 74
     0
 49
-12.7
 74
     0
  0
LTYPE
  5
49
330
5
100
AcDbSymbolTableRecord
100
AcDbLinetypeTableRecord
  2
DASHDOT
 70
     0
  3
Dash dot __ . __ . __ . __ . __ . __ . __ . __
 72
    65
 73
     4
 40
25.4
 49
12.7
 74
     0
 49
-6.349999999999999
 74
     0
 49
0.0
 74
     0
 49
-6.349999999999999
 74
     0
  0
LTYPE
  5
4A
330
5
100
AcDbSymbolTableRecord
100
AcDbLinetypeTableRecord
  2
DASHDOT2
 70
     0
  3
Dash dot (.5x) _._._._._._._._._._._._._._._.
 72
    65
 73
     4
 40
12.7
 49
6.349999999999999
 74
     0
 49
-3.174999999999999
 74
     0
 49
0.0
 74
     0
 49
-3.174999999999999
 74
     0
  0
LTYPE
  5
4B
330
5
100
AcDbSymbolTableRecord
100
AcDbLinetypeTableRecord
  2
DASHDOTX2
 70
     0
  3
Dash dot (2x) ____  .  ____  .  ____  .  ___
 72
    65
 73
     4
 40
50.8
 49
25.4
 74
     0
 49
-12.7
 74
     0
 49
0.0
 74
     0
 49
-12.7
 74
     0
  0
LTYPE
  5
4C
330
5
100
AcDbSymbolTableRecord
100
AcDbLinetypeTableRecord
  2
DASHED
 70
     0
  3
Dashed __ __ __ __ __ __ __ __ __ __ __ __ __ _
 72
    65
 73
     2
 40
19.05
 49
12.7
 74
     0
 49
-6.349999999999999
 74
     0
  0
LTYPE
  5
4D
330
5
100
AcDbSymbolTableRecord
100
AcDbLinetypeTableRecord
  2
DASHED2
 70
     0
  3
Dashed (.5x) _ _ _ _ _ _ _ _ _ _ _ _ _ _ _ _ _
 72
    65
 73
     2
 40
9.524999999999998
 49
6.349999999999999
 74
     0
 49
-3.174999999999999
 74
     0
  0
LTYPE
  5
4E
330
5
100
AcDbSymbolTableRecord
100
AcDbLinetypeTableRecord
  2
DASHEDX2
 70
     0
  3
Dashed (2x) ____  ____  ____  ____  ____  ___
 72
    65
 73
     2
 40
38.1
 49
25.4
 74
     0
 49
-12.7
 74
     0
  0
LTYPE
  5
4F
330
5
100
AcDbSymbolTableRecord
100
AcDbLinetypeTableRecord
  2
DIVIDE
 70
     0
  3
Divide ____ . . ____ . . ____ . . ____ . . ____
 72
    65
 73
     6
 40
31.75
 49
12.7
 74
     0
 49
-6.349999999999999
 74
     0
 49
0.0
 74
     0
 49
-6.349999999999999
 74
     0
 49
0.0
 74
     0
 49
-6.349999999999999
 74
     0
  0
LTYPE
  5
50
330
5
100
AcDbSymbolTableRecord
100
AcDbLinetypeTableRecord
  2
DIVIDE2
 70
     0
  3
Divide (.5x) __..__..__..__..__..__..__..__.._
 72
    65
 73
     6
 40
15.875
 49
6.349999999999999
 74
     0
 49
-3.174999999999999
 74
     0
 49
0.0
 74
     0
 49
-3.174999999999999
 74
     0
 49
0.0
 74
     0
 49
-3.174999999999999
 74
     0
  0
LTYPE
  5
51
330
5
100
AcDbSymbolTableRecord
100
AcDbLinetypeTableRecord
  2
DIVIDEX2
 70
     0
  3
Divide (2x) ________  .  .  ________  .  .  _
 72
    65
 73
     6
 40
63.49999999999999
 49
25.4
 74
     0
 49
-12.7
 74
     0
 49
0.0
 74
     0
 49
-12.7
 74
     0
 49
0.0
 74
     0
 49
-12.7
 74
     0
  0
LTYPE
  5
52
330
5
100
AcDbSymbolTableRecord
100
AcDbLinetypeTableRecord
  2
DOT
 70
     0
  3
Dot . . . . . . . . . . . . . . . . . . . . . .
 72
    65
 73
     2
 40
6.349999999999999
 49
0.0
 74
     0
 49
-6.349999999999999
 74
     0
  0
LTYPE
  5
53
330
5
100
AcDbSymbolTableRecord
100
AcDbLinetypeTableRecord
  2
DOT2
 70
     0
  3
Dot (.5x) .....................................
 72
    65
 73
     2
 40
3.174999999999999
 49
0.0
 74
     0
 49
-3.174999999999999
 74
     0
  0
LTYPE
  5
54
330
5
100
AcDbSymbolTableRecord
100
AcDbLinetypeTableRecord
  2
DOTX2
 70
     0
  3
Dot (2x) .  .  .  .  .  .  .  .  .  .  .  .  . 
 72
    65
 73
     2
 40
12.7
 49
0.0
 74
     0
 49
-12.7
 74
     0
  0
LTYPE
  5
55
330
5
100
AcDbSymbolTableRecord
100
AcDbLinetypeTableRecord
  2
FENCELINE1
 70
     0
  3
Fenceline circle ----0-----0----0-----0----0---
 72
    65
 73
     4
 40
36.83
 49
6.349999999999999
 74
     0
 49
-2.54
 74
     4
 75
   133
340
33
 46
2.54
 50
0.0
 44
-2.54
 45
0.0
 49
-2.54
 74
     0
 49
25.4
 74
     0
  0
LTYPE
  5
56
330
5
100
AcDbSymbolTableRecord
100
AcDbLinetypeTableRecord
  2
FENCELINE2
 70
     0
  3
Fenceline square ----[]-----[]----[]-----[]----
 72
    65
 73
     4
 40
36.83
 49
6.349999999999999
 74
     0
 49
-2.54
 74
     4
 75
   132
340
33
 46
2.54
 50
0.0
 44
-2.54
 45
0.0
 49
-2.54
 74
     0
 49
25.4
 74
     0
  0
LTYPE
  5
57
330
5
100
AcDbSymbolTableRecord
100
AcDbLinetypeTableRecord
  2
GAS_LINE
 70
     0
  3
Gas line ----GAS----GAS----GAS----GAS----GAS---
 72
    65
 73
     3
 40
24.13
 49
12.7
 74
     0
 49
-5.08
 74
     2
 75
     0
340
11
 46
2.54
 50
0.0
 44
-2.54
 45
-1.27
  9
GAS
 49
-6.349999999999999
 74
     0
  0
LTYPE
  5
58
330
5
100
AcDbSymbolTableRecord
100
AcDbLinetypeTableRecord
  2
HIDDEN
 70
     0
  3
Hidden __ __ __ __ __ __ __ __ __ __ __ __ __ _
 72
    65
 73
     2
 40
9.524999999999998
 49
6.349999999999999
 74
     0
 49
-3.174999999999999
 74
     0
  0
LTYPE
  5
59
330
5
100
AcDbSymbolTableRecord
100
AcDbLinetypeTableRecord
  2
HIDDEN2
 70
     0
  3
Hidden (.5x) _ _ _ _ _ _ _ _ _ _ _ _ _ _ _ _ _
 72
    65
 73
     2
 40
4.762499999999999
 49
3.174999999999999
 74
     0
 49
-1.587499999999999
 74
     0
  0
LTYPE
  5
5A
330
5
100
AcDbSymbolTableRecord
100
AcDbLinetypeTableRecord
  2
HIDDENX2
 70
     0
  3
Hidden (2x) ____ ____ ____ ____ ____ ____ ____
 72
    65
 73
     2
 40
19.05
 49
12.7
 74
     0
 49
-6.349999999999999
 74
     0
  0
LTYPE
  5
5B
330
5
100
AcDbSymbolTableRecord
100
AcDbLinetypeTableRecord
  2
HOT_WATER_SUPPLY
 70
     0
  3
Hot water supply ---- HW ---- HW ---- HW ----
 72
    65
 73
     3
 40
22.86
 49
12.7
 74
     0
 49
-5.08
 74
     2
 75
     0
340
11
 46
2.54
 50
0.0
 44
-2.54
 45
-1.27
  9
HW
 49
-5.08
 74
     0
  0
LTYPE
  5
5C
330
5
100
AcDbSymbolTableRecord
100
AcDbLinetypeTableRecord
  2
PHANTOM
 70
     0
  3
Phantom ______  __  __  ______  __  __  ______
 72
    65
 73
     6
 40
63.5
 49
31.75
 74
     0
 49
-6.349999999999999
 74
     0
 49
6.349999999999999
 74
     0
 49
-6.349999999999999
 74
     0
 49
6.349999999999999
 74
     0
 49
-6.349999999999999
 74
     0
  0
LTYPE
  5
5D
330
5
100
AcDbSymbolTableRecord
100
AcDbLinetypeTableRecord
  2
PHANTOM2
 70
     0
  3
Phantom (.5x) ___ _ _ ___ _ _ ___ _ _ ___ _ _
 72
    65
 73
     6
 40
31.75
 49
15.875
 74
     0
 49
-3.174999999999999
 74
     0
 49
3.174999999999999
 74
     0
 49
-3.174999999999999
 74
     0
 49
3.174999999999999
 74
     0
 49
-3.174999999999999
 74
     0
  0
LTYPE
  5
5E
330
5
100
AcDbSymbolTableRecord
100
AcDbLinetypeTableRecord
  2
PHANTOMX2
 70
     0
  3
Phantom (2x) ____________    ____    ____   _
 72
    65
 73
     6
 40
127.0
 49
63.5
 74
     0
 49
-12.7
 74
     0
 49
12.7
 74
     0
 49
-12.7
 74
     0
 49
12.7
 74
     0
 49
-12.7
 74
     0
  0
LTYPE
  5
5F
330
5
100
AcDbSymbolTableRecord
100
AcDbLinetypeTableRecord
  2
TRACKS
 70
     0
  3
Tracks -|-|-|-|-|-|-|-|-|-|-|-|-|-|-|-|-|-|-|-|
 72
    65
 73
     2
 40
7.62
 49
3.81
 74
     4
 75
   130
340
33
 46
6.349999999999999
 50
0.0
 44
0.0
 45
0.0
 49
3.81
 74
     0
  0
LTYPE
  5
60
330
5
100
AcDbSymbolTableRecord
100
AcDbLinetypeTableRecord
  2
ZIGZAG
 70
     0
  3
Zig zag /\/\/\/\/\/\/\/\/\/\/\/\/\/\/\/\/\/\/\/
 72
    65
 73
     4
 40
20.32254
 49
0.00254
 74
     0
 49
-5.08
 74
     4
 75
   131
340
33
 46
5.08
 50
0.0
 44
-5.08
 45
0.0
 49
-10.16
 74
     4
 75
   131
340
33
 46
5.08
 50
180.0
 44
5.08
 45
0.0
 49
-5.08
 74
     0
  0
ENDTAB
  0
TABLE
  2
LAYER
  5
2
102
{ACAD_XDICTIONARY
360
2177
102
}
330
0
100
AcDbSymbolTable
 70
     7
  0
LAYER
  5
10
330
2
100
AcDbSymbolTableRecord
100
AcDbLayerTableRecord
  2
0
 70
     0
 62
     7
  6
Continuous
370
    -3
390
F
  0
LAYER
  5
C3
330
2
100
AcDbSymbolTableRecord
100
AcDbLayerTableRecord
  2
Defpoints
 70
     0
 62
     7
  6
Continuous
290
     0
370
    -3
390
F
  0
LAYER
  5
256
330
2
100
AcDbSymbolTableRecord
100
AcDbLayerTableRecord
  2
Cen
 70
     0
 62
     7
  6
CENTER2
370
    15
390
F
  0
LAYER
  5
5DF
330
2
100
AcDbSymbolTableRecord
100
AcDbLayerTableRecord
  2
実形
 70
     0
 62
     7
  6
Continuous
370
    -3
390
F
  0
LAYER
  5
60C
330
2
100
AcDbSymbolTableRecord
100
AcDbLayerTableRecord
  2
補助
 70
     0
 62
     7
  6
Continuous
370
    -3
390
F
  0
LAYER
  5
619
330
2
100
AcDbSymbolTableRecord
100
AcDbLayerTableRecord
  2
センター
 70
     0
 62
     7
  6
CENTER2
370
    18
390
F
  0
LAYER
  5
61A
330
2
100
AcDbSymbolTableRecord
100
AcDbLayerTableRecord
  2
寸法
 70
     0
 62
     7
  6
Continuous
370
    18
390
F
  0
ENDTAB
  0
TABLE
  2
STYLE
  5
3
330
0
100
AcDbSymbolTable
 70
     3
  0
STYLE
  5
11
330
3
100
AcDbSymbolTableRecord
100
AcDbTextStyleTableRecord
  2
Standard
 70
     0
 40
0.0
 41
1.0
 50
0.0
 71
     0
 42
35.0
  3
txt.shx
  4
bigfont.shx
  0
STYLE
  5
33
330
3
100
AcDbSymbolTableRecord
100
AcDbTextStyleTableRecord
  2

 70
     1
 40
0.0
 41
1.0
 50
0.0
 71
     0
 42
2.5
  3
ltypeshp.shx
  4

  0
STYLE
  5
2202
330
3
100
AcDbSymbolTableRecord
100
AcDbTextStyleTableRecord
  2
明朝
 70
     0
 40
0.0
 41
1.0
 50
0.0
 71
     0
 42
25.0
  3
MS Mincho.ttf
  4

1001
ACAD
1000
MS Mincho
1071
    32785
  0
ENDTAB
  0
TABLE
  2
VIEW
  5
6
330
0
100
AcDbSymbolTable
 70
     0
  0
ENDTAB
  0
TABLE
  2
UCS
  5
7
330
0
100
AcDbSymbolTable
 70
     0
  0
ENDTAB
  0
TABLE
  2
APPID
  5
9
330
0
100
AcDbSymbolTable
 70
     1
  0
APPID
  5
12
330
9
100
AcDbSymbolTableRecord
100
AcDbRegAppTableRecord
  2
ACAD
 70
     0
  0
ENDTAB
  0
TABLE
  2
DIMSTYLE
  5
A
330
0
100
AcDbSymbolTable
 70
     1
100
AcDbDimStyleTable
 71
     1
340
27
  0
DIMSTYLE
105
27
102
{ACAD_REACTORS
330
42D
330
464
330
304
330
28B
330
2B3
330
270
330
298
330
2DC
330
2A6
330
27E
330
31C
330
2F7
330
DFA
330
1456
330
1481
330
1483
330
1485
330
1486
330
148C
330
1714
330
1AFF
330
1B00
330
1B02
330
1B03
330
1B37
330
1B40
330
1B47
330
1B48
330
1B49
330
218F
330
2190
330
2191
330
2192
102
}
330
A
100
AcDbSymbolTableRecord
100
AcDbDimStyleTableRecord
  2
ISO-25
 70
     0
 41
30.0
 42
65.0
 43
3.75
 44
0.0
 73
     0
 74
     0
 77
     1
 78
     8
140
25.0
141
2.5
143
0.03937007874016
147
6.25
171
     3
172
     1
271
     2
272
     2
274
     3
283
     0
284
     8
340
11
341
DA
342
D0
371
    15
372
    15
  0
ENDTAB
  0
TABLE
  2
BLOCK_RECORD
  5
1
330
0
100
AcDbSymbolTable
 70
    41
  0
BLOCK_RECORD
  5
1F
102
{ACAD_XDICTIONARY
360
21F4
102
}
330
1
100
AcDbSymbolTableRecord
100
AcDbBlockTableRecord
  2
*Model_Space
340
22
  0
BLOCK_RECORD
  5
1B
330
1
100
AcDbSymbolTableRecord
100
AcDbBlockTableRecord
  2
*Paper_Space
340
1E
  0
BLOCK_RECORD
  5
23
330
1
100
AcDbSymbolTableRecord
100
AcDbBlockTableRecord
  2
*Paper_Space0
340
26
  0
BLOCK_RECORD
  5
D0
330
1
100
AcDbSymbolTableRecord
100
AcDbBlockTableRecord
  2
_DotSmall
340
0
102
{BLKREFS
331
1D37
331
1D38
331
1D2D
331
1D44
331
1D45
331
1F64
331
1F65
331
1F6D
331
1F6E
331
1F77
331
1F78
331
1F7F
331
1F80
331
1F88
331
1F89
331
1F91
331
1F92
331
1F9A
331
1F9B
331
1FA4
331
1FA5
331
1FAD
331
1FAE
331
1FB7
331
1FB8
331
1FBF
331
1FC0
331
1FC9
331
1FCA
331
1FD1
331
1FD2
331
1FE3
331
1FE4
331
1FED
331
1FEE
331
1FF6
331
1FF7
331
1FFF
331
2000
331
2008
331
2009
331
2011
331
2012
331
2019
331
201A
331
2022
331
2023
331
202C
331
202D
331
2035
331
2036
331
203D
331
203E
331
2046
331
2047
331
204F
331
2050
331
2059
331
205A
331
2062
331
2063
331
2136
331
2137
331
21C7
331
21C8
331
21CF
331
21D0
331
21D9
331
21DA
331
21EB
331
21EC
102
}
  0
BLOCK_RECORD
  5
D4
330
1
100
AcDbSymbolTableRecord
100
AcDbBlockTableRecord
  2
_Origin2
340
0
  0
BLOCK_RECORD
  5
DA
330
1
100
AcDbSymbolTableRecord
100
AcDbBlockTableRecord
  2
_Open30
340
0
  0
BLOCK_RECORD
  5
271
330
1
100
AcDbSymbolTableRecord
100
AcDbBlockTableRecord
  2
*D4
340
0
  0
BLOCK_RECORD
  5
27F
330
1
100
AcDbSymbolTableRecord
100
AcDbBlockTableRecord
  2
*D5
340
0
  0
BLOCK_RECORD
  5
28C
330
1
100
AcDbSymbolTableRecord
100
AcDbBlockTableRecord
  2
*D6
340
0
  0
BLOCK_RECORD
  5
299
330
1
100
AcDbSymbolTableRecord
100
AcDbBlockTableRecord
  2
*D7
340
0
  0
BLOCK_RECORD
  5
2A7
330
1
100
AcDbSymbolTableRecord
100
AcDbBlockTableRecord
  2
*D8
340
0
  0
BLOCK_RECORD
  5
2B4
330
1
100
AcDbSymbolTableRecord
100
AcDbBlockTableRecord
  2
*D9
340
0
  0
BLOCK_RECORD
  5
2DD
330
1
100
AcDbSymbolTableRecord
100
AcDbBlockTableRecord
  2
*D10
340
0
  0
BLOCK_RECORD
  5
2F8
330
1
100
AcDbSymbolTableRecord
100
AcDbBlockTableRecord
  2
*D11
340
0
  0
BLOCK_RECORD
  5
305
330
1
100
AcDbSymbolTableRecord
100
AcDbBlockTableRecord
  2
*D12
340
0
  0
BLOCK_RECORD
  5
31D
330
1
100
AcDbSymbolTableRecord
100
AcDbBlockTableRecord
  2
*D13
340
0
  0
BLOCK_RECORD
  5
42E
330
1
100
AcDbSymbolTableRecord
100
AcDbBlockTableRecord
  2
*D14
340
0
  0
BLOCK_RECORD
  5
465
330
1
100
AcDbSymbolTableRecord
100
AcDbBlockTableRecord
  2
*D15
340
0
  0
BLOCK_RECORD
  5
DFB
330
1
100
AcDbSymbolTableRecord
100
AcDbBlockTableRecord
  2
*D16
340
0
  0
BLOCK_RECORD
  5
14CE
330
1
100
AcDbSymbolTableRecord
100
AcDbBlockTableRecord
  2
*D17
340
0
  0
BLOCK_RECORD
  5
152F
330
1
100
AcDbSymbolTableRecord
100
AcDbBlockTableRecord
  2
*D18
340
0
  0
BLOCK_RECORD
  5
153B
330
1
100
AcDbSymbolTableRecord
100
AcDbBlockTableRecord
  2
*D19
340
0
  0
BLOCK_RECORD
  5
1547
330
1
100
AcDbSymbolTableRecord
100
AcDbBlockTableRecord
  2
*D20
340
0
  0
BLOCK_RECORD
  5
1553
330
1
100
AcDbSymbolTableRecord
100
AcDbBlockTableRecord
  2
*D21
340
0
  0
BLOCK_RECORD
  5
155F
330
1
100
AcDbSymbolTableRecord
100
AcDbBlockTableRecord
  2
*D22
340
0
  0
BLOCK_RECORD
  5
1715
330
1
100
AcDbSymbolTableRecord
100
AcDbBlockTableRecord
  2
*D23
340
0
  0
BLOCK_RECORD
  5
1B53
330
1
100
AcDbSymbolTableRecord
100
AcDbBlockTableRecord
  2
*D24
340
0
  0
BLOCK_RECORD
  5
1B5F
330
1
100
AcDbSymbolTableRecord
100
AcDbBlockTableRecord
  2
*D25
340
0
  0
BLOCK_RECORD
  5
1B6B
330
1
100
AcDbSymbolTableRecord
100
AcDbBlockTableRecord
  2
*D26
340
0
  0
BLOCK_RECORD
  5
1B77
330
1
100
AcDbSymbolTableRecord
100
AcDbBlockTableRecord
  2
*D27
340
0
  0
BLOCK_RECORD
  5
1B83
330
1
100
AcDbSymbolTableRecord
100
AcDbBlockTableRecord
  2
*D28
340
0
  0
BLOCK_RECORD
  5
1B8F
330
1
100
AcDbSymbolTableRecord
100
AcDbBlockTableRecord
  2
*D29
340
0
  0
BLOCK_RECORD
  5
1B9B
330
1
100
AcDbSymbolTableRecord
100
AcDbBlockTableRecord
  2
*D30
340
0
  0
BLOCK_RECORD
  5
1BA7
330
1
100
AcDbSymbolTableRecord
100
AcDbBlockTableRecord
  2
*D31
340
0
  0
BLOCK_RECORD
  5
1BB3
330
1
100
AcDbSymbolTableRecord
100
AcDbBlockTableRecord
  2
*D32
340
0
  0
BLOCK_RECORD
  5
1D27
330
1
100
AcDbSymbolTableRecord
100
AcDbBlockTableRecord
  2
*D33
340
0
  0
BLOCK_RECORD
  5
1D33
330
1
100
AcDbSymbolTableRecord
100
AcDbBlockTableRecord
  2
*D34
340
0
  0
BLOCK_RECORD
  5
1D3F
330
1
100
AcDbSymbolTableRecord
100
AcDbBlockTableRecord
  2
*D35
340
0
  0
BLOCK_RECORD
  5
1D4B
330
1
100
AcDbSymbolTableRecord
100
AcDbBlockTableRecord
  2
A$C59AC426A
340
0
  0
BLOCK_RECORD
  5
2193
330
1
100
AcDbSymbolTableRecord
100
AcDbBlockTableRecord
  2
*D37
340
0
  0
BLOCK_RECORD
  5
219F
330
1
100
AcDbSymbolTableRecord
100
AcDbBlockTableRecord
  2
*D38
340
0
  0
BLOCK_RECORD
  5
21AB
330
1
100
AcDbSymbolTableRecord
100
AcDbBlockTableRecord
  2
*D39
340
0
  0
BLOCK_RECORD
  5
21B7
330
1
100
AcDbSymbolTableRecord
100
AcDbBlockTableRecord
  2
*D40
340
0
  0
ENDTAB
  0
ENDSEC
  0
SECTION
  2
BLOCKS
  0
BLOCK
  5
20
330
1F
100
AcDbEntity
  8
0
100
AcDbBlockBegin
  2
*Model_Space
 70
     0
 10
0.0
 20
0.0
 30
0.0
  3
*Model_Space
  1

  0
ENDBLK
  5
21
330
1F
100
AcDbEntity
  8
0
100
AcDbBlockEnd
  0
BLOCK
  5
1C
330
1B
100
AcDbEntity
 67
     1
  8
0
100
AcDbBlockBegin
  2
*Paper_Space
 70
     0
 10
0.0
 20
0.0
 30
0.0
  3
*Paper_Space
  1

  0
ENDBLK
  5
1D
330
1B
100
AcDbEntity
 67
     1
  8
0
100
AcDbBlockEnd
  0
BLOCK
  5
24
330
23
100
AcDbEntity
  8
0
100
AcDbBlockBegin
  2
*Paper_Space0
 70
     0
 10
0.0
 20
0.0
 30
0.0
  3
*Paper_Space0
  1

  0
ENDBLK
  5
25
330
23
100
AcDbEntity
  8
0
100
AcDbBlockEnd
  0
BLOCK
  5
D2
330
D0
100
AcDbEntity
  8
0
100
AcDbBlockBegin
  2
_DotSmall
 70
     0
 10
0.0
 20
0.0
 30
0.0
  3
_DotSmall
  1

  0
LWPOLYLINE
  5
D1
330
D0
100
AcDbEntity
  8
0
 62
     0
100
AcDbPolyline
 90
        2
 70
     1
 43
0.5
 10
-0.0625
 20
0.0
 42
1.0
 10
0.0625
 20
0.0
 42
1.0
  0
ENDBLK
  5
D3
330
D0
100
AcDbEntity
  8
0
100
AcDbBlockEnd
  0
BLOCK
  5
D8
330
D4
100
AcDbEntity
  8
0
100
AcDbBlockBegin
  2
_Origin2
 70
     0
 10
0.0
 20
0.0
 30
0.0
  3
_Origin2
  1

  0
CIRCLE
  5
D5
330
D4
100
AcDbEntity
  8
0
 62
     0
370
    -2
100
AcDbCircle
 10
0.0
 20
0.0
 30
0.0
 40
0.5
  0
CIRCLE
  5
D6
330
D4
100
AcDbEntity
  8
0
 62
     0
370
    -2
100
AcDbCircle
 10
0.0
 20
0.0
 30
0.0
 40
0.25
  0
LINE
  5
D7
330
D4
100
AcDbEntity
  8
0
 62
     0
370
    -2
100
AcDbLine
 10
-0.5
 20
0.0
 30
0.0
 11
-1.0
 21
0.0
 31
0.0
  0
ENDBLK
  5
D9
330
D4
100
AcDbEntity
  8
0
100
AcDbBlockEnd
  0
BLOCK
  5
DE
330
DA
100
AcDbEntity
  8
0
100
AcDbBlockBegin
  2
_Open30
 70
     0
 10
0.0
 20
0.0
 30
0.0
  3
_Open30
  1

  0
LINE
  5
DB
330
DA
100
AcDbEntity
  8
0
 62
     0
370
    -2
100
AcDbLine
 10
-1.0
 20
0.26794919
 30
0.0
 11
0.0
 21
0.0
 31
0.0
  0
LINE
  5
DC
330
DA
100
AcDbEntity
  8
0
 62
     0
370
    -2
100
AcDbLine
 10
0.0
 20
0.0
 30
0.0
 11
-1.0
 21
-0.26794919
 31
0.0
  0
LINE
  5
DD
330
DA
100
AcDbEntity
  8
0
 62
     0
370
    -2
100
AcDbLine
 10
0.0
 20
0.0
 30
0.0
 11
-1.0
 21
0.0
 31
0.0
  0
ENDBLK
  5
DF
330
DA
100
AcDbEntity
  8
0
100
AcDbBlockEnd
  0
BLOCK
  5
27C
330
271
100
AcDbEntity
  8
0
100
AcDbBlockBegin
  2
*D4
 70
     1
 10
0.0
 20
0.0
 30
0.0
  3
*D4
  1

  0
LINE
  5
1FA0
330
271
100
AcDbEntity
  8
0
 62
     0
370
    15
100
AcDbLine
 10
558.946431750749
 20
1002.429107175188
 30
0.0
 11
519.1959296338527
 21
1002.429107175188
 31
0.0
  0
LINE
  5
1FA1
330
271
100
AcDbEntity
  8
0
 62
     0
370
    15
100
AcDbLine
 10
558.946431750749
 20
1017.429107175188
 30
0.0
 11
519.1959296338527
 21
1017.429107175188
 31
0.0
  0
LINE
  5
1FA2
330
271
100
AcDbEntity
  8
0
 62
     0
370
    15
100
AcDbLine
 10
519.1959296338527
 20
1002.429107175188
 30
0.0
 11
519.1959296338527
 21
1017.429107175188
 31
0.0
  0
LINE
  5
1FA3
330
271
100
AcDbEntity
  8
0
 62
     0
370
    15
100
AcDbLine
 10
519.1959296338527
 20
1017.429107175188
 30
0.0
 11
519.1959296338527
 21
1093.262440508522
 31
0.0
  0
INSERT
  5
1FA4
330
271
100
AcDbEntity
  8
0
 62
     0
370
    15
100
AcDbBlockReference
  2
_DotSmall
 10
519.1959296338527
 20
1002.429107175188
 30
0.0
 41
30.0
 42
30.0
 43
30.0
 50
270.0
  0
INSERT
  5
1FA5
330
271
100
AcDbEntity
  8
0
 62
     0
370
    15
100
AcDbBlockReference
  2
_DotSmall
 10
519.1959296338527
 20
1017.429107175188
 30
0.0
 41
30.0
 42
30.0
 43
30.0
 50
90.0
  0
MTEXT
  5
1FA6
330
271
100
AcDbEntity
  8
0
 62
     0
100
AcDbMText
 10
500.4459296338525
 20
1070.345773841855
 30
0.0
 40
25.0
 41
0.0
 71
     5
 72
     1
  1
15
 11
0.0000000000000001
 21
1.0
 31
0.0
 73
     1
 44
1.0
1001
ACAD
1000
MTEXTBEGIN
1070
    73
1070
     1
1070
    44
1040
1.0
1070
    74
1070
     0
1000
MTEXTEND
  0
POINT
  5
1FA7
330
271
100
AcDbEntity
  8
Defpoints
 62
     0
100
AcDbPoint
 10
623.946431750749
 20
1002.429107175188
 30
0.0
  0
POINT
  5
1FA8
330
271
100
AcDbEntity
  8
Defpoints
 62
     0
100
AcDbPoint
 10
623.946431750749
 20
1017.429107175188
 30
0.0
  0
POINT
  5
1FA9
330
271
100
AcDbEntity
  8
Defpoints
 62
     0
100
AcDbPoint
 10
519.1959296338527
 20
1017.429107175188
 30
0.0
  0
ENDBLK
  5
27D
330
271
100
AcDbEntity
  8
0
100
AcDbBlockEnd
  0
BLOCK
  5
289
330
27F
100
AcDbEntity
  8
0
100
AcDbBlockBegin
  2
*D5
 70
     1
 10
0.0
 20
0.0
 30
0.0
  3
*D5
  1

  0
LINE
  5
1FAA
330
27F
100
AcDbEntity
  8
0
 62
     0
370
    15
100
AcDbLine
 10
623.946431750749
 20
1017.429107175188
 30
0.0
 11
519.1959296338527
 21
1017.429107175188
 31
0.0
  0
LINE
  5
1FAB
330
27F
100
AcDbEntity
  8
0
 62
     0
370
    15
100
AcDbLine
 10
623.9464317507489
 20
1447.429107175189
 30
0.0
 11
519.1959296338528
 21
1447.429107175189
 31
0.0
  0
LINE
  5
1FAC
330
27F
100
AcDbEntity
  8
0
 62
     0
370
    15
100
AcDbLine
 10
519.1959296338527
 20
1017.429107175188
 30
0.0
 11
519.1959296338528
 21
1447.429107175189
 31
0.0
  0
INSERT
  5
1FAD
330
27F
100
AcDbEntity
  8
0
 62
     0
370
    15
100
AcDbBlockReference
  2
_DotSmall
 10
519.1959296338527
 20
1017.429107175188
 30
0.0
 41
30.0
 42
30.0
 43
30.0
 50
270.0
  0
INSERT
  5
1FAE
330
27F
100
AcDbEntity
  8
0
 62
     0
370
    15
100
AcDbBlockReference
  2
_DotSmall
 10
519.1959296338528
 20
1447.429107175189
 30
0.0
 41
30.0
 42
30.0
 43
30.0
 50
90.0
  0
MTEXT
  5
1FAF
330
27F
100
AcDbEntity
  8
0
 62
     0
100
AcDbMText
 10
500.4459296338525
 20
1232.429107175189
 30
0.0
 40
25.0
 41
0.0
 71
     5
 72
     1
  1
430
 11
0.0000000000000001
 21
1.0
 31
0.0
 73
     1
 44
1.0
1001
ACAD
1000
MTEXTBEGIN
1070
    73
1070
     1
1070
    44
1040
1.0
1070
    74
1070
     0
1000
MTEXTEND
  0
POINT
  5
1FB0
330
27F
100
AcDbEntity
  8
Defpoints
 62
     0
100
AcDbPoint
 10
623.946431750749
 20
1017.429107175188
 30
0.0
  0
POINT
  5
1FB1
330
27F
100
AcDbEntity
  8
Defpoints
 62
     0
100
AcDbPoint
 10
623.9464317507489
 20
1447.429107175189
 30
0.0
  0
POINT
  5
1FB2
330
27F
100
AcDbEntity
  8
Defpoints
 62
     0
100
AcDbPoint
 10
519.1959296338528
 20
1447.429107175189
 30
0.0
  0
ENDBLK
  5
28A
330
27F
100
AcDbEntity
  8
0
100
AcDbBlockEnd
  0
BLOCK
  5
296
330
28C
100
AcDbEntity
  8
0
100
AcDbBlockBegin
  2
*D6
 70
     1
 10
0.0
 20
0.0
 30
0.0
  3
*D6
  1

  0
LINE
  5
1F85
330
28C
100
AcDbEntity
  8
0
 62
     0
370
    15
100
AcDbLine
 10
623.9464317507489
 20
1447.429107175189
 30
0.0
 11
519.1959296338528
 21
1447.429107175189
 31
0.0
  0
LINE
  5
1F86
330
28C
100
AcDbEntity
  8
0
 62
     0
370
    15
100
AcDbLine
 10
623.9464317507489
 20
1522.429107175188
 30
0.0
 11
519.1959296338528
 21
1522.429107175188
 31
0.0
  0
LINE
  5
1F87
330
28C
100
AcDbEntity
  8
0
 62
     0
370
    15
100
AcDbLine
 10
519.1959296338528
 20
1447.429107175189
 30
0.0
 11
519.1959296338528
 21
1522.429107175188
 31
0.0
  0
INSERT
  5
1F88
330
28C
100
AcDbEntity
  8
0
 62
     0
370
    15
100
AcDbBlockReference
  2
_DotSmall
 10
519.1959296338528
 20
1447.429107175189
 30
0.0
 41
30.0
 42
30.0
 43
30.0
 50
270.0
  0
INSERT
  5
1F89
330
28C
100
AcDbEntity
  8
0
 62
     0
370
    15
100
AcDbBlockReference
  2
_DotSmall
 10
519.1959296338528
 20
1522.429107175188
 30
0.0
 41
30.0
 42
30.0
 43
30.0
 50
90.0
  0
MTEXT
  5
1F8A
330
28C
100
AcDbEntity
  8
0
 62
     0
100
AcDbMText
 10
500.4459296338526
 20
1484.929107175189
 30
0.0
 40
25.0
 41
0.0
 71
     5
 72
     1
  1
75
 11
0.0000000000000001
 21
1.0
 31
0.0
 73
     1
 44
1.0
1001
ACAD
1000
MTEXTBEGIN
1070
    73
1070
     1
1070
    44
1040
1.0
1070
    74
1070
     0
1000
MTEXTEND
  0
POINT
  5
1F8B
330
28C
100
AcDbEntity
  8
Defpoints
 62
     0
100
AcDbPoint
 10
623.9464317507489
 20
1447.429107175189
 30
0.0
  0
POINT
  5
1F8C
330
28C
100
AcDbEntity
  8
Defpoints
 62
     0
100
AcDbPoint
 10
623.9464317507489
 20
1522.429107175188
 30
0.0
  0
POINT
  5
1F8D
330
28C
100
AcDbEntity
  8
Defpoints
 62
     0
100
AcDbPoint
 10
519.1959296338528
 20
1522.429107175188
 30
0.0
  0
ENDBLK
  5
297
330
28C
100
AcDbEntity
  8
0
100
AcDbBlockEnd
  0
BLOCK
  5
2A4
330
299
100
AcDbEntity
  8
0
100
AcDbBlockBegin
  2
*D7
 70
     1
 10
0.0
 20
0.0
 30
0.0
  3
*D7
  1

  0
LINE
  5
1FB3
330
299
100
AcDbEntity
  8
0
 62
     0
370
    15
100
AcDbLine
 10
623.9464317507489
 20
967.4291071751886
 30
0.0
 11
446.5675097307204
 21
967.4291071751886
 31
0.0
  0
LINE
  5
1FB4
330
299
100
AcDbEntity
  8
0
 62
     0
370
    15
100
AcDbLine
 10
623.946431750749
 20
1002.429107175188
 30
0.0
 11
446.5675097307204
 21
1002.429107175188
 31
0.0
  0
LINE
  5
1FB5
330
299
100
AcDbEntity
  8
0
 62
     0
370
    15
100
AcDbLine
 10
446.5675097307204
 20
967.4291071751886
 30
0.0
 11
446.5675097307204
 21
1002.429107175188
 31
0.0
  0
MTEXT
  5
1FB6
330
299
100
AcDbEntity
  8
0
 62
     0
100
AcDbMText
 10
424.6065991658806
 20
996.5689753411547
 30
0.0
 40
25.0
 41
0.0
 71
     5
 72
     1
  1
35
 11
0.0000000000000001
 21
1.0
 31
0.0
 73
     1
 44
1.0
1001
ACAD
1000
MTEXTBEGIN
1070
    73
1070
     1
1070
    44
1040
1.0
1070
    74
1070
     0
1000
MTEXTEND
  0
INSERT
  5
1FB7
330
299
100
AcDbEntity
  8
0
 62
     0
370
    15
100
AcDbBlockReference
  2
_DotSmall
 10
446.5675097307204
 20
967.4291071751886
 30
0.0
 41
30.0
 42
30.0
 43
30.0
 50
270.0
  0
INSERT
  5
1FB8
330
299
100
AcDbEntity
  8
0
 62
     0
370
    15
100
AcDbBlockReference
  2
_DotSmall
 10
446.5675097307204
 20
1002.429107175188
 30
0.0
 41
30.0
 42
30.0
 43
30.0
 50
90.0
  0
POINT
  5
1FB9
330
299
100
AcDbEntity
  8
Defpoints
 62
     0
100
AcDbPoint
 10
623.9464317507489
 20
967.4291071751886
 30
0.0
  0
POINT
  5
1FBA
330
299
100
AcDbEntity
  8
Defpoints
 62
     0
100
AcDbPoint
 10
623.946431750749
 20
1002.429107175188
 30
0.0
  0
POINT
  5
1FBB
330
299
100
AcDbEntity
  8
Defpoints
 62
     0
100
AcDbPoint
 10
446.5675097307204
 20
1002.429107175188
 30
0.0
  0
ENDBLK
  5
2A5
330
299
100
AcDbEntity
  8
0
100
AcDbBlockEnd
  0
BLOCK
  5
2B1
330
2A7
100
AcDbEntity
  8
0
100
AcDbBlockBegin
  2
*D8
 70
     1
 10
0.0
 20
0.0
 30
0.0
  3
*D8
  1

  0
LINE
  5
1F8E
330
2A7
100
AcDbEntity
  8
0
 62
     0
370
    15
100
AcDbLine
 10
623.946431750749
 20
1002.429107175188
 30
0.0
 11
446.5675097307203
 21
1002.429107175188
 31
0.0
  0
LINE
  5
1F8F
330
2A7
100
AcDbEntity
  8
0
 62
     0
370
    15
100
AcDbLine
 10
623.9464317507489
 20
1522.429107175188
 30
0.0
 11
446.5675097307204
 21
1522.429107175189
 31
0.0
  0
LINE
  5
1F90
330
2A7
100
AcDbEntity
  8
0
 62
     0
370
    15
100
AcDbLine
 10
446.5675097307203
 20
1002.429107175188
 30
0.0
 11
446.5675097307204
 21
1522.429107175189
 31
0.0
  0
INSERT
  5
1F91
330
2A7
100
AcDbEntity
  8
0
 62
     0
370
    15
100
AcDbBlockReference
  2
_DotSmall
 10
446.5675097307203
 20
1002.429107175188
 30
0.0
 41
30.0
 42
30.0
 43
30.0
 50
270.0
  0
INSERT
  5
1F92
330
2A7
100
AcDbEntity
  8
0
 62
     0
370
    15
100
AcDbBlockReference
  2
_DotSmall
 10
446.5675097307204
 20
1522.429107175189
 30
0.0
 41
30.0
 42
30.0
 43
30.0
 50
90.0
  0
MTEXT
  5
1F93
330
2A7
100
AcDbEntity
  8
0
 62
     0
100
AcDbMText
 10
427.8175097307201
 20
1262.429107175189
 30
0.0
 40
25.0
 41
0.0
 71
     5
 72
     1
  1
520
 11
0.0000000000000001
 21
1.0
 31
0.0
 73
     1
 44
1.0
1001
ACAD
1000
MTEXTBEGIN
1070
    73
1070
     1
1070
    44
1040
1.0
1070
    74
1070
     0
1000
MTEXTEND
  0
POINT
  5
1F94
330
2A7
100
AcDbEntity
  8
Defpoints
 62
     0
100
AcDbPoint
 10
623.946431750749
 20
1002.429107175188
 30
0.0
  0
POINT
  5
1F95
330
2A7
100
AcDbEntity
  8
Defpoints
 62
     0
100
AcDbPoint
 10
623.9464317507489
 20
1522.429107175188
 30
0.0
  0
POINT
  5
1F96
330
2A7
100
AcDbEntity
  8
Defpoints
 62
     0
100
AcDbPoint
 10
446.5675097307204
 20
1522.429107175189
 30
0.0
  0
ENDBLK
  5
2B2
330
2A7
100
AcDbEntity
  8
0
100
AcDbBlockEnd
  0
BLOCK
  5
2BE
330
2B4
100
AcDbEntity
  8
0
100
AcDbBlockBegin
  2
*D9
 70
     1
 10
0.0
 20
0.0
 30
0.0
  3
*D9
  1

  0
LINE
  5
1FC5
330
2B4
100
AcDbEntity
  8
0
 62
     0
370
    15
100
AcDbLine
 10
623.9464317507489
 20
1522.429107175188
 30
0.0
 11
446.5675097307204
 21
1522.429107175189
 31
0.0
  0
LINE
  5
1FC6
330
2B4
100
AcDbEntity
  8
0
 62
     0
370
    15
100
AcDbLine
 10
623.9464317507488
 20
1557.429107175189
 30
0.0
 11
446.5675097307204
 21
1557.429107175189
 31
0.0
  0
LINE
  5
1FC7
330
2B4
100
AcDbEntity
  8
0
 62
     0
370
    15
100
AcDbLine
 10
446.5675097307204
 20
1522.429107175189
 30
0.0
 11
446.5675097307204
 21
1557.429107175189
 31
0.0
  0
MTEXT
  5
1FC8
330
2B4
100
AcDbEntity
  8
0
 62
     0
100
AcDbMText
 10
424.6065991658806
 20
1528.796856668188
 30
0.0
 40
25.0
 41
0.0
 71
     5
 72
     1
  1
35
 11
0.0000000000000001
 21
1.0
 31
0.0
 73
     1
 44
1.0
1001
ACAD
1000
MTEXTBEGIN
1070
    73
1070
     1
1070
    44
1040
1.0
1070
    74
1070
     0
1000
MTEXTEND
  0
INSERT
  5
1FC9
330
2B4
100
AcDbEntity
  8
0
 62
     0
370
    15
100
AcDbBlockReference
  2
_DotSmall
 10
446.5675097307204
 20
1522.429107175189
 30
0.0
 41
30.0
 42
30.0
 43
30.0
 50
270.0
  0
INSERT
  5
1FCA
330
2B4
100
AcDbEntity
  8
0
 62
     0
370
    15
100
AcDbBlockReference
  2
_DotSmall
 10
446.5675097307204
 20
1557.429107175189
 30
0.0
 41
30.0
 42
30.0
 43
30.0
 50
90.0
  0
POINT
  5
1FCB
330
2B4
100
AcDbEntity
  8
Defpoints
 62
     0
100
AcDbPoint
 10
623.9464317507489
 20
1522.429107175188
 30
0.0
  0
POINT
  5
1FCC
330
2B4
100
AcDbEntity
  8
Defpoints
 62
     0
100
AcDbPoint
 10
623.9464317507488
 20
1557.429107175189
 30
0.0
  0
POINT
  5
1FCD
330
2B4
100
AcDbEntity
  8
Defpoints
 62
     0
100
AcDbPoint
 10
446.5675097307204
 20
1557.429107175189
 30
0.0
  0
ENDBLK
  5
2BF
330
2B4
100
AcDbEntity
  8
0
100
AcDbBlockEnd
  0
BLOCK
  5
2E7
330
2DD
100
AcDbEntity
  8
0
100
AcDbBlockBegin
  2
*D10
 70
     1
 10
0.0
 20
0.0
 30
0.0
  3
*D10
  1

  0
LINE
  5
1F97
330
2DD
100
AcDbEntity
  8
0
 62
     0
370
    15
100
AcDbLine
 10
623.9464317507489
 20
967.4291071751886
 30
0.0
 11
377.0968573614063
 21
967.4291071751886
 31
0.0
  0
LINE
  5
1F98
330
2DD
100
AcDbEntity
  8
0
 62
     0
370
    15
100
AcDbLine
 10
623.9464317507488
 20
1557.429107175189
 30
0.0
 11
377.0968573614064
 21
1557.429107175189
 31
0.0
  0
LINE
  5
1F99
330
2DD
100
AcDbEntity
  8
0
 62
     0
370
    15
100
AcDbLine
 10
377.0968573614063
 20
967.4291071751886
 30
0.0
 11
377.0968573614064
 21
1557.429107175189
 31
0.0
  0
INSERT
  5
1F9A
330
2DD
100
AcDbEntity
  8
0
 62
     0
370
    15
100
AcDbBlockReference
  2
_DotSmall
 10
377.0968573614063
 20
967.4291071751886
 30
0.0
 41
30.0
 42
30.0
 43
30.0
 50
270.0
  0
INSERT
  5
1F9B
330
2DD
100
AcDbEntity
  8
0
 62
     0
370
    15
100
AcDbBlockReference
  2
_DotSmall
 10
377.0968573614064
 20
1557.429107175189
 30
0.0
 41
30.0
 42
30.0
 43
30.0
 50
90.0
  0
MTEXT
  5
1F9C
330
2DD
100
AcDbEntity
  8
0
 62
     0
100
AcDbMText
 10
358.3468573614061
 20
1262.429107175189
 30
0.0
 40
25.0
 41
0.0
 71
     5
 72
     1
  1
590
 11
0.0000000000000001
 21
1.0
 31
0.0
 73
     1
 44
1.0
1001
ACAD
1000
MTEXTBEGIN
1070
    73
1070
     1
1070
    44
1040
1.0
1070
    74
1070
     0
1000
MTEXTEND
  0
POINT
  5
1F9D
330
2DD
100
AcDbEntity
  8
Defpoints
 62
     0
100
AcDbPoint
 10
623.9464317507489
 20
967.4291071751886
 30
0.0
  0
POINT
  5
1F9E
330
2DD
100
AcDbEntity
  8
Defpoints
 62
     0
100
AcDbPoint
 10
623.9464317507488
 20
1557.429107175189
 30
0.0
  0
POINT
  5
1F9F
330
2DD
100
AcDbEntity
  8
Defpoints
 62
     0
100
AcDbPoint
 10
377.0968573614064
 20
1557.429107175189
 30
0.0
  0
ENDBLK
  5
2E8
330
2DD
100
AcDbEntity
  8
0
100
AcDbBlockEnd
  0
BLOCK
  5
302
330
2F8
100
AcDbEntity
  8
0
100
AcDbBlockBegin
  2
*D11
 70
     1
 10
0.0
 20
0.0
 30
0.0
  3
*D11
  1

  0
LINE
  5
1F61
330
2F8
100
AcDbEntity
  8
0
 62
     0
370
    15
100
AcDbLine
 10
720.8731097290045
 20
902.4291071751886
 30
0.0
 11
720.8731097290045
 21
863.521335380472
 31
0.0
  0
LINE
  5
1F62
330
2F8
100
AcDbEntity
  8
0
 62
     0
370
    15
100
AcDbLine
 10
1370.873109729004
 20
902.4291071751884
 30
0.0
 11
1370.873109729004
 21
863.521335380472
 31
0.0
  0
LINE
  5
1F63
330
2F8
100
AcDbEntity
  8
0
 62
     0
370
    15
100
AcDbLine
 10
720.8731097290045
 20
863.521335380472
 30
0.0
 11
1370.873109729004
 21
863.521335380472
 31
0.0
  0
INSERT
  5
1F64
330
2F8
100
AcDbEntity
  8
0
 62
     0
370
    15
100
AcDbBlockReference
  2
_DotSmall
 10
720.8731097290045
 20
863.521335380472
 30
0.0
 41
30.0
 42
30.0
 43
30.0
 50
180.0
  0
INSERT
  5
1F65
330
2F8
100
AcDbEntity
  8
0
 62
     0
370
    15
100
AcDbBlockReference
  2
_DotSmall
 10
1370.873109729004
 20
863.521335380472
 30
0.0
 41
30.0
 42
30.0
 43
30.0
  0
MTEXT
  5
1F66
330
2F8
100
AcDbEntity
  8
0
 62
     0
100
AcDbMText
 10
1045.873109729004
 20
882.271335380472
 30
0.0
 40
25.0
 41
0.0
 71
     5
 72
     1
  1
650
 73
     1
 44
1.0
1001
ACAD
1000
MTEXTBEGIN
1070
    73
1070
     1
1070
    44
1040
1.0
1070
    74
1070
     0
1000
MTEXTEND
  0
POINT
  5
1F67
330
2F8
100
AcDbEntity
  8
Defpoints
 62
     0
100
AcDbPoint
 10
720.8731097290045
 20
967.4291071751886
 30
0.0
  0
POINT
  5
1F68
330
2F8
100
AcDbEntity
  8
Defpoints
 62
     0
100
AcDbPoint
 10
1370.873109729004
 20
967.4291071751884
 30
0.0
  0
POINT
  5
1F69
330
2F8
100
AcDbEntity
  8
Defpoints
 62
     0
100
AcDbPoint
 10
1370.873109729004
 20
863.521335380472
 30
0.0
  0
ENDBLK
  5
303
330
2F8
100
AcDbEntity
  8
0
100
AcDbBlockEnd
  0
BLOCK
  5
311
330
305
100
AcDbEntity
  8
0
100
AcDbBlockBegin
  2
*D12
 70
     1
 10
0.0
 20
0.0
 30
0.0
  3
*D12
  1

  0
LINE
  5
2028
330
305
100
AcDbEntity
  8
0
 62
     0
370
    15
100
AcDbLine
 10
1370.873109729004
 20
902.4291071751884
 30
0.0
 11
1370.873109729004
 21
863.521335380472
 31
0.0
  0
LINE
  5
2029
330
305
100
AcDbEntity
  8
0
 62
     0
370
    15
100
AcDbLine
 10
1405.873109729004
 20
902.4291071751886
 30
0.0
 11
1405.873109729004
 21
863.521335380472
 31
0.0
  0
LINE
  5
202A
330
305
100
AcDbEntity
  8
0
 62
     0
370
    15
100
AcDbLine
 10
1370.873109729004
 20
863.521335380472
 30
0.0
 11
1405.873109729004
 21
863.521335380472
 31
0.0
  0
MTEXT
  5
202B
330
305
100
AcDbEntity
  8
0
 62
     0
100
AcDbMText
 10
1327.414894144548
 20
882.271335380472
 30
0.0
 40
25.0
 41
0.0
 71
     5
 72
     1
  1
35
 73
     1
 44
1.0
1001
ACAD
1000
MTEXTBEGIN
1070
    73
1070
     1
1070
    44
1040
1.0
1070
    74
1070
     0
1000
MTEXTEND
  0
INSERT
  5
202C
330
305
100
AcDbEntity
  8
0
 62
     0
370
    15
100
AcDbBlockReference
  2
_DotSmall
 10
1370.873109729004
 20
863.521335380472
 30
0.0
 41
30.0
 42
30.0
 43
30.0
 50
180.0
  0
INSERT
  5
202D
330
305
100
AcDbEntity
  8
0
 62
     0
370
    15
100
AcDbBlockReference
  2
_DotSmall
 10
1405.873109729004
 20
863.521335380472
 30
0.0
 41
30.0
 42
30.0
 43
30.0
  0
POINT
  5
202E
330
305
100
AcDbEntity
  8
Defpoints
 62
     0
100
AcDbPoint
 10
1370.873109729004
 20
967.4291071751884
 30
0.0
  0
POINT
  5
202F
330
305
100
AcDbEntity
  8
Defpoints
 62
     0
100
AcDbPoint
 10
1405.873109729004
 20
967.4291071751886
 30
0.0
  0
POINT
  5
2030
330
305
100
AcDbEntity
  8
Defpoints
 62
     0
100
AcDbPoint
 10
1405.873109729004
 20
863.521335380472
 30
0.0
  0
ENDBLK
  5
312
330
305
100
AcDbEntity
  8
0
100
AcDbBlockEnd
  0
BLOCK
  5
327
330
31D
100
AcDbEntity
  8
0
100
AcDbBlockBegin
  2
*D13
 70
     1
 10
0.0
 20
0.0
 30
0.0
  3
*D13
  1

  0
LINE
  5
1F6A
330
31D
100
AcDbEntity
  8
0
 62
     0
370
    15
100
AcDbLine
 10
685.8731097290045
 20
902.4291071751886
 30
0.0
 11
685.8731097290045
 21
793.162563425265
 31
0.0
  0
LINE
  5
1F6B
330
31D
100
AcDbEntity
  8
0
 62
     0
370
    15
100
AcDbLine
 10
1405.873109729004
 20
902.4291071751886
 30
0.0
 11
1405.873109729004
 21
793.162563425265
 31
0.0
  0
LINE
  5
1F6C
330
31D
100
AcDbEntity
  8
0
 62
     0
370
    15
100
AcDbLine
 10
685.8731097290045
 20
793.162563425265
 30
0.0
 11
1405.873109729004
 21
793.162563425265
 31
0.0
  0
INSERT
  5
1F6D
330
31D
100
AcDbEntity
  8
0
 62
     0
370
    15
100
AcDbBlockReference
  2
_DotSmall
 10
685.8731097290045
 20
793.162563425265
 30
0.0
 41
30.0
 42
30.0
 43
30.0
 50
180.0
  0
INSERT
  5
1F6E
330
31D
100
AcDbEntity
  8
0
 62
     0
370
    15
100
AcDbBlockReference
  2
_DotSmall
 10
1405.873109729004
 20
793.162563425265
 30
0.0
 41
30.0
 42
30.0
 43
30.0
  0
MTEXT
  5
1F6F
330
31D
100
AcDbEntity
  8
0
 62
     0
100
AcDbMText
 10
1045.873109729004
 20
811.912563425265
 30
0.0
 40
25.0
 41
0.0
 71
     5
 72
     1
  1
720
 73
     1
 44
1.0
1001
ACAD
1000
MTEXTBEGIN
1070
    73
1070
     1
1070
    44
1040
1.0
1070
    74
1070
     0
1000
MTEXTEND
  0
POINT
  5
1F70
330
31D
100
AcDbEntity
  8
Defpoints
 62
     0
100
AcDbPoint
 10
685.8731097290045
 20
967.4291071751886
 30
0.0
  0
POINT
  5
1F71
330
31D
100
AcDbEntity
  8
Defpoints
 62
     0
100
AcDbPoint
 10
1405.873109729004
 20
967.4291071751886
 30
0.0
  0
POINT
  5
1F72
330
31D
100
AcDbEntity
  8
Defpoints
 62
     0
100
AcDbPoint
 10
1405.873109729004
 20
793.162563425265
 30
0.0
  0
ENDBLK
  5
328
330
31D
100
AcDbEntity
  8
0
100
AcDbBlockEnd
  0
BLOCK
  5
439
330
42E
100
AcDbEntity
  8
0
100
AcDbBlockBegin
  2
*D14
 70
     1
 10
0.0
 20
0.0
 30
0.0
  3
*D14
  1

  0
LINE
  5
2031
330
42E
100
AcDbEntity
  8
0
 62
     0
370
    15
100
AcDbLine
 10
1457.873109729004
 20
653.858590978055
 30
0.0
 11
1505.531051684906
 21
653.858590978055
 31
0.0
  0
LINE
  5
2032
330
42E
100
AcDbEntity
  8
0
 62
     0
370
    15
100
AcDbLine
 10
1457.873109729004
 20
668.8585909780551
 30
0.0
 11
1505.531051684906
 21
668.8585909780551
 31
0.0
  0
LINE
  5
2033
330
42E
100
AcDbEntity
  8
0
 62
     0
370
    15
100
AcDbLine
 10
1505.531051684906
 20
653.858590978055
 30
0.0
 11
1505.531051684906
 21
668.8585909780551
 31
0.0
  0
MTEXT
  5
2034
330
42E
100
AcDbEntity
  8
0
 62
     0
100
AcDbMText
 10
1531.588803776571
 20
698.6280536331105
 30
0.0
 40
25.0
 41
0.0
 71
     5
 72
     1
  1
15
 11
0.0000000000000001
 21
1.0
 31
0.0
 73
     1
 44
1.0
1001
ACAD
1000
MTEXTBEGIN
1070
    73
1070
     1
1070
    44
1040
1.0
1070
    74
1070
     0
1000
MTEXTEND
  0
INSERT
  5
2035
330
42E
100
AcDbEntity
  8
0
 62
     0
370
    15
100
AcDbBlockReference
  2
_DotSmall
 10
1505.531051684906
 20
653.858590978055
 30
0.0
 41
30.0
 42
30.0
 43
30.0
 50
270.0
  0
INSERT
  5
2036
330
42E
100
AcDbEntity
  8
0
 62
     0
370
    15
100
AcDbBlockReference
  2
_DotSmall
 10
1505.531051684906
 20
668.8585909780551
 30
0.0
 41
30.0
 42
30.0
 43
30.0
 50
90.0
  0
POINT
  5
2037
330
42E
100
AcDbEntity
  8
Defpoints
 62
     0
100
AcDbPoint
 10
1392.873109729004
 20
653.858590978055
 30
0.0
  0
POINT
  5
2038
330
42E
100
AcDbEntity
  8
Defpoints
 62
     0
100
AcDbPoint
 10
1392.873109729004
 20
668.8585909780551
 30
0.0
  0
POINT
  5
2039
330
42E
100
AcDbEntity
  8
Defpoints
 62
     0
100
AcDbPoint
 10
1505.531051684906
 20
668.8585909780551
 30
0.0
  0
ENDBLK
  5
43A
330
42E
100
AcDbEntity
  8
0
100
AcDbBlockEnd
  0
BLOCK
  5
46F
330
465
100
AcDbEntity
  8
0
100
AcDbBlockBegin
  2
*D15
 70
     1
 10
0.0
 20
0.0
 30
0.0
  3
*D15
  1

  0
LINE
  5
1FCE
330
465
100
AcDbEntity
  8
0
 62
     0
370
    15
100
AcDbLine
 10
1457.873109729004
 20
668.8585909780551
 30
0.0
 11
1584.163268117407
 21
668.8585909780551
 31
0.0
  0
LINE
  5
1FCF
330
465
100
AcDbEntity
  8
0
 62
     0
370
    15
100
AcDbLine
 10
1457.873109729003
 20
478.8585909780551
 30
0.0
 11
1584.163268117407
 21
478.8585909780551
 31
0.0
  0
LINE
  5
1FD0
330
465
100
AcDbEntity
  8
0
 62
     0
370
    15
100
AcDbLine
 10
1584.163268117407
 20
668.8585909780551
 30
0.0
 11
1584.163268117407
 21
478.8585909780551
 31
0.0
  0
INSERT
  5
1FD1
330
465
100
AcDbEntity
  8
0
 62
     0
370
    15
100
AcDbBlockReference
  2
_DotSmall
 10
1584.163268117407
 20
668.8585909780551
 30
0.0
 41
30.0
 42
30.0
 43
30.0
 50
90.0
  0
INSERT
  5
1FD2
330
465
100
AcDbEntity
  8
0
 62
     0
370
    15
100
AcDbBlockReference
  2
_DotSmall
 10
1584.163268117407
 20
478.8585909780551
 30
0.0
 41
30.0
 42
30.0
 43
30.0
 50
270.0
  0
MTEXT
  5
1FD3
330
465
100
AcDbEntity
  8
0
 62
     0
100
AcDbMText
 10
1565.413268117407
 20
573.8585909780552
 30
0.0
 40
25.0
 41
0.0
 71
     5
 72
     1
  1
190
 11
0.0000000000000001
 21
1.0
 31
0.0
 73
     1
 44
1.0
1001
ACAD
1000
MTEXTBEGIN
1070
    73
1070
     1
1070
    44
1040
1.0
1070
    74
1070
     0
1000
MTEXTEND
  0
POINT
  5
1FD4
330
465
100
AcDbEntity
  8
Defpoints
 62
     0
100
AcDbPoint
 10
1392.873109729004
 20
668.8585909780551
 30
0.0
  0
POINT
  5
1FD5
330
465
100
AcDbEntity
  8
Defpoints
 62
     0
100
AcDbPoint
 10
1392.873109729003
 20
478.8585909780551
 30
0.0
  0
POINT
  5
1FD6
330
465
100
AcDbEntity
  8
Defpoints
 62
     0
100
AcDbPoint
 10
1584.163268117407
 20
478.8585909780551
 30
0.0
  0
ENDBLK
  5
470
330
465
100
AcDbEntity
  8
0
100
AcDbBlockEnd
  0
BLOCK
  5
E07
330
DFB
100
AcDbEntity
  8
0
100
AcDbBlockBegin
  2
*D16
 70
     1
 10
0.0
 20
0.0
 30
0.0
  3
*D16
  1

  0
LINE
  5
1F73
330
DFB
100
AcDbEntity
  8
実形
 62
     0
370
    15
100
AcDbLine
 10
720.8731097290045
 20
902.4291071751886
 30
0.0
 11
720.8731097290045
 21
863.521335380472
 31
0.0
  0
LINE
  5
1F74
330
DFB
100
AcDbEntity
  8
実形
 62
     0
370
    15
100
AcDbLine
 10
685.8731097290045
 20
902.4291071751886
 30
0.0
 11
685.8731097290045
 21
863.521335380472
 31
0.0
  0
LINE
  5
1F75
330
DFB
100
AcDbEntity
  8
実形
 62
     0
370
    15
100
AcDbLine
 10
720.8731097290045
 20
863.521335380472
 30
0.0
 11
685.8731097290045
 21
863.521335380472
 31
0.0
  0
MTEXT
  5
1F76
330
DFB
100
AcDbEntity
  8
実形
 62
     0
100
AcDbMText
 10
749.6976450915262
 20
882.707262806557
 30
0.0
 40
25.0
 41
0.0
 71
     5
 72
     1
  1
35
 73
     1
 44
1.0
1001
ACAD
1000
MTEXTBEGIN
1070
    73
1070
     1
1070
    44
1040
1.0
1070
    74
1070
     0
1000
MTEXTEND
  0
INSERT
  5
1F77
330
DFB
100
AcDbEntity
  8
実形
 62
     0
370
    15
100
AcDbBlockReference
  2
_DotSmall
 10
720.8731097290045
 20
863.521335380472
 30
0.0
 41
30.0
 42
30.0
 43
30.0
  0
INSERT
  5
1F78
330
DFB
100
AcDbEntity
  8
実形
 62
     0
370
    15
100
AcDbBlockReference
  2
_DotSmall
 10
685.8731097290045
 20
863.521335380472
 30
0.0
 41
30.0
 42
30.0
 43
30.0
 50
180.0
  0
POINT
  5
1F79
330
DFB
100
AcDbEntity
  8
Defpoints
 62
     0
100
AcDbPoint
 10
720.8731097290045
 20
967.4291071751886
 30
0.0
  0
POINT
  5
1F7A
330
DFB
100
AcDbEntity
  8
Defpoints
 62
     0
100
AcDbPoint
 10
685.8731097290045
 20
967.4291071751886
 30
0.0
  0
POINT
  5
1F7B
330
DFB
100
AcDbEntity
  8
Defpoints
 62
     0
100
AcDbPoint
 10
685.8731097290045
 20
863.521335380472
 30
0.0
  0
ENDBLK
  5
E08
330
DFB
100
AcDbEntity
  8
0
100
AcDbBlockEnd
  0
BLOCK
  5
14D8
330
14CE
100
AcDbEntity
  8
0
100
AcDbBlockBegin
  2
*D17
 70
     1
 10
0.0
 20
0.0
 30
0.0
  3
*D17
  1

  0
LINE
  5
1FE9
330
14CE
100
AcDbEntity
  8
実形
 62
     0
370
    15
100
AcDbLine
 10
880.3731097290041
 20
543.8585909780552
 30
0.0
 11
880.3731097290041
 21
581.0116155160269
 31
0.0
  0
LINE
  5
1FEA
330
14CE
100
AcDbEntity
  8
実形
 62
     0
370
    15
100
AcDbLine
 10
860.3731097290042
 20
543.8585909780556
 30
0.0
 11
860.3731097290042
 21
581.0116155160269
 31
0.0
  0
LINE
  5
1FEB
330
14CE
100
AcDbEntity
  8
実形
 62
     0
370
    15
100
AcDbLine
 10
880.3731097290041
 20
581.0116155160269
 30
0.0
 11
860.3731097290042
 21
581.0116155160269
 31
0.0
  0
MTEXT
  5
1FEC
330
14CE
100
AcDbEntity
  8
実形
 62
     0
100
AcDbMText
 10
869.5333900738365
 20
604.9226242308793
 30
0.0
 40
25.0
 41
0.0
 71
     5
 72
     1
  1
20
 73
     1
 44
1.0
1001
ACAD
1000
MTEXTBEGIN
1070
    73
1070
     1
1070
    44
1040
1.0
1070
    74
1070
     0
1000
MTEXTEND
  0
INSERT
  5
1FED
330
14CE
100
AcDbEntity
  8
実形
 62
     0
370
    15
100
AcDbBlockReference
  2
_DotSmall
 10
880.3731097290041
 20
581.0116155160269
 30
0.0
 41
30.0
 42
30.0
 43
30.0
  0
INSERT
  5
1FEE
330
14CE
100
AcDbEntity
  8
実形
 62
     0
370
    15
100
AcDbBlockReference
  2
_DotSmall
 10
860.3731097290042
 20
581.0116155160269
 30
0.0
 41
30.0
 42
30.0
 43
30.0
 50
180.0
  0
POINT
  5
1FEF
330
14CE
100
AcDbEntity
  8
Defpoints
 62
     0
100
AcDbPoint
 10
880.3731097290041
 20
478.8585909780551
 30
0.0
  0
POINT
  5
1FF0
330
14CE
100
AcDbEntity
  8
Defpoints
 62
     0
100
AcDbPoint
 10
860.3731097290042
 20
478.8585909780556
 30
0.0
  0
POINT
  5
1FF1
330
14CE
100
AcDbEntity
  8
Defpoints
 62
     0
100
AcDbPoint
 10
860.3731097290042
 20
581.0116155160269
 30
0.0
  0
ENDBLK
  5
14D9
330
14CE
100
AcDbEntity
  8
0
100
AcDbBlockEnd
  0
BLOCK
  5
1539
330
152F
100
AcDbEntity
  8
0
100
AcDbBlockBegin
  2
*D18
 70
     1
 10
0.0
 20
0.0
 30
0.0
  3
*D18
  1

  0
LINE
  5
1FF2
330
152F
100
AcDbEntity
  8
実形
 62
     0
370
    15
100
AcDbLine
 10
1061.373109729004
 20
543.8585909780552
 30
0.0
 11
1061.373109729004
 21
581.0116155160269
 31
0.0
  0
LINE
  5
1FF3
330
152F
100
AcDbEntity
  8
実形
 62
     0
370
    15
100
AcDbLine
 10
1081.373109729004
 20
543.8585909780556
 30
0.0
 11
1081.373109729004
 21
581.0116155160269
 31
0.0
  0
LINE
  5
1FF4
330
152F
100
AcDbEntity
  8
実形
 62
     0
370
    15
100
AcDbLine
 10
1061.373109729004
 20
581.0116155160269
 30
0.0
 11
1081.373109729004
 21
581.0116155160269
 31
0.0
  0
MTEXT
  5
1FF5
330
152F
100
AcDbEntity
  8
実形
 62
     0
100
AcDbMText
 10
1070.923484108495
 20
604.2713044862073
 30
0.0
 40
25.0
 41
0.0
 71
     5
 72
     1
  1
20
 73
     1
 44
1.0
1001
ACAD
1000
MTEXTBEGIN
1070
    73
1070
     1
1070
    44
1040
1.0
1070
    74
1070
     0
1000
MTEXTEND
  0
INSERT
  5
1FF6
330
152F
100
AcDbEntity
  8
実形
 62
     0
370
    15
100
AcDbBlockReference
  2
_DotSmall
 10
1061.373109729004
 20
581.0116155160269
 30
0.0
 41
30.0
 42
30.0
 43
30.0
 50
180.0
  0
INSERT
  5
1FF7
330
152F
100
AcDbEntity
  8
実形
 62
     0
370
    15
100
AcDbBlockReference
  2
_DotSmall
 10
1081.373109729004
 20
581.0116155160269
 30
0.0
 41
30.0
 42
30.0
 43
30.0
  0
POINT
  5
1FF8
330
152F
100
AcDbEntity
  8
Defpoints
 62
     0
100
AcDbPoint
 10
1061.373109729004
 20
478.8585909780551
 30
0.0
  0
POINT
  5
1FF9
330
152F
100
AcDbEntity
  8
Defpoints
 62
     0
100
AcDbPoint
 10
1081.373109729004
 20
478.8585909780556
 30
0.0
  0
POINT
  5
1FFA
330
152F
100
AcDbEntity
  8
Defpoints
 62
     0
100
AcDbPoint
 10
1081.373109729004
 20
581.0116155160269
 30
0.0
  0
ENDBLK
  5
153A
330
152F
100
AcDbEntity
  8
0
100
AcDbBlockEnd
  0
BLOCK
  5
1545
330
153B
100
AcDbEntity
  8
0
100
AcDbBlockBegin
  2
*D19
 70
     1
 10
0.0
 20
0.0
 30
0.0
  3
*D19
  1

  0
LINE
  5
1FE0
330
153B
100
AcDbEntity
  8
0
 62
     0
370
    15
100
AcDbLine
 10
1061.373109729004
 20
543.8585909780552
 30
0.0
 11
1061.373109729004
 21
581.0116155160269
 31
0.0
  0
LINE
  5
1FE1
330
153B
100
AcDbEntity
  8
0
 62
     0
370
    15
100
AcDbLine
 10
880.3731097290041
 20
543.8585909780552
 30
0.0
 11
880.3731097290041
 21
581.0116155160269
 31
0.0
  0
LINE
  5
1FE2
330
153B
100
AcDbEntity
  8
0
 62
     0
370
    15
100
AcDbLine
 10
1061.373109729004
 20
581.0116155160269
 30
0.0
 11
880.3731097290041
 21
581.0116155160269
 31
0.0
  0
INSERT
  5
1FE3
330
153B
100
AcDbEntity
  8
0
 62
     0
370
    15
100
AcDbBlockReference
  2
_DotSmall
 10
1061.373109729004
 20
581.0116155160269
 30
0.0
 41
30.0
 42
30.0
 43
30.0
  0
INSERT
  5
1FE4
330
153B
100
AcDbEntity
  8
0
 62
     0
370
    15
100
AcDbBlockReference
  2
_DotSmall
 10
880.3731097290041
 20
581.0116155160269
 30
0.0
 41
30.0
 42
30.0
 43
30.0
 50
180.0
  0
MTEXT
  5
1FE5
330
153B
100
AcDbEntity
  8
0
 62
     0
100
AcDbMText
 10
970.8731097290042
 20
599.7616155160269
 30
0.0
 40
25.0
 41
0.0
 71
     5
 72
     1
  1
181
 73
     1
 44
1.0
1001
ACAD
1000
MTEXTBEGIN
1070
    73
1070
     1
1070
    44
1040
1.0
1070
    74
1070
     0
1000
MTEXTEND
  0
POINT
  5
1FE6
330
153B
100
AcDbEntity
  8
Defpoints
 62
     0
100
AcDbPoint
 10
1061.373109729004
 20
478.8585909780551
 30
0.0
  0
POINT
  5
1FE7
330
153B
100
AcDbEntity
  8
Defpoints
 62
     0
100
AcDbPoint
 10
880.3731097290041
 20
478.8585909780551
 30
0.0
  0
POINT
  5
1FE8
330
153B
100
AcDbEntity
  8
Defpoints
 62
     0
100
AcDbPoint
 10
880.3731097290041
 20
581.0116155160269
 30
0.0
  0
ENDBLK
  5
1546
330
153B
100
AcDbEntity
  8
0
100
AcDbBlockEnd
  0
BLOCK
  5
1551
330
1547
100
AcDbEntity
  8
0
100
AcDbBlockBegin
  2
*D20
 70
     1
 10
0.0
 20
0.0
 30
0.0
  3
*D20
  1

  0
LINE
  5
1FFB
330
1547
100
AcDbEntity
  8
実形
 62
     0
370
    15
100
AcDbLine
 10
1452.873109729004
 20
498.8585909780556
 30
0.0
 11
1498.892878251885
 21
498.8585909780556
 31
0.0
  0
LINE
  5
1FFC
330
1547
100
AcDbEntity
  8
実形
 62
     0
370
    15
100
AcDbLine
 10
1452.873109729004
 20
471.8585909780551
 30
0.0
 11
1498.892878251885
 21
471.8585909780551
 31
0.0
  0
LINE
  5
1FFD
330
1547
100
AcDbEntity
  8
実形
 62
     0
370
    15
100
AcDbLine
 10
1498.892878251885
 20
498.8585909780556
 30
0.0
 11
1498.892878251885
 21
471.8585909780551
 31
0.0
  0
MTEXT
  5
1FFE
330
1547
100
AcDbEntity
  8
実形
 62
     0
100
AcDbMText
 10
1482.113750881407
 20
454.291372742304
 30
0.0
 40
25.0
 41
0.0
 71
     5
 72
     1
  1
7
 11
0.0000000000000001
 21
1.0
 31
0.0
 73
     1
 44
1.0
1001
ACAD
1000
MTEXTBEGIN
1070
    73
1070
     1
1070
    44
1040
1.0
1070
    74
1070
     0
1000
MTEXTEND
  0
INSERT
  5
1FFF
330
1547
100
AcDbEntity
  8
実形
 62
     0
370
    15
100
AcDbBlockReference
  2
_DotSmall
 10
1498.892878251885
 20
498.8585909780556
 30
0.0
 41
30.0
 42
30.0
 43
30.0
 50
90.0
  0
INSERT
  5
2000
330
1547
100
AcDbEntity
  8
実形
 62
     0
370
    15
100
AcDbBlockReference
  2
_DotSmall
 10
1498.892878251885
 20
471.8585909780551
 30
0.0
 41
30.0
 42
30.0
 43
30.0
 50
270.0
  0
POINT
  5
2001
330
1547
100
AcDbEntity
  8
Defpoints
 62
     0
100
AcDbPoint
 10
1387.873109729004
 20
498.8585909780556
 30
0.0
  0
POINT
  5
2002
330
1547
100
AcDbEntity
  8
Defpoints
 62
     0
100
AcDbPoint
 10
1387.873109729004
 20
471.8585909780552
 30
0.0
  0
POINT
  5
2003
330
1547
100
AcDbEntity
  8
Defpoints
 62
     0
100
AcDbPoint
 10
1498.892878251885
 20
471.8585909780551
 30
0.0
  0
ENDBLK
  5
1552
330
1547
100
AcDbEntity
  8
0
100
AcDbBlockEnd
  0
BLOCK
  5
155D
330
1553
100
AcDbEntity
  8
0
100
AcDbBlockBegin
  2
*D21
 70
     1
 10
0.0
 20
0.0
 30
0.0
  3
*D21
  1

  0
LINE
  5
2004
330
1553
100
AcDbEntity
  8
0
 62
     0
370
    15
100
AcDbLine
 10
1452.873109729004
 20
498.8585909780556
 30
0.0
 11
1498.892878251885
 21
498.8585909780556
 31
0.0
  0
LINE
  5
2005
330
1553
100
AcDbEntity
  8
0
 62
     0
370
    15
100
AcDbLine
 10
1452.873109729004
 20
478.8585909780556
 30
0.0
 11
1498.892878251885
 21
478.8585909780556
 31
0.0
  0
LINE
  5
2006
330
1553
100
AcDbEntity
  8
0
 62
     0
370
    15
100
AcDbLine
 10
1498.892878251885
 20
498.8585909780556
 30
0.0
 11
1498.892878251885
 21
478.8585909780556
 31
0.0
  0
MTEXT
  5
2007
330
1553
100
AcDbEntity
  8
0
 62
     0
100
AcDbMText
 10
1478.87420962916
 20
524.8668323122622
 30
0.0
 40
25.0
 41
0.0
 71
     5
 72
     1
  1
20
 11
0.0000000000000001
 21
1.0
 31
0.0
 73
     1
 44
1.0
1001
ACAD
1000
MTEXTBEGIN
1070
    73
1070
     1
1070
    44
1040
1.0
1070
    74
1070
     0
1000
MTEXTEND
  0
INSERT
  5
2008
330
1553
100
AcDbEntity
  8
0
 62
     0
370
    15
100
AcDbBlockReference
  2
_DotSmall
 10
1498.892878251885
 20
498.8585909780556
 30
0.0
 41
30.0
 42
30.0
 43
30.0
 50
90.0
  0
INSERT
  5
2009
330
1553
100
AcDbEntity
  8
0
 62
     0
370
    15
100
AcDbBlockReference
  2
_DotSmall
 10
1498.892878251885
 20
478.8585909780556
 30
0.0
 41
30.0
 42
30.0
 43
30.0
 50
270.0
  0
POINT
  5
200A
330
1553
100
AcDbEntity
  8
Defpoints
 62
     0
100
AcDbPoint
 10
1387.873109729004
 20
498.8585909780556
 30
0.0
  0
POINT
  5
200B
330
1553
100
AcDbEntity
  8
Defpoints
 62
     0
100
AcDbPoint
 10
1387.873109729004
 20
478.8585909780556
 30
0.0
  0
POINT
  5
200C
330
1553
100
AcDbEntity
  8
Defpoints
 62
     0
100
AcDbPoint
 10
1498.892878251885
 20
478.8585909780556
 30
0.0
  0
ENDBLK
  5
155E
330
1553
100
AcDbEntity
  8
0
100
AcDbBlockEnd
  0
BLOCK
  5
1569
330
155F
100
AcDbEntity
  8
0
100
AcDbBlockBegin
  2
*D22
 70
     1
 10
0.0
 20
0.0
 30
0.0
  3
*D22
  1

  0
LINE
  5
2133
330
155F
100
AcDbEntity
  8
0
 62
     0
370
    15
100
AcDbLine
 10
1050.373109729004
 20
406.8585909780551
 30
0.0
 11
1050.373109729004
 21
350.4641162800401
 31
0.0
  0
LINE
  5
2134
330
155F
100
AcDbEntity
  8
0
 62
     0
370
    15
100
AcDbLine
 10
891.3731097290042
 20
406.8585909780556
 30
0.0
 11
891.3731097290042
 21
350.4641162800401
 31
0.0
  0
LINE
  5
2135
330
155F
100
AcDbEntity
  8
0
 62
     0
370
    15
100
AcDbLine
 10
1050.373109729004
 20
350.4641162800401
 30
0.0
 11
891.3731097290042
 21
350.4641162800401
 31
0.0
  0
INSERT
  5
2136
330
155F
100
AcDbEntity
  8
0
 62
     0
370
    15
100
AcDbBlockReference
  2
_DotSmall
 10
1050.373109729004
 20
350.4641162800401
 30
0.0
 41
30.0
 42
30.0
 43
30.0
  0
INSERT
  5
2137
330
155F
100
AcDbEntity
  8
0
 62
     0
370
    15
100
AcDbBlockReference
  2
_DotSmall
 10
891.3731097290042
 20
350.4641162800401
 30
0.0
 41
30.0
 42
30.0
 43
30.0
 50
180.0
  0
MTEXT
  5
2138
330
155F
100
AcDbEntity
  8
0
 62
     0
100
AcDbMText
 10
970.8731097290042
 20
369.2141162800401
 30
0.0
 40
25.0
 41
0.0
 71
     5
 72
     1
  1
158
 73
     1
 44
1.0
1001
ACAD
1000
MTEXTBEGIN
1070
    73
1070
     1
1070
    44
1040
1.0
1070
    74
1070
     0
1000
MTEXTEND
  0
POINT
  5
2139
330
155F
100
AcDbEntity
  8
Defpoints
 62
     0
100
AcDbPoint
 10
1050.373109729004
 20
471.8585909780552
 30
0.0
  0
POINT
  5
213A
330
155F
100
AcDbEntity
  8
Defpoints
 62
     0
100
AcDbPoint
 10
891.3731097290042
 20
471.8585909780556
 30
0.0
  0
POINT
  5
213B
330
155F
100
AcDbEntity
  8
Defpoints
 62
     0
100
AcDbPoint
 10
891.3731097290042
 20
350.4641162800401
 30
0.0
  0
ENDBLK
  5
156A
330
155F
100
AcDbEntity
  8
0
100
AcDbBlockEnd
  0
BLOCK
  5
171F
330
1715
100
AcDbEntity
  8
0
100
AcDbBlockBegin
  2
*D23
 70
     1
 10
0.0
 20
0.0
 30
0.0
  3
*D23
  1

  0
LINE
  5
1FBC
330
1715
100
AcDbEntity
  8
実形
 62
     0
370
    15
100
AcDbLine
 10
620.8731097290045
 20
1447.429107175189
 30
0.0
 11
583.1971594881435
 21
1447.429107175189
 31
0.0
  0
LINE
  5
1FBD
330
1715
100
AcDbEntity
  8
実形
 62
     0
370
    15
100
AcDbLine
 10
620.8731097290047
 20
1232.429107175189
 30
0.0
 11
583.1971594881434
 21
1232.429107175189
 31
0.0
  0
LINE
  5
1FBE
330
1715
100
AcDbEntity
  8
実形
 62
     0
370
    15
100
AcDbLine
 10
583.1971594881435
 20
1447.429107175189
 30
0.0
 11
583.1971594881434
 21
1232.429107175189
 31
0.0
  0
INSERT
  5
1FBF
330
1715
100
AcDbEntity
  8
実形
 62
     0
370
    15
100
AcDbBlockReference
  2
_DotSmall
 10
583.1971594881435
 20
1447.429107175189
 30
0.0
 41
30.0
 42
30.0
 43
30.0
 50
90.0
  0
INSERT
  5
1FC0
330
1715
100
AcDbEntity
  8
実形
 62
     0
370
    15
100
AcDbBlockReference
  2
_DotSmall
 10
583.1971594881434
 20
1232.429107175189
 30
0.0
 41
30.0
 42
30.0
 43
30.0
 50
270.0
  0
MTEXT
  5
1FC1
330
1715
100
AcDbEntity
  8
実形
 62
     0
100
AcDbMText
 10
564.4471594881432
 20
1339.929107175189
 30
0.0
 40
25.0
 41
0.0
 71
     5
 72
     1
  1
215
 11
0.0000000000000001
 21
1.0
 31
0.0
 73
     1
 44
1.0
1001
ACAD
1000
MTEXTBEGIN
1070
    73
1070
     1
1070
    44
1040
1.0
1070
    74
1070
     0
1000
MTEXTEND
  0
POINT
  5
1FC2
330
1715
100
AcDbEntity
  8
Defpoints
 62
     0
100
AcDbPoint
 10
685.8731097290045
 20
1447.429107175189
 30
0.0
  0
POINT
  5
1FC3
330
1715
100
AcDbEntity
  8
Defpoints
 62
     0
100
AcDbPoint
 10
685.8731097290046
 20
1232.429107175189
 30
0.0
  0
POINT
  5
1FC4
330
1715
100
AcDbEntity
  8
Defpoints
 62
     0
100
AcDbPoint
 10
583.1971594881434
 20
1232.429107175189
 30
0.0
  0
ENDBLK
  5
1720
330
1715
100
AcDbEntity
  8
0
100
AcDbBlockEnd
  0
BLOCK
  5
1B5D
330
1B53
100
AcDbEntity
  8
0
100
AcDbBlockBegin
  2
*D24
 70
     1
 10
0.0
 20
0.0
 30
0.0
  3
*D24
  1

  0
LINE
  5
204C
330
1B53
100
AcDbEntity
  8
0
 62
     0
370
    15
100
AcDbLine
 10
840.8731097290043
 20
1669.429107175189
 30
0.0
 11
840.8731097290043
 21
1685.940073089136
 31
0.0
  0
LINE
  5
204D
330
1B53
100
AcDbEntity
  8
0
 62
     0
370
    15
100
AcDbLine
 10
1100.873109729004
 20
1669.429107175189
 30
0.0
 11
1100.873109729004
 21
1685.940073089136
 31
0.0
  0
LINE
  5
204E
330
1B53
100
AcDbEntity
  8
0
 62
     0
370
    15
100
AcDbLine
 10
840.8731097290043
 20
1685.940073089136
 30
0.0
 11
1100.873109729004
 21
1685.940073089136
 31
0.0
  0
INSERT
  5
204F
330
1B53
100
AcDbEntity
  8
0
 62
     0
370
    15
100
AcDbBlockReference
  2
_DotSmall
 10
840.8731097290043
 20
1685.940073089136
 30
0.0
 41
30.0
 42
30.0
 43
30.0
 50
180.0
  0
INSERT
  5
2050
330
1B53
100
AcDbEntity
  8
0
 62
     0
370
    15
100
AcDbBlockReference
  2
_DotSmall
 10
1100.873109729004
 20
1685.940073089136
 30
0.0
 41
30.0
 42
30.0
 43
30.0
  0
MTEXT
  5
2051
330
1B53
100
AcDbEntity
  8
0
 62
     0
100
AcDbMText
 10
970.8731097290044
 20
1704.690073089136
 30
0.0
 40
25.0
 41
0.0
 71
     5
 72
     1
  1
260
 73
     1
 44
1.0
1001
ACAD
1000
MTEXTBEGIN
1070
    73
1070
     1
1070
    44
1040
1.0
1070
    74
1070
     0
1000
MTEXTEND
  0
POINT
  5
2052
330
1B53
100
AcDbEntity
  8
Defpoints
 62
     0
100
AcDbPoint
 10
840.8731097290043
 20
1604.429107175189
 30
0.0
  0
POINT
  5
2053
330
1B53
100
AcDbEntity
  8
Defpoints
 62
     0
100
AcDbPoint
 10
1100.873109729004
 20
1604.429107175189
 30
0.0
  0
POINT
  5
2054
330
1B53
100
AcDbEntity
  8
Defpoints
 62
     0
100
AcDbPoint
 10
1100.873109729004
 20
1685.940073089136
 30
0.0
  0
ENDBLK
  5
1B5E
330
1B53
100
AcDbEntity
  8
0
100
AcDbBlockEnd
  0
BLOCK
  5
1B69
330
1B5F
100
AcDbEntity
  8
0
100
AcDbBlockBegin
  2
*D25
 70
     1
 10
0.0
 20
0.0
 30
0.0
  3
*D25
  1

  0
LINE
  5
2043
330
1B5F
100
AcDbEntity
  8
0
 62
     0
370
    15
100
AcDbLine
 10
905.8731097290044
 20
1604.429107175189
 30
0.0
 11
905.8731097290044
 21
1634.547063622351
 31
0.0
  0
LINE
  5
2044
330
1B5F
100
AcDbEntity
  8
0
 62
     0
370
    15
100
AcDbLine
 10
1035.873109729004
 20
1604.429107175189
 30
0.0
 11
1035.873109729004
 21
1634.547063622351
 31
0.0
  0
LINE
  5
2045
330
1B5F
100
AcDbEntity
  8
0
 62
     0
370
    15
100
AcDbLine
 10
905.8731097290044
 20
1634.547063622351
 30
0.0
 11
1035.873109729004
 21
1634.547063622351
 31
0.0
  0
INSERT
  5
2046
330
1B5F
100
AcDbEntity
  8
0
 62
     0
370
    15
100
AcDbBlockReference
  2
_DotSmall
 10
905.8731097290044
 20
1634.547063622351
 30
0.0
 41
30.0
 42
30.0
 43
30.0
 50
180.0
  0
INSERT
  5
2047
330
1B5F
100
AcDbEntity
  8
0
 62
     0
370
    15
100
AcDbBlockReference
  2
_DotSmall
 10
1035.873109729004
 20
1634.547063622351
 30
0.0
 41
30.0
 42
30.0
 43
30.0
  0
MTEXT
  5
2048
330
1B5F
100
AcDbEntity
  8
0
 62
     0
100
AcDbMText
 10
970.8731097290044
 20
1653.297063622351
 30
0.0
 40
25.0
 41
0.0
 71
     5
 72
     1
  1
130
 73
     1
 44
1.0
1001
ACAD
1000
MTEXTBEGIN
1070
    73
1070
     1
1070
    44
1040
1.0
1070
    74
1070
     0
1000
MTEXTEND
  0
POINT
  5
2049
330
1B5F
100
AcDbEntity
  8
Defpoints
 62
     0
100
AcDbPoint
 10
905.8731097290044
 20
1539.429107175189
 30
0.0
  0
POINT
  5
204A
330
1B5F
100
AcDbEntity
  8
Defpoints
 62
     0
100
AcDbPoint
 10
1035.873109729004
 20
1539.429107175189
 30
0.0
  0
POINT
  5
204B
330
1B5F
100
AcDbEntity
  8
Defpoints
 62
     0
100
AcDbPoint
 10
1035.873109729004
 20
1634.547063622351
 30
0.0
  0
ENDBLK
  5
1B6A
330
1B5F
100
AcDbEntity
  8
0
100
AcDbBlockEnd
  0
BLOCK
  5
1B75
330
1B6B
100
AcDbEntity
  8
0
100
AcDbBlockBegin
  2
*D26
 70
     1
 10
0.0
 20
0.0
 30
0.0
  3
*D26
  1

  0
LINE
  5
201F
330
1B6B
100
AcDbEntity
  8
0
 62
     0
370
    15
100
AcDbLine
 10
1097.43339348469
 20
1352.429107175189
 30
0.0
 11
1131.280612003443
 21
1352.429107175189
 31
0.0
  0
LINE
  5
2020
330
1B6B
100
AcDbEntity
  8
0
 62
     0
370
    15
100
AcDbLine
 10
845.8731097290044
 20
1522.429107175189
 30
0.0
 11
1131.280612003443
 21
1522.429107175189
 31
0.0
  0
LINE
  5
2021
330
1B6B
100
AcDbEntity
  8
0
 62
     0
370
    15
100
AcDbLine
 10
1131.280612003443
 20
1352.429107175189
 30
0.0
 11
1131.280612003443
 21
1522.429107175189
 31
0.0
  0
INSERT
  5
2022
330
1B6B
100
AcDbEntity
  8
0
 62
     0
370
    15
100
AcDbBlockReference
  2
_DotSmall
 10
1131.280612003443
 20
1352.429107175189
 30
0.0
 41
30.0
 42
30.0
 43
30.0
 50
270.0
  0
INSERT
  5
2023
330
1B6B
100
AcDbEntity
  8
0
 62
     0
370
    15
100
AcDbBlockReference
  2
_DotSmall
 10
1131.280612003443
 20
1522.429107175189
 30
0.0
 41
30.0
 42
30.0
 43
30.0
 50
90.0
  0
MTEXT
  5
2024
330
1B6B
100
AcDbEntity
  8
0
 62
     0
100
AcDbMText
 10
1112.530612003443
 20
1405.979501426316
 30
0.0
 40
25.0
 41
0.0
 71
     5
 72
     1
  1
170
 11
0.0000000000000001
 21
1.0
 31
0.0
 73
     1
 44
1.0
1001
ACAD
1000
MTEXTBEGIN
1070
    73
1070
     1
1070
    44
1040
1.0
1070
    74
1070
     0
1000
MTEXTEND
  0
POINT
  5
2025
330
1B6B
100
AcDbEntity
  8
Defpoints
 62
     0
100
AcDbPoint
 10
1032.43339348469
 20
1352.429107175189
 30
0.0
  0
POINT
  5
2026
330
1B6B
100
AcDbEntity
  8
Defpoints
 62
     0
100
AcDbPoint
 10
780.8731097290044
 20
1522.429107175189
 30
0.0
  0
POINT
  5
2027
330
1B6B
100
AcDbEntity
  8
Defpoints
 62
     0
100
AcDbPoint
 10
1131.280612003443
 20
1522.429107175189
 30
0.0
  0
ENDBLK
  5
1B76
330
1B6B
100
AcDbEntity
  8
0
100
AcDbBlockEnd
  0
BLOCK
  5
1B81
330
1B77
100
AcDbEntity
  8
0
100
AcDbBlockBegin
  2
*D27
 70
     1
 10
0.0
 20
0.0
 30
0.0
  3
*D27
  1

  0
LINE
  5
1F7C
330
1B77
100
AcDbEntity
  8
0
 62
     0
370
    15
100
AcDbLine
 10
970.8731097290044
 20
1249.17201898441
 30
0.0
 11
970.8731097290044
 21
1154.892029232974
 31
0.0
  0
LINE
  5
1F7D
330
1B77
100
AcDbEntity
  8
0
 62
     0
370
    15
100
AcDbLine
 10
720.8731097290044
 20
1267.429107175189
 30
0.0
 11
720.8731097290044
 21
1154.892029232974
 31
0.0
  0
LINE
  5
1F7E
330
1B77
100
AcDbEntity
  8
0
 62
     0
370
    15
100
AcDbLine
 10
970.8731097290044
 20
1154.892029232974
 30
0.0
 11
720.8731097290044
 21
1154.892029232974
 31
0.0
  0
INSERT
  5
1F7F
330
1B77
100
AcDbEntity
  8
0
 62
     0
370
    15
100
AcDbBlockReference
  2
_DotSmall
 10
970.8731097290044
 20
1154.892029232974
 30
0.0
 41
30.0
 42
30.0
 43
30.0
  0
INSERT
  5
1F80
330
1B77
100
AcDbEntity
  8
0
 62
     0
370
    15
100
AcDbBlockReference
  2
_DotSmall
 10
720.8731097290044
 20
1154.892029232974
 30
0.0
 41
30.0
 42
30.0
 43
30.0
 50
180.0
  0
MTEXT
  5
1F81
330
1B77
100
AcDbEntity
  8
0
 62
     0
100
AcDbMText
 10
845.8731097290044
 20
1173.642029232974
 30
0.0
 40
25.0
 41
0.0
 71
     5
 72
     1
  1
250
 73
     1
 44
1.0
1001
ACAD
1000
MTEXTBEGIN
1070
    73
1070
     1
1070
    44
1040
1.0
1070
    74
1070
     0
1000
MTEXTEND
  0
POINT
  5
1F82
330
1B77
100
AcDbEntity
  8
Defpoints
 62
     0
100
AcDbPoint
 10
970.8731097290044
 20
1314.17201898441
 30
0.0
  0
POINT
  5
1F83
330
1B77
100
AcDbEntity
  8
Defpoints
 62
     0
100
AcDbPoint
 10
720.8731097290044
 20
1332.429107175189
 30
0.0
  0
POINT
  5
1F84
330
1B77
100
AcDbEntity
  8
Defpoints
 62
     0
100
AcDbPoint
 10
720.8731097290044
 20
1154.892029232974
 30
0.0
  0
ENDBLK
  5
1B82
330
1B77
100
AcDbEntity
  8
0
100
AcDbBlockEnd
  0
BLOCK
  5
1B8D
330
1B83
100
AcDbEntity
  8
0
100
AcDbBlockBegin
  2
*D28
 70
     1
 10
0.0
 20
0.0
 30
0.0
  3
*D28
  1

  0
LINE
  5
203A
330
1B83
100
AcDbEntity
  8
実形
 62
     0
370
    15
100
AcDbLine
 10
1140.873109729005
 20
1582.429107175189
 30
0.0
 11
1140.873109729005
 21
1606.855999106207
 31
0.0
  0
LINE
  5
203B
330
1B83
100
AcDbEntity
  8
実形
 62
     0
370
    15
100
AcDbLine
 10
1330.873109729005
 20
1582.429107175189
 30
0.0
 11
1330.873109729005
 21
1606.855999106207
 31
0.0
  0
LINE
  5
203C
330
1B83
100
AcDbEntity
  8
実形
 62
     0
370
    15
100
AcDbLine
 10
1140.873109729005
 20
1606.855999106207
 30
0.0
 11
1330.873109729005
 21
1606.855999106207
 31
0.0
  0
INSERT
  5
203D
330
1B83
100
AcDbEntity
  8
実形
 62
     0
370
    15
100
AcDbBlockReference
  2
_DotSmall
 10
1140.873109729005
 20
1606.855999106207
 30
0.0
 41
30.0
 42
30.0
 43
30.0
 50
180.0
  0
INSERT
  5
203E
330
1B83
100
AcDbEntity
  8
実形
 62
     0
370
    15
100
AcDbBlockReference
  2
_DotSmall
 10
1330.873109729005
 20
1606.855999106207
 30
0.0
 41
30.0
 42
30.0
 43
30.0
  0
MTEXT
  5
203F
330
1B83
100
AcDbEntity
  8
実形
 62
     0
100
AcDbMText
 10
1235.873109729004
 20
1625.605999106207
 30
0.0
 40
25.0
 41
0.0
 71
     5
 72
     1
  1
190
 73
     1
 44
1.0
1001
ACAD
1000
MTEXTBEGIN
1070
    73
1070
     1
1070
    44
1040
1.0
1070
    74
1070
     0
1000
MTEXTEND
  0
POINT
  5
2040
330
1B83
100
AcDbEntity
  8
Defpoints
 62
     0
100
AcDbPoint
 10
1140.873109729005
 20
1517.429107175189
 30
0.0
  0
POINT
  5
2041
330
1B83
100
AcDbEntity
  8
Defpoints
 62
     0
100
AcDbPoint
 10
1330.873109729005
 20
1517.429107175189
 30
0.0
  0
POINT
  5
2042
330
1B83
100
AcDbEntity
  8
Defpoints
 62
     0
100
AcDbPoint
 10
1330.873109729005
 20
1606.855999106207
 30
0.0
  0
ENDBLK
  5
1B8E
330
1B83
100
AcDbEntity
  8
0
100
AcDbBlockEnd
  0
BLOCK
  5
1B99
330
1B8F
100
AcDbEntity
  8
0
100
AcDbBlockBegin
  2
*D29
 70
     1
 10
0.0
 20
0.0
 30
0.0
  3
*D29
  1

  0
LINE
  5
2055
330
1B8F
100
AcDbEntity
  8
0
 62
     0
370
    15
100
AcDbLine
 10
824.1280457529063
 20
1507.429107175189
 30
0.0
 11
813.100549157364
 21
1507.429107175189
 31
0.0
  0
LINE
  5
2056
330
1B8F
100
AcDbEntity
  8
0
 62
     0
370
    15
100
AcDbLine
 10
840.8731097290043
 20
1522.429107175189
 30
0.0
 11
813.100549157364
 21
1522.429107175189
 31
0.0
  0
LINE
  5
2057
330
1B8F
100
AcDbEntity
  8
0
 62
     0
370
    15
100
AcDbLine
 10
813.100549157364
 20
1507.429107175189
 30
0.0
 11
813.100549157364
 21
1522.429107175189
 31
0.0
  0
MTEXT
  5
2058
330
1B8F
100
AcDbEntity
  8
0
 62
     0
100
AcDbMText
 10
790.8110905539833
 20
1499.556216723938
 30
0.0
 40
25.0
 41
0.0
 71
     5
 72
     1
  1
15
 11
0.0000000000000001
 21
1.0
 31
0.0
 73
     1
 44
1.0
1001
ACAD
1000
MTEXTBEGIN
1070
    73
1070
     1
1070
    44
1040
1.0
1070
    74
1070
     0
1000
MTEXTEND
  0
INSERT
  5
2059
330
1B8F
100
AcDbEntity
  8
0
 62
     0
370
    15
100
AcDbBlockReference
  2
_DotSmall
 10
813.100549157364
 20
1507.429107175189
 30
0.0
 41
30.0
 42
30.0
 43
30.0
 50
270.0
  0
INSERT
  5
205A
330
1B8F
100
AcDbEntity
  8
0
 62
     0
370
    15
100
AcDbBlockReference
  2
_DotSmall
 10
813.100549157364
 20
1522.429107175189
 30
0.0
 41
30.0
 42
30.0
 43
30.0
 50
90.0
  0
POINT
  5
205B
330
1B8F
100
AcDbEntity
  8
Defpoints
 62
     0
100
AcDbPoint
 10
889.1280457529061
 20
1507.429107175189
 30
0.0
  0
POINT
  5
205C
330
1B8F
100
AcDbEntity
  8
Defpoints
 62
     0
100
AcDbPoint
 10
905.8731097290044
 20
1522.429107175189
 30
0.0
  0
POINT
  5
205D
330
1B8F
100
AcDbEntity
  8
Defpoints
 62
     0
100
AcDbPoint
 10
813.100549157364
 20
1522.429107175189
 30
0.0
  0
ENDBLK
  5
1B9A
330
1B8F
100
AcDbEntity
  8
0
100
AcDbBlockEnd
  0
BLOCK
  5
1BA5
330
1B9B
100
AcDbEntity
  8
0
100
AcDbBlockBegin
  2
*D30
 70
     1
 10
0.0
 20
0.0
 30
0.0
  3
*D30
  1

  0
LINE
  5
2016
330
1B9B
100
AcDbEntity
  8
実形
 62
     0
370
    15
100
AcDbLine
 10
1435.873109729004
 20
1517.429107175189
 30
0.0
 11
1465.843516256654
 21
1517.429107175189
 31
0.0
  0
LINE
  5
2017
330
1B9B
100
AcDbEntity
  8
実形
 62
     0
370
    15
100
AcDbLine
 10
1435.873109729004
 20
1458.429107175189
 30
0.0
 11
1465.843516256654
 21
1458.429107175189
 31
0.0
  0
LINE
  5
2018
330
1B9B
100
AcDbEntity
  8
実形
 62
     0
370
    15
100
AcDbLine
 10
1465.843516256654
 20
1517.429107175189
 30
0.0
 11
1465.843516256654
 21
1458.429107175189
 31
0.0
  0
INSERT
  5
2019
330
1B9B
100
AcDbEntity
  8
実形
 62
     0
370
    15
100
AcDbBlockReference
  2
_DotSmall
 10
1465.843516256654
 20
1517.429107175189
 30
0.0
 41
30.0
 42
30.0
 43
30.0
 50
90.0
  0
INSERT
  5
201A
330
1B9B
100
AcDbEntity
  8
実形
 62
     0
370
    15
100
AcDbBlockReference
  2
_DotSmall
 10
1465.843516256654
 20
1458.429107175189
 30
0.0
 41
30.0
 42
30.0
 43
30.0
 50
270.0
  0
MTEXT
  5
201B
330
1B9B
100
AcDbEntity
  8
実形
 62
     0
100
AcDbMText
 10
1447.093516256654
 20
1487.929107175189
 30
0.0
 40
25.0
 41
0.0
 71
     5
 72
     1
  1
59
 11
0.0000000000000001
 21
1.0
 31
0.0
 73
     1
 44
1.0
1001
ACAD
1000
MTEXTBEGIN
1070
    73
1070
     1
1070
    44
1040
1.0
1070
    74
1070
     0
1000
MTEXTEND
  0
POINT
  5
201C
330
1B9B
100
AcDbEntity
  8
Defpoints
 62
     0
100
AcDbPoint
 10
1370.873109729004
 20
1517.429107175189
 30
0.0
  0
POINT
  5
201D
330
1B9B
100
AcDbEntity
  8
Defpoints
 62
     0
100
AcDbPoint
 10
1370.873109729005
 20
1458.429107175189
 30
0.0
  0
POINT
  5
201E
330
1B9B
100
AcDbEntity
  8
Defpoints
 62
     0
100
AcDbPoint
 10
1465.843516256654
 20
1458.429107175189
 30
0.0
  0
ENDBLK
  5
1BA6
330
1B9B
100
AcDbEntity
  8
0
100
AcDbBlockEnd
  0
BLOCK
  5
1BB1
330
1BA7
100
AcDbEntity
  8
0
100
AcDbBlockBegin
  2
*D31
 70
     1
 10
0.0
 20
0.0
 30
0.0
  3
*D31
  1

  0
LINE
  5
200D
330
1BA7
100
AcDbEntity
  8
実形
 62
     0
370
    15
100
AcDbLine
 10
1435.873109729004
 20
1522.429107175189
 30
0.0
 11
1465.843516256654
 21
1522.429107175189
 31
0.0
  0
LINE
  5
200E
330
1BA7
100
AcDbEntity
  8
実形
 62
     0
370
    15
100
AcDbLine
 10
1444.75850425908
 20
1458.429107175189
 30
0.0
 11
1465.843516256654
 21
1458.429107175189
 31
0.0
  0
LINE
  5
200F
330
1BA7
100
AcDbEntity
  8
実形
 62
     0
370
    15
100
AcDbLine
 10
1465.843516256654
 20
1522.429107175189
 30
0.0
 11
1465.843516256654
 21
1458.429107175189
 31
0.0
  0
MTEXT
  5
2010
330
1BA7
100
AcDbEntity
  8
実形
 62
     0
100
AcDbMText
 10
1449.158820164388
 20
1540.994984718039
 30
0.0
 40
25.0
 41
0.0
 71
     5
 72
     1
  1
5
 11
0.0000000000000001
 21
1.0
 31
0.0
 73
     1
 44
1.0
1001
ACAD
1000
MTEXTBEGIN
1070
    73
1070
     1
1070
    44
1040
1.0
1070
    74
1070
     0
1000
MTEXTEND
  0
INSERT
  5
2011
330
1BA7
100
AcDbEntity
  8
実形
 62
     0
370
    15
100
AcDbBlockReference
  2
_DotSmall
 10
1465.843516256654
 20
1522.429107175189
 30
0.0
 41
30.0
 42
30.0
 43
30.0
 50
90.0
  0
INSERT
  5
2012
330
1BA7
100
AcDbEntity
  8
実形
 62
     0
370
    15
100
AcDbBlockReference
  2
_DotSmall
 10
1465.843516256654
 20
1458.429107175189
 30
0.0
 41
30.0
 42
30.0
 43
30.0
 50
270.0
  0
POINT
  5
2013
330
1BA7
100
AcDbEntity
  8
Defpoints
 62
     0
100
AcDbPoint
 10
1370.873109729004
 20
1522.429107175189
 30
0.0
  0
POINT
  5
2014
330
1BA7
100
AcDbEntity
  8
Defpoints
 62
     0
100
AcDbPoint
 10
1379.758504259079
 20
1458.429107175189
 30
0.0
  0
POINT
  5
2015
330
1BA7
100
AcDbEntity
  8
Defpoints
 62
     0
100
AcDbPoint
 10
1465.843516256654
 20
1458.429107175189
 30
0.0
  0
ENDBLK
  5
1BB2
330
1BA7
100
AcDbEntity
  8
0
100
AcDbBlockEnd
  0
BLOCK
  5
1BBD
330
1BB3
100
AcDbEntity
  8
0
100
AcDbBlockBegin
  2
*D32
 70
     1
 10
0.0
 20
0.0
 30
0.0
  3
*D32
  1

  0
LINE
  5
205E
330
1BB3
100
AcDbEntity
  8
実形
 62
     0
370
    15
100
AcDbLine
 10
1330.873109729005
 20
1582.429107175189
 30
0.0
 11
1330.873109729005
 21
1606.855999106207
 31
0.0
  0
LINE
  5
205F
330
1BB3
100
AcDbEntity
  8
実形
 62
     0
370
    15
100
AcDbLine
 10
1370.873109729004
 20
1582.429107175189
 30
0.0
 11
1370.873109729004
 21
1606.855999106207
 31
0.0
  0
LINE
  5
2060
330
1BB3
100
AcDbEntity
  8
実形
 62
     0
370
    15
100
AcDbLine
 10
1330.873109729005
 20
1606.855999106207
 30
0.0
 11
1370.873109729004
 21
1606.855999106207
 31
0.0
  0
MTEXT
  5
2061
330
1BB3
100
AcDbEntity
  8
実形
 62
     0
100
AcDbMText
 10
1349.322216849902
 20
1626.381424281123
 30
0.0
 40
25.0
 41
0.0
 71
     5
 72
     1
  1
40
 73
     1
 44
1.0
1001
ACAD
1000
MTEXTBEGIN
1070
    73
1070
     1
1070
    44
1040
1.0
1070
    74
1070
     0
1000
MTEXTEND
  0
INSERT
  5
2062
330
1BB3
100
AcDbEntity
  8
実形
 62
     0
370
    15
100
AcDbBlockReference
  2
_DotSmall
 10
1330.873109729005
 20
1606.855999106207
 30
0.0
 41
30.0
 42
30.0
 43
30.0
 50
180.0
  0
INSERT
  5
2063
330
1BB3
100
AcDbEntity
  8
実形
 62
     0
370
    15
100
AcDbBlockReference
  2
_DotSmall
 10
1370.873109729004
 20
1606.855999106207
 30
0.0
 41
30.0
 42
30.0
 43
30.0
  0
POINT
  5
2064
330
1BB3
100
AcDbEntity
  8
Defpoints
 62
     0
100
AcDbPoint
 10
1330.873109729005
 20
1517.429107175189
 30
0.0
  0
POINT
  5
2065
330
1BB3
100
AcDbEntity
  8
Defpoints
 62
     0
100
AcDbPoint
 10
1370.873109729004
 20
1517.429107175189
 30
0.0
  0
POINT
  5
2066
330
1BB3
100
AcDbEntity
  8
Defpoints
 62
     0
100
AcDbPoint
 10
1370.873109729004
 20
1606.855999106207
 30
0.0
  0
ENDBLK
  5
1BBE
330
1BB3
100
AcDbEntity
  8
0
100
AcDbBlockEnd
  0
BLOCK
  5
1D31
330
1D27
100
AcDbEntity
  8
0
100
AcDbBlockBegin
  2
*D33
 70
     1
 10
0.0
 20
0.0
 30
0.0
  3
*D33
  1

  0
LINE
  5
1D28
330
1D27
100
AcDbEntity
  8
0
 62
     0
370
    15
100
AcDbLine
 10
1806.643486331141
 20
1716.819144775783
 30
0.0
 11
1806.643486331141
 21
1754.361527417203
 31
0.0
  0
LINE
  5
1D29
330
1D27
100
AcDbEntity
  8
0
 62
     0
370
    15
100
AcDbLine
 10
1811.14348633114
 20
1716.819144775783
 30
0.0
 11
1811.14348633114
 21
1754.361527417203
 31
0.0
  0
LINE
  5
1D2A
330
1D27
100
AcDbEntity
  8
0
 62
     0
370
    15
100
AcDbLine
 10
1806.643486331141
 20
1754.361527417203
 30
0.0
 11
1776.64348633114
 21
1754.361527417203
 31
0.0
  0
MTEXT
  5
1D2B
330
1D27
100
AcDbEntity
  8
0
 62
     0
100
AcDbMText
 10
1853.503988996343
 20
1773.119617744651
 30
0.0
 40
25.0
 41
0.0
 71
     5
 72
     1
  1
4.5
 73
     1
 44
1.0
1001
ACAD
1000
MTEXTBEGIN
1070
    73
1070
     1
1070
    44
1040
1.0
1070
    74
1070
     0
1000
MTEXTEND
  0
LINE
  5
1D2C
330
1D27
100
AcDbEntity
  8
0
 62
     0
370
    15
100
AcDbLine
 10
1806.643486331141
 20
1754.361527417203
 30
0.0
 11
1811.14348633114
 21
1754.361527417203
 31
0.0
  0
INSERT
  5
1D2D
330
1D27
100
AcDbEntity
  8
0
 62
     0
370
    15
100
AcDbBlockReference
  2
_DotSmall
 10
1806.643486331141
 20
1754.361527417203
 30
0.0
 41
30.0
 42
30.0
 43
30.0
  0
POINT
  5
1D2E
330
1D27
100
AcDbEntity
  8
Defpoints
 62
     0
100
AcDbPoint
 10
1806.643486331141
 20
1651.819144775783
 30
0.0
  0
POINT
  5
1D2F
330
1D27
100
AcDbEntity
  8
Defpoints
 62
     0
100
AcDbPoint
 10
1811.14348633114
 20
1651.819144775783
 30
0.0
  0
POINT
  5
1D30
330
1D27
100
AcDbEntity
  8
Defpoints
 62
     0
100
AcDbPoint
 10
1811.14348633114
 20
1754.361527417203
 30
0.0
  0
ENDBLK
  5
1D32
330
1D27
100
AcDbEntity
  8
0
100
AcDbBlockEnd
  0
BLOCK
  5
1D3D
330
1D33
100
AcDbEntity
  8
0
100
AcDbBlockBegin
  2
*D34
 70
     1
 10
0.0
 20
0.0
 30
0.0
  3
*D34
  1

  0
LINE
  5
1D34
330
1D33
100
AcDbEntity
  8
0
 62
     0
370
    15
100
AcDbLine
 10
1725.14348633114
 20
1716.819144775783
 30
0.0
 11
1725.14348633114
 21
1754.361527417203
 31
0.0
  0
LINE
  5
1D35
330
1D33
100
AcDbEntity
  8
0
 62
     0
370
    15
100
AcDbLine
 10
1806.643486331141
 20
1716.819144775783
 30
0.0
 11
1806.643486331141
 21
1754.361527417203
 31
0.0
  0
LINE
  5
1D36
330
1D33
100
AcDbEntity
  8
0
 62
     0
370
    15
100
AcDbLine
 10
1725.14348633114
 20
1754.361527417203
 30
0.0
 11
1806.643486331141
 21
1754.361527417203
 31
0.0
  0
INSERT
  5
1D37
330
1D33
100
AcDbEntity
  8
0
 62
     0
370
    15
100
AcDbBlockReference
  2
_DotSmall
 10
1725.14348633114
 20
1754.361527417203
 30
0.0
 41
30.0
 42
30.0
 43
30.0
 50
180.0
  0
INSERT
  5
1D38
330
1D33
100
AcDbEntity
  8
0
 62
     0
370
    15
100
AcDbBlockReference
  2
_DotSmall
 10
1806.643486331141
 20
1754.361527417203
 30
0.0
 41
30.0
 42
30.0
 43
30.0
  0
MTEXT
  5
1D39
330
1D33
100
AcDbEntity
  8
0
 62
     0
100
AcDbMText
 10
1765.89348633114
 20
1773.111527417203
 30
0.0
 40
25.0
 41
0.0
 71
     5
 72
     1
  1
81.5
 73
     1
 44
1.0
1001
ACAD
1000
MTEXTBEGIN
1070
    73
1070
     1
1070
    44
1040
1.0
1070
    74
1070
     0
1000
MTEXTEND
  0
POINT
  5
1D3A
330
1D33
100
AcDbEntity
  8
Defpoints
 62
     0
100
AcDbPoint
 10
1725.14348633114
 20
1651.819144775783
 30
0.0
  0
POINT
  5
1D3B
330
1D33
100
AcDbEntity
  8
Defpoints
 62
     0
100
AcDbPoint
 10
1806.643486331141
 20
1651.819144775783
 30
0.0
  0
POINT
  5
1D3C
330
1D33
100
AcDbEntity
  8
Defpoints
 62
     0
100
AcDbPoint
 10
1806.643486331141
 20
1754.361527417203
 30
0.0
  0
ENDBLK
  5
1D3E
330
1D33
100
AcDbEntity
  8
0
100
AcDbBlockEnd
  0
BLOCK
  5
1D49
330
1D3F
100
AcDbEntity
  8
0
100
AcDbBlockBegin
  2
*D35
 70
     1
 10
0.0
 20
0.0
 30
0.0
  3
*D35
  1

  0
LINE
  5
1D40
330
1D3F
100
AcDbEntity
  8
0
 62
     0
370
    15
100
AcDbLine
 10
1710.143486331141
 20
1716.819144775783
 30
0.0
 11
1710.143486331141
 21
1754.361527417203
 31
0.0
  0
LINE
  5
1D41
330
1D3F
100
AcDbEntity
  8
0
 62
     0
370
    15
100
AcDbLine
 10
1725.14348633114
 20
1716.819144775783
 30
0.0
 11
1725.14348633114
 21
1754.361527417203
 31
0.0
  0
LINE
  5
1D42
330
1D3F
100
AcDbEntity
  8
0
 62
     0
370
    15
100
AcDbLine
 10
1710.143486331141
 20
1754.361527417203
 30
0.0
 11
1725.14348633114
 21
1754.361527417203
 31
0.0
  0
MTEXT
  5
1D43
330
1D3F
100
AcDbEntity
  8
0
 62
     0
100
AcDbMText
 10
1688.668175783309
 20
1776.373025348203
 30
0.0
 40
25.0
 41
0.0
 71
     5
 72
     1
  1
15
 73
     1
 44
1.0
1001
ACAD
1000
MTEXTBEGIN
1070
    73
1070
     1
1070
    44
1040
1.0
1070
    74
1070
     0
1000
MTEXTEND
  0
INSERT
  5
1D44
330
1D3F
100
AcDbEntity
  8
0
 62
     0
370
    15
100
AcDbBlockReference
  2
_DotSmall
 10
1710.143486331141
 20
1754.361527417203
 30
0.0
 41
30.0
 42
30.0
 43
30.0
 50
180.0
  0
INSERT
  5
1D45
330
1D3F
100
AcDbEntity
  8
0
 62
     0
370
    15
100
AcDbBlockReference
  2
_DotSmall
 10
1725.14348633114
 20
1754.361527417203
 30
0.0
 41
30.0
 42
30.0
 43
30.0
  0
POINT
  5
1D46
330
1D3F
100
AcDbEntity
  8
Defpoints
 62
     0
100
AcDbPoint
 10
1710.143486331141
 20
1651.819144775783
 30
0.0
  0
POINT
  5
1D47
330
1D3F
100
AcDbEntity
  8
Defpoints
 62
     0
100
AcDbPoint
 10
1725.14348633114
 20
1651.819144775783
 30
0.0
  0
POINT
  5
1D48
330
1D3F
100
AcDbEntity
  8
Defpoints
 62
     0
100
AcDbPoint
 10
1725.14348633114
 20
1754.361527417203
 30
0.0
  0
ENDBLK
  5
1D4A
330
1D3F
100
AcDbEntity
  8
0
100
AcDbBlockEnd
  0
BLOCK
  5
1D59
330
1D4B
100
AcDbEntity
  8
0
100
AcDbBlockBegin
  2
A$C59AC426A
 70
     0
 10
0.0
 20
0.0
 30
0.0
  3
A$C59AC426A
  1

  0
LINE
  5
1D4C
330
1D4B
100
AcDbEntity
  8
0
  6
HIDDEN2
100
AcDbLine
 10
53.14197717187744
 20
58.0000008510699
 30
0.0
 11
131.6419771718774
 21
58.00000085107012
 31
0.0
  0
LINE
  5
1D4D
330
1D4B
100
AcDbEntity
  8
0
  6
HIDDEN2
100
AcDbLine
 10
131.6419771718779
 20
0.0000008510701264
 30
0.0
 11
53.14197717187744
 21
0.000000851069899
 31
0.0
  0
LINE
  5
1D4E
330
1D4B
100
AcDbEntity
  8
0
  6
HIDDEN2
100
AcDbLine
 10
134.6419771718774
 20
55.00000085107012
 30
0.0
 11
134.6419771718779
 21
3.000000851070126
 31
0.0
  0
LINE
  5
1D4F
330
1D4B
100
AcDbEntity
  8
0
  6
HIDDEN2
 48
0.5
100
AcDbLine
 10
134.6419771718774
 20
51.0000008510699
 30
0.0
 11
139.1419771718774
 21
51.0000008510699
 31
0.0
  0
LINE
  5
1D50
330
1D4B
100
AcDbEntity
  8
0
  6
HIDDEN2
100
AcDbLine
 10
139.1419771718774
 20
51.0000008510699
 30
0.0
 11
139.1419771718774
 21
7.000000851069898
 31
0.0
  0
LINE
  5
1D51
330
1D4B
100
AcDbEntity
  8
0
  6
HIDDEN2
 48
0.5
100
AcDbLine
 10
139.1419771718774
 20
7.000000851069898
 30
0.0
 11
134.6419771718774
 21
7.000000851069898
 31
0.0
  0
ARC
  5
1D52
330
1D4B
100
AcDbEntity
  8
0
  6
HIDDEN2
 48
0.5
100
AcDbCircle
 10
131.6419771718774
 20
55.00000085107012
 30
0.0
 40
3.0
100
AcDbArc
 50
0.0
 51
90.0
  0
ARC
  5
1D53
330
1D4B
100
AcDbEntity
  8
0
  6
HIDDEN2
 48
0.5
100
AcDbCircle
 10
131.6419771718779
 20
3.000000851070126
 30
0.0
 40
3.0
100
AcDbArc
 50
270.0
 51
0.0
  0
DIMENSION
  5
1D54
330
1D4B
100
AcDbEntity
  8
0
100
AcDbDimension
  2
*D34
 10
134.6419771718774
 20
153.5423834924904
 30
0.0
 11
93.89197717187744
 21
172.2923834924904
 31
0.0
 12
-1672.001509159263
 22
-1600.819143924713
 32
0.0
 71
     5
 42
81.5
  3
ISO-25
100
AcDbAlignedDimension
 13
53.14197717187744
 23
51.0000008510699
 33
0.0
 14
134.6419771718774
 24
51.0000008510699
 34
0.0
100
AcDbRotatedDimension
1001
ACAD
1000
DSTYLE
1002
{
1070
   279
1070
     1
1002
}
  0
DIMENSION
  5
1D55
330
1D4B
100
AcDbEntity
  8
0
100
AcDbDimension
  2
*D33
 10
139.1419771718774
 20
153.5423834924904
 30
0.0
 11
181.5024798370805
 21
172.3004738199379
 31
0.0
 12
-1672.001509159263
 22
-1600.819143924713
 32
0.0
 70
   128
 71
     5
 42
4.5
  3
ISO-25
100
AcDbAlignedDimension
 13
134.6419771718774
 23
51.0000008510699
 33
0.0
 14
139.1419771718774
 24
51.0000008510699
 34
0.0
100
AcDbRotatedDimension
1001
ACAD
1000
DSTYLE
1002
{
1070
   282
1070
     1
1070
   281
1070
     0
1070
   279
1070
     2
1002
}
  0
DIMENSION
  5
1D56
330
1D4B
100
AcDbEntity
  8
0
100
AcDbDimension
  2
*D35
 10
53.14197717187744
 20
153.5423834924904
 30
0.0
 11
16.66666662404623
 21
156.8038814234905
 31
0.0
 12
-1672.001509159263
 22
-1600.819143924713
 32
0.0
 70
   128
 71
     5
 42
15.0
  3
ISO-25
100
AcDbAlignedDimension
 13
38.14197717187744
 23
51.0000008510699
 33
0.0
 14
53.14197717187744
 24
51.0000008510699
 34
0.0
100
AcDbRotatedDimension
1001
ACAD
1000
DSTYLE
1002
{
1070
   279
1070
     1
1002
}
  0
CIRCLE
  5
1D57
102
{ACAD_REACTORS
330
1D58
102
}
330
1D4B
100
AcDbEntity
  8
0
370
    20
100
AcDbCircle
 10
139.1419771718774
 20
153.5423834924904
 30
0.0
 40
2.686192441042294
  0
HATCH
  5
1D58
330
1D4B
100
AcDbEntity
  8
0
100
AcDbHatch
 10
0.0
 20
0.0
 30
0.0
210
0.0
220
0.0
230
1.0
  2
SOLID
 70
     1
 71
     1
 91
        1
 92
        7
 72
     1
 73
     1
 93
        2
 10
141.8281696129197
 20
153.5423834924904
 42
1.0
 10
136.4557847308351
 20
153.5423834924904
 42
1.0
 97
        1
330
1D57
 75
     0
 76
     1
 47
0.4154898185022131
 98
        1
 10
140.2749503601599
 20
153.2412352818164
  0
ENDBLK
  5
1D5A
330
1D4B
100
AcDbEntity
  8
0
100
AcDbBlockEnd
  0
BLOCK
  5
219D
330
2193
100
AcDbEntity
  8
0
100
AcDbBlockBegin
  2
*D37
 70
     1
 10
0.0
 20
0.0
 30
0.0
  3
*D37
  1

  0
LINE
  5
21C3
330
2193
100
AcDbEntity
  8
0
 62
     0
370
    15
100
AcDbLine
 10
1720.330255689956
 20
1574.929107175189
 30
0.0
 11
1720.330255689956
 21
1612.471489816609
 31
0.0
  0
LINE
  5
21C4
330
2193
100
AcDbEntity
  8
0
 62
     0
370
    15
100
AcDbLine
 10
1735.330255689957
 20
1574.929107175189
 30
0.0
 11
1735.330255689957
 21
1612.471489816609
 31
0.0
  0
LINE
  5
21C5
330
2193
100
AcDbEntity
  8
0
 62
     0
370
    15
100
AcDbLine
 10
1720.330255689956
 20
1612.471489816609
 30
0.0
 11
1735.330255689957
 21
1612.471489816609
 31
0.0
  0
MTEXT
  5
21C6
330
2193
100
AcDbEntity
  8
0
 62
     0
100
AcDbMText
 10
1698.854945142125
 20
1634.482987747609
 30
0.0
 40
25.0
 41
0.0
 71
     5
 72
     1
  1
15
 73
     1
 44
1.0
1001
ACAD
1000
MTEXTBEGIN
1070
    73
1070
     1
1070
    44
1040
1.0
1070
    74
1070
     0
1000
MTEXTEND
  0
INSERT
  5
21C7
330
2193
100
AcDbEntity
  8
0
 62
     0
370
    15
100
AcDbBlockReference
  2
_DotSmall
 10
1720.330255689956
 20
1612.471489816609
 30
0.0
 41
30.0
 42
30.0
 43
30.0
 50
180.0
  0
INSERT
  5
21C8
330
2193
100
AcDbEntity
  8
0
 62
     0
370
    15
100
AcDbBlockReference
  2
_DotSmall
 10
1735.330255689957
 20
1612.471489816609
 30
0.0
 41
30.0
 42
30.0
 43
30.0
  0
POINT
  5
21C9
330
2193
100
AcDbEntity
  8
Defpoints
 62
     0
100
AcDbPoint
 10
1720.330255689956
 20
1509.929107175189
 30
0.0
  0
POINT
  5
21CA
330
2193
100
AcDbEntity
  8
Defpoints
 62
     0
100
AcDbPoint
 10
1735.330255689957
 20
1509.929107175189
 30
0.0
  0
POINT
  5
21CB
330
2193
100
AcDbEntity
  8
Defpoints
 62
     0
100
AcDbPoint
 10
1735.330255689957
 20
1612.471489816609
 30
0.0
  0
ENDBLK
  5
219E
330
2193
100
AcDbEntity
  8
0
100
AcDbBlockEnd
  0
BLOCK
  5
21A9
330
219F
100
AcDbEntity
  8
0
100
AcDbBlockBegin
  2
*D38
 70
     1
 10
0.0
 20
0.0
 30
0.0
  3
*D38
  1

  0
LINE
  5
21CC
330
219F
100
AcDbEntity
  8
0
 62
     0
370
    15
100
AcDbLine
 10
1735.330255689957
 20
1574.929107175189
 30
0.0
 11
1735.330255689957
 21
1612.471489816609
 31
0.0
  0
LINE
  5
21CD
330
219F
100
AcDbEntity
  8
0
 62
     0
370
    15
100
AcDbLine
 10
1834.330255689956
 20
1574.929107175189
 30
0.0
 11
1834.330255689956
 21
1612.471489816609
 31
0.0
  0
LINE
  5
21CE
330
219F
100
AcDbEntity
  8
0
 62
     0
370
    15
100
AcDbLine
 10
1735.330255689957
 20
1612.471489816609
 30
0.0
 11
1834.330255689956
 21
1612.471489816609
 31
0.0
  0
INSERT
  5
21CF
330
219F
100
AcDbEntity
  8
0
 62
     0
370
    15
100
AcDbBlockReference
  2
_DotSmall
 10
1735.330255689957
 20
1612.471489816609
 30
0.0
 41
30.0
 42
30.0
 43
30.0
 50
180.0
  0
INSERT
  5
21D0
330
219F
100
AcDbEntity
  8
0
 62
     0
370
    15
100
AcDbBlockReference
  2
_DotSmall
 10
1834.330255689956
 20
1612.471489816609
 30
0.0
 41
30.0
 42
30.0
 43
30.0
  0
MTEXT
  5
21D1
330
219F
100
AcDbEntity
  8
0
 62
     0
100
AcDbMText
 10
1784.830255689956
 20
1631.221489816609
 30
0.0
 40
25.0
 41
0.0
 71
     5
 72
     1
  1
99
 73
     1
 44
1.0
1001
ACAD
1000
MTEXTBEGIN
1070
    73
1070
     1
1070
    44
1040
1.0
1070
    74
1070
     0
1000
MTEXTEND
  0
POINT
  5
21D2
330
219F
100
AcDbEntity
  8
Defpoints
 62
     0
100
AcDbPoint
 10
1735.330255689957
 20
1509.929107175189
 30
0.0
  0
POINT
  5
21D3
330
219F
100
AcDbEntity
  8
Defpoints
 62
     0
100
AcDbPoint
 10
1834.330255689956
 20
1509.929107175189
 30
0.0
  0
POINT
  5
21D4
330
219F
100
AcDbEntity
  8
Defpoints
 62
     0
100
AcDbPoint
 10
1834.330255689956
 20
1612.471489816609
 30
0.0
  0
ENDBLK
  5
21AA
330
219F
100
AcDbEntity
  8
0
100
AcDbBlockEnd
  0
BLOCK
  5
21B5
330
21AB
100
AcDbEntity
  8
0
100
AcDbBlockBegin
  2
*D39
 70
     1
 10
0.0
 20
0.0
 30
0.0
  3
*D39
  1

  0
LINE
  5
21D5
330
21AB
100
AcDbEntity
  8
実形
 62
     0
370
    15
100
AcDbLine
 10
1834.330255689956
 20
1574.929107175189
 30
0.0
 11
1834.330255689956
 21
1612.591462147595
 31
0.0
  0
LINE
  5
21D6
330
21AB
100
AcDbEntity
  8
実形
 62
     0
370
    15
100
AcDbLine
 10
1854.330255689956
 20
1574.929107175189
 30
0.0
 11
1854.330255689956
 21
1612.591462147595
 31
0.0
  0
LINE
  5
21D7
330
21AB
100
AcDbEntity
  8
実形
 62
     0
370
    15
100
AcDbLine
 10
1834.330255689956
 20
1612.591462147595
 30
0.0
 11
1854.330255689956
 21
1612.591462147595
 31
0.0
  0
MTEXT
  5
21D8
330
21AB
100
AcDbEntity
  8
実形
 62
     0
100
AcDbMText
 10
1865.74717282827
 20
1632.329729604963
 30
0.0
 40
25.0
 41
0.0
 71
     5
 72
     1
  1
20
 73
     1
 44
1.0
1001
ACAD
1000
MTEXTBEGIN
1070
    73
1070
     1
1070
    44
1040
1.0
1070
    74
1070
     0
1000
MTEXTEND
  0
INSERT
  5
21D9
330
21AB
100
AcDbEntity
  8
実形
 62
     0
370
    15
100
AcDbBlockReference
  2
_DotSmall
 10
1834.330255689956
 20
1612.591462147595
 30
0.0
 41
30.0
 42
30.0
 43
30.0
 50
180.0
  0
INSERT
  5
21DA
330
21AB
100
AcDbEntity
  8
実形
 62
     0
370
    15
100
AcDbBlockReference
  2
_DotSmall
 10
1854.330255689956
 20
1612.591462147595
 30
0.0
 41
30.0
 42
30.0
 43
30.0
  0
POINT
  5
21DB
330
21AB
100
AcDbEntity
  8
Defpoints
 62
     0
100
AcDbPoint
 10
1834.330255689956
 20
1509.929107175189
 30
0.0
  0
POINT
  5
21DC
330
21AB
100
AcDbEntity
  8
Defpoints
 62
     0
100
AcDbPoint
 10
1854.330255689956
 20
1509.929107175189
 30
0.0
  0
POINT
  5
21DD
330
21AB
100
AcDbEntity
  8
Defpoints
 62
     0
100
AcDbPoint
 10
1854.330255689956
 20
1612.591462147595
 30
0.0
  0
ENDBLK
  5
21B6
330
21AB
100
AcDbEntity
  8
0
100
AcDbBlockEnd
  0
BLOCK
  5
21C1
330
21B7
100
AcDbEntity
  8
0
100
AcDbBlockBegin
  2
*D40
 70
     1
 10
0.0
 20
0.0
 30
0.0
  3
*D40
  1

  0
LINE
  5
21E7
330
21B7
100
AcDbEntity
  8
実形
 62
     0
370
    15
100
AcDbLine
 10
1919.330255689956
 20
1504.529107175189
 30
0.0
 11
1948.27780049108
 21
1504.529107175189
 31
0.0
  0
LINE
  5
21E8
330
21B7
100
AcDbEntity
  8
実形
 62
     0
370
    15
100
AcDbLine
 10
1919.330255689956
 20
1471.329107175189
 30
0.0
 11
1948.27780049108
 21
1471.329107175189
 31
0.0
  0
LINE
  5
21E9
330
21B7
100
AcDbEntity
  8
実形
 62
     0
370
    15
100
AcDbLine
 10
1948.27780049108
 20
1504.529107175189
 30
0.0
 11
1948.27780049108
 21
1471.329107175189
 31
0.0
  0
MTEXT
  5
21EA
330
21B7
100
AcDbEntity
  8
実形
 62
     0
100
AcDbMText
 10
1974.979667584135
 20
1487.006166872498
 30
0.0
 40
25.0
 41
0.0
 71
     5
 72
     1
  1
33.2
 11
0.0000000000000001
 21
1.0
 31
0.0
 73
     1
 44
1.0
1001
ACAD
1000
MTEXTBEGIN
1070
    73
1070
     1
1070
    44
1040
1.0
1070
    74
1070
     0
1000
MTEXTEND
  0
INSERT
  5
21EB
330
21B7
100
AcDbEntity
  8
実形
 62
     0
370
    15
100
AcDbBlockReference
  2
_DotSmall
 10
1948.27780049108
 20
1504.529107175189
 30
0.0
 41
30.0
 42
30.0
 43
30.0
 50
90.0
  0
INSERT
  5
21EC
330
21B7
100
AcDbEntity
  8
実形
 62
     0
370
    15
100
AcDbBlockReference
  2
_DotSmall
 10
1948.27780049108
 20
1471.329107175189
 30
0.0
 41
30.0
 42
30.0
 43
30.0
 50
270.0
  0
POINT
  5
21ED
330
21B7
100
AcDbEntity
  8
Defpoints
 62
     0
100
AcDbPoint
 10
1854.330255689956
 20
1504.529107175189
 30
0.0
  0
POINT
  5
21EE
330
21B7
100
AcDbEntity
  8
Defpoints
 62
     0
100
AcDbPoint
 10
1854.330255689956
 20
1471.329107175189
 30
0.0
  0
POINT
  5
21EF
330
21B7
100
AcDbEntity
  8
Defpoints
 62
     0
100
AcDbPoint
 10
1948.27780049108
 20
1471.329107175189
 30
0.0
  0
ENDBLK
  5
21C2
330
21B7
100
AcDbEntity
  8
0
100
AcDbBlockEnd
  0
ENDSEC
  0
SECTION
  2
ENTITIES
  0
LINE
  5
9C
330
1F
100
AcDbEntity
  8
補助
100
AcDbLine
 10
109.0
 20
4.0
 30
0.0
 11
2784.0
 21
4.0
 31
0.0
  0
LINE
  5
A0
330
1F
100
AcDbEntity
  8
補助
100
AcDbLine
 10
2784.0
 20
2024.0
 30
0.0
 11
109.0
 21
2024.0
 31
0.0
  0
LINE
  5
A5
330
1F
100
AcDbEntity
  8
補助
100
AcDbLine
 10
2784.0
 20
4.0
 30
0.0
 11
2784.0
 21
2024.0
 31
0.0
  0
LINE
  5
A8
330
1F
100
AcDbEntity
  8
補助
100
AcDbLine
 10
2184.0
 20
69.0
 30
0.0
 11
2184.0
 21
199.0
 31
0.0
  0
LINE
  5
A9
330
1F
100
AcDbEntity
  8
補助
100
AcDbLine
 10
2184.0
 20
69.0
 30
0.0
 11
2784.0
 21
69.0
 31
0.0
  0
LINE
  5
AA
330
1F
100
AcDbEntity
  8
補助
100
AcDbLine
 10
2064.0
 20
134.0
 30
0.0
 11
2784.0
 21
134.0
 31
0.0
  0
LINE
  5
AB
330
1F
100
AcDbEntity
  8
補助
100
AcDbLine
 10
2064.0
 20
199.0
 30
0.0
 11
2784.0
 21
199.0
 31
0.0
  0
LINE
  5
AD
330
1F
100
AcDbEntity
  8
補助
100
AcDbLine
 10
2784.0
 20
4.0
 30
0.0
 11
2784.0
 21
69.0
 31
0.0
  0
DIMENSION
  5
270
330
1F
100
AcDbEntity
  8
0
100
AcDbDimension
  2
*D4
 10
519.1959296338527
 20
1017.429107175188
 30
0.0
 11
500.4459296338525
 21
1070.345773841855
 31
0.0
 70
    32
 71
     5
 42
15.0
  3
ISO-25
100
AcDbAlignedDimension
 13
623.946431750749
 23
1002.429107175188
 33
0.0
 14
623.946431750749
 24
1017.429107175188
 34
0.0
 50
90.0
100
AcDbRotatedDimension
  0
DIMENSION
  5
27E
330
1F
100
AcDbEntity
  8
0
100
AcDbDimension
  2
*D5
 10
519.1959296338528
 20
1447.429107175189
 30
0.0
 11
500.4459296338525
 21
1232.429107175189
 31
0.0
 70
    32
 71
     5
 42
430.0000000000001
  3
ISO-25
100
AcDbAlignedDimension
 13
623.946431750749
 23
1017.429107175188
 33
0.0
 14
623.9464317507489
 24
1447.429107175189
 34
0.0
 50
90.0
100
AcDbRotatedDimension
1001
ACAD
1000
DSTYLE
1002
{
1070
    42
1040
0.0
1070
   279
1070
     1
1002
}
  0
DIMENSION
  5
28B
330
1F
100
AcDbEntity
  8
0
100
AcDbDimension
  2
*D6
 10
519.1959296338528
 20
1522.429107175188
 30
0.0
 11
500.4459296338526
 21
1484.929107175189
 31
0.0
 70
    32
 71
     5
 42
75.0
  3
ISO-25
100
AcDbAlignedDimension
 13
623.9464317507489
 23
1447.429107175189
 33
0.0
 14
623.9464317507489
 24
1522.429107175188
 34
0.0
 50
90.0
100
AcDbRotatedDimension
1001
ACAD
1000
DSTYLE
1002
{
1070
    42
1040
0.0
1070
   279
1070
     1
1002
}
  0
DIMENSION
  5
298
330
1F
100
AcDbEntity
  8
0
100
AcDbDimension
  2
*D7
 10
446.5675097307204
 20
1002.429107175188
 30
0.0
 11
424.6065991658806
 21
996.5689753411547
 31
0.0
 70
   160
 71
     5
 42
35.0
  3
ISO-25
100
AcDbAlignedDimension
 13
623.9464317507489
 23
967.4291071751886
 33
0.0
 14
623.946431750749
 24
1002.429107175188
 34
0.0
 50
90.0
100
AcDbRotatedDimension
1001
ACAD
1000
DSTYLE
1002
{
1070
    42
1040
0.0
1070
   279
1070
     2
1002
}
  0
DIMENSION
  5
2A6
330
1F
100
AcDbEntity
  8
0
100
AcDbDimension
  2
*D8
 10
446.5675097307204
 20
1522.429107175189
 30
0.0
 11
427.8175097307201
 21
1262.429107175189
 31
0.0
 70
    32
 71
     5
 42
520.0000000000001
  3
ISO-25
100
AcDbAlignedDimension
 13
623.946431750749
 23
1002.429107175188
 33
0.0
 14
623.9464317507489
 24
1522.429107175188
 34
0.0
 50
90.0
100
AcDbRotatedDimension
1001
ACAD
1000
DSTYLE
1002
{
1070
    42
1040
0.0
1070
   279
1070
     1
1002
}
  0
DIMENSION
  5
2B3
330
1F
100
AcDbEntity
  8
0
100
AcDbDimension
  2
*D9
 10
446.5675097307204
 20
1557.429107175189
 30
0.0
 11
424.6065991658806
 21
1528.796856668188
 31
0.0
 70
   160
 71
     5
 42
35.00000000000046
  3
ISO-25
100
AcDbAlignedDimension
 13
623.9464317507489
 23
1522.429107175188
 33
0.0
 14
623.9464317507488
 24
1557.429107175189
 34
0.0
 50
90.0
100
AcDbRotatedDimension
1001
ACAD
1000
DSTYLE
1002
{
1070
    42
1040
0.0
1070
   279
1070
     2
1002
}
  0
DIMENSION
  5
2DC
330
1F
100
AcDbEntity
  8
0
100
AcDbDimension
  2
*D10
 10
377.0968573614064
 20
1557.429107175189
 30
0.0
 11
358.3468573614061
 21
1262.429107175189
 31
0.0
 70
    32
 71
     5
 42
590.0000000000005
  3
ISO-25
100
AcDbAlignedDimension
 13
623.9464317507489
 23
967.4291071751886
 33
0.0
 14
623.9464317507488
 24
1557.429107175189
 34
0.0
 50
90.0
100
AcDbRotatedDimension
1001
ACAD
1000
DSTYLE
1002
{
1070
    42
1040
0.0
1002
}
  0
DIMENSION
  5
2F7
330
1F
100
AcDbEntity
  8
0
100
AcDbDimension
  2
*D11
 10
1370.873109729004
 20
863.521335380472
 30
0.0
 11
1045.873109729004
 21
882.271335380472
 31
0.0
 70
    32
 71
     5
 42
649.9999999999999
  3
ISO-25
100
AcDbAlignedDimension
 13
720.8731097290045
 23
967.4291071751886
 33
0.0
 14
1370.873109729004
 24
967.4291071751884
 34
0.0
100
AcDbRotatedDimension
1001
ACAD
1000
DSTYLE
1002
{
1070
   279
1070
     1
1002
}
  0
DIMENSION
  5
304
330
1F
100
AcDbEntity
  8
0
100
AcDbDimension
  2
*D12
 10
1405.873109729004
 20
863.521335380472
 30
0.0
 11
1327.414894144548
 21
863.521335380472
 31
0.0
 70
   160
 71
     5
 42
35.0
  3
ISO-25
100
AcDbAlignedDimension
 13
1370.873109729004
 23
967.4291071751884
 33
0.0
 14
1405.873109729004
 24
967.4291071751886
 34
0.0
100
AcDbRotatedDimension
1001
ACAD
1000
DSTYLE
1002
{
1070
   279
1070
     1
1002
}
  0
DIMENSION
  5
31C
330
1F
100
AcDbEntity
  8
0
100
AcDbDimension
  2
*D13
 10
1405.873109729004
 20
793.162563425265
 30
0.0
 11
1045.873109729004
 21
811.912563425265
 31
0.0
 70
    32
 71
     5
 42
719.9999999999999
  3
ISO-25
100
AcDbAlignedDimension
 13
685.8731097290045
 23
967.4291071751886
 33
0.0
 14
1405.873109729004
 24
967.4291071751886
 34
0.0
100
AcDbRotatedDimension
  0
LINE
  5
407
330
1F
100
AcDbEntity
  8
0
100
AcDbLine
 10
690.8731097290045
 20
668.8585909780552
 30
0.0
 11
1400.873109729004
 21
668.8585909780549
 31
0.0
  0
LINE
  5
40D
330
1F
100
AcDbEntity
  8
0
100
AcDbLine
 10
720.8731097290051
 20
653.858590978055
 30
0.0
 11
1370.873109729004
 21
653.8585909780549
 31
0.0
  0
DIMENSION
  5
42D
330
1F
100
AcDbEntity
  8
0
100
AcDbDimension
  2
*D14
 10
1505.531051684906
 20
668.8585909780551
 30
0.0
 11
1531.588803776571
 21
698.6280536331105
 31
0.0
 70
   160
 71
     5
 42
15.0
  3
ISO-25
100
AcDbAlignedDimension
 13
1392.873109729004
 23
653.858590978055
 33
0.0
 14
1392.873109729004
 24
668.8585909780551
 34
0.0
 50
90.0
100
AcDbRotatedDimension
1001
ACAD
1000
DSTYLE
1002
{
1070
   279
1070
     2
1002
}
  0
DIMENSION
  5
464
330
1F
100
AcDbEntity
  8
0
100
AcDbDimension
  2
*D15
 10
1584.163268117407
 20
478.8585909780551
 30
0.0
 11
1565.413268117407
 21
573.8585909780552
 31
0.0
 70
    32
 71
     5
 42
189.9999999999999
  3
ISO-25
100
AcDbAlignedDimension
 13
1392.873109729004
 23
668.8585909780551
 33
0.0
 14
1392.873109729003
 24
478.8585909780551
 34
0.0
 50
90.0
100
AcDbRotatedDimension
  0
LINE
  5
48F
330
1F
100
AcDbEntity
  8
0
100
AcDbLine
 10
1720.330255689956
 20
1557.429107175189
 30
0.0
 11
1720.330255689956
 21
967.4291071751884
 31
0.0
  0
LINE
  5
492
330
1F
100
AcDbEntity
  8
0
100
AcDbLine
 10
1735.330255689956
 20
1522.429107175189
 30
0.0
 11
1880.330255689957
 21
1522.429107175189
 31
0.0
  0
LINE
  5
493
330
1F
100
AcDbEntity
  8
0
100
AcDbLine
 10
1738.330255689956
 20
1447.429107175189
 30
0.0
 11
1880.330255689957
 21
1447.429107175189
 31
0.0
  0
LINE
  5
495
330
1F
100
AcDbEntity
  8
0
100
AcDbLine
 10
1735.330255689955
 20
1017.429107175188
 30
0.0
 11
1871.532168140529
 21
1017.429107175188
 31
0.0
  0
LINE
  5
496
330
1F
100
AcDbEntity
  8
0
100
AcDbLine
 10
1735.330255689956
 20
1014.429107175188
 30
0.0
 11
1735.330255689955
 21
1005.429107175188
 31
0.0
  0
LINE
  5
49A
330
1F
100
AcDbEntity
  8
0
100
AcDbLine
 10
1735.330255689956
 20
1522.429107175188
 30
0.0
 11
1735.330255689956
 21
1450.429107175189
 31
0.0
  0
ARC
  5
49B
330
1F
100
AcDbEntity
  8
0
100
AcDbCircle
 10
1738.330255689956
 20
1450.429107175189
 30
0.0
 40
3.0
100
AcDbArc
 50
179.9999999999999
 51
270.0
  0
LINE
  5
49D
330
1F
100
AcDbEntity
  8
0
100
AcDbLine
 10
1735.330255689956
 20
1450.429107175189
 30
0.0
 11
1735.330255689955
 21
982.4291071751886
 31
0.0
  0
LINE
  5
49E
330
1F
100
AcDbEntity
  8
0
100
AcDbLine
 10
1910.330255689957
 20
1417.429107175188
 30
0.0
 11
1910.330255689956
 21
1261.929107175193
 31
0.0
  0
LINE
  5
4A3
330
1F
100
AcDbEntity
  8
0
100
AcDbLine
 10
1918.330255689956
 20
1431.929107175188
 30
0.0
 11
1918.330255689956
 21
1272.929107175188
 31
0.0
  0
LINE
  5
4A4
330
1F
100
AcDbEntity
  8
0
100
AcDbLine
 10
1910.330255689957
 20
1442.929107175189
 30
0.0
 11
1918.330255689956
 21
1431.929107175188
 31
0.0
  0
LINE
  5
4A5
330
1F
100
AcDbEntity
  8
0
100
AcDbLine
 10
1910.330255689956
 20
1261.929107175189
 30
0.0
 11
1918.330255689956
 21
1272.929107175188
 31
0.0
  0
LINE
  5
4A7
330
1F
100
AcDbEntity
  8
0
100
AcDbLine
 10
1910.330255689956
 20
1261.929107175189
 30
0.0
 11
1901.507107677799
 21
1046.203138277958
 31
0.0
  0
ARC
  5
4A9
330
1F
100
AcDbEntity
  8
0
100
AcDbCircle
 10
1880.330255689957
 20
1492.429107175189
 30
0.0
 40
30.0
100
AcDbArc
 50
359.9999999999999
 51
89.99999999999992
  0
ARC
  5
4AA
330
1F
100
AcDbEntity
  8
0
100
AcDbCircle
 10
1871.532168140529
 20
1047.429107175188
 30
0.0
 40
30.0
100
AcDbArc
 50
270.0
 51
357.6579196915298
  0
ARC
  5
4AB
330
1F
100
AcDbEntity
  8
0
100
AcDbCircle
 10
1880.330255689957
 20
1417.429107175188
 30
0.0
 40
30.0
100
AcDbArc
 50
359.9999999999999
 51
89.99999999999992
  0
LINE
  5
4AC
330
1F
100
AcDbEntity
  8
0
100
AcDbLine
 10
1910.330255689957
 20
1492.429107175189
 30
0.0
 11
1910.330255689957
 21
1417.429107175188
 31
0.0
  0
LINE
  5
4AE
330
1F
100
AcDbEntity
  8
Cen
100
AcDbLine
 10
1815.736425909748
 20
1350.554107175188
 30
0.0
 11
1946.390838145071
 21
1350.554107175188
 31
0.0
  0
MTEXT
  5
532
330
1F
100
AcDbEntity
  8
0
100
AcDbMText
 10
1469.226616777811
 20
1181.110374981098
 30
0.0
 40
25.0
 41
0.0
 71
     9
 72
     1
  1

 73
     1
 44
1.0
1001
ACAD
1000
MTEXTBEGIN
1070
    73
1070
     1
1070
    44
1040
1.0
1070
    74
1070
     0
1000
MTEXTEND
  0
MTEXT
  5
55C
330
1F
100
AcDbEntity
  8
0
100
AcDbMText
 10
1010.02660136874
 20
1423.470120422065
 30
0.0
 40
25.0
 41
0.0
 71
     1
 72
     1
  1

 73
     1
 44
1.0
1001
ACAD
1000
MTEXTBEGIN
1070
    73
1070
     1
1070
    44
1040
1.0
1070
    74
1070
     0
1000
MTEXTEND
  0
LINE
  5
56A
330
1F
100
AcDbEntity
  8
補助
100
AcDbLine
 10
2784.0
 20
134.0
 30
0.0
 11
2784.0
 21
199.0
 31
0.0
  0
TEXT
  5
56C
330
1F
100
AcDbEntity
  8
0
100
AcDbText
 10
2209.0
 20
151.5
 30
0.0
 40
30.0
  1
YME720-590S-GRM-POR
 72
     4
 11
2484.0
 21
166.5
 31
0.0
100
AcDbText
  0
MTEXT
  5
5A9
330
1F
100
AcDbEntity
  8
Cen
100
AcDbMText
 10
1527.939315450184
 20
552.4831097022406
 30
0.0
 40
25.0
 41
0.0
 71
     9
 72
     1
  1

 73
     1
 44
1.0
1001
ACAD
1000
MTEXTBEGIN
1070
    73
1070
     1
1070
    44
1040
1.0
1070
    74
1070
     0
1000
MTEXTEND
  0
LINE
  5
5D0
330
1F
100
AcDbEntity
  8
補助
100
AcDbLine
 10
2784.0
 20
69.0
 30
0.0
 11
2784.0
 21
134.0
 31
0.0
  0
TEXT
  5
5D2
330
1F
100
AcDbEntity
  8
0
100
AcDbText
 10
2430.916666666667
 20
84.0
 30
0.0
 40
35.0
  1
1：10
 72
     4
 11
2484.0
 21
101.5
 31
0.0
100
AcDbText
  0
TEXT
  5
5D8
330
1F
100
AcDbEntity
  8
0
100
AcDbText
 10
231.1659029702105
 20
53.51169987015055
 30
0.0
 40
30.0
  1
※実寸には製造上の誤差が多少生ずる場合があります。シンクの穴あけ加工は現物合わせにてお願いします。
100
AcDbText
  0
TEXT
  5
5F4
330
1F
100
AcDbEntity
  8
補助
100
AcDbText
 10
2300.255774665348
 20
16.49999999999999
 30
0.0
 40
40.0
  1
中外交易株式会社
 72
     4
 11
2488.255774665347
 21
36.5
 31
0.0
100
AcDbText
  0
LINE
  5
5F5
330
1F
100
AcDbEntity
  8
補助
100
AcDbLine
 10
2064.0
 20
69.0
 30
0.0
 11
2784.0
 21
69.0
 31
0.0
  0
HATCH
  5
5F6
330
1F
100
AcDbEntity
  8
補助
100
AcDbHatch
 10
0.0
 20
0.0
 30
0.0
210
0.0
220
0.0
230
1.0
  2
SOLID
 70
     1
 71
     1
 91
        3
 92
        1
 93
        4
 72
     2
 10
2257.166198313996
 20
36.5
 40
20.0
 50
11.6477236670766
 51
342.6561058784691
 73
     1
 72
     1
 10
2276.256852341323
 20
30.53787547858514
 11
2252.166198313995
 21
30.53787547858519
 72
     1
 10
2252.166198313995
 20
30.53787547858519
 11
2252.166198313995
 21
40.53787547858519
 72
     1
 10
2252.166198313995
 20
40.53787547858519
 11
2276.75434681301
 21
40.53787547858519
 97
        4
330
5F7
330
5F9
330
5FA
330
5FB
 92
        1
 93
        4
 72
     2
 10
2188.255774665348
 20
36.5
 40
20.0
 50
11.6477236670766
 51
342.6561058784691
 73
     1
 72
     1
 10
2207.346428692676
 20
30.53787547858514
 11
2183.255774665347
 21
30.53787547858519
 72
     1
 10
2183.255774665347
 20
30.53787547858519
 11
2183.255774665347
 21
40.53787547858519
 72
     1
 10
2183.255774665347
 20
40.53787547858519
 11
2207.843923164362
 21
40.53787547858519
 97
        4
330
5F8
330
601
330
602
330
603
 92
        1
 93
        5
 72
     1
 10
2245.64189404294
 20
56.5
 11
2210.641894042939
 21
56.5
 72
     1
 10
2210.641894042939
 20
56.5
 11
2210.641894042939
 21
16.5
 72
     1
 10
2210.641894042939
 20
16.5
 11
2245.64189404294
 21
16.5
 72
     1
 10
2245.64189404294
 20
16.5
 11
2210.641894042939
 21
36.5
 72
     1
 10
2210.641894042939
 20
36.5
 11
2245.64189404294
 21
56.5
 97
        5
330
5FC
330
600
330
5FF
330
5FE
330
5FD
 75
     0
 76
     1
 98
        1
 10
-60.0
 20
0.0
  0
ARC
  5
5F7
102
{ACAD_REACTORS
330
5F6
102
}
330
1F
100
AcDbEntity
  8
補助
370
     5
100
AcDbCircle
 10
2257.166198313996
 20
36.5
 30
0.0
 40
20.0
100
AcDbArc
 50
11.6477236670766
 51
342.6561058784691
  0
ARC
  5
5F8
102
{ACAD_REACTORS
330
5F6
102
}
330
1F
100
AcDbEntity
  8
補助
370
     5
100
AcDbCircle
 10
2188.255774665348
 20
36.5
 30
0.0
 40
20.0
100
AcDbArc
 50
11.6477236670766
 51
342.6561058784691
  0
LINE
  5
5F9
102
{ACAD_REACTORS
330
5F6
102
}
330
1F
100
AcDbEntity
  8
補助
370
     5
100
AcDbLine
 10
2252.166198313995
 20
30.53787547858519
 30
0.0
 11
2276.256852341323
 21
30.53787547858514
 31
0.0
  0
LINE
  5
5FA
102
{ACAD_REACTORS
330
5F6
102
}
330
1F
100
AcDbEntity
  8
補助
370
     5
100
AcDbLine
 10
2252.166198313995
 20
40.53787547858519
 30
0.0
 11
2252.166198313995
 21
30.53787547858519
 31
0.0
  0
LINE
  5
5FB
102
{ACAD_REACTORS
330
5F6
102
}
330
1F
100
AcDbEntity
  8
補助
370
     5
100
AcDbLine
 10
2276.75434681301
 20
40.53787547858519
 30
0.0
 11
2252.166198313995
 21
40.53787547858519
 31
0.0
  0
LINE
  5
5FC
102
{ACAD_REACTORS
330
5F6
102
}
330
1F
100
AcDbEntity
  8
補助
370
     5
100
AcDbLine
 10
2245.64189404294
 20
56.5
 30
0.0
 11
2210.641894042939
 21
56.5
 31
0.0
  0
LINE
  5
5FD
102
{ACAD_REACTORS
330
5F6
102
}
330
1F
100
AcDbEntity
  8
補助
370
     5
100
AcDbLine
 10
2210.641894042939
 20
36.5
 30
0.0
 11
2245.64189404294
 21
56.5
 31
0.0
  0
LINE
  5
5FE
102
{ACAD_REACTORS
330
5F6
102
}
330
1F
100
AcDbEntity
  8
補助
370
     5
100
AcDbLine
 10
2245.64189404294
 20
16.5
 30
0.0
 11
2210.641894042939
 21
36.5
 31
0.0
  0
LINE
  5
5FF
102
{ACAD_REACTORS
330
5F6
102
}
330
1F
100
AcDbEntity
  8
補助
370
     5
100
AcDbLine
 10
2210.641894042939
 20
16.5
 30
0.0
 11
2245.64189404294
 21
16.5
 31
0.0
  0
LINE
  5
600
102
{ACAD_REACTORS
330
5F6
102
}
330
1F
100
AcDbEntity
  8
補助
370
     5
100
AcDbLine
 10
2210.641894042939
 20
56.5
 30
0.0
 11
2210.641894042939
 21
16.5
 31
0.0
  0
LINE
  5
601
102
{ACAD_REACTORS
330
5F6
102
}
330
1F
100
AcDbEntity
  8
補助
370
     5
100
AcDbLine
 10
2183.255774665347
 20
30.53787547858519
 30
0.0
 11
2207.346428692676
 21
30.53787547858514
 31
0.0
  0
LINE
  5
602
102
{ACAD_REACTORS
330
5F6
102
}
330
1F
100
AcDbEntity
  8
補助
370
     5
100
AcDbLine
 10
2183.255774665347
 20
40.53787547858519
 30
0.0
 11
2183.255774665347
 21
30.53787547858519
 31
0.0
  0
LINE
  5
603
102
{ACAD_REACTORS
330
5F6
102
}
330
1F
100
AcDbEntity
  8
補助
370
     5
100
AcDbLine
 10
2207.843923164362
 20
40.53787547858519
 30
0.0
 11
2183.255774665347
 21
40.53787547858519
 31
0.0
  0
LINE
  5
A29
330
1F
100
AcDbEntity
  8
補助
100
AcDbLine
 10
2064.0
 20
4.0
 30
0.0
 11
2064.0
 21
199.0
 31
0.0
  0
TEXT
  5
A2C
330
1F
100
AcDbEntity
  8
補助
100
AcDbText
 10
2086.666666666667
 20
149.0
 30
0.0
 40
35.0
  1
品番
 72
     4
 11
2124.0
 21
166.5
 31
0.0
100
AcDbText
  0
TEXT
  5
A2D
330
1F
100
AcDbEntity
  8
補助
100
AcDbText
 10
2086.666666666667
 20
84.0
 30
0.0
 40
35.0
  1
尺度
 72
     4
 11
2124.0
 21
101.5
 31
0.0
100
AcDbText
  0
LINE
  5
C3A
330
1F
100
AcDbEntity
  8
0
100
AcDbLine
 10
1393.873109729005
 20
1552.429107175188
 30
0.0
 11
697.8731097290046
 21
1552.429107175189
 31
0.0
  0
LINE
  5
C3B
330
1F
100
AcDbEntity
  8
0
100
AcDbLine
 10
1400.873109729004
 20
979.4291071751883
 30
0.0
 11
1400.873109729005
 21
1545.429107175188
 31
0.0
  0
LINE
  5
C3C
330
1F
100
AcDbEntity
  8
0
100
AcDbLine
 10
697.8731097290046
 20
972.4291071751888
 30
0.0
 11
1393.873109729004
 21
972.4291071751883
 31
0.0
  0
LINE
  5
C3D
330
1F
100
AcDbEntity
  8
0
100
AcDbLine
 10
690.8731097290045
 20
1545.429107175189
 30
0.0
 11
690.8731097290046
 21
979.4291071751889
 31
0.0
  0
LINE
  5
C42
330
1F
100
AcDbEntity
  8
0
100
AcDbLine
 10
1393.873109729005
 20
1557.429107175188
 30
0.0
 11
697.8731097290044
 21
1557.429107175189
 31
0.0
  0
LINE
  5
C43
330
1F
100
AcDbEntity
  8
0
100
AcDbLine
 10
1405.873109729005
 20
979.4291071751883
 30
0.0
 11
1405.873109729005
 21
1545.429107175188
 31
0.0
  0
LINE
  5
C44
330
1F
100
AcDbEntity
  8
0
100
AcDbLine
 10
697.8731097290047
 20
967.4291071751888
 30
0.0
 11
1393.873109729004
 21
967.4291071751884
 31
0.0
  0
LINE
  5
C48
330
1F
100
AcDbEntity
  8
0
100
AcDbLine
 10
685.8731097290045
 20
1545.429107175189
 30
0.0
 11
685.8731097290047
 21
979.4291071751889
 31
0.0
  0
LINE
  5
D50
330
1F
100
AcDbEntity
  8
0
100
AcDbLine
 10
685.8731097290045
 20
663.8585909780553
 30
0.0
 11
1405.873109729004
 21
663.8585909780549
 31
0.0
  0
LINE
  5
D55
330
1F
100
AcDbEntity
  8
実形
100
AcDbLine
 10
697.8731097290046
 20
663.8585909780553
 30
0.0
 11
697.8731097290046
 21
653.8585909780549
 31
0.0
  0
LINE
  5
D56
330
1F
100
AcDbEntity
  8
実形
100
AcDbLine
 10
1393.873109729004
 20
663.8585909780549
 30
0.0
 11
1393.873109729004
 21
653.8585909780549
 31
0.0
  0
LINE
  5
D59
330
1F
100
AcDbEntity
  8
実形
100
AcDbLine
 10
690.8731097290045
 20
668.8585909780552
 30
0.0
 11
685.8731097290045
 21
663.8585909780553
 31
0.0
  0
LINE
  5
D5A
330
1F
100
AcDbEntity
  8
実形
100
AcDbLine
 10
700.8731097290045
 20
663.8585909780553
 30
0.0
 11
700.8731097290045
 21
653.8585909780549
 31
0.0
  0
LINE
  5
D5B
330
1F
100
AcDbEntity
  8
実形
100
AcDbLine
 10
700.8731097290045
 20
653.8585909780549
 30
0.0
 11
720.8731097290051
 21
653.858590978055
 31
0.0
  0
LINE
  5
D5C
330
1F
100
AcDbEntity
  8
実形
100
AcDbLine
 10
1400.873109729004
 20
668.8585909780549
 30
0.0
 11
1405.873109729004
 21
663.8585909780549
 31
0.0
  0
LINE
  5
D5D
330
1F
100
AcDbEntity
  8
実形
100
AcDbLine
 10
1390.873109729004
 20
663.8585909780549
 30
0.0
 11
1390.873109729004
 21
653.8585909780549
 31
0.0
  0
LINE
  5
D5E
330
1F
100
AcDbEntity
  8
実形
100
AcDbLine
 10
1390.873109729004
 20
653.8585909780549
 30
0.0
 11
1370.873109729004
 21
653.8585909780549
 31
0.0
  0
LINE
  5
D67
330
1F
100
AcDbEntity
  8
0
100
AcDbLine
 10
1725.330255689956
 20
1552.429107175189
 30
0.0
 11
1725.330255689956
 21
972.4291071751883
 31
0.0
  0
LINE
  5
D6C
330
1F
100
AcDbEntity
  8
実形
100
AcDbLine
 10
1720.330255689956
 20
1557.429107175189
 30
0.0
 11
1725.330255689956
 21
1552.429107175188
 31
0.0
  0
LINE
  5
D6E
330
1F
100
AcDbEntity
  8
実形
100
AcDbLine
 10
1725.330255689956
 20
1545.429107175189
 30
0.0
 11
1735.330255689956
 21
1545.429107175189
 31
0.0
  0
LINE
  5
D6F
330
1F
100
AcDbEntity
  8
実形
100
AcDbLine
 10
1725.330255689956
 20
1542.429107175189
 30
0.0
 11
1735.330255689956
 21
1542.429107175189
 31
0.0
  0
LINE
  5
D70
330
1F
100
AcDbEntity
  8
実形
100
AcDbLine
 10
1735.330255689956
 20
1542.429107175189
 30
0.0
 11
1735.330255689956
 21
1522.429107175189
 31
0.0
  0
LINE
  5
D71
330
1F
100
AcDbEntity
  8
実形
100
AcDbLine
 10
1720.330255689956
 20
967.4291071751886
 30
0.0
 11
1725.330255689956
 21
972.4291071751883
 31
0.0
  0
LINE
  5
D72
330
1F
100
AcDbEntity
  8
実形
100
AcDbLine
 10
1725.330255689956
 20
979.4291071751885
 30
0.0
 11
1735.330255689955
 21
979.4291071751885
 31
0.0
  0
LINE
  5
D73
330
1F
100
AcDbEntity
  8
実形
100
AcDbLine
 10
1725.330255689956
 20
982.4291071751886
 30
0.0
 11
1735.330255689955
 21
982.4291071751886
 31
0.0
  0
LINE
  5
D74
330
1F
100
AcDbEntity
  8
実形
100
AcDbLine
 10
1735.330255689955
 20
982.4291071751886
 30
0.0
 11
1735.330255689955
 21
1017.429107175188
 31
0.0
  0
TEXT
  5
DC1
330
1F
100
AcDbEntity
  8
0
100
AcDbText
 10
1762.013353094827
 20
1074.000376936661
 30
0.0
 40
25.0
  1
30R
100
AcDbText
  0
LEADER
  5
DC2
330
1F
100
AcDbEntity
  8
Cen
100
AcDbLeader
  3
ISO-25
 40
25.0
 41
16.66666666666666
 76
     2
 10
1882.320460775814
 20
1042.08029085993
 30
0.0
 10
1833.205496051281
 20
1077.952372155938
 30
0.0
213
0.0
223
12.5
233
0.0
1001
ACAD
1000
DSTYLE
1002
{
1070
   147
1040
6.25
1070
    77
1070
     0
1070
   279
1070
     1
1002
}
  0
ARC
  5
DEA
330
1F
100
AcDbEntity
  8
0
100
AcDbCircle
 10
697.8731097290044
 20
1545.429107175189
 30
0.0
 40
12.0
100
AcDbArc
 50
89.99999999999998
 51
180.0
  0
ARC
  5
DEC
330
1F
100
AcDbEntity
  8
0
100
AcDbCircle
 10
1393.873109729005
 20
1545.429107175188
 30
0.0
 40
12.0
100
AcDbArc
 50
360.0
 51
89.99999999999998
  0
ARC
  5
DED
330
1F
100
AcDbEntity
  8
0
100
AcDbCircle
 10
1393.873109729004
 20
979.4291071751883
 30
0.0
 40
12.0
100
AcDbArc
 50
270.0
 51
360.0
  0
ARC
  5
DEE
330
1F
100
AcDbEntity
  8
0
100
AcDbCircle
 10
697.8731097290047
 20
979.4291071751889
 30
0.0
 40
12.0
100
AcDbArc
 50
180.0
 51
270.0
  0
ARC
  5
DEF
330
1F
100
AcDbEntity
  8
0
100
AcDbCircle
 10
697.8731097290046
 20
1545.429107175189
 30
0.0
 40
7.0
100
AcDbArc
 50
89.99999999999998
 51
180.0
  0
ARC
  5
DF0
330
1F
100
AcDbEntity
  8
0
100
AcDbCircle
 10
697.8731097290046
 20
979.4291071751889
 30
0.0
 40
7.0
100
AcDbArc
 50
180.0
 51
270.0
  0
ARC
  5
DF1
330
1F
100
AcDbEntity
  8
0
100
AcDbCircle
 10
1393.873109729004
 20
979.4291071751883
 30
0.0
 40
7.0
100
AcDbArc
 50
270.0
 51
360.0
  0
ARC
  5
DF2
330
1F
100
AcDbEntity
  8
0
100
AcDbCircle
 10
1393.873109729005
 20
1545.429107175188
 30
0.0
 40
7.0
100
AcDbArc
 50
360.0
 51
89.99999999999998
  0
DIMENSION
  5
DFA
330
1F
100
AcDbEntity
  8
実形
100
AcDbDimension
  2
*D16
 10
685.8731097290045
 20
863.521335380472
 30
0.0
 11
749.6976450915262
 21
882.707262806557
 31
0.0
 70
   160
 71
     5
 42
35.0
  3
ISO-25
100
AcDbAlignedDimension
 13
720.8731097290045
 23
967.4291071751886
 33
0.0
 14
685.8731097290045
 24
967.4291071751886
 34
0.0
100
AcDbRotatedDimension
1001
ACAD
1000
DSTYLE
1002
{
1070
   279
1070
     2
1002
}
  0
LINE
  5
F95
330
1F
100
AcDbEntity
  8
補助
100
AcDbLine
 10
1894.0
 20
2024.0
 30
0.0
 11
2784.0
 21
2024.0
 31
0.0
  0
LINE
  5
FA5
330
1F
100
AcDbEntity
  8
補助
100
AcDbLine
 10
2784.0
 20
2024.0
 30
0.0
 11
2784.000000000001
 21
1829.0
 31
0.0
  0
LINE
  5
FA6
330
1F
100
AcDbEntity
  8
補助
100
AcDbLine
 10
2784.0
 20
1829.0
 30
0.0
 11
2784.0
 21
2024.0
 31
0.0
  0
DIMENSION
  5
1456
330
1F
100
AcDbEntity
  8
実形
100
AcDbDimension
  2
*D17
 10
860.3731097290042
 20
581.0116155160269
 30
0.0
 11
869.5333900738365
 21
586.1726242308793
 31
0.0
 70
   160
 71
     5
 42
20.0
  3
ISO-25
100
AcDbAlignedDimension
 13
880.3731097290041
 23
478.8585909780551
 33
0.0
 14
860.3731097290042
 24
478.8585909780556
 34
0.0
100
AcDbRotatedDimension
1001
ACAD
1000
DSTYLE
1002
{
1070
   279
1070
     1
1002
}
  0
LINE
  5
1457
330
1F
100
AcDbEntity
  8
実形
100
AcDbLine
 10
860.3731097290042
 20
480.8585909780556
 30
0.0
 11
880.3731097290041
 21
478.8585909780551
 31
0.0
  0
LINE
  5
145E
330
1F
100
AcDbEntity
  8
0
100
AcDbLine
 10
720.8731097290048
 20
653.8585909780551
 30
0.0
 11
905.8731097290042
 21
653.8585909780551
 31
0.0
  0
LINE
  5
145F
330
1F
100
AcDbEntity
  8
0
100
AcDbLine
 10
703.8731097290043
 20
668.8585909780552
 30
0.0
 11
1387.873109729004
 21
668.8585909780552
 31
0.0
  0
LINE
  5
1469
330
1F
100
AcDbEntity
  8
0
100
AcDbLine
 10
1310.873109729004
 20
1522.429107175189
 30
0.0
 11
780.8731097290044
 21
1522.429107175189
 31
0.0
  0
TEXT
  5
146B
330
1F
100
AcDbEntity
  8
0
100
AcDbText
 10
736.2089900142779
 20
558.3513774672257
 30
0.0
 40
25.0
  1
4500R
100
AcDbText
  0
LINE
  5
146C
330
1F
100
AcDbEntity
  8
0
100
AcDbLine
 10
720.8731097290051
 20
653.858590978055
 30
0.0
 11
720.8731097290043
 21
517.9049407759091
 31
0.0
  0
LEADER
  5
146D
330
1F
100
AcDbEntity
  8
Cen
100
AcDbLeader
  3
ISO-25
 40
25.0
 41
16.66666666666666
 76
     2
 10
799.6095520372806
 20
489.7910117862273
 30
0.0
 10
776.9258503202469
 20
549.062000183869
 30
0.0
213
0.0
223
12.5
233
0.0
1001
ACAD
1000
DSTYLE
1002
{
1070
    41
1040
25.0
1070
   147
1040
6.25
1070
    77
1070
     0
1070
   279
1070
     1
1002
}
  0
ARC
  5
146E
330
1F
100
AcDbEntity
  8
0
100
AcDbCircle
 10
750.8731097290043
 20
517.9049407759091
 30
0.0
 40
30.0
100
AcDbArc
 50
180.0
 51
268.1494069769954
  0
LINE
  5
146F
330
1F
100
AcDbEntity
  8
0
100
AcDbLine
 10
749.904309954008
 20
487.9205877397678
 30
0.0
 11
860.3731097290042
 21
480.8585909780556
 31
0.0
  0
TEXT
  5
1480
330
1F
100
AcDbEntity
  8
0
100
AcDbText
 10
1126.075848620753
 20
565.0404743378974
 30
0.0
 40
25.0
  1
4500R
100
AcDbText
  0
DIMENSION
  5
1481
330
1F
100
AcDbEntity
  8
実形
100
AcDbDimension
  2
*D18
 10
1081.373109729004
 20
581.0116155160269
 30
0.0
 11
1070.923484108495
 21
585.5213044862073
 31
0.0
 70
   160
 71
     5
 42
20.0
  3
ISO-25
100
AcDbAlignedDimension
 13
1061.373109729004
 23
478.8585909780551
 33
0.0
 14
1081.373109729004
 24
478.8585909780556
 34
0.0
100
AcDbRotatedDimension
1001
ACAD
1000
DSTYLE
1002
{
1070
   279
1070
     1
1002
}
  0
TEXT
  5
1482
330
1F
100
AcDbEntity
  8
0
100
AcDbText
 10
1277.020723800835
 20
572.9106612105567
 30
0.0
 40
25.0
  1
30R
100
AcDbText
  0
DIMENSION
  5
1483
330
1F
100
AcDbEntity
  8
0
100
AcDbDimension
  2
*D19
 10
880.3731097290041
 20
581.0116155160269
 30
0.0
 11
970.8731097290042
 21
599.7616155160269
 31
0.0
 70
    32
 71
     5
 42
181.0
  3
ISO-25
100
AcDbAlignedDimension
 13
1061.373109729004
 23
478.8585909780551
 33
0.0
 14
880.3731097290041
 24
478.8585909780551
 34
0.0
100
AcDbRotatedDimension
  0
LINE
  5
1484
330
1F
100
AcDbEntity
  8
0
100
AcDbLine
 10
1370.873109729004
 20
653.8585909780551
 30
0.0
 11
1370.873109729004
 21
527.0512382022118
 31
0.0
  0
DIMENSION
  5
1485
330
1F
100
AcDbEntity
  8
実形
100
AcDbDimension
  2
*D20
 10
1498.892878251885
 20
471.8585909780551
 30
0.0
 11
1482.113750881407
 21
454.291372742304
 31
0.0
 70
   160
  1
7
 71
     5
 42
27.00000000000045
  3
ISO-25
100
AcDbAlignedDimension
 13
1387.873109729004
 23
498.8585909780556
 33
0.0
 14
1387.873109729004
 24
471.8585909780552
 34
0.0
 50
90.0
100
AcDbRotatedDimension
1001
ACAD
1000
DSTYLE
1002
{
1070
   279
1070
     2
1002
}
  0
DIMENSION
  5
1486
330
1F
100
AcDbEntity
  8
0
100
AcDbDimension
  2
*D21
 10
1498.892878251885
 20
478.8585909780556
 30
0.0
 11
1478.87420962916
 21
524.8668323122622
 31
0.0
 70
   160
 71
     5
 42
20.0
  3
ISO-25
100
AcDbAlignedDimension
 13
1387.873109729004
 23
498.8585909780556
 33
0.0
 14
1387.873109729004
 24
478.8585909780556
 34
0.0
 50
90.0
100
AcDbRotatedDimension
1001
ACAD
1000
DSTYLE
1002
{
1070
   282
1070
     0
1070
   281
1070
     0
1070
   279
1070
     2
1002
}
  0
LINE
  5
1487
330
1F
100
AcDbEntity
  8
実形
100
AcDbLine
 10
1081.373109729006
 20
480.8585909780556
 30
0.0
 11
1221.024871946919
 21
485.8073190796942
 31
0.0
  0
LINE
  5
1488
330
1F
100
AcDbEntity
  8
0
100
AcDbLine
 10
1051.373109729004
 20
471.8585909780552
 30
0.0
 11
1061.373109729004
 21
471.8585909780552
 31
0.0
  0
LINE
  5
1489
330
1F
100
AcDbEntity
  8
0
100
AcDbLine
 10
892.3731097290042
 20
471.8585909780556
 30
0.0
 11
1049.373109729004
 21
471.8585909780552
 31
0.0
  0
LINE
  5
148A
330
1F
100
AcDbEntity
  8
実形
100
AcDbLine
 10
1061.373109729004
 20
478.8585909780551
 30
0.0
 11
1081.373109729004
 21
480.8585909780556
 31
0.0
  0
LINE
  5
148B
330
1F
100
AcDbEntity
  8
Cen
100
AcDbLine
 10
970.8731097290042
 20
562.1641829332904
 30
0.0
 11
970.8731097290042
 21
447.6040490329308
 31
0.0
  0
DIMENSION
  5
148C
330
1F
100
AcDbEntity
  8
0
100
AcDbDimension
  2
*D22
 10
891.3731097290042
 20
350.4641162800401
 30
0.0
 11
970.8731097290042
 21
369.2141162800401
 31
0.0
 70
    32
  1
158
 71
     5
 42
159.0
  3
ISO-25
100
AcDbAlignedDimension
 13
1050.373109729004
 23
471.8585909780552
 33
0.0
 14
891.3731097290042
 24
471.8585909780556
 34
0.0
100
AcDbRotatedDimension
  0
LINE
  5
148D
330
1F
100
AcDbEntity
  8
0
100
AcDbLine
 10
880.3731097290041
 20
478.8585909780551
 30
0.0
 11
1061.373109729004
 21
478.8585909780551
 31
0.0
  0
LINE
  5
148E
330
1F
100
AcDbEntity
  8
0
100
AcDbLine
 10
1061.373109729004
 20
478.8585909780551
 30
0.0
 11
1061.373109729004
 21
471.8585909780552
 31
0.0
  0
LINE
  5
148F
330
1F
100
AcDbEntity
  8
0
100
AcDbLine
 10
880.3731097290041
 20
478.8585909780551
 30
0.0
 11
880.3731097290041
 21
471.8585909780552
 31
0.0
  0
LINE
  5
1490
330
1F
100
AcDbEntity
  8
0
100
AcDbLine
 10
880.3731097290041
 20
471.8585909780556
 30
0.0
 11
890.3731097290043
 21
471.8585909780556
 31
0.0
  0
LEADER
  5
1491
330
1F
100
AcDbEntity
  8
Cen
100
AcDbLeader
  3
ISO-25
 40
25.0
 41
16.66666666666666
 76
     2
 10
1270.820097194572
 20
497.6611939557076
 30
0.0
 10
1219.267906852556
 20
550.6118031078674
 30
0.0
213
0.0
223
12.5
233
0.0
1001
ACAD
1000
DSTYLE
1002
{
1070
    41
1040
25.0
1070
   147
1040
6.25
1070
    77
1070
     0
1070
   279
1070
     1
1002
}
  0
LEADER
  5
1492
330
1F
100
AcDbEntity
  8
Cen
100
AcDbLeader
  3
ISO-25
 40
25.0
 41
16.66666666666666
 76
     2
 10
1167.127523310456
 20
487.1676161620078
 30
0.0
 10
1178.578411570763
 20
551.9235009199771
 30
0.0
213
0.0
223
12.5
233
0.0
1001
ACAD
1000
DSTYLE
1002
{
1070
    41
1040
25.0
1070
   147
1040
6.25
1070
    77
1070
     0
1070
   279
1070
     1
1002
}
  0
ARC
  5
1493
330
1F
100
AcDbEntity
  8
0
100
AcDbCircle
 10
1340.873109729004
 20
527.0512382022118
 30
0.0
 40
30.0
100
AcDbArc
 50
273.5578518661208
 51
0.0
  0
ARC
  5
1494
330
1F
100
AcDbEntity
  8
実形
100
AcDbCircle
 10
1220.971750985606
 20
487.3063781724147
 30
0.0
 40
1.5
100
AcDbArc
 50
272.0294956239807
 51
0.0
  0
ARC
  5
1495
330
1F
100
AcDbEntity
  8
実形
100
AcDbCircle
 10
1223.971750985606
 20
488.2219311302113
 30
0.0
 40
1.5
100
AcDbArc
 50
93.55785186612074
 51
180.0
  0
LINE
  5
1496
330
1F
100
AcDbEntity
  8
実形
100
AcDbLine
 10
1222.471750985606
 20
487.3063781724147
 30
0.0
 11
1222.471750985606
 21
488.2219311302113
 31
0.0
  0
LEADER
  5
1497
330
1F
100
AcDbEntity
  8
Cen
100
AcDbLeader
  3
ISO-25
 40
25.0
 41
16.66666666666666
 76
     2
 10
1362.337401035238
 20
515.1959762904368
 30
0.0
 10
1333.46098873321
 20
565.0404743378974
 30
0.0
213
0.0
223
12.5
233
0.0
1001
ACAD
1000
DSTYLE
1002
{
1070
    41
1040
25.0
1070
   147
1040
6.25
1070
    77
1070
     0
1070
   279
1070
     1
1002
}
  0
LINE
  5
1498
330
1F
100
AcDbEntity
  8
0
100
AcDbLine
 10
1342.734799643457
 20
497.1090587447572
 30
0.0
 11
1223.878666489883
 21
489.7190401030841
 31
0.0
  0
CIRCLE
  5
1499
102
{ACAD_REACTORS
330
149A
102
}
330
1F
100
AcDbEntity
  8
0
100
AcDbCircle
 10
1498.892878251885
 20
478.8585909780556
 30
0.0
 40
2.686192441042294
  0
HATCH
  5
149A
330
1F
100
AcDbEntity
  8
0
100
AcDbHatch
 10
0.0
 20
0.0
 30
0.0
210
0.0
220
0.0
230
1.0
  2
SOLID
 70
     1
 71
     1
 91
        1
 92
        7
 72
     1
 73
     1
 93
        2
 10
1501.579070692928
 20
478.8585909780556
 42
1.0
 10
1496.206685810843
 20
478.8585909780556
 42
1.0
 97
        1
330
1499
 75
     0
 76
     1
 47
0.4154898185022131
 98
        1
 10
1497.759905063603
 20
478.5574427673816
  0
HATCH
  5
149B
330
1F
100
AcDbEntity
  8
0
100
AcDbHatch
 10
0.0
 20
0.0
 30
0.0
210
0.0
220
0.0
230
1.0
  2
SOLID
 70
     1
 71
     0
 91
        1
 92
        7
 72
     1
 73
     1
 93
        2
 10
1496.206685810843
 20
498.8585909780556
 42
-1.0
 10
1501.579070692928
 20
498.8585909780556
 42
-1.0
 97
        0
 75
     0
 76
     1
 47
0.4154898185022131
 98
        1
 10
1497.759905063603
 20
498.5574427673816
  0
CIRCLE
  5
149C
330
1F
100
AcDbEntity
  8
0
100
AcDbCircle
 10
1498.892878251885
 20
498.8585909780556
 30
0.0
 40
2.686192441042294
  0
LINE
  5
14A7
330
1F
100
AcDbEntity
  8
0
100
AcDbLine
 10
1035.873109729004
 20
653.8585909780551
 30
0.0
 11
1370.873109729004
 21
653.8585909780551
 31
0.0
  0
DIMENSION
  5
1714
330
1F
100
AcDbEntity
  8
実形
100
AcDbDimension
  2
*D23
 10
583.1971594881434
 20
1232.429107175189
 30
0.0
 11
564.4471594881432
 21
1339.929107175189
 31
0.0
 70
    32
 71
     5
 42
215.0
  3
ISO-25
100
AcDbAlignedDimension
 13
685.8731097290045
 23
1447.429107175189
 33
0.0
 14
685.8731097290046
 24
1232.429107175189
 34
0.0
 50
90.0
100
AcDbRotatedDimension
1001
ACAD
1000
DSTYLE
1002
{
1070
   279
1070
     1
1002
}
  0
ARC
  5
1AFB
330
1F
100
AcDbEntity
  8
実形
370
    13
100
AcDbCircle
 10
971.2700226226772
 20
1397.427584250325
 30
0.0
 40
160.2489544723223
100
AcDbArc
 50
240.0000000000027
 51
299.9999999999973
  0
ARC
  5
1AFC
330
1F
100
AcDbEntity
  8
実形
370
    13
100
AcDbCircle
 10
971.2700226226772
 20
1397.427584250325
 30
0.0
 40
164.9989544723223
100
AcDbArc
 50
240.0000000000027
 51
299.9999999999973
  0
CIRCLE
  5
1AFD
330
1F
100
AcDbEntity
  8
0
370
    13
100
AcDbCircle
 10
970.8731097290044
 20
1352.429107175189
 30
0.0
 40
110.5
  0
LEADER
  5
1AFE
330
1F
100
AcDbEntity
  8
0
100
AcDbLeader
  3
ISO-25
 40
25.0
 41
16.66666666666666
 76
     2
 10
1056.014613235138
 20
1509.254231864829
 30
0.0
 10
1007.078220219915
 20
1486.401859188051
 30
0.0
211
-1.0
221
0.0
231
0.0
210
0.0
220
0.0
230
-1.0
213
0.0
223
-12.5
233
0.0
1001
ACAD
1000
DSTYLE
1002
{
1070
    41
1040
25.0
1070
   147
1040
6.25
1070
    77
1070
     0
1070
    73
1070
     1
1070
    74
1070
     1
1070
   279
1070
     1
1070
   342
1005
DA
1002
}
  0
DIMENSION
  5
1AFF
330
1F
100
AcDbEntity
  8
0
100
AcDbDimension
  2
*D24
 10
1100.873109729004
 20
1685.940073089136
 30
0.0
 11
970.8731097290044
 21
1704.690073089136
 31
0.0
 70
    32
 71
     5
 42
260.0
  3
ISO-25
100
AcDbAlignedDimension
 13
840.8731097290043
 23
1604.429107175189
 33
0.0
 14
1100.873109729004
 24
1604.429107175189
 34
0.0
100
AcDbRotatedDimension
  0
DIMENSION
  5
1B00
330
1F
100
AcDbEntity
  8
0
100
AcDbDimension
  2
*D25
 10
1035.873109729004
 20
1634.547063622351
 30
0.0
 11
970.8731097290044
 21
1653.297063622351
 31
0.0
 70
    32
 71
     5
 42
130.0
  3
ISO-25
100
AcDbAlignedDimension
 13
905.8731097290044
 23
1539.429107175189
 33
0.0
 14
1035.873109729004
 24
1539.429107175189
 34
0.0
100
AcDbRotatedDimension
  0
LINE
  5
1B01
330
1F
100
AcDbEntity
  8
Cen
 48
0.8
100
AcDbLine
 10
1104.980671408083
 20
1352.429107175189
 30
0.0
 11
836.7655480499259
 21
1352.429107175189
 31
0.0
  0
DIMENSION
  5
1B02
330
1F
100
AcDbEntity
  8
0
100
AcDbDimension
  2
*D26
 10
1131.280612003443
 20
1522.429107175189
 30
0.0
 11
1131.280612003443
 21
1405.979501426316
 31
0.0
 70
   160
 71
     5
 42
170.0
  3
ISO-25
100
AcDbAlignedDimension
 13
1032.43339348469
 23
1352.429107175189
 33
0.0
 14
780.8731097290044
 24
1522.429107175189
 34
0.0
 50
90.0
100
AcDbRotatedDimension
  0
DIMENSION
  5
1B03
330
1F
100
AcDbEntity
  8
0
100
AcDbDimension
  2
*D27
 10
720.8731097290044
 20
1154.892029232974
 30
0.0
 11
845.8731097290044
 21
1173.642029232974
 31
0.0
 70
    32
 71
     5
 42
250.0
  3
ISO-25
100
AcDbAlignedDimension
 13
970.8731097290044
 23
1314.17201898441
 33
0.0
 14
720.8731097290044
 24
1332.429107175189
 34
0.0
100
AcDbRotatedDimension
  0
CIRCLE
  5
1B04
330
1F
100
AcDbEntity
  8
0
100
AcDbCircle
 10
970.8731097290044
 20
1352.429107175189
 30
0.0
 40
90.5
  0
CIRCLE
  5
1B05
330
1F
100
AcDbEntity
  8
0
100
AcDbCircle
 10
970.8731097290044
 20
1352.429107175189
 30
0.0
 40
79.5
  0
LINE
  5
1B06
330
1F
100
AcDbEntity
  8
0
100
AcDbLine
 10
835.8731097290045
 20
1017.429107175189
 30
0.0
 11
1255.873109729004
 21
1017.429107175189
 31
0.0
  0
LINE
  5
1B09
330
1F
100
AcDbEntity
  8
0
100
AcDbLine
 10
1310.873109729004
 20
1522.429107175189
 30
0.0
 11
780.8731097290044
 21
1522.429107175189
 31
0.0
  0
LINE
  5
1B0A
330
1F
100
AcDbEntity
  8
0
100
AcDbLine
 10
835.8731097290045
 20
1002.429107175189
 30
0.0
 11
1255.873109729004
 21
1002.429107175189
 31
0.0
  0
LINE
  5
1B0B
330
1F
100
AcDbEntity
  8
実形
370
    13
100
AcDbLine
 10
744.3091212319225
 20
1337.939140202594
 30
0.0
 11
891.145545386516
 21
1258.647918747399
 31
0.0
  0
LINE
  5
1B0C
330
1F
100
AcDbEntity
  8
実形
370
    13
100
AcDbLine
 10
744.3091212319225
 20
1337.939140202594
 30
0.0
 11
888.770545386516
 21
1254.534298079422
 31
0.0
  0
LINE
  5
1B0E
330
1F
100
AcDbEntity
  8
0
100
AcDbLine
 10
720.8731097290044
 20
1462.429107175189
 30
0.0
 11
720.8731097290044
 21
1132.429107175189
 31
0.0
  0
ARC
  5
1B10
330
1F
100
AcDbEntity
  8
0
100
AcDbCircle
 10
835.8731097290045
 20
1117.429107175189
 30
0.0
 40
115.0
100
AcDbArc
 50
180.0
 51
270.0
  0
LINE
  5
1B11
330
1F
100
AcDbEntity
  8
0
100
AcDbLine
 10
720.8731097290044
 20
1332.429107175189
 30
0.0
 11
720.8731097290044
 21
1117.429107175189
 31
0.0
  0
ARC
  5
1B12
330
1F
100
AcDbEntity
  8
0
100
AcDbCircle
 10
835.8731097290045
 20
1132.429107175189
 30
0.0
 40
115.0
100
AcDbArc
 50
180.0
 51
270.0
  0
ARC
  5
1B13
330
1F
100
AcDbEntity
  8
0
100
AcDbCircle
 10
820.8731097290044
 20
1351.469927752535
 30
0.0
 40
100.0
100
AcDbArc
 50
101.5369590328207
 51
180.0
  0
ARC
  5
1B14
330
1F
100
AcDbEntity
  8
0
100
AcDbCircle
 10
780.8731097290044
 20
1547.429107175189
 30
0.0
 40
100.0
100
AcDbArc
 50
281.5369590328207
 51
327.1335352609031
  0
ARC
  5
1B15
330
1F
100
AcDbEntity
  8
0
100
AcDbCircle
 10
918.6228828685635
 20
1458.429107175189
 30
0.0
 40
64.0
100
AcDbArc
 50
90.0
 51
147.133535260903
  0
LINE
  5
1B16
330
1F
100
AcDbEntity
  8
Cen
100
AcDbLine
 10
857.2001592962303
 20
1507.429107175189
 30
0.0
 11
821.8649593451052
 21
1507.429107175189
 31
0.0
  0
LEADER
  5
1B17
330
1F
100
AcDbEntity
  8
0
100
AcDbLeader
  3
ISO-25
 40
25.0
 41
16.66666666666666
 76
     2
 10
835.6266052898725
 20
1455.460666311321
 30
0.0
 10
834.657407130933
 20
1394.441245630712
 30
0.0
213
0.0
223
12.5
233
0.0
1001
ACAD
1000
DSTYLE
1002
{
1070
    41
1040
25.0
1070
   147
1040
6.25
1070
    77
1070
     0
1070
    73
1070
     1
1070
    74
1070
     1
1070
   279
1070
     1
1070
   342
1005
DA
1002
}
  0
TEXT
  5
1B18
330
1F
100
AcDbEntity
  8
0
100
AcDbText
 10
776.2844546366066
 20
1360.602887891847
 30
0.0
 40
25.0
  1
100R
 11
776.2844546366066
 21
1385.602887891847
 31
0.0
100
AcDbText
 73
     3
  0
LEADER
  5
1B19
330
1F
100
AcDbEntity
  8
0
100
AcDbLeader
  3
ISO-25
 40
25.0
 41
16.66666666666666
 76
     2
 10
766.8132374299719
 20
1427.372359463279
 30
0.0
 10
805.5813322145857
 20
1395.40980420571
 30
0.0
213
0.0
223
-12.5
233
0.0
1001
ACAD
1000
DSTYLE
1002
{
1070
    41
1040
25.0
1070
   147
1040
6.25
1070
    77
1070
     0
1070
    73
1070
     1
1070
    74
1070
     1
1070
   279
1070
     1
1070
   342
1005
DA
1002
}
  0
TEXT
  5
1B1A
330
1F
100
AcDbEntity
  8
0
100
AcDbText
 10
751.742840193976
 20
1585.449598858133
 30
0.0
 40
25.0
  1
12%%C
 72
     2
 11
810.0761735273094
 21
1582.1162655248
 31
0.0
100
AcDbText
 73
     1
  0
LEADER
  5
1B1B
330
1F
100
AcDbEntity
  8
0
100
AcDbLeader
  3
ISO-25
 40
25.0
 41
41.66666666666666
 76
     2
 10
833.3617619493468
 20
1513.375347915859
 30
0.0
 10
812.2986247567405
 20
1583.497476815763
 30
0.0
213
0.0
223
12.5
233
0.0
1001
ACAD
1000
DSTYLE
1002
{
1070
    41
1040
25.0
1070
   147
1040
6.25
1070
    77
1070
     0
1070
    73
1070
     1
1070
    74
1070
     1
1070
   342
1005
DA
1002
}
  0
LINE
  5
1B1C
330
1F
100
AcDbEntity
  8
Cen
100
AcDbLine
 10
905.8731097290047
 20
1634.547063622351
 30
0.0
 11
905.8731097290044
 21
1507.429107175189
 31
0.0
  0
CIRCLE
  5
1B1D
330
1F
100
AcDbEntity
  8
Cen
100
AcDbCircle
 10
840.8731097290043
 20
1507.429107175189
 30
0.0
 40
6.0
  0
LINE
  5
1B1E
330
1F
100
AcDbEntity
  8
Cen
100
AcDbLine
 10
840.8731097290043
 20
1669.429107175189
 30
0.0
 11
840.8731097290043
 21
1475.429107175189
 31
0.0
  0
ARC
  5
1B20
330
1F
100
AcDbEntity
  8
0
100
AcDbCircle
 10
780.8731097290044
 20
1462.429107175189
 30
0.0
 40
60.0
100
AcDbArc
 50
90.0
 51
180.0
  0
LINE
  5
1B21
330
1F
100
AcDbEntity
  8
実形
370
    13
100
AcDbLine
 10
1051.394499858838
 20
1258.647918747398
 30
0.0
 11
1301.437300172886
 21
1397.52536926034
 31
0.0
  0
LINE
  5
1B22
330
1F
100
AcDbEntity
  8
実形
370
    13
100
AcDbLine
 10
1053.769499858838
 20
1254.534298079422
 30
0.0
 11
1301.437300172886
 21
1397.52536926034
 31
0.0
  0
LEADER
  5
1B23
330
1F
100
AcDbEntity
  8
0
100
AcDbLeader
  3
ISO-25
 40
25.0
 41
16.66666666666666
 76
     2
 10
1201.925409691677
 20
1441.373022591029
 30
0.0
 10
1233.559631230906
 20
1325.457475730562
 30
0.0
213
0.0
223
-12.5
233
0.0
1001
ACAD
1000
DSTYLE
1002
{
1070
    41
1040
25.0
1070
   147
1040
6.25
1070
    77
1070
     0
1070
    73
1070
     1
1070
    74
1070
     1
1070
   279
1070
     1
1070
   342
1005
DA
1002
}
  0
LINE
  5
1B24
330
1F
100
AcDbEntity
  8
Cen
 48
0.8
100
AcDbLine
 10
970.8731097290044
 20
1238.951706264696
 30
0.0
 11
970.8731097290044
 21
1465.906508085682
 31
0.0
  0
ARC
  5
1B25
330
1F
100
AcDbEntity
  8
0
100
AcDbCircle
 10
1255.873109729005
 20
1332.429107175189
 30
0.0
 40
115.0
100
AcDbArc
 50
0.0
 51
90.0
  0
LINE
  5
1B27
330
1F
100
AcDbEntity
  8
0
100
AcDbLine
 10
1370.873109729004
 20
1132.429107175189
 30
0.0
 11
1370.873109729005
 21
1462.429107175189
 31
0.0
  0
TEXT
  5
1B28
330
1F
100
AcDbEntity
  8
0
100
AcDbText
 10
1186.18329793391
 20
1286.161229667154
 30
0.0
 40
25.0
  1
10000R
 11
1186.18329793391
 21
1311.161229667154
 31
0.0
100
AcDbText
 73
     3
  0
TEXT
  5
1B29
330
1F
100
AcDbEntity
  8
0
100
AcDbText
 10
1159.301628348164
 20
1214.981763161026
 30
0.0
 40
25.0
  1
5000R
 72
     2
 11
1263.468295014831
 21
1227.481763161026
 31
0.0
100
AcDbText
 73
     2
  0
TEXT
  5
1B2A
330
1F
100
AcDbEntity
  8
0
100
AcDbText
 10
1207.931641726083
 20
1132.285692988338
 30
0.0
 40
25.0
  1
115R
 72
     2
 11
1282.931641726083
 21
1128.952359655005
 31
0.0
100
AcDbText
 73
     1
  0
TEXT
  5
1B2B
330
1F
100
AcDbEntity
  8
0
100
AcDbText
 10
1160.990620734721
 20
1088.813744852193
 30
0.0
 40
25.0
  1
115R
 72
     2
 11
1235.990620734721
 21
1085.480411518859
 31
0.0
100
AcDbText
 73
     1
  0
TEXT
  5
1B2D
330
1F
100
AcDbEntity
  8
0
100
AcDbText
 10
959.9515123230265
 20
1088.347046902737
 30
0.0
 40
25.0
  1
10000R
 11
959.9515123230265
 21
1085.013713569403
 31
0.0
100
AcDbText
 73
     1
  0
LEADER
  5
1B2E
330
1F
100
AcDbEntity
  8
0
100
AcDbLeader
  3
ISO-25
 40
25.0
 41
16.66666666666666
 76
     2
 10
959.396380442851
 20
1026.887129039316
 30
0.0
 10
985.1724105397705
 20
1073.721695992754
 30
0.0
213
0.0
223
-12.5
233
0.0
1001
ACAD
1000
DSTYLE
1002
{
1070
    41
1040
25.0
1070
   147
1040
6.25
1070
    77
1070
     0
1070
    73
1070
     1
1070
    74
1070
     1
1070
   279
1070
     1
1070
   342
1005
DA
1002
}
  0
LEADER
  5
1B2F
330
1F
100
AcDbEntity
  8
0
100
AcDbLeader
  3
ISO-25
 76
     2
 10
1369.944267222486
 20
1227.481763161026
 30
0.0
 10
1273.772419744318
 20
1227.481763161026
 30
0.0
1001
ACAD
1000
DSTYLE
1002
{
1070
    41
1040
25.0
1070
   147
1040
6.25
1070
    77
1070
     0
1070
    73
1070
     1
1070
    74
1070
     1
1070
   279
1070
     1
1070
   342
1005
DA
1002
}
  0
LEADER
  5
1B30
330
1F
100
AcDbEntity
  8
0
100
AcDbLeader
  3
ISO-25
 40
25.0
 41
16.66666666666666
 76
     2
 10
1352.770726006674
 20
1074.040419905925
 30
0.0
 10
1289.801066547219
 20
1133.528353444035
 30
0.0
213
0.0
223
12.5
233
0.0
1001
ACAD
1000
DSTYLE
1002
{
1070
    41
1040
25.0
1070
   147
1040
6.25
1070
    77
1070
     0
1070
    73
1070
     1
1070
    74
1070
     1
1070
   279
1070
     1
1070
   342
1005
DA
1002
}
  0
LEADER
  5
1B31
330
1F
100
AcDbEntity
  8
0
100
AcDbLeader
  3
ISO-25
 40
25.0
 41
16.66666666666666
 76
     2
 10
1336.742087538581
 20
1037.432464833444
 30
0.0
 10
1246.294753799018
 20
1093.488399459602
 30
0.0
213
-97.31675022588753
223
44.53196128345098
233
0.0
1001
ACAD
1000
DSTYLE
1002
{
1070
    41
1040
25.0
1070
   147
1040
6.25
1070
    77
1070
     0
1070
    73
1070
     1
1070
    74
1070
     1
1070
   279
1070
     1
1070
   342
1005
DA
1002
}
  0
ARC
  5
1B34
330
1F
100
AcDbEntity
  8
0
100
AcDbCircle
 10
1255.873109729004
 20
1117.429107175189
 30
0.0
 40
115.0
100
AcDbArc
 50
270.0
 51
0.0
  0
LINE
  5
1B35
330
1F
100
AcDbEntity
  8
0
100
AcDbLine
 10
1370.873109729004
 20
1117.429107175189
 30
0.0
 11
1370.873109729005
 21
1332.429107175189
 31
0.0
  0
ARC
  5
1B36
330
1F
100
AcDbEntity
  8
0
100
AcDbCircle
 10
1255.873109729004
 20
1132.429107175189
 30
0.0
 40
115.0
100
AcDbArc
 50
270.0
 51
0.0
  0
DIMENSION
  5
1B37
330
1F
100
AcDbEntity
  8
実形
100
AcDbDimension
  2
*D28
 10
1330.873109729005
 20
1606.855999106207
 30
0.0
 11
1235.873109729004
 21
1625.605999106207
 31
0.0
 70
    32
 71
     5
 42
190.0000000000002
  3
ISO-25
100
AcDbAlignedDimension
 13
1140.873109729005
 23
1517.429107175189
 33
0.0
 14
1330.873109729005
 24
1517.429107175189
 34
0.0
100
AcDbRotatedDimension
1001
ACAD
1000
DSTYLE
1002
{
1070
   279
1070
     1
1002
}
  0
LINE
  5
1B38
330
1F
100
AcDbEntity
  8
0
100
AcDbLine
 10
1301.373109729005
 20
1458.429107175189
 30
0.0
 11
1170.373109729005
 21
1458.429107175189
 31
0.0
  0
LINE
  5
1B39
330
1F
100
AcDbEntity
  8
0
100
AcDbLine
 10
1301.373109729005
 20
1517.429107175189
 30
0.0
 11
1170.373109729005
 21
1517.429107175189
 31
0.0
  0
LINE
  5
1B3A
330
1F
100
AcDbEntity
  8
0
100
AcDbLine
 10
1255.873109729005
 20
1447.429107175189
 30
0.0
 11
1160.873109729004
 21
1447.429107175189
 31
0.0
  0
ARC
  5
1B3B
330
1F
100
AcDbEntity
  8
0
100
AcDbCircle
 10
1170.373109729005
 20
1487.929107175189
 30
0.0
 40
29.5
100
AcDbArc
 50
180.0
 51
270.0
  0
ARC
  5
1B3C
330
1F
100
AcDbEntity
  8
0
100
AcDbCircle
 10
1170.373109729005
 20
1487.929107175189
 30
0.0
 40
29.5
100
AcDbArc
 50
90.0
 51
180.0
  0
LINE
  5
1B3D
330
1F
100
AcDbEntity
  8
0
100
AcDbLine
 10
1140.873109729005
 20
1487.929107175189
 30
0.0
 11
1140.873109729005
 21
1487.929107175189
 31
0.0
  0
LINE
  5
1B3E
330
1F
100
AcDbEntity
  8
Cen
100
AcDbLine
 10
1085.08544734706
 20
1507.429107175189
 30
0.0
 11
1117.988007305452
 21
1507.429107175189
 31
0.0
  0
LINE
  5
1B3F
330
1F
100
AcDbEntity
  8
Cen
100
AcDbLine
 10
1119.881260112904
 20
1507.429107175189
 30
0.0
 11
1085.360538598671
 21
1507.429107175189
 31
0.0
  0
DIMENSION
  5
1B40
330
1F
100
AcDbEntity
  8
0
100
AcDbDimension
  2
*D29
 10
813.100549157364
 20
1522.429107175189
 30
0.0
 11
790.8110905539833
 21
1499.556216723938
 31
0.0
 70
   160
 71
     5
 42
15.0
  3
ISO-25
100
AcDbAlignedDimension
 13
889.1280457529061
 23
1507.429107175189
 33
0.0
 14
905.8731097290044
 24
1522.429107175189
 34
0.0
 50
90.0
100
AcDbRotatedDimension
1001
ACAD
1000
DSTYLE
1002
{
1070
   279
1070
     2
1002
}
  0
TEXT
  5
1B41
330
1F
100
AcDbEntity
  8
0
100
AcDbText
 10
937.0413766986967
 20
1474.393528774423
 30
0.0
 40
25.0
  1
64R
 11
937.0413766986967
 21
1471.06019544109
 31
0.0
100
AcDbText
 73
     1
  0
LINE
  5
1B42
330
1F
100
AcDbEntity
  8
Cen
100
AcDbLine
 10
1035.873109729005
 20
1634.547063622351
 30
0.0
 11
1035.873109729004
 21
1507.429107175189
 31
0.0
  0
CIRCLE
  5
1B43
330
1F
100
AcDbEntity
  8
Cen
100
AcDbCircle
 10
1100.873109729004
 20
1507.429107175189
 30
0.0
 40
6.0
  0
LINE
  5
1B44
330
1F
100
AcDbEntity
  8
Cen
100
AcDbLine
 10
1100.873109729004
 20
1669.429107175189
 30
0.0
 11
1100.873109729004
 21
1475.429107175189
 31
0.0
  0
ARC
  5
1B45
330
1F
100
AcDbEntity
  8
0
100
AcDbCircle
 10
1023.123336589445
 20
1458.429107175189
 30
0.0
 40
64.0
100
AcDbArc
 50
32.86646473909692
 51
90.0
  0
ARC
  5
1B46
330
1F
100
AcDbEntity
  8
0
100
AcDbCircle
 10
1160.873109729004
 20
1547.429107175189
 30
0.0
 40
100.0
100
AcDbArc
 50
212.8664647390969
 51
270.0
  0
DIMENSION
  5
1B47
330
1F
100
AcDbEntity
  8
実形
100
AcDbDimension
  2
*D30
 10
1465.843516256654
 20
1458.429107175189
 30
0.0
 11
1447.093516256654
 21
1487.929107175189
 31
0.0
 70
    32
 71
     5
 42
59.0
  3
ISO-25
100
AcDbAlignedDimension
 13
1370.873109729004
 23
1517.429107175189
 33
0.0
 14
1370.873109729005
 24
1458.429107175189
 34
0.0
 50
90.0
100
AcDbRotatedDimension
1001
ACAD
1000
DSTYLE
1002
{
1070
   279
1070
     1
1002
}
  0
DIMENSION
  5
1B48
330
1F
100
AcDbEntity
  8
実形
100
AcDbDimension
  2
*D31
 10
1465.843516256654
 20
1458.429107175189
 30
0.0
 11
1449.158820164388
 21
1540.994984718039
 31
0.0
 70
   160
  1
5
 71
     5
 42
64.0
  3
ISO-25
100
AcDbAlignedDimension
 13
1370.873109729004
 23
1522.429107175189
 33
0.0
 14
1379.758504259079
 24
1458.429107175189
 34
0.0
 50
90.0
100
AcDbRotatedDimension
1001
ACAD
1000
DSTYLE
1002
{
1070
   279
1070
     2
1002
}
  0
DIMENSION
  5
1B49
330
1F
100
AcDbEntity
  8
実形
100
AcDbDimension
  2
*D32
 10
1370.873109729004
 20
1606.855999106207
 30
0.0
 11
1349.322216849902
 21
1607.631424281123
 31
0.0
 70
   160
 71
     5
 42
39.99999999999955
  3
ISO-25
100
AcDbAlignedDimension
 13
1330.873109729005
 23
1517.429107175189
 33
0.0
 14
1370.873109729004
 24
1517.429107175189
 34
0.0
100
AcDbRotatedDimension
1001
ACAD
1000
DSTYLE
1002
{
1070
   279
1070
     1
1002
}
  0
ARC
  5
1B4A
330
1F
100
AcDbEntity
  8
0
100
AcDbCircle
 10
1301.373109729005
 20
1487.929107175189
 30
0.0
 40
29.5
100
AcDbArc
 50
270.0
 51
0.0
  0
ARC
  5
1B4B
330
1F
100
AcDbEntity
  8
0
100
AcDbCircle
 10
1301.373109729005
 20
1487.929107175189
 30
0.0
 40
29.5
100
AcDbArc
 50
0.0
 51
90.0
  0
LINE
  5
1B4C
330
1F
100
AcDbEntity
  8
0
100
AcDbLine
 10
1330.873109729005
 20
1487.929107175189
 30
0.0
 11
1330.873109729005
 21
1487.929107175189
 31
0.0
  0
TEXT
  5
1B4F
330
1F
100
AcDbEntity
  8
0
100
AcDbText
 10
1248.648899304289
 20
1404.02375884467
 30
0.0
 40
25.0
  1
60R
 72
     2
 11
1311.148899304289
 21
1400.690425511337
 31
0.0
100
AcDbText
 73
     1
  0
LEADER
  5
1B50
330
1F
100
AcDbEntity
  8
0
100
AcDbLeader
  3
ISO-25
 40
25.0
 41
16.66666666666666
 76
     2
 10
1358.495239745278
 20
1495.031934181006
 30
0.0
 10
1313.49125594379
 20
1439.280877630859
 30
0.0
213
0.0
223
12.5
233
0.0
1001
ACAD
1000
DSTYLE
1002
{
1070
    41
1040
25.0
1070
   147
1040
6.25
1070
    77
1070
     0
1070
    73
1070
     1
1070
    74
1070
     1
1070
   279
1070
     1
1070
   342
1005
DA
1002
}
  0
ARC
  5
1B52
330
1F
100
AcDbEntity
  8
0
100
AcDbCircle
 10
1310.873109729004
 20
1462.429107175189
 30
0.0
 40
60.0
100
AcDbArc
 50
0.0
 51
90.0
  0
ARC
  5
20DA
330
1F
100
AcDbEntity
  8
実形
370
    15
100
AcDbCircle
 10
1270.873109729005
 20
1487.929107175189
 30
0.0
 40
10.0
100
AcDbArc
 50
90.0
 51
180.0
  0
ARC
  5
20DB
330
1F
100
AcDbEntity
  8
実形
370
    15
100
AcDbCircle
 10
1270.873109729005
 20
1487.929107175189
 30
0.0
 40
10.0
100
AcDbArc
 50
180.0
 51
270.0
  0
LINE
  5
20DC
330
1F
100
AcDbEntity
  8
実形
370
    15
100
AcDbLine
 10
1260.873109729005
 20
1487.929107175189
 30
0.0
 11
1260.873109729005
 21
1487.929107175189
 31
0.0
  0
ARC
  5
20DD
330
1F
100
AcDbEntity
  8
実形
370
    15
100
AcDbCircle
 10
1310.873109729005
 20
1487.929107175189
 30
0.0
 40
10.0
100
AcDbArc
 50
270.0
 51
0.0
  0
LINE
  5
20DE
330
1F
100
AcDbEntity
  8
実形
370
    15
100
AcDbLine
 10
1310.873109729005
 20
1477.929107175189
 30
0.0
 11
1270.873109729005
 21
1477.929107175189
 31
0.0
  0
ARC
  5
20DF
330
1F
100
AcDbEntity
  8
実形
370
    15
100
AcDbCircle
 10
1310.873109729005
 20
1487.929107175189
 30
0.0
 40
10.0
100
AcDbArc
 50
0.0
 51
90.0
  0
LINE
  5
20E0
330
1F
100
AcDbEntity
  8
実形
370
    15
100
AcDbLine
 10
1320.873109729005
 20
1487.929107175189
 30
0.0
 11
1320.873109729005
 21
1487.929107175189
 31
0.0
  0
LINE
  5
20E1
330
1F
100
AcDbEntity
  8
実形
370
    15
100
AcDbLine
 10
1270.873109729005
 20
1497.929107175189
 30
0.0
 11
1310.873109729005
 21
1497.929107175188
 31
0.0
  0
LINE
  5
20E2
330
1F
100
AcDbEntity
  8
実形
370
    15
100
AcDbLine
 10
1310.873109729005
 20
1482.929107175189
 30
0.0
 11
1270.873109729005
 21
1482.929107175189
 31
0.0
  0
ARC
  5
20E3
330
1F
100
AcDbEntity
  8
実形
370
    15
100
AcDbCircle
 10
1310.873109729005
 20
1487.929107175189
 30
0.0
 40
5.0
100
AcDbArc
 50
270.0
 51
0.0
  0
ARC
  5
20E4
330
1F
100
AcDbEntity
  8
実形
370
    15
100
AcDbCircle
 10
1310.873109729005
 20
1487.929107175189
 30
0.0
 40
5.0
100
AcDbArc
 50
0.0
 51
90.0
  0
LINE
  5
20E5
330
1F
100
AcDbEntity
  8
実形
370
    15
100
AcDbLine
 10
1270.873109729005
 20
1492.929107175189
 30
0.0
 11
1310.873109729005
 21
1492.929107175189
 31
0.0
  0
ARC
  5
20E6
330
1F
100
AcDbEntity
  8
実形
370
    15
100
AcDbCircle
 10
1270.873109729005
 20
1487.929107175189
 30
0.0
 40
5.0
100
AcDbArc
 50
90.0
 51
180.0
  0
ARC
  5
20E7
330
1F
100
AcDbEntity
  8
実形
370
    15
100
AcDbCircle
 10
1270.873109729005
 20
1487.929107175189
 30
0.0
 40
5.0
100
AcDbArc
 50
180.0
 51
270.0
  0
ARC
  5
20E8
330
1F
100
AcDbEntity
  8
実形
370
    15
100
AcDbCircle
 10
1200.873109729005
 20
1487.929107175189
 30
0.0
 40
5.0
100
AcDbArc
 50
270.0
 51
0.0
  0
ARC
  5
20E9
330
1F
100
AcDbEntity
  8
実形
370
    15
100
AcDbCircle
 10
1200.873109729005
 20
1487.929107175189
 30
0.0
 40
5.0
100
AcDbArc
 50
0.0
 51
90.0
  0
LINE
  5
20EA
330
1F
100
AcDbEntity
  8
実形
370
    15
100
AcDbLine
 10
1200.873109729005
 20
1492.929107175189
 30
0.0
 11
1160.873109729005
 21
1492.929107175189
 31
0.0
  0
ARC
  5
20EB
330
1F
100
AcDbEntity
  8
実形
370
    15
100
AcDbCircle
 10
1160.873109729005
 20
1487.929107175189
 30
0.0
 40
5.0
100
AcDbArc
 50
90.0
 51
180.0
  0
ARC
  5
20EC
330
1F
100
AcDbEntity
  8
実形
370
    15
100
AcDbCircle
 10
1160.873109729005
 20
1487.929107175189
 30
0.0
 40
5.0
100
AcDbArc
 50
180.0
 51
270.0
  0
LINE
  5
20ED
330
1F
100
AcDbEntity
  8
実形
370
    15
100
AcDbLine
 10
1160.873109729005
 20
1482.929107175189
 30
0.0
 11
1200.873109729005
 21
1482.929107175189
 31
0.0
  0
LINE
  5
20EE
330
1F
100
AcDbEntity
  8
実形
370
    15
100
AcDbLine
 10
1200.873109729005
 20
1497.929107175189
 30
0.0
 11
1160.873109729005
 21
1497.929107175188
 31
0.0
  0
LINE
  5
20EF
330
1F
100
AcDbEntity
  8
実形
370
    15
100
AcDbLine
 10
1150.873109729005
 20
1487.929107175189
 30
0.0
 11
1150.873109729005
 21
1487.929107175189
 31
0.0
  0
ARC
  5
20F0
330
1F
100
AcDbEntity
  8
実形
370
    15
100
AcDbCircle
 10
1160.873109729005
 20
1487.929107175189
 30
0.0
 40
10.0
100
AcDbArc
 50
90.0
 51
180.0
  0
LINE
  5
20F1
330
1F
100
AcDbEntity
  8
実形
370
    15
100
AcDbLine
 10
1160.873109729005
 20
1477.929107175189
 30
0.0
 11
1200.873109729005
 21
1477.929107175189
 31
0.0
  0
ARC
  5
20F2
330
1F
100
AcDbEntity
  8
実形
370
    15
100
AcDbCircle
 10
1160.873109729005
 20
1487.929107175189
 30
0.0
 40
10.0
100
AcDbArc
 50
180.0
 51
270.0
  0
LINE
  5
20F3
330
1F
100
AcDbEntity
  8
実形
370
    15
100
AcDbLine
 10
1210.873109729005
 20
1487.929107175189
 30
0.0
 11
1210.873109729005
 21
1487.929107175189
 31
0.0
  0
ARC
  5
20F4
330
1F
100
AcDbEntity
  8
実形
370
    15
100
AcDbCircle
 10
1200.873109729005
 20
1487.929107175189
 30
0.0
 40
10.0
100
AcDbArc
 50
270.0
 51
0.0
  0
ARC
  5
20F5
330
1F
100
AcDbEntity
  8
実形
370
    15
100
AcDbCircle
 10
1200.873109729005
 20
1487.929107175189
 30
0.0
 40
10.0
100
AcDbArc
 50
0.0
 51
90.0
  0
LINE
  5
20F6
330
1F
100
AcDbEntity
  8
実形
370
    15
100
AcDbLine
 10
1234.373109729005
 20
1499.154079335511
 30
0.0
 11
1234.373109729005
 21
1490.429107175189
 31
0.0
  0
LINE
  5
20F7
330
1F
100
AcDbEntity
  8
実形
370
    15
100
AcDbLine
 10
1224.648137568683
 20
1489.429107175189
 30
0.0
 11
1233.373109729005
 21
1489.429107175189
 31
0.0
  0
ARC
  5
20F8
330
1F
100
AcDbEntity
  8
実形
370
    15
100
AcDbCircle
 10
1233.373109729005
 20
1490.429107175189
 30
0.0
 40
1.0
100
AcDbArc
 50
270.0
 51
0.0
  0
LINE
  5
20F9
330
1F
100
AcDbEntity
  8
実形
370
    15
100
AcDbLine
 10
1238.373109729005
 20
1489.429107175189
 30
0.0
 11
1247.098081889327
 21
1489.429107175189
 31
0.0
  0
LINE
  5
20FA
330
1F
100
AcDbEntity
  8
実形
370
    15
100
AcDbLine
 10
1237.373109729005
 20
1499.154079335511
 30
0.0
 11
1237.373109729005
 21
1490.429107175189
 31
0.0
  0
ARC
  5
20FB
330
1F
100
AcDbEntity
  8
実形
370
    15
100
AcDbCircle
 10
1238.373109729005
 20
1490.429107175189
 30
0.0
 40
1.0
100
AcDbArc
 50
180.0
 51
270.0
  0
LINE
  5
20FC
330
1F
100
AcDbEntity
  8
実形
370
    15
100
AcDbLine
 10
1238.373109729005
 20
1486.429107175189
 30
0.0
 11
1247.098081889326
 21
1486.429107175189
 31
0.0
  0
LINE
  5
20FD
330
1F
100
AcDbEntity
  8
実形
370
    15
100
AcDbLine
 10
1237.373109729005
 20
1485.429107175189
 30
0.0
 11
1237.373109729005
 21
1476.704135014867
 31
0.0
  0
ARC
  5
20FE
330
1F
100
AcDbEntity
  8
実形
370
    15
100
AcDbCircle
 10
1238.373109729005
 20
1485.429107175189
 30
0.0
 40
1.0
100
AcDbArc
 50
90.0
 51
180.0
  0
LINE
  5
20FF
330
1F
100
AcDbEntity
  8
実形
370
    15
100
AcDbLine
 10
1234.373109729005
 20
1485.429107175189
 30
0.0
 11
1234.373109729005
 21
1476.704135014867
 31
0.0
  0
LINE
  5
2100
330
1F
100
AcDbEntity
  8
実形
370
    15
100
AcDbLine
 10
1224.648137568683
 20
1486.429107175189
 30
0.0
 11
1233.373109729005
 21
1486.429107175189
 31
0.0
  0
ARC
  5
2101
330
1F
100
AcDbEntity
  8
実形
370
    15
100
AcDbCircle
 10
1233.373109729005
 20
1485.429107175189
 30
0.0
 40
1.0
100
AcDbArc
 50
0.0
 51
90.0
  0
ARC
  5
2102
330
1F
100
AcDbEntity
  8
実形
370
    15
100
AcDbCircle
 10
1235.873109729005
 20
1487.929107175189
 30
0.0
 40
12.5
100
AcDbArc
 50
102.5558577985812
 51
167.4441422014188
  0
ARC
  5
2103
330
1F
100
AcDbEntity
  8
実形
370
    15
100
AcDbCircle
 10
1233.373109729005
 20
1499.154079335511
 30
0.0
 40
1.0
100
AcDbArc
 50
0.0
 51
102.5558577985812
  0
ARC
  5
2104
330
1F
100
AcDbEntity
  8
実形
370
    15
100
AcDbCircle
 10
1224.648137568683
 20
1490.429107175189
 30
0.0
 40
1.0
100
AcDbArc
 50
167.4441422014188
 51
270.0
  0
ARC
  5
2105
330
1F
100
AcDbEntity
  8
実形
370
    15
100
AcDbCircle
 10
1235.873109729005
 20
1487.929107175189
 30
0.0
 40
12.5
100
AcDbArc
 50
192.5558577985812
 51
257.4441422014188
  0
ARC
  5
2106
330
1F
100
AcDbEntity
  8
実形
370
    15
100
AcDbCircle
 10
1224.648137568683
 20
1485.429107175189
 30
0.0
 40
1.0
100
AcDbArc
 50
90.0
 51
192.5558577985812
  0
ARC
  5
2107
330
1F
100
AcDbEntity
  8
実形
370
    15
100
AcDbCircle
 10
1233.373109729005
 20
1476.704135014867
 30
0.0
 40
1.0
100
AcDbArc
 50
257.4441422014188
 51
0.0
  0
ARC
  5
2108
330
1F
100
AcDbEntity
  8
実形
370
    15
100
AcDbCircle
 10
1235.873109729005
 20
1487.929107175189
 30
0.0
 40
12.5
100
AcDbArc
 50
282.5558577985812
 51
347.4441422014188
  0
ARC
  5
2109
330
1F
100
AcDbEntity
  8
実形
370
    15
100
AcDbCircle
 10
1238.373109729005
 20
1476.704135014867
 30
0.0
 40
1.0
100
AcDbArc
 50
180.0
 51
282.5558577985812
  0
ARC
  5
210A
330
1F
100
AcDbEntity
  8
実形
370
    15
100
AcDbCircle
 10
1247.098081889326
 20
1485.429107175188
 30
0.0
 40
1.0
100
AcDbArc
 50
347.4441422014188
 51
90.0
  0
ARC
  5
210B
330
1F
100
AcDbEntity
  8
実形
370
    15
100
AcDbCircle
 10
1235.873109729005
 20
1487.929107175189
 30
0.0
 40
12.5
100
AcDbArc
 50
12.55585779858122
 51
77.44414220141877
  0
ARC
  5
210C
330
1F
100
AcDbEntity
  8
実形
370
    15
100
AcDbCircle
 10
1247.098081889327
 20
1490.429107175188
 30
0.0
 40
1.0
100
AcDbArc
 50
270.0
 51
12.55585779858122
  0
ARC
  5
210D
330
1F
100
AcDbEntity
  8
実形
370
    15
100
AcDbCircle
 10
1238.373109729005
 20
1499.154079335511
 30
0.0
 40
1.0
100
AcDbArc
 50
77.44414220141877
 51
180.0
  0
LINE
  5
210E
330
1F
100
AcDbEntity
  8
0
100
AcDbLine
 10
1170.373109729005
 20
1458.429107175189
 30
0.0
 11
1301.373109729005
 21
1458.429107175189
 31
0.0
  0
LINE
  5
2188
330
1F
100
AcDbEntity
  8
0
100
AcDbLine
 10
1735.330255689957
 20
1516.929107175189
 30
0.0
 11
1831.330255689956
 21
1516.929107175189
 31
0.0
  0
LINE
  5
2189
330
1F
100
AcDbEntity
  8
0
100
AcDbLine
 10
1834.330255689956
 20
1513.929107175189
 30
0.0
 11
1834.330255689957
 21
1461.929107175189
 31
0.0
  0
LINE
  5
218A
330
1F
100
AcDbEntity
  8
0
100
AcDbLine
 10
1831.330255689957
 20
1458.929107175189
 30
0.0
 11
1735.330255689957
 21
1458.929107175189
 31
0.0
  0
LINE
  5
218B
330
1F
100
AcDbEntity
  8
0
 48
0.5
100
AcDbLine
 10
1834.330255689956
 20
1471.329107175189
 30
0.0
 11
1854.330255689956
 21
1471.329107175189
 31
0.0
  0
LINE
  5
218C
330
1F
100
AcDbEntity
  8
0
 48
0.5
100
AcDbLine
 10
1834.330255689956
 20
1504.529107175189
 30
0.0
 11
1854.330255689956
 21
1504.529107175189
 31
0.0
  0
LINE
  5
218D
330
1F
100
AcDbEntity
  8
0
100
AcDbLine
 10
1854.330255689956
 20
1504.529107175189
 30
0.0
 11
1854.330255689956
 21
1471.329107175189
 31
0.0
  0
ARC
  5
218E
330
1F
100
AcDbEntity
  8
0
 48
0.5
100
AcDbCircle
 10
1831.330255689957
 20
1461.929107175189
 30
0.0
 40
3.0
100
AcDbArc
 50
270.0
 51
0.0
  0
DIMENSION
  5
218F
330
1F
100
AcDbEntity
  8
0
100
AcDbDimension
  2
*D37
 10
1735.330255689957
 20
1612.471489816609
 30
0.0
 11
1698.854945142125
 21
1615.732987747609
 31
0.0
 70
   160
 71
     5
 42
15.0
  3
ISO-25
100
AcDbAlignedDimension
 13
1720.330255689956
 23
1509.929107175189
 33
0.0
 14
1735.330255689957
 24
1509.929107175189
 34
0.0
100
AcDbRotatedDimension
1001
ACAD
1000
DSTYLE
1002
{
1070
   279
1070
     1
1002
}
  0
DIMENSION
  5
2190
330
1F
100
AcDbEntity
  8
0
100
AcDbDimension
  2
*D38
 10
1834.330255689956
 20
1612.471489816609
 30
0.0
 11
1784.830255689956
 21
1631.221489816609
 31
0.0
 70
    32
 71
     5
 42
99.0
  3
ISO-25
100
AcDbAlignedDimension
 13
1735.330255689957
 23
1509.929107175189
 33
0.0
 14
1834.330255689956
 24
1509.929107175189
 34
0.0
100
AcDbRotatedDimension
1001
ACAD
1000
DSTYLE
1002
{
1070
   279
1070
     1
1002
}
  0
DIMENSION
  5
2191
330
1F
100
AcDbEntity
  8
実形
100
AcDbDimension
  2
*D39
 10
1854.330255689956
 20
1612.591462147595
 30
0.0
 11
1865.74717282827
 21
1613.579729604963
 31
0.0
 70
   160
 71
     5
 42
20.0
  3
ISO-25
100
AcDbAlignedDimension
 13
1834.330255689956
 23
1509.929107175189
 33
0.0
 14
1854.330255689956
 24
1509.929107175189
 34
0.0
100
AcDbRotatedDimension
1001
ACAD
1000
DSTYLE
1002
{
1070
   279
1070
     1
1002
}
  0
DIMENSION
  5
2192
330
1F
100
AcDbEntity
  8
実形
100
AcDbDimension
  2
*D40
 10
1948.27780049108
 20
1471.329107175189
 30
0.0
 11
1974.979667584135
 21
1487.006166872498
 31
0.0
 70
   160
 71
     5
 42
33.19999999999982
  3
ISO-25
100
AcDbAlignedDimension
 13
1854.330255689956
 23
1504.529107175189
 33
0.0
 14
1854.330255689956
 24
1471.329107175189
 34
0.0
 50
90.0
100
AcDbRotatedDimension
1001
ACAD
1000
DSTYLE
1002
{
1070
   175
1070
     0
1070
   172
1070
     1
1070
    75
1070
     0
1070
   279
1070
     2
1002
}
  0
ARC
  5
21F3
330
1F
100
AcDbEntity
  8
0
100
AcDbCircle
 10
1831.330255689956
 20
1513.929107175189
 30
0.0
 40
3.0
100
AcDbArc
 50
0.0000000000004962
 51
90.0000000000001
  0
LINE
  5
221D
330
1F
100
AcDbEntity
  8
補助
 62
     0
100
AcDbLine
 10
2784.0
 20
1959.000000000001
 30
0.0
 11
2019.387286519283
 21
1959.000000000002
 31
0.0
  0
LINE
  5
221E
330
1F
100
AcDbEntity
  8
補助
 62
     0
100
AcDbLine
 10
2784.0
 20
1894.000000000001
 30
0.0
 11
2019.387286519283
 21
1894.000000000001
 31
0.0
  0
LINE
  5
221F
330
1F
100
AcDbEntity
  8
補助
 62
     0
100
AcDbLine
 10
2784.0
 20
1829.000000000001
 30
0.0
 11
2019.387286519283
 21
1829.000000000001
 31
0.0
  0
LINE
  5
2220
330
1F
100
AcDbEntity
  8
補助
 62
     0
100
AcDbLine
 10
2784.0
 20
1764.000000000001
 30
0.0
 11
2019.387286519283
 21
1764.000000000001
 31
0.0
  0
LINE
  5
2221
330
1F
100
AcDbEntity
  8
補助
 62
     0
100
AcDbLine
 10
2202.547653420927
 20
1764.000000000001
 30
0.0
 11
2202.547653420927
 21
2024.000000000002
 31
0.0
  0
LINE
  5
2222
330
1F
100
AcDbEntity
  8
補助
 62
     0
100
AcDbLine
 10
2019.387286519283
 20
1764.000000000001
 30
0.0
 11
2019.387286519283
 21
2024.000000000002
 31
0.0
  0
TEXT
  5
2223
330
1F
100
AcDbEntity
  8
補助
 62
     0
100
AcDbText
 10
2050.295698850121
 20
1976.328571428573
 30
0.0
 40
30.0
  1
部品名
  7
明朝
 72
     4
 11
2116.124270278692
 21
1991.500000000002
 31
0.0
100
AcDbText
  0
TEXT
  5
2224
330
1F
100
AcDbEntity
  8
補助
 62
     0
100
AcDbText
 10
2627.614285714286
 20
1976.07142857143
 30
0.0
 40
30.0
  1
厚さ
  7
明朝
 72
     4
 11
2671.5
 21
1991.500000000002
 31
0.0
100
AcDbText
  0
LINE
  5
2225
330
1F
100
AcDbEntity
  8
補助
 62
     0
100
AcDbLine
 10
2559.000000000001
 20
1764.000000000001
 30
0.0
 11
2559.0
 21
2024.000000000002
 31
0.0
  0
TEXT
  5
2226
330
1F
100
AcDbEntity
  8
補助
 62
     0
100
AcDbText
 10
2338.490869919937
 20
1975.947979478156
 30
0.0
 40
30.0
  1
材質
  7
明朝
 72
     4
 11
2382.376584205651
 21
1991.119408049584
 31
0.0
100
AcDbText
  0
TEXT
  5
2227
330
1F
100
AcDbEntity
  8
実形
 62
     0
100
AcDbText
 10
2048.227810657788
 20
1910.557142857144
 30
0.0
 40
30.0
  1
ボウル
  7
明朝
 72
     4
 11
2114.056382086359
 21
1926.500000000001
 31
0.0
100
AcDbText
  0
TEXT
  5
2228
330
1F
100
AcDbEntity
  8
実形
 62
     0
100
AcDbText
 10
2594.700000000001
 20
1911.842857142858
 30
0.0
 40
30.0
  1
0.7ｍｍ
  7
明朝
 72
     4
 11
2671.500000000001
 21
1926.500000000001
 31
0.0
100
AcDbText
  0
TEXT
  5
2229
330
1F
100
AcDbEntity
  8
実形
 62
     0
100
AcDbText
 10
2261.900666790539
 20
1910.728571428572
 30
0.0
 40
30.0
  1
SUS304（BA)
  7
明朝
 72
     4
 11
2382.586381076253
 21
1926.500000000001
 31
0.0
100
AcDbText
  0
TEXT
  5
222A
330
1F
100
AcDbEntity
  8
実形
 62
     0
100
AcDbText
 10
2070.170667800645
 20
1846.242857142858
 30
0.0
 40
30.0
  1
天板
  7
明朝
 72
     4
 11
2114.056382086359
 21
1861.500000000001
 31
0.0
100
AcDbText
  0
TEXT
  5
222B
330
1F
100
AcDbEntity
  8
実形
 62
     0
100
AcDbText
 10
2594.700000000001
 20
1846.842857142858
 30
0.0
 40
30.0
  1
0.8ｍｍ
  7
明朝
 72
     4
 11
2671.500000000001
 21
1861.500000000001
 31
0.0
100
AcDbText
  0
TEXT
  5
222C
330
1F
100
AcDbEntity
  8
実形
 62
     0
100
AcDbText
 10
2218.959726250723
 20
1848.357142857144
 30
0.0
 40
25.0
  1
SUS304（市松ｴﾝﾎﾞｽ）
  7
明朝
 72
     4
 11
2392.674011965008
 21
1861.500000000001
 31
0.0
100
AcDbText
  0
TEXT
  5
222D
330
1F
100
AcDbEntity
  8
実形
 62
     0
100
AcDbText
 10
2026.284953514931
 20
1780.557142857144
 30
0.0
 40
30.0
  1
ポケット
  7
明朝
 72
     4
 11
2114.056382086359
 21
1796.500000000001
 31
0.0
100
AcDbText
  0
TEXT
  5
222E
330
1F
100
AcDbEntity
  8
実形
 62
     0
100
AcDbText
 10
2294.814952504824
 20
1781.242857142858
 30
0.0
 40
30.0
  1
樹脂(PP)
  7
明朝
 72
     4
 11
2382.586381076253
 21
1796.500000000001
 31
0.0
100
AcDbText
  0
TEXT
  5
222F
330
1F
100
AcDbEntity
  8
実形
 62
     0
100
AcDbText
 10
2616.642857142859
 20
1781.842857142858
 30
0.0
 40
30.0
  1
3ｍｍ
  7
明朝
 72
     4
 11
2671.500000000001
 21
1796.500000000001
 31
0.0
100
AcDbText
  0
LINE
  5
2230
330
1F
100
AcDbEntity
  8
補助
100
AcDbLine
 10
109.0
 20
4.0
 30
0.0
 11
109.0
 21
2024.0
 31
0.0
  0
VIEWPORT
  5
2E
102
{ACAD_XDICTIONARY
360
2263
102
}
330
1B
100
AcDbEntity
 67
     1
  8
0
100
AcDbViewport
 10
144.7270812988281
 20
101.2295806407928
 30
0.0
 40
411.6736216682419
 41
222.1517806396485
 68
     1
 69
     1
 12
144.7270812988281
 22
101.2295806407928
 13
0.0
 23
0.0
 14
10.0
 24
10.0
 15
10.0
 25
10.0
 16
0.0
 26
0.0
 36
1.0
 17
0.0
 27
0.0
 37
0.0
 42
50.0
 43
0.0
 44
0.0
 45
222.1517806396485
 50
0.0
 51
0.0
 72
   100
 90
    32800
  1

281
     0
 71
     1
 74
     0
110
0.0
120
0.0
130
0.0
111
1.0
121
0.0
131
0.0
112
0.0
122
1.0
132
0.0
 79
     0
146
0.0
  0
VIEWPORT
  5
30
102
{ACAD_XDICTIONARY
360
2265
102
}
330
1B
100
AcDbEntity
 67
     1
  8
0
100
AcDbViewport
 10
139.2237563133239
 20
101.2295821905136
 30
0.0
 40
222.7580101013184
 41
161.9673315048218
 68
     2
 69
     2
 12
210.0
 22
148.5
 13
0.0
 23
0.0
 14
10.0
 24
10.0
 15
10.0
 25
10.0
 16
0.0
 26
0.0
 36
1.0
 17
0.0
 27
0.0
 37
0.0
 42
50.0
 43
0.0
 44
0.0
 45
309.0686705647124
 50
0.0
 51
0.0
 72
   100
 90
    32864
  1

281
     0
 71
     1
 74
     0
110
0.0
120
0.0
130
0.0
111
1.0
121
0.0
131
0.0
112
0.0
122
1.0
132
0.0
 79
     0
146
0.0
  0
ENDSEC
  0
SECTION
  2
OBJECTS
  0
DICTIONARY
  5
C
330
0
100
AcDbDictionary
281
     1
  3
ACAD_COLOR
350
212C
  3
ACAD_GROUP
350
D
  3
ACAD_LAYOUT
350
1A
  3
ACAD_MATERIAL
350
212B
  3
ACAD_MLINESTYLE
350
17
  3
ACAD_PLOTSETTINGS
350
19
  3
ACAD_PLOTSTYLENAME
350
E
  3
ACAD_TABLESTYLE
350
212D
  3
AcadDim
350
5B1
  3
ACDBHEADERROUNDTRIPXREC
350
225C
  3
AcDbVariableDictionary
350
96D
  0
DICTIONARY
  5
2177
330
2
100
AcDbDictionary
280
     1
281
     1
  3
ACAD_LAYERFILTERS
360
2201
  3
ACAD_LAYERSTATES
360
2178
  3
ACLYDICTIONARY
360
2200
  0
DICTIONARY
  5
21F4
330
1F
100
AcDbDictionary
280
     1
281
     1
  3
ACAD_SORTENTS
360
21F5
  0
DICTIONARY
  5
2263
330
2E
100
AcDbDictionary
280
     1
281
     1
  3
ACAD_XREC_ROUNDTRIP
360
2264
  0
DICTIONARY
  5
2265
330
30
100
AcDbDictionary
280
     1
281
     1
  3
ACAD_XREC_ROUNDTRIP
360
2266
  0
DICTIONARY
  5
212C
102
{ACAD_REACTORS
330
C
102
}
330
C
100
AcDbDictionary
281
     1
  0
DICTIONARY
  5
D
102
{ACAD_REACTORS
330
C
102
}
330
C
100
AcDbDictionary
281
     1
  0
DICTIONARY
  5
1A
102
{ACAD_REACTORS
330
C
102
}
330
C
100
AcDbDictionary
281
     1
  3
Model
350
22
  3
ﾚｲｱｳﾄ1
350
1E
  3
ﾚｲｱｳﾄ2
350
26
  0
DICTIONARY
  5
212B
102
{ACAD_REACTORS
330
C
102
}
330
C
100
AcDbDictionary
281
     1
  0
DICTIONARY
  5
17
102
{ACAD_REACTORS
330
C
102
}
330
C
100
AcDbDictionary
281
     1
  3
Standard
350
18
  0
DICTIONARY
  5
19
102
{ACAD_REACTORS
330
C
102
}
330
C
100
AcDbDictionary
281
     1
  0
ACDBDICTIONARYWDFLT
  5
E
102
{ACAD_REACTORS
330
C
102
}
330
C
100
AcDbDictionary
281
     1
  3
Normal
350
F
100
AcDbDictionaryWithDefault
340
F
  0
DICTIONARY
  5
212D
102
{ACAD_REACTORS
330
C
102
}
330
C
100
AcDbDictionary
281
     1
  3
Standard
350
212E
  0
XRECORD
  5
5B1
102
{ACAD_REACTORS
330
C
102
}
330
C
100
AcDbXrecord
280
     1
 90
   990106
  3

 60
     0
 61
     0
 62
     1
 63
     3
 64
     0
 65
     0
 66
     0
 67
     3
 68
     1
 69
     0
 70
     0
 71
     0
 72
     0
 40
5.637859010809637
170
     0
340
0
  0
DICTIONARY
  5
225C
102
{ACAD_REACTORS
330
C
102
}
330
C
100
AcDbDictionary
281
     1
  0
DICTIONARY
  5
96D
102
{ACAD_REACTORS
330
C
102
}
330
C
100
AcDbDictionary
281
     1
  3
CTABLESTYLE
350
213D
  3
DIMASSOC
350
2259
  3
PROJECTNAME
350
225A
  3
SORTENTS
350
96E
  0
DICTIONARY
  5
2201
102
{ACAD_REACTORS
330
2177
102
}
330
2177
100
AcDbDictionary
281
     1
  0
DICTIONARY
  5
2178
102
{ACAD_REACTORS
330
2177
102
}
330
2177
100
AcDbDictionary
281
     1
  0
DICTIONARY
  5
2200
102
{ACAD_REACTORS
330
2177
102
}
330
2177
100
AcDbDictionary
281
     1
1001
ACAD
1000
<All
  0
SORTENTSTABLE
  5
21F5
102
{ACAD_REACTORS
330
21F4
102
}
330
21F4
100
AcDbSortentsTable
330
1F
331
1B21
  5
1B22
331
146C
  5
146D
331
20EB
  5
20EC
331
20F3
  5
20F4
331
20FB
  5
20FC
331
2220
  5
2221
331
218A
  5
218C
331
2228
  5
2229
331
DC1
  5
DC2
331
C3A
  5
C3B
331
4AC
  5
4AE
331
270
  5
27E
331
C42
  5
C43
331
5FB
  5
5FC
331
DF1
  5
DF2
331
603
  5
A29
331
55C
  5
56A
331
56C
  5
5A9
331
1B29
  5
1B2A
331
1484
  5
1485
331
1B31
  5
1B34
331
148C
  5
148D
331
1B39
  5
1B3A
331
1B02
  5
1B03
331
1494
  5
1495
331
1B41
  5
1B42
331
1B0A
  5
1B0B
331
F95
  5
FA5
331
149C
  5
14A7
331
2103
  5
2104
331
2192
  5
221D
331
2230
  5
A8
331
210B
  5
210C
331
20DC
  5
20DD
331
20E4
  5
20E5
331
A9
  5
AA
331
D5A
  5
D5B
331
298
  5
2A6
331
495
  5
496
331
2F7
  5
304
331
49D
  5
49E
331
D72
  5
D73
331
4A5
  5
4A7
331
1B49
  5
1B4A
331
1B12
  5
1B13
331
FA5
  5
FA6
331
1B1A
  5
1B1B
331
1B22
  5
1B23
331
146D
  5
146E
331
20EC
  5
20ED
331
20F4
  5
20F5
331
20FC
  5
20FD
331
2221
  5
2222
331
218B
  5
218D
331
2229
  5
222A
331
DC2
  5
DEA
331
C3B
  5
C3C
331
5F4
  5
5F5
331
DEA
  5
DEC
331
C43
  5
C44
331
5FC
  5
5FD
331
DF2
  5
DFA
331
1B2A
  5
1B2B
331
1485
  5
1486
331
1AFB
  5
1AFC
331
148D
  5
148E
331
1B3A
  5
1B3B
331
1B03
  5
1B04
331
1495
  5
1496
331
1B42
  5
1B43
331
1B0B
  5
1B0C
331
2104
  5
2105
331
210C
  5
210D
331
20DD
  5
20DE
331
20E5
  5
20E6
331
AA
  5
AB
331
D5B
  5
D5C
331
407
  5
40D
331
496
  5
49A
331
49E
  5
4A3
331
D73
  5
D74
331
A2C
  5
A2D
331
1B4A
  5
1B4B
331
1B13
  5
1B14
331
FA6
  5
1456
331
1B52
  5
20DA
331
1B1B
  5
1B1C
331
1456
  5
1457
331
1714
  5
1AFB
331
145E
  5
145F
331
1B23
  5
1B24
331
146E
  5
146F
331
20ED
  5
20EE
331
20F5
  5
20F6
331
2222
  5
2223
331
20FD
  5
20FE
331
218C
  5
218E
331
222A
  5
222B
331
C3C
  5
C3D
331
5F5
  5
5F6
331
4AE
  5
532
331
C44
  5
C48
331
5FD
  5
5FE
331
1B2B
  5
1B2D
331
1486
  5
1487
331
1AFC
  5
1AFD
331
148E
  5
148F
331
1B3B
  5
1B3C
331
1496
  5
1497
331
1B04
  5
1B05
331
1B43
  5
1B44
331
1B0C
  5
1B0E
331
2105
  5
2106
331
210D
  5
210E
331
20DE
  5
20DF
331
20E6
  5
20E7
331
21F3
  5
218B
331
AB
  5
AD
331
D5C
  5
D5D
331
48F
  5
492
331
D6C
  5
D6E
331
D74
  5
DC1
331
A2D
  5
C3A
331
4A7
  5
4A9
331
1B4B
  5
1B4C
331
1B14
  5
1B15
331
1B1C
  5
1B1D
331
1457
  5
145E
331
145F
  5
1469
331
1B24
  5
1B25
331
146F
  5
1480
331
9C
  5
9C
331
20EE
  5
20EF
331
20F6
  5
20F7
331
20FE
  5
20FF
331
2223
  5
2224
331
218D
  5
218F
331
222B
  5
222C
331
C3D
  5
C42
331
5F6
  5
5F7
331
DEC
  5
DED
331
5FE
  5
5FF
331
28B
  5
298
331
D55
  5
D56
331
1487
  5
1488
331
1B34
  5
1B35
331
1AFD
  5
1AFE
331
148F
  5
1490
331
1B3C
  5
1B3D
331
1B05
  5
1B06
331
1497
  5
1498
331
1B44
  5
1B45
331
2106
  5
2107
331
210E
  5
2188
331
20DF
  5
20E0
331
20E7
  5
20E8
331
D5D
  5
D5E
331
2B3
  5
2DC
331
1B4C
  5
1B4F
331
1B15
  5
1B16
331
14A7
  5
1714
331
1B1D
  5
1B1E
331
1B25
  5
1B27
331
A5
  5
A5
331
20EF
  5
20F0
331
20F7
  5
20F8
331
20FF
  5
2100
331
2224
  5
2225
331
218E
  5
2190
331
222C
  5
222D
331
5F7
  5
5F8
331
DED
  5
DEE
331
5FF
  5
600
331
D56
  5
D59
331
1480
  5
1481
331
1B2D
  5
1B2E
331
1488
  5
1489
331
1B35
  5
1B36
331
1AFE
  5
1AFF
331
1490
  5
1491
331
1B3D
  5
1B3E
331
1B06
  5
1B09
331
1498
  5
1499
331
1B45
  5
1B46
331
1B0E
  5
1B10
331
2107
  5
2108
331
20E0
  5
20E1
331
AD
  5
270
331
D5E
  5
D67
331
5D0
  5
5D2
331
D6E
  5
D6F
331
5D8
  5
5F4
331
1B16
  5
1B17
331
1B1E
  5
1B20
331
1469
  5
146B
331
20E8
  5
20E9
331
20F0
  5
20F1
331
20F8
  5
20F9
331
221D
  5
221E
331
2225
  5
2226
331
218F
  5
2191
331
222D
  5
222E
331
4A9
  5
4AA
331
5F8
  5
5F9
331
2DC
  5
2F7
331
DEE
  5
DEF
331
600
  5
601
331
DFA
  5
F95
331
1481
  5
1482
331
1B2E
  5
1B2F
331
1489
  5
148A
331
1B36
  5
1B37
331
1AFF
  5
1B00
331
1491
  5
1492
331
1B3E
  5
1B3F
331
1499
  5
149A
331
1B46
  5
1B47
331
2100
  5
2101
331
2108
  5
2109
331
20E1
  5
20E2
331
5A9
  5
5D0
331
492
  5
493
331
D67
  5
D6C
331
49A
  5
49B
331
D6F
  5
D70
331
304
  5
31C
331
1B17
  5
1B18
331
1B27
  5
1B28
331
20E9
  5
20EA
331
20F1
  5
20F2
331
20F9
  5
20FA
331
221E
  5
221F
331
2188
  5
2189
331
2226
  5
2227
331
222E
  5
222F
331
4AA
  5
4AB
331
5F9
  5
5FA
331
532
  5
55C
331
31C
  5
407
331
DEF
  5
DF0
331
C48
  5
D50
331
27E
  5
28B
331
601
  5
602
331
D50
  5
D55
331
56A
  5
56C
331
1482
  5
1483
331
1B2F
  5
1B30
331
148A
  5
148B
331
1B37
  5
1B38
331
1B00
  5
1B01
331
1492
  5
1493
331
1B3F
  5
1B40
331
149A
  5
149B
331
1B47
  5
1B48
331
2101
  5
2102
331
2190
  5
2192
331
2109
  5
210A
331
20DA
  5
20DB
331
20E2
  5
20E3
331
493
  5
495
331
5D2
  5
5D8
331
49B
  5
49D
331
2A6
  5
2B3
331
D70
  5
D71
331
A29
  5
A2C
331
4A3
  5
4A4
331
1B10
  5
1B11
331
1B4F
  5
1B50
331
1B18
  5
1B19
331
1B20
  5
1B21
331
146B
  5
146C
331
A0
  5
A0
331
20EA
  5
20EB
331
20F2
  5
20F3
331
20FA
  5
20FB
331
221F
  5
2220
331
2189
  5
218A
331
2227
  5
2228
331
222F
  5
2230
331
4AB
  5
4AC
331
464
  5
48F
331
5FA
  5
5FB
331
DF0
  5
DF1
331
602
  5
603
331
1B28
  5
1B29
331
1483
  5
1484
331
1B30
  5
1B31
331
148B
  5
148C
331
1B38
  5
1B39
331
1B01
  5
1B02
331
1493
  5
1494
331
1B40
  5
1B41
331
1B09
  5
1B0A
331
149B
  5
149C
331
2102
  5
2103
331
2191
  5
21F3
331
210A
  5
210B
331
20DB
  5
20DC
331
20E3
  5
20E4
331
A8
  5
A9
331
D59
  5
D5A
331
40D
  5
42D
331
42D
  5
464
331
D71
  5
D72
331
4A4
  5
4A5
331
1B48
  5
1B49
331
1B11
  5
1B12
331
1B50
  5
1B52
331
1B19
  5
1B1A
  0
XRECORD
  5
2264
102
{ACAD_REACTORS
330
2263
102
}
330
2263
100
AcDbXrecord
280
     1
102
SHADEPLOT
 70
     0
  0
XRECORD
  5
2266
102
{ACAD_REACTORS
330
2265
102
}
330
2265
100
AcDbXrecord
280
     1
102
SHADEPLOT
 70
     0
  0
LAYOUT
  5
22
102
{ACAD_XDICTIONARY
360
225F
102
}
102
{ACAD_REACTORS
330
1A
102
}
330
1A
100
AcDbPlotSettings
  1

  2
EPSON PM-800C
  4
A4
  6

 40
3.757083177566528
 41
14.7637300491333
 42
3.757080078125
 43
3.757080078125
 44
209.9733276367187
 45
296.9683227539062
 46
0.0
 47
0.0
 48
0.0
 49
0.0
140
0.0
141
0.0
142
1.0
143
10.0
 70
 11952
 72
     1
 73
     1
 74
     2
  7

 75
    20
147
0.1
148
0.0
149
0.0
100
AcDbLayout
  1
Model
 70
     1
 71
     0
 10
0.0
 20
0.0
 11
12.0
 21
9.0
 12
0.0
 22
0.0
 32
0.0
 14
0.0
 24
0.0
 34
0.0
 15
0.0
 25
0.0
 35
0.0
146
0.0
 13
0.0
 23
0.0
 33
0.0
 16
1.0
 26
0.0
 36
0.0
 17
0.0
 27
1.0
 37
0.0
 76
     0
330
1F
  0
LAYOUT
  5
1E
102
{ACAD_XDICTIONARY
360
225D
102
}
102
{ACAD_REACTORS
330
1A
102
}
330
1A
100
AcDbPlotSettings
  1

  2
EPSON PM-800C
  4
A4
  6

 40
3.757083177566528
 41
14.7637300491333
 42
3.757080078125
 43
3.757080078125
 44
209.9733276367187
 45
296.9683227539062
 46
0.0
 47
0.0
 48
0.0
 49
0.0
140
0.0
141
0.0
142
1.0
143
1.0
 70
   688
 72
     1
 73
     1
 74
     5
  7

 75
    16
147
1.0
148
0.0
149
0.0
100
AcDbLayout
  1
ﾚｲｱｳﾄ1
 70
     1
 71
     1
 10
-3.757080078125
 20
-3.757083177566528
 11
293.2112426757813
 21
206.2162444591522
 12
0.0
 22
0.0
 32
0.0
 14
27.8447512626648
 24
20.24591643810271
 34
0.0
 15
250.6027613639831
 25
182.2132479429245
 35
0.0
146
0.0
 13
0.0
 23
0.0
 33
0.0
 16
1.0
 26
0.0
 36
0.0
 17
0.0
 27
1.0
 37
0.0
 76
     0
330
1B
331
2E
  0
LAYOUT
  5
26
102
{ACAD_XDICTIONARY
360
2261
102
}
102
{ACAD_REACTORS
330
1A
102
}
330
1A
100
AcDbPlotSettings
  1

  2
EPSON PM-800C
  4

  6

 40
0.0
 41
0.0
 42
0.0
 43
0.0
 44
0.0
 45
0.0
 46
0.0
 47
0.0
 48
0.0
 49
0.0
140
0.0
141
0.0
142
1.0
143
1.0
 70
   688
 72
     0
 73
     0
 74
     5
  7

 75
    16
147
1.0
148
0.0
149
0.0
100
AcDbLayout
  1
ﾚｲｱｳﾄ2
 70
     1
 71
     2
 10
0.0
 20
0.0
 11
12.0
 21
9.0
 12
0.0
 22
0.0
 32
0.0
 14
0.0
 24
0.0
 34
0.0
 15
0.0
 25
0.0
 35
0.0
146
0.0
 13
0.0
 23
0.0
 33
0.0
 16
1.0
 26
0.0
 36
0.0
 17
0.0
 27
1.0
 37
0.0
 76
     0
330
23
  0
MLINESTYLE
  5
18
102
{ACAD_REACTORS
330
17
102
}
330
17
100
AcDbMlineStyle
  2
STANDARD
 70
     0
  3

 62
   256
 51
90.0
 52
90.0
 71
     2
 49
0.5
 62
   256
  6
BYLAYER
 49
-0.5
 62
   256
  6
BYLAYER
  0
ACDBPLACEHOLDER
  5
F
102
{ACAD_REACTORS
330
E
102
}
330
E
  0
TABLESTYLE
  5
212E
102
{ACAD_REACTORS
330
212D
102
}
330
212D
100
AcDbTableStyle
  3
Standard
 70
     0
 71
     0
 40
1.5
 41
1.5
280
     0
281
     0
  7
Standard
140
4.5
170
     2
 62
     0
 63
     7
283
     0
274
    -2
284
     1
 64
     0
275
    -2
285
     1
 65
     0
276
    -2
286
     1
 66
     0
277
    -2
287
     1
 67
     0
278
    -2
288
     1
 68
     0
279
    -2
289
     1
 69
     0
  7
Standard
140
6.0
170
     5
 62
     0
 63
     7
283
     0
274
    -2
284
     1
 64
     0
275
    -2
285
     1
 65
     0
276
    -2
286
     1
 66
     0
277
    -2
287
     1
 67
     0
278
    -2
288
     1
 68
     0
279
    -2
289
     1
 69
     0
  7
Standard
140
4.5
170
     5
 62
     0
 63
     7
283
     0
274
    -2
284
     1
 64
     0
275
    -2
285
     1
 65
     0
276
    -2
286
     1
 66
     0
277
    -2
287
     1
 67
     0
278
    -2
288
     1
 68
     0
279
    -2
289
     1
 69
     0
  0
DICTIONARYVAR
  5
213D
102
{ACAD_REACTORS
330
96D
102
}
330
96D
100
DictionaryVariables
280
     0
  1
STANDARD
  0
DICTIONARYVAR
  5
2259
102
{ACAD_REACTORS
330
96D
102
}
330
96D
100
DictionaryVariables
280
     0
  1
1
  0
DICTIONARYVAR
  5
225A
102
{ACAD_REACTORS
330
96D
102
}
330
96D
100
DictionaryVariables
280
     0
  1

  0
DICTIONARYVAR
  5
96E
102
{ACAD_REACTORS
330
96D
102
}
330
96D
100
DictionaryVariables
280
     0
  1
96
  0
DICTIONARY
  5
225F
330
22
100
AcDbDictionary
280
     1
281
     1
  3
ACAD_XREC_ROUNDTRIP
360
2260
  0
DICTIONARY
  5
225D
330
1E
100
AcDbDictionary
280
     1
281
     1
  3
ACAD_XREC_ROUNDTRIP
360
225E
  0
DICTIONARY
  5
2261
330
26
100
AcDbDictionary
280
     1
281
     1
  3
ACAD_XREC_ROUNDTRIP
360
2262
  0
XRECORD
  5
2260
102
{ACAD_REACTORS
330
225F
102
}
330
225F
100
AcDbXrecord
280
     1
102
SHADEPLOT
 70
     0
102
SHADEPLOTRESLEVEL
 70
     2
102
SHADEPLOTCUSTOMDPI
 70
   300
  0
XRECORD
  5
225E
102
{ACAD_REACTORS
330
225D
102
}
330
225D
100
AcDbXrecord
280
     1
102
SHADEPLOT
 70
     0
102
SHADEPLOTRESLEVEL
 70
     2
102
SHADEPLOTCUSTOMDPI
 70
   300
  0
XRECORD
  5
2262
102
{ACAD_REACTORS
330
2261
102
}
330
2261
100
AcDbXrecord
280
     1
102
SHADEPLOT
 70
     0
102
SHADEPLOTRESLEVEL
 70
     2
102
SHADEPLOTCUSTOMDPI
 70
   300
  0
ENDSEC
  0
EOF
