  0
SECTION
  2
HEADER
  9
$ACADVER
  1
AC1015
  9
$ACADMAINTVER
 70
    20
  9
$DWGCODEPAGE
  3
ANSI_932
  9
$INSBASE
 10
0.0
 20
0.0
 30
0.0
  9
$EXTMIN
 10
109.0
 20
4.0
 30
0.0
  9
$EXTMAX
 10
2784.000000000001
 20
2024.000000000002
 30
0.0
  9
$LIMMIN
 10
0.0
 20
0.0
  9
$LIMMAX
 10
29700.0
 20
21000.0
  9
$ORTHOMODE
 70
     1
  9
$REGENMODE
 70
     1
  9
$FILLMODE
 70
     1
  9
$QTEXTMODE
 70
     0
  9
$MIRRTEXT
 70
     1
  9
$LTSCALE
 40
4.0
  9
$ATTMODE
 70
     1
  9
$TEXTSIZE
 40
35.0
  9
$TRACEWID
 40
1.0
  9
$TEXTSTYLE
  7
Standard
  9
$CLAYER
  8
実形
  9
$CELTYPE
  6
ByLayer
  9
$CECOLOR
 62
   256
  9
$CELTSCALE
 40
1.0
  9
$DISPSILH
 70
     0
  9
$DIMSCALE
 40
1.0
  9
$DIMASZ
 40
35.0
  9
$DIMEXO
 40
65.0
  9
$DIMDLI
 40
3.75
  9
$DIMRND
 40
0.0
  9
$DIMDLE
 40
0.0
  9
$DIMEXE
 40
0.0
  9
$DIMTP
 40
0.0
  9
$DIMTM
 40
0.0
  9
$DIMTXT
 40
25.0
  9
$DIMCEN
 40
0.0
  9
$DIMTSZ
 40
0.0
  9
$DIMTOL
 70
     0
  9
$DIMLIM
 70
     0
  9
$DIMTIH
 70
     0
  9
$DIMTOH
 70
     0
  9
$DIMSE1
 70
     0
  9
$DIMSE2
 70
     0
  9
$DIMTAD
 70
     1
  9
$DIMZIN
 70
     8
  9
$DIMBLK
  1
DotSmall
  9
$DIMASO
 70
     1
  9
$DIMSHO
 70
     1
  9
$DIMPOST
  1

  9
$DIMAPOST
  1

  9
$DIMALT
 70
     0
  9
$DIMALTD
 70
     3
  9
$DIMALTF
 40
0.03937007874016
  9
$DIMLFAC
 40
1.0
  9
$DIMTOFL
 70
     1
  9
$DIMTVP
 40
0.0
  9
$DIMTIX
 70
     0
  9
$DIMSOXD
 70
     0
  9
$DIMSAH
 70
     0
  9
$DIMBLK1
  1

  9
$DIMBLK2
  1

  9
$DIMSTYLE
  2
ISO-25
  9
$DIMCLRD
 70
     0
  9
$DIMCLRE
 70
     0
  9
$DIMCLRT
 70
     0
  9
$DIMTFAC
 40
1.0
  9
$DIMGAP
 40
6.25
  9
$DIMJUST
 70
     0
  9
$DIMSD1
 70
     0
  9
$DIMSD2
 70
     0
  9
$DIMTOLJ
 70
     0
  9
$DIMTZIN
 70
     8
  9
$DIMALTZ
 70
     0
  9
$DIMALTTZ
 70
     0
  9
$DIMUPT
 70
     0
  9
$DIMDEC
 70
     2
  9
$DIMTDEC
 70
     2
  9
$DIMALTU
 70
     2
  9
$DIMALTTD
 70
     3
  9
$DIMTXSTY
  7
Standard
  9
$DIMAUNIT
 70
     0
  9
$DIMADEC
 70
     0
  9
$DIMALTRND
 40
0.0
  9
$DIMAZIN
 70
     0
  9
$DIMDSEP
 70
    46
  9
$DIMATFIT
 70
     3
  9
$DIMFRAC
 70
     0
  9
$DIMLDRBLK
  1
Open30
  9
$DIMLUNIT
 70
     2
  9
$DIMLWD
 70
    15
  9
$DIMLWE
 70
    15
  9
$DIMTMOVE
 70
     0
  9
$LUNITS
 70
     2
  9
$LUPREC
 70
     2
  9
$SKETCHINC
 40
1.0
  9
$FILLETRAD
 40
7.0
  9
$AUNITS
 70
     0
  9
$AUPREC
 70
     0
  9
$MENU
  1
.
  9
$ELEVATION
 40
0.0
  9
$PELEVATION
 40
0.0
  9
$THICKNESS
 40
0.0
  9
$LIMCHECK
 70
     1
  9
$CHAMFERA
 40
10.0
  9
$CHAMFERB
 40
10.0
  9
$CHAMFERC
 40
20.0
  9
$CHAMFERD
 40
0.0
  9
$SKPOLY
 70
     0
  9
$TDCREATE
 40
2451673.575802199
  9
$TDUCREATE
 40
2451673.200802199
  9
$TDUPDATE
 40
2458810.676132454
  9
$TDUUPDATE
 40
2458810.301132454
  9
$TDINDWG
 40
0.8982936227
  9
$TDUSRTIMER
 40
0.8982929282
  9
$USRTIMER
 70
     1
  9
$ANGBASE
 50
0.0
  9
$ANGDIR
 70
     0
  9
$PDMODE
 70
     0
  9
$PDSIZE
 40
0.0
  9
$PLINEWID
 40
0.0
  9
$SPLFRAME
 70
     0
  9
$SPLINETYPE
 70
     6
  9
$SPLINESEGS
 70
     8
  9
$HANDSEED
  5
17F9
  9
$SURFTAB1
 70
     6
  9
$SURFTAB2
 70
     6
  9
$SURFTYPE
 70
     6
  9
$SURFU
 70
     6
  9
$SURFV
 70
     6
  9
$UCSBASE
  2

  9
$UCSNAME
  2

  9
$UCSORG
 10
0.0
 20
0.0
 30
0.0
  9
$UCSXDIR
 10
1.0
 20
0.0
 30
0.0
  9
$UCSYDIR
 10
0.0
 20
1.0
 30
0.0
  9
$UCSORTHOREF
  2

  9
$UCSORTHOVIEW
 70
     0
  9
$UCSORGTOP
 10
0.0
 20
0.0
 30
0.0
  9
$UCSORGBOTTOM
 10
0.0
 20
0.0
 30
0.0
  9
$UCSORGLEFT
 10
0.0
 20
0.0
 30
0.0
  9
$UCSORGRIGHT
 10
0.0
 20
0.0
 30
0.0
  9
$UCSORGFRONT
 10
0.0
 20
0.0
 30
0.0
  9
$UCSORGBACK
 10
0.0
 20
0.0
 30
0.0
  9
$PUCSBASE
  2

  9
$PUCSNAME
  2

  9
$PUCSORG
 10
0.0
 20
0.0
 30
0.0
  9
$PUCSXDIR
 10
1.0
 20
0.0
 30
0.0
  9
$PUCSYDIR
 10
0.0
 20
1.0
 30
0.0
  9
$PUCSORTHOREF
  2

  9
$PUCSORTHOVIEW
 70
     0
  9
$PUCSORGTOP
 10
0.0
 20
0.0
 30
0.0
  9
$PUCSORGBOTTOM
 10
0.0
 20
0.0
 30
0.0
  9
$PUCSORGLEFT
 10
0.0
 20
0.0
 30
0.0
  9
$PUCSORGRIGHT
 10
0.0
 20
0.0
 30
0.0
  9
$PUCSORGFRONT
 10
0.0
 20
0.0
 30
0.0
  9
$PUCSORGBACK
 10
0.0
 20
0.0
 30
0.0
  9
$USERI1
 70
     0
  9
$USERI2
 70
     0
  9
$USERI3
 70
     0
  9
$USERI4
 70
     0
  9
$USERI5
 70
     0
  9
$USERR1
 40
0.0
  9
$USERR2
 40
0.0
  9
$USERR3
 40
0.0
  9
$USERR4
 40
0.0
  9
$USERR5
 40
0.0
  9
$WORLDVIEW
 70
     1
  9
$SHADEDGE
 70
     3
  9
$SHADEDIF
 70
    70
  9
$TILEMODE
 70
     1
  9
$MAXACTVP
 70
    64
  9
$PINSBASE
 10
0.0
 20
0.0
 30
0.0
  9
$PLIMCHECK
 70
     0
  9
$PEXTMIN
 10
27.8447512626648
 20
20.24591643810271
 30
0.0
  9
$PEXTMAX
 10
250.6027613639831
 20
182.2132479429245
 30
0.0
  9
$PLIMMIN
 10
-3.757080078125
 20
-3.757083177566528
  9
$PLIMMAX
 10
293.2112426757813
 20
206.2162444591522
  9
$UNITMODE
 70
     0
  9
$VISRETAIN
 70
     1
  9
$PLINEGEN
 70
     0
  9
$PSLTSCALE
 70
     1
  9
$TREEDEPTH
 70
  3020
  9
$CMLSTYLE
  2
Standard
  9
$CMLJUST
 70
     0
  9
$CMLSCALE
 40
20.0
  9
$PROXYGRAPHICS
 70
     1
  9
$MEASUREMENT
 70
     1
  9
$CELWEIGHT
370
    -1
  9
$ENDCAPS
280
     0
  9
$JOINSTYLE
280
     0
  9
$LWDISPLAY
290
     0
  9
$INSUNITS
 70
     4
  9
$HYPERLINKBASE
  1

  9
$STYLESHEET
  1

  9
$XEDIT
290
     1
  9
$CEPSNTYPE
380
     0
  9
$PSTYLEMODE
290
     1
  9
$FINGERPRINTGUID
  2
{C8EA1F16-24C9-11D4-9416-CE0A3B32152F}
  9
$VERSIONGUID
  2
{C02E9DBA-F35A-4701-9348-80762B3FD5AF}
  9
$EXTNAMES
290
     1
  9
$PSVPSCALE
 40
0.0
  9
$OLESTARTUP
290
     0
  0
ENDSEC
  0
SECTION
  2
CLASSES
  0
CLASS
  1
ACDBDICTIONARYWDFLT
  2
AcDbDictionaryWithDefault
  3
ObjectDBX Classes
 90
        0
280
     0
281
     0
  0
CLASS
  1
ACDBPLACEHOLDER
  2
AcDbPlaceHolder
  3
ObjectDBX Classes
 90
        0
280
     0
281
     0
  0
CLASS
  1
LAYOUT
  2
AcDbLayout
  3
ObjectDBX Classes
 90
        0
280
     0
281
     0
  0
CLASS
  1
DICTIONARYVAR
  2
AcDbDictionaryVar
  3
ObjectDBX Classes
 90
        0
280
     0
281
     0
  0
CLASS
  1
TABLESTYLE
  2
AcDbTableStyle
  3
ObjectDBX Classes
 90
     2047
280
     0
281
     0
  0
CLASS
  1
SORTENTSTABLE
  2
AcDbSortentsTable
  3
ObjectDBX Classes
 90
        0
280
     0
281
     0
  0
ENDSEC
  0
SECTION
  2
TABLES
  0
TABLE
  2
VPORT
  5
8
330
0
100
AcDbSymbolTable
 70
     2
  0
VPORT
  5
17ED
330
8
100
AcDbSymbolTableRecord
100
AcDbViewportTableRecord
  2
*Active
 70
     0
 10
0.0
 20
0.0
 11
1.0
 21
1.0
 12
1619.168214143122
 22
956.355021149433
 13
0.0
 23
0.0
 14
10.0
 24
10.0
 15
10.0
 25
10.0
 16
0.0
 26
0.0
 36
1.0
 17
0.0
 27
0.0
 37
0.0
 40
2740.795444484993
 41
1.29038112522686
 42
50.0
 43
0.0
 44
0.0
 50
0.0
 51
0.0
 71
     0
 72
   100
 73
     1
 74
     3
 75
     0
 76
     0
 77
     0
 78
     0
281
     0
 65
     1
110
0.0
120
0.0
130
0.0
111
1.0
121
0.0
131
0.0
112
0.0
122
1.0
132
0.0
 79
     0
146
0.0
  0
ENDTAB
  0
TABLE
  2
LTYPE
  5
5
330
0
100
AcDbSymbolTable
 70
    46
  0
LTYPE
  5
14
330
5
100
AcDbSymbolTableRecord
100
AcDbLinetypeTableRecord
  2
ByBlock
 70
     0
  3

 72
    65
 73
     0
 40
0.0
  0
LTYPE
  5
15
330
5
100
AcDbSymbolTableRecord
100
AcDbLinetypeTableRecord
  2
ByLayer
 70
     0
  3

 72
    65
 73
     0
 40
0.0
  0
LTYPE
  5
16
330
5
100
AcDbSymbolTableRecord
100
AcDbLinetypeTableRecord
  2
Continuous
 70
     0
  3
Solid line
 72
    65
 73
     0
 40
0.0
  0
LTYPE
  5
34
330
5
100
AcDbSymbolTableRecord
100
AcDbLinetypeTableRecord
  2
ACAD_ISO02W100
 70
     0
  3
ISO dash __ __ __ __ __ __ __ __ __ __ __ __ __
 72
    65
 73
     2
 40
15.0
 49
12.0
 74
     0
 49
-3.0
 74
     0
  0
LTYPE
  5
35
330
5
100
AcDbSymbolTableRecord
100
AcDbLinetypeTableRecord
  2
ACAD_ISO03W100
 70
     0
  3
ISO dash space __    __    __    __    __    __
 72
    65
 73
     2
 40
30.0
 49
12.0
 74
     0
 49
-18.0
 74
     0
  0
LTYPE
  5
36
330
5
100
AcDbSymbolTableRecord
100
AcDbLinetypeTableRecord
  2
ACAD_ISO04W100
 70
     0
  3
ISO long-dash dot ____ . ____ . ____ . ____ . _
 72
    65
 73
     4
 40
30.0
 49
24.0
 74
     0
 49
-3.0
 74
     0
 49
0.0
 74
     0
 49
-3.0
 74
     0
  0
LTYPE
  5
37
330
5
100
AcDbSymbolTableRecord
100
AcDbLinetypeTableRecord
  2
ACAD_ISO05W100
 70
     0
  3
ISO long-dash double-dot ____ .. ____ .. ____ .
 72
    65
 73
     6
 40
34.0
 49
24.0
 74
     0
 49
-3.0
 74
     0
 49
0.5
 74
     0
 49
-3.0
 74
     0
 49
0.5
 74
     0
 49
-3.0
 74
     0
  0
LTYPE
  5
38
330
5
100
AcDbSymbolTableRecord
100
AcDbLinetypeTableRecord
  2
ACAD_ISO06W100
 70
     0
  3
ISO long-dash triple-dot ____ ... ____ ... ____
 72
    65
 73
     8
 40
37.5
 49
24.0
 74
     0
 49
-3.0
 74
     0
 49
0.5
 74
     0
 49
-3.0
 74
     0
 49
0.5
 74
     0
 49
-3.0
 74
     0
 49
0.5
 74
     0
 49
-3.0
 74
     0
  0
LTYPE
  5
39
330
5
100
AcDbSymbolTableRecord
100
AcDbLinetypeTableRecord
  2
ACAD_ISO07W100
 70
     0
  3
ISO dot . . . . . . . . . . . . . . . . . . . .
 72
    65
 73
     2
 40
3.0
 49
0.0
 74
     0
 49
-3.0
 74
     0
  0
LTYPE
  5
3A
330
5
100
AcDbSymbolTableRecord
100
AcDbLinetypeTableRecord
  2
ACAD_ISO08W100
 70
     0
  3
ISO long-dash short-dash ____ __ ____ __ ____ _
 72
    65
 73
     4
 40
36.0
 49
24.0
 74
     0
 49
-3.0
 74
     0
 49
6.0
 74
     0
 49
-3.0
 74
     0
  0
LTYPE
  5
3B
330
5
100
AcDbSymbolTableRecord
100
AcDbLinetypeTableRecord
  2
ACAD_ISO09W100
 70
     0
  3
ISO long-dash double-short-dash ____ __ __ ____
 72
    65
 73
     6
 40
45.0
 49
24.0
 74
     0
 49
-3.0
 74
     0
 49
6.0
 74
     0
 49
-3.0
 74
     0
 49
6.0
 74
     0
 49
-3.0
 74
     0
  0
LTYPE
  5
3C
330
5
100
AcDbSymbolTableRecord
100
AcDbLinetypeTableRecord
  2
ACAD_ISO10W100
 70
     0
  3
ISO dash dot __ . __ . __ . __ . __ . __ . __ .
 72
    65
 73
     4
 40
18.0
 49
12.0
 74
     0
 49
-3.0
 74
     0
 49
0.0
 74
     0
 49
-3.0
 74
     0
  0
LTYPE
  5
3D
330
5
100
AcDbSymbolTableRecord
100
AcDbLinetypeTableRecord
  2
ACAD_ISO11W100
 70
     0
  3
ISO double-dash dot __ __ . __ __ . __ __ . __ 
 72
    65
 73
     6
 40
33.0
 49
12.0
 74
     0
 49
-3.0
 74
     0
 49
12.0
 74
     0
 49
-3.0
 74
     0
 49
0.0
 74
     0
 49
-3.0
 74
     0
  0
LTYPE
  5
3E
330
5
100
AcDbSymbolTableRecord
100
AcDbLinetypeTableRecord
  2
ACAD_ISO12W100
 70
     0
  3
ISO dash double-dot __ . . __ . . __ . . __ . .
 72
    65
 73
     6
 40
21.0
 49
12.0
 74
     0
 49
-3.0
 74
     0
 49
0.0
 74
     0
 49
-3.0
 74
     0
 49
0.0
 74
     0
 49
-3.0
 74
     0
  0
LTYPE
  5
3F
330
5
100
AcDbSymbolTableRecord
100
AcDbLinetypeTableRecord
  2
ACAD_ISO13W100
 70
     0
  3
ISO double-dash double-dot __ __ . . __ __ . . 
 72
    65
 73
     8
 40
36.0
 49
12.0
 74
     0
 49
-3.0
 74
     0
 49
12.0
 74
     0
 49
-3.0
 74
     0
 49
0.0
 74
     0
 49
-3.0
 74
     0
 49
0.0
 74
     0
 49
-3.0
 74
     0
  0
LTYPE
  5
40
330
5
100
AcDbSymbolTableRecord
100
AcDbLinetypeTableRecord
  2
ACAD_ISO14W100
 70
     0
  3
ISO dash triple-dot __ . . . __ . . . __ . . . 
 72
    65
 73
     8
 40
24.0
 49
12.0
 74
     0
 49
-3.0
 74
     0
 49
0.0
 74
     0
 49
-3.0
 74
     0
 49
0.0
 74
     0
 49
-3.0
 74
     0
 49
0.0
 74
     0
 49
-3.0
 74
     0
  0
LTYPE
  5
41
330
5
100
AcDbSymbolTableRecord
100
AcDbLinetypeTableRecord
  2
ACAD_ISO15W100
 70
     0
  3
ISO double-dash triple-dot __ __ . . . __ __ . 
 72
    65
 73
    10
 40
39.0
 49
12.0
 74
     0
 49
-3.0
 74
     0
 49
12.0
 74
     0
 49
-3.0
 74
     0
 49
0.0
 74
     0
 49
-3.0
 74
     0
 49
0.0
 74
     0
 49
-3.0
 74
     0
 49
0.0
 74
     0
 49
-3.0
 74
     0
  0
LTYPE
  5
42
330
5
100
AcDbSymbolTableRecord
100
AcDbLinetypeTableRecord
  2
BATTING
 70
     0
  3
Batting SSSSSSSSSSSSSSSSSSSSSSSSSSSSSSSSSSSSSSS
 72
    65
 73
     4
 40
10.16254
 49
0.00254
 74
     0
 49
-2.54
 74
     4
 75
   134
340
33
 46
2.54
 50
0.0
 44
-2.54
 45
0.0
 49
-5.08
 74
     4
 75
   134
340
33
 46
2.54
 50
180.0
 44
2.54
 45
0.0
 49
-2.54
 74
     0
  0
LTYPE
  5
43
330
5
100
AcDbSymbolTableRecord
100
AcDbLinetypeTableRecord
  2
BORDER
 70
     0
  3
Border __ __ . __ __ . __ __ . __ __ . __ __ .
 72
    65
 73
     6
 40
44.45
 49
12.7
 74
     0
 49
-6.349999999999999
 74
     0
 49
12.7
 74
     0
 49
-6.349999999999999
 74
     0
 49
0.0
 74
     0
 49
-6.349999999999999
 74
     0
  0
LTYPE
  5
44
330
5
100
AcDbSymbolTableRecord
100
AcDbLinetypeTableRecord
  2
BORDER2
 70
     0
  3
Border (.5x) __.__.__.__.__.__.__.__.__.__.__.
 72
    65
 73
     6
 40
22.225
 49
6.349999999999999
 74
     0
 49
-3.174999999999999
 74
     0
 49
6.349999999999999
 74
     0
 49
-3.174999999999999
 74
     0
 49
0.0
 74
     0
 49
-3.174999999999999
 74
     0
  0
LTYPE
  5
45
330
5
100
AcDbSymbolTableRecord
100
AcDbLinetypeTableRecord
  2
BORDERX2
 70
     0
  3
Border (2x) ____  ____  .  ____  ____  .  ___
 72
    65
 73
     6
 40
88.9
 49
25.4
 74
     0
 49
-12.7
 74
     0
 49
25.4
 74
     0
 49
-12.7
 74
     0
 49
0.0
 74
     0
 49
-12.7
 74
     0
  0
LTYPE
  5
46
330
5
100
AcDbSymbolTableRecord
100
AcDbLinetypeTableRecord
  2
CENTER
 70
     0
  3
Center ____ _ ____ _ ____ _ ____ _ ____ _ ____
 72
    65
 73
     4
 40
50.8
 49
31.75
 74
     0
 49
-6.349999999999999
 74
     0
 49
6.349999999999999
 74
     0
 49
-6.349999999999999
 74
     0
  0
LTYPE
  5
47
330
5
100
AcDbSymbolTableRecord
100
AcDbLinetypeTableRecord
  2
CENTER2
 70
     0
  3
Center (.5x) ___ _ ___ _ ___ _ ___ _ ___ _ ___
 72
    65
 73
     4
 40
28.575
 49
19.05
 74
     0
 49
-3.174999999999999
 74
     0
 49
3.174999999999999
 74
     0
 49
-3.174999999999999
 74
     0
  0
LTYPE
  5
48
330
5
100
AcDbSymbolTableRecord
100
AcDbLinetypeTableRecord
  2
CENTERX2
 70
     0
  3
Center (2x) ________  __  ________  __  _____
 72
    65
 73
     4
 40
101.6
 49
63.5
 74
     0
 49
-12.7
 74
     0
 49
12.7
 74
     0
 49
-12.7
 74
     0
  0
LTYPE
  5
49
330
5
100
AcDbSymbolTableRecord
100
AcDbLinetypeTableRecord
  2
DASHDOT
 70
     0
  3
Dash dot __ . __ . __ . __ . __ . __ . __ . __
 72
    65
 73
     4
 40
25.4
 49
12.7
 74
     0
 49
-6.349999999999999
 74
     0
 49
0.0
 74
     0
 49
-6.349999999999999
 74
     0
  0
LTYPE
  5
4A
330
5
100
AcDbSymbolTableRecord
100
AcDbLinetypeTableRecord
  2
DASHDOT2
 70
     0
  3
Dash dot (.5x) _._._._._._._._._._._._._._._.
 72
    65
 73
     4
 40
12.7
 49
6.349999999999999
 74
     0
 49
-3.174999999999999
 74
     0
 49
0.0
 74
     0
 49
-3.174999999999999
 74
     0
  0
LTYPE
  5
4B
330
5
100
AcDbSymbolTableRecord
100
AcDbLinetypeTableRecord
  2
DASHDOTX2
 70
     0
  3
Dash dot (2x) ____  .  ____  .  ____  .  ___
 72
    65
 73
     4
 40
50.8
 49
25.4
 74
     0
 49
-12.7
 74
     0
 49
0.0
 74
     0
 49
-12.7
 74
     0
  0
LTYPE
  5
4C
330
5
100
AcDbSymbolTableRecord
100
AcDbLinetypeTableRecord
  2
DASHED
 70
     0
  3
Dashed __ __ __ __ __ __ __ __ __ __ __ __ __ _
 72
    65
 73
     2
 40
19.05
 49
12.7
 74
     0
 49
-6.349999999999999
 74
     0
  0
LTYPE
  5
4D
330
5
100
AcDbSymbolTableRecord
100
AcDbLinetypeTableRecord
  2
DASHED2
 70
     0
  3
Dashed (.5x) _ _ _ _ _ _ _ _ _ _ _ _ _ _ _ _ _
 72
    65
 73
     2
 40
9.524999999999998
 49
6.349999999999999
 74
     0
 49
-3.174999999999999
 74
     0
  0
LTYPE
  5
4E
330
5
100
AcDbSymbolTableRecord
100
AcDbLinetypeTableRecord
  2
DASHEDX2
 70
     0
  3
Dashed (2x) ____  ____  ____  ____  ____  ___
 72
    65
 73
     2
 40
38.1
 49
25.4
 74
     0
 49
-12.7
 74
     0
  0
LTYPE
  5
4F
330
5
100
AcDbSymbolTableRecord
100
AcDbLinetypeTableRecord
  2
DIVIDE
 70
     0
  3
Divide ____ . . ____ . . ____ . . ____ . . ____
 72
    65
 73
     6
 40
31.75
 49
12.7
 74
     0
 49
-6.349999999999999
 74
     0
 49
0.0
 74
     0
 49
-6.349999999999999
 74
     0
 49
0.0
 74
     0
 49
-6.349999999999999
 74
     0
  0
LTYPE
  5
50
330
5
100
AcDbSymbolTableRecord
100
AcDbLinetypeTableRecord
  2
DIVIDE2
 70
     0
  3
Divide (.5x) __..__..__..__..__..__..__..__.._
 72
    65
 73
     6
 40
15.875
 49
6.349999999999999
 74
     0
 49
-3.174999999999999
 74
     0
 49
0.0
 74
     0
 49
-3.174999999999999
 74
     0
 49
0.0
 74
     0
 49
-3.174999999999999
 74
     0
  0
LTYPE
  5
51
330
5
100
AcDbSymbolTableRecord
100
AcDbLinetypeTableRecord
  2
DIVIDEX2
 70
     0
  3
Divide (2x) ________  .  .  ________  .  .  _
 72
    65
 73
     6
 40
63.49999999999999
 49
25.4
 74
     0
 49
-12.7
 74
     0
 49
0.0
 74
     0
 49
-12.7
 74
     0
 49
0.0
 74
     0
 49
-12.7
 74
     0
  0
LTYPE
  5
52
330
5
100
AcDbSymbolTableRecord
100
AcDbLinetypeTableRecord
  2
DOT
 70
     0
  3
Dot . . . . . . . . . . . . . . . . . . . . . .
 72
    65
 73
     2
 40
6.349999999999999
 49
0.0
 74
     0
 49
-6.349999999999999
 74
     0
  0
LTYPE
  5
53
330
5
100
AcDbSymbolTableRecord
100
AcDbLinetypeTableRecord
  2
DOT2
 70
     0
  3
Dot (.5x) .....................................
 72
    65
 73
     2
 40
3.174999999999999
 49
0.0
 74
     0
 49
-3.174999999999999
 74
     0
  0
LTYPE
  5
54
330
5
100
AcDbSymbolTableRecord
100
AcDbLinetypeTableRecord
  2
DOTX2
 70
     0
  3
Dot (2x) .  .  .  .  .  .  .  .  .  .  .  .  . 
 72
    65
 73
     2
 40
12.7
 49
0.0
 74
     0
 49
-12.7
 74
     0
  0
LTYPE
  5
55
330
5
100
AcDbSymbolTableRecord
100
AcDbLinetypeTableRecord
  2
FENCELINE1
 70
     0
  3
Fenceline circle ----0-----0----0-----0----0---
 72
    65
 73
     4
 40
36.83
 49
6.349999999999999
 74
     0
 49
-2.54
 74
     4
 75
   133
340
33
 46
2.54
 50
0.0
 44
-2.54
 45
0.0
 49
-2.54
 74
     0
 49
25.4
 74
     0
  0
LTYPE
  5
56
330
5
100
AcDbSymbolTableRecord
100
AcDbLinetypeTableRecord
  2
FENCELINE2
 70
     0
  3
Fenceline square ----[]-----[]----[]-----[]----
 72
    65
 73
     4
 40
36.83
 49
6.349999999999999
 74
     0
 49
-2.54
 74
     4
 75
   132
340
33
 46
2.54
 50
0.0
 44
-2.54
 45
0.0
 49
-2.54
 74
     0
 49
25.4
 74
     0
  0
LTYPE
  5
57
330
5
100
AcDbSymbolTableRecord
100
AcDbLinetypeTableRecord
  2
GAS_LINE
 70
     0
  3
Gas line ----GAS----GAS----GAS----GAS----GAS---
 72
    65
 73
     3
 40
24.13
 49
12.7
 74
     0
 49
-5.08
 74
     2
 75
     0
340
11
 46
2.54
 50
0.0
 44
-2.54
 45
-1.27
  9
GAS
 49
-6.349999999999999
 74
     0
  0
LTYPE
  5
58
330
5
100
AcDbSymbolTableRecord
100
AcDbLinetypeTableRecord
  2
HIDDEN
 70
     0
  3
Hidden __ __ __ __ __ __ __ __ __ __ __ __ __ _
 72
    65
 73
     2
 40
9.524999999999998
 49
6.349999999999999
 74
     0
 49
-3.174999999999999
 74
     0
  0
LTYPE
  5
59
330
5
100
AcDbSymbolTableRecord
100
AcDbLinetypeTableRecord
  2
HIDDEN2
 70
     0
  3
Hidden (.5x) _ _ _ _ _ _ _ _ _ _ _ _ _ _ _ _ _
 72
    65
 73
     2
 40
4.762499999999999
 49
3.174999999999999
 74
     0
 49
-1.587499999999999
 74
     0
  0
LTYPE
  5
5A
330
5
100
AcDbSymbolTableRecord
100
AcDbLinetypeTableRecord
  2
HIDDENX2
 70
     0
  3
Hidden (2x) ____ ____ ____ ____ ____ ____ ____
 72
    65
 73
     2
 40
19.05
 49
12.7
 74
     0
 49
-6.349999999999999
 74
     0
  0
LTYPE
  5
5B
330
5
100
AcDbSymbolTableRecord
100
AcDbLinetypeTableRecord
  2
HOT_WATER_SUPPLY
 70
     0
  3
Hot water supply ---- HW ---- HW ---- HW ----
 72
    65
 73
     3
 40
22.86
 49
12.7
 74
     0
 49
-5.08
 74
     2
 75
     0
340
11
 46
2.54
 50
0.0
 44
-2.54
 45
-1.27
  9
HW
 49
-5.08
 74
     0
  0
LTYPE
  5
5C
330
5
100
AcDbSymbolTableRecord
100
AcDbLinetypeTableRecord
  2
PHANTOM
 70
     0
  3
Phantom ______  __  __  ______  __  __  ______
 72
    65
 73
     6
 40
63.5
 49
31.75
 74
     0
 49
-6.349999999999999
 74
     0
 49
6.349999999999999
 74
     0
 49
-6.349999999999999
 74
     0
 49
6.349999999999999
 74
     0
 49
-6.349999999999999
 74
     0
  0
LTYPE
  5
5D
330
5
100
AcDbSymbolTableRecord
100
AcDbLinetypeTableRecord
  2
PHANTOM2
 70
     0
  3
Phantom (.5x) ___ _ _ ___ _ _ ___ _ _ ___ _ _
 72
    65
 73
     6
 40
31.75
 49
15.875
 74
     0
 49
-3.174999999999999
 74
     0
 49
3.174999999999999
 74
     0
 49
-3.174999999999999
 74
     0
 49
3.174999999999999
 74
     0
 49
-3.174999999999999
 74
     0
  0
LTYPE
  5
5E
330
5
100
AcDbSymbolTableRecord
100
AcDbLinetypeTableRecord
  2
PHANTOMX2
 70
     0
  3
Phantom (2x) ____________    ____    ____   _
 72
    65
 73
     6
 40
127.0
 49
63.5
 74
     0
 49
-12.7
 74
     0
 49
12.7
 74
     0
 49
-12.7
 74
     0
 49
12.7
 74
     0
 49
-12.7
 74
     0
  0
LTYPE
  5
5F
330
5
100
AcDbSymbolTableRecord
100
AcDbLinetypeTableRecord
  2
TRACKS
 70
     0
  3
Tracks -|-|-|-|-|-|-|-|-|-|-|-|-|-|-|-|-|-|-|-|
 72
    65
 73
     2
 40
7.62
 49
3.81
 74
     4
 75
   130
340
33
 46
6.349999999999999
 50
0.0
 44
0.0
 45
0.0
 49
3.81
 74
     0
  0
LTYPE
  5
60
330
5
100
AcDbSymbolTableRecord
100
AcDbLinetypeTableRecord
  2
ZIGZAG
 70
     0
  3
Zig zag /\/\/\/\/\/\/\/\/\/\/\/\/\/\/\/\/\/\/\/
 72
    65
 73
     4
 40
20.32254
 49
0.00254
 74
     0
 49
-5.08
 74
     4
 75
   131
340
33
 46
5.08
 50
0.0
 44
-5.08
 45
0.0
 49
-10.16
 74
     4
 75
   131
340
33
 46
5.08
 50
180.0
 44
5.08
 45
0.0
 49
-5.08
 74
     0
  0
ENDTAB
  0
TABLE
  2
LAYER
  5
2
102
{ACAD_XDICTIONARY
360
1497
102
}
330
0
100
AcDbSymbolTable
 70
     9
  0
LAYER
  5
10
330
2
100
AcDbSymbolTableRecord
100
AcDbLayerTableRecord
  2
0
 70
     0
 62
     7
  6
Continuous
370
    -3
390
F
  0
LAYER
  5
C3
330
2
100
AcDbSymbolTableRecord
100
AcDbLayerTableRecord
  2
Defpoints
 70
     0
 62
     7
  6
Continuous
290
     0
370
    -3
390
F
  0
LAYER
  5
256
330
2
100
AcDbSymbolTableRecord
100
AcDbLayerTableRecord
  2
センター
 70
     0
 62
     7
  6
CENTER2
370
    15
390
F
  0
LAYER
  5
268
330
2
100
AcDbSymbolTableRecord
100
AcDbLayerTableRecord
  2
実形
 70
     0
 62
     7
  6
Continuous
370
    -3
390
F
  0
LAYER
  5
269
330
2
100
AcDbSymbolTableRecord
100
AcDbLayerTableRecord
  2
補助
 70
     0
 62
     7
  6
Continuous
370
    -3
390
F
  0
LAYER
  5
26A
330
2
100
AcDbSymbolTableRecord
100
AcDbLayerTableRecord
  2
寸法
 70
     0
 62
     7
  6
Continuous
370
    -3
390
F
  0
LAYER
  5
26B
330
2
100
AcDbSymbolTableRecord
100
AcDbLayerTableRecord
  2
ハッチング
 70
     0
 62
     7
  6
Continuous
370
    18
390
F
  0
LAYER
  5
26D
330
2
100
AcDbSymbolTableRecord
100
AcDbLayerTableRecord
  2
文字
 70
     0
 62
     7
  6
Continuous
370
    -3
390
F
  0
LAYER
  5
12DF
330
2
100
AcDbSymbolTableRecord
100
AcDbLayerTableRecord
  2
Cen
 70
     0
 62
     7
  6
CENTER2
370
    15
390
F
  0
ENDTAB
  0
TABLE
  2
STYLE
  5
3
330
0
100
AcDbSymbolTable
 70
     3
  0
STYLE
  5
11
330
3
100
AcDbSymbolTableRecord
100
AcDbTextStyleTableRecord
  2
Standard
 70
     0
 40
0.0
 41
1.0
 50
0.0
 71
     0
 42
35.0
  3
txt.shx
  4
bigfont.shx
  0
STYLE
  5
33
330
3
100
AcDbSymbolTableRecord
100
AcDbTextStyleTableRecord
  2

 70
     1
 40
0.0
 41
1.0
 50
0.0
 71
     0
 42
2.5
  3
ltypeshp.shx
  4

  0
STYLE
  5
179B
330
3
100
AcDbSymbolTableRecord
100
AcDbTextStyleTableRecord
  2
明朝
 70
     0
 40
0.0
 41
1.0
 50
0.0
 71
     0
 42
25.0
  3
MS Mincho.ttf
  4

1001
ACAD
1000
MS Mincho
1071
    32785
  0
ENDTAB
  0
TABLE
  2
VIEW
  5
6
330
0
100
AcDbSymbolTable
 70
     0
  0
ENDTAB
  0
TABLE
  2
UCS
  5
7
330
0
100
AcDbSymbolTable
 70
     0
  0
ENDTAB
  0
TABLE
  2
APPID
  5
9
330
0
100
AcDbSymbolTable
 70
     1
  0
APPID
  5
12
330
9
100
AcDbSymbolTableRecord
100
AcDbRegAppTableRecord
  2
ACAD
 70
     0
  0
ENDTAB
  0
TABLE
  2
DIMSTYLE
  5
A
330
0
100
AcDbSymbolTable
 70
     1
100
AcDbDimStyleTable
 71
     1
340
27
  0
DIMSTYLE
105
27
102
{ACAD_REACTORS
330
6EA
330
77B
330
788
330
7A0
330
7CA
330
7D7
330
3A1
330
3AE
330
3C2
330
50A
330
3F6
330
4E5
330
4FD
330
522
330
3E9
330
40C
330
41A
330
427
330
459
330
466
330
47C
330
492
330
4C3
330
52F
330
549
330
7AD
330
FA3
330
13F5
330
15B3
330
15B7
330
15BB
102
}
330
A
100
AcDbSymbolTableRecord
100
AcDbDimStyleTableRecord
  2
ISO-25
 70
     0
 41
35.0
 42
65.0
 43
3.75
 44
0.0
 73
     0
 74
     0
 77
     1
 78
     8
140
25.0
141
2.5
143
0.03937007874016
147
6.25
171
     3
172
     1
271
     2
272
     2
274
     3
283
     0
284
     8
340
11
341
DA
342
D0
371
    15
372
    15
  0
ENDTAB
  0
TABLE
  2
BLOCK_RECORD
  5
1
330
0
100
AcDbSymbolTable
 70
    39
  0
BLOCK_RECORD
  5
1F
102
{ACAD_XDICTIONARY
360
1494
102
}
330
1
100
AcDbSymbolTableRecord
100
AcDbBlockTableRecord
  2
*Model_Space
340
22
  0
BLOCK_RECORD
  5
1B
330
1
100
AcDbSymbolTableRecord
100
AcDbBlockTableRecord
  2
*Paper_Space
340
1E
  0
BLOCK_RECORD
  5
23
330
1
100
AcDbSymbolTableRecord
100
AcDbBlockTableRecord
  2
*Paper_Space0
340
26
  0
BLOCK_RECORD
  5
D0
330
1
100
AcDbSymbolTableRecord
100
AcDbBlockTableRecord
  2
_DotSmall
340
0
102
{BLKREFS
331
1629
331
162A
331
1632
331
1633
331
1643
331
1644
331
164C
331
164D
331
1656
331
1657
331
165F
331
1660
331
1669
331
166A
331
1671
331
1672
331
167A
331
167B
331
1684
331
1685
331
168C
331
168D
331
1696
331
1697
331
169F
331
16A0
331
16A7
331
16A8
331
16B1
331
16B2
331
16B9
331
16BA
331
16C8
331
16C9
331
16D1
331
16D2
331
16DA
331
16DB
331
16E4
331
16E5
331
16EC
331
16ED
331
16FB
331
16FC
331
1704
331
1705
331
170E
331
170F
331
1717
331
1718
331
171F
331
1720
331
1727
331
1728
331
1730
331
1731
331
1754
331
1755
102
}
  0
BLOCK_RECORD
  5
D4
330
1
100
AcDbSymbolTableRecord
100
AcDbBlockTableRecord
  2
_Origin2
340
0
  0
BLOCK_RECORD
  5
DA
330
1
100
AcDbSymbolTableRecord
100
AcDbBlockTableRecord
  2
_Open30
340
0
  0
BLOCK_RECORD
  5
3A2
330
1
100
AcDbSymbolTableRecord
100
AcDbBlockTableRecord
  2
*D4
340
0
  0
BLOCK_RECORD
  5
3AF
330
1
100
AcDbSymbolTableRecord
100
AcDbBlockTableRecord
  2
*D5
340
0
  0
BLOCK_RECORD
  5
3C3
330
1
100
AcDbSymbolTableRecord
100
AcDbBlockTableRecord
  2
*D6
340
0
  0
BLOCK_RECORD
  5
3EA
330
1
100
AcDbSymbolTableRecord
100
AcDbBlockTableRecord
  2
*D7
340
0
  0
BLOCK_RECORD
  5
3F7
330
1
100
AcDbSymbolTableRecord
100
AcDbBlockTableRecord
  2
*D8
340
0
  0
BLOCK_RECORD
  5
40D
330
1
100
AcDbSymbolTableRecord
100
AcDbBlockTableRecord
  2
*D9
340
0
  0
BLOCK_RECORD
  5
41B
330
1
100
AcDbSymbolTableRecord
100
AcDbBlockTableRecord
  2
*D10
340
0
  0
BLOCK_RECORD
  5
428
330
1
100
AcDbSymbolTableRecord
100
AcDbBlockTableRecord
  2
*D11
340
0
  0
BLOCK_RECORD
  5
45A
330
1
100
AcDbSymbolTableRecord
100
AcDbBlockTableRecord
  2
*D12
340
0
  0
BLOCK_RECORD
  5
467
330
1
100
AcDbSymbolTableRecord
100
AcDbBlockTableRecord
  2
*D13
340
0
  0
BLOCK_RECORD
  5
47D
330
1
100
AcDbSymbolTableRecord
100
AcDbBlockTableRecord
  2
*D14
340
0
  0
BLOCK_RECORD
  5
493
330
1
100
AcDbSymbolTableRecord
100
AcDbBlockTableRecord
  2
*D15
340
0
  0
BLOCK_RECORD
  5
4C4
330
1
100
AcDbSymbolTableRecord
100
AcDbBlockTableRecord
  2
*D16
340
0
  0
BLOCK_RECORD
  5
4E6
330
1
100
AcDbSymbolTableRecord
100
AcDbBlockTableRecord
  2
*D17
340
0
  0
BLOCK_RECORD
  5
4FE
330
1
100
AcDbSymbolTableRecord
100
AcDbBlockTableRecord
  2
*D18
340
0
  0
BLOCK_RECORD
  5
50B
330
1
100
AcDbSymbolTableRecord
100
AcDbBlockTableRecord
  2
*D19
340
0
  0
BLOCK_RECORD
  5
523
330
1
100
AcDbSymbolTableRecord
100
AcDbBlockTableRecord
  2
*D20
340
0
  0
BLOCK_RECORD
  5
530
330
1
100
AcDbSymbolTableRecord
100
AcDbBlockTableRecord
  2
*D21
340
0
  0
BLOCK_RECORD
  5
54A
330
1
100
AcDbSymbolTableRecord
100
AcDbBlockTableRecord
  2
*D22
340
0
  0
BLOCK_RECORD
  5
6EB
330
1
100
AcDbSymbolTableRecord
100
AcDbBlockTableRecord
  2
*D23
340
0
  0
BLOCK_RECORD
  5
77C
330
1
100
AcDbSymbolTableRecord
100
AcDbBlockTableRecord
  2
*D24
340
0
  0
BLOCK_RECORD
  5
789
330
1
100
AcDbSymbolTableRecord
100
AcDbBlockTableRecord
  2
*D25
340
0
  0
BLOCK_RECORD
  5
7A1
330
1
100
AcDbSymbolTableRecord
100
AcDbBlockTableRecord
  2
*D26
340
0
  0
BLOCK_RECORD
  5
7AE
330
1
100
AcDbSymbolTableRecord
100
AcDbBlockTableRecord
  2
*D27
340
0
  0
BLOCK_RECORD
  5
7CB
330
1
100
AcDbSymbolTableRecord
100
AcDbBlockTableRecord
  2
*D28
340
0
  0
BLOCK_RECORD
  5
7D8
330
1
100
AcDbSymbolTableRecord
100
AcDbBlockTableRecord
  2
*D29
340
0
  0
BLOCK_RECORD
  5
F9E
330
1
100
AcDbSymbolTableRecord
100
AcDbBlockTableRecord
  2
_Dot
340
0
  0
BLOCK_RECORD
  5
FA4
330
1
100
AcDbSymbolTableRecord
100
AcDbBlockTableRecord
  2
*D31
340
0
  0
BLOCK_RECORD
  5
10B5
330
1
100
AcDbSymbolTableRecord
100
AcDbBlockTableRecord
  2
A$C63E535F0
340
0
  0
BLOCK_RECORD
  5
13F6
330
1
100
AcDbSymbolTableRecord
100
AcDbBlockTableRecord
  2
*D33
340
0
  0
BLOCK_RECORD
  5
14B3
102
{ACAD_XDICTIONARY
360
14EE
102
}
330
1
100
AcDbSymbolTableRecord
100
AcDbBlockTableRecord
  2
A$C1473022E
340
0
  0
BLOCK_RECORD
  5
1538
330
1
100
AcDbSymbolTableRecord
100
AcDbBlockTableRecord
  2
_None
340
0
  0
BLOCK_RECORD
  5
15D1
330
1
100
AcDbSymbolTableRecord
100
AcDbBlockTableRecord
  2
*D36
340
0
  0
BLOCK_RECORD
  5
15DD
330
1
100
AcDbSymbolTableRecord
100
AcDbBlockTableRecord
  2
*D37
340
0
  0
BLOCK_RECORD
  5
15E7
330
1
100
AcDbSymbolTableRecord
100
AcDbBlockTableRecord
  2
*D38
340
0
  0
ENDTAB
  0
ENDSEC
  0
SECTION
  2
BLOCKS
  0
BLOCK
  5
20
330
1F
100
AcDbEntity
  8
0
100
AcDbBlockBegin
  2
*Model_Space
 70
     0
 10
0.0
 20
0.0
 30
0.0
  3
*Model_Space
  1

  0
ENDBLK
  5
21
330
1F
100
AcDbEntity
  8
0
100
AcDbBlockEnd
  0
BLOCK
  5
1C
330
1B
100
AcDbEntity
 67
     1
  8
0
100
AcDbBlockBegin
  2
*Paper_Space
 70
     0
 10
0.0
 20
0.0
 30
0.0
  3
*Paper_Space
  1

  0
ENDBLK
  5
1D
330
1B
100
AcDbEntity
 67
     1
  8
0
100
AcDbBlockEnd
  0
BLOCK
  5
24
330
23
100
AcDbEntity
  8
0
100
AcDbBlockBegin
  2
*Paper_Space0
 70
     0
 10
0.0
 20
0.0
 30
0.0
  3
*Paper_Space0
  1

  0
ENDBLK
  5
25
330
23
100
AcDbEntity
  8
0
100
AcDbBlockEnd
  0
BLOCK
  5
D2
330
D0
100
AcDbEntity
  8
0
100
AcDbBlockBegin
  2
_DotSmall
 70
     0
 10
0.0
 20
0.0
 30
0.0
  3
_DotSmall
  1

  0
LWPOLYLINE
  5
D1
330
D0
100
AcDbEntity
  8
0
 62
     0
100
AcDbPolyline
 90
        2
 70
     1
 43
0.5
 10
-0.0625
 20
0.0
 42
1.0
 10
0.0625
 20
0.0
 42
1.0
  0
ENDBLK
  5
D3
330
D0
100
AcDbEntity
  8
0
100
AcDbBlockEnd
  0
BLOCK
  5
D8
330
D4
100
AcDbEntity
  8
0
100
AcDbBlockBegin
  2
_Origin2
 70
     0
 10
0.0
 20
0.0
 30
0.0
  3
_Origin2
  1

  0
CIRCLE
  5
D5
330
D4
100
AcDbEntity
  8
0
 62
     0
370
    -2
100
AcDbCircle
 10
0.0
 20
0.0
 30
0.0
 40
0.5
  0
CIRCLE
  5
D6
330
D4
100
AcDbEntity
  8
0
 62
     0
370
    -2
100
AcDbCircle
 10
0.0
 20
0.0
 30
0.0
 40
0.25
  0
LINE
  5
D7
330
D4
100
AcDbEntity
  8
0
 62
     0
370
    -2
100
AcDbLine
 10
-0.5
 20
0.0
 30
0.0
 11
-1.0
 21
0.0
 31
0.0
  0
ENDBLK
  5
D9
330
D4
100
AcDbEntity
  8
0
100
AcDbBlockEnd
  0
BLOCK
  5
DE
330
DA
100
AcDbEntity
  8
0
100
AcDbBlockBegin
  2
_Open30
 70
     0
 10
0.0
 20
0.0
 30
0.0
  3
_Open30
  1

  0
LINE
  5
DB
330
DA
100
AcDbEntity
  8
0
 62
     0
370
    -2
100
AcDbLine
 10
-1.0
 20
0.26794919
 30
0.0
 11
0.0
 21
0.0
 31
0.0
  0
LINE
  5
DC
330
DA
100
AcDbEntity
  8
0
 62
     0
370
    -2
100
AcDbLine
 10
0.0
 20
0.0
 30
0.0
 11
-1.0
 21
-0.26794919
 31
0.0
  0
LINE
  5
DD
330
DA
100
AcDbEntity
  8
0
 62
     0
370
    -2
100
AcDbLine
 10
0.0
 20
0.0
 30
0.0
 11
-1.0
 21
0.0
 31
0.0
  0
ENDBLK
  5
DF
330
DA
100
AcDbEntity
  8
0
100
AcDbBlockEnd
  0
BLOCK
  5
3AC
330
3A2
100
AcDbEntity
  8
0
100
AcDbBlockBegin
  2
*D4
 70
     1
 10
0.0
 20
0.0
 30
0.0
  3
*D4
  1

  0
LINE
  5
1626
330
3A2
100
AcDbEntity
  8
寸法
 62
     0
370
    15
100
AcDbLine
 10
1609.657978329059
 20
1553.516690245368
 30
0.0
 11
1609.657978329059
 21
1592.847889473033
 31
0.0
  0
LINE
  5
1627
330
3A2
100
AcDbEntity
  8
寸法
 62
     0
370
    15
100
AcDbLine
 10
1554.657978329059
 20
1553.516690245368
 30
0.0
 11
1554.657978329059
 21
1592.847889473033
 31
0.0
  0
LINE
  5
1628
330
3A2
100
AcDbEntity
  8
寸法
 62
     0
370
    15
100
AcDbLine
 10
1609.657978329059
 20
1592.847889473033
 30
0.0
 11
1554.657978329059
 21
1592.847889473033
 31
0.0
  0
INSERT
  5
1629
330
3A2
100
AcDbEntity
  8
寸法
 62
     0
370
    15
100
AcDbBlockReference
  2
_DotSmall
 10
1609.657978329059
 20
1592.847889473033
 30
0.0
 41
35.0
 42
35.0
 43
35.0
  0
INSERT
  5
162A
330
3A2
100
AcDbEntity
  8
寸法
 62
     0
370
    15
100
AcDbBlockReference
  2
_DotSmall
 10
1554.657978329059
 20
1592.847889473033
 30
0.0
 41
35.0
 42
35.0
 43
35.0
 50
180.0
  0
MTEXT
  5
162B
330
3A2
100
AcDbEntity
  8
寸法
 62
     0
100
AcDbMText
 10
1582.157978329059
 20
1611.597889473033
 30
0.0
 40
25.0
 41
0.0
 71
     5
 72
     1
  1
55
 73
     1
 44
1.0
1001
ACAD
1000
MTEXTBEGIN
1070
    73
1070
     1
1070
    44
1040
1.0
1070
    74
1070
     0
1000
MTEXTEND
  0
POINT
  5
162C
330
3A2
100
AcDbEntity
  8
Defpoints
 62
     0
100
AcDbPoint
 10
1609.657978329059
 20
1488.516690245368
 30
0.0
  0
POINT
  5
162D
330
3A2
100
AcDbEntity
  8
Defpoints
 62
     0
100
AcDbPoint
 10
1554.657978329059
 20
1488.516690245368
 30
0.0
  0
POINT
  5
162E
330
3A2
100
AcDbEntity
  8
Defpoints
 62
     0
100
AcDbPoint
 10
1554.657978329059
 20
1592.847889473033
 30
0.0
  0
ENDBLK
  5
3AD
330
3A2
100
AcDbEntity
  8
0
100
AcDbBlockEnd
  0
BLOCK
  5
3B9
330
3AF
100
AcDbEntity
  8
0
100
AcDbBlockBegin
  2
*D5
 70
     1
 10
0.0
 20
0.0
 30
0.0
  3
*D5
  1

  0
LINE
  5
162F
330
3AF
100
AcDbEntity
  8
寸法
 62
     0
370
    15
100
AcDbLine
 10
1554.657978329059
 20
1553.516690245368
 30
0.0
 11
1554.657978329059
 21
1592.847889473033
 31
0.0
  0
LINE
  5
1630
330
3AF
100
AcDbEntity
  8
寸法
 62
     0
370
    15
100
AcDbLine
 10
1364.657978329059
 20
1553.516690245368
 30
0.0
 11
1364.657978329059
 21
1592.847889473033
 31
0.0
  0
LINE
  5
1631
330
3AF
100
AcDbEntity
  8
寸法
 62
     0
370
    15
100
AcDbLine
 10
1554.657978329059
 20
1592.847889473033
 30
0.0
 11
1364.657978329059
 21
1592.847889473033
 31
0.0
  0
INSERT
  5
1632
330
3AF
100
AcDbEntity
  8
寸法
 62
     0
370
    15
100
AcDbBlockReference
  2
_DotSmall
 10
1554.657978329059
 20
1592.847889473033
 30
0.0
 41
35.0
 42
35.0
 43
35.0
  0
INSERT
  5
1633
330
3AF
100
AcDbEntity
  8
寸法
 62
     0
370
    15
100
AcDbBlockReference
  2
_DotSmall
 10
1364.657978329059
 20
1592.847889473033
 30
0.0
 41
35.0
 42
35.0
 43
35.0
 50
180.0
  0
MTEXT
  5
1634
330
3AF
100
AcDbEntity
  8
寸法
 62
     0
100
AcDbMText
 10
1459.657978329059
 20
1611.597889473033
 30
0.0
 40
25.0
 41
0.0
 71
     5
 72
     1
  1
190
 73
     1
 44
1.0
1001
ACAD
1000
MTEXTBEGIN
1070
    73
1070
     1
1070
    44
1040
1.0
1070
    74
1070
     0
1000
MTEXTEND
  0
POINT
  5
1635
330
3AF
100
AcDbEntity
  8
Defpoints
 62
     0
100
AcDbPoint
 10
1554.657978329059
 20
1488.516690245368
 30
0.0
  0
POINT
  5
1636
330
3AF
100
AcDbEntity
  8
Defpoints
 62
     0
100
AcDbPoint
 10
1364.657978329059
 20
1488.516690245368
 30
0.0
  0
POINT
  5
1637
330
3AF
100
AcDbEntity
  8
Defpoints
 62
     0
100
AcDbPoint
 10
1364.657978329059
 20
1592.847889473033
 30
0.0
  0
ENDBLK
  5
3BA
330
3AF
100
AcDbEntity
  8
0
100
AcDbBlockEnd
  0
BLOCK
  5
3CD
330
3C3
100
AcDbEntity
  8
0
100
AcDbBlockBegin
  2
*D6
 70
     1
 10
0.0
 20
0.0
 30
0.0
  3
*D6
  1

  0
LINE
  5
1751
330
3C3
100
AcDbEntity
  8
寸法
 62
     0
370
    15
100
AcDbLine
 10
1328.657978329059
 20
1488.516690245368
 30
0.0
 11
1266.357929409943
 21
1488.516690245368
 31
0.0
  0
LINE
  5
1752
330
3C3
100
AcDbEntity
  8
寸法
 62
     0
370
    15
100
AcDbLine
 10
1328.657978329059
 20
1428.516690245368
 30
0.0
 11
1266.357929409943
 21
1428.516690245368
 31
0.0
  0
LINE
  5
1753
330
3C3
100
AcDbEntity
  8
寸法
 62
     0
370
    15
100
AcDbLine
 10
1266.357929409943
 20
1488.516690245368
 30
0.0
 11
1266.357929409943
 21
1428.516690245368
 31
0.0
  0
INSERT
  5
1754
330
3C3
100
AcDbEntity
  8
寸法
 62
     0
370
    15
100
AcDbBlockReference
  2
_DotSmall
 10
1266.357929409943
 20
1488.516690245368
 30
0.0
 41
35.0
 42
35.0
 43
35.0
 50
90.0
  0
INSERT
  5
1755
330
3C3
100
AcDbEntity
  8
寸法
 62
     0
370
    15
100
AcDbBlockReference
  2
_DotSmall
 10
1266.357929409943
 20
1428.516690245368
 30
0.0
 41
35.0
 42
35.0
 43
35.0
 50
270.0
  0
MTEXT
  5
1756
330
3C3
100
AcDbEntity
  8
寸法
 62
     0
100
AcDbMText
 10
1247.607929409942
 20
1458.516690245368
 30
0.0
 40
25.0
 41
0.0
 71
     5
 72
     1
  1
58
 11
0.0000000000000001
 21
1.0
 31
0.0
 73
     1
 44
1.0
1001
ACAD
1000
MTEXTBEGIN
1070
    73
1070
     1
1070
    44
1040
1.0
1070
    74
1070
     0
1000
MTEXTEND
  0
POINT
  5
1757
330
3C3
100
AcDbEntity
  8
Defpoints
 62
     0
100
AcDbPoint
 10
1393.657978329059
 20
1488.516690245368
 30
0.0
  0
POINT
  5
1758
330
3C3
100
AcDbEntity
  8
Defpoints
 62
     0
100
AcDbPoint
 10
1393.657978329059
 20
1428.516690245368
 30
0.0
  0
POINT
  5
1759
330
3C3
100
AcDbEntity
  8
Defpoints
 62
     0
100
AcDbPoint
 10
1266.357929409943
 20
1428.516690245368
 30
0.0
  0
ENDBLK
  5
3CE
330
3C3
100
AcDbEntity
  8
0
100
AcDbBlockEnd
  0
BLOCK
  5
3F4
330
3EA
100
AcDbEntity
  8
0
100
AcDbBlockBegin
  2
*D7
 70
     1
 10
0.0
 20
0.0
 30
0.0
  3
*D7
  1

  0
LINE
  5
1641
330
3EA
100
AcDbEntity
  8
寸法
 62
     0
370
    15
100
AcDbLine
 10
1315.157978329059
 20
1273.516690245368
 30
0.0
 11
1284.785057944074
 21
1273.516690245368
 31
0.0
  0
LINE
  5
1642
330
3EA
100
AcDbEntity
  8
寸法
 62
     0
370
    15
100
AcDbLine
 10
1284.785057944074
 20
1273.516690245368
 30
0.0
 11
1284.785057944074
 21
1403.516690245368
 31
0.0
  0
INSERT
  5
1643
330
3EA
100
AcDbEntity
  8
寸法
 62
     0
370
    15
100
AcDbBlockReference
  2
_DotSmall
 10
1284.785057944074
 20
1273.516690245368
 30
0.0
 41
35.0
 42
35.0
 43
35.0
 50
270.0
  0
INSERT
  5
1644
330
3EA
100
AcDbEntity
  8
寸法
 62
     0
370
    15
100
AcDbBlockReference
  2
_DotSmall
 10
1284.785057944074
 20
1403.516690245368
 30
0.0
 41
35.0
 42
35.0
 43
35.0
 50
90.0
  0
MTEXT
  5
1645
330
3EA
100
AcDbEntity
  8
寸法
 62
     0
100
AcDbMText
 10
1266.035057944073
 20
1338.516690245368
 30
0.0
 40
25.0
 41
0.0
 71
     5
 72
     1
  1
130
 11
0.0000000000000001
 21
1.0
 31
0.0
 73
     1
 44
1.0
1001
ACAD
1000
MTEXTBEGIN
1070
    73
1070
     1
1070
    44
1040
1.0
1070
    74
1070
     0
1000
MTEXTEND
  0
POINT
  5
1646
330
3EA
100
AcDbEntity
  8
Defpoints
 62
     0
100
AcDbPoint
 10
1380.157978329059
 20
1273.516690245368
 30
0.0
  0
POINT
  5
1647
330
3EA
100
AcDbEntity
  8
Defpoints
 62
     0
100
AcDbPoint
 10
1284.657978329059
 20
1403.516690245368
 30
0.0
  0
POINT
  5
1648
330
3EA
100
AcDbEntity
  8
Defpoints
 62
     0
100
AcDbPoint
 10
1284.785057944074
 20
1403.516690245368
 30
0.0
  0
ENDBLK
  5
3F5
330
3EA
100
AcDbEntity
  8
0
100
AcDbBlockEnd
  0
BLOCK
  5
401
330
3F7
100
AcDbEntity
  8
0
100
AcDbBlockBegin
  2
*D8
 70
     1
 10
0.0
 20
0.0
 30
0.0
  3
*D8
  1

  0
LINE
  5
1649
330
3F7
100
AcDbEntity
  8
寸法
 62
     0
370
    15
100
AcDbLine
 10
1459.657978329059
 20
1129.016690245368
 30
0.0
 11
1459.657978329059
 21
1120.923923974367
 31
0.0
  0
LINE
  5
164A
330
3F7
100
AcDbEntity
  8
寸法
 62
     0
370
    15
100
AcDbLine
 10
1609.657978329059
 20
1118.016690245368
 30
0.0
 11
1609.657978329059
 21
1120.923923974367
 31
0.0
  0
LINE
  5
164B
330
3F7
100
AcDbEntity
  8
寸法
 62
     0
370
    15
100
AcDbLine
 10
1459.657978329059
 20
1120.923923974367
 30
0.0
 11
1609.657978329059
 21
1120.923923974367
 31
0.0
  0
INSERT
  5
164C
330
3F7
100
AcDbEntity
  8
寸法
 62
     0
370
    15
100
AcDbBlockReference
  2
_DotSmall
 10
1459.657978329059
 20
1120.923923974367
 30
0.0
 41
35.0
 42
35.0
 43
35.0
 50
180.0
  0
INSERT
  5
164D
330
3F7
100
AcDbEntity
  8
寸法
 62
     0
370
    15
100
AcDbBlockReference
  2
_DotSmall
 10
1609.657978329059
 20
1120.923923974367
 30
0.0
 41
35.0
 42
35.0
 43
35.0
  0
MTEXT
  5
164E
330
3F7
100
AcDbEntity
  8
寸法
 62
     0
100
AcDbMText
 10
1534.657978329059
 20
1139.673923974367
 30
0.0
 40
25.0
 41
0.0
 71
     5
 72
     1
  1
150
 73
     1
 44
1.0
1001
ACAD
1000
MTEXTBEGIN
1070
    73
1070
     1
1070
    44
1040
1.0
1070
    74
1070
     0
1000
MTEXTEND
  0
POINT
  5
164F
330
3F7
100
AcDbEntity
  8
Defpoints
 62
     0
100
AcDbPoint
 10
1459.657978329059
 20
1194.016690245368
 30
0.0
  0
POINT
  5
1650
330
3F7
100
AcDbEntity
  8
Defpoints
 62
     0
100
AcDbPoint
 10
1609.657978329059
 20
1183.016690245368
 30
0.0
  0
POINT
  5
1651
330
3F7
100
AcDbEntity
  8
Defpoints
 62
     0
100
AcDbPoint
 10
1609.657978329059
 20
1120.923923974367
 30
0.0
  0
ENDBLK
  5
402
330
3F7
100
AcDbEntity
  8
0
100
AcDbBlockEnd
  0
BLOCK
  5
418
330
40D
100
AcDbEntity
  8
0
100
AcDbBlockBegin
  2
*D9
 70
     1
 10
0.0
 20
0.0
 30
0.0
  3
*D9
  1

  0
LINE
  5
1652
330
40D
100
AcDbEntity
  8
寸法
 62
     0
370
    15
100
AcDbLine
 10
874.657978329059
 20
978.5166902453683
 30
0.0
 11
840.8623174674996
 21
978.5166902453683
 31
0.0
  0
LINE
  5
1653
330
40D
100
AcDbEntity
  8
寸法
 62
     0
370
    15
100
AcDbLine
 10
874.657978329059
 20
993.5166902453683
 30
0.0
 11
840.8623174674996
 21
993.5166902453683
 31
0.0
  0
LINE
  5
1654
330
40D
100
AcDbEntity
  8
寸法
 62
     0
370
    15
100
AcDbLine
 10
840.8623174674996
 20
978.5166902453683
 30
0.0
 11
840.8623174674996
 21
993.5166902453683
 31
0.0
  0
LINE
  5
1655
330
40D
100
AcDbEntity
  8
寸法
 62
     0
370
    15
100
AcDbLine
 10
840.8623174674996
 20
993.5166902453683
 30
0.0
 11
840.8623174674996
 21
1074.350023578702
 31
0.0
  0
INSERT
  5
1656
330
40D
100
AcDbEntity
  8
寸法
 62
     0
370
    15
100
AcDbBlockReference
  2
_DotSmall
 10
840.8623174674996
 20
978.5166902453683
 30
0.0
 41
35.0
 42
35.0
 43
35.0
 50
270.0
  0
INSERT
  5
1657
330
40D
100
AcDbEntity
  8
寸法
 62
     0
370
    15
100
AcDbBlockReference
  2
_DotSmall
 10
840.8623174674996
 20
993.5166902453683
 30
0.0
 41
35.0
 42
35.0
 43
35.0
 50
90.0
  0
MTEXT
  5
1658
330
40D
100
AcDbEntity
  8
寸法
 62
     0
100
AcDbMText
 10
822.1123174674994
 20
1051.433356912035
 30
0.0
 40
25.0
 41
0.0
 71
     5
 72
     1
  1
15
 11
0.0000000000000001
 21
1.0
 31
0.0
 73
     1
 44
1.0
1001
ACAD
1000
MTEXTBEGIN
1070
    73
1070
     1
1070
    44
1040
1.0
1070
    74
1070
     0
1000
MTEXTEND
  0
POINT
  5
1659
330
40D
100
AcDbEntity
  8
Defpoints
 62
     0
100
AcDbPoint
 10
939.657978329059
 20
978.5166902453683
 30
0.0
  0
POINT
  5
165A
330
40D
100
AcDbEntity
  8
Defpoints
 62
     0
100
AcDbPoint
 10
939.657978329059
 20
993.5166902453683
 30
0.0
  0
POINT
  5
165B
330
40D
100
AcDbEntity
  8
Defpoints
 62
     0
100
AcDbPoint
 10
840.8623174674996
 20
993.5166902453683
 30
0.0
  0
ENDBLK
  5
419
330
40D
100
AcDbEntity
  8
0
100
AcDbBlockEnd
  0
BLOCK
  5
425
330
41B
100
AcDbEntity
  8
0
100
AcDbBlockBegin
  2
*D10
 70
     1
 10
0.0
 20
0.0
 30
0.0
  3
*D10
  1

  0
LINE
  5
165C
330
41B
100
AcDbEntity
  8
寸法
 62
     0
370
    15
100
AcDbLine
 10
874.657978329059
 20
993.5166902453683
 30
0.0
 11
840.8623174674994
 21
993.5166902453683
 31
0.0
  0
LINE
  5
165D
330
41B
100
AcDbEntity
  8
寸法
 62
     0
370
    15
100
AcDbLine
 10
874.657978329059
 20
1403.516690245368
 30
0.0
 11
840.8623174674996
 21
1403.516690245368
 31
0.0
  0
LINE
  5
165E
330
41B
100
AcDbEntity
  8
寸法
 62
     0
370
    15
100
AcDbLine
 10
840.8623174674994
 20
993.5166902453683
 30
0.0
 11
840.8623174674996
 21
1403.516690245368
 31
0.0
  0
INSERT
  5
165F
330
41B
100
AcDbEntity
  8
寸法
 62
     0
370
    15
100
AcDbBlockReference
  2
_DotSmall
 10
840.8623174674994
 20
993.5166902453683
 30
0.0
 41
35.0
 42
35.0
 43
35.0
 50
270.0
  0
INSERT
  5
1660
330
41B
100
AcDbEntity
  8
寸法
 62
     0
370
    15
100
AcDbBlockReference
  2
_DotSmall
 10
840.8623174674996
 20
1403.516690245368
 30
0.0
 41
35.0
 42
35.0
 43
35.0
 50
90.0
  0
MTEXT
  5
1661
330
41B
100
AcDbEntity
  8
寸法
 62
     0
100
AcDbMText
 10
822.1123174674993
 20
1198.516690245368
 30
0.0
 40
25.0
 41
0.0
 71
     5
 72
     1
  1
410
 11
0.0000000000000001
 21
1.0
 31
0.0
 73
     1
 44
1.0
1001
ACAD
1000
MTEXTBEGIN
1070
    73
1070
     1
1070
    44
1040
1.0
1070
    74
1070
     0
1000
MTEXTEND
  0
POINT
  5
1662
330
41B
100
AcDbEntity
  8
Defpoints
 62
     0
100
AcDbPoint
 10
939.657978329059
 20
993.5166902453683
 30
0.0
  0
POINT
  5
1663
330
41B
100
AcDbEntity
  8
Defpoints
 62
     0
100
AcDbPoint
 10
939.657978329059
 20
1403.516690245368
 30
0.0
  0
POINT
  5
1664
330
41B
100
AcDbEntity
  8
Defpoints
 62
     0
100
AcDbPoint
 10
840.8623174674996
 20
1403.516690245368
 30
0.0
  0
ENDBLK
  5
426
330
41B
100
AcDbEntity
  8
0
100
AcDbBlockEnd
  0
BLOCK
  5
432
330
428
100
AcDbEntity
  8
0
100
AcDbBlockBegin
  2
*D11
 70
     1
 10
0.0
 20
0.0
 30
0.0
  3
*D11
  1

  0
LINE
  5
1665
330
428
100
AcDbEntity
  8
寸法
 62
     0
370
    15
100
AcDbLine
 10
874.657978329059
 20
1403.516690245368
 30
0.0
 11
840.8623174674996
 21
1403.516690245368
 31
0.0
  0
LINE
  5
1666
330
428
100
AcDbEntity
  8
寸法
 62
     0
370
    15
100
AcDbLine
 10
874.657978329059
 20
1418.516690245368
 30
0.0
 11
840.8623174674996
 21
1418.516690245368
 31
0.0
  0
LINE
  5
1667
330
428
100
AcDbEntity
  8
寸法
 62
     0
370
    15
100
AcDbLine
 10
840.8623174674996
 20
1403.516690245368
 30
0.0
 11
840.8623174674996
 21
1418.516690245368
 31
0.0
  0
MTEXT
  5
1668
330
428
100
AcDbEntity
  8
寸法
 62
     0
100
AcDbMText
 10
822.1123174674994
 20
1365.95281566394
 30
0.0
 40
25.0
 41
0.0
 71
     5
 72
     1
  1
15
 11
0.0000000000000001
 21
1.0
 31
0.0
 73
     1
 44
1.0
1001
ACAD
1000
MTEXTBEGIN
1070
    73
1070
     1
1070
    44
1040
1.0
1070
    74
1070
     0
1000
MTEXTEND
  0
INSERT
  5
1669
330
428
100
AcDbEntity
  8
寸法
 62
     0
370
    15
100
AcDbBlockReference
  2
_DotSmall
 10
840.8623174674996
 20
1403.516690245368
 30
0.0
 41
35.0
 42
35.0
 43
35.0
 50
270.0
  0
INSERT
  5
166A
330
428
100
AcDbEntity
  8
寸法
 62
     0
370
    15
100
AcDbBlockReference
  2
_DotSmall
 10
840.8623174674996
 20
1418.516690245368
 30
0.0
 41
35.0
 42
35.0
 43
35.0
 50
90.0
  0
POINT
  5
166B
330
428
100
AcDbEntity
  8
Defpoints
 62
     0
100
AcDbPoint
 10
939.657978329059
 20
1403.516690245368
 30
0.0
  0
POINT
  5
166C
330
428
100
AcDbEntity
  8
Defpoints
 62
     0
100
AcDbPoint
 10
939.657978329059
 20
1418.516690245368
 30
0.0
  0
POINT
  5
166D
330
428
100
AcDbEntity
  8
Defpoints
 62
     0
100
AcDbPoint
 10
840.8623174674996
 20
1418.516690245368
 30
0.0
  0
ENDBLK
  5
433
330
428
100
AcDbEntity
  8
0
100
AcDbBlockEnd
  0
BLOCK
  5
464
330
45A
100
AcDbEntity
  8
0
100
AcDbBlockBegin
  2
*D12
 70
     1
 10
0.0
 20
0.0
 30
0.0
  3
*D12
  1

  0
LINE
  5
166E
330
45A
100
AcDbEntity
  8
寸法
 62
     0
370
    15
100
AcDbLine
 10
874.657978329059
 20
1418.516690245368
 30
0.0
 11
764.3698752279425
 21
1418.516690245368
 31
0.0
  0
LINE
  5
166F
330
45A
100
AcDbEntity
  8
寸法
 62
     0
370
    15
100
AcDbLine
 10
874.657978329059
 20
978.5166902453683
 30
0.0
 11
764.3698752279424
 21
978.5166902453685
 31
0.0
  0
LINE
  5
1670
330
45A
100
AcDbEntity
  8
寸法
 62
     0
370
    15
100
AcDbLine
 10
764.3698752279425
 20
1418.516690245368
 30
0.0
 11
764.3698752279424
 21
978.5166902453685
 31
0.0
  0
INSERT
  5
1671
330
45A
100
AcDbEntity
  8
寸法
 62
     0
370
    15
100
AcDbBlockReference
  2
_DotSmall
 10
764.3698752279425
 20
1418.516690245368
 30
0.0
 41
35.0
 42
35.0
 43
35.0
 50
90.0
  0
INSERT
  5
1672
330
45A
100
AcDbEntity
  8
寸法
 62
     0
370
    15
100
AcDbBlockReference
  2
_DotSmall
 10
764.3698752279424
 20
978.5166902453685
 30
0.0
 41
35.0
 42
35.0
 43
35.0
 50
270.0
  0
MTEXT
  5
1673
330
45A
100
AcDbEntity
  8
寸法
 62
     0
100
AcDbMText
 10
745.6198752279423
 20
1198.516690245368
 30
0.0
 40
25.0
 41
0.0
 71
     5
 72
     1
  1
440
 11
0.0000000000000001
 21
1.0
 31
0.0
 73
     1
 44
1.0
1001
ACAD
1000
MTEXTBEGIN
1070
    73
1070
     1
1070
    44
1040
1.0
1070
    74
1070
     0
1000
MTEXTEND
  0
POINT
  5
1674
330
45A
100
AcDbEntity
  8
Defpoints
 62
     0
100
AcDbPoint
 10
939.657978329059
 20
1418.516690245368
 30
0.0
  0
POINT
  5
1675
330
45A
100
AcDbEntity
  8
Defpoints
 62
     0
100
AcDbPoint
 10
939.657978329059
 20
978.5166902453683
 30
0.0
  0
POINT
  5
1676
330
45A
100
AcDbEntity
  8
Defpoints
 62
     0
100
AcDbPoint
 10
764.3698752279424
 20
978.5166902453685
 30
0.0
  0
ENDBLK
  5
465
330
45A
100
AcDbEntity
  8
0
100
AcDbBlockEnd
  0
BLOCK
  5
471
330
467
100
AcDbEntity
  8
0
100
AcDbBlockBegin
  2
*D13
 70
     1
 10
0.0
 20
0.0
 30
0.0
  3
*D13
  1

  0
LINE
  5
1677
330
467
100
AcDbEntity
  8
寸法
 62
     0
370
    15
100
AcDbLine
 10
874.657978329059
 20
1418.516690245368
 30
0.0
 11
764.3698752279424
 21
1418.516690245368
 31
0.0
  0
LINE
  5
1678
330
467
100
AcDbEntity
  8
寸法
 62
     0
370
    15
100
AcDbLine
 10
874.657978329059
 20
1498.516690245368
 30
0.0
 11
764.3698752279424
 21
1498.516690245368
 31
0.0
  0
LINE
  5
1679
330
467
100
AcDbEntity
  8
寸法
 62
     0
370
    15
100
AcDbLine
 10
764.3698752279424
 20
1418.516690245368
 30
0.0
 11
764.3698752279424
 21
1498.516690245368
 31
0.0
  0
INSERT
  5
167A
330
467
100
AcDbEntity
  8
寸法
 62
     0
370
    15
100
AcDbBlockReference
  2
_DotSmall
 10
764.3698752279424
 20
1418.516690245368
 30
0.0
 41
35.0
 42
35.0
 43
35.0
 50
270.0
  0
INSERT
  5
167B
330
467
100
AcDbEntity
  8
寸法
 62
     0
370
    15
100
AcDbBlockReference
  2
_DotSmall
 10
764.3698752279424
 20
1498.516690245368
 30
0.0
 41
35.0
 42
35.0
 43
35.0
 50
90.0
  0
MTEXT
  5
167C
330
467
100
AcDbEntity
  8
寸法
 62
     0
100
AcDbMText
 10
745.6198752279422
 20
1458.516690245368
 30
0.0
 40
25.0
 41
0.0
 71
     5
 72
     1
  1
80
 11
0.0000000000000001
 21
1.0
 31
0.0
 73
     1
 44
1.0
1001
ACAD
1000
MTEXTBEGIN
1070
    73
1070
     1
1070
    44
1040
1.0
1070
    74
1070
     0
1000
MTEXTEND
  0
POINT
  5
167D
330
467
100
AcDbEntity
  8
Defpoints
 62
     0
100
AcDbPoint
 10
939.657978329059
 20
1418.516690245368
 30
0.0
  0
POINT
  5
167E
330
467
100
AcDbEntity
  8
Defpoints
 62
     0
100
AcDbPoint
 10
939.657978329059
 20
1498.516690245368
 30
0.0
  0
POINT
  5
167F
330
467
100
AcDbEntity
  8
Defpoints
 62
     0
100
AcDbPoint
 10
764.3698752279424
 20
1498.516690245368
 30
0.0
  0
ENDBLK
  5
472
330
467
100
AcDbEntity
  8
0
100
AcDbBlockEnd
  0
BLOCK
  5
487
330
47D
100
AcDbEntity
  8
0
100
AcDbBlockBegin
  2
*D14
 70
     1
 10
0.0
 20
0.0
 30
0.0
  3
*D14
  1

  0
LINE
  5
1680
330
47D
100
AcDbEntity
  8
寸法
 62
     0
370
    15
100
AcDbLine
 10
874.657978329059
 20
1498.516690245368
 30
0.0
 11
764.3698752279424
 21
1498.516690245368
 31
0.0
  0
LINE
  5
1681
330
47D
100
AcDbEntity
  8
寸法
 62
     0
370
    15
100
AcDbLine
 10
874.657978329059
 20
1533.516690245368
 30
0.0
 11
764.3698752279424
 21
1533.516690245368
 31
0.0
  0
LINE
  5
1682
330
47D
100
AcDbEntity
  8
寸法
 62
     0
370
    15
100
AcDbLine
 10
764.3698752279424
 20
1498.516690245368
 30
0.0
 11
764.3698752279424
 21
1533.516690245368
 31
0.0
  0
MTEXT
  5
1683
330
47D
100
AcDbEntity
  8
寸法
 62
     0
100
AcDbMText
 10
743.5522159018874
 20
1566.612098482695
 30
0.0
 40
25.0
 41
0.0
 71
     5
 72
     1
  1
35
 11
0.0000000000000001
 21
1.0
 31
0.0
 73
     1
 44
1.0
1001
ACAD
1000
MTEXTBEGIN
1070
    73
1070
     1
1070
    44
1040
1.0
1070
    74
1070
     0
1000
MTEXTEND
  0
INSERT
  5
1684
330
47D
100
AcDbEntity
  8
寸法
 62
     0
370
    15
100
AcDbBlockReference
  2
_DotSmall
 10
764.3698752279424
 20
1498.516690245368
 30
0.0
 41
35.0
 42
35.0
 43
35.0
 50
270.0
  0
INSERT
  5
1685
330
47D
100
AcDbEntity
  8
寸法
 62
     0
370
    15
100
AcDbBlockReference
  2
_DotSmall
 10
764.3698752279424
 20
1533.516690245368
 30
0.0
 41
35.0
 42
35.0
 43
35.0
 50
90.0
  0
POINT
  5
1686
330
47D
100
AcDbEntity
  8
Defpoints
 62
     0
100
AcDbPoint
 10
939.657978329059
 20
1498.516690245368
 30
0.0
  0
POINT
  5
1687
330
47D
100
AcDbEntity
  8
Defpoints
 62
     0
100
AcDbPoint
 10
939.657978329059
 20
1533.516690245368
 30
0.0
  0
POINT
  5
1688
330
47D
100
AcDbEntity
  8
Defpoints
 62
     0
100
AcDbPoint
 10
764.3698752279424
 20
1533.516690245368
 30
0.0
  0
ENDBLK
  5
488
330
47D
100
AcDbEntity
  8
0
100
AcDbBlockEnd
  0
BLOCK
  5
49D
330
493
100
AcDbEntity
  8
0
100
AcDbBlockBegin
  2
*D15
 70
     1
 10
0.0
 20
0.0
 30
0.0
  3
*D15
  1

  0
LINE
  5
1689
330
493
100
AcDbEntity
  8
寸法
 62
     0
370
    15
100
AcDbLine
 10
874.657978329059
 20
1533.516690245368
 30
0.0
 11
686.8210915177643
 21
1533.516690245368
 31
0.0
  0
LINE
  5
168A
330
493
100
AcDbEntity
  8
寸法
 62
     0
370
    15
100
AcDbLine
 10
874.657978329059
 20
943.5166902453683
 30
0.0
 11
686.8210915177642
 21
943.5166902453685
 31
0.0
  0
LINE
  5
168B
330
493
100
AcDbEntity
  8
寸法
 62
     0
370
    15
100
AcDbLine
 10
686.8210915177643
 20
1533.516690245368
 30
0.0
 11
686.8210915177642
 21
943.5166902453685
 31
0.0
  0
INSERT
  5
168C
330
493
100
AcDbEntity
  8
寸法
 62
     0
370
    15
100
AcDbBlockReference
  2
_DotSmall
 10
686.8210915177643
 20
1533.516690245368
 30
0.0
 41
35.0
 42
35.0
 43
35.0
 50
90.0
  0
INSERT
  5
168D
330
493
100
AcDbEntity
  8
寸法
 62
     0
370
    15
100
AcDbBlockReference
  2
_DotSmall
 10
686.8210915177642
 20
943.5166902453685
 30
0.0
 41
35.0
 42
35.0
 43
35.0
 50
270.0
  0
MTEXT
  5
168E
330
493
100
AcDbEntity
  8
寸法
 62
     0
100
AcDbMText
 10
668.0710915177641
 20
1238.516690245369
 30
0.0
 40
25.0
 41
0.0
 71
     5
 72
     1
  1
590
 11
0.0000000000000001
 21
1.0
 31
0.0
 73
     1
 44
1.0
1001
ACAD
1000
MTEXTBEGIN
1070
    73
1070
     1
1070
    44
1040
1.0
1070
    74
1070
     0
1000
MTEXTEND
  0
POINT
  5
168F
330
493
100
AcDbEntity
  8
Defpoints
 62
     0
100
AcDbPoint
 10
939.657978329059
 20
1533.516690245368
 30
0.0
  0
POINT
  5
1690
330
493
100
AcDbEntity
  8
Defpoints
 62
     0
100
AcDbPoint
 10
939.657978329059
 20
943.5166902453683
 30
0.0
  0
POINT
  5
1691
330
493
100
AcDbEntity
  8
Defpoints
 62
     0
100
AcDbPoint
 10
686.8210915177642
 20
943.5166902453685
 30
0.0
  0
ENDBLK
  5
49E
330
493
100
AcDbEntity
  8
0
100
AcDbBlockEnd
  0
BLOCK
  5
4CF
330
4C4
100
AcDbEntity
  8
0
100
AcDbBlockBegin
  2
*D16
 70
     1
 10
0.0
 20
0.0
 30
0.0
  3
*D16
  1

  0
LINE
  5
1692
330
4C4
100
AcDbEntity
  8
寸法
 62
     0
370
    15
100
AcDbLine
 10
874.657978329059
 20
978.5166902453683
 30
0.0
 11
764.3698752279425
 21
978.5166902453685
 31
0.0
  0
LINE
  5
1693
330
4C4
100
AcDbEntity
  8
寸法
 62
     0
370
    15
100
AcDbLine
 10
874.657978329059
 20
943.5166902453683
 30
0.0
 11
764.3698752279425
 21
943.5166902453685
 31
0.0
  0
LINE
  5
1694
330
4C4
100
AcDbEntity
  8
寸法
 62
     0
370
    15
100
AcDbLine
 10
764.3698752279425
 20
978.5166902453685
 30
0.0
 11
764.3698752279425
 21
943.5166902453685
 31
0.0
  0
MTEXT
  5
1695
330
4C4
100
AcDbEntity
  8
寸法
 62
     0
100
AcDbMText
 10
737.6460749835286
 20
973.5782442527224
 30
0.0
 40
25.0
 41
0.0
 71
     5
 72
     1
  1
35
 11
0.0000000000000001
 21
1.0
 31
0.0
 73
     1
 44
1.0
1001
ACAD
1000
MTEXTBEGIN
1070
    73
1070
     1
1070
    44
1040
1.0
1070
    74
1070
     0
1000
MTEXTEND
  0
INSERT
  5
1696
330
4C4
100
AcDbEntity
  8
寸法
 62
     0
370
    15
100
AcDbBlockReference
  2
_DotSmall
 10
764.3698752279425
 20
978.5166902453685
 30
0.0
 41
35.0
 42
35.0
 43
35.0
 50
90.0
  0
INSERT
  5
1697
330
4C4
100
AcDbEntity
  8
寸法
 62
     0
370
    15
100
AcDbBlockReference
  2
_DotSmall
 10
764.3698752279425
 20
943.5166902453685
 30
0.0
 41
35.0
 42
35.0
 43
35.0
 50
270.0
  0
POINT
  5
1698
330
4C4
100
AcDbEntity
  8
Defpoints
 62
     0
100
AcDbPoint
 10
939.657978329059
 20
978.5166902453683
 30
0.0
  0
POINT
  5
1699
330
4C4
100
AcDbEntity
  8
Defpoints
 62
     0
100
AcDbPoint
 10
939.657978329059
 20
943.5166902453683
 30
0.0
  0
POINT
  5
169A
330
4C4
100
AcDbEntity
  8
Defpoints
 62
     0
100
AcDbPoint
 10
764.3698752279425
 20
943.5166902453685
 30
0.0
  0
ENDBLK
  5
4D0
330
4C4
100
AcDbEntity
  8
0
100
AcDbBlockEnd
  0
BLOCK
  5
4F1
330
4E6
100
AcDbEntity
  8
0
100
AcDbBlockBegin
  2
*D17
 70
     1
 10
0.0
 20
0.0
 30
0.0
  3
*D17
  1

  0
LINE
  5
169B
330
4E6
100
AcDbEntity
  8
寸法
 62
     0
370
    15
100
AcDbLine
 10
924.657978329059
 20
893.5166902453683
 30
0.0
 11
924.657978329059
 21
846.5141829860149
 31
0.0
  0
LINE
  5
169C
330
4E6
100
AcDbEntity
  8
寸法
 62
     0
370
    15
100
AcDbLine
 10
959.6579783290589
 20
893.5166902453683
 30
0.0
 11
959.6579783290589
 21
846.5141829860149
 31
0.0
  0
LINE
  5
169D
330
4E6
100
AcDbEntity
  8
寸法
 62
     0
370
    15
100
AcDbLine
 10
924.657978329059
 20
846.5141829860149
 30
0.0
 11
959.6579783290589
 21
846.5141829860149
 31
0.0
  0
MTEXT
  5
169E
330
4E6
100
AcDbEntity
  8
寸法
 62
     0
100
AcDbMText
 10
995.2780489784954
 20
867.966559044833
 30
0.0
 40
25.0
 41
0.0
 71
     5
 72
     1
  1
35
 73
     1
 44
1.0
1001
ACAD
1000
MTEXTBEGIN
1070
    73
1070
     1
1070
    44
1040
1.0
1070
    74
1070
     0
1000
MTEXTEND
  0
INSERT
  5
169F
330
4E6
100
AcDbEntity
  8
寸法
 62
     0
370
    15
100
AcDbBlockReference
  2
_DotSmall
 10
924.657978329059
 20
846.5141829860149
 30
0.0
 41
35.0
 42
35.0
 43
35.0
 50
180.0
  0
INSERT
  5
16A0
330
4E6
100
AcDbEntity
  8
寸法
 62
     0
370
    15
100
AcDbBlockReference
  2
_DotSmall
 10
959.6579783290589
 20
846.5141829860149
 30
0.0
 41
35.0
 42
35.0
 43
35.0
  0
POINT
  5
16A1
330
4E6
100
AcDbEntity
  8
Defpoints
 62
     0
100
AcDbPoint
 10
924.657978329059
 20
958.5166902453684
 30
0.0
  0
POINT
  5
16A2
330
4E6
100
AcDbEntity
  8
Defpoints
 62
     0
100
AcDbPoint
 10
959.6579783290589
 20
958.5166902453684
 30
0.0
  0
POINT
  5
16A3
330
4E6
100
AcDbEntity
  8
Defpoints
 62
     0
100
AcDbPoint
 10
959.6579783290589
 20
846.5141829860149
 30
0.0
  0
ENDBLK
  5
4F2
330
4E6
100
AcDbEntity
  8
0
100
AcDbBlockEnd
  0
BLOCK
  5
508
330
4FE
100
AcDbEntity
  8
0
100
AcDbBlockBegin
  2
*D18
 70
     1
 10
0.0
 20
0.0
 30
0.0
  3
*D18
  1

  0
LINE
  5
16A4
330
4FE
100
AcDbEntity
  8
寸法
 62
     0
370
    15
100
AcDbLine
 10
959.6579783290589
 20
893.5166902453683
 30
0.0
 11
959.6579783290589
 21
846.2933648444632
 31
0.0
  0
LINE
  5
16A5
330
4FE
100
AcDbEntity
  8
寸法
 62
     0
370
    15
100
AcDbLine
 10
1609.657978329059
 20
893.5166902453683
 30
0.0
 11
1609.657978329059
 21
846.2933648444632
 31
0.0
  0
LINE
  5
16A6
330
4FE
100
AcDbEntity
  8
寸法
 62
     0
370
    15
100
AcDbLine
 10
959.6579783290589
 20
846.2933648444632
 30
0.0
 11
1609.657978329059
 21
846.2933648444632
 31
0.0
  0
INSERT
  5
16A7
330
4FE
100
AcDbEntity
  8
寸法
 62
     0
370
    15
100
AcDbBlockReference
  2
_DotSmall
 10
959.6579783290589
 20
846.2933648444632
 30
0.0
 41
35.0
 42
35.0
 43
35.0
 50
180.0
  0
INSERT
  5
16A8
330
4FE
100
AcDbEntity
  8
寸法
 62
     0
370
    15
100
AcDbBlockReference
  2
_DotSmall
 10
1609.657978329059
 20
846.2933648444632
 30
0.0
 41
35.0
 42
35.0
 43
35.0
  0
MTEXT
  5
16A9
330
4FE
100
AcDbEntity
  8
寸法
 62
     0
100
AcDbMText
 10
1284.657978329059
 20
865.0433648444632
 30
0.0
 40
25.0
 41
0.0
 71
     5
 72
     1
  1
650
 73
     1
 44
1.0
1001
ACAD
1000
MTEXTBEGIN
1070
    73
1070
     1
1070
    44
1040
1.0
1070
    74
1070
     0
1000
MTEXTEND
  0
POINT
  5
16AA
330
4FE
100
AcDbEntity
  8
Defpoints
 62
     0
100
AcDbPoint
 10
959.6579783290589
 20
958.5166902453684
 30
0.0
  0
POINT
  5
16AB
330
4FE
100
AcDbEntity
  8
Defpoints
 62
     0
100
AcDbPoint
 10
1609.657978329059
 20
958.5166902453684
 30
0.0
  0
POINT
  5
16AC
330
4FE
100
AcDbEntity
  8
Defpoints
 62
     0
100
AcDbPoint
 10
1609.657978329059
 20
846.2933648444632
 30
0.0
  0
ENDBLK
  5
509
330
4FE
100
AcDbEntity
  8
0
100
AcDbBlockEnd
  0
BLOCK
  5
517
330
50B
100
AcDbEntity
  8
0
100
AcDbBlockBegin
  2
*D19
 70
     1
 10
0.0
 20
0.0
 30
0.0
  3
*D19
  1

  0
LINE
  5
16AD
330
50B
100
AcDbEntity
  8
寸法
 62
     0
370
    15
100
AcDbLine
 10
1609.657978329059
 20
893.5166902453683
 30
0.0
 11
1609.657978329059
 21
846.2933648444632
 31
0.0
  0
LINE
  5
16AE
330
50B
100
AcDbEntity
  8
寸法
 62
     0
370
    15
100
AcDbLine
 10
1644.657978329059
 20
893.5166902453683
 30
0.0
 11
1644.657978329059
 21
846.2933648444632
 31
0.0
  0
LINE
  5
16AF
330
50B
100
AcDbEntity
  8
寸法
 62
     0
370
    15
100
AcDbLine
 10
1609.657978329059
 20
846.2933648444632
 30
0.0
 11
1644.657978329059
 21
846.2933648444632
 31
0.0
  0
MTEXT
  5
16B0
330
50B
100
AcDbEntity
  8
寸法
 62
     0
100
AcDbMText
 10
1568.02520052232
 20
865.0433648444632
 30
0.0
 40
25.0
 41
0.0
 71
     5
 72
     1
  1
35
 73
     1
 44
1.0
1001
ACAD
1000
MTEXTBEGIN
1070
    73
1070
     1
1070
    44
1040
1.0
1070
    74
1070
     0
1000
MTEXTEND
  0
INSERT
  5
16B1
330
50B
100
AcDbEntity
  8
寸法
 62
     0
370
    15
100
AcDbBlockReference
  2
_DotSmall
 10
1609.657978329059
 20
846.2933648444632
 30
0.0
 41
35.0
 42
35.0
 43
35.0
 50
180.0
  0
INSERT
  5
16B2
330
50B
100
AcDbEntity
  8
寸法
 62
     0
370
    15
100
AcDbBlockReference
  2
_DotSmall
 10
1644.657978329059
 20
846.2933648444632
 30
0.0
 41
35.0
 42
35.0
 43
35.0
  0
POINT
  5
16B3
330
50B
100
AcDbEntity
  8
Defpoints
 62
     0
100
AcDbPoint
 10
1609.657978329059
 20
958.5166902453684
 30
0.0
  0
POINT
  5
16B4
330
50B
100
AcDbEntity
  8
Defpoints
 62
     0
100
AcDbPoint
 10
1644.657978329059
 20
958.5166902453684
 30
0.0
  0
POINT
  5
16B5
330
50B
100
AcDbEntity
  8
Defpoints
 62
     0
100
AcDbPoint
 10
1644.657978329059
 20
846.2933648444632
 30
0.0
  0
ENDBLK
  5
518
330
50B
100
AcDbEntity
  8
0
100
AcDbBlockEnd
  0
BLOCK
  5
52D
330
523
100
AcDbEntity
  8
0
100
AcDbBlockBegin
  2
*D20
 70
     1
 10
0.0
 20
0.0
 30
0.0
  3
*D20
  1

  0
LINE
  5
16B6
330
523
100
AcDbEntity
  8
寸法
 62
     0
370
    15
100
AcDbLine
 10
924.657978329059
 20
893.5166902453683
 30
0.0
 11
924.657978329059
 21
772.1729496108037
 31
0.0
  0
LINE
  5
16B7
330
523
100
AcDbEntity
  8
寸法
 62
     0
370
    15
100
AcDbLine
 10
1644.657978329059
 20
893.5166902453683
 30
0.0
 11
1644.657978329059
 21
772.1729496108037
 31
0.0
  0
LINE
  5
16B8
330
523
100
AcDbEntity
  8
寸法
 62
     0
370
    15
100
AcDbLine
 10
924.657978329059
 20
772.1729496108037
 30
0.0
 11
1644.657978329059
 21
772.1729496108037
 31
0.0
  0
INSERT
  5
16B9
330
523
100
AcDbEntity
  8
寸法
 62
     0
370
    15
100
AcDbBlockReference
  2
_DotSmall
 10
924.657978329059
 20
772.1729496108037
 30
0.0
 41
35.0
 42
35.0
 43
35.0
 50
180.0
  0
INSERT
  5
16BA
330
523
100
AcDbEntity
  8
寸法
 62
     0
370
    15
100
AcDbBlockReference
  2
_DotSmall
 10
1644.657978329059
 20
772.1729496108037
 30
0.0
 41
35.0
 42
35.0
 43
35.0
  0
MTEXT
  5
16BB
330
523
100
AcDbEntity
  8
寸法
 62
     0
100
AcDbMText
 10
1284.657978329059
 20
790.9229496108037
 30
0.0
 40
25.0
 41
0.0
 71
     5
 72
     1
  1
720
 73
     1
 44
1.0
1001
ACAD
1000
MTEXTBEGIN
1070
    73
1070
     1
1070
    44
1040
1.0
1070
    74
1070
     0
1000
MTEXTEND
  0
POINT
  5
16BC
330
523
100
AcDbEntity
  8
Defpoints
 62
     0
100
AcDbPoint
 10
924.657978329059
 20
958.5166902453684
 30
0.0
  0
POINT
  5
16BD
330
523
100
AcDbEntity
  8
Defpoints
 62
     0
100
AcDbPoint
 10
1644.657978329059
 20
958.5166902453684
 30
0.0
  0
POINT
  5
16BE
330
523
100
AcDbEntity
  8
Defpoints
 62
     0
100
AcDbPoint
 10
1644.657978329059
 20
772.1729496108037
 30
0.0
  0
ENDBLK
  5
52E
330
523
100
AcDbEntity
  8
0
100
AcDbBlockEnd
  0
BLOCK
  5
53C
330
530
100
AcDbEntity
  8
0
100
AcDbBlockBegin
  2
*D21
 70
     1
 10
0.0
 20
0.0
 30
0.0
  3
*D21
  1

  0
LINE
  5
16BF
330
530
100
AcDbEntity
  8
寸法
 62
     0
370
    15
100
AcDbLine
 10
914.657978329059
 20
366.5166902453684
 30
0.0
 11
855.5114377196842
 21
366.5166902453685
 31
0.0
  0
LINE
  5
16C0
330
530
100
AcDbEntity
  8
寸法
 62
     0
370
    15
100
AcDbLine
 10
914.657978329059
 20
373.5166902453684
 30
0.0
 11
855.5114377196842
 21
373.5166902453685
 31
0.0
  0
MTEXT
  5
16C1
330
530
100
AcDbEntity
  8
寸法
 62
     0
100
AcDbMText
 10
827.7825943579737
 20
346.1992035287685
 30
0.0
 40
25.0
 41
0.0
 71
     5
 72
     1
  1
7
 11
0.0000000000000001
 21
1.0
 31
0.0
 73
     1
 44
1.0
1001
ACAD
1000
MTEXTBEGIN
1070
    73
1070
     1
1070
    44
1040
1.0
1070
    74
1070
     0
1000
MTEXTEND
  0
POINT
  5
16C2
330
530
100
AcDbEntity
  8
Defpoints
 62
     0
100
AcDbPoint
 10
944.6579783290589
 20
366.5166902453684
 30
0.0
  0
POINT
  5
16C3
330
530
100
AcDbEntity
  8
Defpoints
 62
     0
100
AcDbPoint
 10
944.6579783290589
 20
373.5166902453684
 30
0.0
  0
POINT
  5
16C4
330
530
100
AcDbEntity
  8
Defpoints
 62
     0
100
AcDbPoint
 10
855.5114377196842
 20
373.5166902453685
 30
0.0
  0
ENDBLK
  5
53D
330
530
100
AcDbEntity
  8
0
100
AcDbBlockEnd
  0
BLOCK
  5
554
330
54A
100
AcDbEntity
  8
0
100
AcDbBlockBegin
  2
*D22
 70
     1
 10
0.0
 20
0.0
 30
0.0
  3
*D22
  1

  0
LINE
  5
16C5
330
54A
100
AcDbEntity
  8
寸法
 62
     0
370
    15
100
AcDbLine
 10
864.657978329059
 20
373.5166902453685
 30
0.0
 11
795.6755214503982
 21
373.5166902453685
 31
0.0
  0
LINE
  5
16C6
330
54A
100
AcDbEntity
  8
寸法
 62
     0
370
    15
100
AcDbLine
 10
859.6579783290589
 20
563.5166902453684
 30
0.0
 11
795.6755214503982
 21
563.5166902453684
 31
0.0
  0
LINE
  5
16C7
330
54A
100
AcDbEntity
  8
寸法
 62
     0
370
    15
100
AcDbLine
 10
795.6755214503982
 20
373.5166902453685
 30
0.0
 11
795.6755214503982
 21
563.5166902453684
 31
0.0
  0
INSERT
  5
16C8
330
54A
100
AcDbEntity
  8
寸法
 62
     0
370
    15
100
AcDbBlockReference
  2
_DotSmall
 10
795.6755214503982
 20
373.5166902453685
 30
0.0
 41
35.0
 42
35.0
 43
35.0
 50
270.0
  0
INSERT
  5
16C9
330
54A
100
AcDbEntity
  8
寸法
 62
     0
370
    15
100
AcDbBlockReference
  2
_DotSmall
 10
795.6755214503982
 20
563.5166902453684
 30
0.0
 41
35.0
 42
35.0
 43
35.0
 50
90.0
  0
MTEXT
  5
16CA
330
54A
100
AcDbEntity
  8
寸法
 62
     0
100
AcDbMText
 10
776.9255214503981
 20
468.5166902453685
 30
0.0
 40
25.0
 41
0.0
 71
     5
 72
     1
  1
190
 11
0.0000000000000001
 21
1.0
 31
0.0
 73
     1
 44
1.0
1001
ACAD
1000
MTEXTBEGIN
1070
    73
1070
     1
1070
    44
1040
1.0
1070
    74
1070
     0
1000
MTEXTEND
  0
POINT
  5
16CB
330
54A
100
AcDbEntity
  8
Defpoints
 62
     0
100
AcDbPoint
 10
929.657978329059
 20
373.5166902453684
 30
0.0
  0
POINT
  5
16CC
330
54A
100
AcDbEntity
  8
Defpoints
 62
     0
100
AcDbPoint
 10
924.657978329059
 20
563.5166902453684
 30
0.0
  0
POINT
  5
16CD
330
54A
100
AcDbEntity
  8
Defpoints
 62
     0
100
AcDbPoint
 10
795.6755214503982
 20
563.5166902453684
 30
0.0
  0
ENDBLK
  5
555
330
54A
100
AcDbEntity
  8
0
100
AcDbBlockEnd
  0
BLOCK
  5
6F5
330
6EB
100
AcDbEntity
  8
0
100
AcDbBlockBegin
  2
*D23
 70
     1
 10
0.0
 20
0.0
 30
0.0
  3
*D23
  1

  0
LINE
  5
16CE
330
6EB
100
AcDbEntity
  8
寸法
 62
     0
370
    15
100
AcDbLine
 10
2156.136397019578
 20
1353.016690245368
 30
0.0
 11
2202.708241690966
 21
1353.016690245368
 31
0.0
  0
LINE
  5
16CF
330
6EB
100
AcDbEntity
  8
寸法
 62
     0
370
    15
100
AcDbLine
 10
2156.136397019578
 20
1194.016690245368
 30
0.0
 11
2202.708241690966
 21
1194.016690245368
 31
0.0
  0
LINE
  5
16D0
330
6EB
100
AcDbEntity
  8
寸法
 62
     0
370
    15
100
AcDbLine
 10
2202.708241690966
 20
1353.016690245368
 30
0.0
 11
2202.708241690966
 21
1194.016690245368
 31
0.0
  0
INSERT
  5
16D1
330
6EB
100
AcDbEntity
  8
寸法
 62
     0
370
    15
100
AcDbBlockReference
  2
_DotSmall
 10
2202.708241690966
 20
1353.016690245368
 30
0.0
 41
35.0
 42
35.0
 43
35.0
 50
90.0
  0
INSERT
  5
16D2
330
6EB
100
AcDbEntity
  8
寸法
 62
     0
370
    15
100
AcDbBlockReference
  2
_DotSmall
 10
2202.708241690966
 20
1194.016690245368
 30
0.0
 41
35.0
 42
35.0
 43
35.0
 50
270.0
  0
MTEXT
  5
16D3
330
6EB
100
AcDbEntity
  8
寸法
 62
     0
100
AcDbMText
 10
2183.958241690966
 20
1272.724682202494
 30
0.0
 40
25.0
 41
0.0
 71
     5
 72
     1
  1
159%%C
 11
0.0000000000000001
 21
1.0
 31
0.0
 73
     1
 44
1.0
1001
ACAD
1000
MTEXTBEGIN
1070
    73
1070
     1
1070
    44
1040
1.0
1070
    74
1070
     0
1000
MTEXTEND
  0
POINT
  5
16D4
330
6EB
100
AcDbEntity
  8
Defpoints
 62
     0
100
AcDbPoint
 10
2091.136397019578
 20
1353.016690245368
 30
0.0
  0
POINT
  5
16D5
330
6EB
100
AcDbEntity
  8
Defpoints
 62
     0
100
AcDbPoint
 10
2091.136397019578
 20
1194.016690245368
 30
0.0
  0
POINT
  5
16D6
330
6EB
100
AcDbEntity
  8
Defpoints
 62
     0
100
AcDbPoint
 10
2202.708241690966
 20
1194.016690245368
 30
0.0
  0
ENDBLK
  5
6F6
330
6EB
100
AcDbEntity
  8
0
100
AcDbBlockEnd
  0
BLOCK
  5
786
330
77C
100
AcDbEntity
  8
0
100
AcDbBlockBegin
  2
*D24
 70
     1
 10
0.0
 20
0.0
 30
0.0
  3
*D24
  1

  0
LINE
  5
16D7
330
77C
100
AcDbEntity
  8
寸法
 62
     0
370
    15
100
AcDbLine
 10
2073.375782842709
 20
1364.016690245368
 30
0.0
 11
2008.689072949696
 21
1364.016690245368
 31
0.0
  0
LINE
  5
16D8
330
77C
100
AcDbEntity
  8
寸法
 62
     0
370
    15
100
AcDbLine
 10
2073.375782842709
 20
1183.016690245368
 30
0.0
 11
2008.689072949696
 21
1183.016690245368
 31
0.0
  0
LINE
  5
16D9
330
77C
100
AcDbEntity
  8
寸法
 62
     0
370
    15
100
AcDbLine
 10
2008.689072949696
 20
1364.016690245368
 30
0.0
 11
2008.689072949696
 21
1183.016690245368
 31
0.0
  0
INSERT
  5
16DA
330
77C
100
AcDbEntity
  8
寸法
 62
     0
370
    15
100
AcDbBlockReference
  2
_DotSmall
 10
2008.689072949696
 20
1364.016690245368
 30
0.0
 41
35.0
 42
35.0
 43
35.0
 50
90.0
  0
INSERT
  5
16DB
330
77C
100
AcDbEntity
  8
寸法
 62
     0
370
    15
100
AcDbBlockReference
  2
_DotSmall
 10
2008.689072949696
 20
1183.016690245368
 30
0.0
 41
35.0
 42
35.0
 43
35.0
 50
270.0
  0
MTEXT
  5
16DC
330
77C
100
AcDbEntity
  8
寸法
 62
     0
100
AcDbMText
 10
1989.939072949695
 20
1273.516690245368
 30
0.0
 40
25.0
 41
0.0
 71
     5
 72
     1
  1
181%%C
 11
0.0000000000000001
 21
1.0
 31
0.0
 73
     1
 44
1.0
1001
ACAD
1000
MTEXTBEGIN
1070
    73
1070
     1
1070
    44
1040
1.0
1070
    74
1070
     0
1000
MTEXTEND
  0
POINT
  5
16DD
330
77C
100
AcDbEntity
  8
Defpoints
 62
     0
100
AcDbPoint
 10
2138.375782842709
 20
1364.016690245368
 30
0.0
  0
POINT
  5
16DE
330
77C
100
AcDbEntity
  8
Defpoints
 62
     0
100
AcDbPoint
 10
2138.375782842709
 20
1183.016690245368
 30
0.0
  0
POINT
  5
16DF
330
77C
100
AcDbEntity
  8
Defpoints
 62
     0
100
AcDbPoint
 10
2008.689072949696
 20
1183.016690245368
 30
0.0
  0
ENDBLK
  5
787
330
77C
100
AcDbEntity
  8
0
100
AcDbBlockEnd
  0
BLOCK
  5
794
330
789
100
AcDbEntity
  8
0
100
AcDbBlockBegin
  2
*D25
 70
     1
 10
0.0
 20
0.0
 30
0.0
  3
*D25
  1

  0
LINE
  5
16E0
330
789
100
AcDbEntity
  8
寸法
 62
     0
370
    15
100
AcDbLine
 10
1894.136397019578
 20
893.5166902453683
 30
0.0
 11
1894.136397019578
 21
857.7685379468713
 31
0.0
  0
LINE
  5
16E1
330
789
100
AcDbEntity
  8
寸法
 62
     0
370
    15
100
AcDbLine
 10
1909.136397019578
 20
893.5166902453683
 30
0.0
 11
1909.136397019578
 21
857.7685379468713
 31
0.0
  0
LINE
  5
16E2
330
789
100
AcDbEntity
  8
寸法
 62
     0
370
    15
100
AcDbLine
 10
1894.136397019578
 20
857.7685379468713
 30
0.0
 11
1909.136397019578
 21
857.7685379468713
 31
0.0
  0
MTEXT
  5
16E3
330
789
100
AcDbEntity
  8
寸法
 62
     0
100
AcDbMText
 10
1856.450140031572
 20
856.4568699082029
 30
0.0
 40
25.0
 41
0.0
 71
     5
 72
     1
  1
15
 73
     1
 44
1.0
1001
ACAD
1000
MTEXTBEGIN
1070
    73
1070
     1
1070
    44
1040
1.0
1070
    74
1070
     0
1000
MTEXTEND
  0
INSERT
  5
16E4
330
789
100
AcDbEntity
  8
寸法
 62
     0
370
    15
100
AcDbBlockReference
  2
_DotSmall
 10
1894.136397019578
 20
857.7685379468713
 30
0.0
 41
35.0
 42
35.0
 43
35.0
 50
180.0
  0
INSERT
  5
16E5
330
789
100
AcDbEntity
  8
寸法
 62
     0
370
    15
100
AcDbBlockReference
  2
_DotSmall
 10
1909.136397019578
 20
857.7685379468713
 30
0.0
 41
35.0
 42
35.0
 43
35.0
  0
POINT
  5
16E6
330
789
100
AcDbEntity
  8
Defpoints
 62
     0
100
AcDbPoint
 10
1894.136397019578
 20
958.5166902453684
 30
0.0
  0
POINT
  5
16E7
330
789
100
AcDbEntity
  8
Defpoints
 62
     0
100
AcDbPoint
 10
1909.136397019578
 20
958.5166902453684
 30
0.0
  0
POINT
  5
16E8
330
789
100
AcDbEntity
  8
Defpoints
 62
     0
100
AcDbPoint
 10
1909.136397019578
 20
857.7685379468713
 30
0.0
  0
ENDBLK
  5
795
330
789
100
AcDbEntity
  8
0
100
AcDbBlockEnd
  0
BLOCK
  5
7AB
330
7A1
100
AcDbEntity
  8
0
100
AcDbBlockBegin
  2
*D26
 70
     1
 10
0.0
 20
0.0
 30
0.0
  3
*D26
  1

  0
LINE
  5
16E9
330
7A1
100
AcDbEntity
  8
寸法
 62
     0
370
    15
100
AcDbLine
 10
1909.136397019578
 20
893.5166902453683
 30
0.0
 11
1909.136397019578
 21
857.7685379468713
 31
0.0
  0
LINE
  5
16EA
330
7A1
100
AcDbEntity
  8
寸法
 62
     0
370
    15
100
AcDbLine
 10
2084.136397019578
 20
898.5166902453684
 30
0.0
 11
2084.136397019578
 21
857.7685379468713
 31
0.0
  0
LINE
  5
16EB
330
7A1
100
AcDbEntity
  8
寸法
 62
     0
370
    15
100
AcDbLine
 10
1909.136397019578
 20
857.7685379468713
 30
0.0
 11
2084.136397019578
 21
857.7685379468713
 31
0.0
  0
INSERT
  5
16EC
330
7A1
100
AcDbEntity
  8
寸法
 62
     0
370
    15
100
AcDbBlockReference
  2
_DotSmall
 10
1909.136397019578
 20
857.7685379468713
 30
0.0
 41
35.0
 42
35.0
 43
35.0
 50
180.0
  0
INSERT
  5
16ED
330
7A1
100
AcDbEntity
  8
寸法
 62
     0
370
    15
100
AcDbBlockReference
  2
_DotSmall
 10
2084.136397019578
 20
857.7685379468713
 30
0.0
 41
35.0
 42
35.0
 43
35.0
  0
MTEXT
  5
16EE
330
7A1
100
AcDbEntity
  8
寸法
 62
     0
100
AcDbMText
 10
1996.636397019578
 20
876.5185379468713
 30
0.0
 40
25.0
 41
0.0
 71
     5
 72
     1
  1
175
 73
     1
 44
1.0
1001
ACAD
1000
MTEXTBEGIN
1070
    73
1070
     1
1070
    44
1040
1.0
1070
    74
1070
     0
1000
MTEXTEND
  0
POINT
  5
16EF
330
7A1
100
AcDbEntity
  8
Defpoints
 62
     0
100
AcDbPoint
 10
1909.136397019578
 20
958.5166902453684
 30
0.0
  0
POINT
  5
16F0
330
7A1
100
AcDbEntity
  8
Defpoints
 62
     0
100
AcDbPoint
 10
2084.136397019578
 20
963.5166902453685
 30
0.0
  0
POINT
  5
16F1
330
7A1
100
AcDbEntity
  8
Defpoints
 62
     0
100
AcDbPoint
 10
2084.136397019578
 20
857.7685379468713
 30
0.0
  0
ENDBLK
  5
7AC
330
7A1
100
AcDbEntity
  8
0
100
AcDbBlockEnd
  0
BLOCK
  5
7BD
330
7AE
100
AcDbEntity
  8
0
100
AcDbBlockBegin
  2
*D27
 70
     1
 10
0.0
 20
0.0
 30
0.0
  3
*D27
  1

  0
LINE
  5
16F2
330
7AE
100
AcDbEntity
  8
寸法
 62
     0
370
    15
100
AcDbLine
 10
2084.136397019578
 20
898.5166902453684
 30
0.0
 11
2084.136397019578
 21
857.7685379468713
 31
0.0
  0
LINE
  5
16F3
330
7AE
100
AcDbEntity
  8
寸法
 62
     0
370
    15
100
AcDbLine
 10
2091.136397019578
 20
898.5166902453684
 30
0.0
 11
2091.136397019578
 21
857.7685379468713
 31
0.0
  0
MTEXT
  5
16F4
330
7AE
100
AcDbEntity
  8
寸法
 62
     0
100
AcDbMText
 10
2107.948897019578
 20
876.6133199100895
 30
0.0
 40
25.0
 41
0.0
 71
     5
 72
     1
  1
7
 73
     1
 44
1.0
1001
ACAD
1000
MTEXTBEGIN
1070
    73
1070
     1
1070
    44
1040
1.0
1070
    74
1070
     0
1000
MTEXTEND
  0
POINT
  5
16F5
330
7AE
100
AcDbEntity
  8
Defpoints
 62
     0
100
AcDbPoint
 10
2084.136397019578
 20
963.5166902453685
 30
0.0
  0
POINT
  5
16F6
330
7AE
100
AcDbEntity
  8
Defpoints
 62
     0
100
AcDbPoint
 10
2091.136397019578
 20
963.5166902453685
 30
0.0
  0
POINT
  5
16F7
330
7AE
100
AcDbEntity
  8
Defpoints
 62
     0
100
AcDbPoint
 10
2091.136397019578
 20
857.7685379468713
 30
0.0
  0
ENDBLK
  5
7BE
330
7AE
100
AcDbEntity
  8
0
100
AcDbBlockEnd
  0
BLOCK
  5
7D5
330
7CB
100
AcDbEntity
  8
0
100
AcDbBlockBegin
  2
*D28
 70
     1
 10
0.0
 20
0.0
 30
0.0
  3
*D28
  1

  0
LINE
  5
16F8
330
7CB
100
AcDbEntity
  8
寸法
 62
     0
370
    15
100
AcDbLine
 10
2084.136397019578
 20
898.5166902453684
 30
0.0
 11
2084.136397019578
 21
797.2369488058006
 31
0.0
  0
LINE
  5
16F9
330
7CB
100
AcDbEntity
  8
寸法
 62
     0
370
    15
100
AcDbLine
 10
1894.136397019578
 20
893.5166902453683
 30
0.0
 11
1894.136397019578
 21
797.2369488058006
 31
0.0
  0
LINE
  5
16FA
330
7CB
100
AcDbEntity
  8
寸法
 62
     0
370
    15
100
AcDbLine
 10
2084.136397019578
 20
797.2369488058006
 30
0.0
 11
1894.136397019578
 21
797.2369488058006
 31
0.0
  0
INSERT
  5
16FB
330
7CB
100
AcDbEntity
  8
寸法
 62
     0
370
    15
100
AcDbBlockReference
  2
_DotSmall
 10
2084.136397019578
 20
797.2369488058006
 30
0.0
 41
35.0
 42
35.0
 43
35.0
  0
INSERT
  5
16FC
330
7CB
100
AcDbEntity
  8
寸法
 62
     0
370
    15
100
AcDbBlockReference
  2
_DotSmall
 10
1894.136397019578
 20
797.2369488058006
 30
0.0
 41
35.0
 42
35.0
 43
35.0
 50
180.0
  0
MTEXT
  5
16FD
330
7CB
100
AcDbEntity
  8
寸法
 62
     0
100
AcDbMText
 10
1989.136397019578
 20
815.9869488058006
 30
0.0
 40
25.0
 41
0.0
 71
     5
 72
     1
  1
190
 73
     1
 44
1.0
1001
ACAD
1000
MTEXTBEGIN
1070
    73
1070
     1
1070
    44
1040
1.0
1070
    74
1070
     0
1000
MTEXTEND
  0
POINT
  5
16FE
330
7CB
100
AcDbEntity
  8
Defpoints
 62
     0
100
AcDbPoint
 10
2084.136397019578
 20
963.5166902453685
 30
0.0
  0
POINT
  5
16FF
330
7CB
100
AcDbEntity
  8
Defpoints
 62
     0
100
AcDbPoint
 10
1894.136397019578
 20
958.5166902453684
 30
0.0
  0
POINT
  5
1700
330
7CB
100
AcDbEntity
  8
Defpoints
 62
     0
100
AcDbPoint
 10
1894.136397019578
 20
797.2369488058006
 30
0.0
  0
ENDBLK
  5
7D6
330
7CB
100
AcDbEntity
  8
0
100
AcDbBlockEnd
  0
BLOCK
  5
7E2
330
7D8
100
AcDbEntity
  8
0
100
AcDbBlockBegin
  2
*D29
 70
     1
 10
0.0
 20
0.0
 30
0.0
  3
*D29
  1

  0
LINE
  5
1701
330
7D8
100
AcDbEntity
  8
寸法
 62
     0
370
    15
100
AcDbLine
 10
2091.136397019578
 20
898.5166902453684
 30
0.0
 11
2091.136397019578
 21
729.2570659654484
 31
0.0
  0
LINE
  5
1702
330
7D8
100
AcDbEntity
  8
寸法
 62
     0
370
    15
100
AcDbLine
 10
1894.136397019578
 20
893.5166902453683
 30
0.0
 11
1894.136397019578
 21
729.2570659654484
 31
0.0
  0
LINE
  5
1703
330
7D8
100
AcDbEntity
  8
寸法
 62
     0
370
    15
100
AcDbLine
 10
2091.136397019578
 20
729.2570659654484
 30
0.0
 11
1894.136397019578
 21
729.2570659654484
 31
0.0
  0
INSERT
  5
1704
330
7D8
100
AcDbEntity
  8
寸法
 62
     0
370
    15
100
AcDbBlockReference
  2
_DotSmall
 10
2091.136397019578
 20
729.2570659654484
 30
0.0
 41
35.0
 42
35.0
 43
35.0
  0
INSERT
  5
1705
330
7D8
100
AcDbEntity
  8
寸法
 62
     0
370
    15
100
AcDbBlockReference
  2
_DotSmall
 10
1894.136397019578
 20
729.2570659654484
 30
0.0
 41
35.0
 42
35.0
 43
35.0
 50
180.0
  0
MTEXT
  5
1706
330
7D8
100
AcDbEntity
  8
寸法
 62
     0
100
AcDbMText
 10
1992.636397019578
 20
748.0070659654484
 30
0.0
 40
25.0
 41
0.0
 71
     5
 72
     1
  1
197
 73
     1
 44
1.0
1001
ACAD
1000
MTEXTBEGIN
1070
    73
1070
     1
1070
    44
1040
1.0
1070
    74
1070
     0
1000
MTEXTEND
  0
POINT
  5
1707
330
7D8
100
AcDbEntity
  8
Defpoints
 62
     0
100
AcDbPoint
 10
2091.136397019578
 20
963.5166902453685
 30
0.0
  0
POINT
  5
1708
330
7D8
100
AcDbEntity
  8
Defpoints
 62
     0
100
AcDbPoint
 10
1894.136397019578
 20
958.5166902453684
 30
0.0
  0
POINT
  5
1709
330
7D8
100
AcDbEntity
  8
Defpoints
 62
     0
100
AcDbPoint
 10
1894.136397019578
 20
729.2570659654484
 30
0.0
  0
ENDBLK
  5
7E3
330
7D8
100
AcDbEntity
  8
0
100
AcDbBlockEnd
  0
BLOCK
  5
FA1
330
F9E
100
AcDbEntity
  8
0
100
AcDbBlockBegin
  2
_Dot
 70
     0
 10
0.0
 20
0.0
 30
0.0
  3
_Dot
  1

  0
LWPOLYLINE
  5
F9F
330
F9E
100
AcDbEntity
  8
実形
 62
     0
100
AcDbPolyline
 90
        2
 70
     1
 43
0.5
 10
-0.25
 20
0.0
 42
1.0
 10
0.25
 20
0.0
 42
1.0
  0
LINE
  5
FA0
330
F9E
100
AcDbEntity
  8
実形
 62
     0
370
    -2
100
AcDbLine
 10
-0.5
 20
0.0
 30
0.0
 11
-1.0
 21
0.0
 31
0.0
  0
ENDBLK
  5
FA2
330
F9E
100
AcDbEntity
  8
0
100
AcDbBlockEnd
  0
BLOCK
  5
FAF
330
FA4
100
AcDbEntity
  8
0
100
AcDbBlockBegin
  2
*D31
 70
     1
 10
0.0
 20
0.0
 30
0.0
  3
*D31
  1

  0
LINE
  5
170A
330
FA4
100
AcDbEntity
  8
実形
 62
     0
370
    15
100
AcDbLine
 10
894.6579783290589
 20
563.5166902453684
 30
0.0
 11
854.0520222472732
 21
563.5166902453684
 31
0.0
  0
LINE
  5
170B
330
FA4
100
AcDbEntity
  8
実形
 62
     0
370
    15
100
AcDbLine
 10
894.6579783290589
 20
548.5166902453683
 30
0.0
 11
854.0520222472732
 21
548.5166902453683
 31
0.0
  0
LINE
  5
170C
330
FA4
100
AcDbEntity
  8
実形
 62
     0
370
    15
100
AcDbLine
 10
854.0520222472732
 20
563.5166902453684
 30
0.0
 11
854.0520222472732
 21
548.5166902453683
 31
0.0
  0
MTEXT
  5
170D
330
FA4
100
AcDbEntity
  8
実形
 62
     0
100
AcDbMText
 10
821.9449493396977
 20
541.6060372338242
 30
0.0
 40
25.0
 41
0.0
 71
     5
 72
     1
  1
15
 11
0.0000000000000001
 21
1.0
 31
0.0
 73
     1
 44
1.0
1001
ACAD
1000
MTEXTBEGIN
1070
    73
1070
     1
1070
    44
1040
1.0
1070
    74
1070
     0
1000
MTEXTEND
  0
INSERT
  5
170E
330
FA4
100
AcDbEntity
  8
実形
 62
     0
370
    15
100
AcDbBlockReference
  2
_DotSmall
 10
854.0520222472732
 20
563.5166902453684
 30
0.0
 41
35.0
 42
35.0
 43
35.0
 50
90.0
  0
INSERT
  5
170F
330
FA4
100
AcDbEntity
  8
実形
 62
     0
370
    15
100
AcDbBlockReference
  2
_DotSmall
 10
854.0520222472732
 20
548.5166902453683
 30
0.0
 41
35.0
 42
35.0
 43
35.0
 50
270.0
  0
POINT
  5
1710
330
FA4
100
AcDbEntity
  8
Defpoints
 62
     0
100
AcDbPoint
 10
924.657978329059
 20
563.5166902453684
 30
0.0
  0
POINT
  5
1711
330
FA4
100
AcDbEntity
  8
Defpoints
 62
     0
100
AcDbPoint
 10
924.657978329059
 20
548.5166902453683
 30
0.0
  0
POINT
  5
1712
330
FA4
100
AcDbEntity
  8
Defpoints
 62
     0
100
AcDbPoint
 10
854.0520222472732
 20
548.5166902453683
 30
0.0
  0
ENDBLK
  5
FB0
330
FA4
100
AcDbEntity
  8
0
100
AcDbBlockEnd
  0
BLOCK
  5
10C1
330
10B5
100
AcDbEntity
  8
0
100
AcDbBlockBegin
  2
A$C63E535F0
 70
     0
 10
0.0
 20
0.0
 30
0.0
  3
A$C63E535F0
  1

  0
LINE
  5
10B6
330
10B5
100
AcDbEntity
  8
0
100
AcDbLine
 10
-0.0000047973964001
 20
9.999999332865968
 30
0.0
 11
859.9999952026033
 21
9.999999332865627
 31
0.0
  0
LINE
  5
10B7
330
10B5
100
AcDbEntity
  8
0
100
AcDbLine
 10
29.99999520260417
 20
-0.0000006671342589
 30
0.0
 11
829.9999952026032
 21
-0.0000006671343726
 31
0.0
  0
LINE
  5
10B8
330
10B5
100
AcDbEntity
  8
0
100
AcDbLine
 10
4.999995202603599
 20
14.99999933286585
 30
0.0
 11
854.9999952026032
 21
14.99999933286563
 31
0.0
  0
LINE
  5
10B9
330
10B5
100
AcDbEntity
  8
実形
100
AcDbLine
 10
14.9999952026036
 20
-0.0000006671343726
 30
0.0
 11
29.99999520260417
 21
-0.0000006671342589
 31
0.0
  0
LINE
  5
10BA
330
10B5
100
AcDbEntity
  8
実形
100
AcDbLine
 10
14.9999952026036
 20
9.999999332865968
 30
0.0
 11
14.9999952026036
 21
-0.0000006671343726
 31
0.0
  0
LINE
  5
10BB
330
10B5
100
AcDbEntity
  8
実形
100
AcDbLine
 10
4.999995202603599
 20
14.99999933286585
 30
0.0
 11
-0.0000047973964001
 21
9.999999332865968
 31
0.0
  0
LINE
  5
10BC
330
10B5
100
AcDbEntity
  8
実形
100
AcDbLine
 10
11.9999952026036
 20
9.999999332865968
 30
0.0
 11
11.9999952026036
 21
-0.0000006671343726
 31
0.0
  0
LINE
  5
10BD
330
10B5
100
AcDbEntity
  8
実形
100
AcDbLine
 10
844.9999952026034
 20
-0.0000006671343726
 30
0.0
 11
829.9999952026034
 21
-0.0000006671343726
 31
0.0
  0
LINE
  5
10BE
330
10B5
100
AcDbEntity
  8
実形
100
AcDbLine
 10
844.9999952026034
 20
9.999999332865627
 30
0.0
 11
844.9999952026034
 21
-0.0000006671343726
 31
0.0
  0
LINE
  5
10BF
330
10B5
100
AcDbEntity
  8
実形
100
AcDbLine
 10
854.9999952026032
 20
14.99999933286563
 30
0.0
 11
859.9999952026035
 21
9.999999332865627
 31
0.0
  0
LINE
  5
10C0
330
10B5
100
AcDbEntity
  8
実形
100
AcDbLine
 10
847.9999952026034
 20
9.999999332865627
 30
0.0
 11
847.9999952026034
 21
-0.0000006671343726
 31
0.0
  0
ENDBLK
  5
10C2
330
10B5
100
AcDbEntity
  8
0
100
AcDbBlockEnd
  0
BLOCK
  5
1401
330
13F6
100
AcDbEntity
  8
0
100
AcDbBlockBegin
  2
*D33
 70
     1
 10
0.0
 20
0.0
 30
0.0
  3
*D33
  1

  0
LINE
  5
1713
330
13F6
100
AcDbEntity
  8
実形
 62
     0
370
    15
100
AcDbLine
 10
1609.657978329059
 20
1553.516690245368
 30
0.0
 11
1609.657978329059
 21
1592.847889473033
 31
0.0
  0
LINE
  5
1714
330
13F6
100
AcDbEntity
  8
実形
 62
     0
370
    15
100
AcDbLine
 10
1644.657983126455
 20
1553.516690245368
 30
0.0
 11
1644.657983126455
 21
1592.847889473033
 31
0.0
  0
LINE
  5
1715
330
13F6
100
AcDbEntity
  8
実形
 62
     0
370
    15
100
AcDbLine
 10
1609.657978329059
 20
1592.847889473033
 30
0.0
 11
1644.657983126455
 21
1592.847889473033
 31
0.0
  0
MTEXT
  5
1716
330
13F6
100
AcDbEntity
  8
実形
 62
     0
100
AcDbMText
 10
1640.358801780259
 20
1611.679615447244
 30
0.0
 40
25.0
 41
0.0
 71
     5
 72
     1
  1
35
 73
     1
 44
1.0
1001
ACAD
1000
MTEXTBEGIN
1070
    73
1070
     1
1070
    44
1040
1.0
1070
    74
1070
     0
1000
MTEXTEND
  0
INSERT
  5
1717
330
13F6
100
AcDbEntity
  8
実形
 62
     0
370
    15
100
AcDbBlockReference
  2
_DotSmall
 10
1609.657978329059
 20
1592.847889473033
 30
0.0
 41
35.0
 42
35.0
 43
35.0
 50
180.0
  0
INSERT
  5
1718
330
13F6
100
AcDbEntity
  8
実形
 62
     0
370
    15
100
AcDbBlockReference
  2
_DotSmall
 10
1644.657983126455
 20
1592.847889473033
 30
0.0
 41
35.0
 42
35.0
 43
35.0
  0
POINT
  5
1719
330
13F6
100
AcDbEntity
  8
Defpoints
 62
     0
100
AcDbPoint
 10
1609.657978329059
 20
1488.516690245368
 30
0.0
  0
POINT
  5
171A
330
13F6
100
AcDbEntity
  8
Defpoints
 62
     0
100
AcDbPoint
 10
1644.657983126455
 20
1488.516690245368
 30
0.0
  0
POINT
  5
171B
330
13F6
100
AcDbEntity
  8
Defpoints
 62
     0
100
AcDbPoint
 10
1644.657983126455
 20
1592.847889473033
 30
0.0
  0
ENDBLK
  5
1402
330
13F6
100
AcDbEntity
  8
0
100
AcDbBlockEnd
  0
BLOCK
  5
14F0
330
14B3
100
AcDbEntity
  8
0
100
AcDbBlockBegin
  2
A$C1473022E
 70
     0
 10
0.0
 20
0.0
 30
0.0
  3
A$C1473022E
  1

  0
LINE
  5
14B4
330
14B3
100
AcDbEntity
  8
センター
 62
     1
100
AcDbLine
 10
-0.0000000000004547
 20
216.586239285949
 30
0.0
 11
-0.0000000000004547
 21
-339.7200694509502
 31
0.0
  0
ARC
  5
14B5
330
14B3
100
AcDbEntity
  8
0
100
AcDbCircle
 10
65.5
 20
0.0
 30
0.0
 40
29.5
100
AcDbArc
 50
270.0
 51
0.0
  0
ARC
  5
14B6
330
14B3
100
AcDbEntity
  8
0
100
AcDbCircle
 10
65.5
 20
0.0
 30
0.0
 40
29.5
100
AcDbArc
 50
0.0
 51
90.0
  0
ARC
  5
14B7
330
14B3
100
AcDbEntity
  8
0
100
AcDbCircle
 10
-65.50000000000022
 20
0.0
 30
0.0
 40
29.5
100
AcDbArc
 50
90.0
 51
180.0
  0
ARC
  5
14B8
330
14B3
100
AcDbEntity
  8
0
100
AcDbCircle
 10
-65.50000000000046
 20
0.0
 30
0.0
 40
29.5
100
AcDbArc
 50
180.0
 51
270.0
  0
LINE
  5
14B9
330
14B3
100
AcDbEntity
  8
0
100
AcDbLine
 10
-65.50000000000046
 20
-29.5
 30
0.0
 11
65.5
 21
-29.5
 31
0.0
  0
LINE
  5
14BA
330
14B3
100
AcDbEntity
  8
0
100
AcDbLine
 10
-65.5
 20
29.5
 30
0.0
 11
65.5
 21
29.5
 31
0.0
  0
ARC
  5
14BB
330
14B3
100
AcDbEntity
  8
実形
370
    15
100
AcDbCircle
 10
0.0
 20
0.0
 30
0.0
 40
12.5
100
AcDbArc
 50
282.5558577985999
 51
347.4441422014046
  0
LINE
  5
14BC
330
14B3
100
AcDbEntity
  8
実形
370
    15
100
AcDbLine
 10
-11.22497216032184
 20
1.5
 30
0.0
 11
-2.5
 21
1.5
 31
0.0
  0
LINE
  5
14BD
330
14B3
100
AcDbEntity
  8
実形
370
    15
100
AcDbLine
 10
-11.22497216032207
 20
-1.5
 30
0.0
 11
-2.5
 21
-1.5
 31
0.0
  0
LINE
  5
14BE
330
14B3
100
AcDbEntity
  8
実形
370
    15
100
AcDbLine
 10
1.5
 20
11.22497216032207
 30
0.0
 11
1.499999999999772
 21
2.5
 31
0.0
  0
LINE
  5
14BF
330
14B3
100
AcDbEntity
  8
実形
370
    15
100
AcDbLine
 10
-1.5
 20
11.22497216032207
 30
0.0
 11
-1.5
 21
2.5
 31
0.0
  0
LINE
  5
14C0
330
14B3
100
AcDbEntity
  8
実形
370
    15
100
AcDbLine
 10
-1.5
 20
-2.5
 30
0.0
 11
-1.5
 21
-11.22497216032116
 31
0.0
  0
LINE
  5
14C1
330
14B3
100
AcDbEntity
  8
実形
370
    15
100
AcDbLine
 10
2.499999999999772
 20
1.5
 30
0.0
 11
11.22497216032184
 21
1.500000000000909
 31
0.0
  0
LINE
  5
14C2
330
14B3
100
AcDbEntity
  8
実形
370
    15
100
AcDbLine
 10
1.499999999999772
 20
-2.5
 30
0.0
 11
1.5
 21
-11.22497216032116
 31
0.0
  0
LINE
  5
14C3
330
14B3
100
AcDbEntity
  8
実形
370
    15
100
AcDbLine
 10
2.499999999999772
 20
-1.5
 30
0.0
 11
11.22497216032161
 21
-1.5
 31
0.0
  0
ARC
  5
14C4
330
14B3
100
AcDbEntity
  8
実形
370
    15
100
AcDbCircle
 10
0.0
 20
0.0
 30
0.0
 40
12.5
100
AcDbArc
 50
192.5558577985953
 51
257.4441422014
  0
ARC
  5
14C5
330
14B3
100
AcDbEntity
  8
実形
370
    15
100
AcDbCircle
 10
0.0
 20
0.0
 30
0.0
 40
12.5
100
AcDbArc
 50
102.5558577985999
 51
167.4441422014046
  0
ARC
  5
14C6
330
14B3
100
AcDbEntity
  8
実形
370
    15
100
AcDbCircle
 10
0.0
 20
0.0
 30
0.0
 40
12.5
100
AcDbArc
 50
12.55585779859536
 51
77.44414220140004
  0
LINE
  5
14C7
330
14B3
100
AcDbEntity
  8
実形
370
    15
100
AcDbLine
 10
-85.0
 20
0.0
 30
0.0
 11
-85.0
 21
0.0
 31
0.0
  0
LINE
  5
14C8
330
14B3
100
AcDbEntity
  8
実形
370
    15
100
AcDbLine
 10
-75.0
 20
-10.0
 30
0.0
 11
-35.0
 21
-10.0
 31
0.0
  0
LINE
  5
14C9
330
14B3
100
AcDbEntity
  8
実形
370
    15
100
AcDbLine
 10
-25.0
 20
0.0
 30
0.0
 11
-25.0
 21
0.0
 31
0.0
  0
LINE
  5
14CA
330
14B3
100
AcDbEntity
  8
実形
370
    15
100
AcDbLine
 10
-35.0
 20
10.0
 30
0.0
 11
-75.0
 21
10.0
 31
0.0
  0
ARC
  5
14CB
330
14B3
100
AcDbEntity
  8
実形
370
    15
100
AcDbCircle
 10
-35.0
 20
0.0
 30
0.0
 40
10.0
100
AcDbArc
 50
0.0
 51
90.0
  0
ARC
  5
14CC
330
14B3
100
AcDbEntity
  8
実形
370
    15
100
AcDbCircle
 10
-35.0
 20
0.0
 30
0.0
 40
10.0
100
AcDbArc
 50
270.0
 51
0.0
  0
ARC
  5
14CD
330
14B3
100
AcDbEntity
  8
実形
370
    15
100
AcDbCircle
 10
-75.0
 20
0.0
 30
0.0
 40
10.0
100
AcDbArc
 50
180.0
 51
270.0
  0
ARC
  5
14CE
330
14B3
100
AcDbEntity
  8
実形
370
    15
100
AcDbCircle
 10
-75.0
 20
0.0
 30
0.0
 40
10.0
100
AcDbArc
 50
90.0
 51
180.0
  0
LINE
  5
14CF
330
14B3
100
AcDbEntity
  8
実形
370
    15
100
AcDbLine
 10
-75.0
 20
-5.0
 30
0.0
 11
-35.0
 21
-5.0
 31
0.0
  0
ARC
  5
14D0
330
14B3
100
AcDbEntity
  8
実形
370
    15
100
AcDbCircle
 10
-75.0
 20
0.0
 30
0.0
 40
5.0
100
AcDbArc
 50
180.0
 51
270.0
  0
ARC
  5
14D1
330
14B3
100
AcDbEntity
  8
実形
370
    15
100
AcDbCircle
 10
-75.0
 20
0.0
 30
0.0
 40
5.0
100
AcDbArc
 50
90.0
 51
180.0
  0
LINE
  5
14D2
330
14B3
100
AcDbEntity
  8
実形
370
    15
100
AcDbLine
 10
-35.0
 20
5.0
 30
0.0
 11
-75.0
 21
5.0
 31
0.0
  0
ARC
  5
14D3
330
14B3
100
AcDbEntity
  8
実形
370
    15
100
AcDbCircle
 10
-35.0
 20
0.0
 30
0.0
 40
5.0
100
AcDbArc
 50
0.0
 51
90.0
  0
ARC
  5
14D4
330
14B3
100
AcDbEntity
  8
実形
370
    15
100
AcDbCircle
 10
-35.0
 20
0.0
 30
0.0
 40
5.0
100
AcDbArc
 50
270.0
 51
0.0
  0
ARC
  5
14D5
330
14B3
100
AcDbEntity
  8
実形
370
    15
100
AcDbCircle
 10
35.0
 20
0.0
 30
0.0
 40
5.0
100
AcDbArc
 50
180.0
 51
270.0
  0
ARC
  5
14D6
330
14B3
100
AcDbEntity
  8
実形
370
    15
100
AcDbCircle
 10
35.0
 20
0.0
 30
0.0
 40
5.0
100
AcDbArc
 50
90.0
 51
180.0
  0
LINE
  5
14D7
330
14B3
100
AcDbEntity
  8
実形
370
    15
100
AcDbLine
 10
35.0
 20
5.0
 30
0.0
 11
75.0
 21
5.0
 31
0.0
  0
ARC
  5
14D8
330
14B3
100
AcDbEntity
  8
実形
370
    15
100
AcDbCircle
 10
75.0
 20
0.0
 30
0.0
 40
5.0
100
AcDbArc
 50
0.0
 51
90.0
  0
ARC
  5
14D9
330
14B3
100
AcDbEntity
  8
実形
370
    15
100
AcDbCircle
 10
75.0
 20
0.0
 30
0.0
 40
5.0
100
AcDbArc
 50
270.0
 51
0.0
  0
LINE
  5
14DA
330
14B3
100
AcDbEntity
  8
実形
370
    15
100
AcDbLine
 10
75.0
 20
-5.0
 30
0.0
 11
35.0
 21
-5.0
 31
0.0
  0
LINE
  5
14DB
330
14B3
100
AcDbEntity
  8
実形
370
    15
100
AcDbLine
 10
35.0
 20
10.0
 30
0.0
 11
75.0
 21
10.0
 31
0.0
  0
ARC
  5
14DC
330
14B3
100
AcDbEntity
  8
実形
370
    15
100
AcDbCircle
 10
75.0
 20
0.0
 30
0.0
 40
10.0
100
AcDbArc
 50
0.0
 51
90.0
  0
LINE
  5
14DD
330
14B3
100
AcDbEntity
  8
実形
370
    15
100
AcDbLine
 10
75.0
 20
-10.0
 30
0.0
 11
35.0
 21
-10.0
 31
0.0
  0
ARC
  5
14DE
330
14B3
100
AcDbEntity
  8
実形
370
    15
100
AcDbCircle
 10
75.0
 20
0.0
 30
0.0
 40
10.0
100
AcDbArc
 50
270.0
 51
0.0
  0
ARC
  5
14DF
330
14B3
100
AcDbEntity
  8
実形
370
    15
100
AcDbCircle
 10
35.0
 20
0.0
 30
0.0
 40
10.0
100
AcDbArc
 50
180.0
 51
270.0
  0
ARC
  5
14E0
330
14B3
100
AcDbEntity
  8
実形
370
    15
100
AcDbCircle
 10
35.0
 20
0.0
 30
0.0
 40
10.0
100
AcDbArc
 50
90.0
 51
180.0
  0
ARC
  5
14E1
330
14B3
100
AcDbEntity
  8
実形
370
    15
100
AcDbCircle
 10
2.5
 20
11.22497216032207
 30
0.0
 40
1.0
100
AcDbArc
 50
77.44414220140004
 51
180.0
  0
ARC
  5
14E2
330
14B3
100
AcDbEntity
  8
実形
370
    15
100
AcDbCircle
 10
11.22497216032161
 20
2.5
 30
0.0
 40
1.0
100
AcDbArc
 50
270.0
 51
12.55585779859536
  0
ARC
  5
14E3
330
14B3
100
AcDbEntity
  8
実形
370
    15
100
AcDbCircle
 10
11.22497216032161
 20
-2.5
 30
0.0
 40
1.0
100
AcDbArc
 50
347.4441422014046
 51
90.0
  0
ARC
  5
14E4
330
14B3
100
AcDbEntity
  8
実形
370
    15
100
AcDbCircle
 10
2.499999999999772
 20
-11.22497216032207
 30
0.0
 40
1.0
100
AcDbArc
 50
180.0
 51
282.5558577985999
  0
ARC
  5
14E5
330
14B3
100
AcDbEntity
  8
実形
370
    15
100
AcDbCircle
 10
-2.500000000000227
 20
-11.22497216032207
 30
0.0
 40
1.0
100
AcDbArc
 50
257.4441422014
 51
0.0
  0
ARC
  5
14E6
330
14B3
100
AcDbEntity
  8
実形
370
    15
100
AcDbCircle
 10
-11.22497216032207
 20
-2.5
 30
0.0
 40
1.0
100
AcDbArc
 50
90.0
 51
192.5558577985685
  0
ARC
  5
14E7
330
14B3
100
AcDbEntity
  8
実形
370
    15
100
AcDbCircle
 10
-11.22497216032207
 20
2.5
 30
0.0
 40
1.0
100
AcDbArc
 50
167.4441422014315
 51
270.0
  0
ARC
  5
14E8
330
14B3
100
AcDbEntity
  8
実形
370
    15
100
AcDbCircle
 10
-2.500000000000227
 20
11.22497216032207
 30
0.0
 40
1.0
100
AcDbArc
 50
0.0
 51
102.5558577985999
  0
ARC
  5
14E9
330
14B3
100
AcDbEntity
  8
実形
370
    15
100
AcDbCircle
 10
-2.500000000000227
 20
-2.5
 30
0.0
 40
1.0
100
AcDbArc
 50
0.0
 51
90.0
  0
ARC
  5
14EA
330
14B3
100
AcDbEntity
  8
実形
370
    15
100
AcDbCircle
 10
2.499999999999545
 20
-2.5
 30
0.0
 40
1.0
100
AcDbArc
 50
90.0
 51
180.0
  0
ARC
  5
14EB
330
14B3
100
AcDbEntity
  8
実形
370
    15
100
AcDbCircle
 10
2.499999999999545
 20
2.5
 30
0.0
 40
1.0
100
AcDbArc
 50
180.0
 51
270.0
  0
ARC
  5
14EC
330
14B3
100
AcDbEntity
  8
実形
370
    15
100
AcDbCircle
 10
-2.500000000000227
 20
2.5
 30
0.0
 40
1.0
100
AcDbArc
 50
270.0
 51
0.0
  0
LINE
  5
14ED
330
14B3
100
AcDbEntity
  8
実形
100
AcDbLine
 10
-85.0
 20
0.0
 30
0.0
 11
85.0
 21
0.0
 31
0.0
  0
ENDBLK
  5
14F1
330
14B3
100
AcDbEntity
  8
0
100
AcDbBlockEnd
  0
BLOCK
  5
1539
330
1538
100
AcDbEntity
  8
0
100
AcDbBlockBegin
  2
_None
 70
     0
 10
0.0
 20
0.0
 30
0.0
  3
_None
  1

  0
ENDBLK
  5
153A
330
1538
100
AcDbEntity
  8
0
100
AcDbBlockEnd
  0
BLOCK
  5
15DB
330
15D1
100
AcDbEntity
  8
0
100
AcDbBlockBegin
  2
*D36
 70
     1
 10
0.0
 20
0.0
 30
0.0
  3
*D36
  1

  0
LINE
  5
171C
330
15D1
100
AcDbEntity
  8
実形
 62
     0
370
    15
100
AcDbLine
 10
1894.136397019579
 20
1540.116690245369
 30
0.0
 11
1894.136397019579
 21
1574.425837250154
 31
0.0
  0
LINE
  5
171D
330
15D1
100
AcDbEntity
  8
実形
 62
     0
370
    15
100
AcDbLine
 10
2000.136397019579
 20
1540.116690245369
 30
0.0
 11
2000.136397019579
 21
1574.425837250154
 31
0.0
  0
LINE
  5
171E
330
15D1
100
AcDbEntity
  8
実形
 62
     0
370
    15
100
AcDbLine
 10
1894.136397019579
 20
1574.425837250154
 30
0.0
 11
2000.136397019579
 21
1574.425837250154
 31
0.0
  0
INSERT
  5
171F
330
15D1
100
AcDbEntity
  8
実形
 62
     0
370
    15
100
AcDbBlockReference
  2
_DotSmall
 10
1894.136397019579
 20
1574.425837250154
 30
0.0
 41
35.0
 42
35.0
 43
35.0
 50
180.0
  0
INSERT
  5
1720
330
15D1
100
AcDbEntity
  8
実形
 62
     0
370
    15
100
AcDbBlockReference
  2
_DotSmall
 10
2000.136397019579
 20
1574.425837250154
 30
0.0
 41
35.0
 42
35.0
 43
35.0
  0
MTEXT
  5
1721
330
15D1
100
AcDbEntity
  8
実形
 62
     0
100
AcDbMText
 10
1947.136397019579
 20
1593.175837250154
 30
0.0
 40
25.0
 41
0.0
 71
     5
 72
     1
  1
106
 73
     1
 44
1.0
1001
ACAD
1000
MTEXTBEGIN
1070
    73
1070
     1
1070
    44
1040
1.0
1070
    74
1070
     0
1000
MTEXTEND
  0
POINT
  5
1722
330
15D1
100
AcDbEntity
  8
Defpoints
 62
     0
100
AcDbPoint
 10
1894.136397019579
 20
1475.116690245369
 30
0.0
  0
POINT
  5
1723
330
15D1
100
AcDbEntity
  8
Defpoints
 62
     0
100
AcDbPoint
 10
2000.136397019579
 20
1475.116690245369
 30
0.0
  0
POINT
  5
1724
330
15D1
100
AcDbEntity
  8
Defpoints
 62
     0
100
AcDbPoint
 10
2000.136397019579
 20
1574.425837250154
 30
0.0
  0
ENDBLK
  5
15DC
330
15D1
100
AcDbEntity
  8
0
100
AcDbBlockEnd
  0
BLOCK
  5
15E5
330
15DD
100
AcDbEntity
  8
0
100
AcDbBlockBegin
  2
*D37
 70
     1
 10
0.0
 20
0.0
 30
0.0
  3
*D37
  1

  0
LINE
  5
1725
330
15DD
100
AcDbEntity
  8
実形
 62
     0
370
    15
100
AcDbLine
 10
2061.922736618531
 20
1475.116690245369
 30
0.0
 11
2061.922736618531
 21
1441.916690245369
 31
0.0
  0
MTEXT
  5
1726
330
15DD
100
AcDbEntity
  8
実形
 62
     0
100
AcDbMText
 10
2090.571170309604
 20
1458.516690245369
 30
0.0
 40
25.0
 41
0.0
 71
     5
 72
     1
  1
33
 11
0.0000000000000001
 21
1.0
 31
0.0
 73
     1
 44
1.0
1001
ACAD
1000
MTEXTBEGIN
1070
    73
1070
     1
1070
    44
1040
1.0
1070
    74
1070
     0
1000
MTEXTEND
  0
INSERT
  5
1727
330
15DD
100
AcDbEntity
  8
実形
 62
     0
370
    15
100
AcDbBlockReference
  2
_DotSmall
 10
2061.922736618531
 20
1475.116690245369
 30
0.0
 41
35.0
 42
35.0
 43
35.0
 50
90.0
  0
INSERT
  5
1728
330
15DD
100
AcDbEntity
  8
実形
 62
     0
370
    15
100
AcDbBlockReference
  2
_DotSmall
 10
2061.922736618531
 20
1441.916690245369
 30
0.0
 41
35.0
 42
35.0
 43
35.0
 50
270.0
  0
POINT
  5
1729
330
15DD
100
AcDbEntity
  8
Defpoints
 62
     0
100
AcDbPoint
 10
2020.136397019579
 20
1475.116690245369
 30
0.0
  0
POINT
  5
172A
330
15DD
100
AcDbEntity
  8
Defpoints
 62
     0
100
AcDbPoint
 10
2020.136397019579
 20
1441.916690245369
 30
0.0
  0
POINT
  5
172B
330
15DD
100
AcDbEntity
  8
Defpoints
 62
     0
100
AcDbPoint
 10
2061.922736618531
 20
1441.916690245369
 30
0.0
  0
ENDBLK
  5
15E6
330
15DD
100
AcDbEntity
  8
0
100
AcDbBlockEnd
  0
BLOCK
  5
15F1
330
15E7
100
AcDbEntity
  8
0
100
AcDbBlockBegin
  2
*D38
 70
     1
 10
0.0
 20
0.0
 30
0.0
  3
*D38
  1

  0
LINE
  5
172C
330
15E7
100
AcDbEntity
  8
実形
 62
     0
370
    15
100
AcDbLine
 10
2000.136397019579
 20
1540.116690245369
 30
0.0
 11
2000.136397019579
 21
1574.425837250154
 31
0.0
  0
LINE
  5
172D
330
15E7
100
AcDbEntity
  8
実形
 62
     0
370
    15
100
AcDbLine
 10
2020.136397019579
 20
1540.116690245369
 30
0.0
 11
2020.136397019579
 21
1574.425837250154
 31
0.0
  0
LINE
  5
172E
330
15E7
100
AcDbEntity
  8
実形
 62
     0
370
    15
100
AcDbLine
 10
2000.136397019579
 20
1574.425837250154
 30
0.0
 11
2020.136397019579
 21
1574.425837250154
 31
0.0
  0
MTEXT
  5
172F
330
15E7
100
AcDbEntity
  8
実形
 62
     0
100
AcDbMText
 10
2047.095439324392
 20
1578.087546778193
 30
0.0
 40
25.0
 41
0.0
 71
     5
 72
     1
  1
20
 73
     1
 44
1.0
1001
ACAD
1000
MTEXTBEGIN
1070
    73
1070
     1
1070
    44
1040
1.0
1070
    74
1070
     0
1000
MTEXTEND
  0
INSERT
  5
1730
330
15E7
100
AcDbEntity
  8
実形
 62
     0
370
    15
100
AcDbBlockReference
  2
_DotSmall
 10
2000.136397019579
 20
1574.425837250154
 30
0.0
 41
35.0
 42
35.0
 43
35.0
 50
180.0
  0
INSERT
  5
1731
330
15E7
100
AcDbEntity
  8
実形
 62
     0
370
    15
100
AcDbBlockReference
  2
_DotSmall
 10
2020.136397019579
 20
1574.425837250154
 30
0.0
 41
35.0
 42
35.0
 43
35.0
  0
POINT
  5
1732
330
15E7
100
AcDbEntity
  8
Defpoints
 62
     0
100
AcDbPoint
 10
2000.136397019579
 20
1475.116690245369
 30
0.0
  0
POINT
  5
1733
330
15E7
100
AcDbEntity
  8
Defpoints
 62
     0
100
AcDbPoint
 10
2020.136397019579
 20
1475.116690245369
 30
0.0
  0
POINT
  5
1734
330
15E7
100
AcDbEntity
  8
Defpoints
 62
     0
100
AcDbPoint
 10
2020.136397019579
 20
1574.425837250154
 30
0.0
  0
ENDBLK
  5
15F2
330
15E7
100
AcDbEntity
  8
0
100
AcDbBlockEnd
  0
ENDSEC
  0
SECTION
  2
ENTITIES
  0
LINE
  5
73
330
1F
100
AcDbEntity
  8
0
100
AcDbLine
 10
109.0
 20
4.0
 30
0.0
 11
278.0
 21
4.0
 31
0.0
  0
LINE
  5
9C
330
1F
100
AcDbEntity
  8
補助
100
AcDbLine
 10
109.0
 20
4.0
 30
0.0
 11
2784.0
 21
4.0
 31
0.0
  0
LINE
  5
A0
330
1F
100
AcDbEntity
  8
補助
100
AcDbLine
 10
2784.0
 20
2024.0
 30
0.0
 11
109.0
 21
2024.0
 31
0.0
  0
LINE
  5
A5
330
1F
100
AcDbEntity
  8
補助
100
AcDbLine
 10
2784.0
 20
4.0
 30
0.0
 11
2784.0
 21
2024.0
 31
0.0
  0
LINE
  5
2DD
330
1F
100
AcDbEntity
  8
実形
100
AcDbLine
 10
1549.657978329059
 20
978.5166902453683
 30
0.0
 11
1019.657978329059
 21
978.5166902453683
 31
0.0
  0
LINE
  5
2E0
330
1F
100
AcDbEntity
  8
実形
100
AcDbLine
 10
1549.657978329059
 20
1498.516690245368
 30
0.0
 11
1019.657978329059
 21
1498.516690245368
 31
0.0
  0
LINE
  5
2E6
330
1F
100
AcDbEntity
  8
実形
100
AcDbLine
 10
1554.657978329059
 20
1457.516690245368
 30
0.0
 11
1554.657978329059
 21
1459.516690245368
 31
0.0
  0
CIRCLE
  5
2E8
330
1F
100
AcDbEntity
  8
実形
100
AcDbCircle
 10
1459.657978329059
 20
1273.516690245368
 30
0.0
 40
90.5
  0
CIRCLE
  5
2E9
330
1F
100
AcDbEntity
  8
実形
100
AcDbCircle
 10
1459.657978329059
 20
1273.516690245368
 30
0.0
 40
79.5
  0
LINE
  5
2EB
330
1F
100
AcDbEntity
  8
実形
100
AcDbLine
 10
1364.657978329059
 20
1457.516690245368
 30
0.0
 11
1364.657978329059
 21
1459.516690245368
 31
0.0
  0
LINE
  5
2F1
330
1F
100
AcDbEntity
  8
実形
100
AcDbLine
 10
1609.657978329059
 20
1296.575158071544
 30
0.0
 11
1609.657978329059
 21
1100.458222419193
 31
0.0
  0
LINE
  5
2F2
330
1F
100
AcDbEntity
  8
実形
100
AcDbLine
 10
959.6579783290589
 20
1296.575158071544
 30
0.0
 11
959.6579783290589
 21
1100.458222419193
 31
0.0
  0
ARC
  5
2F4
330
1F
100
AcDbEntity
  8
実形
100
AcDbCircle
 10
1284.657978329059
 20
4743.516690245368
 30
0.0
 40
3750.0
100
AcDbArc
 50
266.4658276845697
 51
273.5341723154303
  0
ARC
  5
2F7
330
1F
100
AcDbEntity
  8
実形
100
AcDbCircle
 10
1284.657978329059
 20
-2346.483309754631
 30
0.0
 40
3750.0
100
AcDbArc
 50
86.46582768456978
 51
93.53417231543023
  0
ARC
  5
2F8
330
1F
100
AcDbEntity
  8
実形
100
AcDbCircle
 10
1509.657978329059
 20
1296.575158071544
 30
0.0
 40
100.0
100
AcDbArc
 50
0.000000000000007
 51
86.46582768457024
  0
ARC
  5
2FA
330
1F
100
AcDbEntity
  8
実形
100
AcDbCircle
 10
1509.657978329059
 20
1100.458222419193
 30
0.0
 40
100.0
100
AcDbArc
 50
273.5341723154312
 51
0.000000000000007
  0
ARC
  5
2FB
330
1F
100
AcDbEntity
  8
実形
100
AcDbCircle
 10
1059.657978329059
 20
1100.458222419193
 30
0.0
 40
100.0
100
AcDbArc
 50
180.0
 51
266.4658276845696
  0
ARC
  5
2FC
330
1F
100
AcDbEntity
  8
実形
100
AcDbCircle
 10
1059.657978329059
 20
1296.575158071544
 30
0.0
 40
100.0
100
AcDbArc
 50
93.53417231543003
 51
180.0
  0
LINE
  5
2FD
330
1F
100
AcDbEntity
  8
実形
100
AcDbLine
 10
1609.657978329059
 20
1358.516690245368
 30
0.0
 11
1609.657978329059
 21
1038.516690245368
 31
0.0
  0
LINE
  5
2FE
330
1F
100
AcDbEntity
  8
実形
100
AcDbLine
 10
1549.657978329059
 20
1418.516690245368
 30
0.0
 11
1019.657978329059
 21
1418.516690245368
 31
0.0
  0
LINE
  5
2FF
330
1F
100
AcDbEntity
  8
実形
100
AcDbLine
 10
959.6579783290588
 20
1358.516690245368
 30
0.0
 11
959.6579783290589
 21
1038.516690245368
 31
0.0
  0
ARC
  5
300
330
1F
100
AcDbEntity
  8
実形
100
AcDbCircle
 10
1549.657978329059
 20
1358.516690245368
 30
0.0
 40
60.0
100
AcDbArc
 50
0.000000000000007
 51
90.0
  0
ARC
  5
301
330
1F
100
AcDbEntity
  8
実形
100
AcDbCircle
 10
1549.657978329059
 20
1038.516690245368
 30
0.0
 40
60.0
100
AcDbArc
 50
270.0
 51
0.000000000000007
  0
ARC
  5
302
330
1F
100
AcDbEntity
  8
実形
100
AcDbCircle
 10
1019.657978329059
 20
1038.516690245368
 30
0.0
 40
60.0
100
AcDbArc
 50
180.0
 51
270.0
  0
ARC
  5
303
330
1F
100
AcDbEntity
  8
実形
100
AcDbCircle
 10
1019.657978329059
 20
1358.516690245368
 30
0.0
 40
60.0
100
AcDbArc
 50
90.0
 51
180.0
  0
LINE
  5
306
330
1F
100
AcDbEntity
  8
実形
100
AcDbLine
 10
1609.657978329059
 20
1438.516690245368
 30
0.0
 11
1609.657978329059
 21
1100.458222419193
 31
0.0
  0
LINE
  5
307
330
1F
100
AcDbEntity
  8
実形
100
AcDbLine
 10
959.6579783290591
 20
1438.516690245368
 30
0.0
 11
959.6579783290589
 21
1100.458222419193
 31
0.0
  0
ARC
  5
308
330
1F
100
AcDbEntity
  8
実形
100
AcDbCircle
 10
1549.657978329059
 20
1438.516690245368
 30
0.0
 40
60.0
100
AcDbArc
 50
0.000000000000007
 51
90.0
  0
ARC
  5
309
330
1F
100
AcDbEntity
  8
実形
100
AcDbCircle
 10
1019.657978329059
 20
1438.516690245368
 30
0.0
 40
60.0
100
AcDbArc
 50
90.0
 51
180.0
  0
LINE
  5
315
330
1F
100
AcDbEntity
  8
センター
100
AcDbLine
 10
1459.657978329059
 20
1407.644813558707
 30
0.0
 11
1459.657978329059
 21
1118.796620794418
 31
0.0
  0
LINE
  5
316
330
1F
100
AcDbEntity
  8
センター
100
AcDbLine
 10
1596.226292359353
 20
1273.516690245368
 30
0.0
 11
1323.051420441347
 21
1273.516690245368
 31
0.0
  0
LINE
  5
317
330
1F
100
AcDbEntity
  8
実形
100
AcDbLine
 10
1629.657978329059
 20
563.5166902453684
 30
0.0
 11
939.657978329059
 21
563.5166902453684
 31
0.0
  0
LINE
  5
319
330
1F
100
AcDbEntity
  8
実形
100
AcDbLine
 10
1609.657978329059
 20
548.5166902453682
 30
0.0
 11
1609.657978329059
 21
403.5166902453682
 31
0.0
  0
LINE
  5
31A
330
1F
100
AcDbEntity
  8
実形
100
AcDbLine
 10
1579.657978329059
 20
373.5166902453683
 30
0.0
 11
1369.157978329059
 21
373.5166902453683
 31
0.0
  0
LINE
  5
31B
330
1F
100
AcDbEntity
  8
実形
100
AcDbLine
 10
959.6579783290589
 20
413.4645312556009
 30
0.0
 11
959.6579783290589
 21
548.5166902453681
 31
0.0
  0
LINE
  5
320
330
1F
100
AcDbEntity
  8
実形
100
AcDbLine
 10
1369.157978329059
 20
373.5166902453684
 30
0.0
 11
1380.157978329059
 21
366.5166902453684
 31
0.0
  0
LINE
  5
321
330
1F
100
AcDbEntity
  8
実形
100
AcDbLine
 10
1380.157978329059
 20
366.5166902453684
 30
0.0
 11
1539.157978329059
 21
366.5166902453684
 31
0.0
  0
LINE
  5
322
330
1F
100
AcDbEntity
  8
実形
100
AcDbLine
 10
1539.157978329059
 20
366.5166902453684
 30
0.0
 11
1550.157978329059
 21
373.5166902453684
 31
0.0
  0
LINE
  5
323
330
1F
100
AcDbEntity
  8
実形
100
AcDbLine
 10
1369.157978329059
 20
373.5166902453684
 30
0.0
 11
988.8726698798228
 21
383.4748115063343
 31
0.0
  0
ARC
  5
324
330
1F
100
AcDbEntity
  8
実形
100
AcDbCircle
 10
989.657978329059
 20
413.4645312556009
 30
0.0
 40
30.0
100
AcDbArc
 50
180.0
 51
268.5
  0
ARC
  5
325
330
1F
100
AcDbEntity
  8
実形
100
AcDbCircle
 10
1579.657978329059
 20
403.5166902453682
 30
0.0
 40
30.0
100
AcDbArc
 50
270.0
 51
0.000000000000007
  0
LINE
  5
328
330
1F
100
AcDbEntity
  8
センター
100
AcDbLine
 10
1369.157978329063
 20
373.5166902453683
 30
0.0
 11
965.5294532112575
 21
373.5166902453683
 31
0.0
  0
LINE
  5
329
330
1F
100
AcDbEntity
  8
センター
 48
0.5
100
AcDbLine
 10
1109.657978329059
 20
445.7642410637827
 30
0.0
 11
1109.657978329059
 21
283.8185872061695
 31
0.0
  0
LINE
  5
338
330
1F
100
AcDbEntity
  8
実形
100
AcDbLine
 10
1914.136397019578
 20
993.5166902453683
 30
0.0
 11
2049.949458754566
 21
993.5166902453683
 31
0.0
  0
LINE
  5
339
330
1F
100
AcDbEntity
  8
実形
100
AcDbLine
 10
2084.136397019578
 20
1183.016690245368
 30
0.0
 11
2084.136397019578
 21
1373.516690245368
 31
0.0
  0
LINE
  5
33A
330
1F
100
AcDbEntity
  8
実形
100
AcDbLine
 10
2054.136397019578
 20
1403.516690245368
 30
0.0
 11
1914.136397019578
 21
1403.516690245368
 31
0.0
  0
LINE
  5
346
330
1F
100
AcDbEntity
  8
実形
100
AcDbLine
 10
2084.136397019578
 20
1364.016690245368
 30
0.0
 11
2091.136397019578
 21
1353.016690245368
 31
0.0
  0
LINE
  5
347
330
1F
100
AcDbEntity
  8
実形
100
AcDbLine
 10
2091.136397019578
 20
1353.016690245368
 30
0.0
 11
2091.136397019578
 21
1194.016690245368
 31
0.0
  0
LINE
  5
348
330
1F
100
AcDbEntity
  8
実形
100
AcDbLine
 10
2091.136397019578
 20
1194.016690245368
 30
0.0
 11
2084.136397019578
 21
1183.016690245368
 31
0.0
  0
LINE
  5
353
330
1F
100
AcDbEntity
  8
実形
100
AcDbLine
 10
1894.136397019578
 20
977.5166902453683
 30
0.0
 11
1894.136397019578
 21
958.5166902453684
 31
0.0
  0
ARC
  5
35C
330
1F
100
AcDbEntity
  8
実形
100
AcDbCircle
 10
1914.136397019578
 20
988.5166902453685
 30
0.0
 40
5.0
100
AcDbArc
 50
90.0
 51
180.0
  0
ARC
  5
35D
330
1F
100
AcDbEntity
  8
実形
100
AcDbCircle
 10
1914.136397019578
 20
1408.516690245368
 30
0.0
 40
5.0
100
AcDbArc
 50
180.0
 51
270.0
  0
ARC
  5
360
330
1F
100
AcDbEntity
  8
実形
100
AcDbCircle
 10
2054.136397019578
 20
1373.516690245368
 30
0.0
 40
30.0
100
AcDbArc
 50
0.0
 51
90.0
  0
LINE
  5
361
330
1F
100
AcDbEntity
  8
実形
100
AcDbLine
 10
2084.136397019578
 20
1183.016690245368
 30
0.0
 11
2079.939178503833
 21
1022.731381796132
 31
0.0
  0
ARC
  5
362
330
1F
100
AcDbEntity
  8
実形
100
AcDbCircle
 10
2049.949458754566
 20
1023.516690245368
 30
0.0
 40
30.0
100
AcDbArc
 50
270.0
 51
358.4999999999999
  0
LINE
  5
363
330
1F
100
AcDbEntity
  8
実形
100
AcDbLine
 10
1894.136397019577
 20
1413.516690245368
 30
0.0
 11
1894.136397019578
 21
958.5166902453684
 31
0.0
  0
LINE
  5
367
330
1F
100
AcDbEntity
  8
実形
100
AcDbLine
 10
1364.657978329059
 20
1457.516690245368
 30
0.0
 11
1364.657978329059
 21
1459.516690245368
 31
0.0
  0
LINE
  5
368
330
1F
100
AcDbEntity
  8
実形
100
AcDbLine
 10
1554.657978329059
 20
1457.516690245368
 30
0.0
 11
1554.657978329059
 21
1459.516690245368
 31
0.0
  0
DIMENSION
  5
3A1
330
1F
100
AcDbEntity
  8
寸法
100
AcDbDimension
  2
*D4
 10
1554.657978329059
 20
1592.847889473033
 30
0.0
 11
1582.157978329059
 21
1611.597889473033
 31
0.0
 70
    32
 71
     5
 42
55.0
  3
ISO-25
100
AcDbAlignedDimension
 13
1609.657978329059
 23
1488.516690245368
 33
0.0
 14
1554.657978329059
 24
1488.516690245368
 34
0.0
 50
180.0
100
AcDbRotatedDimension
  0
DIMENSION
  5
3AE
330
1F
100
AcDbEntity
  8
寸法
100
AcDbDimension
  2
*D5
 10
1364.657978329059
 20
1592.847889473033
 30
0.0
 11
1459.657978329059
 21
1611.597889473033
 31
0.0
 70
    32
 71
     5
 42
190.0
  3
ISO-25
100
AcDbAlignedDimension
 13
1554.657978329059
 23
1488.516690245368
 33
0.0
 14
1364.657978329059
 24
1488.516690245368
 34
0.0
 50
180.0
100
AcDbRotatedDimension
1001
ACAD
1000
DSTYLE
1002
{
1070
   279
1070
     1
1002
}
  0
DIMENSION
  5
3C2
330
1F
100
AcDbEntity
  8
寸法
100
AcDbDimension
  2
*D6
 10
1266.357929409943
 20
1428.516690245368
 30
0.0
 11
1247.607929409942
 21
1458.516690245368
 31
0.0
 70
    33
  1
58
 71
     5
 42
59.99999999999977
  3
ISO-25
100
AcDbAlignedDimension
 13
1393.657978329059
 23
1488.516690245368
 33
0.0
 14
1393.657978329059
 24
1428.516690245368
 34
0.0
  0
DIMENSION
  5
3E9
330
1F
100
AcDbEntity
  8
寸法
100
AcDbDimension
  2
*D7
 10
1284.785057944074
 20
1403.516690245368
 30
0.0
 11
1266.035057944073
 21
1338.516690245368
 31
0.0
 70
    32
 71
     5
 42
130.0
  3
ISO-25
100
AcDbAlignedDimension
 13
1380.157978329059
 23
1273.516690245368
 33
0.0
 14
1284.657978329059
 24
1403.516690245368
 34
0.0
 50
90.0
100
AcDbRotatedDimension
1001
ACAD
1000
DSTYLE
1002
{
1070
    76
1070
     1
1070
    75
1070
     0
1002
}
  0
DIMENSION
  5
3F6
330
1F
100
AcDbEntity
  8
寸法
100
AcDbDimension
  2
*D8
 10
1609.657978329059
 20
1120.923923974367
 30
0.0
 11
1534.657978329059
 21
1139.673923974367
 31
0.0
 70
    32
 71
     5
 42
150.0
  3
ISO-25
100
AcDbAlignedDimension
 13
1459.657978329059
 23
1194.016690245368
 33
0.0
 14
1609.657978329059
 24
1183.016690245368
 34
0.0
 50
180.0
100
AcDbRotatedDimension
  0
DIMENSION
  5
40C
330
1F
100
AcDbEntity
  8
寸法
100
AcDbDimension
  2
*D9
 10
840.8623174674996
 20
993.5166902453683
 30
0.0
 11
840.8623174674994
 21
1051.433356912035
 31
0.0
 70
   160
 71
     5
 42
15.0
  3
ISO-25
100
AcDbAlignedDimension
 13
939.657978329059
 23
978.5166902453683
 33
0.0
 14
939.657978329059
 24
993.5166902453683
 34
0.0
 50
90.0
100
AcDbRotatedDimension
  0
DIMENSION
  5
41A
330
1F
100
AcDbEntity
  8
寸法
100
AcDbDimension
  2
*D10
 10
840.8623174674996
 20
1403.516690245368
 30
0.0
 11
822.1123174674993
 21
1198.516690245368
 31
0.0
 70
    32
 71
     5
 42
410.0
  3
ISO-25
100
AcDbAlignedDimension
 13
939.657978329059
 23
993.5166902453683
 33
0.0
 14
939.657978329059
 24
1403.516690245368
 34
0.0
 50
90.0
100
AcDbRotatedDimension
1001
ACAD
1000
DSTYLE
1002
{
1070
   279
1070
     1
1002
}
  0
DIMENSION
  5
427
330
1F
100
AcDbEntity
  8
寸法
100
AcDbDimension
  2
*D11
 10
840.8623174674996
 20
1418.516690245368
 30
0.0
 11
840.8623174674994
 21
1365.95281566394
 31
0.0
 70
   160
 71
     5
 42
15.0
  3
ISO-25
100
AcDbAlignedDimension
 13
939.657978329059
 23
1403.516690245368
 33
0.0
 14
939.657978329059
 24
1418.516690245368
 34
0.0
 50
90.0
100
AcDbRotatedDimension
1001
ACAD
1000
DSTYLE
1002
{
1070
   279
1070
     1
1002
}
  0
DIMENSION
  5
459
330
1F
100
AcDbEntity
  8
寸法
100
AcDbDimension
  2
*D12
 10
764.3698752279424
 20
978.5166902453685
 30
0.0
 11
745.6198752279423
 21
1198.516690245368
 31
0.0
 70
    32
 71
     5
 42
440.0
  3
ISO-25
100
AcDbAlignedDimension
 13
939.657978329059
 23
1418.516690245368
 33
0.0
 14
939.657978329059
 24
978.5166902453683
 34
0.0
 50
90.0
100
AcDbRotatedDimension
  0
DIMENSION
  5
466
330
1F
100
AcDbEntity
  8
寸法
100
AcDbDimension
  2
*D13
 10
764.3698752279424
 20
1498.516690245368
 30
0.0
 11
745.6198752279422
 21
1458.516690245368
 31
0.0
 70
    32
 71
     5
 42
80.0
  3
ISO-25
100
AcDbAlignedDimension
 13
939.657978329059
 23
1418.516690245368
 33
0.0
 14
939.657978329059
 24
1498.516690245368
 34
0.0
 50
90.0
100
AcDbRotatedDimension
  0
DIMENSION
  5
47C
330
1F
100
AcDbEntity
  8
寸法
100
AcDbDimension
  2
*D14
 10
764.3698752279424
 20
1533.516690245368
 30
0.0
 11
762.3022159018874
 21
1566.612098482695
 31
0.0
 70
   160
 71
     5
 42
35.0
  3
ISO-25
100
AcDbAlignedDimension
 13
939.657978329059
 23
1498.516690245368
 33
0.0
 14
939.657978329059
 24
1533.516690245368
 34
0.0
 50
90.0
100
AcDbRotatedDimension
1001
ACAD
1000
DSTYLE
1002
{
1070
   279
1070
     1
1002
}
  0
DIMENSION
  5
492
330
1F
100
AcDbEntity
  8
寸法
100
AcDbDimension
  2
*D15
 10
686.8210915177642
 20
943.5166902453685
 30
0.0
 11
668.0710915177641
 21
1238.516690245369
 31
0.0
 70
    32
 71
     5
 42
590.0
  3
ISO-25
100
AcDbAlignedDimension
 13
939.657978329059
 23
1533.516690245368
 33
0.0
 14
939.657978329059
 24
943.5166902453683
 34
0.0
 50
90.0
100
AcDbRotatedDimension
  0
DIMENSION
  5
4C3
330
1F
100
AcDbEntity
  8
寸法
100
AcDbDimension
  2
*D16
 10
764.3698752279425
 20
943.5166902453685
 30
0.0
 11
737.6460749835286
 21
973.5782442527224
 31
0.0
 70
   160
 71
     5
 42
35.0
  3
ISO-25
100
AcDbAlignedDimension
 13
939.657978329059
 23
978.5166902453683
 33
0.0
 14
939.657978329059
 24
943.5166902453683
 34
0.0
 50
90.0
100
AcDbRotatedDimension
1001
ACAD
1000
DSTYLE
1002
{
1070
   279
1070
     2
1002
}
  0
DIMENSION
  5
4E5
330
1F
100
AcDbEntity
  8
寸法
100
AcDbDimension
  2
*D17
 10
959.6579783290589
 20
846.5141829860149
 30
0.0
 11
995.2780489784954
 21
867.966559044833
 31
0.0
 70
   160
 71
     5
 42
35.0
  3
ISO-25
100
AcDbAlignedDimension
 13
924.657978329059
 23
958.5166902453684
 33
0.0
 14
959.6579783290589
 24
958.5166902453684
 34
0.0
100
AcDbRotatedDimension
1001
ACAD
1000
DSTYLE
1002
{
1070
   279
1070
     2
1002
}
  0
DIMENSION
  5
4FD
330
1F
100
AcDbEntity
  8
寸法
100
AcDbDimension
  2
*D18
 10
1609.657978329059
 20
846.2933648444632
 30
0.0
 11
1284.657978329059
 21
865.0433648444632
 31
0.0
 70
    32
 71
     5
 42
650.0
  3
ISO-25
100
AcDbAlignedDimension
 13
959.6579783290589
 23
958.5166902453684
 33
0.0
 14
1609.657978329059
 24
958.5166902453684
 34
0.0
100
AcDbRotatedDimension
1001
ACAD
1000
DSTYLE
1002
{
1070
   279
1070
     1
1002
}
  0
DIMENSION
  5
50A
330
1F
100
AcDbEntity
  8
寸法
100
AcDbDimension
  2
*D19
 10
1644.657978329059
 20
846.2933648444632
 30
0.0
 11
1568.02520052232
 21
846.2933648444632
 31
0.0
 70
   160
 71
     5
 42
35.0
  3
ISO-25
100
AcDbAlignedDimension
 13
1609.657978329059
 23
958.5166902453684
 33
0.0
 14
1644.657978329059
 24
958.5166902453684
 34
0.0
100
AcDbRotatedDimension
1001
ACAD
1000
DSTYLE
1002
{
1070
   279
1070
     1
1002
}
  0
DIMENSION
  5
522
330
1F
100
AcDbEntity
  8
寸法
100
AcDbDimension
  2
*D20
 10
1644.657978329059
 20
772.1729496108037
 30
0.0
 11
1284.657978329059
 21
790.9229496108037
 31
0.0
 70
    33
 71
     5
 42
720.0
  3
ISO-25
100
AcDbAlignedDimension
 13
924.657978329059
 23
958.5166902453684
 33
0.0
 14
1644.657978329059
 24
958.5166902453684
 34
0.0
  0
DIMENSION
  5
52F
330
1F
100
AcDbEntity
  8
寸法
100
AcDbDimension
  2
*D21
 10
855.5114377196842
 20
373.5166902453685
 30
0.0
 11
827.7825943579737
 21
346.1992035287685
 31
0.0
 70
   160
 71
     5
 42
7.0
  3
ISO-25
100
AcDbAlignedDimension
 13
944.6579783290589
 23
366.5166902453684
 33
0.0
 14
944.6579783290589
 24
373.5166902453684
 34
0.0
 50
90.0
100
AcDbRotatedDimension
1001
ACAD
1000
DSTYLE
1002
{
1070
   282
1070
     1
1070
   281
1070
     1
1070
   279
1070
     2
1070
    42
1040
30.0
1002
}
  0
DIMENSION
  5
549
330
1F
100
AcDbEntity
  8
寸法
100
AcDbDimension
  2
*D22
 10
795.6755214503982
 20
563.5166902453684
 30
0.0
 11
776.9255214503981
 21
468.5166902453685
 31
0.0
 70
    32
 71
     5
 42
190.0
  3
ISO-25
100
AcDbAlignedDimension
 13
929.657978329059
 23
373.5166902453684
 33
0.0
 14
924.657978329059
 24
563.5166902453684
 34
0.0
 50
90.0
100
AcDbRotatedDimension
1001
ACAD
1000
DSTYLE
1002
{
1070
   279
1070
     1
1002
}
  0
ARC
  5
570
330
1F
100
AcDbEntity
  8
寸法
100
AcDbCircle
 10
1369.157978329063
 20
373.5166902453683
 30
0.0
 40
346.6490970545442
100
AcDbArc
 50
178.4999999999999
 51
180.0
  0
TEXT
  5
571
330
1F
100
AcDbEntity
  8
寸法
100
AcDbText
 10
993.3586342533089
 20
340.0018909634446
 30
0.0
 40
25.0
  1
1.5゜
 11
993.3586342533089
 21
336.6685576301113
 31
0.0
100
AcDbText
 73
     1
  0
DIMENSION
  5
6EA
330
1F
100
AcDbEntity
  8
寸法
100
AcDbDimension
  2
*D23
 10
2202.708241690966
 20
1194.016690245368
 30
0.0
 11
2202.708241690966
 21
1272.724682202494
 31
0.0
 70
   160
  1
159%%C
 71
     5
 42
159.0
  3
ISO-25
100
AcDbAlignedDimension
 13
2091.136397019578
 23
1353.016690245368
 33
0.0
 14
2091.136397019578
 24
1194.016690245368
 34
0.0
 50
90.0
100
AcDbRotatedDimension
  0
DIMENSION
  5
77B
330
1F
100
AcDbEntity
  8
寸法
100
AcDbDimension
  2
*D24
 10
2008.689072949696
 20
1183.016690245368
 30
0.0
 11
2008.689072949695
 21
1273.516690245368
 31
0.0
 70
   160
  1
181%%C
 71
     5
 42
181.0
  3
ISO-25
100
AcDbAlignedDimension
 13
2138.375782842709
 23
1364.016690245368
 33
0.0
 14
2138.375782842709
 24
1183.016690245368
 34
0.0
 50
90.0
100
AcDbRotatedDimension
  0
DIMENSION
  5
788
330
1F
100
AcDbEntity
  8
寸法
100
AcDbDimension
  2
*D25
 10
1909.136397019578
 20
857.7685379468713
 30
0.0
 11
1856.450140031572
 21
856.4568699082029
 31
0.0
 70
   160
 71
     5
 42
15.0
  3
ISO-25
100
AcDbAlignedDimension
 13
1894.136397019578
 23
958.5166902453684
 33
0.0
 14
1909.136397019578
 24
958.5166902453684
 34
0.0
100
AcDbRotatedDimension
1001
ACAD
1000
DSTYLE
1002
{
1070
   279
1070
     2
1002
}
  0
DIMENSION
  5
7A0
330
1F
100
AcDbEntity
  8
寸法
100
AcDbDimension
  2
*D26
 10
2084.136397019578
 20
857.7685379468713
 30
0.0
 11
1996.636397019578
 21
876.5185379468713
 31
0.0
 70
    32
 71
     5
 42
175.0
  3
ISO-25
100
AcDbAlignedDimension
 13
1909.136397019578
 23
958.5166902453684
 33
0.0
 14
2084.136397019578
 24
963.5166902453685
 34
0.0
100
AcDbRotatedDimension
1001
ACAD
1000
DSTYLE
1002
{
1070
   279
1070
     1
1002
}
  0
DIMENSION
  5
7AD
330
1F
100
AcDbEntity
  8
寸法
100
AcDbDimension
  2
*D27
 10
2091.136397019578
 20
857.7685379468713
 30
0.0
 11
2107.948897019578
 21
857.8633199100895
 31
0.0
 70
   160
 71
     5
 42
7.0
  3
ISO-25
100
AcDbAlignedDimension
 13
2084.136397019578
 23
963.5166902453685
 33
0.0
 14
2091.136397019578
 24
963.5166902453685
 34
0.0
100
AcDbRotatedDimension
1001
ACAD
1000
DSTYLE
1002
{
1070
   282
1070
     1
1070
   281
1070
     1
1070
   279
1070
     1
1002
}
  0
DIMENSION
  5
7CA
330
1F
100
AcDbEntity
  8
寸法
100
AcDbDimension
  2
*D28
 10
1894.136397019578
 20
797.2369488058006
 30
0.0
 11
1989.136397019578
 21
815.9869488058006
 31
0.0
 70
    32
 71
     5
 42
190.0
  3
ISO-25
100
AcDbAlignedDimension
 13
2084.136397019578
 23
963.5166902453685
 33
0.0
 14
1894.136397019578
 24
958.5166902453684
 34
0.0
100
AcDbRotatedDimension
  0
DIMENSION
  5
7D7
330
1F
100
AcDbEntity
  8
寸法
100
AcDbDimension
  2
*D29
 10
1894.136397019578
 20
729.2570659654484
 30
0.0
 11
1992.636397019578
 21
748.0070659654484
 31
0.0
 70
    32
 71
     5
 42
197.0
  3
ISO-25
100
AcDbAlignedDimension
 13
2091.136397019578
 23
963.5166902453685
 33
0.0
 14
1894.136397019578
 24
958.5166902453684
 34
0.0
100
AcDbRotatedDimension
  0
LEADER
  5
8DB
330
1F
100
AcDbEntity
  8
寸法
100
AcDbLeader
  3
ISO-25
 40
66.66666666666666
 41
87.5
 76
     2
 10
1406.564375505236
 20
998.6930193884118
 30
0.0
 10
1378.420577646201
 20
1038.531906115274
 30
0.0
211
-1.0
221
0.0
231
0.0
210
0.0
220
0.0
230
-1.0
213
0.0
223
-12.5
233
0.0
1001
ACAD
1000
DSTYLE
1002
{
1070
   147
1040
6.25
1070
    77
1070
     0
1070
    41
1040
20.0
1070
   342
1005
DA
1002
}
  0
TEXT
  5
8DD
330
1F
100
AcDbEntity
  8
寸法
100
AcDbText
 10
1259.767414656651
 20
1047.285537284596
 30
0.0
 40
25.0
  1
3750R
 11
1259.767414656651
 21
1043.952203951263
 31
0.0
100
AcDbText
 73
     1
  0
LEADER
  5
914
330
1F
100
AcDbEntity
  8
寸法
100
AcDbLeader
  3
ISO-25
 40
25.0
 41
62.5
 76
     2
 10
2077.355556846756
 20
1389.338389205106
 30
0.0
 10
2133.934580723014
 20
1421.793284864372
 30
0.0
213
0.0
223
-12.5
233
0.0
1001
ACAD
1000
DSTYLE
1002
{
1070
   147
1040
6.25
1070
    77
1070
     0
1070
    41
1040
25.0
1070
   342
1005
DA
1002
}
  0
TEXT
  5
918
330
1F
100
AcDbEntity
  8
寸法
100
AcDbText
 10
2144.412176811147
 20
1420.746351210938
 30
0.0
 40
25.0
  1
30R
 11
2144.412176811147
 21
1417.413017877605
 31
0.0
100
AcDbText
 73
     1
  0
LEADER
  5
C20
330
1F
100
AcDbEntity
  8
実形
100
AcDbLeader
  3
ISO-25
 40
25.0
 41
16.66666666666666
 76
     2
 10
976.2812009853021
 20
1479.970944397025
 30
0.0
 10
1021.788125501286
 20
1454.572964753174
 30
0.0
211
-1.0
221
0.0
231
0.0
210
0.0
220
0.0
230
-1.0
213
0.0
223
12.5
233
0.0
1001
ACAD
1000
DSTYLE
1002
{
1070
   147
1040
6.25
1070
    77
1070
     0
1070
    41
1040
20.0
1070
   342
1005
DA
1002
}
  0
LEADER
  5
C24
330
1F
100
AcDbEntity
  8
実形
100
AcDbLeader
  3
ISO-25
 40
25.0
 41
16.66666666666666
 76
     2
 10
983.8499992322796
 20
1406.660107583616
 30
0.0
 10
1065.85769006875
 20
1373.605826085739
 30
0.0
211
-1.0
221
0.0
231
0.0
210
0.0
220
0.0
230
-1.0
213
0.0
223
12.5
233
0.0
1001
ACAD
1000
DSTYLE
1002
{
1070
   147
1040
6.25
1070
    77
1070
     0
1070
    41
1040
20.0
1070
   342
1005
DA
1002
}
  0
LEADER
  5
C26
330
1F
100
AcDbEntity
  8
実形
100
AcDbLeader
  3
ISO-25
 40
25.0
 41
16.66666666666666
 76
     2
 10
987.1094384376725
 20
1365.398913851273
 30
0.0
 10
1024.631318913948
 20
1323.88915506088
 30
0.0
211
-1.0
221
0.0
231
0.0
210
0.0
220
0.0
230
-1.0
213
0.0
223
12.5
233
0.0
1001
ACAD
1000
DSTYLE
1002
{
1070
   147
1040
6.25
1070
    77
1070
     0
1070
    41
1040
20.0
1070
   342
1005
DA
1002
}
  0
LEADER
  5
C29
330
1F
100
AcDbEntity
  8
実形
100
AcDbLeader
  3
ISO-25
 40
74.99999999999999
 41
41.66666666666666
 76
     2
 10
959.6579783290591
 20
1197.466774721548
 30
0.0
 10
1018.944923754724
 20
1197.466774721548
 30
0.0
211
-1.0
221
0.0
231
0.0
210
0.0
220
0.0
230
-1.0
213
0.0
223
12.5
233
0.0
1001
ACAD
1000
DSTYLE
1002
{
1070
   147
1040
6.25
1070
    77
1070
     0
1070
    41
1040
20.0
1070
   342
1005
DA
1002
}
  0
TEXT
  5
C2B
330
1F
100
AcDbEntity
  8
実形
100
AcDbText
 10
1075.015361520565
 20
1353.780681768343
 30
0.0
 40
25.0
  1
60R
 72
     2
 11
1137.515361520565
 21
1350.44734843501
 31
0.0
100
AcDbText
 73
     1
  0
TEXT
  5
C2C
330
1F
100
AcDbEntity
  8
実形
100
AcDbText
 10
1033.672244026978
 20
1295.687838865368
 30
0.0
 40
25.0
  1
100R
 72
     2
 11
1108.672244026978
 21
1292.354505532035
 31
0.0
100
AcDbText
 73
     1
  0
TEXT
  5
C2D
330
1F
100
AcDbEntity
  8
実形
100
AcDbText
 10
1029.796325707495
 20
1432.528750423179
 30
0.0
 40
25.0
  1
60R
 72
     2
 11
1092.296325707495
 21
1457.528750423179
 31
0.0
100
AcDbText
 73
     3
  0
TEXT
  5
C2E
330
1F
100
AcDbEntity
  8
実形
100
AcDbText
 10
1032.380268441924
 20
1184.665969133085
 30
0.0
 40
25.0
  1
2000R
 72
     2
 11
1136.546935108591
 21
1197.165969133085
 31
0.0
100
AcDbText
 73
     2
  0
LEADER
  5
CB8
330
1F
100
AcDbEntity
  8
実形
100
AcDbLeader
  3
ISO-25
 76
     2
 10
968.1032532013846
 20
392.5984385530752
 30
0.0
 10
1011.295083751091
 20
431.5699060771976
 30
0.0
211
-1.0
221
0.0
231
0.0
210
0.0
220
0.0
230
-1.0
1001
ACAD
1000
DSTYLE
1002
{
1070
   147
1040
6.25
1070
    77
1070
     0
1070
    41
1040
20.0
1070
   342
1005
DA
1002
}
  0
LEADER
  5
CB9
330
1F
100
AcDbEntity
  8
実形
100
AcDbLeader
  3
ISO-25
 76
     2
 10
1598.600891188926
 20
380.25371424522
 30
0.0
 10
1557.951137547595
 20
420.8858109925795
 30
0.0
211
-1.0
221
0.0
231
0.0
210
0.0
220
0.0
230
-1.0
1001
ACAD
1000
DSTYLE
1002
{
1070
   147
1040
6.25
1070
    77
1070
     0
1070
    41
1040
20.0
1070
   342
1005
DA
1002
}
  0
LEADER
  5
CBE
330
1F
100
AcDbEntity
  8
実形
100
AcDbLeader
  3
ISO-25
 76
     2
 10
2072.407798865235
 20
1003.626417258969
 30
0.0
 10
2034.753028354723
 20
1039.865769947926
 30
0.0
1001
ACAD
1000
DSTYLE
1002
{
1070
   147
1040
6.25
1070
    77
1070
     0
1070
    41
1040
20.0
1070
   342
1005
DA
1002
}
  0
TEXT
  5
CBF
330
1F
100
AcDbEntity
  8
寸法
100
AcDbText
 10
1962.754244247232
 20
1037.915865121367
 30
0.0
 40
25.0
  1
30R
 11
1962.754244247232
 21
1034.582531788034
 31
0.0
100
AcDbText
 73
     1
  0
TEXT
  5
CC2
330
1F
100
AcDbEntity
  8
寸法
100
AcDbText
 10
1486.725081233039
 20
425.073157022792
 30
0.0
 40
25.0
  1
30R
 11
1486.725081233039
 21
421.7398236894586
 31
0.0
100
AcDbText
 73
     1
  0
TEXT
  5
CC3
330
1F
100
AcDbEntity
  8
寸法
100
AcDbText
 10
1020.209170761326
 20
426.548362062978
 30
0.0
 40
25.0
  1
30R
 11
1020.209170761326
 21
423.2150287296446
 31
0.0
100
AcDbText
 73
     1
  0
TEXT
  5
DC3
330
1F
100
AcDbEntity
  8
0
100
AcDbText
 10
225.4196054039549
 20
60.77688326363386
 30
0.0
 40
30.0
  1
※実寸には製造上の誤差が多少生ずる場合があります。シンクの穴あけ加工は現物合わせにてお願いします。
100
AcDbText
  0
LINE
  5
F5F
330
1F
100
AcDbEntity
  8
0
100
AcDbLine
 10
936.6579831264548
 20
1533.516688415914
 30
0.0
 11
1632.657983126456
 21
1533.516688415915
 31
0.0
  0
LINE
  5
F60
330
1F
100
AcDbEntity
  8
0
100
AcDbLine
 10
936.6579831264546
 20
1528.516688415914
 30
0.0
 11
1632.657983126455
 21
1528.516688415915
 31
0.0
  0
LINE
  5
F65
330
1F
100
AcDbEntity
  8
0
100
AcDbLine
 10
924.6579831264554
 20
955.5166884159142
 30
0.0
 11
924.6579831264549
 21
1521.516688415914
 31
0.0
  0
LINE
  5
F66
330
1F
100
AcDbEntity
  8
0
100
AcDbLine
 10
929.6579831264555
 20
955.5166884159142
 30
0.0
 11
929.6579831264548
 21
1521.516688415914
 31
0.0
  0
LINE
  5
F69
330
1F
100
AcDbEntity
  8
0
100
AcDbLine
 10
1632.657983126456
 20
943.5166884159146
 30
0.0
 11
936.6579831264555
 21
943.5166884159141
 31
0.0
  0
LINE
  5
F6A
330
1F
100
AcDbEntity
  8
0
100
AcDbLine
 10
1632.657983126456
 20
948.5166884159148
 30
0.0
 11
936.6579831264555
 21
948.5166884159141
 31
0.0
  0
LINE
  5
F6E
330
1F
100
AcDbEntity
  8
0
100
AcDbLine
 10
1644.657983126455
 20
1521.516688415915
 30
0.0
 11
1644.657983126455
 21
955.5166884159145
 31
0.0
  0
LINE
  5
F6F
330
1F
100
AcDbEntity
  8
0
100
AcDbLine
 10
1639.657983126455
 20
1521.516688415915
 30
0.0
 11
1639.657983126455
 21
955.5166884159147
 31
0.0
  0
LINE
  5
F7F
330
1F
100
AcDbEntity
  8
0
100
AcDbLine
 10
1644.657978329059
 20
558.5166902453685
 30
0.0
 11
924.6579783290595
 21
558.5166902453681
 31
0.0
  0
LINE
  5
F80
330
1F
100
AcDbEntity
  8
0
100
AcDbLine
 10
1609.657978329058
 20
548.5166902453682
 30
0.0
 11
959.6579783290595
 21
548.5166902453681
 31
0.0
  0
LINE
  5
F81
330
1F
100
AcDbEntity
  8
0
100
AcDbLine
 10
1639.657978329059
 20
563.5166902453684
 30
0.0
 11
929.6579783290594
 21
563.5166902453682
 31
0.0
  0
LINE
  5
F82
330
1F
100
AcDbEntity
  8
実形
100
AcDbLine
 10
1629.657978329059
 20
548.5166902453681
 30
0.0
 11
1609.657978329058
 21
548.5166902453682
 31
0.0
  0
LINE
  5
F83
330
1F
100
AcDbEntity
  8
実形
100
AcDbLine
 10
1629.657978329059
 20
558.5166902453685
 30
0.0
 11
1629.657978329059
 21
548.5166902453681
 31
0.0
  0
LINE
  5
F84
330
1F
100
AcDbEntity
  8
実形
100
AcDbLine
 10
1639.657978329059
 20
563.5166902453684
 30
0.0
 11
1644.657978329059
 21
558.5166902453685
 31
0.0
  0
LINE
  5
F85
330
1F
100
AcDbEntity
  8
実形
100
AcDbLine
 10
1632.657978329059
 20
558.5166902453685
 30
0.0
 11
1632.657978329059
 21
548.5166902453681
 31
0.0
  0
LINE
  5
F86
330
1F
100
AcDbEntity
  8
実形
100
AcDbLine
 10
939.657978329059
 20
548.5166902453681
 30
0.0
 11
959.6579783290589
 21
548.5166902453681
 31
0.0
  0
LINE
  5
F87
330
1F
100
AcDbEntity
  8
実形
100
AcDbLine
 10
939.657978329059
 20
558.5166902453681
 30
0.0
 11
939.657978329059
 21
548.5166902453681
 31
0.0
  0
LINE
  5
F88
330
1F
100
AcDbEntity
  8
実形
100
AcDbLine
 10
929.6579783290594
 20
563.5166902453682
 30
0.0
 11
924.657978329059
 21
558.5166902453681
 31
0.0
  0
LINE
  5
F89
330
1F
100
AcDbEntity
  8
実形
100
AcDbLine
 10
936.6579783290589
 20
558.5166902453681
 30
0.0
 11
936.6579783290589
 21
548.5166902453681
 31
0.0
  0
DIMENSION
  5
FA3
330
1F
100
AcDbEntity
  8
実形
100
AcDbDimension
  2
*D31
 10
854.0520222472732
 20
548.5166902453683
 30
0.0
 11
821.9449493396977
 21
541.6060372338242
 31
0.0
 70
   160
 71
     5
 42
15.0
  3
ISO-25
100
AcDbAlignedDimension
 13
924.657978329059
 23
563.5166902453684
 33
0.0
 14
924.657978329059
 24
548.5166902453683
 34
0.0
 50
90.0
100
AcDbRotatedDimension
1001
ACAD
1000
DSTYLE
1002
{
1070
   279
1070
     2
1070
    42
1040
30.0
1070
   141
1040
0.0
1002
}
  0
CIRCLE
  5
10AA
330
1F
100
AcDbEntity
  8
実形
100
AcDbCircle
 10
855.5114377196842
 20
373.5166902453684
 30
0.0
 40
3.454289205341638
  0
HATCH
  5
10B2
330
1F
100
AcDbEntity
  8
実形
100
AcDbHatch
 10
0.0
 20
0.0
 30
0.0
210
0.0
220
0.0
230
1.0
  2
SOLID
 70
     1
 71
     0
 91
        2
 92
        7
 72
     1
 73
     1
 93
        2
 10
852.0571485143426
 20
373.5166902453684
 42
0.0
 10
858.9657269250258
 20
373.5166902453684
 42
1.0
 97
        0
 92
        7
 72
     1
 73
     1
 93
        2
 10
858.9657269250258
 20
373.5166902453684
 42
0.0
 10
852.0571485143426
 20
373.5166902453684
 42
1.0
 97
        0
 75
     0
 76
     1
 47
0.4807155203760991
 98
        2
 10
855.6266101103373
 20
374.7452550189373
 10
854.6644191469894
 20
372.822392866452
  0
HATCH
  5
10B3
330
1F
100
AcDbEntity
  8
実形
100
AcDbHatch
 10
0.0
 20
0.0
 30
0.0
210
0.0
220
0.0
230
1.0
  2
SOLID
 70
     1
 71
     0
 91
        2
 92
        7
 72
     1
 73
     1
 93
        2
 10
852.0571485143426
 20
366.5166902453684
 42
0.0
 10
858.9657269250258
 20
366.5166902453684
 42
1.0
 97
        0
 92
        7
 72
     1
 73
     1
 93
        2
 10
858.9657269250258
 20
366.5166902453684
 42
0.0
 10
852.0571485143426
 20
366.5166902453684
 42
1.0
 97
        0
 75
     0
 76
     1
 47
0.4807155203760991
 98
        2
 10
855.6266101103373
 20
367.7452550189373
 10
854.6644191469894
 20
365.822392866452
  0
CIRCLE
  5
10B4
330
1F
100
AcDbEntity
  8
実形
100
AcDbCircle
 10
855.5114377196842
 20
366.5166902453684
 30
0.0
 40
3.454289205341638
  0
LINE
  5
10D6
330
1F
100
AcDbEntity
  8
0
100
AcDbLine
 10
1899.136397019578
 20
1413.516690245369
 30
0.0
 11
1899.136397019578
 21
943.5166902453685
 31
0.0
  0
LINE
  5
10D7
330
1F
100
AcDbEntity
  8
0
100
AcDbLine
 10
1909.136397019578
 20
1413.516690245368
 30
0.0
 11
1909.136397019578
 21
958.5166902453686
 31
0.0
  0
LINE
  5
10D8
330
1F
100
AcDbEntity
  8
0
100
AcDbLine
 10
1894.136397019578
 20
1413.516690245368
 30
0.0
 11
1894.136397019578
 21
948.5166902453684
 31
0.0
  0
LINE
  5
10D9
330
1F
100
AcDbEntity
  8
実形
100
AcDbLine
 10
1909.136397019578
 20
958.5166902453686
 30
0.0
 11
1909.136397019578
 21
993.5166902453685
 31
0.0
  0
LINE
  5
10DA
330
1F
100
AcDbEntity
  8
実形
100
AcDbLine
 10
1899.136397019578
 20
958.5166902453686
 30
0.0
 11
1909.136397019578
 21
958.5166902453686
 31
0.0
  0
LINE
  5
10DB
330
1F
100
AcDbEntity
  8
実形
100
AcDbLine
 10
1899.136397019578
 20
955.5166902453686
 30
0.0
 11
1909.136397019578
 21
955.5166902453686
 31
0.0
  0
LINE
  5
10DC
330
1F
100
AcDbEntity
  8
実形
100
AcDbLine
 10
1894.136397019578
 20
948.5166902453684
 30
0.0
 11
1899.136397019578
 21
943.5166902453685
 31
0.0
  0
LINE
  5
10DD
330
1F
100
AcDbEntity
  8
0
100
AcDbLine
 10
1909.136397019578
 20
990.5166902453682
 30
0.0
 11
1909.136397019578
 21
981.5166902453681
 31
0.0
  0
TEXT
  5
130E
330
1F
100
AcDbEntity
  8
補助
100
AcDbText
 10
2086.666666666667
 20
84.0
 30
0.0
 40
35.0
  1
尺度
 72
     4
 11
2124.0
 21
101.5
 31
0.0
100
AcDbText
  0
TEXT
  5
130F
330
1F
100
AcDbEntity
  8
補助
100
AcDbText
 10
2086.666666666667
 20
149.0
 30
0.0
 40
35.0
  1
品番
 72
     4
 11
2124.0
 21
166.5
 31
0.0
100
AcDbText
  0
LINE
  5
1310
330
1F
100
AcDbEntity
  8
補助
100
AcDbLine
 10
2064.0
 20
69.0
 30
0.0
 11
2784.0
 21
69.0
 31
0.0
  0
LINE
  5
1311
330
1F
100
AcDbEntity
  8
補助
100
AcDbLine
 10
2064.0
 20
199.0
 30
0.0
 11
2784.0
 21
199.0
 31
0.0
  0
LINE
  5
1312
330
1F
100
AcDbEntity
  8
補助
100
AcDbLine
 10
2064.0
 20
134.0
 30
0.0
 11
2784.0
 21
134.0
 31
0.0
  0
LINE
  5
1313
330
1F
100
AcDbEntity
  8
補助
100
AcDbLine
 10
2064.0
 20
4.0
 30
0.0
 11
2064.0
 21
199.0
 31
0.0
  0
TEXT
  5
1314
330
1F
100
AcDbEntity
  8
補助
100
AcDbText
 10
2300.255774665348
 20
16.49999999999999
 30
0.0
 40
40.0
  1
中外交易株式会社
 72
     4
 11
2488.255774665347
 21
36.5
 31
0.0
100
AcDbText
  0
TEXT
  5
1315
330
1F
100
AcDbEntity
  8
0
100
AcDbText
 10
2263.266666666667
 20
149.0
 30
0.0
 40
35.0
  1
YME720-590S-POR
 41
0.88
 72
     4
 11
2484.0
 21
166.5
 31
0.0
100
AcDbText
  0
LINE
  5
1316
330
1F
100
AcDbEntity
  8
補助
100
AcDbLine
 10
2184.0
 20
69.0
 30
0.0
 11
2784.0
 21
69.0
 31
0.0
  0
LINE
  5
1317
102
{ACAD_REACTORS
330
1324
102
}
330
1F
100
AcDbEntity
  8
補助
370
     5
100
AcDbLine
 10
2207.843923164362
 20
40.53787547858519
 30
0.0
 11
2183.255774665347
 21
40.53787547858519
 31
0.0
  0
LINE
  5
1318
102
{ACAD_REACTORS
330
1324
102
}
330
1F
100
AcDbEntity
  8
補助
370
     5
100
AcDbLine
 10
2183.255774665347
 20
40.53787547858519
 30
0.0
 11
2183.255774665347
 21
30.53787547858519
 31
0.0
  0
LINE
  5
1319
102
{ACAD_REACTORS
330
1324
102
}
330
1F
100
AcDbEntity
  8
補助
370
     5
100
AcDbLine
 10
2183.255774665347
 20
30.53787547858519
 30
0.0
 11
2207.346428692676
 21
30.53787547858514
 31
0.0
  0
LINE
  5
131A
102
{ACAD_REACTORS
330
1324
102
}
330
1F
100
AcDbEntity
  8
補助
370
     5
100
AcDbLine
 10
2210.641894042939
 20
56.5
 30
0.0
 11
2210.641894042939
 21
16.5
 31
0.0
  0
LINE
  5
131B
102
{ACAD_REACTORS
330
1324
102
}
330
1F
100
AcDbEntity
  8
補助
370
     5
100
AcDbLine
 10
2210.641894042939
 20
16.5
 30
0.0
 11
2245.64189404294
 21
16.5
 31
0.0
  0
LINE
  5
131C
102
{ACAD_REACTORS
330
1324
102
}
330
1F
100
AcDbEntity
  8
補助
370
     5
100
AcDbLine
 10
2245.64189404294
 20
16.5
 30
0.0
 11
2210.641894042939
 21
36.5
 31
0.0
  0
LINE
  5
131D
102
{ACAD_REACTORS
330
1324
102
}
330
1F
100
AcDbEntity
  8
補助
370
     5
100
AcDbLine
 10
2210.641894042939
 20
36.5
 30
0.0
 11
2245.64189404294
 21
56.5
 31
0.0
  0
LINE
  5
131E
102
{ACAD_REACTORS
330
1324
102
}
330
1F
100
AcDbEntity
  8
補助
370
     5
100
AcDbLine
 10
2245.64189404294
 20
56.5
 30
0.0
 11
2210.641894042939
 21
56.5
 31
0.0
  0
LINE
  5
131F
102
{ACAD_REACTORS
330
1324
102
}
330
1F
100
AcDbEntity
  8
補助
370
     5
100
AcDbLine
 10
2276.75434681301
 20
40.53787547858519
 30
0.0
 11
2252.166198313995
 21
40.53787547858519
 31
0.0
  0
LINE
  5
1320
102
{ACAD_REACTORS
330
1324
102
}
330
1F
100
AcDbEntity
  8
補助
370
     5
100
AcDbLine
 10
2252.166198313995
 20
40.53787547858519
 30
0.0
 11
2252.166198313995
 21
30.53787547858519
 31
0.0
  0
LINE
  5
1321
102
{ACAD_REACTORS
330
1324
102
}
330
1F
100
AcDbEntity
  8
補助
370
     5
100
AcDbLine
 10
2252.166198313995
 20
30.53787547858519
 30
0.0
 11
2276.256852341323
 21
30.53787547858514
 31
0.0
  0
ARC
  5
1322
102
{ACAD_REACTORS
330
1324
102
}
330
1F
100
AcDbEntity
  8
補助
370
     5
100
AcDbCircle
 10
2188.255774665348
 20
36.5
 30
0.0
 40
20.0
100
AcDbArc
 50
11.6477236670766
 51
342.6561058784746
  0
ARC
  5
1323
102
{ACAD_REACTORS
330
1324
102
}
330
1F
100
AcDbEntity
  8
補助
370
     5
100
AcDbCircle
 10
2257.166198313996
 20
36.5
 30
0.0
 40
20.0
100
AcDbArc
 50
11.6477236670766
 51
342.6561058784746
  0
HATCH
  5
1324
330
1F
100
AcDbEntity
  8
補助
100
AcDbHatch
 10
0.0
 20
0.0
 30
0.0
210
0.0
220
0.0
230
1.0
  2
SOLID
 70
     1
 71
     1
 91
        3
 92
        1
 93
        4
 72
     2
 10
2257.166198313996
 20
36.5
 40
20.0
 50
11.6477236670766
 51
342.6561058784746
 73
     1
 72
     1
 10
2276.256852341323
 20
30.53787547858514
 11
2252.166198313995
 21
30.53787547858519
 72
     1
 10
2252.166198313995
 20
30.53787547858519
 11
2252.166198313995
 21
40.53787547858519
 72
     1
 10
2252.166198313995
 20
40.53787547858519
 11
2276.75434681301
 21
40.53787547858519
 97
        4
330
1323
330
1321
330
1320
330
131F
 92
        1
 93
        4
 72
     2
 10
2188.255774665348
 20
36.5
 40
20.0
 50
11.6477236670766
 51
342.6561058784746
 73
     1
 72
     1
 10
2207.346428692676
 20
30.53787547858514
 11
2183.255774665347
 21
30.53787547858519
 72
     1
 10
2183.255774665347
 20
30.53787547858519
 11
2183.255774665347
 21
40.53787547858519
 72
     1
 10
2183.255774665347
 20
40.53787547858519
 11
2207.843923164362
 21
40.53787547858519
 97
        4
330
1322
330
1319
330
1318
330
1317
 92
        1
 93
        5
 72
     1
 10
2245.64189404294
 20
56.5
 11
2210.641894042939
 21
56.5
 72
     1
 10
2210.641894042939
 20
56.5
 11
2210.641894042939
 21
16.5
 72
     1
 10
2210.641894042939
 20
16.5
 11
2245.64189404294
 21
16.5
 72
     1
 10
2245.64189404294
 20
16.5
 11
2210.641894042939
 21
36.5
 72
     1
 10
2210.641894042939
 20
36.5
 11
2245.64189404294
 21
56.5
 97
        5
330
131E
330
131A
330
131B
330
131C
330
131D
 75
     0
 76
     1
 98
        1
 10
-60.0
 20
0.0
  0
LINE
  5
1325
330
1F
100
AcDbEntity
  8
補助
100
AcDbLine
 10
2184.0
 20
69.0
 30
0.0
 11
2184.0
 21
199.0
 31
0.0
  0
TEXT
  5
1326
330
1F
100
AcDbEntity
  8
0
100
AcDbText
 10
2430.916666666667
 20
84.0
 30
0.0
 40
35.0
  1
1：10
 72
     4
 11
2484.0
 21
101.5
 31
0.0
100
AcDbText
  0
LINE
  5
1327
330
1F
100
AcDbEntity
  8
補助
100
AcDbLine
 10
2784.0
 20
69.0
 30
0.0
 11
2784.0
 21
134.0
 31
0.0
  0
LINE
  5
1328
330
1F
100
AcDbEntity
  8
補助
100
AcDbLine
 10
2784.0
 20
134.0
 30
0.0
 11
2784.0
 21
199.0
 31
0.0
  0
LINE
  5
1329
330
1F
100
AcDbEntity
  8
補助
100
AcDbLine
 10
2784.0
 20
4.0
 30
0.0
 11
2784.0
 21
69.0
 31
0.0
  0
CIRCLE
  5
134B
330
1F
100
AcDbEntity
  8
実形
100
AcDbCircle
 10
2091.136397019578
 20
857.7685379468713
 30
0.0
 40
3.454289205341638
  0
HATCH
  5
134C
330
1F
100
AcDbEntity
  8
実形
100
AcDbHatch
 10
0.0
 20
0.0
 30
0.0
210
0.0
220
0.0
230
1.0
  2
SOLID
 70
     1
 71
     0
 91
        2
 92
        7
 72
     1
 73
     1
 93
        2
 10
2087.682107814237
 20
857.7685379468713
 42
0.0
 10
2094.59068622492
 20
857.7685379468713
 42
1.0
 97
        0
 92
        7
 72
     1
 73
     1
 93
        2
 10
2094.59068622492
 20
857.7685379468713
 42
0.0
 10
2087.682107814237
 20
857.7685379468713
 42
1.0
 97
        0
 75
     0
 76
     1
 47
0.4807155203760991
 98
        2
 10
2091.251569410232
 20
858.99710272044
 10
2090.289378446883
 20
857.0742405679547
  0
ARC
  5
13C6
330
1F
100
AcDbEntity
  8
0
100
AcDbCircle
 10
1632.657983126456
 20
1521.516688415915
 30
0.0
 40
12.0
100
AcDbArc
 50
0.0
 51
90.0
  0
ARC
  5
13C7
330
1F
100
AcDbEntity
  8
0
100
AcDbCircle
 10
1632.657983126456
 20
955.5166884159145
 30
0.0
 40
12.0
100
AcDbArc
 50
270.0
 51
0.0
  0
ARC
  5
13C8
330
1F
100
AcDbEntity
  8
0
100
AcDbCircle
 10
936.6579831264548
 20
1521.516688415914
 30
0.0
 40
12.0
100
AcDbArc
 50
90.00000000000007
 51
180.0
  0
ARC
  5
13C9
330
1F
100
AcDbEntity
  8
0
100
AcDbCircle
 10
936.6579831264555
 20
955.5166884159142
 30
0.0
 40
12.0
100
AcDbArc
 50
180.0
 51
270.0
  0
ARC
  5
13CA
330
1F
100
AcDbEntity
  8
0
100
AcDbCircle
 10
936.6579831264546
 20
1521.516688415914
 30
0.0
 40
7.0
100
AcDbArc
 50
90.00000000000005
 51
180.0
  0
ARC
  5
13CB
330
1F
100
AcDbEntity
  8
0
100
AcDbCircle
 10
936.6579831264555
 20
955.5166884159142
 30
0.0
 40
7.0
100
AcDbArc
 50
180.0000000000001
 51
270.0
  0
ARC
  5
13CC
330
1F
100
AcDbEntity
  8
0
100
AcDbCircle
 10
1632.657983126456
 20
955.5166884159147
 30
0.0
 40
7.0
100
AcDbArc
 50
270.0
 51
0.0
  0
ARC
  5
13CD
330
1F
100
AcDbEntity
  8
0
100
AcDbCircle
 10
1632.657983126455
 20
1521.516688415915
 30
0.0
 40
7.0
100
AcDbArc
 50
0.0000000000000254
 51
90.0
  0
DIMENSION
  5
13F5
330
1F
100
AcDbEntity
  8
実形
100
AcDbDimension
  2
*D33
 10
1644.657983126455
 20
1592.847889473033
 30
0.0
 11
1640.358801780259
 21
1611.679615447244
 31
0.0
 70
   160
 71
     5
 42
35.00000479739652
  3
ISO-25
100
AcDbAlignedDimension
 13
1609.657978329059
 23
1488.516690245368
 33
0.0
 14
1644.657983126455
 24
1488.516690245368
 34
0.0
 50
180.0
100
AcDbRotatedDimension
1001
ACAD
1000
DSTYLE
1002
{
1070
   279
1070
     2
1070
   141
1040
0.0
1002
}
  0
LINE
  5
144E
330
1F
100
AcDbEntity
  8
補助
100
AcDbLine
 10
1894.0
 20
2024.0
 30
0.0
 11
2784.0
 21
2024.0
 31
0.0
  0
LINE
  5
145E
330
1F
100
AcDbEntity
  8
補助
100
AcDbLine
 10
2784.0
 20
2024.0
 30
0.0
 11
2784.000000000001
 21
1829.0
 31
0.0
  0
LINE
  5
145F
330
1F
100
AcDbEntity
  8
補助
100
AcDbLine
 10
2784.0
 20
1829.0
 30
0.0
 11
2784.0
 21
2024.0
 31
0.0
  0
ARC
  5
14F4
330
1F
100
AcDbEntity
  8
0
100
AcDbCircle
 10
1525.157983126455
 20
1458.516690245368
 30
0.0
 40
29.5
100
AcDbArc
 50
270.0
 51
0.0
  0
ARC
  5
14F5
330
1F
100
AcDbEntity
  8
0
100
AcDbCircle
 10
1525.157983126455
 20
1458.516690245368
 30
0.0
 40
29.5
100
AcDbArc
 50
0.0
 51
90.0
  0
ARC
  5
14F6
330
1F
100
AcDbEntity
  8
0
100
AcDbCircle
 10
1394.157983126455
 20
1458.516690245368
 30
0.0
 40
29.5
100
AcDbArc
 50
90.0
 51
180.0
  0
ARC
  5
14F7
330
1F
100
AcDbEntity
  8
0
100
AcDbCircle
 10
1394.157983126455
 20
1458.516690245368
 30
0.0
 40
29.5
100
AcDbArc
 50
180.0
 51
270.0
  0
LINE
  5
14F8
330
1F
100
AcDbEntity
  8
0
100
AcDbLine
 10
1394.157983126455
 20
1429.016690245368
 30
0.0
 11
1525.157983126455
 21
1429.016690245368
 31
0.0
  0
LINE
  5
14F9
330
1F
100
AcDbEntity
  8
0
100
AcDbLine
 10
1394.157983126455
 20
1488.016690245368
 30
0.0
 11
1525.157983126455
 21
1488.016690245368
 31
0.0
  0
ARC
  5
14FA
330
1F
100
AcDbEntity
  8
実形
370
    15
100
AcDbCircle
 10
1459.657983126455
 20
1458.516690245368
 30
0.0
 40
12.5
100
AcDbArc
 50
282.5558577985968
 51
347.4441422014061
  0
LINE
  5
14FB
330
1F
100
AcDbEntity
  8
実形
370
    15
100
AcDbLine
 10
1448.433010966134
 20
1460.016690245368
 30
0.0
 11
1457.157983126455
 21
1460.016690245368
 31
0.0
  0
LINE
  5
14FC
330
1F
100
AcDbEntity
  8
実形
370
    15
100
AcDbLine
 10
1448.433010966133
 20
1457.016690245368
 30
0.0
 11
1457.157983126455
 21
1457.016690245368
 31
0.0
  0
LINE
  5
14FD
330
1F
100
AcDbEntity
  8
実形
370
    15
100
AcDbLine
 10
1461.157983126455
 20
1469.74166240569
 30
0.0
 11
1461.157983126455
 21
1461.016690245368
 31
0.0
  0
LINE
  5
14FE
330
1F
100
AcDbEntity
  8
実形
370
    15
100
AcDbLine
 10
1458.157983126455
 20
1469.74166240569
 30
0.0
 11
1458.157983126455
 21
1461.016690245368
 31
0.0
  0
LINE
  5
14FF
330
1F
100
AcDbEntity
  8
実形
370
    15
100
AcDbLine
 10
1458.157983126455
 20
1456.016690245368
 30
0.0
 11
1458.157983126455
 21
1447.291718085047
 31
0.0
  0
LINE
  5
1500
330
1F
100
AcDbEntity
  8
実形
370
    15
100
AcDbLine
 10
1462.157983126455
 20
1460.016690245368
 30
0.0
 11
1470.882955286777
 21
1460.016690245369
 31
0.0
  0
LINE
  5
1501
330
1F
100
AcDbEntity
  8
実形
370
    15
100
AcDbLine
 10
1461.157983126455
 20
1456.016690245368
 30
0.0
 11
1461.157983126455
 21
1447.291718085047
 31
0.0
  0
LINE
  5
1502
330
1F
100
AcDbEntity
  8
実形
370
    15
100
AcDbLine
 10
1462.157983126455
 20
1457.016690245368
 30
0.0
 11
1470.882955286777
 21
1457.016690245368
 31
0.0
  0
ARC
  5
1503
330
1F
100
AcDbEntity
  8
実形
370
    15
100
AcDbCircle
 10
1459.657983126455
 20
1458.516690245368
 30
0.0
 40
12.5
100
AcDbArc
 50
192.5558577985939
 51
257.4441422014032
  0
ARC
  5
1504
330
1F
100
AcDbEntity
  8
実形
370
    15
100
AcDbCircle
 10
1459.657983126455
 20
1458.516690245368
 30
0.0
 40
12.5
100
AcDbArc
 50
102.5558577985967
 51
167.444142201406
  0
ARC
  5
1505
330
1F
100
AcDbEntity
  8
実形
370
    15
100
AcDbCircle
 10
1459.657983126455
 20
1458.516690245368
 30
0.0
 40
12.5
100
AcDbArc
 50
12.55585779859394
 51
77.44414220140322
  0
LINE
  5
1506
330
1F
100
AcDbEntity
  8
実形
370
    15
100
AcDbLine
 10
1374.657983126455
 20
1458.516690245368
 30
0.0
 11
1374.657983126455
 21
1458.516690245368
 31
0.0
  0
LINE
  5
1507
330
1F
100
AcDbEntity
  8
実形
370
    15
100
AcDbLine
 10
1384.657983126455
 20
1448.516690245368
 30
0.0
 11
1424.657983126455
 21
1448.516690245368
 31
0.0
  0
LINE
  5
1508
330
1F
100
AcDbEntity
  8
実形
370
    15
100
AcDbLine
 10
1434.657983126455
 20
1458.516690245368
 30
0.0
 11
1434.657983126455
 21
1458.516690245368
 31
0.0
  0
LINE
  5
1509
330
1F
100
AcDbEntity
  8
実形
370
    15
100
AcDbLine
 10
1424.657983126455
 20
1468.516690245368
 30
0.0
 11
1384.657983126455
 21
1468.516690245368
 31
0.0
  0
ARC
  5
150A
330
1F
100
AcDbEntity
  8
実形
370
    15
100
AcDbCircle
 10
1424.657983126455
 20
1458.516690245368
 30
0.0
 40
10.0
100
AcDbArc
 50
0.0
 51
90.0
  0
ARC
  5
150B
330
1F
100
AcDbEntity
  8
実形
370
    15
100
AcDbCircle
 10
1424.657983126455
 20
1458.516690245368
 30
0.0
 40
10.0
100
AcDbArc
 50
270.0
 51
0.0
  0
ARC
  5
150C
330
1F
100
AcDbEntity
  8
実形
370
    15
100
AcDbCircle
 10
1384.657983126455
 20
1458.516690245368
 30
0.0
 40
10.0
100
AcDbArc
 50
180.0
 51
270.0
  0
ARC
  5
150D
330
1F
100
AcDbEntity
  8
実形
370
    15
100
AcDbCircle
 10
1384.657983126455
 20
1458.516690245368
 30
0.0
 40
10.0
100
AcDbArc
 50
90.0
 51
180.0
  0
LINE
  5
150E
330
1F
100
AcDbEntity
  8
実形
370
    15
100
AcDbLine
 10
1384.657983126455
 20
1453.516690245368
 30
0.0
 11
1424.657983126455
 21
1453.516690245368
 31
0.0
  0
ARC
  5
150F
330
1F
100
AcDbEntity
  8
実形
370
    15
100
AcDbCircle
 10
1384.657983126455
 20
1458.516690245368
 30
0.0
 40
5.0
100
AcDbArc
 50
180.0
 51
270.0
  0
ARC
  5
1510
330
1F
100
AcDbEntity
  8
実形
370
    15
100
AcDbCircle
 10
1384.657983126455
 20
1458.516690245368
 30
0.0
 40
5.0
100
AcDbArc
 50
90.0
 51
180.0
  0
LINE
  5
1511
330
1F
100
AcDbEntity
  8
実形
370
    15
100
AcDbLine
 10
1424.657983126455
 20
1463.516690245368
 30
0.0
 11
1384.657983126455
 21
1463.516690245368
 31
0.0
  0
ARC
  5
1512
330
1F
100
AcDbEntity
  8
実形
370
    15
100
AcDbCircle
 10
1424.657983126455
 20
1458.516690245368
 30
0.0
 40
5.0
100
AcDbArc
 50
0.0
 51
90.0
  0
ARC
  5
1513
330
1F
100
AcDbEntity
  8
実形
370
    15
100
AcDbCircle
 10
1424.657983126455
 20
1458.516690245368
 30
0.0
 40
5.0
100
AcDbArc
 50
270.0
 51
0.0
  0
ARC
  5
1514
330
1F
100
AcDbEntity
  8
実形
370
    15
100
AcDbCircle
 10
1494.657983126455
 20
1458.516690245368
 30
0.0
 40
5.0
100
AcDbArc
 50
180.0
 51
270.0
  0
ARC
  5
1515
330
1F
100
AcDbEntity
  8
実形
370
    15
100
AcDbCircle
 10
1494.657983126455
 20
1458.516690245368
 30
0.0
 40
5.0
100
AcDbArc
 50
90.0
 51
180.0
  0
LINE
  5
1516
330
1F
100
AcDbEntity
  8
実形
370
    15
100
AcDbLine
 10
1494.657983126455
 20
1463.516690245368
 30
0.0
 11
1534.657983126455
 21
1463.516690245368
 31
0.0
  0
ARC
  5
1517
330
1F
100
AcDbEntity
  8
実形
370
    15
100
AcDbCircle
 10
1534.657983126455
 20
1458.516690245368
 30
0.0
 40
5.0
100
AcDbArc
 50
0.0
 51
90.0
  0
ARC
  5
1518
330
1F
100
AcDbEntity
  8
実形
370
    15
100
AcDbCircle
 10
1534.657983126455
 20
1458.516690245368
 30
0.0
 40
5.0
100
AcDbArc
 50
270.0
 51
0.0
  0
LINE
  5
1519
330
1F
100
AcDbEntity
  8
実形
370
    15
100
AcDbLine
 10
1534.657983126455
 20
1453.516690245368
 30
0.0
 11
1494.657983126455
 21
1453.516690245368
 31
0.0
  0
LINE
  5
151A
330
1F
100
AcDbEntity
  8
実形
370
    15
100
AcDbLine
 10
1494.657983126455
 20
1468.516690245368
 30
0.0
 11
1534.657983126455
 21
1468.516690245368
 31
0.0
  0
ARC
  5
151B
330
1F
100
AcDbEntity
  8
実形
370
    15
100
AcDbCircle
 10
1534.657983126455
 20
1458.516690245368
 30
0.0
 40
10.0
100
AcDbArc
 50
0.0
 51
90.0
  0
LINE
  5
151C
330
1F
100
AcDbEntity
  8
実形
370
    15
100
AcDbLine
 10
1534.657983126455
 20
1448.516690245368
 30
0.0
 11
1494.657983126455
 21
1448.516690245368
 31
0.0
  0
ARC
  5
151D
330
1F
100
AcDbEntity
  8
実形
370
    15
100
AcDbCircle
 10
1534.657983126455
 20
1458.516690245368
 30
0.0
 40
10.0
100
AcDbArc
 50
270.0
 51
0.0
  0
ARC
  5
151E
330
1F
100
AcDbEntity
  8
実形
370
    15
100
AcDbCircle
 10
1494.657983126455
 20
1458.516690245368
 30
0.0
 40
10.0
100
AcDbArc
 50
180.0
 51
270.0
  0
ARC
  5
151F
330
1F
100
AcDbEntity
  8
実形
370
    15
100
AcDbCircle
 10
1494.657983126455
 20
1458.516690245368
 30
0.0
 40
10.0
100
AcDbArc
 50
90.0
 51
180.0
  0
ARC
  5
1520
330
1F
100
AcDbEntity
  8
実形
370
    15
100
AcDbCircle
 10
1462.157983126455
 20
1469.74166240569
 30
0.0
 40
1.0
100
AcDbArc
 50
77.44414220140322
 51
180.0
  0
ARC
  5
1521
330
1F
100
AcDbEntity
  8
実形
370
    15
100
AcDbCircle
 10
1470.882955286777
 20
1461.016690245368
 30
0.0
 40
1.0
100
AcDbArc
 50
270.0
 51
12.55585779859394
  0
ARC
  5
1522
330
1F
100
AcDbEntity
  8
実形
370
    15
100
AcDbCircle
 10
1470.882955286777
 20
1456.016690245368
 30
0.0
 40
1.0
100
AcDbArc
 50
347.4441422014061
 51
90.0
  0
ARC
  5
1523
330
1F
100
AcDbEntity
  8
実形
370
    15
100
AcDbCircle
 10
1462.157983126455
 20
1447.291718085046
 30
0.0
 40
1.0
100
AcDbArc
 50
180.0
 51
282.5558577985968
  0
ARC
  5
1524
330
1F
100
AcDbEntity
  8
実形
370
    15
100
AcDbCircle
 10
1457.157983126455
 20
1447.291718085046
 30
0.0
 40
1.0
100
AcDbArc
 50
257.4441422014032
 51
0.0
  0
ARC
  5
1525
330
1F
100
AcDbEntity
  8
実形
370
    15
100
AcDbCircle
 10
1448.433010966133
 20
1456.016690245368
 30
0.0
 40
1.0
100
AcDbArc
 50
90.0
 51
192.5558577985685
  0
ARC
  5
1526
330
1F
100
AcDbEntity
  8
実形
370
    15
100
AcDbCircle
 10
1448.433010966133
 20
1461.016690245368
 30
0.0
 40
1.0
100
AcDbArc
 50
167.4441422014315
 51
270.0
  0
ARC
  5
1527
330
1F
100
AcDbEntity
  8
実形
370
    15
100
AcDbCircle
 10
1457.157983126455
 20
1469.74166240569
 30
0.0
 40
1.0
100
AcDbArc
 50
0.0
 51
102.5558577985967
  0
ARC
  5
1528
330
1F
100
AcDbEntity
  8
実形
370
    15
100
AcDbCircle
 10
1457.157983126455
 20
1456.016690245368
 30
0.0
 40
1.0
100
AcDbArc
 50
0.0
 51
90.0
  0
ARC
  5
1529
330
1F
100
AcDbEntity
  8
実形
370
    15
100
AcDbCircle
 10
1462.157983126455
 20
1456.016690245368
 30
0.0
 40
1.0
100
AcDbArc
 50
90.0
 51
180.0
  0
ARC
  5
152A
330
1F
100
AcDbEntity
  8
実形
370
    15
100
AcDbCircle
 10
1462.157983126455
 20
1461.016690245368
 30
0.0
 40
1.0
100
AcDbArc
 50
180.0
 51
270.0
  0
ARC
  5
152B
330
1F
100
AcDbEntity
  8
実形
370
    15
100
AcDbCircle
 10
1457.157983126455
 20
1461.016690245368
 30
0.0
 40
1.0
100
AcDbArc
 50
270.0
 51
0.0
  0
LINE
  5
159B
330
1F
100
AcDbEntity
  8
実形
100
AcDbLine
 10
1912.136397019579
 20
1488.516690245369
 30
0.0
 11
1944.136397019579
 21
1488.516690245368
 31
0.0
  0
LINE
  5
159C
330
1F
100
AcDbEntity
  8
実形
100
AcDbLine
 10
1944.136397019579
 20
1428.516690245369
 30
0.0
 11
1909.136397019579
 21
1428.516690245369
 31
0.0
  0
LINE
  5
159D
330
1F
100
AcDbEntity
  8
実形
100
AcDbLine
 10
1894.136397019579
 20
1499.516690245369
 30
0.0
 11
1894.136397019579
 21
1518.516690245369
 31
0.0
  0
LINE
  5
159E
330
1F
100
AcDbEntity
  8
実形
100
AcDbLine
 10
1894.136397019579
 20
1518.516690245369
 30
0.0
 11
1894.136397019578
 21
1413.516690245368
 31
0.0
  0
ARC
  5
159F
330
1F
100
AcDbEntity
  8
実形
100
AcDbCircle
 10
1912.136397019579
 20
1491.516690245369
 30
0.0
 40
3.0
100
AcDbArc
 50
180.0
 51
270.0
  0
LINE
  5
15A0
330
1F
100
AcDbEntity
  8
0
100
AcDbLine
 10
1899.136397019579
 20
1533.516690245369
 30
0.0
 11
1899.136397019578
 21
1413.516690245368
 31
0.0
  0
LINE
  5
15A1
330
1F
100
AcDbEntity
  8
0
100
AcDbLine
 10
1909.136397019579
 20
1426.516690245369
 30
0.0
 11
1909.136397019579
 21
1413.516690245369
 31
0.0
  0
LINE
  5
15A2
330
1F
100
AcDbEntity
  8
0
100
AcDbLine
 10
1894.136397019579
 20
1528.516690245369
 30
0.0
 11
1894.136397019579
 21
1413.516690245369
 31
0.0
  0
LINE
  5
15A3
330
1F
100
AcDbEntity
  8
実形
100
AcDbLine
 10
1909.136397019579
 20
1518.516690245369
 30
0.0
 11
1909.136397019579
 21
1498.516690245369
 31
0.0
  0
LINE
  5
15A4
330
1F
100
AcDbEntity
  8
実形
100
AcDbLine
 10
1899.136397019579
 20
1518.516690245369
 30
0.0
 11
1909.136397019579
 21
1518.516690245369
 31
0.0
  0
LINE
  5
15A5
330
1F
100
AcDbEntity
  8
実形
100
AcDbLine
 10
1899.136397019579
 20
1521.516690245369
 30
0.0
 11
1909.136397019579
 21
1521.516690245369
 31
0.0
  0
LINE
  5
15A6
330
1F
100
AcDbEntity
  8
実形
100
AcDbLine
 10
1894.136397019579
 20
1528.516690245369
 30
0.0
 11
1899.136397019579
 21
1533.516690245369
 31
0.0
  0
LINE
  5
15A7
330
1F
100
AcDbEntity
  8
0
100
AcDbLine
 10
1909.136397019579
 20
1498.516690245368
 30
0.0
 11
1909.136397019579
 21
1426.516690245369
 31
0.0
  0
LINE
  5
15A8
330
1F
100
AcDbEntity
  8
実形
 62
     0
100
AcDbLine
 10
2018.136397019578
 20
1475.116690245369
 30
0.0
 11
2006.136397019579
 21
1475.116690245369
 31
0.0
  0
LINE
  5
15A9
330
1F
100
AcDbEntity
  8
実形
 62
     0
100
AcDbLine
 10
2020.136397019579
 20
1473.666690245369
 30
0.0
 11
2000.136397019579
 21
1473.666690245368
 31
0.0
  0
LINE
  5
15AA
330
1F
100
AcDbEntity
  8
実形
 62
     0
100
AcDbLine
 10
1944.136397019579
 20
1488.516690245368
 30
0.0
 11
1994.136397019579
 21
1488.516690245368
 31
0.0
  0
ARC
  5
15AB
330
1F
100
AcDbEntity
  8
実形
 62
     0
100
AcDbCircle
 10
2000.136397019579
 20
1484.816690245368
 30
0.0
 40
3.0
100
AcDbArc
 50
180.0
 51
240.0000000000027
  0
ARC
  5
15AC
330
1F
100
AcDbEntity
  8
実形
 62
     0
100
AcDbCircle
 10
1997.136397019579
 20
1479.620537822662
 30
0.0
 40
3.0
100
AcDbArc
 50
0.0
 51
60.00000000000272
  0
LINE
  5
15AD
330
1F
100
AcDbEntity
  8
実形
 62
     0
100
AcDbLine
 10
1997.136397019579
 20
1485.516690245369
 30
0.0
 11
1997.136397019579
 21
1484.012842668074
 31
0.0
  0
LINE
  5
15AE
330
1F
100
AcDbEntity
  8
実形
 62
     0
100
AcDbLine
 10
2000.136397019579
 20
1479.620537822662
 30
0.0
 11
2000.136397019579
 21
1437.412842668076
 31
0.0
  0
LINE
  5
15AF
330
1F
100
AcDbEntity
  8
実形
 62
     0
100
AcDbLine
 10
2020.136397019579
 20
1473.666690245369
 30
0.0
 11
2020.136397019579
 21
1458.516690245369
 31
0.0
  0
LINE
  5
15B0
330
1F
100
AcDbEntity
  8
実形
 62
     0
100
AcDbLine
 10
2005.136397019579
 20
1473.666690245368
 30
0.0
 11
2005.136397019579
 21
1458.51669024537
 31
0.0
  0
LINE
  5
15B1
330
1F
100
AcDbEntity
  8
実形
 62
     0
100
AcDbLine
 10
1987.636397019579
 20
1428.516690245369
 30
0.0
 11
1944.136397019579
 21
1428.516690245369
 31
0.0
  0
ARC
  5
15B2
330
1F
100
AcDbEntity
  8
実形
 62
     0
100
AcDbCircle
 10
1994.136397019579
 20
1485.516690245368
 30
0.0
 40
3.0
100
AcDbArc
 50
0.0
 51
90.0
  0
DIMENSION
  5
15B3
330
1F
100
AcDbEntity
  8
実形
 62
     0
100
AcDbDimension
  2
*D36
 10
2000.136397019579
 20
1574.425837250154
 30
0.0
 11
1947.136397019579
 21
1593.175837250154
 31
0.0
 70
    32
 71
     5
 42
106.0
  3
ISO-25
100
AcDbAlignedDimension
 13
1894.136397019579
 23
1475.116690245369
 33
0.0
 14
2000.136397019579
 24
1475.116690245369
 34
0.0
100
AcDbRotatedDimension
1001
ACAD
1000
DSTYLE
1002
{
1070
   341
1005
1538
1002
}
  0
LINE
  5
15B4
330
1F
100
AcDbEntity
  8
実形
 62
     0
100
AcDbLine
 10
1944.136397019579
 20
1428.516690245369
 30
0.0
 11
1994.136397019579
 21
1428.516690245369
 31
0.0
  0
LINE
  5
15B5
330
1F
100
AcDbEntity
  8
実形
 62
     0
100
AcDbLine
 10
2000.136397019579
 20
1437.412842668076
 30
0.0
 11
2000.136397019579
 21
1479.620537822662
 31
0.0
  0
LINE
  5
15B6
330
1F
100
AcDbEntity
  8
実形
 62
     0
100
AcDbLine
 10
1997.136397019579
 20
1431.516690245369
 30
0.0
 11
1997.136397019579
 21
1432.216690245369
 31
0.0
  0
DIMENSION
  5
15B7
330
1F
100
AcDbEntity
  8
実形
 62
     0
100
AcDbDimension
  2
*D37
 10
2061.922736618531
 20
1441.916690245369
 30
0.0
 11
2090.571170309604
 21
1458.516690245369
 31
0.0
 70
   160
  1
33
 71
     5
 42
33.19999999999982
  3
ISO-25
100
AcDbAlignedDimension
 13
2020.136397019579
 23
1475.116690245369
 33
0.0
 14
2020.136397019579
 24
1441.916690245369
 34
0.0
 50
90.0
100
AcDbRotatedDimension
1001
ACAD
1000
DSTYLE
1002
{
1070
    76
1070
     1
1070
    75
1070
     1
1070
   279
1070
     2
1070
   341
1005
1538
1002
}
  0
LINE
  5
15B8
330
1F
100
AcDbEntity
  8
実形
100
AcDbLine
 10
2061.922736618531
 20
1441.916690245369
 30
0.0
 11
2032.975668480075
 21
1441.916690245369
 31
0.0
  0
LINE
  5
15B9
330
1F
100
AcDbEntity
  8
実形
100
AcDbLine
 10
2061.922736618531
 20
1472.929190245369
 30
0.0
 11
2061.922736618531
 21
1475.116690245369
 31
0.0
  0
LINE
  5
15BA
330
1F
100
AcDbEntity
  8
実形
100
AcDbLine
 10
2061.922736618531
 20
1475.116690245369
 30
0.0
 11
2033.148535013553
 21
1475.116690245369
 31
0.0
  0
DIMENSION
  5
15BB
330
1F
100
AcDbEntity
  8
実形
 62
     0
100
AcDbDimension
  2
*D38
 10
2020.136397019579
 20
1574.425837250154
 30
0.0
 11
2047.095439324392
 21
1578.087546778193
 31
0.0
 70
   160
 71
     5
 42
20.0
  3
ISO-25
100
AcDbAlignedDimension
 13
2000.136397019579
 23
1475.116690245369
 33
0.0
 14
2020.136397019579
 24
1475.116690245369
 34
0.0
100
AcDbRotatedDimension
1001
ACAD
1000
DSTYLE
1002
{
1070
   279
1070
     2
1070
   341
1005
1538
1002
}
  0
ARC
  5
15BC
330
1F
100
AcDbEntity
  8
実形
 62
     0
100
AcDbCircle
 10
2000.136397019579
 20
1432.216690245369
 30
0.0
 40
3.0
100
AcDbArc
 50
119.9999999999973
 51
180.0
  0
ARC
  5
15BD
330
1F
100
AcDbEntity
  8
実形
 62
     0
100
AcDbCircle
 10
1997.136397019579
 20
1437.412842668076
 30
0.0
 40
3.0
100
AcDbArc
 50
299.9999999999973
 51
0.0
  0
ARC
  5
15BE
330
1F
100
AcDbEntity
  8
実形
 62
     0
100
AcDbCircle
 10
1994.136397019579
 20
1431.516690245369
 30
0.0
 40
3.0
100
AcDbArc
 50
270.0
 51
0.0
  0
LINE
  5
15BF
330
1F
100
AcDbEntity
  8
実形
 62
     0
100
AcDbLine
 10
2000.136397019579
 20
1479.620537822662
 30
0.0
 11
2000.136397019579
 21
1437.412842668076
 31
0.0
  0
LINE
  5
15C0
330
1F
100
AcDbEntity
  8
実形
100
AcDbLine
 10
2019.136397019579
 20
1473.666690245369
 30
0.0
 11
2018.136397019579
 21
1475.116690245369
 31
0.0
  0
LINE
  5
15C1
330
1F
100
AcDbEntity
  8
実形
100
AcDbLine
 10
2006.136397019579
 20
1475.116690245369
 30
0.0
 11
2005.136397019579
 21
1473.666690245368
 31
0.0
  0
LINE
  5
15C2
330
1F
100
AcDbEntity
  8
実形
 62
     0
100
AcDbLine
 10
2018.136397019578
 20
1441.916690245369
 30
0.0
 11
2006.136397019579
 21
1441.916690245369
 31
0.0
  0
LINE
  5
15C3
330
1F
100
AcDbEntity
  8
実形
 62
     0
100
AcDbLine
 10
2020.136397019579
 20
1443.366690245369
 30
0.0
 11
2000.136397019579
 21
1443.366690245369
 31
0.0
  0
LINE
  5
15C4
330
1F
100
AcDbEntity
  8
実形
 62
     0
100
AcDbLine
 10
2020.136397019579
 20
1443.366690245369
 30
0.0
 11
2020.136397019579
 21
1458.516690245369
 31
0.0
  0
LINE
  5
15C5
330
1F
100
AcDbEntity
  8
実形
 62
     0
100
AcDbLine
 10
2005.136397019579
 20
1443.366690245369
 30
0.0
 11
2005.136397019579
 21
1458.516690245369
 31
0.0
  0
LINE
  5
15C6
330
1F
100
AcDbEntity
  8
実形
100
AcDbLine
 10
2019.136397019579
 20
1443.366690245369
 30
0.0
 11
2018.136397019579
 21
1441.916690245369
 31
0.0
  0
LINE
  5
15C7
330
1F
100
AcDbEntity
  8
実形
100
AcDbLine
 10
2006.136397019579
 20
1441.916690245369
 30
0.0
 11
2005.136397019579
 21
1443.366690245369
 31
0.0
  0
LINE
  5
15C9
330
1F
100
AcDbEntity
  8
実形
100
AcDbLine
 10
2067.812139317364
 20
1389.016690245369
 30
0.0
 11
2008.689072949697
 21
1389.016690245369
 31
0.0
  0
LINE
  5
15CA
330
1F
100
AcDbEntity
  8
実形
100
AcDbLine
 10
2008.689072949697
 20
1364.016690245369
 30
0.0
 11
2008.689072949697
 21
1390.679862034758
 31
0.0
  0
HATCH
  5
15CB
330
1F
100
AcDbEntity
  8
実形
 62
     0
100
AcDbHatch
 10
0.0
 20
0.0
 30
0.0
210
0.0
220
0.0
230
1.0
  2
SOLID
 70
     1
 71
     0
 91
        1
 92
        7
 72
     1
 73
     1
 93
        2
 10
2008.769072957799
 20
1384.788690066222
 42
-1.0
 10
2008.765117085248
 20
1393.890097821504
 42
-1.0
 97
        0
 75
     0
 76
     1
 47
0.1166526434546944
 98
        1
 10
2010.867454127733
 20
1387.94009848023
  0
MTEXT
  5
15CC
330
1F
100
AcDbEntity
  8
実形
100
AcDbMText
 10
1974.195788885612
 20
1356.550944788944
 30
0.0
 40
23.0
 41
0.0
 71
     1
 72
     5
  1
25
 11
0.0000000000000001
 21
1.0
 31
0.0
 73
     1
 44
1.0
1001
ACAD
1000
MTEXTBEGIN
1070
    73
1070
     1
1070
    44
1040
1.0
1070
    74
1070
     0
1000
MTEXTEND
  0
LINE
  5
1616
330
1F
100
AcDbEntity
  8
実形
100
AcDbLine
 10
2067.812139317362
 20
1158.016690245368
 30
0.0
 11
2008.689072949696
 21
1158.016690245368
 31
0.0
  0
LINE
  5
1617
330
1F
100
AcDbEntity
  8
実形
100
AcDbLine
 10
2008.689072949696
 20
1183.016690245368
 30
0.0
 11
2008.689072949696
 21
1157.075855137767
 31
0.0
  0
HATCH
  5
1618
330
1F
100
AcDbEntity
  8
実形
 62
     0
100
AcDbHatch
 10
0.0
 20
0.0
 30
0.0
210
0.0
220
0.0
230
1.0
  2
SOLID
 70
     1
 71
     0
 91
        1
 92
        7
 72
     1
 73
     1
 93
        2
 10
2008.977339249529
 20
1153.872755900809
 42
-1.0
 10
2008.973383376978
 20
1162.974163656092
 42
-1.0
 97
        0
 75
     0
 76
     1
 47
0.1166526434546944
 98
        1
 10
2011.075720419463
 20
1157.024164314817
  0
MTEXT
  5
1619
330
1F
100
AcDbEntity
  8
実形
100
AcDbMText
 10
1973.134889290917
 20
1150.616842123797
 30
0.0
 40
23.0
 41
0.0
 71
     1
 72
     5
  1
25
 11
0.0000000000000001
 21
1.0
 31
0.0
 73
     1
 44
1.0
1001
ACAD
1000
MTEXTBEGIN
1070
    73
1070
     1
1070
    44
1040
1.0
1070
    74
1070
     0
1000
MTEXTEND
  0
CIRCLE
  5
1625
330
1F
100
AcDbEntity
  8
実形
100
AcDbCircle
 10
1459.657978329059
 20
1273.516690245368
 30
0.0
 40
115.5
  0
LEADER
  5
177C
330
1F
100
AcDbEntity
  8
実形
100
AcDbLeader
  3
ISO-25
 40
74.99999999999999
 41
41.66666666666666
 76
     2
 10
1559.059102365188
 20
1460.26612672699
 30
0.0
 10
1661.59560919012
 20
1503.673969337183
 30
0.0
213
0.0
223
12.5
233
0.0
1001
ACAD
1000
DSTYLE
1002
{
1070
   147
1040
6.25
1070
    77
1070
     0
1070
    41
1040
20.0
1070
   342
1005
DA
1002
}
  0
TEXT
  5
177D
330
1F
100
AcDbEntity
  8
実形
100
AcDbText
 10
1664.097770391925
 20
1492.788042102503
 30
0.0
 40
25.0
  1
30R
 41
0.9
 72
     2
 11
1720.347770391925
 21
1505.288042102503
 31
0.0
100
AcDbText
 73
     2
  0
LINE
  5
17B6
330
1F
100
AcDbEntity
  8
補助
 62
     0
100
AcDbLine
 10
2784.0
 20
1959.000000000001
 30
0.0
 11
2019.387286519283
 21
1959.000000000002
 31
0.0
  0
LINE
  5
17B7
330
1F
100
AcDbEntity
  8
補助
 62
     0
100
AcDbLine
 10
2784.0
 20
1894.000000000001
 30
0.0
 11
2019.387286519283
 21
1894.000000000001
 31
0.0
  0
LINE
  5
17B8
330
1F
100
AcDbEntity
  8
補助
 62
     0
100
AcDbLine
 10
2784.0
 20
1829.000000000001
 30
0.0
 11
2019.387286519283
 21
1829.000000000001
 31
0.0
  0
LINE
  5
17B9
330
1F
100
AcDbEntity
  8
補助
 62
     0
100
AcDbLine
 10
2784.0
 20
1764.000000000001
 30
0.0
 11
2019.387286519283
 21
1764.000000000001
 31
0.0
  0
LINE
  5
17BA
330
1F
100
AcDbEntity
  8
補助
 62
     0
100
AcDbLine
 10
2202.547653420927
 20
1764.000000000001
 30
0.0
 11
2202.547653420927
 21
2024.000000000002
 31
0.0
  0
LINE
  5
17BB
330
1F
100
AcDbEntity
  8
補助
 62
     0
100
AcDbLine
 10
2019.387286519283
 20
1764.000000000001
 30
0.0
 11
2019.387286519283
 21
2024.000000000002
 31
0.0
  0
TEXT
  5
17BC
330
1F
100
AcDbEntity
  8
補助
 62
     0
100
AcDbText
 10
2050.295698850121
 20
1976.328571428573
 30
0.0
 40
30.0
  1
部品名
  7
明朝
 72
     4
 11
2116.124270278692
 21
1991.500000000002
 31
0.0
100
AcDbText
  0
TEXT
  5
17BD
330
1F
100
AcDbEntity
  8
補助
 62
     0
100
AcDbText
 10
2627.614285714286
 20
1976.07142857143
 30
0.0
 40
30.0
  1
厚さ
  7
明朝
 72
     4
 11
2671.5
 21
1991.500000000002
 31
0.0
100
AcDbText
  0
LINE
  5
17BE
330
1F
100
AcDbEntity
  8
補助
 62
     0
100
AcDbLine
 10
2559.000000000001
 20
1764.000000000001
 30
0.0
 11
2559.0
 21
2024.000000000002
 31
0.0
  0
TEXT
  5
17BF
330
1F
100
AcDbEntity
  8
補助
 62
     0
100
AcDbText
 10
2338.490869919937
 20
1975.947979478156
 30
0.0
 40
30.0
  1
材質
  7
明朝
 72
     4
 11
2382.376584205651
 21
1991.119408049584
 31
0.0
100
AcDbText
  0
TEXT
  5
17C0
330
1F
100
AcDbEntity
  8
実形
 62
     0
100
AcDbText
 10
2048.227810657788
 20
1910.557142857144
 30
0.0
 40
30.0
  1
ボウル
  7
明朝
 72
     4
 11
2114.056382086359
 21
1926.500000000001
 31
0.0
100
AcDbText
  0
TEXT
  5
17C1
330
1F
100
AcDbEntity
  8
実形
 62
     0
100
AcDbText
 10
2594.700000000001
 20
1911.842857142858
 30
0.0
 40
30.0
  1
0.8ｍｍ
  7
明朝
 72
     4
 11
2671.500000000001
 21
1926.500000000001
 31
0.0
100
AcDbText
  0
TEXT
  5
17C2
330
1F
100
AcDbEntity
  8
実形
 62
     0
100
AcDbText
 10
2228.986381076254
 20
1910.728571428572
 30
0.0
 40
30.0
  1
SUS304（No.4）
  7
明朝
 72
     4
 11
2382.586381076253
 21
1926.500000000001
 31
0.0
100
AcDbText
  0
TEXT
  5
17C3
330
1F
100
AcDbEntity
  8
実形
 62
     0
100
AcDbText
 10
2070.170667800645
 20
1846.242857142858
 30
0.0
 40
30.0
  1
天板
  7
明朝
 72
     4
 11
2114.056382086359
 21
1861.500000000001
 31
0.0
100
AcDbText
  0
TEXT
  5
17C4
330
1F
100
AcDbEntity
  8
実形
 62
     0
100
AcDbText
 10
2594.700000000001
 20
1846.842857142858
 30
0.0
 40
30.0
  1
0.8ｍｍ
  7
明朝
 72
     4
 11
2671.500000000001
 21
1861.500000000001
 31
0.0
100
AcDbText
  0
TEXT
  5
17C5
330
1F
100
AcDbEntity
  8
実形
 62
     0
100
AcDbText
 10
2218.959726250723
 20
1848.357142857144
 30
0.0
 40
25.0
  1
SUS304（市松ｴﾝﾎﾞｽ）
  7
明朝
 72
     4
 11
2392.674011965008
 21
1861.500000000001
 31
0.0
100
AcDbText
  0
TEXT
  5
17C6
330
1F
100
AcDbEntity
  8
実形
 62
     0
100
AcDbText
 10
2026.284953514931
 20
1780.557142857144
 30
0.0
 40
30.0
  1
ポケット
  7
明朝
 72
     4
 11
2114.056382086359
 21
1796.500000000001
 31
0.0
100
AcDbText
  0
TEXT
  5
17C7
330
1F
100
AcDbEntity
  8
実形
 62
     0
100
AcDbText
 10
2294.814952504824
 20
1781.242857142858
 30
0.0
 40
30.0
  1
樹脂(PP)
  7
明朝
 72
     4
 11
2382.586381076253
 21
1796.500000000001
 31
0.0
100
AcDbText
  0
TEXT
  5
17C8
330
1F
100
AcDbEntity
  8
実形
 62
     0
100
AcDbText
 10
2616.642857142859
 20
1781.842857142858
 30
0.0
 40
30.0
  1
3ｍｍ
  7
明朝
 72
     4
 11
2671.500000000001
 21
1796.500000000001
 31
0.0
100
AcDbText
  0
LINE
  5
17C9
330
1F
100
AcDbEntity
  8
補助
100
AcDbLine
 10
109.0
 20
4.0
 30
0.0
 11
109.0
 21
2024.0
 31
0.0
  0
VIEWPORT
  5
2E
102
{ACAD_XDICTIONARY
360
17F5
102
}
330
1B
100
AcDbEntity
 67
     1
  8
0
100
AcDbViewport
 10
144.7270812988281
 20
101.2295806407928
 30
0.0
 40
411.6736216682419
 41
222.1517806396485
 68
     1
 69
     1
 12
144.7270812988281
 22
101.2295806407928
 13
0.0
 23
0.0
 14
10.0
 24
10.0
 15
10.0
 25
10.0
 16
0.0
 26
0.0
 36
1.0
 17
0.0
 27
0.0
 37
0.0
 42
50.0
 43
0.0
 44
0.0
 45
222.1517806396485
 50
0.0
 51
0.0
 72
   100
 90
    32800
  1

281
     0
 71
     1
 74
     0
110
0.0
120
0.0
130
0.0
111
1.0
121
0.0
131
0.0
112
0.0
122
1.0
132
0.0
 79
     0
146
0.0
  0
VIEWPORT
  5
30
102
{ACAD_XDICTIONARY
360
17F7
102
}
330
1B
100
AcDbEntity
 67
     1
  8
0
100
AcDbViewport
 10
139.2237563133239
 20
101.2295821905136
 30
0.0
 40
222.7580101013184
 41
161.9673315048218
 68
     2
 69
     2
 12
210.0
 22
148.5
 13
0.0
 23
0.0
 14
10.0
 24
10.0
 15
10.0
 25
10.0
 16
0.0
 26
0.0
 36
1.0
 17
0.0
 27
0.0
 37
0.0
 42
50.0
 43
0.0
 44
0.0
 45
309.0686705647124
 50
0.0
 51
0.0
 72
   100
 90
    32864
  1

281
     0
 71
     1
 74
     0
110
0.0
120
0.0
130
0.0
111
1.0
121
0.0
131
0.0
112
0.0
122
1.0
132
0.0
 79
     0
146
0.0
  0
ENDSEC
  0
SECTION
  2
OBJECTS
  0
DICTIONARY
  5
C
330
0
100
AcDbDictionary
281
     1
  3
ACAD_COLOR
350
1475
  3
ACAD_GROUP
350
D
  3
ACAD_LAYOUT
350
1A
  3
ACAD_MATERIAL
350
1474
  3
ACAD_MLINESTYLE
350
17
  3
ACAD_PLOTSETTINGS
350
19
  3
ACAD_PLOTSTYLENAME
350
E
  3
ACAD_TABLESTYLE
350
1476
  3
AcadDim
350
CBC
  3
ACDBHEADERROUNDTRIPXREC
350
17EE
  3
AcDbVariableDictionary
350
EFD
  0
DICTIONARY
  5
1497
330
2
100
AcDbDictionary
280
     1
281
     1
  3
ACAD_LAYERFILTERS
360
1499
  3
ACAD_LAYERSTATES
360
149A
  3
ACLYDICTIONARY
360
1498
  0
DICTIONARY
  5
1494
330
1F
100
AcDbDictionary
280
     1
281
     1
  3
ACAD_SORTENTS
360
1495
  0
DICTIONARY
  5
14EE
330
14B3
100
AcDbDictionary
280
     1
281
     1
  3
ACAD_SORTENTS
360
14EF
  0
DICTIONARY
  5
17F5
330
2E
100
AcDbDictionary
280
     1
281
     1
  3
ACAD_XREC_ROUNDTRIP
360
17F6
  0
DICTIONARY
  5
17F7
330
30
100
AcDbDictionary
280
     1
281
     1
  3
ACAD_XREC_ROUNDTRIP
360
17F8
  0
DICTIONARY
  5
1475
102
{ACAD_REACTORS
330
C
102
}
330
C
100
AcDbDictionary
281
     1
  0
DICTIONARY
  5
D
102
{ACAD_REACTORS
330
C
102
}
330
C
100
AcDbDictionary
281
     1
  0
DICTIONARY
  5
1A
102
{ACAD_REACTORS
330
C
102
}
330
C
100
AcDbDictionary
281
     1
  3
Model
350
22
  3
ﾚｲｱｳﾄ1
350
1E
  3
ﾚｲｱｳﾄ2
350
26
  0
DICTIONARY
  5
1474
102
{ACAD_REACTORS
330
C
102
}
330
C
100
AcDbDictionary
281
     1
  0
DICTIONARY
  5
17
102
{ACAD_REACTORS
330
C
102
}
330
C
100
AcDbDictionary
281
     1
  3
Standard
350
18
  0
DICTIONARY
  5
19
102
{ACAD_REACTORS
330
C
102
}
330
C
100
AcDbDictionary
281
     1
  0
ACDBDICTIONARYWDFLT
  5
E
102
{ACAD_REACTORS
330
C
102
}
330
C
100
AcDbDictionary
281
     1
  3
Normal
350
F
100
AcDbDictionaryWithDefault
340
F
  0
DICTIONARY
  5
1476
102
{ACAD_REACTORS
330
C
102
}
330
C
100
AcDbDictionary
281
     1
  3
Standard
350
1477
  0
XRECORD
  5
CBC
102
{ACAD_REACTORS
330
C
102
}
330
C
100
AcDbXrecord
280
     1
 90
   990106
  3

 60
     0
 61
     0
 62
     1
 63
     3
 64
     0
 65
     0
 66
     0
 67
     3
 68
     1
 69
     0
 70
     0
 71
     0
 72
     0
 40
30.0
170
     0
  0
DICTIONARY
  5
17EE
102
{ACAD_REACTORS
330
C
102
}
330
C
100
AcDbDictionary
281
     1
  0
DICTIONARY
  5
EFD
102
{ACAD_REACTORS
330
C
102
}
330
C
100
AcDbDictionary
281
     1
  3
CTABLESTYLE
350
147D
  3
DIMASSOC
350
17EB
  3
PROJECTNAME
350
17EC
  3
SORTENTS
350
EFE
  0
DICTIONARY
  5
1499
102
{ACAD_REACTORS
330
1497
102
}
330
1497
100
AcDbDictionary
281
     1
  0
DICTIONARY
  5
149A
102
{ACAD_REACTORS
330
1497
102
}
330
1497
100
AcDbDictionary
281
     1
  0
DICTIONARY
  5
1498
102
{ACAD_REACTORS
330
1497
102
}
330
1497
100
AcDbDictionary
281
     1
1001
ACAD
1000
<All
  0
SORTENTSTABLE
  5
1495
102
{ACAD_REACTORS
330
1494
102
}
330
1494
100
AcDbSortentsTable
330
1F
331
15CC
  5
1616
331
1321
  5
1325
331
35C
  5
35F
331
14F6
  5
14F8
331
17B6
  5
17B7
331
1329
  5
13C7
331
8DD
  5
C20
331
2E6
  5
2E9
331
14FE
  5
1500
331
159D
  5
159E
331
17BE
  5
17BF
331
1506
  5
1508
331
15A5
  5
15A6
331
150E
  5
1510
331
17C6
  5
17C7
331
325
  5
329
331
10DA
  5
10DE
331
FA3
  5
10B4
331
15AD
  5
15AE
331
2FE
  5
300
331
1516
  5
1518
331
15B5
  5
15B6
331
13C9
  5
13CD
331
306
  5
308
331
151E
  5
1520
331
15BD
  5
15BE
331
1312
  5
1316
331
C2D
  5
CB9
331
1526
  5
1528
331
15C5
  5
15C6
331
131A
  5
131E
331
10B3
  5
10D8
331
F84
  5
F88
331
492
  5
4FD
331
316
  5
319
331
1322
  5
1326
331
35D
  5
362
331
14F7
  5
14F9
331
17B7
  5
17B8
331
14FF
  5
1501
331
159E
  5
159F
331
17BF
  5
17C0
331
1507
  5
1509
331
15A6
  5
15A7
331
150F
  5
1511
331
17C7
  5
17C8
331
A0
  5
A0
331
570
  5
5D6
331
10DB
  5
10DF
331
2F7
  5
2FA
331
15AE
  5
15AF
331
F65
  5
F6A
331
40C
  5
459
331
2FF
  5
301
331
1517
  5
1519
331
15B6
  5
15B7
331
13CA
  5
13F5
331
C26
  5
C2C
331
346
  5
34B
331
307
  5
309
331
151F
  5
1521
331
15BE
  5
15BF
331
1313
  5
1317
331
C2E
  5
CBE
331
7D7
  5
914
331
1527
  5
1529
331
1625
  5
177C
331
15C6
  5
15C7
331
131B
  5
131F
331
10B4
  5
10D9
331
F85
  5
F89
331
CBE
  5
CC3
331
788
  5
7CA
331
549
  5
5C9
331
317
  5
31A
331
1323
  5
1327
331
50A
  5
549
331
2E0
  5
2E8
331
14F8
  5
14FA
331
17B8
  5
17B9
331
7A0
  5
7D7
331
1500
  5
1502
331
159F
  5
15A0
331
1508
  5
150A
331
15A7
  5
15A8
331
17C0
  5
17C1
331
17C8
  5
17C9
331
2E8
  5
2EB
331
571
  5
788
331
4C3
  5
50A
331
134B
  5
13C8
331
10DC
  5
10E0
331
522
  5
570
331
2F8
  5
2FB
331
1510
  5
1512
331
15AF
  5
15B0
331
F66
  5
F6E
331
47C
  5
4E5
331
3AE
  5
3F6
331
300
  5
302
331
1518
  5
151A
331
1616
  5
1617
331
15B7
  5
15B8
331
13CB
  5
144E
331
F6E
  5
F81
331
347
  5
34C
331
1520
  5
1522
331
15BF
  5
15C0
331
1314
  5
1318
331
1528
  5
152A
331
15C7
  5
15C9
331
308
  5
315
331
131C
  5
1320
331
F86
  5
FA3
331
CBF
  5
D4B
331
1324
  5
1328
331
14F9
  5
14FB
331
17B9
  5
17BA
331
367
  5
3A1
331
1501
  5
1503
331
15A0
  5
15A1
331
1509
  5
150B
331
17C1
  5
17C2
331
17C9
  5
2DD
331
320
  5
322
331
2E9
  5
2EC
331
3F6
  5
427
331
328
  5
338
331
2F1
  5
2F4
331
15A8
  5
15A9
331
134C
  5
13C9
331
10DD
  5
1311
331
F5F
  5
F66
331
918
  5
C26
331
6EA
  5
7A0
331
338
  5
33A
331
1511
  5
1513
331
15B0
  5
15B1
331
C20
  5
C29
331
301
  5
303
331
1519
  5
151B
331
1617
  5
1618
331
15B8
  5
15B9
331
13CC
  5
144F
331
F6F
  5
F82
331
1521
  5
1523
331
15C0
  5
15C1
331
1315
  5
1319
331
F7F
  5
F83
331
1529
  5
152B
331
348
  5
35D
331
309
  5
316
331
73
  5
73
331
CB8
  5
CBF
331
131D
  5
1321
331
F87
  5
10AA
331
319
  5
31B
331
1325
  5
1329
331
360
  5
363
331
14FA
  5
14FC
331
17BA
  5
17BB
331
1502
  5
1504
331
15A1
  5
15A2
331
10D6
  5
10DA
331
150A
  5
150C
331
17C2
  5
17C3
331
368
  5
3C2
331
321
  5
323
331
466
  5
4C3
331
329
  5
339
331
2F2
  5
2F7
331
15A9
  5
15AA
331
F60
  5
F69
331
339
  5
346
331
2FA
  5
2FC
331
1512
  5
1514
331
15B1
  5
15B2
331
7CA
  5
8DD
331
302
  5
306
331
151A
  5
151C
331
1618
  5
1619
331
15B9
  5
15BA
331
13CD
  5
1450
331
130E
  5
1312
331
C29
  5
C2D
331
77B
  5
7AD
331
4E5
  5
522
331
1522
  5
1524
331
15C1
  5
15C2
331
13F5
  5
1451
331
1316
  5
131A
331
152A
  5
1537
331
F80
  5
F84
331
CB9
  5
CC2
331
427
  5
47C
331
9C
  5
9C
331
131E
  5
1322
331
F88
  5
10B2
331
4FD
  5
52F
331
31A
  5
320
331
15C9
  5
15CA
331
1326
  5
134B
331
361
  5
367
331
14FB
  5
14FD
331
17BB
  5
17BC
331
1503
  5
1505
331
15A2
  5
15A3
331
10D7
  5
10DB
331
150B
  5
150D
331
17C3
  5
17C4
331
322
  5
324
331
2EB
  5
2F2
331
3A1
  5
3E9
331
15AA
  5
15AB
331
33A
  5
348
331
2FB
  5
2FD
331
1513
  5
1515
331
15B2
  5
15B3
331
13C6
  5
13CA
331
F69
  5
F6F
331
303
  5
307
331
151B
  5
151D
331
1619
  5
1625
331
15BA
  5
15BB
331
130F
  5
1313
331
1523
  5
1525
331
177C
  5
177D
331
15C2
  5
15C3
331
1317
  5
131B
331
152B
  5
159B
331
F81
  5
F85
331
15CA
  5
15CB
331
131F
  5
1323
331
F89
  5
10B3
331
CC2
  5
F5F
331
3E9
  5
41A
331
31B
  5
321
331
14F4
  5
14F6
331
14FC
  5
14FE
331
144E
  5
1493
331
1327
  5
134C
331
8DB
  5
918
331
362
  5
368
331
159B
  5
159C
331
17BC
  5
17BD
331
1504
  5
1506
331
145E
  5
1496
331
15A3
  5
15A4
331
150C
  5
150E
331
17C4
  5
17C5
331
323
  5
325
331
A5
  5
A5
331
10D8
  5
10DC
331
2F4
  5
2F8
331
15AB
  5
15AC
331
2FC
  5
2FE
331
1514
  5
1516
331
15B3
  5
15B4
331
13C7
  5
13CB
331
F6A
  5
F80
331
151C
  5
151E
331
15BB
  5
15BC
331
1310
  5
1314
331
C2B
  5
C2E
331
1524
  5
1526
331
177D
  5
17B6
331
15C3
  5
15C4
331
3C2
  5
40C
331
1318
  5
131C
331
F82
  5
F86
331
353
  5
35E
331
15CB
  5
15CC
331
1320
  5
1324
331
CC3
  5
F60
331
2DD
  5
2E0
331
14F5
  5
14F7
331
1328
  5
13C6
331
DC3
  5
F65
331
363
  5
374
331
459
  5
492
331
14FD
  5
14FF
331
159C
  5
159D
331
17BD
  5
17BE
331
145F
  5
14F5
331
1505
  5
1507
331
15A4
  5
15A5
331
150D
  5
150F
331
17C5
  5
17C6
331
324
  5
328
331
10D9
  5
10DD
331
914
  5
C24
331
7AD
  5
8DB
331
15AC
  5
15AD
331
2FD
  5
2FF
331
1515
  5
1517
331
15B4
  5
15B5
331
13C8
  5
13CC
331
C24
  5
C2B
331
52F
  5
571
331
41A
  5
466
331
151D
  5
151F
331
15BC
  5
15BD
331
1311
  5
1315
331
10AA
  5
10D6
331
C2C
  5
CB8
331
1525
  5
1527
331
15C4
  5
15C5
331
1319
  5
131D
331
10B2
  5
10D7
331
F83
  5
F87
331
315
  5
317
  0
SORTENTSTABLE
  5
14EF
102
{ACAD_REACTORS
330
14EE
102
}
330
14EE
100
AcDbSortentsTable
330
14B3
  0
XRECORD
  5
17F6
102
{ACAD_REACTORS
330
17F5
102
}
330
17F5
100
AcDbXrecord
280
     1
102
SHADEPLOT
 70
     0
  0
XRECORD
  5
17F8
102
{ACAD_REACTORS
330
17F7
102
}
330
17F7
100
AcDbXrecord
280
     1
102
SHADEPLOT
 70
     0
  0
LAYOUT
  5
22
102
{ACAD_XDICTIONARY
360
17F1
102
}
102
{ACAD_REACTORS
330
1A
102
}
330
1A
100
AcDbPlotSettings
  1

  2
EPSON PM-800C
  4
A4
  6

 40
3.757083177566528
 41
14.7637300491333
 42
3.757080078125
 43
3.757080078125
 44
209.9733276367187
 45
296.9683227539062
 46
0.0
 47
0.0
 48
0.0
 49
0.0
140
0.0
141
0.0
142
1.0
143
10.0
 70
 11952
 72
     1
 73
     1
 74
     2
  7

 75
    20
147
0.1
148
0.0
149
0.0
100
AcDbLayout
  1
Model
 70
     1
 71
     0
 10
0.0
 20
0.0
 11
12.0
 21
9.0
 12
0.0
 22
0.0
 32
0.0
 14
0.0
 24
0.0
 34
0.0
 15
0.0
 25
0.0
 35
0.0
146
0.0
 13
0.0
 23
0.0
 33
0.0
 16
1.0
 26
0.0
 36
0.0
 17
0.0
 27
1.0
 37
0.0
 76
     0
330
1F
  0
LAYOUT
  5
1E
102
{ACAD_XDICTIONARY
360
17EF
102
}
102
{ACAD_REACTORS
330
1A
102
}
330
1A
100
AcDbPlotSettings
  1

  2
EPSON PM-800C
  4
A4
  6

 40
3.757083177566528
 41
14.7637300491333
 42
3.757080078125
 43
3.757080078125
 44
209.9733276367187
 45
296.9683227539062
 46
0.0
 47
0.0
 48
0.0
 49
0.0
140
0.0
141
0.0
142
1.0
143
1.0
 70
   688
 72
     1
 73
     1
 74
     5
  7

 75
    16
147
1.0
148
0.0
149
0.0
100
AcDbLayout
  1
ﾚｲｱｳﾄ1
 70
     1
 71
     1
 10
-3.757080078125
 20
-3.757083177566528
 11
293.2112426757813
 21
206.2162444591522
 12
0.0
 22
0.0
 32
0.0
 14
27.8447512626648
 24
20.24591643810271
 34
0.0
 15
250.6027613639831
 25
182.2132479429245
 35
0.0
146
0.0
 13
0.0
 23
0.0
 33
0.0
 16
1.0
 26
0.0
 36
0.0
 17
0.0
 27
1.0
 37
0.0
 76
     0
330
1B
331
2E
  0
LAYOUT
  5
26
102
{ACAD_XDICTIONARY
360
17F3
102
}
102
{ACAD_REACTORS
330
1A
102
}
330
1A
100
AcDbPlotSettings
  1

  2
EPSON PM-800C
  4

  6

 40
0.0
 41
0.0
 42
0.0
 43
0.0
 44
0.0
 45
0.0
 46
0.0
 47
0.0
 48
0.0
 49
0.0
140
0.0
141
0.0
142
1.0
143
1.0
 70
   688
 72
     0
 73
     0
 74
     5
  7

 75
    16
147
1.0
148
0.0
149
0.0
100
AcDbLayout
  1
ﾚｲｱｳﾄ2
 70
     1
 71
     2
 10
0.0
 20
0.0
 11
12.0
 21
9.0
 12
0.0
 22
0.0
 32
0.0
 14
0.0
 24
0.0
 34
0.0
 15
0.0
 25
0.0
 35
0.0
146
0.0
 13
0.0
 23
0.0
 33
0.0
 16
1.0
 26
0.0
 36
0.0
 17
0.0
 27
1.0
 37
0.0
 76
     0
330
23
  0
MLINESTYLE
  5
18
102
{ACAD_REACTORS
330
17
102
}
330
17
100
AcDbMlineStyle
  2
STANDARD
 70
     0
  3

 62
   256
 51
90.0
 52
90.0
 71
     2
 49
0.5
 62
   256
  6
BYLAYER
 49
-0.5
 62
   256
  6
BYLAYER
  0
ACDBPLACEHOLDER
  5
F
102
{ACAD_REACTORS
330
E
102
}
330
E
  0
TABLESTYLE
  5
1477
102
{ACAD_REACTORS
330
1476
102
}
330
1476
100
AcDbTableStyle
  3
Standard
 70
     0
 71
     0
 40
1.5
 41
1.5
280
     0
281
     0
  7
Standard
140
4.5
170
     2
 62
     0
 63
     7
283
     0
274
    -2
284
     1
 64
     0
275
    -2
285
     1
 65
     0
276
    -2
286
     1
 66
     0
277
    -2
287
     1
 67
     0
278
    -2
288
     1
 68
     0
279
    -2
289
     1
 69
     0
  7
Standard
140
6.0
170
     5
 62
     0
 63
     7
283
     0
274
    -2
284
     1
 64
     0
275
    -2
285
     1
 65
     0
276
    -2
286
     1
 66
     0
277
    -2
287
     1
 67
     0
278
    -2
288
     1
 68
     0
279
    -2
289
     1
 69
     0
  7
Standard
140
4.5
170
     5
 62
     0
 63
     7
283
     0
274
    -2
284
     1
 64
     0
275
    -2
285
     1
 65
     0
276
    -2
286
     1
 66
     0
277
    -2
287
     1
 67
     0
278
    -2
288
     1
 68
     0
279
    -2
289
     1
 69
     0
  0
DICTIONARYVAR
  5
147D
102
{ACAD_REACTORS
330
EFD
102
}
330
EFD
100
DictionaryVariables
280
     0
  1
STANDARD
  0
DICTIONARYVAR
  5
17EB
102
{ACAD_REACTORS
330
EFD
102
}
330
EFD
100
DictionaryVariables
280
     0
  1
1
  0
DICTIONARYVAR
  5
17EC
102
{ACAD_REACTORS
330
EFD
102
}
330
EFD
100
DictionaryVariables
280
     0
  1

  0
DICTIONARYVAR
  5
EFE
102
{ACAD_REACTORS
330
EFD
102
}
330
EFD
100
DictionaryVariables
280
     0
  1
96
  0
DICTIONARY
  5
17F1
330
22
100
AcDbDictionary
280
     1
281
     1
  3
ACAD_XREC_ROUNDTRIP
360
17F2
  0
DICTIONARY
  5
17EF
330
1E
100
AcDbDictionary
280
     1
281
     1
  3
ACAD_XREC_ROUNDTRIP
360
17F0
  0
DICTIONARY
  5
17F3
330
26
100
AcDbDictionary
280
     1
281
     1
  3
ACAD_XREC_ROUNDTRIP
360
17F4
  0
XRECORD
  5
17F2
102
{ACAD_REACTORS
330
17F1
102
}
330
17F1
100
AcDbXrecord
280
     1
102
SHADEPLOT
 70
     0
102
SHADEPLOTRESLEVEL
 70
     2
102
SHADEPLOTCUSTOMDPI
 70
   300
  0
XRECORD
  5
17F0
102
{ACAD_REACTORS
330
17EF
102
}
330
17EF
100
AcDbXrecord
280
     1
102
SHADEPLOT
 70
     0
102
SHADEPLOTRESLEVEL
 70
     2
102
SHADEPLOTCUSTOMDPI
 70
   300
  0
XRECORD
  5
17F4
102
{ACAD_REACTORS
330
17F3
102
}
330
17F3
100
AcDbXrecord
280
     1
102
SHADEPLOT
 70
     0
102
SHADEPLOTRESLEVEL
 70
     2
102
SHADEPLOTCUSTOMDPI
 70
   300
  0
ENDSEC
  0
EOF
