  0
SECTION
  2
HEADER
  9
$ACADVER
  1
AC1015
  9
$ACADMAINTVER
 70
    20
  9
$DWGCODEPAGE
  3
ANSI_932
  9
$INSBASE
 10
0.0
 20
0.0
 30
0.0
  9
$EXTMIN
 10
109.0
 20
4.0
 30
0.0
  9
$EXTMAX
 10
2784.000000000001
 20
2024.000000000002
 30
0.0
  9
$LIMMIN
 10
0.0
 20
0.0
  9
$LIMMAX
 10
29700.0
 20
21000.0
  9
$ORTHOMODE
 70
     1
  9
$REGENMODE
 70
     1
  9
$FILLMODE
 70
     1
  9
$QTEXTMODE
 70
     0
  9
$MIRRTEXT
 70
     1
  9
$LTSCALE
 40
4.0
  9
$ATTMODE
 70
     1
  9
$TEXTSIZE
 40
25.0
  9
$TRACEWID
 40
1.0
  9
$TEXTSTYLE
  7
Standard
  9
$CLAYER
  8
実形
  9
$CELTYPE
  6
ByLayer
  9
$CECOLOR
 62
   256
  9
$CELTSCALE
 40
1.0
  9
$DISPSILH
 70
     0
  9
$DIMSCALE
 40
1.0
  9
$DIMASZ
 40
35.0
  9
$DIMEXO
 40
65.0
  9
$DIMDLI
 40
3.75
  9
$DIMRND
 40
0.0
  9
$DIMDLE
 40
0.0
  9
$DIMEXE
 40
0.0
  9
$DIMTP
 40
0.0
  9
$DIMTM
 40
0.0
  9
$DIMTXT
 40
25.0
  9
$DIMCEN
 40
2.5
  9
$DIMTSZ
 40
0.0
  9
$DIMTOL
 70
     0
  9
$DIMLIM
 70
     0
  9
$DIMTIH
 70
     0
  9
$DIMTOH
 70
     0
  9
$DIMSE1
 70
     0
  9
$DIMSE2
 70
     0
  9
$DIMTAD
 70
     1
  9
$DIMZIN
 70
     8
  9
$DIMBLK
  1
DotSmall
  9
$DIMASO
 70
     1
  9
$DIMSHO
 70
     1
  9
$DIMPOST
  1

  9
$DIMAPOST
  1

  9
$DIMALT
 70
     0
  9
$DIMALTD
 70
     3
  9
$DIMALTF
 40
0.03937007874016
  9
$DIMLFAC
 40
1.0
  9
$DIMTOFL
 70
     1
  9
$DIMTVP
 40
0.0
  9
$DIMTIX
 70
     0
  9
$DIMSOXD
 70
     0
  9
$DIMSAH
 70
     0
  9
$DIMBLK1
  1

  9
$DIMBLK2
  1

  9
$DIMSTYLE
  2
ISO-25
  9
$DIMCLRD
 70
     0
  9
$DIMCLRE
 70
     0
  9
$DIMCLRT
 70
     0
  9
$DIMTFAC
 40
1.0
  9
$DIMGAP
 40
6.25
  9
$DIMJUST
 70
     0
  9
$DIMSD1
 70
     0
  9
$DIMSD2
 70
     0
  9
$DIMTOLJ
 70
     0
  9
$DIMTZIN
 70
     8
  9
$DIMALTZ
 70
     0
  9
$DIMALTTZ
 70
     0
  9
$DIMUPT
 70
     0
  9
$DIMDEC
 70
     2
  9
$DIMTDEC
 70
     2
  9
$DIMALTU
 70
     2
  9
$DIMALTTD
 70
     3
  9
$DIMTXSTY
  7
Standard
  9
$DIMAUNIT
 70
     0
  9
$DIMADEC
 70
     0
  9
$DIMALTRND
 40
0.0
  9
$DIMAZIN
 70
     0
  9
$DIMDSEP
 70
    46
  9
$DIMATFIT
 70
     3
  9
$DIMFRAC
 70
     0
  9
$DIMLDRBLK
  1
Open30
  9
$DIMLUNIT
 70
     2
  9
$DIMLWD
 70
    18
  9
$DIMLWE
 70
    18
  9
$DIMTMOVE
 70
     0
  9
$LUNITS
 70
     2
  9
$LUPREC
 70
     2
  9
$SKETCHINC
 40
1.0
  9
$FILLETRAD
 40
30.0
  9
$AUNITS
 70
     0
  9
$AUPREC
 70
     0
  9
$MENU
  1
.
  9
$ELEVATION
 40
0.0
  9
$PELEVATION
 40
0.0
  9
$THICKNESS
 40
0.0
  9
$LIMCHECK
 70
     1
  9
$CHAMFERA
 40
10.0
  9
$CHAMFERB
 40
10.0
  9
$CHAMFERC
 40
20.0
  9
$CHAMFERD
 40
0.0
  9
$SKPOLY
 70
     0
  9
$TDCREATE
 40
2451673.575802199
  9
$TDUCREATE
 40
2451673.200802199
  9
$TDUPDATE
 40
2458810.731409630
  9
$TDUUPDATE
 40
2458810.356409630
  9
$TDINDWG
 40
1.2063401968
  9
$TDUSRTIMER
 40
1.2063395023
  9
$USRTIMER
 70
     1
  9
$ANGBASE
 50
0.0
  9
$ANGDIR
 70
     0
  9
$PDMODE
 70
     3
  9
$PDSIZE
 40
0.0
  9
$PLINEWID
 40
0.0
  9
$SPLFRAME
 70
     0
  9
$SPLINETYPE
 70
     6
  9
$SPLINESEGS
 70
     8
  9
$HANDSEED
  5
24B8
  9
$SURFTAB1
 70
     6
  9
$SURFTAB2
 70
     6
  9
$SURFTYPE
 70
     6
  9
$SURFU
 70
     6
  9
$SURFV
 70
     6
  9
$UCSBASE
  2

  9
$UCSNAME
  2

  9
$UCSORG
 10
0.0
 20
0.0
 30
0.0
  9
$UCSXDIR
 10
1.0
 20
0.0
 30
0.0
  9
$UCSYDIR
 10
0.0
 20
1.0
 30
0.0
  9
$UCSORTHOREF
  2

  9
$UCSORTHOVIEW
 70
     0
  9
$UCSORGTOP
 10
0.0
 20
0.0
 30
0.0
  9
$UCSORGBOTTOM
 10
0.0
 20
0.0
 30
0.0
  9
$UCSORGLEFT
 10
0.0
 20
0.0
 30
0.0
  9
$UCSORGRIGHT
 10
0.0
 20
0.0
 30
0.0
  9
$UCSORGFRONT
 10
0.0
 20
0.0
 30
0.0
  9
$UCSORGBACK
 10
0.0
 20
0.0
 30
0.0
  9
$PUCSBASE
  2

  9
$PUCSNAME
  2

  9
$PUCSORG
 10
0.0
 20
0.0
 30
0.0
  9
$PUCSXDIR
 10
1.0
 20
0.0
 30
0.0
  9
$PUCSYDIR
 10
0.0
 20
1.0
 30
0.0
  9
$PUCSORTHOREF
  2

  9
$PUCSORTHOVIEW
 70
     0
  9
$PUCSORGTOP
 10
0.0
 20
0.0
 30
0.0
  9
$PUCSORGBOTTOM
 10
0.0
 20
0.0
 30
0.0
  9
$PUCSORGLEFT
 10
0.0
 20
0.0
 30
0.0
  9
$PUCSORGRIGHT
 10
0.0
 20
0.0
 30
0.0
  9
$PUCSORGFRONT
 10
0.0
 20
0.0
 30
0.0
  9
$PUCSORGBACK
 10
0.0
 20
0.0
 30
0.0
  9
$USERI1
 70
     0
  9
$USERI2
 70
     0
  9
$USERI3
 70
     0
  9
$USERI4
 70
     0
  9
$USERI5
 70
     0
  9
$USERR1
 40
0.0
  9
$USERR2
 40
0.0
  9
$USERR3
 40
0.0
  9
$USERR4
 40
0.0
  9
$USERR5
 40
0.0
  9
$WORLDVIEW
 70
     1
  9
$SHADEDGE
 70
     3
  9
$SHADEDIF
 70
    70
  9
$TILEMODE
 70
     1
  9
$MAXACTVP
 70
    64
  9
$PINSBASE
 10
0.0
 20
0.0
 30
0.0
  9
$PLIMCHECK
 70
     0
  9
$PEXTMIN
 10
27.8447512626648
 20
20.24591643810271
 30
0.0
  9
$PEXTMAX
 10
250.6027613639831
 20
182.2132479429245
 30
0.0
  9
$PLIMMIN
 10
-3.757080078125
 20
-3.757083177566528
  9
$PLIMMAX
 10
293.2112426757813
 20
206.2162444591522
  9
$UNITMODE
 70
     0
  9
$VISRETAIN
 70
     1
  9
$PLINEGEN
 70
     0
  9
$PSLTSCALE
 70
     1
  9
$TREEDEPTH
 70
  3020
  9
$CMLSTYLE
  2
Standard
  9
$CMLJUST
 70
     0
  9
$CMLSCALE
 40
20.0
  9
$PROXYGRAPHICS
 70
     1
  9
$MEASUREMENT
 70
     1
  9
$CELWEIGHT
370
    -1
  9
$ENDCAPS
280
     0
  9
$JOINSTYLE
280
     0
  9
$LWDISPLAY
290
     0
  9
$INSUNITS
 70
     4
  9
$HYPERLINKBASE
  1

  9
$STYLESHEET
  1

  9
$XEDIT
290
     1
  9
$CEPSNTYPE
380
     0
  9
$PSTYLEMODE
290
     1
  9
$FINGERPRINTGUID
  2
{C8EA1F16-24C9-11D4-9416-CE0A3B32152F}
  9
$VERSIONGUID
  2
{9E567AB3-8BA1-4CDF-84BE-C38788DEB58E}
  9
$EXTNAMES
290
     1
  9
$PSVPSCALE
 40
0.0
  9
$OLESTARTUP
290
     0
  0
ENDSEC
  0
SECTION
  2
CLASSES
  0
CLASS
  1
ACDBDICTIONARYWDFLT
  2
AcDbDictionaryWithDefault
  3
ObjectDBX Classes
 90
        0
280
     0
281
     0
  0
CLASS
  1
ACDBPLACEHOLDER
  2
AcDbPlaceHolder
  3
ObjectDBX Classes
 90
        0
280
     0
281
     0
  0
CLASS
  1
LAYOUT
  2
AcDbLayout
  3
ObjectDBX Classes
 90
        0
280
     0
281
     0
  0
CLASS
  1
TABLESTYLE
  2
AcDbTableStyle
  3
ObjectDBX Classes
 90
     2047
280
     0
281
     0
  0
CLASS
  1
DICTIONARYVAR
  2
AcDbDictionaryVar
  3
ObjectDBX Classes
 90
        0
280
     0
281
     0
  0
CLASS
  1
SORTENTSTABLE
  2
AcDbSortentsTable
  3
ObjectDBX Classes
 90
        0
280
     0
281
     0
  0
ENDSEC
  0
SECTION
  2
TABLES
  0
TABLE
  2
VPORT
  5
8
330
0
100
AcDbSymbolTable
 70
     2
  0
VPORT
  5
24AC
330
8
100
AcDbSymbolTableRecord
100
AcDbViewportTableRecord
  2
*Active
 70
     0
 10
0.0
 20
0.0
 11
1.0
 21
1.0
 12
1787.345630538963
 22
963.542678393515
 13
0.0
 23
0.0
 14
10.0
 24
10.0
 15
10.0
 25
10.0
 16
0.0
 26
0.0
 36
1.0
 17
0.0
 27
0.0
 37
0.0
 40
2978.951614732495
 41
1.29038112522686
 42
50.0
 43
0.0
 44
0.0
 50
0.0
 51
0.0
 71
     0
 72
   100
 73
     1
 74
     3
 75
     0
 76
     0
 77
     0
 78
     0
281
     0
 65
     1
110
0.0
120
0.0
130
0.0
111
1.0
121
0.0
131
0.0
112
0.0
122
1.0
132
0.0
 79
     0
146
0.0
  0
ENDTAB
  0
TABLE
  2
LTYPE
  5
5
330
0
100
AcDbSymbolTable
 70
    46
  0
LTYPE
  5
14
330
5
100
AcDbSymbolTableRecord
100
AcDbLinetypeTableRecord
  2
ByBlock
 70
     0
  3

 72
    65
 73
     0
 40
0.0
  0
LTYPE
  5
15
330
5
100
AcDbSymbolTableRecord
100
AcDbLinetypeTableRecord
  2
ByLayer
 70
     0
  3

 72
    65
 73
     0
 40
0.0
  0
LTYPE
  5
16
330
5
100
AcDbSymbolTableRecord
100
AcDbLinetypeTableRecord
  2
Continuous
 70
     0
  3
Solid line
 72
    65
 73
     0
 40
0.0
  0
LTYPE
  5
34
330
5
100
AcDbSymbolTableRecord
100
AcDbLinetypeTableRecord
  2
ACAD_ISO02W100
 70
     0
  3
ISO dash __ __ __ __ __ __ __ __ __ __ __ __ __
 72
    65
 73
     2
 40
15.0
 49
12.0
 74
     0
 49
-3.0
 74
     0
  0
LTYPE
  5
35
330
5
100
AcDbSymbolTableRecord
100
AcDbLinetypeTableRecord
  2
ACAD_ISO03W100
 70
     0
  3
ISO dash space __    __    __    __    __    __
 72
    65
 73
     2
 40
30.0
 49
12.0
 74
     0
 49
-18.0
 74
     0
  0
LTYPE
  5
36
330
5
100
AcDbSymbolTableRecord
100
AcDbLinetypeTableRecord
  2
ACAD_ISO04W100
 70
     0
  3
ISO long-dash dot ____ . ____ . ____ . ____ . _
 72
    65
 73
     4
 40
30.0
 49
24.0
 74
     0
 49
-3.0
 74
     0
 49
0.0
 74
     0
 49
-3.0
 74
     0
  0
LTYPE
  5
37
330
5
100
AcDbSymbolTableRecord
100
AcDbLinetypeTableRecord
  2
ACAD_ISO05W100
 70
     0
  3
ISO long-dash double-dot ____ .. ____ .. ____ .
 72
    65
 73
     6
 40
34.0
 49
24.0
 74
     0
 49
-3.0
 74
     0
 49
0.5
 74
     0
 49
-3.0
 74
     0
 49
0.5
 74
     0
 49
-3.0
 74
     0
  0
LTYPE
  5
38
330
5
100
AcDbSymbolTableRecord
100
AcDbLinetypeTableRecord
  2
ACAD_ISO06W100
 70
     0
  3
ISO long-dash triple-dot ____ ... ____ ... ____
 72
    65
 73
     8
 40
37.5
 49
24.0
 74
     0
 49
-3.0
 74
     0
 49
0.5
 74
     0
 49
-3.0
 74
     0
 49
0.5
 74
     0
 49
-3.0
 74
     0
 49
0.5
 74
     0
 49
-3.0
 74
     0
  0
LTYPE
  5
39
330
5
100
AcDbSymbolTableRecord
100
AcDbLinetypeTableRecord
  2
ACAD_ISO07W100
 70
     0
  3
ISO dot . . . . . . . . . . . . . . . . . . . .
 72
    65
 73
     2
 40
3.0
 49
0.0
 74
     0
 49
-3.0
 74
     0
  0
LTYPE
  5
3A
330
5
100
AcDbSymbolTableRecord
100
AcDbLinetypeTableRecord
  2
ACAD_ISO08W100
 70
     0
  3
ISO long-dash short-dash ____ __ ____ __ ____ _
 72
    65
 73
     4
 40
36.0
 49
24.0
 74
     0
 49
-3.0
 74
     0
 49
6.0
 74
     0
 49
-3.0
 74
     0
  0
LTYPE
  5
3B
330
5
100
AcDbSymbolTableRecord
100
AcDbLinetypeTableRecord
  2
ACAD_ISO09W100
 70
     0
  3
ISO long-dash double-short-dash ____ __ __ ____
 72
    65
 73
     6
 40
45.0
 49
24.0
 74
     0
 49
-3.0
 74
     0
 49
6.0
 74
     0
 49
-3.0
 74
     0
 49
6.0
 74
     0
 49
-3.0
 74
     0
  0
LTYPE
  5
3C
330
5
100
AcDbSymbolTableRecord
100
AcDbLinetypeTableRecord
  2
ACAD_ISO10W100
 70
     0
  3
ISO dash dot __ . __ . __ . __ . __ . __ . __ .
 72
    65
 73
     4
 40
18.0
 49
12.0
 74
     0
 49
-3.0
 74
     0
 49
0.0
 74
     0
 49
-3.0
 74
     0
  0
LTYPE
  5
3D
330
5
100
AcDbSymbolTableRecord
100
AcDbLinetypeTableRecord
  2
ACAD_ISO11W100
 70
     0
  3
ISO double-dash dot __ __ . __ __ . __ __ . __ 
 72
    65
 73
     6
 40
33.0
 49
12.0
 74
     0
 49
-3.0
 74
     0
 49
12.0
 74
     0
 49
-3.0
 74
     0
 49
0.0
 74
     0
 49
-3.0
 74
     0
  0
LTYPE
  5
3E
330
5
100
AcDbSymbolTableRecord
100
AcDbLinetypeTableRecord
  2
ACAD_ISO12W100
 70
     0
  3
ISO dash double-dot __ . . __ . . __ . . __ . .
 72
    65
 73
     6
 40
21.0
 49
12.0
 74
     0
 49
-3.0
 74
     0
 49
0.0
 74
     0
 49
-3.0
 74
     0
 49
0.0
 74
     0
 49
-3.0
 74
     0
  0
LTYPE
  5
3F
330
5
100
AcDbSymbolTableRecord
100
AcDbLinetypeTableRecord
  2
ACAD_ISO13W100
 70
     0
  3
ISO double-dash double-dot __ __ . . __ __ . . 
 72
    65
 73
     8
 40
36.0
 49
12.0
 74
     0
 49
-3.0
 74
     0
 49
12.0
 74
     0
 49
-3.0
 74
     0
 49
0.0
 74
     0
 49
-3.0
 74
     0
 49
0.0
 74
     0
 49
-3.0
 74
     0
  0
LTYPE
  5
40
330
5
100
AcDbSymbolTableRecord
100
AcDbLinetypeTableRecord
  2
ACAD_ISO14W100
 70
     0
  3
ISO dash triple-dot __ . . . __ . . . __ . . . 
 72
    65
 73
     8
 40
24.0
 49
12.0
 74
     0
 49
-3.0
 74
     0
 49
0.0
 74
     0
 49
-3.0
 74
     0
 49
0.0
 74
     0
 49
-3.0
 74
     0
 49
0.0
 74
     0
 49
-3.0
 74
     0
  0
LTYPE
  5
41
330
5
100
AcDbSymbolTableRecord
100
AcDbLinetypeTableRecord
  2
ACAD_ISO15W100
 70
     0
  3
ISO double-dash triple-dot __ __ . . . __ __ . 
 72
    65
 73
    10
 40
39.0
 49
12.0
 74
     0
 49
-3.0
 74
     0
 49
12.0
 74
     0
 49
-3.0
 74
     0
 49
0.0
 74
     0
 49
-3.0
 74
     0
 49
0.0
 74
     0
 49
-3.0
 74
     0
 49
0.0
 74
     0
 49
-3.0
 74
     0
  0
LTYPE
  5
42
330
5
100
AcDbSymbolTableRecord
100
AcDbLinetypeTableRecord
  2
BATTING
 70
     0
  3
Batting SSSSSSSSSSSSSSSSSSSSSSSSSSSSSSSSSSSSSSS
 72
    65
 73
     4
 40
10.16254
 49
0.00254
 74
     0
 49
-2.54
 74
     4
 75
   134
340
33
 46
2.54
 50
0.0
 44
-2.54
 45
0.0
 49
-5.08
 74
     4
 75
   134
340
33
 46
2.54
 50
180.0
 44
2.54
 45
0.0
 49
-2.54
 74
     0
  0
LTYPE
  5
43
330
5
100
AcDbSymbolTableRecord
100
AcDbLinetypeTableRecord
  2
BORDER
 70
     0
  3
Border __ __ . __ __ . __ __ . __ __ . __ __ .
 72
    65
 73
     6
 40
44.45
 49
12.7
 74
     0
 49
-6.349999999999999
 74
     0
 49
12.7
 74
     0
 49
-6.349999999999999
 74
     0
 49
0.0
 74
     0
 49
-6.349999999999999
 74
     0
  0
LTYPE
  5
44
330
5
100
AcDbSymbolTableRecord
100
AcDbLinetypeTableRecord
  2
BORDER2
 70
     0
  3
Border (.5x) __.__.__.__.__.__.__.__.__.__.__.
 72
    65
 73
     6
 40
22.225
 49
6.349999999999999
 74
     0
 49
-3.174999999999999
 74
     0
 49
6.349999999999999
 74
     0
 49
-3.174999999999999
 74
     0
 49
0.0
 74
     0
 49
-3.174999999999999
 74
     0
  0
LTYPE
  5
45
330
5
100
AcDbSymbolTableRecord
100
AcDbLinetypeTableRecord
  2
BORDERX2
 70
     0
  3
Border (2x) ____  ____  .  ____  ____  .  ___
 72
    65
 73
     6
 40
88.9
 49
25.4
 74
     0
 49
-12.7
 74
     0
 49
25.4
 74
     0
 49
-12.7
 74
     0
 49
0.0
 74
     0
 49
-12.7
 74
     0
  0
LTYPE
  5
46
330
5
100
AcDbSymbolTableRecord
100
AcDbLinetypeTableRecord
  2
CENTER
 70
     0
  3
Center ____ _ ____ _ ____ _ ____ _ ____ _ ____
 72
    65
 73
     4
 40
50.8
 49
31.75
 74
     0
 49
-6.349999999999999
 74
     0
 49
6.349999999999999
 74
     0
 49
-6.349999999999999
 74
     0
  0
LTYPE
  5
47
330
5
100
AcDbSymbolTableRecord
100
AcDbLinetypeTableRecord
  2
CENTER2
 70
     0
  3
Center (.5x) ___ _ ___ _ ___ _ ___ _ ___ _ ___
 72
    65
 73
     4
 40
28.575
 49
19.05
 74
     0
 49
-3.174999999999999
 74
     0
 49
3.174999999999999
 74
     0
 49
-3.174999999999999
 74
     0
  0
LTYPE
  5
48
330
5
100
AcDbSymbolTableRecord
100
AcDbLinetypeTableRecord
  2
CENTERX2
 70
     0
  3
Center (2x) ________  __  ________  __  _____
 72
    65
 73
     4
 40
101.6
 49
63.5
 74
     0
 49
-12.7
 74
     0
 49
12.7
 74
     0
 49
-12.7
 74
     0
  0
LTYPE
  5
49
330
5
100
AcDbSymbolTableRecord
100
AcDbLinetypeTableRecord
  2
DASHDOT
 70
     0
  3
Dash dot __ . __ . __ . __ . __ . __ . __ . __
 72
    65
 73
     4
 40
25.4
 49
12.7
 74
     0
 49
-6.349999999999999
 74
     0
 49
0.0
 74
     0
 49
-6.349999999999999
 74
     0
  0
LTYPE
  5
4A
330
5
100
AcDbSymbolTableRecord
100
AcDbLinetypeTableRecord
  2
DASHDOT2
 70
     0
  3
Dash dot (.5x) _._._._._._._._._._._._._._._.
 72
    65
 73
     4
 40
12.7
 49
6.349999999999999
 74
     0
 49
-3.174999999999999
 74
     0
 49
0.0
 74
     0
 49
-3.174999999999999
 74
     0
  0
LTYPE
  5
4B
330
5
100
AcDbSymbolTableRecord
100
AcDbLinetypeTableRecord
  2
DASHDOTX2
 70
     0
  3
Dash dot (2x) ____  .  ____  .  ____  .  ___
 72
    65
 73
     4
 40
50.8
 49
25.4
 74
     0
 49
-12.7
 74
     0
 49
0.0
 74
     0
 49
-12.7
 74
     0
  0
LTYPE
  5
4C
330
5
100
AcDbSymbolTableRecord
100
AcDbLinetypeTableRecord
  2
DASHED
 70
     0
  3
Dashed __ __ __ __ __ __ __ __ __ __ __ __ __ _
 72
    65
 73
     2
 40
19.05
 49
12.7
 74
     0
 49
-6.349999999999999
 74
     0
  0
LTYPE
  5
4D
330
5
100
AcDbSymbolTableRecord
100
AcDbLinetypeTableRecord
  2
DASHED2
 70
     0
  3
Dashed (.5x) _ _ _ _ _ _ _ _ _ _ _ _ _ _ _ _ _
 72
    65
 73
     2
 40
9.524999999999998
 49
6.349999999999999
 74
     0
 49
-3.174999999999999
 74
     0
  0
LTYPE
  5
4E
330
5
100
AcDbSymbolTableRecord
100
AcDbLinetypeTableRecord
  2
DASHEDX2
 70
     0
  3
Dashed (2x) ____  ____  ____  ____  ____  ___
 72
    65
 73
     2
 40
38.1
 49
25.4
 74
     0
 49
-12.7
 74
     0
  0
LTYPE
  5
4F
330
5
100
AcDbSymbolTableRecord
100
AcDbLinetypeTableRecord
  2
DIVIDE
 70
     0
  3
Divide ____ . . ____ . . ____ . . ____ . . ____
 72
    65
 73
     6
 40
31.75
 49
12.7
 74
     0
 49
-6.349999999999999
 74
     0
 49
0.0
 74
     0
 49
-6.349999999999999
 74
     0
 49
0.0
 74
     0
 49
-6.349999999999999
 74
     0
  0
LTYPE
  5
50
330
5
100
AcDbSymbolTableRecord
100
AcDbLinetypeTableRecord
  2
DIVIDE2
 70
     0
  3
Divide (.5x) __..__..__..__..__..__..__..__.._
 72
    65
 73
     6
 40
15.875
 49
6.349999999999999
 74
     0
 49
-3.174999999999999
 74
     0
 49
0.0
 74
     0
 49
-3.174999999999999
 74
     0
 49
0.0
 74
     0
 49
-3.174999999999999
 74
     0
  0
LTYPE
  5
51
330
5
100
AcDbSymbolTableRecord
100
AcDbLinetypeTableRecord
  2
DIVIDEX2
 70
     0
  3
Divide (2x) ________  .  .  ________  .  .  _
 72
    65
 73
     6
 40
63.49999999999999
 49
25.4
 74
     0
 49
-12.7
 74
     0
 49
0.0
 74
     0
 49
-12.7
 74
     0
 49
0.0
 74
     0
 49
-12.7
 74
     0
  0
LTYPE
  5
52
330
5
100
AcDbSymbolTableRecord
100
AcDbLinetypeTableRecord
  2
DOT
 70
     0
  3
Dot . . . . . . . . . . . . . . . . . . . . . .
 72
    65
 73
     2
 40
6.349999999999999
 49
0.0
 74
     0
 49
-6.349999999999999
 74
     0
  0
LTYPE
  5
53
330
5
100
AcDbSymbolTableRecord
100
AcDbLinetypeTableRecord
  2
DOT2
 70
     0
  3
Dot (.5x) .....................................
 72
    65
 73
     2
 40
3.174999999999999
 49
0.0
 74
     0
 49
-3.174999999999999
 74
     0
  0
LTYPE
  5
54
330
5
100
AcDbSymbolTableRecord
100
AcDbLinetypeTableRecord
  2
DOTX2
 70
     0
  3
Dot (2x) .  .  .  .  .  .  .  .  .  .  .  .  . 
 72
    65
 73
     2
 40
12.7
 49
0.0
 74
     0
 49
-12.7
 74
     0
  0
LTYPE
  5
55
330
5
100
AcDbSymbolTableRecord
100
AcDbLinetypeTableRecord
  2
FENCELINE1
 70
     0
  3
Fenceline circle ----0-----0----0-----0----0---
 72
    65
 73
     4
 40
36.83
 49
6.349999999999999
 74
     0
 49
-2.54
 74
     4
 75
   133
340
33
 46
2.54
 50
0.0
 44
-2.54
 45
0.0
 49
-2.54
 74
     0
 49
25.4
 74
     0
  0
LTYPE
  5
56
330
5
100
AcDbSymbolTableRecord
100
AcDbLinetypeTableRecord
  2
FENCELINE2
 70
     0
  3
Fenceline square ----[]-----[]----[]-----[]----
 72
    65
 73
     4
 40
36.83
 49
6.349999999999999
 74
     0
 49
-2.54
 74
     4
 75
   132
340
33
 46
2.54
 50
0.0
 44
-2.54
 45
0.0
 49
-2.54
 74
     0
 49
25.4
 74
     0
  0
LTYPE
  5
57
330
5
100
AcDbSymbolTableRecord
100
AcDbLinetypeTableRecord
  2
GAS_LINE
 70
     0
  3
Gas line ----GAS----GAS----GAS----GAS----GAS---
 72
    65
 73
     3
 40
24.13
 49
12.7
 74
     0
 49
-5.08
 74
     2
 75
     0
340
11
 46
2.54
 50
0.0
 44
-2.54
 45
-1.27
  9
GAS
 49
-6.349999999999999
 74
     0
  0
LTYPE
  5
58
330
5
100
AcDbSymbolTableRecord
100
AcDbLinetypeTableRecord
  2
HIDDEN
 70
     0
  3
Hidden __ __ __ __ __ __ __ __ __ __ __ __ __ _
 72
    65
 73
     2
 40
9.524999999999998
 49
6.349999999999999
 74
     0
 49
-3.174999999999999
 74
     0
  0
LTYPE
  5
59
330
5
100
AcDbSymbolTableRecord
100
AcDbLinetypeTableRecord
  2
HIDDEN2
 70
     0
  3
Hidden (.5x) _ _ _ _ _ _ _ _ _ _ _ _ _ _ _ _ _
 72
    65
 73
     2
 40
4.762499999999999
 49
3.174999999999999
 74
     0
 49
-1.587499999999999
 74
     0
  0
LTYPE
  5
5A
330
5
100
AcDbSymbolTableRecord
100
AcDbLinetypeTableRecord
  2
HIDDENX2
 70
     0
  3
Hidden (2x) ____ ____ ____ ____ ____ ____ ____
 72
    65
 73
     2
 40
19.05
 49
12.7
 74
     0
 49
-6.349999999999999
 74
     0
  0
LTYPE
  5
5B
330
5
100
AcDbSymbolTableRecord
100
AcDbLinetypeTableRecord
  2
HOT_WATER_SUPPLY
 70
     0
  3
Hot water supply ---- HW ---- HW ---- HW ----
 72
    65
 73
     3
 40
22.86
 49
12.7
 74
     0
 49
-5.08
 74
     2
 75
     0
340
11
 46
2.54
 50
0.0
 44
-2.54
 45
-1.27
  9
HW
 49
-5.08
 74
     0
  0
LTYPE
  5
5C
330
5
100
AcDbSymbolTableRecord
100
AcDbLinetypeTableRecord
  2
PHANTOM
 70
     0
  3
Phantom ______  __  __  ______  __  __  ______
 72
    65
 73
     6
 40
63.5
 49
31.75
 74
     0
 49
-6.349999999999999
 74
     0
 49
6.349999999999999
 74
     0
 49
-6.349999999999999
 74
     0
 49
6.349999999999999
 74
     0
 49
-6.349999999999999
 74
     0
  0
LTYPE
  5
5D
330
5
100
AcDbSymbolTableRecord
100
AcDbLinetypeTableRecord
  2
PHANTOM2
 70
     0
  3
Phantom (.5x) ___ _ _ ___ _ _ ___ _ _ ___ _ _
 72
    65
 73
     6
 40
31.75
 49
15.875
 74
     0
 49
-3.174999999999999
 74
     0
 49
3.174999999999999
 74
     0
 49
-3.174999999999999
 74
     0
 49
3.174999999999999
 74
     0
 49
-3.174999999999999
 74
     0
  0
LTYPE
  5
5E
330
5
100
AcDbSymbolTableRecord
100
AcDbLinetypeTableRecord
  2
PHANTOMX2
 70
     0
  3
Phantom (2x) ____________    ____    ____   _
 72
    65
 73
     6
 40
127.0
 49
63.5
 74
     0
 49
-12.7
 74
     0
 49
12.7
 74
     0
 49
-12.7
 74
     0
 49
12.7
 74
     0
 49
-12.7
 74
     0
  0
LTYPE
  5
5F
330
5
100
AcDbSymbolTableRecord
100
AcDbLinetypeTableRecord
  2
TRACKS
 70
     0
  3
Tracks -|-|-|-|-|-|-|-|-|-|-|-|-|-|-|-|-|-|-|-|
 72
    65
 73
     2
 40
7.62
 49
3.81
 74
     4
 75
   130
340
33
 46
6.349999999999999
 50
0.0
 44
0.0
 45
0.0
 49
3.81
 74
     0
  0
LTYPE
  5
60
330
5
100
AcDbSymbolTableRecord
100
AcDbLinetypeTableRecord
  2
ZIGZAG
 70
     0
  3
Zig zag /\/\/\/\/\/\/\/\/\/\/\/\/\/\/\/\/\/\/\/
 72
    65
 73
     4
 40
20.32254
 49
0.00254
 74
     0
 49
-5.08
 74
     4
 75
   131
340
33
 46
5.08
 50
0.0
 44
-5.08
 45
0.0
 49
-10.16
 74
     4
 75
   131
340
33
 46
5.08
 50
180.0
 44
5.08
 45
0.0
 49
-5.08
 74
     0
  0
ENDTAB
  0
TABLE
  2
LAYER
  5
2
102
{ACAD_XDICTIONARY
360
2469
102
}
330
0
100
AcDbSymbolTable
 70
     9
  0
LAYER
  5
10
330
2
100
AcDbSymbolTableRecord
100
AcDbLayerTableRecord
  2
0
 70
     0
 62
     7
  6
Continuous
370
    -3
390
F
  0
LAYER
  5
C3
330
2
100
AcDbSymbolTableRecord
100
AcDbLayerTableRecord
  2
Defpoints
 70
     0
 62
     7
  6
Continuous
290
     0
370
    -3
390
F
  0
LAYER
  5
256
330
2
100
AcDbSymbolTableRecord
100
AcDbLayerTableRecord
  2
センター
 70
     0
 62
     7
  6
CENTER2
370
    18
390
F
  0
LAYER
  5
268
330
2
100
AcDbSymbolTableRecord
100
AcDbLayerTableRecord
  2
実形
 70
     0
 62
     7
  6
Continuous
370
    -3
390
F
  0
LAYER
  5
269
330
2
100
AcDbSymbolTableRecord
100
AcDbLayerTableRecord
  2
補助
 70
     0
 62
     7
  6
Continuous
370
    -3
390
F
  0
LAYER
  5
26A
330
2
100
AcDbSymbolTableRecord
100
AcDbLayerTableRecord
  2
寸法
 70
     0
 62
     7
  6
Continuous
370
    18
390
F
  0
LAYER
  5
26B
330
2
100
AcDbSymbolTableRecord
100
AcDbLayerTableRecord
  2
ハッチング
 70
     0
 62
     7
  6
Continuous
370
    18
390
F
  0
LAYER
  5
26D
330
2
100
AcDbSymbolTableRecord
100
AcDbLayerTableRecord
  2
文字
 70
     0
 62
     7
  6
Continuous
370
    -3
390
F
  0
LAYER
  5
221A
330
2
100
AcDbSymbolTableRecord
100
AcDbLayerTableRecord
  2
Cen
 70
     0
 62
     7
  6
CENTER2
370
    15
390
F
  0
ENDTAB
  0
TABLE
  2
STYLE
  5
3
330
0
100
AcDbSymbolTable
 70
     3
  0
STYLE
  5
11
330
3
100
AcDbSymbolTableRecord
100
AcDbTextStyleTableRecord
  2
Standard
 70
     0
 40
0.0
 41
1.0
 50
0.0
 71
     0
 42
25.0
  3
txt.shx
  4
bigfont.shx
  0
STYLE
  5
33
330
3
100
AcDbSymbolTableRecord
100
AcDbTextStyleTableRecord
  2

 70
     1
 40
0.0
 41
1.0
 50
0.0
 71
     0
 42
2.5
  3
ltypeshp.shx
  4

  0
STYLE
  5
246C
330
3
100
AcDbSymbolTableRecord
100
AcDbTextStyleTableRecord
  2
明朝
 70
     0
 40
0.0
 41
1.0
 50
0.0
 71
     0
 42
25.0
  3
MS Mincho.ttf
  4

1001
ACAD
1000
MS Mincho
1071
    32785
  0
ENDTAB
  0
TABLE
  2
VIEW
  5
6
330
0
100
AcDbSymbolTable
 70
     0
  0
ENDTAB
  0
TABLE
  2
UCS
  5
7
330
0
100
AcDbSymbolTable
 70
     0
  0
ENDTAB
  0
TABLE
  2
APPID
  5
9
330
0
100
AcDbSymbolTable
 70
     1
  0
APPID
  5
12
330
9
100
AcDbSymbolTableRecord
100
AcDbRegAppTableRecord
  2
ACAD
 70
     0
  0
ENDTAB
  0
TABLE
  2
DIMSTYLE
  5
A
330
0
100
AcDbSymbolTable
 70
     1
100
AcDbDimStyleTable
 71
     1
340
27
  0
DIMSTYLE
105
27
102
{ACAD_REACTORS
330
368
330
44B
330
458
330
4A3
330
4BE
330
4CC
330
532
330
548
330
569
330
57F
330
35B
330
3CE
330
3DC
330
3F6
330
4F8
330
505
330
173D
330
17AE
330
2026
330
2034
330
2041
330
204F
330
205C
330
206A
102
}
330
A
100
AcDbSymbolTableRecord
100
AcDbDimStyleTableRecord
  2
ISO-25
 70
     0
 41
35.0
 42
65.0
 43
3.75
 44
0.0
 73
     0
 74
     0
 77
     1
 78
     8
140
25.0
141
2.5
143
0.03937007874016
147
6.25
171
     3
172
     1
271
     2
272
     2
274
     3
283
     0
284
     8
340
11
341
DA
342
D0
371
    15
372
    15
  0
ENDTAB
  0
TABLE
  2
BLOCK_RECORD
  5
1
330
0
100
AcDbSymbolTable
 70
    28
  0
BLOCK_RECORD
  5
1F
102
{ACAD_XDICTIONARY
360
2494
102
}
330
1
100
AcDbSymbolTableRecord
100
AcDbBlockTableRecord
  2
*Model_Space
340
22
  0
BLOCK_RECORD
  5
1B
330
1
100
AcDbSymbolTableRecord
100
AcDbBlockTableRecord
  2
*Paper_Space
340
1E
  0
BLOCK_RECORD
  5
23
330
1
100
AcDbSymbolTableRecord
100
AcDbBlockTableRecord
  2
*Paper_Space0
340
26
  0
BLOCK_RECORD
  5
D0
330
1
100
AcDbSymbolTableRecord
100
AcDbBlockTableRecord
  2
_DotSmall
340
0
102
{BLKREFS
331
2159
331
215A
331
2162
331
2163
331
216B
331
216C
331
2174
331
2175
331
21F2
331
21F3
331
22CB
331
22CC
331
22D4
331
22D5
331
2345
331
2346
331
234E
331
234F
331
2357
331
2358
331
2360
331
2361
331
236E
331
236F
331
2377
331
2378
331
238A
331
238B
331
239B
331
239C
331
23B6
331
23B7
331
23D2
331
23D3
331
23E4
331
23E5
331
23F5
331
23F6
331
23FF
331
2400
331
241A
331
241B
331
242C
331
242D
331
2435
331
2436
331
2444
331
2445
102
}
  0
BLOCK_RECORD
  5
D4
330
1
100
AcDbSymbolTableRecord
100
AcDbBlockTableRecord
  2
_Origin2
340
0
  0
BLOCK_RECORD
  5
DA
330
1
100
AcDbSymbolTableRecord
100
AcDbBlockTableRecord
  2
_Open30
340
0
  0
BLOCK_RECORD
  5
35C
330
1
100
AcDbSymbolTableRecord
100
AcDbBlockTableRecord
  2
*D4
340
0
  0
BLOCK_RECORD
  5
369
330
1
100
AcDbSymbolTableRecord
100
AcDbBlockTableRecord
  2
*D5
340
0
  0
BLOCK_RECORD
  5
3CF
330
1
100
AcDbSymbolTableRecord
100
AcDbBlockTableRecord
  2
*D6
340
0
  0
BLOCK_RECORD
  5
3DD
330
1
100
AcDbSymbolTableRecord
100
AcDbBlockTableRecord
  2
*D7
340
0
  0
BLOCK_RECORD
  5
3F7
330
1
100
AcDbSymbolTableRecord
100
AcDbBlockTableRecord
  2
*D8
340
0
  0
BLOCK_RECORD
  5
44C
330
1
100
AcDbSymbolTableRecord
100
AcDbBlockTableRecord
  2
*D9
340
0
  0
BLOCK_RECORD
  5
459
330
1
100
AcDbSymbolTableRecord
100
AcDbBlockTableRecord
  2
*D10
340
0
  0
BLOCK_RECORD
  5
4A4
330
1
100
AcDbSymbolTableRecord
100
AcDbBlockTableRecord
  2
*D11
340
0
  0
BLOCK_RECORD
  5
4BF
330
1
100
AcDbSymbolTableRecord
100
AcDbBlockTableRecord
  2
*D12
340
0
  0
BLOCK_RECORD
  5
4CD
330
1
100
AcDbSymbolTableRecord
100
AcDbBlockTableRecord
  2
*D13
340
0
  0
BLOCK_RECORD
  5
4F9
330
1
100
AcDbSymbolTableRecord
100
AcDbBlockTableRecord
  2
*D14
340
0
  0
BLOCK_RECORD
  5
506
330
1
100
AcDbSymbolTableRecord
100
AcDbBlockTableRecord
  2
*D15
340
0
  0
BLOCK_RECORD
  5
533
330
1
100
AcDbSymbolTableRecord
100
AcDbBlockTableRecord
  2
*D16
340
0
  0
BLOCK_RECORD
  5
549
330
1
100
AcDbSymbolTableRecord
100
AcDbBlockTableRecord
  2
*D17
340
0
  0
BLOCK_RECORD
  5
56A
330
1
100
AcDbSymbolTableRecord
100
AcDbBlockTableRecord
  2
*D18
340
0
  0
BLOCK_RECORD
  5
580
330
1
100
AcDbSymbolTableRecord
100
AcDbBlockTableRecord
  2
*D19
340
0
  0
BLOCK_RECORD
  5
173E
330
1
100
AcDbSymbolTableRecord
100
AcDbBlockTableRecord
  2
*D20
340
0
  0
BLOCK_RECORD
  5
17AF
330
1
100
AcDbSymbolTableRecord
100
AcDbBlockTableRecord
  2
*D21
340
0
  0
BLOCK_RECORD
  5
2027
330
1
100
AcDbSymbolTableRecord
100
AcDbBlockTableRecord
  2
*D22
340
0
  0
BLOCK_RECORD
  5
2035
330
1
100
AcDbSymbolTableRecord
100
AcDbBlockTableRecord
  2
*D23
340
0
  0
BLOCK_RECORD
  5
2042
330
1
100
AcDbSymbolTableRecord
100
AcDbBlockTableRecord
  2
*D24
340
0
  0
BLOCK_RECORD
  5
2050
330
1
100
AcDbSymbolTableRecord
100
AcDbBlockTableRecord
  2
*D25
340
0
  0
BLOCK_RECORD
  5
205D
330
1
100
AcDbSymbolTableRecord
100
AcDbBlockTableRecord
  2
*D26
340
0
  0
BLOCK_RECORD
  5
206B
330
1
100
AcDbSymbolTableRecord
100
AcDbBlockTableRecord
  2
*D27
340
0
  0
ENDTAB
  0
ENDSEC
  0
SECTION
  2
BLOCKS
  0
BLOCK
  5
20
330
1F
100
AcDbEntity
  8
0
100
AcDbBlockBegin
  2
*Model_Space
 70
     0
 10
0.0
 20
0.0
 30
0.0
  3
*Model_Space
  1

  0
ENDBLK
  5
21
330
1F
100
AcDbEntity
  8
0
100
AcDbBlockEnd
  0
BLOCK
  5
1C
330
1B
100
AcDbEntity
 67
     1
  8
0
100
AcDbBlockBegin
  2
*Paper_Space
 70
     0
 10
0.0
 20
0.0
 30
0.0
  3
*Paper_Space
  1

  0
ENDBLK
  5
1D
330
1B
100
AcDbEntity
 67
     1
  8
0
100
AcDbBlockEnd
  0
BLOCK
  5
24
330
23
100
AcDbEntity
  8
0
100
AcDbBlockBegin
  2
*Paper_Space0
 70
     0
 10
0.0
 20
0.0
 30
0.0
  3
*Paper_Space0
  1

  0
ENDBLK
  5
25
330
23
100
AcDbEntity
  8
0
100
AcDbBlockEnd
  0
BLOCK
  5
D2
330
D0
100
AcDbEntity
  8
0
100
AcDbBlockBegin
  2
_DotSmall
 70
     0
 10
0.0
 20
0.0
 30
0.0
  3
_DotSmall
  1

  0
LWPOLYLINE
  5
D1
330
D0
100
AcDbEntity
  8
0
 62
     0
100
AcDbPolyline
 90
        2
 70
     1
 43
0.5
 10
-0.0625
 20
0.0
 42
1.0
 10
0.0625
 20
0.0
 42
1.0
  0
ENDBLK
  5
D3
330
D0
100
AcDbEntity
  8
0
100
AcDbBlockEnd
  0
BLOCK
  5
D8
330
D4
100
AcDbEntity
  8
0
100
AcDbBlockBegin
  2
_Origin2
 70
     0
 10
0.0
 20
0.0
 30
0.0
  3
_Origin2
  1

  0
CIRCLE
  5
D5
330
D4
100
AcDbEntity
  8
0
 62
     0
370
    -2
100
AcDbCircle
 10
0.0
 20
0.0
 30
0.0
 40
0.5
  0
CIRCLE
  5
D6
330
D4
100
AcDbEntity
  8
0
 62
     0
370
    -2
100
AcDbCircle
 10
0.0
 20
0.0
 30
0.0
 40
0.25
  0
LINE
  5
D7
330
D4
100
AcDbEntity
  8
0
 62
     0
370
    -2
100
AcDbLine
 10
-0.5
 20
0.0
 30
0.0
 11
-1.0
 21
0.0
 31
0.0
  0
ENDBLK
  5
D9
330
D4
100
AcDbEntity
  8
0
100
AcDbBlockEnd
  0
BLOCK
  5
DE
330
DA
100
AcDbEntity
  8
0
100
AcDbBlockBegin
  2
_Open30
 70
     0
 10
0.0
 20
0.0
 30
0.0
  3
_Open30
  1

  0
LINE
  5
DB
330
DA
100
AcDbEntity
  8
0
 62
     0
370
    -2
100
AcDbLine
 10
-1.0
 20
0.26794919
 30
0.0
 11
0.0
 21
0.0
 31
0.0
  0
LINE
  5
DC
330
DA
100
AcDbEntity
  8
0
 62
     0
370
    -2
100
AcDbLine
 10
0.0
 20
0.0
 30
0.0
 11
-1.0
 21
-0.26794919
 31
0.0
  0
LINE
  5
DD
330
DA
100
AcDbEntity
  8
0
 62
     0
370
    -2
100
AcDbLine
 10
0.0
 20
0.0
 30
0.0
 11
-1.0
 21
0.0
 31
0.0
  0
ENDBLK
  5
DF
330
DA
100
AcDbEntity
  8
0
100
AcDbBlockEnd
  0
BLOCK
  5
366
330
35C
100
AcDbEntity
  8
0
100
AcDbBlockBegin
  2
*D4
 70
     1
 10
0.0
 20
0.0
 30
0.0
  3
*D4
  1

  0
LINE
  5
2168
330
35C
100
AcDbEntity
  8
実形
 62
     0
370
    15
100
AcDbLine
 10
979.6488149828874
 20
1501.652252734133
 30
0.0
 11
979.6488149828874
 21
1712.449688985941
 31
0.0
  0
LINE
  5
2169
330
35C
100
AcDbEntity
  8
実形
 62
     0
370
    15
100
AcDbLine
 10
794.6488149828874
 20
1655.834718079512
 30
0.0
 11
794.6488149828874
 21
1712.449688985941
 31
0.0
  0
LINE
  5
216A
330
35C
100
AcDbEntity
  8
実形
 62
     0
370
    18
100
AcDbLine
 10
979.6488149828874
 20
1712.449688985941
 30
0.0
 11
794.6488149828874
 21
1712.449688985941
 31
0.0
  0
INSERT
  5
216B
330
35C
100
AcDbEntity
  8
実形
 62
     0
370
    18
100
AcDbBlockReference
  2
_DotSmall
 10
979.6488149828874
 20
1712.449688985941
 30
0.0
 41
35.0
 42
35.0
 43
35.0
  0
INSERT
  5
216C
330
35C
100
AcDbEntity
  8
実形
 62
     0
370
    18
100
AcDbBlockReference
  2
_DotSmall
 10
794.6488149828874
 20
1712.449688985941
 30
0.0
 41
35.0
 42
35.0
 43
35.0
 50
180.0
  0
MTEXT
  5
216D
330
35C
100
AcDbEntity
  8
実形
 62
     0
100
AcDbMText
 10
887.1488149828874
 20
1731.199688985941
 30
0.0
 40
25.0
 41
0.0
 71
     5
 72
     1
  1
185
 73
     1
 44
1.0
1001
ACAD
1000
MTEXTBEGIN
1070
    73
1070
     1
1070
    44
1040
1.0
1070
    74
1070
     0
1000
MTEXTEND
  0
POINT
  5
216E
330
35C
100
AcDbEntity
  8
Defpoints
 62
     0
100
AcDbPoint
 10
979.6488149828874
 20
1436.652252734133
 30
0.0
  0
POINT
  5
216F
330
35C
100
AcDbEntity
  8
Defpoints
 62
     0
100
AcDbPoint
 10
794.6488149828874
 20
1590.834718079512
 30
0.0
  0
POINT
  5
2170
330
35C
100
AcDbEntity
  8
Defpoints
 62
     0
100
AcDbPoint
 10
794.6488149828874
 20
1712.449688985941
 30
0.0
  0
ENDBLK
  5
367
330
35C
100
AcDbEntity
  8
0
100
AcDbBlockEnd
  0
BLOCK
  5
373
330
369
100
AcDbEntity
  8
0
100
AcDbBlockBegin
  2
*D5
 70
     1
 10
0.0
 20
0.0
 30
0.0
  3
*D5
  1

  0
LINE
  5
2441
330
369
100
AcDbEntity
  8
実形
 62
     0
370
    15
100
AcDbLine
 10
1620.388457052451
 20
1108.152252734133
 30
0.0
 11
1677.251827601869
 21
1108.152252734133
 31
0.0
  0
LINE
  5
2442
330
369
100
AcDbEntity
  8
実形
 62
     0
370
    15
100
AcDbLine
 10
1479.648814982887
 20
1348.152252734133
 30
0.0
 11
1677.251827601869
 21
1348.152252734133
 31
0.0
  0
LINE
  5
2443
330
369
100
AcDbEntity
  8
実形
 62
     0
370
    18
100
AcDbLine
 10
1677.251827601869
 20
1108.152252734133
 30
0.0
 11
1677.251827601869
 21
1348.152252734133
 31
0.0
  0
INSERT
  5
2444
330
369
100
AcDbEntity
  8
実形
 62
     0
370
    18
100
AcDbBlockReference
  2
_DotSmall
 10
1677.251827601869
 20
1108.152252734133
 30
0.0
 41
35.0
 42
35.0
 43
35.0
 50
270.0
  0
INSERT
  5
2445
330
369
100
AcDbEntity
  8
実形
 62
     0
370
    18
100
AcDbBlockReference
  2
_DotSmall
 10
1677.251827601869
 20
1348.152252734133
 30
0.0
 41
35.0
 42
35.0
 43
35.0
 50
90.0
  0
MTEXT
  5
2446
330
369
100
AcDbEntity
  8
実形
 62
     0
100
AcDbMText
 10
1658.501827601869
 20
1228.152252734133
 30
0.0
 40
25.0
 41
0.0
 71
     5
 72
     1
  1
240
 11
0.0000000000000001
 21
1.0
 31
0.0
 73
     1
 44
1.0
1001
ACAD
1000
MTEXTBEGIN
1070
    73
1070
     1
1070
    44
1040
1.0
1070
    74
1070
     0
1000
MTEXTEND
  0
POINT
  5
2447
330
369
100
AcDbEntity
  8
Defpoints
 62
     0
100
AcDbPoint
 10
1555.388457052451
 20
1108.152252734133
 30
0.0
  0
POINT
  5
2448
330
369
100
AcDbEntity
  8
Defpoints
 62
     0
100
AcDbPoint
 10
1414.648814982887
 20
1348.152252734133
 30
0.0
  0
POINT
  5
2449
330
369
100
AcDbEntity
  8
Defpoints
 62
     0
100
AcDbPoint
 10
1677.251827601869
 20
1348.152252734133
 30
0.0
  0
ENDBLK
  5
374
330
369
100
AcDbEntity
  8
0
100
AcDbBlockEnd
  0
BLOCK
  5
3DA
330
3CF
100
AcDbEntity
  8
0
100
AcDbBlockBegin
  2
*D6
 70
     1
 10
0.0
 20
0.0
 30
0.0
  3
*D6
  1

  0
LINE
  5
23B3
330
3CF
100
AcDbEntity
  8
実形
 62
     0
370
    15
100
AcDbLine
 10
747.6488149828874
 20
1638.152252734133
 30
0.0
 11
614.6488149828874
 21
1638.152252734133
 31
0.0
  0
LINE
  5
23B4
330
3CF
100
AcDbEntity
  8
実形
 62
     0
370
    15
100
AcDbLine
 10
749.6488149828874
 20
1553.152252734133
 30
0.0
 11
614.6488149828874
 21
1553.152252734133
 31
0.0
  0
LINE
  5
23B5
330
3CF
100
AcDbEntity
  8
実形
 62
     0
370
    18
100
AcDbLine
 10
614.6488149828874
 20
1638.152252734133
 30
0.0
 11
614.6488149828874
 21
1553.152252734133
 31
0.0
  0
INSERT
  5
23B6
330
3CF
100
AcDbEntity
  8
実形
 62
     0
370
    18
100
AcDbBlockReference
  2
_DotSmall
 10
614.6488149828874
 20
1638.152252734133
 30
0.0
 41
35.0
 42
35.0
 43
35.0
 50
90.0
  0
INSERT
  5
23B7
330
3CF
100
AcDbEntity
  8
実形
 62
     0
370
    18
100
AcDbBlockReference
  2
_DotSmall
 10
614.6488149828874
 20
1553.152252734133
 30
0.0
 41
35.0
 42
35.0
 43
35.0
 50
270.0
  0
MTEXT
  5
23B8
330
3CF
100
AcDbEntity
  8
実形
 62
     0
100
AcDbMText
 10
595.8988149828871
 20
1595.652252734133
 30
0.0
 40
25.0
 41
0.0
 71
     5
 72
     1
  1
85
 11
0.0000000000000001
 21
1.0
 31
0.0
 73
     1
 44
1.0
1001
ACAD
1000
MTEXTBEGIN
1070
    73
1070
     1
1070
    44
1040
1.0
1070
    74
1070
     0
1000
MTEXTEND
  0
POINT
  5
23B9
330
3CF
100
AcDbEntity
  8
Defpoints
 62
     0
100
AcDbPoint
 10
812.6488149828874
 20
1638.152252734133
 30
0.0
  0
POINT
  5
23BA
330
3CF
100
AcDbEntity
  8
Defpoints
 62
     0
100
AcDbPoint
 10
814.6488149828874
 20
1553.152252734133
 30
0.0
  0
POINT
  5
23BB
330
3CF
100
AcDbEntity
  8
Defpoints
 62
     0
100
AcDbPoint
 10
614.6488149828874
 20
1553.152252734133
 30
0.0
  0
ENDBLK
  5
3DB
330
3CF
100
AcDbEntity
  8
0
100
AcDbBlockEnd
  0
BLOCK
  5
3E7
330
3DD
100
AcDbEntity
  8
0
100
AcDbBlockBegin
  2
*D7
 70
     1
 10
0.0
 20
0.0
 30
0.0
  3
*D7
  1

  0
LINE
  5
23F2
330
3DD
100
AcDbEntity
  8
実形
 62
     0
370
    15
100
AcDbLine
 10
749.6488149828874
 20
1553.152252734133
 30
0.0
 11
614.6488149828875
 21
1553.152252734133
 31
0.0
  0
LINE
  5
23F3
330
3DD
100
AcDbEntity
  8
実形
 62
     0
370
    15
100
AcDbLine
 10
749.6488149828874
 20
1143.152252734133
 30
0.0
 11
614.6488149828874
 21
1143.152252734133
 31
0.0
  0
LINE
  5
23F4
330
3DD
100
AcDbEntity
  8
実形
 62
     0
370
    18
100
AcDbLine
 10
614.6488149828875
 20
1553.152252734133
 30
0.0
 11
614.6488149828874
 21
1143.152252734133
 31
0.0
  0
INSERT
  5
23F5
330
3DD
100
AcDbEntity
  8
実形
 62
     0
370
    18
100
AcDbBlockReference
  2
_DotSmall
 10
614.6488149828875
 20
1553.152252734133
 30
0.0
 41
35.0
 42
35.0
 43
35.0
 50
90.0
  0
INSERT
  5
23F6
330
3DD
100
AcDbEntity
  8
実形
 62
     0
370
    18
100
AcDbBlockReference
  2
_DotSmall
 10
614.6488149828874
 20
1143.152252734133
 30
0.0
 41
35.0
 42
35.0
 43
35.0
 50
270.0
  0
MTEXT
  5
23F7
330
3DD
100
AcDbEntity
  8
実形
 62
     0
100
AcDbMText
 10
595.8988149828873
 20
1348.152252734133
 30
0.0
 40
25.0
 41
0.0
 71
     5
 72
     1
  1
410
 11
0.0000000000000001
 21
1.0
 31
0.0
 73
     1
 44
1.0
1001
ACAD
1000
MTEXTBEGIN
1070
    73
1070
     1
1070
    44
1040
1.0
1070
    74
1070
     0
1000
MTEXTEND
  0
POINT
  5
23F8
330
3DD
100
AcDbEntity
  8
Defpoints
 62
     0
100
AcDbPoint
 10
814.6488149828874
 20
1553.152252734133
 30
0.0
  0
POINT
  5
23F9
330
3DD
100
AcDbEntity
  8
Defpoints
 62
     0
100
AcDbPoint
 10
814.6488149828874
 20
1143.152252734133
 30
0.0
  0
POINT
  5
23FA
330
3DD
100
AcDbEntity
  8
Defpoints
 62
     0
100
AcDbPoint
 10
614.6488149828874
 20
1143.152252734133
 30
0.0
  0
ENDBLK
  5
3E8
330
3DD
100
AcDbEntity
  8
0
100
AcDbBlockEnd
  0
BLOCK
  5
401
330
3F7
100
AcDbEntity
  8
0
100
AcDbBlockBegin
  2
*D8
 70
     1
 10
0.0
 20
0.0
 30
0.0
  3
*D8
  1

  0
LINE
  5
2171
330
3F7
100
AcDbEntity
  8
実形
 62
     0
370
    15
100
AcDbLine
 10
747.6488149828874
 20
1638.152252734133
 30
0.0
 11
544.6488149828875
 21
1638.152252734133
 31
0.0
  0
LINE
  5
2172
330
3F7
100
AcDbEntity
  8
実形
 62
     0
370
    15
100
AcDbLine
 10
747.6488149828874
 20
1108.152252734133
 30
0.0
 11
544.6488149828874
 21
1108.152252734133
 31
0.0
  0
LINE
  5
2173
330
3F7
100
AcDbEntity
  8
実形
 62
     0
370
    18
100
AcDbLine
 10
544.6488149828875
 20
1638.152252734133
 30
0.0
 11
544.6488149828874
 21
1108.152252734133
 31
0.0
  0
INSERT
  5
2174
330
3F7
100
AcDbEntity
  8
実形
 62
     0
370
    18
100
AcDbBlockReference
  2
_DotSmall
 10
544.6488149828875
 20
1638.152252734133
 30
0.0
 41
35.0
 42
35.0
 43
35.0
 50
90.0
  0
INSERT
  5
2175
330
3F7
100
AcDbEntity
  8
実形
 62
     0
370
    18
100
AcDbBlockReference
  2
_DotSmall
 10
544.6488149828874
 20
1108.152252734133
 30
0.0
 41
35.0
 42
35.0
 43
35.0
 50
270.0
  0
MTEXT
  5
2176
330
3F7
100
AcDbEntity
  8
実形
 62
     0
100
AcDbMText
 10
525.8988149828873
 20
1373.152252734133
 30
0.0
 40
25.0
 41
0.0
 71
     5
 72
     1
  1
530
 11
0.0000000000000001
 21
1.0
 31
0.0
 73
     1
 44
1.0
1001
ACAD
1000
MTEXTBEGIN
1070
    73
1070
     1
1070
    44
1040
1.0
1070
    74
1070
     0
1000
MTEXTEND
  0
POINT
  5
2177
330
3F7
100
AcDbEntity
  8
Defpoints
 62
     0
100
AcDbPoint
 10
812.6488149828874
 20
1638.152252734133
 30
0.0
  0
POINT
  5
2178
330
3F7
100
AcDbEntity
  8
Defpoints
 62
     0
100
AcDbPoint
 10
812.6488149828874
 20
1108.152252734133
 30
0.0
  0
POINT
  5
2179
330
3F7
100
AcDbEntity
  8
Defpoints
 62
     0
100
AcDbPoint
 10
544.6488149828874
 20
1108.152252734133
 30
0.0
  0
ENDBLK
  5
402
330
3F7
100
AcDbEntity
  8
0
100
AcDbBlockEnd
  0
BLOCK
  5
456
330
44C
100
AcDbEntity
  8
0
100
AcDbBlockBegin
  2
*D9
 70
     1
 10
0.0
 20
0.0
 30
0.0
  3
*D9
  1

  0
LINE
  5
215F
330
44C
100
AcDbEntity
  8
実形
 62
     0
370
    15
100
AcDbLine
 10
829.6488149828872
 20
1058.656099115589
 30
0.0
 11
829.6488149828872
 21
928.152252734133
 31
0.0
  0
LINE
  5
2160
330
44C
100
AcDbEntity
  8
実形
 62
     0
370
    15
100
AcDbLine
 10
1559.648814982887
 20
1058.656099115589
 30
0.0
 11
1559.648814982887
 21
928.152252734133
 31
0.0
  0
LINE
  5
2161
330
44C
100
AcDbEntity
  8
実形
 62
     0
370
    18
100
AcDbLine
 10
829.6488149828872
 20
928.152252734133
 30
0.0
 11
1559.648814982887
 21
928.152252734133
 31
0.0
  0
INSERT
  5
2162
330
44C
100
AcDbEntity
  8
実形
 62
     0
370
    18
100
AcDbBlockReference
  2
_DotSmall
 10
829.6488149828872
 20
928.152252734133
 30
0.0
 41
35.0
 42
35.0
 43
35.0
 50
180.0
  0
INSERT
  5
2163
330
44C
100
AcDbEntity
  8
実形
 62
     0
370
    18
100
AcDbBlockReference
  2
_DotSmall
 10
1559.648814982887
 20
928.152252734133
 30
0.0
 41
35.0
 42
35.0
 43
35.0
  0
MTEXT
  5
2164
330
44C
100
AcDbEntity
  8
実形
 62
     0
100
AcDbMText
 10
1194.648814982887
 20
946.902252734133
 30
0.0
 40
25.0
 41
0.0
 71
     5
 72
     1
  1
730
 73
     1
 44
1.0
1001
ACAD
1000
MTEXTBEGIN
1070
    73
1070
     1
1070
    44
1040
1.0
1070
    74
1070
     0
1000
MTEXTEND
  0
POINT
  5
2165
330
44C
100
AcDbEntity
  8
Defpoints
 62
     0
100
AcDbPoint
 10
829.6488149828872
 20
1123.656099115589
 30
0.0
  0
POINT
  5
2166
330
44C
100
AcDbEntity
  8
Defpoints
 62
     0
100
AcDbPoint
 10
1559.648814982887
 20
1123.656099115589
 30
0.0
  0
POINT
  5
2167
330
44C
100
AcDbEntity
  8
Defpoints
 62
     0
100
AcDbPoint
 10
1559.648814982887
 20
928.152252734133
 30
0.0
  0
ENDBLK
  5
457
330
44C
100
AcDbEntity
  8
0
100
AcDbBlockEnd
  0
BLOCK
  5
465
330
459
100
AcDbEntity
  8
0
100
AcDbBlockBegin
  2
*D10
 70
     1
 10
0.0
 20
0.0
 30
0.0
  3
*D10
  1

  0
LINE
  5
21EE
330
459
100
AcDbEntity
  8
実形
 62
     0
370
    15
100
AcDbLine
 10
1559.648814982887
 20
1058.656099115589
 30
0.0
 11
1559.648814982887
 21
928.152252734133
 31
0.0
  0
LINE
  5
21EF
330
459
100
AcDbEntity
  8
実形
 62
     0
370
    15
100
AcDbLine
 10
1594.648814982887
 20
1061.152252734133
 30
0.0
 11
1594.648814982887
 21
928.152252734133
 31
0.0
  0
LINE
  5
21F0
330
459
100
AcDbEntity
  8
実形
 62
     0
370
    18
100
AcDbLine
 10
1559.648814982887
 20
928.152252734133
 30
0.0
 11
1594.648814982887
 21
928.152252734133
 31
0.0
  0
MTEXT
  5
21F1
330
459
100
AcDbEntity
  8
実形
 62
     0
100
AcDbMText
 10
1526.971148193968
 20
948.1131118031163
 30
0.0
 40
25.0
 41
0.0
 71
     5
 72
     1
  1
35
 73
     1
 44
1.0
1001
ACAD
1000
MTEXTBEGIN
1070
    73
1070
     1
1070
    44
1040
1.0
1070
    74
1070
     0
1000
MTEXTEND
  0
INSERT
  5
21F2
330
459
100
AcDbEntity
  8
実形
 62
     0
370
    18
100
AcDbBlockReference
  2
_DotSmall
 10
1559.648814982887
 20
928.152252734133
 30
0.0
 41
35.0
 42
35.0
 43
35.0
 50
180.0
  0
INSERT
  5
21F3
330
459
100
AcDbEntity
  8
実形
 62
     0
370
    18
100
AcDbBlockReference
  2
_DotSmall
 10
1594.648814982887
 20
928.152252734133
 30
0.0
 41
35.0
 42
35.0
 43
35.0
  0
POINT
  5
21F4
330
459
100
AcDbEntity
  8
Defpoints
 62
     0
100
AcDbPoint
 10
1559.648814982887
 20
1123.656099115589
 30
0.0
  0
POINT
  5
21F5
330
459
100
AcDbEntity
  8
Defpoints
 62
     0
100
AcDbPoint
 10
1594.648814982887
 20
1126.152252734133
 30
0.0
  0
POINT
  5
21F6
330
459
100
AcDbEntity
  8
Defpoints
 62
     0
100
AcDbPoint
 10
1594.648814982887
 20
928.152252734133
 30
0.0
  0
ENDBLK
  5
466
330
459
100
AcDbEntity
  8
0
100
AcDbBlockEnd
  0
BLOCK
  5
4AE
330
4A4
100
AcDbEntity
  8
0
100
AcDbBlockBegin
  2
*D11
 70
     1
 10
0.0
 20
0.0
 30
0.0
  3
*D11
  1

  0
LINE
  5
2156
330
4A4
100
AcDbEntity
  8
実形
 62
     0
370
    15
100
AcDbLine
 10
794.6488149828874
 20
1058.152252734133
 30
0.0
 11
794.6488149828874
 21
858.1522527341331
 31
0.0
  0
LINE
  5
2157
330
4A4
100
AcDbEntity
  8
実形
 62
     0
370
    15
100
AcDbLine
 10
1594.648814982887
 20
1058.152252734133
 30
0.0
 11
1594.648814982887
 21
858.1522527341331
 31
0.0
  0
LINE
  5
2158
330
4A4
100
AcDbEntity
  8
実形
 62
     0
370
    18
100
AcDbLine
 10
794.6488149828874
 20
858.1522527341331
 30
0.0
 11
1594.648814982887
 21
858.1522527341331
 31
0.0
  0
INSERT
  5
2159
330
4A4
100
AcDbEntity
  8
実形
 62
     0
370
    18
100
AcDbBlockReference
  2
_DotSmall
 10
794.6488149828874
 20
858.1522527341331
 30
0.0
 41
35.0
 42
35.0
 43
35.0
 50
180.0
  0
INSERT
  5
215A
330
4A4
100
AcDbEntity
  8
実形
 62
     0
370
    18
100
AcDbBlockReference
  2
_DotSmall
 10
1594.648814982887
 20
858.1522527341331
 30
0.0
 41
35.0
 42
35.0
 43
35.0
  0
MTEXT
  5
215B
330
4A4
100
AcDbEntity
  8
実形
 62
     0
100
AcDbMText
 10
1194.648814982887
 20
876.9022527341331
 30
0.0
 40
25.0
 41
0.0
 71
     5
 72
     1
  1
800
 73
     1
 44
1.0
1001
ACAD
1000
MTEXTBEGIN
1070
    73
1070
     1
1070
    44
1040
1.0
1070
    74
1070
     0
1000
MTEXTEND
  0
POINT
  5
215C
330
4A4
100
AcDbEntity
  8
Defpoints
 62
     0
100
AcDbPoint
 10
794.6488149828874
 20
1123.152252734133
 30
0.0
  0
POINT
  5
215D
330
4A4
100
AcDbEntity
  8
Defpoints
 62
     0
100
AcDbPoint
 10
1594.648814982887
 20
1123.152252734133
 30
0.0
  0
POINT
  5
215E
330
4A4
100
AcDbEntity
  8
Defpoints
 62
     0
100
AcDbPoint
 10
1594.648814982887
 20
858.1522527341331
 30
0.0
  0
ENDBLK
  5
4AF
330
4A4
100
AcDbEntity
  8
0
100
AcDbBlockEnd
  0
BLOCK
  5
4CA
330
4BF
100
AcDbEntity
  8
0
100
AcDbBlockBegin
  2
*D12
 70
     1
 10
0.0
 20
0.0
 30
0.0
  3
*D12
  1

  0
LINE
  5
235D
330
4BF
100
AcDbEntity
  8
実形
 62
     0
370
    15
100
AcDbLine
 10
1629.648814982887
 20
575.3171958128196
 30
0.0
 11
1683.540565470595
 21
575.3171958128196
 31
0.0
  0
LINE
  5
235E
330
4BF
100
AcDbEntity
  8
実形
 62
     0
370
    15
100
AcDbLine
 10
1629.648814982887
 20
560.3171958128196
 30
0.0
 11
1683.540565470595
 21
560.3171958128196
 31
0.0
  0
LINE
  5
235F
330
4BF
100
AcDbEntity
  8
実形
 62
     0
370
    18
100
AcDbLine
 10
1683.540565470595
 20
575.3171958128196
 30
0.0
 11
1683.540565470595
 21
560.3171958128196
 31
0.0
  0
INSERT
  5
2360
330
4BF
100
AcDbEntity
  8
実形
 62
     0
370
    18
100
AcDbBlockReference
  2
_DotSmall
 10
1683.540565470595
 20
575.3171958128196
 30
0.0
 41
35.0
 42
35.0
 43
35.0
 50
90.0
  0
INSERT
  5
2361
330
4BF
100
AcDbEntity
  8
実形
 62
     0
370
    18
100
AcDbBlockReference
  2
_DotSmall
 10
1683.540565470595
 20
560.3171958128196
 30
0.0
 41
35.0
 42
35.0
 43
35.0
 50
270.0
  0
POINT
  5
2362
330
4BF
100
AcDbEntity
  8
Defpoints
 62
     0
100
AcDbPoint
 10
1564.648814982887
 20
575.3171958128196
 30
0.0
  0
POINT
  5
2363
330
4BF
100
AcDbEntity
  8
Defpoints
 62
     0
100
AcDbPoint
 10
1564.648814982887
 20
560.3171958128196
 30
0.0
  0
POINT
  5
2364
330
4BF
100
AcDbEntity
  8
Defpoints
 62
     0
100
AcDbPoint
 10
1683.540565470595
 20
560.3171958128196
 30
0.0
  0
ENDBLK
  5
4CB
330
4BF
100
AcDbEntity
  8
0
100
AcDbBlockEnd
  0
BLOCK
  5
4D7
330
4CD
100
AcDbEntity
  8
0
100
AcDbBlockBegin
  2
*D13
 70
     1
 10
0.0
 20
0.0
 30
0.0
  3
*D13
  1

  0
LINE
  5
2354
330
4CD
100
AcDbEntity
  8
実形
 62
     0
370
    15
100
AcDbLine
 10
1629.648814982887
 20
754.3171958128197
 30
0.0
 11
1722.281189805476
 21
754.3171958128197
 31
0.0
  0
LINE
  5
2355
330
4CD
100
AcDbEntity
  8
実形
 62
     0
370
    15
100
AcDbLine
 10
1629.648814982887
 20
560.3171958128196
 30
0.0
 11
1722.281189805476
 21
560.3171958128196
 31
0.0
  0
LINE
  5
2356
330
4CD
100
AcDbEntity
  8
実形
 62
     0
370
    18
100
AcDbLine
 10
1722.281189805476
 20
754.3171958128197
 30
0.0
 11
1722.281189805476
 21
560.3171958128196
 31
0.0
  0
INSERT
  5
2357
330
4CD
100
AcDbEntity
  8
実形
 62
     0
370
    18
100
AcDbBlockReference
  2
_DotSmall
 10
1722.281189805476
 20
754.3171958128197
 30
0.0
 41
35.0
 42
35.0
 43
35.0
 50
90.0
  0
INSERT
  5
2358
330
4CD
100
AcDbEntity
  8
実形
 62
     0
370
    18
100
AcDbBlockReference
  2
_DotSmall
 10
1722.281189805476
 20
560.3171958128196
 30
0.0
 41
35.0
 42
35.0
 43
35.0
 50
270.0
  0
MTEXT
  5
2359
330
4CD
100
AcDbEntity
  8
実形
 62
     0
100
AcDbMText
 10
1703.531189805476
 20
657.3171958128199
 30
0.0
 40
25.0
 41
0.0
 71
     5
 72
     1
  1
194
 11
0.0000000000000001
 21
1.0
 31
0.0
 73
     1
 44
1.0
1001
ACAD
1000
MTEXTBEGIN
1070
    73
1070
     1
1070
    44
1040
1.0
1070
    74
1070
     0
1000
MTEXTEND
  0
POINT
  5
235A
330
4CD
100
AcDbEntity
  8
Defpoints
 62
     0
100
AcDbPoint
 10
1564.648814982887
 20
754.3171958128197
 30
0.0
  0
POINT
  5
235B
330
4CD
100
AcDbEntity
  8
Defpoints
 62
     0
100
AcDbPoint
 10
1564.648814982887
 20
560.3171958128196
 30
0.0
  0
POINT
  5
235C
330
4CD
100
AcDbEntity
  8
Defpoints
 62
     0
100
AcDbPoint
 10
1722.281189805476
 20
560.3171958128196
 30
0.0
  0
ENDBLK
  5
4D8
330
4CD
100
AcDbEntity
  8
0
100
AcDbBlockEnd
  0
BLOCK
  5
503
330
4F9
100
AcDbEntity
  8
0
100
AcDbBlockBegin
  2
*D14
 70
     1
 10
0.0
 20
0.0
 30
0.0
  3
*D14
  1

  0
LINE
  5
234B
330
4F9
100
AcDbEntity
  8
実形
 62
     0
370
    15
100
AcDbLine
 10
899.6488149828874
 20
485.3171958128196
 30
0.0
 11
899.6488149828874
 21
433.8897885117467
 31
0.0
  0
LINE
  5
234C
330
4F9
100
AcDbEntity
  8
実形
 62
     0
370
    15
100
AcDbLine
 10
1059.648814982887
 20
485.3171958128196
 30
0.0
 11
1059.648814982887
 21
433.8897885117467
 31
0.0
  0
LINE
  5
234D
330
4F9
100
AcDbEntity
  8
実形
 62
     0
370
    18
100
AcDbLine
 10
899.6488149828874
 20
433.8897885117467
 30
0.0
 11
1059.648814982887
 21
433.8897885117467
 31
0.0
  0
INSERT
  5
234E
330
4F9
100
AcDbEntity
  8
実形
 62
     0
370
    18
100
AcDbBlockReference
  2
_DotSmall
 10
899.6488149828874
 20
433.8897885117467
 30
0.0
 41
35.0
 42
35.0
 43
35.0
 50
180.0
  0
INSERT
  5
234F
330
4F9
100
AcDbEntity
  8
実形
 62
     0
370
    18
100
AcDbBlockReference
  2
_DotSmall
 10
1059.648814982887
 20
433.8897885117467
 30
0.0
 41
35.0
 42
35.0
 43
35.0
  0
MTEXT
  5
2350
330
4F9
100
AcDbEntity
  8
実形
 62
     0
100
AcDbMText
 10
979.6488149828874
 20
452.6397885117467
 30
0.0
 40
25.0
 41
0.0
 71
     5
 72
     1
  1
160
 73
     1
 44
1.0
1001
ACAD
1000
MTEXTBEGIN
1070
    73
1070
     1
1070
    44
1040
1.0
1070
    74
1070
     0
1000
MTEXTEND
  0
POINT
  5
2351
330
4F9
100
AcDbEntity
  8
Defpoints
 62
     0
100
AcDbPoint
 10
899.6488149828874
 20
550.3171958128196
 30
0.0
  0
POINT
  5
2352
330
4F9
100
AcDbEntity
  8
Defpoints
 62
     0
100
AcDbPoint
 10
1059.648814982887
 20
550.3171958128196
 30
0.0
  0
POINT
  5
2353
330
4F9
100
AcDbEntity
  8
Defpoints
 62
     0
100
AcDbPoint
 10
1059.648814982887
 20
433.8897885117467
 30
0.0
  0
ENDBLK
  5
504
330
4F9
100
AcDbEntity
  8
0
100
AcDbBlockEnd
  0
BLOCK
  5
510
330
506
100
AcDbEntity
  8
0
100
AcDbBlockBegin
  2
*D15
 70
     1
 10
0.0
 20
0.0
 30
0.0
  3
*D15
  1

  0
LINE
  5
2342
330
506
100
AcDbEntity
  8
実形
 62
     0
370
    15
100
AcDbLine
 10
889.1488149828873
 20
485.3171958128196
 30
0.0
 11
889.1488149828873
 21
373.9303899428178
 31
0.0
  0
LINE
  5
2343
330
506
100
AcDbEntity
  8
実形
 62
     0
370
    15
100
AcDbLine
 10
1070.148814982887
 20
485.3171958128196
 30
0.0
 11
1070.148814982887
 21
373.9303899428178
 31
0.0
  0
LINE
  5
2344
330
506
100
AcDbEntity
  8
実形
 62
     0
370
    18
100
AcDbLine
 10
889.1488149828873
 20
373.9303899428178
 30
0.0
 11
1070.148814982887
 21
373.9303899428178
 31
0.0
  0
INSERT
  5
2345
330
506
100
AcDbEntity
  8
実形
 62
     0
370
    18
100
AcDbBlockReference
  2
_DotSmall
 10
889.1488149828873
 20
373.9303899428178
 30
0.0
 41
35.0
 42
35.0
 43
35.0
 50
180.0
  0
INSERT
  5
2346
330
506
100
AcDbEntity
  8
実形
 62
     0
370
    18
100
AcDbBlockReference
  2
_DotSmall
 10
1070.148814982887
 20
373.9303899428178
 30
0.0
 41
35.0
 42
35.0
 43
35.0
  0
MTEXT
  5
2347
330
506
100
AcDbEntity
  8
実形
 62
     0
100
AcDbMText
 10
979.6488149828874
 20
392.6803899428178
 30
0.0
 40
25.0
 41
0.0
 71
     5
 72
     1
  1
181
 73
     1
 44
1.0
1001
ACAD
1000
MTEXTBEGIN
1070
    73
1070
     1
1070
    44
1040
1.0
1070
    74
1070
     0
1000
MTEXTEND
  0
POINT
  5
2348
330
506
100
AcDbEntity
  8
Defpoints
 62
     0
100
AcDbPoint
 10
889.1488149828873
 20
550.3171958128196
 30
0.0
  0
POINT
  5
2349
330
506
100
AcDbEntity
  8
Defpoints
 62
     0
100
AcDbPoint
 10
1070.148814982887
 20
550.3171958128196
 30
0.0
  0
POINT
  5
234A
330
506
100
AcDbEntity
  8
Defpoints
 62
     0
100
AcDbPoint
 10
1070.148814982887
 20
373.9303899428178
 30
0.0
  0
ENDBLK
  5
511
330
506
100
AcDbEntity
  8
0
100
AcDbBlockEnd
  0
BLOCK
  5
53E
330
533
100
AcDbEntity
  8
0
100
AcDbBlockBegin
  2
*D16
 70
     1
 10
0.0
 20
0.0
 30
0.0
  3
*D16
  1

  0
LINE
  5
22D1
330
533
100
AcDbEntity
  8
寸法
 62
     0
370
    15
100
AcDbLine
 10
2041.341943390351
 20
1073.152252734133
 30
0.0
 11
2041.341943390351
 21
975.2201349640786
 31
0.0
  0
LINE
  5
22D2
330
533
100
AcDbEntity
  8
寸法
 62
     0
370
    15
100
AcDbLine
 10
2026.341943390351
 20
1073.152252734133
 30
0.0
 11
2026.341943390351
 21
975.2201349640786
 31
0.0
  0
LINE
  5
22D3
330
533
100
AcDbEntity
  8
寸法
 62
     0
370
    18
100
AcDbLine
 10
2041.341943390351
 20
975.2201349640786
 30
0.0
 11
2026.341943390351
 21
975.2201349640786
 31
0.0
  0
INSERT
  5
22D4
330
533
100
AcDbEntity
  8
寸法
 62
     0
370
    18
100
AcDbBlockReference
  2
_DotSmall
 10
2041.341943390351
 20
975.2201349640786
 30
0.0
 41
35.0
 42
35.0
 43
35.0
  0
INSERT
  5
22D5
330
533
100
AcDbEntity
  8
寸法
 62
     0
370
    18
100
AcDbBlockReference
  2
_DotSmall
 10
2026.341943390351
 20
975.2201349640786
 30
0.0
 41
35.0
 42
35.0
 43
35.0
 50
180.0
  0
POINT
  5
22D6
330
533
100
AcDbEntity
  8
Defpoints
 62
     0
100
AcDbPoint
 10
2041.341943390351
 20
1138.152252734133
 30
0.0
  0
POINT
  5
22D7
330
533
100
AcDbEntity
  8
Defpoints
 62
     0
100
AcDbPoint
 10
2026.341943390351
 20
1138.152252734133
 30
0.0
  0
POINT
  5
22D8
330
533
100
AcDbEntity
  8
Defpoints
 62
     0
100
AcDbPoint
 10
2026.341943390351
 20
975.2201349640786
 30
0.0
  0
ENDBLK
  5
53F
330
533
100
AcDbEntity
  8
0
100
AcDbBlockEnd
  0
BLOCK
  5
553
330
549
100
AcDbEntity
  8
0
100
AcDbBlockBegin
  2
*D17
 70
     1
 10
0.0
 20
0.0
 30
0.0
  3
*D17
  1

  0
LINE
  5
22C8
330
549
100
AcDbEntity
  8
実形
 62
     0
370
    15
100
AcDbLine
 10
2041.341943390351
 20
1058.152252734133
 30
0.0
 11
2041.341943390351
 21
895.240724808209
 31
0.0
  0
LINE
  5
22C9
330
549
100
AcDbEntity
  8
実形
 62
     0
370
    15
100
AcDbLine
 10
1847.341943390351
 20
1061.152252734133
 30
0.0
 11
1847.341943390351
 21
895.240724808209
 31
0.0
  0
LINE
  5
22CA
330
549
100
AcDbEntity
  8
実形
 62
     0
370
    18
100
AcDbLine
 10
2041.341943390351
 20
895.240724808209
 30
0.0
 11
1847.341943390351
 21
895.240724808209
 31
0.0
  0
INSERT
  5
22CB
330
549
100
AcDbEntity
  8
実形
 62
     0
370
    18
100
AcDbBlockReference
  2
_DotSmall
 10
2041.341943390351
 20
895.240724808209
 30
0.0
 41
35.0
 42
35.0
 43
35.0
  0
INSERT
  5
22CC
330
549
100
AcDbEntity
  8
実形
 62
     0
370
    18
100
AcDbBlockReference
  2
_DotSmall
 10
1847.341943390351
 20
895.240724808209
 30
0.0
 41
35.0
 42
35.0
 43
35.0
 50
180.0
  0
MTEXT
  5
22CD
330
549
100
AcDbEntity
  8
実形
 62
     0
100
AcDbMText
 10
1944.341943390351
 20
913.990724808209
 30
0.0
 40
25.0
 41
0.0
 71
     5
 72
     1
  1
194
 73
     1
 44
1.0
1001
ACAD
1000
MTEXTBEGIN
1070
    73
1070
     1
1070
    44
1040
1.0
1070
    74
1070
     0
1000
MTEXTEND
  0
POINT
  5
22CE
330
549
100
AcDbEntity
  8
Defpoints
 62
     0
100
AcDbPoint
 10
2041.341943390351
 20
1123.152252734133
 30
0.0
  0
POINT
  5
22CF
330
549
100
AcDbEntity
  8
Defpoints
 62
     0
100
AcDbPoint
 10
1847.341943390351
 20
1126.152252734133
 30
0.0
  0
POINT
  5
22D0
330
549
100
AcDbEntity
  8
Defpoints
 62
     0
100
AcDbPoint
 10
1847.341943390351
 20
895.240724808209
 30
0.0
  0
ENDBLK
  5
554
330
549
100
AcDbEntity
  8
0
100
AcDbBlockEnd
  0
BLOCK
  5
574
330
56A
100
AcDbEntity
  8
0
100
AcDbBlockBegin
  2
*D18
 70
     1
 10
0.0
 20
0.0
 30
0.0
  3
*D18
  1

  0
LINE
  5
2374
330
56A
100
AcDbEntity
  8
実形
 62
     0
370
    15
100
AcDbLine
 10
2116.341943390351
 20
1428.152252734133
 30
0.0
 11
2161.648087482271
 21
1428.152252734133
 31
0.0
  0
LINE
  5
2375
330
56A
100
AcDbEntity
  8
実形
 62
     0
370
    15
100
AcDbLine
 10
2116.341943390351
 20
1268.152252734133
 30
0.0
 11
2161.648087482271
 21
1268.152252734133
 31
0.0
  0
LINE
  5
2376
330
56A
100
AcDbEntity
  8
実形
 62
     0
370
    18
100
AcDbLine
 10
2161.648087482271
 20
1428.152252734133
 30
0.0
 11
2161.648087482271
 21
1268.152252734133
 31
0.0
  0
INSERT
  5
2377
330
56A
100
AcDbEntity
  8
実形
 62
     0
370
    18
100
AcDbBlockReference
  2
_DotSmall
 10
2161.648087482271
 20
1428.152252734133
 30
0.0
 41
35.0
 42
35.0
 43
35.0
 50
90.0
  0
INSERT
  5
2378
330
56A
100
AcDbEntity
  8
実形
 62
     0
370
    18
100
AcDbBlockReference
  2
_DotSmall
 10
2161.648087482271
 20
1268.152252734133
 30
0.0
 41
35.0
 42
35.0
 43
35.0
 50
270.0
  0
MTEXT
  5
2379
330
56A
100
AcDbEntity
  8
実形
 62
     0
100
AcDbMText
 10
2142.89808748227
 20
1348.152252734133
 30
0.0
 40
25.0
 41
0.0
 71
     5
 72
     1
  1
160
 11
0.0000000000000001
 21
1.0
 31
0.0
 73
     1
 44
1.0
1001
ACAD
1000
MTEXTBEGIN
1070
    73
1070
     1
1070
    44
1040
1.0
1070
    74
1070
     0
1000
MTEXTEND
  0
POINT
  5
237A
330
56A
100
AcDbEntity
  8
Defpoints
 62
     0
100
AcDbPoint
 10
2051.341943390351
 20
1428.152252734133
 30
0.0
  0
POINT
  5
237B
330
56A
100
AcDbEntity
  8
Defpoints
 62
     0
100
AcDbPoint
 10
2051.341943390351
 20
1268.152252734133
 30
0.0
  0
POINT
  5
237C
330
56A
100
AcDbEntity
  8
Defpoints
 62
     0
100
AcDbPoint
 10
2161.648087482271
 20
1268.152252734133
 30
0.0
  0
ENDBLK
  5
575
330
56A
100
AcDbEntity
  8
0
100
AcDbBlockEnd
  0
BLOCK
  5
58A
330
580
100
AcDbEntity
  8
0
100
AcDbBlockBegin
  2
*D19
 70
     1
 10
0.0
 20
0.0
 30
0.0
  3
*D19
  1

  0
LINE
  5
236B
330
580
100
AcDbEntity
  8
実形
 62
     0
370
    15
100
AcDbLine
 10
2116.341943390351
 20
1438.652252734133
 30
0.0
 11
2226.569675447113
 21
1438.652252734133
 31
0.0
  0
LINE
  5
236C
330
580
100
AcDbEntity
  8
実形
 62
     0
370
    15
100
AcDbLine
 10
2116.341943390351
 20
1257.652252734133
 30
0.0
 11
2226.569675447113
 21
1257.652252734133
 31
0.0
  0
LINE
  5
236D
330
580
100
AcDbEntity
  8
実形
 62
     0
370
    18
100
AcDbLine
 10
2226.569675447113
 20
1438.652252734133
 30
0.0
 11
2226.569675447113
 21
1257.652252734133
 31
0.0
  0
INSERT
  5
236E
330
580
100
AcDbEntity
  8
実形
 62
     0
370
    18
100
AcDbBlockReference
  2
_DotSmall
 10
2226.569675447113
 20
1438.652252734133
 30
0.0
 41
35.0
 42
35.0
 43
35.0
 50
90.0
  0
INSERT
  5
236F
330
580
100
AcDbEntity
  8
実形
 62
     0
370
    18
100
AcDbBlockReference
  2
_DotSmall
 10
2226.569675447113
 20
1257.652252734133
 30
0.0
 41
35.0
 42
35.0
 43
35.0
 50
270.0
  0
MTEXT
  5
2370
330
580
100
AcDbEntity
  8
実形
 62
     0
100
AcDbMText
 10
2207.819675447112
 20
1348.152252734133
 30
0.0
 40
25.0
 41
0.0
 71
     5
 72
     1
  1
181
 11
0.0000000000000001
 21
1.0
 31
0.0
 73
     1
 44
1.0
1001
ACAD
1000
MTEXTBEGIN
1070
    73
1070
     1
1070
    44
1040
1.0
1070
    74
1070
     0
1000
MTEXTEND
  0
POINT
  5
2371
330
580
100
AcDbEntity
  8
Defpoints
 62
     0
100
AcDbPoint
 10
2051.341943390351
 20
1438.652252734133
 30
0.0
  0
POINT
  5
2372
330
580
100
AcDbEntity
  8
Defpoints
 62
     0
100
AcDbPoint
 10
2051.341943390351
 20
1257.652252734133
 30
0.0
  0
POINT
  5
2373
330
580
100
AcDbEntity
  8
Defpoints
 62
     0
100
AcDbPoint
 10
2226.569675447113
 20
1257.652252734133
 30
0.0
  0
ENDBLK
  5
58B
330
580
100
AcDbEntity
  8
0
100
AcDbBlockEnd
  0
BLOCK
  5
1749
330
173E
100
AcDbEntity
  8
0
100
AcDbBlockBegin
  2
*D20
 70
     1
 10
0.0
 20
0.0
 30
0.0
  3
*D20
  1

  0
LINE
  5
2431
330
173E
100
AcDbEntity
  8
実形
 62
     0
370
    18
100
AcDbLine
 10
829.6488149828874
 20
1063.152252734133
 30
0.0
 11
829.6488149828874
 21
928.152252734133
 31
0.0
  0
LINE
  5
2432
330
173E
100
AcDbEntity
  8
実形
 62
     0
370
    18
100
AcDbLine
 10
794.6488149828874
 20
1063.152252734133
 30
0.0
 11
794.6488149828874
 21
928.152252734133
 31
0.0
  0
LINE
  5
2433
330
173E
100
AcDbEntity
  8
実形
 62
     0
370
    18
100
AcDbLine
 10
829.6488149828874
 20
928.152252734133
 30
0.0
 11
794.6488149828874
 21
928.152252734133
 31
0.0
  0
MTEXT
  5
2434
330
173E
100
AcDbEntity
  8
実形
 62
     0
100
AcDbMText
 10
863.4076062654784
 20
946.5230212335281
 30
0.0
 40
25.0
 41
0.0
 71
     5
 72
     1
  1
35
 73
     1
 44
1.0
1001
ACAD
1000
MTEXTBEGIN
1070
    73
1070
     1
1070
    44
1040
1.0
1070
    74
1070
     0
1000
MTEXTEND
  0
INSERT
  5
2435
330
173E
100
AcDbEntity
  8
実形
 62
     0
370
    18
100
AcDbBlockReference
  2
_DotSmall
 10
829.6488149828874
 20
928.152252734133
 30
0.0
 41
35.0
 42
35.0
 43
35.0
  0
INSERT
  5
2436
330
173E
100
AcDbEntity
  8
実形
 62
     0
370
    18
100
AcDbBlockReference
  2
_DotSmall
 10
794.6488149828874
 20
928.152252734133
 30
0.0
 41
35.0
 42
35.0
 43
35.0
 50
180.0
  0
POINT
  5
2437
330
173E
100
AcDbEntity
  8
Defpoints
 62
     0
100
AcDbPoint
 10
829.6488149828874
 20
1128.152252734133
 30
0.0
  0
POINT
  5
2438
330
173E
100
AcDbEntity
  8
Defpoints
 62
     0
100
AcDbPoint
 10
794.6488149828874
 20
1128.152252734133
 30
0.0
  0
POINT
  5
2439
330
173E
100
AcDbEntity
  8
Defpoints
 62
     0
100
AcDbPoint
 10
794.6488149828874
 20
928.152252734133
 30
0.0
  0
ENDBLK
  5
174A
330
173E
100
AcDbEntity
  8
0
100
AcDbBlockEnd
  0
BLOCK
  5
17BA
330
17AF
100
AcDbEntity
  8
0
100
AcDbBlockBegin
  2
*D21
 70
     1
 10
0.0
 20
0.0
 30
0.0
  3
*D21
  1

  0
LINE
  5
23FB
330
17AF
100
AcDbEntity
  8
実形
 62
     0
370
    18
100
AcDbLine
 10
749.6488149828874
 20
1143.152252734133
 30
0.0
 11
614.6488149828876
 21
1143.152252734133
 31
0.0
  0
LINE
  5
23FC
330
17AF
100
AcDbEntity
  8
実形
 62
     0
370
    18
100
AcDbLine
 10
749.6488149828874
 20
1108.152252734133
 30
0.0
 11
614.6488149828876
 21
1108.152252734133
 31
0.0
  0
LINE
  5
23FD
330
17AF
100
AcDbEntity
  8
実形
 62
     0
370
    18
100
AcDbLine
 10
614.6488149828876
 20
1143.152252734133
 30
0.0
 11
614.6488149828876
 21
1108.152252734133
 31
0.0
  0
MTEXT
  5
23FE
330
17AF
100
AcDbEntity
  8
実形
 62
     0
100
AcDbMText
 10
592.8901028320542
 20
1135.572675614467
 30
0.0
 40
25.0
 41
0.0
 71
     5
 72
     1
  1
35
 11
0.0000000000000001
 21
1.0
 31
0.0
 73
     1
 44
1.0
1001
ACAD
1000
MTEXTBEGIN
1070
    73
1070
     1
1070
    44
1040
1.0
1070
    74
1070
     0
1000
MTEXTEND
  0
INSERT
  5
23FF
330
17AF
100
AcDbEntity
  8
実形
 62
     0
370
    18
100
AcDbBlockReference
  2
_DotSmall
 10
614.6488149828876
 20
1143.152252734133
 30
0.0
 41
35.0
 42
35.0
 43
35.0
 50
90.0
  0
INSERT
  5
2400
330
17AF
100
AcDbEntity
  8
実形
 62
     0
370
    18
100
AcDbBlockReference
  2
_DotSmall
 10
614.6488149828876
 20
1108.152252734133
 30
0.0
 41
35.0
 42
35.0
 43
35.0
 50
270.0
  0
POINT
  5
2401
330
17AF
100
AcDbEntity
  8
Defpoints
 62
     0
100
AcDbPoint
 10
814.6488149828874
 20
1143.152252734133
 30
0.0
  0
POINT
  5
2402
330
17AF
100
AcDbEntity
  8
Defpoints
 62
     0
100
AcDbPoint
 10
814.6488149828874
 20
1108.152252734133
 30
0.0
  0
POINT
  5
2403
330
17AF
100
AcDbEntity
  8
Defpoints
 62
     0
100
AcDbPoint
 10
614.6488149828876
 20
1108.152252734133
 30
0.0
  0
ENDBLK
  5
17BB
330
17AF
100
AcDbEntity
  8
0
100
AcDbBlockEnd
  0
BLOCK
  5
2032
330
2027
100
AcDbEntity
  8
0
100
AcDbBlockBegin
  2
*D22
 70
     1
 10
0.0
 20
0.0
 30
0.0
  3
*D22
  1

  0
LINE
  5
2386
330
2027
100
AcDbEntity
  8
実形
 62
     0
370
    18
100
AcDbLine
 10
749.6488149828874
 20
1638.152252734133
 30
0.0
 11
684.6488149828874
 21
1638.152252734133
 31
0.0
  0
LINE
  5
2387
330
2027
100
AcDbEntity
  8
実形
 62
     0
370
    18
100
AcDbLine
 10
749.6488149828874
 20
1618.152252734133
 30
0.0
 11
684.6488149828874
 21
1618.152252734133
 31
0.0
  0
LINE
  5
2388
330
2027
100
AcDbEntity
  8
実形
 62
     0
370
    18
100
AcDbLine
 10
684.6488149828874
 20
1638.152252734133
 30
0.0
 11
684.6488149828874
 21
1618.152252734133
 31
0.0
  0
MTEXT
  5
2389
330
2027
100
AcDbEntity
  8
実形
 62
     0
100
AcDbMText
 10
666.088953283981
 20
1666.834354120908
 30
0.0
 40
25.0
 41
0.0
 71
     5
 72
     1
  1
20
 11
0.0000000000000001
 21
1.0
 31
0.0
 73
     1
 44
1.0
1001
ACAD
1000
MTEXTBEGIN
1070
    73
1070
     1
1070
    44
1040
1.0
1070
    74
1070
     0
1000
MTEXTEND
  0
INSERT
  5
238A
330
2027
100
AcDbEntity
  8
実形
 62
     0
370
    18
100
AcDbBlockReference
  2
_DotSmall
 10
684.6488149828874
 20
1638.152252734133
 30
0.0
 41
35.0
 42
35.0
 43
35.0
 50
90.0
  0
INSERT
  5
238B
330
2027
100
AcDbEntity
  8
実形
 62
     0
370
    18
100
AcDbBlockReference
  2
_DotSmall
 10
684.6488149828874
 20
1618.152252734133
 30
0.0
 41
35.0
 42
35.0
 43
35.0
 50
270.0
  0
POINT
  5
238C
330
2027
100
AcDbEntity
  8
Defpoints
 62
     0
100
AcDbPoint
 10
814.6488149828874
 20
1638.152252734133
 30
0.0
  0
POINT
  5
238D
330
2027
100
AcDbEntity
  8
Defpoints
 62
     0
100
AcDbPoint
 10
814.6488149828874
 20
1618.152252734133
 30
0.0
  0
POINT
  5
238E
330
2027
100
AcDbEntity
  8
Defpoints
 62
     0
100
AcDbPoint
 10
684.6488149828874
 20
1618.152252734133
 30
0.0
  0
ENDBLK
  5
2033
330
2027
100
AcDbEntity
  8
0
100
AcDbBlockEnd
  0
BLOCK
  5
203F
330
2035
100
AcDbEntity
  8
0
100
AcDbBlockBegin
  2
*D23
 70
     1
 10
0.0
 20
0.0
 30
0.0
  3
*D23
  1

  0
LINE
  5
2398
330
2035
100
AcDbEntity
  8
実形
 62
     0
370
    18
100
AcDbLine
 10
749.6488149828874
 20
1618.152252734133
 30
0.0
 11
684.6488149828874
 21
1618.152252734133
 31
0.0
  0
LINE
  5
2399
330
2035
100
AcDbEntity
  8
実形
 62
     0
370
    18
100
AcDbLine
 10
749.6488149828874
 20
1553.152252734133
 30
0.0
 11
684.6488149828874
 21
1553.152252734133
 31
0.0
  0
LINE
  5
239A
330
2035
100
AcDbEntity
  8
実形
 62
     0
370
    18
100
AcDbLine
 10
684.6488149828874
 20
1618.152252734133
 30
0.0
 11
684.6488149828874
 21
1553.152252734133
 31
0.0
  0
INSERT
  5
239B
330
2035
100
AcDbEntity
  8
実形
 62
     0
370
    18
100
AcDbBlockReference
  2
_DotSmall
 10
684.6488149828874
 20
1618.152252734133
 30
0.0
 41
35.0
 42
35.0
 43
35.0
 50
90.0
  0
INSERT
  5
239C
330
2035
100
AcDbEntity
  8
実形
 62
     0
370
    18
100
AcDbBlockReference
  2
_DotSmall
 10
684.6488149828874
 20
1553.152252734133
 30
0.0
 41
35.0
 42
35.0
 43
35.0
 50
270.0
  0
MTEXT
  5
239D
330
2035
100
AcDbEntity
  8
実形
 62
     0
100
AcDbMText
 10
665.8988149828871
 20
1585.652252734133
 30
0.0
 40
25.0
 41
0.0
 71
     5
 72
     1
  1
65
 11
0.0000000000000001
 21
1.0
 31
0.0
 73
     1
 44
1.0
1001
ACAD
1000
MTEXTBEGIN
1070
    73
1070
     1
1070
    44
1040
1.0
1070
    74
1070
     0
1000
MTEXTEND
  0
POINT
  5
239E
330
2035
100
AcDbEntity
  8
Defpoints
 62
     0
100
AcDbPoint
 10
814.6488149828874
 20
1618.152252734133
 30
0.0
  0
POINT
  5
239F
330
2035
100
AcDbEntity
  8
Defpoints
 62
     0
100
AcDbPoint
 10
814.6488149828874
 20
1553.152252734133
 30
0.0
  0
POINT
  5
23A0
330
2035
100
AcDbEntity
  8
Defpoints
 62
     0
100
AcDbPoint
 10
684.6488149828874
 20
1553.152252734133
 30
0.0
  0
ENDBLK
  5
2040
330
2035
100
AcDbEntity
  8
0
100
AcDbBlockEnd
  0
BLOCK
  5
204D
330
2042
100
AcDbEntity
  8
0
100
AcDbBlockBegin
  2
*D24
 70
     1
 10
0.0
 20
0.0
 30
0.0
  3
*D24
  1

  0
LINE
  5
23CE
330
2042
100
AcDbEntity
  8
実形
 62
     0
370
    18
100
AcDbLine
 10
749.6488149828874
 20
1143.152252734133
 30
0.0
 11
684.6488149828874
 21
1143.152252734133
 31
0.0
  0
LINE
  5
23CF
330
2042
100
AcDbEntity
  8
実形
 62
     0
370
    18
100
AcDbLine
 10
749.6488149828874
 20
1128.152252734133
 30
0.0
 11
684.6488149828874
 21
1128.152252734133
 31
0.0
  0
LINE
  5
23D0
330
2042
100
AcDbEntity
  8
実形
 62
     0
370
    18
100
AcDbLine
 10
684.6488149828874
 20
1143.152252734133
 30
0.0
 11
684.6488149828874
 21
1128.152252734133
 31
0.0
  0
MTEXT
  5
23D1
330
2042
100
AcDbEntity
  8
実形
 62
     0
100
AcDbMText
 10
666.088953283981
 20
1169.135795933493
 30
0.0
 40
25.0
 41
0.0
 71
     5
 72
     1
  1
15
 11
0.0000000000000001
 21
1.0
 31
0.0
 73
     1
 44
1.0
1001
ACAD
1000
MTEXTBEGIN
1070
    73
1070
     1
1070
    44
1040
1.0
1070
    74
1070
     0
1000
MTEXTEND
  0
INSERT
  5
23D2
330
2042
100
AcDbEntity
  8
実形
 62
     0
370
    18
100
AcDbBlockReference
  2
_DotSmall
 10
684.6488149828874
 20
1143.152252734133
 30
0.0
 41
35.0
 42
35.0
 43
35.0
 50
90.0
  0
INSERT
  5
23D3
330
2042
100
AcDbEntity
  8
実形
 62
     0
370
    18
100
AcDbBlockReference
  2
_DotSmall
 10
684.6488149828874
 20
1128.152252734133
 30
0.0
 41
35.0
 42
35.0
 43
35.0
 50
270.0
  0
POINT
  5
23D4
330
2042
100
AcDbEntity
  8
Defpoints
 62
     0
100
AcDbPoint
 10
814.6488149828874
 20
1143.152252734133
 30
0.0
  0
POINT
  5
23D5
330
2042
100
AcDbEntity
  8
Defpoints
 62
     0
100
AcDbPoint
 10
814.6488149828874
 20
1128.152252734133
 30
0.0
  0
POINT
  5
23D6
330
2042
100
AcDbEntity
  8
Defpoints
 62
     0
100
AcDbPoint
 10
684.6488149828874
 20
1128.152252734133
 30
0.0
  0
ENDBLK
  5
204E
330
2042
100
AcDbEntity
  8
0
100
AcDbBlockEnd
  0
BLOCK
  5
205A
330
2050
100
AcDbEntity
  8
0
100
AcDbBlockBegin
  2
*D25
 70
     1
 10
0.0
 20
0.0
 30
0.0
  3
*D25
  1

  0
LINE
  5
23E0
330
2050
100
AcDbEntity
  8
実形
 62
     0
370
    18
100
AcDbLine
 10
749.6488149828874
 20
1128.152252734133
 30
0.0
 11
684.6488149828874
 21
1128.152252734133
 31
0.0
  0
LINE
  5
23E1
330
2050
100
AcDbEntity
  8
実形
 62
     0
370
    18
100
AcDbLine
 10
749.6488149828874
 20
1108.152252734133
 30
0.0
 11
684.6488149828874
 21
1108.152252734133
 31
0.0
  0
LINE
  5
23E2
330
2050
100
AcDbEntity
  8
実形
 62
     0
370
    18
100
AcDbLine
 10
684.6488149828874
 20
1128.152252734133
 30
0.0
 11
684.6488149828874
 21
1108.152252734133
 31
0.0
  0
MTEXT
  5
23E3
330
2050
100
AcDbEntity
  8
実形
 62
     0
100
AcDbMText
 10
666.088953283981
 20
1078.50059348481
 30
0.0
 40
25.0
 41
0.0
 71
     5
 72
     1
  1
20
 11
0.0000000000000001
 21
1.0
 31
0.0
 73
     1
 44
1.0
1001
ACAD
1000
MTEXTBEGIN
1070
    73
1070
     1
1070
    44
1040
1.0
1070
    74
1070
     0
1000
MTEXTEND
  0
INSERT
  5
23E4
330
2050
100
AcDbEntity
  8
実形
 62
     0
370
    18
100
AcDbBlockReference
  2
_DotSmall
 10
684.6488149828874
 20
1128.152252734133
 30
0.0
 41
35.0
 42
35.0
 43
35.0
 50
90.0
  0
INSERT
  5
23E5
330
2050
100
AcDbEntity
  8
実形
 62
     0
370
    18
100
AcDbBlockReference
  2
_DotSmall
 10
684.6488149828874
 20
1108.152252734133
 30
0.0
 41
35.0
 42
35.0
 43
35.0
 50
270.0
  0
POINT
  5
23E6
330
2050
100
AcDbEntity
  8
Defpoints
 62
     0
100
AcDbPoint
 10
814.6488149828874
 20
1128.152252734133
 30
0.0
  0
POINT
  5
23E7
330
2050
100
AcDbEntity
  8
Defpoints
 62
     0
100
AcDbPoint
 10
814.6488149828874
 20
1108.152252734133
 30
0.0
  0
POINT
  5
23E8
330
2050
100
AcDbEntity
  8
Defpoints
 62
     0
100
AcDbPoint
 10
684.6488149828874
 20
1108.152252734133
 30
0.0
  0
ENDBLK
  5
205B
330
2050
100
AcDbEntity
  8
0
100
AcDbBlockEnd
  0
BLOCK
  5
2068
330
205D
100
AcDbEntity
  8
0
100
AcDbBlockBegin
  2
*D26
 70
     1
 10
0.0
 20
0.0
 30
0.0
  3
*D26
  1

  0
LINE
  5
2416
330
205D
100
AcDbEntity
  8
実形
 62
     0
370
    18
100
AcDbLine
 10
794.6488149828874
 20
1063.152252734133
 30
0.0
 11
794.6488149828874
 21
998.1522527341331
 31
0.0
  0
LINE
  5
2417
330
205D
100
AcDbEntity
  8
実形
 62
     0
370
    18
100
AcDbLine
 10
814.6488149828874
 20
1063.152252734133
 30
0.0
 11
814.6488149828874
 21
998.1522527341331
 31
0.0
  0
LINE
  5
2418
330
205D
100
AcDbEntity
  8
実形
 62
     0
370
    18
100
AcDbLine
 10
794.6488149828874
 20
998.1522527341331
 30
0.0
 11
814.6488149828874
 21
998.1522527341331
 31
0.0
  0
MTEXT
  5
2419
330
205D
100
AcDbEntity
  8
実形
 62
     0
100
AcDbMText
 10
766.3395643341318
 20
1019.667217421201
 30
0.0
 40
25.0
 41
0.0
 71
     5
 72
     1
  1
20
 73
     1
 44
1.0
1001
ACAD
1000
MTEXTBEGIN
1070
    73
1070
     1
1070
    44
1040
1.0
1070
    74
1070
     0
1000
MTEXTEND
  0
INSERT
  5
241A
330
205D
100
AcDbEntity
  8
実形
 62
     0
370
    18
100
AcDbBlockReference
  2
_DotSmall
 10
794.6488149828874
 20
998.1522527341331
 30
0.0
 41
35.0
 42
35.0
 43
35.0
 50
180.0
  0
INSERT
  5
241B
330
205D
100
AcDbEntity
  8
実形
 62
     0
370
    18
100
AcDbBlockReference
  2
_DotSmall
 10
814.6488149828874
 20
998.1522527341331
 30
0.0
 41
35.0
 42
35.0
 43
35.0
  0
POINT
  5
241C
330
205D
100
AcDbEntity
  8
Defpoints
 62
     0
100
AcDbPoint
 10
794.6488149828874
 20
1128.152252734133
 30
0.0
  0
POINT
  5
241D
330
205D
100
AcDbEntity
  8
Defpoints
 62
     0
100
AcDbPoint
 10
814.6488149828874
 20
1128.152252734133
 30
0.0
  0
POINT
  5
241E
330
205D
100
AcDbEntity
  8
Defpoints
 62
     0
100
AcDbPoint
 10
814.6488149828874
 20
998.1522527341331
 30
0.0
  0
ENDBLK
  5
2069
330
205D
100
AcDbEntity
  8
0
100
AcDbBlockEnd
  0
BLOCK
  5
2077
330
206B
100
AcDbEntity
  8
0
100
AcDbBlockBegin
  2
*D27
 70
     1
 10
0.0
 20
0.0
 30
0.0
  3
*D27
  1

  0
LINE
  5
2428
330
206B
100
AcDbEntity
  8
実形
 62
     0
370
    18
100
AcDbLine
 10
814.6488149828874
 20
1063.152252734133
 30
0.0
 11
814.6488149828874
 21
998.1522527341331
 31
0.0
  0
LINE
  5
2429
330
206B
100
AcDbEntity
  8
実形
 62
     0
370
    18
100
AcDbLine
 10
829.6488149828874
 20
1063.152252734133
 30
0.0
 11
829.6488149828874
 21
998.1522527341331
 31
0.0
  0
LINE
  5
242A
330
206B
100
AcDbEntity
  8
実形
 62
     0
370
    18
100
AcDbLine
 10
814.6488149828874
 20
998.1522527341331
 30
0.0
 11
829.6488149828874
 21
998.1522527341331
 31
0.0
  0
MTEXT
  5
242B
330
206B
100
AcDbEntity
  8
実形
 62
     0
100
AcDbMText
 10
858.6337696787413
 20
1018.077126851613
 30
0.0
 40
25.0
 41
0.0
 71
     5
 72
     1
  1
15
 73
     1
 44
1.0
1001
ACAD
1000
MTEXTBEGIN
1070
    73
1070
     1
1070
    44
1040
1.0
1070
    74
1070
     0
1000
MTEXTEND
  0
INSERT
  5
242C
330
206B
100
AcDbEntity
  8
実形
 62
     0
370
    18
100
AcDbBlockReference
  2
_DotSmall
 10
814.6488149828874
 20
998.1522527341331
 30
0.0
 41
35.0
 42
35.0
 43
35.0
 50
180.0
  0
INSERT
  5
242D
330
206B
100
AcDbEntity
  8
実形
 62
     0
370
    18
100
AcDbBlockReference
  2
_DotSmall
 10
829.6488149828874
 20
998.1522527341331
 30
0.0
 41
35.0
 42
35.0
 43
35.0
  0
POINT
  5
242E
330
206B
100
AcDbEntity
  8
Defpoints
 62
     0
100
AcDbPoint
 10
814.6488149828874
 20
1128.152252734133
 30
0.0
  0
POINT
  5
242F
330
206B
100
AcDbEntity
  8
Defpoints
 62
     0
100
AcDbPoint
 10
829.6488149828874
 20
1128.152252734133
 30
0.0
  0
POINT
  5
2430
330
206B
100
AcDbEntity
  8
Defpoints
 62
     0
100
AcDbPoint
 10
829.6488149828874
 20
998.1522527341331
 30
0.0
  0
ENDBLK
  5
2078
330
206B
100
AcDbEntity
  8
0
100
AcDbBlockEnd
  0
ENDSEC
  0
SECTION
  2
ENTITIES
  0
LINE
  5
73
330
1F
100
AcDbEntity
  8
0
100
AcDbLine
 10
109.0
 20
4.0
 30
0.0
 11
278.0
 21
4.0
 31
0.0
  0
LINE
  5
9C
330
1F
100
AcDbEntity
  8
補助
100
AcDbLine
 10
109.0
 20
4.0
 30
0.0
 11
2784.0
 21
4.0
 31
0.0
  0
LINE
  5
A0
330
1F
100
AcDbEntity
  8
補助
100
AcDbLine
 10
2784.0
 20
2024.0
 30
0.0
 11
109.0
 21
2024.0
 31
0.0
  0
LINE
  5
A5
330
1F
100
AcDbEntity
  8
補助
100
AcDbLine
 10
2784.0
 20
4.0
 30
0.0
 11
2784.0
 21
2024.0
 31
0.0
  0
LINE
  5
2E6
330
1F
100
AcDbEntity
  8
実形
100
AcDbLine
 10
809.6488149828873
 20
749.3171958128195
 30
0.0
 11
1579.648814982887
 21
749.3171958128195
 31
0.0
  0
LINE
  5
2FE
330
1F
100
AcDbEntity
  8
実形
100
AcDbLine
 10
1852.341943390351
 20
1623.152252734133
 30
0.0
 11
1852.341943390351
 21
1123.152252734133
 31
0.0
  0
LINE
  5
33A
330
1F
100
AcDbEntity
  8
センター
 48
0.5
370
    15
100
AcDbLine
 10
860.4951709432008
 20
1348.152252734133
 30
0.0
 11
1499.936590344316
 21
1348.152252734133
 31
0.0
  0
LINE
  5
33B
330
1F
100
AcDbEntity
  8
センター
 48
0.5
370
    15
100
AcDbLine
 10
979.6488149828874
 20
1543.253436908569
 30
0.0
 11
979.6488149828874
 21
1208.244754865465
 31
0.0
  0
LINE
  5
33C
330
1F
100
AcDbEntity
  8
センター
 48
0.5
370
    15
100
AcDbLine
 10
979.6488149828874
 20
633.5338196882331
 30
0.0
 11
979.6488149828874
 21
482.1179993809328
 31
0.0
  0
LINE
  5
33D
330
1F
100
AcDbEntity
  8
センター
 48
0.5
370
    15
100
AcDbLine
 10
1964.806154711394
 20
1348.152252734133
 30
0.0
 11
2073.717106968456
 21
1348.152252734133
 31
0.0
  0
DIMENSION
  5
35B
330
1F
100
AcDbEntity
  8
実形
100
AcDbDimension
  2
*D4
 10
794.6488149828874
 20
1712.449688985941
 30
0.0
 11
887.1488149828874
 21
1731.199688985941
 31
0.0
 70
    32
 71
     5
 42
185.0
  3
ISO-25
100
AcDbAlignedDimension
 13
979.6488149828874
 23
1436.652252734133
 33
0.0
 14
794.6488149828874
 24
1590.834718079512
 34
0.0
100
AcDbRotatedDimension
1001
ACAD
1000
DSTYLE
1002
{
1070
   371
1070
    18
1002
}
  0
DIMENSION
  5
368
330
1F
100
AcDbEntity
  8
実形
100
AcDbDimension
  2
*D5
 10
1677.251827601869
 20
1348.152252734133
 30
0.0
 11
1658.501827601869
 21
1228.152252734133
 31
0.0
 70
    32
 71
     5
 42
239.9999999999998
  3
ISO-25
100
AcDbAlignedDimension
 13
1555.388457052451
 23
1108.152252734133
 33
0.0
 14
1414.648814982887
 24
1348.152252734133
 34
0.0
 50
90.0
100
AcDbRotatedDimension
1001
ACAD
1000
DSTYLE
1002
{
1070
   371
1070
    18
1002
}
  0
DIMENSION
  5
3CE
330
1F
100
AcDbEntity
  8
実形
100
AcDbDimension
  2
*D6
 10
614.6488149828874
 20
1553.152252734133
 30
0.0
 11
595.8988149828871
 21
1595.652252734133
 31
0.0
 70
    32
  1
85
 71
     5
 42
85.00000000000046
  3
ISO-25
100
AcDbAlignedDimension
 13
812.6488149828874
 23
1638.152252734133
 33
0.0
 14
814.6488149828874
 24
1553.152252734133
 34
0.0
 50
90.0
100
AcDbRotatedDimension
1001
ACAD
1000
DSTYLE
1002
{
1070
   371
1070
    18
1002
}
  0
DIMENSION
  5
3DC
330
1F
100
AcDbEntity
  8
実形
100
AcDbDimension
  2
*D7
 10
614.6488149828874
 20
1143.152252734133
 30
0.0
 11
595.8988149828873
 21
1348.152252734133
 31
0.0
 70
    32
 71
     5
 42
409.9999999999995
  3
ISO-25
100
AcDbAlignedDimension
 13
814.6488149828874
 23
1553.152252734133
 33
0.0
 14
814.6488149828874
 24
1143.152252734133
 34
0.0
 50
90.0
100
AcDbRotatedDimension
1001
ACAD
1000
DSTYLE
1002
{
1070
   281
1070
     0
1070
   371
1070
    18
1070
   279
1070
     1
1002
}
  0
DIMENSION
  5
3F6
330
1F
100
AcDbEntity
  8
実形
100
AcDbDimension
  2
*D8
 10
544.6488149828874
 20
1108.152252734133
 30
0.0
 11
525.8988149828873
 21
1373.152252734133
 31
0.0
 70
    32
 71
     5
 42
530.0
  3
ISO-25
100
AcDbAlignedDimension
 13
812.6488149828874
 23
1638.152252734133
 33
0.0
 14
812.6488149828874
 24
1108.152252734133
 34
0.0
 50
90.0
100
AcDbRotatedDimension
1001
ACAD
1000
DSTYLE
1002
{
1070
   371
1070
    18
1002
}
  0
DIMENSION
  5
44B
330
1F
100
AcDbEntity
  8
実形
100
AcDbDimension
  2
*D9
 10
1559.648814982887
 20
928.152252734133
 30
0.0
 11
1194.648814982887
 21
946.902252734133
 31
0.0
 70
    32
 71
     5
 42
730.0000000000003
  3
ISO-25
100
AcDbAlignedDimension
 13
829.6488149828872
 23
1123.656099115589
 33
0.0
 14
1559.648814982887
 24
1123.656099115589
 34
0.0
100
AcDbRotatedDimension
1001
ACAD
1000
DSTYLE
1002
{
1070
   371
1070
    18
1070
   279
1070
     1
1002
}
  0
DIMENSION
  5
458
330
1F
100
AcDbEntity
  8
実形
100
AcDbDimension
  2
*D10
 10
1594.648814982887
 20
928.152252734133
 30
0.0
 11
1526.971148193968
 21
948.1131118031163
 31
0.0
 70
   160
  1
35
 71
     5
 42
34.99999999999977
  3
ISO-25
100
AcDbAlignedDimension
 13
1559.648814982887
 23
1123.656099115589
 33
0.0
 14
1594.648814982887
 24
1126.152252734133
 34
0.0
100
AcDbRotatedDimension
1001
ACAD
1000
DSTYLE
1002
{
1070
   281
1070
     0
1070
   371
1070
    18
1070
   279
1070
     2
1002
}
  0
DIMENSION
  5
4A3
330
1F
100
AcDbEntity
  8
実形
100
AcDbDimension
  2
*D11
 10
1594.648814982887
 20
858.1522527341331
 30
0.0
 11
1194.648814982887
 21
876.9022527341331
 31
0.0
 70
    32
 71
     5
 42
800.0
  3
ISO-25
100
AcDbAlignedDimension
 13
794.6488149828874
 23
1123.152252734133
 33
0.0
 14
1594.648814982887
 24
1123.152252734133
 34
0.0
100
AcDbRotatedDimension
1001
ACAD
1000
DSTYLE
1002
{
1070
   371
1070
    18
1002
}
  0
DIMENSION
  5
4BE
330
1F
100
AcDbEntity
  8
実形
100
AcDbDimension
  2
*D12
 10
1683.540565470595
 20
560.3171958128196
 30
0.0
 11
1683.540565470594
 21
567.8171958128197
 31
0.0
 70
    32
  1
 
 71
     5
 42
15.0
  3
ISO-25
100
AcDbAlignedDimension
 13
1564.648814982887
 23
575.3171958128196
 33
0.0
 14
1564.648814982887
 24
560.3171958128196
 34
0.0
 50
90.0
100
AcDbRotatedDimension
1001
ACAD
1000
DSTYLE
1002
{
1070
   371
1070
    18
1002
}
  0
DIMENSION
  5
4CC
330
1F
100
AcDbEntity
  8
実形
100
AcDbDimension
  2
*D13
 10
1722.281189805476
 20
560.3171958128196
 30
0.0
 11
1703.531189805476
 21
657.3171958128199
 31
0.0
 70
    32
 71
     5
 42
194.0000000000001
  3
ISO-25
100
AcDbAlignedDimension
 13
1564.648814982887
 23
754.3171958128197
 33
0.0
 14
1564.648814982887
 24
560.3171958128196
 34
0.0
 50
90.0
100
AcDbRotatedDimension
1001
ACAD
1000
DSTYLE
1002
{
1070
   371
1070
    18
1002
}
  0
TEXT
  5
4F7
330
1F
100
AcDbEntity
  8
実形
100
AcDbText
 10
1686.594267182599
 20
501.0113126095852
 30
0.0
 40
25.0
  1
15
 50
90.0
100
AcDbText
  0
DIMENSION
  5
4F8
330
1F
100
AcDbEntity
  8
実形
100
AcDbDimension
  2
*D14
 10
1059.648814982887
 20
433.8897885117467
 30
0.0
 11
979.6488149828874
 21
452.6397885117467
 31
0.0
 70
    32
 71
     5
 42
160.0
  3
ISO-25
100
AcDbAlignedDimension
 13
899.6488149828874
 23
550.3171958128196
 33
0.0
 14
1059.648814982887
 24
550.3171958128196
 34
0.0
100
AcDbRotatedDimension
1001
ACAD
1000
DSTYLE
1002
{
1070
   371
1070
    18
1002
}
  0
DIMENSION
  5
505
330
1F
100
AcDbEntity
  8
実形
100
AcDbDimension
  2
*D15
 10
1070.148814982887
 20
373.9303899428178
 30
0.0
 11
979.6488149828874
 21
392.6803899428178
 31
0.0
 70
    32
 71
     5
 42
181.0
  3
ISO-25
100
AcDbAlignedDimension
 13
889.1488149828873
 23
550.3171958128196
 33
0.0
 14
1070.148814982887
 24
550.3171958128196
 34
0.0
100
AcDbRotatedDimension
1001
ACAD
1000
DSTYLE
1002
{
1070
   371
1070
    18
1002
}
  0
DIMENSION
  5
532
330
1F
100
AcDbEntity
  8
寸法
100
AcDbDimension
  2
*D16
 10
2026.341943390351
 20
975.2201349640786
 30
0.0
 11
2033.841943390351
 21
975.2201349640786
 31
0.0
 70
    32
  1
 
 71
     5
 42
15.0
  3
ISO-25
100
AcDbAlignedDimension
 13
2041.341943390351
 23
1138.152252734133
 33
0.0
 14
2026.341943390351
 24
1138.152252734133
 34
0.0
100
AcDbRotatedDimension
1001
ACAD
1000
DSTYLE
1002
{
1070
   371
1070
    18
1002
}
  0
DIMENSION
  5
548
330
1F
100
AcDbEntity
  8
実形
100
AcDbDimension
  2
*D17
 10
1847.341943390351
 20
895.240724808209
 30
0.0
 11
1944.341943390351
 21
913.990724808209
 31
0.0
 70
    32
 71
     5
 42
194.0
  3
ISO-25
100
AcDbAlignedDimension
 13
2041.341943390351
 23
1123.152252734133
 33
0.0
 14
1847.341943390351
 24
1126.152252734133
 34
0.0
100
AcDbRotatedDimension
1001
ACAD
1000
DSTYLE
1002
{
1070
   371
1070
    18
1002
}
  0
TEXT
  5
555
330
1F
100
AcDbEntity
  8
実形
100
AcDbText
 10
2068.328227366615
 20
977.5081325984743
 30
0.0
 40
25.0
  1
15
100
AcDbText
  0
DIMENSION
  5
569
330
1F
100
AcDbEntity
  8
実形
100
AcDbDimension
  2
*D18
 10
2161.648087482271
 20
1268.152252734133
 30
0.0
 11
2142.89808748227
 21
1348.152252734133
 31
0.0
 70
    32
 71
     5
 42
160.0
  3
ISO-25
100
AcDbAlignedDimension
 13
2051.341943390351
 23
1428.152252734133
 33
0.0
 14
2051.341943390351
 24
1268.152252734133
 34
0.0
 50
90.0
100
AcDbRotatedDimension
1001
ACAD
1000
DSTYLE
1002
{
1070
   371
1070
    18
1002
}
  0
DIMENSION
  5
57F
330
1F
100
AcDbEntity
  8
実形
100
AcDbDimension
  2
*D19
 10
2226.569675447113
 20
1257.652252734133
 30
0.0
 11
2207.819675447112
 21
1348.152252734133
 31
0.0
 70
    32
 71
     5
 42
181.0
  3
ISO-25
100
AcDbAlignedDimension
 13
2051.341943390351
 23
1438.652252734133
 33
0.0
 14
2051.341943390351
 24
1257.652252734133
 34
0.0
 50
90.0
100
AcDbRotatedDimension
1001
ACAD
1000
DSTYLE
1002
{
1070
   371
1070
    18
1002
}
  0
LINE
  5
F27
330
1F
100
AcDbEntity
  8
実形
100
AcDbLine
 10
809.6488149828873
 20
749.3171958128195
 30
0.0
 11
1579.648814982887
 21
749.3171958128195
 31
0.0
  0
LINE
  5
1238
330
1F
100
AcDbEntity
  8
実形
100
AcDbLine
 10
1594.648814982887
 20
749.3171958128195
 30
0.0
 11
794.6488149828874
 21
749.3171958128195
 31
0.0
  0
LINE
  5
123B
330
1F
100
AcDbEntity
  8
実形
100
AcDbLine
 10
889.1488149828873
 20
560.3171958128196
 30
0.0
 11
889.1488149828873
 21
550.3171958128196
 31
0.0
  0
LINE
  5
123C
330
1F
100
AcDbEntity
  8
実形
100
AcDbLine
 10
889.1488149828873
 20
550.3171958128196
 30
0.0
 11
1070.148814982887
 21
550.3171958128196
 31
0.0
  0
LINE
  5
123D
330
1F
100
AcDbEntity
  8
実形
100
AcDbLine
 10
1070.148814982887
 20
550.3171958128196
 30
0.0
 11
1070.148814982887
 21
560.3171958128196
 31
0.0
  0
LINE
  5
123E
330
1F
100
AcDbEntity
  8
実形
100
AcDbLine
 10
1070.148814982887
 20
560.3171958128196
 30
0.0
 11
889.1488149828873
 21
560.3171958128196
 31
0.0
  0
LINE
  5
12A9
330
1F
100
AcDbEntity
  8
実形
100
AcDbLine
 10
1852.341943390351
 20
1623.152252734133
 30
0.0
 11
1852.341943390351
 21
1123.152252734133
 31
0.0
  0
LINE
  5
12AC
330
1F
100
AcDbEntity
  8
実形
100
AcDbLine
 10
2041.341943390351
 20
1257.652252734133
 30
0.0
 11
2051.341943390351
 21
1257.652252734133
 31
0.0
  0
LINE
  5
12AD
330
1F
100
AcDbEntity
  8
実形
100
AcDbLine
 10
2051.341943390351
 20
1257.652252734133
 30
0.0
 11
2051.341943390351
 21
1438.652252734133
 31
0.0
  0
LINE
  5
12AE
330
1F
100
AcDbEntity
  8
実形
100
AcDbLine
 10
2051.341943390351
 20
1438.652252734133
 30
0.0
 11
2041.341943390351
 21
1438.652252734133
 31
0.0
  0
LINE
  5
12AF
330
1F
100
AcDbEntity
  8
実形
100
AcDbLine
 10
2041.341943390351
 20
1438.652252734133
 30
0.0
 11
2041.341943390351
 21
1257.652252734133
 31
0.0
  0
LINE
  5
15F5
330
1F
100
AcDbEntity
  8
実形
100
AcDbLine
 10
1559.648814982887
 20
739.3171958128196
 30
0.0
 11
1559.648814982887
 21
603.8030342141368
 31
0.0
  0
LINE
  5
15F8
330
1F
100
AcDbEntity
  8
実形
100
AcDbLine
 10
829.6488149828874
 20
598.6928090719437
 30
0.0
 11
829.6488149828871
 21
739.3171958128196
 31
0.0
  0
LINE
  5
15F9
330
1F
100
AcDbEntity
  8
実形
100
AcDbLine
 10
1862.341943390351
 20
1143.152252734133
 30
0.0
 11
2000.015737377301
 21
1143.152252734133
 31
0.0
  0
LINE
  5
15FB
330
1F
100
AcDbEntity
  8
実形
100
AcDbLine
 10
1862.341943390351
 20
1553.152252734133
 30
0.0
 11
2000.015737377301
 21
1553.152252734134
 31
0.0
  0
DIMENSION
  5
173D
330
1F
100
AcDbEntity
  8
実形
100
AcDbDimension
  2
*D20
 10
794.6488149828874
 20
928.152252734133
 30
0.0
 11
863.4076062654784
 21
946.5230212335281
 31
0.0
 70
   160
  1
35
 71
     5
 42
35.0
  3
ISO-25
100
AcDbAlignedDimension
 13
829.6488149828874
 23
1128.152252734133
 33
0.0
 14
794.6488149828874
 24
1128.152252734133
 34
0.0
100
AcDbRotatedDimension
1001
ACAD
1000
DSTYLE
1002
{
1070
   279
1070
     2
1070
   282
1070
     0
1070
   281
1070
     0
1070
   371
1070
    18
1070
   372
1070
    18
1002
}
  0
DIMENSION
  5
17AE
330
1F
100
AcDbEntity
  8
実形
100
AcDbDimension
  2
*D21
 10
614.6488149828876
 20
1108.152252734133
 30
0.0
 11
592.8901028320542
 21
1135.572675614467
 31
0.0
 70
   160
  1
35
 71
     5
 42
35.0
  3
ISO-25
100
AcDbAlignedDimension
 13
814.6488149828874
 23
1143.152252734133
 33
0.0
 14
814.6488149828874
 24
1108.152252734133
 34
0.0
 50
90.0
100
AcDbRotatedDimension
1001
ACAD
1000
DSTYLE
1002
{
1070
   279
1070
     2
1070
   371
1070
    18
1070
   372
1070
    18
1002
}
  0
LINE
  5
1877
330
1F
100
AcDbEntity
  8
実形
100
AcDbLine
 10
814.6488149828874
 20
1588.152252734133
 30
0.0
 11
814.6488149828874
 21
1158.152252734133
 31
0.0
  0
LINE
  5
1878
330
1F
100
AcDbEntity
  8
実形
100
AcDbLine
 10
844.6488149828875
 20
1128.152252734133
 30
0.0
 11
1544.648814982887
 21
1128.152252734133
 31
0.0
  0
LINE
  5
1879
330
1F
100
AcDbEntity
  8
実形
100
AcDbLine
 10
1574.648814982887
 20
1158.152252734133
 30
0.0
 11
1574.648814982887
 21
1588.152252734133
 31
0.0
  0
LINE
  5
187A
330
1F
100
AcDbEntity
  8
実形
100
AcDbLine
 10
1544.648814982887
 20
1618.152252734133
 30
0.0
 11
844.6488149828875
 21
1618.152252734133
 31
0.0
  0
LINE
  5
187B
330
1F
100
AcDbEntity
  8
実形
100
AcDbLine
 10
804.6488149828874
 20
1638.152252734133
 30
0.0
 11
1584.648814982887
 21
1638.152252734133
 31
0.0
  0
LINE
  5
187C
330
1F
100
AcDbEntity
  8
実形
100
AcDbLine
 10
1594.648814982887
 20
1628.152252734133
 30
0.0
 11
1594.648814982887
 21
1118.152252734133
 31
0.0
  0
LINE
  5
187D
330
1F
100
AcDbEntity
  8
実形
100
AcDbLine
 10
1584.648814982887
 20
1108.152252734133
 30
0.0
 11
804.6488149828874
 21
1108.152252734133
 31
0.0
  0
LINE
  5
187E
330
1F
100
AcDbEntity
  8
実形
100
AcDbLine
 10
794.6488149828874
 20
1118.152252734133
 30
0.0
 11
794.6488149828874
 21
1628.152252734133
 31
0.0
  0
ARC
  5
187F
330
1F
100
AcDbEntity
  8
実形
100
AcDbCircle
 10
1544.648814982887
 20
1158.152252734133
 30
0.0
 40
30.0
100
AcDbArc
 50
270.0
 51
0.0
  0
ARC
  5
1880
330
1F
100
AcDbEntity
  8
実形
100
AcDbCircle
 10
1544.648814982887
 20
1588.152252734133
 30
0.0
 40
30.0
100
AcDbArc
 50
0.0
 51
90.0
  0
ARC
  5
1881
330
1F
100
AcDbEntity
  8
実形
100
AcDbCircle
 10
844.6488149828875
 20
1588.152252734133
 30
0.0
 40
30.0
100
AcDbArc
 50
90.00000000000005
 51
180.0
  0
ARC
  5
1882
330
1F
100
AcDbEntity
  8
実形
100
AcDbCircle
 10
844.6488149828875
 20
1158.152252734133
 30
0.0
 40
30.0
100
AcDbArc
 50
180.0
 51
270.0000000000001
  0
ARC
  5
1883
330
1F
100
AcDbEntity
  8
実形
100
AcDbCircle
 10
804.6488149828874
 20
1118.152252734133
 30
0.0
 40
10.0
100
AcDbArc
 50
180.0
 51
270.0
  0
ARC
  5
1884
330
1F
100
AcDbEntity
  8
実形
100
AcDbCircle
 10
804.6488149828874
 20
1628.152252734133
 30
0.0
 40
10.0
100
AcDbArc
 50
90.0
 51
180.0
  0
ARC
  5
1885
330
1F
100
AcDbEntity
  8
実形
100
AcDbCircle
 10
1584.648814982887
 20
1628.152252734133
 30
0.0
 40
10.0
100
AcDbArc
 50
0.0
 51
90.0
  0
ARC
  5
1886
330
1F
100
AcDbEntity
  8
実形
100
AcDbCircle
 10
1584.648814982887
 20
1118.152252734133
 30
0.0
 40
10.0
100
AcDbArc
 50
270.0
 51
0.0
  0
LINE
  5
1887
330
1F
100
AcDbEntity
  8
実形
100
AcDbLine
 10
804.6488149828874
 20
1633.152252734133
 30
0.0
 11
1584.648814982887
 21
1633.152252734133
 31
0.0
  0
ARC
  5
1888
330
1F
100
AcDbEntity
  8
実形
100
AcDbCircle
 10
1584.648814982887
 20
1628.152252734133
 30
0.0
 40
5.0
100
AcDbArc
 50
0.0
 51
90.0
  0
LINE
  5
1889
330
1F
100
AcDbEntity
  8
実形
100
AcDbLine
 10
1589.648814982887
 20
1628.152252734133
 30
0.0
 11
1589.648814982887
 21
1118.152252734133
 31
0.0
  0
ARC
  5
188A
330
1F
100
AcDbEntity
  8
実形
100
AcDbCircle
 10
1584.648814982887
 20
1118.152252734133
 30
0.0
 40
5.0
100
AcDbArc
 50
270.0
 51
0.0
  0
LINE
  5
188B
330
1F
100
AcDbEntity
  8
実形
100
AcDbLine
 10
1584.648814982887
 20
1113.152252734133
 30
0.0
 11
804.6488149828874
 21
1113.152252734133
 31
0.0
  0
ARC
  5
188C
330
1F
100
AcDbEntity
  8
実形
100
AcDbCircle
 10
804.6488149828874
 20
1118.152252734133
 30
0.0
 40
5.0
100
AcDbArc
 50
180.0
 51
270.0
  0
LINE
  5
188D
330
1F
100
AcDbEntity
  8
実形
100
AcDbLine
 10
799.6488149828874
 20
1118.152252734133
 30
0.0
 11
799.6488149828874
 21
1628.152252734133
 31
0.0
  0
ARC
  5
188E
330
1F
100
AcDbEntity
  8
実形
100
AcDbCircle
 10
804.6488149828874
 20
1628.152252734133
 30
0.0
 40
5.0
100
AcDbArc
 50
90.0
 51
180.0
  0
LINE
  5
188F
330
1F
100
AcDbEntity
  8
実形
100
AcDbLine
 10
1544.648814982887
 20
1623.152252734133
 30
0.0
 11
844.6488149828875
 21
1623.152252734133
 31
0.0
  0
ARC
  5
1890
330
1F
100
AcDbEntity
  8
実形
100
AcDbCircle
 10
1544.648814982887
 20
1588.152252734133
 30
0.0
 40
35.0
100
AcDbArc
 50
0.0
 51
90.0
  0
LINE
  5
1891
330
1F
100
AcDbEntity
  8
実形
100
AcDbLine
 10
1579.648814982887
 20
1158.152252734133
 30
0.0
 11
1579.648814982887
 21
1588.152252734133
 31
0.0
  0
ARC
  5
1892
330
1F
100
AcDbEntity
  8
実形
100
AcDbCircle
 10
1544.648814982887
 20
1158.152252734133
 30
0.0
 40
35.0
100
AcDbArc
 50
270.0
 51
0.0
  0
LINE
  5
1893
330
1F
100
AcDbEntity
  8
実形
100
AcDbLine
 10
844.6488149828875
 20
1123.152252734133
 30
0.0
 11
1544.648814982887
 21
1123.152252734133
 31
0.0
  0
ARC
  5
1894
330
1F
100
AcDbEntity
  8
実形
100
AcDbCircle
 10
844.6488149828875
 20
1158.152252734133
 30
0.0
 40
35.0
100
AcDbArc
 50
180.0
 51
270.0000000000001
  0
LINE
  5
1895
330
1F
100
AcDbEntity
  8
実形
100
AcDbLine
 10
809.6488149828873
 20
1588.152252734133
 30
0.0
 11
809.6488149828873
 21
1158.152252734133
 31
0.0
  0
ARC
  5
1896
330
1F
100
AcDbEntity
  8
実形
100
AcDbCircle
 10
844.6488149828875
 20
1588.152252734133
 30
0.0
 40
35.0
100
AcDbArc
 50
90.00000000000005
 51
180.0
  0
LINE
  5
18A0
330
1F
100
AcDbEntity
  8
実形
100
AcDbLine
 10
1589.648814982887
 20
754.3171958128196
 30
0.0
 11
799.6488149828874
 21
754.3171958128196
 31
0.0
  0
LINE
  5
18A1
330
1F
100
AcDbEntity
  8
実形
100
AcDbLine
 10
799.6488149828874
 20
754.3171958128196
 30
0.0
 11
794.6488149828874
 21
749.3171958128195
 31
0.0
  0
LINE
  5
18A2
330
1F
100
AcDbEntity
  8
実形
100
AcDbLine
 10
1589.648814982887
 20
754.3171958128196
 30
0.0
 11
1594.648814982887
 21
749.3171958128195
 31
0.0
  0
LINE
  5
18B3
330
1F
100
AcDbEntity
  8
実形
100
AcDbLine
 10
1581.648814982887
 20
749.3171958128195
 30
0.0
 11
1581.648814982887
 21
739.3171958128196
 31
0.0
  0
LINE
  5
18B4
330
1F
100
AcDbEntity
  8
実形
100
AcDbLine
 10
1581.648814982887
 20
739.3171958128196
 30
0.0
 11
807.6488149828874
 21
739.3171958128196
 31
0.0
  0
LINE
  5
18B5
330
1F
100
AcDbEntity
  8
実形
100
AcDbLine
 10
807.6488149828874
 20
739.3171958128196
 30
0.0
 11
807.6488149828874
 21
749.3171958128195
 31
0.0
  0
LINE
  5
18B7
330
1F
100
AcDbEntity
  8
実形
100
AcDbLine
 10
1862.341943390351
 20
1625.152252734133
 30
0.0
 11
1862.341943390351
 21
1121.152252734133
 31
0.0
  0
LINE
  5
18B8
330
1F
100
AcDbEntity
  8
実形
100
AcDbLine
 10
1847.341943390351
 20
1633.152252734133
 30
0.0
 11
1847.341943390351
 21
1113.152252734133
 31
0.0
  0
LINE
  5
18B9
330
1F
100
AcDbEntity
  8
実形
100
AcDbLine
 10
1852.341943390351
 20
1638.152252734133
 30
0.0
 11
1852.341943390351
 21
1108.152252734133
 31
0.0
  0
LINE
  5
18BA
330
1F
100
AcDbEntity
  8
実形
100
AcDbLine
 10
1852.341943390351
 20
1123.152252734133
 30
0.0
 11
1852.341943390351
 21
1623.152252734133
 31
0.0
  0
LINE
  5
18BB
330
1F
100
AcDbEntity
  8
実形
100
AcDbLine
 10
1852.341943390351
 20
1123.152252734133
 30
0.0
 11
1852.341943390351
 21
1623.152252734133
 31
0.0
  0
LINE
  5
18BC
330
1F
100
AcDbEntity
  8
実形
100
AcDbLine
 10
1862.341943390351
 20
1121.152252734133
 30
0.0
 11
1852.341943390351
 21
1121.152252734133
 31
0.0
  0
LINE
  5
18BD
330
1F
100
AcDbEntity
  8
実形
100
AcDbLine
 10
1847.341943390351
 20
1113.152252734133
 30
0.0
 11
1852.341943390351
 21
1108.152252734133
 31
0.0
  0
LINE
  5
18BE
330
1F
100
AcDbEntity
  8
実形
100
AcDbLine
 10
1852.341943390351
 20
1625.152252734133
 30
0.0
 11
1862.341943390351
 21
1625.152252734133
 31
0.0
  0
LINE
  5
18BF
330
1F
100
AcDbEntity
  8
実形
100
AcDbLine
 10
1847.341943390351
 20
1633.152252734133
 30
0.0
 11
1852.341943390351
 21
1638.152252734133
 31
0.0
  0
CIRCLE
  5
1D77
330
1F
100
AcDbEntity
  8
実形
100
AcDbCircle
 10
979.6488149828874
 20
1348.152252734133
 30
0.0
 40
80.0
  0
CIRCLE
  5
1D78
330
1F
100
AcDbEntity
  8
実形
100
AcDbCircle
 10
979.6488149828874
 20
1348.152252734133
 30
0.0
 40
90.5
  0
LINE
  5
1D9D
330
1F
100
AcDbEntity
  8
実形
100
AcDbLine
 10
889.1488149828873
 20
560.3171958128196
 30
0.0
 11
852.3152422231055
 21
569.6029704581427
 31
0.0
  0
LINE
  5
1D9E
330
1F
100
AcDbEntity
  8
実形
100
AcDbLine
 10
1070.148814982887
 20
560.3171958128196
 30
0.0
 11
1531.201136815186
 21
573.8432228507625
 31
0.0
  0
ARC
  5
1D9F
330
1F
100
AcDbEntity
  8
実形
100
AcDbCircle
 10
1529.648814982887
 20
603.8030342141368
 30
0.0
 40
30.0
100
AcDbArc
 50
272.9660408899871
 51
359.9999999999999
  0
ARC
  5
1DA0
330
1F
100
AcDbEntity
  8
実形
100
AcDbCircle
 10
859.6488149828873
 20
598.6928090719437
 30
0.0
 40
30.0
100
AcDbArc
 50
180.0000000000001
 51
255.8505239136549
  0
LINE
  5
1E40
330
1F
100
AcDbEntity
  8
実形
100
AcDbLine
 10
2041.341943390351
 20
1257.652252734133
 30
0.0
 11
2029.761572092255
 21
1169.255418491999
 31
0.0
  0
LINE
  5
1E41
330
1F
100
AcDbEntity
  8
実形
100
AcDbLine
 10
2041.341943390351
 20
1438.652252734133
 30
0.0
 11
2029.761572092255
 21
1527.049086976267
 31
0.0
  0
ARC
  5
1E42
330
1F
100
AcDbEntity
  8
実形
100
AcDbCircle
 10
2000.015737377301
 20
1523.152252734134
 30
0.0
 40
30.0
100
AcDbArc
 50
7.463494459985321
 51
90.00000000000019
  0
ARC
  5
1E43
330
1F
100
AcDbEntity
  8
実形
100
AcDbCircle
 10
2000.015737377301
 20
1173.152252734133
 30
0.0
 40
30.0
100
AcDbArc
 50
270.0
 51
352.5365055400146
  0
ARC
  5
1EB0
330
1F
100
AcDbEntity
  8
実形
100
AcDbCircle
 10
914.2170980143802
 20
1461.963739850261
 30
0.0
 40
80.0
100
AcDbArc
 50
94.56948845588001
 51
175.4028734510818
  0
ARC
  5
1EB1
330
1F
100
AcDbEntity
  8
実形
100
AcDbCircle
 10
1194.648814982887
 20
-2046.847747265867
 30
0.0
 40
3600.0
100
AcDbArc
 50
85.43051154411998
 51
94.56948845588001
  0
ARC
  5
1EB2
330
1F
100
AcDbEntity
  8
実形
100
AcDbCircle
 10
1475.080531951394
 20
1461.963739850261
 30
0.0
 40
80.0
100
AcDbArc
 50
4.597126548918227
 51
85.43051154411998
  0
ARC
  5
1EB3
330
1F
100
AcDbEntity
  8
実形
100
AcDbCircle
 10
59.64881498288718
 20
1348.152252734133
 30
0.0
 40
1500.0
100
AcDbArc
 50
355.4028734510818
 51
4.597126548918227
  0
ARC
  5
1EB4
330
1F
100
AcDbEntity
  8
実形
100
AcDbCircle
 10
1475.080531951394
 20
1234.340765618005
 30
0.0
 40
80.0
100
AcDbArc
 50
274.5694884558801
 51
355.4028734510818
  0
ARC
  5
1EB5
330
1F
100
AcDbEntity
  8
実形
100
AcDbCircle
 10
1194.648814982887
 20
4743.152252734133
 30
0.0
 40
3600.0
100
AcDbArc
 50
265.43051154412
 51
274.5694884558801
  0
ARC
  5
1EB6
330
1F
100
AcDbEntity
  8
実形
100
AcDbCircle
 10
914.2170980143802
 20
1234.340765618005
 30
0.0
 40
80.0
100
AcDbArc
 50
184.5971265489182
 51
265.4305115441135
  0
ARC
  5
1EB7
330
1F
100
AcDbEntity
  8
実形
100
AcDbCircle
 10
2329.648814982888
 20
1348.152252734133
 30
0.0
 40
1500.0
100
AcDbArc
 50
175.4028734510818
 51
184.5971265489182
  0
DIMENSION
  5
2026
330
1F
100
AcDbEntity
  8
実形
100
AcDbDimension
  2
*D22
 10
684.6488149828874
 20
1618.152252734133
 30
0.0
 11
666.088953283981
 21
1666.834354120908
 31
0.0
 70
   160
 71
     5
 42
20.0
  3
ISO-25
100
AcDbAlignedDimension
 13
814.6488149828874
 23
1638.152252734133
 33
0.0
 14
814.6488149828874
 24
1618.152252734133
 34
0.0
 50
90.0
100
AcDbRotatedDimension
1001
ACAD
1000
DSTYLE
1002
{
1070
   279
1070
     2
1070
   371
1070
    18
1070
   372
1070
    18
1002
}
  0
DIMENSION
  5
2034
330
1F
100
AcDbEntity
  8
実形
100
AcDbDimension
  2
*D23
 10
684.6488149828874
 20
1553.152252734133
 30
0.0
 11
665.8988149828871
 21
1585.652252734133
 31
0.0
 70
    32
 71
     5
 42
65.00000000000046
  3
ISO-25
100
AcDbAlignedDimension
 13
814.6488149828874
 23
1618.152252734133
 33
0.0
 14
814.6488149828874
 24
1553.152252734133
 34
0.0
 50
90.0
100
AcDbRotatedDimension
1001
ACAD
1000
DSTYLE
1002
{
1070
   279
1070
     2
1070
   371
1070
    18
1070
   372
1070
    18
1002
}
  0
DIMENSION
  5
2041
330
1F
100
AcDbEntity
  8
実形
100
AcDbDimension
  2
*D24
 10
684.6488149828874
 20
1128.152252734133
 30
0.0
 11
666.088953283981
 21
1169.135795933493
 31
0.0
 70
   160
 71
     5
 42
15.0
  3
ISO-25
100
AcDbAlignedDimension
 13
814.6488149828874
 23
1143.152252734133
 33
0.0
 14
814.6488149828874
 24
1128.152252734133
 34
0.0
 50
90.0
100
AcDbRotatedDimension
1001
ACAD
1000
DSTYLE
1002
{
1070
   279
1070
     2
1070
   371
1070
    18
1070
   372
1070
    18
1002
}
  0
DIMENSION
  5
204F
330
1F
100
AcDbEntity
  8
実形
100
AcDbDimension
  2
*D25
 10
684.6488149828874
 20
1108.152252734133
 30
0.0
 11
666.088953283981
 21
1078.50059348481
 31
0.0
 70
   160
 71
     5
 42
20.0
  3
ISO-25
100
AcDbAlignedDimension
 13
814.6488149828874
 23
1128.152252734133
 33
0.0
 14
814.6488149828874
 24
1108.152252734133
 34
0.0
 50
90.0
100
AcDbRotatedDimension
1001
ACAD
1000
DSTYLE
1002
{
1070
   279
1070
     2
1070
   371
1070
    18
1070
   372
1070
    18
1002
}
  0
DIMENSION
  5
205C
330
1F
100
AcDbEntity
  8
実形
100
AcDbDimension
  2
*D26
 10
814.6488149828874
 20
998.1522527341331
 30
0.0
 11
766.3395643341318
 21
1019.667217421201
 31
0.0
 70
   160
 71
     5
 42
20.0
  3
ISO-25
100
AcDbAlignedDimension
 13
794.6488149828874
 23
1128.152252734133
 33
0.0
 14
814.6488149828874
 24
1128.152252734133
 34
0.0
100
AcDbRotatedDimension
1001
ACAD
1000
DSTYLE
1002
{
1070
   279
1070
     2
1070
   371
1070
    18
1070
   372
1070
    18
1002
}
  0
DIMENSION
  5
206A
330
1F
100
AcDbEntity
  8
実形
100
AcDbDimension
  2
*D27
 10
829.6488149828874
 20
998.1522527341331
 30
0.0
 11
858.6337696787413
 21
1018.077126851613
 31
0.0
 70
   160
 71
     5
 42
15.0
  3
ISO-25
100
AcDbAlignedDimension
 13
814.6488149828874
 23
1128.152252734133
 33
0.0
 14
829.6488149828874
 24
1128.152252734133
 34
0.0
100
AcDbRotatedDimension
1001
ACAD
1000
DSTYLE
1002
{
1070
   279
1070
     2
1070
   371
1070
    18
1070
   372
1070
    18
1002
}
  0
TEXT
  5
224F
330
1F
100
AcDbEntity
  8
0
100
AcDbText
 10
363.2991915588209
 20
127.2997766317869
 30
0.0
 40
30.0
  1
※オーバーシンクの穴あけは片側－７mm（全体で－１４mm）、４角３Rにてお願いします。
100
AcDbText
  0
TEXT
  5
2250
330
1F
100
AcDbEntity
  8
0
100
AcDbText
 10
363.2991915588209
 20
65.32511254901715
 30
0.0
 40
30.0
  1
※アンダーシンクとしての穴あけ加工はかぶり寸法を考慮して現物合わせにてお願いします。
100
AcDbText
  0
LINE
  5
2251
330
1F
100
AcDbEntity
  8
補助
100
AcDbLine
 10
2064.0
 20
134.0
 30
0.0
 11
2784.0
 21
134.0
 31
0.0
  0
LINE
  5
2252
330
1F
100
AcDbEntity
  8
補助
100
AcDbLine
 10
2064.0
 20
199.0
 30
0.0
 11
2784.0
 21
199.0
 31
0.0
  0
LINE
  5
2253
330
1F
100
AcDbEntity
  8
補助
100
AcDbLine
 10
2064.0
 20
69.0
 30
0.0
 11
2784.0
 21
69.0
 31
0.0
  0
TEXT
  5
2254
330
1F
100
AcDbEntity
  8
補助
100
AcDbText
 10
2086.666666666667
 20
149.0
 30
0.0
 40
35.0
  1
品番
 72
     4
 11
2124.0
 21
166.5
 31
0.0
100
AcDbText
  0
TEXT
  5
2255
330
1F
100
AcDbEntity
  8
補助
100
AcDbText
 10
2086.666666666667
 20
84.0
 30
0.0
 40
35.0
  1
尺度
 72
     4
 11
2124.0
 21
101.5
 31
0.0
100
AcDbText
  0
LINE
  5
2256
330
1F
100
AcDbEntity
  8
補助
100
AcDbLine
 10
2064.0
 20
4.0
 30
0.0
 11
2064.0
 21
199.0
 31
0.0
  0
LINE
  5
2257
330
1F
100
AcDbEntity
  8
補助
100
AcDbLine
 10
2184.0
 20
69.0
 30
0.0
 11
2784.0
 21
69.0
 31
0.0
  0
TEXT
  5
2258
330
1F
100
AcDbEntity
  8
0
100
AcDbText
 10
2306.083333333333
 20
149.0
 30
0.0
 40
35.0
  1
YME800-530S
 72
     4
 11
2484.0
 21
166.5
 31
0.0
100
AcDbText
  0
TEXT
  5
2259
330
1F
100
AcDbEntity
  8
補助
100
AcDbText
 10
2300.255774665348
 20
16.49999999999999
 30
0.0
 40
40.0
  1
中外交易株式会社
 72
     4
 11
2488.255774665347
 21
36.5
 31
0.0
100
AcDbText
  0
LINE
  5
225A
330
1F
100
AcDbEntity
  8
補助
100
AcDbLine
 10
2184.0
 20
69.0
 30
0.0
 11
2184.0
 21
199.0
 31
0.0
  0
HATCH
  5
225B
330
1F
100
AcDbEntity
  8
補助
100
AcDbHatch
 10
0.0
 20
0.0
 30
0.0
210
0.0
220
0.0
230
1.0
  2
SOLID
 70
     1
 71
     1
 91
        3
 92
        1
 93
        4
 72
     2
 10
2257.166198313996
 20
36.5
 40
20.0
 50
11.64772366707613
 51
342.6561058784706
 73
     1
 72
     1
 10
2276.256852341323
 20
30.53787547858519
 11
2252.166198313995
 21
30.53787547858519
 72
     1
 10
2252.166198313995
 20
30.53787547858519
 11
2252.166198313995
 21
40.53787547858519
 72
     1
 10
2252.166198313995
 20
40.53787547858519
 11
2276.75434681301
 21
40.53787547858519
 97
        4
330
225C
330
225E
330
225F
330
2260
 92
        1
 93
        4
 72
     2
 10
2188.255774665348
 20
36.5
 40
20.0
 50
11.64772366707613
 51
342.6561058784706
 73
     1
 72
     1
 10
2207.346428692676
 20
30.53787547858519
 11
2183.255774665347
 21
30.53787547858519
 72
     1
 10
2183.255774665347
 20
30.53787547858519
 11
2183.255774665347
 21
40.53787547858519
 72
     1
 10
2183.255774665347
 20
40.53787547858519
 11
2207.843923164362
 21
40.53787547858519
 97
        4
330
225D
330
2266
330
2267
330
2268
 92
        1
 93
        5
 72
     1
 10
2245.64189404294
 20
56.5
 11
2210.641894042939
 21
56.5
 72
     1
 10
2210.641894042939
 20
56.5
 11
2210.641894042939
 21
16.5
 72
     1
 10
2210.641894042939
 20
16.5
 11
2245.64189404294
 21
16.5
 72
     1
 10
2245.64189404294
 20
16.5
 11
2210.641894042939
 21
36.5
 72
     1
 10
2210.641894042939
 20
36.5
 11
2245.64189404294
 21
56.5
 97
        5
330
2261
330
2265
330
2264
330
2263
330
2262
 75
     0
 76
     1
 98
        1
 10
-60.0
 20
0.0
  0
ARC
  5
225C
102
{ACAD_REACTORS
330
225B
102
}
330
1F
100
AcDbEntity
  8
補助
370
     5
100
AcDbCircle
 10
2257.166198313996
 20
36.5
 30
0.0
 40
20.0
100
AcDbArc
 50
11.64772366707613
 51
342.6561058784706
  0
ARC
  5
225D
102
{ACAD_REACTORS
330
225B
102
}
330
1F
100
AcDbEntity
  8
補助
370
     5
100
AcDbCircle
 10
2188.255774665348
 20
36.5
 30
0.0
 40
20.0
100
AcDbArc
 50
11.64772366707613
 51
342.6561058784706
  0
LINE
  5
225E
102
{ACAD_REACTORS
330
225B
102
}
330
1F
100
AcDbEntity
  8
補助
370
     5
100
AcDbLine
 10
2252.166198313995
 20
30.53787547858519
 30
0.0
 11
2276.256852341323
 21
30.53787547858519
 31
0.0
  0
LINE
  5
225F
102
{ACAD_REACTORS
330
225B
102
}
330
1F
100
AcDbEntity
  8
補助
370
     5
100
AcDbLine
 10
2252.166198313995
 20
40.53787547858519
 30
0.0
 11
2252.166198313995
 21
30.53787547858519
 31
0.0
  0
LINE
  5
2260
102
{ACAD_REACTORS
330
225B
102
}
330
1F
100
AcDbEntity
  8
補助
370
     5
100
AcDbLine
 10
2276.75434681301
 20
40.53787547858519
 30
0.0
 11
2252.166198313995
 21
40.53787547858519
 31
0.0
  0
LINE
  5
2261
102
{ACAD_REACTORS
330
225B
102
}
330
1F
100
AcDbEntity
  8
補助
370
     5
100
AcDbLine
 10
2245.64189404294
 20
56.5
 30
0.0
 11
2210.641894042939
 21
56.5
 31
0.0
  0
LINE
  5
2262
102
{ACAD_REACTORS
330
225B
102
}
330
1F
100
AcDbEntity
  8
補助
370
     5
100
AcDbLine
 10
2210.641894042939
 20
36.5
 30
0.0
 11
2245.64189404294
 21
56.5
 31
0.0
  0
LINE
  5
2263
102
{ACAD_REACTORS
330
225B
102
}
330
1F
100
AcDbEntity
  8
補助
370
     5
100
AcDbLine
 10
2245.64189404294
 20
16.5
 30
0.0
 11
2210.641894042939
 21
36.5
 31
0.0
  0
LINE
  5
2264
102
{ACAD_REACTORS
330
225B
102
}
330
1F
100
AcDbEntity
  8
補助
370
     5
100
AcDbLine
 10
2210.641894042939
 20
16.5
 30
0.0
 11
2245.64189404294
 21
16.5
 31
0.0
  0
LINE
  5
2265
102
{ACAD_REACTORS
330
225B
102
}
330
1F
100
AcDbEntity
  8
補助
370
     5
100
AcDbLine
 10
2210.641894042939
 20
56.5
 30
0.0
 11
2210.641894042939
 21
16.5
 31
0.0
  0
LINE
  5
2266
102
{ACAD_REACTORS
330
225B
102
}
330
1F
100
AcDbEntity
  8
補助
370
     5
100
AcDbLine
 10
2183.255774665347
 20
30.53787547858519
 30
0.0
 11
2207.346428692676
 21
30.53787547858519
 31
0.0
  0
LINE
  5
2267
102
{ACAD_REACTORS
330
225B
102
}
330
1F
100
AcDbEntity
  8
補助
370
     5
100
AcDbLine
 10
2183.255774665347
 20
40.53787547858519
 30
0.0
 11
2183.255774665347
 21
30.53787547858519
 31
0.0
  0
LINE
  5
2268
102
{ACAD_REACTORS
330
225B
102
}
330
1F
100
AcDbEntity
  8
補助
370
     5
100
AcDbLine
 10
2207.843923164362
 20
40.53787547858519
 30
0.0
 11
2183.255774665347
 21
40.53787547858519
 31
0.0
  0
TEXT
  5
2269
330
1F
100
AcDbEntity
  8
0
100
AcDbText
 10
2430.916666666667
 20
84.0
 30
0.0
 40
35.0
  1
1：10
 72
     4
 11
2484.0
 21
101.5
 31
0.0
100
AcDbText
  0
LINE
  5
226A
330
1F
100
AcDbEntity
  8
補助
100
AcDbLine
 10
2784.0
 20
4.0
 30
0.0
 11
2784.0
 21
69.0
 31
0.0
  0
LINE
  5
226B
330
1F
100
AcDbEntity
  8
補助
100
AcDbLine
 10
2784.0
 20
134.0
 30
0.0
 11
2784.0
 21
199.0
 31
0.0
  0
LINE
  5
226C
330
1F
100
AcDbEntity
  8
補助
100
AcDbLine
 10
2784.0
 20
69.0
 30
0.0
 11
2784.0
 21
134.0
 31
0.0
  0
LINE
  5
226D
330
1F
100
AcDbEntity
  8
補助
100
AcDbLine
 10
1894.0
 20
2024.0
 30
0.0
 11
2784.0
 21
2024.0
 31
0.0
  0
LINE
  5
227D
330
1F
100
AcDbEntity
  8
補助
100
AcDbLine
 10
2784.0
 20
2024.0
 30
0.0
 11
2784.000000000001
 21
1829.0
 31
0.0
  0
LINE
  5
227E
330
1F
100
AcDbEntity
  8
補助
100
AcDbLine
 10
2784.0
 20
1829.0
 30
0.0
 11
2784.0
 21
2024.0
 31
0.0
  0
LINE
  5
2484
330
1F
100
AcDbEntity
  8
補助
 62
     0
100
AcDbLine
 10
2784.0
 20
1959.000000000001
 30
0.0
 11
2019.387286519283
 21
1959.000000000002
 31
0.0
  0
LINE
  5
2485
330
1F
100
AcDbEntity
  8
補助
 62
     0
100
AcDbLine
 10
2784.0
 20
1894.000000000001
 30
0.0
 11
2019.387286519283
 21
1894.000000000001
 31
0.0
  0
LINE
  5
2486
330
1F
100
AcDbEntity
  8
補助
 62
     0
100
AcDbLine
 10
2784.0
 20
1829.000000000001
 30
0.0
 11
2019.387286519283
 21
1829.000000000001
 31
0.0
  0
LINE
  5
2487
330
1F
100
AcDbEntity
  8
補助
 62
     0
100
AcDbLine
 10
2202.547653420927
 20
1829.000000000001
 30
0.0
 11
2202.547653420927
 21
2024.000000000002
 31
0.0
  0
LINE
  5
2488
330
1F
100
AcDbEntity
  8
補助
 62
     0
100
AcDbLine
 10
2019.387286519283
 20
1829.000000000001
 30
0.0
 11
2019.387286519283
 21
2024.000000000002
 31
0.0
  0
TEXT
  5
2489
330
1F
100
AcDbEntity
  8
補助
 62
     0
100
AcDbText
 10
2050.295698850121
 20
1976.328571428573
 30
0.0
 40
30.0
  1
部品名
  7
明朝
 72
     4
 11
2116.124270278692
 21
1991.500000000002
 31
0.0
100
AcDbText
  0
TEXT
  5
248A
330
1F
100
AcDbEntity
  8
補助
 62
     0
100
AcDbText
 10
2627.614285714286
 20
1976.07142857143
 30
0.0
 40
30.0
  1
厚さ
  7
明朝
 72
     4
 11
2671.5
 21
1991.500000000002
 31
0.0
100
AcDbText
  0
LINE
  5
248B
330
1F
100
AcDbEntity
  8
補助
 62
     0
100
AcDbLine
 10
2559.0
 20
1829.000000000001
 30
0.0
 11
2559.0
 21
2024.000000000002
 31
0.0
  0
TEXT
  5
248C
330
1F
100
AcDbEntity
  8
補助
 62
     0
100
AcDbText
 10
2338.490869919937
 20
1975.947979478156
 30
0.0
 40
30.0
  1
材質
  7
明朝
 72
     4
 11
2382.376584205651
 21
1991.119408049584
 31
0.0
100
AcDbText
  0
TEXT
  5
248D
330
1F
100
AcDbEntity
  8
実形
 62
     0
100
AcDbText
 10
2048.227810657788
 20
1910.557142857144
 30
0.0
 40
30.0
  1
ボウル
  7
明朝
 72
     4
 11
2114.056382086359
 21
1926.500000000001
 31
0.0
100
AcDbText
  0
TEXT
  5
248E
330
1F
100
AcDbEntity
  8
実形
 62
     0
100
AcDbText
 10
2594.700000000001
 20
1911.842857142858
 30
0.0
 40
30.0
  1
0.6ｍｍ
  7
明朝
 72
     4
 11
2671.500000000001
 21
1926.500000000001
 31
0.0
100
AcDbText
  0
TEXT
  5
248F
330
1F
100
AcDbEntity
  8
実形
 62
     0
100
AcDbText
 10
2261.016869107866
 20
1910.728571428572
 30
0.0
 40
30.0
  1
SUS304（BA）
  7
明朝
 72
     4
 11
2392.674011965008
 21
1926.500000000001
 31
0.0
100
AcDbText
  0
TEXT
  5
2490
330
1F
100
AcDbEntity
  8
実形
 62
     0
100
AcDbText
 10
2070.170667800645
 20
1846.242857142858
 30
0.0
 40
30.0
  1
天板
  7
明朝
 72
     4
 11
2114.056382086359
 21
1861.500000000001
 31
0.0
100
AcDbText
  0
TEXT
  5
2491
330
1F
100
AcDbEntity
  8
実形
 62
     0
100
AcDbText
 10
2594.700000000001
 20
1846.842857142858
 30
0.0
 40
30.0
  1
0.8ｍｍ
  7
明朝
 72
     4
 11
2671.500000000001
 21
1861.500000000001
 31
0.0
100
AcDbText
  0
TEXT
  5
2492
330
1F
100
AcDbEntity
  8
実形
 62
     0
100
AcDbText
 10
2218.959726250723
 20
1848.357142857144
 30
0.0
 40
25.0
  1
SUS304（市松ｴﾝﾎﾞｽ）
  7
明朝
 72
     4
 11
2392.674011965008
 21
1861.500000000001
 31
0.0
100
AcDbText
  0
LINE
  5
2493
330
1F
100
AcDbEntity
  8
補助
100
AcDbLine
 10
109.0
 20
4.0
 30
0.0
 11
109.0
 21
2024.0
 31
0.0
  0
VIEWPORT
  5
2E
102
{ACAD_XDICTIONARY
360
24B4
102
}
330
1B
100
AcDbEntity
 67
     1
  8
0
100
AcDbViewport
 10
144.7270812988281
 20
101.2295806407928
 30
0.0
 40
411.6736216682419
 41
222.1517806396485
 68
     1
 69
     1
 12
144.7270812988281
 22
101.2295806407928
 13
0.0
 23
0.0
 14
10.0
 24
10.0
 15
10.0
 25
10.0
 16
0.0
 26
0.0
 36
1.0
 17
0.0
 27
0.0
 37
0.0
 42
50.0
 43
0.0
 44
0.0
 45
222.1517806396485
 50
0.0
 51
0.0
 72
   100
 90
    32800
  1

281
     0
 71
     1
 74
     0
110
0.0
120
0.0
130
0.0
111
1.0
121
0.0
131
0.0
112
0.0
122
1.0
132
0.0
 79
     0
146
0.0
  0
VIEWPORT
  5
30
102
{ACAD_XDICTIONARY
360
24B6
102
}
330
1B
100
AcDbEntity
 67
     1
  8
0
100
AcDbViewport
 10
139.2237563133239
 20
101.2295821905136
 30
0.0
 40
222.7580101013184
 41
161.9673315048218
 68
     2
 69
     2
 12
210.0
 22
148.5
 13
0.0
 23
0.0
 14
10.0
 24
10.0
 15
10.0
 25
10.0
 16
0.0
 26
0.0
 36
1.0
 17
0.0
 27
0.0
 37
0.0
 42
50.0
 43
0.0
 44
0.0
 45
309.0686705647124
 50
0.0
 51
0.0
 72
   100
 90
    32864
  1

281
     0
 71
     1
 74
     0
110
0.0
120
0.0
130
0.0
111
1.0
121
0.0
131
0.0
112
0.0
122
1.0
132
0.0
 79
     0
146
0.0
  0
ENDSEC
  0
SECTION
  2
OBJECTS
  0
DICTIONARY
  5
C
330
0
100
AcDbDictionary
281
     1
  3
ACAD_COLOR
350
245F
  3
ACAD_GROUP
350
D
  3
ACAD_LAYOUT
350
1A
  3
ACAD_MATERIAL
350
245E
  3
ACAD_MLINESTYLE
350
17
  3
ACAD_PLOTSETTINGS
350
19
  3
ACAD_PLOTSTYLENAME
350
E
  3
ACAD_TABLESTYLE
350
2460
  3
AcadDim
350
124
  3
ACDBHEADERROUNDTRIPXREC
350
24AD
  3
AcDbVariableDictionary
350
2467
  0
DICTIONARY
  5
2469
330
2
100
AcDbDictionary
280
     1
281
     1
  3
ACAD_LAYERFILTERS
360
246B
  3
ACAD_LAYERSTATES
360
246D
  3
ACLYDICTIONARY
360
246A
  0
DICTIONARY
  5
2494
330
1F
100
AcDbDictionary
280
     1
281
     1
  3
ACAD_SORTENTS
360
2495
  0
DICTIONARY
  5
24B4
330
2E
100
AcDbDictionary
280
     1
281
     1
  3
ACAD_XREC_ROUNDTRIP
360
24B5
  0
DICTIONARY
  5
24B6
330
30
100
AcDbDictionary
280
     1
281
     1
  3
ACAD_XREC_ROUNDTRIP
360
24B7
  0
DICTIONARY
  5
245F
102
{ACAD_REACTORS
330
C
102
}
330
C
100
AcDbDictionary
281
     1
  0
DICTIONARY
  5
D
102
{ACAD_REACTORS
330
C
102
}
330
C
100
AcDbDictionary
281
     1
  0
DICTIONARY
  5
1A
102
{ACAD_REACTORS
330
C
102
}
330
C
100
AcDbDictionary
281
     1
  3
Model
350
22
  3
ﾚｲｱｳﾄ1
350
1E
  3
ﾚｲｱｳﾄ2
350
26
  0
DICTIONARY
  5
245E
102
{ACAD_REACTORS
330
C
102
}
330
C
100
AcDbDictionary
281
     1
  0
DICTIONARY
  5
17
102
{ACAD_REACTORS
330
C
102
}
330
C
100
AcDbDictionary
281
     1
  3
Standard
350
18
  0
DICTIONARY
  5
19
102
{ACAD_REACTORS
330
C
102
}
330
C
100
AcDbDictionary
281
     1
  0
ACDBDICTIONARYWDFLT
  5
E
102
{ACAD_REACTORS
330
C
102
}
330
C
100
AcDbDictionary
281
     1
  3
Normal
350
F
100
AcDbDictionaryWithDefault
340
F
  0
DICTIONARY
  5
2460
102
{ACAD_REACTORS
330
C
102
}
330
C
100
AcDbDictionary
281
     1
  3
Standard
350
2461
  0
XRECORD
  5
124
102
{ACAD_REACTORS
330
C
102
}
330
C
100
AcDbXrecord
280
     1
 90
   990106
  3

 60
     0
 61
     0
 62
     1
 63
     3
 64
     0
 65
     0
 66
     0
 67
     3
 68
     1
 69
     0
 70
     0
 71
     0
 72
     0
 40
30.0
170
     0
  0
DICTIONARY
  5
24AD
102
{ACAD_REACTORS
330
C
102
}
330
C
100
AcDbDictionary
281
     1
  0
DICTIONARY
  5
2467
102
{ACAD_REACTORS
330
C
102
}
330
C
100
AcDbDictionary
281
     1
  3
CTABLESTYLE
350
2468
  3
DIMASSOC
350
24AA
  3
PROJECTNAME
350
24AB
  0
DICTIONARY
  5
246B
102
{ACAD_REACTORS
330
2469
102
}
330
2469
100
AcDbDictionary
281
     1
  0
DICTIONARY
  5
246D
102
{ACAD_REACTORS
330
2469
102
}
330
2469
100
AcDbDictionary
281
     1
  0
DICTIONARY
  5
246A
102
{ACAD_REACTORS
330
2469
102
}
330
2469
100
AcDbDictionary
281
     1
1001
ACAD
1000
<All
  0
SORTENTSTABLE
  5
2495
102
{ACAD_REACTORS
330
2494
102
}
330
2494
100
AcDbSortentsTable
330
1F
331
2026
  5
2034
331
226B
  5
226C
331
18B7
  5
18B8
331
18BF
  5
1D77
331
2486
  5
2487
331
2E6
  5
2FE
331
248E
  5
248F
331
73
  5
73
331
1D77
  5
1D78
331
1878
  5
1879
331
2FE
  5
33A
331
12A9
  5
12AC
331
1880
  5
1881
331
1D9F
  5
1DA0
331
15F9
  5
15FB
331
1888
  5
1889
331
2254
  5
2255
331
1890
  5
1891
331
225C
  5
225D
331
18A0
  5
18A1
331
1EB7
  5
2026
331
2264
  5
2265
331
4CC
  5
4F7
331
226C
  5
226D
331
3CE
  5
3DC
331
18B8
  5
18B9
331
2487
  5
2488
331
248F
  5
2490
331
9C
  5
9C
331
A0
  5
A0
331
1D78
  5
1D9D
331
1879
  5
187A
331
1881
  5
1882
331
1DA0
  5
1E40
331
204F
  5
205C
331
1889
  5
188A
331
2255
  5
2256
331
1891
  5
1892
331
3F6
  5
44B
331
1E40
  5
1E41
331
1EB0
  5
1EB1
331
225D
  5
225E
331
18A1
  5
18A2
331
2265
  5
2266
331
226D
  5
227D
331
18B9
  5
18BA
331
123B
  5
123C
331
2488
  5
2489
331
2490
  5
2491
331
227D
  5
227E
331
187A
  5
187B
331
1882
  5
1883
331
15FB
  5
173D
331
505
  5
532
331
188A
  5
188B
331
2256
  5
2257
331
1892
  5
1893
331
4BE
  5
4CC
331
1E41
  5
1E42
331
1EB1
  5
1EB2
331
225E
  5
225F
331
368
  5
3CE
331
18A2
  5
18B3
331
2266
  5
2267
331
123C
  5
123D
331
18BA
  5
18BB
331
2489
  5
248A
331
555
  5
569
331
2491
  5
2492
331
2041
  5
204F
331
227E
  5
2484
331
12AC
  5
12AD
331
187B
  5
187C
331
1883
  5
1884
331
224F
  5
2250
331
188B
  5
188C
331
2257
  5
2258
331
1893
  5
1894
331
1E42
  5
1E43
331
1EB2
  5
1EB3
331
225F
  5
2260
331
2267
  5
2268
331
18B3
  5
18B4
331
18BB
  5
18BC
331
458
  5
4A3
331
123D
  5
123E
331
248A
  5
248B
331
2492
  5
2493
331
12AD
  5
12AE
331
33A
  5
33B
331
4F7
  5
4F8
331
187C
  5
187D
331
15F5
  5
15F8
331
1884
  5
1885
331
2250
  5
2251
331
188C
  5
188D
331
1894
  5
1895
331
173D
  5
17AE
331
2258
  5
2259
331
1E43
  5
1EB0
331
2260
  5
2261
331
1EB3
  5
1EB4
331
206A
  5
224F
331
2268
  5
2269
331
18B4
  5
18B5
331
123E
  5
12A9
331
18BC
  5
18BD
331
248B
  5
248C
331
2493
  5
2E6
331
12AE
  5
12AF
331
33B
  5
33C
331
4F8
  5
505
331
187D
  5
187E
331
35B
  5
368
331
1885
  5
1886
331
2251
  5
2252
331
188D
  5
188E
331
57F
  5
F27
331
1895
  5
1896
331
2259
  5
225A
331
1EB4
  5
1EB5
331
2261
  5
2262
331
2269
  5
226A
331
18B5
  5
18B7
331
548
  5
555
331
2034
  5
2041
331
F27
  5
1238
331
17AE
  5
1877
331
18BD
  5
18BE
331
2484
  5
2485
331
248C
  5
248D
331
A5
  5
A5
331
12AF
  5
15F5
331
33C
  5
33D
331
187E
  5
187F
331
1D9D
  5
1D9E
331
1886
  5
1887
331
2252
  5
2253
331
188E
  5
188F
331
1896
  5
18A0
331
225A
  5
225B
331
205C
  5
206A
331
1EB5
  5
1EB6
331
2262
  5
2263
331
44B
  5
458
331
226A
  5
226B
331
1238
  5
123B
331
2485
  5
2486
331
18BE
  5
18BF
331
248D
  5
248E
331
1877
  5
1878
331
3DC
  5
3F6
331
569
  5
57F
331
187F
  5
1880
331
4A3
  5
4BE
331
1D9E
  5
1D9F
331
33D
  5
35B
331
1887
  5
1888
331
2253
  5
2254
331
15F8
  5
15F9
331
188F
  5
1890
331
225B
  5
225C
331
532
  5
548
331
1EB6
  5
1EB7
331
2263
  5
2264
  0
XRECORD
  5
24B5
102
{ACAD_REACTORS
330
24B4
102
}
330
24B4
100
AcDbXrecord
280
     1
102
SHADEPLOT
 70
     0
  0
XRECORD
  5
24B7
102
{ACAD_REACTORS
330
24B6
102
}
330
24B6
100
AcDbXrecord
280
     1
102
SHADEPLOT
 70
     0
  0
LAYOUT
  5
22
102
{ACAD_XDICTIONARY
360
24B0
102
}
102
{ACAD_REACTORS
330
1A
102
}
330
1A
100
AcDbPlotSettings
  1

  2
EPSON PM-800C
  4
A4
  6

 40
3.757083177566528
 41
14.7637300491333
 42
3.757080078125
 43
3.757080078125
 44
209.9733276367187
 45
296.9683227539062
 46
0.0
 47
0.0
 48
0.0
 49
0.0
140
0.0
141
0.0
142
1.0
143
10.0
 70
 11952
 72
     1
 73
     1
 74
     2
  7

 75
    20
147
0.1
148
0.0
149
0.0
100
AcDbLayout
  1
Model
 70
     1
 71
     0
 10
0.0
 20
0.0
 11
12.0
 21
9.0
 12
0.0
 22
0.0
 32
0.0
 14
0.0
 24
0.0
 34
0.0
 15
0.0
 25
0.0
 35
0.0
146
0.0
 13
0.0
 23
0.0
 33
0.0
 16
1.0
 26
0.0
 36
0.0
 17
0.0
 27
1.0
 37
0.0
 76
     0
330
1F
  0
LAYOUT
  5
1E
102
{ACAD_XDICTIONARY
360
24AE
102
}
102
{ACAD_REACTORS
330
1A
102
}
330
1A
100
AcDbPlotSettings
  1

  2
EPSON PM-800C
  4
A4
  6

 40
3.757083177566528
 41
14.7637300491333
 42
3.757080078125
 43
3.757080078125
 44
209.9733276367187
 45
296.9683227539062
 46
0.0
 47
0.0
 48
0.0
 49
0.0
140
0.0
141
0.0
142
1.0
143
1.0
 70
   688
 72
     1
 73
     1
 74
     5
  7

 75
    16
147
1.0
148
0.0
149
0.0
100
AcDbLayout
  1
ﾚｲｱｳﾄ1
 70
     1
 71
     1
 10
-3.757080078125
 20
-3.757083177566528
 11
293.2112426757813
 21
206.2162444591522
 12
0.0
 22
0.0
 32
0.0
 14
27.8447512626648
 24
20.24591643810271
 34
0.0
 15
250.6027613639831
 25
182.2132479429245
 35
0.0
146
0.0
 13
0.0
 23
0.0
 33
0.0
 16
1.0
 26
0.0
 36
0.0
 17
0.0
 27
1.0
 37
0.0
 76
     0
330
1B
331
2E
  0
LAYOUT
  5
26
102
{ACAD_XDICTIONARY
360
24B2
102
}
102
{ACAD_REACTORS
330
1A
102
}
330
1A
100
AcDbPlotSettings
  1

  2
EPSON PM-800C
  4

  6

 40
0.0
 41
0.0
 42
0.0
 43
0.0
 44
0.0
 45
0.0
 46
0.0
 47
0.0
 48
0.0
 49
0.0
140
0.0
141
0.0
142
1.0
143
1.0
 70
   688
 72
     0
 73
     0
 74
     5
  7

 75
    16
147
1.0
148
0.0
149
0.0
100
AcDbLayout
  1
ﾚｲｱｳﾄ2
 70
     1
 71
     2
 10
0.0
 20
0.0
 11
12.0
 21
9.0
 12
0.0
 22
0.0
 32
0.0
 14
0.0
 24
0.0
 34
0.0
 15
0.0
 25
0.0
 35
0.0
146
0.0
 13
0.0
 23
0.0
 33
0.0
 16
1.0
 26
0.0
 36
0.0
 17
0.0
 27
1.0
 37
0.0
 76
     0
330
23
  0
MLINESTYLE
  5
18
102
{ACAD_REACTORS
330
17
102
}
330
17
100
AcDbMlineStyle
  2
STANDARD
 70
     0
  3

 62
   256
 51
90.0
 52
90.0
 71
     2
 49
0.5
 62
   256
  6
BYLAYER
 49
-0.5
 62
   256
  6
BYLAYER
  0
ACDBPLACEHOLDER
  5
F
102
{ACAD_REACTORS
330
E
102
}
330
E
  0
TABLESTYLE
  5
2461
102
{ACAD_REACTORS
330
2460
102
}
330
2460
100
AcDbTableStyle
  3
Standard
 70
     0
 71
     0
 40
1.5
 41
1.5
280
     0
281
     0
  7
Standard
140
4.5
170
     2
 62
     0
 63
     7
283
     0
274
    -2
284
     1
 64
     0
275
    -2
285
     1
 65
     0
276
    -2
286
     1
 66
     0
277
    -2
287
     1
 67
     0
278
    -2
288
     1
 68
     0
279
    -2
289
     1
 69
     0
  7
Standard
140
6.0
170
     5
 62
     0
 63
     7
283
     0
274
    -2
284
     1
 64
     0
275
    -2
285
     1
 65
     0
276
    -2
286
     1
 66
     0
277
    -2
287
     1
 67
     0
278
    -2
288
     1
 68
     0
279
    -2
289
     1
 69
     0
  7
Standard
140
4.5
170
     5
 62
     0
 63
     7
283
     0
274
    -2
284
     1
 64
     0
275
    -2
285
     1
 65
     0
276
    -2
286
     1
 66
     0
277
    -2
287
     1
 67
     0
278
    -2
288
     1
 68
     0
279
    -2
289
     1
 69
     0
  0
DICTIONARYVAR
  5
2468
102
{ACAD_REACTORS
330
2467
102
}
330
2467
100
DictionaryVariables
280
     0
  1
STANDARD
  0
DICTIONARYVAR
  5
24AA
102
{ACAD_REACTORS
330
2467
102
}
330
2467
100
DictionaryVariables
280
     0
  1
1
  0
DICTIONARYVAR
  5
24AB
102
{ACAD_REACTORS
330
2467
102
}
330
2467
100
DictionaryVariables
280
     0
  1

  0
DICTIONARY
  5
24B0
330
22
100
AcDbDictionary
280
     1
281
     1
  3
ACAD_XREC_ROUNDTRIP
360
24B1
  0
DICTIONARY
  5
24AE
330
1E
100
AcDbDictionary
280
     1
281
     1
  3
ACAD_XREC_ROUNDTRIP
360
24AF
  0
DICTIONARY
  5
24B2
330
26
100
AcDbDictionary
280
     1
281
     1
  3
ACAD_XREC_ROUNDTRIP
360
24B3
  0
XRECORD
  5
24B1
102
{ACAD_REACTORS
330
24B0
102
}
330
24B0
100
AcDbXrecord
280
     1
102
SHADEPLOT
 70
     0
102
SHADEPLOTRESLEVEL
 70
     2
102
SHADEPLOTCUSTOMDPI
 70
   300
  0
XRECORD
  5
24AF
102
{ACAD_REACTORS
330
24AE
102
}
330
24AE
100
AcDbXrecord
280
     1
102
SHADEPLOT
 70
     0
102
SHADEPLOTRESLEVEL
 70
     2
102
SHADEPLOTCUSTOMDPI
 70
   300
  0
XRECORD
  5
24B3
102
{ACAD_REACTORS
330
24B2
102
}
330
24B2
100
AcDbXrecord
280
     1
102
SHADEPLOT
 70
     0
102
SHADEPLOTRESLEVEL
 70
     2
102
SHADEPLOTCUSTOMDPI
 70
   300
  0
ENDSEC
  0
EOF
