  0
SECTION
  2
HEADER
  9
$ACADVER
  1
AC1015
  9
$ACADMAINTVER
 70
    20
  9
$DWGCODEPAGE
  3
ANSI_932
  9
$INSBASE
 10
0.0
 20
0.0
 30
0.0
  9
$EXTMIN
 10
109.0
 20
4.0
 30
0.0
  9
$EXTMAX
 10
2784.000000000001
 20
2024.000000000002
 30
0.0
  9
$LIMMIN
 10
0.0
 20
0.0
  9
$LIMMAX
 10
29700.0
 20
21000.0
  9
$ORTHOMODE
 70
     1
  9
$REGENMODE
 70
     1
  9
$FILLMODE
 70
     1
  9
$QTEXTMODE
 70
     0
  9
$MIRRTEXT
 70
     1
  9
$LTSCALE
 40
4.0
  9
$ATTMODE
 70
     1
  9
$TEXTSIZE
 40
35.0
  9
$TRACEWID
 40
1.0
  9
$TEXTSTYLE
  7
Standard
  9
$CLAYER
  8
実形
  9
$CELTYPE
  6
ByLayer
  9
$CECOLOR
 62
   256
  9
$CELTSCALE
 40
1.0
  9
$DISPSILH
 70
     0
  9
$DIMSCALE
 40
1.0
  9
$DIMASZ
 40
30.0
  9
$DIMEXO
 40
65.0
  9
$DIMDLI
 40
3.75
  9
$DIMRND
 40
0.0
  9
$DIMDLE
 40
0.0
  9
$DIMEXE
 40
0.0
  9
$DIMTP
 40
0.0
  9
$DIMTM
 40
0.0
  9
$DIMTXT
 40
25.0
  9
$DIMCEN
 40
2.5
  9
$DIMTSZ
 40
0.0
  9
$DIMTOL
 70
     0
  9
$DIMLIM
 70
     0
  9
$DIMTIH
 70
     0
  9
$DIMTOH
 70
     0
  9
$DIMSE1
 70
     0
  9
$DIMSE2
 70
     0
  9
$DIMTAD
 70
     1
  9
$DIMZIN
 70
     8
  9
$DIMBLK
  1
DotSmall
  9
$DIMASO
 70
     1
  9
$DIMSHO
 70
     1
  9
$DIMPOST
  1

  9
$DIMAPOST
  1

  9
$DIMALT
 70
     0
  9
$DIMALTD
 70
     3
  9
$DIMALTF
 40
0.03937007874016
  9
$DIMLFAC
 40
1.0
  9
$DIMTOFL
 70
     1
  9
$DIMTVP
 40
0.0
  9
$DIMTIX
 70
     0
  9
$DIMSOXD
 70
     0
  9
$DIMSAH
 70
     0
  9
$DIMBLK1
  1

  9
$DIMBLK2
  1

  9
$DIMSTYLE
  2
ISO-25
  9
$DIMCLRD
 70
     0
  9
$DIMCLRE
 70
     0
  9
$DIMCLRT
 70
     0
  9
$DIMTFAC
 40
1.0
  9
$DIMGAP
 40
6.25
  9
$DIMJUST
 70
     0
  9
$DIMSD1
 70
     0
  9
$DIMSD2
 70
     0
  9
$DIMTOLJ
 70
     0
  9
$DIMTZIN
 70
     8
  9
$DIMALTZ
 70
     0
  9
$DIMALTTZ
 70
     0
  9
$DIMUPT
 70
     0
  9
$DIMDEC
 70
     2
  9
$DIMTDEC
 70
     2
  9
$DIMALTU
 70
     2
  9
$DIMALTTD
 70
     3
  9
$DIMTXSTY
  7
Standard
  9
$DIMAUNIT
 70
     0
  9
$DIMADEC
 70
     0
  9
$DIMALTRND
 40
0.0
  9
$DIMAZIN
 70
     0
  9
$DIMDSEP
 70
    46
  9
$DIMATFIT
 70
     3
  9
$DIMFRAC
 70
     0
  9
$DIMLDRBLK
  1
Open30
  9
$DIMLUNIT
 70
     2
  9
$DIMLWD
 70
    15
  9
$DIMLWE
 70
    15
  9
$DIMTMOVE
 70
     1
  9
$LUNITS
 70
     2
  9
$LUPREC
 70
     2
  9
$SKETCHINC
 40
1.0
  9
$FILLETRAD
 40
30.0
  9
$AUNITS
 70
     0
  9
$AUPREC
 70
     0
  9
$MENU
  1
.
  9
$ELEVATION
 40
0.0
  9
$PELEVATION
 40
0.0
  9
$THICKNESS
 40
0.0
  9
$LIMCHECK
 70
     1
  9
$CHAMFERA
 40
10.0
  9
$CHAMFERB
 40
10.0
  9
$CHAMFERC
 40
20.0
  9
$CHAMFERD
 40
0.0
  9
$SKPOLY
 70
     0
  9
$TDCREATE
 40
2451673.575802199
  9
$TDUCREATE
 40
2451673.200802199
  9
$TDUPDATE
 40
2458809.792666065
  9
$TDUUPDATE
 40
2458809.417666065
  9
$TDINDWG
 40
1.2441131134
  9
$TDUSRTIMER
 40
1.2441124190
  9
$USRTIMER
 70
     1
  9
$ANGBASE
 50
0.0
  9
$ANGDIR
 70
     0
  9
$PDMODE
 70
     0
  9
$PDSIZE
 40
0.0
  9
$PLINEWID
 40
0.0
  9
$SPLFRAME
 70
     0
  9
$SPLINETYPE
 70
     6
  9
$SPLINESEGS
 70
     8
  9
$HANDSEED
  5
1537
  9
$SURFTAB1
 70
     6
  9
$SURFTAB2
 70
     6
  9
$SURFTYPE
 70
     6
  9
$SURFU
 70
     6
  9
$SURFV
 70
     6
  9
$UCSBASE
  2

  9
$UCSNAME
  2

  9
$UCSORG
 10
0.0
 20
0.0
 30
0.0
  9
$UCSXDIR
 10
1.0
 20
0.0
 30
0.0
  9
$UCSYDIR
 10
0.0
 20
1.0
 30
0.0
  9
$UCSORTHOREF
  2

  9
$UCSORTHOVIEW
 70
     0
  9
$UCSORGTOP
 10
0.0
 20
0.0
 30
0.0
  9
$UCSORGBOTTOM
 10
0.0
 20
0.0
 30
0.0
  9
$UCSORGLEFT
 10
0.0
 20
0.0
 30
0.0
  9
$UCSORGRIGHT
 10
0.0
 20
0.0
 30
0.0
  9
$UCSORGFRONT
 10
0.0
 20
0.0
 30
0.0
  9
$UCSORGBACK
 10
0.0
 20
0.0
 30
0.0
  9
$PUCSBASE
  2

  9
$PUCSNAME
  2

  9
$PUCSORG
 10
0.0
 20
0.0
 30
0.0
  9
$PUCSXDIR
 10
1.0
 20
0.0
 30
0.0
  9
$PUCSYDIR
 10
0.0
 20
1.0
 30
0.0
  9
$PUCSORTHOREF
  2

  9
$PUCSORTHOVIEW
 70
     0
  9
$PUCSORGTOP
 10
0.0
 20
0.0
 30
0.0
  9
$PUCSORGBOTTOM
 10
0.0
 20
0.0
 30
0.0
  9
$PUCSORGLEFT
 10
0.0
 20
0.0
 30
0.0
  9
$PUCSORGRIGHT
 10
0.0
 20
0.0
 30
0.0
  9
$PUCSORGFRONT
 10
0.0
 20
0.0
 30
0.0
  9
$PUCSORGBACK
 10
0.0
 20
0.0
 30
0.0
  9
$USERI1
 70
     0
  9
$USERI2
 70
     0
  9
$USERI3
 70
     0
  9
$USERI4
 70
     0
  9
$USERI5
 70
     0
  9
$USERR1
 40
0.0
  9
$USERR2
 40
0.0
  9
$USERR3
 40
0.0
  9
$USERR4
 40
0.0
  9
$USERR5
 40
0.0
  9
$WORLDVIEW
 70
     1
  9
$SHADEDGE
 70
     3
  9
$SHADEDIF
 70
    70
  9
$TILEMODE
 70
     1
  9
$MAXACTVP
 70
    64
  9
$PINSBASE
 10
0.0
 20
0.0
 30
0.0
  9
$PLIMCHECK
 70
     0
  9
$PEXTMIN
 10
27.8447512626648
 20
20.24591643810271
 30
0.0
  9
$PEXTMAX
 10
250.6027613639831
 20
182.2132479429245
 30
0.0
  9
$PLIMMIN
 10
-3.757080078125
 20
-3.757083177566528
  9
$PLIMMAX
 10
293.2112426757813
 20
206.2162444591522
  9
$UNITMODE
 70
     0
  9
$VISRETAIN
 70
     1
  9
$PLINEGEN
 70
     0
  9
$PSLTSCALE
 70
     1
  9
$TREEDEPTH
 70
  3020
  9
$CMLSTYLE
  2
Standard
  9
$CMLJUST
 70
     0
  9
$CMLSCALE
 40
20.0
  9
$PROXYGRAPHICS
 70
     1
  9
$MEASUREMENT
 70
     1
  9
$CELWEIGHT
370
    -1
  9
$ENDCAPS
280
     0
  9
$JOINSTYLE
280
     0
  9
$LWDISPLAY
290
     0
  9
$INSUNITS
 70
     4
  9
$HYPERLINKBASE
  1

  9
$STYLESHEET
  1

  9
$XEDIT
290
     1
  9
$CEPSNTYPE
380
     0
  9
$PSTYLEMODE
290
     1
  9
$FINGERPRINTGUID
  2
{C8EA1F16-24C9-11D4-9416-CE0A3B32152F}
  9
$VERSIONGUID
  2
{BEDF5B22-0544-4966-B1C7-A326811549A6}
  9
$EXTNAMES
290
     1
  9
$PSVPSCALE
 40
0.0
  9
$OLESTARTUP
290
     0
  0
ENDSEC
  0
SECTION
  2
CLASSES
  0
CLASS
  1
ACDBDICTIONARYWDFLT
  2
AcDbDictionaryWithDefault
  3
ObjectDBX Classes
 90
        0
280
     0
281
     0
  0
CLASS
  1
ACDBPLACEHOLDER
  2
AcDbPlaceHolder
  3
ObjectDBX Classes
 90
        0
280
     0
281
     0
  0
CLASS
  1
LAYOUT
  2
AcDbLayout
  3
ObjectDBX Classes
 90
        0
280
     0
281
     0
  0
CLASS
  1
DICTIONARYVAR
  2
AcDbDictionaryVar
  3
ObjectDBX Classes
 90
        0
280
     0
281
     0
  0
CLASS
  1
TABLESTYLE
  2
AcDbTableStyle
  3
ObjectDBX Classes
 90
     2047
280
     0
281
     0
  0
CLASS
  1
SORTENTSTABLE
  2
AcDbSortentsTable
  3
ObjectDBX Classes
 90
        0
280
     0
281
     0
  0
ENDSEC
  0
SECTION
  2
TABLES
  0
TABLE
  2
VPORT
  5
8
330
0
100
AcDbSymbolTable
 70
     2
  0
VPORT
  5
152B
330
8
100
AcDbSymbolTableRecord
100
AcDbViewportTableRecord
  2
*Active
 70
     0
 10
0.0
 20
0.0
 11
1.0
 21
1.0
 12
1403.160977566347
 22
1147.880187660186
 13
0.0
 23
0.0
 14
10.0
 24
10.0
 15
10.0
 25
10.0
 16
0.0
 26
0.0
 36
1.0
 17
0.0
 27
0.0
 37
0.0
 40
2429.060767754968
 41
1.29038112522686
 42
50.0
 43
0.0
 44
0.0
 50
0.0
 51
0.0
 71
     0
 72
   100
 73
     1
 74
     3
 75
     0
 76
     0
 77
     0
 78
     0
281
     0
 65
     1
110
0.0
120
0.0
130
0.0
111
1.0
121
0.0
131
0.0
112
0.0
122
1.0
132
0.0
 79
     0
146
0.0
  0
ENDTAB
  0
TABLE
  2
LTYPE
  5
5
330
0
100
AcDbSymbolTable
 70
    46
  0
LTYPE
  5
14
330
5
100
AcDbSymbolTableRecord
100
AcDbLinetypeTableRecord
  2
ByBlock
 70
     0
  3

 72
    65
 73
     0
 40
0.0
  0
LTYPE
  5
15
330
5
100
AcDbSymbolTableRecord
100
AcDbLinetypeTableRecord
  2
ByLayer
 70
     0
  3

 72
    65
 73
     0
 40
0.0
  0
LTYPE
  5
16
330
5
100
AcDbSymbolTableRecord
100
AcDbLinetypeTableRecord
  2
Continuous
 70
     0
  3
Solid line
 72
    65
 73
     0
 40
0.0
  0
LTYPE
  5
34
330
5
100
AcDbSymbolTableRecord
100
AcDbLinetypeTableRecord
  2
ACAD_ISO02W100
 70
     0
  3
ISO dash __ __ __ __ __ __ __ __ __ __ __ __ __
 72
    65
 73
     2
 40
15.0
 49
12.0
 74
     0
 49
-3.0
 74
     0
  0
LTYPE
  5
35
330
5
100
AcDbSymbolTableRecord
100
AcDbLinetypeTableRecord
  2
ACAD_ISO03W100
 70
     0
  3
ISO dash space __    __    __    __    __    __
 72
    65
 73
     2
 40
30.0
 49
12.0
 74
     0
 49
-18.0
 74
     0
  0
LTYPE
  5
36
330
5
100
AcDbSymbolTableRecord
100
AcDbLinetypeTableRecord
  2
ACAD_ISO04W100
 70
     0
  3
ISO long-dash dot ____ . ____ . ____ . ____ . _
 72
    65
 73
     4
 40
30.0
 49
24.0
 74
     0
 49
-3.0
 74
     0
 49
0.0
 74
     0
 49
-3.0
 74
     0
  0
LTYPE
  5
37
330
5
100
AcDbSymbolTableRecord
100
AcDbLinetypeTableRecord
  2
ACAD_ISO05W100
 70
     0
  3
ISO long-dash double-dot ____ .. ____ .. ____ .
 72
    65
 73
     6
 40
34.0
 49
24.0
 74
     0
 49
-3.0
 74
     0
 49
0.5
 74
     0
 49
-3.0
 74
     0
 49
0.5
 74
     0
 49
-3.0
 74
     0
  0
LTYPE
  5
38
330
5
100
AcDbSymbolTableRecord
100
AcDbLinetypeTableRecord
  2
ACAD_ISO06W100
 70
     0
  3
ISO long-dash triple-dot ____ ... ____ ... ____
 72
    65
 73
     8
 40
37.5
 49
24.0
 74
     0
 49
-3.0
 74
     0
 49
0.5
 74
     0
 49
-3.0
 74
     0
 49
0.5
 74
     0
 49
-3.0
 74
     0
 49
0.5
 74
     0
 49
-3.0
 74
     0
  0
LTYPE
  5
39
330
5
100
AcDbSymbolTableRecord
100
AcDbLinetypeTableRecord
  2
ACAD_ISO07W100
 70
     0
  3
ISO dot . . . . . . . . . . . . . . . . . . . .
 72
    65
 73
     2
 40
3.0
 49
0.0
 74
     0
 49
-3.0
 74
     0
  0
LTYPE
  5
3A
330
5
100
AcDbSymbolTableRecord
100
AcDbLinetypeTableRecord
  2
ACAD_ISO08W100
 70
     0
  3
ISO long-dash short-dash ____ __ ____ __ ____ _
 72
    65
 73
     4
 40
36.0
 49
24.0
 74
     0
 49
-3.0
 74
     0
 49
6.0
 74
     0
 49
-3.0
 74
     0
  0
LTYPE
  5
3B
330
5
100
AcDbSymbolTableRecord
100
AcDbLinetypeTableRecord
  2
ACAD_ISO09W100
 70
     0
  3
ISO long-dash double-short-dash ____ __ __ ____
 72
    65
 73
     6
 40
45.0
 49
24.0
 74
     0
 49
-3.0
 74
     0
 49
6.0
 74
     0
 49
-3.0
 74
     0
 49
6.0
 74
     0
 49
-3.0
 74
     0
  0
LTYPE
  5
3C
330
5
100
AcDbSymbolTableRecord
100
AcDbLinetypeTableRecord
  2
ACAD_ISO10W100
 70
     0
  3
ISO dash dot __ . __ . __ . __ . __ . __ . __ .
 72
    65
 73
     4
 40
18.0
 49
12.0
 74
     0
 49
-3.0
 74
     0
 49
0.0
 74
     0
 49
-3.0
 74
     0
  0
LTYPE
  5
3D
330
5
100
AcDbSymbolTableRecord
100
AcDbLinetypeTableRecord
  2
ACAD_ISO11W100
 70
     0
  3
ISO double-dash dot __ __ . __ __ . __ __ . __ 
 72
    65
 73
     6
 40
33.0
 49
12.0
 74
     0
 49
-3.0
 74
     0
 49
12.0
 74
     0
 49
-3.0
 74
     0
 49
0.0
 74
     0
 49
-3.0
 74
     0
  0
LTYPE
  5
3E
330
5
100
AcDbSymbolTableRecord
100
AcDbLinetypeTableRecord
  2
ACAD_ISO12W100
 70
     0
  3
ISO dash double-dot __ . . __ . . __ . . __ . .
 72
    65
 73
     6
 40
21.0
 49
12.0
 74
     0
 49
-3.0
 74
     0
 49
0.0
 74
     0
 49
-3.0
 74
     0
 49
0.0
 74
     0
 49
-3.0
 74
     0
  0
LTYPE
  5
3F
330
5
100
AcDbSymbolTableRecord
100
AcDbLinetypeTableRecord
  2
ACAD_ISO13W100
 70
     0
  3
ISO double-dash double-dot __ __ . . __ __ . . 
 72
    65
 73
     8
 40
36.0
 49
12.0
 74
     0
 49
-3.0
 74
     0
 49
12.0
 74
     0
 49
-3.0
 74
     0
 49
0.0
 74
     0
 49
-3.0
 74
     0
 49
0.0
 74
     0
 49
-3.0
 74
     0
  0
LTYPE
  5
40
330
5
100
AcDbSymbolTableRecord
100
AcDbLinetypeTableRecord
  2
ACAD_ISO14W100
 70
     0
  3
ISO dash triple-dot __ . . . __ . . . __ . . . 
 72
    65
 73
     8
 40
24.0
 49
12.0
 74
     0
 49
-3.0
 74
     0
 49
0.0
 74
     0
 49
-3.0
 74
     0
 49
0.0
 74
     0
 49
-3.0
 74
     0
 49
0.0
 74
     0
 49
-3.0
 74
     0
  0
LTYPE
  5
41
330
5
100
AcDbSymbolTableRecord
100
AcDbLinetypeTableRecord
  2
ACAD_ISO15W100
 70
     0
  3
ISO double-dash triple-dot __ __ . . . __ __ . 
 72
    65
 73
    10
 40
39.0
 49
12.0
 74
     0
 49
-3.0
 74
     0
 49
12.0
 74
     0
 49
-3.0
 74
     0
 49
0.0
 74
     0
 49
-3.0
 74
     0
 49
0.0
 74
     0
 49
-3.0
 74
     0
 49
0.0
 74
     0
 49
-3.0
 74
     0
  0
LTYPE
  5
42
330
5
100
AcDbSymbolTableRecord
100
AcDbLinetypeTableRecord
  2
BATTING
 70
     0
  3
Batting SSSSSSSSSSSSSSSSSSSSSSSSSSSSSSSSSSSSSSS
 72
    65
 73
     4
 40
10.16254
 49
0.00254
 74
     0
 49
-2.54
 74
     4
 75
   134
340
33
 46
2.54
 50
0.0
 44
-2.54
 45
0.0
 49
-5.08
 74
     4
 75
   134
340
33
 46
2.54
 50
180.0
 44
2.54
 45
0.0
 49
-2.54
 74
     0
  0
LTYPE
  5
43
330
5
100
AcDbSymbolTableRecord
100
AcDbLinetypeTableRecord
  2
BORDER
 70
     0
  3
Border __ __ . __ __ . __ __ . __ __ . __ __ .
 72
    65
 73
     6
 40
44.45
 49
12.7
 74
     0
 49
-6.349999999999999
 74
     0
 49
12.7
 74
     0
 49
-6.349999999999999
 74
     0
 49
0.0
 74
     0
 49
-6.349999999999999
 74
     0
  0
LTYPE
  5
44
330
5
100
AcDbSymbolTableRecord
100
AcDbLinetypeTableRecord
  2
BORDER2
 70
     0
  3
Border (.5x) __.__.__.__.__.__.__.__.__.__.__.
 72
    65
 73
     6
 40
22.225
 49
6.349999999999999
 74
     0
 49
-3.174999999999999
 74
     0
 49
6.349999999999999
 74
     0
 49
-3.174999999999999
 74
     0
 49
0.0
 74
     0
 49
-3.174999999999999
 74
     0
  0
LTYPE
  5
45
330
5
100
AcDbSymbolTableRecord
100
AcDbLinetypeTableRecord
  2
BORDERX2
 70
     0
  3
Border (2x) ____  ____  .  ____  ____  .  ___
 72
    65
 73
     6
 40
88.9
 49
25.4
 74
     0
 49
-12.7
 74
     0
 49
25.4
 74
     0
 49
-12.7
 74
     0
 49
0.0
 74
     0
 49
-12.7
 74
     0
  0
LTYPE
  5
46
330
5
100
AcDbSymbolTableRecord
100
AcDbLinetypeTableRecord
  2
CENTER
 70
     0
  3
Center ____ _ ____ _ ____ _ ____ _ ____ _ ____
 72
    65
 73
     4
 40
50.8
 49
31.75
 74
     0
 49
-6.349999999999999
 74
     0
 49
6.349999999999999
 74
     0
 49
-6.349999999999999
 74
     0
  0
LTYPE
  5
47
330
5
100
AcDbSymbolTableRecord
100
AcDbLinetypeTableRecord
  2
CENTER2
 70
     0
  3
Center (.5x) ___ _ ___ _ ___ _ ___ _ ___ _ ___
 72
    65
 73
     4
 40
28.575
 49
19.05
 74
     0
 49
-3.174999999999999
 74
     0
 49
3.174999999999999
 74
     0
 49
-3.174999999999999
 74
     0
  0
LTYPE
  5
48
330
5
100
AcDbSymbolTableRecord
100
AcDbLinetypeTableRecord
  2
CENTERX2
 70
     0
  3
Center (2x) ________  __  ________  __  _____
 72
    65
 73
     4
 40
101.6
 49
63.5
 74
     0
 49
-12.7
 74
     0
 49
12.7
 74
     0
 49
-12.7
 74
     0
  0
LTYPE
  5
49
330
5
100
AcDbSymbolTableRecord
100
AcDbLinetypeTableRecord
  2
DASHDOT
 70
     0
  3
Dash dot __ . __ . __ . __ . __ . __ . __ . __
 72
    65
 73
     4
 40
25.4
 49
12.7
 74
     0
 49
-6.349999999999999
 74
     0
 49
0.0
 74
     0
 49
-6.349999999999999
 74
     0
  0
LTYPE
  5
4A
330
5
100
AcDbSymbolTableRecord
100
AcDbLinetypeTableRecord
  2
DASHDOT2
 70
     0
  3
Dash dot (.5x) _._._._._._._._._._._._._._._.
 72
    65
 73
     4
 40
12.7
 49
6.349999999999999
 74
     0
 49
-3.174999999999999
 74
     0
 49
0.0
 74
     0
 49
-3.174999999999999
 74
     0
  0
LTYPE
  5
4B
330
5
100
AcDbSymbolTableRecord
100
AcDbLinetypeTableRecord
  2
DASHDOTX2
 70
     0
  3
Dash dot (2x) ____  .  ____  .  ____  .  ___
 72
    65
 73
     4
 40
50.8
 49
25.4
 74
     0
 49
-12.7
 74
     0
 49
0.0
 74
     0
 49
-12.7
 74
     0
  0
LTYPE
  5
4C
330
5
100
AcDbSymbolTableRecord
100
AcDbLinetypeTableRecord
  2
DASHED
 70
     0
  3
Dashed __ __ __ __ __ __ __ __ __ __ __ __ __ _
 72
    65
 73
     2
 40
19.05
 49
12.7
 74
     0
 49
-6.349999999999999
 74
     0
  0
LTYPE
  5
4D
330
5
100
AcDbSymbolTableRecord
100
AcDbLinetypeTableRecord
  2
DASHED2
 70
     0
  3
Dashed (.5x) _ _ _ _ _ _ _ _ _ _ _ _ _ _ _ _ _
 72
    65
 73
     2
 40
9.524999999999998
 49
6.349999999999999
 74
     0
 49
-3.174999999999999
 74
     0
  0
LTYPE
  5
4E
330
5
100
AcDbSymbolTableRecord
100
AcDbLinetypeTableRecord
  2
DASHEDX2
 70
     0
  3
Dashed (2x) ____  ____  ____  ____  ____  ___
 72
    65
 73
     2
 40
38.1
 49
25.4
 74
     0
 49
-12.7
 74
     0
  0
LTYPE
  5
4F
330
5
100
AcDbSymbolTableRecord
100
AcDbLinetypeTableRecord
  2
DIVIDE
 70
     0
  3
Divide ____ . . ____ . . ____ . . ____ . . ____
 72
    65
 73
     6
 40
31.75
 49
12.7
 74
     0
 49
-6.349999999999999
 74
     0
 49
0.0
 74
     0
 49
-6.349999999999999
 74
     0
 49
0.0
 74
     0
 49
-6.349999999999999
 74
     0
  0
LTYPE
  5
50
330
5
100
AcDbSymbolTableRecord
100
AcDbLinetypeTableRecord
  2
DIVIDE2
 70
     0
  3
Divide (.5x) __..__..__..__..__..__..__..__.._
 72
    65
 73
     6
 40
15.875
 49
6.349999999999999
 74
     0
 49
-3.174999999999999
 74
     0
 49
0.0
 74
     0
 49
-3.174999999999999
 74
     0
 49
0.0
 74
     0
 49
-3.174999999999999
 74
     0
  0
LTYPE
  5
51
330
5
100
AcDbSymbolTableRecord
100
AcDbLinetypeTableRecord
  2
DIVIDEX2
 70
     0
  3
Divide (2x) ________  .  .  ________  .  .  _
 72
    65
 73
     6
 40
63.49999999999999
 49
25.4
 74
     0
 49
-12.7
 74
     0
 49
0.0
 74
     0
 49
-12.7
 74
     0
 49
0.0
 74
     0
 49
-12.7
 74
     0
  0
LTYPE
  5
52
330
5
100
AcDbSymbolTableRecord
100
AcDbLinetypeTableRecord
  2
DOT
 70
     0
  3
Dot . . . . . . . . . . . . . . . . . . . . . .
 72
    65
 73
     2
 40
6.349999999999999
 49
0.0
 74
     0
 49
-6.349999999999999
 74
     0
  0
LTYPE
  5
53
330
5
100
AcDbSymbolTableRecord
100
AcDbLinetypeTableRecord
  2
DOT2
 70
     0
  3
Dot (.5x) .....................................
 72
    65
 73
     2
 40
3.174999999999999
 49
0.0
 74
     0
 49
-3.174999999999999
 74
     0
  0
LTYPE
  5
54
330
5
100
AcDbSymbolTableRecord
100
AcDbLinetypeTableRecord
  2
DOTX2
 70
     0
  3
Dot (2x) .  .  .  .  .  .  .  .  .  .  .  .  . 
 72
    65
 73
     2
 40
12.7
 49
0.0
 74
     0
 49
-12.7
 74
     0
  0
LTYPE
  5
55
330
5
100
AcDbSymbolTableRecord
100
AcDbLinetypeTableRecord
  2
FENCELINE1
 70
     0
  3
Fenceline circle ----0-----0----0-----0----0---
 72
    65
 73
     4
 40
36.83
 49
6.349999999999999
 74
     0
 49
-2.54
 74
     4
 75
   133
340
33
 46
2.54
 50
0.0
 44
-2.54
 45
0.0
 49
-2.54
 74
     0
 49
25.4
 74
     0
  0
LTYPE
  5
56
330
5
100
AcDbSymbolTableRecord
100
AcDbLinetypeTableRecord
  2
FENCELINE2
 70
     0
  3
Fenceline square ----[]-----[]----[]-----[]----
 72
    65
 73
     4
 40
36.83
 49
6.349999999999999
 74
     0
 49
-2.54
 74
     4
 75
   132
340
33
 46
2.54
 50
0.0
 44
-2.54
 45
0.0
 49
-2.54
 74
     0
 49
25.4
 74
     0
  0
LTYPE
  5
57
330
5
100
AcDbSymbolTableRecord
100
AcDbLinetypeTableRecord
  2
GAS_LINE
 70
     0
  3
Gas line ----GAS----GAS----GAS----GAS----GAS---
 72
    65
 73
     3
 40
24.13
 49
12.7
 74
     0
 49
-5.08
 74
     2
 75
     0
340
11
 46
2.54
 50
0.0
 44
-2.54
 45
-1.27
  9
GAS
 49
-6.349999999999999
 74
     0
  0
LTYPE
  5
58
330
5
100
AcDbSymbolTableRecord
100
AcDbLinetypeTableRecord
  2
HIDDEN
 70
     0
  3
Hidden __ __ __ __ __ __ __ __ __ __ __ __ __ _
 72
    65
 73
     2
 40
9.524999999999998
 49
6.349999999999999
 74
     0
 49
-3.174999999999999
 74
     0
  0
LTYPE
  5
59
330
5
100
AcDbSymbolTableRecord
100
AcDbLinetypeTableRecord
  2
HIDDEN2
 70
     0
  3
Hidden (.5x) _ _ _ _ _ _ _ _ _ _ _ _ _ _ _ _ _
 72
    65
 73
     2
 40
4.762499999999999
 49
3.174999999999999
 74
     0
 49
-1.587499999999999
 74
     0
  0
LTYPE
  5
5A
330
5
100
AcDbSymbolTableRecord
100
AcDbLinetypeTableRecord
  2
HIDDENX2
 70
     0
  3
Hidden (2x) ____ ____ ____ ____ ____ ____ ____
 72
    65
 73
     2
 40
19.05
 49
12.7
 74
     0
 49
-6.349999999999999
 74
     0
  0
LTYPE
  5
5B
330
5
100
AcDbSymbolTableRecord
100
AcDbLinetypeTableRecord
  2
HOT_WATER_SUPPLY
 70
     0
  3
Hot water supply ---- HW ---- HW ---- HW ----
 72
    65
 73
     3
 40
22.86
 49
12.7
 74
     0
 49
-5.08
 74
     2
 75
     0
340
11
 46
2.54
 50
0.0
 44
-2.54
 45
-1.27
  9
HW
 49
-5.08
 74
     0
  0
LTYPE
  5
5C
330
5
100
AcDbSymbolTableRecord
100
AcDbLinetypeTableRecord
  2
PHANTOM
 70
     0
  3
Phantom ______  __  __  ______  __  __  ______
 72
    65
 73
     6
 40
63.5
 49
31.75
 74
     0
 49
-6.349999999999999
 74
     0
 49
6.349999999999999
 74
     0
 49
-6.349999999999999
 74
     0
 49
6.349999999999999
 74
     0
 49
-6.349999999999999
 74
     0
  0
LTYPE
  5
5D
330
5
100
AcDbSymbolTableRecord
100
AcDbLinetypeTableRecord
  2
PHANTOM2
 70
     0
  3
Phantom (.5x) ___ _ _ ___ _ _ ___ _ _ ___ _ _
 72
    65
 73
     6
 40
31.75
 49
15.875
 74
     0
 49
-3.174999999999999
 74
     0
 49
3.174999999999999
 74
     0
 49
-3.174999999999999
 74
     0
 49
3.174999999999999
 74
     0
 49
-3.174999999999999
 74
     0
  0
LTYPE
  5
5E
330
5
100
AcDbSymbolTableRecord
100
AcDbLinetypeTableRecord
  2
PHANTOMX2
 70
     0
  3
Phantom (2x) ____________    ____    ____   _
 72
    65
 73
     6
 40
127.0
 49
63.5
 74
     0
 49
-12.7
 74
     0
 49
12.7
 74
     0
 49
-12.7
 74
     0
 49
12.7
 74
     0
 49
-12.7
 74
     0
  0
LTYPE
  5
5F
330
5
100
AcDbSymbolTableRecord
100
AcDbLinetypeTableRecord
  2
TRACKS
 70
     0
  3
Tracks -|-|-|-|-|-|-|-|-|-|-|-|-|-|-|-|-|-|-|-|
 72
    65
 73
     2
 40
7.62
 49
3.81
 74
     4
 75
   130
340
33
 46
6.349999999999999
 50
0.0
 44
0.0
 45
0.0
 49
3.81
 74
     0
  0
LTYPE
  5
60
330
5
100
AcDbSymbolTableRecord
100
AcDbLinetypeTableRecord
  2
ZIGZAG
 70
     0
  3
Zig zag /\/\/\/\/\/\/\/\/\/\/\/\/\/\/\/\/\/\/\/
 72
    65
 73
     4
 40
20.32254
 49
0.00254
 74
     0
 49
-5.08
 74
     4
 75
   131
340
33
 46
5.08
 50
0.0
 44
-5.08
 45
0.0
 49
-10.16
 74
     4
 75
   131
340
33
 46
5.08
 50
180.0
 44
5.08
 45
0.0
 49
-5.08
 74
     0
  0
ENDTAB
  0
TABLE
  2
LAYER
  5
2
102
{ACAD_XDICTIONARY
360
FDE
102
}
330
0
100
AcDbSymbolTable
 70
     7
  0
LAYER
  5
10
330
2
100
AcDbSymbolTableRecord
100
AcDbLayerTableRecord
  2
0
 70
     0
 62
     7
  6
Continuous
370
    -3
390
F
  0
LAYER
  5
C3
330
2
100
AcDbSymbolTableRecord
100
AcDbLayerTableRecord
  2
Defpoints
 70
     0
 62
     7
  6
Continuous
290
     0
370
    -3
390
F
  0
LAYER
  5
256
330
2
100
AcDbSymbolTableRecord
100
AcDbLayerTableRecord
  2
Cen
 70
     0
 62
     7
  6
CENTER2
370
    15
390
F
  0
LAYER
  5
5DF
330
2
100
AcDbSymbolTableRecord
100
AcDbLayerTableRecord
  2
実形
 70
     0
 62
     7
  6
Continuous
370
    -3
390
F
  0
LAYER
  5
60C
330
2
100
AcDbSymbolTableRecord
100
AcDbLayerTableRecord
  2
補助
 70
     0
 62
     7
  6
Continuous
370
    -3
390
F
  0
LAYER
  5
619
330
2
100
AcDbSymbolTableRecord
100
AcDbLayerTableRecord
  2
センター
 70
     0
 62
     7
  6
CENTER2
370
    18
390
F
  0
LAYER
  5
61A
330
2
100
AcDbSymbolTableRecord
100
AcDbLayerTableRecord
  2
寸法
 70
     0
 62
     7
  6
Continuous
370
    18
390
F
  0
ENDTAB
  0
TABLE
  2
STYLE
  5
3
330
0
100
AcDbSymbolTable
 70
     4
  0
STYLE
  5
11
330
3
100
AcDbSymbolTableRecord
100
AcDbTextStyleTableRecord
  2
Standard
 70
     0
 40
0.0
 41
1.0
 50
0.0
 71
     0
 42
35.0
  3
txt.shx
  4
bigfont.shx
  0
STYLE
  5
33
330
3
100
AcDbSymbolTableRecord
100
AcDbTextStyleTableRecord
  2

 70
     1
 40
0.0
 41
1.0
 50
0.0
 71
     0
 42
2.5
  3
ltypeshp.shx
  4

  0
STYLE
  5
FDD
330
3
100
AcDbSymbolTableRecord
100
AcDbTextStyleTableRecord
  2
ms明朝
 70
     0
 40
0.0
 41
1.0
 50
0.0
 71
     0
 42
25.0
  3
MS Mincho.ttf
  4

1001
ACAD
1000
MS Mincho
1071
    32785
  0
STYLE
  5
14D3
330
3
100
AcDbSymbolTableRecord
100
AcDbTextStyleTableRecord
  2
明朝
 70
     0
 40
0.0
 41
1.0
 50
0.0
 71
     0
 42
25.0
  3
MS Mincho.ttf
  4

1001
ACAD
1000
MS Mincho
1071
    32785
  0
ENDTAB
  0
TABLE
  2
VIEW
  5
6
330
0
100
AcDbSymbolTable
 70
     0
  0
ENDTAB
  0
TABLE
  2
UCS
  5
7
330
0
100
AcDbSymbolTable
 70
     0
  0
ENDTAB
  0
TABLE
  2
APPID
  5
9
330
0
100
AcDbSymbolTable
 70
     1
  0
APPID
  5
12
330
9
100
AcDbSymbolTableRecord
100
AcDbRegAppTableRecord
  2
ACAD
 70
     0
  0
ENDTAB
  0
TABLE
  2
DIMSTYLE
  5
A
330
0
100
AcDbSymbolTable
 70
     1
100
AcDbDimStyleTable
 71
     1
340
27
  0
DIMSTYLE
105
27
102
{ACAD_REACTORS
330
586
330
304
330
28B
330
2B3
330
270
330
376
330
298
330
2DC
330
2A6
330
27E
330
384
330
31C
330
2F7
330
3BF
330
DFA
330
1000
330
1290
330
1291
330
1299
330
1441
330
1442
330
1443
330
1444
102
}
330
A
100
AcDbSymbolTableRecord
100
AcDbDimStyleTableRecord
  2
ISO-25
 70
     0
 41
30.0
 42
65.0
 43
3.75
 44
0.0
 73
     0
 74
     0
 77
     1
 78
     8
140
25.0
141
2.5
143
0.03937007874016
147
6.25
171
     3
172
     1
271
     2
272
     2
274
     3
283
     0
284
     8
340
11
341
DA
342
D0
371
    15
372
    15
  0
ENDTAB
  0
TABLE
  2
BLOCK_RECORD
  5
1
330
0
100
AcDbSymbolTable
 70
    48
  0
BLOCK_RECORD
  5
1F
102
{ACAD_XDICTIONARY
360
13B6
102
}
330
1
100
AcDbSymbolTableRecord
100
AcDbBlockTableRecord
  2
*Model_Space
340
22
  0
BLOCK_RECORD
  5
1B
330
1
100
AcDbSymbolTableRecord
100
AcDbBlockTableRecord
  2
*Paper_Space
340
1E
  0
BLOCK_RECORD
  5
23
330
1
100
AcDbSymbolTableRecord
100
AcDbBlockTableRecord
  2
*Paper_Space0
340
26
  0
BLOCK_RECORD
  5
D0
330
1
100
AcDbSymbolTableRecord
100
AcDbBlockTableRecord
  2
_DotSmall
340
0
102
{BLKREFS
331
D2C
331
D2D
331
E8C
331
E8D
331
EB9
331
EBA
331
EC3
331
EC4
331
EF0
331
EF1
331
EF9
331
EFA
331
F02
331
F03
331
F15
331
F16
331
F1F
331
F20
331
F31
331
F32
331
F3A
331
F3B
331
F6B
331
F6C
331
F74
331
F75
331
100E
331
100F
331
107D
331
107E
331
1085
331
1086
331
1107
331
1108
331
1113
331
1114
331
1120
331
1121
331
112B
331
112C
331
1138
331
1139
331
1144
331
1145
331
1165
331
1166
331
1171
331
1172
331
117E
331
117F
331
1189
331
118A
331
1196
331
1197
331
11A2
331
11A3
331
11C6
331
11C7
331
11D2
331
11D3
331
11DF
331
11E0
331
11EA
331
11EB
331
11F7
331
11F8
331
1203
331
1204
331
12F6
331
12F7
331
1300
331
1301
331
1479
331
147A
331
1482
331
1483
331
148B
331
148C
331
1493
331
1494
331
14A8
331
14A9
102
}
  0
BLOCK_RECORD
  5
D4
330
1
100
AcDbSymbolTableRecord
100
AcDbBlockTableRecord
  2
_Origin2
340
0
  0
BLOCK_RECORD
  5
DA
330
1
100
AcDbSymbolTableRecord
100
AcDbBlockTableRecord
  2
_Open30
340
0
  0
BLOCK_RECORD
  5
271
330
1
100
AcDbSymbolTableRecord
100
AcDbBlockTableRecord
  2
*D4
340
0
  0
BLOCK_RECORD
  5
27F
330
1
100
AcDbSymbolTableRecord
100
AcDbBlockTableRecord
  2
*D5
340
0
  0
BLOCK_RECORD
  5
28C
330
1
100
AcDbSymbolTableRecord
100
AcDbBlockTableRecord
  2
*D6
340
0
  0
BLOCK_RECORD
  5
299
330
1
100
AcDbSymbolTableRecord
100
AcDbBlockTableRecord
  2
*D7
340
0
  0
BLOCK_RECORD
  5
2A7
330
1
100
AcDbSymbolTableRecord
100
AcDbBlockTableRecord
  2
*D8
340
0
  0
BLOCK_RECORD
  5
2B4
330
1
100
AcDbSymbolTableRecord
100
AcDbBlockTableRecord
  2
*D9
340
0
  0
BLOCK_RECORD
  5
2DD
330
1
100
AcDbSymbolTableRecord
100
AcDbBlockTableRecord
  2
*D10
340
0
  0
BLOCK_RECORD
  5
2F8
330
1
100
AcDbSymbolTableRecord
100
AcDbBlockTableRecord
  2
*D11
340
0
  0
BLOCK_RECORD
  5
305
330
1
100
AcDbSymbolTableRecord
100
AcDbBlockTableRecord
  2
*D12
340
0
  0
BLOCK_RECORD
  5
31D
330
1
100
AcDbSymbolTableRecord
100
AcDbBlockTableRecord
  2
*D13
340
0
  0
BLOCK_RECORD
  5
377
330
1
100
AcDbSymbolTableRecord
100
AcDbBlockTableRecord
  2
*D14
340
0
  0
BLOCK_RECORD
  5
385
330
1
100
AcDbSymbolTableRecord
100
AcDbBlockTableRecord
  2
*D15
340
0
  0
BLOCK_RECORD
  5
3C0
330
1
100
AcDbSymbolTableRecord
100
AcDbBlockTableRecord
  2
*D16
340
0
  0
BLOCK_RECORD
  5
587
330
1
100
AcDbSymbolTableRecord
100
AcDbBlockTableRecord
  2
*D17
340
0
  0
BLOCK_RECORD
  5
DFB
330
1
100
AcDbSymbolTableRecord
100
AcDbBlockTableRecord
  2
*D18
340
0
  0
BLOCK_RECORD
  5
1001
330
1
100
AcDbSymbolTableRecord
100
AcDbBlockTableRecord
  2
*D19
340
0
  0
BLOCK_RECORD
  5
1102
330
1
100
AcDbSymbolTableRecord
100
AcDbBlockTableRecord
  2
*D20
340
0
  0
BLOCK_RECORD
  5
110E
330
1
100
AcDbSymbolTableRecord
100
AcDbBlockTableRecord
  2
*D21
340
0
  0
BLOCK_RECORD
  5
111A
330
1
100
AcDbSymbolTableRecord
100
AcDbBlockTableRecord
  2
*D22
340
0
  0
BLOCK_RECORD
  5
1126
330
1
100
AcDbSymbolTableRecord
100
AcDbBlockTableRecord
  2
*D23
340
0
  0
BLOCK_RECORD
  5
1132
330
1
100
AcDbSymbolTableRecord
100
AcDbBlockTableRecord
  2
*D24
340
0
  0
BLOCK_RECORD
  5
113E
330
1
100
AcDbSymbolTableRecord
100
AcDbBlockTableRecord
  2
*D25
340
0
  0
BLOCK_RECORD
  5
114A
102
{ACAD_XDICTIONARY
360
115C
102
}
330
1
100
AcDbSymbolTableRecord
100
AcDbBlockTableRecord
  2
A$C698B584C
340
0
  0
BLOCK_RECORD
  5
1160
330
1
100
AcDbSymbolTableRecord
100
AcDbBlockTableRecord
  2
*D27
340
0
  0
BLOCK_RECORD
  5
116C
330
1
100
AcDbSymbolTableRecord
100
AcDbBlockTableRecord
  2
*D28
340
0
  0
BLOCK_RECORD
  5
1178
330
1
100
AcDbSymbolTableRecord
100
AcDbBlockTableRecord
  2
*D29
340
0
  0
BLOCK_RECORD
  5
1184
330
1
100
AcDbSymbolTableRecord
100
AcDbBlockTableRecord
  2
*D30
340
0
  0
BLOCK_RECORD
  5
1190
330
1
100
AcDbSymbolTableRecord
100
AcDbBlockTableRecord
  2
*D31
340
0
  0
BLOCK_RECORD
  5
119C
330
1
100
AcDbSymbolTableRecord
100
AcDbBlockTableRecord
  2
*D32
340
0
  0
BLOCK_RECORD
  5
11A8
102
{ACAD_XDICTIONARY
360
11BD
102
}
330
1
100
AcDbSymbolTableRecord
100
AcDbBlockTableRecord
  2
A$C67BC4F03
340
0
  0
BLOCK_RECORD
  5
11C1
330
1
100
AcDbSymbolTableRecord
100
AcDbBlockTableRecord
  2
*D34
340
0
  0
BLOCK_RECORD
  5
11CD
330
1
100
AcDbSymbolTableRecord
100
AcDbBlockTableRecord
  2
*D35
340
0
  0
BLOCK_RECORD
  5
11D9
330
1
100
AcDbSymbolTableRecord
100
AcDbBlockTableRecord
  2
*D36
340
0
  0
BLOCK_RECORD
  5
11E5
330
1
100
AcDbSymbolTableRecord
100
AcDbBlockTableRecord
  2
*D37
340
0
  0
BLOCK_RECORD
  5
11F1
330
1
100
AcDbSymbolTableRecord
100
AcDbBlockTableRecord
  2
*D38
340
0
  0
BLOCK_RECORD
  5
11FD
330
1
100
AcDbSymbolTableRecord
100
AcDbBlockTableRecord
  2
*D39
340
0
  0
BLOCK_RECORD
  5
1209
102
{ACAD_XDICTIONARY
360
1220
102
}
330
1
100
AcDbSymbolTableRecord
100
AcDbBlockTableRecord
  2
A$C1E550F1E
340
0
  0
BLOCK_RECORD
  5
12A2
330
1
100
AcDbSymbolTableRecord
100
AcDbBlockTableRecord
  2
*D41
340
0
  0
BLOCK_RECORD
  5
12AE
330
1
100
AcDbSymbolTableRecord
100
AcDbBlockTableRecord
  2
*D42
340
0
  0
BLOCK_RECORD
  5
12BA
330
1
100
AcDbSymbolTableRecord
100
AcDbBlockTableRecord
  2
*D43
340
0
  0
BLOCK_RECORD
  5
1445
330
1
100
AcDbSymbolTableRecord
100
AcDbBlockTableRecord
  2
*D44
340
0
  0
BLOCK_RECORD
  5
1451
330
1
100
AcDbSymbolTableRecord
100
AcDbBlockTableRecord
  2
*D45
340
0
  0
BLOCK_RECORD
  5
145D
330
1
100
AcDbSymbolTableRecord
100
AcDbBlockTableRecord
  2
*D46
340
0
  0
BLOCK_RECORD
  5
1469
330
1
100
AcDbSymbolTableRecord
100
AcDbBlockTableRecord
  2
*D47
340
0
  0
ENDTAB
  0
ENDSEC
  0
SECTION
  2
BLOCKS
  0
BLOCK
  5
20
330
1F
100
AcDbEntity
  8
0
100
AcDbBlockBegin
  2
*Model_Space
 70
     0
 10
0.0
 20
0.0
 30
0.0
  3
*Model_Space
  1

  0
ENDBLK
  5
21
330
1F
100
AcDbEntity
  8
0
100
AcDbBlockEnd
  0
BLOCK
  5
1C
330
1B
100
AcDbEntity
 67
     1
  8
0
100
AcDbBlockBegin
  2
*Paper_Space
 70
     0
 10
0.0
 20
0.0
 30
0.0
  3
*Paper_Space
  1

  0
ENDBLK
  5
1D
330
1B
100
AcDbEntity
 67
     1
  8
0
100
AcDbBlockEnd
  0
BLOCK
  5
24
330
23
100
AcDbEntity
  8
0
100
AcDbBlockBegin
  2
*Paper_Space0
 70
     0
 10
0.0
 20
0.0
 30
0.0
  3
*Paper_Space0
  1

  0
ENDBLK
  5
25
330
23
100
AcDbEntity
  8
0
100
AcDbBlockEnd
  0
BLOCK
  5
D2
330
D0
100
AcDbEntity
  8
0
100
AcDbBlockBegin
  2
_DotSmall
 70
     0
 10
0.0
 20
0.0
 30
0.0
  3
_DotSmall
  1

  0
LWPOLYLINE
  5
D1
330
D0
100
AcDbEntity
  8
0
 62
     0
100
AcDbPolyline
 90
        2
 70
     1
 43
0.5
 10
-0.0625
 20
0.0
 42
1.0
 10
0.0625
 20
0.0
 42
1.0
  0
ENDBLK
  5
D3
330
D0
100
AcDbEntity
  8
0
100
AcDbBlockEnd
  0
BLOCK
  5
D8
330
D4
100
AcDbEntity
  8
0
100
AcDbBlockBegin
  2
_Origin2
 70
     0
 10
0.0
 20
0.0
 30
0.0
  3
_Origin2
  1

  0
CIRCLE
  5
D5
330
D4
100
AcDbEntity
  8
0
 62
     0
370
    -2
100
AcDbCircle
 10
0.0
 20
0.0
 30
0.0
 40
0.5
  0
CIRCLE
  5
D6
330
D4
100
AcDbEntity
  8
0
 62
     0
370
    -2
100
AcDbCircle
 10
0.0
 20
0.0
 30
0.0
 40
0.25
  0
LINE
  5
D7
330
D4
100
AcDbEntity
  8
0
 62
     0
370
    -2
100
AcDbLine
 10
-0.5
 20
0.0
 30
0.0
 11
-1.0
 21
0.0
 31
0.0
  0
ENDBLK
  5
D9
330
D4
100
AcDbEntity
  8
0
100
AcDbBlockEnd
  0
BLOCK
  5
DE
330
DA
100
AcDbEntity
  8
0
100
AcDbBlockBegin
  2
_Open30
 70
     0
 10
0.0
 20
0.0
 30
0.0
  3
_Open30
  1

  0
LINE
  5
DB
330
DA
100
AcDbEntity
  8
0
 62
     0
370
    -2
100
AcDbLine
 10
-1.0
 20
0.26794919
 30
0.0
 11
0.0
 21
0.0
 31
0.0
  0
LINE
  5
DC
330
DA
100
AcDbEntity
  8
0
 62
     0
370
    -2
100
AcDbLine
 10
0.0
 20
0.0
 30
0.0
 11
-1.0
 21
-0.26794919
 31
0.0
  0
LINE
  5
DD
330
DA
100
AcDbEntity
  8
0
 62
     0
370
    -2
100
AcDbLine
 10
0.0
 20
0.0
 30
0.0
 11
-1.0
 21
0.0
 31
0.0
  0
ENDBLK
  5
DF
330
DA
100
AcDbEntity
  8
0
100
AcDbBlockEnd
  0
BLOCK
  5
27C
330
271
100
AcDbEntity
  8
0
100
AcDbBlockBegin
  2
*D4
 70
     1
 10
0.0
 20
0.0
 30
0.0
  3
*D4
  1

  0
LINE
  5
F1B
330
271
100
AcDbEntity
  8
0
 62
     0
370
    15
100
AcDbLine
 10
714.5107194732054
 20
1055.093561842788
 30
0.0
 11
674.7602173563091
 21
1055.093561842788
 31
0.0
  0
LINE
  5
F1C
330
271
100
AcDbEntity
  8
0
 62
     0
370
    15
100
AcDbLine
 10
714.5107194732054
 20
1070.093561842788
 30
0.0
 11
674.7602173563091
 21
1070.093561842788
 31
0.0
  0
LINE
  5
F1D
330
271
100
AcDbEntity
  8
0
 62
     0
370
    15
100
AcDbLine
 10
674.7602173563091
 20
1055.093561842788
 30
0.0
 11
674.7602173563091
 21
1070.093561842788
 31
0.0
  0
LINE
  5
F1E
330
271
100
AcDbEntity
  8
0
 62
     0
370
    15
100
AcDbLine
 10
674.7602173563091
 20
1070.093561842788
 30
0.0
 11
674.7602173563091
 21
1145.926895176121
 31
0.0
  0
INSERT
  5
F1F
330
271
100
AcDbEntity
  8
0
 62
     0
370
    15
100
AcDbBlockReference
  2
_DotSmall
 10
674.7602173563091
 20
1055.093561842788
 30
0.0
 41
30.0
 42
30.0
 43
30.0
 50
270.0
  0
INSERT
  5
F20
330
271
100
AcDbEntity
  8
0
 62
     0
370
    15
100
AcDbBlockReference
  2
_DotSmall
 10
674.7602173563091
 20
1070.093561842788
 30
0.0
 41
30.0
 42
30.0
 43
30.0
 50
90.0
  0
MTEXT
  5
F21
330
271
100
AcDbEntity
  8
0
 62
     0
100
AcDbMText
 10
656.0102173563089
 20
1123.010228509455
 30
0.0
 40
25.0
 41
0.0
 71
     5
 72
     1
  1
15
 11
0.0000000000000001
 21
1.0
 31
0.0
 73
     1
 44
1.0
1001
ACAD
1000
MTEXTBEGIN
1070
    73
1070
     1
1070
    44
1040
1.0
1070
    74
1070
     0
1000
MTEXTEND
  0
POINT
  5
F22
330
271
100
AcDbEntity
  8
Defpoints
 62
     0
100
AcDbPoint
 10
779.5107194732054
 20
1055.093561842788
 30
0.0
  0
POINT
  5
F23
330
271
100
AcDbEntity
  8
Defpoints
 62
     0
100
AcDbPoint
 10
779.5107194732054
 20
1070.093561842788
 30
0.0
  0
POINT
  5
F24
330
271
100
AcDbEntity
  8
Defpoints
 62
     0
100
AcDbPoint
 10
674.7602173563091
 20
1070.093561842788
 30
0.0
  0
ENDBLK
  5
27D
330
271
100
AcDbEntity
  8
0
100
AcDbBlockEnd
  0
BLOCK
  5
289
330
27F
100
AcDbEntity
  8
0
100
AcDbBlockBegin
  2
*D5
 70
     1
 10
0.0
 20
0.0
 30
0.0
  3
*D5
  1

  0
LINE
  5
F12
330
27F
100
AcDbEntity
  8
0
 62
     0
370
    15
100
AcDbLine
 10
714.5107194732054
 20
1070.093561842788
 30
0.0
 11
674.7602173563091
 21
1070.093561842788
 31
0.0
  0
LINE
  5
F13
330
27F
100
AcDbEntity
  8
0
 62
     0
370
    15
100
AcDbLine
 10
714.5107194732053
 20
1500.093561842788
 30
0.0
 11
674.7602173563092
 21
1500.093561842788
 31
0.0
  0
LINE
  5
F14
330
27F
100
AcDbEntity
  8
0
 62
     0
370
    15
100
AcDbLine
 10
674.7602173563091
 20
1070.093561842788
 30
0.0
 11
674.7602173563092
 21
1500.093561842788
 31
0.0
  0
INSERT
  5
F15
330
27F
100
AcDbEntity
  8
0
 62
     0
370
    15
100
AcDbBlockReference
  2
_DotSmall
 10
674.7602173563091
 20
1070.093561842788
 30
0.0
 41
30.0
 42
30.0
 43
30.0
 50
270.0
  0
INSERT
  5
F16
330
27F
100
AcDbEntity
  8
0
 62
     0
370
    15
100
AcDbBlockReference
  2
_DotSmall
 10
674.7602173563092
 20
1500.093561842788
 30
0.0
 41
30.0
 42
30.0
 43
30.0
 50
90.0
  0
MTEXT
  5
F17
330
27F
100
AcDbEntity
  8
0
 62
     0
100
AcDbMText
 10
656.0102173563089
 20
1285.093561842789
 30
0.0
 40
25.0
 41
0.0
 71
     5
 72
     1
  1
430
 11
0.0000000000000001
 21
1.0
 31
0.0
 73
     1
 44
1.0
1001
ACAD
1000
MTEXTBEGIN
1070
    73
1070
     1
1070
    44
1040
1.0
1070
    74
1070
     0
1000
MTEXTEND
  0
POINT
  5
F18
330
27F
100
AcDbEntity
  8
Defpoints
 62
     0
100
AcDbPoint
 10
779.5107194732054
 20
1070.093561842788
 30
0.0
  0
POINT
  5
F19
330
27F
100
AcDbEntity
  8
Defpoints
 62
     0
100
AcDbPoint
 10
779.5107194732053
 20
1500.093561842788
 30
0.0
  0
POINT
  5
F1A
330
27F
100
AcDbEntity
  8
Defpoints
 62
     0
100
AcDbPoint
 10
674.7602173563092
 20
1500.093561842788
 30
0.0
  0
ENDBLK
  5
28A
330
27F
100
AcDbEntity
  8
0
100
AcDbBlockEnd
  0
BLOCK
  5
296
330
28C
100
AcDbEntity
  8
0
100
AcDbBlockBegin
  2
*D6
 70
     1
 10
0.0
 20
0.0
 30
0.0
  3
*D6
  1

  0
LINE
  5
F2E
330
28C
100
AcDbEntity
  8
0
 62
     0
370
    15
100
AcDbLine
 10
714.5107194732053
 20
1500.093561842788
 30
0.0
 11
674.7602173563092
 21
1500.093561842788
 31
0.0
  0
LINE
  5
F2F
330
28C
100
AcDbEntity
  8
0
 62
     0
370
    15
100
AcDbLine
 10
714.5107194732053
 20
1575.093561842788
 30
0.0
 11
674.7602173563092
 21
1575.093561842788
 31
0.0
  0
LINE
  5
F30
330
28C
100
AcDbEntity
  8
0
 62
     0
370
    15
100
AcDbLine
 10
674.7602173563092
 20
1500.093561842788
 30
0.0
 11
674.7602173563092
 21
1575.093561842788
 31
0.0
  0
INSERT
  5
F31
330
28C
100
AcDbEntity
  8
0
 62
     0
370
    15
100
AcDbBlockReference
  2
_DotSmall
 10
674.7602173563092
 20
1500.093561842788
 30
0.0
 41
30.0
 42
30.0
 43
30.0
 50
270.0
  0
INSERT
  5
F32
330
28C
100
AcDbEntity
  8
0
 62
     0
370
    15
100
AcDbBlockReference
  2
_DotSmall
 10
674.7602173563092
 20
1575.093561842788
 30
0.0
 41
30.0
 42
30.0
 43
30.0
 50
90.0
  0
MTEXT
  5
F33
330
28C
100
AcDbEntity
  8
0
 62
     0
100
AcDbMText
 10
656.0102173563089
 20
1537.593561842788
 30
0.0
 40
25.0
 41
0.0
 71
     5
 72
     1
  1
75
 11
0.0000000000000001
 21
1.0
 31
0.0
 73
     1
 44
1.0
1001
ACAD
1000
MTEXTBEGIN
1070
    73
1070
     1
1070
    44
1040
1.0
1070
    74
1070
     0
1000
MTEXTEND
  0
POINT
  5
F34
330
28C
100
AcDbEntity
  8
Defpoints
 62
     0
100
AcDbPoint
 10
779.5107194732053
 20
1500.093561842788
 30
0.0
  0
POINT
  5
F35
330
28C
100
AcDbEntity
  8
Defpoints
 62
     0
100
AcDbPoint
 10
779.5107194732053
 20
1575.093561842788
 30
0.0
  0
POINT
  5
F36
330
28C
100
AcDbEntity
  8
Defpoints
 62
     0
100
AcDbPoint
 10
674.7602173563092
 20
1575.093561842788
 30
0.0
  0
ENDBLK
  5
297
330
28C
100
AcDbEntity
  8
0
100
AcDbBlockEnd
  0
BLOCK
  5
2A4
330
299
100
AcDbEntity
  8
0
100
AcDbBlockBegin
  2
*D7
 70
     1
 10
0.0
 20
0.0
 30
0.0
  3
*D7
  1

  0
LINE
  5
F67
330
299
100
AcDbEntity
  8
0
 62
     0
370
    15
100
AcDbLine
 10
714.5107194732053
 20
1020.093561842788
 30
0.0
 11
602.1317974531767
 21
1020.093561842788
 31
0.0
  0
LINE
  5
F68
330
299
100
AcDbEntity
  8
0
 62
     0
370
    15
100
AcDbLine
 10
714.5107194732054
 20
1055.093561842788
 30
0.0
 11
602.1317974531767
 21
1055.093561842788
 31
0.0
  0
LINE
  5
F69
330
299
100
AcDbEntity
  8
0
 62
     0
370
    15
100
AcDbLine
 10
602.1317974531767
 20
1020.093561842788
 30
0.0
 11
602.1317974531767
 21
1055.093561842788
 31
0.0
  0
MTEXT
  5
F6A
330
299
100
AcDbEntity
  8
0
 62
     0
100
AcDbMText
 10
580.170886888337
 20
1049.233430008754
 30
0.0
 40
25.0
 41
0.0
 71
     5
 72
     1
  1
35
 11
0.0000000000000001
 21
1.0
 31
0.0
 73
     1
 44
1.0
1001
ACAD
1000
MTEXTBEGIN
1070
    73
1070
     1
1070
    44
1040
1.0
1070
    74
1070
     0
1000
MTEXTEND
  0
INSERT
  5
F6B
330
299
100
AcDbEntity
  8
0
 62
     0
370
    15
100
AcDbBlockReference
  2
_DotSmall
 10
602.1317974531767
 20
1020.093561842788
 30
0.0
 41
30.0
 42
30.0
 43
30.0
 50
270.0
  0
INSERT
  5
F6C
330
299
100
AcDbEntity
  8
0
 62
     0
370
    15
100
AcDbBlockReference
  2
_DotSmall
 10
602.1317974531767
 20
1055.093561842788
 30
0.0
 41
30.0
 42
30.0
 43
30.0
 50
90.0
  0
POINT
  5
F6D
330
299
100
AcDbEntity
  8
Defpoints
 62
     0
100
AcDbPoint
 10
779.5107194732053
 20
1020.093561842788
 30
0.0
  0
POINT
  5
F6E
330
299
100
AcDbEntity
  8
Defpoints
 62
     0
100
AcDbPoint
 10
779.5107194732054
 20
1055.093561842788
 30
0.0
  0
POINT
  5
F6F
330
299
100
AcDbEntity
  8
Defpoints
 62
     0
100
AcDbPoint
 10
602.1317974531767
 20
1055.093561842788
 30
0.0
  0
ENDBLK
  5
2A5
330
299
100
AcDbEntity
  8
0
100
AcDbBlockEnd
  0
BLOCK
  5
2B1
330
2A7
100
AcDbEntity
  8
0
100
AcDbBlockBegin
  2
*D8
 70
     1
 10
0.0
 20
0.0
 30
0.0
  3
*D8
  1

  0
LINE
  5
EFF
330
2A7
100
AcDbEntity
  8
0
 62
     0
370
    15
100
AcDbLine
 10
714.5107194732054
 20
1055.093561842788
 30
0.0
 11
602.1317974531767
 21
1055.093561842788
 31
0.0
  0
LINE
  5
F00
330
2A7
100
AcDbEntity
  8
0
 62
     0
370
    15
100
AcDbLine
 10
714.5107194732053
 20
1575.093561842788
 30
0.0
 11
602.1317974531767
 21
1575.093561842788
 31
0.0
  0
LINE
  5
F01
330
2A7
100
AcDbEntity
  8
0
 62
     0
370
    15
100
AcDbLine
 10
602.1317974531767
 20
1055.093561842788
 30
0.0
 11
602.1317974531767
 21
1575.093561842788
 31
0.0
  0
INSERT
  5
F02
330
2A7
100
AcDbEntity
  8
0
 62
     0
370
    15
100
AcDbBlockReference
  2
_DotSmall
 10
602.1317974531767
 20
1055.093561842788
 30
0.0
 41
30.0
 42
30.0
 43
30.0
 50
270.0
  0
INSERT
  5
F03
330
2A7
100
AcDbEntity
  8
0
 62
     0
370
    15
100
AcDbBlockReference
  2
_DotSmall
 10
602.1317974531767
 20
1575.093561842788
 30
0.0
 41
30.0
 42
30.0
 43
30.0
 50
90.0
  0
MTEXT
  5
F04
330
2A7
100
AcDbEntity
  8
0
 62
     0
100
AcDbMText
 10
583.3817974531765
 20
1315.093561842789
 30
0.0
 40
25.0
 41
0.0
 71
     5
 72
     1
  1
520
 11
0.0000000000000001
 21
1.0
 31
0.0
 73
     1
 44
1.0
1001
ACAD
1000
MTEXTBEGIN
1070
    73
1070
     1
1070
    44
1040
1.0
1070
    74
1070
     0
1000
MTEXTEND
  0
POINT
  5
F05
330
2A7
100
AcDbEntity
  8
Defpoints
 62
     0
100
AcDbPoint
 10
779.5107194732054
 20
1055.093561842788
 30
0.0
  0
POINT
  5
F06
330
2A7
100
AcDbEntity
  8
Defpoints
 62
     0
100
AcDbPoint
 10
779.5107194732053
 20
1575.093561842788
 30
0.0
  0
POINT
  5
F07
330
2A7
100
AcDbEntity
  8
Defpoints
 62
     0
100
AcDbPoint
 10
602.1317974531767
 20
1575.093561842788
 30
0.0
  0
ENDBLK
  5
2B2
330
2A7
100
AcDbEntity
  8
0
100
AcDbBlockEnd
  0
BLOCK
  5
2BE
330
2B4
100
AcDbEntity
  8
0
100
AcDbBlockBegin
  2
*D9
 70
     1
 10
0.0
 20
0.0
 30
0.0
  3
*D9
  1

  0
LINE
  5
F70
330
2B4
100
AcDbEntity
  8
0
 62
     0
370
    15
100
AcDbLine
 10
714.5107194732053
 20
1575.093561842788
 30
0.0
 11
602.1317974531767
 21
1575.093561842788
 31
0.0
  0
LINE
  5
F71
330
2B4
100
AcDbEntity
  8
0
 62
     0
370
    15
100
AcDbLine
 10
714.5107194732052
 20
1610.093561842789
 30
0.0
 11
602.1317974531767
 21
1610.093561842789
 31
0.0
  0
LINE
  5
F72
330
2B4
100
AcDbEntity
  8
0
 62
     0
370
    15
100
AcDbLine
 10
602.1317974531767
 20
1575.093561842788
 30
0.0
 11
602.1317974531767
 21
1610.093561842789
 31
0.0
  0
MTEXT
  5
F73
330
2B4
100
AcDbEntity
  8
0
 62
     0
100
AcDbMText
 10
580.170886888337
 20
1581.461311335788
 30
0.0
 40
25.0
 41
0.0
 71
     5
 72
     1
  1
35
 11
0.0000000000000001
 21
1.0
 31
0.0
 73
     1
 44
1.0
1001
ACAD
1000
MTEXTBEGIN
1070
    73
1070
     1
1070
    44
1040
1.0
1070
    74
1070
     0
1000
MTEXTEND
  0
INSERT
  5
F74
330
2B4
100
AcDbEntity
  8
0
 62
     0
370
    15
100
AcDbBlockReference
  2
_DotSmall
 10
602.1317974531767
 20
1575.093561842788
 30
0.0
 41
30.0
 42
30.0
 43
30.0
 50
270.0
  0
INSERT
  5
F75
330
2B4
100
AcDbEntity
  8
0
 62
     0
370
    15
100
AcDbBlockReference
  2
_DotSmall
 10
602.1317974531767
 20
1610.093561842789
 30
0.0
 41
30.0
 42
30.0
 43
30.0
 50
90.0
  0
POINT
  5
F76
330
2B4
100
AcDbEntity
  8
Defpoints
 62
     0
100
AcDbPoint
 10
779.5107194732053
 20
1575.093561842788
 30
0.0
  0
POINT
  5
F77
330
2B4
100
AcDbEntity
  8
Defpoints
 62
     0
100
AcDbPoint
 10
779.5107194732052
 20
1610.093561842789
 30
0.0
  0
POINT
  5
F78
330
2B4
100
AcDbEntity
  8
Defpoints
 62
     0
100
AcDbPoint
 10
602.1317974531767
 20
1610.093561842789
 30
0.0
  0
ENDBLK
  5
2BF
330
2B4
100
AcDbEntity
  8
0
100
AcDbBlockEnd
  0
BLOCK
  5
2E7
330
2DD
100
AcDbEntity
  8
0
100
AcDbBlockBegin
  2
*D10
 70
     1
 10
0.0
 20
0.0
 30
0.0
  3
*D10
  1

  0
LINE
  5
EF6
330
2DD
100
AcDbEntity
  8
0
 62
     0
370
    15
100
AcDbLine
 10
714.5107194732053
 20
1020.093561842788
 30
0.0
 11
532.6611450838625
 21
1020.093561842788
 31
0.0
  0
LINE
  5
EF7
330
2DD
100
AcDbEntity
  8
0
 62
     0
370
    15
100
AcDbLine
 10
714.5107194732052
 20
1610.093561842789
 30
0.0
 11
532.6611450838627
 21
1610.093561842789
 31
0.0
  0
LINE
  5
EF8
330
2DD
100
AcDbEntity
  8
0
 62
     0
370
    15
100
AcDbLine
 10
532.6611450838625
 20
1020.093561842788
 30
0.0
 11
532.6611450838627
 21
1610.093561842789
 31
0.0
  0
INSERT
  5
EF9
330
2DD
100
AcDbEntity
  8
0
 62
     0
370
    15
100
AcDbBlockReference
  2
_DotSmall
 10
532.6611450838625
 20
1020.093561842788
 30
0.0
 41
30.0
 42
30.0
 43
30.0
 50
270.0
  0
INSERT
  5
EFA
330
2DD
100
AcDbEntity
  8
0
 62
     0
370
    15
100
AcDbBlockReference
  2
_DotSmall
 10
532.6611450838627
 20
1610.093561842789
 30
0.0
 41
30.0
 42
30.0
 43
30.0
 50
90.0
  0
MTEXT
  5
EFB
330
2DD
100
AcDbEntity
  8
0
 62
     0
100
AcDbMText
 10
513.9111450838624
 20
1315.093561842789
 30
0.0
 40
25.0
 41
0.0
 71
     5
 72
     1
  1
590
 11
0.0000000000000001
 21
1.0
 31
0.0
 73
     1
 44
1.0
1001
ACAD
1000
MTEXTBEGIN
1070
    73
1070
     1
1070
    44
1040
1.0
1070
    74
1070
     0
1000
MTEXTEND
  0
POINT
  5
EFC
330
2DD
100
AcDbEntity
  8
Defpoints
 62
     0
100
AcDbPoint
 10
779.5107194732053
 20
1020.093561842788
 30
0.0
  0
POINT
  5
EFD
330
2DD
100
AcDbEntity
  8
Defpoints
 62
     0
100
AcDbPoint
 10
779.5107194732052
 20
1610.093561842789
 30
0.0
  0
POINT
  5
EFE
330
2DD
100
AcDbEntity
  8
Defpoints
 62
     0
100
AcDbPoint
 10
532.6611450838627
 20
1610.093561842789
 30
0.0
  0
ENDBLK
  5
2E8
330
2DD
100
AcDbEntity
  8
0
100
AcDbBlockEnd
  0
BLOCK
  5
302
330
2F8
100
AcDbEntity
  8
0
100
AcDbBlockBegin
  2
*D11
 70
     1
 10
0.0
 20
0.0
 30
0.0
  3
*D11
  1

  0
LINE
  5
D29
330
2F8
100
AcDbEntity
  8
0
 62
     0
370
    15
100
AcDbLine
 10
814.5107194732053
 20
955.0935618427883
 30
0.0
 11
814.5107194732053
 21
916.1857900480718
 31
0.0
  0
LINE
  5
D2A
330
2F8
100
AcDbEntity
  8
0
 62
     0
370
    15
100
AcDbLine
 10
1614.510719473205
 20
955.0935618427882
 30
0.0
 11
1614.510719473205
 21
916.1857900480718
 31
0.0
  0
LINE
  5
D2B
330
2F8
100
AcDbEntity
  8
0
 62
     0
370
    15
100
AcDbLine
 10
814.5107194732053
 20
916.1857900480718
 30
0.0
 11
1614.510719473205
 21
916.1857900480718
 31
0.0
  0
INSERT
  5
D2C
330
2F8
100
AcDbEntity
  8
0
 62
     0
370
    15
100
AcDbBlockReference
  2
_DotSmall
 10
814.5107194732053
 20
916.1857900480718
 30
0.0
 41
30.0
 42
30.0
 43
30.0
 50
180.0
  0
INSERT
  5
D2D
330
2F8
100
AcDbEntity
  8
0
 62
     0
370
    15
100
AcDbBlockReference
  2
_DotSmall
 10
1614.510719473205
 20
916.1857900480718
 30
0.0
 41
30.0
 42
30.0
 43
30.0
  0
MTEXT
  5
D2E
330
2F8
100
AcDbEntity
  8
0
 62
     0
100
AcDbMText
 10
1214.510719473205
 20
934.9357900480718
 30
0.0
 40
25.0
 41
0.0
 71
     5
 72
     1
  1
800
 73
     1
 44
1.0
1001
ACAD
1000
MTEXTBEGIN
1070
    73
1070
     1
1070
    44
1040
1.0
1070
    74
1070
     0
1000
MTEXTEND
  0
POINT
  5
D2F
330
2F8
100
AcDbEntity
  8
Defpoints
 62
     0
100
AcDbPoint
 10
814.5107194732053
 20
1020.093561842788
 30
0.0
  0
POINT
  5
D30
330
2F8
100
AcDbEntity
  8
Defpoints
 62
     0
100
AcDbPoint
 10
1614.510719473205
 20
1020.093561842788
 30
0.0
  0
POINT
  5
D31
330
2F8
100
AcDbEntity
  8
Defpoints
 62
     0
100
AcDbPoint
 10
1614.510719473205
 20
916.1857900480718
 30
0.0
  0
ENDBLK
  5
303
330
2F8
100
AcDbEntity
  8
0
100
AcDbBlockEnd
  0
BLOCK
  5
311
330
305
100
AcDbEntity
  8
0
100
AcDbBlockBegin
  2
*D12
 70
     1
 10
0.0
 20
0.0
 30
0.0
  3
*D12
  1

  0
LINE
  5
EBF
330
305
100
AcDbEntity
  8
0
 62
     0
370
    15
100
AcDbLine
 10
1614.510719473205
 20
955.0935618427882
 30
0.0
 11
1614.510719473205
 21
916.1857900480718
 31
0.0
  0
LINE
  5
EC0
330
305
100
AcDbEntity
  8
0
 62
     0
370
    15
100
AcDbLine
 10
1649.510719473205
 20
955.0935618427883
 30
0.0
 11
1649.510719473205
 21
916.1857900480718
 31
0.0
  0
LINE
  5
EC1
330
305
100
AcDbEntity
  8
0
 62
     0
370
    15
100
AcDbLine
 10
1614.510719473205
 20
916.1857900480718
 30
0.0
 11
1649.510719473205
 21
916.1857900480718
 31
0.0
  0
MTEXT
  5
EC2
330
305
100
AcDbEntity
  8
0
 62
     0
100
AcDbMText
 10
1571.052503888749
 20
934.9357900480718
 30
0.0
 40
25.0
 41
0.0
 71
     5
 72
     1
  1
35
 73
     1
 44
1.0
1001
ACAD
1000
MTEXTBEGIN
1070
    73
1070
     1
1070
    44
1040
1.0
1070
    74
1070
     0
1000
MTEXTEND
  0
INSERT
  5
EC3
330
305
100
AcDbEntity
  8
0
 62
     0
370
    15
100
AcDbBlockReference
  2
_DotSmall
 10
1614.510719473205
 20
916.1857900480718
 30
0.0
 41
30.0
 42
30.0
 43
30.0
 50
180.0
  0
INSERT
  5
EC4
330
305
100
AcDbEntity
  8
0
 62
     0
370
    15
100
AcDbBlockReference
  2
_DotSmall
 10
1649.510719473205
 20
916.1857900480718
 30
0.0
 41
30.0
 42
30.0
 43
30.0
  0
POINT
  5
EC5
330
305
100
AcDbEntity
  8
Defpoints
 62
     0
100
AcDbPoint
 10
1614.510719473205
 20
1020.093561842788
 30
0.0
  0
POINT
  5
EC6
330
305
100
AcDbEntity
  8
Defpoints
 62
     0
100
AcDbPoint
 10
1649.510719473205
 20
1020.093561842788
 30
0.0
  0
POINT
  5
EC7
330
305
100
AcDbEntity
  8
Defpoints
 62
     0
100
AcDbPoint
 10
1649.510719473205
 20
916.1857900480718
 30
0.0
  0
ENDBLK
  5
312
330
305
100
AcDbEntity
  8
0
100
AcDbBlockEnd
  0
BLOCK
  5
327
330
31D
100
AcDbEntity
  8
0
100
AcDbBlockBegin
  2
*D13
 70
     1
 10
0.0
 20
0.0
 30
0.0
  3
*D13
  1

  0
LINE
  5
EB6
330
31D
100
AcDbEntity
  8
0
 62
     0
370
    15
100
AcDbLine
 10
779.5107194732053
 20
955.0935618427883
 30
0.0
 11
779.5107194732053
 21
845.8270180928648
 31
0.0
  0
LINE
  5
EB7
330
31D
100
AcDbEntity
  8
0
 62
     0
370
    15
100
AcDbLine
 10
1649.510719473205
 20
955.0935618427883
 30
0.0
 11
1649.510719473205
 21
845.8270180928648
 31
0.0
  0
LINE
  5
EB8
330
31D
100
AcDbEntity
  8
0
 62
     0
370
    15
100
AcDbLine
 10
779.5107194732053
 20
845.8270180928648
 30
0.0
 11
1649.510719473205
 21
845.8270180928648
 31
0.0
  0
INSERT
  5
EB9
330
31D
100
AcDbEntity
  8
0
 62
     0
370
    15
100
AcDbBlockReference
  2
_DotSmall
 10
779.5107194732053
 20
845.8270180928648
 30
0.0
 41
30.0
 42
30.0
 43
30.0
 50
180.0
  0
INSERT
  5
EBA
330
31D
100
AcDbEntity
  8
0
 62
     0
370
    15
100
AcDbBlockReference
  2
_DotSmall
 10
1649.510719473205
 20
845.8270180928648
 30
0.0
 41
30.0
 42
30.0
 43
30.0
  0
MTEXT
  5
EBB
330
31D
100
AcDbEntity
  8
0
 62
     0
100
AcDbMText
 10
1214.510719473205
 20
864.5770180928648
 30
0.0
 40
25.0
 41
0.0
 71
     5
 72
     1
  1
870
 73
     1
 44
1.0
1001
ACAD
1000
MTEXTBEGIN
1070
    73
1070
     1
1070
    44
1040
1.0
1070
    74
1070
     0
1000
MTEXTEND
  0
POINT
  5
EBC
330
31D
100
AcDbEntity
  8
Defpoints
 62
     0
100
AcDbPoint
 10
779.5107194732053
 20
1020.093561842788
 30
0.0
  0
POINT
  5
EBD
330
31D
100
AcDbEntity
  8
Defpoints
 62
     0
100
AcDbPoint
 10
1649.510719473205
 20
1020.093561842788
 30
0.0
  0
POINT
  5
EBE
330
31D
100
AcDbEntity
  8
Defpoints
 62
     0
100
AcDbPoint
 10
1649.510719473205
 20
845.8270180928648
 30
0.0
  0
ENDBLK
  5
328
330
31D
100
AcDbEntity
  8
0
100
AcDbBlockEnd
  0
BLOCK
  5
381
330
377
100
AcDbEntity
  8
0
100
AcDbBlockBegin
  2
*D14
 70
     1
 10
0.0
 20
0.0
 30
0.0
  3
*D14
  1

  0
LINE
  5
EED
330
377
100
AcDbEntity
  8
0
 62
     0
370
    15
100
AcDbLine
 10
1214.510719473205
 20
1292.855917950958
 30
0.0
 11
1214.510719473205
 21
1207.556483900574
 31
0.0
  0
LINE
  5
EEE
330
377
100
AcDbEntity
  8
0
 62
     0
370
    15
100
AcDbLine
 10
814.5107194732053
 20
1320.093561842788
 30
0.0
 11
814.5107194732053
 21
1207.556483900574
 31
0.0
  0
LINE
  5
EEF
330
377
100
AcDbEntity
  8
0
 62
     0
370
    15
100
AcDbLine
 10
1214.510719473205
 20
1207.556483900574
 30
0.0
 11
814.5107194732053
 21
1207.556483900574
 31
0.0
  0
INSERT
  5
EF0
330
377
100
AcDbEntity
  8
0
 62
     0
370
    15
100
AcDbBlockReference
  2
_DotSmall
 10
1214.510719473205
 20
1207.556483900574
 30
0.0
 41
30.0
 42
30.0
 43
30.0
  0
INSERT
  5
EF1
330
377
100
AcDbEntity
  8
0
 62
     0
370
    15
100
AcDbBlockReference
  2
_DotSmall
 10
814.5107194732053
 20
1207.556483900574
 30
0.0
 41
30.0
 42
30.0
 43
30.0
 50
180.0
  0
MTEXT
  5
EF2
330
377
100
AcDbEntity
  8
0
 62
     0
100
AcDbMText
 10
1014.510719473205
 20
1226.306483900574
 30
0.0
 40
25.0
 41
0.0
 71
     5
 72
     1
  1
400
 73
     1
 44
1.0
1001
ACAD
1000
MTEXTBEGIN
1070
    73
1070
     1
1070
    44
1040
1.0
1070
    74
1070
     0
1000
MTEXTEND
  0
POINT
  5
EF3
330
377
100
AcDbEntity
  8
Defpoints
 62
     0
100
AcDbPoint
 10
1214.510719473205
 20
1357.855917950958
 30
0.0
  0
POINT
  5
EF4
330
377
100
AcDbEntity
  8
Defpoints
 62
     0
100
AcDbPoint
 10
814.5107194732053
 20
1385.093561842788
 30
0.0
  0
POINT
  5
EF5
330
377
100
AcDbEntity
  8
Defpoints
 62
     0
100
AcDbPoint
 10
814.5107194732053
 20
1207.556483900574
 30
0.0
  0
ENDBLK
  5
382
330
377
100
AcDbEntity
  8
0
100
AcDbBlockEnd
  0
BLOCK
  5
38F
330
385
100
AcDbEntity
  8
0
100
AcDbBlockBegin
  2
*D15
 70
     1
 10
0.0
 20
0.0
 30
0.0
  3
*D15
  1

  0
LINE
  5
1082
330
385
100
AcDbEntity
  8
0
 62
     0
370
    15
100
AcDbLine
 10
1329.284410955204
 20
1405.093561842788
 30
0.0
 11
1444.013809245261
 21
1405.093561842788
 31
0.0
  0
LINE
  5
1083
330
385
100
AcDbEntity
  8
0
 62
     0
370
    15
100
AcDbLine
 10
939.5107194732055
 20
1575.093561842789
 30
0.0
 11
1444.013809245262
 21
1575.093561842789
 31
0.0
  0
LINE
  5
1084
330
385
100
AcDbEntity
  8
0
 62
     0
370
    15
100
AcDbLine
 10
1444.013809245261
 20
1405.093561842788
 30
0.0
 11
1444.013809245262
 21
1575.093561842789
 31
0.0
  0
INSERT
  5
1085
330
385
100
AcDbEntity
  8
0
 62
     0
370
    15
100
AcDbBlockReference
  2
_DotSmall
 10
1444.013809245261
 20
1405.093561842788
 30
0.0
 41
30.0
 42
30.0
 43
30.0
 50
270.0
  0
INSERT
  5
1086
330
385
100
AcDbEntity
  8
0
 62
     0
370
    15
100
AcDbBlockReference
  2
_DotSmall
 10
1444.013809245262
 20
1575.093561842789
 30
0.0
 41
30.0
 42
30.0
 43
30.0
 50
90.0
  0
MTEXT
  5
1087
330
385
100
AcDbEntity
  8
0
 62
     0
100
AcDbMText
 10
1425.263809245261
 20
1456.101412944054
 30
0.0
 40
25.0
 41
0.0
 71
     5
 72
     1
  1
170
 11
0.0000000000000001
 21
1.0
 31
0.0
 73
     1
 44
1.0
1001
ACAD
1000
MTEXTBEGIN
1070
    73
1070
     1
1070
    44
1040
1.0
1070
    74
1070
     0
1000
MTEXTEND
  0
POINT
  5
1088
330
385
100
AcDbEntity
  8
Defpoints
 62
     0
100
AcDbPoint
 10
1264.284410955204
 20
1405.093561842788
 30
0.0
  0
POINT
  5
1089
330
385
100
AcDbEntity
  8
Defpoints
 62
     0
100
AcDbPoint
 10
874.5107194732055
 20
1575.093561842789
 30
0.0
  0
POINT
  5
108A
330
385
100
AcDbEntity
  8
Defpoints
 62
     0
100
AcDbPoint
 10
1444.013809245262
 20
1575.093561842789
 30
0.0
  0
ENDBLK
  5
390
330
385
100
AcDbEntity
  8
0
100
AcDbBlockEnd
  0
BLOCK
  5
3CA
330
3C0
100
AcDbEntity
  8
0
100
AcDbBlockBegin
  2
*D16
 70
     1
 10
0.0
 20
0.0
 30
0.0
  3
*D16
  1

  0
LINE
  5
F37
330
3C0
100
AcDbEntity
  8
0
 62
     0
370
    15
100
AcDbLine
 10
1084.510719473205
 20
1727.093561842789
 30
0.0
 11
1084.510719473205
 21
1728.310977532818
 31
0.0
  0
LINE
  5
F38
330
3C0
100
AcDbEntity
  8
0
 62
     0
370
    15
100
AcDbLine
 10
1344.510719473205
 20
1727.093561842789
 30
0.0
 11
1344.510719473205
 21
1728.310977532818
 31
0.0
  0
LINE
  5
F39
330
3C0
100
AcDbEntity
  8
0
 62
     0
370
    15
100
AcDbLine
 10
1084.510719473205
 20
1728.310977532818
 30
0.0
 11
1344.510719473205
 21
1728.310977532818
 31
0.0
  0
INSERT
  5
F3A
330
3C0
100
AcDbEntity
  8
0
 62
     0
370
    15
100
AcDbBlockReference
  2
_DotSmall
 10
1084.510719473205
 20
1728.310977532818
 30
0.0
 41
30.0
 42
30.0
 43
30.0
 50
180.0
  0
INSERT
  5
F3B
330
3C0
100
AcDbEntity
  8
0
 62
     0
370
    15
100
AcDbBlockReference
  2
_DotSmall
 10
1344.510719473205
 20
1728.310977532818
 30
0.0
 41
30.0
 42
30.0
 43
30.0
  0
MTEXT
  5
F3C
330
3C0
100
AcDbEntity
  8
0
 62
     0
100
AcDbMText
 10
1214.510719473205
 20
1747.060977532818
 30
0.0
 40
25.0
 41
0.0
 71
     5
 72
     1
  1
260
 73
     1
 44
1.0
1001
ACAD
1000
MTEXTBEGIN
1070
    73
1070
     1
1070
    44
1040
1.0
1070
    74
1070
     0
1000
MTEXTEND
  0
POINT
  5
F3D
330
3C0
100
AcDbEntity
  8
Defpoints
 62
     0
100
AcDbPoint
 10
1084.510719473205
 20
1662.093561842788
 30
0.0
  0
POINT
  5
F3E
330
3C0
100
AcDbEntity
  8
Defpoints
 62
     0
100
AcDbPoint
 10
1344.510719473205
 20
1662.093561842788
 30
0.0
  0
POINT
  5
F3F
330
3C0
100
AcDbEntity
  8
Defpoints
 62
     0
100
AcDbPoint
 10
1344.510719473205
 20
1728.310977532818
 30
0.0
  0
ENDBLK
  5
3CB
330
3C0
100
AcDbEntity
  8
0
100
AcDbBlockEnd
  0
BLOCK
  5
593
330
587
100
AcDbEntity
  8
0
100
AcDbBlockBegin
  2
*D17
 70
     1
 10
0.0
 20
0.0
 30
0.0
  3
*D17
  1

  0
LINE
  5
1079
330
587
100
AcDbEntity
  8
0
 62
     0
370
    15
100
AcDbLine
 10
1412.945034754952
 20
1560.093561842788
 30
0.0
 11
1414.379969462279
 21
1560.093561842788
 31
0.0
  0
LINE
  5
107A
330
587
100
AcDbEntity
  8
0
 62
     0
370
    15
100
AcDbLine
 10
1344.510719473205
 20
1575.093561842789
 30
0.0
 11
1414.379969462279
 21
1575.093561842789
 31
0.0
  0
LINE
  5
107B
330
587
100
AcDbEntity
  8
0
 62
     0
370
    15
100
AcDbLine
 10
1414.379969462279
 20
1560.093561842788
 30
0.0
 11
1414.379969462279
 21
1575.093561842789
 31
0.0
  0
MTEXT
  5
107C
330
587
100
AcDbEntity
  8
0
 62
     0
100
AcDbMText
 10
1406.95132724992
 20
1530.42835865149
 30
0.0
 40
25.0
 41
0.0
 71
     5
 72
     1
  1
15
 11
0.0000000000000001
 21
1.0
 31
0.0
 73
     1
 44
1.0
1001
ACAD
1000
MTEXTBEGIN
1070
    73
1070
     1
1070
    44
1040
1.0
1070
    74
1070
     0
1000
MTEXTEND
  0
INSERT
  5
107D
330
587
100
AcDbEntity
  8
0
 62
     0
370
    15
100
AcDbBlockReference
  2
_DotSmall
 10
1414.379969462279
 20
1560.093561842788
 30
0.0
 41
30.0
 42
30.0
 43
30.0
 50
270.0
  0
INSERT
  5
107E
330
587
100
AcDbEntity
  8
0
 62
     0
370
    15
100
AcDbBlockReference
  2
_DotSmall
 10
1414.379969462279
 20
1575.093561842789
 30
0.0
 41
30.0
 42
30.0
 43
30.0
 50
90.0
  0
POINT
  5
107F
330
587
100
AcDbEntity
  8
Defpoints
 62
     0
100
AcDbPoint
 10
1347.945034754952
 20
1560.093561842788
 30
0.0
  0
POINT
  5
1080
330
587
100
AcDbEntity
  8
Defpoints
 62
     0
100
AcDbPoint
 10
1279.510719473205
 20
1575.093561842789
 30
0.0
  0
POINT
  5
1081
330
587
100
AcDbEntity
  8
Defpoints
 62
     0
100
AcDbPoint
 10
1414.379969462279
 20
1575.093561842789
 30
0.0
  0
ENDBLK
  5
594
330
587
100
AcDbEntity
  8
0
100
AcDbBlockEnd
  0
BLOCK
  5
E07
330
DFB
100
AcDbEntity
  8
0
100
AcDbBlockBegin
  2
*D18
 70
     1
 10
0.0
 20
0.0
 30
0.0
  3
*D18
  1

  0
LINE
  5
E88
330
DFB
100
AcDbEntity
  8
実形
 62
     0
370
    15
100
AcDbLine
 10
814.5107194732053
 20
955.0935618427883
 30
0.0
 11
814.5107194732053
 21
916.1857900480718
 31
0.0
  0
LINE
  5
E89
330
DFB
100
AcDbEntity
  8
実形
 62
     0
370
    15
100
AcDbLine
 10
779.5107194732053
 20
955.0935618427883
 30
0.0
 11
779.5107194732053
 21
916.1857900480718
 31
0.0
  0
LINE
  5
E8A
330
DFB
100
AcDbEntity
  8
実形
 62
     0
370
    15
100
AcDbLine
 10
814.5107194732053
 20
916.1857900480718
 30
0.0
 11
779.5107194732053
 21
916.1857900480718
 31
0.0
  0
MTEXT
  5
E8B
330
DFB
100
AcDbEntity
  8
実形
 62
     0
100
AcDbMText
 10
843.3352548357269
 20
935.3717174741568
 30
0.0
 40
25.0
 41
0.0
 71
     5
 72
     1
  1
35
 73
     1
 44
1.0
1001
ACAD
1000
MTEXTBEGIN
1070
    73
1070
     1
1070
    44
1040
1.0
1070
    74
1070
     0
1000
MTEXTEND
  0
INSERT
  5
E8C
330
DFB
100
AcDbEntity
  8
実形
 62
     0
370
    15
100
AcDbBlockReference
  2
_DotSmall
 10
814.5107194732053
 20
916.1857900480718
 30
0.0
 41
30.0
 42
30.0
 43
30.0
  0
INSERT
  5
E8D
330
DFB
100
AcDbEntity
  8
実形
 62
     0
370
    15
100
AcDbBlockReference
  2
_DotSmall
 10
779.5107194732053
 20
916.1857900480718
 30
0.0
 41
30.0
 42
30.0
 43
30.0
 50
180.0
  0
POINT
  5
E8E
330
DFB
100
AcDbEntity
  8
Defpoints
 62
     0
100
AcDbPoint
 10
814.5107194732053
 20
1020.093561842788
 30
0.0
  0
POINT
  5
E8F
330
DFB
100
AcDbEntity
  8
Defpoints
 62
     0
100
AcDbPoint
 10
779.5107194732053
 20
1020.093561842788
 30
0.0
  0
POINT
  5
E90
330
DFB
100
AcDbEntity
  8
Defpoints
 62
     0
100
AcDbPoint
 10
779.5107194732053
 20
916.1857900480718
 30
0.0
  0
ENDBLK
  5
E08
330
DFB
100
AcDbEntity
  8
0
100
AcDbBlockEnd
  0
BLOCK
  5
100B
330
1001
100
AcDbEntity
  8
0
100
AcDbBlockBegin
  2
*D19
 70
     1
 10
0.0
 20
0.0
 30
0.0
  3
*D19
  1

  0
ARC
  5
100D
330
1001
100
AcDbEntity
  8
実形
 62
     0
370
    15
100
AcDbCircle
 10
1155.653965507058
 20
1285.324125419353
 30
0.0
 40
127.6240354200504
100
AcDbArc
 50
150.1441113034861
 51
180.0000000000001
  0
INSERT
  5
100E
330
1001
100
AcDbEntity
  8
実形
 62
     0
370
    15
100
AcDbBlockReference
  2
_DotSmall
 10
1044.968157424078
 20
1348.857945593462
 30
0.0
 41
30.0
 42
30.0
 43
30.0
 50
60.1441113034861
  0
INSERT
  5
100F
330
1001
100
AcDbEntity
  8
実形
 62
     0
370
    15
100
AcDbBlockReference
  2
_DotSmall
 10
1028.029930087007
 20
1285.324125419353
 30
0.0
 41
30.0
 42
30.0
 43
30.0
 50
270.0000000000001
  0
MTEXT
  5
1010
330
1001
100
AcDbEntity
  8
実形
 62
     0
100
AcDbMText
 10
1014.219972492695
 20
1323.030674786318
 30
0.0
 40
25.0
 41
0.0
 71
     5
 72
     1
  1
30°
 11
0.2576040843497865
 21
0.9662505553562741
 31
0.0
 73
     1
 44
1.0
1001
ACAD
1000
MTEXTBEGIN
1070
    73
1070
     1
1070
    44
1040
1.0
1070
    74
1070
     0
1000
MTEXTEND
  0
POINT
  5
1011
330
1001
100
AcDbEntity
  8
Defpoints
 62
     0
100
AcDbPoint
 10
1035.65357703009
 20
1328.772959492031
 30
0.0
  0
POINT
  5
1012
330
1001
100
AcDbEntity
  8
Defpoints
 62
     0
100
AcDbPoint
 10
1118.797171690494
 20
1306.479980457067
 30
0.0
  0
POINT
  5
1013
330
1001
100
AcDbEntity
  8
Defpoints
 62
     0
100
AcDbPoint
 10
1213.638541562009
 20
1285.324125419353
 30
0.0
  0
POINT
  5
1014
330
1001
100
AcDbEntity
  8
Defpoints
 62
     0
100
AcDbPoint
 10
926.8832611984789
 20
1285.324125419353
 30
0.0
  0
POINT
  5
1015
330
1001
100
AcDbEntity
  8
Defpoints
 62
     0
100
AcDbPoint
 10
891.6586630790433
 20
1436.857825735267
 30
0.0
  0
ENDBLK
  5
100C
330
1001
100
AcDbEntity
  8
0
100
AcDbBlockEnd
  0
BLOCK
  5
1103
330
1102
100
AcDbEntity
  8
0
100
AcDbBlockBegin
  2
*D20
 70
     1
 10
0.0
 20
0.0
 30
0.0
  3
*D20
  1

  0
LINE
  5
1104
330
1102
100
AcDbEntity
  8
0
 62
     0
370
    15
100
AcDbLine
 10
1294.010719473205
 20
379.5263667117398
 30
0.0
 11
1294.010719473205
 21
323.1318920137246
 31
0.0
  0
LINE
  5
1105
330
1102
100
AcDbEntity
  8
0
 62
     0
370
    15
100
AcDbLine
 10
1135.010719473205
 20
379.5263667117398
 30
0.0
 11
1135.010719473205
 21
323.1318920137246
 31
0.0
  0
LINE
  5
1106
330
1102
100
AcDbEntity
  8
0
 62
     0
370
    15
100
AcDbLine
 10
1294.010719473205
 20
323.1318920137246
 30
0.0
 11
1135.010719473205
 21
323.1318920137246
 31
0.0
  0
INSERT
  5
1107
330
1102
100
AcDbEntity
  8
0
 62
     0
370
    15
100
AcDbBlockReference
  2
_DotSmall
 10
1294.010719473205
 20
323.1318920137246
 30
0.0
 41
30.0
 42
30.0
 43
30.0
  0
INSERT
  5
1108
330
1102
100
AcDbEntity
  8
0
 62
     0
370
    15
100
AcDbBlockReference
  2
_DotSmall
 10
1135.010719473205
 20
323.1318920137246
 30
0.0
 41
30.0
 42
30.0
 43
30.0
 50
180.0
  0
MTEXT
  5
1109
330
1102
100
AcDbEntity
  8
0
 62
     0
100
AcDbMText
 10
1214.510719473205
 20
341.8818920137246
 30
0.0
 40
25.0
 41
0.0
 71
     5
 72
     1
  1
159
 73
     1
 44
1.0
1001
ACAD
1000
MTEXTBEGIN
1070
    73
1070
     1
1070
    44
1040
1.0
1070
    74
1070
     0
1000
MTEXTEND
  0
POINT
  5
110A
330
1102
100
AcDbEntity
  8
Defpoints
 62
     0
100
AcDbPoint
 10
1294.010719473205
 20
444.5263667117397
 30
0.0
  0
POINT
  5
110B
330
1102
100
AcDbEntity
  8
Defpoints
 62
     0
100
AcDbPoint
 10
1135.010719473205
 20
444.5263667117398
 30
0.0
  0
POINT
  5
110C
330
1102
100
AcDbEntity
  8
Defpoints
 62
     0
100
AcDbPoint
 10
1135.010719473205
 20
323.1318920137246
 30
0.0
  0
ENDBLK
  5
110D
330
1102
100
AcDbEntity
  8
0
100
AcDbBlockEnd
  0
BLOCK
  5
110F
330
110E
100
AcDbEntity
  8
0
100
AcDbBlockBegin
  2
*D21
 70
     1
 10
0.0
 20
0.0
 30
0.0
  3
*D21
  1

  0
LINE
  5
1110
330
110E
100
AcDbEntity
  8
0
 62
     0
370
    15
100
AcDbLine
 10
1305.010719473205
 20
517.5263667117397
 30
0.0
 11
1305.010719473205
 21
554.6793912497114
 31
0.0
  0
LINE
  5
1111
330
110E
100
AcDbEntity
  8
0
 62
     0
370
    15
100
AcDbLine
 10
1124.010719473205
 20
517.5263667117397
 30
0.0
 11
1124.010719473205
 21
554.6793912497114
 31
0.0
  0
LINE
  5
1112
330
110E
100
AcDbEntity
  8
0
 62
     0
370
    15
100
AcDbLine
 10
1305.010719473205
 20
554.6793912497114
 30
0.0
 11
1124.010719473205
 21
554.6793912497114
 31
0.0
  0
INSERT
  5
1113
330
110E
100
AcDbEntity
  8
0
 62
     0
370
    15
100
AcDbBlockReference
  2
_DotSmall
 10
1305.010719473205
 20
554.6793912497114
 30
0.0
 41
30.0
 42
30.0
 43
30.0
  0
INSERT
  5
1114
330
110E
100
AcDbEntity
  8
0
 62
     0
370
    15
100
AcDbBlockReference
  2
_DotSmall
 10
1124.010719473205
 20
554.6793912497114
 30
0.0
 41
30.0
 42
30.0
 43
30.0
 50
180.0
  0
MTEXT
  5
1115
330
110E
100
AcDbEntity
  8
0
 62
     0
100
AcDbMText
 10
1214.510719473205
 20
573.4293912497114
 30
0.0
 40
25.0
 41
0.0
 71
     5
 72
     1
  1
181
 73
     1
 44
1.0
1001
ACAD
1000
MTEXTBEGIN
1070
    73
1070
     1
1070
    44
1040
1.0
1070
    74
1070
     0
1000
MTEXTEND
  0
POINT
  5
1116
330
110E
100
AcDbEntity
  8
Defpoints
 62
     0
100
AcDbPoint
 10
1305.010719473205
 20
452.5263667117396
 30
0.0
  0
POINT
  5
1117
330
110E
100
AcDbEntity
  8
Defpoints
 62
     0
100
AcDbPoint
 10
1124.010719473205
 20
452.5263667117398
 30
0.0
  0
POINT
  5
1118
330
110E
100
AcDbEntity
  8
Defpoints
 62
     0
100
AcDbPoint
 10
1124.010719473205
 20
554.6793912497114
 30
0.0
  0
ENDBLK
  5
1119
330
110E
100
AcDbEntity
  8
0
100
AcDbBlockEnd
  0
BLOCK
  5
111B
330
111A
100
AcDbEntity
  8
0
100
AcDbBlockBegin
  2
*D22
 70
     1
 10
0.0
 20
0.0
 30
0.0
  3
*D22
  1

  0
LINE
  5
111C
330
111A
100
AcDbEntity
  8
実形
 62
     0
370
    15
100
AcDbLine
 10
1104.010719473205
 20
516.7157443787114
 30
0.0
 11
1104.010719473205
 21
554.5770817450962
 31
0.0
  0
LINE
  5
111D
330
111A
100
AcDbEntity
  8
実形
 62
     0
370
    15
100
AcDbLine
 10
1325.010719473205
 20
517.3704268963724
 30
0.0
 11
1325.010719473205
 21
554.5770817450962
 31
0.0
  0
LINE
  5
111E
330
111A
100
AcDbEntity
  8
実形
 62
     0
370
    15
100
AcDbLine
 10
1104.010719473205
 20
554.5770817450962
 30
0.0
 11
1325.010719473205
 21
554.5770817450962
 31
0.0
  0
MTEXT
  5
111F
330
111A
100
AcDbEntity
  8
実形
 62
     0
100
AcDbMText
 10
1112.449773043137
 20
574.0205090514105
 30
0.0
 40
25.0
 41
0.0
 71
     5
 72
     1
  1
20
 73
     1
 44
1.0
1001
ACAD
1000
MTEXTBEGIN
1070
    73
1070
     1
1070
    44
1040
1.0
1070
    74
1070
     0
1000
MTEXTEND
  0
INSERT
  5
1120
330
111A
100
AcDbEntity
  8
実形
 62
     0
370
    15
100
AcDbBlockReference
  2
_DotSmall
 10
1104.010719473205
 20
554.5770817450962
 30
0.0
 41
30.0
 42
30.0
 43
30.0
 50
180.0
  0
INSERT
  5
1121
330
111A
100
AcDbEntity
  8
実形
 62
     0
370
    15
100
AcDbBlockReference
  2
_DotSmall
 10
1325.010719473205
 20
554.5770817450962
 30
0.0
 41
30.0
 42
30.0
 43
30.0
  0
POINT
  5
1122
330
111A
100
AcDbEntity
  8
Defpoints
 62
     0
100
AcDbPoint
 10
1104.010719473205
 20
451.7157443787113
 30
0.0
  0
POINT
  5
1123
330
111A
100
AcDbEntity
  8
Defpoints
 62
     0
100
AcDbPoint
 10
1325.010719473205
 20
452.3704268963724
 30
0.0
  0
POINT
  5
1124
330
111A
100
AcDbEntity
  8
Defpoints
 62
     0
100
AcDbPoint
 10
1325.010719473205
 20
554.5770817450962
 30
0.0
  0
ENDBLK
  5
1125
330
111A
100
AcDbEntity
  8
0
100
AcDbBlockEnd
  0
BLOCK
  5
1127
330
1126
100
AcDbEntity
  8
0
 62
     1
100
AcDbBlockBegin
  2
*D23
 70
     1
 10
0.0
 20
0.0
 30
0.0
  3
*D23
  1

  0
LINE
  5
1128
330
1126
100
AcDbEntity
  8
実形
 62
     0
370
    15
100
AcDbLine
 10
732.5107194732054
 20
642.5263667117398
 30
0.0
 11
605.9639537555222
 21
642.5263667117398
 31
0.0
  0
LINE
  5
1129
330
1126
100
AcDbEntity
  8
実形
 62
     0
370
    15
100
AcDbLine
 10
732.8897009242019
 20
444.5263667117398
 30
0.0
 11
605.9639537555222
 21
444.5263667117398
 31
0.0
  0
LINE
  5
112A
330
1126
100
AcDbEntity
  8
実形
 62
     0
370
    15
100
AcDbLine
 10
605.9639537555222
 20
642.5263667117398
 30
0.0
 11
605.9639537555222
 21
444.5263667117398
 31
0.0
  0
INSERT
  5
112B
330
1126
100
AcDbEntity
  8
実形
 62
     0
370
    15
100
AcDbBlockReference
  2
_DotSmall
 10
605.9639537555222
 20
642.5263667117398
 30
0.0
 41
30.0
 42
30.0
 43
30.0
 50
90.0
  0
INSERT
  5
112C
330
1126
100
AcDbEntity
  8
実形
 62
     0
370
    15
100
AcDbBlockReference
  2
_DotSmall
 10
605.9639537555222
 20
444.5263667117398
 30
0.0
 41
30.0
 42
30.0
 43
30.0
 50
270.0
  0
MTEXT
  5
112D
330
1126
100
AcDbEntity
  8
実形
 62
     0
100
AcDbMText
 10
587.213953755522
 20
543.52636671174
 30
0.0
 40
25.0
 41
0.0
 71
     5
 72
     1
  1
197
 11
0.0000000000000001
 21
1.0
 31
0.0
 73
     1
 44
1.0
1001
ACAD
1000
MTEXTBEGIN
1070
    73
1070
     1
1070
    44
1040
1.0
1070
    74
1070
     0
1000
MTEXTEND
  0
POINT
  5
112E
330
1126
100
AcDbEntity
  8
Defpoints
 62
     0
100
AcDbPoint
 10
797.5107194732054
 20
642.5263667117397
 30
0.0
  0
POINT
  5
112F
330
1126
100
AcDbEntity
  8
Defpoints
 62
     0
100
AcDbPoint
 10
797.8897009242018
 20
444.5263667117398
 30
0.0
  0
POINT
  5
1130
330
1126
100
AcDbEntity
  8
Defpoints
 62
     0
100
AcDbPoint
 10
605.9639537555222
 20
444.5263667117398
 30
0.0
  0
ENDBLK
  5
1131
330
1126
100
AcDbEntity
  8
0
 62
     1
100
AcDbBlockEnd
  0
BLOCK
  5
1133
330
1132
100
AcDbEntity
  8
0
 62
     1
100
AcDbBlockBegin
  2
*D24
 70
     1
 10
0.0
 20
0.0
 30
0.0
  3
*D24
  1

  0
LINE
  5
1134
330
1132
100
AcDbEntity
  8
実形
 62
     0
370
    15
100
AcDbLine
 10
732.6366548721916
 20
642.5263667117398
 30
0.0
 11
684.3113330282695
 21
642.5263667117398
 31
0.0
  0
LINE
  5
1135
330
1132
100
AcDbEntity
  8
実形
 62
     0
370
    15
100
AcDbLine
 10
732.6366548721916
 20
627.5263667117399
 30
0.0
 11
684.3113330282695
 21
627.5263667117399
 31
0.0
  0
LINE
  5
1136
330
1132
100
AcDbEntity
  8
実形
 62
     0
370
    15
100
AcDbLine
 10
684.3113330282695
 20
642.5263667117398
 30
0.0
 11
684.3113330282695
 21
627.5263667117399
 31
0.0
  0
MTEXT
  5
1137
330
1132
100
AcDbEntity
  8
実形
 62
     0
100
AcDbMText
 10
661.7983101723266
 20
666.8750052197656
 30
0.0
 40
25.0
 41
0.0
 71
     5
 72
     1
  1
15
 11
0.0000000000000001
 21
1.0
 31
0.0
 73
     1
 44
1.0
1001
ACAD
1000
MTEXTBEGIN
1070
    73
1070
     1
1070
    44
1040
1.0
1070
    74
1070
     0
1000
MTEXTEND
  0
INSERT
  5
1138
330
1132
100
AcDbEntity
  8
実形
 62
     0
370
    15
100
AcDbBlockReference
  2
_DotSmall
 10
684.3113330282695
 20
642.5263667117398
 30
0.0
 41
30.0
 42
30.0
 43
30.0
 50
90.0
  0
INSERT
  5
1139
330
1132
100
AcDbEntity
  8
実形
 62
     0
370
    15
100
AcDbBlockReference
  2
_DotSmall
 10
684.3113330282695
 20
627.5263667117399
 30
0.0
 41
30.0
 42
30.0
 43
30.0
 50
270.0
  0
POINT
  5
113A
330
1132
100
AcDbEntity
  8
Defpoints
 62
     0
100
AcDbPoint
 10
797.6366548721917
 20
642.5263667117397
 30
0.0
  0
POINT
  5
113B
330
1132
100
AcDbEntity
  8
Defpoints
 62
     0
100
AcDbPoint
 10
797.6366548721917
 20
627.5263667117398
 30
0.0
  0
POINT
  5
113C
330
1132
100
AcDbEntity
  8
Defpoints
 62
     0
100
AcDbPoint
 10
684.3113330282695
 20
627.5263667117399
 30
0.0
  0
ENDBLK
  5
113D
330
1132
100
AcDbEntity
  8
0
 62
     1
100
AcDbBlockEnd
  0
BLOCK
  5
113F
330
113E
100
AcDbEntity
  8
0
 62
     1
100
AcDbBlockBegin
  2
*D25
 70
     1
 10
0.0
 20
0.0
 30
0.0
  3
*D25
  1

  0
LINE
  5
1140
330
113E
100
AcDbEntity
  8
実形
 62
     0
370
    15
100
AcDbLine
 10
731.5443057187831
 20
475.238156049698
 30
0.0
 11
686.2301870680176
 21
475.238156049698
 31
0.0
  0
LINE
  5
1141
330
113E
100
AcDbEntity
  8
実形
 62
     0
370
    15
100
AcDbLine
 10
690.7242295461192
 20
451.5263667117399
 30
0.0
 11
686.2301870680176
 21
451.5263667117399
 31
0.0
  0
LINE
  5
1142
330
113E
100
AcDbEntity
  8
実形
 62
     0
370
    15
100
AcDbLine
 10
686.2301870680176
 20
475.238156049698
 30
0.0
 11
686.2301870680176
 21
451.5263667117399
 31
0.0
  0
MTEXT
  5
1143
330
113E
100
AcDbEntity
  8
実形
 62
     0
100
AcDbMText
 10
710.4323435949945
 20
501.9985219617901
 30
0.0
 40
25.0
 41
0.0
 71
     5
 72
     1
  1
20
 11
0.0000000000000001
 21
1.0
 31
0.0
 73
     1
 44
1.0
1001
ACAD
1000
MTEXTBEGIN
1070
    73
1070
     1
1070
    44
1040
1.0
1070
    74
1070
     0
1000
MTEXTEND
  0
INSERT
  5
1144
330
113E
100
AcDbEntity
  8
実形
 62
     0
370
    15
100
AcDbBlockReference
  2
_DotSmall
 10
686.2301870680176
 20
475.238156049698
 30
0.0
 41
30.0
 42
30.0
 43
30.0
 50
90.0
  0
INSERT
  5
1145
330
113E
100
AcDbEntity
  8
実形
 62
     0
370
    15
100
AcDbBlockReference
  2
_DotSmall
 10
686.2301870680176
 20
451.5263667117399
 30
0.0
 41
30.0
 42
30.0
 43
30.0
 50
270.0
  0
POINT
  5
1146
330
113E
100
AcDbEntity
  8
Defpoints
 62
     0
100
AcDbPoint
 10
796.544305718783
 20
475.238156049698
 30
0.0
  0
POINT
  5
1147
330
113E
100
AcDbEntity
  8
Defpoints
 62
     0
100
AcDbPoint
 10
755.7242295461191
 20
451.5263667117399
 30
0.0
  0
POINT
  5
1148
330
113E
100
AcDbEntity
  8
Defpoints
 62
     0
100
AcDbPoint
 10
686.2301870680176
 20
451.5263667117399
 30
0.0
  0
ENDBLK
  5
1149
330
113E
100
AcDbEntity
  8
0
 62
     1
100
AcDbBlockEnd
  0
BLOCK
  5
115E
330
114A
100
AcDbEntity
  8
0
100
AcDbBlockBegin
  2
A$C698B584C
 70
     0
 10
0.0
 20
0.0
 30
0.0
  3
A$C698B584C
  1

  0
LINE
  5
114B
330
114A
100
AcDbEntity
  8
0
100
AcDbLine
 10
560.2967654082247
 20
125.1444732498523
 30
0.0
 11
719.2967654082249
 21
125.1444732498521
 31
0.0
  0
LINE
  5
114C
330
114A
100
AcDbEntity
  8
0
100
AcDbLine
 10
549.2967654082248
 20
133.1444732498522
 30
0.0
 11
730.2967654082249
 21
133.1444732498521
 31
0.0
  0
DIMENSION
  5
114D
330
114A
100
AcDbEntity
  8
0
100
AcDbDimension
  2
*D20
 10
560.2967654082247
 20
3.749998551837052
 30
0.0
 11
639.7967654082249
 21
22.49999855183705
 31
0.0
 12
-574.7139540649804
 22
-319.3818934618875
 32
0.0
 71
     5
 42
159.0000000000002
  3
ISO-25
100
AcDbAlignedDimension
 13
719.2967654082249
 23
125.1444732498522
 33
0.0
 14
560.2967654082247
 24
125.1444732498523
 34
0.0
100
AcDbRotatedDimension
  0
DIMENSION
  5
114E
330
114A
100
AcDbEntity
  8
0
100
AcDbDimension
  2
*D21
 10
549.2967654082248
 20
235.2974977878239
 30
0.0
 11
639.7967654082249
 21
254.0474977878239
 31
0.0
 12
-574.7139540649804
 22
-319.3818934618875
 32
0.0
 71
     5
 42
181.0
  3
ISO-25
100
AcDbAlignedDimension
 13
730.2967654082249
 23
133.1444732498521
 33
0.0
 14
549.2967654082248
 24
133.1444732498522
 34
0.0
100
AcDbRotatedDimension
  0
LINE
  5
114F
330
114A
100
AcDbEntity
  8
Cen
100
AcDbLine
 10
639.7967654082249
 20
216.4500652050874
 30
0.0
 11
639.7967654082249
 21
100.8899313047277
 31
0.0
  0
LEADER
  5
1150
330
114A
100
AcDbEntity
  8
Cen
100
AcDbLeader
  3
ISO-25
 40
25.0
 41
16.66666666666666
 76
     2
 10
1020.377089281679
 20
166.0840166963257
 30
0.0
 10
971.2621245571453
 20
201.9560979923335
 30
0.0
213
0.0
223
12.5
233
0.0
1001
ACAD
1000
DSTYLE
1002
{
1070
   147
1040
6.25
1070
    77
1070
     0
1070
   279
1070
     1
1002
}
  0
TEXT
  5
1151
330
114A
100
AcDbEntity
  8
0
100
AcDbText
 10
900.0699816006918
 20
198.0041027730567
 30
0.0
 40
25.0
  1
30R
100
AcDbText
  0
HATCH
  5
1152
330
114A
100
AcDbEntity
  8
0
 62
     0
100
AcDbHatch
 10
0.0
 20
0.0
 30
0.0
210
0.0
220
0.0
230
1.0
  2
SOLID
 70
     1
 71
     0
 91
        1
 92
        7
 72
     1
 73
     1
 93
        2
 10
114.1209216936213
 20
125.128550540476
 42
1.0
 10
108.7485368115367
 20
125.128550540476
 42
1.0
 97
        0
 75
     0
 76
     1
 47
0.4154898185022131
 98
        1
 10
112.5677024408614
 20
124.827402329802
  0
LINE
  5
1153
330
114A
100
AcDbEntity
  8
実形
100
AcDbLine
 10
730.2967654082249
 20
133.1444732498522
 30
0.0
 11
1011.930622343767
 21
153.2275525200944
 31
0.0
  0
DIMENSION
  5
1154
330
114A
100
AcDbEntity
  8
実形
100
AcDbDimension
  2
*D22
 10
750.2967654082249
 20
235.1951882832086
 30
0.0
 11
537.735818978157
 21
235.888615589523
 31
0.0
 12
-574.7139540649804
 22
-319.3818934618875
 32
0.0
 70
   128
  1
20
 71
     5
 42
221.0
  3
ISO-25
100
AcDbAlignedDimension
 13
529.2967654082249
 23
132.3338509168238
 33
0.0
 14
750.2967654082249
 24
132.9885334344849
 34
0.0
100
AcDbRotatedDimension
1001
ACAD
1000
DSTYLE
1002
{
1070
   279
1070
     1
1002
}
  0
LEADER
  5
1155
330
114A
100
AcDbEntity
  8
0
 62
     0
100
AcDbLeader
  3
ISO-25
 40
25.0
 41
16.66666666666666
 76
     2
 10
354.8575310692831
 20
151.4863220469224
 30
0.0
 10
412.102676790133
 20
199.5342687323373
 30
0.0
213
0.0
223
-12.5
233
0.0
1001
ACAD
1000
DSTYLE
1002
{
1070
   147
1040
6.25
1070
    77
1070
     0
1070
    73
1070
     1
1070
    74
1070
     1
1070
   279
1070
     1
1070
   342
1005
DA
1002
}
  0
TEXT
  5
1156
330
114A
100
AcDbEntity
  8
0
 62
     0
100
AcDbText
 10
363.8018574414127
 20
206.6782077259567
 30
0.0
 40
25.0
  1
4500R
 11
363.8018574414127
 21
203.3448743926233
 31
0.0
100
AcDbText
 73
     1
  0
TEXT
  5
1157
330
114A
100
AcDbEntity
  8
実形
 62
     0
100
AcDbText
 10
147.3876906732193
 20
95.47318649623411
 30
0.0
 40
25.0
  1
7
 50
90.0
100
AcDbText
  0
DIMENSION
  5
1158
330
114A
100
AcDbEntity
  8
実形
 62
     0
100
AcDbDimension
  2
*D23
 10
31.2499996905417
 20
125.1444732498523
 30
0.0
 11
12.49999969054158
 21
224.1444732498525
 31
0.0
 12
-574.7139540649804
 22
-319.3818934618875
 32
0.0
  1
197
 71
     5
 42
198.0
  3
ISO-25
100
AcDbAlignedDimension
 13
222.7967654082249
 23
323.1444732498522
 33
0.0
 14
223.1757468592213
 24
125.1444732498522
 34
0.0
 50
90.0
100
AcDbRotatedDimension
1001
ACAD
1000
DSTYLE
1002
{
1070
   279
1070
     1
1002
}
  0
DIMENSION
  5
1159
330
114A
100
AcDbEntity
  8
実形
 62
     0
100
AcDbDimension
  2
*D24
 10
109.597378963289
 20
308.1444732498523
 30
0.0
 11
105.8343561073461
 21
347.4931117578781
 31
0.0
 12
-574.7139540649804
 22
-319.3818934618875
 32
0.0
 70
   128
 71
     5
 42
15.0
  3
ISO-25
100
AcDbAlignedDimension
 13
222.9227008072112
 23
323.1444732498522
 33
0.0
 14
222.9227008072112
 24
308.1444732498523
 34
0.0
 50
90.0
100
AcDbRotatedDimension
1001
ACAD
1000
DSTYLE
1002
{
1070
   279
1070
     1
1002
}
  0
LINE
  5
115A
330
114A
100
AcDbEntity
  8
実形
 62
     0
100
AcDbLine
 10
157.5844011204599
 20
132.1444732498523
 30
0.0
 11
112.8116886401849
 21
132.1444732498524
 31
0.0
  0
DIMENSION
  5
115B
330
114A
100
AcDbEntity
  8
実形
 62
     0
100
AcDbDimension
  2
*D25
 10
111.5162330030371
 20
132.1444732498523
 30
0.0
 11
135.718389530014
 21
182.6166284999026
 31
0.0
 12
-574.7139540649804
 22
-319.3818934618875
 32
0.0
 70
   128
  1
20
 71
     5
 42
23.71178933795812
  3
ISO-25
100
AcDbAlignedDimension
 13
221.8303516538026
 23
155.8562625878105
 33
0.0
 14
181.0102754811387
 24
132.1444732498523
 34
0.0
 50
90.0
100
AcDbRotatedDimension
1001
ACAD
1000
DSTYLE
1002
{
1070
   279
1070
     2
1002
}
  0
ENDBLK
  5
115F
330
114A
100
AcDbEntity
  8
0
100
AcDbBlockEnd
  0
BLOCK
  5
1161
330
1160
100
AcDbEntity
  8
0
100
AcDbBlockBegin
  2
*D27
 70
     1
 10
0.0
 20
0.0
 30
0.0
  3
*D27
  1

  0
LINE
  5
1162
330
1160
100
AcDbEntity
  8
0
 62
     0
370
    15
100
AcDbLine
 10
1294.010719473205
 20
379.5263667117398
 30
0.0
 11
1294.010719473205
 21
323.1318920137246
 31
0.0
  0
LINE
  5
1163
330
1160
100
AcDbEntity
  8
0
 62
     0
370
    15
100
AcDbLine
 10
1135.010719473205
 20
379.5263667117398
 30
0.0
 11
1135.010719473205
 21
323.1318920137246
 31
0.0
  0
LINE
  5
1164
330
1160
100
AcDbEntity
  8
0
 62
     0
370
    15
100
AcDbLine
 10
1294.010719473205
 20
323.1318920137246
 30
0.0
 11
1135.010719473205
 21
323.1318920137246
 31
0.0
  0
INSERT
  5
1165
330
1160
100
AcDbEntity
  8
0
 62
     0
370
    15
100
AcDbBlockReference
  2
_DotSmall
 10
1294.010719473205
 20
323.1318920137246
 30
0.0
 41
30.0
 42
30.0
 43
30.0
  0
INSERT
  5
1166
330
1160
100
AcDbEntity
  8
0
 62
     0
370
    15
100
AcDbBlockReference
  2
_DotSmall
 10
1135.010719473205
 20
323.1318920137246
 30
0.0
 41
30.0
 42
30.0
 43
30.0
 50
180.0
  0
MTEXT
  5
1167
330
1160
100
AcDbEntity
  8
0
 62
     0
100
AcDbMText
 10
1214.510719473205
 20
341.8818920137246
 30
0.0
 40
25.0
 41
0.0
 71
     5
 72
     1
  1
159
 73
     1
 44
1.0
1001
ACAD
1000
MTEXTBEGIN
1070
    73
1070
     1
1070
    44
1040
1.0
1070
    74
1070
     0
1000
MTEXTEND
  0
POINT
  5
1168
330
1160
100
AcDbEntity
  8
Defpoints
 62
     0
100
AcDbPoint
 10
1294.010719473205
 20
444.5263667117397
 30
0.0
  0
POINT
  5
1169
330
1160
100
AcDbEntity
  8
Defpoints
 62
     0
100
AcDbPoint
 10
1135.010719473205
 20
444.5263667117398
 30
0.0
  0
POINT
  5
116A
330
1160
100
AcDbEntity
  8
Defpoints
 62
     0
100
AcDbPoint
 10
1135.010719473205
 20
323.1318920137246
 30
0.0
  0
ENDBLK
  5
116B
330
1160
100
AcDbEntity
  8
0
100
AcDbBlockEnd
  0
BLOCK
  5
116D
330
116C
100
AcDbEntity
  8
0
100
AcDbBlockBegin
  2
*D28
 70
     1
 10
0.0
 20
0.0
 30
0.0
  3
*D28
  1

  0
LINE
  5
116E
330
116C
100
AcDbEntity
  8
0
 62
     0
370
    15
100
AcDbLine
 10
1305.010719473205
 20
517.5263667117397
 30
0.0
 11
1305.010719473205
 21
554.6793912497114
 31
0.0
  0
LINE
  5
116F
330
116C
100
AcDbEntity
  8
0
 62
     0
370
    15
100
AcDbLine
 10
1124.010719473205
 20
517.5263667117397
 30
0.0
 11
1124.010719473205
 21
554.6793912497114
 31
0.0
  0
LINE
  5
1170
330
116C
100
AcDbEntity
  8
0
 62
     0
370
    15
100
AcDbLine
 10
1305.010719473205
 20
554.6793912497114
 30
0.0
 11
1124.010719473205
 21
554.6793912497114
 31
0.0
  0
INSERT
  5
1171
330
116C
100
AcDbEntity
  8
0
 62
     0
370
    15
100
AcDbBlockReference
  2
_DotSmall
 10
1305.010719473205
 20
554.6793912497114
 30
0.0
 41
30.0
 42
30.0
 43
30.0
  0
INSERT
  5
1172
330
116C
100
AcDbEntity
  8
0
 62
     0
370
    15
100
AcDbBlockReference
  2
_DotSmall
 10
1124.010719473205
 20
554.6793912497114
 30
0.0
 41
30.0
 42
30.0
 43
30.0
 50
180.0
  0
MTEXT
  5
1173
330
116C
100
AcDbEntity
  8
0
 62
     0
100
AcDbMText
 10
1214.510719473205
 20
573.4293912497114
 30
0.0
 40
25.0
 41
0.0
 71
     5
 72
     1
  1
181
 73
     1
 44
1.0
1001
ACAD
1000
MTEXTBEGIN
1070
    73
1070
     1
1070
    44
1040
1.0
1070
    74
1070
     0
1000
MTEXTEND
  0
POINT
  5
1174
330
116C
100
AcDbEntity
  8
Defpoints
 62
     0
100
AcDbPoint
 10
1305.010719473205
 20
452.5263667117396
 30
0.0
  0
POINT
  5
1175
330
116C
100
AcDbEntity
  8
Defpoints
 62
     0
100
AcDbPoint
 10
1124.010719473205
 20
452.5263667117398
 30
0.0
  0
POINT
  5
1176
330
116C
100
AcDbEntity
  8
Defpoints
 62
     0
100
AcDbPoint
 10
1124.010719473205
 20
554.6793912497114
 30
0.0
  0
ENDBLK
  5
1177
330
116C
100
AcDbEntity
  8
0
100
AcDbBlockEnd
  0
BLOCK
  5
1179
330
1178
100
AcDbEntity
  8
0
100
AcDbBlockBegin
  2
*D29
 70
     1
 10
0.0
 20
0.0
 30
0.0
  3
*D29
  1

  0
LINE
  5
117A
330
1178
100
AcDbEntity
  8
実形
 62
     0
370
    15
100
AcDbLine
 10
1104.010719473205
 20
516.7157443787114
 30
0.0
 11
1104.010719473205
 21
554.5770817450962
 31
0.0
  0
LINE
  5
117B
330
1178
100
AcDbEntity
  8
実形
 62
     0
370
    15
100
AcDbLine
 10
1325.010719473205
 20
517.3704268963724
 30
0.0
 11
1325.010719473205
 21
554.5770817450962
 31
0.0
  0
LINE
  5
117C
330
1178
100
AcDbEntity
  8
実形
 62
     0
370
    15
100
AcDbLine
 10
1104.010719473205
 20
554.5770817450962
 30
0.0
 11
1325.010719473205
 21
554.5770817450962
 31
0.0
  0
MTEXT
  5
117D
330
1178
100
AcDbEntity
  8
実形
 62
     0
100
AcDbMText
 10
1112.449773043137
 20
574.0205090514105
 30
0.0
 40
25.0
 41
0.0
 71
     5
 72
     1
  1
20
 73
     1
 44
1.0
1001
ACAD
1000
MTEXTBEGIN
1070
    73
1070
     1
1070
    44
1040
1.0
1070
    74
1070
     0
1000
MTEXTEND
  0
INSERT
  5
117E
330
1178
100
AcDbEntity
  8
実形
 62
     0
370
    15
100
AcDbBlockReference
  2
_DotSmall
 10
1104.010719473205
 20
554.5770817450962
 30
0.0
 41
30.0
 42
30.0
 43
30.0
 50
180.0
  0
INSERT
  5
117F
330
1178
100
AcDbEntity
  8
実形
 62
     0
370
    15
100
AcDbBlockReference
  2
_DotSmall
 10
1325.010719473205
 20
554.5770817450962
 30
0.0
 41
30.0
 42
30.0
 43
30.0
  0
POINT
  5
1180
330
1178
100
AcDbEntity
  8
Defpoints
 62
     0
100
AcDbPoint
 10
1104.010719473205
 20
451.7157443787113
 30
0.0
  0
POINT
  5
1181
330
1178
100
AcDbEntity
  8
Defpoints
 62
     0
100
AcDbPoint
 10
1325.010719473205
 20
452.3704268963724
 30
0.0
  0
POINT
  5
1182
330
1178
100
AcDbEntity
  8
Defpoints
 62
     0
100
AcDbPoint
 10
1325.010719473205
 20
554.5770817450962
 30
0.0
  0
ENDBLK
  5
1183
330
1178
100
AcDbEntity
  8
0
100
AcDbBlockEnd
  0
BLOCK
  5
1185
330
1184
100
AcDbEntity
  8
0
 62
     1
100
AcDbBlockBegin
  2
*D30
 70
     1
 10
0.0
 20
0.0
 30
0.0
  3
*D30
  1

  0
LINE
  5
1186
330
1184
100
AcDbEntity
  8
実形
 62
     0
370
    15
100
AcDbLine
 10
732.5107194732054
 20
642.5263667117398
 30
0.0
 11
605.9639537555222
 21
642.5263667117398
 31
0.0
  0
LINE
  5
1187
330
1184
100
AcDbEntity
  8
実形
 62
     0
370
    15
100
AcDbLine
 10
732.8897009242019
 20
444.5263667117398
 30
0.0
 11
605.9639537555222
 21
444.5263667117398
 31
0.0
  0
LINE
  5
1188
330
1184
100
AcDbEntity
  8
実形
 62
     0
370
    15
100
AcDbLine
 10
605.9639537555222
 20
642.5263667117398
 30
0.0
 11
605.9639537555222
 21
444.5263667117398
 31
0.0
  0
INSERT
  5
1189
330
1184
100
AcDbEntity
  8
実形
 62
     0
370
    15
100
AcDbBlockReference
  2
_DotSmall
 10
605.9639537555222
 20
642.5263667117398
 30
0.0
 41
30.0
 42
30.0
 43
30.0
 50
90.0
  0
INSERT
  5
118A
330
1184
100
AcDbEntity
  8
実形
 62
     0
370
    15
100
AcDbBlockReference
  2
_DotSmall
 10
605.9639537555222
 20
444.5263667117398
 30
0.0
 41
30.0
 42
30.0
 43
30.0
 50
270.0
  0
MTEXT
  5
118B
330
1184
100
AcDbEntity
  8
実形
 62
     0
100
AcDbMText
 10
587.213953755522
 20
543.52636671174
 30
0.0
 40
25.0
 41
0.0
 71
     5
 72
     1
  1
197
 11
0.0000000000000001
 21
1.0
 31
0.0
 73
     1
 44
1.0
1001
ACAD
1000
MTEXTBEGIN
1070
    73
1070
     1
1070
    44
1040
1.0
1070
    74
1070
     0
1000
MTEXTEND
  0
POINT
  5
118C
330
1184
100
AcDbEntity
  8
Defpoints
 62
     0
100
AcDbPoint
 10
797.5107194732054
 20
642.5263667117397
 30
0.0
  0
POINT
  5
118D
330
1184
100
AcDbEntity
  8
Defpoints
 62
     0
100
AcDbPoint
 10
797.8897009242018
 20
444.5263667117398
 30
0.0
  0
POINT
  5
118E
330
1184
100
AcDbEntity
  8
Defpoints
 62
     0
100
AcDbPoint
 10
605.9639537555222
 20
444.5263667117398
 30
0.0
  0
ENDBLK
  5
118F
330
1184
100
AcDbEntity
  8
0
 62
     1
100
AcDbBlockEnd
  0
BLOCK
  5
1191
330
1190
100
AcDbEntity
  8
0
 62
     1
100
AcDbBlockBegin
  2
*D31
 70
     1
 10
0.0
 20
0.0
 30
0.0
  3
*D31
  1

  0
LINE
  5
1192
330
1190
100
AcDbEntity
  8
実形
 62
     0
370
    15
100
AcDbLine
 10
732.6366548721916
 20
642.5263667117398
 30
0.0
 11
684.3113330282695
 21
642.5263667117398
 31
0.0
  0
LINE
  5
1193
330
1190
100
AcDbEntity
  8
実形
 62
     0
370
    15
100
AcDbLine
 10
732.6366548721916
 20
627.5263667117399
 30
0.0
 11
684.3113330282695
 21
627.5263667117399
 31
0.0
  0
LINE
  5
1194
330
1190
100
AcDbEntity
  8
実形
 62
     0
370
    15
100
AcDbLine
 10
684.3113330282695
 20
642.5263667117398
 30
0.0
 11
684.3113330282695
 21
627.5263667117399
 31
0.0
  0
MTEXT
  5
1195
330
1190
100
AcDbEntity
  8
実形
 62
     0
100
AcDbMText
 10
661.7983101723266
 20
666.8750052197656
 30
0.0
 40
25.0
 41
0.0
 71
     5
 72
     1
  1
15
 11
0.0000000000000001
 21
1.0
 31
0.0
 73
     1
 44
1.0
1001
ACAD
1000
MTEXTBEGIN
1070
    73
1070
     1
1070
    44
1040
1.0
1070
    74
1070
     0
1000
MTEXTEND
  0
INSERT
  5
1196
330
1190
100
AcDbEntity
  8
実形
 62
     0
370
    15
100
AcDbBlockReference
  2
_DotSmall
 10
684.3113330282695
 20
642.5263667117398
 30
0.0
 41
30.0
 42
30.0
 43
30.0
 50
90.0
  0
INSERT
  5
1197
330
1190
100
AcDbEntity
  8
実形
 62
     0
370
    15
100
AcDbBlockReference
  2
_DotSmall
 10
684.3113330282695
 20
627.5263667117399
 30
0.0
 41
30.0
 42
30.0
 43
30.0
 50
270.0
  0
POINT
  5
1198
330
1190
100
AcDbEntity
  8
Defpoints
 62
     0
100
AcDbPoint
 10
797.6366548721917
 20
642.5263667117397
 30
0.0
  0
POINT
  5
1199
330
1190
100
AcDbEntity
  8
Defpoints
 62
     0
100
AcDbPoint
 10
797.6366548721917
 20
627.5263667117398
 30
0.0
  0
POINT
  5
119A
330
1190
100
AcDbEntity
  8
Defpoints
 62
     0
100
AcDbPoint
 10
684.3113330282695
 20
627.5263667117399
 30
0.0
  0
ENDBLK
  5
119B
330
1190
100
AcDbEntity
  8
0
 62
     1
100
AcDbBlockEnd
  0
BLOCK
  5
119D
330
119C
100
AcDbEntity
  8
0
 62
     1
100
AcDbBlockBegin
  2
*D32
 70
     1
 10
0.0
 20
0.0
 30
0.0
  3
*D32
  1

  0
LINE
  5
119E
330
119C
100
AcDbEntity
  8
実形
 62
     0
370
    15
100
AcDbLine
 10
731.5443057187831
 20
475.238156049698
 30
0.0
 11
686.2301870680176
 21
475.238156049698
 31
0.0
  0
LINE
  5
119F
330
119C
100
AcDbEntity
  8
実形
 62
     0
370
    15
100
AcDbLine
 10
690.7242295461192
 20
451.5263667117399
 30
0.0
 11
686.2301870680176
 21
451.5263667117399
 31
0.0
  0
LINE
  5
11A0
330
119C
100
AcDbEntity
  8
実形
 62
     0
370
    15
100
AcDbLine
 10
686.2301870680176
 20
475.238156049698
 30
0.0
 11
686.2301870680176
 21
451.5263667117399
 31
0.0
  0
MTEXT
  5
11A1
330
119C
100
AcDbEntity
  8
実形
 62
     0
100
AcDbMText
 10
710.4323435949945
 20
501.9985219617901
 30
0.0
 40
25.0
 41
0.0
 71
     5
 72
     1
  1
20
 11
0.0000000000000001
 21
1.0
 31
0.0
 73
     1
 44
1.0
1001
ACAD
1000
MTEXTBEGIN
1070
    73
1070
     1
1070
    44
1040
1.0
1070
    74
1070
     0
1000
MTEXTEND
  0
INSERT
  5
11A2
330
119C
100
AcDbEntity
  8
実形
 62
     0
370
    15
100
AcDbBlockReference
  2
_DotSmall
 10
686.2301870680176
 20
475.238156049698
 30
0.0
 41
30.0
 42
30.0
 43
30.0
 50
90.0
  0
INSERT
  5
11A3
330
119C
100
AcDbEntity
  8
実形
 62
     0
370
    15
100
AcDbBlockReference
  2
_DotSmall
 10
686.2301870680176
 20
451.5263667117399
 30
0.0
 41
30.0
 42
30.0
 43
30.0
 50
270.0
  0
POINT
  5
11A4
330
119C
100
AcDbEntity
  8
Defpoints
 62
     0
100
AcDbPoint
 10
796.544305718783
 20
475.238156049698
 30
0.0
  0
POINT
  5
11A5
330
119C
100
AcDbEntity
  8
Defpoints
 62
     0
100
AcDbPoint
 10
755.7242295461191
 20
451.5263667117399
 30
0.0
  0
POINT
  5
11A6
330
119C
100
AcDbEntity
  8
Defpoints
 62
     0
100
AcDbPoint
 10
686.2301870680176
 20
451.5263667117399
 30
0.0
  0
ENDBLK
  5
11A7
330
119C
100
AcDbEntity
  8
0
 62
     1
100
AcDbBlockEnd
  0
BLOCK
  5
11BF
330
11A8
100
AcDbEntity
  8
0
100
AcDbBlockBegin
  2
A$C67BC4F03
 70
     0
 10
0.0
 20
0.0
 30
0.0
  3
A$C67BC4F03
  1

  0
LINE
  5
11A9
330
11A8
100
AcDbEntity
  8
0
100
AcDbLine
 10
239.7967654082251
 20
323.1444732498522
 30
0.0
 11
239.7967654082251
 21
183.1515672002578
 31
0.0
  0
LINE
  5
11AA
330
11A8
100
AcDbEntity
  8
0
100
AcDbLine
 10
560.2967654082247
 20
125.1444732498523
 30
0.0
 11
719.2967654082249
 21
125.1444732498521
 31
0.0
  0
LINE
  5
11AB
330
11A8
100
AcDbEntity
  8
0
100
AcDbLine
 10
549.2967654082248
 20
133.1444732498522
 30
0.0
 11
730.2967654082249
 21
133.1444732498521
 31
0.0
  0
DIMENSION
  5
11AC
330
11A8
100
AcDbEntity
  8
0
100
AcDbDimension
  2
*D27
 10
560.2967654082247
 20
3.749998551837052
 30
0.0
 11
639.7967654082249
 21
22.49999855183705
 31
0.0
 12
-574.7139540649804
 22
-319.3818934618875
 32
0.0
 71
     5
 42
159.0000000000002
  3
ISO-25
100
AcDbAlignedDimension
 13
719.2967654082249
 23
125.1444732498522
 33
0.0
 14
560.2967654082247
 24
125.1444732498523
 34
0.0
100
AcDbRotatedDimension
  0
DIMENSION
  5
11AD
330
11A8
100
AcDbEntity
  8
0
100
AcDbDimension
  2
*D28
 10
549.2967654082248
 20
235.2974977878239
 30
0.0
 11
639.7967654082249
 21
254.0474977878239
 31
0.0
 12
-574.7139540649804
 22
-319.3818934618875
 32
0.0
 71
     5
 42
181.0
  3
ISO-25
100
AcDbAlignedDimension
 13
730.2967654082249
 23
133.1444732498521
 33
0.0
 14
549.2967654082248
 24
133.1444732498522
 34
0.0
100
AcDbRotatedDimension
  0
LINE
  5
11AE
330
11A8
100
AcDbEntity
  8
Cen
100
AcDbLine
 10
639.7967654082249
 20
216.4500652050874
 30
0.0
 11
639.7967654082249
 21
100.8899313047277
 31
0.0
  0
LEADER
  5
11AF
330
11A8
100
AcDbEntity
  8
Cen
100
AcDbLeader
  3
ISO-25
 40
25.0
 41
16.66666666666666
 76
     2
 10
1020.377089281679
 20
166.0840166963257
 30
0.0
 10
971.2621245571453
 20
201.9560979923335
 30
0.0
213
0.0
223
12.5
233
0.0
1001
ACAD
1000
DSTYLE
1002
{
1070
   147
1040
6.25
1070
    77
1070
     0
1070
   279
1070
     1
1002
}
  0
TEXT
  5
11B0
330
11A8
100
AcDbEntity
  8
0
100
AcDbText
 10
900.0699816006918
 20
198.0041027730567
 30
0.0
 40
25.0
  1
30R
100
AcDbText
  0
HATCH
  5
11B1
330
11A8
100
AcDbEntity
  8
0
 62
     0
100
AcDbHatch
 10
0.0
 20
0.0
 30
0.0
210
0.0
220
0.0
230
1.0
  2
SOLID
 70
     1
 71
     0
 91
        1
 92
        7
 72
     1
 73
     1
 93
        2
 10
114.1209216936213
 20
125.128550540476
 42
1.0
 10
108.7485368115367
 20
125.128550540476
 42
1.0
 97
        0
 75
     0
 76
     1
 47
0.4154898185022131
 98
        1
 10
112.5677024408614
 20
124.827402329802
  0
LINE
  5
11B2
330
11A8
100
AcDbEntity
  8
0
100
AcDbLine
 10
1039.796765408224
 20
323.1444732498522
 30
0.0
 11
1039.796765408224
 21
183.1515672002578
 31
0.0
  0
LINE
  5
11B3
330
11A8
100
AcDbEntity
  8
実形
100
AcDbLine
 10
730.2967654082249
 20
133.1444732498522
 30
0.0
 11
1011.930622343767
 21
153.2275525200944
 31
0.0
  0
DIMENSION
  5
11B4
330
11A8
100
AcDbEntity
  8
実形
100
AcDbDimension
  2
*D29
 10
750.2967654082249
 20
235.1951882832086
 30
0.0
 11
537.735818978157
 21
235.888615589523
 31
0.0
 12
-574.7139540649804
 22
-319.3818934618875
 32
0.0
 70
   128
  1
20
 71
     5
 42
221.0
  3
ISO-25
100
AcDbAlignedDimension
 13
529.2967654082249
 23
132.3338509168238
 33
0.0
 14
750.2967654082249
 24
132.9885334344849
 34
0.0
100
AcDbRotatedDimension
1001
ACAD
1000
DSTYLE
1002
{
1070
   279
1070
     1
1002
}
  0
LEADER
  5
11B5
330
11A8
100
AcDbEntity
  8
0
 62
     0
100
AcDbLeader
  3
ISO-25
 40
25.0
 41
16.66666666666666
 76
     2
 10
354.8575310692831
 20
151.4863220469224
 30
0.0
 10
412.102676790133
 20
199.5342687323373
 30
0.0
213
0.0
223
-12.5
233
0.0
1001
ACAD
1000
DSTYLE
1002
{
1070
   147
1040
6.25
1070
    77
1070
     0
1070
    73
1070
     1
1070
    74
1070
     1
1070
   279
1070
     1
1070
   342
1005
DA
1002
}
  0
TEXT
  5
11B6
330
11A8
100
AcDbEntity
  8
0
 62
     0
100
AcDbText
 10
363.8018574414127
 20
206.6782077259567
 30
0.0
 40
25.0
  1
4500R
 11
363.8018574414127
 21
203.3448743926233
 31
0.0
100
AcDbText
 73
     1
  0
TEXT
  5
11B7
330
11A8
100
AcDbEntity
  8
実形
 62
     0
100
AcDbText
 10
147.3876906732193
 20
95.47318649623411
 30
0.0
 40
25.0
  1
7
 50
90.0
100
AcDbText
  0
DIMENSION
  5
11B8
330
11A8
100
AcDbEntity
  8
実形
 62
     0
100
AcDbDimension
  2
*D30
 10
31.2499996905417
 20
125.1444732498523
 30
0.0
 11
12.49999969054158
 21
224.1444732498525
 31
0.0
 12
-574.7139540649804
 22
-319.3818934618875
 32
0.0
  1
197
 71
     5
 42
198.0
  3
ISO-25
100
AcDbAlignedDimension
 13
222.7967654082249
 23
323.1444732498522
 33
0.0
 14
223.1757468592213
 24
125.1444732498522
 34
0.0
 50
90.0
100
AcDbRotatedDimension
1001
ACAD
1000
DSTYLE
1002
{
1070
   279
1070
     1
1002
}
  0
DIMENSION
  5
11B9
330
11A8
100
AcDbEntity
  8
実形
 62
     0
100
AcDbDimension
  2
*D31
 10
109.597378963289
 20
308.1444732498523
 30
0.0
 11
105.8343561073461
 21
347.4931117578781
 31
0.0
 12
-574.7139540649804
 22
-319.3818934618875
 32
0.0
 70
   128
 71
     5
 42
15.0
  3
ISO-25
100
AcDbAlignedDimension
 13
222.9227008072112
 23
323.1444732498522
 33
0.0
 14
222.9227008072112
 24
308.1444732498523
 34
0.0
 50
90.0
100
AcDbRotatedDimension
1001
ACAD
1000
DSTYLE
1002
{
1070
   279
1070
     1
1002
}
  0
LINE
  5
11BA
330
11A8
100
AcDbEntity
  8
実形
 62
     0
100
AcDbLine
 10
157.5844011204599
 20
132.1444732498523
 30
0.0
 11
112.8116886401849
 21
132.1444732498524
 31
0.0
  0
LINE
  5
11BB
330
11A8
100
AcDbEntity
  8
実形
100
AcDbLine
 10
549.2967654082248
 20
133.1444732498522
 30
0.0
 11
267.6629084726823
 21
153.2275525200944
 31
0.0
  0
DIMENSION
  5
11BC
330
11A8
100
AcDbEntity
  8
実形
 62
     0
100
AcDbDimension
  2
*D32
 10
111.5162330030371
 20
132.1444732498523
 30
0.0
 11
135.718389530014
 21
182.6166284999026
 31
0.0
 12
-574.7139540649804
 22
-319.3818934618875
 32
0.0
 70
   128
  1
20
 71
     5
 42
23.71178933795812
  3
ISO-25
100
AcDbAlignedDimension
 13
221.8303516538026
 23
155.8562625878105
 33
0.0
 14
181.0102754811387
 24
132.1444732498523
 34
0.0
 50
90.0
100
AcDbRotatedDimension
1001
ACAD
1000
DSTYLE
1002
{
1070
   279
1070
     2
1002
}
  0
ENDBLK
  5
11C0
330
11A8
100
AcDbEntity
  8
0
100
AcDbBlockEnd
  0
BLOCK
  5
11C2
330
11C1
100
AcDbEntity
  8
0
100
AcDbBlockBegin
  2
*D34
 70
     1
 10
0.0
 20
0.0
 30
0.0
  3
*D34
  1

  0
LINE
  5
11C3
330
11C1
100
AcDbEntity
  8
0
 62
     0
370
    15
100
AcDbLine
 10
1294.010719473205
 20
379.5263667117398
 30
0.0
 11
1294.010719473205
 21
323.1318920137246
 31
0.0
  0
LINE
  5
11C4
330
11C1
100
AcDbEntity
  8
0
 62
     0
370
    15
100
AcDbLine
 10
1135.010719473205
 20
379.5263667117398
 30
0.0
 11
1135.010719473205
 21
323.1318920137246
 31
0.0
  0
LINE
  5
11C5
330
11C1
100
AcDbEntity
  8
0
 62
     0
370
    15
100
AcDbLine
 10
1294.010719473205
 20
323.1318920137246
 30
0.0
 11
1135.010719473205
 21
323.1318920137246
 31
0.0
  0
INSERT
  5
11C6
330
11C1
100
AcDbEntity
  8
0
 62
     0
370
    15
100
AcDbBlockReference
  2
_DotSmall
 10
1294.010719473205
 20
323.1318920137246
 30
0.0
 41
30.0
 42
30.0
 43
30.0
  0
INSERT
  5
11C7
330
11C1
100
AcDbEntity
  8
0
 62
     0
370
    15
100
AcDbBlockReference
  2
_DotSmall
 10
1135.010719473205
 20
323.1318920137246
 30
0.0
 41
30.0
 42
30.0
 43
30.0
 50
180.0
  0
MTEXT
  5
11C8
330
11C1
100
AcDbEntity
  8
0
 62
     0
100
AcDbMText
 10
1214.510719473205
 20
341.8818920137246
 30
0.0
 40
25.0
 41
0.0
 71
     5
 72
     1
  1
159
 73
     1
 44
1.0
1001
ACAD
1000
MTEXTBEGIN
1070
    73
1070
     1
1070
    44
1040
1.0
1070
    74
1070
     0
1000
MTEXTEND
  0
POINT
  5
11C9
330
11C1
100
AcDbEntity
  8
Defpoints
 62
     0
100
AcDbPoint
 10
1294.010719473205
 20
444.5263667117397
 30
0.0
  0
POINT
  5
11CA
330
11C1
100
AcDbEntity
  8
Defpoints
 62
     0
100
AcDbPoint
 10
1135.010719473205
 20
444.5263667117398
 30
0.0
  0
POINT
  5
11CB
330
11C1
100
AcDbEntity
  8
Defpoints
 62
     0
100
AcDbPoint
 10
1135.010719473205
 20
323.1318920137246
 30
0.0
  0
ENDBLK
  5
11CC
330
11C1
100
AcDbEntity
  8
0
100
AcDbBlockEnd
  0
BLOCK
  5
11CE
330
11CD
100
AcDbEntity
  8
0
100
AcDbBlockBegin
  2
*D35
 70
     1
 10
0.0
 20
0.0
 30
0.0
  3
*D35
  1

  0
LINE
  5
11CF
330
11CD
100
AcDbEntity
  8
0
 62
     0
370
    15
100
AcDbLine
 10
1305.010719473205
 20
517.5263667117397
 30
0.0
 11
1305.010719473205
 21
554.6793912497114
 31
0.0
  0
LINE
  5
11D0
330
11CD
100
AcDbEntity
  8
0
 62
     0
370
    15
100
AcDbLine
 10
1124.010719473205
 20
517.5263667117397
 30
0.0
 11
1124.010719473205
 21
554.6793912497114
 31
0.0
  0
LINE
  5
11D1
330
11CD
100
AcDbEntity
  8
0
 62
     0
370
    15
100
AcDbLine
 10
1305.010719473205
 20
554.6793912497114
 30
0.0
 11
1124.010719473205
 21
554.6793912497114
 31
0.0
  0
INSERT
  5
11D2
330
11CD
100
AcDbEntity
  8
0
 62
     0
370
    15
100
AcDbBlockReference
  2
_DotSmall
 10
1305.010719473205
 20
554.6793912497114
 30
0.0
 41
30.0
 42
30.0
 43
30.0
  0
INSERT
  5
11D3
330
11CD
100
AcDbEntity
  8
0
 62
     0
370
    15
100
AcDbBlockReference
  2
_DotSmall
 10
1124.010719473205
 20
554.6793912497114
 30
0.0
 41
30.0
 42
30.0
 43
30.0
 50
180.0
  0
MTEXT
  5
11D4
330
11CD
100
AcDbEntity
  8
0
 62
     0
100
AcDbMText
 10
1214.510719473205
 20
573.4293912497114
 30
0.0
 40
25.0
 41
0.0
 71
     5
 72
     1
  1
181
 73
     1
 44
1.0
1001
ACAD
1000
MTEXTBEGIN
1070
    73
1070
     1
1070
    44
1040
1.0
1070
    74
1070
     0
1000
MTEXTEND
  0
POINT
  5
11D5
330
11CD
100
AcDbEntity
  8
Defpoints
 62
     0
100
AcDbPoint
 10
1305.010719473205
 20
452.5263667117396
 30
0.0
  0
POINT
  5
11D6
330
11CD
100
AcDbEntity
  8
Defpoints
 62
     0
100
AcDbPoint
 10
1124.010719473205
 20
452.5263667117398
 30
0.0
  0
POINT
  5
11D7
330
11CD
100
AcDbEntity
  8
Defpoints
 62
     0
100
AcDbPoint
 10
1124.010719473205
 20
554.6793912497114
 30
0.0
  0
ENDBLK
  5
11D8
330
11CD
100
AcDbEntity
  8
0
100
AcDbBlockEnd
  0
BLOCK
  5
11DA
330
11D9
100
AcDbEntity
  8
0
100
AcDbBlockBegin
  2
*D36
 70
     1
 10
0.0
 20
0.0
 30
0.0
  3
*D36
  1

  0
LINE
  5
11DB
330
11D9
100
AcDbEntity
  8
実形
 62
     0
370
    15
100
AcDbLine
 10
1104.010719473205
 20
516.7157443787114
 30
0.0
 11
1104.010719473205
 21
554.5770817450962
 31
0.0
  0
LINE
  5
11DC
330
11D9
100
AcDbEntity
  8
実形
 62
     0
370
    15
100
AcDbLine
 10
1325.010719473205
 20
517.3704268963724
 30
0.0
 11
1325.010719473205
 21
554.5770817450962
 31
0.0
  0
LINE
  5
11DD
330
11D9
100
AcDbEntity
  8
実形
 62
     0
370
    15
100
AcDbLine
 10
1104.010719473205
 20
554.5770817450962
 30
0.0
 11
1325.010719473205
 21
554.5770817450962
 31
0.0
  0
MTEXT
  5
11DE
330
11D9
100
AcDbEntity
  8
実形
 62
     0
100
AcDbMText
 10
1112.449773043137
 20
574.0205090514105
 30
0.0
 40
25.0
 41
0.0
 71
     5
 72
     1
  1
20
 73
     1
 44
1.0
1001
ACAD
1000
MTEXTBEGIN
1070
    73
1070
     1
1070
    44
1040
1.0
1070
    74
1070
     0
1000
MTEXTEND
  0
INSERT
  5
11DF
330
11D9
100
AcDbEntity
  8
実形
 62
     0
370
    15
100
AcDbBlockReference
  2
_DotSmall
 10
1104.010719473205
 20
554.5770817450962
 30
0.0
 41
30.0
 42
30.0
 43
30.0
 50
180.0
  0
INSERT
  5
11E0
330
11D9
100
AcDbEntity
  8
実形
 62
     0
370
    15
100
AcDbBlockReference
  2
_DotSmall
 10
1325.010719473205
 20
554.5770817450962
 30
0.0
 41
30.0
 42
30.0
 43
30.0
  0
POINT
  5
11E1
330
11D9
100
AcDbEntity
  8
Defpoints
 62
     0
100
AcDbPoint
 10
1104.010719473205
 20
451.7157443787113
 30
0.0
  0
POINT
  5
11E2
330
11D9
100
AcDbEntity
  8
Defpoints
 62
     0
100
AcDbPoint
 10
1325.010719473205
 20
452.3704268963724
 30
0.0
  0
POINT
  5
11E3
330
11D9
100
AcDbEntity
  8
Defpoints
 62
     0
100
AcDbPoint
 10
1325.010719473205
 20
554.5770817450962
 30
0.0
  0
ENDBLK
  5
11E4
330
11D9
100
AcDbEntity
  8
0
100
AcDbBlockEnd
  0
BLOCK
  5
11E6
330
11E5
100
AcDbEntity
  8
0
 62
     1
100
AcDbBlockBegin
  2
*D37
 70
     1
 10
0.0
 20
0.0
 30
0.0
  3
*D37
  1

  0
LINE
  5
11E7
330
11E5
100
AcDbEntity
  8
実形
 62
     0
370
    15
100
AcDbLine
 10
732.5107194732054
 20
642.5263667117398
 30
0.0
 11
605.9639537555222
 21
642.5263667117398
 31
0.0
  0
LINE
  5
11E8
330
11E5
100
AcDbEntity
  8
実形
 62
     0
370
    15
100
AcDbLine
 10
732.8897009242019
 20
444.5263667117398
 30
0.0
 11
605.9639537555222
 21
444.5263667117398
 31
0.0
  0
LINE
  5
11E9
330
11E5
100
AcDbEntity
  8
実形
 62
     0
370
    15
100
AcDbLine
 10
605.9639537555222
 20
642.5263667117398
 30
0.0
 11
605.9639537555222
 21
444.5263667117398
 31
0.0
  0
INSERT
  5
11EA
330
11E5
100
AcDbEntity
  8
実形
 62
     0
370
    15
100
AcDbBlockReference
  2
_DotSmall
 10
605.9639537555222
 20
642.5263667117398
 30
0.0
 41
30.0
 42
30.0
 43
30.0
 50
90.0
  0
INSERT
  5
11EB
330
11E5
100
AcDbEntity
  8
実形
 62
     0
370
    15
100
AcDbBlockReference
  2
_DotSmall
 10
605.9639537555222
 20
444.5263667117398
 30
0.0
 41
30.0
 42
30.0
 43
30.0
 50
270.0
  0
MTEXT
  5
11EC
330
11E5
100
AcDbEntity
  8
実形
 62
     0
100
AcDbMText
 10
587.213953755522
 20
543.52636671174
 30
0.0
 40
25.0
 41
0.0
 71
     5
 72
     1
  1
197
 11
0.0000000000000001
 21
1.0
 31
0.0
 73
     1
 44
1.0
1001
ACAD
1000
MTEXTBEGIN
1070
    73
1070
     1
1070
    44
1040
1.0
1070
    74
1070
     0
1000
MTEXTEND
  0
POINT
  5
11ED
330
11E5
100
AcDbEntity
  8
Defpoints
 62
     0
100
AcDbPoint
 10
797.5107194732054
 20
642.5263667117397
 30
0.0
  0
POINT
  5
11EE
330
11E5
100
AcDbEntity
  8
Defpoints
 62
     0
100
AcDbPoint
 10
797.8897009242018
 20
444.5263667117398
 30
0.0
  0
POINT
  5
11EF
330
11E5
100
AcDbEntity
  8
Defpoints
 62
     0
100
AcDbPoint
 10
605.9639537555222
 20
444.5263667117398
 30
0.0
  0
ENDBLK
  5
11F0
330
11E5
100
AcDbEntity
  8
0
 62
     1
100
AcDbBlockEnd
  0
BLOCK
  5
11F2
330
11F1
100
AcDbEntity
  8
0
 62
     1
100
AcDbBlockBegin
  2
*D38
 70
     1
 10
0.0
 20
0.0
 30
0.0
  3
*D38
  1

  0
LINE
  5
11F3
330
11F1
100
AcDbEntity
  8
実形
 62
     0
370
    15
100
AcDbLine
 10
732.6366548721916
 20
642.5263667117398
 30
0.0
 11
684.3113330282695
 21
642.5263667117398
 31
0.0
  0
LINE
  5
11F4
330
11F1
100
AcDbEntity
  8
実形
 62
     0
370
    15
100
AcDbLine
 10
732.6366548721916
 20
627.5263667117399
 30
0.0
 11
684.3113330282695
 21
627.5263667117399
 31
0.0
  0
LINE
  5
11F5
330
11F1
100
AcDbEntity
  8
実形
 62
     0
370
    15
100
AcDbLine
 10
684.3113330282695
 20
642.5263667117398
 30
0.0
 11
684.3113330282695
 21
627.5263667117399
 31
0.0
  0
MTEXT
  5
11F6
330
11F1
100
AcDbEntity
  8
実形
 62
     0
100
AcDbMText
 10
661.7983101723266
 20
666.8750052197656
 30
0.0
 40
25.0
 41
0.0
 71
     5
 72
     1
  1
15
 11
0.0000000000000001
 21
1.0
 31
0.0
 73
     1
 44
1.0
1001
ACAD
1000
MTEXTBEGIN
1070
    73
1070
     1
1070
    44
1040
1.0
1070
    74
1070
     0
1000
MTEXTEND
  0
INSERT
  5
11F7
330
11F1
100
AcDbEntity
  8
実形
 62
     0
370
    15
100
AcDbBlockReference
  2
_DotSmall
 10
684.3113330282695
 20
642.5263667117398
 30
0.0
 41
30.0
 42
30.0
 43
30.0
 50
90.0
  0
INSERT
  5
11F8
330
11F1
100
AcDbEntity
  8
実形
 62
     0
370
    15
100
AcDbBlockReference
  2
_DotSmall
 10
684.3113330282695
 20
627.5263667117399
 30
0.0
 41
30.0
 42
30.0
 43
30.0
 50
270.0
  0
POINT
  5
11F9
330
11F1
100
AcDbEntity
  8
Defpoints
 62
     0
100
AcDbPoint
 10
797.6366548721917
 20
642.5263667117397
 30
0.0
  0
POINT
  5
11FA
330
11F1
100
AcDbEntity
  8
Defpoints
 62
     0
100
AcDbPoint
 10
797.6366548721917
 20
627.5263667117398
 30
0.0
  0
POINT
  5
11FB
330
11F1
100
AcDbEntity
  8
Defpoints
 62
     0
100
AcDbPoint
 10
684.3113330282695
 20
627.5263667117399
 30
0.0
  0
ENDBLK
  5
11FC
330
11F1
100
AcDbEntity
  8
0
 62
     1
100
AcDbBlockEnd
  0
BLOCK
  5
11FE
330
11FD
100
AcDbEntity
  8
0
 62
     1
100
AcDbBlockBegin
  2
*D39
 70
     1
 10
0.0
 20
0.0
 30
0.0
  3
*D39
  1

  0
LINE
  5
11FF
330
11FD
100
AcDbEntity
  8
実形
 62
     0
370
    15
100
AcDbLine
 10
731.5443057187831
 20
475.238156049698
 30
0.0
 11
686.2301870680176
 21
475.238156049698
 31
0.0
  0
LINE
  5
1200
330
11FD
100
AcDbEntity
  8
実形
 62
     0
370
    15
100
AcDbLine
 10
690.7242295461192
 20
451.5263667117399
 30
0.0
 11
686.2301870680176
 21
451.5263667117399
 31
0.0
  0
LINE
  5
1201
330
11FD
100
AcDbEntity
  8
実形
 62
     0
370
    15
100
AcDbLine
 10
686.2301870680176
 20
475.238156049698
 30
0.0
 11
686.2301870680176
 21
451.5263667117399
 31
0.0
  0
MTEXT
  5
1202
330
11FD
100
AcDbEntity
  8
実形
 62
     0
100
AcDbMText
 10
710.4323435949945
 20
501.9985219617901
 30
0.0
 40
25.0
 41
0.0
 71
     5
 72
     1
  1
20
 11
0.0000000000000001
 21
1.0
 31
0.0
 73
     1
 44
1.0
1001
ACAD
1000
MTEXTBEGIN
1070
    73
1070
     1
1070
    44
1040
1.0
1070
    74
1070
     0
1000
MTEXTEND
  0
INSERT
  5
1203
330
11FD
100
AcDbEntity
  8
実形
 62
     0
370
    15
100
AcDbBlockReference
  2
_DotSmall
 10
686.2301870680176
 20
475.238156049698
 30
0.0
 41
30.0
 42
30.0
 43
30.0
 50
90.0
  0
INSERT
  5
1204
330
11FD
100
AcDbEntity
  8
実形
 62
     0
370
    15
100
AcDbBlockReference
  2
_DotSmall
 10
686.2301870680176
 20
451.5263667117399
 30
0.0
 41
30.0
 42
30.0
 43
30.0
 50
270.0
  0
POINT
  5
1205
330
11FD
100
AcDbEntity
  8
Defpoints
 62
     0
100
AcDbPoint
 10
796.544305718783
 20
475.238156049698
 30
0.0
  0
POINT
  5
1206
330
11FD
100
AcDbEntity
  8
Defpoints
 62
     0
100
AcDbPoint
 10
755.7242295461191
 20
451.5263667117399
 30
0.0
  0
POINT
  5
1207
330
11FD
100
AcDbEntity
  8
Defpoints
 62
     0
100
AcDbPoint
 10
686.2301870680176
 20
451.5263667117399
 30
0.0
  0
ENDBLK
  5
1208
330
11FD
100
AcDbEntity
  8
0
 62
     1
100
AcDbBlockEnd
  0
BLOCK
  5
1222
330
1209
100
AcDbEntity
  8
0
100
AcDbBlockBegin
  2
A$C1E550F1E
 70
     0
 10
0.0
 20
0.0
 30
0.0
  3
A$C1E550F1E
  1

  0
LINE
  5
120A
330
1209
100
AcDbEntity
  8
0
100
AcDbLine
 10
-476.0916016491599
 20
552.7979826596675
 30
0.0
 11
-476.0916016491599
 21
412.8050766100732
 31
0.0
  0
ARC
  5
120B
330
1209
100
AcDbEntity
  8
実形
100
AcDbCircle
 10
-446.0916016491599
 20
412.8050766100732
 30
0.0
 40
30.0
100
AcDbArc
 50
180.0
 51
265.9211892046401
  0
LINE
  5
120C
330
1209
100
AcDbEntity
  8
0
100
AcDbLine
 10
-155.5916016491603
 20
354.7979826596677
 30
0.0
 11
3.408398350839888
 21
354.7979826596675
 31
0.0
  0
LINE
  5
120D
330
1209
100
AcDbEntity
  8
0
100
AcDbLine
 10
-166.5916016491601
 20
362.7979826596676
 30
0.0
 11
14.40839835083989
 21
362.7979826596675
 31
0.0
  0
DIMENSION
  5
120E
330
1209
100
AcDbEntity
  8
0
100
AcDbDimension
  2
*D34
 10
-155.5916016491603
 20
233.4035079616524
 30
0.0
 11
-76.09160164916011
 21
252.1535079616524
 31
0.0
 12
-1290.602321122365
 22
-89.72838405207221
 32
0.0
 71
     5
 42
159.0000000000002
  3
ISO-25
100
AcDbAlignedDimension
 13
3.408398350839888
 23
354.7979826596675
 33
0.0
 14
-155.5916016491603
 24
354.7979826596677
 34
0.0
100
AcDbRotatedDimension
  0
DIMENSION
  5
120F
330
1209
100
AcDbEntity
  8
0
100
AcDbDimension
  2
*D35
 10
-166.5916016491601
 20
464.9510071976392
 30
0.0
 11
-76.09160164916011
 21
483.7010071976392
 31
0.0
 12
-1290.602321122365
 22
-89.72838405207221
 32
0.0
 71
     5
 42
181.0
  3
ISO-25
100
AcDbAlignedDimension
 13
14.40839835083989
 23
362.7979826596675
 33
0.0
 14
-166.5916016491601
 24
362.7979826596676
 34
0.0
100
AcDbRotatedDimension
  0
LINE
  5
1210
330
1209
100
AcDbEntity
  8
Cen
100
AcDbLine
 10
-76.09160164916011
 20
446.1035746149027
 30
0.0
 11
-76.09160164916011
 21
330.5434407145431
 31
0.0
  0
LEADER
  5
1211
330
1209
100
AcDbEntity
  8
Cen
100
AcDbLeader
  3
ISO-25
 40
25.0
 41
16.66666666666666
 76
     2
 10
304.4887222242944
 20
395.7375261061411
 30
0.0
 10
255.3737574997604
 20
431.6096074021488
 30
0.0
213
0.0
223
12.5
233
0.0
1001
ACAD
1000
DSTYLE
1002
{
1070
   147
1040
6.25
1070
    77
1070
     0
1070
   279
1070
     1
1002
}
  0
TEXT
  5
1212
330
1209
100
AcDbEntity
  8
0
100
AcDbText
 10
184.1816145433067
 20
427.657612182872
 30
0.0
 40
25.0
  1
30R
100
AcDbText
  0
HATCH
  5
1213
330
1209
100
AcDbEntity
  8
0
 62
     0
100
AcDbHatch
 10
0.0
 20
0.0
 30
0.0
210
0.0
220
0.0
230
1.0
  2
SOLID
 70
     1
 71
     0
 91
        1
 92
        7
 72
     1
 73
     1
 93
        2
 10
-601.7674453637637
 20
354.7820599502913
 42
1.0
 10
-607.1398302458483
 20
354.7820599502913
 42
1.0
 97
        0
 75
     0
 76
     1
 47
0.4154898185022131
 98
        1
 10
-603.3206646165235
 20
354.4809117396173
  0
LINE
  5
1214
330
1209
100
AcDbEntity
  8
0
100
AcDbLine
 10
323.9083983508397
 20
552.7979826596675
 30
0.0
 11
323.9083983508397
 21
412.8050766100732
 31
0.0
  0
ARC
  5
1215
330
1209
100
AcDbEntity
  8
実形
100
AcDbCircle
 10
293.9083983508396
 20
412.8050766100732
 30
0.0
 40
30.0
100
AcDbArc
 50
274.0788107953599
 51
0.0
  0
LINE
  5
1216
330
1209
100
AcDbEntity
  8
実形
100
AcDbLine
 10
14.40839835083989
 20
362.7979826596676
 30
0.0
 11
296.0422552863824
 21
382.8810619299098
 31
0.0
  0
DIMENSION
  5
1217
330
1209
100
AcDbEntity
  8
実形
100
AcDbDimension
  2
*D36
 10
34.40839835083989
 20
464.8486976930239
 30
0.0
 11
-178.1525480792279
 21
465.5421249993382
 31
0.0
 12
-1290.602321122365
 22
-89.72838405207221
 32
0.0
 70
   128
  1
20
 71
     5
 42
221.0
  3
ISO-25
100
AcDbAlignedDimension
 13
-186.5916016491601
 23
361.9873603266392
 33
0.0
 14
34.40839835083989
 24
362.6420428443002
 34
0.0
100
AcDbRotatedDimension
1001
ACAD
1000
DSTYLE
1002
{
1070
   279
1070
     1
1002
}
  0
LEADER
  5
1218
330
1209
100
AcDbEntity
  8
0
 62
     0
100
AcDbLeader
  3
ISO-25
 40
25.0
 41
16.66666666666666
 76
     2
 10
-361.0308359881019
 20
381.1398314567377
 30
0.0
 10
-303.785690267252
 20
429.1877781421526
 30
0.0
213
0.0
223
-12.5
233
0.0
1001
ACAD
1000
DSTYLE
1002
{
1070
   147
1040
6.25
1070
    77
1070
     0
1070
    73
1070
     1
1070
    74
1070
     1
1070
   279
1070
     1
1070
   342
1005
DA
1002
}
  0
TEXT
  5
1219
330
1209
100
AcDbEntity
  8
0
 62
     0
100
AcDbText
 10
-352.0865096159723
 20
436.3317171357719
 30
0.0
 40
25.0
  1
4500R
 11
-352.0865096159723
 21
432.9983838024386
 31
0.0
100
AcDbText
 73
     1
  0
TEXT
  5
121A
330
1209
100
AcDbEntity
  8
実形
 62
     0
100
AcDbText
 10
-568.5006763841657
 20
325.1266959060495
 30
0.0
 40
25.0
  1
7
 50
90.0
100
AcDbText
  0
DIMENSION
  5
121B
330
1209
100
AcDbEntity
  8
実形
 62
     0
100
AcDbDimension
  2
*D37
 10
-684.6383673668433
 20
354.7979826596677
 30
0.0
 11
-703.3883673668434
 21
453.7979826596678
 31
0.0
 12
-1290.602321122365
 22
-89.72838405207221
 32
0.0
  1
197
 71
     5
 42
198.0
  3
ISO-25
100
AcDbAlignedDimension
 13
-493.09160164916
 23
552.7979826596675
 33
0.0
 14
-492.7126201981637
 24
354.7979826596676
 34
0.0
 50
90.0
100
AcDbRotatedDimension
1001
ACAD
1000
DSTYLE
1002
{
1070
   279
1070
     1
1002
}
  0
DIMENSION
  5
121C
330
1209
100
AcDbEntity
  8
実形
 62
     0
100
AcDbDimension
  2
*D38
 10
-606.290988094096
 20
537.7979826596677
 30
0.0
 11
-610.0540109500388
 21
577.1466211676933
 31
0.0
 12
-1290.602321122365
 22
-89.72838405207221
 32
0.0
 70
   128
 71
     5
 42
15.0
  3
ISO-25
100
AcDbAlignedDimension
 13
-492.9656662501738
 23
552.7979826596675
 33
0.0
 14
-492.9656662501738
 24
537.7979826596676
 34
0.0
 50
90.0
100
AcDbRotatedDimension
1001
ACAD
1000
DSTYLE
1002
{
1070
   279
1070
     1
1002
}
  0
LINE
  5
121D
330
1209
100
AcDbEntity
  8
実形
 62
     0
100
AcDbLine
 10
-558.3039659369251
 20
361.7979826596677
 30
0.0
 11
-603.0766784172001
 21
361.7979826596677
 31
0.0
  0
LINE
  5
121E
330
1209
100
AcDbEntity
  8
実形
100
AcDbLine
 10
-166.5916016491601
 20
362.7979826596676
 30
0.0
 11
-448.2254585847027
 21
382.8810619299098
 31
0.0
  0
DIMENSION
  5
121F
330
1209
100
AcDbEntity
  8
実形
 62
     0
100
AcDbDimension
  2
*D39
 10
-604.3721340543479
 20
361.7979826596677
 30
0.0
 11
-580.169977527371
 21
412.2701379097179
 31
0.0
 12
-1290.602321122365
 22
-89.72838405207221
 32
0.0
 70
   128
  1
20
 71
     5
 42
23.71178933795812
  3
ISO-25
100
AcDbAlignedDimension
 13
-494.0580154035824
 23
385.5097719976258
 33
0.0
 14
-534.8780915762463
 24
361.7979826596677
 34
0.0
 50
90.0
100
AcDbRotatedDimension
1001
ACAD
1000
DSTYLE
1002
{
1070
   279
1070
     2
1002
}
  0
ENDBLK
  5
1223
330
1209
100
AcDbEntity
  8
0
100
AcDbBlockEnd
  0
BLOCK
  5
12AC
330
12A2
100
AcDbEntity
  8
0
100
AcDbBlockBegin
  2
*D41
 70
     1
 10
0.0
 20
0.0
 30
0.0
  3
*D41
  1

  0
LINE
  5
14A5
330
12A2
100
AcDbEntity
  8
0
 62
     0
370
    15
100
AcDbLine
 10
1293.755731636831
 20
381.7154124316122
 30
0.0
 11
1293.755731636831
 21
325.320937733597
 31
0.0
  0
LINE
  5
14A6
330
12A2
100
AcDbEntity
  8
0
 62
     0
370
    15
100
AcDbLine
 10
1134.755731636831
 20
381.7154124316123
 30
0.0
 11
1134.755731636831
 21
325.320937733597
 31
0.0
  0
LINE
  5
14A7
330
12A2
100
AcDbEntity
  8
0
 62
     0
370
    15
100
AcDbLine
 10
1293.755731636831
 20
325.320937733597
 30
0.0
 11
1134.755731636831
 21
325.320937733597
 31
0.0
  0
INSERT
  5
14A8
330
12A2
100
AcDbEntity
  8
0
 62
     0
370
    15
100
AcDbBlockReference
  2
_DotSmall
 10
1293.755731636831
 20
325.320937733597
 30
0.0
 41
30.0
 42
30.0
 43
30.0
  0
INSERT
  5
14A9
330
12A2
100
AcDbEntity
  8
0
 62
     0
370
    15
100
AcDbBlockReference
  2
_DotSmall
 10
1134.755731636831
 20
325.320937733597
 30
0.0
 41
30.0
 42
30.0
 43
30.0
 50
180.0
  0
MTEXT
  5
14AA
330
12A2
100
AcDbEntity
  8
0
 62
     0
100
AcDbMText
 10
1214.255731636831
 20
344.070937733597
 30
0.0
 40
25.0
 41
0.0
 71
     5
 72
     1
  1
158
 73
     1
 44
1.0
1001
ACAD
1000
MTEXTBEGIN
1070
    73
1070
     1
1070
    44
1040
1.0
1070
    74
1070
     0
1000
MTEXTEND
  0
POINT
  5
14AB
330
12A2
100
AcDbEntity
  8
Defpoints
 62
     0
100
AcDbPoint
 10
1293.755731636831
 20
446.7154124316121
 30
0.0
  0
POINT
  5
14AC
330
12A2
100
AcDbEntity
  8
Defpoints
 62
     0
100
AcDbPoint
 10
1134.755731636831
 20
446.7154124316122
 30
0.0
  0
POINT
  5
14AD
330
12A2
100
AcDbEntity
  8
Defpoints
 62
     0
100
AcDbPoint
 10
1134.755731636831
 20
325.320937733597
 30
0.0
  0
ENDBLK
  5
12AD
330
12A2
100
AcDbEntity
  8
0
100
AcDbBlockEnd
  0
BLOCK
  5
12B8
330
12AE
100
AcDbEntity
  8
0
100
AcDbBlockBegin
  2
*D42
 70
     1
 10
0.0
 20
0.0
 30
0.0
  3
*D42
  1

  0
LINE
  5
12F3
330
12AE
100
AcDbEntity
  8
0
 62
     0
370
    15
100
AcDbLine
 10
1304.755731636831
 20
519.7154124316121
 30
0.0
 11
1304.755731636831
 21
556.8684369695838
 31
0.0
  0
LINE
  5
12F4
330
12AE
100
AcDbEntity
  8
0
 62
     0
370
    15
100
AcDbLine
 10
1123.755731636831
 20
519.7154124316122
 30
0.0
 11
1123.755731636831
 21
556.8684369695838
 31
0.0
  0
LINE
  5
12F5
330
12AE
100
AcDbEntity
  8
0
 62
     0
370
    15
100
AcDbLine
 10
1304.755731636831
 20
556.8684369695838
 30
0.0
 11
1123.755731636831
 21
556.8684369695838
 31
0.0
  0
INSERT
  5
12F6
330
12AE
100
AcDbEntity
  8
0
 62
     0
370
    15
100
AcDbBlockReference
  2
_DotSmall
 10
1304.755731636831
 20
556.8684369695838
 30
0.0
 41
30.0
 42
30.0
 43
30.0
  0
INSERT
  5
12F7
330
12AE
100
AcDbEntity
  8
0
 62
     0
370
    15
100
AcDbBlockReference
  2
_DotSmall
 10
1123.755731636831
 20
556.8684369695838
 30
0.0
 41
30.0
 42
30.0
 43
30.0
 50
180.0
  0
MTEXT
  5
12F8
330
12AE
100
AcDbEntity
  8
0
 62
     0
100
AcDbMText
 10
1214.255731636831
 20
575.6184369695838
 30
0.0
 40
25.0
 41
0.0
 71
     5
 72
     1
  1
181
 73
     1
 44
1.0
1001
ACAD
1000
MTEXTBEGIN
1070
    73
1070
     1
1070
    44
1040
1.0
1070
    74
1070
     0
1000
MTEXTEND
  0
POINT
  5
12F9
330
12AE
100
AcDbEntity
  8
Defpoints
 62
     0
100
AcDbPoint
 10
1304.755731636831
 20
454.715412431612
 30
0.0
  0
POINT
  5
12FA
330
12AE
100
AcDbEntity
  8
Defpoints
 62
     0
100
AcDbPoint
 10
1123.755731636831
 20
454.7154124316121
 30
0.0
  0
POINT
  5
12FB
330
12AE
100
AcDbEntity
  8
Defpoints
 62
     0
100
AcDbPoint
 10
1123.755731636831
 20
556.8684369695838
 30
0.0
  0
ENDBLK
  5
12B9
330
12AE
100
AcDbEntity
  8
0
100
AcDbBlockEnd
  0
BLOCK
  5
12C4
330
12BA
100
AcDbEntity
  8
0
100
AcDbBlockBegin
  2
*D43
 70
     1
 10
0.0
 20
0.0
 30
0.0
  3
*D43
  1

  0
LINE
  5
12FC
330
12BA
100
AcDbEntity
  8
実形
 62
     0
370
    15
100
AcDbLine
 10
1103.755731636831
 20
518.9047900985838
 30
0.0
 11
1103.755731636831
 21
556.7661274649686
 31
0.0
  0
LINE
  5
12FD
330
12BA
100
AcDbEntity
  8
実形
 62
     0
370
    15
100
AcDbLine
 10
1324.755731636831
 20
519.5594726162449
 30
0.0
 11
1324.755731636831
 21
556.7661274649686
 31
0.0
  0
LINE
  5
12FE
330
12BA
100
AcDbEntity
  8
実形
 62
     0
370
    15
100
AcDbLine
 10
1103.755731636831
 20
556.7661274649686
 30
0.0
 11
1324.755731636831
 21
556.7661274649686
 31
0.0
  0
MTEXT
  5
12FF
330
12BA
100
AcDbEntity
  8
実形
 62
     0
100
AcDbMText
 10
1112.194785206763
 20
576.2095547712829
 30
0.0
 40
25.0
 41
0.0
 71
     5
 72
     1
  1
20
 73
     1
 44
1.0
1001
ACAD
1000
MTEXTBEGIN
1070
    73
1070
     1
1070
    44
1040
1.0
1070
    74
1070
     0
1000
MTEXTEND
  0
INSERT
  5
1300
330
12BA
100
AcDbEntity
  8
実形
 62
     0
370
    15
100
AcDbBlockReference
  2
_DotSmall
 10
1103.755731636831
 20
556.7661274649686
 30
0.0
 41
30.0
 42
30.0
 43
30.0
 50
180.0
  0
INSERT
  5
1301
330
12BA
100
AcDbEntity
  8
実形
 62
     0
370
    15
100
AcDbBlockReference
  2
_DotSmall
 10
1324.755731636831
 20
556.7661274649686
 30
0.0
 41
30.0
 42
30.0
 43
30.0
  0
POINT
  5
1302
330
12BA
100
AcDbEntity
  8
Defpoints
 62
     0
100
AcDbPoint
 10
1103.755731636831
 20
453.9047900985837
 30
0.0
  0
POINT
  5
1303
330
12BA
100
AcDbEntity
  8
Defpoints
 62
     0
100
AcDbPoint
 10
1324.755731636831
 20
454.5594726162448
 30
0.0
  0
POINT
  5
1304
330
12BA
100
AcDbEntity
  8
Defpoints
 62
     0
100
AcDbPoint
 10
1324.755731636831
 20
556.7661274649686
 30
0.0
  0
ENDBLK
  5
12C5
330
12BA
100
AcDbEntity
  8
0
100
AcDbBlockEnd
  0
BLOCK
  5
144F
330
1445
100
AcDbEntity
  8
0
100
AcDbBlockBegin
  2
*D44
 70
     1
 10
0.0
 20
0.0
 30
0.0
  3
*D44
  1

  0
LINE
  5
1475
330
1445
100
AcDbEntity
  8
実形
 62
     0
370
    15
100
AcDbLine
 10
736.5107194732055
 20
642.52636671174
 30
0.0
 11
683.3900520167825
 21
642.52636671174
 31
0.0
  0
LINE
  5
1476
330
1445
100
AcDbEntity
  8
実形
 62
     0
370
    15
100
AcDbLine
 10
736.5107194732058
 20
627.52636671174
 30
0.0
 11
683.3900520167825
 21
627.52636671174
 31
0.0
  0
LINE
  5
1477
330
1445
100
AcDbEntity
  8
実形
 62
     0
370
    15
100
AcDbLine
 10
683.3900520167825
 20
642.52636671174
 30
0.0
 11
683.3900520167825
 21
627.52636671174
 31
0.0
  0
MTEXT
  5
1478
330
1445
100
AcDbEntity
  8
実形
 62
     0
100
AcDbMText
 10
649.492575605669
 20
675.8928637825412
 30
0.0
 40
25.0
 41
0.0
 71
     5
 72
     1
  1
15
 11
0.0000000000000001
 21
1.0
 31
0.0
 73
     1
 44
1.0
1001
ACAD
1000
MTEXTBEGIN
1070
    73
1070
     1
1070
    44
1040
1.0
1070
    74
1070
     0
1000
MTEXTEND
  0
INSERT
  5
1479
330
1445
100
AcDbEntity
  8
実形
 62
     0
370
    15
100
AcDbBlockReference
  2
_DotSmall
 10
683.3900520167825
 20
642.52636671174
 30
0.0
 41
30.0
 42
30.0
 43
30.0
 50
90.0
  0
INSERT
  5
147A
330
1445
100
AcDbEntity
  8
実形
 62
     0
370
    15
100
AcDbBlockReference
  2
_DotSmall
 10
683.3900520167825
 20
627.52636671174
 30
0.0
 41
30.0
 42
30.0
 43
30.0
 50
270.0
  0
POINT
  5
147B
330
1445
100
AcDbEntity
  8
Defpoints
 62
     0
100
AcDbPoint
 10
801.5107194732054
 20
642.5263667117398
 30
0.0
  0
POINT
  5
147C
330
1445
100
AcDbEntity
  8
Defpoints
 62
     0
100
AcDbPoint
 10
801.5107194732058
 20
627.5263667117399
 30
0.0
  0
POINT
  5
147D
330
1445
100
AcDbEntity
  8
Defpoints
 62
     0
100
AcDbPoint
 10
683.3900520167825
 20
627.52636671174
 30
0.0
  0
ENDBLK
  5
1450
330
1445
100
AcDbEntity
  8
0
100
AcDbBlockEnd
  0
BLOCK
  5
145B
330
1451
100
AcDbEntity
  8
0
100
AcDbBlockBegin
  2
*D45
 70
     1
 10
0.0
 20
0.0
 30
0.0
  3
*D45
  1

  0
LINE
  5
147E
330
1451
100
AcDbEntity
  8
実形
 62
     0
370
    15
100
AcDbLine
 10
735.6928105560036
 20
472.5263667117399
 30
0.0
 11
683.3900520167825
 21
472.5263667117399
 31
0.0
  0
LINE
  5
147F
330
1451
100
AcDbEntity
  8
実形
 62
     0
370
    15
100
AcDbLine
 10
735.6928105560036
 20
452.5263667117399
 30
0.0
 11
683.3900520167825
 21
452.5263667117399
 31
0.0
  0
LINE
  5
1480
330
1451
100
AcDbEntity
  8
実形
 62
     0
370
    15
100
AcDbLine
 10
683.3900520167825
 20
472.5263667117399
 30
0.0
 11
683.3900520167825
 21
452.5263667117399
 31
0.0
  0
MTEXT
  5
1481
330
1451
100
AcDbEntity
  8
実形
 62
     0
100
AcDbMText
 10
649.9082688333873
 20
481.6497100006101
 30
0.0
 40
25.0
 41
0.0
 71
     5
 72
     1
  1
20
 11
0.0000000000000001
 21
1.0
 31
0.0
 73
     1
 44
1.0
1001
ACAD
1000
MTEXTBEGIN
1070
    73
1070
     1
1070
    44
1040
1.0
1070
    74
1070
     0
1000
MTEXTEND
  0
INSERT
  5
1482
330
1451
100
AcDbEntity
  8
実形
 62
     0
370
    15
100
AcDbBlockReference
  2
_DotSmall
 10
683.3900520167825
 20
472.5263667117399
 30
0.0
 41
30.0
 42
30.0
 43
30.0
 50
90.0
  0
INSERT
  5
1483
330
1451
100
AcDbEntity
  8
実形
 62
     0
370
    15
100
AcDbBlockReference
  2
_DotSmall
 10
683.3900520167825
 20
452.5263667117399
 30
0.0
 41
30.0
 42
30.0
 43
30.0
 50
270.0
  0
POINT
  5
1484
330
1451
100
AcDbEntity
  8
Defpoints
 62
     0
100
AcDbPoint
 10
800.6928105560035
 20
472.5263667117399
 30
0.0
  0
POINT
  5
1485
330
1451
100
AcDbEntity
  8
Defpoints
 62
     0
100
AcDbPoint
 10
800.6928105560035
 20
452.5263667117399
 30
0.0
  0
POINT
  5
1486
330
1451
100
AcDbEntity
  8
Defpoints
 62
     0
100
AcDbPoint
 10
683.3900520167825
 20
452.5263667117399
 30
0.0
  0
ENDBLK
  5
145C
330
1451
100
AcDbEntity
  8
0
100
AcDbBlockEnd
  0
BLOCK
  5
1467
330
145D
100
AcDbEntity
  8
0
100
AcDbBlockBegin
  2
*D46
 70
     1
 10
0.0
 20
0.0
 30
0.0
  3
*D46
  1

  0
LINE
  5
1487
330
145D
100
AcDbEntity
  8
実形
 62
     0
370
    15
100
AcDbLine
 10
736.0922363068783
 20
442.5263667117398
 30
0.0
 11
683.3900520167825
 21
442.5263667117398
 31
0.0
  0
LINE
  5
1488
330
145D
100
AcDbEntity
  8
実形
 62
     0
370
    15
100
AcDbLine
 10
707.3093081869155
 20
472.5263667117399
 30
0.0
 11
683.3900520167825
 21
472.5263667117399
 31
0.0
  0
LINE
  5
1489
330
145D
100
AcDbEntity
  8
実形
 62
     0
370
    15
100
AcDbLine
 10
683.3900520167825
 20
442.5263667117398
 30
0.0
 11
683.3900520167825
 21
472.5263667117399
 31
0.0
  0
MTEXT
  5
148A
330
145D
100
AcDbEntity
  8
実形
 62
     0
100
AcDbMText
 10
653.5866128187371
 20
434.3214551270822
 30
0.0
 40
25.0
 41
0.0
 71
     5
 72
     1
  1
7
 11
0.0000000000000001
 21
1.0
 31
0.0
 73
     1
 44
1.0
1001
ACAD
1000
MTEXTBEGIN
1070
    73
1070
     1
1070
    44
1040
1.0
1070
    74
1070
     0
1000
MTEXTEND
  0
INSERT
  5
148B
330
145D
100
AcDbEntity
  8
実形
 62
     0
370
    15
100
AcDbBlockReference
  2
_DotSmall
 10
683.3900520167825
 20
442.5263667117398
 30
0.0
 41
30.0
 42
30.0
 43
30.0
 50
270.0
  0
INSERT
  5
148C
330
145D
100
AcDbEntity
  8
実形
 62
     0
370
    15
100
AcDbBlockReference
  2
_DotSmall
 10
683.3900520167825
 20
472.5263667117399
 30
0.0
 41
30.0
 42
30.0
 43
30.0
 50
90.0
  0
POINT
  5
148D
330
145D
100
AcDbEntity
  8
Defpoints
 62
     0
100
AcDbPoint
 10
801.0922363068782
 20
442.5263667117398
 30
0.0
  0
POINT
  5
148E
330
145D
100
AcDbEntity
  8
Defpoints
 62
     0
100
AcDbPoint
 10
772.3093081869154
 20
472.5263667117399
 30
0.0
  0
POINT
  5
148F
330
145D
100
AcDbEntity
  8
Defpoints
 62
     0
100
AcDbPoint
 10
683.3900520167825
 20
472.5263667117399
 30
0.0
  0
ENDBLK
  5
1468
330
145D
100
AcDbEntity
  8
0
100
AcDbBlockEnd
  0
BLOCK
  5
1473
330
1469
100
AcDbEntity
  8
0
100
AcDbBlockBegin
  2
*D47
 70
     1
 10
0.0
 20
0.0
 30
0.0
  3
*D47
  1

  0
LINE
  5
1490
330
1469
100
AcDbEntity
  8
実形
 62
     0
370
    15
100
AcDbLine
 10
701.1345861443441
 20
642.5263667117398
 30
0.0
 11
596.8491535785959
 21
642.5263667117398
 31
0.0
  0
LINE
  5
1491
330
1469
100
AcDbEntity
  8
実形
 62
     0
370
    15
100
AcDbLine
 10
701.1345861443441
 20
452.5263667117399
 30
0.0
 11
596.8491535785959
 21
452.52636671174
 31
0.0
  0
LINE
  5
1492
330
1469
100
AcDbEntity
  8
実形
 62
     0
370
    15
100
AcDbLine
 10
596.8491535785959
 20
642.5263667117398
 30
0.0
 11
596.8491535785959
 21
452.52636671174
 31
0.0
  0
INSERT
  5
1493
330
1469
100
AcDbEntity
  8
実形
 62
     0
370
    15
100
AcDbBlockReference
  2
_DotSmall
 10
596.8491535785959
 20
642.5263667117398
 30
0.0
 41
30.0
 42
30.0
 43
30.0
 50
90.0
  0
INSERT
  5
1494
330
1469
100
AcDbEntity
  8
実形
 62
     0
370
    15
100
AcDbBlockReference
  2
_DotSmall
 10
596.8491535785959
 20
452.52636671174
 30
0.0
 41
30.0
 42
30.0
 43
30.0
 50
270.0
  0
MTEXT
  5
1495
330
1469
100
AcDbEntity
  8
実形
 62
     0
100
AcDbMText
 10
578.0991535785958
 20
547.5263667117401
 30
0.0
 40
25.0
 41
0.0
 71
     5
 72
     1
  1
190
 11
0.0000000000000001
 21
1.0
 31
0.0
 73
     1
 44
1.0
1001
ACAD
1000
MTEXTBEGIN
1070
    73
1070
     1
1070
    44
1040
1.0
1070
    74
1070
     0
1000
MTEXTEND
  0
POINT
  5
1496
330
1469
100
AcDbEntity
  8
Defpoints
 62
     0
100
AcDbPoint
 10
766.134586144344
 20
642.5263667117398
 30
0.0
  0
POINT
  5
1497
330
1469
100
AcDbEntity
  8
Defpoints
 62
     0
100
AcDbPoint
 10
766.134586144344
 20
452.5263667117399
 30
0.0
  0
POINT
  5
1498
330
1469
100
AcDbEntity
  8
Defpoints
 62
     0
100
AcDbPoint
 10
596.8491535785959
 20
452.52636671174
 30
0.0
  0
ENDBLK
  5
1474
330
1469
100
AcDbEntity
  8
0
100
AcDbBlockEnd
  0
ENDSEC
  0
SECTION
  2
ENTITIES
  0
LINE
  5
9C
330
1F
100
AcDbEntity
  8
補助
100
AcDbLine
 10
109.0
 20
4.0
 30
0.0
 11
2784.0
 21
4.0
 31
0.0
  0
LINE
  5
A0
330
1F
100
AcDbEntity
  8
補助
100
AcDbLine
 10
2784.0
 20
2024.0
 30
0.0
 11
109.0
 21
2024.0
 31
0.0
  0
LINE
  5
A5
330
1F
100
AcDbEntity
  8
補助
100
AcDbLine
 10
2784.0
 20
4.0
 30
0.0
 11
2784.0
 21
2024.0
 31
0.0
  0
LINE
  5
A8
330
1F
100
AcDbEntity
  8
補助
100
AcDbLine
 10
2184.0
 20
69.0
 30
0.0
 11
2184.0
 21
199.0
 31
0.0
  0
LINE
  5
A9
330
1F
100
AcDbEntity
  8
補助
100
AcDbLine
 10
2184.0
 20
69.0
 30
0.0
 11
2784.0
 21
69.0
 31
0.0
  0
LINE
  5
AA
330
1F
100
AcDbEntity
  8
補助
100
AcDbLine
 10
2064.0
 20
134.0
 30
0.0
 11
2784.0
 21
134.0
 31
0.0
  0
LINE
  5
AB
330
1F
100
AcDbEntity
  8
補助
100
AcDbLine
 10
2064.0
 20
199.0
 30
0.0
 11
2784.0
 21
199.0
 31
0.0
  0
LINE
  5
AD
330
1F
100
AcDbEntity
  8
補助
100
AcDbLine
 10
2784.0
 20
4.0
 30
0.0
 11
2784.0
 21
69.0
 31
0.0
  0
LINE
  5
25F
330
1F
100
AcDbEntity
  8
0
100
AcDbLine
 10
929.5107194732054
 20
1055.093561842788
 30
0.0
 11
1499.510719473205
 21
1055.093561842788
 31
0.0
  0
LINE
  5
260
330
1F
100
AcDbEntity
  8
0
100
AcDbLine
 10
1614.510719473205
 20
1185.093561842788
 30
0.0
 11
1614.510719473205
 21
1515.093561842788
 31
0.0
  0
LINE
  5
261
330
1F
100
AcDbEntity
  8
0
100
AcDbLine
 10
1554.510719473205
 20
1575.093561842789
 30
0.0
 11
874.5107194732055
 21
1575.093561842789
 31
0.0
  0
LINE
  5
262
330
1F
100
AcDbEntity
  8
0
100
AcDbLine
 10
814.5107194732053
 20
1515.093561842788
 30
0.0
 11
814.5107194732053
 21
1185.093561842788
 31
0.0
  0
LINE
  5
267
330
1F
100
AcDbEntity
  8
0
100
AcDbLine
 10
1499.510719473206
 20
1500.093561842789
 30
0.0
 11
1404.510719473205
 21
1500.093561842789
 31
0.0
  0
LINE
  5
26B
330
1F
100
AcDbEntity
  8
0
100
AcDbLine
 10
929.5107194732054
 20
1070.093561842788
 30
0.0
 11
1499.510719473205
 21
1070.093561842788
 31
0.0
  0
DIMENSION
  5
270
330
1F
100
AcDbEntity
  8
0
100
AcDbDimension
  2
*D4
 10
674.7602173563091
 20
1070.093561842788
 30
0.0
 11
656.0102173563089
 21
1123.010228509455
 31
0.0
 70
    32
 71
     5
 42
15.0
  3
ISO-25
100
AcDbAlignedDimension
 13
779.5107194732054
 23
1055.093561842788
 33
0.0
 14
779.5107194732054
 24
1070.093561842788
 34
0.0
 50
90.0
100
AcDbRotatedDimension
  0
DIMENSION
  5
27E
330
1F
100
AcDbEntity
  8
0
100
AcDbDimension
  2
*D5
 10
674.7602173563092
 20
1500.093561842788
 30
0.0
 11
656.0102173563089
 21
1285.093561842789
 31
0.0
 70
    32
 71
     5
 42
430.0
  3
ISO-25
100
AcDbAlignedDimension
 13
779.5107194732054
 23
1070.093561842788
 33
0.0
 14
779.5107194732053
 24
1500.093561842788
 34
0.0
 50
90.0
100
AcDbRotatedDimension
1001
ACAD
1000
DSTYLE
1002
{
1070
   279
1070
     1
1002
}
  0
DIMENSION
  5
28B
330
1F
100
AcDbEntity
  8
0
100
AcDbDimension
  2
*D6
 10
674.7602173563092
 20
1575.093561842788
 30
0.0
 11
656.0102173563089
 21
1537.593561842788
 31
0.0
 70
    32
 71
     5
 42
75.0
  3
ISO-25
100
AcDbAlignedDimension
 13
779.5107194732053
 23
1500.093561842788
 33
0.0
 14
779.5107194732053
 24
1575.093561842788
 34
0.0
 50
90.0
100
AcDbRotatedDimension
1001
ACAD
1000
DSTYLE
1002
{
1070
   279
1070
     1
1002
}
  0
DIMENSION
  5
298
330
1F
100
AcDbEntity
  8
0
100
AcDbDimension
  2
*D7
 10
602.1317974531767
 20
1055.093561842788
 30
0.0
 11
580.170886888337
 21
1049.233430008754
 31
0.0
 70
   160
 71
     5
 42
35.0
  3
ISO-25
100
AcDbAlignedDimension
 13
779.5107194732053
 23
1020.093561842788
 33
0.0
 14
779.5107194732054
 24
1055.093561842788
 34
0.0
 50
90.0
100
AcDbRotatedDimension
1001
ACAD
1000
DSTYLE
1002
{
1070
   279
1070
     2
1002
}
  0
DIMENSION
  5
2A6
330
1F
100
AcDbEntity
  8
0
100
AcDbDimension
  2
*D8
 10
602.1317974531767
 20
1575.093561842788
 30
0.0
 11
583.3817974531765
 21
1315.093561842789
 31
0.0
 70
    32
 71
     5
 42
520.0
  3
ISO-25
100
AcDbAlignedDimension
 13
779.5107194732054
 23
1055.093561842788
 33
0.0
 14
779.5107194732053
 24
1575.093561842788
 34
0.0
 50
90.0
100
AcDbRotatedDimension
1001
ACAD
1000
DSTYLE
1002
{
1070
   279
1070
     1
1002
}
  0
DIMENSION
  5
2B3
330
1F
100
AcDbEntity
  8
0
100
AcDbDimension
  2
*D9
 10
602.1317974531767
 20
1610.093561842789
 30
0.0
 11
580.170886888337
 21
1581.461311335788
 31
0.0
 70
   160
 71
     5
 42
35.00000000000046
  3
ISO-25
100
AcDbAlignedDimension
 13
779.5107194732053
 23
1575.093561842788
 33
0.0
 14
779.5107194732052
 24
1610.093561842789
 34
0.0
 50
90.0
100
AcDbRotatedDimension
1001
ACAD
1000
DSTYLE
1002
{
1070
   279
1070
     2
1002
}
  0
DIMENSION
  5
2DC
330
1F
100
AcDbEntity
  8
0
100
AcDbDimension
  2
*D10
 10
532.6611450838627
 20
1610.093561842789
 30
0.0
 11
513.9111450838624
 21
1315.093561842789
 31
0.0
 70
    32
 71
     5
 42
590.0000000000004
  3
ISO-25
100
AcDbAlignedDimension
 13
779.5107194732053
 23
1020.093561842788
 33
0.0
 14
779.5107194732052
 24
1610.093561842789
 34
0.0
 50
90.0
100
AcDbRotatedDimension
  0
DIMENSION
  5
2F7
330
1F
100
AcDbEntity
  8
0
100
AcDbDimension
  2
*D11
 10
1614.510719473205
 20
916.1857900480718
 30
0.0
 11
1214.510719473205
 21
934.9357900480718
 31
0.0
 70
    32
 71
     5
 42
799.9999999999999
  3
ISO-25
100
AcDbAlignedDimension
 13
814.5107194732053
 23
1020.093561842788
 33
0.0
 14
1614.510719473205
 24
1020.093561842788
 34
0.0
100
AcDbRotatedDimension
1001
ACAD
1000
DSTYLE
1002
{
1070
   279
1070
     1
1002
}
  0
DIMENSION
  5
304
330
1F
100
AcDbEntity
  8
0
100
AcDbDimension
  2
*D12
 10
1649.510719473205
 20
916.1857900480718
 30
0.0
 11
1571.052503888749
 21
916.1857900480718
 31
0.0
 70
   160
 71
     5
 42
35.0
  3
ISO-25
100
AcDbAlignedDimension
 13
1614.510719473205
 23
1020.093561842788
 33
0.0
 14
1649.510719473205
 24
1020.093561842788
 34
0.0
100
AcDbRotatedDimension
1001
ACAD
1000
DSTYLE
1002
{
1070
   279
1070
     1
1002
}
  0
DIMENSION
  5
31C
330
1F
100
AcDbEntity
  8
0
100
AcDbDimension
  2
*D13
 10
1649.510719473205
 20
845.8270180928648
 30
0.0
 11
1214.510719473205
 21
864.5770180928648
 31
0.0
 70
    32
 71
     5
 42
869.9999999999999
  3
ISO-25
100
AcDbAlignedDimension
 13
779.5107194732053
 23
1020.093561842788
 33
0.0
 14
1649.510719473205
 24
1020.093561842788
 34
0.0
100
AcDbRotatedDimension
  0
ARC
  5
32A
330
1F
100
AcDbEntity
  8
0
100
AcDbCircle
 10
929.5107194732054
 20
1185.093561842788
 30
0.0
 40
115.0
100
AcDbArc
 50
180.0
 51
270.0
  0
ARC
  5
32B
330
1F
100
AcDbEntity
  8
0
100
AcDbCircle
 10
1499.510719473205
 20
1185.093561842788
 30
0.0
 40
115.0
100
AcDbArc
 50
270.0
 51
0.0
  0
LINE
  5
32C
330
1F
100
AcDbEntity
  8
0
100
AcDbLine
 10
814.5107194732053
 20
1385.093561842788
 30
0.0
 11
814.5107194732053
 21
1170.093561842788
 31
0.0
  0
LINE
  5
32D
330
1F
100
AcDbEntity
  8
0
100
AcDbLine
 10
1614.510719473205
 20
1170.093561842788
 30
0.0
 11
1614.510719473205
 21
1385.093561842788
 31
0.0
  0
ARC
  5
32E
330
1F
100
AcDbEntity
  8
0
100
AcDbCircle
 10
929.5107194732054
 20
1170.093561842788
 30
0.0
 40
115.0
100
AcDbArc
 50
180.0
 51
270.0
  0
ARC
  5
32F
330
1F
100
AcDbEntity
  8
0
100
AcDbCircle
 10
1499.510719473205
 20
1170.093561842788
 30
0.0
 40
115.0
100
AcDbArc
 50
270.0
 51
0.0
  0
CIRCLE
  5
334
330
1F
100
AcDbEntity
  8
0
100
AcDbCircle
 10
1214.510719473205
 20
1405.093561842788
 30
0.0
 40
79.5
  0
CIRCLE
  5
335
330
1F
100
AcDbEntity
  8
0
100
AcDbCircle
 10
1214.510719473205
 20
1405.093561842788
 30
0.0
 40
90.5
  0
ARC
  5
339
330
1F
100
AcDbEntity
  8
0
100
AcDbCircle
 10
1499.510719473206
 20
1385.093561842788
 30
0.0
 40
115.0
100
AcDbArc
 50
0.0
 51
90.0
  0
ARC
  5
33A
330
1F
100
AcDbEntity
  8
0
100
AcDbCircle
 10
929.5107194732054
 20
1385.093561842788
 30
0.0
 40
115.0
100
AcDbArc
 50
90.00000000000003
 51
180.0
  0
ARC
  5
33C
330
1F
100
AcDbEntity
  8
0
100
AcDbCircle
 10
1404.510719473205
 20
1600.093561842788
 30
0.0
 40
100.0
100
AcDbArc
 50
212.8664647390864
 51
270.0
  0
ARC
  5
33E
330
1F
100
AcDbEntity
  8
0
100
AcDbCircle
 10
1024.510719473205
 20
1600.093561842788
 30
0.0
 40
100.0
100
AcDbArc
 50
270.0
 51
327.1335352609136
  0
ARC
  5
33F
330
1F
100
AcDbEntity
  8
0
100
AcDbCircle
 10
1162.260492612764
 20
1511.093561842788
 30
0.0
 40
64.0
100
AcDbArc
 50
90.0
 51
147.1335352609138
  0
ARC
  5
340
330
1F
100
AcDbEntity
  8
0
100
AcDbCircle
 10
1266.760946333646
 20
1511.093561842788
 30
0.0
 40
64.0
100
AcDbArc
 50
32.8664647390862
 51
90.0
  0
LINE
  5
341
330
1F
100
AcDbEntity
  8
0
100
AcDbLine
 10
1024.510719473205
 20
1500.093561842789
 30
0.0
 11
929.5107194732054
 21
1500.093561842789
 31
0.0
  0
ARC
  5
370
330
1F
100
AcDbEntity
  8
0
100
AcDbCircle
 10
874.5107194732055
 20
1515.093561842788
 30
0.0
 40
60.0
100
AcDbArc
 50
90.0
 51
180.0
  0
ARC
  5
371
330
1F
100
AcDbEntity
  8
0
100
AcDbCircle
 10
1554.510719473205
 20
1515.093561842788
 30
0.0
 40
60.0
100
AcDbArc
 50
0.0
 51
89.99999999999998
  0
DIMENSION
  5
376
330
1F
100
AcDbEntity
  8
0
100
AcDbDimension
  2
*D14
 10
814.5107194732053
 20
1207.556483900574
 30
0.0
 11
1014.510719473205
 21
1226.306483900574
 31
0.0
 70
    32
 71
     5
 42
400.0
  3
ISO-25
100
AcDbAlignedDimension
 13
1214.510719473205
 23
1357.855917950958
 33
0.0
 14
814.5107194732053
 24
1385.093561842788
 34
0.0
100
AcDbRotatedDimension
  0
DIMENSION
  5
384
330
1F
100
AcDbEntity
  8
0
100
AcDbDimension
  2
*D15
 10
1444.013809245262
 20
1575.093561842789
 30
0.0
 11
1444.013809245261
 21
1456.101412944054
 31
0.0
 70
   160
 71
     5
 42
170.0000000000002
  3
ISO-25
100
AcDbAlignedDimension
 13
1264.284410955204
 23
1405.093561842788
 33
0.0
 14
874.5107194732055
 24
1575.093561842789
 34
0.0
 50
90.0
100
AcDbRotatedDimension
  0
LINE
  5
39A
330
1F
100
AcDbEntity
  8
Cen
 48
0.9
100
AcDbLine
 10
1332.530414134454
 20
1405.093561842788
 30
0.0
 11
1096.491024811956
 21
1405.093561842788
 31
0.0
  0
LINE
  5
39B
330
1F
100
AcDbEntity
  8
Cen
 48
0.9
100
AcDbLine
 10
1214.510719473205
 20
1287.073867181539
 30
0.0
 11
1214.510719473205
 21
1523.113256504037
 31
0.0
  0
DIMENSION
  5
3BF
330
1F
100
AcDbEntity
  8
0
100
AcDbDimension
  2
*D16
 10
1344.510719473205
 20
1728.310977532818
 30
0.0
 11
1214.510719473205
 21
1747.060977532818
 31
0.0
 70
    32
 71
     5
 42
260.0
  3
ISO-25
100
AcDbAlignedDimension
 13
1084.510719473205
 23
1662.093561842788
 33
0.0
 14
1344.510719473205
 24
1662.093561842788
 34
0.0
100
AcDbRotatedDimension
  0
LINE
  5
3DD
330
1F
100
AcDbEntity
  8
Cen
100
AcDbLine
 10
1344.510719473205
 20
1727.093561842789
 30
0.0
 11
1344.510719473205
 21
1528.093561842788
 31
0.0
  0
LINE
  5
3DE
330
1F
100
AcDbEntity
  8
Cen
100
AcDbLine
 10
1084.510719473205
 20
1727.093561842789
 30
0.0
 11
1084.510719473205
 21
1528.093561842788
 31
0.0
  0
CIRCLE
  5
3DF
330
1F
100
AcDbEntity
  8
Cen
100
AcDbCircle
 10
1344.510719473205
 20
1560.093561842788
 30
0.0
 40
6.0
  0
CIRCLE
  5
3E0
330
1F
100
AcDbEntity
  8
Cen
100
AcDbCircle
 10
1084.510719473205
 20
1560.093561842788
 30
0.0
 40
6.0
  0
LINE
  5
407
330
1F
100
AcDbEntity
  8
0
100
AcDbLine
 10
784.5107194732053
 20
642.5263667117398
 30
0.0
 11
1644.510719473205
 21
642.5263667117397
 31
0.0
  0
LINE
  5
40D
330
1F
100
AcDbEntity
  8
0
100
AcDbLine
 10
814.5107194732059
 20
627.5263667117398
 30
0.0
 11
1614.510719473205
 21
627.5263667117396
 31
0.0
  0
LINE
  5
48F
330
1F
100
AcDbEntity
  8
0
100
AcDbLine
 10
1963.967865434156
 20
1605.093561842788
 30
0.0
 11
1963.967865434156
 21
1025.093561842788
 31
0.0
  0
LINE
  5
492
330
1F
100
AcDbEntity
  8
0
100
AcDbLine
 10
1978.967865434157
 20
1575.093561842789
 30
0.0
 11
2110.580268846474
 21
1575.093561842788
 31
0.0
  0
LINE
  5
493
330
1F
100
AcDbEntity
  8
0
100
AcDbLine
 10
1981.967865434157
 20
1500.093561842789
 30
0.0
 11
2123.967865434158
 21
1500.093561842788
 31
0.0
  0
LINE
  5
495
330
1F
100
AcDbEntity
  8
0
100
AcDbLine
 10
1978.967865434156
 20
1070.093561842788
 30
0.0
 11
2106.32165290277
 21
1070.093561842788
 31
0.0
  0
LINE
  5
496
330
1F
100
AcDbEntity
  8
0
100
AcDbLine
 10
1978.967865434157
 20
1067.093561842788
 30
0.0
 11
1978.967865434156
 21
1058.093561842788
 31
0.0
  0
LINE
  5
49A
330
1F
100
AcDbEntity
  8
0
100
AcDbLine
 10
1978.967865434157
 20
1575.093561842788
 30
0.0
 11
1978.967865434157
 21
1503.093561842788
 31
0.0
  0
ARC
  5
49B
330
1F
100
AcDbEntity
  8
0
100
AcDbCircle
 10
1981.967865434157
 20
1503.093561842788
 30
0.0
 40
3.0
100
AcDbArc
 50
179.9999999999999
 51
270.0
  0
LINE
  5
49D
330
1F
100
AcDbEntity
  8
0
100
AcDbLine
 10
1978.967865434157
 20
1503.093561842788
 30
0.0
 11
1978.967865434156
 21
1035.093561842788
 31
0.0
  0
LINE
  5
49E
330
1F
100
AcDbEntity
  8
0
100
AcDbLine
 10
2153.967865434157
 20
1470.093561842788
 30
0.0
 11
2153.967865434157
 21
1314.593561842793
 31
0.0
  0
LINE
  5
4A3
330
1F
100
AcDbEntity
  8
0
100
AcDbLine
 10
2161.967865434157
 20
1484.593561842788
 30
0.0
 11
2161.967865434157
 21
1325.593561842788
 31
0.0
  0
LINE
  5
4A4
330
1F
100
AcDbEntity
  8
0
100
AcDbLine
 10
2153.967865434157
 20
1495.593561842788
 30
0.0
 11
2161.967865434157
 21
1484.593561842788
 31
0.0
  0
LINE
  5
4A5
330
1F
100
AcDbEntity
  8
0
100
AcDbLine
 10
2153.967865434157
 20
1314.593561842788
 30
0.0
 11
2161.967865434157
 21
1325.593561842788
 31
0.0
  0
ARC
  5
4AB
330
1F
100
AcDbEntity
  8
0
100
AcDbCircle
 10
2123.967865434158
 20
1470.093561842788
 30
0.0
 40
30.0
100
AcDbArc
 50
359.9999999999999
 51
89.99999999999992
  0
LINE
  5
4AC
330
1F
100
AcDbEntity
  8
0
100
AcDbLine
 10
2153.967865434157
 20
1495.593561842789
 30
0.0
 11
2153.967865434157
 21
1470.093561842788
 31
0.0
  0
LINE
  5
4AE
330
1F
100
AcDbEntity
  8
Cen
100
AcDbLine
 10
2059.374035653949
 20
1403.218561842788
 30
0.0
 11
2190.028447889272
 21
1403.218561842788
 31
0.0
  0
LEADER
  5
50F
330
1F
100
AcDbEntity
  8
0
100
AcDbLeader
  3
ISO-25
 40
25.0
 41
41.66666666666666
 76
     2
 10
1076.999371693547
 20
1566.039802583458
 30
0.0
 10
980.4412141381108
 20
1716.8674057583
 30
0.0
213
0.0
223
12.5
233
0.0
1001
ACAD
1000
DSTYLE
1002
{
1070
   147
1040
6.25
1070
    77
1070
     0
1070
    73
1070
     1
1070
    74
1070
     1
1070
   342
1005
DA
1002
}
  0
TEXT
  5
511
330
1F
100
AcDbEntity
  8
0
100
AcDbText
 10
907.3661785700648
 20
1713.572211241846
 30
0.0
 40
25.0
  1
12%%C
 72
     2
 11
965.6995119033981
 21
1710.238877908513
 31
0.0
100
AcDbText
 73
     1
  0
MTEXT
  5
532
330
1F
100
AcDbEntity
  8
0
100
AcDbMText
 10
1469.226616777811
 20
1181.110374981098
 30
0.0
 40
25.0
 41
0.0
 71
     9
 72
     1
  1

 73
     1
 44
1.0
1001
ACAD
1000
MTEXTBEGIN
1070
    73
1070
     1
1070
    44
1040
1.0
1070
    74
1070
     0
1000
MTEXTEND
  0
LEADER
  5
533
330
1F
100
AcDbEntity
  8
0
100
AcDbLeader
  3
ISO-25
 40
25.0
 41
16.66666666666666
 76
     2
 10
1580.379697282782
 20
1090.096919501044
 30
0.0
 10
1489.932363543219
 20
1146.152854127202
 30
0.0
213
-97.31675022588753
223
44.53196128345098
233
0.0
1001
ACAD
1000
DSTYLE
1002
{
1070
   147
1040
6.25
1070
    77
1070
     0
1070
    73
1070
     1
1070
    74
1070
     1
1070
   279
1070
     1
1070
   342
1005
DA
1002
}
  0
TEXT
  5
537
330
1F
100
AcDbEntity
  8
0
100
AcDbText
 10
1404.628230478922
 20
1141.478199519792
 30
0.0
 40
25.0
  1
115R
 72
     2
 11
1479.628230478922
 21
1138.144866186459
 31
0.0
100
AcDbText
 73
     1
  0
LEADER
  5
53A
330
1F
100
AcDbEntity
  8
0
100
AcDbLeader
  3
ISO-25
 40
25.0
 41
16.66666666666666
 76
     2
 10
1596.408335750875
 20
1126.704874573524
 30
0.0
 10
1533.43867629142
 20
1186.192808111635
 30
0.0
213
0.0
223
12.5
233
0.0
1001
ACAD
1000
DSTYLE
1002
{
1070
   147
1040
6.25
1070
    77
1070
     0
1070
    73
1070
     1
1070
    74
1070
     1
1070
   279
1070
     1
1070
   342
1005
DA
1002
}
  0
TEXT
  5
53C
330
1F
100
AcDbEntity
  8
0
100
AcDbText
 10
1451.569251470284
 20
1184.950147655937
 30
0.0
 40
25.0
  1
115R
 72
     2
 11
1526.569251470284
 21
1181.616814322604
 31
0.0
100
AcDbText
 73
     1
  0
LEADER
  5
53D
330
1F
100
AcDbEntity
  8
0
100
AcDbLeader
  3
ISO-25
 40
25.0
 41
16.66666666666666
 76
     2
 10
1035.40588934996
 20
1071.792939584684
 30
0.0
 10
1092.65103507081
 20
1119.840886270099
 30
0.0
213
0.0
223
-12.5
233
0.0
1001
ACAD
1000
DSTYLE
1002
{
1070
   147
1040
6.25
1070
    77
1070
     0
1070
    73
1070
     1
1070
    74
1070
     1
1070
   279
1070
     1
1070
   342
1005
DA
1002
}
  0
TEXT
  5
53F
330
1F
100
AcDbEntity
  8
0
100
AcDbText
 10
1102.955168135107
 20
1112.878227627815
 30
0.0
 40
25.0
  1
10000R
 11
1102.955168135107
 21
1109.544894294482
 31
0.0
100
AcDbText
 73
     1
  0
LEADER
  5
540
330
1F
100
AcDbEntity
  8
0
100
AcDbLeader
  3
ISO-25
 76
     2
 10
1613.581876966687
 20
1308.600664579327
 30
0.0
 10
1517.410029488519
 20
1308.600664579327
 30
0.0
1001
ACAD
1000
DSTYLE
1002
{
1070
   147
1040
6.25
1070
    77
1070
     0
1070
    73
1070
     1
1070
    74
1070
     1
1070
   279
1070
     1
1070
   342
1005
DA
1002
}
  0
TEXT
  5
54B
330
1F
100
AcDbEntity
  8
0
100
AcDbText
 10
1402.939238092365
 20
1296.100664579328
 30
0.0
 40
25.0
  1
5000R
 72
     2
 11
1507.105904759031
 21
1308.600664579327
 31
0.0
100
AcDbText
 73
     2
  0
LEADER
  5
54C
330
1F
100
AcDbEntity
  8
0
100
AcDbLeader
  3
ISO-25
 40
25.0
 41
16.66666666666666
 76
     2
 10
1602.132849489479
 20
1547.696388848605
 30
0.0
 10
1543.879463356354
 20
1528.066489110672
 30
0.0
213
0.0
223
12.5
233
0.0
1001
ACAD
1000
DSTYLE
1002
{
1070
   147
1040
6.25
1070
    77
1070
     0
1070
    73
1070
     1
1070
    74
1070
     1
1070
   279
1070
     1
1070
   342
1005
DA
1002
}
  0
TEXT
  5
54E
330
1F
100
AcDbEntity
  8
0
100
AcDbText
 10
1474.438698673535
 20
1513.341750788995
 30
0.0
 40
25.0
  1
60R
 72
     2
 11
1536.938698673535
 21
1510.008417455662
 31
0.0
100
AcDbText
 73
     1
  0
LEADER
  5
558
330
1F
100
AcDbEntity
  8
0
100
AcDbLeader
  3
ISO-25
 40
25.0
 41
16.66666666666666
 76
     2
 10
1132.722639575848
 20
1566.000368764965
 30
0.0
 10
1186.533077053536
 20
1537.400401633227
 30
0.0
213
0.0
223
-12.5
233
0.0
1001
ACAD
1000
DSTYLE
1002
{
1070
   147
1040
6.25
1070
    77
1070
     0
1070
    73
1070
     1
1070
    74
1070
     1
1070
   279
1070
     1
1070
   342
1005
DA
1002
}
  0
TEXT
  5
55A
330
1F
100
AcDbEntity
  8
0
100
AcDbText
 10
1194.547396287582
 20
1524.816415143216
 30
0.0
 40
25.0
  1
64R
 11
1194.547396287582
 21
1521.483081809882
 31
0.0
100
AcDbText
 73
     1
  0
MTEXT
  5
55C
330
1F
100
AcDbEntity
  8
0
100
AcDbMText
 10
1010.02660136874
 20
1423.470120422065
 30
0.0
 40
25.0
 41
0.0
 71
     1
 72
     1
  1

 73
     1
 44
1.0
1001
ACAD
1000
MTEXTBEGIN
1070
    73
1070
     1
1070
    44
1040
1.0
1070
    74
1070
     0
1000
MTEXTEND
  0
LEADER
  5
55D
330
1F
100
AcDbEntity
  8
0
100
AcDbLeader
  3
ISO-25
 40
25.0
 41
16.66666666666666
 76
     2
 10
975.8709381336684
 20
1495.072453134399
 30
0.0
 10
1015.942542638706
 20
1446.028659143988
 30
0.0
213
0.0
223
-12.5
233
0.0
1001
ACAD
1000
DSTYLE
1002
{
1070
   147
1040
6.25
1070
    77
1070
     0
1070
    73
1070
     1
1070
    74
1070
     1
1070
   279
1070
     1
1070
   342
1005
DA
1002
}
  0
TEXT
  5
55F
330
1F
100
AcDbEntity
  8
0
100
AcDbText
 10
974.2916269005091
 20
1404.845426918497
 30
0.0
 40
25.0
  1
10000R
 11
974.2916269005091
 21
1429.845426918497
 31
0.0
100
AcDbText
 73
     3
  0
LEADER
  5
560
330
1F
100
AcDbEntity
  8
0
100
AcDbLeader
  3
ISO-25
 40
25.0
 41
16.66666666666666
 76
     2
 10
853.3663191231116
 20
1468.760480517057
 30
0.0
 10
873.9745769168967
 20
1377.240585695497
 30
0.0
213
0.0
223
-12.5
233
0.0
1001
ACAD
1000
DSTYLE
1002
{
1070
   147
1040
6.25
1070
    77
1070
     0
1070
    73
1070
     1
1070
    74
1070
     1
1070
   279
1070
     1
1070
   342
1005
DA
1002
}
  0
TEXT
  5
562
330
1F
100
AcDbEntity
  8
0
100
AcDbText
 10
872.8296741691757
 20
1339.656603965724
 30
0.0
 40
25.0
  1
115R
 11
872.8296741691757
 21
1364.656603965724
 31
0.0
100
AcDbText
 73
     3
  0
LEADER
  5
566
330
1F
100
AcDbEntity
  8
0
100
AcDbLeader
  3
ISO-25
 40
25.0
 41
16.66666666666666
 76
     2
 10
1075.477493854998
 20
1513.37642829052
 30
0.0
 10
1009.073126152381
 20
1548.840388485922
 30
0.0
213
0.0
223
12.5
233
0.0
1001
ACAD
1000
DSTYLE
1002
{
1070
   147
1040
6.25
1070
    77
1070
     0
1070
    73
1070
     1
1070
    74
1070
     1
1070
   279
1070
     1
1070
   342
1005
DA
1002
}
  0
TEXT
  5
568
330
1F
100
AcDbEntity
  8
0
100
AcDbText
 10
928.9299171423063
 20
1545.309728755591
 30
0.0
 40
25.0
  1
100R
 11
928.9299171423063
 21
1541.976395422258
 31
0.0
100
AcDbText
 73
     1
  0
LINE
  5
56A
330
1F
100
AcDbEntity
  8
補助
100
AcDbLine
 10
2784.0
 20
134.0
 30
0.0
 11
2784.0
 21
199.0
 31
0.0
  0
TEXT
  5
56C
330
1F
100
AcDbEntity
  8
0
100
AcDbText
 10
2292.0
 20
149.4
 30
0.0
 40
35.0
  1
YME870-590S-GRM
  7
ms明朝
 72
     4
 11
2484.0
 21
166.5
 31
0.0
100
AcDbText
  0
DIMENSION
  5
586
330
1F
100
AcDbEntity
  8
0
100
AcDbDimension
  2
*D17
 10
1414.379969462279
 20
1575.093561842789
 30
0.0
 11
1406.95132724992
 21
1530.42835865149
 31
0.0
 70
   160
 71
     5
 42
15.00000000000023
  3
ISO-25
100
AcDbAlignedDimension
 13
1347.945034754952
 23
1560.093561842788
 33
0.0
 14
1279.510719473205
 24
1575.093561842789
 34
0.0
 50
90.0
100
AcDbRotatedDimension
1001
ACAD
1000
DSTYLE
1002
{
1070
   175
1070
     0
1070
   172
1070
     1
1070
   279
1070
     2
1002
}
  0
LINE
  5
59F
330
1F
100
AcDbEntity
  8
Cen
100
AcDbLine
 10
1065.502569089306
 20
1560.093561842789
 30
0.0
 11
1100.023290603539
 21
1560.093561842788
 31
0.0
  0
LINE
  5
5A0
330
1F
100
AcDbEntity
  8
Cen
100
AcDbLine
 10
1328.72305709126
 20
1560.093561842788
 30
0.0
 11
1361.625617049653
 21
1560.093561842788
 31
0.0
  0
LINE
  5
5A1
330
1F
100
AcDbEntity
  8
Cen
100
AcDbLine
 10
1328.183669905979
 20
1560.093561842788
 30
0.0
 11
1413.703334997541
 21
1560.093561842788
 31
0.0
  0
MTEXT
  5
5A9
330
1F
100
AcDbEntity
  8
Cen
100
AcDbMText
 10
1527.939315450184
 20
552.4831097022406
 30
0.0
 40
25.0
 41
0.0
 71
     9
 72
     1
  1

 73
     1
 44
1.0
1001
ACAD
1000
MTEXTBEGIN
1070
    73
1070
     1
1070
    44
1040
1.0
1070
    74
1070
     0
1000
MTEXTEND
  0
LINE
  5
5D0
330
1F
100
AcDbEntity
  8
補助
100
AcDbLine
 10
2784.0
 20
69.0
 30
0.0
 11
2784.0
 21
134.0
 31
0.0
  0
TEXT
  5
5D2
330
1F
100
AcDbEntity
  8
0
100
AcDbText
 10
2420.0
 20
84.40000000000001
 30
0.0
 40
35.0
  1
1：10
  7
ms明朝
 72
     4
 11
2484.0
 21
101.5
 31
0.0
100
AcDbText
  0
TEXT
  5
5D8
330
1F
100
AcDbEntity
  8
0
100
AcDbText
 10
231.1659029702105
 20
53.51169987015055
 30
0.0
 40
25.0
  1
※実寸には製造上の誤差が多少生ずる場合があります。シンクの穴あけ加工は現物合わせにてお願いします。
  7
ms明朝
100
AcDbText
  0
TEXT
  5
5F4
330
1F
100
AcDbEntity
  8
補助
100
AcDbText
 10
2283.455774665347
 20
18.5
 30
0.0
 40
35.0
  1
中外交易株式会社
  7
ms明朝
 72
     4
 11
2488.255774665347
 21
36.5
 31
0.0
100
AcDbText
  0
LINE
  5
5F5
330
1F
100
AcDbEntity
  8
補助
100
AcDbLine
 10
2064.0
 20
69.0
 30
0.0
 11
2784.0
 21
69.0
 31
0.0
  0
HATCH
  5
5F6
330
1F
100
AcDbEntity
  8
補助
100
AcDbHatch
 10
0.0
 20
0.0
 30
0.0
210
0.0
220
0.0
230
1.0
  2
SOLID
 70
     1
 71
     1
 91
        3
 92
        1
 93
        4
 72
     2
 10
2257.166198313996
 20
36.5
 40
20.0
 50
11.6477236670766
 51
342.6561058784691
 73
     1
 72
     1
 10
2276.256852341323
 20
30.53787547858514
 11
2252.166198313995
 21
30.53787547858519
 72
     1
 10
2252.166198313995
 20
30.53787547858519
 11
2252.166198313995
 21
40.53787547858519
 72
     1
 10
2252.166198313995
 20
40.53787547858519
 11
2276.75434681301
 21
40.53787547858519
 97
        4
330
5F7
330
5F9
330
5FA
330
5FB
 92
        1
 93
        4
 72
     2
 10
2188.255774665348
 20
36.5
 40
20.0
 50
11.6477236670766
 51
342.6561058784691
 73
     1
 72
     1
 10
2207.346428692676
 20
30.53787547858514
 11
2183.255774665347
 21
30.53787547858519
 72
     1
 10
2183.255774665347
 20
30.53787547858519
 11
2183.255774665347
 21
40.53787547858519
 72
     1
 10
2183.255774665347
 20
40.53787547858519
 11
2207.843923164362
 21
40.53787547858519
 97
        4
330
5F8
330
601
330
602
330
603
 92
        1
 93
        5
 72
     1
 10
2245.64189404294
 20
56.5
 11
2210.641894042939
 21
56.5
 72
     1
 10
2210.641894042939
 20
56.5
 11
2210.641894042939
 21
16.5
 72
     1
 10
2210.641894042939
 20
16.5
 11
2245.64189404294
 21
16.5
 72
     1
 10
2245.64189404294
 20
16.5
 11
2210.641894042939
 21
36.5
 72
     1
 10
2210.641894042939
 20
36.5
 11
2245.64189404294
 21
56.5
 97
        5
330
5FC
330
600
330
5FF
330
5FE
330
5FD
 75
     0
 76
     1
 98
        1
 10
-60.0
 20
0.0
  0
ARC
  5
5F7
102
{ACAD_REACTORS
330
5F6
102
}
330
1F
100
AcDbEntity
  8
補助
370
     5
100
AcDbCircle
 10
2257.166198313996
 20
36.5
 30
0.0
 40
20.0
100
AcDbArc
 50
11.6477236670766
 51
342.6561058784691
  0
ARC
  5
5F8
102
{ACAD_REACTORS
330
5F6
102
}
330
1F
100
AcDbEntity
  8
補助
370
     5
100
AcDbCircle
 10
2188.255774665348
 20
36.5
 30
0.0
 40
20.0
100
AcDbArc
 50
11.6477236670766
 51
342.6561058784691
  0
LINE
  5
5F9
102
{ACAD_REACTORS
330
5F6
102
}
330
1F
100
AcDbEntity
  8
補助
370
     5
100
AcDbLine
 10
2252.166198313995
 20
30.53787547858519
 30
0.0
 11
2276.256852341323
 21
30.53787547858514
 31
0.0
  0
LINE
  5
5FA
102
{ACAD_REACTORS
330
5F6
102
}
330
1F
100
AcDbEntity
  8
補助
370
     5
100
AcDbLine
 10
2252.166198313995
 20
40.53787547858519
 30
0.0
 11
2252.166198313995
 21
30.53787547858519
 31
0.0
  0
LINE
  5
5FB
102
{ACAD_REACTORS
330
5F6
102
}
330
1F
100
AcDbEntity
  8
補助
370
     5
100
AcDbLine
 10
2276.75434681301
 20
40.53787547858519
 30
0.0
 11
2252.166198313995
 21
40.53787547858519
 31
0.0
  0
LINE
  5
5FC
102
{ACAD_REACTORS
330
5F6
102
}
330
1F
100
AcDbEntity
  8
補助
370
     5
100
AcDbLine
 10
2245.64189404294
 20
56.5
 30
0.0
 11
2210.641894042939
 21
56.5
 31
0.0
  0
LINE
  5
5FD
102
{ACAD_REACTORS
330
5F6
102
}
330
1F
100
AcDbEntity
  8
補助
370
     5
100
AcDbLine
 10
2210.641894042939
 20
36.5
 30
0.0
 11
2245.64189404294
 21
56.5
 31
0.0
  0
LINE
  5
5FE
102
{ACAD_REACTORS
330
5F6
102
}
330
1F
100
AcDbEntity
  8
補助
370
     5
100
AcDbLine
 10
2245.64189404294
 20
16.5
 30
0.0
 11
2210.641894042939
 21
36.5
 31
0.0
  0
LINE
  5
5FF
102
{ACAD_REACTORS
330
5F6
102
}
330
1F
100
AcDbEntity
  8
補助
370
     5
100
AcDbLine
 10
2210.641894042939
 20
16.5
 30
0.0
 11
2245.64189404294
 21
16.5
 31
0.0
  0
LINE
  5
600
102
{ACAD_REACTORS
330
5F6
102
}
330
1F
100
AcDbEntity
  8
補助
370
     5
100
AcDbLine
 10
2210.641894042939
 20
56.5
 30
0.0
 11
2210.641894042939
 21
16.5
 31
0.0
  0
LINE
  5
601
102
{ACAD_REACTORS
330
5F6
102
}
330
1F
100
AcDbEntity
  8
補助
370
     5
100
AcDbLine
 10
2183.255774665347
 20
30.53787547858519
 30
0.0
 11
2207.346428692676
 21
30.53787547858514
 31
0.0
  0
LINE
  5
602
102
{ACAD_REACTORS
330
5F6
102
}
330
1F
100
AcDbEntity
  8
補助
370
     5
100
AcDbLine
 10
2183.255774665347
 20
40.53787547858519
 30
0.0
 11
2183.255774665347
 21
30.53787547858519
 31
0.0
  0
LINE
  5
603
102
{ACAD_REACTORS
330
5F6
102
}
330
1F
100
AcDbEntity
  8
補助
370
     5
100
AcDbLine
 10
2207.843923164362
 20
40.53787547858519
 30
0.0
 11
2183.255774665347
 21
40.53787547858519
 31
0.0
  0
LINE
  5
A29
330
1F
100
AcDbEntity
  8
補助
100
AcDbLine
 10
2064.0
 20
4.0
 30
0.0
 11
2064.0
 21
199.0
 31
0.0
  0
TEXT
  5
A2C
330
1F
100
AcDbEntity
  8
補助
100
AcDbText
 10
2072.8
 20
149.4
 30
0.0
 40
35.0
  1
品番
  7
ms明朝
 72
     4
 11
2124.0
 21
166.5
 31
0.0
100
AcDbText
  0
TEXT
  5
A2D
330
1F
100
AcDbEntity
  8
補助
100
AcDbText
 10
2072.8
 20
82.59999999999999
 30
0.0
 40
35.0
  1
尺度
  7
ms明朝
 72
     4
 11
2124.0
 21
101.5
 31
0.0
100
AcDbText
  0
LINE
  5
C3A
330
1F
100
AcDbEntity
  8
0
100
AcDbLine
 10
1637.510719473206
 20
1605.093561842788
 30
0.0
 11
791.5107194732053
 21
1605.093561842789
 31
0.0
  0
LINE
  5
C3B
330
1F
100
AcDbEntity
  8
0
100
AcDbLine
 10
1644.510719473205
 20
1032.093561842788
 30
0.0
 11
1644.510719473206
 21
1598.093561842788
 31
0.0
  0
LINE
  5
C3C
330
1F
100
AcDbEntity
  8
0
100
AcDbLine
 10
791.5107194732054
 20
1025.093561842788
 30
0.0
 11
1637.510719473205
 21
1025.093561842788
 31
0.0
  0
LINE
  5
C3D
330
1F
100
AcDbEntity
  8
0
100
AcDbLine
 10
784.5107194732053
 20
1598.093561842789
 30
0.0
 11
784.5107194732054
 21
1032.093561842788
 31
0.0
  0
LINE
  5
C42
330
1F
100
AcDbEntity
  8
0
100
AcDbLine
 10
1637.510719473206
 20
1610.093561842788
 30
0.0
 11
791.5107194732052
 21
1610.093561842789
 31
0.0
  0
LINE
  5
C43
330
1F
100
AcDbEntity
  8
0
100
AcDbLine
 10
1649.510719473205
 20
1032.093561842788
 30
0.0
 11
1649.510719473206
 21
1598.093561842788
 31
0.0
  0
LINE
  5
C44
330
1F
100
AcDbEntity
  8
0
100
AcDbLine
 10
791.5107194732055
 20
1020.093561842788
 30
0.0
 11
1637.510719473205
 21
1020.093561842788
 31
0.0
  0
LINE
  5
C48
330
1F
100
AcDbEntity
  8
0
100
AcDbLine
 10
779.5107194732052
 20
1598.093561842789
 30
0.0
 11
779.5107194732055
 21
1032.093561842788
 31
0.0
  0
LINE
  5
D50
330
1F
100
AcDbEntity
  8
0
100
AcDbLine
 10
779.5107194732053
 20
637.52636671174
 30
0.0
 11
1649.510719473205
 21
637.5263667117397
 31
0.0
  0
LINE
  5
D55
330
1F
100
AcDbEntity
  8
実形
100
AcDbLine
 10
791.5107194732053
 20
637.52636671174
 30
0.0
 11
791.5107194732053
 21
627.5263667117396
 31
0.0
  0
LINE
  5
D56
330
1F
100
AcDbEntity
  8
実形
100
AcDbLine
 10
1637.510719473205
 20
637.5263667117397
 30
0.0
 11
1637.510719473205
 21
627.5263667117396
 31
0.0
  0
LINE
  5
D59
330
1F
100
AcDbEntity
  8
実形
100
AcDbLine
 10
784.5107194732053
 20
642.5263667117398
 30
0.0
 11
779.5107194732053
 21
637.52636671174
 31
0.0
  0
LINE
  5
D5A
330
1F
100
AcDbEntity
  8
実形
100
AcDbLine
 10
794.5107194732053
 20
637.52636671174
 30
0.0
 11
794.5107194732053
 21
627.5263667117396
 31
0.0
  0
LINE
  5
D5B
330
1F
100
AcDbEntity
  8
実形
100
AcDbLine
 10
794.5107194732053
 20
627.5263667117396
 30
0.0
 11
814.5107194732059
 21
627.5263667117398
 31
0.0
  0
LINE
  5
D5C
330
1F
100
AcDbEntity
  8
実形
100
AcDbLine
 10
1644.510719473205
 20
642.5263667117397
 30
0.0
 11
1649.510719473205
 21
637.5263667117397
 31
0.0
  0
LINE
  5
D5D
330
1F
100
AcDbEntity
  8
実形
100
AcDbLine
 10
1634.510719473205
 20
637.5263667117397
 30
0.0
 11
1634.510719473205
 21
627.5263667117396
 31
0.0
  0
LINE
  5
D5E
330
1F
100
AcDbEntity
  8
実形
100
AcDbLine
 10
1634.510719473205
 20
627.5263667117396
 30
0.0
 11
1614.510719473205
 21
627.5263667117396
 31
0.0
  0
LINE
  5
D67
330
1F
100
AcDbEntity
  8
0
100
AcDbLine
 10
1968.967865434157
 20
1610.093561842788
 30
0.0
 11
1968.967865434157
 21
1020.093561842788
 31
0.0
  0
LINE
  5
D6E
330
1F
100
AcDbEntity
  8
実形
100
AcDbLine
 10
1968.967865434157
 20
1598.093561842788
 30
0.0
 11
1978.967865434157
 21
1598.093561842788
 31
0.0
  0
LINE
  5
D6F
330
1F
100
AcDbEntity
  8
実形
100
AcDbLine
 10
1968.967865434157
 20
1595.093561842788
 30
0.0
 11
1978.967865434157
 21
1595.093561842788
 31
0.0
  0
LINE
  5
D70
330
1F
100
AcDbEntity
  8
実形
100
AcDbLine
 10
1978.967865434157
 20
1595.093561842788
 30
0.0
 11
1978.967865434157
 21
1575.093561842789
 31
0.0
  0
LINE
  5
D72
330
1F
100
AcDbEntity
  8
実形
100
AcDbLine
 10
1968.967865434157
 20
1032.093561842788
 30
0.0
 11
1978.967865434156
 21
1032.093561842788
 31
0.0
  0
LINE
  5
D73
330
1F
100
AcDbEntity
  8
実形
100
AcDbLine
 10
1968.967865434157
 20
1035.093561842788
 30
0.0
 11
1978.967865434156
 21
1035.093561842788
 31
0.0
  0
LINE
  5
D74
330
1F
100
AcDbEntity
  8
実形
100
AcDbLine
 10
1978.967865434156
 20
1035.093561842788
 30
0.0
 11
1978.967865434156
 21
1070.093561842788
 31
0.0
  0
TEXT
  5
DC1
330
1F
100
AcDbEntity
  8
0
100
AcDbText
 10
2005.650962839028
 20
1126.664831604261
 30
0.0
 40
25.0
  1
30R
100
AcDbText
  0
LEADER
  5
DC2
330
1F
100
AcDbEntity
  8
Cen
100
AcDbLeader
  3
ISO-25
 40
25.0
 41
16.66666666666666
 76
     2
 10
2125.958070520015
 20
1094.74474552753
 30
0.0
 10
2076.843105795481
 20
1130.616826823538
 30
0.0
213
0.0
223
12.5
233
0.0
1001
ACAD
1000
DSTYLE
1002
{
1070
   147
1040
6.25
1070
    77
1070
     0
1070
   279
1070
     1
1002
}
  0
ARC
  5
DEA
330
1F
100
AcDbEntity
  8
0
100
AcDbCircle
 10
791.5107194732052
 20
1598.093561842789
 30
0.0
 40
12.0
100
AcDbArc
 50
89.99999999999998
 51
180.0
  0
ARC
  5
DEC
330
1F
100
AcDbEntity
  8
0
100
AcDbCircle
 10
1637.510719473206
 20
1598.093561842788
 30
0.0
 40
12.0
100
AcDbArc
 50
360.0
 51
89.99999999999998
  0
ARC
  5
DED
330
1F
100
AcDbEntity
  8
0
100
AcDbCircle
 10
1637.510719473205
 20
1032.093561842788
 30
0.0
 40
12.0
100
AcDbArc
 50
270.0
 51
360.0
  0
ARC
  5
DEE
330
1F
100
AcDbEntity
  8
0
100
AcDbCircle
 10
791.5107194732055
 20
1032.093561842788
 30
0.0
 40
12.0
100
AcDbArc
 50
180.0
 51
270.0
  0
ARC
  5
DEF
330
1F
100
AcDbEntity
  8
0
100
AcDbCircle
 10
791.5107194732053
 20
1598.093561842789
 30
0.0
 40
7.0
100
AcDbArc
 50
89.99999999999998
 51
180.0
  0
ARC
  5
DF0
330
1F
100
AcDbEntity
  8
0
100
AcDbCircle
 10
791.5107194732054
 20
1032.093561842788
 30
0.0
 40
7.0
100
AcDbArc
 50
180.0
 51
270.0
  0
ARC
  5
DF1
330
1F
100
AcDbEntity
  8
0
100
AcDbCircle
 10
1637.510719473205
 20
1032.093561842788
 30
0.0
 40
7.0
100
AcDbArc
 50
270.0
 51
360.0
  0
ARC
  5
DF2
330
1F
100
AcDbEntity
  8
0
100
AcDbCircle
 10
1637.510719473206
 20
1598.093561842788
 30
0.0
 40
7.0
100
AcDbArc
 50
360.0
 51
89.99999999999998
  0
DIMENSION
  5
DFA
330
1F
100
AcDbEntity
  8
実形
100
AcDbDimension
  2
*D18
 10
779.5107194732053
 20
916.1857900480718
 30
0.0
 11
843.3352548357269
 21
935.3717174741568
 31
0.0
 70
   160
 71
     5
 42
35.0
  3
ISO-25
100
AcDbAlignedDimension
 13
814.5107194732053
 23
1020.093561842788
 33
0.0
 14
779.5107194732053
 24
1020.093561842788
 34
0.0
100
AcDbRotatedDimension
1001
ACAD
1000
DSTYLE
1002
{
1070
   279
1070
     2
1002
}
  0
LINE
  5
F95
330
1F
100
AcDbEntity
  8
補助
100
AcDbLine
 10
1894.0
 20
2024.0
 30
0.0
 11
2784.0
 21
2024.0
 31
0.0
  0
LINE
  5
FA5
330
1F
100
AcDbEntity
  8
補助
100
AcDbLine
 10
2784.0
 20
2024.0
 30
0.0
 11
2784.000000000001
 21
1829.0
 31
0.0
  0
LINE
  5
FA6
330
1F
100
AcDbEntity
  8
補助
100
AcDbLine
 10
2784.0
 20
1829.0
 30
0.0
 11
2784.0
 21
2024.0
 31
0.0
  0
CIRCLE
  5
FF4
330
1F
100
AcDbEntity
  8
0
 62
     0
100
AcDbCircle
 10
1213.638541562009
 20
1405.324125419352
 30
0.0
 40
110.5
  0
LINE
  5
FF7
330
1F
100
AcDbEntity
  8
実形
 62
     0
100
AcDbLine
 10
1310.339089568823
 20
1308.298075063726
 30
0.0
 11
1534.961832270685
 21
1442.96398795453
 31
0.0
  0
ARC
  5
FF8
330
1F
100
AcDbEntity
  8
実形
 62
     0
100
AcDbCircle
 10
1213.638541562009
 20
1500.324125419353
 30
0.0
 40
215.0
100
AcDbArc
 50
270.0
 51
296.7511366344171
  0
ARC
  5
FF9
330
1F
100
AcDbEntity
  8
実形
 62
     0
100
AcDbCircle
 10
1213.638541562009
 20
1500.324125419353
 30
0.0
 40
210.0
100
AcDbArc
 50
270.0
 51
296.5613888603723
  0
LINE
  5
FFA
330
1F
100
AcDbEntity
  8
実形
 62
     0
100
AcDbLine
 10
1307.541390446847
 20
1312.488412703929
 30
0.0
 11
1534.961832270685
 21
1442.96398795453
 31
0.0
  0
LINE
  5
FFB
330
1F
100
AcDbEntity
  8
実形
 62
     0
100
AcDbLine
 10
1118.797171690494
 20
1306.479980457067
 30
0.0
 11
891.6586630790433
 21
1436.857825735267
 31
0.0
  0
ARC
  5
FFC
330
1F
100
AcDbEntity
  8
実形
 62
     0
100
AcDbCircle
 10
1211.835245138278
 20
1500.307008730022
 30
0.0
 40
215.0
100
AcDbArc
 50
244.3365210504777
 51
271.0876576848958
  0
ARC
  5
FFD
330
1F
100
AcDbEntity
  8
実形
 62
     0
100
AcDbCircle
 10
1211.835245138278
 20
1500.307008730022
 30
0.0
 40
210.0
100
AcDbArc
 50
244.5262688245306
 51
271.0876576848958
  0
LINE
  5
FFE
330
1F
100
AcDbEntity
  8
実形
 62
     0
100
AcDbLine
 10
1121.514825462707
 20
1310.722669214257
 30
0.0
 11
891.6586630790433
 21
1436.857825735267
 31
0.0
  0
LINE
  5
FFF
330
1F
100
AcDbEntity
  8
実形
  6
ACAD_ISO08W100
 48
0.8
100
AcDbLine
 10
1213.638541562009
 20
1285.324125419353
 30
0.0
 11
926.8832611984789
 21
1285.324125419353
 31
0.0
  0
DIMENSION
  5
1000
330
1F
100
AcDbEntity
  8
実形
100
AcDbDimension
  2
*D19
 10
891.6586630790433
 20
1436.857825735267
 30
0.0
 11
1014.219972492695
 21
1323.030674786318
 31
0.0
 70
    34
 71
     5
 42
0.5210835588631266
  3
ISO-25
100
AcDb2LineAngularDimension
 13
1213.638541562009
 23
1285.324125419353
 33
0.0
 14
926.8832611984789
 24
1285.324125419353
 34
0.0
 15
1118.797171690494
 25
1306.479980457067
 35
0.0
 16
1035.65357703009
 26
1328.772959492031
 36
0.0
1001
ACAD
1000
DSTYLE
1002
{
1070
   279
1070
     1
1002
}
  0
LINE
  5
128A
330
1F
100
AcDbEntity
  8
0
100
AcDbLine
 10
814.2557316368312
 20
627.5263667117398
 30
0.0
 11
814.2557316368312
 21
504.7225063820177
 31
0.0
  0
ARC
  5
128B
330
1F
100
AcDbEntity
  8
実形
100
AcDbCircle
 10
844.2557316368313
 20
504.7225063820177
 30
0.0
 40
30.0
100
AcDbArc
 50
180.0
 51
265.9211892046465
  0
LINE
  5
128F
330
1F
100
AcDbEntity
  8
0
100
AcDbLine
 10
1123.755731636831
 20
454.7154124316121
 30
0.0
 11
1304.755731636831
 21
454.715412431612
 31
0.0
  0
DIMENSION
  5
1290
330
1F
100
AcDbEntity
  8
0
100
AcDbDimension
  2
*D41
 10
1134.755731636831
 20
325.320937733597
 30
0.0
 11
1214.255731636831
 21
344.070937733597
 31
0.0
 70
    32
  1
158
 71
     5
 42
159.0000000000002
  3
ISO-25
100
AcDbAlignedDimension
 13
1293.755731636831
 23
446.7154124316121
 33
0.0
 14
1134.755731636831
 24
446.7154124316122
 34
0.0
100
AcDbRotatedDimension
  0
DIMENSION
  5
1291
330
1F
100
AcDbEntity
  8
0
100
AcDbDimension
  2
*D42
 10
1123.755731636831
 20
556.8684369695838
 30
0.0
 11
1214.255731636831
 21
575.6184369695838
 31
0.0
 70
    32
 71
     5
 42
181.0
  3
ISO-25
100
AcDbAlignedDimension
 13
1304.755731636831
 23
454.715412431612
 33
0.0
 14
1123.755731636831
 24
454.7154124316121
 34
0.0
100
AcDbRotatedDimension
  0
LINE
  5
1292
330
1F
100
AcDbEntity
  8
Cen
100
AcDbLine
 10
1214.255731636831
 20
538.0210043868474
 30
0.0
 11
1214.255731636831
 21
422.4608704864876
 31
0.0
  0
LEADER
  5
1293
330
1F
100
AcDbEntity
  8
Cen
100
AcDbLeader
  3
ISO-25
 40
25.0
 41
16.66666666666666
 76
     2
 10
1594.836055510286
 20
487.6549558780857
 30
0.0
 10
1545.721090785751
 20
523.5270371740934
 30
0.0
213
0.0
223
12.5
233
0.0
1001
ACAD
1000
DSTYLE
1002
{
1070
   147
1040
6.25
1070
    77
1070
     0
1070
   279
1070
     1
1002
}
  0
TEXT
  5
1294
330
1F
100
AcDbEntity
  8
0
100
AcDbText
 10
1474.528947829298
 20
519.5750419548167
 30
0.0
 40
25.0
  1
30R
100
AcDbText
  0
LINE
  5
1296
330
1F
100
AcDbEntity
  8
0
100
AcDbLine
 10
1614.255731636831
 20
627.5263667117398
 30
0.0
 11
1614.255731636831
 21
504.7225063820177
 31
0.0
  0
ARC
  5
1297
330
1F
100
AcDbEntity
  8
実形
100
AcDbCircle
 10
1584.255731636831
 20
504.7225063820177
 30
0.0
 40
30.0
100
AcDbArc
 50
274.0788107953535
 51
0.0
  0
LINE
  5
1298
330
1F
100
AcDbEntity
  8
実形
100
AcDbLine
 10
1304.755731636831
 20
454.7154124316121
 30
0.0
 11
1586.389588572373
 21
474.7984917018544
 31
0.0
  0
DIMENSION
  5
1299
330
1F
100
AcDbEntity
  8
実形
100
AcDbDimension
  2
*D43
 10
1324.755731636831
 20
556.7661274649686
 30
0.0
 11
1112.194785206763
 21
557.4595547712829
 31
0.0
 70
   160
  1
20
 71
     5
 42
221.0
  3
ISO-25
100
AcDbAlignedDimension
 13
1103.755731636831
 23
453.9047900985837
 33
0.0
 14
1324.755731636831
 24
454.5594726162448
 34
0.0
100
AcDbRotatedDimension
1001
ACAD
1000
DSTYLE
1002
{
1070
   279
1070
     1
1002
}
  0
LEADER
  5
129A
330
1F
100
AcDbEntity
  8
0
 62
     0
100
AcDbLeader
  3
ISO-25
 40
25.0
 41
16.66666666666666
 76
     2
 10
929.3164972978892
 20
473.0572612286823
 30
0.0
 10
986.5616430187392
 20
521.1052079140972
 30
0.0
213
0.0
223
-12.5
233
0.0
1001
ACAD
1000
DSTYLE
1002
{
1070
   147
1040
6.25
1070
    77
1070
     0
1070
    73
1070
     1
1070
    74
1070
     1
1070
   279
1070
     1
1070
   342
1005
DA
1002
}
  0
TEXT
  5
129B
330
1F
100
AcDbEntity
  8
0
 62
     0
100
AcDbText
 10
938.2608236700189
 20
528.2491469077166
 30
0.0
 40
25.0
  1
4500R
 11
938.2608236700189
 21
524.9158135743832
 31
0.0
100
AcDbText
 73
     1
  0
LINE
  5
12A0
330
1F
100
AcDbEntity
  8
実形
100
AcDbLine
 10
1123.755731636831
 20
454.7154124316121
 30
0.0
 11
842.1218747012884
 21
474.7984917018544
 31
0.0
  0
LINE
  5
13A1
330
1F
100
AcDbEntity
  8
実形
100
AcDbLine
 10
1963.967865434157
 20
1605.093561842788
 30
0.0
 11
1968.967865434157
 21
1610.093561842788
 31
0.0
  0
LINE
  5
13A6
330
1F
100
AcDbEntity
  8
実形
100
AcDbLine
 10
1963.967865434156
 20
1025.093561842788
 30
0.0
 11
1968.967865434157
 21
1020.093561842788
 31
0.0
  0
LINE
  5
13B8
330
1F
100
AcDbEntity
  8
実形
100
AcDbLine
 10
2153.967865434157
 20
1314.593561842793
 30
0.0
 11
2136.221786196989
 21
1097.647743168414
 31
0.0
  0
LINE
  5
13B9
330
1F
100
AcDbEntity
  8
実形
100
AcDbLine
 10
2153.967865434157
 20
1495.593561842788
 30
0.0
 11
2139.673748602927
 21
1552.412676246927
 31
0.0
  0
ARC
  5
13BA
330
1F
100
AcDbEntity
  8
実形
100
AcDbCircle
 10
2110.580268846474
 20
1545.093561842788
 30
0.0
 40
30.0
100
AcDbArc
 50
14.12100047638781
 51
90.0000000000001
  0
ARC
  5
13BB
330
1F
100
AcDbEntity
  8
実形
100
AcDbCircle
 10
2106.32165290277
 20
1100.093561842788
 30
0.0
 40
30.0
100
AcDbArc
 50
270.0
 51
355.3236402349227
  0
TEXT
  5
13EA
330
1F
100
AcDbEntity
  8
0
100
AcDbText
 10
1295.883534534284
 20
563.0775078808347
 30
0.0
 40
25.0
  1
20
100
AcDbText
  0
DIMENSION
  5
1441
330
1F
100
AcDbEntity
  8
実形
100
AcDbDimension
  2
*D44
 10
683.3900520167825
 20
627.52636671174
 30
0.0
 11
668.242575605669
 21
675.8928637825412
 31
0.0
 70
   160
 71
     5
 42
15.0
  3
ISO-25
100
AcDbAlignedDimension
 13
801.5107194732054
 23
642.5263667117398
 33
0.0
 14
801.5107194732058
 24
627.5263667117399
 34
0.0
 50
90.0
100
AcDbRotatedDimension
1001
ACAD
1000
DSTYLE
1002
{
1070
   279
1070
     1
1002
}
  0
DIMENSION
  5
1442
330
1F
100
AcDbEntity
  8
実形
100
AcDbDimension
  2
*D45
 10
683.3900520167825
 20
452.5263667117399
 30
0.0
 11
668.6582688333873
 21
481.6497100006101
 31
0.0
 70
   160
 71
     5
 42
19.99999999999994
  3
ISO-25
100
AcDbAlignedDimension
 13
800.6928105560035
 23
472.5263667117399
 33
0.0
 14
800.6928105560035
 24
452.5263667117399
 34
0.0
 50
90.0
100
AcDbRotatedDimension
1001
ACAD
1000
DSTYLE
1002
{
1070
   279
1070
     1
1002
}
  0
DIMENSION
  5
1443
330
1F
100
AcDbEntity
  8
実形
100
AcDbDimension
  2
*D46
 10
683.3900520167825
 20
472.5263667117399
 30
0.0
 11
672.3366128187371
 21
434.3214551270822
 31
0.0
 70
   160
  1
7
 71
     5
 42
30.0
  3
ISO-25
100
AcDbAlignedDimension
 13
801.0922363068782
 23
442.5263667117398
 33
0.0
 14
772.3093081869154
 24
472.5263667117399
 34
0.0
 50
90.0
100
AcDbRotatedDimension
1001
ACAD
1000
DSTYLE
1002
{
1070
   279
1070
     1
1002
}
  0
DIMENSION
  5
1444
330
1F
100
AcDbEntity
  8
実形
100
AcDbDimension
  2
*D47
 10
596.8491535785959
 20
452.52636671174
 30
0.0
 11
578.0991535785958
 21
547.5263667117401
 31
0.0
 70
    32
 71
     5
 42
189.9999999999998
  3
ISO-25
100
AcDbAlignedDimension
 13
766.134586144344
 23
642.5263667117398
 33
0.0
 14
766.134586144344
 24
452.5263667117399
 34
0.0
 50
90.0
100
AcDbRotatedDimension
1001
ACAD
1000
DSTYLE
1002
{
1070
   279
1070
     1
1002
}
  0
LINE
  5
14A2
330
1F
100
AcDbEntity
  8
0
100
AcDbLine
 10
1123.755731636831
 20
444.7154124316122
 30
0.0
 11
1304.755731636831
 21
444.7154124316121
 31
0.0
  0
LINE
  5
14A3
330
1F
100
AcDbEntity
  8
実形
100
AcDbLine
 10
1123.755731636831
 20
454.7154124316121
 30
0.0
 11
1123.755731636831
 21
444.7154124316122
 31
0.0
  0
LINE
  5
14A4
330
1F
100
AcDbEntity
  8
実形
100
AcDbLine
 10
1304.755731636831
 20
454.7154124316121
 30
0.0
 11
1304.755731636831
 21
444.715412431612
 31
0.0
  0
LINE
  5
14E9
330
1F
100
AcDbEntity
  8
補助
 62
     0
100
AcDbLine
 10
2784.0
 20
1959.000000000001
 30
0.0
 11
2019.387286519283
 21
1959.000000000002
 31
0.0
  0
LINE
  5
14EA
330
1F
100
AcDbEntity
  8
補助
 62
     0
100
AcDbLine
 10
2784.0
 20
1894.000000000001
 30
0.0
 11
2019.387286519283
 21
1894.000000000001
 31
0.0
  0
LINE
  5
14EB
330
1F
100
AcDbEntity
  8
補助
 62
     0
100
AcDbLine
 10
2784.0
 20
1829.000000000001
 30
0.0
 11
2019.387286519283
 21
1829.000000000001
 31
0.0
  0
LINE
  5
14EC
330
1F
100
AcDbEntity
  8
補助
 62
     0
100
AcDbLine
 10
2202.547653420927
 20
1829.000000000002
 30
0.0
 11
2202.547653420927
 21
2024.000000000002
 31
0.0
  0
LINE
  5
14ED
330
1F
100
AcDbEntity
  8
補助
 62
     0
100
AcDbLine
 10
2019.387286519283
 20
1829.000000000002
 30
0.0
 11
2019.387286519283
 21
2024.000000000002
 31
0.0
  0
TEXT
  5
14EE
330
1F
100
AcDbEntity
  8
補助
 62
     0
100
AcDbText
 10
2050.295698850121
 20
1976.328571428573
 30
0.0
 40
30.0
  1
部品名
  7
明朝
 72
     4
 11
2116.124270278692
 21
1991.500000000002
 31
0.0
100
AcDbText
  0
TEXT
  5
14EF
330
1F
100
AcDbEntity
  8
補助
 62
     0
100
AcDbText
 10
2627.614285714286
 20
1976.07142857143
 30
0.0
 40
30.0
  1
厚さ
  7
明朝
 72
     4
 11
2671.5
 21
1991.500000000002
 31
0.0
100
AcDbText
  0
LINE
  5
14F0
330
1F
100
AcDbEntity
  8
補助
 62
     0
100
AcDbLine
 10
2559.000000000001
 20
1829.000000000002
 30
0.0
 11
2559.0
 21
2024.000000000002
 31
0.0
  0
TEXT
  5
14F1
330
1F
100
AcDbEntity
  8
補助
 62
     0
100
AcDbText
 10
2338.490869919937
 20
1975.947979478156
 30
0.0
 40
30.0
  1
材質
  7
明朝
 72
     4
 11
2382.376584205651
 21
1991.119408049584
 31
0.0
100
AcDbText
  0
TEXT
  5
14F2
330
1F
100
AcDbEntity
  8
実形
 62
     0
100
AcDbText
 10
2048.227810657788
 20
1910.557142857144
 30
0.0
 40
30.0
  1
ボウル
  7
明朝
 72
     4
 11
2114.056382086359
 21
1926.500000000001
 31
0.0
100
AcDbText
  0
TEXT
  5
14F3
330
1F
100
AcDbEntity
  8
実形
 62
     0
100
AcDbText
 10
2594.700000000001
 20
1911.842857142858
 30
0.0
 40
30.0
  1
0.7ｍｍ
  7
明朝
 72
     4
 11
2671.500000000001
 21
1926.500000000001
 31
0.0
100
AcDbText
  0
TEXT
  5
14F4
330
1F
100
AcDbEntity
  8
実形
 62
     0
100
AcDbText
 10
2261.900666790539
 20
1910.728571428572
 30
0.0
 40
30.0
  1
SUS304（BA)
  7
明朝
 72
     4
 11
2382.586381076253
 21
1926.500000000001
 31
0.0
100
AcDbText
  0
TEXT
  5
14F5
330
1F
100
AcDbEntity
  8
実形
 62
     0
100
AcDbText
 10
2070.170667800645
 20
1846.242857142858
 30
0.0
 40
30.0
  1
天板
  7
明朝
 72
     4
 11
2114.056382086359
 21
1861.500000000001
 31
0.0
100
AcDbText
  0
TEXT
  5
14F6
330
1F
100
AcDbEntity
  8
実形
 62
     0
100
AcDbText
 10
2594.700000000001
 20
1846.842857142858
 30
0.0
 40
30.0
  1
0.8ｍｍ
  7
明朝
 72
     4
 11
2671.500000000001
 21
1861.500000000001
 31
0.0
100
AcDbText
  0
TEXT
  5
14F7
330
1F
100
AcDbEntity
  8
実形
 62
     0
100
AcDbText
 10
2218.959726250723
 20
1848.357142857144
 30
0.0
 40
25.0
  1
SUS304（市松ｴﾝﾎﾞｽ）
  7
明朝
 72
     4
 11
2392.674011965008
 21
1861.500000000001
 31
0.0
100
AcDbText
  0
LINE
  5
14F8
330
1F
100
AcDbEntity
  8
補助
100
AcDbLine
 10
109.0
 20
4.0
 30
0.0
 11
109.0
 21
2024.0
 31
0.0
  0
VIEWPORT
  5
2E
102
{ACAD_XDICTIONARY
360
1533
102
}
330
1B
100
AcDbEntity
 67
     1
  8
0
100
AcDbViewport
 10
144.7270812988281
 20
101.2295806407928
 30
0.0
 40
411.6736216682419
 41
222.1517806396485
 68
     1
 69
     1
 12
144.7270812988281
 22
101.2295806407928
 13
0.0
 23
0.0
 14
10.0
 24
10.0
 15
10.0
 25
10.0
 16
0.0
 26
0.0
 36
1.0
 17
0.0
 27
0.0
 37
0.0
 42
50.0
 43
0.0
 44
0.0
 45
222.1517806396485
 50
0.0
 51
0.0
 72
   100
 90
    32800
  1

281
     0
 71
     1
 74
     0
110
0.0
120
0.0
130
0.0
111
1.0
121
0.0
131
0.0
112
0.0
122
1.0
132
0.0
 79
     0
146
0.0
  0
VIEWPORT
  5
30
102
{ACAD_XDICTIONARY
360
1535
102
}
330
1B
100
AcDbEntity
 67
     1
  8
0
100
AcDbViewport
 10
139.2237563133239
 20
101.2295821905136
 30
0.0
 40
222.7580101013184
 41
161.9673315048218
 68
     2
 69
     2
 12
210.0
 22
148.5
 13
0.0
 23
0.0
 14
10.0
 24
10.0
 15
10.0
 25
10.0
 16
0.0
 26
0.0
 36
1.0
 17
0.0
 27
0.0
 37
0.0
 42
50.0
 43
0.0
 44
0.0
 45
309.0686705647124
 50
0.0
 51
0.0
 72
   100
 90
    32864
  1

281
     0
 71
     1
 74
     0
110
0.0
120
0.0
130
0.0
111
1.0
121
0.0
131
0.0
112
0.0
122
1.0
132
0.0
 79
     0
146
0.0
  0
ENDSEC
  0
SECTION
  2
OBJECTS
  0
DICTIONARY
  5
C
330
0
100
AcDbDictionary
281
     1
  3
ACAD_COLOR
350
FB7
  3
ACAD_GROUP
350
D
  3
ACAD_LAYOUT
350
1A
  3
ACAD_MATERIAL
350
FB6
  3
ACAD_MLINESTYLE
350
17
  3
ACAD_PLOTSETTINGS
350
19
  3
ACAD_PLOTSTYLENAME
350
E
  3
ACAD_TABLESTYLE
350
FB8
  3
AcadDim
350
5B1
  3
ACDBHEADERROUNDTRIPXREC
350
152C
  3
AcDbVariableDictionary
350
96D
  0
DICTIONARY
  5
FDE
330
2
100
AcDbDictionary
280
     1
281
     1
  3
ACAD_LAYERFILTERS
360
14D2
  3
ACAD_LAYERSTATES
360
FDF
  3
ACLYDICTIONARY
360
14D1
  0
DICTIONARY
  5
13B6
330
1F
100
AcDbDictionary
280
     1
281
     1
  3
ACAD_SORTENTS
360
13B7
  0
DICTIONARY
  5
115C
330
114A
100
AcDbDictionary
280
     1
281
     1
  3
ACAD_SORTENTS
360
115D
  0
DICTIONARY
  5
11BD
330
11A8
100
AcDbDictionary
280
     1
281
     1
  3
ACAD_SORTENTS
360
11BE
  0
DICTIONARY
  5
1220
330
1209
100
AcDbDictionary
280
     1
281
     1
  3
ACAD_SORTENTS
360
1221
  0
DICTIONARY
  5
1533
330
2E
100
AcDbDictionary
280
     1
281
     1
  3
ACAD_XREC_ROUNDTRIP
360
1534
  0
DICTIONARY
  5
1535
330
30
100
AcDbDictionary
280
     1
281
     1
  3
ACAD_XREC_ROUNDTRIP
360
1536
  0
DICTIONARY
  5
FB7
102
{ACAD_REACTORS
330
C
102
}
330
C
100
AcDbDictionary
281
     1
  0
DICTIONARY
  5
D
102
{ACAD_REACTORS
330
C
102
}
330
C
100
AcDbDictionary
281
     1
  0
DICTIONARY
  5
1A
102
{ACAD_REACTORS
330
C
102
}
330
C
100
AcDbDictionary
281
     1
  3
Model
350
22
  3
ﾚｲｱｳﾄ1
350
1E
  3
ﾚｲｱｳﾄ2
350
26
  0
DICTIONARY
  5
FB6
102
{ACAD_REACTORS
330
C
102
}
330
C
100
AcDbDictionary
281
     1
  0
DICTIONARY
  5
17
102
{ACAD_REACTORS
330
C
102
}
330
C
100
AcDbDictionary
281
     1
  3
Standard
350
18
  0
DICTIONARY
  5
19
102
{ACAD_REACTORS
330
C
102
}
330
C
100
AcDbDictionary
281
     1
  0
ACDBDICTIONARYWDFLT
  5
E
102
{ACAD_REACTORS
330
C
102
}
330
C
100
AcDbDictionary
281
     1
  3
Normal
350
F
100
AcDbDictionaryWithDefault
340
F
  0
DICTIONARY
  5
FB8
102
{ACAD_REACTORS
330
C
102
}
330
C
100
AcDbDictionary
281
     1
  3
Standard
350
FB9
  0
XRECORD
  5
5B1
102
{ACAD_REACTORS
330
C
102
}
330
C
100
AcDbXrecord
280
     1
 90
   990106
  3

 60
     0
 61
     0
 62
     1
 63
     3
 64
     0
 65
     0
 66
     0
 67
     3
 68
     1
 69
     0
 70
     0
 71
     0
 72
     0
 40
5.637859010809637
170
     0
340
0
  0
DICTIONARY
  5
152C
102
{ACAD_REACTORS
330
C
102
}
330
C
100
AcDbDictionary
281
     1
  0
DICTIONARY
  5
96D
102
{ACAD_REACTORS
330
C
102
}
330
C
100
AcDbDictionary
281
     1
  3
CTABLESTYLE
350
FC7
  3
DIMASSOC
350
1529
  3
PROJECTNAME
350
152A
  3
SORTENTS
350
96E
  0
DICTIONARY
  5
14D2
102
{ACAD_REACTORS
330
FDE
102
}
330
FDE
100
AcDbDictionary
281
     1
  0
DICTIONARY
  5
FDF
102
{ACAD_REACTORS
330
FDE
102
}
330
FDE
100
AcDbDictionary
281
     1
  0
DICTIONARY
  5
14D1
102
{ACAD_REACTORS
330
FDE
102
}
330
FDE
100
AcDbDictionary
281
     1
1001
ACAD
1000
<All
  0
SORTENTSTABLE
  5
13B7
102
{ACAD_REACTORS
330
13B6
102
}
330
13B6
100
AcDbSortentsTable
330
1F
331
53C
  5
540
331
495
  5
49A
331
33F
  5
340
331
49D
  5
4A4
331
262
  5
267
331
54C
  5
55A
331
4A5
  5
4AE
331
55C
  5
560
331
3DE
  5
3DF
331
14EA
  5
14EB
331
14F2
  5
14F3
331
1290
  5
1293
331
5F8
  5
5FB
331
600
  5
603
331
DEE
  5
DF1
331
FFA
  5
FFD
331
AB
  5
AD
331
56C
  5
5A0
331
1298
  5
129B
331
12A0
  5
13B4
331
14A3
  5
14A4
331
D67
  5
D70
331
D6F
  5
D73
331
53D
  5
54B
331
496
  5
49D
331
3BF
  5
3DD
331
340
  5
341
331
49E
  5
4A5
331
370
  5
371
331
26B
  5
270
331
9C
  5
9C
331
55D
  5
562
331
3DF
  5
3E0
331
14EB
  5
14EC
331
14F3
  5
14F4
331
1291
  5
1294
331
C48
  5
D56
331
5F9
  5
5FC
331
601
  5
A29
331
DEF
  5
DF2
331
FFB
  5
FFE
331
4AE
  5
532
331
407
  5
40D
331
28B
  5
298
331
48F
  5
492
331
1299
  5
129C
331
14A4
  5
14E9
331
13B8
  5
13BB
331
D50
  5
D59
331
A29
  5
C3A
331
5D2
  5
5F5
331
339
  5
33A
331
341
  5
370
331
371
  5
376
331
2B3
  5
2DC
331
54E
  5
55C
331
A5
  5
A5
331
128A
  5
128D
331
14EC
  5
14ED
331
1292
  5
1295
331
14F4
  5
14F5
331
D70
  5
D74
331
5FA
  5
5FD
331
602
  5
A2C
331
DF0
  5
DFA
331
FF4
  5
FF9
331
FFC
  5
FFF
331
3E0
  5
407
331
AD
  5
25F
331
566
  5
56C
331
50F
  5
533
331
32A
  5
32B
331
586
  5
5A1
331
537
  5
53D
331
129A
  5
129F
331
13A1
  5
13B5
331
13B9
  5
13EA
331
F95
  5
FF4
331
D59
  5
D5C
331
C3A
  5
C3D
331
FA5
  5
FF7
331
C42
  5
C48
331
33A
  5
33C
331
53F
  5
54C
331
55F
  5
566
331
1441
  5
1442
331
128B
  5
1291
331
14ED
  5
14EE
331
1293
  5
1296
331
14F5
  5
14F6
331
5FB
  5
5FE
331
DC1
  5
DEC
331
603
  5
A2D
331
DF1
  5
F95
331
FFD
  5
1000
331
2DC
  5
2F7
331
32B
  5
32C
331
39A
  5
39B
331
129B
  5
1322
331
13BA
  5
495
331
D5A
  5
D5D
331
C3B
  5
C42
331
FA6
  5
FF8
331
C43
  5
D50
331
5F4
  5
5F7
331
59F
  5
5A9
331
540
  5
54E
331
304
  5
31C
331
558
  5
55D
331
13EA
  5
1441
331
1442
  5
1443
331
14EE
  5
14EF
331
1294
  5
1298
331
14F6
  5
14F7
331
D72
  5
DC1
331
5FC
  5
5FF
331
DC2
  5
DED
331
DEA
  5
DEE
331
DF2
  5
F96
331
FFE
  5
128A
331
560
  5
568
331
31C
  5
32A
331
568
  5
586
331
27E
  5
28B
331
511
  5
537
331
32C
  5
32D
331
39B
  5
3BF
331
334
  5
335
331
13BB
  5
49B
331
DFA
  5
F97
331
D5B
  5
D5E
331
A2C
  5
C3B
331
C3C
  5
C43
331
C44
  5
D55
331
5F5
  5
5F8
331
492
  5
493
331
33C
  5
33E
331
5A0
  5
5D0
331
49A
  5
49E
331
2A6
  5
2B3
331
25F
  5
260
331
267
  5
26B
331
A0
  5
A0
331
1443
  5
1444
331
14EF
  5
14F0
331
14F7
  5
14F8
331
D73
  5
DC2
331
5FD
  5
600
331
FF7
  5
FFA
331
FFF
  5
128B
331
A8
  5
A9
331
384
  5
39A
331
32D
  5
32E
331
532
  5
53A
331
335
  5
339
331
D5C
  5
D67
331
A2D
  5
C3C
331
C3D
  5
C44
331
5F6
  5
5F9
331
53A
  5
53F
331
493
  5
496
331
5A1
  5
5D2
331
49B
  5
4A3
331
260
  5
261
331
5A9
  5
5D8
331
4A3
  5
4AB
331
55A
  5
55F
331
1444
  5
14A2
331
14F0
  5
14F1
331
14F8
  5
A8
331
1296
  5
1299
331
D74
  5
DEA
331
5FE
  5
601
331
DEC
  5
DEF
331
FF8
  5
FFB
331
270
  5
27E
331
A9
  5
AA
331
562
  5
56A
331
4AB
  5
50F
331
56A
  5
59F
331
32E
  5
32F
331
533
  5
53C
331
D55
  5
D5A
331
1000
  5
128C
331
D5D
  5
D6E
331
5F7
  5
5FA
331
298
  5
2A6
331
33E
  5
33F
331
2F7
  5
304
331
261
  5
262
331
54B
  5
558
331
4A4
  5
4AC
331
376
  5
384
331
3DD
  5
3DE
331
14E9
  5
14EA
331
14F1
  5
14F2
331
128F
  5
1292
331
1297
  5
129A
331
5FF
  5
602
331
DED
  5
DF0
331
FF9
  5
FFC
331
AA
  5
AB
331
4AC
  5
511
331
40D
  5
48F
331
32F
  5
334
331
13A6
  5
13BA
331
14A2
  5
14A3
331
D56
  5
D5B
331
5D0
  5
5F4
331
D5E
  5
D6F
331
5D8
  5
5F6
331
D6E
  5
D72
  0
SORTENTSTABLE
  5
115D
102
{ACAD_REACTORS
330
115C
102
}
330
115C
100
AcDbSortentsTable
330
114A
  0
SORTENTSTABLE
  5
11BE
102
{ACAD_REACTORS
330
11BD
102
}
330
11BD
100
AcDbSortentsTable
330
11A8
  0
SORTENTSTABLE
  5
1221
102
{ACAD_REACTORS
330
1220
102
}
330
1220
100
AcDbSortentsTable
330
1209
  0
XRECORD
  5
1534
102
{ACAD_REACTORS
330
1533
102
}
330
1533
100
AcDbXrecord
280
     1
102
SHADEPLOT
 70
     0
  0
XRECORD
  5
1536
102
{ACAD_REACTORS
330
1535
102
}
330
1535
100
AcDbXrecord
280
     1
102
SHADEPLOT
 70
     0
  0
LAYOUT
  5
22
102
{ACAD_XDICTIONARY
360
152F
102
}
102
{ACAD_REACTORS
330
1A
102
}
330
1A
100
AcDbPlotSettings
  1

  2
EPSON PM-800C
  4
A4
  6

 40
3.757083177566528
 41
14.7637300491333
 42
3.757080078125
 43
3.757080078125
 44
209.9733276367187
 45
296.9683227539062
 46
0.0
 47
0.0
 48
0.0
 49
0.0
140
0.0
141
0.0
142
1.0
143
10.0
 70
 11952
 72
     1
 73
     1
 74
     2
  7

 75
    20
147
0.1
148
0.0
149
0.0
100
AcDbLayout
  1
Model
 70
     1
 71
     0
 10
0.0
 20
0.0
 11
12.0
 21
9.0
 12
0.0
 22
0.0
 32
0.0
 14
0.0
 24
0.0
 34
0.0
 15
0.0
 25
0.0
 35
0.0
146
0.0
 13
0.0
 23
0.0
 33
0.0
 16
1.0
 26
0.0
 36
0.0
 17
0.0
 27
1.0
 37
0.0
 76
     0
330
1F
  0
LAYOUT
  5
1E
102
{ACAD_XDICTIONARY
360
152D
102
}
102
{ACAD_REACTORS
330
1A
102
}
330
1A
100
AcDbPlotSettings
  1

  2
EPSON PM-800C
  4
A4
  6

 40
3.757083177566528
 41
14.7637300491333
 42
3.757080078125
 43
3.757080078125
 44
209.9733276367187
 45
296.9683227539062
 46
0.0
 47
0.0
 48
0.0
 49
0.0
140
0.0
141
0.0
142
1.0
143
1.0
 70
   688
 72
     1
 73
     1
 74
     5
  7

 75
    16
147
1.0
148
0.0
149
0.0
100
AcDbLayout
  1
ﾚｲｱｳﾄ1
 70
     1
 71
     1
 10
-3.757080078125
 20
-3.757083177566528
 11
293.2112426757813
 21
206.2162444591522
 12
0.0
 22
0.0
 32
0.0
 14
27.8447512626648
 24
20.24591643810271
 34
0.0
 15
250.6027613639831
 25
182.2132479429245
 35
0.0
146
0.0
 13
0.0
 23
0.0
 33
0.0
 16
1.0
 26
0.0
 36
0.0
 17
0.0
 27
1.0
 37
0.0
 76
     0
330
1B
331
2E
  0
LAYOUT
  5
26
102
{ACAD_XDICTIONARY
360
1531
102
}
102
{ACAD_REACTORS
330
1A
102
}
330
1A
100
AcDbPlotSettings
  1

  2
EPSON PM-800C
  4

  6

 40
0.0
 41
0.0
 42
0.0
 43
0.0
 44
0.0
 45
0.0
 46
0.0
 47
0.0
 48
0.0
 49
0.0
140
0.0
141
0.0
142
1.0
143
1.0
 70
   688
 72
     0
 73
     0
 74
     5
  7

 75
    16
147
1.0
148
0.0
149
0.0
100
AcDbLayout
  1
ﾚｲｱｳﾄ2
 70
     1
 71
     2
 10
0.0
 20
0.0
 11
12.0
 21
9.0
 12
0.0
 22
0.0
 32
0.0
 14
0.0
 24
0.0
 34
0.0
 15
0.0
 25
0.0
 35
0.0
146
0.0
 13
0.0
 23
0.0
 33
0.0
 16
1.0
 26
0.0
 36
0.0
 17
0.0
 27
1.0
 37
0.0
 76
     0
330
23
  0
MLINESTYLE
  5
18
102
{ACAD_REACTORS
330
17
102
}
330
17
100
AcDbMlineStyle
  2
STANDARD
 70
     0
  3

 62
   256
 51
90.0
 52
90.0
 71
     2
 49
0.5
 62
   256
  6
BYLAYER
 49
-0.5
 62
   256
  6
BYLAYER
  0
ACDBPLACEHOLDER
  5
F
102
{ACAD_REACTORS
330
E
102
}
330
E
  0
TABLESTYLE
  5
FB9
102
{ACAD_REACTORS
330
FB8
102
}
330
FB8
100
AcDbTableStyle
  3
Standard
 70
     0
 71
     0
 40
1.5
 41
1.5
280
     0
281
     0
  7
Standard
140
4.5
170
     2
 62
     0
 63
     7
283
     0
274
    -2
284
     1
 64
     0
275
    -2
285
     1
 65
     0
276
    -2
286
     1
 66
     0
277
    -2
287
     1
 67
     0
278
    -2
288
     1
 68
     0
279
    -2
289
     1
 69
     0
  7
Standard
140
6.0
170
     5
 62
     0
 63
     7
283
     0
274
    -2
284
     1
 64
     0
275
    -2
285
     1
 65
     0
276
    -2
286
     1
 66
     0
277
    -2
287
     1
 67
     0
278
    -2
288
     1
 68
     0
279
    -2
289
     1
 69
     0
  7
Standard
140
4.5
170
     5
 62
     0
 63
     7
283
     0
274
    -2
284
     1
 64
     0
275
    -2
285
     1
 65
     0
276
    -2
286
     1
 66
     0
277
    -2
287
     1
 67
     0
278
    -2
288
     1
 68
     0
279
    -2
289
     1
 69
     0
  0
DICTIONARYVAR
  5
FC7
102
{ACAD_REACTORS
330
96D
102
}
330
96D
100
DictionaryVariables
280
     0
  1
STANDARD
  0
DICTIONARYVAR
  5
1529
102
{ACAD_REACTORS
330
96D
102
}
330
96D
100
DictionaryVariables
280
     0
  1
1
  0
DICTIONARYVAR
  5
152A
102
{ACAD_REACTORS
330
96D
102
}
330
96D
100
DictionaryVariables
280
     0
  1

  0
DICTIONARYVAR
  5
96E
102
{ACAD_REACTORS
330
96D
102
}
330
96D
100
DictionaryVariables
280
     0
  1
96
  0
DICTIONARY
  5
152F
330
22
100
AcDbDictionary
280
     1
281
     1
  3
ACAD_XREC_ROUNDTRIP
360
1530
  0
DICTIONARY
  5
152D
330
1E
100
AcDbDictionary
280
     1
281
     1
  3
ACAD_XREC_ROUNDTRIP
360
152E
  0
DICTIONARY
  5
1531
330
26
100
AcDbDictionary
280
     1
281
     1
  3
ACAD_XREC_ROUNDTRIP
360
1532
  0
XRECORD
  5
1530
102
{ACAD_REACTORS
330
152F
102
}
330
152F
100
AcDbXrecord
280
     1
102
SHADEPLOT
 70
     0
102
SHADEPLOTRESLEVEL
 70
     2
102
SHADEPLOTCUSTOMDPI
 70
   300
  0
XRECORD
  5
152E
102
{ACAD_REACTORS
330
152D
102
}
330
152D
100
AcDbXrecord
280
     1
102
SHADEPLOT
 70
     0
102
SHADEPLOTRESLEVEL
 70
     2
102
SHADEPLOTCUSTOMDPI
 70
   300
  0
XRECORD
  5
1532
102
{ACAD_REACTORS
330
1531
102
}
330
1531
100
AcDbXrecord
280
     1
102
SHADEPLOT
 70
     0
102
SHADEPLOTRESLEVEL
 70
     2
102
SHADEPLOTCUSTOMDPI
 70
   300
  0
ENDSEC
  0
EOF
