  0
SECTION
  2
HEADER
  9
$ACADVER
  1
AC1015
  9
$ACADMAINTVER
 70
    20
  9
$DWGCODEPAGE
  3
ANSI_932
  9
$INSBASE
 10
0.0
 20
0.0
 30
0.0
  9
$EXTMIN
 10
109.0
 20
4.0
 30
0.0
  9
$EXTMAX
 10
2784.0
 20
2024.0
 30
0.0
  9
$LIMMIN
 10
0.0
 20
0.0
  9
$LIMMAX
 10
29700.0
 20
21000.0
  9
$ORTHOMODE
 70
     0
  9
$REGENMODE
 70
     1
  9
$FILLMODE
 70
     1
  9
$QTEXTMODE
 70
     0
  9
$MIRRTEXT
 70
     1
  9
$LTSCALE
 40
4.0
  9
$ATTMODE
 70
     1
  9
$TEXTSIZE
 40
25.0
  9
$TRACEWID
 40
1.0
  9
$TEXTSTYLE
  7
Standard
  9
$CLAYER
  8
実形
  9
$CELTYPE
  6
ByLayer
  9
$CECOLOR
 62
   256
  9
$CELTSCALE
 40
1.0
  9
$DISPSILH
 70
     0
  9
$DIMSCALE
 40
1.0
  9
$DIMASZ
 40
35.0
  9
$DIMEXO
 40
65.0
  9
$DIMDLI
 40
3.75
  9
$DIMRND
 40
0.0
  9
$DIMDLE
 40
0.0
  9
$DIMEXE
 40
0.0
  9
$DIMTP
 40
0.0
  9
$DIMTM
 40
0.0
  9
$DIMTXT
 40
25.0
  9
$DIMCEN
 40
2.5
  9
$DIMTSZ
 40
0.0
  9
$DIMTOL
 70
     0
  9
$DIMLIM
 70
     0
  9
$DIMTIH
 70
     0
  9
$DIMTOH
 70
     0
  9
$DIMSE1
 70
     0
  9
$DIMSE2
 70
     0
  9
$DIMTAD
 70
     1
  9
$DIMZIN
 70
     8
  9
$DIMBLK
  1
DotSmall
  9
$DIMASO
 70
     1
  9
$DIMSHO
 70
     1
  9
$DIMPOST
  1

  9
$DIMAPOST
  1

  9
$DIMALT
 70
     0
  9
$DIMALTD
 70
     3
  9
$DIMALTF
 40
0.03937007874016
  9
$DIMLFAC
 40
1.0
  9
$DIMTOFL
 70
     1
  9
$DIMTVP
 40
0.0
  9
$DIMTIX
 70
     0
  9
$DIMSOXD
 70
     0
  9
$DIMSAH
 70
     0
  9
$DIMBLK1
  1

  9
$DIMBLK2
  1

  9
$DIMSTYLE
  2
ISO-25
  9
$DIMCLRD
 70
     0
  9
$DIMCLRE
 70
     0
  9
$DIMCLRT
 70
     0
  9
$DIMTFAC
 40
1.0
  9
$DIMGAP
 40
6.25
  9
$DIMJUST
 70
     0
  9
$DIMSD1
 70
     0
  9
$DIMSD2
 70
     0
  9
$DIMTOLJ
 70
     0
  9
$DIMTZIN
 70
     8
  9
$DIMALTZ
 70
     0
  9
$DIMALTTZ
 70
     0
  9
$DIMUPT
 70
     0
  9
$DIMDEC
 70
     2
  9
$DIMTDEC
 70
     2
  9
$DIMALTU
 70
     2
  9
$DIMALTTD
 70
     3
  9
$DIMTXSTY
  7
Standard
  9
$DIMAUNIT
 70
     0
  9
$DIMADEC
 70
     0
  9
$DIMALTRND
 40
0.0
  9
$DIMAZIN
 70
     0
  9
$DIMDSEP
 70
    46
  9
$DIMATFIT
 70
     3
  9
$DIMFRAC
 70
     0
  9
$DIMLDRBLK
  1
Open30
  9
$DIMLUNIT
 70
     2
  9
$DIMLWD
 70
    18
  9
$DIMLWE
 70
    18
  9
$DIMTMOVE
 70
     2
  9
$LUNITS
 70
     2
  9
$LUPREC
 70
     2
  9
$SKETCHINC
 40
1.0
  9
$FILLETRAD
 40
0.0
  9
$AUNITS
 70
     0
  9
$AUPREC
 70
     0
  9
$MENU
  1
.
  9
$ELEVATION
 40
0.0
  9
$PELEVATION
 40
0.0
  9
$THICKNESS
 40
0.0
  9
$LIMCHECK
 70
     1
  9
$CHAMFERA
 40
10.0
  9
$CHAMFERB
 40
10.0
  9
$CHAMFERC
 40
20.0
  9
$CHAMFERD
 40
0.0
  9
$SKPOLY
 70
     0
  9
$TDCREATE
 40
2451673.575802199
  9
$TDUCREATE
 40
2451673.200802199
  9
$TDUPDATE
 40
2458813.751238947
  9
$TDUUPDATE
 40
2458813.376238947
  9
$TDINDWG
 40
1.7953579630
  9
$TDUSRTIMER
 40
1.7953572685
  9
$USRTIMER
 70
     1
  9
$ANGBASE
 50
0.0
  9
$ANGDIR
 70
     0
  9
$PDMODE
 70
     3
  9
$PDSIZE
 40
0.0
  9
$PLINEWID
 40
0.0
  9
$SPLFRAME
 70
     0
  9
$SPLINETYPE
 70
     6
  9
$SPLINESEGS
 70
     8
  9
$HANDSEED
  5
54A4
  9
$SURFTAB1
 70
     6
  9
$SURFTAB2
 70
     6
  9
$SURFTYPE
 70
     6
  9
$SURFU
 70
     6
  9
$SURFV
 70
     6
  9
$UCSBASE
  2

  9
$UCSNAME
  2

  9
$UCSORG
 10
0.0
 20
0.0
 30
0.0
  9
$UCSXDIR
 10
1.0
 20
0.0
 30
0.0
  9
$UCSYDIR
 10
0.0
 20
1.0
 30
0.0
  9
$UCSORTHOREF
  2

  9
$UCSORTHOVIEW
 70
     0
  9
$UCSORGTOP
 10
0.0
 20
0.0
 30
0.0
  9
$UCSORGBOTTOM
 10
0.0
 20
0.0
 30
0.0
  9
$UCSORGLEFT
 10
0.0
 20
0.0
 30
0.0
  9
$UCSORGRIGHT
 10
0.0
 20
0.0
 30
0.0
  9
$UCSORGFRONT
 10
0.0
 20
0.0
 30
0.0
  9
$UCSORGBACK
 10
0.0
 20
0.0
 30
0.0
  9
$PUCSBASE
  2

  9
$PUCSNAME
  2

  9
$PUCSORG
 10
0.0
 20
0.0
 30
0.0
  9
$PUCSXDIR
 10
1.0
 20
0.0
 30
0.0
  9
$PUCSYDIR
 10
0.0
 20
1.0
 30
0.0
  9
$PUCSORTHOREF
  2

  9
$PUCSORTHOVIEW
 70
     0
  9
$PUCSORGTOP
 10
0.0
 20
0.0
 30
0.0
  9
$PUCSORGBOTTOM
 10
0.0
 20
0.0
 30
0.0
  9
$PUCSORGLEFT
 10
0.0
 20
0.0
 30
0.0
  9
$PUCSORGRIGHT
 10
0.0
 20
0.0
 30
0.0
  9
$PUCSORGFRONT
 10
0.0
 20
0.0
 30
0.0
  9
$PUCSORGBACK
 10
0.0
 20
0.0
 30
0.0
  9
$USERI1
 70
     0
  9
$USERI2
 70
     0
  9
$USERI3
 70
     0
  9
$USERI4
 70
     0
  9
$USERI5
 70
     0
  9
$USERR1
 40
0.0
  9
$USERR2
 40
0.0
  9
$USERR3
 40
0.0
  9
$USERR4
 40
0.0
  9
$USERR5
 40
0.0
  9
$WORLDVIEW
 70
     1
  9
$SHADEDGE
 70
     3
  9
$SHADEDIF
 70
    70
  9
$TILEMODE
 70
     1
  9
$MAXACTVP
 70
    64
  9
$PINSBASE
 10
0.0
 20
0.0
 30
0.0
  9
$PLIMCHECK
 70
     0
  9
$PEXTMIN
 10
27.8447512626648
 20
20.24591643810271
 30
0.0
  9
$PEXTMAX
 10
250.6027613639831
 20
182.2132479429245
 30
0.0
  9
$PLIMMIN
 10
-3.757080078125
 20
-3.757083177566528
  9
$PLIMMAX
 10
293.2112426757813
 20
206.2162444591522
  9
$UNITMODE
 70
     0
  9
$VISRETAIN
 70
     1
  9
$PLINEGEN
 70
     0
  9
$PSLTSCALE
 70
     1
  9
$TREEDEPTH
 70
  3020
  9
$CMLSTYLE
  2
Standard
  9
$CMLJUST
 70
     0
  9
$CMLSCALE
 40
20.0
  9
$PROXYGRAPHICS
 70
     1
  9
$MEASUREMENT
 70
     1
  9
$CELWEIGHT
370
    -1
  9
$ENDCAPS
280
     0
  9
$JOINSTYLE
280
     0
  9
$LWDISPLAY
290
     0
  9
$INSUNITS
 70
     4
  9
$HYPERLINKBASE
  1

  9
$STYLESHEET
  1

  9
$XEDIT
290
     1
  9
$CEPSNTYPE
380
     0
  9
$PSTYLEMODE
290
     1
  9
$FINGERPRINTGUID
  2
{C8EA1F16-24C9-11D4-9416-CE0A3B32152F}
  9
$VERSIONGUID
  2
{F8115EED-DAC7-4913-AB49-B8C4FFD69F3C}
  9
$EXTNAMES
290
     1
  9
$PSVPSCALE
 40
0.0
  9
$OLESTARTUP
290
     0
  0
ENDSEC
  0
SECTION
  2
CLASSES
  0
CLASS
  1
ACDBDICTIONARYWDFLT
  2
AcDbDictionaryWithDefault
  3
ObjectDBX Classes
 90
        0
280
     0
281
     0
  0
CLASS
  1
ACDBPLACEHOLDER
  2
AcDbPlaceHolder
  3
ObjectDBX Classes
 90
        0
280
     0
281
     0
  0
CLASS
  1
LAYOUT
  2
AcDbLayout
  3
ObjectDBX Classes
 90
        0
280
     0
281
     0
  0
CLASS
  1
TABLESTYLE
  2
AcDbTableStyle
  3
ObjectDBX Classes
 90
     2047
280
     0
281
     0
  0
CLASS
  1
DICTIONARYVAR
  2
AcDbDictionaryVar
  3
ObjectDBX Classes
 90
        0
280
     0
281
     0
  0
CLASS
  1
SORTENTSTABLE
  2
AcDbSortentsTable
  3
ObjectDBX Classes
 90
        0
280
     0
281
     0
  0
ENDSEC
  0
SECTION
  2
TABLES
  0
TABLE
  2
VPORT
  5
8
330
0
100
AcDbSymbolTable
 70
     2
  0
VPORT
  5
5498
330
8
100
AcDbSymbolTableRecord
100
AcDbViewportTableRecord
  2
*Active
 70
     0
 10
0.0
 20
0.0
 11
1.0
 21
1.0
 12
1428.937167776742
 22
1004.324212815141
 13
0.0
 23
0.0
 14
10.0
 24
10.0
 15
10.0
 25
10.0
 16
0.0
 26
0.0
 36
1.0
 17
0.0
 27
0.0
 37
0.0
 40
2136.817806721289
 41
1.29038112522686
 42
50.0
 43
0.0
 44
0.0
 50
0.0
 51
0.0
 71
     0
 72
   100
 73
     1
 74
     3
 75
     0
 76
     0
 77
     0
 78
     0
281
     0
 65
     1
110
0.0
120
0.0
130
0.0
111
1.0
121
0.0
131
0.0
112
0.0
122
1.0
132
0.0
 79
     0
146
0.0
  0
ENDTAB
  0
TABLE
  2
LTYPE
  5
5
330
0
100
AcDbSymbolTable
 70
    46
  0
LTYPE
  5
14
330
5
100
AcDbSymbolTableRecord
100
AcDbLinetypeTableRecord
  2
ByBlock
 70
     0
  3

 72
    65
 73
     0
 40
0.0
  0
LTYPE
  5
15
330
5
100
AcDbSymbolTableRecord
100
AcDbLinetypeTableRecord
  2
ByLayer
 70
     0
  3

 72
    65
 73
     0
 40
0.0
  0
LTYPE
  5
16
330
5
100
AcDbSymbolTableRecord
100
AcDbLinetypeTableRecord
  2
Continuous
 70
     0
  3
Solid line
 72
    65
 73
     0
 40
0.0
  0
LTYPE
  5
34
330
5
100
AcDbSymbolTableRecord
100
AcDbLinetypeTableRecord
  2
ACAD_ISO02W100
 70
     0
  3
ISO dash __ __ __ __ __ __ __ __ __ __ __ __ __
 72
    65
 73
     2
 40
15.0
 49
12.0
 74
     0
 49
-3.0
 74
     0
  0
LTYPE
  5
35
330
5
100
AcDbSymbolTableRecord
100
AcDbLinetypeTableRecord
  2
ACAD_ISO03W100
 70
     0
  3
ISO dash space __    __    __    __    __    __
 72
    65
 73
     2
 40
30.0
 49
12.0
 74
     0
 49
-18.0
 74
     0
  0
LTYPE
  5
36
330
5
100
AcDbSymbolTableRecord
100
AcDbLinetypeTableRecord
  2
ACAD_ISO04W100
 70
     0
  3
ISO long-dash dot ____ . ____ . ____ . ____ . _
 72
    65
 73
     4
 40
30.0
 49
24.0
 74
     0
 49
-3.0
 74
     0
 49
0.0
 74
     0
 49
-3.0
 74
     0
  0
LTYPE
  5
37
330
5
100
AcDbSymbolTableRecord
100
AcDbLinetypeTableRecord
  2
ACAD_ISO05W100
 70
     0
  3
ISO long-dash double-dot ____ .. ____ .. ____ .
 72
    65
 73
     6
 40
34.0
 49
24.0
 74
     0
 49
-3.0
 74
     0
 49
0.5
 74
     0
 49
-3.0
 74
     0
 49
0.5
 74
     0
 49
-3.0
 74
     0
  0
LTYPE
  5
38
330
5
100
AcDbSymbolTableRecord
100
AcDbLinetypeTableRecord
  2
ACAD_ISO06W100
 70
     0
  3
ISO long-dash triple-dot ____ ... ____ ... ____
 72
    65
 73
     8
 40
37.5
 49
24.0
 74
     0
 49
-3.0
 74
     0
 49
0.5
 74
     0
 49
-3.0
 74
     0
 49
0.5
 74
     0
 49
-3.0
 74
     0
 49
0.5
 74
     0
 49
-3.0
 74
     0
  0
LTYPE
  5
39
330
5
100
AcDbSymbolTableRecord
100
AcDbLinetypeTableRecord
  2
ACAD_ISO07W100
 70
     0
  3
ISO dot . . . . . . . . . . . . . . . . . . . .
 72
    65
 73
     2
 40
3.0
 49
0.0
 74
     0
 49
-3.0
 74
     0
  0
LTYPE
  5
3A
330
5
100
AcDbSymbolTableRecord
100
AcDbLinetypeTableRecord
  2
ACAD_ISO08W100
 70
     0
  3
ISO long-dash short-dash ____ __ ____ __ ____ _
 72
    65
 73
     4
 40
36.0
 49
24.0
 74
     0
 49
-3.0
 74
     0
 49
6.0
 74
     0
 49
-3.0
 74
     0
  0
LTYPE
  5
3B
330
5
100
AcDbSymbolTableRecord
100
AcDbLinetypeTableRecord
  2
ACAD_ISO09W100
 70
     0
  3
ISO long-dash double-short-dash ____ __ __ ____
 72
    65
 73
     6
 40
45.0
 49
24.0
 74
     0
 49
-3.0
 74
     0
 49
6.0
 74
     0
 49
-3.0
 74
     0
 49
6.0
 74
     0
 49
-3.0
 74
     0
  0
LTYPE
  5
3C
330
5
100
AcDbSymbolTableRecord
100
AcDbLinetypeTableRecord
  2
ACAD_ISO10W100
 70
     0
  3
ISO dash dot __ . __ . __ . __ . __ . __ . __ .
 72
    65
 73
     4
 40
18.0
 49
12.0
 74
     0
 49
-3.0
 74
     0
 49
0.0
 74
     0
 49
-3.0
 74
     0
  0
LTYPE
  5
3D
330
5
100
AcDbSymbolTableRecord
100
AcDbLinetypeTableRecord
  2
ACAD_ISO11W100
 70
     0
  3
ISO double-dash dot __ __ . __ __ . __ __ . __ 
 72
    65
 73
     6
 40
33.0
 49
12.0
 74
     0
 49
-3.0
 74
     0
 49
12.0
 74
     0
 49
-3.0
 74
     0
 49
0.0
 74
     0
 49
-3.0
 74
     0
  0
LTYPE
  5
3E
330
5
100
AcDbSymbolTableRecord
100
AcDbLinetypeTableRecord
  2
ACAD_ISO12W100
 70
     0
  3
ISO dash double-dot __ . . __ . . __ . . __ . .
 72
    65
 73
     6
 40
21.0
 49
12.0
 74
     0
 49
-3.0
 74
     0
 49
0.0
 74
     0
 49
-3.0
 74
     0
 49
0.0
 74
     0
 49
-3.0
 74
     0
  0
LTYPE
  5
3F
330
5
100
AcDbSymbolTableRecord
100
AcDbLinetypeTableRecord
  2
ACAD_ISO13W100
 70
     0
  3
ISO double-dash double-dot __ __ . . __ __ . . 
 72
    65
 73
     8
 40
36.0
 49
12.0
 74
     0
 49
-3.0
 74
     0
 49
12.0
 74
     0
 49
-3.0
 74
     0
 49
0.0
 74
     0
 49
-3.0
 74
     0
 49
0.0
 74
     0
 49
-3.0
 74
     0
  0
LTYPE
  5
40
330
5
100
AcDbSymbolTableRecord
100
AcDbLinetypeTableRecord
  2
ACAD_ISO14W100
 70
     0
  3
ISO dash triple-dot __ . . . __ . . . __ . . . 
 72
    65
 73
     8
 40
24.0
 49
12.0
 74
     0
 49
-3.0
 74
     0
 49
0.0
 74
     0
 49
-3.0
 74
     0
 49
0.0
 74
     0
 49
-3.0
 74
     0
 49
0.0
 74
     0
 49
-3.0
 74
     0
  0
LTYPE
  5
41
330
5
100
AcDbSymbolTableRecord
100
AcDbLinetypeTableRecord
  2
ACAD_ISO15W100
 70
     0
  3
ISO double-dash triple-dot __ __ . . . __ __ . 
 72
    65
 73
    10
 40
39.0
 49
12.0
 74
     0
 49
-3.0
 74
     0
 49
12.0
 74
     0
 49
-3.0
 74
     0
 49
0.0
 74
     0
 49
-3.0
 74
     0
 49
0.0
 74
     0
 49
-3.0
 74
     0
 49
0.0
 74
     0
 49
-3.0
 74
     0
  0
LTYPE
  5
42
330
5
100
AcDbSymbolTableRecord
100
AcDbLinetypeTableRecord
  2
BATTING
 70
     0
  3
Batting SSSSSSSSSSSSSSSSSSSSSSSSSSSSSSSSSSSSSSS
 72
    65
 73
     4
 40
10.16254
 49
0.00254
 74
     0
 49
-2.54
 74
     4
 75
   134
340
33
 46
2.54
 50
0.0
 44
-2.54
 45
0.0
 49
-5.08
 74
     4
 75
   134
340
33
 46
2.54
 50
180.0
 44
2.54
 45
0.0
 49
-2.54
 74
     0
  0
LTYPE
  5
43
330
5
100
AcDbSymbolTableRecord
100
AcDbLinetypeTableRecord
  2
BORDER
 70
     0
  3
Border __ __ . __ __ . __ __ . __ __ . __ __ .
 72
    65
 73
     6
 40
44.45
 49
12.7
 74
     0
 49
-6.349999999999999
 74
     0
 49
12.7
 74
     0
 49
-6.349999999999999
 74
     0
 49
0.0
 74
     0
 49
-6.349999999999999
 74
     0
  0
LTYPE
  5
44
330
5
100
AcDbSymbolTableRecord
100
AcDbLinetypeTableRecord
  2
BORDER2
 70
     0
  3
Border (.5x) __.__.__.__.__.__.__.__.__.__.__.
 72
    65
 73
     6
 40
22.225
 49
6.349999999999999
 74
     0
 49
-3.174999999999999
 74
     0
 49
6.349999999999999
 74
     0
 49
-3.174999999999999
 74
     0
 49
0.0
 74
     0
 49
-3.174999999999999
 74
     0
  0
LTYPE
  5
45
330
5
100
AcDbSymbolTableRecord
100
AcDbLinetypeTableRecord
  2
BORDERX2
 70
     0
  3
Border (2x) ____  ____  .  ____  ____  .  ___
 72
    65
 73
     6
 40
88.9
 49
25.4
 74
     0
 49
-12.7
 74
     0
 49
25.4
 74
     0
 49
-12.7
 74
     0
 49
0.0
 74
     0
 49
-12.7
 74
     0
  0
LTYPE
  5
46
330
5
100
AcDbSymbolTableRecord
100
AcDbLinetypeTableRecord
  2
CENTER
 70
     0
  3
Center ____ _ ____ _ ____ _ ____ _ ____ _ ____
 72
    65
 73
     4
 40
50.8
 49
31.75
 74
     0
 49
-6.349999999999999
 74
     0
 49
6.349999999999999
 74
     0
 49
-6.349999999999999
 74
     0
  0
LTYPE
  5
47
330
5
100
AcDbSymbolTableRecord
100
AcDbLinetypeTableRecord
  2
CENTER2
 70
     0
  3
Center (.5x) ___ _ ___ _ ___ _ ___ _ ___ _ ___
 72
    65
 73
     4
 40
28.575
 49
19.05
 74
     0
 49
-3.174999999999999
 74
     0
 49
3.174999999999999
 74
     0
 49
-3.174999999999999
 74
     0
  0
LTYPE
  5
48
330
5
100
AcDbSymbolTableRecord
100
AcDbLinetypeTableRecord
  2
CENTERX2
 70
     0
  3
Center (2x) ________  __  ________  __  _____
 72
    65
 73
     4
 40
101.6
 49
63.5
 74
     0
 49
-12.7
 74
     0
 49
12.7
 74
     0
 49
-12.7
 74
     0
  0
LTYPE
  5
49
330
5
100
AcDbSymbolTableRecord
100
AcDbLinetypeTableRecord
  2
DASHDOT
 70
     0
  3
Dash dot __ . __ . __ . __ . __ . __ . __ . __
 72
    65
 73
     4
 40
25.4
 49
12.7
 74
     0
 49
-6.349999999999999
 74
     0
 49
0.0
 74
     0
 49
-6.349999999999999
 74
     0
  0
LTYPE
  5
4A
330
5
100
AcDbSymbolTableRecord
100
AcDbLinetypeTableRecord
  2
DASHDOT2
 70
     0
  3
Dash dot (.5x) _._._._._._._._._._._._._._._.
 72
    65
 73
     4
 40
12.7
 49
6.349999999999999
 74
     0
 49
-3.174999999999999
 74
     0
 49
0.0
 74
     0
 49
-3.174999999999999
 74
     0
  0
LTYPE
  5
4B
330
5
100
AcDbSymbolTableRecord
100
AcDbLinetypeTableRecord
  2
DASHDOTX2
 70
     0
  3
Dash dot (2x) ____  .  ____  .  ____  .  ___
 72
    65
 73
     4
 40
50.8
 49
25.4
 74
     0
 49
-12.7
 74
     0
 49
0.0
 74
     0
 49
-12.7
 74
     0
  0
LTYPE
  5
4C
330
5
100
AcDbSymbolTableRecord
100
AcDbLinetypeTableRecord
  2
DASHED
 70
     0
  3
Dashed __ __ __ __ __ __ __ __ __ __ __ __ __ _
 72
    65
 73
     2
 40
19.05
 49
12.7
 74
     0
 49
-6.349999999999999
 74
     0
  0
LTYPE
  5
4D
330
5
100
AcDbSymbolTableRecord
100
AcDbLinetypeTableRecord
  2
DASHED2
 70
     0
  3
Dashed (.5x) _ _ _ _ _ _ _ _ _ _ _ _ _ _ _ _ _
 72
    65
 73
     2
 40
9.524999999999998
 49
6.349999999999999
 74
     0
 49
-3.174999999999999
 74
     0
  0
LTYPE
  5
4E
330
5
100
AcDbSymbolTableRecord
100
AcDbLinetypeTableRecord
  2
DASHEDX2
 70
     0
  3
Dashed (2x) ____  ____  ____  ____  ____  ___
 72
    65
 73
     2
 40
38.1
 49
25.4
 74
     0
 49
-12.7
 74
     0
  0
LTYPE
  5
4F
330
5
100
AcDbSymbolTableRecord
100
AcDbLinetypeTableRecord
  2
DIVIDE
 70
     0
  3
Divide ____ . . ____ . . ____ . . ____ . . ____
 72
    65
 73
     6
 40
31.75
 49
12.7
 74
     0
 49
-6.349999999999999
 74
     0
 49
0.0
 74
     0
 49
-6.349999999999999
 74
     0
 49
0.0
 74
     0
 49
-6.349999999999999
 74
     0
  0
LTYPE
  5
50
330
5
100
AcDbSymbolTableRecord
100
AcDbLinetypeTableRecord
  2
DIVIDE2
 70
     0
  3
Divide (.5x) __..__..__..__..__..__..__..__.._
 72
    65
 73
     6
 40
15.875
 49
6.349999999999999
 74
     0
 49
-3.174999999999999
 74
     0
 49
0.0
 74
     0
 49
-3.174999999999999
 74
     0
 49
0.0
 74
     0
 49
-3.174999999999999
 74
     0
  0
LTYPE
  5
51
330
5
100
AcDbSymbolTableRecord
100
AcDbLinetypeTableRecord
  2
DIVIDEX2
 70
     0
  3
Divide (2x) ________  .  .  ________  .  .  _
 72
    65
 73
     6
 40
63.49999999999999
 49
25.4
 74
     0
 49
-12.7
 74
     0
 49
0.0
 74
     0
 49
-12.7
 74
     0
 49
0.0
 74
     0
 49
-12.7
 74
     0
  0
LTYPE
  5
52
330
5
100
AcDbSymbolTableRecord
100
AcDbLinetypeTableRecord
  2
DOT
 70
     0
  3
Dot . . . . . . . . . . . . . . . . . . . . . .
 72
    65
 73
     2
 40
6.349999999999999
 49
0.0
 74
     0
 49
-6.349999999999999
 74
     0
  0
LTYPE
  5
53
330
5
100
AcDbSymbolTableRecord
100
AcDbLinetypeTableRecord
  2
DOT2
 70
     0
  3
Dot (.5x) .....................................
 72
    65
 73
     2
 40
3.174999999999999
 49
0.0
 74
     0
 49
-3.174999999999999
 74
     0
  0
LTYPE
  5
54
330
5
100
AcDbSymbolTableRecord
100
AcDbLinetypeTableRecord
  2
DOTX2
 70
     0
  3
Dot (2x) .  .  .  .  .  .  .  .  .  .  .  .  . 
 72
    65
 73
     2
 40
12.7
 49
0.0
 74
     0
 49
-12.7
 74
     0
  0
LTYPE
  5
55
330
5
100
AcDbSymbolTableRecord
100
AcDbLinetypeTableRecord
  2
FENCELINE1
 70
     0
  3
Fenceline circle ----0-----0----0-----0----0---
 72
    65
 73
     4
 40
36.83
 49
6.349999999999999
 74
     0
 49
-2.54
 74
     4
 75
   133
340
33
 46
2.54
 50
0.0
 44
-2.54
 45
0.0
 49
-2.54
 74
     0
 49
25.4
 74
     0
  0
LTYPE
  5
56
330
5
100
AcDbSymbolTableRecord
100
AcDbLinetypeTableRecord
  2
FENCELINE2
 70
     0
  3
Fenceline square ----[]-----[]----[]-----[]----
 72
    65
 73
     4
 40
36.83
 49
6.349999999999999
 74
     0
 49
-2.54
 74
     4
 75
   132
340
33
 46
2.54
 50
0.0
 44
-2.54
 45
0.0
 49
-2.54
 74
     0
 49
25.4
 74
     0
  0
LTYPE
  5
57
330
5
100
AcDbSymbolTableRecord
100
AcDbLinetypeTableRecord
  2
GAS_LINE
 70
     0
  3
Gas line ----GAS----GAS----GAS----GAS----GAS---
 72
    65
 73
     3
 40
24.13
 49
12.7
 74
     0
 49
-5.08
 74
     2
 75
     0
340
11
 46
2.54
 50
0.0
 44
-2.54
 45
-1.27
  9
GAS
 49
-6.349999999999999
 74
     0
  0
LTYPE
  5
58
330
5
100
AcDbSymbolTableRecord
100
AcDbLinetypeTableRecord
  2
HIDDEN
 70
     0
  3
Hidden __ __ __ __ __ __ __ __ __ __ __ __ __ _
 72
    65
 73
     2
 40
9.524999999999998
 49
6.349999999999999
 74
     0
 49
-3.174999999999999
 74
     0
  0
LTYPE
  5
59
330
5
100
AcDbSymbolTableRecord
100
AcDbLinetypeTableRecord
  2
HIDDEN2
 70
     0
  3
Hidden (.5x) _ _ _ _ _ _ _ _ _ _ _ _ _ _ _ _ _
 72
    65
 73
     2
 40
4.762499999999999
 49
3.174999999999999
 74
     0
 49
-1.587499999999999
 74
     0
  0
LTYPE
  5
5A
330
5
100
AcDbSymbolTableRecord
100
AcDbLinetypeTableRecord
  2
HIDDENX2
 70
     0
  3
Hidden (2x) ____ ____ ____ ____ ____ ____ ____
 72
    65
 73
     2
 40
19.05
 49
12.7
 74
     0
 49
-6.349999999999999
 74
     0
  0
LTYPE
  5
5B
330
5
100
AcDbSymbolTableRecord
100
AcDbLinetypeTableRecord
  2
HOT_WATER_SUPPLY
 70
     0
  3
Hot water supply ---- HW ---- HW ---- HW ----
 72
    65
 73
     3
 40
22.86
 49
12.7
 74
     0
 49
-5.08
 74
     2
 75
     0
340
11
 46
2.54
 50
0.0
 44
-2.54
 45
-1.27
  9
HW
 49
-5.08
 74
     0
  0
LTYPE
  5
5C
330
5
100
AcDbSymbolTableRecord
100
AcDbLinetypeTableRecord
  2
PHANTOM
 70
     0
  3
Phantom ______  __  __  ______  __  __  ______
 72
    65
 73
     6
 40
63.5
 49
31.75
 74
     0
 49
-6.349999999999999
 74
     0
 49
6.349999999999999
 74
     0
 49
-6.349999999999999
 74
     0
 49
6.349999999999999
 74
     0
 49
-6.349999999999999
 74
     0
  0
LTYPE
  5
5D
330
5
100
AcDbSymbolTableRecord
100
AcDbLinetypeTableRecord
  2
PHANTOM2
 70
     0
  3
Phantom (.5x) ___ _ _ ___ _ _ ___ _ _ ___ _ _
 72
    65
 73
     6
 40
31.75
 49
15.875
 74
     0
 49
-3.174999999999999
 74
     0
 49
3.174999999999999
 74
     0
 49
-3.174999999999999
 74
     0
 49
3.174999999999999
 74
     0
 49
-3.174999999999999
 74
     0
  0
LTYPE
  5
5E
330
5
100
AcDbSymbolTableRecord
100
AcDbLinetypeTableRecord
  2
PHANTOMX2
 70
     0
  3
Phantom (2x) ____________    ____    ____   _
 72
    65
 73
     6
 40
127.0
 49
63.5
 74
     0
 49
-12.7
 74
     0
 49
12.7
 74
     0
 49
-12.7
 74
     0
 49
12.7
 74
     0
 49
-12.7
 74
     0
  0
LTYPE
  5
5F
330
5
100
AcDbSymbolTableRecord
100
AcDbLinetypeTableRecord
  2
TRACKS
 70
     0
  3
Tracks -|-|-|-|-|-|-|-|-|-|-|-|-|-|-|-|-|-|-|-|
 72
    65
 73
     2
 40
7.62
 49
3.81
 74
     4
 75
   130
340
33
 46
6.349999999999999
 50
0.0
 44
0.0
 45
0.0
 49
3.81
 74
     0
  0
LTYPE
  5
60
330
5
100
AcDbSymbolTableRecord
100
AcDbLinetypeTableRecord
  2
ZIGZAG
 70
     0
  3
Zig zag /\/\/\/\/\/\/\/\/\/\/\/\/\/\/\/\/\/\/\/
 72
    65
 73
     4
 40
20.32254
 49
0.00254
 74
     0
 49
-5.08
 74
     4
 75
   131
340
33
 46
5.08
 50
0.0
 44
-5.08
 45
0.0
 49
-10.16
 74
     4
 75
   131
340
33
 46
5.08
 50
180.0
 44
5.08
 45
0.0
 49
-5.08
 74
     0
  0
ENDTAB
  0
TABLE
  2
LAYER
  5
2
102
{ACAD_XDICTIONARY
360
191A
102
}
330
0
100
AcDbSymbolTable
 70
     9
  0
LAYER
  5
10
330
2
100
AcDbSymbolTableRecord
100
AcDbLayerTableRecord
  2
0
 70
     0
 62
     7
  6
Continuous
290
     0
370
    -3
390
F
  0
LAYER
  5
C3
330
2
100
AcDbSymbolTableRecord
100
AcDbLayerTableRecord
  2
Defpoints
 70
     0
 62
     7
  6
Continuous
290
     0
370
    -3
390
F
  0
LAYER
  5
256
330
2
100
AcDbSymbolTableRecord
100
AcDbLayerTableRecord
  2
センター
 70
     0
 62
     7
  6
CENTER2
370
    18
390
F
  0
LAYER
  5
268
330
2
100
AcDbSymbolTableRecord
100
AcDbLayerTableRecord
  2
実形
 70
     0
 62
     7
  6
Continuous
370
    -3
390
F
  0
LAYER
  5
269
330
2
100
AcDbSymbolTableRecord
100
AcDbLayerTableRecord
  2
補助
 70
     0
 62
     7
  6
Continuous
370
    -3
390
F
  0
LAYER
  5
26A
330
2
100
AcDbSymbolTableRecord
100
AcDbLayerTableRecord
  2
寸法
 70
     0
 62
     7
  6
Continuous
370
    18
390
F
  0
LAYER
  5
26B
330
2
100
AcDbSymbolTableRecord
100
AcDbLayerTableRecord
  2
ハッチング
 70
     0
 62
     7
  6
Continuous
370
    18
390
F
  0
LAYER
  5
26D
330
2
100
AcDbSymbolTableRecord
100
AcDbLayerTableRecord
  2
文字
 70
     0
 62
     7
  6
Continuous
370
    -3
390
F
  0
LAYER
  5
FE8
330
2
100
AcDbSymbolTableRecord
100
AcDbLayerTableRecord
  2
Cen
 70
     0
 62
     7
  6
CENTER2
370
    15
390
F
  0
ENDTAB
  0
TABLE
  2
STYLE
  5
3
330
0
100
AcDbSymbolTable
 70
     5
  0
STYLE
  5
11
330
3
100
AcDbSymbolTableRecord
100
AcDbTextStyleTableRecord
  2
Standard
 70
     0
 40
0.0
 41
1.0
 50
0.0
 71
     0
 42
25.0
  3
txt.shx
  4
bigfont.shx
  0
STYLE
  5
33
330
3
100
AcDbSymbolTableRecord
100
AcDbTextStyleTableRecord
  2

 70
     1
 40
0.0
 41
1.0
 50
0.0
 71
     0
 42
2.5
  3
ltypeshp.shx
  4

  0
STYLE
  5
19A9
330
3
100
AcDbSymbolTableRecord
100
AcDbTextStyleTableRecord
  2
ｍｓ明朝
 70
     0
 40
0.0
 41
1.0
 50
0.0
 71
     0
 42
35.0
  3
MS Mincho.ttf
  4

1001
ACAD
1000
MS Mincho
1071
    32785
  0
STYLE
  5
1AF2
330
3
100
AcDbSymbolTableRecord
100
AcDbTextStyleTableRecord
  2
MS明朝
 70
     0
 40
0.0
 41
1.0
 50
0.0
 71
     0
 42
35.0
  3
MS Mincho.ttf
  4

1001
ACAD
1000
MS Mincho
1071
    32785
  0
STYLE
  5
1C8B
330
3
100
AcDbSymbolTableRecord
100
AcDbTextStyleTableRecord
  2
明朝
 70
     0
 40
0.0
 41
1.0
 50
0.0
 71
     0
 42
25.0
  3
MS Mincho.ttf
  4

1001
ACAD
1000
MS Mincho
1071
    32785
  0
ENDTAB
  0
TABLE
  2
VIEW
  5
6
330
0
100
AcDbSymbolTable
 70
     0
  0
ENDTAB
  0
TABLE
  2
UCS
  5
7
330
0
100
AcDbSymbolTable
 70
     0
  0
ENDTAB
  0
TABLE
  2
APPID
  5
9
330
0
100
AcDbSymbolTable
 70
     2
  0
APPID
  5
12
330
9
100
AcDbSymbolTableRecord
100
AcDbRegAppTableRecord
  2
ACAD
 70
     0
  0
APPID
  5
1BAB
330
9
100
AcDbSymbolTableRecord
100
AcDbRegAppTableRecord
  2
ACAD_DSTYLE_DIMTEXT_FILL
 70
     0
  0
ENDTAB
  0
TABLE
  2
DIMSTYLE
  5
A
330
0
100
AcDbSymbolTable
 70
     1
100
AcDbDimStyleTable
 71
     1
340
27
  0
DIMSTYLE
105
27
102
{ACAD_REACTORS
330
368
330
44B
330
458
330
4A3
330
35B
330
3CE
330
43D
330
3E9
330
3DC
330
3F6
330
104A
330
1058
330
1065
330
1B57
330
1B58
330
1B59
330
1BE4
330
1C03
330
1DFE
330
1DFF
330
2682
330
2683
330
3679
330
3CE3
330
3CF9
330
3D0F
330
3E28
330
3E49
330
3E7A
330
3EB7
330
3F58
330
3F6E
330
3F85
330
3FD7
330
3FF6
330
400C
330
4022
330
40C6
330
40E5
330
1C23
330
45CC
330
45D9
330
45F3
330
4618
330
482A
330
4837
330
4844
330
4891
330
48F5
330
49E1
330
4A51
330
4A68
102
}
330
A
100
AcDbSymbolTableRecord
100
AcDbDimStyleTableRecord
  2
ISO-25
 70
     0
 41
35.0
 42
65.0
 43
3.75
 44
0.0
 73
     0
 74
     0
 77
     1
 78
     8
140
25.0
141
2.5
143
0.03937007874016
147
6.25
171
     3
172
     1
271
     2
272
     2
274
     3
283
     0
284
     8
340
11
341
DA
342
D0
371
    15
372
    15
  0
ENDTAB
  0
TABLE
  2
BLOCK_RECORD
  5
1
330
0
100
AcDbSymbolTable
 70
    56
  0
BLOCK_RECORD
  5
1F
102
{ACAD_XDICTIONARY
360
1A15
102
}
330
1
100
AcDbSymbolTableRecord
100
AcDbBlockTableRecord
  2
*Model_Space
340
22
  0
BLOCK_RECORD
  5
1B
330
1
100
AcDbSymbolTableRecord
100
AcDbBlockTableRecord
  2
*Paper_Space
340
1E
  0
BLOCK_RECORD
  5
23
330
1
100
AcDbSymbolTableRecord
100
AcDbBlockTableRecord
  2
*Paper_Space0
340
26
  0
BLOCK_RECORD
  5
D0
330
1
100
AcDbSymbolTableRecord
100
AcDbBlockTableRecord
  2
_DotSmall
340
0
102
{BLKREFS
331
529B
331
529C
331
52A4
331
52A5
331
52AD
331
52AE
331
52B9
331
52BA
331
52C1
331
52C2
331
52CD
331
52CE
331
52D5
331
52D6
331
52DF
331
52E0
331
52E7
331
52E8
331
52F1
331
52F2
331
52FC
331
52FD
331
5305
331
5306
331
530D
331
530E
331
5316
331
5317
331
531F
331
5320
331
5328
331
5329
331
5331
331
5332
331
533B
331
533C
331
5343
331
5344
331
534C
331
534D
331
5355
331
5356
331
535F
331
5360
331
5367
331
5368
331
5371
331
5372
331
5379
331
537A
331
5382
331
5383
331
538B
331
538C
331
5394
331
5395
331
53A3
331
53A4
331
53AC
331
53AD
331
53B5
331
53B6
331
53BE
331
53BF
331
53C7
331
53C8
331
53D1
331
53D2
331
53DA
331
53DB
331
53E2
331
53E3
331
53EC
331
53ED
331
53F5
331
53F6
331
53FE
331
53FF
331
5406
331
5407
331
5410
331
5411
331
5418
331
5419
331
5421
331
5422
331
5429
331
542A
331
5433
331
5434
331
543B
331
543C
331
5445
331
5446
331
544D
331
544E
331
5456
331
5457
331
545E
331
545F
331
5467
331
5468
102
}
  0
BLOCK_RECORD
  5
D4
330
1
100
AcDbSymbolTableRecord
100
AcDbBlockTableRecord
  2
_Origin2
340
0
  0
BLOCK_RECORD
  5
DA
330
1
100
AcDbSymbolTableRecord
100
AcDbBlockTableRecord
  2
_Open30
340
0
  0
BLOCK_RECORD
  5
35C
330
1
100
AcDbSymbolTableRecord
100
AcDbBlockTableRecord
  2
*D4
340
0
  0
BLOCK_RECORD
  5
369
330
1
100
AcDbSymbolTableRecord
100
AcDbBlockTableRecord
  2
*D5
340
0
  0
BLOCK_RECORD
  5
3CF
330
1
100
AcDbSymbolTableRecord
100
AcDbBlockTableRecord
  2
*D6
340
0
  0
BLOCK_RECORD
  5
3DD
330
1
100
AcDbSymbolTableRecord
100
AcDbBlockTableRecord
  2
*D7
340
0
  0
BLOCK_RECORD
  5
3EA
330
1
100
AcDbSymbolTableRecord
100
AcDbBlockTableRecord
  2
*D8
340
0
  0
BLOCK_RECORD
  5
3F7
330
1
100
AcDbSymbolTableRecord
100
AcDbBlockTableRecord
  2
*D9
340
0
  0
BLOCK_RECORD
  5
43E
330
1
100
AcDbSymbolTableRecord
100
AcDbBlockTableRecord
  2
*D10
340
0
  0
BLOCK_RECORD
  5
44C
330
1
100
AcDbSymbolTableRecord
100
AcDbBlockTableRecord
  2
*D11
340
0
  0
BLOCK_RECORD
  5
459
330
1
100
AcDbSymbolTableRecord
100
AcDbBlockTableRecord
  2
*D12
340
0
  0
BLOCK_RECORD
  5
4A4
330
1
100
AcDbSymbolTableRecord
100
AcDbBlockTableRecord
  2
*D13
340
0
  0
BLOCK_RECORD
  5
104B
330
1
100
AcDbSymbolTableRecord
100
AcDbBlockTableRecord
  2
*D14
340
0
  0
BLOCK_RECORD
  5
1059
330
1
100
AcDbSymbolTableRecord
100
AcDbBlockTableRecord
  2
*D15
340
0
  0
BLOCK_RECORD
  5
1066
330
1
100
AcDbSymbolTableRecord
100
AcDbBlockTableRecord
  2
*D16
340
0
  0
BLOCK_RECORD
  5
1B5A
330
1
100
AcDbSymbolTableRecord
100
AcDbBlockTableRecord
  2
*D17
340
0
  0
BLOCK_RECORD
  5
1B66
330
1
100
AcDbSymbolTableRecord
100
AcDbBlockTableRecord
  2
*D18
340
0
  0
BLOCK_RECORD
  5
1B72
330
1
100
AcDbSymbolTableRecord
100
AcDbBlockTableRecord
  2
*D19
340
0
  0
BLOCK_RECORD
  5
1BE5
330
1
100
AcDbSymbolTableRecord
100
AcDbBlockTableRecord
  2
*D20
340
0
  0
BLOCK_RECORD
  5
1C04
330
1
100
AcDbSymbolTableRecord
100
AcDbBlockTableRecord
  2
*D21
340
0
  0
BLOCK_RECORD
  5
1C24
330
1
100
AcDbSymbolTableRecord
100
AcDbBlockTableRecord
  2
*D22
340
0
  0
BLOCK_RECORD
  5
1E1D
330
1
100
AcDbSymbolTableRecord
100
AcDbBlockTableRecord
  2
*D23
340
0
  0
BLOCK_RECORD
  5
1E29
330
1
100
AcDbSymbolTableRecord
100
AcDbBlockTableRecord
  2
*D24
340
0
  0
BLOCK_RECORD
  5
269B
330
1
100
AcDbSymbolTableRecord
100
AcDbBlockTableRecord
  2
*D25
340
0
  0
BLOCK_RECORD
  5
26A7
330
1
100
AcDbSymbolTableRecord
100
AcDbBlockTableRecord
  2
*D26
340
0
  0
BLOCK_RECORD
  5
373F
330
1
100
AcDbSymbolTableRecord
100
AcDbBlockTableRecord
  2
*D27
340
0
  0
BLOCK_RECORD
  5
3CE4
330
1
100
AcDbSymbolTableRecord
100
AcDbBlockTableRecord
  2
*D28
340
0
  0
BLOCK_RECORD
  5
3CFA
330
1
100
AcDbSymbolTableRecord
100
AcDbBlockTableRecord
  2
*D29
340
0
  0
BLOCK_RECORD
  5
3D10
330
1
100
AcDbSymbolTableRecord
100
AcDbBlockTableRecord
  2
*D30
340
0
  0
BLOCK_RECORD
  5
3E29
330
1
100
AcDbSymbolTableRecord
100
AcDbBlockTableRecord
  2
*D31
340
0
  0
BLOCK_RECORD
  5
3E4A
330
1
100
AcDbSymbolTableRecord
100
AcDbBlockTableRecord
  2
*D32
340
0
  0
BLOCK_RECORD
  5
3E7B
330
1
100
AcDbSymbolTableRecord
100
AcDbBlockTableRecord
  2
*D33
340
0
  0
BLOCK_RECORD
  5
3EB8
330
1
100
AcDbSymbolTableRecord
100
AcDbBlockTableRecord
  2
*D34
340
0
  0
BLOCK_RECORD
  5
3F59
330
1
100
AcDbSymbolTableRecord
100
AcDbBlockTableRecord
  2
*D35
340
0
  0
BLOCK_RECORD
  5
3F6F
330
1
100
AcDbSymbolTableRecord
100
AcDbBlockTableRecord
  2
*D36
340
0
  0
BLOCK_RECORD
  5
3F86
330
1
100
AcDbSymbolTableRecord
100
AcDbBlockTableRecord
  2
*D37
340
0
  0
BLOCK_RECORD
  5
3FD8
330
1
100
AcDbSymbolTableRecord
100
AcDbBlockTableRecord
  2
*D38
340
0
  0
BLOCK_RECORD
  5
3FF7
330
1
100
AcDbSymbolTableRecord
100
AcDbBlockTableRecord
  2
*D39
340
0
  0
BLOCK_RECORD
  5
400D
330
1
100
AcDbSymbolTableRecord
100
AcDbBlockTableRecord
  2
*D40
340
0
  0
BLOCK_RECORD
  5
4023
330
1
100
AcDbSymbolTableRecord
100
AcDbBlockTableRecord
  2
*D41
340
0
  0
BLOCK_RECORD
  5
40C7
330
1
100
AcDbSymbolTableRecord
100
AcDbBlockTableRecord
  2
*D42
340
0
  0
BLOCK_RECORD
  5
40E6
330
1
100
AcDbSymbolTableRecord
100
AcDbBlockTableRecord
  2
*D43
340
0
  0
BLOCK_RECORD
  5
45CD
330
1
100
AcDbSymbolTableRecord
100
AcDbBlockTableRecord
  2
*D44
340
0
  0
BLOCK_RECORD
  5
45DA
330
1
100
AcDbSymbolTableRecord
100
AcDbBlockTableRecord
  2
*D45
340
0
  0
BLOCK_RECORD
  5
45F4
330
1
100
AcDbSymbolTableRecord
100
AcDbBlockTableRecord
  2
*D46
340
0
  0
BLOCK_RECORD
  5
4619
330
1
100
AcDbSymbolTableRecord
100
AcDbBlockTableRecord
  2
*D47
340
0
  0
BLOCK_RECORD
  5
482B
330
1
100
AcDbSymbolTableRecord
100
AcDbBlockTableRecord
  2
*D48
340
0
  0
BLOCK_RECORD
  5
4838
330
1
100
AcDbSymbolTableRecord
100
AcDbBlockTableRecord
  2
*D49
340
0
  0
BLOCK_RECORD
  5
4845
330
1
100
AcDbSymbolTableRecord
100
AcDbBlockTableRecord
  2
*D50
340
0
  0
BLOCK_RECORD
  5
4892
330
1
100
AcDbSymbolTableRecord
100
AcDbBlockTableRecord
  2
*D51
340
0
  0
BLOCK_RECORD
  5
48F6
330
1
100
AcDbSymbolTableRecord
100
AcDbBlockTableRecord
  2
*D52
340
0
  0
BLOCK_RECORD
  5
49E2
330
1
100
AcDbSymbolTableRecord
100
AcDbBlockTableRecord
  2
*D53
340
0
  0
BLOCK_RECORD
  5
4A52
330
1
100
AcDbSymbolTableRecord
100
AcDbBlockTableRecord
  2
*D54
340
0
  0
BLOCK_RECORD
  5
4A69
330
1
100
AcDbSymbolTableRecord
100
AcDbBlockTableRecord
  2
*D55
340
0
  0
ENDTAB
  0
ENDSEC
  0
SECTION
  2
BLOCKS
  0
BLOCK
  5
20
330
1F
100
AcDbEntity
  8
0
100
AcDbBlockBegin
  2
*Model_Space
 70
     0
 10
0.0
 20
0.0
 30
0.0
  3
*Model_Space
  1

  0
ENDBLK
  5
21
330
1F
100
AcDbEntity
  8
0
100
AcDbBlockEnd
  0
BLOCK
  5
1C
330
1B
100
AcDbEntity
 67
     1
  8
0
100
AcDbBlockBegin
  2
*Paper_Space
 70
     0
 10
0.0
 20
0.0
 30
0.0
  3
*Paper_Space
  1

  0
ENDBLK
  5
1D
330
1B
100
AcDbEntity
 67
     1
  8
0
100
AcDbBlockEnd
  0
BLOCK
  5
24
330
23
100
AcDbEntity
  8
0
100
AcDbBlockBegin
  2
*Paper_Space0
 70
     0
 10
0.0
 20
0.0
 30
0.0
  3
*Paper_Space0
  1

  0
ENDBLK
  5
25
330
23
100
AcDbEntity
  8
0
100
AcDbBlockEnd
  0
BLOCK
  5
D2
330
D0
100
AcDbEntity
  8
0
100
AcDbBlockBegin
  2
_DotSmall
 70
     0
 10
0.0
 20
0.0
 30
0.0
  3
_DotSmall
  1

  0
LWPOLYLINE
  5
D1
330
D0
100
AcDbEntity
  8
0
 62
     0
100
AcDbPolyline
 90
        2
 70
     1
 43
0.5
 10
-0.0625
 20
0.0
 42
1.0
 10
0.0625
 20
0.0
 42
1.0
  0
ENDBLK
  5
D3
330
D0
100
AcDbEntity
  8
0
100
AcDbBlockEnd
  0
BLOCK
  5
D8
330
D4
100
AcDbEntity
  8
0
100
AcDbBlockBegin
  2
_Origin2
 70
     0
 10
0.0
 20
0.0
 30
0.0
  3
_Origin2
  1

  0
CIRCLE
  5
D5
330
D4
100
AcDbEntity
  8
0
 62
     0
370
    -2
100
AcDbCircle
 10
0.0
 20
0.0
 30
0.0
 40
0.5
  0
CIRCLE
  5
D6
330
D4
100
AcDbEntity
  8
0
 62
     0
370
    -2
100
AcDbCircle
 10
0.0
 20
0.0
 30
0.0
 40
0.25
  0
LINE
  5
D7
330
D4
100
AcDbEntity
  8
0
 62
     0
370
    -2
100
AcDbLine
 10
-0.5
 20
0.0
 30
0.0
 11
-1.0
 21
0.0
 31
0.0
  0
ENDBLK
  5
D9
330
D4
100
AcDbEntity
  8
0
100
AcDbBlockEnd
  0
BLOCK
  5
DE
330
DA
100
AcDbEntity
  8
0
100
AcDbBlockBegin
  2
_Open30
 70
     0
 10
0.0
 20
0.0
 30
0.0
  3
_Open30
  1

  0
LINE
  5
DB
330
DA
100
AcDbEntity
  8
0
 62
     0
370
    -2
100
AcDbLine
 10
-1.0
 20
0.26794919
 30
0.0
 11
0.0
 21
0.0
 31
0.0
  0
LINE
  5
DC
330
DA
100
AcDbEntity
  8
0
 62
     0
370
    -2
100
AcDbLine
 10
0.0
 20
0.0
 30
0.0
 11
-1.0
 21
-0.26794919
 31
0.0
  0
LINE
  5
DD
330
DA
100
AcDbEntity
  8
0
 62
     0
370
    -2
100
AcDbLine
 10
0.0
 20
0.0
 30
0.0
 11
-1.0
 21
0.0
 31
0.0
  0
ENDBLK
  5
DF
330
DA
100
AcDbEntity
  8
0
100
AcDbBlockEnd
  0
BLOCK
  5
366
330
35C
100
AcDbEntity
  8
0
100
AcDbBlockBegin
  2
*D4
 70
     1
 10
0.0
 20
0.0
 30
0.0
  3
*D4
  1

  0
LINE
  5
5464
330
35C
100
AcDbEntity
  8
実形
 62
     0
370
    15
100
AcDbLine
 10
926.1678384856368
 20
1417.999733260441
 30
0.0
 11
926.1678384856368
 21
1380.356704135434
 31
0.0
  0
LINE
  5
5465
330
35C
100
AcDbEntity
  8
実形
 62
     0
370
    15
100
AcDbLine
 10
451.1678384856367
 20
1370.187035644826
 30
0.0
 11
451.1678384856367
 21
1380.356704135434
 31
0.0
  0
LINE
  5
5466
330
35C
100
AcDbEntity
  8
実形
 62
     0
370
    18
100
AcDbLine
 10
926.1678384856368
 20
1380.356704135434
 30
0.0
 11
451.1678384856367
 21
1380.356704135434
 31
0.0
  0
INSERT
  5
5467
330
35C
100
AcDbEntity
  8
実形
 62
     0
370
    18
100
AcDbBlockReference
  2
_DotSmall
 10
926.1678384856368
 20
1380.356704135434
 30
0.0
 41
35.0
 42
35.0
 43
35.0
  0
INSERT
  5
5468
330
35C
100
AcDbEntity
  8
実形
 62
     0
370
    18
100
AcDbBlockReference
  2
_DotSmall
 10
451.1678384856367
 20
1380.356704135434
 30
0.0
 41
35.0
 42
35.0
 43
35.0
 50
180.0
  0
MTEXT
  5
5469
330
35C
100
AcDbEntity
  8
実形
 62
     0
370
    -2
100
AcDbMText
 10
688.6678384856367
 20
1399.106704135434
 30
0.0
 40
25.0
 41
0.0
 71
     5
 72
     1
  1
475
 73
     1
 44
1.0
1001
ACAD
1000
MTEXTBEGIN
1070
    73
1070
     1
1070
    44
1040
1.0
1070
    74
1070
     0
1000
MTEXTEND
  0
POINT
  5
546A
330
35C
100
AcDbEntity
  8
Defpoints
 62
     0
100
AcDbPoint
 10
926.1678384856368
 20
1482.999733260442
 30
0.0
  0
POINT
  5
546B
330
35C
100
AcDbEntity
  8
Defpoints
 62
     0
100
AcDbPoint
 10
451.1678384856367
 20
1435.187035644826
 30
0.0
  0
POINT
  5
546C
330
35C
100
AcDbEntity
  8
Defpoints
 62
     0
100
AcDbPoint
 10
451.1678384856367
 20
1380.356704135434
 30
0.0
  0
ENDBLK
  5
367
330
35C
100
AcDbEntity
  8
0
100
AcDbBlockEnd
  0
BLOCK
  5
373
330
369
100
AcDbEntity
  8
0
100
AcDbBlockBegin
  2
*D5
 70
     1
 10
0.0
 20
0.0
 30
0.0
  3
*D5
  1

  0
LINE
  5
545B
330
369
100
AcDbEntity
  8
実形
 62
     0
370
    15
100
AcDbLine
 10
1048.823501390562
 20
1490.187035644826
 30
0.0
 11
1247.703050352795
 21
1490.187035644826
 31
0.0
  0
LINE
  5
545C
330
369
100
AcDbEntity
  8
実形
 62
     0
370
    15
100
AcDbLine
 10
991.1678384856369
 20
1640.187035644826
 30
0.0
 11
1247.703050352796
 21
1640.187035644826
 31
0.0
  0
LINE
  5
545D
330
369
100
AcDbEntity
  8
実形
 62
     0
370
    18
100
AcDbLine
 10
1247.703050352795
 20
1490.187035644826
 30
0.0
 11
1247.703050352796
 21
1640.187035644826
 31
0.0
  0
INSERT
  5
545E
330
369
100
AcDbEntity
  8
実形
 62
     0
370
    18
100
AcDbBlockReference
  2
_DotSmall
 10
1247.703050352795
 20
1490.187035644826
 30
0.0
 41
35.0
 42
35.0
 43
35.0
 50
270.0
  0
INSERT
  5
545F
330
369
100
AcDbEntity
  8
実形
 62
     0
370
    18
100
AcDbBlockReference
  2
_DotSmall
 10
1247.703050352796
 20
1640.187035644826
 30
0.0
 41
35.0
 42
35.0
 43
35.0
 50
90.0
  0
MTEXT
  5
5460
330
369
100
AcDbEntity
  8
実形
 62
     0
370
    -2
100
AcDbMText
 10
1228.953050352795
 20
1564.766224830202
 30
0.0
 40
25.0
 41
0.0
 71
     5
 72
     1
  1
150
 11
0.0000000000000001
 21
1.0
 31
0.0
 73
     1
 44
1.0
1001
ACAD
1000
MTEXTBEGIN
1070
    73
1070
     1
1070
    44
1040
1.0
1070
    74
1070
     0
1000
MTEXTEND
  0
POINT
  5
5461
330
369
100
AcDbEntity
  8
Defpoints
 62
     0
100
AcDbPoint
 10
983.8235013905624
 20
1490.187035644826
 30
0.0
  0
POINT
  5
5462
330
369
100
AcDbEntity
  8
Defpoints
 62
     0
100
AcDbPoint
 10
926.1678384856368
 20
1640.187035644826
 30
0.0
  0
POINT
  5
5463
330
369
100
AcDbEntity
  8
Defpoints
 62
     0
100
AcDbPoint
 10
1247.703050352796
 20
1640.187035644826
 30
0.0
  0
ENDBLK
  5
374
330
369
100
AcDbEntity
  8
0
100
AcDbBlockEnd
  0
BLOCK
  5
3DA
330
3CF
100
AcDbEntity
  8
0
100
AcDbBlockBegin
  2
*D6
 70
     1
 10
0.0
 20
0.0
 30
0.0
  3
*D6
  1

  0
LINE
  5
5453
330
3CF
100
AcDbEntity
  8
実形
 62
     0
370
    15
100
AcDbLine
 10
371.1678384856368
 20
1670.187035644826
 30
0.0
 11
277.9925237617636
 21
1670.187035644826
 31
0.0
  0
LINE
  5
5454
330
3CF
100
AcDbEntity
  8
実形
 62
     0
370
    15
100
AcDbLine
 10
371.1678384856368
 20
1655.187035644826
 30
0.0
 11
277.9925237617636
 21
1655.187035644826
 31
0.0
  0
LINE
  5
5455
330
3CF
100
AcDbEntity
  8
実形
 62
     0
370
    18
100
AcDbLine
 10
277.9925237617636
 20
1670.187035644826
 30
0.0
 11
277.9925237617636
 21
1655.187035644826
 31
0.0
  0
INSERT
  5
5456
330
3CF
100
AcDbEntity
  8
実形
 62
     0
370
    18
100
AcDbBlockReference
  2
_DotSmall
 10
277.9925237617636
 20
1670.187035644826
 30
0.0
 41
35.0
 42
35.0
 43
35.0
 50
90.0
  0
INSERT
  5
5457
330
3CF
100
AcDbEntity
  8
実形
 62
     0
370
    18
100
AcDbBlockReference
  2
_DotSmall
 10
277.9925237617636
 20
1655.187035644826
 30
0.0
 41
35.0
 42
35.0
 43
35.0
 50
270.0
  0
POINT
  5
5458
330
3CF
100
AcDbEntity
  8
Defpoints
 62
     0
100
AcDbPoint
 10
436.1678384856368
 20
1670.187035644826
 30
0.0
  0
POINT
  5
5459
330
3CF
100
AcDbEntity
  8
Defpoints
 62
     0
100
AcDbPoint
 10
436.1678384856368
 20
1655.187035644826
 30
0.0
  0
POINT
  5
545A
330
3CF
100
AcDbEntity
  8
Defpoints
 62
     0
100
AcDbPoint
 10
277.9925237617636
 20
1655.187035644826
 30
0.0
  0
ENDBLK
  5
3DB
330
3CF
100
AcDbEntity
  8
0
100
AcDbBlockEnd
  0
BLOCK
  5
3E7
330
3DD
100
AcDbEntity
  8
0
100
AcDbBlockBegin
  2
*D7
 70
     1
 10
0.0
 20
0.0
 30
0.0
  3
*D7
  1

  0
LINE
  5
544A
330
3DD
100
AcDbEntity
  8
実形
 62
     0
370
    15
100
AcDbLine
 10
371.1678384856368
 20
1655.187035644826
 30
0.0
 11
277.9925237617636
 21
1655.187035644826
 31
0.0
  0
LINE
  5
544B
330
3DD
100
AcDbEntity
  8
実形
 62
     0
370
    15
100
AcDbLine
 10
371.1678384856368
 20
1215.187035644826
 30
0.0
 11
277.9925237617636
 21
1215.187035644826
 31
0.0
  0
LINE
  5
544C
330
3DD
100
AcDbEntity
  8
実形
 62
     0
370
    18
100
AcDbLine
 10
277.9925237617636
 20
1655.187035644826
 30
0.0
 11
277.9925237617636
 21
1215.187035644826
 31
0.0
  0
INSERT
  5
544D
330
3DD
100
AcDbEntity
  8
実形
 62
     0
370
    18
100
AcDbBlockReference
  2
_DotSmall
 10
277.9925237617636
 20
1655.187035644826
 30
0.0
 41
35.0
 42
35.0
 43
35.0
 50
90.0
  0
INSERT
  5
544E
330
3DD
100
AcDbEntity
  8
実形
 62
     0
370
    18
100
AcDbBlockReference
  2
_DotSmall
 10
277.9925237617636
 20
1215.187035644826
 30
0.0
 41
35.0
 42
35.0
 43
35.0
 50
270.0
  0
MTEXT
  5
544F
330
3DD
100
AcDbEntity
  8
実形
 62
     0
100
AcDbMText
 10
259.2425237617634
 20
1435.187035644826
 30
0.0
 40
25.0
 41
0.0
 71
     5
 72
     1
  1
440
 11
0.0000000000000001
 21
1.0
 31
0.0
 73
     1
 44
1.0
1001
ACAD
1000
MTEXTBEGIN
1070
    73
1070
     1
1070
    44
1040
1.0
1070
    74
1070
     0
1000
MTEXTEND
  0
POINT
  5
5450
330
3DD
100
AcDbEntity
  8
Defpoints
 62
     0
100
AcDbPoint
 10
436.1678384856368
 20
1655.187035644826
 30
0.0
  0
POINT
  5
5451
330
3DD
100
AcDbEntity
  8
Defpoints
 62
     0
100
AcDbPoint
 10
436.1678384856368
 20
1215.187035644826
 30
0.0
  0
POINT
  5
5452
330
3DD
100
AcDbEntity
  8
Defpoints
 62
     0
100
AcDbPoint
 10
277.9925237617636
 20
1215.187035644826
 30
0.0
  0
ENDBLK
  5
3E8
330
3DD
100
AcDbEntity
  8
0
100
AcDbBlockEnd
  0
BLOCK
  5
3F4
330
3EA
100
AcDbEntity
  8
0
100
AcDbBlockBegin
  2
*D8
 70
     1
 10
0.0
 20
0.0
 30
0.0
  3
*D8
  1

  0
LINE
  5
5441
330
3EA
100
AcDbEntity
  8
実形
 62
     0
370
    15
100
AcDbLine
 10
371.1678384856368
 20
1215.187035644826
 30
0.0
 11
277.9925237617636
 21
1215.187035644826
 31
0.0
  0
LINE
  5
5442
330
3EA
100
AcDbEntity
  8
実形
 62
     0
370
    15
100
AcDbLine
 10
371.1678384856368
 20
1200.187035644826
 30
0.0
 11
277.9925237617636
 21
1200.187035644826
 31
0.0
  0
LINE
  5
5443
330
3EA
100
AcDbEntity
  8
実形
 62
     0
370
    18
100
AcDbLine
 10
277.9925237617636
 20
1215.187035644826
 30
0.0
 11
277.9925237617636
 21
1200.187035644826
 31
0.0
  0
MTEXT
  5
5444
330
3EA
100
AcDbEntity
  8
実形
 62
     0
370
    -2
100
AcDbMText
 10
253.6749865521361
 20
1223.443354612232
 30
0.0
 40
25.0
 41
0.0
 71
     5
 72
     1
  1
15
 11
0.0000000000000001
 21
1.0
 31
0.0
 73
     1
 44
1.0
1001
ACAD
1000
MTEXTBEGIN
1070
    73
1070
     1
1070
    44
1040
1.0
1070
    74
1070
     0
1000
MTEXTEND
  0
INSERT
  5
5445
330
3EA
100
AcDbEntity
  8
実形
 62
     0
370
    18
100
AcDbBlockReference
  2
_DotSmall
 10
277.9925237617636
 20
1215.187035644826
 30
0.0
 41
35.0
 42
35.0
 43
35.0
 50
90.0
  0
INSERT
  5
5446
330
3EA
100
AcDbEntity
  8
実形
 62
     0
370
    18
100
AcDbBlockReference
  2
_DotSmall
 10
277.9925237617636
 20
1200.187035644826
 30
0.0
 41
35.0
 42
35.0
 43
35.0
 50
270.0
  0
POINT
  5
5447
330
3EA
100
AcDbEntity
  8
Defpoints
 62
     0
100
AcDbPoint
 10
436.1678384856368
 20
1215.187035644826
 30
0.0
  0
POINT
  5
5448
330
3EA
100
AcDbEntity
  8
Defpoints
 62
     0
100
AcDbPoint
 10
436.1678384856368
 20
1200.187035644826
 30
0.0
  0
POINT
  5
5449
330
3EA
100
AcDbEntity
  8
Defpoints
 62
     0
100
AcDbPoint
 10
277.9925237617636
 20
1200.187035644826
 30
0.0
  0
ENDBLK
  5
3F5
330
3EA
100
AcDbEntity
  8
0
100
AcDbBlockEnd
  0
BLOCK
  5
401
330
3F7
100
AcDbEntity
  8
0
100
AcDbBlockBegin
  2
*D9
 70
     1
 10
0.0
 20
0.0
 30
0.0
  3
*D9
  1

  0
LINE
  5
5438
330
3F7
100
AcDbEntity
  8
実形
 62
     0
370
    15
100
AcDbLine
 10
371.1678384856368
 20
1670.187035644826
 30
0.0
 11
224.1526254370793
 21
1670.187035644826
 31
0.0
  0
LINE
  5
5439
330
3F7
100
AcDbEntity
  8
実形
 62
     0
370
    15
100
AcDbLine
 10
371.1678384856368
 20
1200.187035644826
 30
0.0
 11
224.1526254370792
 21
1200.187035644826
 31
0.0
  0
LINE
  5
543A
330
3F7
100
AcDbEntity
  8
実形
 62
     0
370
    18
100
AcDbLine
 10
224.1526254370793
 20
1670.187035644826
 30
0.0
 11
224.1526254370792
 21
1200.187035644826
 31
0.0
  0
INSERT
  5
543B
330
3F7
100
AcDbEntity
  8
実形
 62
     0
370
    18
100
AcDbBlockReference
  2
_DotSmall
 10
224.1526254370793
 20
1670.187035644826
 30
0.0
 41
35.0
 42
35.0
 43
35.0
 50
90.0
  0
INSERT
  5
543C
330
3F7
100
AcDbEntity
  8
実形
 62
     0
370
    18
100
AcDbBlockReference
  2
_DotSmall
 10
224.1526254370792
 20
1200.187035644826
 30
0.0
 41
35.0
 42
35.0
 43
35.0
 50
270.0
  0
MTEXT
  5
543D
330
3F7
100
AcDbEntity
  8
実形
 62
     0
100
AcDbMText
 10
205.4026254370791
 20
1435.187035644826
 30
0.0
 40
25.0
 41
0.0
 71
     5
 72
     1
  1
470
 11
0.0000000000000001
 21
1.0
 31
0.0
 73
     1
 44
1.0
1001
ACAD
1000
MTEXTBEGIN
1070
    73
1070
     1
1070
    44
1040
1.0
1070
    74
1070
     0
1000
MTEXTEND
  0
POINT
  5
543E
330
3F7
100
AcDbEntity
  8
Defpoints
 62
     0
100
AcDbPoint
 10
436.1678384856368
 20
1670.187035644826
 30
0.0
  0
POINT
  5
543F
330
3F7
100
AcDbEntity
  8
Defpoints
 62
     0
100
AcDbPoint
 10
436.1678384856368
 20
1200.187035644826
 30
0.0
  0
POINT
  5
5440
330
3F7
100
AcDbEntity
  8
Defpoints
 62
     0
100
AcDbPoint
 10
224.1526254370792
 20
1200.187035644826
 30
0.0
  0
ENDBLK
  5
402
330
3F7
100
AcDbEntity
  8
0
100
AcDbBlockEnd
  0
BLOCK
  5
449
330
43E
100
AcDbEntity
  8
0
100
AcDbBlockBegin
  2
*D10
 70
     1
 10
0.0
 20
0.0
 30
0.0
  3
*D10
  1

  0
LINE
  5
542F
330
43E
100
AcDbEntity
  8
実形
 62
     0
370
    15
100
AcDbLine
 10
436.1678384856368
 20
1135.187035644826
 30
0.0
 11
436.1678384856368
 21
1052.254917874772
 31
0.0
  0
LINE
  5
5430
330
43E
100
AcDbEntity
  8
実形
 62
     0
370
    15
100
AcDbLine
 10
451.1678384856367
 20
1135.187035644826
 30
0.0
 11
451.1678384856367
 21
1052.254917874772
 31
0.0
  0
LINE
  5
5431
330
43E
100
AcDbEntity
  8
実形
 62
     0
370
    18
100
AcDbLine
 10
436.1678384856368
 20
1052.254917874772
 30
0.0
 11
451.1678384856367
 21
1052.254917874772
 31
0.0
  0
LINE
  5
5432
330
43E
100
AcDbEntity
  8
実形
 62
     0
370
    18
100
AcDbLine
 10
451.1678384856367
 20
1052.254917874772
 30
0.0
 11
516.9178384856368
 21
1052.254917874772
 31
0.0
  0
INSERT
  5
5433
330
43E
100
AcDbEntity
  8
実形
 62
     0
370
    18
100
AcDbBlockReference
  2
_DotSmall
 10
436.1678384856368
 20
1052.254917874772
 30
0.0
 41
35.0
 42
35.0
 43
35.0
 50
180.0
  0
INSERT
  5
5434
330
43E
100
AcDbEntity
  8
実形
 62
     0
370
    18
100
AcDbBlockReference
  2
_DotSmall
 10
451.1678384856367
 20
1052.254917874772
 30
0.0
 41
35.0
 42
35.0
 43
35.0
  0
POINT
  5
5435
330
43E
100
AcDbEntity
  8
Defpoints
 62
     0
100
AcDbPoint
 10
436.1678384856368
 20
1200.187035644826
 30
0.0
  0
POINT
  5
5436
330
43E
100
AcDbEntity
  8
Defpoints
 62
     0
100
AcDbPoint
 10
451.1678384856367
 20
1200.187035644826
 30
0.0
  0
POINT
  5
5437
330
43E
100
AcDbEntity
  8
Defpoints
 62
     0
100
AcDbPoint
 10
451.1678384856367
 20
1052.254917874772
 30
0.0
  0
ENDBLK
  5
44A
330
43E
100
AcDbEntity
  8
0
100
AcDbBlockEnd
  0
BLOCK
  5
456
330
44C
100
AcDbEntity
  8
0
100
AcDbBlockBegin
  2
*D11
 70
     1
 10
0.0
 20
0.0
 30
0.0
  3
*D11
  1

  0
LINE
  5
5426
330
44C
100
AcDbEntity
  8
実形
 62
     0
370
    15
100
AcDbLine
 10
451.1678384856367
 20
1135.187035644826
 30
0.0
 11
451.1678384856367
 21
1052.254917874772
 31
0.0
  0
LINE
  5
5427
330
44C
100
AcDbEntity
  8
実形
 62
     0
370
    15
100
AcDbLine
 10
1401.167838485637
 20
1135.187035644826
 30
0.0
 11
1401.167838485637
 21
1052.254917874772
 31
0.0
  0
LINE
  5
5428
330
44C
100
AcDbEntity
  8
実形
 62
     0
370
    18
100
AcDbLine
 10
451.1678384856367
 20
1052.254917874772
 30
0.0
 11
1401.167838485637
 21
1052.254917874772
 31
0.0
  0
INSERT
  5
5429
330
44C
100
AcDbEntity
  8
実形
 62
     0
370
    18
100
AcDbBlockReference
  2
_DotSmall
 10
451.1678384856367
 20
1052.254917874772
 30
0.0
 41
35.0
 42
35.0
 43
35.0
 50
180.0
  0
INSERT
  5
542A
330
44C
100
AcDbEntity
  8
実形
 62
     0
370
    18
100
AcDbBlockReference
  2
_DotSmall
 10
1401.167838485637
 20
1052.254917874772
 30
0.0
 41
35.0
 42
35.0
 43
35.0
  0
MTEXT
  5
542B
330
44C
100
AcDbEntity
  8
実形
 62
     0
100
AcDbMText
 10
926.1678384856368
 20
1071.004917874772
 30
0.0
 40
25.0
 41
0.0
 71
     5
 72
     1
  1
950
 73
     1
 44
1.0
1001
ACAD
1000
MTEXTBEGIN
1070
    73
1070
     1
1070
    44
1040
1.0
1070
    74
1070
     0
1000
MTEXTEND
  0
POINT
  5
542C
330
44C
100
AcDbEntity
  8
Defpoints
 62
     0
100
AcDbPoint
 10
451.1678384856367
 20
1200.187035644826
 30
0.0
  0
POINT
  5
542D
330
44C
100
AcDbEntity
  8
Defpoints
 62
     0
100
AcDbPoint
 10
1401.167838485637
 20
1200.187035644826
 30
0.0
  0
POINT
  5
542E
330
44C
100
AcDbEntity
  8
Defpoints
 62
     0
100
AcDbPoint
 10
1401.167838485637
 20
1052.254917874772
 30
0.0
  0
ENDBLK
  5
457
330
44C
100
AcDbEntity
  8
0
100
AcDbBlockEnd
  0
BLOCK
  5
465
330
459
100
AcDbEntity
  8
0
100
AcDbBlockBegin
  2
*D12
 70
     1
 10
0.0
 20
0.0
 30
0.0
  3
*D12
  1

  0
LINE
  5
541E
330
459
100
AcDbEntity
  8
実形
 62
     0
370
    15
100
AcDbLine
 10
1401.167838485637
 20
1135.187035644826
 30
0.0
 11
1401.167838485637
 21
1052.254917874772
 31
0.0
  0
LINE
  5
541F
330
459
100
AcDbEntity
  8
実形
 62
     0
370
    15
100
AcDbLine
 10
1416.167838485637
 20
1135.187035644826
 30
0.0
 11
1416.167838485637
 21
1052.254917874772
 31
0.0
  0
LINE
  5
5420
330
459
100
AcDbEntity
  8
実形
 62
     0
370
    18
100
AcDbLine
 10
1401.167838485637
 20
1052.254917874772
 30
0.0
 11
1416.167838485637
 21
1052.254917874772
 31
0.0
  0
INSERT
  5
5421
330
459
100
AcDbEntity
  8
実形
 62
     0
370
    18
100
AcDbBlockReference
  2
_DotSmall
 10
1401.167838485637
 20
1052.254917874772
 30
0.0
 41
35.0
 42
35.0
 43
35.0
 50
180.0
  0
INSERT
  5
5422
330
459
100
AcDbEntity
  8
実形
 62
     0
370
    18
100
AcDbBlockReference
  2
_DotSmall
 10
1416.167838485637
 20
1052.254917874772
 30
0.0
 41
35.0
 42
35.0
 43
35.0
  0
POINT
  5
5423
330
459
100
AcDbEntity
  8
Defpoints
 62
     0
100
AcDbPoint
 10
1401.167838485637
 20
1200.187035644826
 30
0.0
  0
POINT
  5
5424
330
459
100
AcDbEntity
  8
Defpoints
 62
     0
100
AcDbPoint
 10
1416.167838485637
 20
1200.187035644826
 30
0.0
  0
POINT
  5
5425
330
459
100
AcDbEntity
  8
Defpoints
 62
     0
100
AcDbPoint
 10
1416.167838485637
 20
1052.254917874772
 30
0.0
  0
ENDBLK
  5
466
330
459
100
AcDbEntity
  8
0
100
AcDbBlockEnd
  0
BLOCK
  5
4AE
330
4A4
100
AcDbEntity
  8
0
100
AcDbBlockBegin
  2
*D13
 70
     1
 10
0.0
 20
0.0
 30
0.0
  3
*D13
  1

  0
LINE
  5
5415
330
4A4
100
AcDbEntity
  8
実形
 62
     0
370
    15
100
AcDbLine
 10
436.1678384856368
 20
1135.187035644826
 30
0.0
 11
436.1678384856368
 21
998.2415905294928
 31
0.0
  0
LINE
  5
5416
330
4A4
100
AcDbEntity
  8
実形
 62
     0
370
    15
100
AcDbLine
 10
1416.167838485637
 20
1135.187035644826
 30
0.0
 11
1416.167838485637
 21
998.2415905294928
 31
0.0
  0
LINE
  5
5417
330
4A4
100
AcDbEntity
  8
実形
 62
     0
370
    18
100
AcDbLine
 10
436.1678384856368
 20
998.2415905294928
 30
0.0
 11
1416.167838485637
 21
998.2415905294928
 31
0.0
  0
INSERT
  5
5418
330
4A4
100
AcDbEntity
  8
実形
 62
     0
370
    18
100
AcDbBlockReference
  2
_DotSmall
 10
436.1678384856368
 20
998.2415905294928
 30
0.0
 41
35.0
 42
35.0
 43
35.0
 50
180.0
  0
INSERT
  5
5419
330
4A4
100
AcDbEntity
  8
実形
 62
     0
370
    18
100
AcDbBlockReference
  2
_DotSmall
 10
1416.167838485637
 20
998.2415905294928
 30
0.0
 41
35.0
 42
35.0
 43
35.0
  0
MTEXT
  5
541A
330
4A4
100
AcDbEntity
  8
実形
 62
     0
100
AcDbMText
 10
926.1678384856368
 20
1016.991590529493
 30
0.0
 40
25.0
 41
0.0
 71
     5
 72
     1
  1
980
 73
     1
 44
1.0
1001
ACAD
1000
MTEXTBEGIN
1070
    73
1070
     1
1070
    44
1040
1.0
1070
    74
1070
     0
1000
MTEXTEND
  0
POINT
  5
541B
330
4A4
100
AcDbEntity
  8
Defpoints
 62
     0
100
AcDbPoint
 10
436.1678384856368
 20
1200.187035644826
 30
0.0
  0
POINT
  5
541C
330
4A4
100
AcDbEntity
  8
Defpoints
 62
     0
100
AcDbPoint
 10
1416.167838485637
 20
1200.187035644826
 30
0.0
  0
POINT
  5
541D
330
4A4
100
AcDbEntity
  8
Defpoints
 62
     0
100
AcDbPoint
 10
1416.167838485637
 20
998.2415905294928
 30
0.0
  0
ENDBLK
  5
4AF
330
4A4
100
AcDbEntity
  8
0
100
AcDbBlockEnd
  0
BLOCK
  5
1056
330
104B
100
AcDbEntity
  8
0
100
AcDbBlockBegin
  2
*D14
 70
     1
 10
0.0
 20
0.0
 30
0.0
  3
*D14
  1

  0
LINE
  5
540C
330
104B
100
AcDbEntity
  8
実形
 62
     0
370
    18
100
AcDbLine
 10
371.1678384856368
 20
1655.187035644826
 30
0.0
 11
330.8586826671235
 21
1655.187035644826
 31
0.0
  0
LINE
  5
540D
330
104B
100
AcDbEntity
  8
実形
 62
     0
370
    18
100
AcDbLine
 10
371.1678384856368
 20
1640.187035644826
 30
0.0
 11
330.8586826671235
 21
1640.187035644826
 31
0.0
  0
LINE
  5
540E
330
104B
100
AcDbEntity
  8
実形
 62
     0
370
    18
100
AcDbLine
 10
330.8586826671235
 20
1655.187035644826
 30
0.0
 11
330.8586826671235
 21
1640.187035644826
 31
0.0
  0
MTEXT
  5
540F
330
104B
100
AcDbEntity
  8
実形
 62
     0
100
AcDbMText
 10
306.9577020842553
 20
1633.939094675534
 30
0.0
 40
25.0
 41
0.0
 71
     5
 72
     1
  1
15
 11
0.0000000000000001
 21
1.0
 31
0.0
 73
     1
 44
1.0
1001
ACAD
1000
MTEXTBEGIN
1070
    73
1070
     1
1070
    44
1040
1.0
1070
    74
1070
     0
1000
MTEXTEND
  0
INSERT
  5
5410
330
104B
100
AcDbEntity
  8
実形
 62
     0
370
    18
100
AcDbBlockReference
  2
_DotSmall
 10
330.8586826671235
 20
1655.187035644826
 30
0.0
 41
35.0
 42
35.0
 43
35.0
 50
90.0
  0
INSERT
  5
5411
330
104B
100
AcDbEntity
  8
実形
 62
     0
370
    18
100
AcDbBlockReference
  2
_DotSmall
 10
330.8586826671235
 20
1640.187035644826
 30
0.0
 41
35.0
 42
35.0
 43
35.0
 50
270.0
  0
POINT
  5
5412
330
104B
100
AcDbEntity
  8
Defpoints
 62
     0
100
AcDbPoint
 10
436.1678384856368
 20
1655.187035644826
 30
0.0
  0
POINT
  5
5413
330
104B
100
AcDbEntity
  8
Defpoints
 62
     0
100
AcDbPoint
 10
436.1678384856368
 20
1640.187035644826
 30
0.0
  0
POINT
  5
5414
330
104B
100
AcDbEntity
  8
Defpoints
 62
     0
100
AcDbPoint
 10
330.8586826671235
 20
1640.187035644826
 30
0.0
  0
ENDBLK
  5
1057
330
104B
100
AcDbEntity
  8
0
100
AcDbBlockEnd
  0
BLOCK
  5
1063
330
1059
100
AcDbEntity
  8
0
100
AcDbBlockBegin
  2
*D15
 70
     1
 10
0.0
 20
0.0
 30
0.0
  3
*D15
  1

  0
LINE
  5
5403
330
1059
100
AcDbEntity
  8
実形
 62
     0
370
    18
100
AcDbLine
 10
371.1678384856368
 20
1640.187035644826
 30
0.0
 11
330.8586826671235
 21
1640.187035644826
 31
0.0
  0
LINE
  5
5404
330
1059
100
AcDbEntity
  8
実形
 62
     0
370
    18
100
AcDbLine
 10
371.1678384856368
 20
1230.187035644826
 30
0.0
 11
330.8586826671235
 21
1230.187035644826
 31
0.0
  0
LINE
  5
5405
330
1059
100
AcDbEntity
  8
実形
 62
     0
370
    18
100
AcDbLine
 10
330.8586826671235
 20
1640.187035644826
 30
0.0
 11
330.8586826671235
 21
1230.187035644826
 31
0.0
  0
INSERT
  5
5406
330
1059
100
AcDbEntity
  8
実形
 62
     0
370
    18
100
AcDbBlockReference
  2
_DotSmall
 10
330.8586826671235
 20
1640.187035644826
 30
0.0
 41
35.0
 42
35.0
 43
35.0
 50
90.0
  0
INSERT
  5
5407
330
1059
100
AcDbEntity
  8
実形
 62
     0
370
    18
100
AcDbBlockReference
  2
_DotSmall
 10
330.8586826671235
 20
1230.187035644826
 30
0.0
 41
35.0
 42
35.0
 43
35.0
 50
270.0
  0
MTEXT
  5
5408
330
1059
100
AcDbEntity
  8
実形
 62
     0
100
AcDbMText
 10
312.1086826671233
 20
1435.187035644826
 30
0.0
 40
25.0
 41
0.0
 71
     5
 72
     1
  1
410
 11
0.0000000000000001
 21
1.0
 31
0.0
 73
     1
 44
1.0
1001
ACAD
1000
MTEXTBEGIN
1070
    73
1070
     1
1070
    44
1040
1.0
1070
    74
1070
     0
1000
MTEXTEND
  0
POINT
  5
5409
330
1059
100
AcDbEntity
  8
Defpoints
 62
     0
100
AcDbPoint
 10
436.1678384856368
 20
1640.187035644826
 30
0.0
  0
POINT
  5
540A
330
1059
100
AcDbEntity
  8
Defpoints
 62
     0
100
AcDbPoint
 10
436.1678384856368
 20
1230.187035644826
 30
0.0
  0
POINT
  5
540B
330
1059
100
AcDbEntity
  8
Defpoints
 62
     0
100
AcDbPoint
 10
330.8586826671235
 20
1230.187035644826
 30
0.0
  0
ENDBLK
  5
1064
330
1059
100
AcDbEntity
  8
0
100
AcDbBlockEnd
  0
BLOCK
  5
1070
330
1066
100
AcDbEntity
  8
0
100
AcDbBlockBegin
  2
*D16
 70
     1
 10
0.0
 20
0.0
 30
0.0
  3
*D16
  1

  0
LINE
  5
53FA
330
1066
100
AcDbEntity
  8
実形
 62
     0
370
    18
100
AcDbLine
 10
371.1678384856368
 20
1230.187035644826
 30
0.0
 11
330.8586826671234
 21
1230.187035644826
 31
0.0
  0
LINE
  5
53FB
330
1066
100
AcDbEntity
  8
実形
 62
     0
370
    18
100
AcDbLine
 10
371.1678384856368
 20
1215.187035644826
 30
0.0
 11
330.8586826671234
 21
1215.187035644826
 31
0.0
  0
LINE
  5
53FC
330
1066
100
AcDbEntity
  8
実形
 62
     0
370
    18
100
AcDbLine
 10
330.8586826671234
 20
1230.187035644826
 30
0.0
 11
330.8586826671234
 21
1215.187035644826
 31
0.0
  0
MTEXT
  5
53FD
330
1066
100
AcDbEntity
  8
実形
 62
     0
100
AcDbMText
 10
309.641797347831
 20
1238.911309260595
 30
0.0
 40
25.0
 41
0.0
 71
     5
 72
     1
  1
15
 11
0.0000000000000001
 21
1.0
 31
0.0
 73
     1
 44
1.0
1001
ACAD
1000
MTEXTBEGIN
1070
    73
1070
     1
1070
    44
1040
1.0
1070
    74
1070
     0
1000
MTEXTEND
  0
INSERT
  5
53FE
330
1066
100
AcDbEntity
  8
実形
 62
     0
370
    18
100
AcDbBlockReference
  2
_DotSmall
 10
330.8586826671234
 20
1230.187035644826
 30
0.0
 41
35.0
 42
35.0
 43
35.0
 50
90.0
  0
INSERT
  5
53FF
330
1066
100
AcDbEntity
  8
実形
 62
     0
370
    18
100
AcDbBlockReference
  2
_DotSmall
 10
330.8586826671234
 20
1215.187035644826
 30
0.0
 41
35.0
 42
35.0
 43
35.0
 50
270.0
  0
POINT
  5
5400
330
1066
100
AcDbEntity
  8
Defpoints
 62
     0
100
AcDbPoint
 10
436.1678384856368
 20
1230.187035644826
 30
0.0
  0
POINT
  5
5401
330
1066
100
AcDbEntity
  8
Defpoints
 62
     0
100
AcDbPoint
 10
436.1678384856368
 20
1215.187035644826
 30
0.0
  0
POINT
  5
5402
330
1066
100
AcDbEntity
  8
Defpoints
 62
     0
100
AcDbPoint
 10
330.8586826671234
 20
1215.187035644826
 30
0.0
  0
ENDBLK
  5
1071
330
1066
100
AcDbEntity
  8
0
100
AcDbBlockEnd
  0
BLOCK
  5
1B64
330
1B5A
100
AcDbEntity
  8
0
100
AcDbBlockBegin
  2
*D17
 70
     1
 10
0.0
 20
0.0
 30
0.0
  3
*D17
  1

  0
LINE
  5
53F1
330
1B5A
100
AcDbEntity
  8
実形
 62
     0
370
    18
100
AcDbLine
 10
1460.682984860412
 20
1689.187035644826
 30
0.0
 11
1498.84397665845
 21
1689.187035644826
 31
0.0
  0
LINE
  5
53F2
330
1B5A
100
AcDbEntity
  8
実形
 62
     0
370
    18
100
AcDbLine
 10
1460.682984860412
 20
1655.187035644826
 30
0.0
 11
1498.84397665845
 21
1655.187035644826
 31
0.0
  0
LINE
  5
53F3
330
1B5A
100
AcDbEntity
  8
実形
 62
     0
370
    18
100
AcDbLine
 10
1498.84397665845
 20
1689.187035644826
 30
0.0
 11
1498.84397665845
 21
1655.187035644826
 31
0.0
  0
MTEXT
  5
53F4
330
1B5A
100
AcDbEntity
  8
実形
 62
     0
100
AcDbMText
 10
1476.620956592111
 20
1623.291280890229
 30
0.0
 40
25.0
 41
0.0
 71
     5
 72
     1
  1
35
 11
0.0000000000000001
 21
1.0
 31
0.0
 73
     1
 44
1.0
1001
ACAD
1000
MTEXTBEGIN
1070
    73
1070
     1
1070
    44
1040
1.0
1070
    74
1070
     0
1000
MTEXTEND
  0
INSERT
  5
53F5
330
1B5A
100
AcDbEntity
  8
実形
 62
     0
370
    18
100
AcDbBlockReference
  2
_DotSmall
 10
1498.84397665845
 20
1689.187035644826
 30
0.0
 41
35.0
 42
35.0
 43
35.0
 50
90.0
  0
INSERT
  5
53F6
330
1B5A
100
AcDbEntity
  8
実形
 62
     0
370
    18
100
AcDbBlockReference
  2
_DotSmall
 10
1498.84397665845
 20
1655.187035644826
 30
0.0
 41
35.0
 42
35.0
 43
35.0
 50
270.0
  0
POINT
  5
53F7
330
1B5A
100
AcDbEntity
  8
Defpoints
 62
     0
100
AcDbPoint
 10
1395.682984860412
 20
1689.187035644826
 30
0.0
  0
POINT
  5
53F8
330
1B5A
100
AcDbEntity
  8
Defpoints
 62
     0
100
AcDbPoint
 10
1395.682984860412
 20
1655.187035644826
 30
0.0
  0
POINT
  5
53F9
330
1B5A
100
AcDbEntity
  8
Defpoints
 62
     0
100
AcDbPoint
 10
1498.84397665845
 20
1655.187035644826
 30
0.0
  0
ENDBLK
  5
1B65
330
1B5A
100
AcDbEntity
  8
0
100
AcDbBlockEnd
  0
BLOCK
  5
1B70
330
1B66
100
AcDbEntity
  8
0
100
AcDbBlockBegin
  2
*D18
 70
     1
 10
0.0
 20
0.0
 30
0.0
  3
*D18
  1

  0
LINE
  5
53E8
330
1B66
100
AcDbEntity
  8
実形
 62
     0
370
    18
100
AcDbLine
 10
1460.682984860412
 20
1215.187035644826
 30
0.0
 11
1498.84397665845
 21
1215.187035644826
 31
0.0
  0
LINE
  5
53E9
330
1B66
100
AcDbEntity
  8
実形
 62
     0
370
    18
100
AcDbLine
 10
1460.682984860412
 20
1181.187035644826
 30
0.0
 11
1498.84397665845
 21
1181.187035644826
 31
0.0
  0
LINE
  5
53EA
330
1B66
100
AcDbEntity
  8
実形
 62
     0
370
    18
100
AcDbLine
 10
1498.84397665845
 20
1215.187035644826
 30
0.0
 11
1498.84397665845
 21
1181.187035644826
 31
0.0
  0
MTEXT
  5
53EB
330
1B66
100
AcDbEntity
  8
実形
 62
     0
100
AcDbMText
 10
1481.320377421294
 20
1256.875269712179
 30
0.0
 40
25.0
 41
0.0
 71
     5
 72
     1
  1
35
 11
0.0000000000000001
 21
1.0
 31
0.0
 73
     1
 44
1.0
1001
ACAD
1000
MTEXTBEGIN
1070
    73
1070
     1
1070
    44
1040
1.0
1070
    74
1070
     0
1000
MTEXTEND
  0
INSERT
  5
53EC
330
1B66
100
AcDbEntity
  8
実形
 62
     0
370
    18
100
AcDbBlockReference
  2
_DotSmall
 10
1498.84397665845
 20
1215.187035644826
 30
0.0
 41
35.0
 42
35.0
 43
35.0
 50
90.0
  0
INSERT
  5
53ED
330
1B66
100
AcDbEntity
  8
実形
 62
     0
370
    18
100
AcDbBlockReference
  2
_DotSmall
 10
1498.84397665845
 20
1181.187035644826
 30
0.0
 41
35.0
 42
35.0
 43
35.0
 50
270.0
  0
POINT
  5
53EE
330
1B66
100
AcDbEntity
  8
Defpoints
 62
     0
100
AcDbPoint
 10
1395.682984860412
 20
1215.187035644826
 30
0.0
  0
POINT
  5
53EF
330
1B66
100
AcDbEntity
  8
Defpoints
 62
     0
100
AcDbPoint
 10
1395.682984860412
 20
1181.187035644826
 30
0.0
  0
POINT
  5
53F0
330
1B66
100
AcDbEntity
  8
Defpoints
 62
     0
100
AcDbPoint
 10
1498.84397665845
 20
1181.187035644826
 30
0.0
  0
ENDBLK
  5
1B71
330
1B66
100
AcDbEntity
  8
0
100
AcDbBlockEnd
  0
BLOCK
  5
1B7C
330
1B72
100
AcDbEntity
  8
0
100
AcDbBlockBegin
  2
*D19
 70
     1
 10
0.0
 20
0.0
 30
0.0
  3
*D19
  1

  0
LINE
  5
53DF
330
1B72
100
AcDbEntity
  8
実形
 62
     0
370
    18
100
AcDbLine
 10
1497.77556739369
 20
1689.187035644826
 30
0.0
 11
1547.240927501966
 21
1689.187035644826
 31
0.0
  0
LINE
  5
53E0
330
1B72
100
AcDbEntity
  8
実形
 62
     0
370
    18
100
AcDbLine
 10
1497.77556739369
 20
1181.187035644826
 30
0.0
 11
1547.240927501965
 21
1181.187035644826
 31
0.0
  0
LINE
  5
53E1
330
1B72
100
AcDbEntity
  8
実形
 62
     0
370
    18
100
AcDbLine
 10
1547.240927501966
 20
1689.187035644826
 30
0.0
 11
1547.240927501965
 21
1181.187035644826
 31
0.0
  0
INSERT
  5
53E2
330
1B72
100
AcDbEntity
  8
実形
 62
     0
370
    18
100
AcDbBlockReference
  2
_DotSmall
 10
1547.240927501966
 20
1689.187035644826
 30
0.0
 41
35.0
 42
35.0
 43
35.0
 50
90.0
  0
INSERT
  5
53E3
330
1B72
100
AcDbEntity
  8
実形
 62
     0
370
    18
100
AcDbBlockReference
  2
_DotSmall
 10
1547.240927501965
 20
1181.187035644826
 30
0.0
 41
35.0
 42
35.0
 43
35.0
 50
270.0
  0
MTEXT
  5
53E4
330
1B72
100
AcDbEntity
  8
実形
 62
     0
100
AcDbMText
 10
1528.490927501965
 20
1435.187035644826
 30
0.0
 40
25.0
 41
0.0
 71
     5
 72
     1
  1
508
 11
0.0000000000000001
 21
1.0
 31
0.0
 73
     1
 44
1.0
1001
ACAD
1000
MTEXTBEGIN
1070
    73
1070
     1
1070
    44
1040
1.0
1070
    74
1070
     0
1000
MTEXTEND
  0
POINT
  5
53E5
330
1B72
100
AcDbEntity
  8
Defpoints
 62
     0
100
AcDbPoint
 10
1432.77556739369
 20
1689.187035644826
 30
0.0
  0
POINT
  5
53E6
330
1B72
100
AcDbEntity
  8
Defpoints
 62
     0
100
AcDbPoint
 10
1432.77556739369
 20
1181.187035644826
 30
0.0
  0
POINT
  5
53E7
330
1B72
100
AcDbEntity
  8
Defpoints
 62
     0
100
AcDbPoint
 10
1547.240927501965
 20
1181.187035644826
 30
0.0
  0
ENDBLK
  5
1B7D
330
1B72
100
AcDbEntity
  8
0
100
AcDbBlockEnd
  0
BLOCK
  5
1BEF
330
1BE5
100
AcDbEntity
  8
0
100
AcDbBlockBegin
  2
*D20
 70
     1
 10
0.0
 20
0.0
 30
0.0
  3
*D20
  1

  0
LINE
  5
53D6
330
1BE5
100
AcDbEntity
  8
実形
 62
     0
370
    18
100
AcDbLine
 10
417.0060542338615
 20
1739.773717093029
 30
0.0
 11
417.0060542338615
 21
1768.850277586583
 31
0.0
  0
LINE
  5
53D7
330
1BE5
100
AcDbEntity
  8
実形
 62
     0
370
    18
100
AcDbLine
 10
451.0058833179209
 20
1739.773717093029
 30
0.0
 11
451.0058833179209
 21
1768.850277586583
 31
0.0
  0
LINE
  5
53D8
330
1BE5
100
AcDbEntity
  8
実形
 62
     0
370
    18
100
AcDbLine
 10
417.0060542338615
 20
1768.850277586583
 30
0.0
 11
451.0058833179209
 21
1768.850277586583
 31
0.0
  0
MTEXT
  5
53D9
330
1BE5
100
AcDbEntity
  8
実形
 62
     0
100
AcDbMText
 10
454.0037121015538
 20
1803.850277586583
 30
0.0
 40
25.0
 41
0.0
 71
     5
 72
     1
  1
35
 73
     1
 44
1.0
1001
ACAD
1000
MTEXTBEGIN
1070
    73
1070
     1
1070
    44
1040
1.0
1070
    74
1070
     0
1000
MTEXTEND
  0
INSERT
  5
53DA
330
1BE5
100
AcDbEntity
  8
実形
 62
     0
370
    18
100
AcDbBlockReference
  2
_DotSmall
 10
417.0060542338615
 20
1768.850277586583
 30
0.0
 41
35.0
 42
35.0
 43
35.0
 50
180.0
  0
INSERT
  5
53DB
330
1BE5
100
AcDbEntity
  8
実形
 62
     0
370
    18
100
AcDbBlockReference
  2
_DotSmall
 10
451.0058833179209
 20
1768.850277586583
 30
0.0
 41
35.0
 42
35.0
 43
35.0
  0
POINT
  5
53DC
330
1BE5
100
AcDbEntity
  8
Defpoints
 62
     0
100
AcDbPoint
 10
417.0060542338615
 20
1674.773717093028
 30
0.0
  0
POINT
  5
53DD
330
1BE5
100
AcDbEntity
  8
Defpoints
 62
     0
100
AcDbPoint
 10
451.0058833179209
 20
1674.773717093029
 30
0.0
  0
POINT
  5
53DE
330
1BE5
100
AcDbEntity
  8
Defpoints
 62
     0
100
AcDbPoint
 10
451.0058833179209
 20
1768.850277586583
 30
0.0
  0
ENDBLK
  5
1BF0
330
1BE5
100
AcDbEntity
  8
0
100
AcDbBlockEnd
  0
BLOCK
  5
1C0E
330
1C04
100
AcDbEntity
  8
0
100
AcDbBlockBegin
  2
*D21
 70
     1
 10
0.0
 20
0.0
 30
0.0
  3
*D21
  1

  0
LINE
  5
53CD
330
1C04
100
AcDbEntity
  8
実形
 62
     0
370
    18
100
AcDbLine
 10
1435.329622737401
 20
1739.773717093028
 30
0.0
 11
1435.329622737401
 21
1768.850277586583
 31
0.0
  0
LINE
  5
53CE
330
1C04
100
AcDbEntity
  8
実形
 62
     0
370
    18
100
AcDbLine
 10
1401.329793653341
 20
1739.773717093028
 30
0.0
 11
1401.329793653341
 21
1768.850277586583
 31
0.0
  0
LINE
  5
53CF
330
1C04
100
AcDbEntity
  8
実形
 62
     0
370
    18
100
AcDbLine
 10
1435.329622737401
 20
1768.850277586583
 30
0.0
 11
1401.329793653341
 21
1768.850277586583
 31
0.0
  0
MTEXT
  5
53D0
330
1C04
100
AcDbEntity
  8
実形
 62
     0
100
AcDbMText
 10
1388.302265206741
 20
1803.850277586583
 30
0.0
 40
25.0
 41
0.0
 71
     5
 72
     1
  1
35
 73
     1
 44
1.0
1001
ACAD
1000
MTEXTBEGIN
1070
    73
1070
     1
1070
    44
1040
1.0
1070
    74
1070
     0
1000
MTEXTEND
  0
INSERT
  5
53D1
330
1C04
100
AcDbEntity
  8
実形
 62
     0
370
    18
100
AcDbBlockReference
  2
_DotSmall
 10
1435.329622737401
 20
1768.850277586583
 30
0.0
 41
35.0
 42
35.0
 43
35.0
  0
INSERT
  5
53D2
330
1C04
100
AcDbEntity
  8
実形
 62
     0
370
    18
100
AcDbBlockReference
  2
_DotSmall
 10
1401.329793653341
 20
1768.850277586583
 30
0.0
 41
35.0
 42
35.0
 43
35.0
 50
180.0
  0
POINT
  5
53D3
330
1C04
100
AcDbEntity
  8
Defpoints
 62
     0
100
AcDbPoint
 10
1435.329622737401
 20
1674.773717093028
 30
0.0
  0
POINT
  5
53D4
330
1C04
100
AcDbEntity
  8
Defpoints
 62
     0
100
AcDbPoint
 10
1401.329793653341
 20
1674.773717093028
 30
0.0
  0
POINT
  5
53D5
330
1C04
100
AcDbEntity
  8
Defpoints
 62
     0
100
AcDbPoint
 10
1401.329793653341
 20
1768.850277586583
 30
0.0
  0
ENDBLK
  5
1C0F
330
1C04
100
AcDbEntity
  8
0
100
AcDbBlockEnd
  0
BLOCK
  5
1C2E
330
1C24
100
AcDbEntity
  8
0
100
AcDbBlockBegin
  2
*D22
 70
     1
 10
0.0
 20
0.0
 30
0.0
  3
*D22
  1

  0
LINE
  5
53C4
330
1C24
100
AcDbEntity
  8
実形
 62
     0
370
    18
100
AcDbLine
 10
417.0060542338615
 20
1739.773717093028
 30
0.0
 11
417.0060542338615
 21
1833.458046852116
 31
0.0
  0
LINE
  5
53C5
330
1C24
100
AcDbEntity
  8
実形
 62
     0
370
    18
100
AcDbLine
 10
1435.329622737401
 20
1739.773717093028
 30
0.0
 11
1435.329622737401
 21
1833.458046852116
 31
0.0
  0
LINE
  5
53C6
330
1C24
100
AcDbEntity
  8
実形
 62
     0
370
    18
100
AcDbLine
 10
417.0060542338615
 20
1833.458046852116
 30
0.0
 11
1435.329622737401
 21
1833.458046852116
 31
0.0
  0
INSERT
  5
53C7
330
1C24
100
AcDbEntity
  8
実形
 62
     0
370
    18
100
AcDbBlockReference
  2
_DotSmall
 10
417.0060542338615
 20
1833.458046852116
 30
0.0
 41
35.0
 42
35.0
 43
35.0
 50
180.0
  0
INSERT
  5
53C8
330
1C24
100
AcDbEntity
  8
実形
 62
     0
370
    18
100
AcDbBlockReference
  2
_DotSmall
 10
1435.329622737401
 20
1833.458046852116
 30
0.0
 41
35.0
 42
35.0
 43
35.0
  0
MTEXT
  5
53C9
330
1C24
100
AcDbEntity
  8
実形
 62
     0
100
AcDbMText
 10
926.1678384856313
 20
1852.208046852116
 30
0.0
 40
25.0
 41
0.0
 71
     5
 72
     1
  1
1018
 73
     1
 44
1.0
1001
ACAD
1000
MTEXTBEGIN
1070
    73
1070
     1
1070
    44
1040
1.0
1070
    74
1070
     0
1000
MTEXTEND
  0
POINT
  5
53CA
330
1C24
100
AcDbEntity
  8
Defpoints
 62
     0
100
AcDbPoint
 10
417.0060542338615
 20
1674.773717093028
 30
0.0
  0
POINT
  5
53CB
330
1C24
100
AcDbEntity
  8
Defpoints
 62
     0
100
AcDbPoint
 10
1435.329622737401
 20
1674.773717093028
 30
0.0
  0
POINT
  5
53CC
330
1C24
100
AcDbEntity
  8
Defpoints
 62
     0
100
AcDbPoint
 10
1435.329622737401
 20
1833.458046852116
 30
0.0
  0
ENDBLK
  5
1C2F
330
1C24
100
AcDbEntity
  8
0
100
AcDbBlockEnd
  0
BLOCK
  5
1E27
330
1E1D
100
AcDbEntity
  8
0
100
AcDbBlockBegin
  2
*D23
 70
     1
 10
0.0
 20
0.0
 30
0.0
  3
*D23
  1

  0
LINE
  5
53BB
330
1E1D
100
AcDbEntity
  8
実形
 62
     0
370
    15
100
AcDbLine
 10
1962.850349748009
 20
1570.187035644826
 30
0.0
 11
2008.156493839929
 21
1570.187035644826
 31
0.0
  0
LINE
  5
53BC
330
1E1D
100
AcDbEntity
  8
実形
 62
     0
370
    15
100
AcDbLine
 10
1962.850349748009
 20
1410.187035644826
 30
0.0
 11
2008.156493839929
 21
1410.187035644826
 31
0.0
  0
LINE
  5
53BD
330
1E1D
100
AcDbEntity
  8
実形
 62
     0
370
    18
100
AcDbLine
 10
2008.156493839929
 20
1570.187035644826
 30
0.0
 11
2008.156493839929
 21
1410.187035644826
 31
0.0
  0
INSERT
  5
53BE
330
1E1D
100
AcDbEntity
  8
実形
 62
     0
370
    18
100
AcDbBlockReference
  2
_DotSmall
 10
2008.156493839929
 20
1570.187035644826
 30
0.0
 41
35.0
 42
35.0
 43
35.0
 50
90.0
  0
INSERT
  5
53BF
330
1E1D
100
AcDbEntity
  8
実形
 62
     0
370
    18
100
AcDbBlockReference
  2
_DotSmall
 10
2008.156493839929
 20
1410.187035644826
 30
0.0
 41
35.0
 42
35.0
 43
35.0
 50
270.0
  0
MTEXT
  5
53C0
330
1E1D
100
AcDbEntity
  8
実形
 62
     0
100
AcDbMText
 10
1989.406493839928
 20
1490.187035644826
 30
0.0
 40
25.0
 41
0.0
 71
     5
 72
     1
  1
158
 11
0.0000000000000001
 21
1.0
 31
0.0
 73
     1
 44
1.0
1001
ACAD
1000
MTEXTBEGIN
1070
    73
1070
     1
1070
    44
1040
1.0
1070
    74
1070
     0
1000
MTEXTEND
  0
POINT
  5
53C1
330
1E1D
100
AcDbEntity
  8
Defpoints
 62
     0
100
AcDbPoint
 10
1897.850349748009
 20
1570.187035644826
 30
0.0
  0
POINT
  5
53C2
330
1E1D
100
AcDbEntity
  8
Defpoints
 62
     0
100
AcDbPoint
 10
1897.850349748009
 20
1410.187035644826
 30
0.0
  0
POINT
  5
53C3
330
1E1D
100
AcDbEntity
  8
Defpoints
 62
     0
100
AcDbPoint
 10
2008.156493839929
 20
1410.187035644826
 30
0.0
  0
ENDBLK
  5
1E28
330
1E1D
100
AcDbEntity
  8
0
100
AcDbBlockEnd
  0
BLOCK
  5
1E33
330
1E29
100
AcDbEntity
  8
0
100
AcDbBlockBegin
  2
*D24
 70
     1
 10
0.0
 20
0.0
 30
0.0
  3
*D24
  1

  0
LINE
  5
53B2
330
1E29
100
AcDbEntity
  8
実形
 62
     0
370
    15
100
AcDbLine
 10
1962.850349748009
 20
1580.687035644826
 30
0.0
 11
2057.80276459691
 21
1580.687035644826
 31
0.0
  0
LINE
  5
53B3
330
1E29
100
AcDbEntity
  8
実形
 62
     0
370
    15
100
AcDbLine
 10
1962.850349748009
 20
1399.687035644826
 30
0.0
 11
2057.80276459691
 21
1399.687035644826
 31
0.0
  0
LINE
  5
53B4
330
1E29
100
AcDbEntity
  8
実形
 62
     0
370
    18
100
AcDbLine
 10
2057.80276459691
 20
1580.687035644826
 30
0.0
 11
2057.80276459691
 21
1399.687035644826
 31
0.0
  0
INSERT
  5
53B5
330
1E29
100
AcDbEntity
  8
実形
 62
     0
370
    18
100
AcDbBlockReference
  2
_DotSmall
 10
2057.80276459691
 20
1580.687035644826
 30
0.0
 41
35.0
 42
35.0
 43
35.0
 50
90.0
  0
INSERT
  5
53B6
330
1E29
100
AcDbEntity
  8
実形
 62
     0
370
    18
100
AcDbBlockReference
  2
_DotSmall
 10
2057.80276459691
 20
1399.687035644826
 30
0.0
 41
35.0
 42
35.0
 43
35.0
 50
270.0
  0
MTEXT
  5
53B7
330
1E29
100
AcDbEntity
  8
実形
 62
     0
100
AcDbMText
 10
2039.052764596909
 20
1490.187035644826
 30
0.0
 40
25.0
 41
0.0
 71
     5
 72
     1
  1
181
 11
0.0000000000000001
 21
1.0
 31
0.0
 73
     1
 44
1.0
1001
ACAD
1000
MTEXTBEGIN
1070
    73
1070
     1
1070
    44
1040
1.0
1070
    74
1070
     0
1000
MTEXTEND
  0
POINT
  5
53B8
330
1E29
100
AcDbEntity
  8
Defpoints
 62
     0
100
AcDbPoint
 10
1897.850349748009
 20
1580.687035644826
 30
0.0
  0
POINT
  5
53B9
330
1E29
100
AcDbEntity
  8
Defpoints
 62
     0
100
AcDbPoint
 10
1897.850349748009
 20
1399.687035644826
 30
0.0
  0
POINT
  5
53BA
330
1E29
100
AcDbEntity
  8
Defpoints
 62
     0
100
AcDbPoint
 10
2057.80276459691
 20
1399.687035644826
 30
0.0
  0
ENDBLK
  5
1E34
330
1E29
100
AcDbEntity
  8
0
100
AcDbBlockEnd
  0
BLOCK
  5
26A5
330
269B
100
AcDbEntity
  8
0
100
AcDbBlockBegin
  2
*D25
 70
     1
 10
0.0
 20
0.0
 30
0.0
  3
*D25
  1

  0
LINE
  5
53A9
330
269B
100
AcDbEntity
  8
実形
 62
     0
370
    15
100
AcDbLine
 10
846.1678384856368
 20
522.871203739568
 30
0.0
 11
846.1678384856368
 21
471.4437964384951
 31
0.0
  0
LINE
  5
53AA
330
269B
100
AcDbEntity
  8
実形
 62
     0
370
    15
100
AcDbLine
 10
1006.167838485636
 20
522.871203739568
 30
0.0
 11
1006.167838485636
 21
471.4437964384951
 31
0.0
  0
LINE
  5
53AB
330
269B
100
AcDbEntity
  8
実形
 62
     0
370
    18
100
AcDbLine
 10
846.1678384856368
 20
471.4437964384951
 30
0.0
 11
1006.167838485636
 21
471.4437964384951
 31
0.0
  0
INSERT
  5
53AC
330
269B
100
AcDbEntity
  8
実形
 62
     0
370
    18
100
AcDbBlockReference
  2
_DotSmall
 10
846.1678384856368
 20
471.4437964384951
 30
0.0
 41
35.0
 42
35.0
 43
35.0
 50
180.0
  0
INSERT
  5
53AD
330
269B
100
AcDbEntity
  8
実形
 62
     0
370
    18
100
AcDbBlockReference
  2
_DotSmall
 10
1006.167838485636
 20
471.4437964384951
 30
0.0
 41
35.0
 42
35.0
 43
35.0
  0
MTEXT
  5
53AE
330
269B
100
AcDbEntity
  8
実形
 62
     0
100
AcDbMText
 10
926.1678384856368
 20
490.1937964384951
 30
0.0
 40
25.0
 41
0.0
 71
     5
 72
     1
  1
158
 73
     1
 44
1.0
1001
ACAD
1000
MTEXTBEGIN
1070
    73
1070
     1
1070
    44
1040
1.0
1070
    74
1070
     0
1000
MTEXTEND
  0
POINT
  5
53AF
330
269B
100
AcDbEntity
  8
Defpoints
 62
     0
100
AcDbPoint
 10
846.1678384856368
 20
587.871203739568
 30
0.0
  0
POINT
  5
53B0
330
269B
100
AcDbEntity
  8
Defpoints
 62
     0
100
AcDbPoint
 10
1006.167838485636
 20
587.871203739568
 30
0.0
  0
POINT
  5
53B1
330
269B
100
AcDbEntity
  8
Defpoints
 62
     0
100
AcDbPoint
 10
1006.167838485636
 20
471.4437964384951
 30
0.0
  0
ENDBLK
  5
26A6
330
269B
100
AcDbEntity
  8
0
100
AcDbBlockEnd
  0
BLOCK
  5
26B1
330
26A7
100
AcDbEntity
  8
0
100
AcDbBlockBegin
  2
*D26
 70
     1
 10
0.0
 20
0.0
 30
0.0
  3
*D26
  1

  0
LINE
  5
53A0
330
26A7
100
AcDbEntity
  8
実形
 62
     0
370
    15
100
AcDbLine
 10
835.6678384856367
 20
522.8712037395681
 30
0.0
 11
835.6678384856367
 21
425.8733390679017
 31
0.0
  0
LINE
  5
53A1
330
26A7
100
AcDbEntity
  8
実形
 62
     0
370
    15
100
AcDbLine
 10
1016.667838485637
 20
522.871203739568
 30
0.0
 11
1016.667838485637
 21
425.8733390679017
 31
0.0
  0
LINE
  5
53A2
330
26A7
100
AcDbEntity
  8
実形
 62
     0
370
    18
100
AcDbLine
 10
835.6678384856367
 20
425.8733390679017
 30
0.0
 11
1016.667838485637
 21
425.8733390679017
 31
0.0
  0
INSERT
  5
53A3
330
26A7
100
AcDbEntity
  8
実形
 62
     0
370
    18
100
AcDbBlockReference
  2
_DotSmall
 10
835.6678384856367
 20
425.8733390679017
 30
0.0
 41
35.0
 42
35.0
 43
35.0
 50
180.0
  0
INSERT
  5
53A4
330
26A7
100
AcDbEntity
  8
実形
 62
     0
370
    18
100
AcDbBlockReference
  2
_DotSmall
 10
1016.667838485637
 20
425.8733390679017
 30
0.0
 41
35.0
 42
35.0
 43
35.0
  0
MTEXT
  5
53A5
330
26A7
100
AcDbEntity
  8
実形
 62
     0
100
AcDbMText
 10
926.1678384856368
 20
444.6233390679017
 30
0.0
 40
25.0
 41
0.0
 71
     5
 72
     1
  1
181
 73
     1
 44
1.0
1001
ACAD
1000
MTEXTBEGIN
1070
    73
1070
     1
1070
    44
1040
1.0
1070
    74
1070
     0
1000
MTEXTEND
  0
POINT
  5
53A6
330
26A7
100
AcDbEntity
  8
Defpoints
 62
     0
100
AcDbPoint
 10
835.6678384856367
 20
587.8712037395681
 30
0.0
  0
POINT
  5
53A7
330
26A7
100
AcDbEntity
  8
Defpoints
 62
     0
100
AcDbPoint
 10
1016.667838485637
 20
587.871203739568
 30
0.0
  0
POINT
  5
53A8
330
26A7
100
AcDbEntity
  8
Defpoints
 62
     0
100
AcDbPoint
 10
1016.667838485637
 20
425.8733390679017
 30
0.0
  0
ENDBLK
  5
26B2
330
26A7
100
AcDbEntity
  8
0
100
AcDbBlockEnd
  0
BLOCK
  5
3746
330
373F
100
AcDbEntity
  8
0
100
AcDbBlockBegin
  2
*D27
 70
     1
 10
0.0
 20
0.0
 30
0.0
  3
*D27
  1

  0
LINE
  5
539A
330
373F
100
AcDbEntity
  8
実形
 62
     0
370
    13
100
AcDbLine
 10
1963.10327858681
 20
562.6388787035095
 30
0.0
 11
1963.10327858681
 21
476.4445371024394
 31
0.0
  0
LINE
  5
539B
330
373F
100
AcDbEntity
  8
実形
 62
     0
370
    13
100
AcDbLine
 10
1947.50327858681
 20
536.8471552806368
 30
0.0
 11
1947.50327858681
 21
476.4445371024394
 31
0.0
  0
MTEXT
  5
539C
330
373F
100
AcDbEntity
  8
実形
 62
     0
100
AcDbMText
 10
1927.154852797523
 20
500.9356801950445
 30
0.0
 40
25.0
 41
0.0
 71
     5
 72
     1
  1
1
 73
     1
 44
1.0
1001
ACAD
1000
MTEXTBEGIN
1070
    73
1070
     1
1070
    44
1040
1.0
1070
    74
1070
     0
1000
MTEXTEND
  0
POINT
  5
539D
330
373F
100
AcDbEntity
  8
Defpoints
 62
     0
100
AcDbPoint
 10
1963.10327858681
 20
568.6388787035094
 30
0.0
  0
POINT
  5
539E
330
373F
100
AcDbEntity
  8
Defpoints
 62
     0
100
AcDbPoint
 10
1947.50327858681
 20
542.8471552806367
 30
0.0
  0
POINT
  5
539F
330
373F
100
AcDbEntity
  8
Defpoints
 62
     0
100
AcDbPoint
 10
1947.50327858681
 20
476.4445371024394
 30
0.0
  0
ENDBLK
  5
3747
330
373F
100
AcDbEntity
  8
0
100
AcDbBlockEnd
  0
BLOCK
  5
3CEE
330
3CE4
100
AcDbEntity
  8
0
100
AcDbBlockBegin
  2
*D28
 70
     1
 10
0.0
 20
0.0
 30
0.0
  3
*D28
  1

  0
LINE
  5
5391
330
3CE4
100
AcDbEntity
  8
実形
 62
     0
370
    18
100
AcDbLine
 10
2532.669934078618
 20
693.4388787035102
 30
0.0
 11
2603.281879703351
 21
693.4388787035102
 31
0.0
  0
LINE
  5
5392
330
3CE4
100
AcDbEntity
  8
実形
 62
     0
370
    18
100
AcDbLine
 10
2532.669934078618
 20
553.0388787035104
 30
0.0
 11
2603.281879703351
 21
553.0388787035104
 31
0.0
  0
LINE
  5
5393
330
3CE4
100
AcDbEntity
  8
実形
 62
     0
370
    18
100
AcDbLine
 10
2603.281879703351
 20
693.4388787035102
 30
0.0
 11
2603.281879703351
 21
553.0388787035104
 31
0.0
  0
INSERT
  5
5394
330
3CE4
100
AcDbEntity
  8
実形
 62
     0
370
    18
100
AcDbBlockReference
  2
_DotSmall
 10
2603.281879703351
 20
693.4388787035102
 30
0.0
 41
35.0
 42
35.0
 43
35.0
 50
90.0
  0
INSERT
  5
5395
330
3CE4
100
AcDbEntity
  8
実形
 62
     0
370
    18
100
AcDbBlockReference
  2
_DotSmall
 10
2603.281879703351
 20
553.0388787035104
 30
0.0
 41
35.0
 42
35.0
 43
35.0
 50
270.0
  0
MTEXT
  5
5396
330
3CE4
100
AcDbEntity
  8
実形
 62
     0
100
AcDbMText
 10
2584.531879703351
 20
623.2388787035107
 30
0.0
 40
25.0
 41
0.0
 71
     5
 72
     1
  1
9
 11
0.0000000000000001
 21
1.0
 31
0.0
 73
     1
 44
1.0
1001
ACAD
1000
MTEXTBEGIN
1070
    73
1070
     1
1070
    44
1040
1.0
1070
    74
1070
     0
1000
MTEXTEND
  0
POINT
  5
5397
330
3CE4
100
AcDbEntity
  8
Defpoints
 62
     0
100
AcDbPoint
 10
2467.669934078618
 20
693.4388787035102
 30
0.0
  0
POINT
  5
5398
330
3CE4
100
AcDbEntity
  8
Defpoints
 62
     0
100
AcDbPoint
 10
2467.669934078618
 20
553.0388787035104
 30
0.0
  0
POINT
  5
5399
330
3CE4
100
AcDbEntity
  8
Defpoints
 62
     0
100
AcDbPoint
 10
2603.281879703351
 20
553.0388787035104
 30
0.0
  0
ENDBLK
  5
3CEF
330
3CE4
100
AcDbEntity
  8
0
100
AcDbBlockEnd
  0
BLOCK
  5
3D04
330
3CFA
100
AcDbEntity
  8
0
100
AcDbBlockBegin
  2
*D29
 70
     1
 10
0.0
 20
0.0
 30
0.0
  3
*D29
  1

  0
LINE
  5
5388
330
3CFA
100
AcDbEntity
  8
実形
 62
     0
370
    18
100
AcDbLine
 10
2532.669934078618
 20
553.0388787035104
 30
0.0
 11
2603.281879703351
 21
553.0388787035104
 31
0.0
  0
LINE
  5
5389
330
3CFA
100
AcDbEntity
  8
実形
 62
     0
370
    18
100
AcDbLine
 10
2532.669934078618
 20
412.6388787035103
 30
0.0
 11
2603.281879703351
 21
412.6388787035103
 31
0.0
  0
LINE
  5
538A
330
3CFA
100
AcDbEntity
  8
実形
 62
     0
370
    18
100
AcDbLine
 10
2603.281879703351
 20
553.0388787035104
 30
0.0
 11
2603.281879703351
 21
412.6388787035103
 31
0.0
  0
INSERT
  5
538B
330
3CFA
100
AcDbEntity
  8
実形
 62
     0
370
    18
100
AcDbBlockReference
  2
_DotSmall
 10
2603.281879703351
 20
553.0388787035104
 30
0.0
 41
35.0
 42
35.0
 43
35.0
 50
90.0
  0
INSERT
  5
538C
330
3CFA
100
AcDbEntity
  8
実形
 62
     0
370
    18
100
AcDbBlockReference
  2
_DotSmall
 10
2603.281879703351
 20
412.6388787035103
 30
0.0
 41
35.0
 42
35.0
 43
35.0
 50
270.0
  0
MTEXT
  5
538D
330
3CFA
100
AcDbEntity
  8
実形
 62
     0
100
AcDbMText
 10
2584.531879703351
 20
482.8388787035107
 30
0.0
 40
25.0
 41
0.0
 71
     5
 72
     1
  1
9
 11
0.0000000000000001
 21
1.0
 31
0.0
 73
     1
 44
1.0
1001
ACAD
1000
MTEXTBEGIN
1070
    73
1070
     1
1070
    44
1040
1.0
1070
    74
1070
     0
1000
MTEXTEND
  0
POINT
  5
538E
330
3CFA
100
AcDbEntity
  8
Defpoints
 62
     0
100
AcDbPoint
 10
2467.669934078618
 20
553.0388787035104
 30
0.0
  0
POINT
  5
538F
330
3CFA
100
AcDbEntity
  8
Defpoints
 62
     0
100
AcDbPoint
 10
2467.669934078618
 20
412.6388787035103
 30
0.0
  0
POINT
  5
5390
330
3CFA
100
AcDbEntity
  8
Defpoints
 62
     0
100
AcDbPoint
 10
2603.281879703351
 20
412.6388787035103
 30
0.0
  0
ENDBLK
  5
3D05
330
3CFA
100
AcDbEntity
  8
0
100
AcDbBlockEnd
  0
BLOCK
  5
3D1A
330
3D10
100
AcDbEntity
  8
0
100
AcDbBlockBegin
  2
*D30
 70
     1
 10
0.0
 20
0.0
 30
0.0
  3
*D30
  1

  0
LINE
  5
537F
330
3D10
100
AcDbEntity
  8
実形
 62
     0
370
    18
100
AcDbLine
 10
2532.669934078618
 20
693.4388787035103
 30
0.0
 11
2670.139520579067
 21
693.4388787035103
 31
0.0
  0
LINE
  5
5380
330
3D10
100
AcDbEntity
  8
実形
 62
     0
370
    18
100
AcDbLine
 10
2532.669934078618
 20
412.6388787035103
 30
0.0
 11
2670.139520579067
 21
412.6388787035103
 31
0.0
  0
LINE
  5
5381
330
3D10
100
AcDbEntity
  8
実形
 62
     0
370
    18
100
AcDbLine
 10
2670.139520579067
 20
693.4388787035103
 30
0.0
 11
2670.139520579067
 21
412.6388787035103
 31
0.0
  0
INSERT
  5
5382
330
3D10
100
AcDbEntity
  8
実形
 62
     0
370
    18
100
AcDbBlockReference
  2
_DotSmall
 10
2670.139520579067
 20
693.4388787035103
 30
0.0
 41
35.0
 42
35.0
 43
35.0
 50
90.0
  0
INSERT
  5
5383
330
3D10
100
AcDbEntity
  8
実形
 62
     0
370
    18
100
AcDbBlockReference
  2
_DotSmall
 10
2670.139520579067
 20
412.6388787035103
 30
0.0
 41
35.0
 42
35.0
 43
35.0
 50
270.0
  0
MTEXT
  5
5384
330
3D10
100
AcDbEntity
  8
実形
 62
     0
100
AcDbMText
 10
2651.389520579066
 20
553.0388787035108
 30
0.0
 40
25.0
 41
0.0
 71
     5
 72
     1
  1
18
 11
0.0000000000000001
 21
1.0
 31
0.0
 73
     1
 44
1.0
1001
ACAD
1000
MTEXTBEGIN
1070
    73
1070
     1
1070
    44
1040
1.0
1070
    74
1070
     0
1000
MTEXTEND
  0
POINT
  5
5385
330
3D10
100
AcDbEntity
  8
Defpoints
 62
     0
100
AcDbPoint
 10
2467.669934078618
 20
693.4388787035103
 30
0.0
  0
POINT
  5
5386
330
3D10
100
AcDbEntity
  8
Defpoints
 62
     0
100
AcDbPoint
 10
2467.669934078618
 20
412.6388787035103
 30
0.0
  0
POINT
  5
5387
330
3D10
100
AcDbEntity
  8
Defpoints
 62
     0
100
AcDbPoint
 10
2670.139520579067
 20
412.6388787035103
 30
0.0
  0
ENDBLK
  5
3D1B
330
3D10
100
AcDbEntity
  8
0
100
AcDbBlockEnd
  0
BLOCK
  5
3E33
330
3E29
100
AcDbEntity
  8
0
100
AcDbBlockBegin
  2
*D31
 70
     1
 10
0.0
 20
0.0
 30
0.0
  3
*D31
  1

  0
LINE
  5
5376
330
3E29
100
AcDbEntity
  8
実形
 62
     0
370
    18
100
AcDbLine
 10
1963.103278586809
 20
601.2515538480251
 30
0.0
 11
1963.103278586809
 21
626.499025413821
 31
0.0
  0
LINE
  5
5377
330
3E29
100
AcDbEntity
  8
実形
 62
     0
370
    18
100
AcDbLine
 10
2197.103278586809
 20
601.2515538480251
 30
0.0
 11
2197.103278586809
 21
626.499025413821
 31
0.0
  0
LINE
  5
5378
330
3E29
100
AcDbEntity
  8
実形
 62
     0
370
    18
100
AcDbLine
 10
1963.103278586809
 20
626.499025413821
 30
0.0
 11
2197.103278586809
 21
626.499025413821
 31
0.0
  0
INSERT
  5
5379
330
3E29
100
AcDbEntity
  8
実形
 62
     0
370
    18
100
AcDbBlockReference
  2
_DotSmall
 10
1963.103278586809
 20
626.499025413821
 30
0.0
 41
35.0
 42
35.0
 43
35.0
 50
180.0
  0
INSERT
  5
537A
330
3E29
100
AcDbEntity
  8
実形
 62
     0
370
    18
100
AcDbBlockReference
  2
_DotSmall
 10
2197.103278586809
 20
626.499025413821
 30
0.0
 41
35.0
 42
35.0
 43
35.0
  0
MTEXT
  5
537B
330
3E29
100
AcDbEntity
  8
実形
 62
     0
100
AcDbMText
 10
2080.103278586809
 20
645.249025413821
 30
0.0
 40
25.0
 41
0.0
 71
     5
 72
     1
  1
15
 73
     1
 44
1.0
1001
ACAD
1000
MTEXTBEGIN
1070
    73
1070
     1
1070
    44
1040
1.0
1070
    74
1070
     0
1000
MTEXTEND
  0
POINT
  5
537C
330
3E29
100
AcDbEntity
  8
Defpoints
 62
     0
100
AcDbPoint
 10
1963.103278586809
 20
536.2515538480251
 30
0.0
  0
POINT
  5
537D
330
3E29
100
AcDbEntity
  8
Defpoints
 62
     0
100
AcDbPoint
 10
2197.103278586809
 20
536.2515538480251
 30
0.0
  0
POINT
  5
537E
330
3E29
100
AcDbEntity
  8
Defpoints
 62
     0
100
AcDbPoint
 10
2197.103278586809
 20
626.499025413821
 30
0.0
  0
ENDBLK
  5
3E34
330
3E29
100
AcDbEntity
  8
0
100
AcDbBlockEnd
  0
BLOCK
  5
3E54
330
3E4A
100
AcDbEntity
  8
0
100
AcDbBlockBegin
  2
*D32
 70
     1
 10
0.0
 20
0.0
 30
0.0
  3
*D32
  1

  0
LINE
  5
536D
330
3E4A
100
AcDbEntity
  8
実形
 62
     0
370
    18
100
AcDbLine
 10
2164.883963240635
 20
514.0388787035103
 30
0.0
 11
2101.036883161905
 21
514.0388787035103
 31
0.0
  0
LINE
  5
536E
330
3E4A
100
AcDbEntity
  8
実形
 62
     0
370
    18
100
AcDbLine
 10
2088.536592650147
 20
553.0388787035104
 30
0.0
 11
2101.036883161905
 21
553.0388787035104
 31
0.0
  0
LINE
  5
536F
330
3E4A
100
AcDbEntity
  8
実形
 62
     0
370
    18
100
AcDbLine
 10
2101.036883161905
 20
514.0388787035103
 30
0.0
 11
2101.036883161905
 21
553.0388787035104
 31
0.0
  0
MTEXT
  5
5370
330
3E4A
100
AcDbEntity
  8
実形
 62
     0
100
AcDbMText
 10
2069.564297767181
 20
524.3493911207361
 30
0.0
 40
23.0
 41
0.0
 71
     5
 72
     1
  1
2.5
 11
0.0000000000000001
 21
1.0
 31
0.0
 73
     1
 44
1.0
1001
ACAD
1000
MTEXTBEGIN
1070
    73
1070
     1
1070
    44
1040
1.0
1070
    74
1070
     0
1000
MTEXTEND
  0
INSERT
  5
5371
330
3E4A
100
AcDbEntity
  8
実形
 62
     0
370
    18
100
AcDbBlockReference
  2
_DotSmall
 10
2101.036883161905
 20
514.0388787035103
 30
0.0
 41
35.0
 42
35.0
 43
35.0
 50
270.0
  0
INSERT
  5
5372
330
3E4A
100
AcDbEntity
  8
実形
 62
     0
370
    18
100
AcDbBlockReference
  2
_DotSmall
 10
2101.036883161905
 20
553.0388787035104
 30
0.0
 41
35.0
 42
35.0
 43
35.0
 50
90.0
  0
POINT
  5
5373
330
3E4A
100
AcDbEntity
  8
Defpoints
 62
     0
100
AcDbPoint
 10
2229.883963240635
 20
514.0388787035103
 30
0.0
  0
POINT
  5
5374
330
3E4A
100
AcDbEntity
  8
Defpoints
 62
     0
100
AcDbPoint
 10
2153.536592650147
 20
553.0388787035104
 30
0.0
  0
POINT
  5
5375
330
3E4A
100
AcDbEntity
  8
Defpoints
 62
     0
100
AcDbPoint
 10
2101.036883161905
 20
553.0388787035104
 30
0.0
  0
ENDBLK
  5
3E55
330
3E4A
100
AcDbEntity
  8
0
100
AcDbBlockEnd
  0
BLOCK
  5
3E85
330
3E7B
100
AcDbEntity
  8
0
100
AcDbBlockBegin
  2
*D33
 70
     1
 10
0.0
 20
0.0
 30
0.0
  3
*D33
  1

  0
LINE
  5
5364
330
3E7B
100
AcDbEntity
  8
実形
 62
     0
370
    18
100
AcDbLine
 10
2150.30327858681
 20
457.3587244814916
 30
0.0
 11
2150.30327858681
 21
461.4323905324424
 31
0.0
  0
LINE
  5
5365
330
3E7B
100
AcDbEntity
  8
実形
 62
     0
370
    18
100
AcDbLine
 10
2228.303278586809
 20
457.3587244814916
 30
0.0
 11
2228.303278586809
 21
461.4323905324424
 31
0.0
  0
LINE
  5
5366
330
3E7B
100
AcDbEntity
  8
実形
 62
     0
370
    18
100
AcDbLine
 10
2150.30327858681
 20
461.4323905324424
 30
0.0
 11
2228.303278586809
 21
461.4323905324424
 31
0.0
  0
INSERT
  5
5367
330
3E7B
100
AcDbEntity
  8
実形
 62
     0
370
    18
100
AcDbBlockReference
  2
_DotSmall
 10
2150.30327858681
 20
461.4323905324424
 30
0.0
 41
35.0
 42
35.0
 43
35.0
 50
180.0
  0
INSERT
  5
5368
330
3E7B
100
AcDbEntity
  8
実形
 62
     0
370
    18
100
AcDbBlockReference
  2
_DotSmall
 10
2228.303278586809
 20
461.4323905324424
 30
0.0
 41
35.0
 42
35.0
 43
35.0
  0
MTEXT
  5
5369
330
3E7B
100
AcDbEntity
  8
実形
 62
     0
100
AcDbMText
 10
2189.303278586809
 20
480.1823905324424
 30
0.0
 40
25.0
 41
0.0
 71
     5
 72
     1
  1
5
 73
     1
 44
1.0
1001
ACAD
1000
MTEXTBEGIN
1070
    73
1070
     1
1070
    44
1040
1.0
1070
    74
1070
     0
1000
MTEXTEND
  0
POINT
  5
536A
330
3E7B
100
AcDbEntity
  8
Defpoints
 62
     0
100
AcDbPoint
 10
2150.30327858681
 20
522.3587244814916
 30
0.0
  0
POINT
  5
536B
330
3E7B
100
AcDbEntity
  8
Defpoints
 62
     0
100
AcDbPoint
 10
2228.303278586809
 20
522.3587244814916
 30
0.0
  0
POINT
  5
536C
330
3E7B
100
AcDbEntity
  8
Defpoints
 62
     0
100
AcDbPoint
 10
2228.303278586809
 20
461.4323905324424
 30
0.0
  0
ENDBLK
  5
3E86
330
3E7B
100
AcDbEntity
  8
0
100
AcDbBlockEnd
  0
BLOCK
  5
3EC2
330
3EB8
100
AcDbEntity
  8
0
100
AcDbBlockBegin
  2
*D34
 70
     1
 10
0.0
 20
0.0
 30
0.0
  3
*D34
  1

  0
LINE
  5
535B
330
3EB8
100
AcDbEntity
  8
実形
 62
     0
370
    18
100
AcDbLine
 10
2138.595588728236
 20
451.6388787035102
 30
0.0
 11
2102.975332119596
 21
451.6388787035102
 31
0.0
  0
LINE
  5
535C
330
3EB8
100
AcDbEntity
  8
実形
 62
     0
370
    18
100
AcDbLine
 10
2150.882092629512
 20
412.6388787035103
 30
0.0
 11
2102.975332119596
 21
412.6388787035103
 31
0.0
  0
LINE
  5
535D
330
3EB8
100
AcDbEntity
  8
実形
 62
     0
370
    18
100
AcDbLine
 10
2102.975332119596
 20
451.6388787035102
 30
0.0
 11
2102.975332119596
 21
412.6388787035103
 31
0.0
  0
MTEXT
  5
535E
330
3EB8
100
AcDbEntity
  8
実形
 62
     0
100
AcDbMText
 10
2070.355870815655
 20
441.0024837871193
 30
0.0
 40
23.0
 41
0.0
 71
     5
 72
     1
  1
2.5
 11
0.0000000000000001
 21
1.0
 31
0.0
 73
     1
 44
1.0
1001
ACAD
1000
MTEXTBEGIN
1070
    73
1070
     1
1070
    44
1040
1.0
1070
    74
1070
     0
1000
MTEXTEND
  0
INSERT
  5
535F
330
3EB8
100
AcDbEntity
  8
実形
 62
     0
370
    18
100
AcDbBlockReference
  2
_DotSmall
 10
2102.975332119596
 20
451.6388787035102
 30
0.0
 41
35.0
 42
35.0
 43
35.0
 50
90.0
  0
INSERT
  5
5360
330
3EB8
100
AcDbEntity
  8
実形
 62
     0
370
    18
100
AcDbBlockReference
  2
_DotSmall
 10
2102.975332119596
 20
412.6388787035103
 30
0.0
 41
35.0
 42
35.0
 43
35.0
 50
270.0
  0
POINT
  5
5361
330
3EB8
100
AcDbEntity
  8
Defpoints
 62
     0
100
AcDbPoint
 10
2203.595588728236
 20
451.6388787035102
 30
0.0
  0
POINT
  5
5362
330
3EB8
100
AcDbEntity
  8
Defpoints
 62
     0
100
AcDbPoint
 10
2215.882092629512
 20
412.6388787035102
 30
0.0
  0
POINT
  5
5363
330
3EB8
100
AcDbEntity
  8
Defpoints
 62
     0
100
AcDbPoint
 10
2102.975332119596
 20
412.6388787035103
 30
0.0
  0
ENDBLK
  5
3EC3
330
3EB8
100
AcDbEntity
  8
0
100
AcDbBlockEnd
  0
BLOCK
  5
3F63
330
3F59
100
AcDbEntity
  8
0
100
AcDbBlockBegin
  2
*D35
 70
     1
 10
0.0
 20
0.0
 30
0.0
  3
*D35
  1

  0
LINE
  5
5352
330
3F59
100
AcDbEntity
  8
実形
 62
     0
370
    18
100
AcDbLine
 10
1947.50327858681
 20
705.5397997195641
 30
0.0
 11
1947.50327858681
 21
743.3028714699867
 31
0.0
  0
LINE
  5
5353
330
3F59
100
AcDbEntity
  8
実形
 62
     0
370
    18
100
AcDbLine
 10
2228.303278586809
 20
705.5397997195641
 30
0.0
 11
2228.303278586809
 21
743.3028714699867
 31
0.0
  0
LINE
  5
5354
330
3F59
100
AcDbEntity
  8
実形
 62
     0
370
    18
100
AcDbLine
 10
1947.50327858681
 20
743.3028714699867
 30
0.0
 11
2228.303278586809
 21
743.3028714699867
 31
0.0
  0
INSERT
  5
5355
330
3F59
100
AcDbEntity
  8
実形
 62
     0
370
    18
100
AcDbBlockReference
  2
_DotSmall
 10
1947.50327858681
 20
743.3028714699867
 30
0.0
 41
35.0
 42
35.0
 43
35.0
 50
180.0
  0
INSERT
  5
5356
330
3F59
100
AcDbEntity
  8
実形
 62
     0
370
    18
100
AcDbBlockReference
  2
_DotSmall
 10
2228.303278586809
 20
743.3028714699867
 30
0.0
 41
35.0
 42
35.0
 43
35.0
  0
MTEXT
  5
5357
330
3F59
100
AcDbEntity
  8
実形
 62
     0
100
AcDbMText
 10
2087.903278586809
 20
762.0528714699867
 30
0.0
 40
25.0
 41
0.0
 71
     5
 72
     1
  1
18
 73
     1
 44
1.0
1001
ACAD
1000
MTEXTBEGIN
1070
    73
1070
     1
1070
    44
1040
1.0
1070
    74
1070
     0
1000
MTEXTEND
  0
POINT
  5
5358
330
3F59
100
AcDbEntity
  8
Defpoints
 62
     0
100
AcDbPoint
 10
1947.50327858681
 20
640.5397997195641
 30
0.0
  0
POINT
  5
5359
330
3F59
100
AcDbEntity
  8
Defpoints
 62
     0
100
AcDbPoint
 10
2228.303278586809
 20
640.5397997195641
 30
0.0
  0
POINT
  5
535A
330
3F59
100
AcDbEntity
  8
Defpoints
 62
     0
100
AcDbPoint
 10
2228.303278586809
 20
743.3028714699867
 30
0.0
  0
ENDBLK
  5
3F64
330
3F59
100
AcDbEntity
  8
0
100
AcDbBlockEnd
  0
BLOCK
  5
3F79
330
3F6F
100
AcDbEntity
  8
0
100
AcDbBlockBegin
  2
*D36
 70
     1
 10
0.0
 20
0.0
 30
0.0
  3
*D36
  1

  0
LINE
  5
5349
330
3F6F
100
AcDbEntity
  8
実形
 62
     0
370
    18
100
AcDbLine
 10
2228.303278586809
 20
705.539799719563
 30
0.0
 11
2228.303278586809
 21
743.3028714699867
 31
0.0
  0
LINE
  5
534A
330
3F6F
100
AcDbEntity
  8
実形
 62
     0
370
    18
100
AcDbLine
 10
2493.503278586809
 20
705.539799719563
 30
0.0
 11
2493.503278586809
 21
743.3028714699867
 31
0.0
  0
LINE
  5
534B
330
3F6F
100
AcDbEntity
  8
実形
 62
     0
370
    18
100
AcDbLine
 10
2228.303278586809
 20
743.3028714699867
 30
0.0
 11
2493.503278586809
 21
743.3028714699867
 31
0.0
  0
INSERT
  5
534C
330
3F6F
100
AcDbEntity
  8
実形
 62
     0
370
    18
100
AcDbBlockReference
  2
_DotSmall
 10
2228.303278586809
 20
743.3028714699867
 30
0.0
 41
35.0
 42
35.0
 43
35.0
 50
180.0
  0
INSERT
  5
534D
330
3F6F
100
AcDbEntity
  8
実形
 62
     0
370
    18
100
AcDbBlockReference
  2
_DotSmall
 10
2493.503278586809
 20
743.3028714699867
 30
0.0
 41
35.0
 42
35.0
 43
35.0
  0
MTEXT
  5
534E
330
3F6F
100
AcDbEntity
  8
実形
 62
     0
100
AcDbMText
 10
2360.90327858681
 20
762.0528714699867
 30
0.0
 40
25.0
 41
0.0
 71
     5
 72
     1
  1
17
 73
     1
 44
1.0
1001
ACAD
1000
MTEXTBEGIN
1070
    73
1070
     1
1070
    44
1040
1.0
1070
    74
1070
     0
1000
MTEXTEND
  0
POINT
  5
534F
330
3F6F
100
AcDbEntity
  8
Defpoints
 62
     0
100
AcDbPoint
 10
2228.303278586809
 20
640.5397997195629
 30
0.0
  0
POINT
  5
5350
330
3F6F
100
AcDbEntity
  8
Defpoints
 62
     0
100
AcDbPoint
 10
2493.503278586809
 20
640.5397997195629
 30
0.0
  0
POINT
  5
5351
330
3F6F
100
AcDbEntity
  8
Defpoints
 62
     0
100
AcDbPoint
 10
2493.503278586809
 20
743.3028714699867
 30
0.0
  0
ENDBLK
  5
3F7A
330
3F6F
100
AcDbEntity
  8
0
100
AcDbBlockEnd
  0
BLOCK
  5
3F90
330
3F86
100
AcDbEntity
  8
0
100
AcDbBlockBegin
  2
*D37
 70
     1
 10
0.0
 20
0.0
 30
0.0
  3
*D37
  1

  0
LINE
  5
5340
330
3F86
100
AcDbEntity
  8
実形
 62
     0
370
    18
100
AcDbLine
 10
1947.50327858681
 20
705.539799719563
 30
0.0
 11
1947.50327858681
 21
786.8108100678382
 31
0.0
  0
LINE
  5
5341
330
3F86
100
AcDbEntity
  8
実形
 62
     0
370
    18
100
AcDbLine
 10
2493.503278586809
 20
705.539799719563
 30
0.0
 11
2493.503278586809
 21
786.8108100678382
 31
0.0
  0
LINE
  5
5342
330
3F86
100
AcDbEntity
  8
実形
 62
     0
370
    18
100
AcDbLine
 10
1947.50327858681
 20
786.8108100678382
 30
0.0
 11
2493.503278586809
 21
786.8108100678382
 31
0.0
  0
INSERT
  5
5343
330
3F86
100
AcDbEntity
  8
実形
 62
     0
370
    18
100
AcDbBlockReference
  2
_DotSmall
 10
1947.50327858681
 20
786.8108100678382
 30
0.0
 41
35.0
 42
35.0
 43
35.0
 50
180.0
  0
INSERT
  5
5344
330
3F86
100
AcDbEntity
  8
実形
 62
     0
370
    18
100
AcDbBlockReference
  2
_DotSmall
 10
2493.503278586809
 20
786.8108100678382
 30
0.0
 41
35.0
 42
35.0
 43
35.0
  0
MTEXT
  5
5345
330
3F86
100
AcDbEntity
  8
実形
 62
     0
100
AcDbMText
 10
2220.50327858681
 20
805.5608100678382
 30
0.0
 40
25.0
 41
0.0
 71
     5
 72
     1
  1
35
 73
     1
 44
1.0
1001
ACAD
1000
MTEXTBEGIN
1070
    73
1070
     1
1070
    44
1040
1.0
1070
    74
1070
     0
1000
MTEXTEND
  0
POINT
  5
5346
330
3F86
100
AcDbEntity
  8
Defpoints
 62
     0
100
AcDbPoint
 10
1947.50327858681
 20
640.5397997195629
 30
0.0
  0
POINT
  5
5347
330
3F86
100
AcDbEntity
  8
Defpoints
 62
     0
100
AcDbPoint
 10
2493.503278586809
 20
640.5397997195629
 30
0.0
  0
POINT
  5
5348
330
3F86
100
AcDbEntity
  8
Defpoints
 62
     0
100
AcDbPoint
 10
2493.503278586809
 20
786.8108100678382
 30
0.0
  0
ENDBLK
  5
3F91
330
3F86
100
AcDbEntity
  8
0
100
AcDbBlockEnd
  0
BLOCK
  5
3FE2
330
3FD8
100
AcDbEntity
  8
0
100
AcDbBlockBegin
  2
*D38
 70
     1
 10
0.0
 20
0.0
 30
0.0
  3
*D38
  1

  0
LINE
  5
5337
330
3FD8
100
AcDbEntity
  8
実形
 62
     0
370
    18
100
AcDbLine
 10
1978.703278586809
 20
355.8916371725106
 30
0.0
 11
1978.703278586809
 21
306.8527456354114
 31
0.0
  0
LINE
  5
5338
330
3FD8
100
AcDbEntity
  8
実形
 62
     0
370
    18
100
AcDbLine
 10
2025.503278586809
 20
355.8916371725106
 30
0.0
 11
2025.503278586809
 21
306.8527456354114
 31
0.0
  0
LINE
  5
5339
330
3FD8
100
AcDbEntity
  8
実形
 62
     0
370
    18
100
AcDbLine
 10
1978.703278586809
 20
306.8527456354114
 30
0.0
 11
2025.503278586809
 21
306.8527456354114
 31
0.0
  0
MTEXT
  5
533A
330
3FD8
100
AcDbEntity
  8
実形
 62
     0
100
AcDbMText
 10
1925.472691921497
 20
342.2580203758225
 30
0.0
 40
25.0
 41
0.0
 71
     5
 72
     1
  1
3.2
 73
     1
 44
1.0
1001
ACAD
1000
MTEXTBEGIN
1070
    73
1070
     1
1070
    44
1040
1.0
1070
    74
1070
     0
1000
MTEXTEND
  0
INSERT
  5
533B
330
3FD8
100
AcDbEntity
  8
実形
 62
     0
370
    18
100
AcDbBlockReference
  2
_DotSmall
 10
1978.703278586809
 20
306.8527456354114
 30
0.0
 41
35.0
 42
35.0
 43
35.0
 50
180.0
  0
INSERT
  5
533C
330
3FD8
100
AcDbEntity
  8
実形
 62
     0
370
    18
100
AcDbBlockReference
  2
_DotSmall
 10
2025.503278586809
 20
306.8527456354114
 30
0.0
 41
35.0
 42
35.0
 43
35.0
  0
POINT
  5
533D
330
3FD8
100
AcDbEntity
  8
Defpoints
 62
     0
100
AcDbPoint
 10
1978.703278586809
 20
420.8916371725106
 30
0.0
  0
POINT
  5
533E
330
3FD8
100
AcDbEntity
  8
Defpoints
 62
     0
100
AcDbPoint
 10
2025.503278586809
 20
420.8916371725106
 30
0.0
  0
POINT
  5
533F
330
3FD8
100
AcDbEntity
  8
Defpoints
 62
     0
100
AcDbPoint
 10
2025.503278586809
 20
306.8527456354114
 30
0.0
  0
ENDBLK
  5
3FE3
330
3FD8
100
AcDbEntity
  8
0
100
AcDbBlockEnd
  0
BLOCK
  5
4001
330
3FF7
100
AcDbEntity
  8
0
100
AcDbBlockBegin
  2
*D39
 70
     1
 10
0.0
 20
0.0
 30
0.0
  3
*D39
  1

  0
LINE
  5
532E
330
3FF7
100
AcDbEntity
  8
実形
 62
     0
370
    18
100
AcDbLine
 10
2025.503278586809
 20
355.8916371725106
 30
0.0
 11
2025.503278586809
 21
306.8527456354114
 31
0.0
  0
LINE
  5
532F
330
3FF7
100
AcDbEntity
  8
実形
 62
     0
370
    18
100
AcDbLine
 10
2150.30327858681
 20
355.8916371725106
 30
0.0
 11
2150.30327858681
 21
306.8527456354114
 31
0.0
  0
LINE
  5
5330
330
3FF7
100
AcDbEntity
  8
実形
 62
     0
370
    18
100
AcDbLine
 10
2025.503278586809
 20
306.8527456354114
 30
0.0
 11
2150.30327858681
 21
306.8527456354114
 31
0.0
  0
INSERT
  5
5331
330
3FF7
100
AcDbEntity
  8
実形
 62
     0
370
    18
100
AcDbBlockReference
  2
_DotSmall
 10
2025.503278586809
 20
306.8527456354114
 30
0.0
 41
35.0
 42
35.0
 43
35.0
 50
180.0
  0
INSERT
  5
5332
330
3FF7
100
AcDbEntity
  8
実形
 62
     0
370
    18
100
AcDbBlockReference
  2
_DotSmall
 10
2150.30327858681
 20
306.8527456354114
 30
0.0
 41
35.0
 42
35.0
 43
35.0
  0
MTEXT
  5
5333
330
3FF7
100
AcDbEntity
  8
実形
 62
     0
100
AcDbMText
 10
2087.903278586809
 20
325.6027456354114
 30
0.0
 40
25.0
 41
0.0
 71
     5
 72
     1
  1
8
 73
     1
 44
1.0
1001
ACAD
1000
MTEXTBEGIN
1070
    73
1070
     1
1070
    44
1040
1.0
1070
    74
1070
     0
1000
MTEXTEND
  0
POINT
  5
5334
330
3FF7
100
AcDbEntity
  8
Defpoints
 62
     0
100
AcDbPoint
 10
2025.503278586809
 20
420.8916371725106
 30
0.0
  0
POINT
  5
5335
330
3FF7
100
AcDbEntity
  8
Defpoints
 62
     0
100
AcDbPoint
 10
2150.30327858681
 20
420.8916371725106
 30
0.0
  0
POINT
  5
5336
330
3FF7
100
AcDbEntity
  8
Defpoints
 62
     0
100
AcDbPoint
 10
2150.30327858681
 20
306.8527456354114
 30
0.0
  0
ENDBLK
  5
4002
330
3FF7
100
AcDbEntity
  8
0
100
AcDbBlockEnd
  0
BLOCK
  5
4017
330
400D
100
AcDbEntity
  8
0
100
AcDbBlockBegin
  2
*D40
 70
     1
 10
0.0
 20
0.0
 30
0.0
  3
*D40
  1

  0
LINE
  5
5325
330
400D
100
AcDbEntity
  8
実形
 62
     0
370
    18
100
AcDbLine
 10
2150.30327858681
 20
355.8916371725106
 30
0.0
 11
2150.30327858681
 21
306.8527456354114
 31
0.0
  0
LINE
  5
5326
330
400D
100
AcDbEntity
  8
実形
 62
     0
370
    18
100
AcDbLine
 10
2228.303278586809
 20
355.8916371725106
 30
0.0
 11
2228.303278586809
 21
306.8527456354114
 31
0.0
  0
LINE
  5
5327
330
400D
100
AcDbEntity
  8
実形
 62
     0
370
    18
100
AcDbLine
 10
2150.30327858681
 20
306.8527456354114
 30
0.0
 11
2228.303278586809
 21
306.8527456354114
 31
0.0
  0
INSERT
  5
5328
330
400D
100
AcDbEntity
  8
実形
 62
     0
370
    18
100
AcDbBlockReference
  2
_DotSmall
 10
2150.30327858681
 20
306.8527456354114
 30
0.0
 41
35.0
 42
35.0
 43
35.0
 50
180.0
  0
INSERT
  5
5329
330
400D
100
AcDbEntity
  8
実形
 62
     0
370
    18
100
AcDbBlockReference
  2
_DotSmall
 10
2228.303278586809
 20
306.8527456354114
 30
0.0
 41
35.0
 42
35.0
 43
35.0
  0
MTEXT
  5
532A
330
400D
100
AcDbEntity
  8
実形
 62
     0
100
AcDbMText
 10
2189.303278586809
 20
325.6027456354114
 30
0.0
 40
25.0
 41
0.0
 71
     5
 72
     1
  1
5
 73
     1
 44
1.0
1001
ACAD
1000
MTEXTBEGIN
1070
    73
1070
     1
1070
    44
1040
1.0
1070
    74
1070
     0
1000
MTEXTEND
  0
POINT
  5
532B
330
400D
100
AcDbEntity
  8
Defpoints
 62
     0
100
AcDbPoint
 10
2150.30327858681
 20
420.8916371725106
 30
0.0
  0
POINT
  5
532C
330
400D
100
AcDbEntity
  8
Defpoints
 62
     0
100
AcDbPoint
 10
2228.303278586809
 20
420.8916371725106
 30
0.0
  0
POINT
  5
532D
330
400D
100
AcDbEntity
  8
Defpoints
 62
     0
100
AcDbPoint
 10
2228.303278586809
 20
306.8527456354114
 30
0.0
  0
ENDBLK
  5
4018
330
400D
100
AcDbEntity
  8
0
100
AcDbBlockEnd
  0
BLOCK
  5
402D
330
4023
100
AcDbEntity
  8
0
100
AcDbBlockBegin
  2
*D41
 70
     1
 10
0.0
 20
0.0
 30
0.0
  3
*D41
  1

  0
LINE
  5
531C
330
4023
100
AcDbEntity
  8
実形
 62
     0
370
    18
100
AcDbLine
 10
2228.303278586809
 20
355.8916371725106
 30
0.0
 11
2228.303278586809
 21
306.8527456354114
 31
0.0
  0
LINE
  5
531D
330
4023
100
AcDbEntity
  8
実形
 62
     0
370
    18
100
AcDbLine
 10
2493.503278586809
 20
355.8916371725106
 30
0.0
 11
2493.503278586809
 21
306.8527456354114
 31
0.0
  0
LINE
  5
531E
330
4023
100
AcDbEntity
  8
実形
 62
     0
370
    18
100
AcDbLine
 10
2228.303278586809
 20
306.8527456354114
 30
0.0
 11
2493.503278586809
 21
306.8527456354114
 31
0.0
  0
INSERT
  5
531F
330
4023
100
AcDbEntity
  8
実形
 62
     0
370
    18
100
AcDbBlockReference
  2
_DotSmall
 10
2228.303278586809
 20
306.8527456354114
 30
0.0
 41
35.0
 42
35.0
 43
35.0
 50
180.0
  0
INSERT
  5
5320
330
4023
100
AcDbEntity
  8
実形
 62
     0
370
    18
100
AcDbBlockReference
  2
_DotSmall
 10
2493.503278586809
 20
306.8527456354114
 30
0.0
 41
35.0
 42
35.0
 43
35.0
  0
MTEXT
  5
5321
330
4023
100
AcDbEntity
  8
実形
 62
     0
100
AcDbMText
 10
2360.90327858681
 20
325.6027456354114
 30
0.0
 40
25.0
 41
0.0
 71
     5
 72
     1
  1
17
 73
     1
 44
1.0
1001
ACAD
1000
MTEXTBEGIN
1070
    73
1070
     1
1070
    44
1040
1.0
1070
    74
1070
     0
1000
MTEXTEND
  0
POINT
  5
5322
330
4023
100
AcDbEntity
  8
Defpoints
 62
     0
100
AcDbPoint
 10
2228.303278586809
 20
420.8916371725106
 30
0.0
  0
POINT
  5
5323
330
4023
100
AcDbEntity
  8
Defpoints
 62
     0
100
AcDbPoint
 10
2493.503278586809
 20
420.8916371725106
 30
0.0
  0
POINT
  5
5324
330
4023
100
AcDbEntity
  8
Defpoints
 62
     0
100
AcDbPoint
 10
2493.503278586809
 20
306.8527456354114
 30
0.0
  0
ENDBLK
  5
402E
330
4023
100
AcDbEntity
  8
0
100
AcDbBlockEnd
  0
BLOCK
  5
40D1
330
40C7
100
AcDbEntity
  8
0
100
AcDbBlockBegin
  2
*D42
 70
     1
 10
0.0
 20
0.0
 30
0.0
  3
*D42
  1

  0
LINE
  5
5313
330
40C7
100
AcDbEntity
  8
実形
 62
     0
370
    18
100
AcDbLine
 10
1949.2926774559
 20
307.172337168286
 30
0.0
 11
1949.2926774559
 21
256.8830082351342
 31
0.0
  0
LINE
  5
5314
330
40C7
100
AcDbEntity
  8
実形
 62
     0
370
    18
100
AcDbLine
 10
2027.2926774559
 20
307.172337168286
 30
0.0
 11
2027.2926774559
 21
256.8830082351342
 31
0.0
  0
LINE
  5
5315
330
40C7
100
AcDbEntity
  8
実形
 62
     0
370
    18
100
AcDbLine
 10
1949.2926774559
 20
256.8830082351342
 30
0.0
 11
2027.2926774559
 21
256.8830082351342
 31
0.0
  0
INSERT
  5
5316
330
40C7
100
AcDbEntity
  8
実形
 62
     0
370
    18
100
AcDbBlockReference
  2
_DotSmall
 10
1949.2926774559
 20
256.8830082351342
 30
0.0
 41
35.0
 42
35.0
 43
35.0
 50
180.0
  0
INSERT
  5
5317
330
40C7
100
AcDbEntity
  8
実形
 62
     0
370
    18
100
AcDbBlockReference
  2
_DotSmall
 10
2027.2926774559
 20
256.8830082351342
 30
0.0
 41
35.0
 42
35.0
 43
35.0
  0
MTEXT
  5
5318
330
40C7
100
AcDbEntity
  8
実形
 62
     0
100
AcDbMText
 10
1988.2926774559
 20
275.6330082351342
 30
0.0
 40
25.0
 41
0.0
 71
     5
 72
     1
  1
5
 73
     1
 44
1.0
1001
ACAD
1000
MTEXTBEGIN
1070
    73
1070
     1
1070
    44
1040
1.0
1070
    74
1070
     0
1000
MTEXTEND
  0
POINT
  5
5319
330
40C7
100
AcDbEntity
  8
Defpoints
 62
     0
100
AcDbPoint
 10
1949.2926774559
 20
372.172337168286
 30
0.0
  0
POINT
  5
531A
330
40C7
100
AcDbEntity
  8
Defpoints
 62
     0
100
AcDbPoint
 10
2027.2926774559
 20
372.172337168286
 30
0.0
  0
POINT
  5
531B
330
40C7
100
AcDbEntity
  8
Defpoints
 62
     0
100
AcDbPoint
 10
2027.2926774559
 20
256.8830082351342
 30
0.0
  0
ENDBLK
  5
40D2
330
40C7
100
AcDbEntity
  8
0
100
AcDbBlockEnd
  0
BLOCK
  5
40F0
330
40E6
100
AcDbEntity
  8
0
100
AcDbBlockBegin
  2
*D43
 70
     1
 10
0.0
 20
0.0
 30
0.0
  3
*D43
  1

  0
LINE
  5
530A
330
40E6
100
AcDbEntity
  8
実形
 62
     0
370
    18
100
AcDbLine
 10
2027.2926774559
 20
307.172337168286
 30
0.0
 11
2027.2926774559
 21
256.8830082351342
 31
0.0
  0
LINE
  5
530B
330
40E6
100
AcDbEntity
  8
実形
 62
     0
370
    18
100
AcDbLine
 10
2495.2926774559
 20
307.172337168286
 30
0.0
 11
2495.2926774559
 21
256.8830082351342
 31
0.0
  0
LINE
  5
530C
330
40E6
100
AcDbEntity
  8
実形
 62
     0
370
    18
100
AcDbLine
 10
2027.2926774559
 20
256.8830082351342
 30
0.0
 11
2495.2926774559
 21
256.8830082351342
 31
0.0
  0
INSERT
  5
530D
330
40E6
100
AcDbEntity
  8
実形
 62
     0
370
    18
100
AcDbBlockReference
  2
_DotSmall
 10
2027.2926774559
 20
256.8830082351342
 30
0.0
 41
35.0
 42
35.0
 43
35.0
 50
180.0
  0
INSERT
  5
530E
330
40E6
100
AcDbEntity
  8
実形
 62
     0
370
    18
100
AcDbBlockReference
  2
_DotSmall
 10
2495.2926774559
 20
256.8830082351342
 30
0.0
 41
35.0
 42
35.0
 43
35.0
  0
MTEXT
  5
530F
330
40E6
100
AcDbEntity
  8
実形
 62
     0
100
AcDbMText
 10
2261.2926774559
 20
275.6330082351342
 30
0.0
 40
25.0
 41
0.0
 71
     5
 72
     1
  1
30
 73
     1
 44
1.0
1001
ACAD
1000
MTEXTBEGIN
1070
    73
1070
     1
1070
    44
1040
1.0
1070
    74
1070
     0
1000
MTEXTEND
  0
POINT
  5
5310
330
40E6
100
AcDbEntity
  8
Defpoints
 62
     0
100
AcDbPoint
 10
2027.2926774559
 20
372.172337168286
 30
0.0
  0
POINT
  5
5311
330
40E6
100
AcDbEntity
  8
Defpoints
 62
     0
100
AcDbPoint
 10
2495.2926774559
 20
372.172337168286
 30
0.0
  0
POINT
  5
5312
330
40E6
100
AcDbEntity
  8
Defpoints
 62
     0
100
AcDbPoint
 10
2495.2926774559
 20
256.8830082351342
 30
0.0
  0
ENDBLK
  5
40F1
330
40E6
100
AcDbEntity
  8
0
100
AcDbBlockEnd
  0
BLOCK
  5
45D7
330
45CD
100
AcDbEntity
  8
0
100
AcDbBlockBegin
  2
*D44
 70
     1
 10
0.0
 20
0.0
 30
0.0
  3
*D44
  1

  0
LINE
  5
5301
330
45CD
100
AcDbEntity
  8
実形
 62
     0
370
    18
100
AcDbLine
 10
380.2457885360563
 20
796.0712037395681
 30
0.0
 11
302.2460104273414
 21
796.0712037395681
 31
0.0
  0
LINE
  5
5302
330
45CD
100
AcDbEntity
  8
実形
 62
     0
370
    18
100
AcDbLine
 10
381.2245661772322
 20
778.0712037395681
 30
0.0
 11
302.2460104273414
 21
778.0712037395681
 31
0.0
  0
LINE
  5
5303
330
45CD
100
AcDbEntity
  8
実形
 62
     0
370
    18
100
AcDbLine
 10
302.2460104273414
 20
796.0712037395681
 30
0.0
 11
302.2460104273414
 21
778.0712037395681
 31
0.0
  0
MTEXT
  5
5304
330
45CD
100
AcDbEntity
  8
実形
 62
     0
100
AcDbMText
 10
222.0439297599878
 20
847.617683084627
 30
0.0
 40
25.0
 41
0.0
 71
     5
 72
     1
  1
18
 11
0.0000000000000001
 21
1.0
 31
0.0
 73
     1
 44
1.0
1001
ACAD
1000
MTEXTBEGIN
1070
    73
1070
     1
1070
    44
1040
1.0
1070
    74
1070
     0
1000
MTEXTEND
  0
INSERT
  5
5305
330
45CD
100
AcDbEntity
  8
実形
 62
     0
370
    18
100
AcDbBlockReference
  2
_DotSmall
 10
302.2460104273414
 20
796.0712037395681
 30
0.0
 41
35.0
 42
35.0
 43
35.0
 50
90.0
  0
INSERT
  5
5306
330
45CD
100
AcDbEntity
  8
実形
 62
     0
370
    18
100
AcDbBlockReference
  2
_DotSmall
 10
302.2460104273414
 20
778.0712037395681
 30
0.0
 41
35.0
 42
35.0
 43
35.0
 50
270.0
  0
POINT
  5
5307
330
45CD
100
AcDbEntity
  8
Defpoints
 62
     0
100
AcDbPoint
 10
445.2457885360563
 20
796.0712037395681
 30
0.0
  0
POINT
  5
5308
330
45CD
100
AcDbEntity
  8
Defpoints
 62
     0
100
AcDbPoint
 10
446.2245661772321
 20
778.0712037395681
 30
0.0
  0
POINT
  5
5309
330
45CD
100
AcDbEntity
  8
Defpoints
 62
     0
100
AcDbPoint
 10
302.2460104273414
 20
778.0712037395681
 30
0.0
  0
ENDBLK
  5
45D8
330
45CD
100
AcDbEntity
  8
0
100
AcDbBlockEnd
  0
BLOCK
  5
45E6
330
45DA
100
AcDbEntity
  8
0
100
AcDbBlockBegin
  2
*D45
 70
     1
 10
0.0
 20
0.0
 30
0.0
  3
*D45
  1

  0
LINE
  5
52F6
330
45DA
100
AcDbEntity
  8
実形
 62
     0
370
    18
100
AcDbLine
 10
381.2245661772322
 20
778.0712037395681
 30
0.0
 11
302.2460104273414
 21
778.0712037395681
 31
0.0
  0
LINE
  5
52F7
330
45DA
100
AcDbEntity
  8
実形
 62
     0
370
    18
100
AcDbLine
 10
381.2245661772322
 20
772.8712037395681
 30
0.0
 11
302.2460104273414
 21
772.8712037395681
 31
0.0
  0
LINE
  5
52F8
330
45DA
100
AcDbEntity
  8
実形
 62
     0
370
    18
100
AcDbLine
 10
302.2460104273414
 20
778.0712037395681
 30
0.0
 11
302.2460104273414
 21
813.071203739568
 31
0.0
  0
LINE
  5
52F9
330
45DA
100
AcDbEntity
  8
実形
 62
     0
370
    18
100
AcDbLine
 10
302.2460104273414
 20
772.8712037395681
 30
0.0
 11
302.2460104273414
 21
737.8712037395681
 31
0.0
  0
MTEXT
  5
52FA
330
45DA
100
AcDbEntity
  8
実形
 62
     0
100
AcDbMText
 10
224.8187801813674
 20
749.8109212836261
 30
0.0
 40
25.0
 41
0.0
 71
     5
 72
     1
  1
5.2
 11
0.0000000000000001
 21
1.0
 31
0.0
 73
     1
 44
1.0
1001
ACAD
1000
MTEXTBEGIN
1070
    73
1070
     1
1070
    44
1040
1.0
1070
    74
1070
     0
1000
MTEXTEND
  0
LINE
  5
52FB
330
45DA
100
AcDbEntity
  8
実形
 62
     0
370
    18
100
AcDbLine
 10
302.2460104273414
 20
778.0712037395681
 30
0.0
 11
302.2460104273414
 21
772.8712037395681
 31
0.0
  0
INSERT
  5
52FC
330
45DA
100
AcDbEntity
  8
実形
 62
     0
370
    18
100
AcDbBlockReference
  2
_DotSmall
 10
302.2460104273414
 20
778.0712037395681
 30
0.0
 41
35.0
 42
35.0
 43
35.0
 50
270.0
  0
INSERT
  5
52FD
330
45DA
100
AcDbEntity
  8
実形
 62
     0
370
    18
100
AcDbBlockReference
  2
_DotSmall
 10
302.2460104273414
 20
772.8712037395681
 30
0.0
 41
35.0
 42
35.0
 43
35.0
 50
90.0
  0
POINT
  5
52FE
330
45DA
100
AcDbEntity
  8
Defpoints
 62
     0
100
AcDbPoint
 10
446.2245661772321
 20
778.0712037395681
 30
0.0
  0
POINT
  5
52FF
330
45DA
100
AcDbEntity
  8
Defpoints
 62
     0
100
AcDbPoint
 10
446.2245661772321
 20
772.8712037395681
 30
0.0
  0
POINT
  5
5300
330
45DA
100
AcDbEntity
  8
Defpoints
 62
     0
100
AcDbPoint
 10
302.2460104273414
 20
772.8712037395681
 30
0.0
  0
ENDBLK
  5
45E7
330
45DA
100
AcDbEntity
  8
0
100
AcDbBlockEnd
  0
BLOCK
  5
45FE
330
45F4
100
AcDbEntity
  8
0
100
AcDbBlockBegin
  2
*D46
 70
     1
 10
0.0
 20
0.0
 30
0.0
  3
*D46
  1

  0
LINE
  5
52ED
330
45F4
100
AcDbEntity
  8
実形
 62
     0
370
    18
100
AcDbLine
 10
381.2245661772322
 20
772.8712037395681
 30
0.0
 11
302.2460104273414
 21
772.8712037395681
 31
0.0
  0
LINE
  5
52EE
330
45F4
100
AcDbEntity
  8
実形
 62
     0
370
    18
100
AcDbLine
 10
326.1580584024851
 20
597.8712037395681
 30
0.0
 11
302.2460104273414
 21
597.8712037395681
 31
0.0
  0
LINE
  5
52EF
330
45F4
100
AcDbEntity
  8
実形
 62
     0
370
    18
100
AcDbLine
 10
302.2460104273414
 20
772.8712037395681
 30
0.0
 11
302.2460104273414
 21
597.8712037395681
 31
0.0
  0
MTEXT
  5
52F0
330
45F4
100
AcDbEntity
  8
実形
 62
     0
100
AcDbMText
 10
276.3721840828111
 20
668.6339556238199
 30
0.0
 40
25.0
 41
0.0
 71
     5
 72
     1
  1
175
 11
0.0000000000000001
 21
1.0
 31
0.0
 73
     1
 44
1.0
1001
ACAD
1000
MTEXTBEGIN
1070
    73
1070
     1
1070
    44
1040
1.0
1070
    74
1070
     0
1000
MTEXTEND
  0
INSERT
  5
52F1
330
45F4
100
AcDbEntity
  8
実形
 62
     0
370
    18
100
AcDbBlockReference
  2
_DotSmall
 10
302.2460104273414
 20
772.8712037395681
 30
0.0
 41
35.0
 42
35.0
 43
35.0
 50
90.0
  0
INSERT
  5
52F2
330
45F4
100
AcDbEntity
  8
実形
 62
     0
370
    18
100
AcDbBlockReference
  2
_DotSmall
 10
302.2460104273414
 20
597.8712037395681
 30
0.0
 41
35.0
 42
35.0
 43
35.0
 50
270.0
  0
POINT
  5
52F3
330
45F4
100
AcDbEntity
  8
Defpoints
 62
     0
100
AcDbPoint
 10
446.2245661772321
 20
772.8712037395681
 30
0.0
  0
POINT
  5
52F4
330
45F4
100
AcDbEntity
  8
Defpoints
 62
     0
100
AcDbPoint
 10
391.158058402485
 20
597.8712037395681
 30
0.0
  0
POINT
  5
52F5
330
45F4
100
AcDbEntity
  8
Defpoints
 62
     0
100
AcDbPoint
 10
302.2460104273414
 20
597.8712037395681
 30
0.0
  0
ENDBLK
  5
45FF
330
45F4
100
AcDbEntity
  8
0
100
AcDbBlockEnd
  0
BLOCK
  5
4623
330
4619
100
AcDbEntity
  8
0
100
AcDbBlockBegin
  2
*D47
 70
     1
 10
0.0
 20
0.0
 30
0.0
  3
*D47
  1

  0
LINE
  5
52E4
330
4619
100
AcDbEntity
  8
実形
 62
     0
370
    18
100
AcDbLine
 10
380.2457885360563
 20
796.0712037395681
 30
0.0
 11
191.6241119767001
 21
796.0712037395682
 31
0.0
  0
LINE
  5
52E5
330
4619
100
AcDbEntity
  8
実形
 62
     0
370
    18
100
AcDbLine
 10
326.1580584024851
 20
597.8712037395681
 30
0.0
 11
191.6241119767001
 21
597.8712037395681
 31
0.0
  0
LINE
  5
52E6
330
4619
100
AcDbEntity
  8
実形
 62
     0
370
    18
100
AcDbLine
 10
191.6241119767001
 20
796.0712037395682
 30
0.0
 11
191.6241119767001
 21
597.8712037395681
 31
0.0
  0
INSERT
  5
52E7
330
4619
100
AcDbEntity
  8
実形
 62
     0
370
    18
100
AcDbBlockReference
  2
_DotSmall
 10
191.6241119767001
 20
796.0712037395682
 30
0.0
 41
35.0
 42
35.0
 43
35.0
 50
90.0
  0
INSERT
  5
52E8
330
4619
100
AcDbEntity
  8
実形
 62
     0
370
    18
100
AcDbBlockReference
  2
_DotSmall
 10
191.6241119767001
 20
597.8712037395681
 30
0.0
 41
35.0
 42
35.0
 43
35.0
 50
270.0
  0
MTEXT
  5
52E9
330
4619
100
AcDbEntity
  8
実形
 62
     0
100
AcDbMText
 10
172.8741119767
 20
696.9712037395681
 30
0.0
 40
25.0
 41
0.0
 71
     5
 72
     1
  1
198.2
 11
0.0000000000000001
 21
1.0
 31
0.0
 73
     1
 44
1.0
1001
ACAD
1000
MTEXTBEGIN
1070
    73
1070
     1
1070
    44
1040
1.0
1070
    74
1070
     0
1000
MTEXTEND
  0
POINT
  5
52EA
330
4619
100
AcDbEntity
  8
Defpoints
 62
     0
100
AcDbPoint
 10
445.2457885360563
 20
796.0712037395681
 30
0.0
  0
POINT
  5
52EB
330
4619
100
AcDbEntity
  8
Defpoints
 62
     0
100
AcDbPoint
 10
391.158058402485
 20
597.8712037395681
 30
0.0
  0
POINT
  5
52EC
330
4619
100
AcDbEntity
  8
Defpoints
 62
     0
100
AcDbPoint
 10
191.6241119767001
 20
597.8712037395681
 30
0.0
  0
ENDBLK
  5
4624
330
4619
100
AcDbEntity
  8
0
100
AcDbBlockEnd
  0
BLOCK
  5
4835
330
482B
100
AcDbEntity
  8
0
100
AcDbBlockBegin
  2
*D48
 70
     1
 10
0.0
 20
0.0
 30
0.0
  3
*D48
  1

  0
LINE
  5
52DB
330
482B
100
AcDbEntity
  8
実形
 62
     0
370
    18
100
AcDbLine
 10
1684.650349748009
 20
1150.340894494846
 30
0.0
 11
1684.650349748009
 21
1054.533907350647
 31
0.0
  0
LINE
  5
52DC
330
482B
100
AcDbEntity
  8
実形
 62
     0
370
    18
100
AcDbLine
 10
1702.650349748009
 20
1150.340894494846
 30
0.0
 11
1702.650349748009
 21
1054.533907350647
 31
0.0
  0
LINE
  5
52DD
330
482B
100
AcDbEntity
  8
実形
 62
     0
370
    18
100
AcDbLine
 10
1684.650349748009
 20
1054.533907350647
 30
0.0
 11
1702.650349748009
 21
1054.533907350647
 31
0.0
  0
MTEXT
  5
52DE
330
482B
100
AcDbEntity
  8
実形
 62
     0
100
AcDbMText
 10
1653.518466846864
 20
1083.150194052052
 30
0.0
 40
25.0
 41
0.0
 71
     5
 72
     1
  1
18
 73
     1
 44
1.0
1001
ACAD
1000
MTEXTBEGIN
1070
    73
1070
     1
1070
    44
1040
1.0
1070
    74
1070
     0
1000
MTEXTEND
  0
INSERT
  5
52DF
330
482B
100
AcDbEntity
  8
実形
 62
     0
370
    18
100
AcDbBlockReference
  2
_DotSmall
 10
1684.650349748009
 20
1054.533907350647
 30
0.0
 41
35.0
 42
35.0
 43
35.0
 50
180.0
  0
INSERT
  5
52E0
330
482B
100
AcDbEntity
  8
実形
 62
     0
370
    18
100
AcDbBlockReference
  2
_DotSmall
 10
1702.650349748009
 20
1054.533907350647
 30
0.0
 41
35.0
 42
35.0
 43
35.0
  0
POINT
  5
52E1
330
482B
100
AcDbEntity
  8
Defpoints
 62
     0
100
AcDbPoint
 10
1684.650349748009
 20
1215.340894494846
 30
0.0
  0
POINT
  5
52E2
330
482B
100
AcDbEntity
  8
Defpoints
 62
     0
100
AcDbPoint
 10
1702.650349748009
 20
1215.340894494846
 30
0.0
  0
POINT
  5
52E3
330
482B
100
AcDbEntity
  8
Defpoints
 62
     0
100
AcDbPoint
 10
1702.650349748009
 20
1054.533907350647
 30
0.0
  0
ENDBLK
  5
4836
330
482B
100
AcDbEntity
  8
0
100
AcDbBlockEnd
  0
BLOCK
  5
4842
330
4838
100
AcDbEntity
  8
0
100
AcDbBlockBegin
  2
*D49
 70
     1
 10
0.0
 20
0.0
 30
0.0
  3
*D49
  1

  0
LINE
  5
52D2
330
4838
100
AcDbEntity
  8
実形
 62
     0
370
    18
100
AcDbLine
 10
1702.650349748009
 20
1150.340894494846
 30
0.0
 11
1702.650349748009
 21
1054.533907350647
 31
0.0
  0
LINE
  5
52D3
330
4838
100
AcDbEntity
  8
実形
 62
     0
370
    18
100
AcDbLine
 10
1882.850349748009
 20
1150.340894494846
 30
0.0
 11
1882.850349748009
 21
1054.533907350647
 31
0.0
  0
LINE
  5
52D4
330
4838
100
AcDbEntity
  8
実形
 62
     0
370
    18
100
AcDbLine
 10
1702.650349748009
 20
1054.533907350647
 30
0.0
 11
1882.850349748009
 21
1054.533907350647
 31
0.0
  0
INSERT
  5
52D5
330
4838
100
AcDbEntity
  8
実形
 62
     0
370
    18
100
AcDbBlockReference
  2
_DotSmall
 10
1702.650349748009
 20
1054.533907350647
 30
0.0
 41
35.0
 42
35.0
 43
35.0
 50
180.0
  0
INSERT
  5
52D6
330
4838
100
AcDbEntity
  8
実形
 62
     0
370
    18
100
AcDbBlockReference
  2
_DotSmall
 10
1882.850349748009
 20
1054.533907350647
 30
0.0
 41
35.0
 42
35.0
 43
35.0
  0
MTEXT
  5
52D7
330
4838
100
AcDbEntity
  8
実形
 62
     0
100
AcDbMText
 10
1792.750349748009
 20
1073.283907350647
 30
0.0
 40
25.0
 41
0.0
 71
     5
 72
     1
  1
180.2
 73
     1
 44
1.0
1001
ACAD
1000
MTEXTBEGIN
1070
    73
1070
     1
1070
    44
1040
1.0
1070
    74
1070
     0
1000
MTEXTEND
  0
POINT
  5
52D8
330
4838
100
AcDbEntity
  8
Defpoints
 62
     0
100
AcDbPoint
 10
1702.650349748009
 20
1215.340894494846
 30
0.0
  0
POINT
  5
52D9
330
4838
100
AcDbEntity
  8
Defpoints
 62
     0
100
AcDbPoint
 10
1882.850349748009
 20
1215.340894494846
 30
0.0
  0
POINT
  5
52DA
330
4838
100
AcDbEntity
  8
Defpoints
 62
     0
100
AcDbPoint
 10
1882.850349748009
 20
1054.533907350647
 30
0.0
  0
ENDBLK
  5
4843
330
4838
100
AcDbEntity
  8
0
100
AcDbBlockEnd
  0
BLOCK
  5
4851
330
4845
100
AcDbEntity
  8
0
100
AcDbBlockBegin
  2
*D50
 70
     1
 10
0.0
 20
0.0
 30
0.0
  3
*D50
  1

  0
LINE
  5
52C7
330
4845
100
AcDbEntity
  8
実形
 62
     0
370
    18
100
AcDbLine
 10
1882.850349748009
 20
1150.340894494846
 30
0.0
 11
1882.850349748009
 21
1098.242488378644
 31
0.0
  0
LINE
  5
52C8
330
4845
100
AcDbEntity
  8
実形
 62
     0
370
    18
100
AcDbLine
 10
1892.850349748009
 20
1150.340894494846
 30
0.0
 11
1892.850349748009
 21
1098.242488378644
 31
0.0
  0
LINE
  5
52C9
330
4845
100
AcDbEntity
  8
実形
 62
     0
370
    18
100
AcDbLine
 10
1882.850349748009
 20
1098.242488378644
 30
0.0
 11
1847.850349748009
 21
1098.242488378644
 31
0.0
  0
LINE
  5
52CA
330
4845
100
AcDbEntity
  8
実形
 62
     0
370
    18
100
AcDbLine
 10
1892.850349748009
 20
1098.242488378644
 30
0.0
 11
1927.850349748009
 21
1098.242488378644
 31
0.0
  0
MTEXT
  5
52CB
330
4845
100
AcDbEntity
  8
実形
 62
     0
100
AcDbMText
 10
1925.311310914701
 20
1121.427892557194
 30
0.0
 40
25.0
 41
0.0
 71
     5
 72
     1
  1
7
 73
     1
 44
1.0
1001
ACAD
1000
MTEXTBEGIN
1070
    73
1070
     1
1070
    44
1040
1.0
1070
    74
1070
     0
1000
MTEXTEND
  0
LINE
  5
52CC
330
4845
100
AcDbEntity
  8
実形
 62
     0
370
    18
100
AcDbLine
 10
1882.850349748009
 20
1098.242488378644
 30
0.0
 11
1892.850349748009
 21
1098.242488378644
 31
0.0
  0
INSERT
  5
52CD
330
4845
100
AcDbEntity
  8
実形
 62
     0
370
    18
100
AcDbBlockReference
  2
_DotSmall
 10
1882.850349748009
 20
1098.242488378644
 30
0.0
 41
35.0
 42
35.0
 43
35.0
  0
INSERT
  5
52CE
330
4845
100
AcDbEntity
  8
実形
 62
     0
370
    18
100
AcDbBlockReference
  2
_DotSmall
 10
1892.850349748009
 20
1098.242488378644
 30
0.0
 41
35.0
 42
35.0
 43
35.0
 50
180.0
  0
POINT
  5
52CF
330
4845
100
AcDbEntity
  8
Defpoints
 62
     0
100
AcDbPoint
 10
1882.850349748009
 20
1215.340894494846
 30
0.0
  0
POINT
  5
52D0
330
4845
100
AcDbEntity
  8
Defpoints
 62
     0
100
AcDbPoint
 10
1892.850349748009
 20
1215.340894494846
 30
0.0
  0
POINT
  5
52D1
330
4845
100
AcDbEntity
  8
Defpoints
 62
     0
100
AcDbPoint
 10
1892.850349748009
 20
1098.242488378644
 30
0.0
  0
ENDBLK
  5
4852
330
4845
100
AcDbEntity
  8
0
100
AcDbBlockEnd
  0
BLOCK
  5
489C
330
4892
100
AcDbEntity
  8
0
100
AcDbBlockBegin
  2
*D51
 70
     1
 10
0.0
 20
0.0
 30
0.0
  3
*D51
  1

  0
LINE
  5
52BE
330
4892
100
AcDbEntity
  8
実形
 62
     0
370
    18
100
AcDbLine
 10
1684.650349748009
 20
1150.340894494846
 30
0.0
 11
1684.650349748009
 21
995.755819400456
 31
0.0
  0
LINE
  5
52BF
330
4892
100
AcDbEntity
  8
実形
 62
     0
370
    18
100
AcDbLine
 10
1882.850349748009
 20
1150.340894494846
 30
0.0
 11
1882.850349748009
 21
995.755819400456
 31
0.0
  0
LINE
  5
52C0
330
4892
100
AcDbEntity
  8
実形
 62
     0
370
    18
100
AcDbLine
 10
1684.650349748009
 20
995.755819400456
 30
0.0
 11
1882.850349748009
 21
995.755819400456
 31
0.0
  0
INSERT
  5
52C1
330
4892
100
AcDbEntity
  8
実形
 62
     0
370
    18
100
AcDbBlockReference
  2
_DotSmall
 10
1684.650349748009
 20
995.755819400456
 30
0.0
 41
35.0
 42
35.0
 43
35.0
 50
180.0
  0
INSERT
  5
52C2
330
4892
100
AcDbEntity
  8
実形
 62
     0
370
    18
100
AcDbBlockReference
  2
_DotSmall
 10
1882.850349748009
 20
995.755819400456
 30
0.0
 41
35.0
 42
35.0
 43
35.0
  0
MTEXT
  5
52C3
330
4892
100
AcDbEntity
  8
実形
 62
     0
100
AcDbMText
 10
1783.750349748009
 20
1014.505819400456
 30
0.0
 40
25.0
 41
0.0
 71
     5
 72
     1
  1
198.2
 73
     1
 44
1.0
1001
ACAD
1000
MTEXTBEGIN
1070
    73
1070
     1
1070
    44
1040
1.0
1070
    74
1070
     0
1000
MTEXTEND
  0
POINT
  5
52C4
330
4892
100
AcDbEntity
  8
Defpoints
 62
     0
100
AcDbPoint
 10
1684.650349748009
 20
1215.340894494846
 30
0.0
  0
POINT
  5
52C5
330
4892
100
AcDbEntity
  8
Defpoints
 62
     0
100
AcDbPoint
 10
1882.850349748009
 20
1215.340894494846
 30
0.0
  0
POINT
  5
52C6
330
4892
100
AcDbEntity
  8
Defpoints
 62
     0
100
AcDbPoint
 10
1882.850349748009
 20
995.755819400456
 30
0.0
  0
ENDBLK
  5
489D
330
4892
100
AcDbEntity
  8
0
100
AcDbBlockEnd
  0
BLOCK
  5
4902
330
48F6
100
AcDbEntity
  8
0
100
AcDbBlockBegin
  2
*D52
 70
     1
 10
0.0
 20
0.0
 30
0.0
  3
*D52
  1

  0
LINE
  5
52B3
330
48F6
100
AcDbEntity
  8
実形
 62
     0
370
    18
100
AcDbLine
 10
382.3179639864648
 20
597.8712037395681
 30
0.0
 11
302.2460104273414
 21
597.8712037395681
 31
0.0
  0
LINE
  5
52B4
330
48F6
100
AcDbEntity
  8
実形
 62
     0
370
    18
100
AcDbLine
 10
382.3179639864648
 20
587.871203739568
 30
0.0
 11
302.2460104273414
 21
587.871203739568
 31
0.0
  0
LINE
  5
52B5
330
48F6
100
AcDbEntity
  8
実形
 62
     0
370
    18
100
AcDbLine
 10
302.2460104273414
 20
597.8712037395681
 30
0.0
 11
302.2460104273414
 21
632.871203739568
 31
0.0
  0
LINE
  5
52B6
330
48F6
100
AcDbEntity
  8
実形
 62
     0
370
    18
100
AcDbLine
 10
302.2460104273414
 20
587.871203739568
 30
0.0
 11
302.2460104273414
 21
552.871203739568
 31
0.0
  0
MTEXT
  5
52B7
330
48F6
100
AcDbEntity
  8
実形
 62
     0
100
AcDbMText
 10
267.2460104273413
 20
581.5334200753313
 30
0.0
 40
25.0
 41
0.0
 71
     5
 72
     1
  1
7
 11
0.0000000000000001
 21
1.0
 31
0.0
 73
     1
 44
1.0
1001
ACAD
1000
MTEXTBEGIN
1070
    73
1070
     1
1070
    44
1040
1.0
1070
    74
1070
     0
1000
MTEXTEND
  0
LINE
  5
52B8
330
48F6
100
AcDbEntity
  8
実形
 62
     0
370
    18
100
AcDbLine
 10
302.2460104273414
 20
597.8712037395681
 30
0.0
 11
302.2460104273414
 21
587.871203739568
 31
0.0
  0
INSERT
  5
52B9
330
48F6
100
AcDbEntity
  8
実形
 62
     0
370
    18
100
AcDbBlockReference
  2
_DotSmall
 10
302.2460104273414
 20
597.8712037395681
 30
0.0
 41
35.0
 42
35.0
 43
35.0
 50
270.0
  0
INSERT
  5
52BA
330
48F6
100
AcDbEntity
  8
実形
 62
     0
370
    18
100
AcDbBlockReference
  2
_DotSmall
 10
302.2460104273414
 20
587.871203739568
 30
0.0
 41
35.0
 42
35.0
 43
35.0
 50
90.0
  0
POINT
  5
52BB
330
48F6
100
AcDbEntity
  8
Defpoints
 62
     0
100
AcDbPoint
 10
447.3179639864647
 20
597.8712037395681
 30
0.0
  0
POINT
  5
52BC
330
48F6
100
AcDbEntity
  8
Defpoints
 62
     0
100
AcDbPoint
 10
447.3179639864647
 20
587.871203739568
 30
0.0
  0
POINT
  5
52BD
330
48F6
100
AcDbEntity
  8
Defpoints
 62
     0
100
AcDbPoint
 10
302.2460104273414
 20
587.871203739568
 30
0.0
  0
ENDBLK
  5
4903
330
48F6
100
AcDbEntity
  8
0
100
AcDbBlockEnd
  0
BLOCK
  5
49EC
330
49E2
100
AcDbEntity
  8
0
100
AcDbBlockBegin
  2
*D53
 70
     1
 10
0.0
 20
0.0
 30
0.0
  3
*D53
  1

  0
LINE
  5
52AA
330
49E2
100
AcDbEntity
  8
実形
 62
     0
370
    18
100
AcDbLine
 10
1904.598314110886
 20
693.4388787035103
 30
0.0
 11
1842.301515497275
 21
693.4388787035103
 31
0.0
  0
LINE
  5
52AB
330
49E2
100
AcDbEntity
  8
実形
 62
     0
370
    18
100
AcDbLine
 10
1904.598314110886
 20
594.6388787035102
 30
0.0
 11
1842.301515497275
 21
594.6388787035102
 31
0.0
  0
LINE
  5
52AC
330
49E2
100
AcDbEntity
  8
実形
 62
     0
370
    18
100
AcDbLine
 10
1842.301515497275
 20
693.4388787035103
 30
0.0
 11
1842.301515497275
 21
594.6388787035102
 31
0.0
  0
INSERT
  5
52AD
330
49E2
100
AcDbEntity
  8
実形
 62
     0
370
    18
100
AcDbBlockReference
  2
_DotSmall
 10
1842.301515497275
 20
693.4388787035103
 30
0.0
 41
35.0
 42
35.0
 43
35.0
 50
90.0
  0
INSERT
  5
52AE
330
49E2
100
AcDbEntity
  8
実形
 62
     0
370
    18
100
AcDbBlockReference
  2
_DotSmall
 10
1842.301515497275
 20
594.6388787035102
 30
0.0
 41
35.0
 42
35.0
 43
35.0
 50
270.0
  0
MTEXT
  5
52AF
330
49E2
100
AcDbEntity
  8
実形
 62
     0
100
AcDbMText
 10
1823.551515497275
 20
644.0388787035106
 30
0.0
 40
25.0
 41
0.0
 71
     5
 72
     1
  1
6.5
 11
0.0000000000000001
 21
1.0
 31
0.0
 73
     1
 44
1.0
1001
ACAD
1000
MTEXTBEGIN
1070
    73
1070
     1
1070
    44
1040
1.0
1070
    74
1070
     0
1000
MTEXTEND
  0
POINT
  5
52B0
330
49E2
100
AcDbEntity
  8
Defpoints
 62
     0
100
AcDbPoint
 10
1969.598314110886
 20
693.4388787035103
 30
0.0
  0
POINT
  5
52B1
330
49E2
100
AcDbEntity
  8
Defpoints
 62
     0
100
AcDbPoint
 10
1969.598314110886
 20
594.6388787035102
 30
0.0
  0
POINT
  5
52B2
330
49E2
100
AcDbEntity
  8
Defpoints
 62
     0
100
AcDbPoint
 10
1842.301515497275
 20
594.6388787035102
 30
0.0
  0
ENDBLK
  5
49ED
330
49E2
100
AcDbEntity
  8
0
100
AcDbBlockEnd
  0
BLOCK
  5
4A5C
330
4A52
100
AcDbEntity
  8
0
100
AcDbBlockBegin
  2
*D54
 70
     1
 10
0.0
 20
0.0
 30
0.0
  3
*D54
  1

  0
LINE
  5
52A1
330
4A52
100
AcDbEntity
  8
実形
 62
     0
370
    18
100
AcDbLine
 10
1904.598314110886
 20
693.4388787035103
 30
0.0
 11
1788.304587942761
 21
693.4388787035104
 31
0.0
  0
LINE
  5
52A2
330
4A52
100
AcDbEntity
  8
実形
 62
     0
370
    18
100
AcDbLine
 10
1904.598314110886
 20
568.6388787035094
 30
0.0
 11
1788.304587942761
 21
568.6388787035095
 31
0.0
  0
LINE
  5
52A3
330
4A52
100
AcDbEntity
  8
実形
 62
     0
370
    18
100
AcDbLine
 10
1788.304587942761
 20
693.4388787035104
 30
0.0
 11
1788.304587942761
 21
568.6388787035095
 31
0.0
  0
INSERT
  5
52A4
330
4A52
100
AcDbEntity
  8
実形
 62
     0
370
    18
100
AcDbBlockReference
  2
_DotSmall
 10
1788.304587942761
 20
693.4388787035104
 30
0.0
 41
35.0
 42
35.0
 43
35.0
 50
90.0
  0
INSERT
  5
52A5
330
4A52
100
AcDbEntity
  8
実形
 62
     0
370
    18
100
AcDbBlockReference
  2
_DotSmall
 10
1788.304587942761
 20
568.6388787035095
 30
0.0
 41
35.0
 42
35.0
 43
35.0
 50
270.0
  0
MTEXT
  5
52A6
330
4A52
100
AcDbEntity
  8
実形
 62
     0
100
AcDbMText
 10
1769.554587942761
 20
631.0388787035102
 30
0.0
 40
25.0
 41
0.0
 71
     5
 72
     1
  1
8.2
 11
0.0000000000000001
 21
1.0
 31
0.0
 73
     1
 44
1.0
1001
ACAD
1000
MTEXTBEGIN
1070
    73
1070
     1
1070
    44
1040
1.0
1070
    74
1070
     0
1000
MTEXTEND
  0
POINT
  5
52A7
330
4A52
100
AcDbEntity
  8
Defpoints
 62
     0
100
AcDbPoint
 10
1969.598314110886
 20
693.4388787035103
 30
0.0
  0
POINT
  5
52A8
330
4A52
100
AcDbEntity
  8
Defpoints
 62
     0
100
AcDbPoint
 10
1969.598314110886
 20
568.6388787035094
 30
0.0
  0
POINT
  5
52A9
330
4A52
100
AcDbEntity
  8
Defpoints
 62
     0
100
AcDbPoint
 10
1788.304587942761
 20
568.6388787035095
 30
0.0
  0
ENDBLK
  5
4A5D
330
4A52
100
AcDbEntity
  8
0
100
AcDbBlockEnd
  0
BLOCK
  5
4A73
330
4A69
100
AcDbEntity
  8
0
100
AcDbBlockBegin
  2
*D55
 70
     1
 10
0.0
 20
0.0
 30
0.0
  3
*D55
  1

  0
LINE
  5
5298
330
4A69
100
AcDbEntity
  8
実形
 62
     0
370
    18
100
AcDbLine
 10
1904.598314110886
 20
553.0388787035102
 30
0.0
 11
1736.658951194005
 21
553.0388787035104
 31
0.0
  0
LINE
  5
5299
330
4A69
100
AcDbEntity
  8
実形
 62
     0
370
    18
100
AcDbLine
 10
1904.598314110886
 20
693.4388787035103
 30
0.0
 11
1736.658951194005
 21
693.4388787035104
 31
0.0
  0
LINE
  5
529A
330
4A69
100
AcDbEntity
  8
実形
 62
     0
370
    18
100
AcDbLine
 10
1736.658951194005
 20
553.0388787035104
 30
0.0
 11
1736.658951194005
 21
693.4388787035104
 31
0.0
  0
INSERT
  5
529B
330
4A69
100
AcDbEntity
  8
実形
 62
     0
370
    18
100
AcDbBlockReference
  2
_DotSmall
 10
1736.658951194005
 20
553.0388787035104
 30
0.0
 41
35.0
 42
35.0
 43
35.0
 50
270.0
  0
INSERT
  5
529C
330
4A69
100
AcDbEntity
  8
実形
 62
     0
370
    18
100
AcDbBlockReference
  2
_DotSmall
 10
1736.658951194005
 20
693.4388787035104
 30
0.0
 41
35.0
 42
35.0
 43
35.0
 50
90.0
  0
MTEXT
  5
529D
330
4A69
100
AcDbEntity
  8
実形
 62
     0
100
AcDbMText
 10
1717.908951194005
 20
623.2388787035106
 30
0.0
 40
25.0
 41
0.0
 71
     5
 72
     1
  1
9
 11
0.0000000000000001
 21
1.0
 31
0.0
 73
     1
 44
1.0
1001
ACAD
1000
MTEXTBEGIN
1070
    73
1070
     1
1070
    44
1040
1.0
1070
    74
1070
     0
1000
MTEXTEND
  0
POINT
  5
529E
330
4A69
100
AcDbEntity
  8
Defpoints
 62
     0
100
AcDbPoint
 10
1969.598314110886
 20
553.0388787035102
 30
0.0
  0
POINT
  5
529F
330
4A69
100
AcDbEntity
  8
Defpoints
 62
     0
100
AcDbPoint
 10
1969.598314110886
 20
693.4388787035103
 30
0.0
  0
POINT
  5
52A0
330
4A69
100
AcDbEntity
  8
Defpoints
 62
     0
100
AcDbPoint
 10
1736.658951194005
 20
693.4388787035104
 30
0.0
  0
ENDBLK
  5
4A74
330
4A69
100
AcDbEntity
  8
0
100
AcDbBlockEnd
  0
ENDSEC
  0
SECTION
  2
ENTITIES
  0
LINE
  5
9C
330
1F
100
AcDbEntity
  8
実形
100
AcDbLine
 10
109.0
 20
4.0
 30
0.0
 11
2784.0
 21
4.0
 31
0.0
  0
LINE
  5
A0
330
1F
100
AcDbEntity
  8
実形
100
AcDbLine
 10
2784.0
 20
2024.0
 30
0.0
 11
109.0
 21
2024.0
 31
0.0
  0
LINE
  5
A5
330
1F
100
AcDbEntity
  8
実形
100
AcDbLine
 10
2784.0
 20
4.0
 30
0.0
 11
2784.0
 21
2024.0
 31
0.0
  0
CIRCLE
  5
2EB
330
1F
100
AcDbEntity
  8
実形
100
AcDbCircle
 10
926.1678384856368
 20
1490.187035644826
 30
0.0
 40
80.0
  0
CIRCLE
  5
2EE
330
1F
100
AcDbEntity
  8
実形
100
AcDbCircle
 10
926.1678384856368
 20
1490.187035644826
 30
0.0
 40
90.5
  0
LINE
  5
33A
330
1F
100
AcDbEntity
  8
実形
  6
ACAD_ISO08W100
 48
0.5
370
    15
100
AcDbLine
 10
794.1781556909
 20
1490.187035644826
 30
0.0
 11
1058.157521280373
 21
1490.187035644826
 31
0.0
  0
LINE
  5
33B
330
1F
100
AcDbEntity
  8
実形
  6
ACAD_ISO08W100
 48
0.5
370
    15
100
AcDbLine
 10
926.1678384856368
 20
1598.277647173261
 30
0.0
 11
926.1678384856368
 21
1382.096424116391
 31
0.0
  0
DIMENSION
  5
35B
330
1F
100
AcDbEntity
  8
実形
370
    -2
100
AcDbDimension
  2
*D4
 10
451.1678384856367
 20
1380.356704135434
 30
0.0
 11
688.6678384856367
 21
1399.106704135434
 31
0.0
 70
    32
 71
     5
 42
475.0
  3
ISO-25
100
AcDbAlignedDimension
 13
926.1678384856368
 23
1482.999733260442
 33
0.0
 14
451.1678384856367
 24
1435.187035644826
 34
0.0
100
AcDbRotatedDimension
1001
ACAD
1000
DSTYLE
1002
{
1070
   371
1070
    18
1002
}
  0
DIMENSION
  5
368
330
1F
100
AcDbEntity
  8
実形
370
    -2
100
AcDbDimension
  2
*D5
 10
1247.703050352796
 20
1640.187035644826
 30
0.0
 11
1247.703050352795
 21
1564.766224830202
 31
0.0
 70
   160
 71
     5
 42
150.0
  3
ISO-25
100
AcDbAlignedDimension
 13
983.8235013905624
 23
1490.187035644826
 33
0.0
 14
926.1678384856368
 24
1640.187035644826
 34
0.0
 50
90.0
100
AcDbRotatedDimension
1001
ACAD
1000
DSTYLE
1002
{
1070
   371
1070
    18
1002
}
  0
TEXT
  5
395
330
1F
100
AcDbEntity
  8
実形
370
    -2
100
AcDbText
 10
999.2439981827228
 20
1275.240674507051
 30
0.0
 40
25.0
  1
8500R
100
AcDbText
  0
TEXT
  5
397
330
1F
100
AcDbEntity
  8
実形
370
    -2
100
AcDbText
 10
1201.634870014604
 20
1409.385483361924
 30
0.0
 40
25.0
  1
2000R
100
AcDbText
  0
TEXT
  5
398
330
1F
100
AcDbEntity
  8
実形
370
    -2
100
AcDbText
 10
556.1205455024519
 20
1289.761177037373
 30
0.0
 40
25.0
  1
100R
100
AcDbText
  0
DIMENSION
  5
3CE
330
1F
100
AcDbEntity
  8
実形
100
AcDbDimension
  2
*D6
 10
277.9925237617636
 20
1655.187035644826
 30
0.0
 11
277.9925237617633
 21
1662.687035644826
 31
0.0
 70
    32
  1
 
 71
     5
 42
15.0
  3
ISO-25
100
AcDbAlignedDimension
 13
436.1678384856368
 23
1670.187035644826
 33
0.0
 14
436.1678384856368
 24
1655.187035644826
 34
0.0
 50
90.0
100
AcDbRotatedDimension
1001
ACAD
1000
DSTYLE
1002
{
1070
   371
1070
    18
1002
}
  0
DIMENSION
  5
3DC
330
1F
100
AcDbEntity
  8
実形
100
AcDbDimension
  2
*D7
 10
277.9925237617636
 20
1215.187035644826
 30
0.0
 11
259.2425237617634
 21
1435.187035644826
 31
0.0
 70
    32
 71
     5
 42
440.0
  3
ISO-25
100
AcDbAlignedDimension
 13
436.1678384856368
 23
1655.187035644826
 33
0.0
 14
436.1678384856368
 24
1215.187035644826
 34
0.0
 50
90.0
100
AcDbRotatedDimension
1001
ACAD
1000
DSTYLE
1002
{
1070
   371
1070
    18
1070
   279
1070
     1
1002
}
  0
DIMENSION
  5
3E9
330
1F
100
AcDbEntity
  8
実形
370
    -2
100
AcDbDimension
  2
*D8
 10
277.9925237617636
 20
1200.187035644826
 30
0.0
 11
272.424986552136
 21
1223.443354612232
 31
0.0
 70
   160
 71
     5
 42
15.0
  3
ISO-25
100
AcDbAlignedDimension
 13
436.1678384856368
 23
1215.187035644826
 33
0.0
 14
436.1678384856368
 24
1200.187035644826
 34
0.0
 50
90.0
100
AcDbRotatedDimension
1001
ACAD
1000
DSTYLE
1002
{
1070
   371
1070
    18
1070
   279
1070
     1
1002
}
  0
DIMENSION
  5
3F6
330
1F
100
AcDbEntity
  8
実形
100
AcDbDimension
  2
*D9
 10
224.1526254370792
 20
1200.187035644826
 30
0.0
 11
205.4026254370791
 21
1435.187035644826
 31
0.0
 70
    32
 71
     5
 42
470.0
  3
ISO-25
100
AcDbAlignedDimension
 13
436.1678384856368
 23
1670.187035644826
 33
0.0
 14
436.1678384856368
 24
1200.187035644826
 34
0.0
 50
90.0
100
AcDbRotatedDimension
1001
ACAD
1000
DSTYLE
1002
{
1070
   371
1070
    18
1002
}
  0
TEXT
  5
43C
330
1F
100
AcDbEntity
  8
実形
370
    -2
100
AcDbText
 10
268.8526388407008
 20
1629.179724014498
 30
0.0
 40
25.0
  1
15
 50
90.0
100
AcDbText
  0
DIMENSION
  5
43D
330
1F
100
AcDbEntity
  8
実形
100
AcDbDimension
  2
*D10
 10
451.1678384856367
 20
1052.254917874772
 30
0.0
 11
510.6678384856368
 21
1052.254917874772
 31
0.0
 70
   160
  1
 
 71
     5
 42
15.0
  3
ISO-25
100
AcDbAlignedDimension
 13
436.1678384856368
 23
1200.187035644826
 33
0.0
 14
451.1678384856367
 24
1200.187035644826
 34
0.0
100
AcDbRotatedDimension
1001
ACAD
1000
DSTYLE
1002
{
1070
   371
1070
    18
1002
}
  0
DIMENSION
  5
44B
330
1F
100
AcDbEntity
  8
実形
100
AcDbDimension
  2
*D11
 10
1401.167838485637
 20
1052.254917874772
 30
0.0
 11
926.1678384856368
 21
1071.004917874772
 31
0.0
 70
    32
 71
     5
 42
950.0
  3
ISO-25
100
AcDbAlignedDimension
 13
451.1678384856367
 23
1200.187035644826
 33
0.0
 14
1401.167838485637
 24
1200.187035644826
 34
0.0
100
AcDbRotatedDimension
1001
ACAD
1000
DSTYLE
1002
{
1070
   371
1070
    18
1070
   279
1070
     1
1002
}
  0
DIMENSION
  5
458
330
1F
100
AcDbEntity
  8
実形
100
AcDbDimension
  2
*D12
 10
1416.167838485637
 20
1052.254917874772
 30
0.0
 11
1408.667838485636
 21
1052.254917874772
 31
0.0
 70
    32
  1
 
 71
     5
 42
15.0
  3
ISO-25
100
AcDbAlignedDimension
 13
1401.167838485637
 23
1200.187035644826
 33
0.0
 14
1416.167838485637
 24
1200.187035644826
 34
0.0
100
AcDbRotatedDimension
1001
ACAD
1000
DSTYLE
1002
{
1070
   371
1070
    18
1070
   279
1070
     1
1002
}
  0
TEXT
  5
494
330
1F
100
AcDbEntity
  8
実形
100
AcDbText
 10
377.5696220394211
 20
1054.542915509167
 30
0.0
 40
25.0
  1
15
100
AcDbText
  0
TEXT
  5
495
330
1F
100
AcDbEntity
  8
実形
370
    -2
100
AcDbText
 10
1439.43129853223
 20
1054.542915509167
 30
0.0
 40
25.0
  1
15
100
AcDbText
  0
DIMENSION
  5
4A3
330
1F
100
AcDbEntity
  8
実形
100
AcDbDimension
  2
*D13
 10
1416.167838485637
 20
998.2415905294928
 30
0.0
 11
926.1678384856368
 21
1016.991590529493
 31
0.0
 70
    32
 71
     5
 42
980.0
  3
ISO-25
100
AcDbAlignedDimension
 13
436.1678384856368
 23
1200.187035644826
 33
0.0
 14
1416.167838485637
 24
1200.187035644826
 34
0.0
100
AcDbRotatedDimension
1001
ACAD
1000
DSTYLE
1002
{
1070
   371
1070
    18
1002
}
  0
LEADER
  5
7CF
330
1F
100
AcDbEntity
  8
実形
100
AcDbLeader
  3
ISO-25
 40
25.0
 41
16.66666666666666
 76
     2
 10
944.4497288204356
 20
1236.354509589749
 30
0.0
 10
983.6721380150802
 20
1271.191335808468
 30
0.0
213
0.0
223
-12.5
233
0.0
1001
ACAD
1000
DSTYLE
1002
{
1070
    41
1040
25.0
1070
   147
1040
6.25
1070
    77
1070
     0
1070
    73
1070
     1
1070
    74
1070
     1
1070
   279
1070
     1
1070
   342
1005
DA
1002
}
  0
LEADER
  5
7D0
330
1F
100
AcDbEntity
  8
実形
100
AcDbLeader
  3
ISO-25
 40
25.0
 41
16.66666666666666
 76
     2
 10
1391.785203997379
 20
1420.393990698125
 30
0.0
 10
1317.698430158293
 20
1422.571292925258
 30
0.0
213
0.0
223
-12.5
233
0.0
1001
ACAD
1000
DSTYLE
1002
{
1070
    41
1040
25.0
1070
   147
1040
6.25
1070
    77
1070
     0
1070
    73
1070
     1
1070
    74
1070
     1
1070
   279
1070
     1
1070
   342
1005
DA
1002
}
  0
LEADER
  5
7D1
330
1F
100
AcDbEntity
  8
実形
100
AcDbLeader
  3
ISO-25
 40
25.0
 41
16.66666666666666
 76
     2
 10
493.9306952032138
 20
1265.417222023951
 30
0.0
 10
541.8691934982644
 20
1295.899443788406
 30
0.0
211
-1.0
221
0.0
231
0.0
210
0.0
220
0.0
230
-1.0
213
0.0
223
-12.5
233
0.0
1001
ACAD
1000
DSTYLE
1002
{
1070
    41
1040
25.0
1070
   147
1040
6.25
1070
    77
1070
     0
1070
    73
1070
     1
1070
    74
1070
     1
1070
   279
1070
     1
1070
   342
1005
DA
1002
}
  0
TEXT
  5
8C9
330
1F
100
AcDbEntity
  8
0
100
AcDbText
 10
249.2632881086038
 20
83.52862940911927
 30
0.0
 40
30.0
  1
※実寸には製造上の誤差が多少生ずる場合があります。シンクの穴あけ加工は現物合わせにてお願いします。
100
AcDbText
  0
TEXT
  5
1014
330
1F
100
AcDbEntity
  8
補助
100
AcDbText
 10
2086.666666666667
 20
84.0
 30
0.0
 40
35.0
  1
尺度
 72
     4
 11
2124.0
 21
101.5
 31
0.0
100
AcDbText
  0
TEXT
  5
1015
330
1F
100
AcDbEntity
  8
補助
100
AcDbText
 10
2086.666666666667
 20
149.0
 30
0.0
 40
35.0
  1
品番
 72
     4
 11
2124.0
 21
166.5
 31
0.0
100
AcDbText
  0
LINE
  5
1016
330
1F
100
AcDbEntity
  8
補助
100
AcDbLine
 10
2064.0
 20
69.0
 30
0.0
 11
2784.0
 21
69.0
 31
0.0
  0
LINE
  5
1017
330
1F
100
AcDbEntity
  8
補助
100
AcDbLine
 10
2064.0
 20
199.0
 30
0.0
 11
2784.0
 21
199.0
 31
0.0
  0
LINE
  5
1018
330
1F
100
AcDbEntity
  8
補助
100
AcDbLine
 10
2064.0
 20
134.0
 30
0.0
 11
2784.0
 21
134.0
 31
0.0
  0
LINE
  5
1019
330
1F
100
AcDbEntity
  8
補助
100
AcDbLine
 10
2064.0
 20
4.0
 30
0.0
 11
2064.0
 21
199.0
 31
0.0
  0
TEXT
  5
101A
330
1F
100
AcDbEntity
  8
補助
100
AcDbText
 10
2300.255774665348
 20
16.49999999999999
 30
0.0
 40
40.0
  1
中外交易株式会社
 72
     4
 11
2488.255774665347
 21
36.5
 31
0.0
100
AcDbText
  0
LINE
  5
101B
330
1F
100
AcDbEntity
  8
補助
100
AcDbLine
 10
2184.0
 20
69.0
 30
0.0
 11
2784.0
 21
69.0
 31
0.0
  0
LINE
  5
101D
102
{ACAD_REACTORS
330
102A
102
}
330
1F
100
AcDbEntity
  8
補助
370
     5
100
AcDbLine
 10
2207.843923164362
 20
40.53787547858519
 30
0.0
 11
2183.255774665347
 21
40.53787547858519
 31
0.0
  0
LINE
  5
101E
102
{ACAD_REACTORS
330
102A
102
}
330
1F
100
AcDbEntity
  8
補助
370
     5
100
AcDbLine
 10
2183.255774665347
 20
40.53787547858519
 30
0.0
 11
2183.255774665347
 21
30.53787547858519
 31
0.0
  0
LINE
  5
101F
102
{ACAD_REACTORS
330
102A
102
}
330
1F
100
AcDbEntity
  8
補助
370
     5
100
AcDbLine
 10
2183.255774665347
 20
30.53787547858519
 30
0.0
 11
2207.346428692676
 21
30.53787547858514
 31
0.0
  0
LINE
  5
1020
102
{ACAD_REACTORS
330
102A
102
}
330
1F
100
AcDbEntity
  8
補助
370
     5
100
AcDbLine
 10
2210.641894042939
 20
56.5
 30
0.0
 11
2210.641894042939
 21
16.5
 31
0.0
  0
LINE
  5
1021
102
{ACAD_REACTORS
330
102A
102
}
330
1F
100
AcDbEntity
  8
補助
370
     5
100
AcDbLine
 10
2210.641894042939
 20
16.5
 30
0.0
 11
2245.64189404294
 21
16.5
 31
0.0
  0
LINE
  5
1022
102
{ACAD_REACTORS
330
102A
102
}
330
1F
100
AcDbEntity
  8
補助
370
     5
100
AcDbLine
 10
2245.64189404294
 20
16.5
 30
0.0
 11
2210.641894042939
 21
36.5
 31
0.0
  0
LINE
  5
1023
102
{ACAD_REACTORS
330
102A
102
}
330
1F
100
AcDbEntity
  8
補助
370
     5
100
AcDbLine
 10
2210.641894042939
 20
36.5
 30
0.0
 11
2245.64189404294
 21
56.5
 31
0.0
  0
LINE
  5
1024
102
{ACAD_REACTORS
330
102A
102
}
330
1F
100
AcDbEntity
  8
補助
370
     5
100
AcDbLine
 10
2245.64189404294
 20
56.5
 30
0.0
 11
2210.641894042939
 21
56.5
 31
0.0
  0
LINE
  5
1025
102
{ACAD_REACTORS
330
102A
102
}
330
1F
100
AcDbEntity
  8
補助
370
     5
100
AcDbLine
 10
2276.75434681301
 20
40.53787547858519
 30
0.0
 11
2252.166198313995
 21
40.53787547858519
 31
0.0
  0
LINE
  5
1026
102
{ACAD_REACTORS
330
102A
102
}
330
1F
100
AcDbEntity
  8
補助
370
     5
100
AcDbLine
 10
2252.166198313995
 20
40.53787547858519
 30
0.0
 11
2252.166198313995
 21
30.53787547858519
 31
0.0
  0
LINE
  5
1027
102
{ACAD_REACTORS
330
102A
102
}
330
1F
100
AcDbEntity
  8
補助
370
     5
100
AcDbLine
 10
2252.166198313995
 20
30.53787547858519
 30
0.0
 11
2276.256852341323
 21
30.53787547858514
 31
0.0
  0
ARC
  5
1028
102
{ACAD_REACTORS
330
102A
102
}
330
1F
100
AcDbEntity
  8
補助
370
     5
100
AcDbCircle
 10
2188.255774665348
 20
36.5
 30
0.0
 40
20.0
100
AcDbArc
 50
11.6477236670746
 51
342.6561058784882
  0
ARC
  5
1029
102
{ACAD_REACTORS
330
102A
102
}
330
1F
100
AcDbEntity
  8
補助
370
     5
100
AcDbCircle
 10
2257.166198313996
 20
36.5
 30
0.0
 40
20.0
100
AcDbArc
 50
11.6477236670746
 51
342.6561058784882
  0
HATCH
  5
102A
330
1F
100
AcDbEntity
  8
補助
100
AcDbHatch
 10
0.0
 20
0.0
 30
0.0
210
0.0
220
0.0
230
1.0
  2
SOLID
 70
     1
 71
     1
 91
        3
 92
        1
 93
        4
 72
     2
 10
2257.166198313996
 20
36.5
 40
20.0
 50
11.6477236670746
 51
342.6561058784882
 73
     1
 72
     1
 10
2276.256852341323
 20
30.53787547858514
 11
2252.166198313995
 21
30.53787547858519
 72
     1
 10
2252.166198313995
 20
30.53787547858519
 11
2252.166198313995
 21
40.53787547858519
 72
     1
 10
2252.166198313995
 20
40.53787547858519
 11
2276.75434681301
 21
40.53787547858519
 97
        4
330
1029
330
1027
330
1026
330
1025
 92
        1
 93
        4
 72
     2
 10
2188.255774665348
 20
36.5
 40
20.0
 50
11.6477236670746
 51
342.6561058784882
 73
     1
 72
     1
 10
2207.346428692676
 20
30.53787547858514
 11
2183.255774665347
 21
30.53787547858519
 72
     1
 10
2183.255774665347
 20
30.53787547858519
 11
2183.255774665347
 21
40.53787547858519
 72
     1
 10
2183.255774665347
 20
40.53787547858519
 11
2207.843923164362
 21
40.53787547858519
 97
        4
330
1028
330
101F
330
101E
330
101D
 92
        1
 93
        5
 72
     1
 10
2245.64189404294
 20
56.5
 11
2210.641894042939
 21
56.5
 72
     1
 10
2210.641894042939
 20
56.5
 11
2210.641894042939
 21
16.5
 72
     1
 10
2210.641894042939
 20
16.5
 11
2245.64189404294
 21
16.5
 72
     1
 10
2245.64189404294
 20
16.5
 11
2210.641894042939
 21
36.5
 72
     1
 10
2210.641894042939
 20
36.5
 11
2245.64189404294
 21
56.5
 97
        5
330
1024
330
1020
330
1021
330
1022
330
1023
 75
     0
 76
     1
 98
        1
 10
-60.0
 20
0.0
  0
LINE
  5
102B
330
1F
100
AcDbEntity
  8
補助
100
AcDbLine
 10
2184.0
 20
69.0
 30
0.0
 11
2184.0
 21
199.0
 31
0.0
  0
TEXT
  5
102C
330
1F
100
AcDbEntity
  8
実形
100
AcDbText
 10
2430.916666666667
 20
84.0
 30
0.0
 40
35.0
  1
1：10
 72
     4
 11
2484.0
 21
101.5
 31
0.0
100
AcDbText
  0
LINE
  5
102D
330
1F
100
AcDbEntity
  8
補助
100
AcDbLine
 10
2784.0
 20
69.0
 30
0.0
 11
2784.0
 21
134.0
 31
0.0
  0
LINE
  5
102E
330
1F
100
AcDbEntity
  8
補助
100
AcDbLine
 10
2784.0
 20
134.0
 30
0.0
 11
2784.0
 21
199.0
 31
0.0
  0
LINE
  5
102F
330
1F
100
AcDbEntity
  8
補助
100
AcDbLine
 10
2784.0
 20
4.0
 30
0.0
 11
2784.0
 21
69.0
 31
0.0
  0
DIMENSION
  5
104A
330
1F
100
AcDbEntity
  8
実形
100
AcDbDimension
  2
*D14
 10
330.8586826671235
 20
1640.187035644826
 30
0.0
 11
306.9577020842553
 21
1633.939094675534
 31
0.0
 70
   160
 71
     5
 42
15.0
  3
ISO-25
100
AcDbAlignedDimension
 13
436.1678384856368
 23
1655.187035644826
 33
0.0
 14
436.1678384856368
 24
1640.187035644826
 34
0.0
 50
90.0
100
AcDbRotatedDimension
1001
ACAD
1000
DSTYLE
1002
{
1070
   279
1070
     2
1070
   371
1070
    18
1070
   372
1070
    18
1002
}
  0
DIMENSION
  5
1058
330
1F
100
AcDbEntity
  8
実形
100
AcDbDimension
  2
*D15
 10
330.8586826671235
 20
1230.187035644826
 30
0.0
 11
312.1086826671233
 21
1435.187035644826
 31
0.0
 70
    32
 71
     5
 42
410.0
  3
ISO-25
100
AcDbAlignedDimension
 13
436.1678384856368
 23
1640.187035644826
 33
0.0
 14
436.1678384856368
 24
1230.187035644826
 34
0.0
 50
90.0
100
AcDbRotatedDimension
1001
ACAD
1000
DSTYLE
1002
{
1070
   279
1070
     1
1070
   371
1070
    18
1070
   372
1070
    18
1002
}
  0
DIMENSION
  5
1065
330
1F
100
AcDbEntity
  8
実形
100
AcDbDimension
  2
*D16
 10
330.8586826671234
 20
1215.187035644826
 30
0.0
 11
328.391797347831
 21
1238.911309260595
 31
0.0
 70
   160
 71
     5
 42
15.0
  3
ISO-25
100
AcDbAlignedDimension
 13
436.1678384856368
 23
1230.187035644826
 33
0.0
 14
436.1678384856368
 24
1215.187035644826
 34
0.0
 50
90.0
100
AcDbRotatedDimension
1001
ACAD
1000
DSTYLE
1002
{
1070
   279
1070
     1
1070
   371
1070
    18
1070
   372
1070
    18
1002
}
  0
LINE
  5
10C3
330
1F
100
AcDbEntity
  8
実形
100
AcDbLine
 10
1341.330095269703
 20
1215.187035644826
 30
0.0
 11
511.00558170156
 21
1215.187035644826
 31
0.0
  0
LINE
  5
10C5
330
1F
100
AcDbEntity
  8
実形
100
AcDbLine
 10
511.00558170156
 20
1655.187035644826
 30
0.0
 11
1341.330095269703
 21
1655.187035644826
 31
0.0
  0
ARC
  5
10C9
330
1F
100
AcDbEntity
  8
実形
100
AcDbCircle
 10
2451.167838485637
 20
1435.187035644826
 30
0.0
 40
2000.0
100
AcDbArc
 50
177.0816278913646
 51
182.9183721086351
  0
ARC
  5
10CA
330
1F
100
AcDbEntity
  8
実形
100
AcDbCircle
 10
-598.8321615143632
 20
1435.187035644826
 30
0.0
 40
2000.0
100
AcDbArc
 50
357.0816278913649
 51
2.918372108635428
  0
ARC
  5
10E9
330
1F
100
AcDbEntity
  8
実形
100
AcDbCircle
 10
-49119.16692087912
 20
1435.187035644882
 30
0.0
 40
50520.75067928305
100
AcDbArc
 50
359.8183273145977
 51
0.1816726854021964
  0
ARC
  5
10EA
330
1F
100
AcDbEntity
  8
実形
100
AcDbCircle
 10
50971.50259765261
 20
1435.187035644826
 30
0.0
 40
50520.75067908528
100
AcDbArc
 50
179.818327314597
 51
180.181672685403
  0
ARC
  5
18C0
330
1F
100
AcDbEntity
  8
実形
100
AcDbCircle
 10
926.1678384856368
 20
9730.187035644828
 30
0.0
 40
8500.0
100
AcDbArc
 50
267.4581267083559
 51
272.5418732916442
  0
ARC
  5
18C1
330
1F
100
AcDbEntity
  8
実形
100
AcDbCircle
 10
926.1678384856368
 20
-6859.812964355161
 30
0.0
 40
8500.0
100
AcDbArc
 50
87.45812670835583
 51
92.54187329164416
  0
ARC
  5
18C2
330
1F
100
AcDbEntity
  8
実形
100
AcDbCircle
 10
553.631980741776
 20
1531.922078810526
 30
0.0
 40
100.0
100
AcDbArc
 50
92.54187329164357
 51
177.0816278913644
  0
ARC
  5
18C3
330
1F
100
AcDbEntity
  8
実形
100
AcDbCircle
 10
553.6319807417751
 20
1338.451992479137
 30
0.0
 40
100.0
100
AcDbArc
 50
182.9183721086348
 51
267.4581267083579
  0
ARC
  5
18C4
330
1F
100
AcDbEntity
  8
実形
100
AcDbCircle
 10
1298.703696229498
 20
1338.451992479137
 30
0.0
 40
100.0
100
AcDbArc
 50
272.5418732916404
 51
357.0816278913643
  0
ARC
  5
18C5
330
1F
100
AcDbEntity
  8
実形
100
AcDbCircle
 10
1298.703696229497
 20
1531.922078810526
 30
0.0
 40
100.0
100
AcDbArc
 50
2.918372108635472
 51
87.45812670835578
  0
LINE
  5
1A14
330
1F
100
AcDbEntity
  8
実形
100
AcDbLine
 10
109.0
 20
2024.0
 30
0.0
 11
109.0
 21
4.0
 31
0.0
  0
ARC
  5
1A17
330
1F
100
AcDbEntity
  8
実形
100
AcDbCircle
 10
511.00558170156
 20
1595.187035644826
 30
0.0
 40
60.0
100
AcDbArc
 50
90.0
 51
179.8183273145849
  0
ARC
  5
1A18
330
1F
100
AcDbEntity
  8
実形
100
AcDbCircle
 10
1341.330095269703
 20
1595.187035644826
 30
0.0
 40
60.0
100
AcDbArc
 50
0.1816726854022695
 51
90.0
  0
ARC
  5
1A19
330
1F
100
AcDbEntity
  8
実形
100
AcDbCircle
 10
1341.330095269703
 20
1275.187035644826
 30
0.0
 40
60.0
100
AcDbArc
 50
270.0
 51
359.8183273145693
  0
ARC
  5
1A1A
330
1F
100
AcDbEntity
  8
実形
100
AcDbCircle
 10
511.00558170156
 20
1275.187035644826
 30
0.0
 40
60.0
100
AcDbArc
 50
180.1816726854029
 51
270.0
  0
TEXT
  5
1AFB
330
1F
100
AcDbEntity
  8
実形
100
AcDbText
 10
2253.6
 20
149.6644391117014
 30
0.0
 40
35.0
  1
Jstn         S-DAN
  7
MS明朝
 72
     4
 11
2484.0
 21
164.3644391117013
 31
0.0
100
AcDbText
  0
TEXT
  5
1AFC
330
1F
100
AcDbEntity
  8
実形
100
AcDbText
 10
2381.951154452292
 20
148.7628606443344
 30
0.0
 40
35.0
  1
1018-508
  7
MS明朝
 72
     4
 11
2484.351154452292
 21
165.8628606443344
 31
0.0
100
AcDbText
  0
ARC
  5
1AFD
330
1F
100
AcDbEntity
  8
実形
100
AcDbCircle
 10
511.00558170156
 20
1595.187035644826
 30
0.0
 40
94.0
100
AcDbArc
 50
90.0
 51
179.8183273145849
  0
LINE
  5
1AFE
330
1F
100
AcDbEntity
  8
実形
100
AcDbLine
 10
511.00558170156
 20
1689.187035644826
 30
0.0
 11
1341.330095269703
 21
1689.187035644826
 31
0.0
  0
ARC
  5
1AFF
330
1F
100
AcDbEntity
  8
実形
100
AcDbCircle
 10
1341.330095269703
 20
1595.187035644826
 30
0.0
 40
94.0
100
AcDbArc
 50
0.1816726854022695
 51
90.0
  0
ARC
  5
1B00
330
1F
100
AcDbEntity
  8
実形
100
AcDbCircle
 10
-49119.16692087912
 20
1435.187035644882
 30
0.0
 40
50554.75067928306
100
AcDbArc
 50
359.8183273145977
 51
0.1816726854021964
  0
ARC
  5
1B01
330
1F
100
AcDbEntity
  8
実形
100
AcDbCircle
 10
1341.330095269703
 20
1275.187035644826
 30
0.0
 40
94.0
100
AcDbArc
 50
270.0
 51
359.8183273145693
  0
LINE
  5
1B02
330
1F
100
AcDbEntity
  8
実形
100
AcDbLine
 10
1341.330095269703
 20
1181.187035644826
 30
0.0
 11
511.00558170156
 21
1181.187035644826
 31
0.0
  0
ARC
  5
1B03
330
1F
100
AcDbEntity
  8
実形
100
AcDbCircle
 10
511.00558170156
 20
1275.187035644826
 30
0.0
 40
94.0
100
AcDbArc
 50
180.1816726854029
 51
270.0
  0
ARC
  5
1B04
330
1F
100
AcDbEntity
  8
実形
100
AcDbCircle
 10
50971.50259765261
 20
1435.187035644826
 30
0.0
 40
50554.75067908528
100
AcDbArc
 50
179.818327314597
 51
180.181672685403
  0
LEADER
  5
1B15
330
1F
100
AcDbEntity
  8
実形
100
AcDbLeader
  3
ISO-25
 40
25.0
 41
16.66666666666666
 76
     2
 10
439.9372117637165
 20
1665.684191015799
 30
0.0
 10
398.3158523457303
 20
1720.530945423294
 30
0.0
213
0.0
223
12.5
233
0.0
1001
ACAD
1000
DSTYLE
1002
{
1070
   147
1040
6.25
1070
    77
1070
     0
1070
    41
1040
20.0
1070
   342
1005
DA
1002
}
  0
TEXT
  5
1B16
330
1F
100
AcDbEntity
  8
実形
100
AcDbText
 10
337.3927914741135
 20
1731.878539950506
 30
0.0
 40
25.0
  1
94R
 72
     2
 11
404.0594581407802
 21
1756.878539950506
 31
0.0
100
AcDbText
 73
     3
  0
TEXT
  5
1B17
330
1F
100
AcDbEntity
  8
実形
100
AcDbText
 10
561.3869419869379
 20
1592.064299927684
 30
0.0
 40
25.0
  1
4角×
  7
MS明朝
 72
     2
 11
652.8155134155094
 21
1617.064299927684
 31
0.0
100
AcDbText
 73
     3
  0
LEADER
  5
1B18
330
1F
100
AcDbEntity
  8
実形
100
AcDbLeader
  3
ISO-25
 40
25.0
 41
16.66666666666666
 76
     2
 10
477.6073328561015
 20
1633.959965321996
 30
0.0
 10
543.9598747798318
 20
1604.364304849135
 30
0.0
213
0.0
223
12.5
233
0.0
1001
ACAD
1000
DSTYLE
1002
{
1070
   147
1040
6.25
1070
    77
1070
     0
1070
    41
1040
20.0
1070
   342
1005
DA
1002
}
  0
LEADER
  5
1B19
330
1F
100
AcDbEntity
  8
実形
100
AcDbLeader
  3
ISO-25
 40
25.0
 41
16.66666666666666
 76
     2
 10
433.9646576416543
 20
1201.437850934016
 30
0.0
 10
377.1955120630355
 20
1143.088506817867
 30
0.0
213
0.0
223
12.5
233
0.0
1001
ACAD
1000
DSTYLE
1002
{
1070
   147
1040
6.25
1070
    77
1070
     0
1070
    41
1040
20.0
1070
   342
1005
DA
1002
}
  0
TEXT
  5
1B1A
330
1F
100
AcDbEntity
  8
実形
100
AcDbText
 10
338.5738277410768
 20
1105.07737196042
 30
0.0
 40
25.0
  1
94R
 72
     2
 11
405.2404944077434
 21
1130.07737196042
 31
0.0
100
AcDbText
 73
     3
  0
LEADER
  5
1B1B
330
1F
100
AcDbEntity
  8
実形
100
AcDbLeader
  3
ISO-25
 40
25.0
 41
16.66666666666666
 76
     2
 10
1416.466951637005
 20
1661.039330933333
 30
0.0
 10
1480.770023867
 20
1711.788479031987
 30
0.0
213
0.0
223
12.5
233
0.0
1001
ACAD
1000
DSTYLE
1002
{
1070
   147
1040
6.25
1070
    77
1070
     0
1070
    41
1040
20.0
1070
   342
1005
DA
1002
}
  0
TEXT
  5
1B1C
330
1F
100
AcDbEntity
  8
実形
100
AcDbText
 10
1450.179116610903
 20
1718.824757317779
 30
0.0
 40
25.0
  1
94R
 72
     2
 11
1516.84578327757
 21
1743.824757317779
 31
0.0
100
AcDbText
 73
     3
  0
LEADER
  5
1B1D
330
1F
100
AcDbEntity
  8
実形
100
AcDbLeader
  3
ISO-25
 40
25.0
 41
16.66666666666666
 76
     2
 10
1417.081797155997
 20
1199.214827388993
 30
0.0
 10
1476.630829903517
 20
1154.286715488363
 30
0.0
213
0.0
223
12.5
233
0.0
1001
ACAD
1000
DSTYLE
1002
{
1070
   147
1040
6.25
1070
    77
1070
     0
1070
    41
1040
20.0
1070
   342
1005
DA
1002
}
  0
TEXT
  5
1B1E
330
1F
100
AcDbEntity
  8
実形
100
AcDbText
 10
1454.733230763968
 20
1124.423226203747
 30
0.0
 40
25.0
  1
94R
 72
     2
 11
1521.399897430635
 21
1149.423226203746
 31
0.0
100
AcDbText
 73
     3
  0
TEXT
  5
1B26
330
1F
100
AcDbEntity
  8
実形
100
AcDbText
 10
658.635796132637
 20
1592.358360125158
 30
0.0
 40
25.0
  1
59R
 72
     2
 11
725.3024627993036
 21
1617.358360125158
 31
0.0
100
AcDbText
 73
     3
  0
DIMENSION
  5
1B57
330
1F
100
AcDbEntity
  8
実形
100
AcDbDimension
  2
*D17
 10
1498.84397665845
 20
1655.187035644826
 30
0.0
 11
1476.620956592111
 21
1623.291280890229
 31
0.0
 70
   160
  1
35
 71
     5
 42
34.00000000000023
  3
ISO-25
100
AcDbAlignedDimension
 13
1395.682984860412
 23
1689.187035644826
 33
0.0
 14
1395.682984860412
 24
1655.187035644826
 34
0.0
 50
90.0
100
AcDbRotatedDimension
1001
ACAD
1000
DSTYLE
1002
{
1070
   279
1070
     2
1070
   371
1070
    18
1070
   372
1070
    18
1002
}
  0
DIMENSION
  5
1B58
330
1F
100
AcDbEntity
  8
実形
100
AcDbDimension
  2
*D18
 10
1498.84397665845
 20
1181.187035644826
 30
0.0
 11
1481.320377421294
 21
1256.875269712179
 31
0.0
 70
   160
  1
35
 71
     5
 42
34.00000000000023
  3
ISO-25
100
AcDbAlignedDimension
 13
1395.682984860412
 23
1215.187035644826
 33
0.0
 14
1395.682984860412
 24
1181.187035644826
 34
0.0
 50
90.0
100
AcDbRotatedDimension
1001
ACAD
1000
DSTYLE
1002
{
1070
   279
1070
     2
1070
   371
1070
    18
1070
   372
1070
    18
1002
}
  0
DIMENSION
  5
1B59
330
1F
100
AcDbEntity
  8
実形
100
AcDbDimension
  2
*D19
 10
1547.240927501965
 20
1181.187035644826
 30
0.0
 11
1528.490927501965
 21
1435.187035644826
 31
0.0
 70
    32
 71
     5
 42
508.0
  3
ISO-25
100
AcDbAlignedDimension
 13
1432.77556739369
 23
1689.187035644826
 33
0.0
 14
1432.77556739369
 24
1181.187035644826
 34
0.0
 50
90.0
100
AcDbRotatedDimension
1001
ACAD
1000
DSTYLE
1002
{
1070
   279
1070
     2
1070
   371
1070
    18
1070
   372
1070
    18
1002
}
  0
DIMENSION
  5
1BE4
330
1F
100
AcDbEntity
  8
実形
100
AcDbDimension
  2
*D20
 10
451.0058833179209
 20
1768.850277586583
 30
0.0
 11
454.0037121015538
 21
1803.850277586583
 31
0.0
 70
   160
  1
35
 71
     5
 42
33.99982908405946
  3
ISO-25
100
AcDbAlignedDimension
 13
417.0060542338615
 23
1674.773717093028
 33
0.0
 14
451.0058833179209
 24
1674.773717093029
 34
0.0
100
AcDbRotatedDimension
1001
ACAD
1000
DSTYLE
1002
{
1070
   279
1070
     2
1070
   371
1070
    18
1070
   372
1070
    18
1002
}
  0
DIMENSION
  5
1C03
330
1F
100
AcDbEntity
  8
実形
100
AcDbDimension
  2
*D21
 10
1401.329793653341
 20
1768.850277586583
 30
0.0
 11
1388.302265206741
 21
1803.850277586583
 31
0.0
 70
   160
  1
35
 71
     5
 42
33.99982908405946
  3
ISO-25
100
AcDbAlignedDimension
 13
1435.329622737401
 23
1674.773717093028
 33
0.0
 14
1401.329793653341
 24
1674.773717093028
 34
0.0
100
AcDbRotatedDimension
1001
ACAD
1000
DSTYLE
1002
{
1070
   279
1070
     2
1070
   371
1070
    18
1070
   372
1070
    18
1002
}
  0
DIMENSION
  5
1C23
330
1F
100
AcDbEntity
  8
実形
100
AcDbDimension
  2
*D22
 10
1435.329622737401
 20
1833.458046852116
 30
0.0
 11
926.1678384856313
 21
1852.208046852116
 31
0.0
 70
    32
  1
1018
 71
     5
 42
1018.323568503539
  3
ISO-25
100
AcDbAlignedDimension
 13
417.0060542338615
 23
1674.773717093028
 33
0.0
 14
1435.329622737401
 24
1674.773717093028
 34
0.0
100
AcDbRotatedDimension
1001
ACAD
1000
DSTYLE
1002
{
1070
   279
1070
     2
1070
   371
1070
    18
1070
   372
1070
    18
1002
}
  0
LINE
  5
1C9D
330
1F
100
AcDbEntity
  8
実形
100
AcDbLine
 10
2784.0
 20
1959.0
 30
0.0
 11
2019.387286519283
 21
1959.000000000001
 31
0.0
  0
LINE
  5
1C9E
330
1F
100
AcDbEntity
  8
実形
100
AcDbLine
 10
2784.0
 20
1894.0
 30
0.0
 11
2019.387286519283
 21
1894.0
 31
0.0
  0
LINE
  5
1C9F
330
1F
100
AcDbEntity
  8
実形
100
AcDbLine
 10
2202.547653420927
 20
1829.0
 30
0.0
 11
2202.547653420927
 21
2024.0
 31
0.0
  0
LINE
  5
1CA0
330
1F
100
AcDbEntity
  8
実形
100
AcDbLine
 10
2019.387286519283
 20
1829.0
 30
0.0
 11
2019.387286519283
 21
2024.0
 31
0.0
  0
TEXT
  5
1CA1
330
1F
100
AcDbEntity
  8
実形
100
AcDbText
 10
2050.295698850121
 20
1976.328571428572
 30
0.0
 40
30.0
  1
部品名
  7
明朝
 72
     4
 11
2116.124270278692
 21
1991.5
 31
0.0
100
AcDbText
  0
TEXT
  5
1CA2
330
1F
100
AcDbEntity
  8
実形
100
AcDbText
 10
2627.614285714286
 20
1976.071428571429
 30
0.0
 40
30.0
  1
厚さ
  7
明朝
 72
     4
 11
2671.5
 21
1991.5
 31
0.0
100
AcDbText
  0
LINE
  5
1CA3
330
1F
100
AcDbEntity
  8
実形
100
AcDbLine
 10
2559.0
 20
1829.0
 30
0.0
 11
2559.0
 21
2024.0
 31
0.0
  0
TEXT
  5
1CA4
330
1F
100
AcDbEntity
  8
実形
100
AcDbText
 10
2338.490869919937
 20
1975.947979478155
 30
0.0
 40
30.0
  1
材質
  7
明朝
 72
     4
 11
2382.376584205651
 21
1991.119408049583
 31
0.0
100
AcDbText
  0
TEXT
  5
1CA5
330
1F
100
AcDbEntity
  8
実形
100
AcDbText
 10
2048.227810657788
 20
1910.557142857143
 30
0.0
 40
30.0
  1
ボウル
  7
明朝
 72
     4
 11
2114.056382086359
 21
1926.5
 31
0.0
100
AcDbText
  0
TEXT
  5
1CA6
330
1F
100
AcDbEntity
  8
実形
100
AcDbText
 10
2594.700000000001
 20
1911.842857142857
 30
0.0
 40
30.0
  1
0.8ｍｍ
  7
明朝
 72
     4
 11
2671.500000000001
 21
1926.5
 31
0.0
100
AcDbText
  0
TEXT
  5
1CA7
330
1F
100
AcDbEntity
  8
実形
100
AcDbText
 10
2239.074011965008
 20
1910.728571428572
 30
0.0
 40
30.0
  1
SUS304（No.4）
  7
明朝
 72
     4
 11
2392.674011965008
 21
1926.5
 31
0.0
100
AcDbText
  0
LINE
  5
1CA8
330
1F
100
AcDbEntity
  8
実形
100
AcDbLine
 10
2784.0
 20
1829.0
 30
0.0
 11
2019.387286519283
 21
1829.0
 31
0.0
  0
TEXT
  5
1CB1
330
1F
100
AcDbEntity
  8
実形
100
AcDbText
 10
2070.170667800645
 20
1846.242857142857
 30
0.0
 40
30.0
  1
天板
  7
明朝
 72
     4
 11
2114.056382086359
 21
1861.5
 31
0.0
100
AcDbText
  0
TEXT
  5
1CBA
330
1F
100
AcDbEntity
  8
実形
100
AcDbText
 10
2219.734774251222
 20
1848.285714285714
 30
0.0
 40
25.0
  1
アクリル人工大理石
  7
明朝
 72
     4
 11
2384.306202822651
 21
1861.5
 31
0.0
100
AcDbText
  0
TEXT
  5
1CC4
330
1F
100
AcDbEntity
  8
実形
100
AcDbText
 10
2605.67142857143
 20
1846.842857142857
 30
0.0
 40
30.0
  1
18ｍｍ
  7
明朝
 72
     4
 11
2671.500000000001
 21
1861.5
 31
0.0
100
AcDbText
  0
LINE
  5
1DF8
330
1F
100
AcDbEntity
  8
実形
100
AcDbLine
 10
1882.850349748009
 20
1399.687035644826
 30
0.0
 11
1882.850349748009
 21
1580.687035644826
 31
0.0
  0
LINE
  5
1DF9
330
1F
100
AcDbEntity
  8
実形
100
AcDbLine
 10
1882.850349748009
 20
1580.687035644826
 30
0.0
 11
1892.850349748009
 21
1580.687035644826
 31
0.0
  0
LINE
  5
1DFA
330
1F
100
AcDbEntity
  8
実形
100
AcDbLine
 10
1892.850349748009
 20
1580.687035644826
 30
0.0
 11
1892.850349748009
 21
1399.687035644826
 31
0.0
  0
LINE
  5
1DFB
330
1F
100
AcDbEntity
  8
実形
100
AcDbLine
 10
1892.850349748009
 20
1399.687035644826
 30
0.0
 11
1882.850349748009
 21
1399.687035644826
 31
0.0
  0
LINE
  5
1DFC
330
1F
100
AcDbEntity
  8
実形
  6
ACAD_ISO08W100
 48
0.5
370
    15
100
AcDbLine
 10
1766.314561069052
 20
1490.187035644826
 30
0.0
 11
1920.225513326113
 21
1490.187035644826
 31
0.0
  0
TEXT
  5
1DFD
330
1F
100
AcDbEntity
  8
実形
370
    -2
100
AcDbText
 10
1755.120780179554
 20
1282.184863658695
 30
0.0
 40
25.0
  1
30R
100
AcDbText
  0
DIMENSION
  5
1DFE
330
1F
100
AcDbEntity
  8
実形
100
AcDbDimension
  2
*D23
 10
2008.156493839929
 20
1410.187035644826
 30
0.0
 11
1989.406493839928
 21
1490.187035644826
 31
0.0
 70
    32
  1
158
 71
     5
 42
160.0
  3
ISO-25
100
AcDbAlignedDimension
 13
1897.850349748009
 23
1570.187035644826
 33
0.0
 14
1897.850349748009
 24
1410.187035644826
 34
0.0
 50
90.0
100
AcDbRotatedDimension
1001
ACAD
1000
DSTYLE
1002
{
1070
   371
1070
    18
1002
}
  0
DIMENSION
  5
1DFF
330
1F
100
AcDbEntity
  8
実形
100
AcDbDimension
  2
*D24
 10
2057.80276459691
 20
1399.687035644826
 30
0.0
 11
2039.052764596909
 21
1490.187035644826
 31
0.0
 70
    32
 71
     5
 42
181.0
  3
ISO-25
100
AcDbAlignedDimension
 13
1897.850349748009
 23
1580.687035644826
 33
0.0
 14
1897.850349748009
 24
1399.687035644826
 34
0.0
 50
90.0
100
AcDbRotatedDimension
1001
ACAD
1000
DSTYLE
1002
{
1070
   371
1070
    18
1002
}
  0
LEADER
  5
1E00
330
1F
100
AcDbEntity
  8
実形
100
AcDbLeader
  3
ISO-25
 40
25.0
 41
16.66666666666666
 76
     2
 10
1869.933343563104
 20
1241.399919473503
 30
0.0
 10
1832.889964886378
 20
1278.414043211655
 30
0.0
213
0.0
223
-12.5
233
0.0
1001
ACAD
1000
DSTYLE
1002
{
1070
    41
1040
25.0
1070
   147
1040
6.25
1070
    77
1070
     0
1070
    73
1070
     1
1070
    74
1070
     1
1070
   279
1070
     1
1070
   342
1005
DA
1002
}
  0
LINE
  5
1E01
330
1F
100
AcDbEntity
  8
実形
100
AcDbLine
 10
1702.650349748009
 20
1655.187035644826
 30
0.0
 11
1704.850349748009
 21
1655.187035644826
 31
0.0
  0
LINE
  5
1E02
330
1F
100
AcDbEntity
  8
実形
100
AcDbLine
 10
1707.850349748009
 20
1652.187035644826
 30
0.0
 11
1707.850349748008
 21
1645.187035644826
 31
0.0
  0
LINE
  5
1E03
330
1F
100
AcDbEntity
  8
実形
100
AcDbLine
 10
1712.850349748008
 20
1640.187035644826
 30
0.0
 11
1852.850349748009
 21
1640.187035644826
 31
0.0
  0
LINE
  5
1E04
330
1F
100
AcDbEntity
  8
実形
100
AcDbLine
 10
1852.850349748009
 20
1230.187035644826
 30
0.0
 11
1712.850349748008
 21
1230.187035644826
 31
0.0
  0
LINE
  5
1E05
330
1F
100
AcDbEntity
  8
実形
100
AcDbLine
 10
1707.850349748008
 20
1225.187035644826
 30
0.0
 11
1707.850349748009
 21
1218.187035644826
 31
0.0
  0
LINE
  5
1E06
330
1F
100
AcDbEntity
  8
実形
100
AcDbLine
 10
1704.850349748009
 20
1215.187035644826
 30
0.0
 11
1702.650349748009
 21
1215.187035644826
 31
0.0
  0
ARC
  5
1E07
330
1F
100
AcDbEntity
  8
実形
100
AcDbCircle
 10
1704.850349748009
 20
1652.187035644826
 30
0.0
 40
3.0
100
AcDbArc
 50
0.0
 51
90.0
  0
ARC
  5
1E08
330
1F
100
AcDbEntity
  8
実形
100
AcDbCircle
 10
1704.850349748009
 20
1218.187035644826
 30
0.0
 40
3.0
100
AcDbArc
 50
270.0
 51
0.0
  0
ARC
  5
1E09
330
1F
100
AcDbEntity
  8
実形
100
AcDbCircle
 10
1712.850349748008
 20
1645.187035644826
 30
0.0
 40
5.0
100
AcDbArc
 50
180.0
 51
270.0
  0
ARC
  5
1E0A
330
1F
100
AcDbEntity
  8
実形
100
AcDbCircle
 10
1712.850349748008
 20
1225.187035644826
 30
0.0
 40
5.0
100
AcDbArc
 50
90.0
 51
180.0
  0
LEADER
  5
1E0C
330
1F
100
AcDbEntity
  8
実形
100
AcDbLeader
  3
ISO-25
 40
25.0
 41
16.66666666666666
 76
     2
 10
1703.333663407589
 20
1650.962806017696
 30
0.0
 10
1666.258442128456
 20
1615.61058664741
 30
0.0
210
0.0
220
0.0
230
-1.0
213
0.0
223
12.5
233
0.0
1001
ACAD
1000
DSTYLE
1002
{
1070
    41
1040
25.0
1070
   147
1040
6.25
1070
    77
1070
     0
1070
    73
1070
     1
1070
    74
1070
     1
1070
   279
1070
     1
1070
   342
1005
DA
1002
}
  0
TEXT
  5
1E0D
330
1F
100
AcDbEntity
  8
実形
370
    -2
100
AcDbText
 10
1624.02291043599
 20
1584.080715328788
 30
0.0
 40
25.0
  1
3R
100
AcDbText
  0
LEADER
  5
1E0E
330
1F
100
AcDbEntity
  8
実形
100
AcDbLeader
  3
ISO-25
 40
25.0
 41
16.66666666666666
 76
     2
 10
1713.71629303774
 20
1646.002556433519
 30
0.0
 10
1752.964255000149
 20
1680.347746925804
 30
0.0
210
0.0
220
0.0
230
-1.0
213
0.0
223
12.5
233
0.0
1001
ACAD
1000
DSTYLE
1002
{
1070
    41
1040
25.0
1070
   147
1040
6.25
1070
    77
1070
     0
1070
    73
1070
     1
1070
    74
1070
     1
1070
   279
1070
     1
1070
   342
1005
DA
1002
}
  0
TEXT
  5
1E0F
330
1F
100
AcDbEntity
  8
実形
370
    -2
100
AcDbText
 10
1763.758939327151
 20
1668.35926548391
 30
0.0
 40
25.0
  1
5R
100
AcDbText
  0
LINE
  5
1E11
330
1F
100
AcDbEntity
  8
実形
100
AcDbLine
 10
1882.850349748009
 20
1580.687035644826
 30
0.0
 11
1882.850349748009
 21
1610.187035644826
 31
0.0
  0
LINE
  5
1E12
330
1F
100
AcDbEntity
  8
実形
100
AcDbLine
 10
1882.850349748009
 20
1399.687035644826
 30
0.0
 11
1882.850349748009
 21
1260.187035644826
 31
0.0
  0
ARC
  5
1E13
330
1F
100
AcDbEntity
  8
実形
100
AcDbCircle
 10
1852.850349748009
 20
1610.187035644826
 30
0.0
 40
30.0
100
AcDbArc
 50
0.0
 51
90.0
  0
ARC
  5
1E14
330
1F
100
AcDbEntity
  8
実形
100
AcDbCircle
 10
1852.850349748009
 20
1260.187035644826
 30
0.0
 40
30.0
100
AcDbArc
 50
270.0
 51
0.0
  0
LINE
  5
267B
330
1F
100
AcDbEntity
  8
実形
100
AcDbLine
 10
835.6678384856367
 20
597.8712037395681
 30
0.0
 11
1006.167838485636
 21
597.8712037395681
 31
0.0
  0
LINE
  5
267C
330
1F
100
AcDbEntity
  8
実形
100
AcDbLine
 10
1006.167838485636
 20
597.8712037395681
 30
0.0
 11
1016.667838485637
 21
597.8712037395681
 31
0.0
  0
LINE
  5
267D
330
1F
100
AcDbEntity
  8
実形
100
AcDbLine
 10
835.6678384856367
 20
597.8712037395681
 30
0.0
 11
835.6678384856367
 21
587.871203739568
 31
0.0
  0
LINE
  5
267E
330
1F
100
AcDbEntity
  8
実形
100
AcDbLine
 10
835.6678384856367
 20
587.871203739568
 30
0.0
 11
1016.667838485637
 21
587.871203739568
 31
0.0
  0
LINE
  5
267F
330
1F
100
AcDbEntity
  8
実形
100
AcDbLine
 10
1016.667838485637
 20
587.871203739568
 30
0.0
 11
1016.667838485637
 21
597.8712037395681
 31
0.0
  0
LINE
  5
2680
330
1F
100
AcDbEntity
  8
実形
  6
ACAD_ISO08W100
 48
0.5
370
    15
100
AcDbLine
 10
926.1678384856368
 20
676.0878276149814
 30
0.0
 11
926.1678384856368
 21
519.6720073076813
 31
0.0
  0
TEXT
  5
2681
330
1F
100
AcDbEntity
  8
実形
100
AcDbText
 10
1263.366044450337
 20
657.1459827006279
 30
0.0
 40
25.0
  1
30R
100
AcDbText
  0
DIMENSION
  5
2682
330
1F
100
AcDbEntity
  8
実形
100
AcDbDimension
  2
*D25
 10
1006.167838485636
 20
471.4437964384951
 30
0.0
 11
926.1678384856368
 21
490.1937964384951
 31
0.0
 70
    32
  1
158
 71
     5
 42
160.0
  3
ISO-25
100
AcDbAlignedDimension
 13
846.1678384856368
 23
587.871203739568
 33
0.0
 14
1006.167838485636
 24
587.871203739568
 34
0.0
100
AcDbRotatedDimension
1001
ACAD
1000
DSTYLE
1002
{
1070
   371
1070
    18
1002
}
  0
DIMENSION
  5
2683
330
1F
100
AcDbEntity
  8
実形
100
AcDbDimension
  2
*D26
 10
1016.667838485637
 20
425.8733390679017
 30
0.0
 11
926.1678384856368
 21
444.6233390679017
 31
0.0
 70
    32
 71
     5
 42
181.0
  3
ISO-25
100
AcDbAlignedDimension
 13
835.6678384856367
 23
587.8712037395681
 33
0.0
 14
1016.667838485637
 24
587.871203739568
 34
0.0
100
AcDbRotatedDimension
1001
ACAD
1000
DSTYLE
1002
{
1070
   371
1070
    18
1002
}
  0
LEADER
  5
2684
330
1F
100
AcDbEntity
  8
実形
100
AcDbLeader
  3
ISO-25
 40
25.0
 41
16.66666666666666
 76
     2
 10
1384.810188600168
 20
627.6205139556013
 30
0.0
 10
1336.871690305118
 20
658.1027357200564
 30
0.0
213
0.0
223
-12.5
233
0.0
1001
ACAD
1000
DSTYLE
1002
{
1070
    41
1040
25.0
1070
   147
1040
6.25
1070
    77
1070
     0
1070
    73
1070
     1
1070
    74
1070
     1
1070
   279
1070
     1
1070
   342
1005
DA
1002
}
  0
LINE
  5
2686
330
1F
100
AcDbEntity
  8
実形
100
AcDbLine
 10
451.1678384856367
 20
778.0712037395679
 30
0.0
 11
451.1678384856367
 21
633.2365084751928
 31
0.0
  0
LINE
  5
2688
330
1F
100
AcDbEntity
  8
実形
 48
0.4
100
AcDbLine
 10
1398.167838485637
 20
772.8712037395681
 30
0.0
 11
454.1678384856368
 21
772.8712037395681
 31
0.0
  0
LINE
  5
2689
330
1F
100
AcDbEntity
  8
実形
100
AcDbLine
 10
1016.667838485637
 20
597.8712037395681
 30
0.0
 11
1371.953146934873
 21
603.2467887259262
 31
0.0
  0
LINE
  5
268A
330
1F
100
AcDbEntity
  8
実形
100
AcDbLine
 10
835.6678384856367
 20
597.8712037395681
 30
0.0
 11
480.3825300364005
 21
603.2467887259262
 31
0.0
  0
ARC
  5
268B
330
1F
100
AcDbEntity
  8
実形
100
AcDbCircle
 10
481.1678384856368
 20
633.2365084751928
 30
0.0
 40
30.0
100
AcDbArc
 50
180.0
 51
268.4999999999972
  0
ARC
  5
268C
330
1F
100
AcDbEntity
  8
実形
100
AcDbCircle
 10
1371.167838485637
 20
633.2365084751928
 30
0.0
 40
30.0
100
AcDbArc
 50
271.5000000000028
 51
0.0
  0
LINE
  5
268D
330
1F
100
AcDbEntity
  8
実形
100
AcDbLine
 10
835.6678384856367
 20
597.8712037395681
 30
0.0
 11
420.4728111009426
 21
597.8712037395681
 31
0.0
  0
TEXT
  5
268E
330
1F
100
AcDbEntity
  8
実形
100
AcDbText
 10
499.4990068147935
 20
561.326134128642
 30
0.0
 40
25.0
  1
1.5°
100
AcDbText
  0
ARC
  5
2691
330
1F
100
AcDbEntity
  8
実形
100
AcDbCircle
 10
454.1678384856368
 20
775.8712037395682
 30
0.0
 40
3.0
100
AcDbArc
 50
180.0
 51
270.0
  0
ARC
  5
2692
330
1F
100
AcDbEntity
  8
実形
100
AcDbCircle
 10
1398.167838485637
 20
775.8712037395682
 30
0.0
 40
3.0
100
AcDbArc
 50
270.0
 51
0.0
  0
LINE
  5
270E
330
1F
100
AcDbEntity
  8
実形
100
AcDbLine
 10
422.9678384856367
 20
796.0712037395681
 30
0.0
 11
447.9678384856367
 21
796.0712037395681
 31
0.0
  0
ARC
  5
2710
330
1F
100
AcDbEntity
  8
実形
100
AcDbCircle
 10
422.9678384856367
 20
791.0712037395681
 30
0.0
 40
5.0
100
AcDbArc
 50
90.0
 51
180.0
  0
LINE
  5
2713
330
1F
100
AcDbEntity
  8
実形
100
AcDbLine
 10
417.9678384856368
 20
778.0712037395681
 30
0.0
 11
433.0401706899522
 21
778.0712037395681
 31
0.0
  0
LINE
  5
2714
330
1F
100
AcDbEntity
  8
実形
100
AcDbLine
 10
439.9678384856367
 20
778.0712037395681
 30
0.0
 11
447.9678384856367
 21
778.0712037395681
 31
0.0
  0
LINE
  5
271A
330
1F
100
AcDbEntity
  8
実形
100
AcDbLine
 10
417.9678384856368
 20
791.0712037395681
 30
0.0
 11
417.9678384856368
 21
778.0712037395681
 31
0.0
  0
LINE
  5
271D
330
1F
100
AcDbEntity
  8
実形
100
AcDbLine
 10
433.0401706899522
 20
778.0712037395681
 30
0.0
 11
434.9678384856368
 21
778.0712037395681
 31
0.0
  0
LINE
  5
2721
330
1F
100
AcDbEntity
  8
実形
100
AcDbLine
 10
451.1678384856367
 20
778.0712037395681
 30
0.0
 11
451.1678384856367
 21
767.5464356759696
 31
0.0
  0
LINE
  5
32E4
330
1F
100
AcDbEntity
  8
実形
100
AcDbLine
 10
1429.367838485637
 20
796.0712037395681
 30
0.0
 11
1404.367838485637
 21
796.0712037395681
 31
0.0
  0
ARC
  5
32E6
330
1F
100
AcDbEntity
  8
実形
100
AcDbCircle
 10
1429.367838485637
 20
791.0712037395681
 30
0.0
 40
5.0
100
AcDbArc
 50
0.000000000000007
 51
90.0
  0
LINE
  5
32E9
330
1F
100
AcDbEntity
  8
実形
100
AcDbLine
 10
1434.367838485637
 20
778.0712037395681
 30
0.0
 11
1419.295506281321
 21
778.0712037395681
 31
0.0
  0
LINE
  5
32EA
330
1F
100
AcDbEntity
  8
実形
100
AcDbLine
 10
1412.367838485637
 20
778.0712037395681
 30
0.0
 11
1404.367838485637
 21
778.0712037395681
 31
0.0
  0
LINE
  5
32EE
330
1F
100
AcDbEntity
  8
実形
100
AcDbLine
 10
1434.367838485637
 20
791.0712037395681
 30
0.0
 11
1434.367838485637
 21
778.0712037395681
 31
0.0
  0
LINE
  5
32F1
330
1F
100
AcDbEntity
  8
実形
100
AcDbLine
 10
1419.295506281321
 20
778.0712037395681
 30
0.0
 11
1417.367838485637
 21
778.0712037395681
 31
0.0
  0
LINE
  5
3484
330
1F
100
AcDbEntity
  8
実形
100
AcDbLine
 10
1684.650349748009
 20
1684.187035644826
 30
0.0
 11
1684.650349748009
 21
1659.187035644826
 31
0.0
  0
ARC
  5
3486
330
1F
100
AcDbEntity
  8
実形
100
AcDbCircle
 10
1689.650349748009
 20
1684.187035644826
 30
0.0
 40
5.0
100
AcDbArc
 50
90.0
 51
180.0
  0
LINE
  5
348E
330
1F
100
AcDbEntity
  8
実形
100
AcDbLine
 10
1689.650349748009
 20
1689.187035644826
 30
0.0
 11
1702.650349748009
 21
1689.187035644826
 31
0.0
  0
LINE
  5
34E6
330
1F
100
AcDbEntity
  8
実形
100
AcDbLine
 10
1684.650349748009
 20
1186.187035644826
 30
0.0
 11
1684.650349748009
 21
1211.187035644825
 31
0.0
  0
ARC
  5
34E8
330
1F
100
AcDbEntity
  8
実形
100
AcDbCircle
 10
1689.650349748009
 20
1186.187035644826
 30
0.0
 40
5.0
100
AcDbArc
 50
180.0
 51
270.0
  0
LINE
  5
34EB
330
1F
100
AcDbEntity
  8
実形
100
AcDbLine
 10
1702.650349748009
 20
1181.187035644826
 30
0.0
 11
1702.650349748009
 21
1196.25936784914
 31
0.0
  0
LINE
  5
34F0
330
1F
100
AcDbEntity
  8
実形
100
AcDbLine
 10
1689.650349748009
 20
1181.187035644826
 30
0.0
 11
1702.650349748009
 21
1181.187035644826
 31
0.0
  0
LINE
  5
34F3
330
1F
100
AcDbEntity
  8
実形
100
AcDbLine
 10
1702.650349748009
 20
1196.25936784914
 30
0.0
 11
1702.650349748009
 21
1198.187035644826
 31
0.0
  0
LINE
  5
3509
330
1F
100
AcDbEntity
  8
実形
100
AcDbLine
 10
447.9678384856367
 20
796.0712037395681
 30
0.0
 11
1404.367838485637
 21
796.0712037395681
 31
0.0
  0
LINE
  5
350A
330
1F
100
AcDbEntity
  8
実形
100
AcDbLine
 10
1684.650349748009
 20
1659.187035644826
 30
0.0
 11
1684.650349748009
 21
1211.187035644825
 31
0.0
  0
LINE
  5
3655
330
1F
100
AcDbEntity
  8
実形
100
AcDbLine
 10
2415.50327858681
 20
693.4388787035102
 30
0.0
 11
2025.503278586809
 21
693.4388787035102
 31
0.0
  0
ARC
  5
3656
330
1F
100
AcDbEntity
  8
実形
100
AcDbCircle
 10
2025.503278586809
 20
615.4388787035102
 30
0.0
 40
78.0
100
AcDbArc
 50
90.0
 51
180.0
  0
ARC
  5
3657
330
1F
100
AcDbEntity
  8
実形
100
AcDbCircle
 10
2415.50327858681
 20
615.4388787035102
 30
0.0
 40
78.0
100
AcDbArc
 50
0.000000000000007
 51
90.0
  0
LINE
  5
3658
330
1F
100
AcDbEntity
  8
実形
100
AcDbLine
 10
2493.503278586809
 20
553.0388787035102
 30
0.0
 11
2228.303278586809
 21
553.0388787035102
 31
0.0
  0
LINE
  5
3659
330
1F
100
AcDbEntity
  8
実形
100
AcDbLine
 10
2150.303278586809
 20
553.0388787035102
 30
0.0
 11
2025.503278586809
 21
553.0388787035102
 31
0.0
  0
LINE
  5
365A
330
1F
100
AcDbEntity
  8
実形
100
AcDbLine
 10
2197.103278586809
 20
553.0388787035102
 30
0.0
 11
1978.703278586809
 21
553.0388787035102
 31
0.0
  0
LINE
  5
365B
330
1F
100
AcDbEntity
  8
実形
100
AcDbLine
 10
2493.503278586809
 20
412.6388787035102
 30
0.0
 11
2258.374896199489
 21
412.6388787035102
 31
0.0
  0
LINE
  5
365C
330
1F
100
AcDbEntity
  8
実形
100
AcDbLine
 10
2150.303278586809
 20
412.6388787035102
 30
0.0
 11
2025.503278586809
 21
412.6388787035102
 31
0.0
  0
LINE
  5
365D
330
1F
100
AcDbEntity
  8
実形
100
AcDbLine
 10
1947.503278586809
 20
615.4388787035102
 30
0.0
 11
1947.503278586809
 21
594.6388787035102
 31
0.0
  0
LINE
  5
365F
330
1F
100
AcDbEntity
  8
実形
100
AcDbLine
 10
1963.103278586809
 20
568.6388787035093
 30
0.0
 11
2197.103278586809
 21
568.6388787035093
 31
0.0
  0
LINE
  5
3660
330
1F
100
AcDbEntity
  8
実形
100
AcDbLine
 10
2228.303278586809
 20
594.6388787035102
 30
0.0
 11
2228.303278586809
 21
553.0388787035102
 31
0.0
  0
LINE
  5
3661
330
1F
100
AcDbEntity
  8
実形
100
AcDbLine
 10
2150.303278586809
 20
553.0388787035102
 30
0.0
 11
2025.503278586809
 21
553.0388787035102
 31
0.0
  0
LINE
  5
3662
330
1F
100
AcDbEntity
  8
実形
100
AcDbLine
 10
2493.503278586809
 20
615.4388787035102
 30
0.0
 11
2493.503278586809
 21
412.6388787035102
 31
0.0
  0
LINE
  5
3663
330
1F
100
AcDbEntity
  8
実形
100
AcDbLine
 10
2025.503278586809
 20
553.0388787035102
 30
0.0
 11
2025.503278586809
 21
412.6388787035112
 31
0.0
  0
LINE
  5
3665
330
1F
100
AcDbEntity
  8
実形
100
AcDbLine
 10
1963.103278586809
 20
568.6388787035093
 30
0.0
 11
1963.10327858681
 21
365.8528662055801
 31
0.0
  0
LINE
  5
3667
330
1F
100
AcDbEntity
  8
実形
100
AcDbLine
 10
1978.703278586809
 20
553.0388787035102
 30
0.0
 11
1978.703278586809
 21
365.8528662055802
 31
0.0
  0
ARC
  5
366C
330
1F
100
AcDbEntity
  8
実形
100
AcDbCircle
 10
2189.303278586809
 20
553.0388787035102
 30
0.0
 40
39.0
100
AcDbArc
 50
180.0
 51
0.000000000000007
  0
TEXT
  5
3672
330
1F
100
AcDbEntity
  8
実形
100
AcDbText
 10
1716.352098167294
 20
420.331799836469
 30
0.0
 40
35.0
  1
シンク厚　
 11
1716.352098167294
 21
415.6651331698023
 31
0.0
100
AcDbText
 73
     1
  0
DIMENSION
  5
3679
330
1F
100
AcDbEntity
  8
実形
100
AcDbDimension
  2
*D27
 10
1947.50327858681
 20
476.4445371024394
 30
0.0
 11
1927.154852797523
 21
500.9356801950445
 31
0.0
 70
   160
  1
1
 71
     5
 42
15.59999999999991
  3
ISO-25
100
AcDbAlignedDimension
 13
1963.10327858681
 23
568.6388787035094
 33
0.0
 14
1947.50327858681
 24
542.8471552806367
 34
0.0
 50
180.0
100
AcDbRotatedDimension
1001
ACAD
1000
DSTYLE
1002
{
1070
   282
1070
     1
1070
   281
1070
     1
1070
    41
1040
5.0
1070
    42
1040
6.0
1070
   140
1040
25.0
1070
   147
1040
1.199999999999999
1070
   279
1070
     2
1070
   289
1070
     2
1070
   371
1070
    13
1070
   372
1070
    13
1002
}
  0
TEXT
  5
367A
330
1F
100
AcDbEntity
  8
実形
  6
HIDDEN2
100
AcDbText
 10
1968.066600121111
 20
472.2750337594243
 30
0.0
 40
10.14
  1
● 
 71
     2
100
AcDbText
  0
TEXT
  5
367B
330
1F
100
AcDbEntity
  8
実形
  6
HIDDEN2
100
AcDbText
 10
1951.836239646571
 20
471.8412446318379
 30
0.0
 40
10.14
  1
● 
 71
     2
100
AcDbText
  0
LINE
  5
367C
330
1F
100
AcDbEntity
  8
実形
100
AcDbLine
 10
1963.51457456288
 20
476.7671083971321
 30
0.0
 11
1947.829667527175
 21
476.7671083971321
 31
0.0
  0
LINE
  5
367F
330
1F
100
AcDbEntity
  8
実形
100
AcDbLine
 10
2258.374896199489
 20
412.6388787035102
 30
0.0
 11
2228.303278586809
 21
412.6388787035102
 31
0.0
  0
ARC
  5
3680
330
1F
100
AcDbEntity
  8
実形
100
AcDbCircle
 10
2189.303278586809
 20
412.6388787035102
 30
0.0
 40
39.0
100
AcDbArc
 50
0.000000000000007
 51
180.0
  0
LINE
  5
3681
330
1F
100
AcDbEntity
  8
実形
100
AcDbLine
 10
2150.303278586809
 20
466.6963647750328
 30
0.0
 11
2150.303278586809
 21
448.7942378414921
 31
0.0
  0
LINE
  5
3682
330
1F
100
AcDbEntity
  8
実形
100
AcDbLine
 10
2228.303278586809
 20
466.6963647750328
 30
0.0
 11
2228.303278586809
 21
448.8418713489303
 31
0.0
  0
TEXT
  5
3689
330
1F
100
AcDbEntity
  8
実形
100
AcDbText
 10
1731.678836044741
 20
379.778457895655
 30
0.0
 40
35.0
  1
0.8mm
 11
1731.678836044741
 21
375.1117912289883
 31
0.0
100
AcDbText
 73
     1
  0
DIMENSION
  5
3CE3
330
1F
100
AcDbEntity
  8
実形
100
AcDbDimension
  2
*D28
 10
2603.281879703351
 20
553.0388787035104
 30
0.0
 11
2584.531879703351
 21
623.2388787035107
 31
0.0
 70
    32
  1
9
 71
     5
 42
140.3999999999998
  3
ISO-25
100
AcDbAlignedDimension
 13
2467.669934078618
 23
693.4388787035102
 33
0.0
 14
2467.669934078618
 24
553.0388787035104
 34
0.0
 50
90.0
100
AcDbRotatedDimension
1001
ACAD
1000
DSTYLE
1002
{
1070
   279
1070
     2
1070
   371
1070
    18
1070
   372
1070
    18
1002
}
  0
DIMENSION
  5
3CF9
330
1F
100
AcDbEntity
  8
実形
100
AcDbDimension
  2
*D29
 10
2603.281879703351
 20
412.6388787035103
 30
0.0
 11
2584.531879703351
 21
482.8388787035107
 31
0.0
 70
    32
  1
9
 71
     5
 42
140.4
  3
ISO-25
100
AcDbAlignedDimension
 13
2467.669934078618
 23
553.0388787035104
 33
0.0
 14
2467.669934078618
 24
412.6388787035103
 34
0.0
 50
90.0
100
AcDbRotatedDimension
1001
ACAD
1000
DSTYLE
1002
{
1070
   279
1070
     2
1070
   371
1070
    18
1070
   372
1070
    18
1002
}
  0
DIMENSION
  5
3D0F
330
1F
100
AcDbEntity
  8
実形
100
AcDbDimension
  2
*D30
 10
2670.139520579067
 20
412.6388787035103
 30
0.0
 11
2651.389520579066
 21
553.0388787035108
 31
0.0
 70
    32
  1
18
 71
     5
 42
280.8
  3
ISO-25
100
AcDbAlignedDimension
 13
2467.669934078618
 23
693.4388787035103
 33
0.0
 14
2467.669934078618
 24
412.6388787035103
 34
0.0
 50
90.0
100
AcDbRotatedDimension
1001
ACAD
1000
DSTYLE
1002
{
1070
   279
1070
     2
1070
   371
1070
    18
1070
   372
1070
    18
1002
}
  0
TEXT
  5
3E18
330
1F
100
AcDbEntity
  8
実形
100
AcDbText
 10
1841.441352076292
 20
734.2177665981911
 30
0.0
 40
29.25
  1
5R
 11
1841.441352076292
 21
730.3177665981912
 31
0.0
100
AcDbText
 73
     1
  0
DIMENSION
  5
3E28
330
1F
100
AcDbEntity
  8
実形
100
AcDbDimension
  2
*D31
 10
2197.103278586809
 20
626.499025413821
 30
0.0
 11
2080.103278586809
 21
645.249025413821
 31
0.0
 70
    32
  1
15
 71
     5
 42
234.0
  3
ISO-25
100
AcDbAlignedDimension
 13
1963.103278586809
 23
536.2515538480251
 33
0.0
 14
2197.103278586809
 24
536.2515538480251
 34
0.0
100
AcDbRotatedDimension
1001
ACAD
1000
DSTYLE
1002
{
1070
   279
1070
     2
1070
   371
1070
    18
1070
   372
1070
    18
1002
}
  0
LEADER
  5
3E47
330
1F
100
AcDbEntity
  8
実形
100
AcDbLeader
  3
ISO-25
 76
     2
 10
1952.999988120199
 20
668.1222954033009
 30
0.0
 10
1878.627564090926
 20
721.824866514151
 30
0.0
1001
ACAD
1000
DSTYLE
1002
{
1070
   147
1040
6.25
1070
    77
1070
     0
1070
   279
1070
     2
1070
   371
1070
    18
1070
   372
1070
    18
1002
}
  0
LINE
  5
3E48
330
1F
100
AcDbEntity
  8
実形
100
AcDbLine
 10
2197.103278586809
 20
568.6388787035093
 30
0.0
 11
2197.103278586809
 21
553.0388787035102
 31
0.0
  0
DIMENSION
  5
3E49
330
1F
100
AcDbEntity
  8
実形
100
AcDbDimension
  2
*D32
 10
2101.036883161905
 20
553.0388787035104
 30
0.0
 11
2069.564297767181
 21
524.3493911207361
 31
0.0
 70
   160
  1
2.5
 71
     5
 42
39.0
  3
ISO-25
100
AcDbAlignedDimension
 13
2229.883963240635
 23
514.0388787035103
 33
0.0
 14
2153.536592650147
 24
553.0388787035104
 34
0.0
 50
90.0
100
AcDbRotatedDimension
1001
ACAD
1000
DSTYLE
1002
{
1070
   140
1040
23.0
1070
   279
1070
     2
1070
   371
1070
    18
1070
   372
1070
    18
1002
}
  0
DIMENSION
  5
3E7A
330
1F
100
AcDbEntity
  8
実形
100
AcDbDimension
  2
*D33
 10
2228.303278586809
 20
461.4323905324424
 30
0.0
 11
2189.303278586809
 21
480.1823905324424
 31
0.0
 70
    32
  1
5
 71
     5
 42
78.0
  3
ISO-25
100
AcDbAlignedDimension
 13
2150.30327858681
 23
522.3587244814916
 33
0.0
 14
2228.303278586809
 24
522.3587244814916
 34
0.0
100
AcDbRotatedDimension
1001
ACAD
1000
DSTYLE
1002
{
1070
   279
1070
     2
1070
   371
1070
    18
1070
   372
1070
    18
1002
}
  0
LINE
  5
3EB4
330
1F
100
AcDbEntity
  8
実形
100
AcDbLine
 10
2150.303278586809
 20
461.4323905324425
 30
0.0
 11
2150.303278586809
 21
504.0521172560442
 31
0.0
  0
LINE
  5
3EB5
330
1F
100
AcDbEntity
  8
実形
100
AcDbLine
 10
2228.303278586809
 20
461.4323905324425
 30
0.0
 11
2228.303278586809
 21
502.8545106432656
 31
0.0
  0
DIMENSION
  5
3EB7
330
1F
100
AcDbEntity
  8
実形
100
AcDbDimension
  2
*D34
 10
2102.975332119596
 20
412.6388787035103
 30
0.0
 11
2070.355870815655
 21
441.0024837871193
 31
0.0
 70
   160
  1
2.5
 71
     5
 42
38.99999999999995
  3
ISO-25
100
AcDbAlignedDimension
 13
2203.595588728236
 23
451.6388787035102
 33
0.0
 14
2215.882092629512
 24
412.6388787035102
 34
0.0
 50
90.0
100
AcDbRotatedDimension
1001
ACAD
1000
DSTYLE
1002
{
1070
   140
1040
23.0
1070
   279
1070
     2
1070
   371
1070
    18
1070
   372
1070
    18
1002
}
  0
DIMENSION
  5
3F58
330
1F
100
AcDbEntity
  8
実形
100
AcDbDimension
  2
*D35
 10
2228.303278586809
 20
743.3028714699867
 30
0.0
 11
2087.903278586809
 21
762.0528714699867
 31
0.0
 70
    32
  1
18
 71
     5
 42
280.7999999999997
  3
ISO-25
100
AcDbAlignedDimension
 13
1947.50327858681
 23
640.5397997195641
 33
0.0
 14
2228.303278586809
 24
640.5397997195641
 34
0.0
100
AcDbRotatedDimension
1001
ACAD
1000
DSTYLE
1002
{
1070
   279
1070
     2
1070
   371
1070
    18
1070
   372
1070
    18
1002
}
  0
DIMENSION
  5
3F6E
330
1F
100
AcDbEntity
  8
実形
100
AcDbDimension
  2
*D36
 10
2493.503278586809
 20
743.3028714699867
 30
0.0
 11
2360.90327858681
 21
762.0528714699867
 31
0.0
 70
    32
  1
17
 71
     5
 42
265.1999999999998
  3
ISO-25
100
AcDbAlignedDimension
 13
2228.303278586809
 23
640.5397997195629
 33
0.0
 14
2493.503278586809
 24
640.5397997195629
 34
0.0
100
AcDbRotatedDimension
1001
ACAD
1000
DSTYLE
1002
{
1070
   279
1070
     2
1070
   371
1070
    18
1070
   372
1070
    18
1002
}
  0
DIMENSION
  5
3F85
330
1F
100
AcDbEntity
  8
実形
100
AcDbDimension
  2
*D37
 10
2493.503278586809
 20
786.8108100678382
 30
0.0
 11
2220.50327858681
 21
805.5608100678382
 31
0.0
 70
    32
  1
35
 71
     5
 42
545.9999999999995
  3
ISO-25
100
AcDbAlignedDimension
 13
1947.50327858681
 23
640.5397997195629
 33
0.0
 14
2493.503278586809
 24
640.5397997195629
 34
0.0
100
AcDbRotatedDimension
1001
ACAD
1000
DSTYLE
1002
{
1070
   279
1070
     2
1070
   371
1070
    18
1070
   372
1070
    18
1002
}
  0
TEXT
  5
3FBF
330
1F
100
AcDbEntity
  8
実形
100
AcDbText
 10
2550.529317622146
 20
737.2328637475789
 30
0.0
 40
29.25
  1
5R
 11
2550.529317622146
 21
733.332863747579
 31
0.0
100
AcDbText
 73
     1
  0
LEADER
  5
3FC0
330
1F
100
AcDbEntity
  8
実形
100
AcDbLeader
  3
ISO-25
 76
     2
 10
2483.051372681067
 20
671.1373925526888
 30
0.0
 10
2567.167011323674
 20
730.8335781775614
 30
0.0
1001
ACAD
1000
DSTYLE
1002
{
1070
   147
1040
6.25
1070
    77
1070
     0
1070
   279
1070
     2
1070
   371
1070
    18
1070
   372
1070
    18
1002
}
  0
DIMENSION
  5
3FD7
330
1F
100
AcDbEntity
  8
実形
100
AcDbDimension
  2
*D38
 10
2025.503278586809
 20
306.8527456354114
 30
0.0
 11
1925.472691921497
 21
342.2580203758225
 31
0.0
 70
   160
  1
3.2
 71
     5
 42
46.80000000000018
  3
ISO-25
100
AcDbAlignedDimension
 13
1978.703278586809
 23
420.8916371725106
 33
0.0
 14
2025.503278586809
 24
420.8916371725106
 34
0.0
100
AcDbRotatedDimension
1001
ACAD
1000
DSTYLE
1002
{
1070
   140
1040
25.0
1070
   279
1070
     2
1070
   371
1070
    18
1070
   372
1070
    18
1002
}
  0
DIMENSION
  5
3FF6
330
1F
100
AcDbEntity
  8
実形
100
AcDbDimension
  2
*D39
 10
2150.30327858681
 20
306.8527456354114
 30
0.0
 11
2087.903278586809
 21
325.6027456354114
 31
0.0
 70
    32
  1
8
 71
     5
 42
124.8000000000001
  3
ISO-25
100
AcDbAlignedDimension
 13
2025.503278586809
 23
420.8916371725106
 33
0.0
 14
2150.30327858681
 24
420.8916371725106
 34
0.0
100
AcDbRotatedDimension
1001
ACAD
1000
DSTYLE
1002
{
1070
   279
1070
     2
1070
   371
1070
    18
1070
   372
1070
    18
1002
}
  0
DIMENSION
  5
400C
330
1F
100
AcDbEntity
  8
実形
100
AcDbDimension
  2
*D40
 10
2228.303278586809
 20
306.8527456354114
 30
0.0
 11
2189.303278586809
 21
325.6027456354114
 31
0.0
 70
    32
  1
5
 71
     5
 42
78.0
  3
ISO-25
100
AcDbAlignedDimension
 13
2150.30327858681
 23
420.8916371725106
 33
0.0
 14
2228.303278586809
 24
420.8916371725106
 34
0.0
100
AcDbRotatedDimension
1001
ACAD
1000
DSTYLE
1002
{
1070
   279
1070
     2
1070
   371
1070
    18
1070
   372
1070
    18
1002
}
  0
DIMENSION
  5
4022
330
1F
100
AcDbEntity
  8
実形
100
AcDbDimension
  2
*D41
 10
2493.503278586809
 20
306.8527456354114
 30
0.0
 11
2360.90327858681
 21
325.6027456354114
 31
0.0
 70
    32
  1
17
 71
     5
 42
265.1999999999998
  3
ISO-25
100
AcDbAlignedDimension
 13
2228.303278586809
 23
420.8916371725106
 33
0.0
 14
2493.503278586809
 24
420.8916371725106
 34
0.0
100
AcDbRotatedDimension
1001
ACAD
1000
DSTYLE
1002
{
1070
   279
1070
     2
1070
   371
1070
    18
1070
   372
1070
    18
1002
}
  0
DIMENSION
  5
40C6
330
1F
100
AcDbEntity
  8
実形
100
AcDbDimension
  2
*D42
 10
2027.2926774559
 20
256.8830082351342
 30
0.0
 11
1988.2926774559
 21
275.6330082351342
 31
0.0
 70
    32
  1
5
 71
     5
 42
77.99999999999954
  3
ISO-25
100
AcDbAlignedDimension
 13
1949.2926774559
 23
372.172337168286
 33
0.0
 14
2027.2926774559
 24
372.172337168286
 34
0.0
100
AcDbRotatedDimension
1001
ACAD
1000
DSTYLE
1002
{
1070
   279
1070
     2
1070
   371
1070
    18
1070
   372
1070
    18
1002
}
  0
DIMENSION
  5
40E5
330
1F
100
AcDbEntity
  8
実形
100
AcDbDimension
  2
*D43
 10
2495.2926774559
 20
256.8830082351342
 30
0.0
 11
2261.2926774559
 21
275.6330082351342
 31
0.0
 70
    32
  1
30
 71
     5
 42
468.0
  3
ISO-25
100
AcDbAlignedDimension
 13
2027.2926774559
 23
372.172337168286
 33
0.0
 14
2495.2926774559
 24
372.172337168286
 34
0.0
100
AcDbRotatedDimension
1001
ACAD
1000
DSTYLE
1002
{
1070
   279
1070
     2
1070
   371
1070
    18
1070
   372
1070
    18
1002
}
  0
LINE
  5
445C
330
1F
100
AcDbEntity
  8
実形
100
AcDbLine
 10
417.9678384856368
 20
778.0712037395681
 30
0.0
 11
1434.367838485637
 21
778.0712037395682
 31
0.0
  0
LINE
  5
445D
330
1F
100
AcDbEntity
  8
実形
100
AcDbLine
 10
1702.650349748009
 20
1689.187035644826
 30
0.0
 11
1702.650349748009
 21
1181.187035644826
 31
0.0
  0
LINE
  5
4467
330
1F
100
AcDbEntity
  8
実形
100
AcDbLine
 10
1961.413543249463
 20
424.2228321327884
 30
0.0
 11
1877.466057842642
 21
418.333112484727
 31
0.0
  0
LINE
  5
449E
330
1F
100
AcDbEntity
  8
実形
100
AcDbLine
 10
1961.090001334807
 20
424.071573549372
 30
0.0
 11
1928.755285132045
 21
410.3198621170893
 31
0.0
  0
LINE
  5
449F
330
1F
100
AcDbEntity
  8
実形
100
AcDbLine
 10
1960.7417613388
 20
424.9683758092836
 30
0.0
 11
1928.46817187876
 21
431.310465671972
 31
0.0
  0
LINE
  5
4586
330
1F
100
AcDbEntity
  8
実形
100
AcDbLine
 10
1401.167838485637
 20
633.2365084751928
 30
0.0
 11
1401.167838485637
 21
778.0712037395682
 31
0.0
  0
LINE
  5
45CA
330
1F
100
AcDbEntity
  8
実形
100
AcDbLine
 10
420.4728111009426
 20
597.8712037395681
 30
0.0
 11
407.4483115416333
 21
597.8712037395681
 31
0.0
  0
LINE
  5
45CB
330
1F
100
AcDbEntity
  8
実形
100
AcDbLine
 10
835.6678384856367
 20
587.871203739568
 30
0.0
 11
407.4483115416333
 21
587.871203739568
 31
0.0
  0
DIMENSION
  5
45CC
330
1F
100
AcDbEntity
  8
実形
100
AcDbDimension
  2
*D44
 10
302.2460104273414
 20
778.0712037395681
 30
0.0
 11
222.0439297599878
 21
847.617683084627
 31
0.0
 70
   160
 71
     5
 42
18.0
  3
ISO-25
100
AcDbAlignedDimension
 13
445.2457885360563
 23
796.0712037395681
 33
0.0
 14
446.2245661772321
 24
778.0712037395681
 34
0.0
 50
90.0
100
AcDbRotatedDimension
1001
ACAD
1000
DSTYLE
1002
{
1070
   140
1040
25.0
1070
   279
1070
     2
1070
   371
1070
    18
1070
   372
1070
    18
1002
}
  0
DIMENSION
  5
45D9
330
1F
100
AcDbEntity
  8
実形
100
AcDbDimension
  2
*D45
 10
302.2460104273414
 20
772.8712037395681
 30
0.0
 11
224.8187801813674
 21
749.8109212836261
 31
0.0
 70
   160
 71
     5
 42
5.199999999999931
  3
ISO-25
100
AcDbAlignedDimension
 13
446.2245661772321
 23
778.0712037395681
 33
0.0
 14
446.2245661772321
 24
772.8712037395681
 34
0.0
 50
90.0
100
AcDbRotatedDimension
1001
ACAD
1000
DSTYLE
1002
{
1070
   140
1040
25.0
1070
   279
1070
     2
1070
   371
1070
    18
1070
   372
1070
    18
1002
}
  0
DIMENSION
  5
45F3
330
1F
100
AcDbEntity
  8
実形
100
AcDbDimension
  2
*D46
 10
302.2460104273414
 20
597.8712037395681
 30
0.0
 11
276.3721840828111
 21
668.6339556238199
 31
0.0
 70
   160
 71
     5
 42
175.0000000000001
  3
ISO-25
100
AcDbAlignedDimension
 13
446.2245661772321
 23
772.8712037395681
 33
0.0
 14
391.158058402485
 24
597.8712037395681
 34
0.0
 50
90.0
100
AcDbRotatedDimension
1001
ACAD
1000
DSTYLE
1002
{
1070
   279
1070
     2
1070
   371
1070
    18
1070
   372
1070
    18
1002
}
  0
DIMENSION
  5
4618
330
1F
100
AcDbEntity
  8
実形
100
AcDbDimension
  2
*D47
 10
191.6241119767001
 20
597.8712037395681
 30
0.0
 11
172.8741119767
 21
696.9712037395681
 31
0.0
 70
    32
 71
     5
 42
198.2
  3
ISO-25
100
AcDbAlignedDimension
 13
445.2457885360563
 23
796.0712037395681
 33
0.0
 14
391.158058402485
 24
597.8712037395681
 34
0.0
 50
90.0
100
AcDbRotatedDimension
1001
ACAD
1000
DSTYLE
1002
{
1070
   279
1070
     2
1070
   371
1070
    18
1070
   372
1070
    18
1002
}
  0
DIMENSION
  5
482A
330
1F
100
AcDbEntity
  8
実形
100
AcDbDimension
  2
*D48
 10
1702.650349748009
 20
1054.533907350647
 30
0.0
 11
1653.518466846864
 21
1083.150194052052
 31
0.0
 70
   160
 71
     5
 42
18.0
  3
ISO-25
100
AcDbAlignedDimension
 13
1684.650349748009
 23
1215.340894494846
 33
0.0
 14
1702.650349748009
 24
1215.340894494846
 34
0.0
100
AcDbRotatedDimension
1001
ACAD
1000
DSTYLE
1002
{
1070
   279
1070
     2
1070
   371
1070
    18
1070
   372
1070
    18
1002
}
  0
DIMENSION
  5
4837
330
1F
100
AcDbEntity
  8
実形
100
AcDbDimension
  2
*D49
 10
1882.850349748009
 20
1054.533907350647
 30
0.0
 11
1792.750349748009
 21
1073.283907350647
 31
0.0
 70
    32
 71
     5
 42
180.1999999999998
  3
ISO-25
100
AcDbAlignedDimension
 13
1702.650349748009
 23
1215.340894494846
 33
0.0
 14
1882.850349748009
 24
1215.340894494846
 34
0.0
100
AcDbRotatedDimension
1001
ACAD
1000
DSTYLE
1002
{
1070
   279
1070
     2
1070
   371
1070
    18
1070
   372
1070
    18
1002
}
  0
DIMENSION
  5
4844
330
1F
100
AcDbEntity
  8
実形
100
AcDbDimension
  2
*D50
 10
1892.850349748009
 20
1098.242488378644
 30
0.0
 11
1925.311310914701
 21
1121.427892557194
 31
0.0
 70
   160
  1
7
 71
     5
 42
10.0
  3
ISO-25
100
AcDbAlignedDimension
 13
1882.850349748009
 23
1215.340894494846
 33
0.0
 14
1892.850349748009
 24
1215.340894494846
 34
0.0
100
AcDbRotatedDimension
1001
ACAD
1000
DSTYLE
1002
{
1070
   279
1070
     2
1070
   371
1070
    18
1070
   372
1070
    18
1002
}
  0
DIMENSION
  5
4891
330
1F
100
AcDbEntity
  8
実形
100
AcDbDimension
  2
*D51
 10
1882.850349748009
 20
995.755819400456
 30
0.0
 11
1783.750349748009
 21
1014.505819400456
 31
0.0
 70
    32
 71
     5
 42
198.1999999999998
  3
ISO-25
100
AcDbAlignedDimension
 13
1684.650349748009
 23
1215.340894494846
 33
0.0
 14
1882.850349748009
 24
1215.340894494846
 34
0.0
100
AcDbRotatedDimension
1001
ACAD
1000
DSTYLE
1002
{
1070
   279
1070
     2
1070
   371
1070
    18
1070
   372
1070
    18
1002
}
  0
DIMENSION
  5
48F5
330
1F
100
AcDbEntity
  8
実形
100
AcDbDimension
  2
*D52
 10
302.2460104273414
 20
587.871203739568
 30
0.0
 11
267.2460104273413
 21
581.5334200753313
 31
0.0
 70
   160
  1
7
 71
     5
 42
10.0
  3
ISO-25
100
AcDbAlignedDimension
 13
447.3179639864647
 23
597.8712037395681
 33
0.0
 14
447.3179639864647
 24
587.871203739568
 34
0.0
 50
90.0
100
AcDbRotatedDimension
1001
ACAD
1000
DSTYLE
1002
{
1070
   279
1070
     2
1070
   371
1070
    18
1070
   372
1070
    18
1002
}
  0
LINE
  5
496B
330
1F
100
AcDbEntity
  8
実形
100
AcDbLine
 10
300.0430253866616
 20
775.4892934966282
 30
0.0
 11
253.0691579805316
 21
753.5275353885026
 31
0.0
  0
LINE
  5
4977
330
1F
100
AcDbEntity
  8
実形
100
AcDbLine
 10
297.6774401896983
 20
774.8135559798793
 30
0.0
 11
279.4285963981711
 21
770.0833211591907
 31
0.0
  0
LINE
  5
4978
330
1F
100
AcDbEntity
  8
実形
100
AcDbLine
 10
298.0153943784862
 20
774.1378040224408
 30
0.0
 11
284.4977209808821
 21
764.0016113050023
 31
0.0
  0
LINE
  5
4998
330
1F
100
AcDbEntity
  8
実形
100
AcDbLine
 10
2228.303278586809
 20
594.6388787035102
 30
0.0
 11
1947.503278586809
 21
594.6388787035102
 31
0.0
  0
LINE
  5
49A3
330
1F
100
AcDbEntity
  8
実形
 48
0.5
370
    15
100
AcDbLine
 10
1379.320588707898
 20
1490.391616860362
 30
0.0
 11
1456.24480378022
 21
1490.391616860362
 31
0.0
  0
TEXT
  5
49AD
330
1F
100
AcDbEntity
  8
実形
370
    -2
100
AcDbText
 10
1342.432281768445
 20
1480.021297044273
 30
0.0
 40
25.0
  1
A
100
AcDbText
  0
TEXT
  5
49B6
330
1F
100
AcDbEntity
  8
実形
370
    -2
100
AcDbText
 10
1463.292201405148
 20
1480.021297044273
 30
0.0
 40
25.0
  1
A
100
AcDbText
  0
TEXT
  5
49BF
330
1F
100
AcDbEntity
  8
実形
370
    -2
100
AcDbText
 10
1472.896976164914
 20
1478.420835682102
 30
0.0
 40
25.0
  1
´
100
AcDbText
  0
TEXT
  5
49C9
330
1F
100
AcDbEntity
  8
実形
370
    -2
100
AcDbText
 10
1699.713549269298
 20
842.5655953544445
 30
0.0
 40
38.0
  1
A-A　断面詳細図
100
AcDbText
  0
TEXT
  5
49CA
330
1F
100
AcDbEntity
  8
実形
370
    -2
100
AcDbText
 10
1794.84960119666
 20
844.5158880014968
 30
0.0
 40
35.0
  1
´
100
AcDbText
  0
DIMENSION
  5
49E1
330
1F
100
AcDbEntity
  8
実形
100
AcDbDimension
  2
*D53
 10
1842.301515497275
 20
594.6388787035102
 30
0.0
 11
1823.551515497275
 21
644.0388787035106
 31
0.0
 70
    32
  1
6.5
 71
     5
 42
98.80000000000007
  3
ISO-25
100
AcDbAlignedDimension
 13
1969.598314110886
 23
693.4388787035103
 33
0.0
 14
1969.598314110886
 24
594.6388787035102
 34
0.0
 50
90.0
100
AcDbRotatedDimension
1001
ACAD
1000
DSTYLE
1002
{
1070
   279
1070
     2
1070
   371
1070
    18
1070
   372
1070
    18
1002
}
  0
DIMENSION
  5
4A51
330
1F
100
AcDbEntity
  8
実形
100
AcDbDimension
  2
*D54
 10
1788.304587942761
 20
568.6388787035095
 30
0.0
 11
1769.554587942761
 21
631.0388787035102
 31
0.0
 70
    32
  1
8.2
 71
     5
 42
124.8000000000008
  3
ISO-25
100
AcDbAlignedDimension
 13
1969.598314110886
 23
693.4388787035103
 33
0.0
 14
1969.598314110886
 24
568.6388787035094
 34
0.0
 50
90.0
100
AcDbRotatedDimension
1001
ACAD
1000
DSTYLE
1002
{
1070
   279
1070
     2
1070
   371
1070
    18
1070
   372
1070
    18
1002
}
  0
DIMENSION
  5
4A68
330
1F
100
AcDbEntity
  8
実形
100
AcDbDimension
  2
*D55
 10
1736.658951194005
 20
693.4388787035104
 30
0.0
 11
1717.908951194005
 21
623.2388787035106
 31
0.0
 70
    32
  1
9
 71
     5
 42
140.4000000000001
  3
ISO-25
100
AcDbAlignedDimension
 13
1969.598314110886
 23
553.0388787035102
 33
0.0
 14
1969.598314110886
 24
693.4388787035103
 34
0.0
 50
90.0
100
AcDbRotatedDimension
1001
ACAD
1000
DSTYLE
1002
{
1070
   279
1070
     2
1070
   371
1070
    18
1070
   372
1070
    18
1002
}
  0
LINE
  5
4E2B
330
1F
100
AcDbEntity
  8
実形
100
AcDbLine
 10
1842.301515497275
 20
568.8249711103763
 30
0.0
 11
1842.301515497275
 21
553.0388787035102
 31
0.0
  0
TEXT
  5
4E35
330
1F
100
AcDbEntity
  8
実形
  6
HIDDEN2
100
AcDbText
 10
1847.029365152411
 20
563.502573238773
 30
0.0
 40
10.14
  1
● 
 71
     2
100
AcDbText
  0
TEXT
  5
4E3D
330
1F
100
AcDbEntity
  8
実形
  6
HIDDEN2
100
AcDbText
 10
1847.029365152411
 20
548.3492286230903
 30
0.0
 40
10.14
  1
● 
 71
     2
100
AcDbText
  0
TEXT
  5
4E46
330
1F
100
AcDbEntity
  8
実形
100
AcDbText
 10
1836.476243456453
 20
487.9282153131335
 30
0.0
 40
29.25
  1
0.8
 50
90.0
 11
1840.376243456454
 21
487.9282153131335
 31
0.0
100
AcDbText
 73
     1
  0
ARC
  5
4E6B
330
1F
100
AcDbEntity
  8
実形
100
AcDbCircle
 10
1968.018793120222
 20
303.3794247347767
 30
0.0
 40
37.21807911390647
100
AcDbArc
 50
10.8838049813307
 51
99.73672806231851
  0
ARC
  5
4E8A
330
1F
100
AcDbEntity
  8
実形
100
AcDbCircle
 10
345.0887060482298
 20
908.0745416893549
 30
0.0
 40
128.7156019851906
100
AcDbArc
 50
213.3909885014409
 51
249.3522921630725
  0
LINE
  5
4E8B
330
1F
100
AcDbEntity
  8
実形
100
AcDbLine
 10
299.738816101697
 20
787.7819947206535
 30
0.0
 11
288.8334629049186
 21
795.458695163441
 31
0.0
  0
LINE
  5
4E8C
330
1F
100
AcDbEntity
  8
実形
100
AcDbLine
 10
299.5364219744915
 20
787.6410446020781
 30
0.0
 11
285.6517750030525
 21
791.2234473387652
 31
0.0
  0
ARC
  5
4ECB
330
1F
100
AcDbEntity
  8
実形
100
AcDbCircle
 10
1973.401727286072
 20
295.6664501765973
 30
0.0
 40
34.71092069179851
100
AcDbArc
 50
27.82370983297815
 51
64.29661093933164
  0
ARC
  5
4ECC
330
1F
100
AcDbEntity
  8
実形
100
AcDbCircle
 10
1968.006055478794
 20
313.4454617691626
 30
0.0
 40
36.96117099445193
100
AcDbArc
 50
355.5051092068196
 51
31.89192001426602
  0
LEADER
  5
5080
330
1F
100
AcDbEntity
  8
実形
100
AcDbLeader
  3
ISO-25
 40
25.0
 41
16.66666666666666
 76
     2
 10
412.5078747211537
 20
801.740747571649
 30
0.0
 10
371.6347827157088
 20
845.4483958533383
 30
0.0
213
0.0
223
12.5
233
0.0
1001
ACAD
1000
DSTYLE
1002
{
1070
   147
1040
6.25
1070
    77
1070
     0
1070
    41
1040
20.0
1070
   342
1005
DA
1002
}
  0
TEXT
  5
5081
330
1F
100
AcDbEntity
  8
実形
100
AcDbText
 10
346.7598446774521
 20
857.8752428790712
 30
0.0
 40
25.0
  1
5R
 72
     2
 11
388.4265113441188
 21
882.8752428790712
 31
0.0
100
AcDbText
 73
     3
  0
LEADER
  5
508B
330
1F
100
AcDbEntity
  8
実形
100
AcDbLeader
  3
ISO-25
 40
25.0
 41
16.66666666666666
 76
     2
 10
1446.934953624896
 20
801.4793079903792
 30
0.0
 10
1484.322428948443
 20
835.2187194509179
 30
0.0
213
0.0
223
12.5
233
0.0
1001
ACAD
1000
DSTYLE
1002
{
1070
   147
1040
6.25
1070
    77
1070
     0
1070
    41
1040
20.0
1070
   342
1005
DA
1002
}
  0
TEXT
  5
508C
330
1F
100
AcDbEntity
  8
実形
100
AcDbText
 10
1474.689371040613
 20
842.018229742438
 30
0.0
 40
25.0
  1
5R
 72
     2
 11
1516.35603770728
 21
867.018229742438
 31
0.0
100
AcDbText
 73
     3
  0
LEADER
  5
5096
330
1F
100
AcDbEntity
  8
実形
100
AcDbLeader
  3
ISO-25
 40
25.0
 41
16.66666666666666
 76
     2
 10
1676.912009656189
 20
1690.374188876053
 30
0.0
 10
1630.407341778908
 20
1732.728578697637
 30
0.0
213
0.0
223
12.5
233
0.0
1001
ACAD
1000
DSTYLE
1002
{
1070
   147
1040
6.25
1070
    77
1070
     0
1070
    41
1040
20.0
1070
   342
1005
DA
1002
}
  0
TEXT
  5
5097
330
1F
100
AcDbEntity
  8
実形
100
AcDbText
 10
1603.986339166976
 20
1740.260524889691
 30
0.0
 40
25.0
  1
5R
 72
     2
 11
1645.653005833643
 21
1765.260524889691
 31
0.0
100
AcDbText
 73
     3
  0
LEADER
  5
50A1
330
1F
100
AcDbEntity
  8
実形
100
AcDbLeader
  3
ISO-25
 40
25.0
 41
16.66666666666666
 76
     2
 10
1676.235827445307
 20
1178.165511475489
 30
0.0
 10
1616.759126262877
 20
1138.52985167664
 30
0.0
213
0.0
223
12.5
233
0.0
1001
ACAD
1000
DSTYLE
1002
{
1070
   147
1040
6.25
1070
    77
1070
     0
1070
    41
1040
20.0
1070
   342
1005
DA
1002
}
  0
TEXT
  5
50A2
330
1F
100
AcDbEntity
  8
実形
100
AcDbText
 10
1585.368649160377
 20
1105.84188375242
 30
0.0
 40
25.0
  1
5R
 72
     2
 11
1627.035315827044
 21
1130.84188375242
 31
0.0
100
AcDbText
 73
     3
  0
VIEWPORT
  5
2E
102
{ACAD_XDICTIONARY
360
54A0
102
}
330
1B
100
AcDbEntity
 67
     1
  8
0
100
AcDbViewport
 10
144.7270812988281
 20
101.2295806407928
 30
0.0
 40
411.6736216682419
 41
222.1517806396485
 68
     1
 69
     1
 12
144.7270812988281
 22
101.2295806407928
 13
0.0
 23
0.0
 14
10.0
 24
10.0
 15
10.0
 25
10.0
 16
0.0
 26
0.0
 36
1.0
 17
0.0
 27
0.0
 37
0.0
 42
50.0
 43
0.0
 44
0.0
 45
222.1517806396485
 50
0.0
 51
0.0
 72
   100
 90
    32800
  1

281
     0
 71
     1
 74
     0
110
0.0
120
0.0
130
0.0
111
1.0
121
0.0
131
0.0
112
0.0
122
1.0
132
0.0
 79
     0
146
0.0
  0
VIEWPORT
  5
30
102
{ACAD_XDICTIONARY
360
54A2
102
}
330
1B
100
AcDbEntity
 67
     1
  8
0
100
AcDbViewport
 10
139.2237563133239
 20
101.2295821905136
 30
0.0
 40
222.7580101013184
 41
161.9673315048218
 68
     2
 69
     2
 12
210.0
 22
148.5
 13
0.0
 23
0.0
 14
10.0
 24
10.0
 15
10.0
 25
10.0
 16
0.0
 26
0.0
 36
1.0
 17
0.0
 27
0.0
 37
0.0
 42
50.0
 43
0.0
 44
0.0
 45
309.0686705647124
 50
0.0
 51
0.0
 72
   100
 90
    32864
  1

281
     0
 71
     1
 74
     0
110
0.0
120
0.0
130
0.0
111
1.0
121
0.0
131
0.0
112
0.0
122
1.0
132
0.0
 79
     0
146
0.0
  0
ENDSEC
  0
SECTION
  2
OBJECTS
  0
DICTIONARY
  5
C
330
0
100
AcDbDictionary
281
     1
  3
ACAD_COLOR
350
18D5
  3
ACAD_GROUP
350
D
  3
ACAD_LAYOUT
350
1A
  3
ACAD_MATERIAL
350
18D4
  3
ACAD_MLINESTYLE
350
17
  3
ACAD_PLOTSETTINGS
350
19
  3
ACAD_PLOTSTYLENAME
350
E
  3
ACAD_TABLESTYLE
350
18D6
  3
AcadDim
350
40B7
  3
ACDBHEADERROUNDTRIPXREC
350
5499
  3
AcDbVariableDictionary
350
18F7
  0
DICTIONARY
  5
191A
330
2
100
AcDbDictionary
280
     1
281
     1
  3
ACAD_LAYERFILTERS
360
32E1
  3
ACAD_LAYERSTATES
360
191B
  3
ACLYDICTIONARY
360
32E0
  0
DICTIONARY
  5
1A15
330
1F
100
AcDbDictionary
280
     1
281
     1
  3
ACAD_SORTENTS
360
1A16
  0
DICTIONARY
  5
54A0
330
2E
100
AcDbDictionary
280
     1
281
     1
  3
ACAD_XREC_ROUNDTRIP
360
54A1
  0
DICTIONARY
  5
54A2
330
30
100
AcDbDictionary
280
     1
281
     1
  3
ACAD_XREC_ROUNDTRIP
360
54A3
  0
DICTIONARY
  5
18D5
102
{ACAD_REACTORS
330
C
102
}
330
C
100
AcDbDictionary
281
     1
  0
DICTIONARY
  5
D
102
{ACAD_REACTORS
330
C
102
}
330
C
100
AcDbDictionary
281
     1
  0
DICTIONARY
  5
1A
102
{ACAD_REACTORS
330
C
102
}
330
C
100
AcDbDictionary
281
     1
  3
Model
350
22
  3
ﾚｲｱｳﾄ1
350
1E
  3
ﾚｲｱｳﾄ2
350
26
  0
DICTIONARY
  5
18D4
102
{ACAD_REACTORS
330
C
102
}
330
C
100
AcDbDictionary
281
     1
  0
DICTIONARY
  5
17
102
{ACAD_REACTORS
330
C
102
}
330
C
100
AcDbDictionary
281
     1
  3
Standard
350
18
  0
DICTIONARY
  5
19
102
{ACAD_REACTORS
330
C
102
}
330
C
100
AcDbDictionary
281
     1
  0
ACDBDICTIONARYWDFLT
  5
E
102
{ACAD_REACTORS
330
C
102
}
330
C
100
AcDbDictionary
281
     1
  3
Normal
350
F
100
AcDbDictionaryWithDefault
340
F
  0
DICTIONARY
  5
18D6
102
{ACAD_REACTORS
330
C
102
}
330
C
100
AcDbDictionary
281
     1
  3
Standard
350
18D7
  0
XRECORD
  5
40B7
102
{ACAD_REACTORS
330
C
102
}
330
C
100
AcDbXrecord
280
     1
 90
   990106
  3

 60
     0
 61
     0
 62
     1
 63
     3
 64
     0
 65
     0
 66
     0
 67
     3
 68
     1
 69
     0
 70
     0
 71
     0
 72
     0
 40
30.0
170
     0
  0
DICTIONARY
  5
5499
102
{ACAD_REACTORS
330
C
102
}
330
C
100
AcDbDictionary
281
     1
  0
DICTIONARY
  5
18F7
102
{ACAD_REACTORS
330
C
102
}
330
C
100
AcDbDictionary
281
     1
  3
CTABLESTYLE
350
18F8
  3
DIMASSOC
350
5496
  3
PROJECTNAME
350
5497
  0
DICTIONARY
  5
32E1
102
{ACAD_REACTORS
330
191A
102
}
330
191A
100
AcDbDictionary
281
     1
  0
DICTIONARY
  5
191B
102
{ACAD_REACTORS
330
191A
102
}
330
191A
100
AcDbDictionary
281
     1
  0
DICTIONARY
  5
32E0
102
{ACAD_REACTORS
330
191A
102
}
330
191A
100
AcDbDictionary
281
     1
1001
ACAD
1000
<All
  0
SORTENTSTABLE
  5
1A16
102
{ACAD_REACTORS
330
1A15
102
}
330
1A15
100
AcDbSortentsTable
330
1F
331
1E14
  5
1E1A
331
45D9
  5
45F3
331
3509
  5
3509
331
3680
  5
3681
331
3D0F
  5
3E18
331
32EA
  5
32EC
331
4977
  5
4978
331
1B00
  5
1249
331
494
  5
495
331
101B
  5
1021
331
1B18
  5
1B1C
331
3659
  5
365A
331
3661
  5
3662
331
267C
  5
267E
331
1023
  5
1028
331
10CA
  5
1247
331
1DFD
  5
1E01
331
3F85
  5
3FBF
331
45CA
  5
45CB
331
2684
  5
2686
331
1C9E
  5
1CA2
331
1E05
  5
1E0A
331
2713
  5
2717
331
400C
  5
4022
331
A0
  5
A5
331
43D
  5
44B
331
102B
  5
1030
331
10EA
  5
1271
331
1E0D
  5
1E13
331
3CE
  5
3DC
331
18C2
  5
1AFB
331
1A19
  5
126A
331
1B58
  5
1C23
331
1CA6
  5
1CC4
331
268C
  5
268E
331
3679
  5
367A
331
3E47
  5
3E48
331
350A
  5
350A
331
3681
  5
3682
331
4978
  5
498A
331
3689
  5
3CE3
331
1B01
  5
126B
331
495
  5
4A3
331
1014
  5
1019
331
3F6E
  5
3F85
331
4891
  5
48F5
331
3F6
  5
43C
331
10C3
  5
10EA
331
1B19
  5
1B1D
331
365A
  5
365B
331
3E18
  5
3E28
331
4998
  5
3656
331
3662
  5
3663
331
397
  5
398
331
1024
  5
1029
331
1DFE
  5
1E02
331
267D
  5
267F
331
3EB7
  5
3F58
331
3E28
  5
3E47
331
45CB
  5
45CC
331
1E06
  5
1E0B
331
1C9F
  5
1CA4
331
2714
  5
2719
331
482A
  5
4837
331
102C
  5
1031
331
3CF9
  5
3D0F
331
1E0E
  5
1E14
331
1B59
  5
1C73
331
18C3
  5
1AFC
331
1A1A
  5
1273
331
1CA7
  5
1DF7
331
268D
  5
268F
331
34EB
  5
34EB
331
3672
  5
3679
331
34F3
  5
34F3
331
367A
  5
367B
331
3E48
  5
3E49
331
32E4
  5
32E6
331
3682
  5
3689
331
45F3
  5
4618
331
445C
  5
445D
331
1B02
  5
1241
331
368
  5
395
331
1015
  5
101A
331
365B
  5
365C
331
1B1A
  5
1B1E
331
101D
  5
1022
331
3484
  5
3484
331
3FF6
  5
400C
331
3663
  5
3665
331
1025
  5
102A
331
1DFF
  5
1E03
331
267E
  5
2680
331
45CC
  5
45D9
331
1E07
  5
1E0D
331
2686
  5
2688
331
398
  5
3AF
331
102D
  5
1032
331
1CA0
  5
1CA5
331
271D
  5
2723
331
1E0F
  5
1E15
331
18C4
  5
1AFD
331
1CA8
  5
1CA3
331
268E
  5
2690
331
3F58
  5
3F6E
331
3FBF
  5
3FC0
331
40E5
  5
41AF
331
367B
  5
367C
331
3E49
  5
3E7A
331
1AFB
  5
1B17
331
3FD7
  5
3FF6
331
445D
  5
4467
331
1B03
  5
12AA
331
1065
  5
10E9
331
1016
  5
101B
331
1B1B
  5
1B26
331
101E
  5
1023
331
10C5
  5
1244
331
1DF8
  5
1DFC
331
365C
  5
365D
331
270E
  5
2711
331
1026
  5
102B
331
1E00
  5
1E04
331
267F
  5
2681
331
3CE3
  5
3CF9
331
40C6
  5
40E5
331
366C
  5
3672
331
1E08
  5
1E0E
331
102E
  5
10C3
331
7CF
  5
7D0
331
1A14
  5
A0
331
1CA1
  5
1CA6
331
33A
  5
33B
331
18C5
  5
1AFE
331
3FC0
  5
3FC1
331
496B
  5
4977
331
458
  5
494
331
1CB1
  5
1DF8
331
367C
  5
367F
331
1AFC
  5
1B18
331
32E6
  5
32E8
331
4844
  5
4891
331
32EE
  5
32F0
331
3E9
  5
3F6
331
1B04
  5
1272
331
1017
  5
101C
331
3655
  5
3655
331
3E7A
  5
3EB4
331
365D
  5
365F
331
101F
  5
1024
331
1B1C
  5
1B57
331
1DF9
  5
1DFD
331
3486
  5
3486
331
449E
  5
449F
331
3665
  5
3667
331
348E
  5
348E
331
1027
  5
102C
331
1E01
  5
1E05
331
2680
  5
2682
331
4586
  5
45CA
331
34E6
  5
34E6
331
49A3
  5
49A3
331
9C
  5
9C
331
1E09
  5
1E0F
331
102F
  5
10C5
331
2EB
  5
2EE
331
7D0
  5
7D1
331
1CA2
  5
1CA7
331
2688
  5
268A
331
33B
  5
33C
331
1E11
  5
1E17
331
35B
  5
368
331
1C03
  5
1C75
331
1AFD
  5
12AC
331
4467
  5
449E
331
1C23
  5
1C76
331
1CBA
  5
1DF9
331
1018
  5
101E
331
1B15
  5
1B19
331
3656
  5
3657
331
1020
  5
1025
331
1B1D
  5
1B58
331
1DFA
  5
1DFE
331
449F
  5
4586
331
2710
  5
2713
331
1BE4
  5
1C74
331
1E02
  5
1E07
331
2681
  5
2683
331
48F5
  5
496B
331
1028
  5
102D
331
1E0A
  5
1E10
331
A5
  5
2EB
331
7D1
  5
7D2
331
1CA3
  5
1CA8
331
2689
  5
268B
331
8C9
  5
F27
331
1E12
  5
1E18
331
2691
  5
2693
331
1058
  5
10CA
331
1AFE
  5
1245
331
1019
  5
101F
331
1B16
  5
1B1A
331
3657
  5
3658
331
1021
  5
1026
331
1B1E
  5
1B59
331
1DFB
  5
1DFF
331
365F
  5
3660
331
3667
  5
366C
331
1B26
  5
1BE4
331
1E03
  5
1E08
331
2682
  5
2684
331
3EB4
  5
3EB5
331
1029
  5
102E
331
34E8
  5
34E8
331
44B
  5
458
331
18C0
  5
1A1E
331
1A17
  5
12AB
331
1CA4
  5
1CB1
331
268A
  5
268C
331
34F0
  5
34F0
331
2721
  5
2A6C
331
3DC
  5
3E9
331
1E13
  5
1E19
331
2692
  5
2694
331
367F
  5
3680
331
4837
  5
4844
331
1AFF
  5
126F
331
32E9
  5
32EB
331
4022
  5
40C6
331
32F1
  5
32F3
331
4A3
  5
4F8
331
101A
  5
1020
331
1B17
  5
1B1B
331
1CC4
  5
1DFA
331
3658
  5
3659
331
3660
  5
3661
331
395
  5
397
331
1022
  5
1027
331
10C9
  5
1246
331
1DFC
  5
1E00
331
267B
  5
267D
331
4618
  5
482A
331
1E04
  5
1E09
331
1C9D
  5
1CA1
331
2683
  5
2685
331
3EB5
  5
3EB7
331
43C
  5
43D
331
102A
  5
102F
331
10E9
  5
1248
331
271A
  5
271D
331
1E0C
  5
1E12
331
2EE
  5
2F9
331
104A
  5
10C9
331
18C1
  5
1A39
331
1A18
  5
126D
331
1B57
  5
1C03
331
1CA5
  5
1CBA
331
268B
  5
268D
  0
XRECORD
  5
54A1
102
{ACAD_REACTORS
330
54A0
102
}
330
54A0
100
AcDbXrecord
280
     1
102
SHADEPLOT
 70
     0
  0
XRECORD
  5
54A3
102
{ACAD_REACTORS
330
54A2
102
}
330
54A2
100
AcDbXrecord
280
     1
102
SHADEPLOT
 70
     0
  0
LAYOUT
  5
22
102
{ACAD_XDICTIONARY
360
549C
102
}
102
{ACAD_REACTORS
330
1A
102
}
330
1A
100
AcDbPlotSettings
  1

  2
EPSON PM-800C
  4
A4
  6

 40
3.757083177566528
 41
14.7637300491333
 42
3.757080078125
 43
3.757080078125
 44
209.9733276367187
 45
296.9683227539062
 46
0.0
 47
0.0
 48
0.0
 49
0.0
140
0.0
141
0.0
142
1.0
143
10.0
 70
 11952
 72
     1
 73
     1
 74
     2
  7

 75
    20
147
0.1
148
0.0
149
0.0
100
AcDbLayout
  1
Model
 70
     1
 71
     0
 10
0.0
 20
0.0
 11
12.0
 21
9.0
 12
0.0
 22
0.0
 32
0.0
 14
0.0
 24
0.0
 34
0.0
 15
0.0
 25
0.0
 35
0.0
146
0.0
 13
0.0
 23
0.0
 33
0.0
 16
1.0
 26
0.0
 36
0.0
 17
0.0
 27
1.0
 37
0.0
 76
     0
330
1F
  0
LAYOUT
  5
1E
102
{ACAD_XDICTIONARY
360
549A
102
}
102
{ACAD_REACTORS
330
1A
102
}
330
1A
100
AcDbPlotSettings
  1

  2
EPSON PM-800C
  4
A4
  6

 40
3.757083177566528
 41
14.7637300491333
 42
3.757080078125
 43
3.757080078125
 44
209.9733276367187
 45
296.9683227539062
 46
0.0
 47
0.0
 48
0.0
 49
0.0
140
0.0
141
0.0
142
1.0
143
1.0
 70
   688
 72
     1
 73
     1
 74
     5
  7

 75
    16
147
1.0
148
0.0
149
0.0
100
AcDbLayout
  1
ﾚｲｱｳﾄ1
 70
     1
 71
     1
 10
-3.757080078125
 20
-3.757083177566528
 11
293.2112426757813
 21
206.2162444591522
 12
0.0
 22
0.0
 32
0.0
 14
27.8447512626648
 24
20.24591643810271
 34
0.0
 15
250.6027613639831
 25
182.2132479429245
 35
0.0
146
0.0
 13
0.0
 23
0.0
 33
0.0
 16
1.0
 26
0.0
 36
0.0
 17
0.0
 27
1.0
 37
0.0
 76
     0
330
1B
331
2E
  0
LAYOUT
  5
26
102
{ACAD_XDICTIONARY
360
549E
102
}
102
{ACAD_REACTORS
330
1A
102
}
330
1A
100
AcDbPlotSettings
  1

  2
EPSON PM-800C
  4

  6

 40
0.0
 41
0.0
 42
0.0
 43
0.0
 44
0.0
 45
0.0
 46
0.0
 47
0.0
 48
0.0
 49
0.0
140
0.0
141
0.0
142
1.0
143
1.0
 70
   688
 72
     0
 73
     0
 74
     5
  7

 75
    16
147
1.0
148
0.0
149
0.0
100
AcDbLayout
  1
ﾚｲｱｳﾄ2
 70
     1
 71
     2
 10
0.0
 20
0.0
 11
12.0
 21
9.0
 12
0.0
 22
0.0
 32
0.0
 14
0.0
 24
0.0
 34
0.0
 15
0.0
 25
0.0
 35
0.0
146
0.0
 13
0.0
 23
0.0
 33
0.0
 16
1.0
 26
0.0
 36
0.0
 17
0.0
 27
1.0
 37
0.0
 76
     0
330
23
  0
MLINESTYLE
  5
18
102
{ACAD_REACTORS
330
17
102
}
330
17
100
AcDbMlineStyle
  2
STANDARD
 70
     0
  3

 62
   256
 51
90.0
 52
90.0
 71
     2
 49
0.5
 62
   256
  6
BYLAYER
 49
-0.5
 62
   256
  6
BYLAYER
  0
ACDBPLACEHOLDER
  5
F
102
{ACAD_REACTORS
330
E
102
}
330
E
  0
TABLESTYLE
  5
18D7
102
{ACAD_REACTORS
330
18D6
102
}
330
18D6
100
AcDbTableStyle
  3
Standard
 70
     0
 71
     0
 40
1.5
 41
1.5
280
     0
281
     0
  7
Standard
140
4.5
170
     2
 62
     0
 63
     7
283
     0
274
    -2
284
     1
 64
     0
275
    -2
285
     1
 65
     0
276
    -2
286
     1
 66
     0
277
    -2
287
     1
 67
     0
278
    -2
288
     1
 68
     0
279
    -2
289
     1
 69
     0
  7
Standard
140
6.0
170
     5
 62
     0
 63
     7
283
     0
274
    -2
284
     1
 64
     0
275
    -2
285
     1
 65
     0
276
    -2
286
     1
 66
     0
277
    -2
287
     1
 67
     0
278
    -2
288
     1
 68
     0
279
    -2
289
     1
 69
     0
  7
Standard
140
4.5
170
     5
 62
     0
 63
     7
283
     0
274
    -2
284
     1
 64
     0
275
    -2
285
     1
 65
     0
276
    -2
286
     1
 66
     0
277
    -2
287
     1
 67
     0
278
    -2
288
     1
 68
     0
279
    -2
289
     1
 69
     0
  0
DICTIONARYVAR
  5
18F8
102
{ACAD_REACTORS
330
18F7
102
}
330
18F7
100
DictionaryVariables
280
     0
  1
STANDARD
  0
DICTIONARYVAR
  5
5496
102
{ACAD_REACTORS
330
18F7
102
}
330
18F7
100
DictionaryVariables
280
     0
  1
1
  0
DICTIONARYVAR
  5
5497
102
{ACAD_REACTORS
330
18F7
102
}
330
18F7
100
DictionaryVariables
280
     0
  1

  0
DICTIONARY
  5
549C
330
22
100
AcDbDictionary
280
     1
281
     1
  3
ACAD_XREC_ROUNDTRIP
360
549D
  0
DICTIONARY
  5
549A
330
1E
100
AcDbDictionary
280
     1
281
     1
  3
ACAD_XREC_ROUNDTRIP
360
549B
  0
DICTIONARY
  5
549E
330
26
100
AcDbDictionary
280
     1
281
     1
  3
ACAD_XREC_ROUNDTRIP
360
549F
  0
XRECORD
  5
549D
102
{ACAD_REACTORS
330
549C
102
}
330
549C
100
AcDbXrecord
280
     1
102
SHADEPLOT
 70
     0
102
SHADEPLOTRESLEVEL
 70
     2
102
SHADEPLOTCUSTOMDPI
 70
   300
  0
XRECORD
  5
549B
102
{ACAD_REACTORS
330
549A
102
}
330
549A
100
AcDbXrecord
280
     1
102
SHADEPLOT
 70
     0
102
SHADEPLOTRESLEVEL
 70
     2
102
SHADEPLOTCUSTOMDPI
 70
   300
  0
XRECORD
  5
549F
102
{ACAD_REACTORS
330
549E
102
}
330
549E
100
AcDbXrecord
280
     1
102
SHADEPLOT
 70
     0
102
SHADEPLOTRESLEVEL
 70
     2
102
SHADEPLOTCUSTOMDPI
 70
   300
  0
ENDSEC
  0
EOF
