  0
SECTION
  2
HEADER
  9
$ACADVER
  1
AC1015
  9
$ACADMAINTVER
 70
    20
  9
$DWGCODEPAGE
  3
ANSI_932
  9
$INSBASE
 10
0.0
 20
0.0
 30
0.0
  9
$EXTMIN
 10
119.0
 20
4.0
 30
0.0
  9
$EXTMAX
 10
2784.0
 20
2024.0
 30
0.0
  9
$LIMMIN
 10
0.0
 20
0.0
  9
$LIMMAX
 10
29700.0
 20
21000.0
  9
$ORTHOMODE
 70
     1
  9
$REGENMODE
 70
     1
  9
$FILLMODE
 70
     1
  9
$QTEXTMODE
 70
     0
  9
$MIRRTEXT
 70
     1
  9
$LTSCALE
 40
4.0
  9
$ATTMODE
 70
     1
  9
$TEXTSIZE
 40
35.0
  9
$TRACEWID
 40
1.0
  9
$TEXTSTYLE
  7
ｍｓ明朝
  9
$CLAYER
  8
実形
  9
$CELTYPE
  6
ByLayer
  9
$CECOLOR
 62
   256
  9
$CELTSCALE
 40
1.0
  9
$DISPSILH
 70
     0
  9
$DIMSCALE
 40
1.0
  9
$DIMASZ
 40
35.0
  9
$DIMEXO
 40
65.0
  9
$DIMDLI
 40
3.75
  9
$DIMRND
 40
0.0
  9
$DIMDLE
 40
0.0
  9
$DIMEXE
 40
0.0
  9
$DIMTP
 40
0.0
  9
$DIMTM
 40
0.0
  9
$DIMTXT
 40
25.0
  9
$DIMCEN
 40
2.5
  9
$DIMTSZ
 40
0.0
  9
$DIMTOL
 70
     0
  9
$DIMLIM
 70
     0
  9
$DIMTIH
 70
     0
  9
$DIMTOH
 70
     0
  9
$DIMSE1
 70
     0
  9
$DIMSE2
 70
     0
  9
$DIMTAD
 70
     1
  9
$DIMZIN
 70
     8
  9
$DIMBLK
  1
DotSmall
  9
$DIMASO
 70
     1
  9
$DIMSHO
 70
     1
  9
$DIMPOST
  1

  9
$DIMAPOST
  1

  9
$DIMALT
 70
     0
  9
$DIMALTD
 70
     3
  9
$DIMALTF
 40
0.03937007874016
  9
$DIMLFAC
 40
1.0
  9
$DIMTOFL
 70
     1
  9
$DIMTVP
 40
0.0
  9
$DIMTIX
 70
     0
  9
$DIMSOXD
 70
     0
  9
$DIMSAH
 70
     0
  9
$DIMBLK1
  1

  9
$DIMBLK2
  1

  9
$DIMSTYLE
  2
ISO-25
  9
$DIMCLRD
 70
     0
  9
$DIMCLRE
 70
     0
  9
$DIMCLRT
 70
     0
  9
$DIMTFAC
 40
1.0
  9
$DIMGAP
 40
6.25
  9
$DIMJUST
 70
     0
  9
$DIMSD1
 70
     0
  9
$DIMSD2
 70
     0
  9
$DIMTOLJ
 70
     0
  9
$DIMTZIN
 70
     8
  9
$DIMALTZ
 70
     0
  9
$DIMALTTZ
 70
     0
  9
$DIMUPT
 70
     0
  9
$DIMDEC
 70
     2
  9
$DIMTDEC
 70
     2
  9
$DIMALTU
 70
     2
  9
$DIMALTTD
 70
     3
  9
$DIMTXSTY
  7
Standard
  9
$DIMAUNIT
 70
     0
  9
$DIMADEC
 70
     0
  9
$DIMALTRND
 40
0.0
  9
$DIMAZIN
 70
     0
  9
$DIMDSEP
 70
    46
  9
$DIMATFIT
 70
     2
  9
$DIMFRAC
 70
     0
  9
$DIMLDRBLK
  1
Open30
  9
$DIMLUNIT
 70
     2
  9
$DIMLWD
 70
    15
  9
$DIMLWE
 70
    15
  9
$DIMTMOVE
 70
     2
  9
$LUNITS
 70
     2
  9
$LUPREC
 70
     2
  9
$SKETCHINC
 40
1.0
  9
$FILLETRAD
 40
5.0
  9
$AUNITS
 70
     0
  9
$AUPREC
 70
     0
  9
$MENU
  1
.
  9
$ELEVATION
 40
0.0
  9
$PELEVATION
 40
0.0
  9
$THICKNESS
 40
0.0
  9
$LIMCHECK
 70
     1
  9
$CHAMFERA
 40
10.0
  9
$CHAMFERB
 40
10.0
  9
$CHAMFERC
 40
20.0
  9
$CHAMFERD
 40
0.0
  9
$SKPOLY
 70
     0
  9
$TDCREATE
 40
2451673.575802199
  9
$TDUCREATE
 40
2451673.200802199
  9
$TDUPDATE
 40
2458813.759080544
  9
$TDUUPDATE
 40
2458813.384080544
  9
$TDINDWG
 40
1.1459498148
  9
$TDUSRTIMER
 40
1.1459491204
  9
$USRTIMER
 70
     1
  9
$ANGBASE
 50
0.0
  9
$ANGDIR
 70
     0
  9
$PDMODE
 70
     0
  9
$PDSIZE
 40
0.0
  9
$PLINEWID
 40
0.0
  9
$SPLFRAME
 70
     0
  9
$SPLINETYPE
 70
     6
  9
$SPLINESEGS
 70
     8
  9
$HANDSEED
  5
256F
  9
$SURFTAB1
 70
     6
  9
$SURFTAB2
 70
     6
  9
$SURFTYPE
 70
     6
  9
$SURFU
 70
     6
  9
$SURFV
 70
     6
  9
$UCSBASE
  2

  9
$UCSNAME
  2

  9
$UCSORG
 10
0.0
 20
0.0
 30
0.0
  9
$UCSXDIR
 10
1.0
 20
0.0
 30
0.0
  9
$UCSYDIR
 10
0.0
 20
1.0
 30
0.0
  9
$UCSORTHOREF
  2

  9
$UCSORTHOVIEW
 70
     0
  9
$UCSORGTOP
 10
0.0
 20
0.0
 30
0.0
  9
$UCSORGBOTTOM
 10
0.0
 20
0.0
 30
0.0
  9
$UCSORGLEFT
 10
0.0
 20
0.0
 30
0.0
  9
$UCSORGRIGHT
 10
0.0
 20
0.0
 30
0.0
  9
$UCSORGFRONT
 10
0.0
 20
0.0
 30
0.0
  9
$UCSORGBACK
 10
0.0
 20
0.0
 30
0.0
  9
$PUCSBASE
  2

  9
$PUCSNAME
  2

  9
$PUCSORG
 10
0.0
 20
0.0
 30
0.0
  9
$PUCSXDIR
 10
1.0
 20
0.0
 30
0.0
  9
$PUCSYDIR
 10
0.0
 20
1.0
 30
0.0
  9
$PUCSORTHOREF
  2

  9
$PUCSORTHOVIEW
 70
     0
  9
$PUCSORGTOP
 10
0.0
 20
0.0
 30
0.0
  9
$PUCSORGBOTTOM
 10
0.0
 20
0.0
 30
0.0
  9
$PUCSORGLEFT
 10
0.0
 20
0.0
 30
0.0
  9
$PUCSORGRIGHT
 10
0.0
 20
0.0
 30
0.0
  9
$PUCSORGFRONT
 10
0.0
 20
0.0
 30
0.0
  9
$PUCSORGBACK
 10
0.0
 20
0.0
 30
0.0
  9
$USERI1
 70
     0
  9
$USERI2
 70
     0
  9
$USERI3
 70
     0
  9
$USERI4
 70
     0
  9
$USERI5
 70
     0
  9
$USERR1
 40
0.0
  9
$USERR2
 40
0.0
  9
$USERR3
 40
0.0
  9
$USERR4
 40
0.0
  9
$USERR5
 40
0.0
  9
$WORLDVIEW
 70
     1
  9
$SHADEDGE
 70
     3
  9
$SHADEDIF
 70
    70
  9
$TILEMODE
 70
     1
  9
$MAXACTVP
 70
    64
  9
$PINSBASE
 10
0.0
 20
0.0
 30
0.0
  9
$PLIMCHECK
 70
     0
  9
$PEXTMIN
 10
27.8447512626648
 20
20.24591643810271
 30
0.0
  9
$PEXTMAX
 10
250.6027613639831
 20
182.2132479429245
 30
0.0
  9
$PLIMMIN
 10
-3.757080078125
 20
-3.757083177566528
  9
$PLIMMAX
 10
293.2112426757813
 20
206.2162444591522
  9
$UNITMODE
 70
     0
  9
$VISRETAIN
 70
     1
  9
$PLINEGEN
 70
     0
  9
$PSLTSCALE
 70
     1
  9
$TREEDEPTH
 70
  3020
  9
$CMLSTYLE
  2
Standard
  9
$CMLJUST
 70
     0
  9
$CMLSCALE
 40
20.0
  9
$PROXYGRAPHICS
 70
     1
  9
$MEASUREMENT
 70
     1
  9
$CELWEIGHT
370
    -1
  9
$ENDCAPS
280
     0
  9
$JOINSTYLE
280
     0
  9
$LWDISPLAY
290
     0
  9
$INSUNITS
 70
     4
  9
$HYPERLINKBASE
  1

  9
$STYLESHEET
  1

  9
$XEDIT
290
     1
  9
$CEPSNTYPE
380
     0
  9
$PSTYLEMODE
290
     1
  9
$FINGERPRINTGUID
  2
{C8EA1F16-24C9-11D4-9416-CE0A3B32152F}
  9
$VERSIONGUID
  2
{26DE186C-36F4-491C-99ED-17F99F34EAE4}
  9
$EXTNAMES
290
     1
  9
$PSVPSCALE
 40
0.0
  9
$OLESTARTUP
290
     0
  0
ENDSEC
  0
SECTION
  2
CLASSES
  0
CLASS
  1
ACDBDICTIONARYWDFLT
  2
AcDbDictionaryWithDefault
  3
ObjectDBX Classes
 90
        0
280
     0
281
     0
  0
CLASS
  1
ACDBPLACEHOLDER
  2
AcDbPlaceHolder
  3
ObjectDBX Classes
 90
        0
280
     0
281
     0
  0
CLASS
  1
LAYOUT
  2
AcDbLayout
  3
ObjectDBX Classes
 90
        0
280
     0
281
     0
  0
CLASS
  1
DICTIONARYVAR
  2
AcDbDictionaryVar
  3
ObjectDBX Classes
 90
        0
280
     0
281
     0
  0
CLASS
  1
TABLESTYLE
  2
AcDbTableStyle
  3
ObjectDBX Classes
 90
     2047
280
     0
281
     0
  0
CLASS
  1
SORTENTSTABLE
  2
AcDbSortentsTable
  3
ObjectDBX Classes
 90
        0
280
     0
281
     0
  0
ENDSEC
  0
SECTION
  2
TABLES
  0
TABLE
  2
VPORT
  5
8
330
0
100
AcDbSymbolTable
 70
     2
  0
VPORT
  5
2563
330
8
100
AcDbSymbolTableRecord
100
AcDbViewportTableRecord
  2
*Active
 70
     0
 10
0.0
 20
0.0
 11
1.0
 21
1.0
 12
1511.59418450427
 22
926.0772725026955
 13
0.0
 23
0.0
 14
10.0
 24
10.0
 15
10.0
 25
10.0
 16
0.0
 26
0.0
 36
1.0
 17
0.0
 27
0.0
 37
0.0
 40
2297.237612783671
 41
1.29038112522686
 42
50.0
 43
0.0
 44
0.0
 50
0.0
 51
0.0
 71
     0
 72
   100
 73
     1
 74
     3
 75
     0
 76
     0
 77
     0
 78
     0
281
     0
 65
     1
110
0.0
120
0.0
130
0.0
111
1.0
121
0.0
131
0.0
112
0.0
122
1.0
132
0.0
 79
     0
146
0.0
  0
ENDTAB
  0
TABLE
  2
LTYPE
  5
5
330
0
100
AcDbSymbolTable
 70
    46
  0
LTYPE
  5
14
330
5
100
AcDbSymbolTableRecord
100
AcDbLinetypeTableRecord
  2
ByBlock
 70
     0
  3

 72
    65
 73
     0
 40
0.0
  0
LTYPE
  5
15
330
5
100
AcDbSymbolTableRecord
100
AcDbLinetypeTableRecord
  2
ByLayer
 70
     0
  3

 72
    65
 73
     0
 40
0.0
  0
LTYPE
  5
16
330
5
100
AcDbSymbolTableRecord
100
AcDbLinetypeTableRecord
  2
Continuous
 70
     0
  3
Solid line
 72
    65
 73
     0
 40
0.0
  0
LTYPE
  5
34
330
5
100
AcDbSymbolTableRecord
100
AcDbLinetypeTableRecord
  2
ACAD_ISO02W100
 70
     0
  3
ISO dash __ __ __ __ __ __ __ __ __ __ __ __ __
 72
    65
 73
     2
 40
15.0
 49
12.0
 74
     0
 49
-3.0
 74
     0
  0
LTYPE
  5
35
330
5
100
AcDbSymbolTableRecord
100
AcDbLinetypeTableRecord
  2
ACAD_ISO03W100
 70
     0
  3
ISO dash space __    __    __    __    __    __
 72
    65
 73
     2
 40
30.0
 49
12.0
 74
     0
 49
-18.0
 74
     0
  0
LTYPE
  5
36
330
5
100
AcDbSymbolTableRecord
100
AcDbLinetypeTableRecord
  2
ACAD_ISO04W100
 70
     0
  3
ISO long-dash dot ____ . ____ . ____ . ____ . _
 72
    65
 73
     4
 40
30.0
 49
24.0
 74
     0
 49
-3.0
 74
     0
 49
0.0
 74
     0
 49
-3.0
 74
     0
  0
LTYPE
  5
37
330
5
100
AcDbSymbolTableRecord
100
AcDbLinetypeTableRecord
  2
ACAD_ISO05W100
 70
     0
  3
ISO long-dash double-dot ____ .. ____ .. ____ .
 72
    65
 73
     6
 40
34.0
 49
24.0
 74
     0
 49
-3.0
 74
     0
 49
0.5
 74
     0
 49
-3.0
 74
     0
 49
0.5
 74
     0
 49
-3.0
 74
     0
  0
LTYPE
  5
38
330
5
100
AcDbSymbolTableRecord
100
AcDbLinetypeTableRecord
  2
ACAD_ISO06W100
 70
     0
  3
ISO long-dash triple-dot ____ ... ____ ... ____
 72
    65
 73
     8
 40
37.5
 49
24.0
 74
     0
 49
-3.0
 74
     0
 49
0.5
 74
     0
 49
-3.0
 74
     0
 49
0.5
 74
     0
 49
-3.0
 74
     0
 49
0.5
 74
     0
 49
-3.0
 74
     0
  0
LTYPE
  5
39
330
5
100
AcDbSymbolTableRecord
100
AcDbLinetypeTableRecord
  2
ACAD_ISO07W100
 70
     0
  3
ISO dot . . . . . . . . . . . . . . . . . . . .
 72
    65
 73
     2
 40
3.0
 49
0.0
 74
     0
 49
-3.0
 74
     0
  0
LTYPE
  5
3A
330
5
100
AcDbSymbolTableRecord
100
AcDbLinetypeTableRecord
  2
ACAD_ISO08W100
 70
     0
  3
ISO long-dash short-dash ____ __ ____ __ ____ _
 72
    65
 73
     4
 40
36.0
 49
24.0
 74
     0
 49
-3.0
 74
     0
 49
6.0
 74
     0
 49
-3.0
 74
     0
  0
LTYPE
  5
3B
330
5
100
AcDbSymbolTableRecord
100
AcDbLinetypeTableRecord
  2
ACAD_ISO09W100
 70
     0
  3
ISO long-dash double-short-dash ____ __ __ ____
 72
    65
 73
     6
 40
45.0
 49
24.0
 74
     0
 49
-3.0
 74
     0
 49
6.0
 74
     0
 49
-3.0
 74
     0
 49
6.0
 74
     0
 49
-3.0
 74
     0
  0
LTYPE
  5
3C
330
5
100
AcDbSymbolTableRecord
100
AcDbLinetypeTableRecord
  2
ACAD_ISO10W100
 70
     0
  3
ISO dash dot __ . __ . __ . __ . __ . __ . __ .
 72
    65
 73
     4
 40
18.0
 49
12.0
 74
     0
 49
-3.0
 74
     0
 49
0.0
 74
     0
 49
-3.0
 74
     0
  0
LTYPE
  5
3D
330
5
100
AcDbSymbolTableRecord
100
AcDbLinetypeTableRecord
  2
ACAD_ISO11W100
 70
     0
  3
ISO double-dash dot __ __ . __ __ . __ __ . __ 
 72
    65
 73
     6
 40
33.0
 49
12.0
 74
     0
 49
-3.0
 74
     0
 49
12.0
 74
     0
 49
-3.0
 74
     0
 49
0.0
 74
     0
 49
-3.0
 74
     0
  0
LTYPE
  5
3E
330
5
100
AcDbSymbolTableRecord
100
AcDbLinetypeTableRecord
  2
ACAD_ISO12W100
 70
     0
  3
ISO dash double-dot __ . . __ . . __ . . __ . .
 72
    65
 73
     6
 40
21.0
 49
12.0
 74
     0
 49
-3.0
 74
     0
 49
0.0
 74
     0
 49
-3.0
 74
     0
 49
0.0
 74
     0
 49
-3.0
 74
     0
  0
LTYPE
  5
3F
330
5
100
AcDbSymbolTableRecord
100
AcDbLinetypeTableRecord
  2
ACAD_ISO13W100
 70
     0
  3
ISO double-dash double-dot __ __ . . __ __ . . 
 72
    65
 73
     8
 40
36.0
 49
12.0
 74
     0
 49
-3.0
 74
     0
 49
12.0
 74
     0
 49
-3.0
 74
     0
 49
0.0
 74
     0
 49
-3.0
 74
     0
 49
0.0
 74
     0
 49
-3.0
 74
     0
  0
LTYPE
  5
40
330
5
100
AcDbSymbolTableRecord
100
AcDbLinetypeTableRecord
  2
ACAD_ISO14W100
 70
     0
  3
ISO dash triple-dot __ . . . __ . . . __ . . . 
 72
    65
 73
     8
 40
24.0
 49
12.0
 74
     0
 49
-3.0
 74
     0
 49
0.0
 74
     0
 49
-3.0
 74
     0
 49
0.0
 74
     0
 49
-3.0
 74
     0
 49
0.0
 74
     0
 49
-3.0
 74
     0
  0
LTYPE
  5
41
330
5
100
AcDbSymbolTableRecord
100
AcDbLinetypeTableRecord
  2
ACAD_ISO15W100
 70
     0
  3
ISO double-dash triple-dot __ __ . . . __ __ . 
 72
    65
 73
    10
 40
39.0
 49
12.0
 74
     0
 49
-3.0
 74
     0
 49
12.0
 74
     0
 49
-3.0
 74
     0
 49
0.0
 74
     0
 49
-3.0
 74
     0
 49
0.0
 74
     0
 49
-3.0
 74
     0
 49
0.0
 74
     0
 49
-3.0
 74
     0
  0
LTYPE
  5
42
330
5
100
AcDbSymbolTableRecord
100
AcDbLinetypeTableRecord
  2
BATTING
 70
     0
  3
Batting SSSSSSSSSSSSSSSSSSSSSSSSSSSSSSSSSSSSSSS
 72
    65
 73
     4
 40
10.16254
 49
0.00254
 74
     0
 49
-2.54
 74
     4
 75
   134
340
33
 46
2.54
 50
0.0
 44
-2.54
 45
0.0
 49
-5.08
 74
     4
 75
   134
340
33
 46
2.54
 50
180.0
 44
2.54
 45
0.0
 49
-2.54
 74
     0
  0
LTYPE
  5
43
330
5
100
AcDbSymbolTableRecord
100
AcDbLinetypeTableRecord
  2
BORDER
 70
     0
  3
Border __ __ . __ __ . __ __ . __ __ . __ __ .
 72
    65
 73
     6
 40
44.45
 49
12.7
 74
     0
 49
-6.349999999999999
 74
     0
 49
12.7
 74
     0
 49
-6.349999999999999
 74
     0
 49
0.0
 74
     0
 49
-6.349999999999999
 74
     0
  0
LTYPE
  5
44
330
5
100
AcDbSymbolTableRecord
100
AcDbLinetypeTableRecord
  2
BORDER2
 70
     0
  3
Border (.5x) __.__.__.__.__.__.__.__.__.__.__.
 72
    65
 73
     6
 40
22.225
 49
6.349999999999999
 74
     0
 49
-3.174999999999999
 74
     0
 49
6.349999999999999
 74
     0
 49
-3.174999999999999
 74
     0
 49
0.0
 74
     0
 49
-3.174999999999999
 74
     0
  0
LTYPE
  5
45
330
5
100
AcDbSymbolTableRecord
100
AcDbLinetypeTableRecord
  2
BORDERX2
 70
     0
  3
Border (2x) ____  ____  .  ____  ____  .  ___
 72
    65
 73
     6
 40
88.9
 49
25.4
 74
     0
 49
-12.7
 74
     0
 49
25.4
 74
     0
 49
-12.7
 74
     0
 49
0.0
 74
     0
 49
-12.7
 74
     0
  0
LTYPE
  5
46
330
5
100
AcDbSymbolTableRecord
100
AcDbLinetypeTableRecord
  2
CENTER
 70
     0
  3
Center ____ _ ____ _ ____ _ ____ _ ____ _ ____
 72
    65
 73
     4
 40
50.8
 49
31.75
 74
     0
 49
-6.349999999999999
 74
     0
 49
6.349999999999999
 74
     0
 49
-6.349999999999999
 74
     0
  0
LTYPE
  5
47
330
5
100
AcDbSymbolTableRecord
100
AcDbLinetypeTableRecord
  2
CENTER2
 70
     0
  3
Center (.5x) ___ _ ___ _ ___ _ ___ _ ___ _ ___
 72
    65
 73
     4
 40
28.575
 49
19.05
 74
     0
 49
-3.174999999999999
 74
     0
 49
3.174999999999999
 74
     0
 49
-3.174999999999999
 74
     0
  0
LTYPE
  5
48
330
5
100
AcDbSymbolTableRecord
100
AcDbLinetypeTableRecord
  2
CENTERX2
 70
     0
  3
Center (2x) ________  __  ________  __  _____
 72
    65
 73
     4
 40
101.6
 49
63.5
 74
     0
 49
-12.7
 74
     0
 49
12.7
 74
     0
 49
-12.7
 74
     0
  0
LTYPE
  5
49
330
5
100
AcDbSymbolTableRecord
100
AcDbLinetypeTableRecord
  2
DASHDOT
 70
     0
  3
Dash dot __ . __ . __ . __ . __ . __ . __ . __
 72
    65
 73
     4
 40
25.4
 49
12.7
 74
     0
 49
-6.349999999999999
 74
     0
 49
0.0
 74
     0
 49
-6.349999999999999
 74
     0
  0
LTYPE
  5
4A
330
5
100
AcDbSymbolTableRecord
100
AcDbLinetypeTableRecord
  2
DASHDOT2
 70
     0
  3
Dash dot (.5x) _._._._._._._._._._._._._._._.
 72
    65
 73
     4
 40
12.7
 49
6.349999999999999
 74
     0
 49
-3.174999999999999
 74
     0
 49
0.0
 74
     0
 49
-3.174999999999999
 74
     0
  0
LTYPE
  5
4B
330
5
100
AcDbSymbolTableRecord
100
AcDbLinetypeTableRecord
  2
DASHDOTX2
 70
     0
  3
Dash dot (2x) ____  .  ____  .  ____  .  ___
 72
    65
 73
     4
 40
50.8
 49
25.4
 74
     0
 49
-12.7
 74
     0
 49
0.0
 74
     0
 49
-12.7
 74
     0
  0
LTYPE
  5
4C
330
5
100
AcDbSymbolTableRecord
100
AcDbLinetypeTableRecord
  2
DASHED
 70
     0
  3
Dashed __ __ __ __ __ __ __ __ __ __ __ __ __ _
 72
    65
 73
     2
 40
19.05
 49
12.7
 74
     0
 49
-6.349999999999999
 74
     0
  0
LTYPE
  5
4D
330
5
100
AcDbSymbolTableRecord
100
AcDbLinetypeTableRecord
  2
DASHED2
 70
     0
  3
Dashed (.5x) _ _ _ _ _ _ _ _ _ _ _ _ _ _ _ _ _
 72
    65
 73
     2
 40
9.524999999999998
 49
6.349999999999999
 74
     0
 49
-3.174999999999999
 74
     0
  0
LTYPE
  5
4E
330
5
100
AcDbSymbolTableRecord
100
AcDbLinetypeTableRecord
  2
DASHEDX2
 70
     0
  3
Dashed (2x) ____  ____  ____  ____  ____  ___
 72
    65
 73
     2
 40
38.1
 49
25.4
 74
     0
 49
-12.7
 74
     0
  0
LTYPE
  5
4F
330
5
100
AcDbSymbolTableRecord
100
AcDbLinetypeTableRecord
  2
DIVIDE
 70
     0
  3
Divide ____ . . ____ . . ____ . . ____ . . ____
 72
    65
 73
     6
 40
31.75
 49
12.7
 74
     0
 49
-6.349999999999999
 74
     0
 49
0.0
 74
     0
 49
-6.349999999999999
 74
     0
 49
0.0
 74
     0
 49
-6.349999999999999
 74
     0
  0
LTYPE
  5
50
330
5
100
AcDbSymbolTableRecord
100
AcDbLinetypeTableRecord
  2
DIVIDE2
 70
     0
  3
Divide (.5x) __..__..__..__..__..__..__..__.._
 72
    65
 73
     6
 40
15.875
 49
6.349999999999999
 74
     0
 49
-3.174999999999999
 74
     0
 49
0.0
 74
     0
 49
-3.174999999999999
 74
     0
 49
0.0
 74
     0
 49
-3.174999999999999
 74
     0
  0
LTYPE
  5
51
330
5
100
AcDbSymbolTableRecord
100
AcDbLinetypeTableRecord
  2
DIVIDEX2
 70
     0
  3
Divide (2x) ________  .  .  ________  .  .  _
 72
    65
 73
     6
 40
63.49999999999999
 49
25.4
 74
     0
 49
-12.7
 74
     0
 49
0.0
 74
     0
 49
-12.7
 74
     0
 49
0.0
 74
     0
 49
-12.7
 74
     0
  0
LTYPE
  5
52
330
5
100
AcDbSymbolTableRecord
100
AcDbLinetypeTableRecord
  2
DOT
 70
     0
  3
Dot . . . . . . . . . . . . . . . . . . . . . .
 72
    65
 73
     2
 40
6.349999999999999
 49
0.0
 74
     0
 49
-6.349999999999999
 74
     0
  0
LTYPE
  5
53
330
5
100
AcDbSymbolTableRecord
100
AcDbLinetypeTableRecord
  2
DOT2
 70
     0
  3
Dot (.5x) .....................................
 72
    65
 73
     2
 40
3.174999999999999
 49
0.0
 74
     0
 49
-3.174999999999999
 74
     0
  0
LTYPE
  5
54
330
5
100
AcDbSymbolTableRecord
100
AcDbLinetypeTableRecord
  2
DOTX2
 70
     0
  3
Dot (2x) .  .  .  .  .  .  .  .  .  .  .  .  . 
 72
    65
 73
     2
 40
12.7
 49
0.0
 74
     0
 49
-12.7
 74
     0
  0
LTYPE
  5
55
330
5
100
AcDbSymbolTableRecord
100
AcDbLinetypeTableRecord
  2
FENCELINE1
 70
     0
  3
Fenceline circle ----0-----0----0-----0----0---
 72
    65
 73
     4
 40
36.83
 49
6.349999999999999
 74
     0
 49
-2.54
 74
     4
 75
   133
340
33
 46
2.54
 50
0.0
 44
-2.54
 45
0.0
 49
-2.54
 74
     0
 49
25.4
 74
     0
  0
LTYPE
  5
56
330
5
100
AcDbSymbolTableRecord
100
AcDbLinetypeTableRecord
  2
FENCELINE2
 70
     0
  3
Fenceline square ----[]-----[]----[]-----[]----
 72
    65
 73
     4
 40
36.83
 49
6.349999999999999
 74
     0
 49
-2.54
 74
     4
 75
   132
340
33
 46
2.54
 50
0.0
 44
-2.54
 45
0.0
 49
-2.54
 74
     0
 49
25.4
 74
     0
  0
LTYPE
  5
57
330
5
100
AcDbSymbolTableRecord
100
AcDbLinetypeTableRecord
  2
GAS_LINE
 70
     0
  3
Gas line ----GAS----GAS----GAS----GAS----GAS---
 72
    65
 73
     3
 40
24.13
 49
12.7
 74
     0
 49
-5.08
 74
     2
 75
     0
340
11
 46
2.54
 50
0.0
 44
-2.54
 45
-1.27
  9
GAS
 49
-6.349999999999999
 74
     0
  0
LTYPE
  5
58
330
5
100
AcDbSymbolTableRecord
100
AcDbLinetypeTableRecord
  2
HIDDEN
 70
     0
  3
Hidden __ __ __ __ __ __ __ __ __ __ __ __ __ _
 72
    65
 73
     2
 40
9.524999999999998
 49
6.349999999999999
 74
     0
 49
-3.174999999999999
 74
     0
  0
LTYPE
  5
59
330
5
100
AcDbSymbolTableRecord
100
AcDbLinetypeTableRecord
  2
HIDDEN2
 70
     0
  3
Hidden (.5x) _ _ _ _ _ _ _ _ _ _ _ _ _ _ _ _ _
 72
    65
 73
     2
 40
4.762499999999999
 49
3.174999999999999
 74
     0
 49
-1.587499999999999
 74
     0
  0
LTYPE
  5
5A
330
5
100
AcDbSymbolTableRecord
100
AcDbLinetypeTableRecord
  2
HIDDENX2
 70
     0
  3
Hidden (2x) ____ ____ ____ ____ ____ ____ ____
 72
    65
 73
     2
 40
19.05
 49
12.7
 74
     0
 49
-6.349999999999999
 74
     0
  0
LTYPE
  5
5B
330
5
100
AcDbSymbolTableRecord
100
AcDbLinetypeTableRecord
  2
HOT_WATER_SUPPLY
 70
     0
  3
Hot water supply ---- HW ---- HW ---- HW ----
 72
    65
 73
     3
 40
22.86
 49
12.7
 74
     0
 49
-5.08
 74
     2
 75
     0
340
11
 46
2.54
 50
0.0
 44
-2.54
 45
-1.27
  9
HW
 49
-5.08
 74
     0
  0
LTYPE
  5
5C
330
5
100
AcDbSymbolTableRecord
100
AcDbLinetypeTableRecord
  2
PHANTOM
 70
     0
  3
Phantom ______  __  __  ______  __  __  ______
 72
    65
 73
     6
 40
63.5
 49
31.75
 74
     0
 49
-6.349999999999999
 74
     0
 49
6.349999999999999
 74
     0
 49
-6.349999999999999
 74
     0
 49
6.349999999999999
 74
     0
 49
-6.349999999999999
 74
     0
  0
LTYPE
  5
5D
330
5
100
AcDbSymbolTableRecord
100
AcDbLinetypeTableRecord
  2
PHANTOM2
 70
     0
  3
Phantom (.5x) ___ _ _ ___ _ _ ___ _ _ ___ _ _
 72
    65
 73
     6
 40
31.75
 49
15.875
 74
     0
 49
-3.174999999999999
 74
     0
 49
3.174999999999999
 74
     0
 49
-3.174999999999999
 74
     0
 49
3.174999999999999
 74
     0
 49
-3.174999999999999
 74
     0
  0
LTYPE
  5
5E
330
5
100
AcDbSymbolTableRecord
100
AcDbLinetypeTableRecord
  2
PHANTOMX2
 70
     0
  3
Phantom (2x) ____________    ____    ____   _
 72
    65
 73
     6
 40
127.0
 49
63.5
 74
     0
 49
-12.7
 74
     0
 49
12.7
 74
     0
 49
-12.7
 74
     0
 49
12.7
 74
     0
 49
-12.7
 74
     0
  0
LTYPE
  5
5F
330
5
100
AcDbSymbolTableRecord
100
AcDbLinetypeTableRecord
  2
TRACKS
 70
     0
  3
Tracks -|-|-|-|-|-|-|-|-|-|-|-|-|-|-|-|-|-|-|-|
 72
    65
 73
     2
 40
7.62
 49
3.81
 74
     4
 75
   130
340
33
 46
6.349999999999999
 50
0.0
 44
0.0
 45
0.0
 49
3.81
 74
     0
  0
LTYPE
  5
60
330
5
100
AcDbSymbolTableRecord
100
AcDbLinetypeTableRecord
  2
ZIGZAG
 70
     0
  3
Zig zag /\/\/\/\/\/\/\/\/\/\/\/\/\/\/\/\/\/\/\/
 72
    65
 73
     4
 40
20.32254
 49
0.00254
 74
     0
 49
-5.08
 74
     4
 75
   131
340
33
 46
5.08
 50
0.0
 44
-5.08
 45
0.0
 49
-10.16
 74
     4
 75
   131
340
33
 46
5.08
 50
180.0
 44
5.08
 45
0.0
 49
-5.08
 74
     0
  0
ENDTAB
  0
TABLE
  2
LAYER
  5
2
102
{ACAD_XDICTIONARY
360
1A5B
102
}
330
0
100
AcDbSymbolTable
 70
     9
  0
LAYER
  5
10
330
2
100
AcDbSymbolTableRecord
100
AcDbLayerTableRecord
  2
0
 70
     0
 62
     7
  6
Continuous
370
    -3
390
F
  0
LAYER
  5
C3
330
2
100
AcDbSymbolTableRecord
100
AcDbLayerTableRecord
  2
Defpoints
 70
     0
 62
     7
  6
Continuous
290
     0
370
    -3
390
F
  0
LAYER
  5
256
330
2
100
AcDbSymbolTableRecord
100
AcDbLayerTableRecord
  2
センター
 70
     0
 62
     7
  6
CENTER2
370
    15
390
F
  0
LAYER
  5
268
330
2
100
AcDbSymbolTableRecord
100
AcDbLayerTableRecord
  2
実形
 70
     0
 62
     7
  6
Continuous
370
    -3
390
F
  0
LAYER
  5
269
330
2
100
AcDbSymbolTableRecord
100
AcDbLayerTableRecord
  2
補助
 70
     0
 62
     7
  6
Continuous
370
    -3
390
F
  0
LAYER
  5
26A
330
2
100
AcDbSymbolTableRecord
100
AcDbLayerTableRecord
  2
寸法
 70
     0
 62
     7
  6
Continuous
370
    -3
390
F
  0
LAYER
  5
26B
330
2
100
AcDbSymbolTableRecord
100
AcDbLayerTableRecord
  2
ハッチング
 70
     0
 62
     7
  6
Continuous
370
    18
390
F
  0
LAYER
  5
26D
330
2
100
AcDbSymbolTableRecord
100
AcDbLayerTableRecord
  2
文字
 70
     0
 62
     7
  6
Continuous
370
    -3
390
F
  0
LAYER
  5
FCC
330
2
100
AcDbSymbolTableRecord
100
AcDbLayerTableRecord
  2
Cen
 70
     0
 62
     7
  6
CENTER2
370
    15
390
F
  0
ENDTAB
  0
TABLE
  2
STYLE
  5
3
330
0
100
AcDbSymbolTable
 70
     5
  0
STYLE
  5
11
330
3
100
AcDbSymbolTableRecord
100
AcDbTextStyleTableRecord
  2
Standard
 70
     0
 40
0.0
 41
1.0
 50
0.0
 71
     0
 42
35.0
  3
txt.shx
  4
bigfont.shx
  0
STYLE
  5
33
330
3
100
AcDbSymbolTableRecord
100
AcDbTextStyleTableRecord
  2

 70
     1
 40
0.0
 41
1.0
 50
0.0
 71
     0
 42
2.5
  3
ltypeshp.shx
  4

  0
STYLE
  5
1A59
330
3
100
AcDbSymbolTableRecord
100
AcDbTextStyleTableRecord
  2
ｍｓ明朝
 70
     0
 40
0.0
 41
1.0
 50
0.0
 71
     0
 42
35.0
  3
MS Mincho.ttf
  4

1001
ACAD
1000
MS Mincho
1071
    32785
  0
STYLE
  5
1D8B
330
3
100
AcDbSymbolTableRecord
100
AcDbTextStyleTableRecord
  2
MS明朝
 70
     0
 40
0.0
 41
1.0
 50
0.0
 71
     0
 42
35.0
  3
MS Mincho.ttf
  4

1001
ACAD
1000
MS Mincho
1071
    32785
  0
STYLE
  5
1FD7
330
3
100
AcDbSymbolTableRecord
100
AcDbTextStyleTableRecord
  2
明朝
 70
     0
 40
0.0
 41
1.0
 50
0.0
 71
     0
 42
25.0
  3
MS Mincho.ttf
  4

1001
ACAD
1000
MS Mincho
1071
    32785
  0
ENDTAB
  0
TABLE
  2
VIEW
  5
6
330
0
100
AcDbSymbolTable
 70
     0
  0
ENDTAB
  0
TABLE
  2
UCS
  5
7
330
0
100
AcDbSymbolTable
 70
     0
  0
ENDTAB
  0
TABLE
  2
APPID
  5
9
330
0
100
AcDbSymbolTable
 70
     2
  0
APPID
  5
12
330
9
100
AcDbSymbolTableRecord
100
AcDbRegAppTableRecord
  2
ACAD
 70
     0
  0
APPID
  5
1BD1
330
9
100
AcDbSymbolTableRecord
100
AcDbRegAppTableRecord
  2
ACAD_PSEXT
 70
     0
  0
ENDTAB
  0
TABLE
  2
DIMSTYLE
  5
A
330
0
100
AcDbSymbolTable
 70
     1
100
AcDbDimStyleTable
 71
     1
340
27
  0
DIMSTYLE
105
27
102
{ACAD_REACTORS
330
50A
330
4E5
330
4FD
330
522
330
40C
330
41A
330
427
330
459
330
466
330
47C
330
492
330
4C3
330
8DB
330
C24
330
C26
330
C29
330
CB8
330
CB9
330
1A70
330
1AD5
330
1D3B
330
1D5A
330
1D79
330
1DE5
330
1DF2
330
1E23
330
2042
330
204C
330
204F
330
2050
330
2053
330
2054
330
2055
330
2056
330
2058
330
2059
330
205A
330
205B
330
205C
330
205D
330
2063
330
2064
330
2065
330
206D
330
206E
330
206F
330
2282
330
2283
330
2284
330
2285
330
2286
330
23C7
330
23C8
330
24B2
330
24B3
330
24B4
330
24B5
102
}
330
A
100
AcDbSymbolTableRecord
100
AcDbDimStyleTableRecord
  2
ISO-25
 70
     0
 41
35.0
 42
65.0
 43
3.75
 44
0.0
 73
     0
 74
     0
 77
     1
 78
     8
140
25.0
141
2.5
143
0.03937007874016
147
6.25
171
     3
172
     1
271
     2
272
     2
274
     3
279
     2
283
     0
284
     8
289
     2
340
11
341
DA
342
D0
371
    15
372
    15
  0
ENDTAB
  0
TABLE
  2
BLOCK_RECORD
  5
1
330
0
100
AcDbSymbolTable
 70
   101
  0
BLOCK_RECORD
  5
1F
102
{ACAD_XDICTIONARY
360
1926
102
}
330
1
100
AcDbSymbolTableRecord
100
AcDbBlockTableRecord
  2
*Model_Space
340
22
  0
BLOCK_RECORD
  5
1B
330
1
100
AcDbSymbolTableRecord
100
AcDbBlockTableRecord
  2
*Paper_Space
340
1E
  0
BLOCK_RECORD
  5
23
330
1
100
AcDbSymbolTableRecord
100
AcDbBlockTableRecord
  2
*Paper_Space0
340
26
  0
BLOCK_RECORD
  5
D0
330
1
100
AcDbSymbolTableRecord
100
AcDbBlockTableRecord
  2
_DotSmall
340
0
102
{BLKREFS
331
1C96
331
1C97
331
1C9E
331
1C9F
331
1CA8
331
1CA9
331
1CB0
331
1CB1
331
1CB9
331
1CBA
331
1CC3
331
1CC4
331
1CCB
331
1CCC
331
1CD5
331
1CD6
331
1CDE
331
1CDF
331
1CE6
331
1CE7
331
1CF0
331
1CF1
331
1CF8
331
1CF9
331
1D01
331
1D02
331
1D0A
331
1D0B
331
1D14
331
1D15
331
1D1C
331
1D1D
331
1DAC
331
1DAD
331
1DB5
331
1DB6
331
1DBD
331
1DBE
331
1E34
331
1E35
331
1E3D
331
1E3E
331
1E45
331
1E46
331
1F05
331
1F06
331
1F10
331
1F11
331
1F1D
331
1F1E
331
1F28
331
1F29
331
1F34
331
1F35
331
1F40
331
1F41
331
1F4D
331
1F4E
331
1F58
331
1F59
331
1F64
331
1F65
331
1F70
331
1F71
331
1F7C
331
1F7D
331
1F88
331
1F89
331
1F94
331
1F95
331
1FA0
331
1FA1
331
1FAC
331
1FAD
331
1FB8
331
1FB9
331
1FC4
331
1FC5
331
1FD0
331
1FD1
331
1EF8
331
1EF9
331
2176
331
2177
331
2180
331
2181
331
2188
331
2189
331
2192
331
2193
331
219A
331
219B
331
21A3
331
21A4
331
21AC
331
21AD
331
21B6
331
21B7
331
21BE
331
21BF
331
21C7
331
21C8
331
21D0
331
21D1
331
21D9
331
21DA
331
21E2
331
21E3
331
21EB
331
21EC
331
21F4
331
21F5
331
21FD
331
21FE
331
2206
331
2207
331
220F
331
2210
331
2218
331
2219
331
2269
331
226A
331
2235
331
2236
331
2243
331
2244
331
224F
331
2250
331
225A
331
225B
331
22D3
331
22D4
331
22DE
331
22DF
331
22E7
331
22E8
331
22EF
331
22F0
331
22FB
331
22FC
331
2329
331
232A
331
2334
331
2335
331
2340
331
2341
331
234C
331
234D
331
2358
331
2359
331
2363
331
2364
331
243D
331
243E
331
2445
331
2446
331
2460
331
2461
331
2468
331
2469
331
2478
331
2479
331
2483
331
2484
331
2492
331
2493
331
249D
331
249E
331
2518
331
2519
331
2524
331
2525
331
252C
331
252D
331
2536
331
2537
331
253F
331
2540
331
2548
331
2549
102
}
  0
BLOCK_RECORD
  5
D4
330
1
100
AcDbSymbolTableRecord
100
AcDbBlockTableRecord
  2
_Origin2
340
0
  0
BLOCK_RECORD
  5
DA
330
1
100
AcDbSymbolTableRecord
100
AcDbBlockTableRecord
  2
_Open30
340
0
  0
BLOCK_RECORD
  5
40D
330
1
100
AcDbSymbolTableRecord
100
AcDbBlockTableRecord
  2
*D4
340
0
  0
BLOCK_RECORD
  5
41B
330
1
100
AcDbSymbolTableRecord
100
AcDbBlockTableRecord
  2
*D5
340
0
  0
BLOCK_RECORD
  5
428
330
1
100
AcDbSymbolTableRecord
100
AcDbBlockTableRecord
  2
*D6
340
0
  0
BLOCK_RECORD
  5
45A
330
1
100
AcDbSymbolTableRecord
100
AcDbBlockTableRecord
  2
*D7
340
0
  0
BLOCK_RECORD
  5
467
330
1
100
AcDbSymbolTableRecord
100
AcDbBlockTableRecord
  2
*D8
340
0
  0
BLOCK_RECORD
  5
47D
330
1
100
AcDbSymbolTableRecord
100
AcDbBlockTableRecord
  2
*D9
340
0
  0
BLOCK_RECORD
  5
493
330
1
100
AcDbSymbolTableRecord
100
AcDbBlockTableRecord
  2
*D10
340
0
  0
BLOCK_RECORD
  5
4C4
330
1
100
AcDbSymbolTableRecord
100
AcDbBlockTableRecord
  2
*D11
340
0
  0
BLOCK_RECORD
  5
4E6
330
1
100
AcDbSymbolTableRecord
100
AcDbBlockTableRecord
  2
*D12
340
0
  0
BLOCK_RECORD
  5
4FE
330
1
100
AcDbSymbolTableRecord
100
AcDbBlockTableRecord
  2
*D13
340
0
  0
BLOCK_RECORD
  5
50B
330
1
100
AcDbSymbolTableRecord
100
AcDbBlockTableRecord
  2
*D14
340
0
  0
BLOCK_RECORD
  5
523
330
1
100
AcDbSymbolTableRecord
100
AcDbBlockTableRecord
  2
*D15
340
0
  0
BLOCK_RECORD
  5
1A71
330
1
100
AcDbSymbolTableRecord
100
AcDbBlockTableRecord
  2
*D16
340
0
  0
BLOCK_RECORD
  5
1AD6
330
1
100
AcDbSymbolTableRecord
100
AcDbBlockTableRecord
  2
*D17
340
0
  0
BLOCK_RECORD
  5
1D3C
330
1
100
AcDbSymbolTableRecord
100
AcDbBlockTableRecord
  2
*D20
340
0
  0
BLOCK_RECORD
  5
1D5B
330
1
100
AcDbSymbolTableRecord
100
AcDbBlockTableRecord
  2
*D21
340
0
  0
BLOCK_RECORD
  5
1D7A
330
1
100
AcDbSymbolTableRecord
100
AcDbBlockTableRecord
  2
*D22
340
0
  0
BLOCK_RECORD
  5
1D86
330
1
100
AcDbSymbolTableRecord
100
AcDbBlockTableRecord
  2
_Dot
340
0
  0
BLOCK_RECORD
  5
1DE6
330
1
100
AcDbSymbolTableRecord
100
AcDbBlockTableRecord
  2
*D24
340
0
  0
BLOCK_RECORD
  5
1DF3
330
1
100
AcDbSymbolTableRecord
100
AcDbBlockTableRecord
  2
*D25
340
0
  0
BLOCK_RECORD
  5
1E24
330
1
100
AcDbSymbolTableRecord
100
AcDbBlockTableRecord
  2
*D26
340
0
  0
BLOCK_RECORD
  5
2080
330
1
100
AcDbSymbolTableRecord
100
AcDbBlockTableRecord
  2
*D47
340
0
  0
BLOCK_RECORD
  5
2089
330
1
100
AcDbSymbolTableRecord
100
AcDbBlockTableRecord
  2
*D48
340
0
  0
BLOCK_RECORD
  5
2095
330
1
100
AcDbSymbolTableRecord
100
AcDbBlockTableRecord
  2
*D49
340
0
  0
BLOCK_RECORD
  5
20A1
330
1
100
AcDbSymbolTableRecord
100
AcDbBlockTableRecord
  2
*D50
340
0
  0
BLOCK_RECORD
  5
20AD
330
1
100
AcDbSymbolTableRecord
100
AcDbBlockTableRecord
  2
*D51
340
0
  0
BLOCK_RECORD
  5
20B9
330
1
100
AcDbSymbolTableRecord
100
AcDbBlockTableRecord
  2
*D52
340
0
  0
BLOCK_RECORD
  5
20C5
330
1
100
AcDbSymbolTableRecord
100
AcDbBlockTableRecord
  2
*D53
340
0
  0
BLOCK_RECORD
  5
20D1
330
1
100
AcDbSymbolTableRecord
100
AcDbBlockTableRecord
  2
*D54
340
0
  0
BLOCK_RECORD
  5
20DD
330
1
100
AcDbSymbolTableRecord
100
AcDbBlockTableRecord
  2
*D55
340
0
  0
BLOCK_RECORD
  5
20E9
330
1
100
AcDbSymbolTableRecord
100
AcDbBlockTableRecord
  2
*D56
340
0
  0
BLOCK_RECORD
  5
20F5
330
1
100
AcDbSymbolTableRecord
100
AcDbBlockTableRecord
  2
*D57
340
0
  0
BLOCK_RECORD
  5
2101
330
1
100
AcDbSymbolTableRecord
100
AcDbBlockTableRecord
  2
*D58
340
0
  0
BLOCK_RECORD
  5
210D
330
1
100
AcDbSymbolTableRecord
100
AcDbBlockTableRecord
  2
*D59
340
0
  0
BLOCK_RECORD
  5
2119
330
1
100
AcDbSymbolTableRecord
100
AcDbBlockTableRecord
  2
*D60
340
0
  0
BLOCK_RECORD
  5
2125
330
1
100
AcDbSymbolTableRecord
100
AcDbBlockTableRecord
  2
*D61
340
0
  0
BLOCK_RECORD
  5
2131
330
1
100
AcDbSymbolTableRecord
100
AcDbBlockTableRecord
  2
*D62
340
0
  0
BLOCK_RECORD
  5
213D
330
1
100
AcDbSymbolTableRecord
100
AcDbBlockTableRecord
  2
*D63
340
0
  0
BLOCK_RECORD
  5
2149
330
1
100
AcDbSymbolTableRecord
100
AcDbBlockTableRecord
  2
*D64
340
0
  0
BLOCK_RECORD
  5
2155
330
1
100
AcDbSymbolTableRecord
100
AcDbBlockTableRecord
  2
*D65
340
0
  0
BLOCK_RECORD
  5
2161
330
1
100
AcDbSymbolTableRecord
100
AcDbBlockTableRecord
  2
*D66
340
0
  0
BLOCK_RECORD
  5
228F
330
1
100
AcDbSymbolTableRecord
100
AcDbBlockTableRecord
  2
*D72
340
0
  0
BLOCK_RECORD
  5
229B
330
1
100
AcDbSymbolTableRecord
100
AcDbBlockTableRecord
  2
*D73
340
0
  0
BLOCK_RECORD
  5
22A9
330
1
100
AcDbSymbolTableRecord
100
AcDbBlockTableRecord
  2
*D74
340
0
  0
BLOCK_RECORD
  5
22B5
330
1
100
AcDbSymbolTableRecord
100
AcDbBlockTableRecord
  2
*D75
340
0
  0
BLOCK_RECORD
  5
22C1
330
1
100
AcDbSymbolTableRecord
100
AcDbBlockTableRecord
  2
*D76
340
0
  0
BLOCK_RECORD
  5
23FD
330
1
100
AcDbSymbolTableRecord
100
AcDbBlockTableRecord
  2
*D89
340
0
  0
BLOCK_RECORD
  5
2409
330
1
100
AcDbSymbolTableRecord
100
AcDbBlockTableRecord
  2
*D90
340
0
  0
BLOCK_RECORD
  5
24BA
330
1
100
AcDbSymbolTableRecord
100
AcDbBlockTableRecord
  2
*D97
340
0
  0
BLOCK_RECORD
  5
24C6
330
1
100
AcDbSymbolTableRecord
100
AcDbBlockTableRecord
  2
*D98
340
0
  0
BLOCK_RECORD
  5
24D2
330
1
100
AcDbSymbolTableRecord
100
AcDbBlockTableRecord
  2
*D99
340
0
  0
BLOCK_RECORD
  5
24E0
330
1
100
AcDbSymbolTableRecord
100
AcDbBlockTableRecord
  2
*D100
340
0
  0
ENDTAB
  0
ENDSEC
  0
SECTION
  2
BLOCKS
  0
BLOCK
  5
20
330
1F
100
AcDbEntity
  8
0
100
AcDbBlockBegin
  2
*Model_Space
 70
     0
 10
0.0
 20
0.0
 30
0.0
  3
*Model_Space
  1

  0
ENDBLK
  5
21
330
1F
100
AcDbEntity
  8
0
100
AcDbBlockEnd
  0
BLOCK
  5
1C
330
1B
100
AcDbEntity
 67
     1
  8
0
100
AcDbBlockBegin
  2
*Paper_Space
 70
     0
 10
0.0
 20
0.0
 30
0.0
  3
*Paper_Space
  1

  0
ENDBLK
  5
1D
330
1B
100
AcDbEntity
 67
     1
  8
0
100
AcDbBlockEnd
  0
BLOCK
  5
24
330
23
100
AcDbEntity
  8
0
100
AcDbBlockBegin
  2
*Paper_Space0
 70
     0
 10
0.0
 20
0.0
 30
0.0
  3
*Paper_Space0
  1

  0
ENDBLK
  5
25
330
23
100
AcDbEntity
  8
0
100
AcDbBlockEnd
  0
BLOCK
  5
D2
330
D0
100
AcDbEntity
  8
0
100
AcDbBlockBegin
  2
_DotSmall
 70
     0
 10
0.0
 20
0.0
 30
0.0
  3
_DotSmall
  1

  0
LWPOLYLINE
  5
D1
330
D0
100
AcDbEntity
  8
0
 62
     0
100
AcDbPolyline
 90
        2
 70
     1
 43
0.5
 10
-0.0625
 20
0.0
 42
1.0
 10
0.0625
 20
0.0
 42
1.0
  0
ENDBLK
  5
D3
330
D0
100
AcDbEntity
  8
0
100
AcDbBlockEnd
  0
BLOCK
  5
D8
330
D4
100
AcDbEntity
  8
0
100
AcDbBlockBegin
  2
_Origin2
 70
     0
 10
0.0
 20
0.0
 30
0.0
  3
_Origin2
  1

  0
CIRCLE
  5
D5
330
D4
100
AcDbEntity
  8
0
 62
     0
370
    -2
100
AcDbCircle
 10
0.0
 20
0.0
 30
0.0
 40
0.5
  0
CIRCLE
  5
D6
330
D4
100
AcDbEntity
  8
0
 62
     0
370
    -2
100
AcDbCircle
 10
0.0
 20
0.0
 30
0.0
 40
0.25
  0
LINE
  5
D7
330
D4
100
AcDbEntity
  8
0
 62
     0
370
    -2
100
AcDbLine
 10
-0.5
 20
0.0
 30
0.0
 11
-1.0
 21
0.0
 31
0.0
  0
ENDBLK
  5
D9
330
D4
100
AcDbEntity
  8
0
100
AcDbBlockEnd
  0
BLOCK
  5
DE
330
DA
100
AcDbEntity
  8
0
100
AcDbBlockBegin
  2
_Open30
 70
     0
 10
0.0
 20
0.0
 30
0.0
  3
_Open30
  1

  0
LINE
  5
DB
330
DA
100
AcDbEntity
  8
0
 62
     0
370
    -2
100
AcDbLine
 10
-1.0
 20
0.26794919
 30
0.0
 11
0.0
 21
0.0
 31
0.0
  0
LINE
  5
DC
330
DA
100
AcDbEntity
  8
0
 62
     0
370
    -2
100
AcDbLine
 10
0.0
 20
0.0
 30
0.0
 11
-1.0
 21
-0.26794919
 31
0.0
  0
LINE
  5
DD
330
DA
100
AcDbEntity
  8
0
 62
     0
370
    -2
100
AcDbLine
 10
0.0
 20
0.0
 30
0.0
 11
-1.0
 21
0.0
 31
0.0
  0
ENDBLK
  5
DF
330
DA
100
AcDbEntity
  8
0
100
AcDbBlockEnd
  0
BLOCK
  5
418
330
40D
100
AcDbEntity
  8
0
100
AcDbBlockBegin
  2
*D4
 70
     1
 10
0.0
 20
0.0
 30
0.0
  3
*D4
  1

  0
LINE
  5
1C92
330
40D
100
AcDbEntity
  8
寸法
 62
     0
370
    15
100
AcDbLine
 10
375.635782713377
 20
1084.222941473464
 30
0.0
 11
336.8401218518176
 21
1084.222941473464
 31
0.0
  0
LINE
  5
1C93
330
40D
100
AcDbEntity
  8
寸法
 62
     0
370
    15
100
AcDbLine
 10
375.635782713377
 20
1099.222941473463
 30
0.0
 11
336.8401218518176
 21
1099.222941473463
 31
0.0
  0
LINE
  5
1C94
330
40D
100
AcDbEntity
  8
寸法
 62
     0
370
    15
100
AcDbLine
 10
336.8401218518176
 20
1084.222941473464
 30
0.0
 11
336.8401218518176
 21
1099.222941473463
 31
0.0
  0
MTEXT
  5
1C95
330
40D
100
AcDbEntity
  8
寸法
 62
     0
100
AcDbMText
 10
310.9398706622342
 20
1107.652065525801
 30
0.0
 40
25.0
 41
0.0
 71
     5
 72
     1
  1
15
 11
0.0000000000000001
 21
1.0
 31
0.0
 73
     1
 44
1.0
1001
ACAD
1000
MTEXTBEGIN
1070
    73
1070
     1
1070
    44
1040
1.0
1070
    74
1070
     0
1000
MTEXTEND
  0
INSERT
  5
1C96
330
40D
100
AcDbEntity
  8
寸法
 62
     0
370
    15
100
AcDbBlockReference
  2
_DotSmall
 10
336.8401218518176
 20
1084.222941473464
 30
0.0
 41
35.0
 42
35.0
 43
35.0
 50
270.0
  0
INSERT
  5
1C97
330
40D
100
AcDbEntity
  8
寸法
 62
     0
370
    15
100
AcDbBlockReference
  2
_DotSmall
 10
336.8401218518176
 20
1099.222941473463
 30
0.0
 41
35.0
 42
35.0
 43
35.0
 50
90.0
  0
POINT
  5
1C98
330
40D
100
AcDbEntity
  8
Defpoints
 62
     0
100
AcDbPoint
 10
440.635782713377
 20
1084.222941473464
 30
0.0
  0
POINT
  5
1C99
330
40D
100
AcDbEntity
  8
Defpoints
 62
     0
100
AcDbPoint
 10
440.635782713377
 20
1099.222941473463
 30
0.0
  0
POINT
  5
1C9A
330
40D
100
AcDbEntity
  8
Defpoints
 62
     0
100
AcDbPoint
 10
336.8401218518176
 20
1099.222941473463
 30
0.0
  0
ENDBLK
  5
419
330
40D
100
AcDbEntity
  8
0
100
AcDbBlockEnd
  0
BLOCK
  5
425
330
41B
100
AcDbEntity
  8
0
100
AcDbBlockBegin
  2
*D5
 70
     1
 10
0.0
 20
0.0
 30
0.0
  3
*D5
  1

  0
LINE
  5
1C9B
330
41B
100
AcDbEntity
  8
寸法
 62
     0
370
    15
100
AcDbLine
 10
375.635782713377
 20
1099.222941473463
 30
0.0
 11
336.8401218518175
 21
1099.222941473463
 31
0.0
  0
LINE
  5
1C9C
330
41B
100
AcDbEntity
  8
寸法
 62
     0
370
    15
100
AcDbLine
 10
375.635782713377
 20
1509.222941473464
 30
0.0
 11
336.8401218518176
 21
1509.222941473464
 31
0.0
  0
LINE
  5
1C9D
330
41B
100
AcDbEntity
  8
寸法
 62
     0
370
    15
100
AcDbLine
 10
336.8401218518175
 20
1099.222941473463
 30
0.0
 11
336.8401218518176
 21
1509.222941473464
 31
0.0
  0
INSERT
  5
1C9E
330
41B
100
AcDbEntity
  8
寸法
 62
     0
370
    15
100
AcDbBlockReference
  2
_DotSmall
 10
336.8401218518175
 20
1099.222941473463
 30
0.0
 41
35.0
 42
35.0
 43
35.0
 50
270.0
  0
INSERT
  5
1C9F
330
41B
100
AcDbEntity
  8
寸法
 62
     0
370
    15
100
AcDbBlockReference
  2
_DotSmall
 10
336.8401218518176
 20
1509.222941473464
 30
0.0
 41
35.0
 42
35.0
 43
35.0
 50
90.0
  0
MTEXT
  5
1CA0
330
41B
100
AcDbEntity
  8
寸法
 62
     0
100
AcDbMText
 10
318.0901218518173
 20
1304.222941473464
 30
0.0
 40
25.0
 41
0.0
 71
     5
 72
     1
  1
410
 11
0.0000000000000001
 21
1.0
 31
0.0
 73
     1
 44
1.0
1001
ACAD
1000
MTEXTBEGIN
1070
    73
1070
     1
1070
    44
1040
1.0
1070
    74
1070
     0
1000
MTEXTEND
  0
POINT
  5
1CA1
330
41B
100
AcDbEntity
  8
Defpoints
 62
     0
100
AcDbPoint
 10
440.635782713377
 20
1099.222941473463
 30
0.0
  0
POINT
  5
1CA2
330
41B
100
AcDbEntity
  8
Defpoints
 62
     0
100
AcDbPoint
 10
440.635782713377
 20
1509.222941473464
 30
0.0
  0
POINT
  5
1CA3
330
41B
100
AcDbEntity
  8
Defpoints
 62
     0
100
AcDbPoint
 10
336.8401218518176
 20
1509.222941473464
 30
0.0
  0
ENDBLK
  5
426
330
41B
100
AcDbEntity
  8
0
100
AcDbBlockEnd
  0
BLOCK
  5
432
330
428
100
AcDbEntity
  8
0
100
AcDbBlockBegin
  2
*D6
 70
     1
 10
0.0
 20
0.0
 30
0.0
  3
*D6
  1

  0
LINE
  5
1CA4
330
428
100
AcDbEntity
  8
寸法
 62
     0
370
    15
100
AcDbLine
 10
375.635782713377
 20
1509.222941473464
 30
0.0
 11
336.8401218518176
 21
1509.222941473464
 31
0.0
  0
LINE
  5
1CA5
330
428
100
AcDbEntity
  8
寸法
 62
     0
370
    15
100
AcDbLine
 10
375.635782713377
 20
1524.222941473464
 30
0.0
 11
336.8401218518176
 21
1524.222941473464
 31
0.0
  0
LINE
  5
1CA6
330
428
100
AcDbEntity
  8
寸法
 62
     0
370
    15
100
AcDbLine
 10
336.8401218518176
 20
1509.222941473464
 30
0.0
 11
336.8401218518176
 21
1524.222941473464
 31
0.0
  0
MTEXT
  5
1CA7
330
428
100
AcDbEntity
  8
寸法
 62
     0
100
AcDbMText
 10
309.4719710345052
 20
1500.11665137718
 30
0.0
 40
25.0
 41
0.0
 71
     5
 72
     1
  1
15
 11
0.0000000000000001
 21
1.0
 31
0.0
 73
     1
 44
1.0
1001
ACAD
1000
MTEXTBEGIN
1070
    73
1070
     1
1070
    44
1040
1.0
1070
    74
1070
     0
1000
MTEXTEND
  0
INSERT
  5
1CA8
330
428
100
AcDbEntity
  8
寸法
 62
     0
370
    15
100
AcDbBlockReference
  2
_DotSmall
 10
336.8401218518176
 20
1509.222941473464
 30
0.0
 41
35.0
 42
35.0
 43
35.0
 50
270.0
  0
INSERT
  5
1CA9
330
428
100
AcDbEntity
  8
寸法
 62
     0
370
    15
100
AcDbBlockReference
  2
_DotSmall
 10
336.8401218518176
 20
1524.222941473464
 30
0.0
 41
35.0
 42
35.0
 43
35.0
 50
90.0
  0
POINT
  5
1CAA
330
428
100
AcDbEntity
  8
Defpoints
 62
     0
100
AcDbPoint
 10
440.635782713377
 20
1509.222941473464
 30
0.0
  0
POINT
  5
1CAB
330
428
100
AcDbEntity
  8
Defpoints
 62
     0
100
AcDbPoint
 10
440.635782713377
 20
1524.222941473464
 30
0.0
  0
POINT
  5
1CAC
330
428
100
AcDbEntity
  8
Defpoints
 62
     0
100
AcDbPoint
 10
336.8401218518176
 20
1524.222941473464
 30
0.0
  0
ENDBLK
  5
433
330
428
100
AcDbEntity
  8
0
100
AcDbBlockEnd
  0
BLOCK
  5
464
330
45A
100
AcDbEntity
  8
0
100
AcDbBlockBegin
  2
*D7
 70
     1
 10
0.0
 20
0.0
 30
0.0
  3
*D7
  1

  0
LINE
  5
1CAD
330
45A
100
AcDbEntity
  8
寸法
 62
     0
370
    15
100
AcDbLine
 10
375.635782713377
 20
1524.222941473464
 30
0.0
 11
260.3476796122606
 21
1524.222941473464
 31
0.0
  0
LINE
  5
1CAE
330
45A
100
AcDbEntity
  8
寸法
 62
     0
370
    15
100
AcDbLine
 10
375.635782713377
 20
1084.222941473464
 30
0.0
 11
260.3476796122604
 21
1084.222941473464
 31
0.0
  0
LINE
  5
1CAF
330
45A
100
AcDbEntity
  8
寸法
 62
     0
370
    15
100
AcDbLine
 10
260.3476796122606
 20
1524.222941473464
 30
0.0
 11
260.3476796122604
 21
1084.222941473464
 31
0.0
  0
INSERT
  5
1CB0
330
45A
100
AcDbEntity
  8
寸法
 62
     0
370
    15
100
AcDbBlockReference
  2
_DotSmall
 10
260.3476796122606
 20
1524.222941473464
 30
0.0
 41
35.0
 42
35.0
 43
35.0
 50
90.0
  0
INSERT
  5
1CB1
330
45A
100
AcDbEntity
  8
寸法
 62
     0
370
    15
100
AcDbBlockReference
  2
_DotSmall
 10
260.3476796122604
 20
1084.222941473464
 30
0.0
 41
35.0
 42
35.0
 43
35.0
 50
270.0
  0
MTEXT
  5
1CB2
330
45A
100
AcDbEntity
  8
寸法
 62
     0
100
AcDbMText
 10
241.5976796122603
 20
1304.222941473464
 30
0.0
 40
25.0
 41
0.0
 71
     5
 72
     1
  1
440
 11
0.0000000000000001
 21
1.0
 31
0.0
 73
     1
 44
1.0
1001
ACAD
1000
MTEXTBEGIN
1070
    73
1070
     1
1070
    44
1040
1.0
1070
    74
1070
     0
1000
MTEXTEND
  0
POINT
  5
1CB3
330
45A
100
AcDbEntity
  8
Defpoints
 62
     0
100
AcDbPoint
 10
440.635782713377
 20
1524.222941473464
 30
0.0
  0
POINT
  5
1CB4
330
45A
100
AcDbEntity
  8
Defpoints
 62
     0
100
AcDbPoint
 10
440.635782713377
 20
1084.222941473464
 30
0.0
  0
POINT
  5
1CB5
330
45A
100
AcDbEntity
  8
Defpoints
 62
     0
100
AcDbPoint
 10
260.3476796122604
 20
1084.222941473464
 30
0.0
  0
ENDBLK
  5
465
330
45A
100
AcDbEntity
  8
0
100
AcDbBlockEnd
  0
BLOCK
  5
471
330
467
100
AcDbEntity
  8
0
100
AcDbBlockBegin
  2
*D8
 70
     1
 10
0.0
 20
0.0
 30
0.0
  3
*D8
  1

  0
LINE
  5
1CB6
330
467
100
AcDbEntity
  8
寸法
 62
     0
370
    15
100
AcDbLine
 10
375.635782713377
 20
1524.222941473464
 30
0.0
 11
260.3476796122604
 21
1524.222941473464
 31
0.0
  0
LINE
  5
1CB7
330
467
100
AcDbEntity
  8
寸法
 62
     0
370
    15
100
AcDbLine
 10
375.635782713377
 20
1604.222941473464
 30
0.0
 11
260.3476796122604
 21
1604.222941473464
 31
0.0
  0
LINE
  5
1CB8
330
467
100
AcDbEntity
  8
寸法
 62
     0
370
    15
100
AcDbLine
 10
260.3476796122604
 20
1524.222941473464
 30
0.0
 11
260.3476796122604
 21
1604.222941473464
 31
0.0
  0
INSERT
  5
1CB9
330
467
100
AcDbEntity
  8
寸法
 62
     0
370
    15
100
AcDbBlockReference
  2
_DotSmall
 10
260.3476796122604
 20
1524.222941473464
 30
0.0
 41
35.0
 42
35.0
 43
35.0
 50
270.0
  0
INSERT
  5
1CBA
330
467
100
AcDbEntity
  8
寸法
 62
     0
370
    15
100
AcDbBlockReference
  2
_DotSmall
 10
260.3476796122604
 20
1604.222941473464
 30
0.0
 41
35.0
 42
35.0
 43
35.0
 50
90.0
  0
MTEXT
  5
1CBB
330
467
100
AcDbEntity
  8
寸法
 62
     0
100
AcDbMText
 10
241.5976796122602
 20
1564.222941473464
 30
0.0
 40
25.0
 41
0.0
 71
     5
 72
     1
  1
80
 11
0.0000000000000001
 21
1.0
 31
0.0
 73
     1
 44
1.0
1001
ACAD
1000
MTEXTBEGIN
1070
    73
1070
     1
1070
    44
1040
1.0
1070
    74
1070
     0
1000
MTEXTEND
  0
POINT
  5
1CBC
330
467
100
AcDbEntity
  8
Defpoints
 62
     0
100
AcDbPoint
 10
440.635782713377
 20
1524.222941473464
 30
0.0
  0
POINT
  5
1CBD
330
467
100
AcDbEntity
  8
Defpoints
 62
     0
100
AcDbPoint
 10
440.635782713377
 20
1604.222941473464
 30
0.0
  0
POINT
  5
1CBE
330
467
100
AcDbEntity
  8
Defpoints
 62
     0
100
AcDbPoint
 10
260.3476796122604
 20
1604.222941473464
 30
0.0
  0
ENDBLK
  5
472
330
467
100
AcDbEntity
  8
0
100
AcDbBlockEnd
  0
BLOCK
  5
487
330
47D
100
AcDbEntity
  8
0
100
AcDbBlockBegin
  2
*D9
 70
     1
 10
0.0
 20
0.0
 30
0.0
  3
*D9
  1

  0
LINE
  5
1CBF
330
47D
100
AcDbEntity
  8
寸法
 62
     0
370
    15
100
AcDbLine
 10
375.635782713377
 20
1604.222941473464
 30
0.0
 11
260.3476796122604
 21
1604.222941473464
 31
0.0
  0
LINE
  5
1CC0
330
47D
100
AcDbEntity
  8
寸法
 62
     0
370
    15
100
AcDbLine
 10
375.635782713377
 20
1619.222941473464
 30
0.0
 11
260.3476796122604
 21
1619.222941473464
 31
0.0
  0
LINE
  5
1CC1
330
47D
100
AcDbEntity
  8
寸法
 62
     0
370
    15
100
AcDbLine
 10
260.3476796122604
 20
1604.222941473464
 30
0.0
 11
260.3476796122604
 21
1619.222941473464
 31
0.0
  0
MTEXT
  5
1CC2
330
47D
100
AcDbEntity
  8
寸法
 62
     0
100
AcDbMText
 10
252.1127699176623
 20
1646.149660753797
 30
0.0
 40
25.0
 41
0.0
 71
     5
 72
     1
  1
15
 11
0.0000000000000001
 21
1.0
 31
0.0
 73
     1
 44
1.0
1001
ACAD
1000
MTEXTBEGIN
1070
    73
1070
     1
1070
    44
1040
1.0
1070
    74
1070
     0
1000
MTEXTEND
  0
INSERT
  5
1CC3
330
47D
100
AcDbEntity
  8
寸法
 62
     0
370
    15
100
AcDbBlockReference
  2
_DotSmall
 10
260.3476796122604
 20
1604.222941473464
 30
0.0
 41
35.0
 42
35.0
 43
35.0
 50
270.0
  0
INSERT
  5
1CC4
330
47D
100
AcDbEntity
  8
寸法
 62
     0
370
    15
100
AcDbBlockReference
  2
_DotSmall
 10
260.3476796122604
 20
1619.222941473464
 30
0.0
 41
35.0
 42
35.0
 43
35.0
 50
90.0
  0
POINT
  5
1CC5
330
47D
100
AcDbEntity
  8
Defpoints
 62
     0
100
AcDbPoint
 10
440.635782713377
 20
1604.222941473464
 30
0.0
  0
POINT
  5
1CC6
330
47D
100
AcDbEntity
  8
Defpoints
 62
     0
100
AcDbPoint
 10
440.635782713377
 20
1619.222941473464
 30
0.0
  0
POINT
  5
1CC7
330
47D
100
AcDbEntity
  8
Defpoints
 62
     0
100
AcDbPoint
 10
260.3476796122604
 20
1619.222941473464
 30
0.0
  0
ENDBLK
  5
488
330
47D
100
AcDbEntity
  8
0
100
AcDbBlockEnd
  0
BLOCK
  5
49D
330
493
100
AcDbEntity
  8
0
100
AcDbBlockBegin
  2
*D10
 70
     1
 10
0.0
 20
0.0
 30
0.0
  3
*D10
  1

  0
LINE
  5
1CC8
330
493
100
AcDbEntity
  8
寸法
 62
     0
370
    15
100
AcDbLine
 10
375.635782713377
 20
1619.222941473464
 30
0.0
 11
182.7988959020823
 21
1619.222941473464
 31
0.0
  0
LINE
  5
1CC9
330
493
100
AcDbEntity
  8
寸法
 62
     0
370
    15
100
AcDbLine
 10
375.635782713377
 20
1069.222941473464
 30
0.0
 11
182.7988959020822
 21
1069.222941473464
 31
0.0
  0
LINE
  5
1CCA
330
493
100
AcDbEntity
  8
寸法
 62
     0
370
    15
100
AcDbLine
 10
182.7988959020823
 20
1619.222941473464
 30
0.0
 11
182.7988959020822
 21
1069.222941473464
 31
0.0
  0
INSERT
  5
1CCB
330
493
100
AcDbEntity
  8
寸法
 62
     0
370
    15
100
AcDbBlockReference
  2
_DotSmall
 10
182.7988959020823
 20
1619.222941473464
 30
0.0
 41
35.0
 42
35.0
 43
35.0
 50
90.0
  0
INSERT
  5
1CCC
330
493
100
AcDbEntity
  8
寸法
 62
     0
370
    15
100
AcDbBlockReference
  2
_DotSmall
 10
182.7988959020822
 20
1069.222941473464
 30
0.0
 41
35.0
 42
35.0
 43
35.0
 50
270.0
  0
MTEXT
  5
1CCD
330
493
100
AcDbEntity
  8
寸法
 62
     0
100
AcDbMText
 10
164.0488959020821
 20
1344.222941473464
 30
0.0
 40
25.0
 41
0.0
 71
     5
 72
     1
  1
550
 11
0.0000000000000001
 21
1.0
 31
0.0
 73
     1
 44
1.0
1001
ACAD
1000
MTEXTBEGIN
1070
    73
1070
     1
1070
    44
1040
1.0
1070
    74
1070
     0
1000
MTEXTEND
  0
POINT
  5
1CCE
330
493
100
AcDbEntity
  8
Defpoints
 62
     0
100
AcDbPoint
 10
440.635782713377
 20
1619.222941473464
 30
0.0
  0
POINT
  5
1CCF
330
493
100
AcDbEntity
  8
Defpoints
 62
     0
100
AcDbPoint
 10
440.635782713377
 20
1069.222941473464
 30
0.0
  0
POINT
  5
1CD0
330
493
100
AcDbEntity
  8
Defpoints
 62
     0
100
AcDbPoint
 10
182.7988959020822
 20
1069.222941473464
 30
0.0
  0
ENDBLK
  5
49E
330
493
100
AcDbEntity
  8
0
100
AcDbBlockEnd
  0
BLOCK
  5
4CF
330
4C4
100
AcDbEntity
  8
0
100
AcDbBlockBegin
  2
*D11
 70
     1
 10
0.0
 20
0.0
 30
0.0
  3
*D11
  1

  0
LINE
  5
1CD1
330
4C4
100
AcDbEntity
  8
寸法
 62
     0
370
    15
100
AcDbLine
 10
375.635782713377
 20
1084.222941473464
 30
0.0
 11
260.3476796122604
 21
1084.222941473464
 31
0.0
  0
LINE
  5
1CD2
330
4C4
100
AcDbEntity
  8
寸法
 62
     0
370
    15
100
AcDbLine
 10
375.635782713377
 20
1069.222941473464
 30
0.0
 11
260.3476796122604
 21
1069.222941473464
 31
0.0
  0
LINE
  5
1CD3
330
4C4
100
AcDbEntity
  8
寸法
 62
     0
370
    15
100
AcDbLine
 10
260.3476796122604
 20
1084.222941473464
 30
0.0
 11
260.3476796122604
 21
1069.222941473464
 31
0.0
  0
MTEXT
  5
1CD4
330
4C4
100
AcDbEntity
  8
寸法
 62
     0
100
AcDbMText
 10
232.3848934190646
 20
1096.663048930046
 30
0.0
 40
25.0
 41
0.0
 71
     5
 72
     1
  1
15
 11
0.0000000000000001
 21
1.0
 31
0.0
 73
     1
 44
1.0
1001
ACAD
1000
MTEXTBEGIN
1070
    73
1070
     1
1070
    44
1040
1.0
1070
    74
1070
     0
1000
MTEXTEND
  0
INSERT
  5
1CD5
330
4C4
100
AcDbEntity
  8
寸法
 62
     0
370
    15
100
AcDbBlockReference
  2
_DotSmall
 10
260.3476796122604
 20
1084.222941473464
 30
0.0
 41
35.0
 42
35.0
 43
35.0
 50
90.0
  0
INSERT
  5
1CD6
330
4C4
100
AcDbEntity
  8
寸法
 62
     0
370
    15
100
AcDbBlockReference
  2
_DotSmall
 10
260.3476796122604
 20
1069.222941473464
 30
0.0
 41
35.0
 42
35.0
 43
35.0
 50
270.0
  0
POINT
  5
1CD7
330
4C4
100
AcDbEntity
  8
Defpoints
 62
     0
100
AcDbPoint
 10
440.635782713377
 20
1084.222941473464
 30
0.0
  0
POINT
  5
1CD8
330
4C4
100
AcDbEntity
  8
Defpoints
 62
     0
100
AcDbPoint
 10
440.635782713377
 20
1069.222941473464
 30
0.0
  0
POINT
  5
1CD9
330
4C4
100
AcDbEntity
  8
Defpoints
 62
     0
100
AcDbPoint
 10
260.3476796122604
 20
1069.222941473464
 30
0.0
  0
ENDBLK
  5
4D0
330
4C4
100
AcDbEntity
  8
0
100
AcDbBlockEnd
  0
BLOCK
  5
4F1
330
4E6
100
AcDbEntity
  8
0
100
AcDbBlockBegin
  2
*D12
 70
     1
 10
0.0
 20
0.0
 30
0.0
  3
*D12
  1

  0
LINE
  5
1CDA
330
4E6
100
AcDbEntity
  8
寸法
 62
     0
370
    15
100
AcDbLine
 10
440.635782713377
 20
1004.222941473464
 30
0.0
 11
440.635782713377
 21
951.9996160725586
 31
0.0
  0
LINE
  5
1CDB
330
4E6
100
AcDbEntity
  8
寸法
 62
     0
370
    15
100
AcDbLine
 10
455.635782713377
 20
1004.222941473464
 30
0.0
 11
455.635782713377
 21
951.9996160725586
 31
0.0
  0
LINE
  5
1CDC
330
4E6
100
AcDbEntity
  8
寸法
 62
     0
370
    15
100
AcDbLine
 10
440.635782713377
 20
951.9996160725586
 30
0.0
 11
455.635782713377
 21
951.9996160725586
 31
0.0
  0
MTEXT
  5
1CDD
330
4E6
100
AcDbEntity
  8
寸法
 62
     0
100
AcDbMText
 10
491.5302041006253
 20
971.5474951746273
 30
0.0
 40
25.0
 41
0.0
 71
     5
 72
     1
  1
15
 73
     1
 44
1.0
1001
ACAD
1000
MTEXTBEGIN
1070
    73
1070
     1
1070
    44
1040
1.0
1070
    74
1070
     0
1000
MTEXTEND
  0
INSERT
  5
1CDE
330
4E6
100
AcDbEntity
  8
寸法
 62
     0
370
    15
100
AcDbBlockReference
  2
_DotSmall
 10
440.635782713377
 20
951.9996160725586
 30
0.0
 41
35.0
 42
35.0
 43
35.0
 50
180.0
  0
INSERT
  5
1CDF
330
4E6
100
AcDbEntity
  8
寸法
 62
     0
370
    15
100
AcDbBlockReference
  2
_DotSmall
 10
455.635782713377
 20
951.9996160725586
 30
0.0
 41
35.0
 42
35.0
 43
35.0
  0
POINT
  5
1CE0
330
4E6
100
AcDbEntity
  8
Defpoints
 62
     0
100
AcDbPoint
 10
440.635782713377
 20
1069.222941473464
 30
0.0
  0
POINT
  5
1CE1
330
4E6
100
AcDbEntity
  8
Defpoints
 62
     0
100
AcDbPoint
 10
455.635782713377
 20
1069.222941473464
 30
0.0
  0
POINT
  5
1CE2
330
4E6
100
AcDbEntity
  8
Defpoints
 62
     0
100
AcDbPoint
 10
455.635782713377
 20
951.9996160725586
 30
0.0
  0
ENDBLK
  5
4F2
330
4E6
100
AcDbEntity
  8
0
100
AcDbBlockEnd
  0
BLOCK
  5
508
330
4FE
100
AcDbEntity
  8
0
100
AcDbBlockBegin
  2
*D13
 70
     1
 10
0.0
 20
0.0
 30
0.0
  3
*D13
  1

  0
LINE
  5
1CE3
330
4FE
100
AcDbEntity
  8
寸法
 62
     0
370
    15
100
AcDbLine
 10
455.635782713377
 20
1004.222941473464
 30
0.0
 11
455.635782713377
 21
951.9996160725586
 31
0.0
  0
LINE
  5
1CE4
330
4FE
100
AcDbEntity
  8
寸法
 62
     0
370
    15
100
AcDbLine
 10
1405.635782713377
 20
1004.222941473464
 30
0.0
 11
1405.635782713377
 21
951.9996160725586
 31
0.0
  0
LINE
  5
1CE5
330
4FE
100
AcDbEntity
  8
寸法
 62
     0
370
    15
100
AcDbLine
 10
455.635782713377
 20
951.9996160725586
 30
0.0
 11
1405.635782713377
 21
951.9996160725586
 31
0.0
  0
INSERT
  5
1CE6
330
4FE
100
AcDbEntity
  8
寸法
 62
     0
370
    15
100
AcDbBlockReference
  2
_DotSmall
 10
455.635782713377
 20
951.9996160725586
 30
0.0
 41
35.0
 42
35.0
 43
35.0
 50
180.0
  0
INSERT
  5
1CE7
330
4FE
100
AcDbEntity
  8
寸法
 62
     0
370
    15
100
AcDbBlockReference
  2
_DotSmall
 10
1405.635782713377
 20
951.9996160725586
 30
0.0
 41
35.0
 42
35.0
 43
35.0
  0
MTEXT
  5
1CE8
330
4FE
100
AcDbEntity
  8
寸法
 62
     0
100
AcDbMText
 10
930.6357827133769
 20
970.7496160725586
 30
0.0
 40
25.0
 41
0.0
 71
     5
 72
     1
  1
950
 73
     1
 44
1.0
1001
ACAD
1000
MTEXTBEGIN
1070
    73
1070
     1
1070
    44
1040
1.0
1070
    74
1070
     0
1000
MTEXTEND
  0
POINT
  5
1CE9
330
4FE
100
AcDbEntity
  8
Defpoints
 62
     0
100
AcDbPoint
 10
455.635782713377
 20
1069.222941473464
 30
0.0
  0
POINT
  5
1CEA
330
4FE
100
AcDbEntity
  8
Defpoints
 62
     0
100
AcDbPoint
 10
1405.635782713377
 20
1069.222941473464
 30
0.0
  0
POINT
  5
1CEB
330
4FE
100
AcDbEntity
  8
Defpoints
 62
     0
100
AcDbPoint
 10
1405.635782713377
 20
951.9996160725586
 30
0.0
  0
ENDBLK
  5
509
330
4FE
100
AcDbEntity
  8
0
100
AcDbBlockEnd
  0
BLOCK
  5
517
330
50B
100
AcDbEntity
  8
0
100
AcDbBlockBegin
  2
*D14
 70
     1
 10
0.0
 20
0.0
 30
0.0
  3
*D14
  1

  0
LINE
  5
1CEC
330
50B
100
AcDbEntity
  8
寸法
 62
     0
370
    15
100
AcDbLine
 10
1405.635782713377
 20
1004.222941473464
 30
0.0
 11
1405.635782713377
 21
951.9996160725586
 31
0.0
  0
LINE
  5
1CED
330
50B
100
AcDbEntity
  8
寸法
 62
     0
370
    15
100
AcDbLine
 10
1420.635782713377
 20
1004.222941473464
 30
0.0
 11
1420.635782713377
 21
951.9996160725586
 31
0.0
  0
LINE
  5
1CEE
330
50B
100
AcDbEntity
  8
寸法
 62
     0
370
    15
100
AcDbLine
 10
1405.635782713377
 20
951.9996160725586
 30
0.0
 11
1420.635782713377
 21
951.9996160725586
 31
0.0
  0
MTEXT
  5
1CEF
330
50B
100
AcDbEntity
  8
寸法
 62
     0
100
AcDbMText
 10
1364.003004906638
 20
970.7496160725586
 30
0.0
 40
25.0
 41
0.0
 71
     5
 72
     1
  1
15
 73
     1
 44
1.0
1001
ACAD
1000
MTEXTBEGIN
1070
    73
1070
     1
1070
    44
1040
1.0
1070
    74
1070
     0
1000
MTEXTEND
  0
INSERT
  5
1CF0
330
50B
100
AcDbEntity
  8
寸法
 62
     0
370
    15
100
AcDbBlockReference
  2
_DotSmall
 10
1405.635782713377
 20
951.9996160725586
 30
0.0
 41
35.0
 42
35.0
 43
35.0
 50
180.0
  0
INSERT
  5
1CF1
330
50B
100
AcDbEntity
  8
寸法
 62
     0
370
    15
100
AcDbBlockReference
  2
_DotSmall
 10
1420.635782713377
 20
951.9996160725586
 30
0.0
 41
35.0
 42
35.0
 43
35.0
  0
POINT
  5
1CF2
330
50B
100
AcDbEntity
  8
Defpoints
 62
     0
100
AcDbPoint
 10
1405.635782713377
 20
1069.222941473464
 30
0.0
  0
POINT
  5
1CF3
330
50B
100
AcDbEntity
  8
Defpoints
 62
     0
100
AcDbPoint
 10
1420.635782713377
 20
1069.222941473464
 30
0.0
  0
POINT
  5
1CF4
330
50B
100
AcDbEntity
  8
Defpoints
 62
     0
100
AcDbPoint
 10
1420.635782713377
 20
951.9996160725586
 30
0.0
  0
ENDBLK
  5
518
330
50B
100
AcDbEntity
  8
0
100
AcDbBlockEnd
  0
BLOCK
  5
52D
330
523
100
AcDbEntity
  8
0
100
AcDbBlockBegin
  2
*D15
 70
     1
 10
0.0
 20
0.0
 30
0.0
  3
*D15
  1

  0
LINE
  5
1CF5
330
523
100
AcDbEntity
  8
寸法
 62
     0
370
    15
100
AcDbLine
 10
440.635782713377
 20
1004.222941473464
 30
0.0
 11
440.635782713377
 21
877.8792008388991
 31
0.0
  0
LINE
  5
1CF6
330
523
100
AcDbEntity
  8
寸法
 62
     0
370
    15
100
AcDbLine
 10
1420.635782713377
 20
1004.222941473464
 30
0.0
 11
1420.635782713377
 21
877.8792008388991
 31
0.0
  0
LINE
  5
1CF7
330
523
100
AcDbEntity
  8
寸法
 62
     0
370
    15
100
AcDbLine
 10
440.635782713377
 20
877.8792008388991
 30
0.0
 11
1420.635782713377
 21
877.8792008388991
 31
0.0
  0
INSERT
  5
1CF8
330
523
100
AcDbEntity
  8
寸法
 62
     0
370
    15
100
AcDbBlockReference
  2
_DotSmall
 10
440.635782713377
 20
877.8792008388991
 30
0.0
 41
35.0
 42
35.0
 43
35.0
 50
180.0
  0
INSERT
  5
1CF9
330
523
100
AcDbEntity
  8
寸法
 62
     0
370
    15
100
AcDbBlockReference
  2
_DotSmall
 10
1420.635782713377
 20
877.8792008388991
 30
0.0
 41
35.0
 42
35.0
 43
35.0
  0
MTEXT
  5
1CFA
330
523
100
AcDbEntity
  8
寸法
 62
     0
100
AcDbMText
 10
930.6357827133769
 20
896.6292008388991
 30
0.0
 40
25.0
 41
0.0
 71
     5
 72
     1
  1
980
 73
     1
 44
1.0
1001
ACAD
1000
MTEXTBEGIN
1070
    73
1070
     1
1070
    44
1040
1.0
1070
    74
1070
     0
1000
MTEXTEND
  0
POINT
  5
1CFB
330
523
100
AcDbEntity
  8
Defpoints
 62
     0
100
AcDbPoint
 10
440.635782713377
 20
1069.222941473464
 30
0.0
  0
POINT
  5
1CFC
330
523
100
AcDbEntity
  8
Defpoints
 62
     0
100
AcDbPoint
 10
1420.635782713377
 20
1069.222941473464
 30
0.0
  0
POINT
  5
1CFD
330
523
100
AcDbEntity
  8
Defpoints
 62
     0
100
AcDbPoint
 10
1420.635782713377
 20
877.8792008388991
 30
0.0
  0
ENDBLK
  5
52E
330
523
100
AcDbEntity
  8
0
100
AcDbBlockEnd
  0
BLOCK
  5
1A7B
330
1A71
100
AcDbEntity
  8
0
100
AcDbBlockBegin
  2
*D16
 70
     1
 10
0.0
 20
0.0
 30
0.0
  3
*D16
  1

  0
LINE
  5
1CFE
330
1A71
100
AcDbEntity
  8
実形
 62
     0
370
    15
100
AcDbLine
 10
995.635782713377
 20
1509.222941473465
 30
0.0
 11
1184.706496228195
 21
1509.222941473465
 31
0.0
  0
LINE
  5
1CFF
330
1A71
100
AcDbEntity
  8
実形
 62
     0
370
    15
100
AcDbLine
 10
1067.555958625354
 20
1359.222941473466
 30
0.0
 11
1184.706496228195
 21
1359.222941473466
 31
0.0
  0
LINE
  5
1D00
330
1A71
100
AcDbEntity
  8
実形
 62
     0
370
    15
100
AcDbLine
 10
1184.706496228195
 20
1509.222941473465
 30
0.0
 11
1184.706496228195
 21
1359.222941473466
 31
0.0
  0
INSERT
  5
1D01
330
1A71
100
AcDbEntity
  8
実形
 62
     0
370
    15
100
AcDbBlockReference
  2
_DotSmall
 10
1184.706496228195
 20
1509.222941473465
 30
0.0
 41
35.0
 42
35.0
 43
35.0
 50
90.0
  0
INSERT
  5
1D02
330
1A71
100
AcDbEntity
  8
実形
 62
     0
370
    15
100
AcDbBlockReference
  2
_DotSmall
 10
1184.706496228195
 20
1359.222941473466
 30
0.0
 41
35.0
 42
35.0
 43
35.0
 50
270.0
  0
MTEXT
  5
1D03
330
1A71
100
AcDbEntity
  8
実形
 62
     0
100
AcDbMText
 10
1165.956496228194
 20
1434.222941473466
 30
0.0
 40
25.0
 41
0.0
 71
     5
 72
     1
  1
150
 11
0.0000000000000001
 21
1.0
 31
0.0
 73
     1
 44
1.0
1001
ACAD
1000
MTEXTBEGIN
1070
    73
1070
     1
1070
    44
1040
1.0
1070
    74
1070
     0
1000
MTEXTEND
  0
POINT
  5
1D04
330
1A71
100
AcDbEntity
  8
Defpoints
 62
     0
100
AcDbPoint
 10
930.6357827133769
 20
1509.222941473465
 30
0.0
  0
POINT
  5
1D05
330
1A71
100
AcDbEntity
  8
Defpoints
 62
     0
100
AcDbPoint
 10
1002.555958625355
 20
1359.222941473466
 30
0.0
  0
POINT
  5
1D06
330
1A71
100
AcDbEntity
  8
Defpoints
 62
     0
100
AcDbPoint
 10
1184.706496228195
 20
1359.222941473466
 30
0.0
  0
ENDBLK
  5
1A7C
330
1A71
100
AcDbEntity
  8
0
100
AcDbBlockEnd
  0
BLOCK
  5
1AE0
330
1AD6
100
AcDbEntity
  8
0
100
AcDbBlockBegin
  2
*D17
 70
     1
 10
0.0
 20
0.0
 30
0.0
  3
*D17
  1

  0
LINE
  5
1D07
330
1AD6
100
AcDbEntity
  8
実形
 62
     0
370
    15
100
AcDbLine
 10
930.6357827133769
 20
1294.222941473466
 30
0.0
 11
930.6357827133769
 21
1311.322362751052
 31
0.0
  0
LINE
  5
1D08
330
1AD6
100
AcDbEntity
  8
実形
 62
     0
370
    15
100
AcDbLine
 10
455.6357827133772
 20
1369.222941473464
 30
0.0
 11
455.6357827133772
 21
1311.322362751052
 31
0.0
  0
LINE
  5
1D09
330
1AD6
100
AcDbEntity
  8
実形
 62
     0
370
    15
100
AcDbLine
 10
930.6357827133769
 20
1311.322362751052
 30
0.0
 11
455.6357827133772
 21
1311.322362751052
 31
0.0
  0
INSERT
  5
1D0A
330
1AD6
100
AcDbEntity
  8
実形
 62
     0
370
    15
100
AcDbBlockReference
  2
_DotSmall
 10
930.6357827133769
 20
1311.322362751052
 30
0.0
 41
35.0
 42
35.0
 43
35.0
  0
INSERT
  5
1D0B
330
1AD6
100
AcDbEntity
  8
実形
 62
     0
370
    15
100
AcDbBlockReference
  2
_DotSmall
 10
455.6357827133772
 20
1311.322362751052
 30
0.0
 41
35.0
 42
35.0
 43
35.0
 50
180.0
  0
MTEXT
  5
1D0C
330
1AD6
100
AcDbEntity
  8
実形
 62
     0
100
AcDbMText
 10
693.1357827133771
 20
1330.072362751052
 30
0.0
 40
25.0
 41
0.0
 71
     5
 72
     1
  1
475
 73
     1
 44
1.0
1001
ACAD
1000
MTEXTBEGIN
1070
    73
1070
     1
1070
    44
1040
1.0
1070
    74
1070
     0
1000
MTEXTEND
  0
POINT
  5
1D0D
330
1AD6
100
AcDbEntity
  8
Defpoints
 62
     0
100
AcDbPoint
 10
930.6357827133769
 20
1359.222941473466
 30
0.0
  0
POINT
  5
1D0E
330
1AD6
100
AcDbEntity
  8
Defpoints
 62
     0
100
AcDbPoint
 10
455.6357827133772
 20
1304.222941473464
 30
0.0
  0
POINT
  5
1D0F
330
1AD6
100
AcDbEntity
  8
Defpoints
 62
     0
100
AcDbPoint
 10
455.6357827133772
 20
1311.322362751052
 30
0.0
  0
ENDBLK
  5
1AE1
330
1AD6
100
AcDbEntity
  8
0
100
AcDbBlockEnd
  0
BLOCK
  5
1D46
330
1D3C
100
AcDbEntity
  8
0
100
AcDbBlockBegin
  2
*D20
 70
     1
 10
0.0
 20
0.0
 30
0.0
  3
*D20
  1

  0
LINE
  5
1DA8
330
1D3C
100
AcDbEntity
  8
実形
 62
     0
370
    15
100
AcDbLine
 10
421.6357827133769
 20
1714.354145177377
 30
0.0
 11
421.6357827133769
 21
1748.115170324802
 31
0.0
  0
LINE
  5
1DA9
330
1D3C
100
AcDbEntity
  8
実形
 62
     0
370
    15
100
AcDbLine
 10
455.635782713377
 20
1714.354145177377
 30
0.0
 11
455.635782713377
 21
1748.115170324802
 31
0.0
  0
LINE
  5
1DAA
330
1D3C
100
AcDbEntity
  8
実形
 62
     0
370
    15
100
AcDbLine
 10
421.6357827133769
 20
1748.115170324802
 30
0.0
 11
455.635782713377
 21
1748.115170324802
 31
0.0
  0
MTEXT
  5
1DAB
330
1D3C
100
AcDbEntity
  8
実形
 62
     0
100
AcDbMText
 10
454.2904505930064
 20
1783.115170324802
 30
0.0
 40
25.0
 41
0.0
 71
     5
 72
     1
  1
35
 73
     1
 44
1.0
1001
ACAD
1000
MTEXTBEGIN
1070
    73
1070
     1
1070
    44
1040
1.0
1070
    74
1070
     0
1000
MTEXTEND
  0
INSERT
  5
1DAC
330
1D3C
100
AcDbEntity
  8
実形
 62
     0
370
    15
100
AcDbBlockReference
  2
_DotSmall
 10
421.6357827133769
 20
1748.115170324802
 30
0.0
 41
35.0
 42
35.0
 43
35.0
 50
180.0
  0
INSERT
  5
1DAD
330
1D3C
100
AcDbEntity
  8
実形
 62
     0
370
    15
100
AcDbBlockReference
  2
_DotSmall
 10
455.635782713377
 20
1748.115170324802
 30
0.0
 41
35.0
 42
35.0
 43
35.0
  0
POINT
  5
1DAE
330
1D3C
100
AcDbEntity
  8
Defpoints
 62
     0
100
AcDbPoint
 10
421.6357827133769
 20
1649.354145177377
 30
0.0
  0
POINT
  5
1DAF
330
1D3C
100
AcDbEntity
  8
Defpoints
 62
     0
100
AcDbPoint
 10
455.635782713377
 20
1649.354145177377
 30
0.0
  0
POINT
  5
1DB0
330
1D3C
100
AcDbEntity
  8
Defpoints
 62
     0
100
AcDbPoint
 10
455.635782713377
 20
1748.115170324802
 30
0.0
  0
ENDBLK
  5
1D47
330
1D3C
100
AcDbEntity
  8
0
100
AcDbBlockEnd
  0
BLOCK
  5
1D65
330
1D5B
100
AcDbEntity
  8
0
100
AcDbBlockBegin
  2
*D21
 70
     1
 10
0.0
 20
0.0
 30
0.0
  3
*D21
  1

  0
LINE
  5
1DB1
330
1D5B
100
AcDbEntity
  8
実形
 62
     0
370
    15
100
AcDbLine
 10
1405.635782713377
 20
1714.354145177377
 30
0.0
 11
1405.635782713377
 21
1748.115170324802
 31
0.0
  0
LINE
  5
1DB2
330
1D5B
100
AcDbEntity
  8
実形
 62
     0
370
    15
100
AcDbLine
 10
1439.635782713376
 20
1714.354145177377
 30
0.0
 11
1439.635782713376
 21
1748.115170324802
 31
0.0
  0
LINE
  5
1DB3
330
1D5B
100
AcDbEntity
  8
実形
 62
     0
370
    15
100
AcDbLine
 10
1405.635782713377
 20
1748.115170324802
 30
0.0
 11
1439.635782713376
 21
1748.115170324802
 31
0.0
  0
MTEXT
  5
1DB4
330
1D5B
100
AcDbEntity
  8
実形
 62
     0
100
AcDbMText
 10
1395.545623202714
 20
1783.115170324802
 30
0.0
 40
25.0
 41
0.0
 71
     5
 72
     1
  1
35
 73
     1
 44
1.0
1001
ACAD
1000
MTEXTBEGIN
1070
    73
1070
     1
1070
    44
1040
1.0
1070
    74
1070
     0
1000
MTEXTEND
  0
INSERT
  5
1DB5
330
1D5B
100
AcDbEntity
  8
実形
 62
     0
370
    15
100
AcDbBlockReference
  2
_DotSmall
 10
1405.635782713377
 20
1748.115170324802
 30
0.0
 41
35.0
 42
35.0
 43
35.0
 50
180.0
  0
INSERT
  5
1DB6
330
1D5B
100
AcDbEntity
  8
実形
 62
     0
370
    15
100
AcDbBlockReference
  2
_DotSmall
 10
1439.635782713376
 20
1748.115170324802
 30
0.0
 41
35.0
 42
35.0
 43
35.0
  0
POINT
  5
1DB7
330
1D5B
100
AcDbEntity
  8
Defpoints
 62
     0
100
AcDbPoint
 10
1405.635782713377
 20
1649.354145177377
 30
0.0
  0
POINT
  5
1DB8
330
1D5B
100
AcDbEntity
  8
Defpoints
 62
     0
100
AcDbPoint
 10
1439.635782713376
 20
1649.354145177377
 30
0.0
  0
POINT
  5
1DB9
330
1D5B
100
AcDbEntity
  8
Defpoints
 62
     0
100
AcDbPoint
 10
1439.635782713376
 20
1748.115170324802
 30
0.0
  0
ENDBLK
  5
1D66
330
1D5B
100
AcDbEntity
  8
0
100
AcDbBlockEnd
  0
BLOCK
  5
1D84
330
1D7A
100
AcDbEntity
  8
0
100
AcDbBlockBegin
  2
*D22
 70
     1
 10
0.0
 20
0.0
 30
0.0
  3
*D22
  1

  0
LINE
  5
1DBA
330
1D7A
100
AcDbEntity
  8
実形
 62
     0
370
    15
100
AcDbLine
 10
421.6357827133769
 20
1714.354145177377
 30
0.0
 11
421.6357827133769
 21
1824.146200486717
 31
0.0
  0
LINE
  5
1DBB
330
1D7A
100
AcDbEntity
  8
実形
 62
     0
370
    15
100
AcDbLine
 10
1439.635782713376
 20
1714.354145177377
 30
0.0
 11
1439.635782713376
 21
1824.146200486717
 31
0.0
  0
LINE
  5
1DBC
330
1D7A
100
AcDbEntity
  8
実形
 62
     0
370
    15
100
AcDbLine
 10
421.6357827133769
 20
1824.146200486717
 30
0.0
 11
1439.635782713376
 21
1824.146200486717
 31
0.0
  0
INSERT
  5
1DBD
330
1D7A
100
AcDbEntity
  8
実形
 62
     0
370
    15
100
AcDbBlockReference
  2
_DotSmall
 10
421.6357827133769
 20
1824.146200486717
 30
0.0
 41
35.0
 42
35.0
 43
35.0
 50
180.0
  0
INSERT
  5
1DBE
330
1D7A
100
AcDbEntity
  8
実形
 62
     0
370
    15
100
AcDbBlockReference
  2
_DotSmall
 10
1439.635782713376
 20
1824.146200486717
 30
0.0
 41
35.0
 42
35.0
 43
35.0
  0
MTEXT
  5
1DBF
330
1D7A
100
AcDbEntity
  8
実形
 62
     0
100
AcDbMText
 10
930.6357827133769
 20
1842.896200486717
 30
0.0
 40
25.0
 41
0.0
 71
     5
 72
     1
  1
1018
 73
     1
 44
1.0
1001
ACAD
1000
MTEXTBEGIN
1070
    73
1070
     1
1070
    44
1040
1.0
1070
    74
1070
     0
1000
MTEXTEND
  0
POINT
  5
1DC0
330
1D7A
100
AcDbEntity
  8
Defpoints
 62
     0
100
AcDbPoint
 10
421.6357827133769
 20
1649.354145177377
 30
0.0
  0
POINT
  5
1DC1
330
1D7A
100
AcDbEntity
  8
Defpoints
 62
     0
100
AcDbPoint
 10
1439.635782713376
 20
1649.354145177377
 30
0.0
  0
POINT
  5
1DC2
330
1D7A
100
AcDbEntity
  8
Defpoints
 62
     0
100
AcDbPoint
 10
1439.635782713376
 20
1824.146200486717
 30
0.0
  0
ENDBLK
  5
1D85
330
1D7A
100
AcDbEntity
  8
0
100
AcDbBlockEnd
  0
BLOCK
  5
1D87
330
1D86
100
AcDbEntity
  8
0
100
AcDbBlockBegin
  2
_Dot
 70
     0
 10
0.0
 20
0.0
 30
0.0
  3
_Dot
  1

  0
LWPOLYLINE
  5
1D88
330
1D86
100
AcDbEntity
  8
0
  6
ByBlock
 62
     0
100
AcDbPolyline
 90
        2
 70
     1
 43
0.5
 10
-0.25
 20
0.0
 42
1.0
 10
0.25
 20
0.0
 42
1.0
  0
LINE
  5
1D89
330
1D86
100
AcDbEntity
  8
0
  6
ByBlock
 62
     0
370
    -2
100
AcDbLine
 10
-0.5
 20
0.0
 30
0.0
 11
-1.0
 21
0.0
 31
0.0
  0
ENDBLK
  5
1D8A
330
1D86
100
AcDbEntity
  8
0
100
AcDbBlockEnd
  0
BLOCK
  5
1DF0
330
1DE6
100
AcDbEntity
  8
0
100
AcDbBlockBegin
  2
*D24
 70
     1
 10
0.0
 20
0.0
 30
0.0
  3
*D24
  1

  0
LINE
  5
1E30
330
1DE6
100
AcDbEntity
  8
実形
 62
     0
370
    15
100
AcDbLine
 10
1473.078504513764
 20
1638.222941473464
 30
0.0
 11
1512.751918788039
 21
1638.222941473464
 31
0.0
  0
LINE
  5
1E31
330
1DE6
100
AcDbEntity
  8
実形
 62
     0
370
    15
100
AcDbLine
 10
1473.078504513764
 20
1604.222941473464
 30
0.0
 11
1512.751918788039
 21
1604.222941473464
 31
0.0
  0
LINE
  5
1E32
330
1DE6
100
AcDbEntity
  8
実形
 62
     0
370
    15
100
AcDbLine
 10
1512.751918788039
 20
1638.222941473464
 30
0.0
 11
1512.751918788039
 21
1604.222941473464
 31
0.0
  0
MTEXT
  5
1E33
330
1DE6
100
AcDbEntity
  8
実形
 62
     0
100
AcDbMText
 10
1494.606080000594
 20
1558.83438559693
 30
0.0
 40
25.0
 41
0.0
 71
     5
 72
     1
  1
35
 11
0.0000000000000001
 21
1.0
 31
0.0
 73
     1
 44
1.0
1001
ACAD
1000
MTEXTBEGIN
1070
    73
1070
     1
1070
    44
1040
1.0
1070
    74
1070
     0
1000
MTEXTEND
  0
INSERT
  5
1E34
330
1DE6
100
AcDbEntity
  8
実形
 62
     0
370
    15
100
AcDbBlockReference
  2
_DotSmall
 10
1512.751918788039
 20
1638.222941473464
 30
0.0
 41
35.0
 42
35.0
 43
35.0
 50
90.0
  0
INSERT
  5
1E35
330
1DE6
100
AcDbEntity
  8
実形
 62
     0
370
    15
100
AcDbBlockReference
  2
_DotSmall
 10
1512.751918788039
 20
1604.222941473464
 30
0.0
 41
35.0
 42
35.0
 43
35.0
 50
270.0
  0
POINT
  5
1E36
330
1DE6
100
AcDbEntity
  8
Defpoints
 62
     0
100
AcDbPoint
 10
1408.078504513763
 20
1638.222941473464
 30
0.0
  0
POINT
  5
1E37
330
1DE6
100
AcDbEntity
  8
Defpoints
 62
     0
100
AcDbPoint
 10
1408.078504513763
 20
1604.222941473464
 30
0.0
  0
POINT
  5
1E38
330
1DE6
100
AcDbEntity
  8
Defpoints
 62
     0
100
AcDbPoint
 10
1512.751918788039
 20
1604.222941473464
 30
0.0
  0
ENDBLK
  5
1DF1
330
1DE6
100
AcDbEntity
  8
0
100
AcDbBlockEnd
  0
BLOCK
  5
1DFD
330
1DF3
100
AcDbEntity
  8
0
100
AcDbBlockBegin
  2
*D25
 70
     1
 10
0.0
 20
0.0
 30
0.0
  3
*D25
  1

  0
LINE
  5
1E39
330
1DF3
100
AcDbEntity
  8
実形
 62
     0
370
    15
100
AcDbLine
 10
1473.078504513764
 20
1084.222941473464
 30
0.0
 11
1512.751918788038
 21
1084.222941473464
 31
0.0
  0
LINE
  5
1E3A
330
1DF3
100
AcDbEntity
  8
実形
 62
     0
370
    15
100
AcDbLine
 10
1473.078504513764
 20
1050.222941473464
 30
0.0
 11
1512.751918788038
 21
1050.222941473464
 31
0.0
  0
LINE
  5
1E3B
330
1DF3
100
AcDbEntity
  8
実形
 62
     0
370
    15
100
AcDbLine
 10
1512.751918788038
 20
1084.222941473464
 30
0.0
 11
1512.751918788038
 21
1050.222941473464
 31
0.0
  0
MTEXT
  5
1E3C
330
1DF3
100
AcDbEntity
  8
実形
 62
     0
100
AcDbMText
 10
1490.645332808786
 20
1125.233716570962
 30
0.0
 40
25.0
 41
0.0
 71
     5
 72
     1
  1
35
 11
0.0000000000000001
 21
1.0
 31
0.0
 73
     1
 44
1.0
1001
ACAD
1000
MTEXTBEGIN
1070
    73
1070
     1
1070
    44
1040
1.0
1070
    74
1070
     0
1000
MTEXTEND
  0
INSERT
  5
1E3D
330
1DF3
100
AcDbEntity
  8
実形
 62
     0
370
    15
100
AcDbBlockReference
  2
_DotSmall
 10
1512.751918788038
 20
1084.222941473464
 30
0.0
 41
35.0
 42
35.0
 43
35.0
 50
90.0
  0
INSERT
  5
1E3E
330
1DF3
100
AcDbEntity
  8
実形
 62
     0
370
    15
100
AcDbBlockReference
  2
_DotSmall
 10
1512.751918788038
 20
1050.222941473464
 30
0.0
 41
35.0
 42
35.0
 43
35.0
 50
270.0
  0
POINT
  5
1E3F
330
1DF3
100
AcDbEntity
  8
Defpoints
 62
     0
100
AcDbPoint
 10
1408.078504513763
 20
1084.222941473464
 30
0.0
  0
POINT
  5
1E40
330
1DF3
100
AcDbEntity
  8
Defpoints
 62
     0
100
AcDbPoint
 10
1408.078504513763
 20
1050.222941473464
 30
0.0
  0
POINT
  5
1E41
330
1DF3
100
AcDbEntity
  8
Defpoints
 62
     0
100
AcDbPoint
 10
1512.751918788038
 20
1050.222941473464
 30
0.0
  0
ENDBLK
  5
1DFE
330
1DF3
100
AcDbEntity
  8
0
100
AcDbBlockEnd
  0
BLOCK
  5
1E2E
330
1E24
100
AcDbEntity
  8
0
100
AcDbBlockBegin
  2
*D26
 70
     1
 10
0.0
 20
0.0
 30
0.0
  3
*D26
  1

  0
LINE
  5
1E42
330
1E24
100
AcDbEntity
  8
実形
 62
     0
370
    15
100
AcDbLine
 10
1473.078504513764
 20
1638.222941473464
 30
0.0
 11
1567.455202336523
 21
1638.222941473463
 31
0.0
  0
LINE
  5
1E43
330
1E24
100
AcDbEntity
  8
実形
 62
     0
370
    15
100
AcDbLine
 10
1473.078504513764
 20
1050.222941473464
 30
0.0
 11
1567.455202336523
 21
1050.222941473463
 31
0.0
  0
LINE
  5
1E44
330
1E24
100
AcDbEntity
  8
実形
 62
     0
370
    15
100
AcDbLine
 10
1567.455202336523
 20
1638.222941473463
 30
0.0
 11
1567.455202336523
 21
1050.222941473463
 31
0.0
  0
INSERT
  5
1E45
330
1E24
100
AcDbEntity
  8
実形
 62
     0
370
    15
100
AcDbBlockReference
  2
_DotSmall
 10
1567.455202336523
 20
1638.222941473463
 30
0.0
 41
35.0
 42
35.0
 43
35.0
 50
90.0
  0
INSERT
  5
1E46
330
1E24
100
AcDbEntity
  8
実形
 62
     0
370
    15
100
AcDbBlockReference
  2
_DotSmall
 10
1567.455202336523
 20
1050.222941473463
 30
0.0
 41
35.0
 42
35.0
 43
35.0
 50
270.0
  0
MTEXT
  5
1E47
330
1E24
100
AcDbEntity
  8
実形
 62
     0
100
AcDbMText
 10
1548.705202336523
 20
1344.222941473464
 30
0.0
 40
25.0
 41
0.0
 71
     5
 72
     1
  1
588
 11
0.0000000000000001
 21
1.0
 31
0.0
 73
     1
 44
1.0
1001
ACAD
1000
MTEXTBEGIN
1070
    73
1070
     1
1070
    44
1040
1.0
1070
    74
1070
     0
1000
MTEXTEND
  0
POINT
  5
1E48
330
1E24
100
AcDbEntity
  8
Defpoints
 62
     0
100
AcDbPoint
 10
1408.078504513763
 20
1638.222941473464
 30
0.0
  0
POINT
  5
1E49
330
1E24
100
AcDbEntity
  8
Defpoints
 62
     0
100
AcDbPoint
 10
1408.078504513764
 20
1050.222941473464
 30
0.0
  0
POINT
  5
1E4A
330
1E24
100
AcDbEntity
  8
Defpoints
 62
     0
100
AcDbPoint
 10
1567.455202336523
 20
1050.222941473463
 30
0.0
  0
ENDBLK
  5
1E2F
330
1E24
100
AcDbEntity
  8
0
100
AcDbBlockEnd
  0
BLOCK
  5
2087
330
2080
100
AcDbEntity
  8
0
100
AcDbBlockBegin
  2
*D47
 70
     1
 10
0.0
 20
0.0
 30
0.0
  3
*D47
  1

  0
LINE
  5
216D
330
2080
100
AcDbEntity
  8
実形
 62
     0
370
    13
100
AcDbLine
 10
2090.833877365067
 20
553.2947101512847
 30
0.0
 11
2090.833877365067
 21
467.1003685502147
 31
0.0
  0
LINE
  5
216E
330
2080
100
AcDbEntity
  8
実形
 62
     0
370
    13
100
AcDbLine
 10
2075.233877365067
 20
527.502986728412
 30
0.0
 11
2075.233877365067
 21
467.1003685502147
 31
0.0
  0
MTEXT
  5
216F
330
2080
100
AcDbEntity
  8
実形
 62
     0
100
AcDbMText
 10
2054.88545157578
 20
491.5915116428197
 30
0.0
 40
25.0
 41
0.0
 71
     5
 72
     1
  1
1
 73
     1
 44
1.0
1001
ACAD
1000
MTEXTBEGIN
1070
    73
1070
     1
1070
    44
1040
1.0
1070
    74
1070
     0
1000
MTEXTEND
  0
POINT
  5
2170
330
2080
100
AcDbEntity
  8
Defpoints
 62
     0
100
AcDbPoint
 10
2090.833877365067
 20
559.2947101512846
 30
0.0
  0
POINT
  5
2171
330
2080
100
AcDbEntity
  8
Defpoints
 62
     0
100
AcDbPoint
 10
2075.233877365067
 20
533.5029867284119
 30
0.0
  0
POINT
  5
2172
330
2080
100
AcDbEntity
  8
Defpoints
 62
     0
100
AcDbPoint
 10
2075.233877365067
 20
467.1003685502147
 30
0.0
  0
ENDBLK
  5
2088
330
2080
100
AcDbEntity
  8
0
100
AcDbBlockEnd
  0
BLOCK
  5
2093
330
2089
100
AcDbEntity
  8
0
100
AcDbBlockBegin
  2
*D48
 70
     1
 10
0.0
 20
0.0
 30
0.0
  3
*D48
  1

  0
LINE
  5
2173
330
2089
100
AcDbEntity
  8
実形
 62
     0
370
    18
100
AcDbLine
 10
2090.833877365066
 20
591.9073852958003
 30
0.0
 11
2090.833877365066
 21
617.1548568615962
 31
0.0
  0
LINE
  5
2174
330
2089
100
AcDbEntity
  8
実形
 62
     0
370
    18
100
AcDbLine
 10
2324.833877365066
 20
591.9073852958003
 30
0.0
 11
2324.833877365066
 21
617.1548568615962
 31
0.0
  0
LINE
  5
2175
330
2089
100
AcDbEntity
  8
実形
 62
     0
370
    18
100
AcDbLine
 10
2090.833877365066
 20
617.1548568615962
 30
0.0
 11
2324.833877365066
 21
617.1548568615962
 31
0.0
  0
INSERT
  5
2176
330
2089
100
AcDbEntity
  8
実形
 62
     0
370
    18
100
AcDbBlockReference
  2
_DotSmall
 10
2090.833877365066
 20
617.1548568615962
 30
0.0
 41
35.0
 42
35.0
 43
35.0
 50
180.0
  0
INSERT
  5
2177
330
2089
100
AcDbEntity
  8
実形
 62
     0
370
    18
100
AcDbBlockReference
  2
_DotSmall
 10
2324.833877365066
 20
617.1548568615962
 30
0.0
 41
35.0
 42
35.0
 43
35.0
  0
MTEXT
  5
2178
330
2089
100
AcDbEntity
  8
実形
 62
     0
100
AcDbMText
 10
2207.833877365066
 20
635.9048568615962
 30
0.0
 40
25.0
 41
0.0
 71
     5
 72
     1
  1
15
 73
     1
 44
1.0
1001
ACAD
1000
MTEXTBEGIN
1070
    73
1070
     1
1070
    44
1040
1.0
1070
    74
1070
     0
1000
MTEXTEND
  0
POINT
  5
2179
330
2089
100
AcDbEntity
  8
Defpoints
 62
     0
100
AcDbPoint
 10
2090.833877365066
 20
526.9073852958004
 30
0.0
  0
POINT
  5
217A
330
2089
100
AcDbEntity
  8
Defpoints
 62
     0
100
AcDbPoint
 10
2324.833877365066
 20
526.9073852958004
 30
0.0
  0
POINT
  5
217B
330
2089
100
AcDbEntity
  8
Defpoints
 62
     0
100
AcDbPoint
 10
2324.833877365066
 20
617.1548568615962
 30
0.0
  0
ENDBLK
  5
2094
330
2089
100
AcDbEntity
  8
0
100
AcDbBlockEnd
  0
BLOCK
  5
209F
330
2095
100
AcDbEntity
  8
0
100
AcDbBlockBegin
  2
*D49
 70
     1
 10
0.0
 20
0.0
 30
0.0
  3
*D49
  1

  0
LINE
  5
217C
330
2095
100
AcDbEntity
  8
実形
 62
     0
370
    18
100
AcDbLine
 10
2292.614562018892
 20
504.6947101512855
 30
0.0
 11
2228.767481940162
 21
504.6947101512855
 31
0.0
  0
LINE
  5
217D
330
2095
100
AcDbEntity
  8
実形
 62
     0
370
    18
100
AcDbLine
 10
2216.267191428404
 20
543.6947101512855
 30
0.0
 11
2228.767481940162
 21
543.6947101512855
 31
0.0
  0
LINE
  5
217E
330
2095
100
AcDbEntity
  8
実形
 62
     0
370
    18
100
AcDbLine
 10
2228.767481940162
 20
504.6947101512855
 30
0.0
 11
2228.767481940162
 21
543.6947101512855
 31
0.0
  0
MTEXT
  5
217F
330
2095
100
AcDbEntity
  8
実形
 62
     0
100
AcDbMText
 10
2197.294896545438
 20
515.0052225685112
 30
0.0
 40
23.0
 41
0.0
 71
     5
 72
     1
  1
2.5
 11
0.0000000000000001
 21
1.0
 31
0.0
 73
     1
 44
1.0
1001
ACAD
1000
MTEXTBEGIN
1070
    73
1070
     1
1070
    44
1040
1.0
1070
    74
1070
     0
1000
MTEXTEND
  0
INSERT
  5
2180
330
2095
100
AcDbEntity
  8
実形
 62
     0
370
    18
100
AcDbBlockReference
  2
_DotSmall
 10
2228.767481940162
 20
504.6947101512855
 30
0.0
 41
35.0
 42
35.0
 43
35.0
 50
270.0
  0
INSERT
  5
2181
330
2095
100
AcDbEntity
  8
実形
 62
     0
370
    18
100
AcDbBlockReference
  2
_DotSmall
 10
2228.767481940162
 20
543.6947101512855
 30
0.0
 41
35.0
 42
35.0
 43
35.0
 50
90.0
  0
POINT
  5
2182
330
2095
100
AcDbEntity
  8
Defpoints
 62
     0
100
AcDbPoint
 10
2357.614562018891
 20
504.6947101512855
 30
0.0
  0
POINT
  5
2183
330
2095
100
AcDbEntity
  8
Defpoints
 62
     0
100
AcDbPoint
 10
2281.267191428404
 20
543.6947101512855
 30
0.0
  0
POINT
  5
2184
330
2095
100
AcDbEntity
  8
Defpoints
 62
     0
100
AcDbPoint
 10
2228.767481940162
 20
543.6947101512855
 30
0.0
  0
ENDBLK
  5
20A0
330
2095
100
AcDbEntity
  8
0
100
AcDbBlockEnd
  0
BLOCK
  5
20AB
330
20A1
100
AcDbEntity
  8
0
100
AcDbBlockBegin
  2
*D50
 70
     1
 10
0.0
 20
0.0
 30
0.0
  3
*D50
  1

  0
LINE
  5
2185
330
20A1
100
AcDbEntity
  8
実形
 62
     0
370
    18
100
AcDbLine
 10
2278.033877365066
 20
448.0145559292668
 30
0.0
 11
2278.033877365066
 21
452.0882219802177
 31
0.0
  0
LINE
  5
2186
330
20A1
100
AcDbEntity
  8
実形
 62
     0
370
    18
100
AcDbLine
 10
2356.033877365066
 20
448.0145559292668
 30
0.0
 11
2356.033877365066
 21
452.0882219802177
 31
0.0
  0
LINE
  5
2187
330
20A1
100
AcDbEntity
  8
実形
 62
     0
370
    18
100
AcDbLine
 10
2278.033877365066
 20
452.0882219802177
 30
0.0
 11
2356.033877365066
 21
452.0882219802177
 31
0.0
  0
INSERT
  5
2188
330
20A1
100
AcDbEntity
  8
実形
 62
     0
370
    18
100
AcDbBlockReference
  2
_DotSmall
 10
2278.033877365066
 20
452.0882219802177
 30
0.0
 41
35.0
 42
35.0
 43
35.0
 50
180.0
  0
INSERT
  5
2189
330
20A1
100
AcDbEntity
  8
実形
 62
     0
370
    18
100
AcDbBlockReference
  2
_DotSmall
 10
2356.033877365066
 20
452.0882219802177
 30
0.0
 41
35.0
 42
35.0
 43
35.0
  0
MTEXT
  5
218A
330
20A1
100
AcDbEntity
  8
実形
 62
     0
100
AcDbMText
 10
2317.033877365066
 20
470.8382219802177
 30
0.0
 40
25.0
 41
0.0
 71
     5
 72
     1
  1
5
 73
     1
 44
1.0
1001
ACAD
1000
MTEXTBEGIN
1070
    73
1070
     1
1070
    44
1040
1.0
1070
    74
1070
     0
1000
MTEXTEND
  0
POINT
  5
218B
330
20A1
100
AcDbEntity
  8
Defpoints
 62
     0
100
AcDbPoint
 10
2278.033877365066
 20
513.0145559292668
 30
0.0
  0
POINT
  5
218C
330
20A1
100
AcDbEntity
  8
Defpoints
 62
     0
100
AcDbPoint
 10
2356.033877365066
 20
513.0145559292668
 30
0.0
  0
POINT
  5
218D
330
20A1
100
AcDbEntity
  8
Defpoints
 62
     0
100
AcDbPoint
 10
2356.033877365066
 20
452.0882219802177
 30
0.0
  0
ENDBLK
  5
20AC
330
20A1
100
AcDbEntity
  8
0
100
AcDbBlockEnd
  0
BLOCK
  5
20B7
330
20AD
100
AcDbEntity
  8
0
100
AcDbBlockBegin
  2
*D51
 70
     1
 10
0.0
 20
0.0
 30
0.0
  3
*D51
  1

  0
LINE
  5
218E
330
20AD
100
AcDbEntity
  8
実形
 62
     0
370
    18
100
AcDbLine
 10
2266.326187506493
 20
442.2947101512853
 30
0.0
 11
2230.705930897853
 21
442.2947101512853
 31
0.0
  0
LINE
  5
218F
330
20AD
100
AcDbEntity
  8
実形
 62
     0
370
    18
100
AcDbLine
 10
2278.612691407768
 20
403.2947101512855
 30
0.0
 11
2230.705930897853
 21
403.2947101512855
 31
0.0
  0
LINE
  5
2190
330
20AD
100
AcDbEntity
  8
実形
 62
     0
370
    18
100
AcDbLine
 10
2230.705930897853
 20
442.2947101512853
 30
0.0
 11
2230.705930897853
 21
403.2947101512855
 31
0.0
  0
MTEXT
  5
2191
330
20AD
100
AcDbEntity
  8
実形
 62
     0
100
AcDbMText
 10
2198.086469593912
 20
431.6583152348946
 30
0.0
 40
23.0
 41
0.0
 71
     5
 72
     1
  1
2.5
 11
0.0000000000000001
 21
1.0
 31
0.0
 73
     1
 44
1.0
1001
ACAD
1000
MTEXTBEGIN
1070
    73
1070
     1
1070
    44
1040
1.0
1070
    74
1070
     0
1000
MTEXTEND
  0
INSERT
  5
2192
330
20AD
100
AcDbEntity
  8
実形
 62
     0
370
    18
100
AcDbBlockReference
  2
_DotSmall
 10
2230.705930897853
 20
442.2947101512853
 30
0.0
 41
35.0
 42
35.0
 43
35.0
 50
90.0
  0
INSERT
  5
2193
330
20AD
100
AcDbEntity
  8
実形
 62
     0
370
    18
100
AcDbBlockReference
  2
_DotSmall
 10
2230.705930897853
 20
403.2947101512855
 30
0.0
 41
35.0
 42
35.0
 43
35.0
 50
270.0
  0
POINT
  5
2194
330
20AD
100
AcDbEntity
  8
Defpoints
 62
     0
100
AcDbPoint
 10
2331.326187506493
 20
442.2947101512853
 30
0.0
  0
POINT
  5
2195
330
20AD
100
AcDbEntity
  8
Defpoints
 62
     0
100
AcDbPoint
 10
2343.612691407768
 20
403.2947101512855
 30
0.0
  0
POINT
  5
2196
330
20AD
100
AcDbEntity
  8
Defpoints
 62
     0
100
AcDbPoint
 10
2230.705930897853
 20
403.2947101512855
 30
0.0
  0
ENDBLK
  5
20B8
330
20AD
100
AcDbEntity
  8
0
100
AcDbBlockEnd
  0
BLOCK
  5
20C3
330
20B9
100
AcDbEntity
  8
0
100
AcDbBlockBegin
  2
*D52
 70
     1
 10
0.0
 20
0.0
 30
0.0
  3
*D52
  1

  0
LINE
  5
2197
330
20B9
100
AcDbEntity
  8
実形
 62
     0
370
    18
100
AcDbLine
 10
2075.233877365066
 20
696.1956311673393
 30
0.0
 11
2075.233877365066
 21
733.9587029177619
 31
0.0
  0
LINE
  5
2198
330
20B9
100
AcDbEntity
  8
実形
 62
     0
370
    18
100
AcDbLine
 10
2356.033877365066
 20
696.1956311673393
 30
0.0
 11
2356.033877365066
 21
733.9587029177619
 31
0.0
  0
LINE
  5
2199
330
20B9
100
AcDbEntity
  8
実形
 62
     0
370
    18
100
AcDbLine
 10
2075.233877365066
 20
733.9587029177619
 30
0.0
 11
2356.033877365066
 21
733.9587029177619
 31
0.0
  0
INSERT
  5
219A
330
20B9
100
AcDbEntity
  8
実形
 62
     0
370
    18
100
AcDbBlockReference
  2
_DotSmall
 10
2075.233877365066
 20
733.9587029177619
 30
0.0
 41
35.0
 42
35.0
 43
35.0
 50
180.0
  0
INSERT
  5
219B
330
20B9
100
AcDbEntity
  8
実形
 62
     0
370
    18
100
AcDbBlockReference
  2
_DotSmall
 10
2356.033877365066
 20
733.9587029177619
 30
0.0
 41
35.0
 42
35.0
 43
35.0
  0
MTEXT
  5
219C
330
20B9
100
AcDbEntity
  8
実形
 62
     0
100
AcDbMText
 10
2215.633877365066
 20
752.7087029177619
 30
0.0
 40
25.0
 41
0.0
 71
     5
 72
     1
  1
18
 73
     1
 44
1.0
1001
ACAD
1000
MTEXTBEGIN
1070
    73
1070
     1
1070
    44
1040
1.0
1070
    74
1070
     0
1000
MTEXTEND
  0
POINT
  5
219D
330
20B9
100
AcDbEntity
  8
Defpoints
 62
     0
100
AcDbPoint
 10
2075.233877365066
 20
631.1956311673393
 30
0.0
  0
POINT
  5
219E
330
20B9
100
AcDbEntity
  8
Defpoints
 62
     0
100
AcDbPoint
 10
2356.033877365066
 20
631.1956311673393
 30
0.0
  0
POINT
  5
219F
330
20B9
100
AcDbEntity
  8
Defpoints
 62
     0
100
AcDbPoint
 10
2356.033877365066
 20
733.9587029177619
 30
0.0
  0
ENDBLK
  5
20C4
330
20B9
100
AcDbEntity
  8
0
100
AcDbBlockEnd
  0
BLOCK
  5
20CF
330
20C5
100
AcDbEntity
  8
0
100
AcDbBlockBegin
  2
*D53
 70
     1
 10
0.0
 20
0.0
 30
0.0
  3
*D53
  1

  0
LINE
  5
21A0
330
20C5
100
AcDbEntity
  8
実形
 62
     0
370
    18
100
AcDbLine
 10
2356.033877365066
 20
696.1956311673382
 30
0.0
 11
2356.033877365066
 21
733.9587029177619
 31
0.0
  0
LINE
  5
21A1
330
20C5
100
AcDbEntity
  8
実形
 62
     0
370
    18
100
AcDbLine
 10
2621.233877365066
 20
696.1956311673382
 30
0.0
 11
2621.233877365066
 21
733.9587029177619
 31
0.0
  0
LINE
  5
21A2
330
20C5
100
AcDbEntity
  8
実形
 62
     0
370
    18
100
AcDbLine
 10
2356.033877365066
 20
733.9587029177619
 30
0.0
 11
2621.233877365066
 21
733.9587029177619
 31
0.0
  0
INSERT
  5
21A3
330
20C5
100
AcDbEntity
  8
実形
 62
     0
370
    18
100
AcDbBlockReference
  2
_DotSmall
 10
2356.033877365066
 20
733.9587029177619
 30
0.0
 41
35.0
 42
35.0
 43
35.0
 50
180.0
  0
INSERT
  5
21A4
330
20C5
100
AcDbEntity
  8
実形
 62
     0
370
    18
100
AcDbBlockReference
  2
_DotSmall
 10
2621.233877365066
 20
733.9587029177619
 30
0.0
 41
35.0
 42
35.0
 43
35.0
  0
MTEXT
  5
21A5
330
20C5
100
AcDbEntity
  8
実形
 62
     0
100
AcDbMText
 10
2488.633877365066
 20
752.7087029177619
 30
0.0
 40
25.0
 41
0.0
 71
     5
 72
     1
  1
17
 73
     1
 44
1.0
1001
ACAD
1000
MTEXTBEGIN
1070
    73
1070
     1
1070
    44
1040
1.0
1070
    74
1070
     0
1000
MTEXTEND
  0
POINT
  5
21A6
330
20C5
100
AcDbEntity
  8
Defpoints
 62
     0
100
AcDbPoint
 10
2356.033877365066
 20
631.1956311673382
 30
0.0
  0
POINT
  5
21A7
330
20C5
100
AcDbEntity
  8
Defpoints
 62
     0
100
AcDbPoint
 10
2621.233877365066
 20
631.1956311673382
 30
0.0
  0
POINT
  5
21A8
330
20C5
100
AcDbEntity
  8
Defpoints
 62
     0
100
AcDbPoint
 10
2621.233877365066
 20
733.9587029177619
 30
0.0
  0
ENDBLK
  5
20D0
330
20C5
100
AcDbEntity
  8
0
100
AcDbBlockEnd
  0
BLOCK
  5
20DB
330
20D1
100
AcDbEntity
  8
0
100
AcDbBlockBegin
  2
*D54
 70
     1
 10
0.0
 20
0.0
 30
0.0
  3
*D54
  1

  0
LINE
  5
21A9
330
20D1
100
AcDbEntity
  8
実形
 62
     0
370
    18
100
AcDbLine
 10
2075.233877365066
 20
696.1956311673382
 30
0.0
 11
2075.233877365066
 21
777.4666415156134
 31
0.0
  0
LINE
  5
21AA
330
20D1
100
AcDbEntity
  8
実形
 62
     0
370
    18
100
AcDbLine
 10
2621.233877365066
 20
696.1956311673382
 30
0.0
 11
2621.233877365066
 21
777.4666415156134
 31
0.0
  0
LINE
  5
21AB
330
20D1
100
AcDbEntity
  8
実形
 62
     0
370
    18
100
AcDbLine
 10
2075.233877365066
 20
777.4666415156134
 30
0.0
 11
2621.233877365066
 21
777.4666415156134
 31
0.0
  0
INSERT
  5
21AC
330
20D1
100
AcDbEntity
  8
実形
 62
     0
370
    18
100
AcDbBlockReference
  2
_DotSmall
 10
2075.233877365066
 20
777.4666415156134
 30
0.0
 41
35.0
 42
35.0
 43
35.0
 50
180.0
  0
INSERT
  5
21AD
330
20D1
100
AcDbEntity
  8
実形
 62
     0
370
    18
100
AcDbBlockReference
  2
_DotSmall
 10
2621.233877365066
 20
777.4666415156134
 30
0.0
 41
35.0
 42
35.0
 43
35.0
  0
MTEXT
  5
21AE
330
20D1
100
AcDbEntity
  8
実形
 62
     0
100
AcDbMText
 10
2348.233877365066
 20
796.2166415156134
 30
0.0
 40
25.0
 41
0.0
 71
     5
 72
     1
  1
35
 73
     1
 44
1.0
1001
ACAD
1000
MTEXTBEGIN
1070
    73
1070
     1
1070
    44
1040
1.0
1070
    74
1070
     0
1000
MTEXTEND
  0
POINT
  5
21AF
330
20D1
100
AcDbEntity
  8
Defpoints
 62
     0
100
AcDbPoint
 10
2075.233877365066
 20
631.1956311673382
 30
0.0
  0
POINT
  5
21B0
330
20D1
100
AcDbEntity
  8
Defpoints
 62
     0
100
AcDbPoint
 10
2621.233877365066
 20
631.1956311673382
 30
0.0
  0
POINT
  5
21B1
330
20D1
100
AcDbEntity
  8
Defpoints
 62
     0
100
AcDbPoint
 10
2621.233877365066
 20
777.4666415156134
 30
0.0
  0
ENDBLK
  5
20DC
330
20D1
100
AcDbEntity
  8
0
100
AcDbBlockEnd
  0
BLOCK
  5
20E7
330
20DD
100
AcDbEntity
  8
0
100
AcDbBlockBegin
  2
*D55
 70
     1
 10
0.0
 20
0.0
 30
0.0
  3
*D55
  1

  0
LINE
  5
21B2
330
20DD
100
AcDbEntity
  8
実形
 62
     0
370
    18
100
AcDbLine
 10
2106.433877365066
 20
346.5474686202858
 30
0.0
 11
2106.433877365066
 21
297.5085770831867
 31
0.0
  0
LINE
  5
21B3
330
20DD
100
AcDbEntity
  8
実形
 62
     0
370
    18
100
AcDbLine
 10
2153.233877365066
 20
346.5474686202858
 30
0.0
 11
2153.233877365066
 21
297.5085770831867
 31
0.0
  0
LINE
  5
21B4
330
20DD
100
AcDbEntity
  8
実形
 62
     0
370
    18
100
AcDbLine
 10
2106.433877365066
 20
297.5085770831867
 30
0.0
 11
2153.233877365066
 21
297.5085770831867
 31
0.0
  0
MTEXT
  5
21B5
330
20DD
100
AcDbEntity
  8
実形
 62
     0
100
AcDbMText
 10
2053.203290699754
 20
332.9138518235977
 30
0.0
 40
25.0
 41
0.0
 71
     5
 72
     1
  1
3.2
 73
     1
 44
1.0
1001
ACAD
1000
MTEXTBEGIN
1070
    73
1070
     1
1070
    44
1040
1.0
1070
    74
1070
     0
1000
MTEXTEND
  0
INSERT
  5
21B6
330
20DD
100
AcDbEntity
  8
実形
 62
     0
370
    18
100
AcDbBlockReference
  2
_DotSmall
 10
2106.433877365066
 20
297.5085770831867
 30
0.0
 41
35.0
 42
35.0
 43
35.0
 50
180.0
  0
INSERT
  5
21B7
330
20DD
100
AcDbEntity
  8
実形
 62
     0
370
    18
100
AcDbBlockReference
  2
_DotSmall
 10
2153.233877365066
 20
297.5085770831867
 30
0.0
 41
35.0
 42
35.0
 43
35.0
  0
POINT
  5
21B8
330
20DD
100
AcDbEntity
  8
Defpoints
 62
     0
100
AcDbPoint
 10
2106.433877365066
 20
411.5474686202857
 30
0.0
  0
POINT
  5
21B9
330
20DD
100
AcDbEntity
  8
Defpoints
 62
     0
100
AcDbPoint
 10
2153.233877365066
 20
411.5474686202857
 30
0.0
  0
POINT
  5
21BA
330
20DD
100
AcDbEntity
  8
Defpoints
 62
     0
100
AcDbPoint
 10
2153.233877365066
 20
297.5085770831867
 30
0.0
  0
ENDBLK
  5
20E8
330
20DD
100
AcDbEntity
  8
0
100
AcDbBlockEnd
  0
BLOCK
  5
20F3
330
20E9
100
AcDbEntity
  8
0
100
AcDbBlockBegin
  2
*D56
 70
     1
 10
0.0
 20
0.0
 30
0.0
  3
*D56
  1

  0
LINE
  5
21BB
330
20E9
100
AcDbEntity
  8
実形
 62
     0
370
    18
100
AcDbLine
 10
2153.233877365066
 20
346.5474686202858
 30
0.0
 11
2153.233877365066
 21
297.5085770831867
 31
0.0
  0
LINE
  5
21BC
330
20E9
100
AcDbEntity
  8
実形
 62
     0
370
    18
100
AcDbLine
 10
2278.033877365066
 20
346.5474686202858
 30
0.0
 11
2278.033877365066
 21
297.5085770831867
 31
0.0
  0
LINE
  5
21BD
330
20E9
100
AcDbEntity
  8
実形
 62
     0
370
    18
100
AcDbLine
 10
2153.233877365066
 20
297.5085770831867
 30
0.0
 11
2278.033877365066
 21
297.5085770831867
 31
0.0
  0
INSERT
  5
21BE
330
20E9
100
AcDbEntity
  8
実形
 62
     0
370
    18
100
AcDbBlockReference
  2
_DotSmall
 10
2153.233877365066
 20
297.5085770831867
 30
0.0
 41
35.0
 42
35.0
 43
35.0
 50
180.0
  0
INSERT
  5
21BF
330
20E9
100
AcDbEntity
  8
実形
 62
     0
370
    18
100
AcDbBlockReference
  2
_DotSmall
 10
2278.033877365066
 20
297.5085770831867
 30
0.0
 41
35.0
 42
35.0
 43
35.0
  0
MTEXT
  5
21C0
330
20E9
100
AcDbEntity
  8
実形
 62
     0
100
AcDbMText
 10
2215.633877365066
 20
316.2585770831867
 30
0.0
 40
25.0
 41
0.0
 71
     5
 72
     1
  1
8
 73
     1
 44
1.0
1001
ACAD
1000
MTEXTBEGIN
1070
    73
1070
     1
1070
    44
1040
1.0
1070
    74
1070
     0
1000
MTEXTEND
  0
POINT
  5
21C1
330
20E9
100
AcDbEntity
  8
Defpoints
 62
     0
100
AcDbPoint
 10
2153.233877365066
 20
411.5474686202857
 30
0.0
  0
POINT
  5
21C2
330
20E9
100
AcDbEntity
  8
Defpoints
 62
     0
100
AcDbPoint
 10
2278.033877365066
 20
411.5474686202857
 30
0.0
  0
POINT
  5
21C3
330
20E9
100
AcDbEntity
  8
Defpoints
 62
     0
100
AcDbPoint
 10
2278.033877365066
 20
297.5085770831867
 30
0.0
  0
ENDBLK
  5
20F4
330
20E9
100
AcDbEntity
  8
0
100
AcDbBlockEnd
  0
BLOCK
  5
20FF
330
20F5
100
AcDbEntity
  8
0
100
AcDbBlockBegin
  2
*D57
 70
     1
 10
0.0
 20
0.0
 30
0.0
  3
*D57
  1

  0
LINE
  5
21C4
330
20F5
100
AcDbEntity
  8
実形
 62
     0
370
    18
100
AcDbLine
 10
2278.033877365066
 20
346.5474686202858
 30
0.0
 11
2278.033877365066
 21
297.5085770831867
 31
0.0
  0
LINE
  5
21C5
330
20F5
100
AcDbEntity
  8
実形
 62
     0
370
    18
100
AcDbLine
 10
2356.033877365066
 20
346.5474686202858
 30
0.0
 11
2356.033877365066
 21
297.5085770831867
 31
0.0
  0
LINE
  5
21C6
330
20F5
100
AcDbEntity
  8
実形
 62
     0
370
    18
100
AcDbLine
 10
2278.033877365066
 20
297.5085770831867
 30
0.0
 11
2356.033877365066
 21
297.5085770831867
 31
0.0
  0
INSERT
  5
21C7
330
20F5
100
AcDbEntity
  8
実形
 62
     0
370
    18
100
AcDbBlockReference
  2
_DotSmall
 10
2278.033877365066
 20
297.5085770831867
 30
0.0
 41
35.0
 42
35.0
 43
35.0
 50
180.0
  0
INSERT
  5
21C8
330
20F5
100
AcDbEntity
  8
実形
 62
     0
370
    18
100
AcDbBlockReference
  2
_DotSmall
 10
2356.033877365066
 20
297.5085770831867
 30
0.0
 41
35.0
 42
35.0
 43
35.0
  0
MTEXT
  5
21C9
330
20F5
100
AcDbEntity
  8
実形
 62
     0
100
AcDbMText
 10
2317.033877365066
 20
316.2585770831867
 30
0.0
 40
25.0
 41
0.0
 71
     5
 72
     1
  1
5
 73
     1
 44
1.0
1001
ACAD
1000
MTEXTBEGIN
1070
    73
1070
     1
1070
    44
1040
1.0
1070
    74
1070
     0
1000
MTEXTEND
  0
POINT
  5
21CA
330
20F5
100
AcDbEntity
  8
Defpoints
 62
     0
100
AcDbPoint
 10
2278.033877365066
 20
411.5474686202857
 30
0.0
  0
POINT
  5
21CB
330
20F5
100
AcDbEntity
  8
Defpoints
 62
     0
100
AcDbPoint
 10
2356.033877365066
 20
411.5474686202857
 30
0.0
  0
POINT
  5
21CC
330
20F5
100
AcDbEntity
  8
Defpoints
 62
     0
100
AcDbPoint
 10
2356.033877365066
 20
297.5085770831867
 30
0.0
  0
ENDBLK
  5
2100
330
20F5
100
AcDbEntity
  8
0
100
AcDbBlockEnd
  0
BLOCK
  5
210B
330
2101
100
AcDbEntity
  8
0
100
AcDbBlockBegin
  2
*D58
 70
     1
 10
0.0
 20
0.0
 30
0.0
  3
*D58
  1

  0
LINE
  5
21CD
330
2101
100
AcDbEntity
  8
実形
 62
     0
370
    18
100
AcDbLine
 10
2356.033877365066
 20
346.5474686202858
 30
0.0
 11
2356.033877365066
 21
297.5085770831867
 31
0.0
  0
LINE
  5
21CE
330
2101
100
AcDbEntity
  8
実形
 62
     0
370
    18
100
AcDbLine
 10
2621.233877365066
 20
346.5474686202858
 30
0.0
 11
2621.233877365066
 21
297.5085770831867
 31
0.0
  0
LINE
  5
21CF
330
2101
100
AcDbEntity
  8
実形
 62
     0
370
    18
100
AcDbLine
 10
2356.033877365066
 20
297.5085770831867
 30
0.0
 11
2621.233877365066
 21
297.5085770831867
 31
0.0
  0
INSERT
  5
21D0
330
2101
100
AcDbEntity
  8
実形
 62
     0
370
    18
100
AcDbBlockReference
  2
_DotSmall
 10
2356.033877365066
 20
297.5085770831867
 30
0.0
 41
35.0
 42
35.0
 43
35.0
 50
180.0
  0
INSERT
  5
21D1
330
2101
100
AcDbEntity
  8
実形
 62
     0
370
    18
100
AcDbBlockReference
  2
_DotSmall
 10
2621.233877365066
 20
297.5085770831867
 30
0.0
 41
35.0
 42
35.0
 43
35.0
  0
MTEXT
  5
21D2
330
2101
100
AcDbEntity
  8
実形
 62
     0
100
AcDbMText
 10
2488.633877365066
 20
316.2585770831867
 30
0.0
 40
25.0
 41
0.0
 71
     5
 72
     1
  1
17
 73
     1
 44
1.0
1001
ACAD
1000
MTEXTBEGIN
1070
    73
1070
     1
1070
    44
1040
1.0
1070
    74
1070
     0
1000
MTEXTEND
  0
POINT
  5
21D3
330
2101
100
AcDbEntity
  8
Defpoints
 62
     0
100
AcDbPoint
 10
2356.033877365066
 20
411.5474686202857
 30
0.0
  0
POINT
  5
21D4
330
2101
100
AcDbEntity
  8
Defpoints
 62
     0
100
AcDbPoint
 10
2621.233877365066
 20
411.5474686202857
 30
0.0
  0
POINT
  5
21D5
330
2101
100
AcDbEntity
  8
Defpoints
 62
     0
100
AcDbPoint
 10
2621.233877365066
 20
297.5085770831867
 30
0.0
  0
ENDBLK
  5
210C
330
2101
100
AcDbEntity
  8
0
100
AcDbBlockEnd
  0
BLOCK
  5
2117
330
210D
100
AcDbEntity
  8
0
100
AcDbBlockBegin
  2
*D59
 70
     1
 10
0.0
 20
0.0
 30
0.0
  3
*D59
  1

  0
LINE
  5
21D6
330
210D
100
AcDbEntity
  8
実形
 62
     0
370
    18
100
AcDbLine
 10
2077.023276234157
 20
297.8281686160613
 30
0.0
 11
2077.023276234157
 21
247.5388396829094
 31
0.0
  0
LINE
  5
21D7
330
210D
100
AcDbEntity
  8
実形
 62
     0
370
    18
100
AcDbLine
 10
2155.023276234156
 20
297.8281686160613
 30
0.0
 11
2155.023276234156
 21
247.5388396829094
 31
0.0
  0
LINE
  5
21D8
330
210D
100
AcDbEntity
  8
実形
 62
     0
370
    18
100
AcDbLine
 10
2077.023276234157
 20
247.5388396829094
 30
0.0
 11
2155.023276234156
 21
247.5388396829094
 31
0.0
  0
INSERT
  5
21D9
330
210D
100
AcDbEntity
  8
実形
 62
     0
370
    18
100
AcDbBlockReference
  2
_DotSmall
 10
2077.023276234157
 20
247.5388396829094
 30
0.0
 41
35.0
 42
35.0
 43
35.0
 50
180.0
  0
INSERT
  5
21DA
330
210D
100
AcDbEntity
  8
実形
 62
     0
370
    18
100
AcDbBlockReference
  2
_DotSmall
 10
2155.023276234156
 20
247.5388396829094
 30
0.0
 41
35.0
 42
35.0
 43
35.0
  0
MTEXT
  5
21DB
330
210D
100
AcDbEntity
  8
実形
 62
     0
100
AcDbMText
 10
2116.023276234157
 20
266.2888396829094
 30
0.0
 40
25.0
 41
0.0
 71
     5
 72
     1
  1
5
 73
     1
 44
1.0
1001
ACAD
1000
MTEXTBEGIN
1070
    73
1070
     1
1070
    44
1040
1.0
1070
    74
1070
     0
1000
MTEXTEND
  0
POINT
  5
21DC
330
210D
100
AcDbEntity
  8
Defpoints
 62
     0
100
AcDbPoint
 10
2077.023276234157
 20
362.8281686160613
 30
0.0
  0
POINT
  5
21DD
330
210D
100
AcDbEntity
  8
Defpoints
 62
     0
100
AcDbPoint
 10
2155.023276234156
 20
362.8281686160613
 30
0.0
  0
POINT
  5
21DE
330
210D
100
AcDbEntity
  8
Defpoints
 62
     0
100
AcDbPoint
 10
2155.023276234156
 20
247.5388396829094
 30
0.0
  0
ENDBLK
  5
2118
330
210D
100
AcDbEntity
  8
0
100
AcDbBlockEnd
  0
BLOCK
  5
2123
330
2119
100
AcDbEntity
  8
0
100
AcDbBlockBegin
  2
*D60
 70
     1
 10
0.0
 20
0.0
 30
0.0
  3
*D60
  1

  0
LINE
  5
21DF
330
2119
100
AcDbEntity
  8
実形
 62
     0
370
    18
100
AcDbLine
 10
2155.023276234156
 20
297.8281686160613
 30
0.0
 11
2155.023276234156
 21
247.5388396829094
 31
0.0
  0
LINE
  5
21E0
330
2119
100
AcDbEntity
  8
実形
 62
     0
370
    18
100
AcDbLine
 10
2623.023276234156
 20
297.8281686160613
 30
0.0
 11
2623.023276234156
 21
247.5388396829094
 31
0.0
  0
LINE
  5
21E1
330
2119
100
AcDbEntity
  8
実形
 62
     0
370
    18
100
AcDbLine
 10
2155.023276234156
 20
247.5388396829094
 30
0.0
 11
2623.023276234156
 21
247.5388396829094
 31
0.0
  0
INSERT
  5
21E2
330
2119
100
AcDbEntity
  8
実形
 62
     0
370
    18
100
AcDbBlockReference
  2
_DotSmall
 10
2155.023276234156
 20
247.5388396829094
 30
0.0
 41
35.0
 42
35.0
 43
35.0
 50
180.0
  0
INSERT
  5
21E3
330
2119
100
AcDbEntity
  8
実形
 62
     0
370
    18
100
AcDbBlockReference
  2
_DotSmall
 10
2623.023276234156
 20
247.5388396829094
 30
0.0
 41
35.0
 42
35.0
 43
35.0
  0
MTEXT
  5
21E4
330
2119
100
AcDbEntity
  8
実形
 62
     0
100
AcDbMText
 10
2389.023276234156
 20
266.2888396829094
 30
0.0
 40
25.0
 41
0.0
 71
     5
 72
     1
  1
30
 73
     1
 44
1.0
1001
ACAD
1000
MTEXTBEGIN
1070
    73
1070
     1
1070
    44
1040
1.0
1070
    74
1070
     0
1000
MTEXTEND
  0
POINT
  5
21E5
330
2119
100
AcDbEntity
  8
Defpoints
 62
     0
100
AcDbPoint
 10
2155.023276234156
 20
362.8281686160613
 30
0.0
  0
POINT
  5
21E6
330
2119
100
AcDbEntity
  8
Defpoints
 62
     0
100
AcDbPoint
 10
2623.023276234156
 20
362.8281686160613
 30
0.0
  0
POINT
  5
21E7
330
2119
100
AcDbEntity
  8
Defpoints
 62
     0
100
AcDbPoint
 10
2623.023276234156
 20
247.5388396829094
 30
0.0
  0
ENDBLK
  5
2124
330
2119
100
AcDbEntity
  8
0
100
AcDbBlockEnd
  0
BLOCK
  5
212F
330
2125
100
AcDbEntity
  8
0
100
AcDbBlockBegin
  2
*D61
 70
     1
 10
0.0
 20
0.0
 30
0.0
  3
*D61
  1

  0
LINE
  5
21E8
330
2125
100
AcDbEntity
  8
実形
 62
     0
370
    18
100
AcDbLine
 10
2032.328912889143
 20
684.0947101512855
 30
0.0
 11
1970.032114275532
 21
684.0947101512855
 31
0.0
  0
LINE
  5
21E9
330
2125
100
AcDbEntity
  8
実形
 62
     0
370
    18
100
AcDbLine
 10
2032.328912889143
 20
585.2947101512854
 30
0.0
 11
1970.032114275532
 21
585.2947101512854
 31
0.0
  0
LINE
  5
21EA
330
2125
100
AcDbEntity
  8
実形
 62
     0
370
    18
100
AcDbLine
 10
1970.032114275532
 20
684.0947101512855
 30
0.0
 11
1970.032114275532
 21
585.2947101512854
 31
0.0
  0
INSERT
  5
21EB
330
2125
100
AcDbEntity
  8
実形
 62
     0
370
    18
100
AcDbBlockReference
  2
_DotSmall
 10
1970.032114275532
 20
684.0947101512855
 30
0.0
 41
35.0
 42
35.0
 43
35.0
 50
90.0
  0
INSERT
  5
21EC
330
2125
100
AcDbEntity
  8
実形
 62
     0
370
    18
100
AcDbBlockReference
  2
_DotSmall
 10
1970.032114275532
 20
585.2947101512854
 30
0.0
 41
35.0
 42
35.0
 43
35.0
 50
270.0
  0
MTEXT
  5
21ED
330
2125
100
AcDbEntity
  8
実形
 62
     0
100
AcDbMText
 10
1951.282114275532
 20
634.6947101512859
 30
0.0
 40
25.0
 41
0.0
 71
     5
 72
     1
  1
6.5
 11
0.0000000000000001
 21
1.0
 31
0.0
 73
     1
 44
1.0
1001
ACAD
1000
MTEXTBEGIN
1070
    73
1070
     1
1070
    44
1040
1.0
1070
    74
1070
     0
1000
MTEXTEND
  0
POINT
  5
21EE
330
2125
100
AcDbEntity
  8
Defpoints
 62
     0
100
AcDbPoint
 10
2097.328912889143
 20
684.0947101512855
 30
0.0
  0
POINT
  5
21EF
330
2125
100
AcDbEntity
  8
Defpoints
 62
     0
100
AcDbPoint
 10
2097.328912889143
 20
585.2947101512854
 30
0.0
  0
POINT
  5
21F0
330
2125
100
AcDbEntity
  8
Defpoints
 62
     0
100
AcDbPoint
 10
1970.032114275532
 20
585.2947101512854
 30
0.0
  0
ENDBLK
  5
2130
330
2125
100
AcDbEntity
  8
0
100
AcDbBlockEnd
  0
BLOCK
  5
213B
330
2131
100
AcDbEntity
  8
0
100
AcDbBlockBegin
  2
*D62
 70
     1
 10
0.0
 20
0.0
 30
0.0
  3
*D62
  1

  0
LINE
  5
21F1
330
2131
100
AcDbEntity
  8
実形
 62
     0
370
    18
100
AcDbLine
 10
2032.328912889143
 20
684.0947101512855
 30
0.0
 11
1916.035186721017
 21
684.0947101512855
 31
0.0
  0
LINE
  5
21F2
330
2131
100
AcDbEntity
  8
実形
 62
     0
370
    18
100
AcDbLine
 10
2032.328912889143
 20
559.2947101512846
 30
0.0
 11
1916.035186721017
 21
559.2947101512846
 31
0.0
  0
LINE
  5
21F3
330
2131
100
AcDbEntity
  8
実形
 62
     0
370
    18
100
AcDbLine
 10
1916.035186721017
 20
684.0947101512855
 30
0.0
 11
1916.035186721017
 21
559.2947101512846
 31
0.0
  0
INSERT
  5
21F4
330
2131
100
AcDbEntity
  8
実形
 62
     0
370
    18
100
AcDbBlockReference
  2
_DotSmall
 10
1916.035186721017
 20
684.0947101512855
 30
0.0
 41
35.0
 42
35.0
 43
35.0
 50
90.0
  0
INSERT
  5
21F5
330
2131
100
AcDbEntity
  8
実形
 62
     0
370
    18
100
AcDbBlockReference
  2
_DotSmall
 10
1916.035186721017
 20
559.2947101512846
 30
0.0
 41
35.0
 42
35.0
 43
35.0
 50
270.0
  0
MTEXT
  5
21F6
330
2131
100
AcDbEntity
  8
実形
 62
     0
100
AcDbMText
 10
1897.285186721017
 20
621.6947101512854
 30
0.0
 40
25.0
 41
0.0
 71
     5
 72
     1
  1
8.2
 11
0.0000000000000001
 21
1.0
 31
0.0
 73
     1
 44
1.0
1001
ACAD
1000
MTEXTBEGIN
1070
    73
1070
     1
1070
    44
1040
1.0
1070
    74
1070
     0
1000
MTEXTEND
  0
POINT
  5
21F7
330
2131
100
AcDbEntity
  8
Defpoints
 62
     0
100
AcDbPoint
 10
2097.328912889143
 20
684.0947101512855
 30
0.0
  0
POINT
  5
21F8
330
2131
100
AcDbEntity
  8
Defpoints
 62
     0
100
AcDbPoint
 10
2097.328912889143
 20
559.2947101512846
 30
0.0
  0
POINT
  5
21F9
330
2131
100
AcDbEntity
  8
Defpoints
 62
     0
100
AcDbPoint
 10
1916.035186721017
 20
559.2947101512846
 30
0.0
  0
ENDBLK
  5
213C
330
2131
100
AcDbEntity
  8
0
100
AcDbBlockEnd
  0
BLOCK
  5
2147
330
213D
100
AcDbEntity
  8
0
100
AcDbBlockBegin
  2
*D63
 70
     1
 10
0.0
 20
0.0
 30
0.0
  3
*D63
  1

  0
LINE
  5
21FA
330
213D
100
AcDbEntity
  8
実形
 62
     0
370
    18
100
AcDbLine
 10
2032.328912889143
 20
543.6947101512854
 30
0.0
 11
1864.389549972262
 21
543.6947101512854
 31
0.0
  0
LINE
  5
21FB
330
213D
100
AcDbEntity
  8
実形
 62
     0
370
    18
100
AcDbLine
 10
2032.328912889143
 20
684.0947101512855
 30
0.0
 11
1864.389549972262
 21
684.0947101512855
 31
0.0
  0
LINE
  5
21FC
330
213D
100
AcDbEntity
  8
実形
 62
     0
370
    18
100
AcDbLine
 10
1864.389549972262
 20
543.6947101512854
 30
0.0
 11
1864.389549972262
 21
684.0947101512855
 31
0.0
  0
INSERT
  5
21FD
330
213D
100
AcDbEntity
  8
実形
 62
     0
370
    18
100
AcDbBlockReference
  2
_DotSmall
 10
1864.389549972262
 20
543.6947101512854
 30
0.0
 41
35.0
 42
35.0
 43
35.0
 50
270.0
  0
INSERT
  5
21FE
330
213D
100
AcDbEntity
  8
実形
 62
     0
370
    18
100
AcDbBlockReference
  2
_DotSmall
 10
1864.389549972262
 20
684.0947101512855
 30
0.0
 41
35.0
 42
35.0
 43
35.0
 50
90.0
  0
MTEXT
  5
21FF
330
213D
100
AcDbEntity
  8
実形
 62
     0
100
AcDbMText
 10
1845.639549972261
 20
613.8947101512858
 30
0.0
 40
25.0
 41
0.0
 71
     5
 72
     1
  1
9
 11
0.0000000000000001
 21
1.0
 31
0.0
 73
     1
 44
1.0
1001
ACAD
1000
MTEXTBEGIN
1070
    73
1070
     1
1070
    44
1040
1.0
1070
    74
1070
     0
1000
MTEXTEND
  0
POINT
  5
2200
330
213D
100
AcDbEntity
  8
Defpoints
 62
     0
100
AcDbPoint
 10
2097.328912889143
 20
543.6947101512854
 30
0.0
  0
POINT
  5
2201
330
213D
100
AcDbEntity
  8
Defpoints
 62
     0
100
AcDbPoint
 10
2097.328912889143
 20
684.0947101512855
 30
0.0
  0
POINT
  5
2202
330
213D
100
AcDbEntity
  8
Defpoints
 62
     0
100
AcDbPoint
 10
1864.389549972262
 20
684.0947101512855
 30
0.0
  0
ENDBLK
  5
2148
330
213D
100
AcDbEntity
  8
0
100
AcDbBlockEnd
  0
BLOCK
  5
2153
330
2149
100
AcDbEntity
  8
0
100
AcDbBlockBegin
  2
*D64
 70
     1
 10
0.0
 20
0.0
 30
0.0
  3
*D64
  1

  0
LINE
  5
2203
330
2149
100
AcDbEntity
  8
実形
 62
     0
370
    18
100
AcDbLine
 10
2647.25404811461
 20
543.6947101512855
 30
0.0
 11
2673.699912636183
 21
543.6947101512855
 31
0.0
  0
LINE
  5
2204
330
2149
100
AcDbEntity
  8
実形
 62
     0
370
    18
100
AcDbLine
 10
2647.25404811461
 20
403.2947101512855
 30
0.0
 11
2673.699912636183
 21
403.2947101512855
 31
0.0
  0
LINE
  5
2205
330
2149
100
AcDbEntity
  8
実形
 62
     0
370
    18
100
AcDbLine
 10
2673.699912636183
 20
543.6947101512855
 30
0.0
 11
2673.699912636183
 21
403.2947101512855
 31
0.0
  0
INSERT
  5
2206
330
2149
100
AcDbEntity
  8
実形
 62
     0
370
    18
100
AcDbBlockReference
  2
_DotSmall
 10
2673.699912636183
 20
543.6947101512855
 30
0.0
 41
35.0
 42
35.0
 43
35.0
 50
90.0
  0
INSERT
  5
2207
330
2149
100
AcDbEntity
  8
実形
 62
     0
370
    18
100
AcDbBlockReference
  2
_DotSmall
 10
2673.699912636183
 20
403.2947101512855
 30
0.0
 41
35.0
 42
35.0
 43
35.0
 50
270.0
  0
MTEXT
  5
2208
330
2149
100
AcDbEntity
  8
実形
 62
     0
100
AcDbMText
 10
2654.949912636183
 20
473.4947101512859
 30
0.0
 40
25.0
 41
0.0
 71
     5
 72
     1
  1
9
 11
0.0000000000000001
 21
1.0
 31
0.0
 73
     1
 44
1.0
1001
ACAD
1000
MTEXTBEGIN
1070
    73
1070
     1
1070
    44
1040
1.0
1070
    74
1070
     0
1000
MTEXTEND
  0
POINT
  5
2209
330
2149
100
AcDbEntity
  8
Defpoints
 62
     0
100
AcDbPoint
 10
2582.25404811461
 20
543.6947101512855
 30
0.0
  0
POINT
  5
220A
330
2149
100
AcDbEntity
  8
Defpoints
 62
     0
100
AcDbPoint
 10
2582.25404811461
 20
403.2947101512855
 30
0.0
  0
POINT
  5
220B
330
2149
100
AcDbEntity
  8
Defpoints
 62
     0
100
AcDbPoint
 10
2673.699912636183
 20
403.2947101512855
 30
0.0
  0
ENDBLK
  5
2154
330
2149
100
AcDbEntity
  8
0
100
AcDbBlockEnd
  0
BLOCK
  5
215F
330
2155
100
AcDbEntity
  8
0
100
AcDbBlockBegin
  2
*D65
 70
     1
 10
0.0
 20
0.0
 30
0.0
  3
*D65
  1

  0
LINE
  5
220C
330
2155
100
AcDbEntity
  8
実形
 62
     0
370
    18
100
AcDbLine
 10
2647.25404811461
 20
684.0947101512855
 30
0.0
 11
2673.699912636183
 21
684.0947101512855
 31
0.0
  0
LINE
  5
220D
330
2155
100
AcDbEntity
  8
実形
 62
     0
370
    18
100
AcDbLine
 10
2647.25404811461
 20
543.6947101512855
 30
0.0
 11
2673.699912636183
 21
543.6947101512855
 31
0.0
  0
LINE
  5
220E
330
2155
100
AcDbEntity
  8
実形
 62
     0
370
    18
100
AcDbLine
 10
2673.699912636183
 20
684.0947101512855
 30
0.0
 11
2673.699912636183
 21
543.6947101512855
 31
0.0
  0
INSERT
  5
220F
330
2155
100
AcDbEntity
  8
実形
 62
     0
370
    18
100
AcDbBlockReference
  2
_DotSmall
 10
2673.699912636183
 20
684.0947101512855
 30
0.0
 41
35.0
 42
35.0
 43
35.0
 50
90.0
  0
INSERT
  5
2210
330
2155
100
AcDbEntity
  8
実形
 62
     0
370
    18
100
AcDbBlockReference
  2
_DotSmall
 10
2673.699912636183
 20
543.6947101512855
 30
0.0
 41
35.0
 42
35.0
 43
35.0
 50
270.0
  0
MTEXT
  5
2211
330
2155
100
AcDbEntity
  8
実形
 62
     0
100
AcDbMText
 10
2654.949912636183
 20
613.8947101512859
 30
0.0
 40
25.0
 41
0.0
 71
     5
 72
     1
  1
9
 11
0.0000000000000001
 21
1.0
 31
0.0
 73
     1
 44
1.0
1001
ACAD
1000
MTEXTBEGIN
1070
    73
1070
     1
1070
    44
1040
1.0
1070
    74
1070
     0
1000
MTEXTEND
  0
POINT
  5
2212
330
2155
100
AcDbEntity
  8
Defpoints
 62
     0
100
AcDbPoint
 10
2582.25404811461
 20
684.0947101512855
 30
0.0
  0
POINT
  5
2213
330
2155
100
AcDbEntity
  8
Defpoints
 62
     0
100
AcDbPoint
 10
2582.25404811461
 20
543.6947101512855
 30
0.0
  0
POINT
  5
2214
330
2155
100
AcDbEntity
  8
Defpoints
 62
     0
100
AcDbPoint
 10
2673.699912636183
 20
543.6947101512855
 30
0.0
  0
ENDBLK
  5
2160
330
2155
100
AcDbEntity
  8
0
100
AcDbBlockEnd
  0
BLOCK
  5
216B
330
2161
100
AcDbEntity
  8
0
100
AcDbBlockBegin
  2
*D66
 70
     1
 10
0.0
 20
0.0
 30
0.0
  3
*D66
  1

  0
LINE
  5
2215
330
2161
100
AcDbEntity
  8
実形
 62
     0
370
    18
100
AcDbLine
 10
2647.25404811461
 20
684.0947101512855
 30
0.0
 11
2715.480008308167
 21
684.0947101512855
 31
0.0
  0
LINE
  5
2216
330
2161
100
AcDbEntity
  8
実形
 62
     0
370
    18
100
AcDbLine
 10
2647.25404811461
 20
403.2947101512855
 30
0.0
 11
2715.480008308167
 21
403.2947101512855
 31
0.0
  0
LINE
  5
2217
330
2161
100
AcDbEntity
  8
実形
 62
     0
370
    18
100
AcDbLine
 10
2715.480008308167
 20
684.0947101512855
 30
0.0
 11
2715.480008308167
 21
403.2947101512855
 31
0.0
  0
INSERT
  5
2218
330
2161
100
AcDbEntity
  8
実形
 62
     0
370
    18
100
AcDbBlockReference
  2
_DotSmall
 10
2715.480008308167
 20
684.0947101512855
 30
0.0
 41
35.0
 42
35.0
 43
35.0
 50
90.0
  0
INSERT
  5
2219
330
2161
100
AcDbEntity
  8
実形
 62
     0
370
    18
100
AcDbBlockReference
  2
_DotSmall
 10
2715.480008308167
 20
403.2947101512855
 30
0.0
 41
35.0
 42
35.0
 43
35.0
 50
270.0
  0
MTEXT
  5
221A
330
2161
100
AcDbEntity
  8
実形
 62
     0
100
AcDbMText
 10
2696.730008308167
 20
543.694710151286
 30
0.0
 40
25.0
 41
0.0
 71
     5
 72
     1
  1
18
 11
0.0000000000000001
 21
1.0
 31
0.0
 73
     1
 44
1.0
1001
ACAD
1000
MTEXTBEGIN
1070
    73
1070
     1
1070
    44
1040
1.0
1070
    74
1070
     0
1000
MTEXTEND
  0
POINT
  5
221B
330
2161
100
AcDbEntity
  8
Defpoints
 62
     0
100
AcDbPoint
 10
2582.25404811461
 20
684.0947101512855
 30
0.0
  0
POINT
  5
221C
330
2161
100
AcDbEntity
  8
Defpoints
 62
     0
100
AcDbPoint
 10
2582.25404811461
 20
403.2947101512855
 30
0.0
  0
POINT
  5
221D
330
2161
100
AcDbEntity
  8
Defpoints
 62
     0
100
AcDbPoint
 10
2715.480008308167
 20
403.2947101512855
 30
0.0
  0
ENDBLK
  5
216C
330
2161
100
AcDbEntity
  8
0
100
AcDbBlockEnd
  0
BLOCK
  5
2299
330
228F
100
AcDbEntity
  8
0
100
AcDbBlockBegin
  2
*D72
 70
     1
 10
0.0
 20
0.0
 30
0.0
  3
*D72
  1

  0
LINE
  5
22CF
330
228F
100
AcDbEntity
  8
実形
 62
     0
370
    18
100
AcDbLine
 10
383.9137327637966
 20
765.7146975621165
 30
0.0
 11
305.9139546550816
 21
765.7146975621165
 31
0.0
  0
LINE
  5
22D0
330
228F
100
AcDbEntity
  8
実形
 62
     0
370
    18
100
AcDbLine
 10
384.8925104049724
 20
747.7146975621165
 30
0.0
 11
305.9139546550816
 21
747.7146975621165
 31
0.0
  0
LINE
  5
22D1
330
228F
100
AcDbEntity
  8
実形
 62
     0
370
    18
100
AcDbLine
 10
305.9139546550816
 20
765.7146975621165
 30
0.0
 11
305.9139546550816
 21
747.7146975621165
 31
0.0
  0
MTEXT
  5
22D2
330
228F
100
AcDbEntity
  8
実形
 62
     0
100
AcDbMText
 10
225.711873987728
 20
817.2611769071755
 30
0.0
 40
25.0
 41
0.0
 71
     5
 72
     1
  1
18
 11
0.0000000000000001
 21
1.0
 31
0.0
 73
     1
 44
1.0
1001
ACAD
1000
MTEXTBEGIN
1070
    73
1070
     1
1070
    44
1040
1.0
1070
    74
1070
     0
1000
MTEXTEND
  0
INSERT
  5
22D3
330
228F
100
AcDbEntity
  8
実形
 62
     0
370
    18
100
AcDbBlockReference
  2
_DotSmall
 10
305.9139546550816
 20
765.7146975621165
 30
0.0
 41
35.0
 42
35.0
 43
35.0
 50
90.0
  0
INSERT
  5
22D4
330
228F
100
AcDbEntity
  8
実形
 62
     0
370
    18
100
AcDbBlockReference
  2
_DotSmall
 10
305.9139546550816
 20
747.7146975621165
 30
0.0
 41
35.0
 42
35.0
 43
35.0
 50
270.0
  0
POINT
  5
22D5
330
228F
100
AcDbEntity
  8
Defpoints
 62
     0
100
AcDbPoint
 10
448.9137327637966
 20
765.7146975621165
 30
0.0
  0
POINT
  5
22D6
330
228F
100
AcDbEntity
  8
Defpoints
 62
     0
100
AcDbPoint
 10
449.8925104049724
 20
747.7146975621165
 30
0.0
  0
POINT
  5
22D7
330
228F
100
AcDbEntity
  8
Defpoints
 62
     0
100
AcDbPoint
 10
305.9139546550816
 20
747.7146975621165
 30
0.0
  0
ENDBLK
  5
229A
330
228F
100
AcDbEntity
  8
0
100
AcDbBlockEnd
  0
BLOCK
  5
22A7
330
229B
100
AcDbEntity
  8
0
100
AcDbBlockBegin
  2
*D73
 70
     1
 10
0.0
 20
0.0
 30
0.0
  3
*D73
  1

  0
LINE
  5
22D8
330
229B
100
AcDbEntity
  8
実形
 62
     0
370
    18
100
AcDbLine
 10
384.8925104049724
 20
747.7146975621165
 30
0.0
 11
305.9139546550816
 21
747.7146975621165
 31
0.0
  0
LINE
  5
22D9
330
229B
100
AcDbEntity
  8
実形
 62
     0
370
    18
100
AcDbLine
 10
384.8925104049724
 20
742.5146975621165
 30
0.0
 11
305.9139546550816
 21
742.5146975621165
 31
0.0
  0
LINE
  5
22DA
330
229B
100
AcDbEntity
  8
実形
 62
     0
370
    18
100
AcDbLine
 10
305.9139546550816
 20
747.7146975621165
 30
0.0
 11
305.9139546550816
 21
782.7146975621165
 31
0.0
  0
LINE
  5
22DB
330
229B
100
AcDbEntity
  8
実形
 62
     0
370
    18
100
AcDbLine
 10
305.9139546550816
 20
742.5146975621165
 30
0.0
 11
305.9139546550816
 21
707.5146975621166
 31
0.0
  0
MTEXT
  5
22DC
330
229B
100
AcDbEntity
  8
実形
 62
     0
100
AcDbMText
 10
228.4867244091076
 20
719.4544151061745
 30
0.0
 40
25.0
 41
0.0
 71
     5
 72
     1
  1
5.2
 11
0.0000000000000001
 21
1.0
 31
0.0
 73
     1
 44
1.0
1001
ACAD
1000
MTEXTBEGIN
1070
    73
1070
     1
1070
    44
1040
1.0
1070
    74
1070
     0
1000
MTEXTEND
  0
LINE
  5
22DD
330
229B
100
AcDbEntity
  8
実形
 62
     0
370
    18
100
AcDbLine
 10
305.9139546550816
 20
747.7146975621165
 30
0.0
 11
305.9139546550816
 21
742.5146975621165
 31
0.0
  0
INSERT
  5
22DE
330
229B
100
AcDbEntity
  8
実形
 62
     0
370
    18
100
AcDbBlockReference
  2
_DotSmall
 10
305.9139546550816
 20
747.7146975621165
 30
0.0
 41
35.0
 42
35.0
 43
35.0
 50
270.0
  0
INSERT
  5
22DF
330
229B
100
AcDbEntity
  8
実形
 62
     0
370
    18
100
AcDbBlockReference
  2
_DotSmall
 10
305.9139546550816
 20
742.5146975621165
 30
0.0
 41
35.0
 42
35.0
 43
35.0
 50
90.0
  0
POINT
  5
22E0
330
229B
100
AcDbEntity
  8
Defpoints
 62
     0
100
AcDbPoint
 10
449.8925104049724
 20
747.7146975621165
 30
0.0
  0
POINT
  5
22E1
330
229B
100
AcDbEntity
  8
Defpoints
 62
     0
100
AcDbPoint
 10
449.8925104049724
 20
742.5146975621165
 30
0.0
  0
POINT
  5
22E2
330
229B
100
AcDbEntity
  8
Defpoints
 62
     0
100
AcDbPoint
 10
305.9139546550816
 20
742.5146975621165
 30
0.0
  0
ENDBLK
  5
22A8
330
229B
100
AcDbEntity
  8
0
100
AcDbBlockEnd
  0
BLOCK
  5
22B3
330
22A9
100
AcDbEntity
  8
0
100
AcDbBlockBegin
  2
*D74
 70
     1
 10
0.0
 20
0.0
 30
0.0
  3
*D74
  1

  0
LINE
  5
22E3
330
22A9
100
AcDbEntity
  8
実形
 62
     0
370
    18
100
AcDbLine
 10
384.8925104049724
 20
742.5146975621165
 30
0.0
 11
305.9139546550816
 21
742.5146975621165
 31
0.0
  0
LINE
  5
22E4
330
22A9
100
AcDbEntity
  8
実形
 62
     0
370
    18
100
AcDbLine
 10
329.8260026302253
 20
567.5146975621164
 30
0.0
 11
305.9139546550816
 21
567.5146975621164
 31
0.0
  0
LINE
  5
22E5
330
22A9
100
AcDbEntity
  8
実形
 62
     0
370
    18
100
AcDbLine
 10
305.9139546550816
 20
742.5146975621165
 30
0.0
 11
305.9139546550816
 21
567.5146975621164
 31
0.0
  0
MTEXT
  5
22E6
330
22A9
100
AcDbEntity
  8
実形
 62
     0
100
AcDbMText
 10
280.0401283105514
 20
638.2774494463683
 30
0.0
 40
25.0
 41
0.0
 71
     5
 72
     1
  1
175
 11
0.0000000000000001
 21
1.0
 31
0.0
 73
     1
 44
1.0
1001
ACAD
1000
MTEXTBEGIN
1070
    73
1070
     1
1070
    44
1040
1.0
1070
    74
1070
     0
1000
MTEXTEND
  0
INSERT
  5
22E7
330
22A9
100
AcDbEntity
  8
実形
 62
     0
370
    18
100
AcDbBlockReference
  2
_DotSmall
 10
305.9139546550816
 20
742.5146975621165
 30
0.0
 41
35.0
 42
35.0
 43
35.0
 50
90.0
  0
INSERT
  5
22E8
330
22A9
100
AcDbEntity
  8
実形
 62
     0
370
    18
100
AcDbBlockReference
  2
_DotSmall
 10
305.9139546550816
 20
567.5146975621164
 30
0.0
 41
35.0
 42
35.0
 43
35.0
 50
270.0
  0
POINT
  5
22E9
330
22A9
100
AcDbEntity
  8
Defpoints
 62
     0
100
AcDbPoint
 10
449.8925104049724
 20
742.5146975621165
 30
0.0
  0
POINT
  5
22EA
330
22A9
100
AcDbEntity
  8
Defpoints
 62
     0
100
AcDbPoint
 10
394.8260026302253
 20
567.5146975621164
 30
0.0
  0
POINT
  5
22EB
330
22A9
100
AcDbEntity
  8
Defpoints
 62
     0
100
AcDbPoint
 10
305.9139546550816
 20
567.5146975621164
 30
0.0
  0
ENDBLK
  5
22B4
330
22A9
100
AcDbEntity
  8
0
100
AcDbBlockEnd
  0
BLOCK
  5
22BF
330
22B5
100
AcDbEntity
  8
0
100
AcDbBlockBegin
  2
*D75
 70
     1
 10
0.0
 20
0.0
 30
0.0
  3
*D75
  1

  0
LINE
  5
22EC
330
22B5
100
AcDbEntity
  8
実形
 62
     0
370
    18
100
AcDbLine
 10
383.9137327637966
 20
765.7146975621165
 30
0.0
 11
195.2920562044403
 21
765.7146975621166
 31
0.0
  0
LINE
  5
22ED
330
22B5
100
AcDbEntity
  8
実形
 62
     0
370
    18
100
AcDbLine
 10
329.8260026302253
 20
567.5146975621164
 30
0.0
 11
195.2920562044403
 21
567.5146975621165
 31
0.0
  0
LINE
  5
22EE
330
22B5
100
AcDbEntity
  8
実形
 62
     0
370
    18
100
AcDbLine
 10
195.2920562044403
 20
765.7146975621166
 30
0.0
 11
195.2920562044403
 21
567.5146975621165
 31
0.0
  0
INSERT
  5
22EF
330
22B5
100
AcDbEntity
  8
実形
 62
     0
370
    18
100
AcDbBlockReference
  2
_DotSmall
 10
195.2920562044403
 20
765.7146975621166
 30
0.0
 41
35.0
 42
35.0
 43
35.0
 50
90.0
  0
INSERT
  5
22F0
330
22B5
100
AcDbEntity
  8
実形
 62
     0
370
    18
100
AcDbBlockReference
  2
_DotSmall
 10
195.2920562044403
 20
567.5146975621165
 30
0.0
 41
35.0
 42
35.0
 43
35.0
 50
270.0
  0
MTEXT
  5
22F1
330
22B5
100
AcDbEntity
  8
実形
 62
     0
100
AcDbMText
 10
176.5420562044402
 20
666.6146975621166
 30
0.0
 40
25.0
 41
0.0
 71
     5
 72
     1
  1
198.2
 11
0.0000000000000001
 21
1.0
 31
0.0
 73
     1
 44
1.0
1001
ACAD
1000
MTEXTBEGIN
1070
    73
1070
     1
1070
    44
1040
1.0
1070
    74
1070
     0
1000
MTEXTEND
  0
POINT
  5
22F2
330
22B5
100
AcDbEntity
  8
Defpoints
 62
     0
100
AcDbPoint
 10
448.9137327637966
 20
765.7146975621165
 30
0.0
  0
POINT
  5
22F3
330
22B5
100
AcDbEntity
  8
Defpoints
 62
     0
100
AcDbPoint
 10
394.8260026302253
 20
567.5146975621164
 30
0.0
  0
POINT
  5
22F4
330
22B5
100
AcDbEntity
  8
Defpoints
 62
     0
100
AcDbPoint
 10
195.2920562044403
 20
567.5146975621165
 30
0.0
  0
ENDBLK
  5
22C0
330
22B5
100
AcDbEntity
  8
0
100
AcDbBlockEnd
  0
BLOCK
  5
22CD
330
22C1
100
AcDbEntity
  8
0
100
AcDbBlockBegin
  2
*D76
 70
     1
 10
0.0
 20
0.0
 30
0.0
  3
*D76
  1

  0
LINE
  5
22F5
330
22C1
100
AcDbEntity
  8
実形
 62
     0
370
    18
100
AcDbLine
 10
385.985908214205
 20
567.5146975621164
 30
0.0
 11
305.9139546550816
 21
567.5146975621164
 31
0.0
  0
LINE
  5
22F6
330
22C1
100
AcDbEntity
  8
実形
 62
     0
370
    18
100
AcDbLine
 10
385.985908214205
 20
557.5146975621164
 30
0.0
 11
305.9139546550816
 21
557.5146975621164
 31
0.0
  0
LINE
  5
22F7
330
22C1
100
AcDbEntity
  8
実形
 62
     0
370
    18
100
AcDbLine
 10
305.9139546550816
 20
567.5146975621164
 30
0.0
 11
305.9139546550816
 21
602.5146975621164
 31
0.0
  0
LINE
  5
22F8
330
22C1
100
AcDbEntity
  8
実形
 62
     0
370
    18
100
AcDbLine
 10
305.9139546550816
 20
557.5146975621164
 30
0.0
 11
305.9139546550816
 21
522.5146975621164
 31
0.0
  0
MTEXT
  5
22F9
330
22C1
100
AcDbEntity
  8
実形
 62
     0
100
AcDbMText
 10
270.9139546550815
 20
551.1769138978798
 30
0.0
 40
25.0
 41
0.0
 71
     5
 72
     1
  1
7
 11
0.0000000000000001
 21
1.0
 31
0.0
 73
     1
 44
1.0
1001
ACAD
1000
MTEXTBEGIN
1070
    73
1070
     1
1070
    44
1040
1.0
1070
    74
1070
     0
1000
MTEXTEND
  0
LINE
  5
22FA
330
22C1
100
AcDbEntity
  8
実形
 62
     0
370
    18
100
AcDbLine
 10
305.9139546550816
 20
567.5146975621164
 30
0.0
 11
305.9139546550816
 21
557.5146975621164
 31
0.0
  0
INSERT
  5
22FB
330
22C1
100
AcDbEntity
  8
実形
 62
     0
370
    18
100
AcDbBlockReference
  2
_DotSmall
 10
305.9139546550816
 20
567.5146975621164
 30
0.0
 41
35.0
 42
35.0
 43
35.0
 50
270.0
  0
INSERT
  5
22FC
330
22C1
100
AcDbEntity
  8
実形
 62
     0
370
    18
100
AcDbBlockReference
  2
_DotSmall
 10
305.9139546550816
 20
557.5146975621164
 30
0.0
 41
35.0
 42
35.0
 43
35.0
 50
90.0
  0
POINT
  5
22FD
330
22C1
100
AcDbEntity
  8
Defpoints
 62
     0
100
AcDbPoint
 10
450.985908214205
 20
567.5146975621164
 30
0.0
  0
POINT
  5
22FE
330
22C1
100
AcDbEntity
  8
Defpoints
 62
     0
100
AcDbPoint
 10
450.985908214205
 20
557.5146975621164
 30
0.0
  0
POINT
  5
22FF
330
22C1
100
AcDbEntity
  8
Defpoints
 62
     0
100
AcDbPoint
 10
305.9139546550816
 20
557.5146975621164
 30
0.0
  0
ENDBLK
  5
22CE
330
22C1
100
AcDbEntity
  8
0
100
AcDbBlockEnd
  0
BLOCK
  5
2407
330
23FD
100
AcDbEntity
  8
0
100
AcDbBlockBegin
  2
*D89
 70
     1
 10
0.0
 20
0.0
 30
0.0
  3
*D89
  1

  0
LINE
  5
2544
330
23FD
100
AcDbEntity
  8
寸法
 62
     0
370
    15
100
AcDbLine
 10
1952.133323332605
 20
1440.910441473465
 30
0.0
 11
1998.705168003993
 21
1440.910441473465
 31
0.0
  0
LINE
  5
2545
330
23FD
100
AcDbEntity
  8
寸法
 62
     0
370
    15
100
AcDbLine
 10
1952.133323332605
 20
1281.910441473465
 30
0.0
 11
1998.705168003993
 21
1281.910441473465
 31
0.0
  0
LINE
  5
2546
330
23FD
100
AcDbEntity
  8
寸法
 62
     0
370
    15
100
AcDbLine
 10
1998.705168003993
 20
1440.910441473465
 30
0.0
 11
1998.705168003993
 21
1281.910441473465
 31
0.0
  0
MTEXT
  5
2547
330
23FD
100
AcDbEntity
  8
寸法
 62
     0
100
AcDbMText
 10
1977.902365347899
 20
1363.063556296532
 30
0.0
 40
25.0
 41
0.0
 71
     5
 72
     1
  1
158%%C
 11
0.0000000000000001
 21
1.0
 31
0.0
 73
     1
 44
1.0
1001
ACAD
1000
MTEXTBEGIN
1070
    73
1070
     1
1070
    44
1040
1.0
1070
    74
1070
     0
1000
MTEXTEND
  0
INSERT
  5
2548
330
23FD
100
AcDbEntity
  8
寸法
 62
     0
370
    15
100
AcDbBlockReference
  2
_DotSmall
 10
1998.705168003993
 20
1440.910441473465
 30
0.0
 41
35.0
 42
35.0
 43
35.0
 50
90.0
  0
INSERT
  5
2549
330
23FD
100
AcDbEntity
  8
寸法
 62
     0
370
    15
100
AcDbBlockReference
  2
_DotSmall
 10
1998.705168003993
 20
1281.910441473465
 30
0.0
 41
35.0
 42
35.0
 43
35.0
 50
270.0
  0
POINT
  5
254A
330
23FD
100
AcDbEntity
  8
Defpoints
 62
     0
100
AcDbPoint
 10
1887.133323332605
 20
1440.910441473465
 30
0.0
  0
POINT
  5
254B
330
23FD
100
AcDbEntity
  8
Defpoints
 62
     0
100
AcDbPoint
 10
1887.133323332605
 20
1281.910441473465
 30
0.0
  0
POINT
  5
254C
330
23FD
100
AcDbEntity
  8
Defpoints
 62
     0
100
AcDbPoint
 10
1998.705168003993
 20
1281.910441473465
 30
0.0
  0
ENDBLK
  5
2408
330
23FD
100
AcDbEntity
  8
0
100
AcDbBlockEnd
  0
BLOCK
  5
2413
330
2409
100
AcDbEntity
  8
0
100
AcDbBlockBegin
  2
*D90
 70
     1
 10
0.0
 20
0.0
 30
0.0
  3
*D90
  1

  0
LINE
  5
253B
330
2409
100
AcDbEntity
  8
寸法
 62
     0
370
    15
100
AcDbLine
 10
1869.372709155735
 20
1451.910441473465
 30
0.0
 11
1826.66958456646
 21
1451.910441473465
 31
0.0
  0
LINE
  5
253C
330
2409
100
AcDbEntity
  8
寸法
 62
     0
370
    15
100
AcDbLine
 10
1869.372709155735
 20
1270.910441473465
 30
0.0
 11
1826.66958456646
 21
1270.910441473465
 31
0.0
  0
LINE
  5
253D
330
2409
100
AcDbEntity
  8
寸法
 62
     0
370
    15
100
AcDbLine
 10
1826.66958456646
 20
1451.910441473465
 30
0.0
 11
1826.66958456646
 21
1270.910441473465
 31
0.0
  0
MTEXT
  5
253E
330
2409
100
AcDbEntity
  8
寸法
 62
     0
100
AcDbMText
 10
1803.044329102454
 20
1363.680944967906
 30
0.0
 40
25.0
 41
0.0
 71
     5
 72
     1
  1
181%%C
 11
0.0000000000000001
 21
1.0
 31
0.0
 73
     1
 44
1.0
1001
ACAD
1000
MTEXTBEGIN
1070
    73
1070
     1
1070
    44
1040
1.0
1070
    74
1070
     0
1000
MTEXTEND
  0
INSERT
  5
253F
330
2409
100
AcDbEntity
  8
寸法
 62
     0
370
    15
100
AcDbBlockReference
  2
_DotSmall
 10
1826.66958456646
 20
1451.910441473465
 30
0.0
 41
35.0
 42
35.0
 43
35.0
 50
90.0
  0
INSERT
  5
2540
330
2409
100
AcDbEntity
  8
寸法
 62
     0
370
    15
100
AcDbBlockReference
  2
_DotSmall
 10
1826.66958456646
 20
1270.910441473465
 30
0.0
 41
35.0
 42
35.0
 43
35.0
 50
270.0
  0
POINT
  5
2541
330
2409
100
AcDbEntity
  8
Defpoints
 62
     0
100
AcDbPoint
 10
1934.372709155736
 20
1451.910441473465
 30
0.0
  0
POINT
  5
2542
330
2409
100
AcDbEntity
  8
Defpoints
 62
     0
100
AcDbPoint
 10
1934.372709155736
 20
1270.910441473465
 30
0.0
  0
POINT
  5
2543
330
2409
100
AcDbEntity
  8
Defpoints
 62
     0
100
AcDbPoint
 10
1826.66958456646
 20
1270.910441473465
 30
0.0
  0
ENDBLK
  5
2414
330
2409
100
AcDbEntity
  8
0
100
AcDbBlockEnd
  0
BLOCK
  5
24C4
330
24BA
100
AcDbEntity
  8
0
100
AcDbBlockBegin
  2
*D97
 70
     1
 10
0.0
 20
0.0
 30
0.0
  3
*D97
  1

  0
LINE
  5
2532
330
24BA
100
AcDbEntity
  8
実形
 62
     0
370
    18
100
AcDbLine
 10
1681.933323332605
 20
1019.376800323484
 30
0.0
 11
1681.933323332605
 21
923.5698131792856
 31
0.0
  0
LINE
  5
2533
330
24BA
100
AcDbEntity
  8
実形
 62
     0
370
    18
100
AcDbLine
 10
1699.933323332605
 20
1019.376800323484
 30
0.0
 11
1699.933323332605
 21
923.5698131792856
 31
0.0
  0
LINE
  5
2534
330
24BA
100
AcDbEntity
  8
実形
 62
     0
370
    18
100
AcDbLine
 10
1681.933323332605
 20
923.5698131792856
 30
0.0
 11
1699.933323332605
 21
923.5698131792856
 31
0.0
  0
MTEXT
  5
2535
330
24BA
100
AcDbEntity
  8
実形
 62
     0
100
AcDbMText
 10
1650.80144043146
 20
952.18609988069
 30
0.0
 40
25.0
 41
0.0
 71
     5
 72
     1
  1
18
 73
     1
 44
1.0
1001
ACAD
1000
MTEXTBEGIN
1070
    73
1070
     1
1070
    44
1040
1.0
1070
    74
1070
     0
1000
MTEXTEND
  0
INSERT
  5
2536
330
24BA
100
AcDbEntity
  8
実形
 62
     0
370
    18
100
AcDbBlockReference
  2
_DotSmall
 10
1681.933323332605
 20
923.5698131792856
 30
0.0
 41
35.0
 42
35.0
 43
35.0
 50
180.0
  0
INSERT
  5
2537
330
24BA
100
AcDbEntity
  8
実形
 62
     0
370
    18
100
AcDbBlockReference
  2
_DotSmall
 10
1699.933323332605
 20
923.5698131792856
 30
0.0
 41
35.0
 42
35.0
 43
35.0
  0
POINT
  5
2538
330
24BA
100
AcDbEntity
  8
Defpoints
 62
     0
100
AcDbPoint
 10
1681.933323332605
 20
1084.376800323484
 30
0.0
  0
POINT
  5
2539
330
24BA
100
AcDbEntity
  8
Defpoints
 62
     0
100
AcDbPoint
 10
1699.933323332605
 20
1084.376800323484
 30
0.0
  0
POINT
  5
253A
330
24BA
100
AcDbEntity
  8
Defpoints
 62
     0
100
AcDbPoint
 10
1699.933323332605
 20
923.5698131792856
 30
0.0
  0
ENDBLK
  5
24C5
330
24BA
100
AcDbEntity
  8
0
100
AcDbBlockEnd
  0
BLOCK
  5
24D0
330
24C6
100
AcDbEntity
  8
0
100
AcDbBlockBegin
  2
*D98
 70
     1
 10
0.0
 20
0.0
 30
0.0
  3
*D98
  1

  0
LINE
  5
2529
330
24C6
100
AcDbEntity
  8
実形
 62
     0
370
    18
100
AcDbLine
 10
1699.933323332605
 20
1019.376800323484
 30
0.0
 11
1699.933323332605
 21
923.5698131792856
 31
0.0
  0
LINE
  5
252A
330
24C6
100
AcDbEntity
  8
実形
 62
     0
370
    18
100
AcDbLine
 10
1880.133323332604
 20
1019.376800323484
 30
0.0
 11
1880.133323332604
 21
923.5698131792856
 31
0.0
  0
LINE
  5
252B
330
24C6
100
AcDbEntity
  8
実形
 62
     0
370
    18
100
AcDbLine
 10
1699.933323332605
 20
923.5698131792856
 30
0.0
 11
1880.133323332604
 21
923.5698131792856
 31
0.0
  0
INSERT
  5
252C
330
24C6
100
AcDbEntity
  8
実形
 62
     0
370
    18
100
AcDbBlockReference
  2
_DotSmall
 10
1699.933323332605
 20
923.5698131792856
 30
0.0
 41
35.0
 42
35.0
 43
35.0
 50
180.0
  0
INSERT
  5
252D
330
24C6
100
AcDbEntity
  8
実形
 62
     0
370
    18
100
AcDbBlockReference
  2
_DotSmall
 10
1880.133323332604
 20
923.5698131792856
 30
0.0
 41
35.0
 42
35.0
 43
35.0
  0
MTEXT
  5
252E
330
24C6
100
AcDbEntity
  8
実形
 62
     0
100
AcDbMText
 10
1790.033323332605
 20
942.3198131792856
 30
0.0
 40
25.0
 41
0.0
 71
     5
 72
     1
  1
180.2
 73
     1
 44
1.0
1001
ACAD
1000
MTEXTBEGIN
1070
    73
1070
     1
1070
    44
1040
1.0
1070
    74
1070
     0
1000
MTEXTEND
  0
POINT
  5
252F
330
24C6
100
AcDbEntity
  8
Defpoints
 62
     0
100
AcDbPoint
 10
1699.933323332605
 20
1084.376800323484
 30
0.0
  0
POINT
  5
2530
330
24C6
100
AcDbEntity
  8
Defpoints
 62
     0
100
AcDbPoint
 10
1880.133323332604
 20
1084.376800323484
 30
0.0
  0
POINT
  5
2531
330
24C6
100
AcDbEntity
  8
Defpoints
 62
     0
100
AcDbPoint
 10
1880.133323332604
 20
923.5698131792856
 30
0.0
  0
ENDBLK
  5
24D1
330
24C6
100
AcDbEntity
  8
0
100
AcDbBlockEnd
  0
BLOCK
  5
24DE
330
24D2
100
AcDbEntity
  8
0
100
AcDbBlockBegin
  2
*D99
 70
     1
 10
0.0
 20
0.0
 30
0.0
  3
*D99
  1

  0
LINE
  5
251E
330
24D2
100
AcDbEntity
  8
実形
 62
     0
370
    18
100
AcDbLine
 10
1880.133323332604
 20
1019.376800323484
 30
0.0
 11
1880.133323332604
 21
967.2783942072824
 31
0.0
  0
LINE
  5
251F
330
24D2
100
AcDbEntity
  8
実形
 62
     0
370
    18
100
AcDbLine
 10
1890.133323332604
 20
1019.376800323484
 30
0.0
 11
1890.133323332604
 21
967.2783942072824
 31
0.0
  0
LINE
  5
2520
330
24D2
100
AcDbEntity
  8
実形
 62
     0
370
    18
100
AcDbLine
 10
1880.133323332604
 20
967.2783942072824
 30
0.0
 11
1845.133323332605
 21
967.2783942072824
 31
0.0
  0
LINE
  5
2521
330
24D2
100
AcDbEntity
  8
実形
 62
     0
370
    18
100
AcDbLine
 10
1890.133323332604
 20
967.2783942072824
 30
0.0
 11
1925.133323332605
 21
967.2783942072824
 31
0.0
  0
MTEXT
  5
2522
330
24D2
100
AcDbEntity
  8
実形
 62
     0
100
AcDbMText
 10
1922.594284499297
 20
990.4637983858323
 30
0.0
 40
25.0
 41
0.0
 71
     5
 72
     1
  1
7
 73
     1
 44
1.0
1001
ACAD
1000
MTEXTBEGIN
1070
    73
1070
     1
1070
    44
1040
1.0
1070
    74
1070
     0
1000
MTEXTEND
  0
LINE
  5
2523
330
24D2
100
AcDbEntity
  8
実形
 62
     0
370
    18
100
AcDbLine
 10
1880.133323332604
 20
967.2783942072824
 30
0.0
 11
1890.133323332604
 21
967.2783942072824
 31
0.0
  0
INSERT
  5
2524
330
24D2
100
AcDbEntity
  8
実形
 62
     0
370
    18
100
AcDbBlockReference
  2
_DotSmall
 10
1880.133323332604
 20
967.2783942072824
 30
0.0
 41
35.0
 42
35.0
 43
35.0
  0
INSERT
  5
2525
330
24D2
100
AcDbEntity
  8
実形
 62
     0
370
    18
100
AcDbBlockReference
  2
_DotSmall
 10
1890.133323332604
 20
967.2783942072824
 30
0.0
 41
35.0
 42
35.0
 43
35.0
 50
180.0
  0
POINT
  5
2526
330
24D2
100
AcDbEntity
  8
Defpoints
 62
     0
100
AcDbPoint
 10
1880.133323332604
 20
1084.376800323484
 30
0.0
  0
POINT
  5
2527
330
24D2
100
AcDbEntity
  8
Defpoints
 62
     0
100
AcDbPoint
 10
1890.133323332604
 20
1084.376800323484
 30
0.0
  0
POINT
  5
2528
330
24D2
100
AcDbEntity
  8
Defpoints
 62
     0
100
AcDbPoint
 10
1890.133323332604
 20
967.2783942072824
 30
0.0
  0
ENDBLK
  5
24DF
330
24D2
100
AcDbEntity
  8
0
100
AcDbBlockEnd
  0
BLOCK
  5
24EA
330
24E0
100
AcDbEntity
  8
0
100
AcDbBlockBegin
  2
*D100
 70
     1
 10
0.0
 20
0.0
 30
0.0
  3
*D100
  1

  0
LINE
  5
2515
330
24E0
100
AcDbEntity
  8
実形
 62
     0
370
    18
100
AcDbLine
 10
1681.933323332605
 20
1019.376800323484
 30
0.0
 11
1681.933323332605
 21
864.7917252290939
 31
0.0
  0
LINE
  5
2516
330
24E0
100
AcDbEntity
  8
実形
 62
     0
370
    18
100
AcDbLine
 10
1880.133323332604
 20
1019.376800323484
 30
0.0
 11
1880.133323332604
 21
864.7917252290939
 31
0.0
  0
LINE
  5
2517
330
24E0
100
AcDbEntity
  8
実形
 62
     0
370
    18
100
AcDbLine
 10
1681.933323332605
 20
864.7917252290939
 30
0.0
 11
1880.133323332604
 21
864.7917252290939
 31
0.0
  0
INSERT
  5
2518
330
24E0
100
AcDbEntity
  8
実形
 62
     0
370
    18
100
AcDbBlockReference
  2
_DotSmall
 10
1681.933323332605
 20
864.7917252290939
 30
0.0
 41
35.0
 42
35.0
 43
35.0
 50
180.0
  0
INSERT
  5
2519
330
24E0
100
AcDbEntity
  8
実形
 62
     0
370
    18
100
AcDbBlockReference
  2
_DotSmall
 10
1880.133323332604
 20
864.7917252290939
 30
0.0
 41
35.0
 42
35.0
 43
35.0
  0
MTEXT
  5
251A
330
24E0
100
AcDbEntity
  8
実形
 62
     0
100
AcDbMText
 10
1781.033323332604
 20
883.5417252290939
 30
0.0
 40
25.0
 41
0.0
 71
     5
 72
     1
  1
198.2
 73
     1
 44
1.0
1001
ACAD
1000
MTEXTBEGIN
1070
    73
1070
     1
1070
    44
1040
1.0
1070
    74
1070
     0
1000
MTEXTEND
  0
POINT
  5
251B
330
24E0
100
AcDbEntity
  8
Defpoints
 62
     0
100
AcDbPoint
 10
1681.933323332605
 20
1084.376800323484
 30
0.0
  0
POINT
  5
251C
330
24E0
100
AcDbEntity
  8
Defpoints
 62
     0
100
AcDbPoint
 10
1880.133323332604
 20
1084.376800323484
 30
0.0
  0
POINT
  5
251D
330
24E0
100
AcDbEntity
  8
Defpoints
 62
     0
100
AcDbPoint
 10
1880.133323332604
 20
864.7917252290939
 30
0.0
  0
ENDBLK
  5
24EB
330
24E0
100
AcDbEntity
  8
0
100
AcDbBlockEnd
  0
ENDSEC
  0
SECTION
  2
ENTITIES
  0
LINE
  5
73
330
1F
100
AcDbEntity
  8
0
100
AcDbLine
 10
119.0
 20
4.0
 30
0.0
 11
278.0
 21
4.0
 31
0.0
  0
LINE
  5
9C
330
1F
100
AcDbEntity
  8
補助
100
AcDbLine
 10
119.0
 20
4.0
 30
0.0
 11
2784.0
 21
4.0
 31
0.0
  0
LINE
  5
A0
330
1F
100
AcDbEntity
  8
補助
100
AcDbLine
 10
2784.0
 20
2024.0
 30
0.0
 11
119.0
 21
2024.0
 31
0.0
  0
LINE
  5
A5
330
1F
100
AcDbEntity
  8
補助
100
AcDbLine
 10
2784.0
 20
4.0
 30
0.0
 11
2784.0
 21
2024.0
 31
0.0
  0
LINE
  5
2DD
330
1F
100
AcDbEntity
  8
実形
100
AcDbLine
 10
515.635782713377
 20
1084.222941473464
 30
0.0
 11
1345.635782713377
 21
1084.222941473464
 31
0.0
  0
LINE
  5
2E0
330
1F
100
AcDbEntity
  8
実形
100
AcDbLine
 10
515.635782713377
 20
1604.222941473464
 30
0.0
 11
1345.635782713377
 21
1604.222941473464
 31
0.0
  0
LINE
  5
2F1
330
1F
100
AcDbEntity
  8
実形
100
AcDbLine
 10
455.635782713377
 20
1402.281409299639
 30
0.0
 11
455.635782713377
 21
1206.164473647288
 31
0.0
  0
LINE
  5
2F2
330
1F
100
AcDbEntity
  8
実形
100
AcDbLine
 10
1405.635782713377
 20
1402.281409299639
 30
0.0
 11
1405.635782713377
 21
1206.164473647288
 31
0.0
  0
LINE
  5
2FD
330
1F
100
AcDbEntity
  8
実形
100
AcDbLine
 10
455.635782713377
 20
1464.222941473464
 30
0.0
 11
455.635782713377
 21
1144.222941473464
 31
0.0
  0
LINE
  5
2FE
330
1F
100
AcDbEntity
  8
実形
100
AcDbLine
 10
515.635782713377
 20
1524.222941473464
 30
0.0
 11
1345.635782713377
 21
1524.222941473464
 31
0.0
  0
LINE
  5
2FF
330
1F
100
AcDbEntity
  8
実形
100
AcDbLine
 10
1405.635782713377
 20
1464.222941473464
 30
0.0
 11
1405.635782713377
 21
1144.222941473464
 31
0.0
  0
ARC
  5
300
330
1F
100
AcDbEntity
  8
実形
100
AcDbCircle
 10
515.635782713377
 20
1464.222941473464
 30
0.0
 40
60.0
100
AcDbArc
 50
90.0
 51
180.0
  0
ARC
  5
301
330
1F
100
AcDbEntity
  8
実形
100
AcDbCircle
 10
515.635782713377
 20
1144.222941473464
 30
0.0
 40
60.0
100
AcDbArc
 50
180.0
 51
270.0
  0
ARC
  5
302
330
1F
100
AcDbEntity
  8
実形
100
AcDbCircle
 10
1345.635782713377
 20
1144.222941473464
 30
0.0
 40
60.0
100
AcDbArc
 50
270.0
 51
0.0
  0
ARC
  5
303
330
1F
100
AcDbEntity
  8
実形
100
AcDbCircle
 10
1345.635782713377
 20
1464.222941473464
 30
0.0
 40
60.0
100
AcDbArc
 50
0.0
 51
90.0
  0
LINE
  5
306
330
1F
100
AcDbEntity
  8
実形
100
AcDbLine
 10
455.635782713377
 20
1544.222941473464
 30
0.0
 11
455.635782713377
 21
1206.164473647288
 31
0.0
  0
LINE
  5
307
330
1F
100
AcDbEntity
  8
実形
100
AcDbLine
 10
1405.635782713377
 20
1544.222941473464
 30
0.0
 11
1405.635782713377
 21
1206.164473647288
 31
0.0
  0
ARC
  5
308
330
1F
100
AcDbEntity
  8
実形
100
AcDbCircle
 10
515.635782713377
 20
1544.222941473464
 30
0.0
 40
60.0
100
AcDbArc
 50
90.0
 51
180.0
  0
ARC
  5
309
330
1F
100
AcDbEntity
  8
実形
100
AcDbCircle
 10
1345.635782713377
 20
1544.222941473464
 30
0.0
 40
60.0
100
AcDbArc
 50
0.0
 51
90.0
  0
LINE
  5
319
330
1F
100
AcDbEntity
  8
実形
100
AcDbLine
 10
455.635782713377
 20
747.7146975621165
 30
0.0
 11
455.6357827133768
 21
603.9735048835881
 31
0.0
  0
LINE
  5
31B
330
1F
100
AcDbEntity
  8
実形
100
AcDbLine
 10
1405.635782713377
 20
607.4625385723489
 30
0.0
 11
1405.635782713377
 21
747.7146975621163
 31
0.0
  0
LINE
  5
327
330
1F
100
AcDbEntity
  8
実形
100
AcDbLine
 10
455.635782713377
 20
742.5146975621164
 30
0.0
 11
1405.635782713377
 21
742.5146975621164
 31
0.0
  0
DIMENSION
  5
40C
330
1F
100
AcDbEntity
  8
寸法
100
AcDbDimension
  2
*D4
 10
336.8401218518176
 20
1099.222941473463
 30
0.0
 11
310.9398706622342
 21
1107.652065525801
 31
0.0
 70
   160
 71
     5
 42
15.0
  3
ISO-25
100
AcDbAlignedDimension
 13
440.635782713377
 23
1084.222941473464
 33
0.0
 14
440.635782713377
 24
1099.222941473463
 34
0.0
 50
90.0
100
AcDbRotatedDimension
  0
DIMENSION
  5
41A
330
1F
100
AcDbEntity
  8
寸法
100
AcDbDimension
  2
*D5
 10
336.8401218518176
 20
1509.222941473464
 30
0.0
 11
318.0901218518173
 21
1304.222941473464
 31
0.0
 70
    32
 71
     5
 42
410.0
  3
ISO-25
100
AcDbAlignedDimension
 13
440.635782713377
 23
1099.222941473463
 33
0.0
 14
440.635782713377
 24
1509.222941473464
 34
0.0
 50
90.0
100
AcDbRotatedDimension
1001
ACAD
1000
DSTYLE
1002
{
1070
   279
1070
     1
1002
}
  0
DIMENSION
  5
427
330
1F
100
AcDbEntity
  8
寸法
100
AcDbDimension
  2
*D6
 10
336.8401218518176
 20
1524.222941473464
 30
0.0
 11
328.2219710345052
 21
1500.11665137718
 31
0.0
 70
   160
 71
     5
 42
15.0
  3
ISO-25
100
AcDbAlignedDimension
 13
440.635782713377
 23
1509.222941473464
 33
0.0
 14
440.635782713377
 24
1524.222941473464
 34
0.0
 50
90.0
100
AcDbRotatedDimension
1001
ACAD
1000
DSTYLE
1002
{
1070
   279
1070
     1
1002
}
  0
DIMENSION
  5
459
330
1F
100
AcDbEntity
  8
寸法
100
AcDbDimension
  2
*D7
 10
260.3476796122604
 20
1084.222941473464
 30
0.0
 11
241.5976796122603
 21
1304.222941473464
 31
0.0
 70
    32
 71
     5
 42
440.0
  3
ISO-25
100
AcDbAlignedDimension
 13
440.635782713377
 23
1524.222941473464
 33
0.0
 14
440.635782713377
 24
1084.222941473464
 34
0.0
 50
90.0
100
AcDbRotatedDimension
  0
DIMENSION
  5
466
330
1F
100
AcDbEntity
  8
寸法
100
AcDbDimension
  2
*D8
 10
260.3476796122604
 20
1604.222941473464
 30
0.0
 11
241.5976796122602
 21
1564.222941473464
 31
0.0
 70
    32
 71
     5
 42
80.0
  3
ISO-25
100
AcDbAlignedDimension
 13
440.635782713377
 23
1524.222941473464
 33
0.0
 14
440.635782713377
 24
1604.222941473464
 34
0.0
 50
90.0
100
AcDbRotatedDimension
  0
DIMENSION
  5
47C
330
1F
100
AcDbEntity
  8
寸法
100
AcDbDimension
  2
*D9
 10
260.3476796122604
 20
1619.222941473464
 30
0.0
 11
270.8627699176623
 21
1646.149660753797
 31
0.0
 70
   160
 71
     5
 42
15.0
  3
ISO-25
100
AcDbAlignedDimension
 13
440.635782713377
 23
1604.222941473464
 33
0.0
 14
440.635782713377
 24
1619.222941473464
 34
0.0
 50
90.0
100
AcDbRotatedDimension
1001
ACAD
1000
DSTYLE
1002
{
1070
   279
1070
     1
1002
}
  0
DIMENSION
  5
492
330
1F
100
AcDbEntity
  8
寸法
100
AcDbDimension
  2
*D10
 10
182.7988959020822
 20
1069.222941473464
 30
0.0
 11
164.0488959020821
 21
1344.222941473464
 31
0.0
 70
    32
 71
     5
 42
550.0
  3
ISO-25
100
AcDbAlignedDimension
 13
440.635782713377
 23
1619.222941473464
 33
0.0
 14
440.635782713377
 24
1069.222941473464
 34
0.0
 50
90.0
100
AcDbRotatedDimension
  0
DIMENSION
  5
4C3
330
1F
100
AcDbEntity
  8
寸法
100
AcDbDimension
  2
*D11
 10
260.3476796122604
 20
1069.222941473464
 30
0.0
 11
232.3848934190646
 21
1096.663048930046
 31
0.0
 70
   160
 71
     5
 42
15.0
  3
ISO-25
100
AcDbAlignedDimension
 13
440.635782713377
 23
1084.222941473464
 33
0.0
 14
440.635782713377
 24
1069.222941473464
 34
0.0
 50
90.0
100
AcDbRotatedDimension
  0
DIMENSION
  5
4E5
330
1F
100
AcDbEntity
  8
寸法
100
AcDbDimension
  2
*D12
 10
455.635782713377
 20
951.9996160725586
 30
0.0
 11
491.5302041006253
 21
971.5474951746273
 31
0.0
 70
   160
 71
     5
 42
15.0
  3
ISO-25
100
AcDbAlignedDimension
 13
440.635782713377
 23
1069.222941473464
 33
0.0
 14
455.635782713377
 24
1069.222941473464
 34
0.0
100
AcDbRotatedDimension
  0
DIMENSION
  5
4FD
330
1F
100
AcDbEntity
  8
寸法
100
AcDbDimension
  2
*D13
 10
1405.635782713377
 20
951.9996160725586
 30
0.0
 11
930.6357827133769
 21
970.7496160725586
 31
0.0
 70
    32
 71
     5
 42
950.0
  3
ISO-25
100
AcDbAlignedDimension
 13
455.635782713377
 23
1069.222941473464
 33
0.0
 14
1405.635782713377
 24
1069.222941473464
 34
0.0
100
AcDbRotatedDimension
1001
ACAD
1000
DSTYLE
1002
{
1070
   279
1070
     1
1002
}
  0
DIMENSION
  5
50A
330
1F
100
AcDbEntity
  8
寸法
100
AcDbDimension
  2
*D14
 10
1420.635782713377
 20
951.9996160725586
 30
0.0
 11
1364.003004906638
 21
951.9996160725586
 31
0.0
 70
   160
 71
     5
 42
15.0
  3
ISO-25
100
AcDbAlignedDimension
 13
1405.635782713377
 23
1069.222941473464
 33
0.0
 14
1420.635782713377
 24
1069.222941473464
 34
0.0
100
AcDbRotatedDimension
1001
ACAD
1000
DSTYLE
1002
{
1070
   279
1070
     1
1002
}
  0
DIMENSION
  5
522
330
1F
100
AcDbEntity
  8
寸法
100
AcDbDimension
  2
*D15
 10
1420.635782713377
 20
877.8792008388991
 30
0.0
 11
930.6357827133769
 21
896.6292008388991
 31
0.0
 70
    33
 71
     5
 42
980.0
  3
ISO-25
100
AcDbAlignedDimension
 13
440.635782713377
 23
1069.222941473464
 33
0.0
 14
1420.635782713377
 24
1069.222941473464
 34
0.0
  0
TEXT
  5
571
330
1F
100
AcDbEntity
  8
寸法
 62
     0
100
AcDbText
 10
473.3989990162154
 20
525.8884003577962
 30
0.0
 40
25.0
  1
1.5゜
 11
473.3989990162154
 21
522.5550670244628
 31
0.0
100
AcDbText
 73
     1
  0
LEADER
  5
8DB
330
1F
100
AcDbEntity
  8
寸法
100
AcDbLeader
  3
ISO-25
 40
66.66666666666666
 41
87.5
 76
     2
 10
821.4779491341696
 20
1111.513559326508
 30
0.0
 10
849.6217469932044
 20
1151.352446053371
 30
0.0
213
0.0
223
-12.5
233
0.0
1001
ACAD
1000
DSTYLE
1002
{
1070
   147
1040
6.25
1070
    77
1070
     0
1070
    41
1040
20.0
1070
   342
1005
DA
1002
}
  0
TEXT
  5
8DD
330
1F
100
AcDbEntity
  8
寸法
100
AcDbText
 10
860.1756732738186
 20
1151.170583639031
 30
0.0
 40
25.0
  1
8500R
 11
860.1756732738186
 21
1147.837250305698
 31
0.0
100
AcDbText
 73
     1
  0
LEADER
  5
C24
330
1F
100
AcDbEntity
  8
実形
100
AcDbLeader
  3
ISO-25
 40
25.0
 41
16.66666666666666
 76
     2
 10
1378.009053158633
 20
1506.646365730988
 30
0.0
 10
1309.738807233033
 20
1476.538557690301
 30
0.0
213
0.0
223
12.5
233
0.0
1001
ACAD
1000
DSTYLE
1002
{
1070
   147
1040
6.25
1070
    77
1070
     0
1070
    41
1040
20.0
1070
   342
1005
DA
1002
}
  0
LEADER
  5
C26
330
1F
100
AcDbEntity
  8
実形
100
AcDbLeader
  3
ISO-25
 40
25.0
 41
16.66666666666666
 76
     2
 10
1374.749613953241
 20
1465.385171998646
 30
0.0
 10
1337.227733476965
 20
1423.875413208252
 30
0.0
213
0.0
223
12.5
233
0.0
1001
ACAD
1000
DSTYLE
1002
{
1070
   147
1040
6.25
1070
    77
1070
     0
1070
    41
1040
20.0
1070
   342
1005
DA
1002
}
  0
LEADER
  5
C29
330
1F
100
AcDbEntity
  8
実形
100
AcDbLeader
  3
ISO-25
 40
74.99999999999999
 41
41.66666666666666
 76
     2
 10
1398.766365410333
 20
1304.317024565788
 30
0.0
 10
1339.479419984668
 20
1304.317024565788
 30
0.0
213
0.0
223
12.5
233
0.0
1001
ACAD
1000
DSTYLE
1002
{
1070
   147
1040
6.25
1070
    77
1070
     0
1070
    41
1040
20.0
1070
   342
1005
DA
1002
}
  0
TEXT
  5
C2B
330
1F
100
AcDbEntity
  8
実形
100
AcDbText
 10
1237.565705472526
 20
1458.773788815214
 30
0.0
 40
25.0
  1
60R
 72
     2
 11
1300.065705472526
 21
1455.440455481881
 31
0.0
100
AcDbText
 73
     1
  0
TEXT
  5
C2C
330
1F
100
AcDbEntity
  8
実形
100
AcDbText
 10
1257.962935024071
 20
1394.537797688301
 30
0.0
 40
25.0
  1
100R
 72
     2
 11
1332.962935024071
 21
1391.204464354968
 31
0.0
100
AcDbText
 73
     1
  0
TEXT
  5
C2E
330
1F
100
AcDbEntity
  8
実形
100
AcDbText
 10
1223.939962999553
 20
1291.817024565787
 30
0.0
 40
25.0
  1
2000R
 72
     2
 11
1328.10662966622
 21
1304.317024565788
 31
0.0
100
AcDbText
 73
     2
  0
LEADER
  5
CB8
330
1F
100
AcDbEntity
  8
実形
100
AcDbLeader
  3
ISO-25
 76
     2
 10
1388.742766503336
 20
590.8169797117586
 30
0.0
 10
1345.550935953629
 20
629.7884472358809
 30
0.0
1001
ACAD
1000
DSTYLE
1002
{
1070
   147
1040
6.25
1070
    77
1070
     0
1070
    41
1040
20.0
1070
   342
1005
DA
1002
}
  0
LEADER
  5
CB9
330
1F
100
AcDbEntity
  8
実形
 62
     0
100
AcDbLeader
  3
ISO-25
 76
     2
 10
471.7615146561396
 20
579.3163631242339
 30
0.0
 10
512.4112682974709
 20
619.9484598715935
 30
0.0
1001
ACAD
1000
DSTYLE
1002
{
1070
   147
1040
6.25
1070
    77
1070
     0
1070
    41
1040
20.0
1070
   342
1005
DA
1002
}
  0
TEXT
  5
CC2
330
1F
100
AcDbEntity
  8
寸法
100
AcDbText
 10
1274.255144279642
 20
623.2916981814754
 30
0.0
 40
25.0
  1
30R
 11
1274.255144279642
 21
619.9583648481421
 31
0.0
100
AcDbText
 73
     1
  0
TEXT
  5
CC3
330
1F
100
AcDbEntity
  8
寸法
100
AcDbText
 10
521.2556199482742
 20
625.611010941992
 30
0.0
 40
25.0
  1
30R
 11
521.2556199482742
 21
622.2776776086586
 31
0.0
100
AcDbText
 73
     1
  0
TEXT
  5
DC3
330
1F
100
AcDbEntity
  8
0
100
AcDbText
 10
191.7098177320886
 20
90.06009540427749
 30
0.0
 40
25.0
  1
※実寸には製造上の誤差が多少生ずる場合があります。シンクの穴あけ加工は現物合わせにてお願いします。
  7
ｍｓ明朝
100
AcDbText
  0
TEXT
  5
FFB
330
1F
100
AcDbEntity
  8
補助
100
AcDbText
 10
2080.114285714286
 20
85.29999999999999
 30
0.0
 40
30.0
  1
尺度
  7
ｍｓ明朝
 72
     4
 11
2124.0
 21
101.5
 31
0.0
100
AcDbText
  0
TEXT
  5
FFC
330
1F
100
AcDbEntity
  8
補助
100
AcDbText
 10
2080.114285714286
 20
151.8428571428571
 30
0.0
 40
30.0
  1
品番
  7
ｍｓ明朝
 72
     4
 11
2124.0
 21
166.5
 31
0.0
100
AcDbText
  0
LINE
  5
FFD
330
1F
100
AcDbEntity
  8
補助
100
AcDbLine
 10
2064.0
 20
69.0
 30
0.0
 11
2784.0
 21
69.0
 31
0.0
  0
LINE
  5
FFE
330
1F
100
AcDbEntity
  8
補助
100
AcDbLine
 10
2064.0
 20
199.0
 30
0.0
 11
2784.0
 21
199.0
 31
0.0
  0
LINE
  5
FFF
330
1F
100
AcDbEntity
  8
補助
100
AcDbLine
 10
2064.0
 20
134.0
 30
0.0
 11
2784.0
 21
134.0
 31
0.0
  0
LINE
  5
1000
330
1F
100
AcDbEntity
  8
補助
100
AcDbLine
 10
2064.0
 20
4.0
 30
0.0
 11
2064.0
 21
199.0
 31
0.0
  0
TEXT
  5
1001
330
1F
100
AcDbEntity
  8
補助
100
AcDbText
 10
2283.455774665347
 20
18.5
 30
0.0
 40
35.0
  1
中外交易株式会社
  7
ｍｓ明朝
 72
     4
 11
2488.255774665347
 21
36.5
 31
0.0
100
AcDbText
  0
LINE
  5
1003
330
1F
100
AcDbEntity
  8
補助
100
AcDbLine
 10
2184.0
 20
69.0
 30
0.0
 11
2784.0
 21
69.0
 31
0.0
  0
LINE
  5
1004
102
{ACAD_REACTORS
330
1011
102
}
330
1F
100
AcDbEntity
  8
補助
370
     5
100
AcDbLine
 10
2207.843923164362
 20
40.53787547858519
 30
0.0
 11
2183.255774665347
 21
40.53787547858519
 31
0.0
  0
LINE
  5
1005
102
{ACAD_REACTORS
330
1011
102
}
330
1F
100
AcDbEntity
  8
補助
370
     5
100
AcDbLine
 10
2183.255774665347
 20
40.53787547858519
 30
0.0
 11
2183.255774665347
 21
30.53787547858519
 31
0.0
  0
LINE
  5
1006
102
{ACAD_REACTORS
330
1011
102
}
330
1F
100
AcDbEntity
  8
補助
370
     5
100
AcDbLine
 10
2183.255774665347
 20
30.53787547858519
 30
0.0
 11
2207.346428692676
 21
30.53787547858514
 31
0.0
  0
LINE
  5
1007
102
{ACAD_REACTORS
330
1011
102
}
330
1F
100
AcDbEntity
  8
補助
370
     5
100
AcDbLine
 10
2210.641894042939
 20
56.5
 30
0.0
 11
2210.641894042939
 21
16.5
 31
0.0
  0
LINE
  5
1008
102
{ACAD_REACTORS
330
1011
102
}
330
1F
100
AcDbEntity
  8
補助
370
     5
100
AcDbLine
 10
2210.641894042939
 20
16.5
 30
0.0
 11
2245.64189404294
 21
16.5
 31
0.0
  0
LINE
  5
1009
102
{ACAD_REACTORS
330
1011
102
}
330
1F
100
AcDbEntity
  8
補助
370
     5
100
AcDbLine
 10
2245.64189404294
 20
16.5
 30
0.0
 11
2210.641894042939
 21
36.5
 31
0.0
  0
LINE
  5
100A
102
{ACAD_REACTORS
330
1011
102
}
330
1F
100
AcDbEntity
  8
補助
370
     5
100
AcDbLine
 10
2210.641894042939
 20
36.5
 30
0.0
 11
2245.64189404294
 21
56.5
 31
0.0
  0
LINE
  5
100B
102
{ACAD_REACTORS
330
1011
102
}
330
1F
100
AcDbEntity
  8
補助
370
     5
100
AcDbLine
 10
2245.64189404294
 20
56.5
 30
0.0
 11
2210.641894042939
 21
56.5
 31
0.0
  0
LINE
  5
100C
102
{ACAD_REACTORS
330
1011
102
}
330
1F
100
AcDbEntity
  8
補助
370
     5
100
AcDbLine
 10
2276.75434681301
 20
40.53787547858519
 30
0.0
 11
2252.166198313995
 21
40.53787547858519
 31
0.0
  0
LINE
  5
100D
102
{ACAD_REACTORS
330
1011
102
}
330
1F
100
AcDbEntity
  8
補助
370
     5
100
AcDbLine
 10
2252.166198313995
 20
40.53787547858519
 30
0.0
 11
2252.166198313995
 21
30.53787547858519
 31
0.0
  0
LINE
  5
100E
102
{ACAD_REACTORS
330
1011
102
}
330
1F
100
AcDbEntity
  8
補助
370
     5
100
AcDbLine
 10
2252.166198313995
 20
30.53787547858519
 30
0.0
 11
2276.256852341323
 21
30.53787547858514
 31
0.0
  0
ARC
  5
100F
102
{ACAD_REACTORS
330
1011
102
}
330
1F
100
AcDbEntity
  8
補助
370
     5
100
AcDbCircle
 10
2188.255774665348
 20
36.5
 30
0.0
 40
20.0
100
AcDbArc
 50
11.6477236670766
 51
342.6561058784746
  0
ARC
  5
1010
102
{ACAD_REACTORS
330
1011
102
}
330
1F
100
AcDbEntity
  8
補助
370
     5
100
AcDbCircle
 10
2257.166198313996
 20
36.5
 30
0.0
 40
20.0
100
AcDbArc
 50
11.6477236670766
 51
342.6561058784746
  0
HATCH
  5
1011
330
1F
100
AcDbEntity
  8
補助
100
AcDbHatch
 10
0.0
 20
0.0
 30
0.0
210
0.0
220
0.0
230
1.0
  2
SOLID
 70
     1
 71
     1
 91
        3
 92
        1
 93
        4
 72
     2
 10
2257.166198313996
 20
36.5
 40
20.0
 50
11.6477236670766
 51
342.6561058784746
 73
     1
 72
     1
 10
2276.256852341323
 20
30.53787547858514
 11
2252.166198313995
 21
30.53787547858519
 72
     1
 10
2252.166198313995
 20
30.53787547858519
 11
2252.166198313995
 21
40.53787547858519
 72
     1
 10
2252.166198313995
 20
40.53787547858519
 11
2276.75434681301
 21
40.53787547858519
 97
        4
330
1010
330
100E
330
100D
330
100C
 92
        1
 93
        4
 72
     2
 10
2188.255774665348
 20
36.5
 40
20.0
 50
11.6477236670766
 51
342.6561058784746
 73
     1
 72
     1
 10
2207.346428692676
 20
30.53787547858514
 11
2183.255774665347
 21
30.53787547858519
 72
     1
 10
2183.255774665347
 20
30.53787547858519
 11
2183.255774665347
 21
40.53787547858519
 72
     1
 10
2183.255774665347
 20
40.53787547858519
 11
2207.843923164362
 21
40.53787547858519
 97
        4
330
100F
330
1006
330
1005
330
1004
 92
        1
 93
        5
 72
     1
 10
2245.64189404294
 20
56.5
 11
2210.641894042939
 21
56.5
 72
     1
 10
2210.641894042939
 20
56.5
 11
2210.641894042939
 21
16.5
 72
     1
 10
2210.641894042939
 20
16.5
 11
2245.64189404294
 21
16.5
 72
     1
 10
2245.64189404294
 20
16.5
 11
2210.641894042939
 21
36.5
 72
     1
 10
2210.641894042939
 20
36.5
 11
2245.64189404294
 21
56.5
 97
        5
330
100B
330
1007
330
1008
330
1009
330
100A
 75
     0
 76
     1
 98
        1
 10
-60.0
 20
0.0
  0
LINE
  5
1012
330
1F
100
AcDbEntity
  8
補助
100
AcDbLine
 10
2184.0
 20
69.0
 30
0.0
 11
2184.0
 21
199.0
 31
0.0
  0
TEXT
  5
1013
330
1F
100
AcDbEntity
  8
0
100
AcDbText
 10
2429.142857142858
 20
86.84285714285714
 30
0.0
 40
30.0
  1
1：10
  7
ｍｓ明朝
 72
     4
 11
2484.0
 21
101.5
 31
0.0
100
AcDbText
  0
LINE
  5
1014
330
1F
100
AcDbEntity
  8
補助
100
AcDbLine
 10
2784.0
 20
69.0
 30
0.0
 11
2784.0
 21
134.0
 31
0.0
  0
LINE
  5
1015
330
1F
100
AcDbEntity
  8
補助
100
AcDbLine
 10
2784.0
 20
134.0
 30
0.0
 11
2784.0
 21
199.0
 31
0.0
  0
LINE
  5
1016
330
1F
100
AcDbEntity
  8
補助
100
AcDbLine
 10
2784.0
 20
4.0
 30
0.0
 11
2784.0
 21
69.0
 31
0.0
  0
ARC
  5
175B
330
1F
100
AcDbEntity
  8
実形
100
AcDbCircle
 10
930.6357827133769
 20
9599.222941473462
 30
0.0
 40
8500.0
100
AcDbArc
 50
267.4581267083559
 51
272.5418732916442
  0
ARC
  5
175E
330
1F
100
AcDbEntity
  8
実形
100
AcDbCircle
 10
2455.635782713377
 20
1304.222941473464
 30
0.0
 40
2000.0
100
AcDbArc
 50
177.0816278913649
 51
182.9183721086351
  0
ARC
  5
175F
330
1F
100
AcDbEntity
  8
実形
100
AcDbCircle
 10
930.6357827133769
 20
-6990.777058526534
 30
0.0
 40
8500.0
100
AcDbArc
 50
87.45812670835583
 51
92.54187329164416
  0
ARC
  5
1760
330
1F
100
AcDbEntity
  8
実形
100
AcDbCircle
 10
-594.364217286623
 20
1304.222941473464
 30
0.0
 40
2000.0
100
AcDbArc
 50
357.0816278913649
 51
2.918372108635103
  0
ARC
  5
1761
330
1F
100
AcDbEntity
  8
実形
100
AcDbCircle
 10
558.0999249695152
 20
1400.957984639153
 30
0.0
 40
100.0
100
AcDbArc
 50
92.54187329164306
 51
177.0816278913649
  0
ARC
  5
1762
330
1F
100
AcDbEntity
  8
実形
100
AcDbCircle
 10
558.0999249695152
 20
1207.487898307775
 30
0.0
 40
100.0
100
AcDbArc
 50
182.9183721086348
 51
267.4581267083579
  0
ARC
  5
1763
330
1F
100
AcDbEntity
  8
実形
100
AcDbCircle
 10
1303.171640457239
 20
1400.957984639153
 30
0.0
 40
100.0
100
AcDbArc
 50
2.918372108635088
 51
87.45812670835629
  0
ARC
  5
1764
330
1F
100
AcDbEntity
  8
実形
100
AcDbCircle
 10
1303.171640457239
 20
1207.487898307775
 30
0.0
 40
100.0
100
AcDbArc
 50
272.5418732916403
 51
357.0816278913643
  0
LINE
  5
1939
330
1F
100
AcDbEntity
  8
センター
100
AcDbLine
 10
930.6357827133769
 20
1513.351064786802
 30
0.0
 11
930.6357827133769
 21
1224.502872022513
 31
0.0
  0
LINE
  5
194B
330
1F
100
AcDbEntity
  8
センター
 48
0.5
100
AcDbLine
 10
930.6357827133769
 20
639.7622483805307
 30
0.0
 11
930.6357827133769
 21
477.8165945229175
 31
0.0
  0
LINE
  5
1952
330
1F
100
AcDbEntity
  8
実形
 62
     0
100
AcDbLine
 10
840.135782713377
 20
567.5146975621164
 30
0.0
 11
485.0897093516839
 21
573.9784752305998
 31
0.0
  0
ARC
  5
1953
330
1F
100
AcDbEntity
  8
実形
 62
     0
100
AcDbCircle
 10
485.6357827133769
 20
603.9735048835881
 30
0.0
 40
30.0
100
AcDbArc
 50
180.0
 51
268.9570191019686
  0
ARC
  5
1954
330
1F
100
AcDbEntity
  8
実形
100
AcDbCircle
 10
1375.635782713377
 20
603.9735048835881
 30
0.0
 40
30.0
100
AcDbArc
 50
271.0429808980314
 51
0.0000000000000325
  0
LINE
  5
1955
330
1F
100
AcDbEntity
  8
実形
100
AcDbLine
 10
1021.135782713377
 20
567.5146975621164
 30
0.0
 11
1376.18185607507
 21
573.9784752305998
 31
0.0
  0
LINE
  5
1957
330
1F
100
AcDbEntity
  8
実形
100
AcDbLine
 10
1405.635782713377
 20
603.9735048835881
 30
0.0
 11
1405.635782713377
 21
607.4625385723489
 31
0.0
  0
CIRCLE
  5
198D
330
1F
100
AcDbEntity
  8
実形
100
AcDbCircle
 10
930.6357827133769
 20
1359.222941473466
 30
0.0
 40
90.5
  0
CIRCLE
  5
198E
330
1F
100
AcDbEntity
  8
実形
100
AcDbCircle
 10
930.6357827133769
 20
1359.222941473466
 30
0.0
 40
79.5
  0
LINE
  5
198F
330
1F
100
AcDbEntity
  8
センター
100
AcDbLine
 10
930.6357827133769
 20
1493.351064786804
 30
0.0
 11
930.6357827133769
 21
1204.502872022515
 31
0.0
  0
LINE
  5
1990
330
1F
100
AcDbEntity
  8
センター
100
AcDbLine
 10
794.0674686830825
 20
1359.222941473466
 30
0.0
 11
1067.242340601089
 21
1359.222941473466
 31
0.0
  0
DIMENSION
  5
1A70
330
1F
100
AcDbEntity
  8
実形
100
AcDbDimension
  2
*D16
 10
1184.706496228195
 20
1359.222941473466
 30
0.0
 11
1165.956496228194
 21
1434.222941473466
 31
0.0
 70
    32
 71
     5
 42
150.0
  3
ISO-25
100
AcDbAlignedDimension
 13
930.6357827133769
 23
1509.222941473465
 33
0.0
 14
1002.555958625355
 24
1359.222941473466
 34
0.0
 50
90.0
100
AcDbRotatedDimension
  0
DIMENSION
  5
1AD5
330
1F
100
AcDbEntity
  8
実形
100
AcDbDimension
  2
*D17
 10
455.6357827133772
 20
1311.322362751052
 30
0.0
 11
693.1357827133771
 21
1330.072362751052
 31
0.0
 70
    32
 71
     5
 42
474.9999999999998
  3
ISO-25
100
AcDbAlignedDimension
 13
930.6357827133769
 23
1359.222941473466
 33
0.0
 14
455.6357827133772
 24
1304.222941473464
 34
0.0
100
AcDbRotatedDimension
  0
LINE
  5
1BC3
330
1F
100
AcDbEntity
  8
実形
100
AcDbLine
 10
1021.135782713377
 20
560.5146975621164
 30
0.0
 11
840.1357827133768
 21
560.5146975621165
 31
0.0
  0
LINE
  5
1BC4
330
1F
100
AcDbEntity
  8
実形
100
AcDbLine
 10
840.1357827133768
 20
567.5146975621165
 30
0.0
 11
840.1357827133764
 21
560.5146975621165
 31
0.0
  0
LINE
  5
1BC5
330
1F
100
AcDbEntity
  8
実形
100
AcDbLine
 10
1021.135782713376
 20
567.5146975621165
 30
0.0
 11
1021.135782713376
 21
560.5146975621165
 31
0.0
  0
LINE
  5
1BE2
330
1F
100
AcDbEntity
  8
実形
100
AcDbLine
 10
840.1357827133768
 20
567.5146975621164
 30
0.0
 11
1021.135782713376
 21
567.5146975621164
 31
0.0
  0
LINE
  5
1BE3
330
1F
100
AcDbEntity
  8
実形
  6
ACAD_ISO08W100
100
AcDbLine
 10
840.1357827133768
 20
567.5146975621164
 30
0.0
 11
457.5069240631182
 21
567.5146975621164
 31
0.0
  0
LINE
  5
1BE4
330
1F
100
AcDbEntity
  8
実形
100
AcDbLine
 10
490.010504395389
 20
573.8021824783954
 30
0.0
 11
490.010504395389
 21
567.4520309640493
 31
0.0
  0
LINE
  5
1C76
330
1F
100
AcDbEntity
  8
補助
100
AcDbLine
 10
119.0
 20
2024.0
 30
0.0
 11
119.0
 21
4.0
 31
0.0
  0
LINE
  5
1D29
330
1F
100
AcDbEntity
  8
実形
100
AcDbLine
 10
515.635782713377
 20
1638.222941473464
 30
0.0
 11
1345.635782713377
 21
1638.222941473464
 31
0.0
  0
ARC
  5
1D2D
330
1F
100
AcDbEntity
  8
実形
100
AcDbCircle
 10
1345.635782713377
 20
1544.222941473464
 30
0.0
 40
94.0
100
AcDbArc
 50
0.0
 51
90.0
  0
LINE
  5
1D2E
330
1F
100
AcDbEntity
  8
実形
100
AcDbLine
 10
1439.635782713376
 20
1544.222941473464
 30
0.0
 11
1439.635782713377
 21
1206.164473647288
 31
0.0
  0
ARC
  5
1D2F
330
1F
100
AcDbEntity
  8
実形
100
AcDbCircle
 10
1345.635782713377
 20
1144.222941473464
 30
0.0
 40
94.0
100
AcDbArc
 50
270.0
 51
0.0
  0
LINE
  5
1D30
330
1F
100
AcDbEntity
  8
実形
100
AcDbLine
 10
1439.635782713377
 20
1464.222941473464
 30
0.0
 11
1439.635782713377
 21
1144.222941473464
 31
0.0
  0
LINE
  5
1D31
330
1F
100
AcDbEntity
  8
実形
100
AcDbLine
 10
515.635782713377
 20
1638.222941473464
 30
0.0
 11
1345.635782713377
 21
1638.222941473464
 31
0.0
  0
ARC
  5
1D32
330
1F
100
AcDbEntity
  8
実形
100
AcDbCircle
 10
515.635782713377
 20
1544.222941473464
 30
0.0
 40
94.0
100
AcDbArc
 50
90.0
 51
180.0
  0
LINE
  5
1D33
330
1F
100
AcDbEntity
  8
実形
100
AcDbLine
 10
421.6357827133769
 20
1544.222941473464
 30
0.0
 11
421.6357827133769
 21
1206.164473647288
 31
0.0
  0
LINE
  5
1D34
330
1F
100
AcDbEntity
  8
実形
100
AcDbLine
 10
515.635782713377
 20
1050.222941473464
 30
0.0
 11
1345.635782713377
 21
1050.222941473464
 31
0.0
  0
ARC
  5
1D35
330
1F
100
AcDbEntity
  8
実形
100
AcDbCircle
 10
515.635782713377
 20
1144.222941473464
 30
0.0
 40
94.0
100
AcDbArc
 50
180.0
 51
270.0
  0
LINE
  5
1D36
330
1F
100
AcDbEntity
  8
実形
100
AcDbLine
 10
421.6357827133769
 20
1464.222941473464
 30
0.0
 11
421.6357827133769
 21
1144.222941473464
 31
0.0
  0
DIMENSION
  5
1D3B
330
1F
100
AcDbEntity
  8
実形
100
AcDbDimension
  2
*D20
 10
455.635782713377
 20
1748.115170324802
 30
0.0
 11
454.2904505930064
 21
1783.115170324802
 31
0.0
 70
   160
  1
35
 71
     5
 42
34.00000000000006
  3
ISO-25
100
AcDbAlignedDimension
 13
421.6357827133769
 23
1649.354145177377
 33
0.0
 14
455.635782713377
 24
1649.354145177377
 34
0.0
100
AcDbRotatedDimension
  0
DIMENSION
  5
1D5A
330
1F
100
AcDbEntity
  8
実形
100
AcDbDimension
  2
*D21
 10
1439.635782713376
 20
1748.115170324802
 30
0.0
 11
1395.545623202714
 21
1783.115170324802
 31
0.0
 70
   160
  1
35
 71
     5
 42
34.0
  3
ISO-25
100
AcDbAlignedDimension
 13
1405.635782713377
 23
1649.354145177377
 33
0.0
 14
1439.635782713376
 24
1649.354145177377
 34
0.0
100
AcDbRotatedDimension
  0
DIMENSION
  5
1D79
330
1F
100
AcDbEntity
  8
実形
100
AcDbDimension
  2
*D22
 10
1439.635782713376
 20
1824.146200486717
 30
0.0
 11
930.6357827133769
 21
1842.896200486717
 31
0.0
 70
    32
 71
     5
 42
1018.0
  3
ISO-25
100
AcDbAlignedDimension
 13
421.6357827133769
 23
1649.354145177377
 33
0.0
 14
1439.635782713376
 24
1649.354145177377
 34
0.0
100
AcDbRotatedDimension
  0
TEXT
  5
1D94
330
1F
100
AcDbEntity
  8
0
100
AcDbText
 10
2264.667030651399
 20
151.8
 30
0.0
 40
35.0
  1
Jstn         
  7
MS明朝
 72
     4
 11
2431.067030651399
 21
166.5
 31
0.0
100
AcDbText
  0
TEXT
  5
1D95
330
1F
100
AcDbEntity
  8
0
100
AcDbText
 10
2388.12133577152
 20
149.3938667970955
 30
0.0
 40
35.0
  1
1018-588
  7
MS明朝
 72
     4
 11
2490.52133577152
 21
166.4938667970955
 31
0.0
100
AcDbText
  0
TEXT
  5
1DA7
330
1F
100
AcDbEntity
  8
0
100
AcDbText
 10
2590.467111175537
 20
150.2907152681027
 30
0.0
 40
35.0
  1
S-HC
  7
MS明朝
 72
     4
 11
2641.667111175536
 21
167.3907152681027
 31
0.0
100
AcDbText
  0
LEADER
  5
1DCD
330
1F
100
AcDbEntity
  8
実形
100
AcDbLeader
  3
ISO-25
 40
25.0
 41
16.66666666666666
 76
     2
 10
443.4618427737692
 20
1615.775624018213
 30
0.0
 10
401.840483355783
 20
1670.622378425709
 30
0.0
213
0.0
223
12.5
233
0.0
1001
ACAD
1000
DSTYLE
1002
{
1070
   147
1040
6.25
1070
    77
1070
     0
1070
    41
1040
20.0
1070
   342
1005
DA
1002
}
  0
TEXT
  5
1DCE
330
1F
100
AcDbEntity
  8
実形
100
AcDbText
 10
340.9174224841663
 20
1681.96997295292
 30
0.0
 40
25.0
  1
94R
 72
     2
 11
407.5840891508329
 21
1706.96997295292
 31
0.0
100
AcDbText
 73
     3
  0
LEADER
  5
1DCF
330
1F
100
AcDbEntity
  8
実形
100
AcDbLeader
  3
ISO-25
 40
25.0
 41
16.66666666666666
 76
     2
 10
450.653616026149
 20
1076.050204079081
 30
0.0
 10
393.8844704475301
 20
1017.700859962933
 30
0.0
213
0.0
223
12.5
233
0.0
1001
ACAD
1000
DSTYLE
1002
{
1070
   147
1040
6.25
1070
    77
1070
     0
1070
    41
1040
20.0
1070
   342
1005
DA
1002
}
  0
TEXT
  5
1DD0
330
1F
100
AcDbEntity
  8
実形
100
AcDbText
 10
355.2627861255714
 20
987.1835397077955
 30
0.0
 40
25.0
  1
94R
 72
     2
 11
421.9294527922381
 21
1012.183539707795
 31
0.0
100
AcDbText
 73
     3
  0
LEADER
  5
1DDC
330
1F
100
AcDbEntity
  8
実形
100
AcDbLeader
  3
ISO-25
 40
25.0
 41
16.66666666666666
 76
     2
 10
1418.378514445777
 20
1617.699441358287
 30
0.0
 10
1479.96877779225
 20
1676.152251475075
 30
0.0
213
0.0
223
12.5
233
0.0
1001
ACAD
1000
DSTYLE
1002
{
1070
   147
1040
6.25
1070
    77
1070
     0
1070
    41
1040
20.0
1070
   342
1005
DA
1002
}
  0
TEXT
  5
1DDD
330
1F
100
AcDbEntity
  8
実形
100
AcDbText
 10
1454.114592809291
 20
1681.251537147191
 30
0.0
 40
25.0
  1
94R
 72
     2
 11
1520.781259475957
 21
1706.25153714719
 31
0.0
100
AcDbText
 73
     3
  0
LEADER
  5
1DDE
330
1F
100
AcDbEntity
  8
実形
100
AcDbLeader
  3
ISO-25
 40
25.0
 41
16.66666666666666
 76
     2
 10
1423.183993829077
 20
1081.527904546317
 30
0.0
 10
1468.941750904136
 20
1016.982424157204
 30
0.0
213
0.0
223
12.5
233
0.0
1001
ACAD
1000
DSTYLE
1002
{
1070
   147
1040
6.25
1070
    77
1070
     0
1070
    41
1040
20.0
1070
   342
1005
DA
1002
}
  0
TEXT
  5
1DDF
330
1F
100
AcDbEntity
  8
実形
100
AcDbText
 10
1468.459956450696
 20
986.4651039020662
 30
0.0
 40
25.0
  1
94R
 72
     2
 11
1535.126623117363
 21
1011.465103902066
 31
0.0
100
AcDbText
 73
     3
  0
DIMENSION
  5
1DE5
330
1F
100
AcDbEntity
  8
実形
100
AcDbDimension
  2
*D24
 10
1512.751918788039
 20
1604.222941473464
 30
0.0
 11
1494.606080000594
 21
1558.83438559693
 31
0.0
 70
   160
  1
35
 71
     5
 42
33.99999999999977
  3
ISO-25
100
AcDbAlignedDimension
 13
1408.078504513763
 23
1638.222941473464
 33
0.0
 14
1408.078504513763
 24
1604.222941473464
 34
0.0
 50
90.0
100
AcDbRotatedDimension
  0
DIMENSION
  5
1DF2
330
1F
100
AcDbEntity
  8
実形
100
AcDbDimension
  2
*D25
 10
1512.751918788038
 20
1050.222941473464
 30
0.0
 11
1490.645332808786
 21
1125.233716570962
 31
0.0
 70
   160
  1
35
 71
     5
 42
33.99999999999977
  3
ISO-25
100
AcDbAlignedDimension
 13
1408.078504513763
 23
1084.222941473464
 33
0.0
 14
1408.078504513763
 24
1050.222941473464
 34
0.0
 50
90.0
100
AcDbRotatedDimension
  0
DIMENSION
  5
1E23
330
1F
100
AcDbEntity
  8
実形
100
AcDbDimension
  2
*D26
 10
1567.455202336523
 20
1050.222941473463
 30
0.0
 11
1548.705202336523
 21
1344.222941473464
 31
0.0
 70
    32
 71
     5
 42
588.0
  3
ISO-25
100
AcDbAlignedDimension
 13
1408.078504513763
 23
1638.222941473464
 33
0.0
 14
1408.078504513764
 24
1050.222941473464
 34
0.0
 50
90.0
100
AcDbRotatedDimension
  0
TEXT
  5
1EB3
330
1F
100
AcDbEntity
  8
実形
100
AcDbText
 10
583.3033498219547
 20
1553.848105287096
 30
0.0
 40
25.0
  1
4角×
  7
MS明朝
 72
     2
 11
674.7319212505261
 21
1578.848105287096
 31
0.0
100
AcDbText
 73
     3
  0
LEADER
  5
1EB4
330
1F
100
AcDbEntity
  8
実形
100
AcDbLeader
  3
ISO-25
 40
25.0
 41
16.66666666666666
 76
     2
 10
500.7927741887279
 20
1585.337474161165
 30
0.0
 10
565.8762826148485
 20
1566.148110208546
 30
0.0
213
0.0
223
12.5
233
0.0
1001
ACAD
1000
DSTYLE
1002
{
1070
   147
1040
6.25
1070
    77
1070
     0
1070
    41
1040
20.0
1070
   342
1005
DA
1002
}
  0
TEXT
  5
1EB5
330
1F
100
AcDbEntity
  8
実形
100
AcDbText
 10
680.5522039676538
 20
1554.14216548457
 30
0.0
 40
25.0
  1
59R
 72
     2
 11
747.2188706343204
 21
1579.14216548457
 31
0.0
100
AcDbText
 73
     3
  0
LINE
  5
202F
330
1F
100
AcDbEntity
  8
実形
100
AcDbLine
 10
2543.233877365066
 20
684.0947101512854
 30
0.0
 11
2153.233877365066
 21
684.0947101512854
 31
0.0
  0
LINE
  5
2030
330
1F
100
AcDbEntity
  8
実形
100
AcDbLine
 10
2356.033877365065
 20
585.2947101512854
 30
0.0
 11
2075.233877365066
 21
585.2947101512854
 31
0.0
  0
ARC
  5
2031
330
1F
100
AcDbEntity
  8
実形
100
AcDbCircle
 10
2153.233877365066
 20
606.0947101512854
 30
0.0
 40
78.0
100
AcDbArc
 50
90.0
 51
180.0
  0
ARC
  5
2032
330
1F
100
AcDbEntity
  8
実形
100
AcDbCircle
 10
2543.233877365066
 20
606.0947101512854
 30
0.0
 40
78.0
100
AcDbArc
 50
0.0
 51
90.0
  0
LINE
  5
2033
330
1F
100
AcDbEntity
  8
実形
100
AcDbLine
 10
2621.233877365066
 20
543.6947101512854
 30
0.0
 11
2356.033877365065
 21
543.6947101512854
 31
0.0
  0
LINE
  5
2034
330
1F
100
AcDbEntity
  8
実形
100
AcDbLine
 10
2278.033877365066
 20
543.6947101512854
 30
0.0
 11
2153.233877365066
 21
543.6947101512854
 31
0.0
  0
LINE
  5
2035
330
1F
100
AcDbEntity
  8
実形
100
AcDbLine
 10
2324.833877365066
 20
543.6947101512854
 30
0.0
 11
2106.433877365066
 21
543.6947101512854
 31
0.0
  0
LINE
  5
2036
330
1F
100
AcDbEntity
  8
実形
100
AcDbLine
 10
2621.233877365066
 20
403.2947101512855
 30
0.0
 11
2386.105494977745
 21
403.2947101512855
 31
0.0
  0
LINE
  5
2037
330
1F
100
AcDbEntity
  8
実形
100
AcDbLine
 10
2278.033877365066
 20
403.2947101512855
 30
0.0
 11
2153.233877365066
 21
403.2947101512855
 31
0.0
  0
LINE
  5
2038
330
1F
100
AcDbEntity
  8
実形
100
AcDbLine
 10
2075.233877365066
 20
606.0947101512854
 30
0.0
 11
2075.233877365066
 21
585.2947101512854
 31
0.0
  0
LINE
  5
2039
330
1F
100
AcDbEntity
  8
実形
100
AcDbLine
 10
2090.833877365066
 20
559.2947101512845
 30
0.0
 11
2324.833877365066
 21
559.2947101512845
 31
0.0
  0
LINE
  5
203A
330
1F
100
AcDbEntity
  8
実形
100
AcDbLine
 10
2356.033877365065
 20
585.2947101512854
 30
0.0
 11
2356.033877365065
 21
543.6947101512854
 31
0.0
  0
LINE
  5
203B
330
1F
100
AcDbEntity
  8
実形
100
AcDbLine
 10
2278.033877365066
 20
543.6947101512854
 30
0.0
 11
2153.233877365066
 21
543.6947101512854
 31
0.0
  0
LINE
  5
203C
330
1F
100
AcDbEntity
  8
実形
100
AcDbLine
 10
2621.233877365066
 20
606.0947101512854
 30
0.0
 11
2621.233877365066
 21
403.2947101512855
 31
0.0
  0
LINE
  5
203D
330
1F
100
AcDbEntity
  8
実形
100
AcDbLine
 10
2153.233877365066
 20
543.6947101512854
 30
0.0
 11
2153.233877365066
 21
403.2947101512863
 31
0.0
  0
LINE
  5
203E
330
1F
100
AcDbEntity
  8
実形
100
AcDbLine
 10
2090.833877365066
 20
559.2947101512845
 30
0.0
 11
2090.833877365066
 21
356.5086976533553
 31
0.0
  0
LINE
  5
203F
330
1F
100
AcDbEntity
  8
実形
100
AcDbLine
 10
2106.433877365066
 20
543.6947101512854
 30
0.0
 11
2106.433877365066
 21
356.5086976533554
 31
0.0
  0
ARC
  5
2040
330
1F
100
AcDbEntity
  8
実形
100
AcDbCircle
 10
2317.033877365066
 20
543.6947101512854
 30
0.0
 40
39.0
100
AcDbArc
 50
180.0
 51
0.0
  0
TEXT
  5
2041
330
1F
100
AcDbEntity
  8
実形
100
AcDbText
 10
1844.08269694555
 20
410.9876312842443
 30
0.0
 40
35.0
  1
シンク厚　
 11
1844.08269694555
 21
406.3209646175776
 31
0.0
100
AcDbText
 73
     1
  0
DIMENSION
  5
2042
330
1F
100
AcDbEntity
  8
実形
100
AcDbDimension
  2
*D47
 10
2075.233877365067
 20
467.1003685502147
 30
0.0
 11
2054.88545157578
 21
491.5915116428197
 31
0.0
 70
   160
  1
1
 71
     5
 42
15.59999999999991
  3
ISO-25
100
AcDbAlignedDimension
 13
2090.833877365067
 23
559.2947101512846
 33
0.0
 14
2075.233877365067
 24
533.5029867284119
 34
0.0
 50
180.0
100
AcDbRotatedDimension
1001
ACAD
1000
DSTYLE
1002
{
1070
   282
1070
     1
1070
   281
1070
     1
1070
    41
1040
5.0
1070
    42
1040
6.0
1070
   140
1040
25.0
1070
   147
1040
1.199999999999999
1070
   279
1070
     2
1070
   289
1070
     2
1070
   371
1070
    13
1070
   372
1070
    13
1002
}
  0
TEXT
  5
2043
330
1F
100
AcDbEntity
  8
実形
  6
HIDDEN2
100
AcDbText
 10
2095.797198899368
 20
462.9308652071995
 30
0.0
 40
10.14
  1
● 
 71
     2
100
AcDbText
  0
TEXT
  5
2044
330
1F
100
AcDbEntity
  8
実形
  6
HIDDEN2
100
AcDbText
 10
2079.566838424828
 20
462.4970760796131
 30
0.0
 40
10.14
  1
● 
 71
     2
100
AcDbText
  0
LINE
  5
2045
330
1F
100
AcDbEntity
  8
実形
100
AcDbLine
 10
2091.245173341136
 20
467.4229398449074
 30
0.0
 11
2075.560266305432
 21
467.4229398449074
 31
0.0
  0
LINE
  5
2046
330
1F
100
AcDbEntity
  8
実形
100
AcDbLine
 10
2386.105494977745
 20
403.2947101512855
 30
0.0
 11
2356.033877365065
 21
403.2947101512855
 31
0.0
  0
ARC
  5
2047
330
1F
100
AcDbEntity
  8
実形
100
AcDbCircle
 10
2317.033877365066
 20
403.2947101512855
 30
0.0
 40
39.0
100
AcDbArc
 50
0.0
 51
180.0
  0
LINE
  5
2048
330
1F
100
AcDbEntity
  8
実形
100
AcDbLine
 10
2278.033877365066
 20
457.3521962228079
 30
0.0
 11
2278.033877365066
 21
439.4500692892673
 31
0.0
  0
LINE
  5
2049
330
1F
100
AcDbEntity
  8
実形
100
AcDbLine
 10
2356.033877365065
 20
457.3521962228079
 30
0.0
 11
2356.033877365065
 21
439.4977027967055
 31
0.0
  0
TEXT
  5
204A
330
1F
100
AcDbEntity
  8
実形
100
AcDbText
 10
1859.409434822997
 20
359.2737114633438
 30
0.0
 40
28.0
  1
0.8mm
 11
1859.409434822997
 21
355.5403781300104
 31
0.0
100
AcDbText
 73
     1
  0
TEXT
  5
204B
330
1F
100
AcDbEntity
  8
実形
100
AcDbText
 10
1969.171950854548
 20
724.7069313792997
 30
0.0
 40
28.0
  1
5R
 11
1969.171950854548
 21
720.9735980459663
 31
0.0
100
AcDbText
 73
     1
  0
DIMENSION
  5
204C
330
1F
100
AcDbEntity
  8
実形
100
AcDbDimension
  2
*D48
 10
2324.833877365066
 20
617.1548568615962
 30
0.0
 11
2207.833877365066
 21
635.9048568615962
 31
0.0
 70
    32
  1
15
 71
     5
 42
234.0
  3
ISO-25
100
AcDbAlignedDimension
 13
2090.833877365066
 23
526.9073852958004
 33
0.0
 14
2324.833877365066
 24
526.9073852958004
 34
0.0
100
AcDbRotatedDimension
1001
ACAD
1000
DSTYLE
1002
{
1070
   279
1070
     2
1070
   371
1070
    18
1070
   372
1070
    18
1002
}
  0
LEADER
  5
204D
330
1F
100
AcDbEntity
  8
実形
100
AcDbLeader
  3
ISO-25
 76
     2
 10
2080.730586898456
 20
658.778126851076
 30
0.0
 10
2006.358162869183
 20
712.4806979619262
 30
0.0
1001
ACAD
1000
DSTYLE
1002
{
1070
   147
1040
6.25
1070
    77
1070
     0
1070
   279
1070
     2
1070
   371
1070
    18
1070
   372
1070
    18
1002
}
  0
LINE
  5
204E
330
1F
100
AcDbEntity
  8
実形
100
AcDbLine
 10
2324.833877365066
 20
559.2947101512845
 30
0.0
 11
2324.833877365066
 21
543.6947101512854
 31
0.0
  0
DIMENSION
  5
204F
330
1F
100
AcDbEntity
  8
実形
100
AcDbDimension
  2
*D49
 10
2228.767481940162
 20
543.6947101512855
 30
0.0
 11
2197.294896545438
 21
515.0052225685112
 31
0.0
 70
   160
  1
2.5
 71
     5
 42
38.99999999999995
  3
ISO-25
100
AcDbAlignedDimension
 13
2357.614562018891
 23
504.6947101512855
 33
0.0
 14
2281.267191428404
 24
543.6947101512855
 34
0.0
 50
90.0
100
AcDbRotatedDimension
1001
ACAD
1000
DSTYLE
1002
{
1070
   140
1040
23.0
1070
   279
1070
     2
1070
   371
1070
    18
1070
   372
1070
    18
1002
}
  0
DIMENSION
  5
2050
330
1F
100
AcDbEntity
  8
実形
100
AcDbDimension
  2
*D50
 10
2356.033877365066
 20
452.0882219802177
 30
0.0
 11
2317.033877365066
 21
470.8382219802177
 31
0.0
 70
    32
  1
5
 71
     5
 42
78.0
  3
ISO-25
100
AcDbAlignedDimension
 13
2278.033877365066
 23
513.0145559292668
 33
0.0
 14
2356.033877365066
 24
513.0145559292668
 34
0.0
100
AcDbRotatedDimension
1001
ACAD
1000
DSTYLE
1002
{
1070
   279
1070
     2
1070
   371
1070
    18
1070
   372
1070
    18
1002
}
  0
LINE
  5
2051
330
1F
100
AcDbEntity
  8
実形
100
AcDbLine
 10
2278.033877365066
 20
452.0882219802177
 30
0.0
 11
2278.033877365066
 21
494.7079487038194
 31
0.0
  0
LINE
  5
2052
330
1F
100
AcDbEntity
  8
実形
100
AcDbLine
 10
2356.033877365065
 20
452.0882219802177
 30
0.0
 11
2356.033877365065
 21
493.5103420910408
 31
0.0
  0
DIMENSION
  5
2053
330
1F
100
AcDbEntity
  8
実形
100
AcDbDimension
  2
*D51
 10
2230.705930897853
 20
403.2947101512855
 30
0.0
 11
2198.086469593912
 21
431.6583152348946
 31
0.0
 70
   160
  1
2.5
 71
     5
 42
38.99999999999995
  3
ISO-25
100
AcDbAlignedDimension
 13
2331.326187506493
 23
442.2947101512853
 33
0.0
 14
2343.612691407768
 24
403.2947101512855
 34
0.0
 50
90.0
100
AcDbRotatedDimension
1001
ACAD
1000
DSTYLE
1002
{
1070
   140
1040
23.0
1070
   279
1070
     2
1070
   371
1070
    18
1070
   372
1070
    18
1002
}
  0
DIMENSION
  5
2054
330
1F
100
AcDbEntity
  8
実形
100
AcDbDimension
  2
*D52
 10
2356.033877365066
 20
733.9587029177619
 30
0.0
 11
2215.633877365066
 21
752.7087029177619
 31
0.0
 70
    32
  1
18
 71
     5
 42
280.7999999999997
  3
ISO-25
100
AcDbAlignedDimension
 13
2075.233877365066
 23
631.1956311673393
 33
0.0
 14
2356.033877365066
 24
631.1956311673393
 34
0.0
100
AcDbRotatedDimension
1001
ACAD
1000
DSTYLE
1002
{
1070
   279
1070
     2
1070
   371
1070
    18
1070
   372
1070
    18
1002
}
  0
DIMENSION
  5
2055
330
1F
100
AcDbEntity
  8
実形
100
AcDbDimension
  2
*D53
 10
2621.233877365066
 20
733.9587029177619
 30
0.0
 11
2488.633877365066
 21
752.7087029177619
 31
0.0
 70
    32
  1
17
 71
     5
 42
265.1999999999998
  3
ISO-25
100
AcDbAlignedDimension
 13
2356.033877365066
 23
631.1956311673382
 33
0.0
 14
2621.233877365066
 24
631.1956311673382
 34
0.0
100
AcDbRotatedDimension
1001
ACAD
1000
DSTYLE
1002
{
1070
   279
1070
     2
1070
   371
1070
    18
1070
   372
1070
    18
1002
}
  0
DIMENSION
  5
2056
330
1F
100
AcDbEntity
  8
実形
100
AcDbDimension
  2
*D54
 10
2621.233877365066
 20
777.4666415156134
 30
0.0
 11
2348.233877365066
 21
796.2166415156134
 31
0.0
 70
    32
  1
35
 71
     5
 42
545.9999999999995
  3
ISO-25
100
AcDbAlignedDimension
 13
2075.233877365066
 23
631.1956311673382
 33
0.0
 14
2621.233877365066
 24
631.1956311673382
 34
0.0
100
AcDbRotatedDimension
1001
ACAD
1000
DSTYLE
1002
{
1070
   279
1070
     2
1070
   371
1070
    18
1070
   372
1070
    18
1002
}
  0
TEXT
  5
2057
330
1F
100
AcDbEntity
  8
実形
100
AcDbText
 10
2661.234589240095
 20
713.6502811430476
 30
0.0
 40
28.0
  1
5R
 11
2661.234589240095
 21
709.9169478097143
 31
0.0
100
AcDbText
 73
     1
  0
DIMENSION
  5
2058
330
1F
100
AcDbEntity
  8
実形
100
AcDbDimension
  2
*D55
 10
2153.233877365066
 20
297.5085770831867
 30
0.0
 11
2053.203290699754
 21
332.9138518235977
 31
0.0
 70
   160
  1
3.2
 71
     5
 42
46.80000000000018
  3
ISO-25
100
AcDbAlignedDimension
 13
2106.433877365066
 23
411.5474686202857
 33
0.0
 14
2153.233877365066
 24
411.5474686202857
 34
0.0
100
AcDbRotatedDimension
1001
ACAD
1000
DSTYLE
1002
{
1070
   140
1040
25.0
1070
   279
1070
     2
1070
   371
1070
    18
1070
   372
1070
    18
1002
}
  0
DIMENSION
  5
2059
330
1F
100
AcDbEntity
  8
実形
100
AcDbDimension
  2
*D56
 10
2278.033877365066
 20
297.5085770831867
 30
0.0
 11
2215.633877365066
 21
316.2585770831867
 31
0.0
 70
    32
  1
8
 71
     5
 42
124.8000000000001
  3
ISO-25
100
AcDbAlignedDimension
 13
2153.233877365066
 23
411.5474686202857
 33
0.0
 14
2278.033877365066
 24
411.5474686202857
 34
0.0
100
AcDbRotatedDimension
1001
ACAD
1000
DSTYLE
1002
{
1070
   279
1070
     2
1070
   371
1070
    18
1070
   372
1070
    18
1002
}
  0
DIMENSION
  5
205A
330
1F
100
AcDbEntity
  8
実形
100
AcDbDimension
  2
*D57
 10
2356.033877365066
 20
297.5085770831867
 30
0.0
 11
2317.033877365066
 21
316.2585770831867
 31
0.0
 70
    32
  1
5
 71
     5
 42
78.0
  3
ISO-25
100
AcDbAlignedDimension
 13
2278.033877365066
 23
411.5474686202857
 33
0.0
 14
2356.033877365066
 24
411.5474686202857
 34
0.0
100
AcDbRotatedDimension
1001
ACAD
1000
DSTYLE
1002
{
1070
   279
1070
     2
1070
   371
1070
    18
1070
   372
1070
    18
1002
}
  0
DIMENSION
  5
205B
330
1F
100
AcDbEntity
  8
実形
100
AcDbDimension
  2
*D58
 10
2621.233877365066
 20
297.5085770831867
 30
0.0
 11
2488.633877365066
 21
316.2585770831867
 31
0.0
 70
    32
  1
17
 71
     5
 42
265.1999999999998
  3
ISO-25
100
AcDbAlignedDimension
 13
2356.033877365066
 23
411.5474686202857
 33
0.0
 14
2621.233877365066
 24
411.5474686202857
 34
0.0
100
AcDbRotatedDimension
1001
ACAD
1000
DSTYLE
1002
{
1070
   279
1070
     2
1070
   371
1070
    18
1070
   372
1070
    18
1002
}
  0
DIMENSION
  5
205C
330
1F
100
AcDbEntity
  8
実形
100
AcDbDimension
  2
*D59
 10
2155.023276234156
 20
247.5388396829094
 30
0.0
 11
2116.023276234157
 21
266.2888396829094
 31
0.0
 70
    32
  1
5
 71
     5
 42
77.99999999999954
  3
ISO-25
100
AcDbAlignedDimension
 13
2077.023276234157
 23
362.8281686160613
 33
0.0
 14
2155.023276234156
 24
362.8281686160613
 34
0.0
100
AcDbRotatedDimension
1001
ACAD
1000
DSTYLE
1002
{
1070
   279
1070
     2
1070
   371
1070
    18
1070
   372
1070
    18
1002
}
  0
DIMENSION
  5
205D
330
1F
100
AcDbEntity
  8
実形
100
AcDbDimension
  2
*D60
 10
2623.023276234156
 20
247.5388396829094
 30
0.0
 11
2389.023276234156
 21
266.2888396829094
 31
0.0
 70
    32
  1
30
 71
     5
 42
468.0
  3
ISO-25
100
AcDbAlignedDimension
 13
2155.023276234156
 23
362.8281686160613
 33
0.0
 14
2623.023276234156
 24
362.8281686160613
 34
0.0
100
AcDbRotatedDimension
1001
ACAD
1000
DSTYLE
1002
{
1070
   279
1070
     2
1070
   371
1070
    18
1070
   372
1070
    18
1002
}
  0
LINE
  5
205E
330
1F
100
AcDbEntity
  8
実形
100
AcDbLine
 10
2089.14414202772
 20
414.8786635805636
 30
0.0
 11
2005.196656620899
 21
408.9889439325022
 31
0.0
  0
LINE
  5
205F
330
1F
100
AcDbEntity
  8
実形
100
AcDbLine
 10
2088.820600113063
 20
414.7274049971472
 30
0.0
 11
2056.485883910302
 21
400.9756935648645
 31
0.0
  0
LINE
  5
2060
330
1F
100
AcDbEntity
  8
実形
100
AcDbLine
 10
2088.472360117057
 20
415.6242072570588
 30
0.0
 11
2056.198770657017
 21
421.9662971197472
 31
0.0
  0
TEXT
  5
2061
330
1F
100
AcDbEntity
  8
実形
370
    -2
100
AcDbText
 10
1943.905583280765
 20
836.850626796042
 30
0.0
 40
38.0
  1
A-A　断面詳細図
100
AcDbText
  0
TEXT
  5
2062
330
1F
100
AcDbEntity
  8
実形
370
    -2
100
AcDbText
 10
2039.041635208127
 20
838.8009194430942
 30
0.0
 40
35.0
  1
´
100
AcDbText
  0
DIMENSION
  5
2063
330
1F
100
AcDbEntity
  8
実形
100
AcDbDimension
  2
*D61
 10
1970.032114275532
 20
585.2947101512854
 30
0.0
 11
1951.282114275532
 21
634.6947101512859
 31
0.0
 70
    32
  1
6.5
 71
     5
 42
98.80000000000007
  3
ISO-25
100
AcDbAlignedDimension
 13
2097.328912889143
 23
684.0947101512855
 33
0.0
 14
2097.328912889143
 24
585.2947101512854
 34
0.0
 50
90.0
100
AcDbRotatedDimension
1001
ACAD
1000
DSTYLE
1002
{
1070
   279
1070
     2
1070
   371
1070
    18
1070
   372
1070
    18
1002
}
  0
DIMENSION
  5
2064
330
1F
100
AcDbEntity
  8
実形
100
AcDbDimension
  2
*D62
 10
1916.035186721017
 20
559.2947101512846
 30
0.0
 11
1897.285186721017
 21
621.6947101512854
 31
0.0
 70
    32
  1
8.2
 71
     5
 42
124.8000000000008
  3
ISO-25
100
AcDbAlignedDimension
 13
2097.328912889143
 23
684.0947101512855
 33
0.0
 14
2097.328912889143
 24
559.2947101512846
 34
0.0
 50
90.0
100
AcDbRotatedDimension
1001
ACAD
1000
DSTYLE
1002
{
1070
   279
1070
     2
1070
   371
1070
    18
1070
   372
1070
    18
1002
}
  0
DIMENSION
  5
2065
330
1F
100
AcDbEntity
  8
実形
100
AcDbDimension
  2
*D63
 10
1864.389549972262
 20
684.0947101512855
 30
0.0
 11
1845.639549972261
 21
613.8947101512858
 31
0.0
 70
    32
  1
9
 71
     5
 42
140.4000000000001
  3
ISO-25
100
AcDbAlignedDimension
 13
2097.328912889143
 23
543.6947101512854
 33
0.0
 14
2097.328912889143
 24
684.0947101512855
 34
0.0
 50
90.0
100
AcDbRotatedDimension
1001
ACAD
1000
DSTYLE
1002
{
1070
   279
1070
     2
1070
   371
1070
    18
1070
   372
1070
    18
1002
}
  0
LINE
  5
2066
330
1F
100
AcDbEntity
  8
実形
100
AcDbLine
 10
1970.032114275532
 20
559.4808025581515
 30
0.0
 11
1970.032114275532
 21
543.6947101512854
 31
0.0
  0
TEXT
  5
2067
330
1F
100
AcDbEntity
  8
実形
  6
HIDDEN2
100
AcDbText
 10
1974.759963930668
 20
554.1584046865482
 30
0.0
 40
10.14
  1
● 
 71
     2
100
AcDbText
  0
TEXT
  5
2068
330
1F
100
AcDbEntity
  8
実形
  6
HIDDEN2
100
AcDbText
 10
1974.759963930668
 20
539.0050600708654
 30
0.0
 40
10.14
  1
● 
 71
     2
100
AcDbText
  0
TEXT
  5
2069
330
1F
100
AcDbEntity
  8
実形
100
AcDbText
 10
1965.904597556985
 20
483.7785695213888
 30
0.0
 40
29.25
  1
0.8
 50
90.0
 11
1969.804597556985
 21
483.7785695213888
 31
0.0
100
AcDbText
 73
     1
  0
ARC
  5
206A
330
1F
100
AcDbEntity
  8
実形
100
AcDbCircle
 10
2095.749391898479
 20
294.0352561825519
 30
0.0
 40
37.21807911390647
100
AcDbArc
 50
10.88380498131979
 51
99.73672806232286
  0
ARC
  5
206B
330
1F
100
AcDbEntity
  8
実形
100
AcDbCircle
 10
2101.132326064329
 20
286.3222816243725
 30
0.0
 40
34.71092069179851
100
AcDbArc
 50
27.82370983299799
 51
64.29661093933541
  0
ARC
  5
206C
330
1F
100
AcDbEntity
  8
実形
100
AcDbCircle
 10
2095.736654257051
 20
304.1012932169378
 30
0.0
 40
36.96117099445193
100
AcDbArc
 50
355.5051092068189
 51
31.89192001425599
  0
DIMENSION
  5
206D
330
1F
100
AcDbEntity
  8
実形
100
AcDbDimension
  2
*D64
 10
2673.699912636183
 20
403.2947101512855
 30
0.0
 11
2654.949912636183
 21
473.4947101512859
 31
0.0
 70
    32
  1
9
 71
     5
 42
140.4
  3
ISO-25
100
AcDbAlignedDimension
 13
2582.25404811461
 23
543.6947101512855
 33
0.0
 14
2582.25404811461
 24
403.2947101512855
 34
0.0
 50
90.0
100
AcDbRotatedDimension
1001
ACAD
1000
DSTYLE
1002
{
1070
   279
1070
     2
1070
   371
1070
    18
1070
   372
1070
    18
1002
}
  0
DIMENSION
  5
206E
330
1F
100
AcDbEntity
  8
実形
100
AcDbDimension
  2
*D65
 10
2673.699912636183
 20
543.6947101512855
 30
0.0
 11
2654.949912636183
 21
613.8947101512859
 31
0.0
 70
    32
  1
9
 71
     5
 42
140.3999999999999
  3
ISO-25
100
AcDbAlignedDimension
 13
2582.25404811461
 23
684.0947101512855
 33
0.0
 14
2582.25404811461
 24
543.6947101512855
 34
0.0
 50
90.0
100
AcDbRotatedDimension
1001
ACAD
1000
DSTYLE
1002
{
1070
   279
1070
     2
1070
   371
1070
    18
1070
   372
1070
    18
1002
}
  0
DIMENSION
  5
206F
330
1F
100
AcDbEntity
  8
実形
100
AcDbDimension
  2
*D66
 10
2715.480008308167
 20
403.2947101512855
 30
0.0
 11
2696.730008308167
 21
543.694710151286
 31
0.0
 70
    32
  1
18
 71
     5
 42
280.8
  3
ISO-25
100
AcDbAlignedDimension
 13
2582.25404811461
 23
684.0947101512855
 33
0.0
 14
2582.25404811461
 24
403.2947101512855
 34
0.0
 50
90.0
100
AcDbRotatedDimension
1001
ACAD
1000
DSTYLE
1002
{
1070
   279
1070
     2
1070
   371
1070
    18
1070
   372
1070
    18
1002
}
  0
LEADER
  5
2070
330
1F
100
AcDbEntity
  8
実形
100
AcDbLeader
  3
ISO-25
 76
     2
 10
2598.968887029636
 20
666.6445109732322
 30
0.0
 10
2665.822583513264
 20
707.9203906258708
 30
0.0
1001
ACAD
1000
DSTYLE
1002
{
1070
   147
1040
6.25
1070
    77
1070
     0
1070
   279
1070
     2
1070
   371
1070
    18
1070
   372
1070
    18
1002
}
  0
LINE
  5
2071
330
1F
100
AcDbEntity
  8
補助
100
AcDbLine
 10
2784.0
 20
1959.0
 30
0.0
 11
2019.387286519283
 21
1959.000000000001
 31
0.0
  0
LINE
  5
2072
330
1F
100
AcDbEntity
  8
補助
100
AcDbLine
 10
2784.0
 20
1894.0
 30
0.0
 11
2019.387286519283
 21
1894.0
 31
0.0
  0
LINE
  5
2073
330
1F
100
AcDbEntity
  8
補助
100
AcDbLine
 10
2784.0
 20
1829.0
 30
0.0
 11
2019.387286519283
 21
1829.0
 31
0.0
  0
LINE
  5
2074
330
1F
100
AcDbEntity
  8
補助
100
AcDbLine
 10
2202.547653420927
 20
1829.0
 30
0.0
 11
2202.547653420927
 21
2024.0
 31
0.0
  0
LINE
  5
2075
330
1F
100
AcDbEntity
  8
補助
100
AcDbLine
 10
2019.387286519283
 20
1829.0
 30
0.0
 11
2019.387286519283
 21
2024.0
 31
0.0
  0
TEXT
  5
2076
330
1F
100
AcDbEntity
  8
補助
100
AcDbText
 10
2050.295698850121
 20
1976.328571428572
 30
0.0
 40
30.0
  1
部品名
  7
明朝
 72
     4
 11
2116.124270278692
 21
1991.5
 31
0.0
100
AcDbText
  0
TEXT
  5
2077
330
1F
100
AcDbEntity
  8
補助
100
AcDbText
 10
2627.614285714286
 20
1976.071428571429
 30
0.0
 40
30.0
  1
厚さ
  7
明朝
 72
     4
 11
2671.5
 21
1991.5
 31
0.0
100
AcDbText
  0
LINE
  5
2078
330
1F
100
AcDbEntity
  8
補助
100
AcDbLine
 10
2559.0
 20
1829.0
 30
0.0
 11
2559.0
 21
2024.0
 31
0.0
  0
TEXT
  5
2079
330
1F
100
AcDbEntity
  8
補助
100
AcDbText
 10
2338.490869919937
 20
1975.947979478155
 30
0.0
 40
30.0
  1
材質
  7
明朝
 72
     4
 11
2382.376584205651
 21
1991.119408049583
 31
0.0
100
AcDbText
  0
TEXT
  5
207A
330
1F
100
AcDbEntity
  8
実形
100
AcDbText
 10
2048.227810657788
 20
1910.557142857143
 30
0.0
 40
30.0
  1
ボウル
  7
明朝
 72
     4
 11
2114.056382086359
 21
1926.5
 31
0.0
100
AcDbText
  0
TEXT
  5
207B
330
1F
100
AcDbEntity
  8
実形
100
AcDbText
 10
2594.700000000001
 20
1911.842857142857
 30
0.0
 40
30.0
  1
0.8ｍｍ
  7
明朝
 72
     4
 11
2671.500000000001
 21
1926.5
 31
0.0
100
AcDbText
  0
TEXT
  5
207C
330
1F
100
AcDbEntity
  8
実形
100
AcDbText
 10
2239.074011965008
 20
1910.728571428572
 30
0.0
 40
30.0
  1
SUS304（No.4）
  7
明朝
 72
     4
 11
2392.674011965008
 21
1926.5
 31
0.0
100
AcDbText
  0
TEXT
  5
207D
330
1F
100
AcDbEntity
  8
実形
100
AcDbText
 10
2070.170667800645
 20
1846.242857142857
 30
0.0
 40
30.0
  1
天板
  7
明朝
 72
     4
 11
2114.056382086359
 21
1861.5
 31
0.0
100
AcDbText
  0
TEXT
  5
207E
330
1F
100
AcDbEntity
  8
実形
100
AcDbText
 10
2219.734774251222
 20
1848.285714285714
 30
0.0
 40
25.0
  1
アクリル人工大理石
  7
明朝
 72
     4
 11
2384.306202822651
 21
1861.5
 31
0.0
100
AcDbText
  0
TEXT
  5
207F
330
1F
100
AcDbEntity
  8
実形
100
AcDbText
 10
2605.67142857143
 20
1846.842857142857
 30
0.0
 40
30.0
  1
18ｍｍ
  7
明朝
 72
     4
 11
2671.500000000001
 21
1861.5
 31
0.0
100
AcDbText
  0
LINE
  5
2228
330
1F
100
AcDbEntity
  8
センター
 48
0.5
370
    15
100
AcDbLine
 10
1380.067115901199
 20
1360.864601288293
 30
0.0
 11
1456.991330973521
 21
1360.864601288293
 31
0.0
  0
TEXT
  5
2229
330
1F
100
AcDbEntity
  8
実形
370
    -2
100
AcDbText
 10
1343.178808961746
 20
1350.494281472204
 30
0.0
 40
25.0
  1
A
100
AcDbText
  0
TEXT
  5
222A
330
1F
100
AcDbEntity
  8
実形
370
    -2
100
AcDbText
 10
1464.038728598449
 20
1350.494281472204
 30
0.0
 40
25.0
  1
A
100
AcDbText
  0
TEXT
  5
222B
330
1F
100
AcDbEntity
  8
実形
370
    -2
100
AcDbText
 10
1473.643503358214
 20
1348.893820110032
 30
0.0
 40
25.0
  1
´
100
AcDbText
  0
LINE
  5
222C
330
1F
100
AcDbEntity
  8
実形
100
AcDbLine
 10
421.6357827133769
 20
760.7146975621163
 30
0.0
 11
421.6357827133769
 21
747.7146975621163
 31
0.0
  0
LINE
  5
222D
330
1F
100
AcDbEntity
  8
実形
100
AcDbLine
 10
421.6357827133769
 20
747.7146975621165
 30
0.0
 11
1439.635782713376
 21
747.7146975621163
 31
0.0
  0
LINE
  5
222E
330
1F
100
AcDbEntity
  8
実形
100
AcDbLine
 10
426.635782713377
 20
765.7146975621164
 30
0.0
 11
1434.635782713377
 21
765.7146975621164
 31
0.0
  0
DIMENSION
  5
2282
330
1F
100
AcDbEntity
  8
実形
100
AcDbDimension
  2
*D72
 10
305.9139546550816
 20
747.7146975621165
 30
0.0
 11
225.711873987728
 21
817.2611769071755
 31
0.0
 70
   160
 71
     5
 42
18.0
  3
ISO-25
100
AcDbAlignedDimension
 13
448.9137327637966
 23
765.7146975621165
 33
0.0
 14
449.8925104049724
 24
747.7146975621165
 34
0.0
 50
90.0
100
AcDbRotatedDimension
1001
ACAD
1000
DSTYLE
1002
{
1070
   140
1040
25.0
1070
   279
1070
     2
1070
   371
1070
    18
1070
   372
1070
    18
1002
}
  0
DIMENSION
  5
2283
330
1F
100
AcDbEntity
  8
実形
100
AcDbDimension
  2
*D73
 10
305.9139546550816
 20
742.5146975621165
 30
0.0
 11
228.4867244091076
 21
719.4544151061745
 31
0.0
 70
   160
 71
     5
 42
5.199999999999931
  3
ISO-25
100
AcDbAlignedDimension
 13
449.8925104049724
 23
747.7146975621165
 33
0.0
 14
449.8925104049724
 24
742.5146975621165
 34
0.0
 50
90.0
100
AcDbRotatedDimension
1001
ACAD
1000
DSTYLE
1002
{
1070
   140
1040
25.0
1070
   279
1070
     2
1070
   371
1070
    18
1070
   372
1070
    18
1002
}
  0
DIMENSION
  5
2284
330
1F
100
AcDbEntity
  8
実形
100
AcDbDimension
  2
*D74
 10
305.9139546550816
 20
567.5146975621164
 30
0.0
 11
280.0401283105514
 21
638.2774494463683
 31
0.0
 70
   160
 71
     5
 42
175.0000000000001
  3
ISO-25
100
AcDbAlignedDimension
 13
449.8925104049724
 23
742.5146975621165
 33
0.0
 14
394.8260026302253
 24
567.5146975621164
 34
0.0
 50
90.0
100
AcDbRotatedDimension
1001
ACAD
1000
DSTYLE
1002
{
1070
   279
1070
     2
1070
   371
1070
    18
1070
   372
1070
    18
1002
}
  0
DIMENSION
  5
2285
330
1F
100
AcDbEntity
  8
実形
100
AcDbDimension
  2
*D75
 10
195.2920562044403
 20
567.5146975621165
 30
0.0
 11
176.5420562044402
 21
666.6146975621166
 31
0.0
 70
    32
 71
     5
 42
198.2
  3
ISO-25
100
AcDbAlignedDimension
 13
448.9137327637966
 23
765.7146975621165
 33
0.0
 14
394.8260026302253
 24
567.5146975621164
 34
0.0
 50
90.0
100
AcDbRotatedDimension
1001
ACAD
1000
DSTYLE
1002
{
1070
   279
1070
     2
1070
   371
1070
    18
1070
   372
1070
    18
1002
}
  0
DIMENSION
  5
2286
330
1F
100
AcDbEntity
  8
実形
100
AcDbDimension
  2
*D76
 10
305.9139546550816
 20
557.5146975621164
 30
0.0
 11
270.9139546550815
 21
551.1769138978798
 31
0.0
 70
   160
  1
7
 71
     5
 42
10.0
  3
ISO-25
100
AcDbAlignedDimension
 13
450.985908214205
 23
567.5146975621164
 33
0.0
 14
450.985908214205
 24
557.5146975621164
 34
0.0
 50
90.0
100
AcDbRotatedDimension
1001
ACAD
1000
DSTYLE
1002
{
1070
   279
1070
     2
1070
   371
1070
    18
1070
   372
1070
    18
1002
}
  0
LINE
  5
2287
330
1F
100
AcDbEntity
  8
実形
100
AcDbLine
 10
303.7109696144018
 20
745.1327873191766
 30
0.0
 11
256.7371022082718
 21
723.171029211051
 31
0.0
  0
LINE
  5
2288
330
1F
100
AcDbEntity
  8
実形
100
AcDbLine
 10
301.3453844174385
 20
744.4570498024277
 30
0.0
 11
283.0965406259113
 21
739.7268149817391
 31
0.0
  0
LINE
  5
2289
330
1F
100
AcDbEntity
  8
実形
100
AcDbLine
 10
301.6833386062265
 20
743.7812978449892
 30
0.0
 11
288.1656652086224
 21
733.6451051275507
 31
0.0
  0
ARC
  5
228A
330
1F
100
AcDbEntity
  8
実形
100
AcDbCircle
 10
348.7566502759701
 20
877.7180355119034
 30
0.0
 40
128.7156019851906
100
AcDbArc
 50
213.3909885014397
 51
249.3522921630743
  0
LINE
  5
228B
330
1F
100
AcDbEntity
  8
実形
100
AcDbLine
 10
303.4067603294372
 20
757.4254885432019
 30
0.0
 11
292.5014071326589
 21
765.1021889859894
 31
0.0
  0
LINE
  5
228C
330
1F
100
AcDbEntity
  8
実形
100
AcDbLine
 10
303.2043662022318
 20
757.2845384246265
 30
0.0
 11
289.3197192307928
 21
760.8669411613136
 31
0.0
  0
LEADER
  5
228D
330
1F
100
AcDbEntity
  8
実形
100
AcDbLeader
  3
ISO-25
 40
25.0
 41
16.66666666666666
 76
     2
 10
416.1758189488939
 20
771.3842413941975
 30
0.0
 10
375.302726943449
 20
815.0918896758867
 30
0.0
213
0.0
223
12.5
233
0.0
1001
ACAD
1000
DSTYLE
1002
{
1070
   147
1040
6.25
1070
    77
1070
     0
1070
    41
1040
20.0
1070
   342
1005
DA
1002
}
  0
TEXT
  5
228E
330
1F
100
AcDbEntity
  8
実形
100
AcDbText
 10
350.4277889051924
 20
827.5187367016197
 30
0.0
 40
25.0
  1
5R
 72
     2
 11
392.0944555718591
 21
852.5187367016197
 31
0.0
100
AcDbText
 73
     3
  0
ARC
  5
2301
330
1F
100
AcDbEntity
  8
実形
100
AcDbCircle
 10
426.635782713377
 20
760.7146975621163
 30
0.0
 40
5.0
100
AcDbArc
 50
90.0
 51
180.0
  0
LINE
  5
2303
330
1F
100
AcDbEntity
  8
実形
100
AcDbLine
 10
1439.635782713377
 20
760.7146975621163
 30
0.0
 11
1439.635782713377
 21
747.7146975621165
 31
0.0
  0
ARC
  5
2304
330
1F
100
AcDbEntity
  8
実形
100
AcDbCircle
 10
1434.635782713377
 20
760.7146975621163
 30
0.0
 40
5.0
100
AcDbArc
 50
0.0
 51
90.0
  0
LEADER
  5
230D
330
1F
100
AcDbEntity
  8
実形
100
AcDbLeader
  3
ISO-25
 40
25.0
 41
16.66666666666666
 76
     2
 10
1440.663754243756
 20
767.1120633960153
 30
0.0
 10
1478.051229567303
 20
800.851474856554
 30
0.0
213
0.0
223
12.5
233
0.0
1001
ACAD
1000
DSTYLE
1002
{
1070
   147
1040
6.25
1070
    77
1070
     0
1070
    41
1040
20.0
1070
   342
1005
DA
1002
}
  0
TEXT
  5
230E
330
1F
100
AcDbEntity
  8
実形
100
AcDbText
 10
1468.418171659473
 20
807.6509851480741
 30
0.0
 40
25.0
  1
5R
 72
     2
 11
1510.08483832614
 21
832.6509851480741
 31
0.0
100
AcDbText
 73
     3
  0
LINE
  5
23A2
330
1F
100
AcDbEntity
  8
実形
100
AcDbLine
 10
1699.933323332605
 20
1084.222941473464
 30
0.0
 11
1702.133323332605
 21
1084.222941473464
 31
0.0
  0
LINE
  5
23A3
330
1F
100
AcDbEntity
  8
実形
100
AcDbLine
 10
1705.133323332605
 20
1087.222941473464
 30
0.0
 11
1705.133323332605
 21
1094.222941473464
 31
0.0
  0
LINE
  5
23A4
330
1F
100
AcDbEntity
  8
実形
100
AcDbLine
 10
1710.133323332605
 20
1099.222941473463
 30
0.0
 11
1845.946385067593
 21
1099.222941473463
 31
0.0
  0
LINE
  5
23A5
330
1F
100
AcDbEntity
  8
実形
100
AcDbLine
 10
1880.133323332604
 20
1288.722941473463
 30
0.0
 11
1880.133323332605
 21
1479.222941473464
 31
0.0
  0
LINE
  5
23A6
330
1F
100
AcDbEntity
  8
実形
100
AcDbLine
 10
1850.133323332605
 20
1509.222941473464
 30
0.0
 11
1710.133323332605
 21
1509.222941473464
 31
0.0
  0
LINE
  5
23A7
330
1F
100
AcDbEntity
  8
実形
100
AcDbLine
 10
1705.133323332605
 20
1514.222941473463
 30
0.0
 11
1705.133323332605
 21
1521.222941473463
 31
0.0
  0
LINE
  5
23A8
330
1F
100
AcDbEntity
  8
実形
100
AcDbLine
 10
1702.133323332605
 20
1524.222941473463
 30
0.0
 11
1699.933323332605
 21
1524.222941473463
 31
0.0
  0
ARC
  5
23B0
330
1F
100
AcDbEntity
  8
実形
100
AcDbCircle
 10
1702.133323332605
 20
1521.222941473463
 30
0.0
 40
3.0
100
AcDbArc
 50
0.0
 51
90.0
  0
ARC
  5
23B1
330
1F
100
AcDbEntity
  8
実形
100
AcDbCircle
 10
1710.133323332605
 20
1094.222941473464
 30
0.0
 40
5.0
100
AcDbArc
 50
90.0
 51
180.0
  0
ARC
  5
23B2
330
1F
100
AcDbEntity
  8
実形
100
AcDbCircle
 10
1710.133323332605
 20
1514.222941473463
 30
0.0
 40
5.0
100
AcDbArc
 50
180.0
 51
270.0
  0
ARC
  5
23B3
330
1F
100
AcDbEntity
  8
実形
100
AcDbCircle
 10
1850.133323332605
 20
1479.222941473464
 30
0.0
 40
30.0
100
AcDbArc
 50
0.0
 51
90.0
  0
LINE
  5
23B4
330
1F
100
AcDbEntity
  8
実形
100
AcDbLine
 10
1880.133323332605
 20
1288.722941473463
 30
0.0
 11
1875.93610481686
 21
1128.437633024227
 31
0.0
  0
ARC
  5
23B5
330
1F
100
AcDbEntity
  8
実形
100
AcDbCircle
 10
1845.946385067593
 20
1129.222941473464
 30
0.0
 40
30.0
100
AcDbArc
 50
270.0
 51
358.4999999999973
  0
ARC
  5
23B7
330
1F
100
AcDbEntity
  8
実形
100
AcDbCircle
 10
1702.133323332605
 20
1087.222941473464
 30
0.0
 40
3.0
100
AcDbArc
 50
270.0
 51
0.0
  0
LEADER
  5
23BB
330
1F
100
AcDbEntity
  8
寸法
100
AcDbLeader
  3
ISO-25
 40
25.0
 41
62.5
 76
     2
 10
1875.461576634221
 20
1498.205774915923
 30
0.0
 10
1932.04060051048
 20
1530.660670575189
 30
0.0
213
0.0
223
-12.5
233
0.0
1001
ACAD
1000
DSTYLE
1002
{
1070
   147
1040
6.25
1070
    77
1070
     0
1070
    41
1040
25.0
1070
   342
1005
DA
1002
}
  0
TEXT
  5
23BC
330
1F
100
AcDbEntity
  8
寸法
100
AcDbText
 10
1942.518196598612
 20
1529.613736921755
 30
0.0
 40
25.0
  1
30R
 11
1942.518196598612
 21
1526.280403588422
 31
0.0
100
AcDbText
 73
     1
  0
LEADER
  5
23BD
330
1F
100
AcDbEntity
  8
実形
100
AcDbLeader
  3
ISO-25
 76
     2
 10
1710.268834403747
 20
1095.040561114903
 30
0.0
 10
1744.883121776087
 20
1057.318579926829
 30
0.0
1001
ACAD
1000
DSTYLE
1002
{
1070
   147
1040
6.25
1070
    77
1070
     0
1070
    41
1040
20.0
1070
   342
1005
DA
1002
}
  0
LEADER
  5
23BE
330
1F
100
AcDbEntity
  8
実形
100
AcDbLeader
  3
ISO-25
 76
     2
 10
1701.37941746526
 20
1087.543405997199
 30
0.0
 10
1650.976983664512
 20
1123.505494460328
 30
0.0
1001
ACAD
1000
DSTYLE
1002
{
1070
   147
1040
6.25
1070
    77
1070
     0
1070
    41
1040
20.0
1070
   342
1005
DA
1002
}
  0
LEADER
  5
23BF
330
1F
100
AcDbEntity
  8
実形
100
AcDbLeader
  3
ISO-25
 76
     2
 10
1865.241093300502
 20
1112.493807729505
 30
0.0
 10
1827.58632278999
 20
1148.733160418463
 30
0.0
1001
ACAD
1000
DSTYLE
1002
{
1070
   147
1040
6.25
1070
    77
1070
     0
1070
    41
1040
20.0
1070
   342
1005
DA
1002
}
  0
TEXT
  5
23C0
330
1F
100
AcDbEntity
  8
寸法
100
AcDbText
 10
1755.587538682499
 20
1146.783255591904
 30
0.0
 40
25.0
  1
30R
 11
1755.587538682499
 21
1143.449922258571
 31
0.0
100
AcDbText
 73
     1
  0
TEXT
  5
23C1
330
1F
100
AcDbEntity
  8
寸法
100
AcDbText
 10
1601.54671275998
 20
1116.972546024553
 30
0.0
 40
25.0
  1
3R
 11
1601.54671275998
 21
1113.63921269122
 31
0.0
100
AcDbText
 73
     1
  0
TEXT
  5
23C2
330
1F
100
AcDbEntity
  8
寸法
100
AcDbText
 10
1754.85175824145
 20
1035.831017702442
 30
0.0
 40
25.0
  1
5R
 11
1754.85175824145
 21
1032.497684369109
 31
0.0
100
AcDbText
 73
     1
  0
DIMENSION
  5
23C7
330
1F
100
AcDbEntity
  8
寸法
100
AcDbDimension
  2
*D89
 10
1998.705168003993
 20
1281.910441473465
 30
0.0
 11
1977.902365347899
 21
1363.063556296532
 31
0.0
 70
   160
  1
158%%C
 71
     5
 42
159.0
  3
ISO-25
100
AcDbAlignedDimension
 13
1887.133323332605
 23
1440.910441473465
 33
0.0
 14
1887.133323332605
 24
1281.910441473465
 34
0.0
 50
90.0
100
AcDbRotatedDimension
  0
DIMENSION
  5
23C8
330
1F
100
AcDbEntity
  8
寸法
100
AcDbDimension
  2
*D90
 10
1826.66958456646
 20
1270.910441473465
 30
0.0
 11
1803.044329102454
 21
1363.680944967906
 31
0.0
 70
   160
  1
181%%C
 71
     5
 42
181.0
  3
ISO-25
100
AcDbAlignedDimension
 13
1934.372709155736
 23
1451.910441473465
 33
0.0
 14
1934.372709155736
 24
1270.910441473465
 34
0.0
 50
90.0
100
AcDbRotatedDimension
  0
LINE
  5
23D1
330
1F
100
AcDbEntity
  8
実形
100
AcDbLine
 10
1887.133323332605
 20
1451.910441473465
 30
0.0
 11
1887.133323332605
 21
1270.91044147345
 31
0.0
  0
LINE
  5
23D2
330
1F
100
AcDbEntity
  8
実形
100
AcDbLine
 10
1880.133323332605
 20
1451.910441473465
 30
0.0
 11
1887.133323332605
 21
1451.910441473465
 31
0.0
  0
LINE
  5
23D3
330
1F
100
AcDbEntity
  8
実形
100
AcDbLine
 10
1880.133323332604
 20
1270.910441473448
 30
0.0
 11
1887.133323332605
 21
1270.91044147345
 31
0.0
  0
LINE
  5
246E
330
1F
100
AcDbEntity
  8
実形
100
AcDbLine
 10
1686.933323332604
 20
1050.222941473464
 30
0.0
 11
1699.933323332605
 21
1050.222941473464
 31
0.0
  0
LINE
  5
246F
330
1F
100
AcDbEntity
  8
実形
100
AcDbLine
 10
1686.933323332605
 20
1638.222941473464
 30
0.0
 11
1699.933323332604
 21
1638.222941473464
 31
0.0
  0
LINE
  5
2470
330
1F
100
AcDbEntity
  8
実形
100
AcDbLine
 10
1681.933323332605
 20
1633.222941473464
 30
0.0
 11
1681.933323332605
 21
1055.222941473464
 31
0.0
  0
LINE
  5
2471
330
1F
100
AcDbEntity
  8
実形
100
AcDbLine
 10
1699.933323332605
 20
1638.222941473464
 30
0.0
 11
1699.933323332605
 21
1050.222941473463
 31
0.0
  0
DIMENSION
  5
24B2
330
1F
100
AcDbEntity
  8
実形
100
AcDbDimension
  2
*D97
 10
1699.933323332605
 20
923.5698131792856
 30
0.0
 11
1650.80144043146
 21
952.18609988069
 31
0.0
 70
   160
 71
     5
 42
18.0
  3
ISO-25
100
AcDbAlignedDimension
 13
1681.933323332605
 23
1084.376800323484
 33
0.0
 14
1699.933323332605
 24
1084.376800323484
 34
0.0
100
AcDbRotatedDimension
1001
ACAD
1000
DSTYLE
1002
{
1070
   279
1070
     2
1070
   371
1070
    18
1070
   372
1070
    18
1002
}
  0
DIMENSION
  5
24B3
330
1F
100
AcDbEntity
  8
実形
100
AcDbDimension
  2
*D98
 10
1880.133323332604
 20
923.5698131792856
 30
0.0
 11
1790.033323332605
 21
942.3198131792856
 31
0.0
 70
    32
 71
     5
 42
180.1999999999998
  3
ISO-25
100
AcDbAlignedDimension
 13
1699.933323332605
 23
1084.376800323484
 33
0.0
 14
1880.133323332604
 24
1084.376800323484
 34
0.0
100
AcDbRotatedDimension
1001
ACAD
1000
DSTYLE
1002
{
1070
   279
1070
     2
1070
   371
1070
    18
1070
   372
1070
    18
1002
}
  0
DIMENSION
  5
24B4
330
1F
100
AcDbEntity
  8
実形
100
AcDbDimension
  2
*D99
 10
1890.133323332604
 20
967.2783942072824
 30
0.0
 11
1922.594284499297
 21
990.4637983858323
 31
0.0
 70
   160
  1
7
 71
     5
 42
10.0
  3
ISO-25
100
AcDbAlignedDimension
 13
1880.133323332604
 23
1084.376800323484
 33
0.0
 14
1890.133323332604
 24
1084.376800323484
 34
0.0
100
AcDbRotatedDimension
1001
ACAD
1000
DSTYLE
1002
{
1070
   279
1070
     2
1070
   371
1070
    18
1070
   372
1070
    18
1002
}
  0
DIMENSION
  5
24B5
330
1F
100
AcDbEntity
  8
実形
100
AcDbDimension
  2
*D100
 10
1880.133323332604
 20
864.7917252290939
 30
0.0
 11
1781.033323332604
 21
883.5417252290939
 31
0.0
 70
    32
 71
     5
 42
198.1999999999998
  3
ISO-25
100
AcDbAlignedDimension
 13
1681.933323332605
 23
1084.376800323484
 33
0.0
 14
1880.133323332604
 24
1084.376800323484
 34
0.0
100
AcDbRotatedDimension
1001
ACAD
1000
DSTYLE
1002
{
1070
   279
1070
     2
1070
   371
1070
    18
1070
   372
1070
    18
1002
}
  0
LEADER
  5
24B6
330
1F
100
AcDbEntity
  8
実形
100
AcDbLeader
  3
ISO-25
 40
25.0
 41
16.66666666666666
 76
     2
 10
1674.194983240785
 20
1647.039872955664
 30
0.0
 10
1627.690315363503
 20
1689.394262777248
 30
0.0
213
0.0
223
12.5
233
0.0
1001
ACAD
1000
DSTYLE
1002
{
1070
   147
1040
6.25
1070
    77
1070
     0
1070
    41
1040
20.0
1070
   342
1005
DA
1002
}
  0
TEXT
  5
24B7
330
1F
100
AcDbEntity
  8
実形
100
AcDbText
 10
1601.269312751572
 20
1696.926208969301
 30
0.0
 40
25.0
  1
5R
 72
     2
 11
1642.935979418239
 21
1721.926208969301
 31
0.0
100
AcDbText
 73
     3
  0
LEADER
  5
24B8
330
1F
100
AcDbEntity
  8
実形
100
AcDbLeader
  3
ISO-25
 40
25.0
 41
16.66666666666666
 76
     2
 10
1673.518801029903
 20
1047.201417304127
 30
0.0
 10
1614.042099847473
 20
1007.565757505278
 30
0.0
213
0.0
223
12.5
233
0.0
1001
ACAD
1000
DSTYLE
1002
{
1070
   147
1040
6.25
1070
    77
1070
     0
1070
    41
1040
20.0
1070
   342
1005
DA
1002
}
  0
TEXT
  5
24B9
330
1F
100
AcDbEntity
  8
実形
100
AcDbText
 10
1582.651622744973
 20
974.8777895810585
 30
0.0
 40
25.0
  1
5R
 72
     2
 11
1624.31828941164
 21
999.8777895810585
 31
0.0
100
AcDbText
 73
     3
  0
ARC
  5
2513
330
1F
100
AcDbEntity
  8
実形
100
AcDbCircle
 10
1686.933323332604
 20
1055.222941473464
 30
0.0
 40
5.0
100
AcDbArc
 50
180.0
 51
270.0
  0
ARC
  5
2514
330
1F
100
AcDbEntity
  8
実形
100
AcDbCircle
 10
1686.933323332605
 20
1633.222941473464
 30
0.0
 40
5.0
100
AcDbArc
 50
90.0
 51
180.0
  0
VIEWPORT
  5
2E
102
{ACAD_XDICTIONARY
360
256B
102
}
330
1B
100
AcDbEntity
 67
     1
  8
0
100
AcDbViewport
 10
144.7270812988281
 20
101.2295806407928
 30
0.0
 40
411.6736216682419
 41
222.1517806396485
 68
     1
 69
     1
 12
144.7270812988281
 22
101.2295806407928
 13
0.0
 23
0.0
 14
10.0
 24
10.0
 15
10.0
 25
10.0
 16
0.0
 26
0.0
 36
1.0
 17
0.0
 27
0.0
 37
0.0
 42
50.0
 43
0.0
 44
0.0
 45
222.1517806396485
 50
0.0
 51
0.0
 72
   100
 90
    32800
  1

281
     0
 71
     1
 74
     0
110
0.0
120
0.0
130
0.0
111
1.0
121
0.0
131
0.0
112
0.0
122
1.0
132
0.0
 79
     0
146
0.0
  0
VIEWPORT
  5
30
102
{ACAD_XDICTIONARY
360
256D
102
}
330
1B
100
AcDbEntity
 67
     1
  8
0
100
AcDbViewport
 10
139.2237563133239
 20
101.2295821905136
 30
0.0
 40
222.7580101013184
 41
161.9673315048218
 68
     2
 69
     2
 12
210.0
 22
148.5
 13
0.0
 23
0.0
 14
10.0
 24
10.0
 15
10.0
 25
10.0
 16
0.0
 26
0.0
 36
1.0
 17
0.0
 27
0.0
 37
0.0
 42
50.0
 43
0.0
 44
0.0
 45
309.0686705647124
 50
0.0
 51
0.0
 72
   100
 90
    32864
  1

281
     0
 71
     1
 74
     0
110
0.0
120
0.0
130
0.0
111
1.0
121
0.0
131
0.0
112
0.0
122
1.0
132
0.0
 79
     0
146
0.0
  0
ENDSEC
  0
SECTION
  2
OBJECTS
  0
DICTIONARY
  5
C
330
0
100
AcDbDictionary
281
     1
  3
ACAD_COLOR
350
191C
  3
ACAD_GROUP
350
D
  3
ACAD_LAYOUT
350
1A
  3
ACAD_MATERIAL
350
191B
  3
ACAD_MLINESTYLE
350
17
  3
ACAD_PLOTSETTINGS
350
19
  3
ACAD_PLOTSTYLENAME
350
E
  3
ACAD_TABLESTYLE
350
191D
  3
AcadDim
350
CBC
  3
ACDBHEADERROUNDTRIPXREC
350
2564
  3
AcDbVariableDictionary
350
EFD
  0
DICTIONARY
  5
1A5B
330
2
100
AcDbDictionary
280
     1
281
     1
  3
ACAD_LAYERFILTERS
360
1A5D
  3
ACAD_LAYERSTATES
360
1B17
  3
ACLYDICTIONARY
360
1A5C
  0
DICTIONARY
  5
1926
330
1F
100
AcDbDictionary
280
     1
281
     1
  3
ACAD_SORTENTS
360
1927
  0
DICTIONARY
  5
256B
330
2E
100
AcDbDictionary
280
     1
281
     1
  3
ACAD_XREC_ROUNDTRIP
360
256C
  0
DICTIONARY
  5
256D
330
30
100
AcDbDictionary
280
     1
281
     1
  3
ACAD_XREC_ROUNDTRIP
360
256E
  0
DICTIONARY
  5
191C
102
{ACAD_REACTORS
330
C
102
}
330
C
100
AcDbDictionary
281
     1
  0
DICTIONARY
  5
D
102
{ACAD_REACTORS
330
C
102
}
330
C
100
AcDbDictionary
281
     1
  0
DICTIONARY
  5
1A
102
{ACAD_REACTORS
330
C
102
}
330
C
100
AcDbDictionary
281
     1
  3
Model
350
22
  3
ﾚｲｱｳﾄ1
350
1E
  3
ﾚｲｱｳﾄ2
350
26
  0
DICTIONARY
  5
191B
102
{ACAD_REACTORS
330
C
102
}
330
C
100
AcDbDictionary
281
     1
  0
DICTIONARY
  5
17
102
{ACAD_REACTORS
330
C
102
}
330
C
100
AcDbDictionary
281
     1
  3
Standard
350
18
  0
DICTIONARY
  5
19
102
{ACAD_REACTORS
330
C
102
}
330
C
100
AcDbDictionary
281
     1
  0
ACDBDICTIONARYWDFLT
  5
E
102
{ACAD_REACTORS
330
C
102
}
330
C
100
AcDbDictionary
281
     1
  3
Normal
350
F
100
AcDbDictionaryWithDefault
340
F
  0
DICTIONARY
  5
191D
102
{ACAD_REACTORS
330
C
102
}
330
C
100
AcDbDictionary
281
     1
  3
Standard
350
191E
  0
XRECORD
  5
CBC
102
{ACAD_REACTORS
330
C
102
}
330
C
100
AcDbXrecord
280
     1
 90
   990106
  3

 60
     0
 61
     0
 62
     1
 63
     3
 64
     0
 65
     0
 66
     0
 67
     3
 68
     1
 69
     0
 70
     0
 71
     0
 72
     0
 40
30.0
170
     0
  0
DICTIONARY
  5
2564
102
{ACAD_REACTORS
330
C
102
}
330
C
100
AcDbDictionary
281
     1
  0
DICTIONARY
  5
EFD
102
{ACAD_REACTORS
330
C
102
}
330
C
100
AcDbDictionary
281
     1
  3
CTABLESTYLE
350
1924
  3
DIMASSOC
350
2561
  3
PROJECTNAME
350
2562
  3
SORTENTS
350
EFE
  0
DICTIONARY
  5
1A5D
102
{ACAD_REACTORS
330
1A5B
102
}
330
1A5B
100
AcDbDictionary
281
     1
  0
DICTIONARY
  5
1B17
102
{ACAD_REACTORS
330
1A5B
102
}
330
1A5B
100
AcDbDictionary
281
     1
  0
DICTIONARY
  5
1A5C
102
{ACAD_REACTORS
330
1A5B
102
}
330
1A5B
100
AcDbDictionary
281
     1
1001
ACAD
1000
<All
  0
SORTENTSTABLE
  5
1927
102
{ACAD_REACTORS
330
1926
102
}
330
1926
100
AcDbSortentsTable
330
1F
331
2040
  5
2044
331
2048
  5
204C
331
2050
  5
2054
331
2058
  5
205C
331
1D30
  5
308
331
1DA7
  5
1DD0
331
1DDE
  5
1E23
331
1BC4
  5
1D26
331
2228
  5
222C
331
2514
  5
23B8
331
24B5
  5
24B7
331
246E
  5
24B2
331
23B1
  5
23B1
331
31B
  5
BD9
331
1955
  5
1C36
331
100E
  5
1760
331
198D
  5
1C38
331
2287
  5
2289
331
1016
  5
1990
331
230D
  5
230D
331
175E
  5
1AD5
331
2060
  5
2064
331
1EB5
  5
2032
331
2068
  5
206C
331
2070
  5
2074
331
2031
  5
2035
331
2039
  5
203D
331
2078
  5
207C
331
1BE4
  5
1D94
331
1D29
  5
2FF
331
1AD5
  5
1D24
331
1DCF
  5
1DDE
331
23C1
  5
23C9
331
A5
  5
2D8
331
23D1
  5
246F
331
492
  5
C1A
331
FFF
  5
1019
331
1007
  5
1021
331
9C
  5
9C
331
2041
  5
2045
331
2049
  5
204D
331
2051
  5
2055
331
2059
  5
205D
331
1D31
  5
2FE
331
1DDF
  5
1EB3
331
1BC5
  5
1D29
331
23A2
  5
23A2
331
24B6
  5
24B8
331
246F
  5
24B3
331
23B2
  5
23B2
331
2229
  5
222D
331
CB8
  5
100E
331
100F
  5
1761
331
2288
  5
228A
331
198E
  5
1C76
331
40C
  5
BE4
331
2DD
  5
2E8
331
175F
  5
1BC3
331
230E
  5
230E
331
2061
  5
2065
331
2069
  5
206D
331
2071
  5
2075
331
2032
  5
2036
331
203A
  5
203E
331
2079
  5
207D
331
1D79
  5
1DCD
331
23C2
  5
23CA
331
571
  5
1004
331
23D2
  5
2470
331
2FD
  5
302
331
50A
  5
C20
331
C29
  5
100A
331
1000
  5
101A
331
2042
  5
2046
331
204A
  5
204E
331
2052
  5
2056
331
205A
  5
205E
331
1D32
  5
50A
331
1DD0
  5
1DDF
331
23A3
  5
23A3
331
1D5A
  5
1DA7
331
222A
  5
222E
331
4C3
  5
C1C
331
CB9
  5
100F
331
1008
  5
1022
331
24B7
  5
24B9
331
23B3
  5
23B3
331
2470
  5
23B7
331
1010
  5
1762
331
1957
  5
1C37
331
522
  5
1003
331
2289
  5
228B
331
198F
  5
1C91
331
1760
  5
1BC4
331
47C
  5
C18
331
2062
  5
2066
331
206A
  5
206E
331
2072
  5
2076
331
2033
  5
2037
331
203B
  5
203F
331
207A
  5
207E
331
23BB
  5
23BF
331
2FE
  5
306
331
23D3
  5
2471
331
306
  5
47C
331
1001
  5
101B
331
2043
  5
2047
331
204B
  5
204F
331
2053
  5
2057
331
205B
  5
205F
331
1D33
  5
492
331
1C76
  5
A0
331
1D3B
  5
1D95
331
23A4
  5
23A4
331
222B
  5
2282
331
1009
  5
1023
331
24B8
  5
2513
331
2471
  5
23BD
331
23B4
  5
23B4
331
CC2
  5
1010
331
1011
  5
1763
331
2282
  5
2284
331
228A
  5
228C
331
1990
  5
1D22
331
1761
  5
1BC5
331
2063
  5
2067
331
206B
  5
206F
331
2073
  5
2077
331
2034
  5
2038
331
203C
  5
2040
331
207B
  5
207F
331
1A70
  5
1D23
331
23BC
  5
23C0
331
A0
  5
A5
331
8DB
  5
1005
331
2FF
  5
307
331
1939
  5
1C32
331
307
  5
4C3
331
C2B
  5
100B
331
2044
  5
2048
331
204C
  5
2050
331
2054
  5
2058
331
205C
  5
2060
331
1D34
  5
2F2
331
1DF2
  5
1EB5
331
23A5
  5
23A5
331
100A
  5
1024
331
24B9
  5
2514
331
23B5
  5
23B5
331
222C
  5
2283
331
CC3
  5
1011
331
1012
  5
1764
331
2301
  5
918
331
327
  5
BE3
331
466
  5
C15
331
2283
  5
2285
331
DC3
  5
1012
331
2E0
  5
2FD
331
228B
  5
228D
331
1762
  5
1BD9
331
2064
  5
2068
331
206C
  5
2070
331
2074
  5
2078
331
2035
  5
2039
331
203D
  5
2041
331
207C
  5
2228
331
1D2D
  5
52F
331
23BD
  5
23C1
331
4E5
  5
C1D
331
427
  5
BE6
331
300
  5
309
331
4FD
  5
C1E
331
C24
  5
1007
331
FFB
  5
1013
331
308
  5
4FD
331
C2C
  5
100C
331
1003
  5
101D
331
2045
  5
2049
331
204D
  5
2051
331
2055
  5
2059
331
205D
  5
2061
331
1D94
  5
1DCE
331
1D35
  5
30C
331
23A6
  5
23A6
331
24B2
  5
24B4
331
100B
  5
175B
331
1952
  5
1C34
331
222D
  5
556
331
1013
  5
198D
331
2284
  5
2286
331
175B
  5
1A70
331
228C
  5
228E
331
1763
  5
1BE3
331
2065
  5
2069
331
206D
  5
2071
331
2075
  5
2079
331
2036
  5
203A
331
203E
  5
2042
331
207D
  5
2229
331
1E23
  5
202F
331
1D2E
  5
4E5
331
23BE
  5
23C2
331
2F1
  5
300
331
8DD
  5
1006
331
301
  5
30A
331
FFC
  5
1014
331
309
  5
522
331
194B
  5
1C33
331
1004
  5
101E
331
2046
  5
204A
331
204E
  5
2052
331
2056
  5
205A
331
205E
  5
2062
331
1D95
  5
1DCF
331
1D36
  5
303
331
1DDC
  5
1DE5
331
23A7
  5
23A7
331
319
  5
BD6
331
24B3
  5
24B5
331
100C
  5
175E
331
1953
  5
BD7
331
23B7
  5
23BE
331
222E
  5
570
331
1014
  5
198E
331
2303
  5
2304
331
2285
  5
2287
331
228D
  5
2301
331
1764
  5
1BE4
331
1EB3
  5
2030
331
2066
  5
206A
331
202F
  5
2033
331
206E
  5
2072
331
2076
  5
207A
331
2037
  5
203B
331
1BE2
  5
1D2A
331
203F
  5
2043
331
207E
  5
222A
331
1D2F
  5
339
331
1DCD
  5
1DDC
331
23BF
  5
23C3
331
2F2
  5
301
331
23C7
  5
23D3
331
302
  5
30D
331
C26
  5
1009
331
FFD
  5
1015
331
C2E
  5
100D
331
1005
  5
101F
331
2047
  5
204B
331
204F
  5
2053
331
2057
  5
205B
331
205F
  5
2063
331
1DDD
  5
1DF2
331
1BC3
  5
1D25
331
1DE5
  5
1EB4
331
23A8
  5
23A8
331
459
  5
BE9
331
2513
  5
23B9
331
24B4
  5
24B6
331
23B0
  5
23B0
331
100D
  5
175F
331
1954
  5
1C35
331
1015
  5
198F
331
2304
  5
571
331
2286
  5
2288
331
228E
  5
2303
331
1EB4
  5
2031
331
2067
  5
206B
331
2030
  5
2034
331
206F
  5
2073
331
2038
  5
203C
331
2077
  5
207B
331
1BE3
  5
1D79
331
207F
  5
222B
331
1DCE
  5
1DDD
331
23C0
  5
23C4
331
41A
  5
BE5
331
23C8
  5
246E
331
303
  5
33A
331
FFE
  5
1016
331
1006
  5
1020
331
73
  5
73
  0
XRECORD
  5
256C
102
{ACAD_REACTORS
330
256B
102
}
330
256B
100
AcDbXrecord
280
     1
102
SHADEPLOT
 70
     0
  0
XRECORD
  5
256E
102
{ACAD_REACTORS
330
256D
102
}
330
256D
100
AcDbXrecord
280
     1
102
SHADEPLOT
 70
     0
  0
LAYOUT
  5
22
102
{ACAD_XDICTIONARY
360
2567
102
}
102
{ACAD_REACTORS
330
1A
102
}
330
1A
100
AcDbPlotSettings
  1

  2
EPSON PM-800C
  4
A4
  6

 40
3.757083177566528
 41
14.7637300491333
 42
3.757080078125
 43
3.757080078125
 44
209.9733276367187
 45
296.9683227539062
 46
0.0
 47
0.0
 48
0.0
 49
0.0
140
0.0
141
0.0
142
1.0
143
10.0
 70
 11952
 72
     1
 73
     1
 74
     2
  7

 75
    20
147
0.1
148
0.0
149
0.0
100
AcDbLayout
  1
Model
 70
     1
 71
     0
 10
0.0
 20
0.0
 11
12.0
 21
9.0
 12
0.0
 22
0.0
 32
0.0
 14
0.0
 24
0.0
 34
0.0
 15
0.0
 25
0.0
 35
0.0
146
0.0
 13
0.0
 23
0.0
 33
0.0
 16
1.0
 26
0.0
 36
0.0
 17
0.0
 27
1.0
 37
0.0
 76
     0
330
1F
  0
LAYOUT
  5
1E
102
{ACAD_XDICTIONARY
360
2565
102
}
102
{ACAD_REACTORS
330
1A
102
}
330
1A
100
AcDbPlotSettings
  1

  2
EPSON PM-800C
  4
A4
  6

 40
3.757083177566528
 41
14.7637300491333
 42
3.757080078125
 43
3.757080078125
 44
209.9733276367187
 45
296.9683227539062
 46
0.0
 47
0.0
 48
0.0
 49
0.0
140
0.0
141
0.0
142
1.0
143
1.0
 70
   688
 72
     1
 73
     1
 74
     5
  7

 75
    16
147
1.0
148
0.0
149
0.0
100
AcDbLayout
  1
ﾚｲｱｳﾄ1
 70
     1
 71
     1
 10
-3.757080078125
 20
-3.757083177566528
 11
293.2112426757813
 21
206.2162444591522
 12
0.0
 22
0.0
 32
0.0
 14
27.8447512626648
 24
20.24591643810271
 34
0.0
 15
250.6027613639831
 25
182.2132479429245
 35
0.0
146
0.0
 13
0.0
 23
0.0
 33
0.0
 16
1.0
 26
0.0
 36
0.0
 17
0.0
 27
1.0
 37
0.0
 76
     0
330
1B
331
2E
  0
LAYOUT
  5
26
102
{ACAD_XDICTIONARY
360
2569
102
}
102
{ACAD_REACTORS
330
1A
102
}
330
1A
100
AcDbPlotSettings
  1

  2
EPSON PM-800C
  4

  6

 40
0.0
 41
0.0
 42
0.0
 43
0.0
 44
0.0
 45
0.0
 46
0.0
 47
0.0
 48
0.0
 49
0.0
140
0.0
141
0.0
142
1.0
143
1.0
 70
   688
 72
     0
 73
     0
 74
     5
  7

 75
    16
147
1.0
148
0.0
149
0.0
100
AcDbLayout
  1
ﾚｲｱｳﾄ2
 70
     1
 71
     2
 10
0.0
 20
0.0
 11
12.0
 21
9.0
 12
0.0
 22
0.0
 32
0.0
 14
0.0
 24
0.0
 34
0.0
 15
0.0
 25
0.0
 35
0.0
146
0.0
 13
0.0
 23
0.0
 33
0.0
 16
1.0
 26
0.0
 36
0.0
 17
0.0
 27
1.0
 37
0.0
 76
     0
330
23
  0
MLINESTYLE
  5
18
102
{ACAD_REACTORS
330
17
102
}
330
17
100
AcDbMlineStyle
  2
STANDARD
 70
     0
  3

 62
   256
 51
90.0
 52
90.0
 71
     2
 49
0.5
 62
   256
  6
BYLAYER
 49
-0.5
 62
   256
  6
BYLAYER
  0
ACDBPLACEHOLDER
  5
F
102
{ACAD_REACTORS
330
E
102
}
330
E
  0
TABLESTYLE
  5
191E
102
{ACAD_REACTORS
330
191D
102
}
330
191D
100
AcDbTableStyle
  3
Standard
 70
     0
 71
     0
 40
1.5
 41
1.5
280
     0
281
     0
  7
Standard
140
4.5
170
     2
 62
     0
 63
     7
283
     0
274
    -2
284
     1
 64
     0
275
    -2
285
     1
 65
     0
276
    -2
286
     1
 66
     0
277
    -2
287
     1
 67
     0
278
    -2
288
     1
 68
     0
279
    -2
289
     1
 69
     0
  7
Standard
140
6.0
170
     5
 62
     0
 63
     7
283
     0
274
    -2
284
     1
 64
     0
275
    -2
285
     1
 65
     0
276
    -2
286
     1
 66
     0
277
    -2
287
     1
 67
     0
278
    -2
288
     1
 68
     0
279
    -2
289
     1
 69
     0
  7
Standard
140
4.5
170
     5
 62
     0
 63
     7
283
     0
274
    -2
284
     1
 64
     0
275
    -2
285
     1
 65
     0
276
    -2
286
     1
 66
     0
277
    -2
287
     1
 67
     0
278
    -2
288
     1
 68
     0
279
    -2
289
     1
 69
     0
  0
DICTIONARYVAR
  5
1924
102
{ACAD_REACTORS
330
EFD
102
}
330
EFD
100
DictionaryVariables
280
     0
  1
STANDARD
  0
DICTIONARYVAR
  5
2561
102
{ACAD_REACTORS
330
EFD
102
}
330
EFD
100
DictionaryVariables
280
     0
  1
1
  0
DICTIONARYVAR
  5
2562
102
{ACAD_REACTORS
330
EFD
102
}
330
EFD
100
DictionaryVariables
280
     0
  1

  0
DICTIONARYVAR
  5
EFE
102
{ACAD_REACTORS
330
EFD
102
}
330
EFD
100
DictionaryVariables
280
     0
  1
96
  0
DICTIONARY
  5
2567
330
22
100
AcDbDictionary
280
     1
281
     1
  3
ACAD_XREC_ROUNDTRIP
360
2568
  0
DICTIONARY
  5
2565
330
1E
100
AcDbDictionary
280
     1
281
     1
  3
ACAD_XREC_ROUNDTRIP
360
2566
  0
DICTIONARY
  5
2569
330
26
100
AcDbDictionary
280
     1
281
     1
  3
ACAD_XREC_ROUNDTRIP
360
256A
  0
XRECORD
  5
2568
102
{ACAD_REACTORS
330
2567
102
}
330
2567
100
AcDbXrecord
280
     1
102
SHADEPLOT
 70
     0
102
SHADEPLOTRESLEVEL
 70
     2
102
SHADEPLOTCUSTOMDPI
 70
   300
  0
XRECORD
  5
2566
102
{ACAD_REACTORS
330
2565
102
}
330
2565
100
AcDbXrecord
280
     1
102
SHADEPLOT
 70
     0
102
SHADEPLOTRESLEVEL
 70
     2
102
SHADEPLOTCUSTOMDPI
 70
   300
  0
XRECORD
  5
256A
102
{ACAD_REACTORS
330
2569
102
}
330
2569
100
AcDbXrecord
280
     1
102
SHADEPLOT
 70
     0
102
SHADEPLOTRESLEVEL
 70
     2
102
SHADEPLOTCUSTOMDPI
 70
   300
  0
ENDSEC
  0
EOF
