  0
SECTION
  2
HEADER
  9
$ACADVER
  1
AC1015
  9
$ACADMAINTVER
 70
    20
  9
$DWGCODEPAGE
  3
ANSI_932
  9
$INSBASE
 10
0.0
 20
0.0
 30
0.0
  9
$EXTMIN
 10
104.0
 20
4.0
 30
0.0
  9
$EXTMAX
 10
2784.0
 20
2024.0
 30
0.0
  9
$LIMMIN
 10
0.0
 20
0.0
  9
$LIMMAX
 10
29700.0
 20
21000.0
  9
$ORTHOMODE
 70
     1
  9
$REGENMODE
 70
     1
  9
$FILLMODE
 70
     1
  9
$QTEXTMODE
 70
     0
  9
$MIRRTEXT
 70
     1
  9
$LTSCALE
 40
4.0
  9
$ATTMODE
 70
     1
  9
$TEXTSIZE
 40
35.0
  9
$TRACEWID
 40
1.0
  9
$TEXTSTYLE
  7
Standard
  9
$CLAYER
  8
実形
  9
$CELTYPE
  6
ByLayer
  9
$CECOLOR
 62
   256
  9
$CELTSCALE
 40
1.0
  9
$DISPSILH
 70
     0
  9
$DIMSCALE
 40
1.0
  9
$DIMASZ
 40
35.0
  9
$DIMEXO
 40
65.0
  9
$DIMDLI
 40
3.75
  9
$DIMRND
 40
0.0
  9
$DIMDLE
 40
0.0
  9
$DIMEXE
 40
0.0
  9
$DIMTP
 40
0.0
  9
$DIMTM
 40
0.0
  9
$DIMTXT
 40
25.0
  9
$DIMCEN
 40
2.5
  9
$DIMTSZ
 40
0.0
  9
$DIMTOL
 70
     0
  9
$DIMLIM
 70
     0
  9
$DIMTIH
 70
     0
  9
$DIMTOH
 70
     0
  9
$DIMSE1
 70
     0
  9
$DIMSE2
 70
     0
  9
$DIMTAD
 70
     1
  9
$DIMZIN
 70
     8
  9
$DIMBLK
  1
DotSmall
  9
$DIMASO
 70
     1
  9
$DIMSHO
 70
     1
  9
$DIMPOST
  1

  9
$DIMAPOST
  1

  9
$DIMALT
 70
     0
  9
$DIMALTD
 70
     3
  9
$DIMALTF
 40
0.03937007874016
  9
$DIMLFAC
 40
1.0
  9
$DIMTOFL
 70
     1
  9
$DIMTVP
 40
0.0
  9
$DIMTIX
 70
     0
  9
$DIMSOXD
 70
     0
  9
$DIMSAH
 70
     0
  9
$DIMBLK1
  1

  9
$DIMBLK2
  1

  9
$DIMSTYLE
  2
ISO-25
  9
$DIMCLRD
 70
     0
  9
$DIMCLRE
 70
     0
  9
$DIMCLRT
 70
     0
  9
$DIMTFAC
 40
1.0
  9
$DIMGAP
 40
6.25
  9
$DIMJUST
 70
     0
  9
$DIMSD1
 70
     0
  9
$DIMSD2
 70
     0
  9
$DIMTOLJ
 70
     0
  9
$DIMTZIN
 70
     8
  9
$DIMALTZ
 70
     0
  9
$DIMALTTZ
 70
     0
  9
$DIMUPT
 70
     0
  9
$DIMDEC
 70
     2
  9
$DIMTDEC
 70
     2
  9
$DIMALTU
 70
     2
  9
$DIMALTTD
 70
     3
  9
$DIMTXSTY
  7
Standard
  9
$DIMAUNIT
 70
     0
  9
$DIMADEC
 70
     0
  9
$DIMALTRND
 40
0.0
  9
$DIMAZIN
 70
     0
  9
$DIMDSEP
 70
    46
  9
$DIMATFIT
 70
     2
  9
$DIMFRAC
 70
     0
  9
$DIMLDRBLK
  1
Open30
  9
$DIMLUNIT
 70
     2
  9
$DIMLWD
 70
    15
  9
$DIMLWE
 70
    15
  9
$DIMTMOVE
 70
     2
  9
$LUNITS
 70
     2
  9
$LUPREC
 70
     2
  9
$SKETCHINC
 40
1.0
  9
$FILLETRAD
 40
5.0
  9
$AUNITS
 70
     0
  9
$AUPREC
 70
     0
  9
$MENU
  1
.
  9
$ELEVATION
 40
0.0
  9
$PELEVATION
 40
0.0
  9
$THICKNESS
 40
0.0
  9
$LIMCHECK
 70
     1
  9
$CHAMFERA
 40
10.0
  9
$CHAMFERB
 40
10.0
  9
$CHAMFERC
 40
20.0
  9
$CHAMFERD
 40
0.0
  9
$SKPOLY
 70
     0
  9
$TDCREATE
 40
2451673.575802199
  9
$TDUCREATE
 40
2451673.200802199
  9
$TDUPDATE
 40
2458813.759541042
  9
$TDUUPDATE
 40
2458813.384541042
  9
$TDINDWG
 40
1.0614894329
  9
$TDUSRTIMER
 40
1.0614887384
  9
$USRTIMER
 70
     1
  9
$ANGBASE
 50
0.0
  9
$ANGDIR
 70
     0
  9
$PDMODE
 70
     0
  9
$PDSIZE
 40
0.0
  9
$PLINEWID
 40
0.0
  9
$SPLFRAME
 70
     0
  9
$SPLINETYPE
 70
     6
  9
$SPLINESEGS
 70
     8
  9
$HANDSEED
  5
2AF1
  9
$SURFTAB1
 70
     6
  9
$SURFTAB2
 70
     6
  9
$SURFTYPE
 70
     6
  9
$SURFU
 70
     6
  9
$SURFV
 70
     6
  9
$UCSBASE
  2

  9
$UCSNAME
  2

  9
$UCSORG
 10
0.0
 20
0.0
 30
0.0
  9
$UCSXDIR
 10
1.0
 20
0.0
 30
0.0
  9
$UCSYDIR
 10
0.0
 20
1.0
 30
0.0
  9
$UCSORTHOREF
  2

  9
$UCSORTHOVIEW
 70
     0
  9
$UCSORGTOP
 10
0.0
 20
0.0
 30
0.0
  9
$UCSORGBOTTOM
 10
0.0
 20
0.0
 30
0.0
  9
$UCSORGLEFT
 10
0.0
 20
0.0
 30
0.0
  9
$UCSORGRIGHT
 10
0.0
 20
0.0
 30
0.0
  9
$UCSORGFRONT
 10
0.0
 20
0.0
 30
0.0
  9
$UCSORGBACK
 10
0.0
 20
0.0
 30
0.0
  9
$PUCSBASE
  2

  9
$PUCSNAME
  2

  9
$PUCSORG
 10
0.0
 20
0.0
 30
0.0
  9
$PUCSXDIR
 10
1.0
 20
0.0
 30
0.0
  9
$PUCSYDIR
 10
0.0
 20
1.0
 30
0.0
  9
$PUCSORTHOREF
  2

  9
$PUCSORTHOVIEW
 70
     0
  9
$PUCSORGTOP
 10
0.0
 20
0.0
 30
0.0
  9
$PUCSORGBOTTOM
 10
0.0
 20
0.0
 30
0.0
  9
$PUCSORGLEFT
 10
0.0
 20
0.0
 30
0.0
  9
$PUCSORGRIGHT
 10
0.0
 20
0.0
 30
0.0
  9
$PUCSORGFRONT
 10
0.0
 20
0.0
 30
0.0
  9
$PUCSORGBACK
 10
0.0
 20
0.0
 30
0.0
  9
$USERI1
 70
     0
  9
$USERI2
 70
     0
  9
$USERI3
 70
     0
  9
$USERI4
 70
     0
  9
$USERI5
 70
     0
  9
$USERR1
 40
0.0
  9
$USERR2
 40
0.0
  9
$USERR3
 40
0.0
  9
$USERR4
 40
0.0
  9
$USERR5
 40
0.0
  9
$WORLDVIEW
 70
     1
  9
$SHADEDGE
 70
     3
  9
$SHADEDIF
 70
    70
  9
$TILEMODE
 70
     1
  9
$MAXACTVP
 70
    64
  9
$PINSBASE
 10
0.0
 20
0.0
 30
0.0
  9
$PLIMCHECK
 70
     0
  9
$PEXTMIN
 10
27.8447512626648
 20
20.24591643810271
 30
0.0
  9
$PEXTMAX
 10
250.6027613639831
 20
182.2132479429245
 30
0.0
  9
$PLIMMIN
 10
-3.757080078125
 20
-3.757083177566528
  9
$PLIMMAX
 10
293.2112426757813
 20
206.2162444591522
  9
$UNITMODE
 70
     0
  9
$VISRETAIN
 70
     1
  9
$PLINEGEN
 70
     0
  9
$PSLTSCALE
 70
     1
  9
$TREEDEPTH
 70
  3020
  9
$CMLSTYLE
  2
Standard
  9
$CMLJUST
 70
     0
  9
$CMLSCALE
 40
20.0
  9
$PROXYGRAPHICS
 70
     1
  9
$MEASUREMENT
 70
     1
  9
$CELWEIGHT
370
    -1
  9
$ENDCAPS
280
     0
  9
$JOINSTYLE
280
     0
  9
$LWDISPLAY
290
     0
  9
$INSUNITS
 70
     4
  9
$HYPERLINKBASE
  1

  9
$STYLESHEET
  1

  9
$XEDIT
290
     1
  9
$CEPSNTYPE
380
     0
  9
$PSTYLEMODE
290
     1
  9
$FINGERPRINTGUID
  2
{C8EA1F16-24C9-11D4-9416-CE0A3B32152F}
  9
$VERSIONGUID
  2
{1E8FB4A6-4919-4812-8686-709EA16876F2}
  9
$EXTNAMES
290
     1
  9
$PSVPSCALE
 40
0.0
  9
$OLESTARTUP
290
     0
  0
ENDSEC
  0
SECTION
  2
CLASSES
  0
CLASS
  1
ACDBDICTIONARYWDFLT
  2
AcDbDictionaryWithDefault
  3
ObjectDBX Classes
 90
        0
280
     0
281
     0
  0
CLASS
  1
ACDBPLACEHOLDER
  2
AcDbPlaceHolder
  3
ObjectDBX Classes
 90
        0
280
     0
281
     0
  0
CLASS
  1
LAYOUT
  2
AcDbLayout
  3
ObjectDBX Classes
 90
        0
280
     0
281
     0
  0
CLASS
  1
DICTIONARYVAR
  2
AcDbDictionaryVar
  3
ObjectDBX Classes
 90
        0
280
     0
281
     0
  0
CLASS
  1
TABLESTYLE
  2
AcDbTableStyle
  3
ObjectDBX Classes
 90
     2047
280
     0
281
     0
  0
CLASS
  1
SORTENTSTABLE
  2
AcDbSortentsTable
  3
ObjectDBX Classes
 90
        0
280
     0
281
     0
  0
ENDSEC
  0
SECTION
  2
TABLES
  0
TABLE
  2
VPORT
  5
8
330
0
100
AcDbSymbolTable
 70
     2
  0
VPORT
  5
2AE5
330
8
100
AcDbSymbolTableRecord
100
AcDbViewportTableRecord
  2
*Active
 70
     0
 10
0.0
 20
0.0
 11
1.0
 21
1.0
 12
1372.297746527317
 22
931.0888244893266
 13
0.0
 23
0.0
 14
10.0
 24
10.0
 15
10.0
 25
10.0
 16
0.0
 26
0.0
 36
1.0
 17
0.0
 27
0.0
 37
0.0
 40
2221.9283168155
 41
1.29038112522686
 42
50.0
 43
0.0
 44
0.0
 50
0.0
 51
0.0
 71
     0
 72
   100
 73
     1
 74
     3
 75
     0
 76
     0
 77
     0
 78
     0
281
     0
 65
     1
110
0.0
120
0.0
130
0.0
111
1.0
121
0.0
131
0.0
112
0.0
122
1.0
132
0.0
 79
     0
146
0.0
  0
ENDTAB
  0
TABLE
  2
LTYPE
  5
5
330
0
100
AcDbSymbolTable
 70
    46
  0
LTYPE
  5
14
330
5
100
AcDbSymbolTableRecord
100
AcDbLinetypeTableRecord
  2
ByBlock
 70
     0
  3

 72
    65
 73
     0
 40
0.0
  0
LTYPE
  5
15
330
5
100
AcDbSymbolTableRecord
100
AcDbLinetypeTableRecord
  2
ByLayer
 70
     0
  3

 72
    65
 73
     0
 40
0.0
  0
LTYPE
  5
16
330
5
100
AcDbSymbolTableRecord
100
AcDbLinetypeTableRecord
  2
Continuous
 70
     0
  3
Solid line
 72
    65
 73
     0
 40
0.0
  0
LTYPE
  5
34
330
5
100
AcDbSymbolTableRecord
100
AcDbLinetypeTableRecord
  2
ACAD_ISO02W100
 70
     0
  3
ISO dash __ __ __ __ __ __ __ __ __ __ __ __ __
 72
    65
 73
     2
 40
15.0
 49
12.0
 74
     0
 49
-3.0
 74
     0
  0
LTYPE
  5
35
330
5
100
AcDbSymbolTableRecord
100
AcDbLinetypeTableRecord
  2
ACAD_ISO03W100
 70
     0
  3
ISO dash space __    __    __    __    __    __
 72
    65
 73
     2
 40
30.0
 49
12.0
 74
     0
 49
-18.0
 74
     0
  0
LTYPE
  5
36
330
5
100
AcDbSymbolTableRecord
100
AcDbLinetypeTableRecord
  2
ACAD_ISO04W100
 70
     0
  3
ISO long-dash dot ____ . ____ . ____ . ____ . _
 72
    65
 73
     4
 40
30.0
 49
24.0
 74
     0
 49
-3.0
 74
     0
 49
0.0
 74
     0
 49
-3.0
 74
     0
  0
LTYPE
  5
37
330
5
100
AcDbSymbolTableRecord
100
AcDbLinetypeTableRecord
  2
ACAD_ISO05W100
 70
     0
  3
ISO long-dash double-dot ____ .. ____ .. ____ .
 72
    65
 73
     6
 40
34.0
 49
24.0
 74
     0
 49
-3.0
 74
     0
 49
0.5
 74
     0
 49
-3.0
 74
     0
 49
0.5
 74
     0
 49
-3.0
 74
     0
  0
LTYPE
  5
38
330
5
100
AcDbSymbolTableRecord
100
AcDbLinetypeTableRecord
  2
ACAD_ISO06W100
 70
     0
  3
ISO long-dash triple-dot ____ ... ____ ... ____
 72
    65
 73
     8
 40
37.5
 49
24.0
 74
     0
 49
-3.0
 74
     0
 49
0.5
 74
     0
 49
-3.0
 74
     0
 49
0.5
 74
     0
 49
-3.0
 74
     0
 49
0.5
 74
     0
 49
-3.0
 74
     0
  0
LTYPE
  5
39
330
5
100
AcDbSymbolTableRecord
100
AcDbLinetypeTableRecord
  2
ACAD_ISO07W100
 70
     0
  3
ISO dot . . . . . . . . . . . . . . . . . . . .
 72
    65
 73
     2
 40
3.0
 49
0.0
 74
     0
 49
-3.0
 74
     0
  0
LTYPE
  5
3A
330
5
100
AcDbSymbolTableRecord
100
AcDbLinetypeTableRecord
  2
ACAD_ISO08W100
 70
     0
  3
ISO long-dash short-dash ____ __ ____ __ ____ _
 72
    65
 73
     4
 40
36.0
 49
24.0
 74
     0
 49
-3.0
 74
     0
 49
6.0
 74
     0
 49
-3.0
 74
     0
  0
LTYPE
  5
3B
330
5
100
AcDbSymbolTableRecord
100
AcDbLinetypeTableRecord
  2
ACAD_ISO09W100
 70
     0
  3
ISO long-dash double-short-dash ____ __ __ ____
 72
    65
 73
     6
 40
45.0
 49
24.0
 74
     0
 49
-3.0
 74
     0
 49
6.0
 74
     0
 49
-3.0
 74
     0
 49
6.0
 74
     0
 49
-3.0
 74
     0
  0
LTYPE
  5
3C
330
5
100
AcDbSymbolTableRecord
100
AcDbLinetypeTableRecord
  2
ACAD_ISO10W100
 70
     0
  3
ISO dash dot __ . __ . __ . __ . __ . __ . __ .
 72
    65
 73
     4
 40
18.0
 49
12.0
 74
     0
 49
-3.0
 74
     0
 49
0.0
 74
     0
 49
-3.0
 74
     0
  0
LTYPE
  5
3D
330
5
100
AcDbSymbolTableRecord
100
AcDbLinetypeTableRecord
  2
ACAD_ISO11W100
 70
     0
  3
ISO double-dash dot __ __ . __ __ . __ __ . __ 
 72
    65
 73
     6
 40
33.0
 49
12.0
 74
     0
 49
-3.0
 74
     0
 49
12.0
 74
     0
 49
-3.0
 74
     0
 49
0.0
 74
     0
 49
-3.0
 74
     0
  0
LTYPE
  5
3E
330
5
100
AcDbSymbolTableRecord
100
AcDbLinetypeTableRecord
  2
ACAD_ISO12W100
 70
     0
  3
ISO dash double-dot __ . . __ . . __ . . __ . .
 72
    65
 73
     6
 40
21.0
 49
12.0
 74
     0
 49
-3.0
 74
     0
 49
0.0
 74
     0
 49
-3.0
 74
     0
 49
0.0
 74
     0
 49
-3.0
 74
     0
  0
LTYPE
  5
3F
330
5
100
AcDbSymbolTableRecord
100
AcDbLinetypeTableRecord
  2
ACAD_ISO13W100
 70
     0
  3
ISO double-dash double-dot __ __ . . __ __ . . 
 72
    65
 73
     8
 40
36.0
 49
12.0
 74
     0
 49
-3.0
 74
     0
 49
12.0
 74
     0
 49
-3.0
 74
     0
 49
0.0
 74
     0
 49
-3.0
 74
     0
 49
0.0
 74
     0
 49
-3.0
 74
     0
  0
LTYPE
  5
40
330
5
100
AcDbSymbolTableRecord
100
AcDbLinetypeTableRecord
  2
ACAD_ISO14W100
 70
     0
  3
ISO dash triple-dot __ . . . __ . . . __ . . . 
 72
    65
 73
     8
 40
24.0
 49
12.0
 74
     0
 49
-3.0
 74
     0
 49
0.0
 74
     0
 49
-3.0
 74
     0
 49
0.0
 74
     0
 49
-3.0
 74
     0
 49
0.0
 74
     0
 49
-3.0
 74
     0
  0
LTYPE
  5
41
330
5
100
AcDbSymbolTableRecord
100
AcDbLinetypeTableRecord
  2
ACAD_ISO15W100
 70
     0
  3
ISO double-dash triple-dot __ __ . . . __ __ . 
 72
    65
 73
    10
 40
39.0
 49
12.0
 74
     0
 49
-3.0
 74
     0
 49
12.0
 74
     0
 49
-3.0
 74
     0
 49
0.0
 74
     0
 49
-3.0
 74
     0
 49
0.0
 74
     0
 49
-3.0
 74
     0
 49
0.0
 74
     0
 49
-3.0
 74
     0
  0
LTYPE
  5
42
330
5
100
AcDbSymbolTableRecord
100
AcDbLinetypeTableRecord
  2
BATTING
 70
     0
  3
Batting SSSSSSSSSSSSSSSSSSSSSSSSSSSSSSSSSSSSSSS
 72
    65
 73
     4
 40
10.16254
 49
0.00254
 74
     0
 49
-2.54
 74
     4
 75
   134
340
33
 46
2.54
 50
0.0
 44
-2.54
 45
0.0
 49
-5.08
 74
     4
 75
   134
340
33
 46
2.54
 50
180.0
 44
2.54
 45
0.0
 49
-2.54
 74
     0
  0
LTYPE
  5
43
330
5
100
AcDbSymbolTableRecord
100
AcDbLinetypeTableRecord
  2
BORDER
 70
     0
  3
Border __ __ . __ __ . __ __ . __ __ . __ __ .
 72
    65
 73
     6
 40
44.45
 49
12.7
 74
     0
 49
-6.349999999999999
 74
     0
 49
12.7
 74
     0
 49
-6.349999999999999
 74
     0
 49
0.0
 74
     0
 49
-6.349999999999999
 74
     0
  0
LTYPE
  5
44
330
5
100
AcDbSymbolTableRecord
100
AcDbLinetypeTableRecord
  2
BORDER2
 70
     0
  3
Border (.5x) __.__.__.__.__.__.__.__.__.__.__.
 72
    65
 73
     6
 40
22.225
 49
6.349999999999999
 74
     0
 49
-3.174999999999999
 74
     0
 49
6.349999999999999
 74
     0
 49
-3.174999999999999
 74
     0
 49
0.0
 74
     0
 49
-3.174999999999999
 74
     0
  0
LTYPE
  5
45
330
5
100
AcDbSymbolTableRecord
100
AcDbLinetypeTableRecord
  2
BORDERX2
 70
     0
  3
Border (2x) ____  ____  .  ____  ____  .  ___
 72
    65
 73
     6
 40
88.9
 49
25.4
 74
     0
 49
-12.7
 74
     0
 49
25.4
 74
     0
 49
-12.7
 74
     0
 49
0.0
 74
     0
 49
-12.7
 74
     0
  0
LTYPE
  5
46
330
5
100
AcDbSymbolTableRecord
100
AcDbLinetypeTableRecord
  2
CENTER
 70
     0
  3
Center ____ _ ____ _ ____ _ ____ _ ____ _ ____
 72
    65
 73
     4
 40
50.8
 49
31.75
 74
     0
 49
-6.349999999999999
 74
     0
 49
6.349999999999999
 74
     0
 49
-6.349999999999999
 74
     0
  0
LTYPE
  5
47
330
5
100
AcDbSymbolTableRecord
100
AcDbLinetypeTableRecord
  2
CENTER2
 70
     0
  3
Center (.5x) ___ _ ___ _ ___ _ ___ _ ___ _ ___
 72
    65
 73
     4
 40
28.575
 49
19.05
 74
     0
 49
-3.174999999999999
 74
     0
 49
3.174999999999999
 74
     0
 49
-3.174999999999999
 74
     0
  0
LTYPE
  5
48
330
5
100
AcDbSymbolTableRecord
100
AcDbLinetypeTableRecord
  2
CENTERX2
 70
     0
  3
Center (2x) ________  __  ________  __  _____
 72
    65
 73
     4
 40
101.6
 49
63.5
 74
     0
 49
-12.7
 74
     0
 49
12.7
 74
     0
 49
-12.7
 74
     0
  0
LTYPE
  5
49
330
5
100
AcDbSymbolTableRecord
100
AcDbLinetypeTableRecord
  2
DASHDOT
 70
     0
  3
Dash dot __ . __ . __ . __ . __ . __ . __ . __
 72
    65
 73
     4
 40
25.4
 49
12.7
 74
     0
 49
-6.349999999999999
 74
     0
 49
0.0
 74
     0
 49
-6.349999999999999
 74
     0
  0
LTYPE
  5
4A
330
5
100
AcDbSymbolTableRecord
100
AcDbLinetypeTableRecord
  2
DASHDOT2
 70
     0
  3
Dash dot (.5x) _._._._._._._._._._._._._._._.
 72
    65
 73
     4
 40
12.7
 49
6.349999999999999
 74
     0
 49
-3.174999999999999
 74
     0
 49
0.0
 74
     0
 49
-3.174999999999999
 74
     0
  0
LTYPE
  5
4B
330
5
100
AcDbSymbolTableRecord
100
AcDbLinetypeTableRecord
  2
DASHDOTX2
 70
     0
  3
Dash dot (2x) ____  .  ____  .  ____  .  ___
 72
    65
 73
     4
 40
50.8
 49
25.4
 74
     0
 49
-12.7
 74
     0
 49
0.0
 74
     0
 49
-12.7
 74
     0
  0
LTYPE
  5
4C
330
5
100
AcDbSymbolTableRecord
100
AcDbLinetypeTableRecord
  2
DASHED
 70
     0
  3
Dashed __ __ __ __ __ __ __ __ __ __ __ __ __ _
 72
    65
 73
     2
 40
19.05
 49
12.7
 74
     0
 49
-6.349999999999999
 74
     0
  0
LTYPE
  5
4D
330
5
100
AcDbSymbolTableRecord
100
AcDbLinetypeTableRecord
  2
DASHED2
 70
     0
  3
Dashed (.5x) _ _ _ _ _ _ _ _ _ _ _ _ _ _ _ _ _
 72
    65
 73
     2
 40
9.524999999999998
 49
6.349999999999999
 74
     0
 49
-3.174999999999999
 74
     0
  0
LTYPE
  5
4E
330
5
100
AcDbSymbolTableRecord
100
AcDbLinetypeTableRecord
  2
DASHEDX2
 70
     0
  3
Dashed (2x) ____  ____  ____  ____  ____  ___
 72
    65
 73
     2
 40
38.1
 49
25.4
 74
     0
 49
-12.7
 74
     0
  0
LTYPE
  5
4F
330
5
100
AcDbSymbolTableRecord
100
AcDbLinetypeTableRecord
  2
DIVIDE
 70
     0
  3
Divide ____ . . ____ . . ____ . . ____ . . ____
 72
    65
 73
     6
 40
31.75
 49
12.7
 74
     0
 49
-6.349999999999999
 74
     0
 49
0.0
 74
     0
 49
-6.349999999999999
 74
     0
 49
0.0
 74
     0
 49
-6.349999999999999
 74
     0
  0
LTYPE
  5
50
330
5
100
AcDbSymbolTableRecord
100
AcDbLinetypeTableRecord
  2
DIVIDE2
 70
     0
  3
Divide (.5x) __..__..__..__..__..__..__..__.._
 72
    65
 73
     6
 40
15.875
 49
6.349999999999999
 74
     0
 49
-3.174999999999999
 74
     0
 49
0.0
 74
     0
 49
-3.174999999999999
 74
     0
 49
0.0
 74
     0
 49
-3.174999999999999
 74
     0
  0
LTYPE
  5
51
330
5
100
AcDbSymbolTableRecord
100
AcDbLinetypeTableRecord
  2
DIVIDEX2
 70
     0
  3
Divide (2x) ________  .  .  ________  .  .  _
 72
    65
 73
     6
 40
63.49999999999999
 49
25.4
 74
     0
 49
-12.7
 74
     0
 49
0.0
 74
     0
 49
-12.7
 74
     0
 49
0.0
 74
     0
 49
-12.7
 74
     0
  0
LTYPE
  5
52
330
5
100
AcDbSymbolTableRecord
100
AcDbLinetypeTableRecord
  2
DOT
 70
     0
  3
Dot . . . . . . . . . . . . . . . . . . . . . .
 72
    65
 73
     2
 40
6.349999999999999
 49
0.0
 74
     0
 49
-6.349999999999999
 74
     0
  0
LTYPE
  5
53
330
5
100
AcDbSymbolTableRecord
100
AcDbLinetypeTableRecord
  2
DOT2
 70
     0
  3
Dot (.5x) .....................................
 72
    65
 73
     2
 40
3.174999999999999
 49
0.0
 74
     0
 49
-3.174999999999999
 74
     0
  0
LTYPE
  5
54
330
5
100
AcDbSymbolTableRecord
100
AcDbLinetypeTableRecord
  2
DOTX2
 70
     0
  3
Dot (2x) .  .  .  .  .  .  .  .  .  .  .  .  . 
 72
    65
 73
     2
 40
12.7
 49
0.0
 74
     0
 49
-12.7
 74
     0
  0
LTYPE
  5
55
330
5
100
AcDbSymbolTableRecord
100
AcDbLinetypeTableRecord
  2
FENCELINE1
 70
     0
  3
Fenceline circle ----0-----0----0-----0----0---
 72
    65
 73
     4
 40
36.83
 49
6.349999999999999
 74
     0
 49
-2.54
 74
     4
 75
   133
340
33
 46
2.54
 50
0.0
 44
-2.54
 45
0.0
 49
-2.54
 74
     0
 49
25.4
 74
     0
  0
LTYPE
  5
56
330
5
100
AcDbSymbolTableRecord
100
AcDbLinetypeTableRecord
  2
FENCELINE2
 70
     0
  3
Fenceline square ----[]-----[]----[]-----[]----
 72
    65
 73
     4
 40
36.83
 49
6.349999999999999
 74
     0
 49
-2.54
 74
     4
 75
   132
340
33
 46
2.54
 50
0.0
 44
-2.54
 45
0.0
 49
-2.54
 74
     0
 49
25.4
 74
     0
  0
LTYPE
  5
57
330
5
100
AcDbSymbolTableRecord
100
AcDbLinetypeTableRecord
  2
GAS_LINE
 70
     0
  3
Gas line ----GAS----GAS----GAS----GAS----GAS---
 72
    65
 73
     3
 40
24.13
 49
12.7
 74
     0
 49
-5.08
 74
     2
 75
     0
340
11
 46
2.54
 50
0.0
 44
-2.54
 45
-1.27
  9
GAS
 49
-6.349999999999999
 74
     0
  0
LTYPE
  5
58
330
5
100
AcDbSymbolTableRecord
100
AcDbLinetypeTableRecord
  2
HIDDEN
 70
     0
  3
Hidden __ __ __ __ __ __ __ __ __ __ __ __ __ _
 72
    65
 73
     2
 40
9.524999999999998
 49
6.349999999999999
 74
     0
 49
-3.174999999999999
 74
     0
  0
LTYPE
  5
59
330
5
100
AcDbSymbolTableRecord
100
AcDbLinetypeTableRecord
  2
HIDDEN2
 70
     0
  3
Hidden (.5x) _ _ _ _ _ _ _ _ _ _ _ _ _ _ _ _ _
 72
    65
 73
     2
 40
4.762499999999999
 49
3.174999999999999
 74
     0
 49
-1.587499999999999
 74
     0
  0
LTYPE
  5
5A
330
5
100
AcDbSymbolTableRecord
100
AcDbLinetypeTableRecord
  2
HIDDENX2
 70
     0
  3
Hidden (2x) ____ ____ ____ ____ ____ ____ ____
 72
    65
 73
     2
 40
19.05
 49
12.7
 74
     0
 49
-6.349999999999999
 74
     0
  0
LTYPE
  5
5B
330
5
100
AcDbSymbolTableRecord
100
AcDbLinetypeTableRecord
  2
HOT_WATER_SUPPLY
 70
     0
  3
Hot water supply ---- HW ---- HW ---- HW ----
 72
    65
 73
     3
 40
22.86
 49
12.7
 74
     0
 49
-5.08
 74
     2
 75
     0
340
11
 46
2.54
 50
0.0
 44
-2.54
 45
-1.27
  9
HW
 49
-5.08
 74
     0
  0
LTYPE
  5
5C
330
5
100
AcDbSymbolTableRecord
100
AcDbLinetypeTableRecord
  2
PHANTOM
 70
     0
  3
Phantom ______  __  __  ______  __  __  ______
 72
    65
 73
     6
 40
63.5
 49
31.75
 74
     0
 49
-6.349999999999999
 74
     0
 49
6.349999999999999
 74
     0
 49
-6.349999999999999
 74
     0
 49
6.349999999999999
 74
     0
 49
-6.349999999999999
 74
     0
  0
LTYPE
  5
5D
330
5
100
AcDbSymbolTableRecord
100
AcDbLinetypeTableRecord
  2
PHANTOM2
 70
     0
  3
Phantom (.5x) ___ _ _ ___ _ _ ___ _ _ ___ _ _
 72
    65
 73
     6
 40
31.75
 49
15.875
 74
     0
 49
-3.174999999999999
 74
     0
 49
3.174999999999999
 74
     0
 49
-3.174999999999999
 74
     0
 49
3.174999999999999
 74
     0
 49
-3.174999999999999
 74
     0
  0
LTYPE
  5
5E
330
5
100
AcDbSymbolTableRecord
100
AcDbLinetypeTableRecord
  2
PHANTOMX2
 70
     0
  3
Phantom (2x) ____________    ____    ____   _
 72
    65
 73
     6
 40
127.0
 49
63.5
 74
     0
 49
-12.7
 74
     0
 49
12.7
 74
     0
 49
-12.7
 74
     0
 49
12.7
 74
     0
 49
-12.7
 74
     0
  0
LTYPE
  5
5F
330
5
100
AcDbSymbolTableRecord
100
AcDbLinetypeTableRecord
  2
TRACKS
 70
     0
  3
Tracks -|-|-|-|-|-|-|-|-|-|-|-|-|-|-|-|-|-|-|-|
 72
    65
 73
     2
 40
7.62
 49
3.81
 74
     4
 75
   130
340
33
 46
6.349999999999999
 50
0.0
 44
0.0
 45
0.0
 49
3.81
 74
     0
  0
LTYPE
  5
60
330
5
100
AcDbSymbolTableRecord
100
AcDbLinetypeTableRecord
  2
ZIGZAG
 70
     0
  3
Zig zag /\/\/\/\/\/\/\/\/\/\/\/\/\/\/\/\/\/\/\/
 72
    65
 73
     4
 40
20.32254
 49
0.00254
 74
     0
 49
-5.08
 74
     4
 75
   131
340
33
 46
5.08
 50
0.0
 44
-5.08
 45
0.0
 49
-10.16
 74
     4
 75
   131
340
33
 46
5.08
 50
180.0
 44
5.08
 45
0.0
 49
-5.08
 74
     0
  0
ENDTAB
  0
TABLE
  2
LAYER
  5
2
102
{ACAD_XDICTIONARY
360
18EA
102
}
330
0
100
AcDbSymbolTable
 70
     9
  0
LAYER
  5
10
330
2
100
AcDbSymbolTableRecord
100
AcDbLayerTableRecord
  2
0
 70
     0
 62
     7
  6
Continuous
370
    -3
390
F
  0
LAYER
  5
C3
330
2
100
AcDbSymbolTableRecord
100
AcDbLayerTableRecord
  2
Defpoints
 70
     0
 62
     7
  6
Continuous
290
     0
370
    -3
390
F
  0
LAYER
  5
256
330
2
100
AcDbSymbolTableRecord
100
AcDbLayerTableRecord
  2
センター
 70
     0
 62
     7
  6
CENTER2
370
    15
390
F
  0
LAYER
  5
268
330
2
100
AcDbSymbolTableRecord
100
AcDbLayerTableRecord
  2
実形
 70
     0
 62
     7
  6
Continuous
370
    -3
390
F
  0
LAYER
  5
269
330
2
100
AcDbSymbolTableRecord
100
AcDbLayerTableRecord
  2
補助
 70
     0
 62
     7
  6
Continuous
370
    -3
390
F
  0
LAYER
  5
26A
330
2
100
AcDbSymbolTableRecord
100
AcDbLayerTableRecord
  2
寸法
 70
     0
 62
     7
  6
Continuous
370
    -3
390
F
  0
LAYER
  5
26B
330
2
100
AcDbSymbolTableRecord
100
AcDbLayerTableRecord
  2
ハッチング
 70
     0
 62
     7
  6
Continuous
370
    18
390
F
  0
LAYER
  5
26D
330
2
100
AcDbSymbolTableRecord
100
AcDbLayerTableRecord
  2
文字
 70
     0
 62
     7
  6
Continuous
370
    -3
390
F
  0
LAYER
  5
FCC
330
2
100
AcDbSymbolTableRecord
100
AcDbLayerTableRecord
  2
Cen
 70
     0
 62
     7
  6
CENTER2
370
    15
390
F
  0
ENDTAB
  0
TABLE
  2
STYLE
  5
3
330
0
100
AcDbSymbolTable
 70
     5
  0
STYLE
  5
11
330
3
100
AcDbSymbolTableRecord
100
AcDbTextStyleTableRecord
  2
Standard
 70
     0
 40
0.0
 41
1.0
 50
0.0
 71
     0
 42
35.0
  3
txt.shx
  4
bigfont.shx
  0
STYLE
  5
33
330
3
100
AcDbSymbolTableRecord
100
AcDbTextStyleTableRecord
  2

 70
     1
 40
0.0
 41
1.0
 50
0.0
 71
     0
 42
2.5
  3
ltypeshp.shx
  4

  0
STYLE
  5
1CEB
330
3
100
AcDbSymbolTableRecord
100
AcDbTextStyleTableRecord
  2
ｍｓ明朝
 70
     0
 40
0.0
 41
1.0
 50
0.0
 71
     0
 42
35.0
  3
MS Mincho.ttf
  4

1001
ACAD
1000
MS Mincho
1071
    32785
  0
STYLE
  5
1CEC
330
3
100
AcDbSymbolTableRecord
100
AcDbTextStyleTableRecord
  2
MS明朝
 70
     0
 40
0.0
 41
1.0
 50
0.0
 71
     0
 42
35.0
  3
MS Mincho.ttf
  4

1001
ACAD
1000
MS Mincho
1071
    32785
  0
STYLE
  5
241F
330
3
100
AcDbSymbolTableRecord
100
AcDbTextStyleTableRecord
  2
明朝
 70
     0
 40
0.0
 41
1.0
 50
0.0
 71
     0
 42
25.0
  3
MS Mincho.ttf
  4

1001
ACAD
1000
MS Mincho
1071
    32785
  0
ENDTAB
  0
TABLE
  2
VIEW
  5
6
330
0
100
AcDbSymbolTable
 70
     0
  0
ENDTAB
  0
TABLE
  2
UCS
  5
7
330
0
100
AcDbSymbolTable
 70
     0
  0
ENDTAB
  0
TABLE
  2
APPID
  5
9
330
0
100
AcDbSymbolTable
 70
     2
  0
APPID
  5
12
330
9
100
AcDbSymbolTableRecord
100
AcDbRegAppTableRecord
  2
ACAD
 70
     0
  0
APPID
  5
20EB
330
9
100
AcDbSymbolTableRecord
100
AcDbRegAppTableRecord
  2
ACAD_PSEXT
 70
     0
  0
ENDTAB
  0
TABLE
  2
DIMSTYLE
  5
A
330
0
100
AcDbSymbolTable
 70
     1
100
AcDbDimStyleTable
 71
     1
340
27
  0
DIMSTYLE
105
27
102
{ACAD_REACTORS
330
3C2
330
50A
330
3F6
330
4E5
330
4FD
330
522
330
3E9
330
40C
330
41A
330
427
330
459
330
466
330
47C
330
492
330
4C3
330
8DB
330
C24
330
C26
330
C29
330
CB8
330
CB9
330
193E
330
19A2
330
1E8A
330
1EF1
330
1F1A
330
1FA0
330
1FBF
330
1FDE
330
248E
330
2498
330
249B
330
249C
330
249F
330
24A0
330
24A1
330
24A2
330
24A4
330
24A5
330
24A6
330
24A7
330
24A8
330
24A9
330
24AF
330
24B0
330
24B1
330
24B9
330
24BA
330
24BB
330
2747
330
2748
330
2763
330
2781
330
2782
330
2785
330
2786
330
2787
330
2788
330
29F9
330
29FA
330
29FB
330
29FC
330
29FD
102
}
330
A
100
AcDbSymbolTableRecord
100
AcDbDimStyleTableRecord
  2
ISO-25
 70
     0
 41
35.0
 42
65.0
 43
3.75
 44
0.0
 73
     0
 74
     0
 77
     1
 78
     8
140
25.0
141
2.5
143
0.03937007874016
147
6.25
171
     3
172
     1
271
     2
272
     2
274
     3
279
     2
283
     0
284
     8
289
     2
340
11
341
DA
342
D0
371
    15
372
    15
  0
ENDTAB
  0
TABLE
  2
BLOCK_RECORD
  5
1
330
0
100
AcDbSymbolTable
 70
    63
  0
BLOCK_RECORD
  5
1F
102
{ACAD_XDICTIONARY
360
18D8
102
}
330
1
100
AcDbSymbolTableRecord
100
AcDbBlockTableRecord
  2
*Model_Space
340
22
  0
BLOCK_RECORD
  5
1B
330
1
100
AcDbSymbolTableRecord
100
AcDbBlockTableRecord
  2
*Paper_Space
340
1E
  0
BLOCK_RECORD
  5
23
330
1
100
AcDbSymbolTableRecord
100
AcDbBlockTableRecord
  2
*Paper_Space0
340
26
  0
BLOCK_RECORD
  5
D0
330
1
100
AcDbSymbolTableRecord
100
AcDbBlockTableRecord
  2
_DotSmall
340
0
102
{BLKREFS
331
21DF
331
21E0
331
21E7
331
21E8
331
21F0
331
21F1
331
21FA
331
21FB
331
2202
331
2203
331
220C
331
220D
331
2214
331
2215
331
221D
331
221E
331
2227
331
2228
331
222F
331
2230
331
2239
331
223A
331
2242
331
2243
331
224A
331
224B
331
2254
331
2255
331
225C
331
225D
331
2265
331
2266
331
226F
331
2270
331
228A
331
228B
331
2293
331
2294
331
229B
331
229C
331
22A5
331
22A6
331
22AE
331
22AF
331
22B6
331
22B7
331
25C6
331
25C7
331
25D0
331
25D1
331
25D8
331
25D9
331
25E2
331
25E3
331
25EA
331
25EB
331
25F3
331
25F4
331
25FC
331
25FD
331
2606
331
2607
331
260E
331
260F
331
2617
331
2618
331
2620
331
2621
331
2629
331
262A
331
2632
331
2633
331
263B
331
263C
331
2644
331
2645
331
264D
331
264E
331
2656
331
2657
331
265F
331
2660
331
2668
331
2669
331
2851
331
2852
331
285B
331
285C
331
2862
331
2863
331
286A
331
286B
331
2874
331
2875
331
287F
331
2880
331
2887
331
2888
331
2891
331
2892
331
2899
331
289A
331
2A72
331
2A73
331
2A87
331
2A88
331
2A91
331
2A92
331
2A9C
331
2A9D
331
2AA5
331
2AA6
102
}
  0
BLOCK_RECORD
  5
D4
330
1
100
AcDbSymbolTableRecord
100
AcDbBlockTableRecord
  2
_Origin2
340
0
  0
BLOCK_RECORD
  5
DA
330
1
100
AcDbSymbolTableRecord
100
AcDbBlockTableRecord
  2
_Open30
340
0
  0
BLOCK_RECORD
  5
3C3
330
1
100
AcDbSymbolTableRecord
100
AcDbBlockTableRecord
  2
*D4
340
0
  0
BLOCK_RECORD
  5
3EA
330
1
100
AcDbSymbolTableRecord
100
AcDbBlockTableRecord
  2
*D5
340
0
  0
BLOCK_RECORD
  5
3F7
330
1
100
AcDbSymbolTableRecord
100
AcDbBlockTableRecord
  2
*D6
340
0
  0
BLOCK_RECORD
  5
40D
330
1
100
AcDbSymbolTableRecord
100
AcDbBlockTableRecord
  2
*D7
340
0
  0
BLOCK_RECORD
  5
41B
330
1
100
AcDbSymbolTableRecord
100
AcDbBlockTableRecord
  2
*D8
340
0
  0
BLOCK_RECORD
  5
428
330
1
100
AcDbSymbolTableRecord
100
AcDbBlockTableRecord
  2
*D9
340
0
  0
BLOCK_RECORD
  5
45A
330
1
100
AcDbSymbolTableRecord
100
AcDbBlockTableRecord
  2
*D10
340
0
  0
BLOCK_RECORD
  5
467
330
1
100
AcDbSymbolTableRecord
100
AcDbBlockTableRecord
  2
*D11
340
0
  0
BLOCK_RECORD
  5
47D
330
1
100
AcDbSymbolTableRecord
100
AcDbBlockTableRecord
  2
*D12
340
0
  0
BLOCK_RECORD
  5
493
330
1
100
AcDbSymbolTableRecord
100
AcDbBlockTableRecord
  2
*D13
340
0
  0
BLOCK_RECORD
  5
4C4
330
1
100
AcDbSymbolTableRecord
100
AcDbBlockTableRecord
  2
*D14
340
0
  0
BLOCK_RECORD
  5
4E6
330
1
100
AcDbSymbolTableRecord
100
AcDbBlockTableRecord
  2
*D15
340
0
  0
BLOCK_RECORD
  5
4FE
330
1
100
AcDbSymbolTableRecord
100
AcDbBlockTableRecord
  2
*D16
340
0
  0
BLOCK_RECORD
  5
50B
330
1
100
AcDbSymbolTableRecord
100
AcDbBlockTableRecord
  2
*D17
340
0
  0
BLOCK_RECORD
  5
523
330
1
100
AcDbSymbolTableRecord
100
AcDbBlockTableRecord
  2
*D18
340
0
  0
BLOCK_RECORD
  5
197E
330
1
100
AcDbSymbolTableRecord
100
AcDbBlockTableRecord
  2
*D19
340
0
  0
BLOCK_RECORD
  5
19A3
330
1
100
AcDbSymbolTableRecord
100
AcDbBlockTableRecord
  2
*D20
340
0
  0
BLOCK_RECORD
  5
1A64
330
1
100
AcDbSymbolTableRecord
100
AcDbBlockTableRecord
  2
_None
340
0
  0
BLOCK_RECORD
  5
1E8B
330
1
100
AcDbSymbolTableRecord
100
AcDbBlockTableRecord
  2
*D22
340
0
  0
BLOCK_RECORD
  5
1EF2
330
1
100
AcDbSymbolTableRecord
100
AcDbBlockTableRecord
  2
*D23
340
0
  0
BLOCK_RECORD
  5
1F1B
330
1
100
AcDbSymbolTableRecord
100
AcDbBlockTableRecord
  2
*D24
340
0
  0
BLOCK_RECORD
  5
1FA1
330
1
100
AcDbSymbolTableRecord
100
AcDbBlockTableRecord
  2
*D25
340
0
  0
BLOCK_RECORD
  5
1FC0
330
1
100
AcDbSymbolTableRecord
100
AcDbBlockTableRecord
  2
*D26
340
0
  0
BLOCK_RECORD
  5
1FDF
330
1
100
AcDbSymbolTableRecord
100
AcDbBlockTableRecord
  2
*D27
340
0
  0
BLOCK_RECORD
  5
20E6
330
1
100
AcDbSymbolTableRecord
100
AcDbBlockTableRecord
  2
_Dot
340
0
  0
BLOCK_RECORD
  5
24D0
330
1
100
AcDbSymbolTableRecord
100
AcDbBlockTableRecord
  2
*D29
340
0
  0
BLOCK_RECORD
  5
24D9
330
1
100
AcDbSymbolTableRecord
100
AcDbBlockTableRecord
  2
*D30
340
0
  0
BLOCK_RECORD
  5
24E5
330
1
100
AcDbSymbolTableRecord
100
AcDbBlockTableRecord
  2
*D31
340
0
  0
BLOCK_RECORD
  5
24F1
330
1
100
AcDbSymbolTableRecord
100
AcDbBlockTableRecord
  2
*D32
340
0
  0
BLOCK_RECORD
  5
24FD
330
1
100
AcDbSymbolTableRecord
100
AcDbBlockTableRecord
  2
*D33
340
0
  0
BLOCK_RECORD
  5
2509
330
1
100
AcDbSymbolTableRecord
100
AcDbBlockTableRecord
  2
*D34
340
0
  0
BLOCK_RECORD
  5
2515
330
1
100
AcDbSymbolTableRecord
100
AcDbBlockTableRecord
  2
*D35
340
0
  0
BLOCK_RECORD
  5
2521
330
1
100
AcDbSymbolTableRecord
100
AcDbBlockTableRecord
  2
*D36
340
0
  0
BLOCK_RECORD
  5
252D
330
1
100
AcDbSymbolTableRecord
100
AcDbBlockTableRecord
  2
*D37
340
0
  0
BLOCK_RECORD
  5
2539
330
1
100
AcDbSymbolTableRecord
100
AcDbBlockTableRecord
  2
*D38
340
0
  0
BLOCK_RECORD
  5
2545
330
1
100
AcDbSymbolTableRecord
100
AcDbBlockTableRecord
  2
*D39
340
0
  0
BLOCK_RECORD
  5
2551
330
1
100
AcDbSymbolTableRecord
100
AcDbBlockTableRecord
  2
*D40
340
0
  0
BLOCK_RECORD
  5
255D
330
1
100
AcDbSymbolTableRecord
100
AcDbBlockTableRecord
  2
*D41
340
0
  0
BLOCK_RECORD
  5
2569
330
1
100
AcDbSymbolTableRecord
100
AcDbBlockTableRecord
  2
*D42
340
0
  0
BLOCK_RECORD
  5
2575
330
1
100
AcDbSymbolTableRecord
100
AcDbBlockTableRecord
  2
*D43
340
0
  0
BLOCK_RECORD
  5
2581
330
1
100
AcDbSymbolTableRecord
100
AcDbBlockTableRecord
  2
*D44
340
0
  0
BLOCK_RECORD
  5
258D
330
1
100
AcDbSymbolTableRecord
100
AcDbBlockTableRecord
  2
*D45
340
0
  0
BLOCK_RECORD
  5
2599
330
1
100
AcDbSymbolTableRecord
100
AcDbBlockTableRecord
  2
*D46
340
0
  0
BLOCK_RECORD
  5
25A5
330
1
100
AcDbSymbolTableRecord
100
AcDbBlockTableRecord
  2
*D47
340
0
  0
BLOCK_RECORD
  5
25B1
330
1
100
AcDbSymbolTableRecord
100
AcDbBlockTableRecord
  2
*D48
340
0
  0
BLOCK_RECORD
  5
278B
330
1
100
AcDbSymbolTableRecord
100
AcDbBlockTableRecord
  2
*D49
340
0
  0
BLOCK_RECORD
  5
2798
330
1
100
AcDbSymbolTableRecord
100
AcDbBlockTableRecord
  2
*D50
340
0
  0
BLOCK_RECORD
  5
27A5
330
1
100
AcDbSymbolTableRecord
100
AcDbBlockTableRecord
  2
*D51
340
0
  0
BLOCK_RECORD
  5
27AF
330
1
100
AcDbSymbolTableRecord
100
AcDbBlockTableRecord
  2
*D52
340
0
  0
BLOCK_RECORD
  5
27BB
330
1
100
AcDbSymbolTableRecord
100
AcDbBlockTableRecord
  2
*D53
340
0
  0
BLOCK_RECORD
  5
27C7
330
1
100
AcDbSymbolTableRecord
100
AcDbBlockTableRecord
  2
*D54
340
0
  0
BLOCK_RECORD
  5
27D5
330
1
100
AcDbSymbolTableRecord
100
AcDbBlockTableRecord
  2
*D55
340
0
  0
BLOCK_RECORD
  5
27E1
330
1
100
AcDbSymbolTableRecord
100
AcDbBlockTableRecord
  2
*D56
340
0
  0
BLOCK_RECORD
  5
27ED
330
1
100
AcDbSymbolTableRecord
100
AcDbBlockTableRecord
  2
*D57
340
0
  0
BLOCK_RECORD
  5
2A06
330
1
100
AcDbSymbolTableRecord
100
AcDbBlockTableRecord
  2
*D58
340
0
  0
BLOCK_RECORD
  5
2A12
330
1
100
AcDbSymbolTableRecord
100
AcDbBlockTableRecord
  2
*D59
340
0
  0
BLOCK_RECORD
  5
2A20
330
1
100
AcDbSymbolTableRecord
100
AcDbBlockTableRecord
  2
*D60
340
0
  0
BLOCK_RECORD
  5
2A2C
330
1
100
AcDbSymbolTableRecord
100
AcDbBlockTableRecord
  2
*D61
340
0
  0
BLOCK_RECORD
  5
2A38
330
1
100
AcDbSymbolTableRecord
100
AcDbBlockTableRecord
  2
*D62
340
0
  0
ENDTAB
  0
ENDSEC
  0
SECTION
  2
BLOCKS
  0
BLOCK
  5
20
330
1F
100
AcDbEntity
  8
0
100
AcDbBlockBegin
  2
*Model_Space
 70
     0
 10
0.0
 20
0.0
 30
0.0
  3
*Model_Space
  1

  0
ENDBLK
  5
21
330
1F
100
AcDbEntity
  8
0
100
AcDbBlockEnd
  0
BLOCK
  5
1C
330
1B
100
AcDbEntity
 67
     1
  8
0
100
AcDbBlockBegin
  2
*Paper_Space
 70
     0
 10
0.0
 20
0.0
 30
0.0
  3
*Paper_Space
  1

  0
ENDBLK
  5
1D
330
1B
100
AcDbEntity
 67
     1
  8
0
100
AcDbBlockEnd
  0
BLOCK
  5
24
330
23
100
AcDbEntity
  8
0
100
AcDbBlockBegin
  2
*Paper_Space0
 70
     0
 10
0.0
 20
0.0
 30
0.0
  3
*Paper_Space0
  1

  0
ENDBLK
  5
25
330
23
100
AcDbEntity
  8
0
100
AcDbBlockEnd
  0
BLOCK
  5
D2
330
D0
100
AcDbEntity
  8
0
100
AcDbBlockBegin
  2
_DotSmall
 70
     0
 10
0.0
 20
0.0
 30
0.0
  3
_DotSmall
  1

  0
LWPOLYLINE
  5
D1
330
D0
100
AcDbEntity
  8
0
 62
     0
100
AcDbPolyline
 90
        2
 70
     1
 43
0.5
 10
-0.0625
 20
0.0
 42
1.0
 10
0.0625
 20
0.0
 42
1.0
  0
ENDBLK
  5
D3
330
D0
100
AcDbEntity
  8
0
100
AcDbBlockEnd
  0
BLOCK
  5
D8
330
D4
100
AcDbEntity
  8
0
100
AcDbBlockBegin
  2
_Origin2
 70
     0
 10
0.0
 20
0.0
 30
0.0
  3
_Origin2
  1

  0
CIRCLE
  5
D5
330
D4
100
AcDbEntity
  8
0
 62
     0
370
    -2
100
AcDbCircle
 10
0.0
 20
0.0
 30
0.0
 40
0.5
  0
CIRCLE
  5
D6
330
D4
100
AcDbEntity
  8
0
 62
     0
370
    -2
100
AcDbCircle
 10
0.0
 20
0.0
 30
0.0
 40
0.25
  0
LINE
  5
D7
330
D4
100
AcDbEntity
  8
0
 62
     0
370
    -2
100
AcDbLine
 10
-0.5
 20
0.0
 30
0.0
 11
-1.0
 21
0.0
 31
0.0
  0
ENDBLK
  5
D9
330
D4
100
AcDbEntity
  8
0
100
AcDbBlockEnd
  0
BLOCK
  5
DE
330
DA
100
AcDbEntity
  8
0
100
AcDbBlockBegin
  2
_Open30
 70
     0
 10
0.0
 20
0.0
 30
0.0
  3
_Open30
  1

  0
LINE
  5
DB
330
DA
100
AcDbEntity
  8
0
 62
     0
370
    -2
100
AcDbLine
 10
-1.0
 20
0.26794919
 30
0.0
 11
0.0
 21
0.0
 31
0.0
  0
LINE
  5
DC
330
DA
100
AcDbEntity
  8
0
 62
     0
370
    -2
100
AcDbLine
 10
0.0
 20
0.0
 30
0.0
 11
-1.0
 21
-0.26794919
 31
0.0
  0
LINE
  5
DD
330
DA
100
AcDbEntity
  8
0
 62
     0
370
    -2
100
AcDbLine
 10
0.0
 20
0.0
 30
0.0
 11
-1.0
 21
0.0
 31
0.0
  0
ENDBLK
  5
DF
330
DA
100
AcDbEntity
  8
0
100
AcDbBlockEnd
  0
BLOCK
  5
3CD
330
3C3
100
AcDbEntity
  8
0
100
AcDbBlockBegin
  2
*D4
 70
     1
 10
0.0
 20
0.0
 30
0.0
  3
*D4
  1

  0
LINE
  5
21DC
330
3C3
100
AcDbEntity
  8
寸法
 62
     0
370
    15
100
AcDbLine
 10
834.7543291184008
 20
1633.63209989488
 30
0.0
 11
897.0543780375171
 21
1633.63209989488
 31
0.0
  0
LINE
  5
21DD
330
3C3
100
AcDbEntity
  8
寸法
 62
     0
370
    15
100
AcDbLine
 10
834.754329118401
 20
1573.63209989488
 30
0.0
 11
897.0543780375171
 21
1573.63209989488
 31
0.0
  0
LINE
  5
21DE
330
3C3
100
AcDbEntity
  8
寸法
 62
     0
370
    15
100
AcDbLine
 10
897.0543780375171
 20
1633.63209989488
 30
0.0
 11
897.0543780375171
 21
1573.63209989488
 31
0.0
  0
INSERT
  5
21DF
330
3C3
100
AcDbEntity
  8
寸法
 62
     0
370
    15
100
AcDbBlockReference
  2
_DotSmall
 10
897.0543780375171
 20
1633.63209989488
 30
0.0
 41
35.0
 42
35.0
 43
35.0
 50
90.0
  0
INSERT
  5
21E0
330
3C3
100
AcDbEntity
  8
寸法
 62
     0
370
    15
100
AcDbBlockReference
  2
_DotSmall
 10
897.0543780375171
 20
1573.63209989488
 30
0.0
 41
35.0
 42
35.0
 43
35.0
 50
270.0
  0
MTEXT
  5
21E1
330
3C3
100
AcDbEntity
  8
寸法
 62
     0
100
AcDbMText
 10
878.3043780375169
 20
1603.63209989488
 30
0.0
 40
25.0
 41
0.0
 71
     5
 72
     1
  1
60
 11
0.0000000000000001
 21
1.0
 31
0.0
 73
     1
 44
1.0
1001
ACAD
1000
MTEXTBEGIN
1070
    73
1070
     1
1070
    44
1040
1.0
1070
    74
1070
     0
1000
MTEXTEND
  0
POINT
  5
21E2
330
3C3
100
AcDbEntity
  8
Defpoints
 62
     0
100
AcDbPoint
 10
769.7543291184008
 20
1633.63209989488
 30
0.0
  0
POINT
  5
21E3
330
3C3
100
AcDbEntity
  8
Defpoints
 62
     0
100
AcDbPoint
 10
769.754329118401
 20
1573.63209989488
 30
0.0
  0
POINT
  5
21E4
330
3C3
100
AcDbEntity
  8
Defpoints
 62
     0
100
AcDbPoint
 10
897.0543780375171
 20
1573.63209989488
 30
0.0
  0
ENDBLK
  5
3CE
330
3C3
100
AcDbEntity
  8
0
100
AcDbBlockEnd
  0
BLOCK
  5
3F4
330
3EA
100
AcDbEntity
  8
0
100
AcDbBlockBegin
  2
*D5
 70
     1
 10
0.0
 20
0.0
 30
0.0
  3
*D5
  1

  0
LINE
  5
21E5
330
3EA
100
AcDbEntity
  8
寸法
 62
     0
370
    15
100
AcDbLine
 10
759.9190915315184
 20
1418.63209989488
 30
0.0
 11
953.7543291184011
 21
1418.63209989488
 31
0.0
  0
LINE
  5
21E6
330
3EA
100
AcDbEntity
  8
寸法
 62
     0
370
    15
100
AcDbLine
 10
953.7543291184011
 20
1418.63209989488
 30
0.0
 11
953.7543291184011
 21
1548.63209989488
 31
0.0
  0
INSERT
  5
21E7
330
3EA
100
AcDbEntity
  8
寸法
 62
     0
370
    15
100
AcDbBlockReference
  2
_DotSmall
 10
953.7543291184011
 20
1418.63209989488
 30
0.0
 41
35.0
 42
35.0
 43
35.0
 50
270.0
  0
INSERT
  5
21E8
330
3EA
100
AcDbEntity
  8
寸法
 62
     0
370
    15
100
AcDbBlockReference
  2
_DotSmall
 10
953.7543291184011
 20
1548.63209989488
 30
0.0
 41
35.0
 42
35.0
 43
35.0
 50
90.0
  0
MTEXT
  5
21E9
330
3EA
100
AcDbEntity
  8
寸法
 62
     0
100
AcDbMText
 10
935.0043291184007
 20
1483.632099894881
 30
0.0
 40
25.0
 41
0.0
 71
     5
 72
     1
  1
130
 11
0.0000000000000001
 21
1.0
 31
0.0
 73
     1
 44
1.0
1001
ACAD
1000
MTEXTBEGIN
1070
    73
1070
     1
1070
    44
1040
1.0
1070
    74
1070
     0
1000
MTEXTEND
  0
POINT
  5
21EA
330
3EA
100
AcDbEntity
  8
Defpoints
 62
     0
100
AcDbPoint
 10
694.9190915315185
 20
1418.63209989488
 30
0.0
  0
POINT
  5
21EB
330
3EA
100
AcDbEntity
  8
Defpoints
 62
     0
100
AcDbPoint
 10
803.7543291184011
 20
1548.63209989488
 30
0.0
  0
POINT
  5
21EC
330
3EA
100
AcDbEntity
  8
Defpoints
 62
     0
100
AcDbPoint
 10
953.7543291184011
 20
1548.63209989488
 30
0.0
  0
ENDBLK
  5
3F5
330
3EA
100
AcDbEntity
  8
0
100
AcDbBlockEnd
  0
BLOCK
  5
401
330
3F7
100
AcDbEntity
  8
0
100
AcDbBlockBegin
  2
*D6
 70
     1
 10
0.0
 20
0.0
 30
0.0
  3
*D6
  1

  0
LINE
  5
21ED
330
3F7
100
AcDbEntity
  8
寸法
 62
     0
370
    15
100
AcDbLine
 10
628.754329118401
 20
1274.13209989488
 30
0.0
 11
628.754329118401
 21
1266.039333623879
 31
0.0
  0
LINE
  5
21EE
330
3F7
100
AcDbEntity
  8
寸法
 62
     0
370
    15
100
AcDbLine
 10
478.754329118401
 20
1263.13209989488
 30
0.0
 11
478.754329118401
 21
1266.039333623879
 31
0.0
  0
LINE
  5
21EF
330
3F7
100
AcDbEntity
  8
寸法
 62
     0
370
    15
100
AcDbLine
 10
628.754329118401
 20
1266.039333623879
 30
0.0
 11
478.754329118401
 21
1266.039333623879
 31
0.0
  0
INSERT
  5
21F0
330
3F7
100
AcDbEntity
  8
寸法
 62
     0
370
    15
100
AcDbBlockReference
  2
_DotSmall
 10
628.754329118401
 20
1266.039333623879
 30
0.0
 41
35.0
 42
35.0
 43
35.0
  0
INSERT
  5
21F1
330
3F7
100
AcDbEntity
  8
寸法
 62
     0
370
    15
100
AcDbBlockReference
  2
_DotSmall
 10
478.754329118401
 20
1266.039333623879
 30
0.0
 41
35.0
 42
35.0
 43
35.0
 50
180.0
  0
MTEXT
  5
21F2
330
3F7
100
AcDbEntity
  8
寸法
 62
     0
100
AcDbMText
 10
553.754329118401
 20
1284.789333623879
 30
0.0
 40
25.0
 41
0.0
 71
     5
 72
     1
  1
150
 73
     1
 44
1.0
1001
ACAD
1000
MTEXTBEGIN
1070
    73
1070
     1
1070
    44
1040
1.0
1070
    74
1070
     0
1000
MTEXTEND
  0
POINT
  5
21F3
330
3F7
100
AcDbEntity
  8
Defpoints
 62
     0
100
AcDbPoint
 10
628.754329118401
 20
1339.13209989488
 30
0.0
  0
POINT
  5
21F4
330
3F7
100
AcDbEntity
  8
Defpoints
 62
     0
100
AcDbPoint
 10
478.754329118401
 20
1328.13209989488
 30
0.0
  0
POINT
  5
21F5
330
3F7
100
AcDbEntity
  8
Defpoints
 62
     0
100
AcDbPoint
 10
478.754329118401
 20
1266.039333623879
 30
0.0
  0
ENDBLK
  5
402
330
3F7
100
AcDbEntity
  8
0
100
AcDbBlockEnd
  0
BLOCK
  5
418
330
40D
100
AcDbEntity
  8
0
100
AcDbBlockBegin
  2
*D7
 70
     1
 10
0.0
 20
0.0
 30
0.0
  3
*D7
  1

  0
LINE
  5
21F6
330
40D
100
AcDbEntity
  8
寸法
 62
     0
370
    15
100
AcDbLine
 10
398.7543291184011
 20
1123.63209989488
 30
0.0
 11
359.9586682568416
 21
1123.63209989488
 31
0.0
  0
LINE
  5
21F7
330
40D
100
AcDbEntity
  8
寸法
 62
     0
370
    15
100
AcDbLine
 10
398.7543291184011
 20
1138.63209989488
 30
0.0
 11
359.9586682568416
 21
1138.63209989488
 31
0.0
  0
LINE
  5
21F8
330
40D
100
AcDbEntity
  8
寸法
 62
     0
370
    15
100
AcDbLine
 10
359.9586682568416
 20
1123.63209989488
 30
0.0
 11
359.9586682568416
 21
1138.63209989488
 31
0.0
  0
MTEXT
  5
21F9
330
40D
100
AcDbEntity
  8
寸法
 62
     0
100
AcDbMText
 10
334.0584170672582
 20
1147.061223947217
 30
0.0
 40
25.0
 41
0.0
 71
     5
 72
     1
  1
15
 11
0.0000000000000001
 21
1.0
 31
0.0
 73
     1
 44
1.0
1001
ACAD
1000
MTEXTBEGIN
1070
    73
1070
     1
1070
    44
1040
1.0
1070
    74
1070
     0
1000
MTEXTEND
  0
INSERT
  5
21FA
330
40D
100
AcDbEntity
  8
寸法
 62
     0
370
    15
100
AcDbBlockReference
  2
_DotSmall
 10
359.9586682568416
 20
1123.63209989488
 30
0.0
 41
35.0
 42
35.0
 43
35.0
 50
270.0
  0
INSERT
  5
21FB
330
40D
100
AcDbEntity
  8
寸法
 62
     0
370
    15
100
AcDbBlockReference
  2
_DotSmall
 10
359.9586682568416
 20
1138.63209989488
 30
0.0
 41
35.0
 42
35.0
 43
35.0
 50
90.0
  0
POINT
  5
21FC
330
40D
100
AcDbEntity
  8
Defpoints
 62
     0
100
AcDbPoint
 10
463.7543291184011
 20
1123.63209989488
 30
0.0
  0
POINT
  5
21FD
330
40D
100
AcDbEntity
  8
Defpoints
 62
     0
100
AcDbPoint
 10
463.7543291184011
 20
1138.63209989488
 30
0.0
  0
POINT
  5
21FE
330
40D
100
AcDbEntity
  8
Defpoints
 62
     0
100
AcDbPoint
 10
359.9586682568416
 20
1138.63209989488
 30
0.0
  0
ENDBLK
  5
419
330
40D
100
AcDbEntity
  8
0
100
AcDbBlockEnd
  0
BLOCK
  5
425
330
41B
100
AcDbEntity
  8
0
100
AcDbBlockBegin
  2
*D8
 70
     1
 10
0.0
 20
0.0
 30
0.0
  3
*D8
  1

  0
LINE
  5
21FF
330
41B
100
AcDbEntity
  8
寸法
 62
     0
370
    15
100
AcDbLine
 10
398.7543291184011
 20
1138.63209989488
 30
0.0
 11
359.9586682568415
 21
1138.63209989488
 31
0.0
  0
LINE
  5
2200
330
41B
100
AcDbEntity
  8
寸法
 62
     0
370
    15
100
AcDbLine
 10
398.7543291184011
 20
1548.63209989488
 30
0.0
 11
359.9586682568416
 21
1548.63209989488
 31
0.0
  0
LINE
  5
2201
330
41B
100
AcDbEntity
  8
寸法
 62
     0
370
    15
100
AcDbLine
 10
359.9586682568415
 20
1138.63209989488
 30
0.0
 11
359.9586682568416
 21
1548.63209989488
 31
0.0
  0
INSERT
  5
2202
330
41B
100
AcDbEntity
  8
寸法
 62
     0
370
    15
100
AcDbBlockReference
  2
_DotSmall
 10
359.9586682568415
 20
1138.63209989488
 30
0.0
 41
35.0
 42
35.0
 43
35.0
 50
270.0
  0
INSERT
  5
2203
330
41B
100
AcDbEntity
  8
寸法
 62
     0
370
    15
100
AcDbBlockReference
  2
_DotSmall
 10
359.9586682568416
 20
1548.63209989488
 30
0.0
 41
35.0
 42
35.0
 43
35.0
 50
90.0
  0
MTEXT
  5
2204
330
41B
100
AcDbEntity
  8
寸法
 62
     0
100
AcDbMText
 10
341.2086682568414
 20
1343.63209989488
 30
0.0
 40
25.0
 41
0.0
 71
     5
 72
     1
  1
410
 11
0.0000000000000001
 21
1.0
 31
0.0
 73
     1
 44
1.0
1001
ACAD
1000
MTEXTBEGIN
1070
    73
1070
     1
1070
    44
1040
1.0
1070
    74
1070
     0
1000
MTEXTEND
  0
POINT
  5
2205
330
41B
100
AcDbEntity
  8
Defpoints
 62
     0
100
AcDbPoint
 10
463.7543291184011
 20
1138.63209989488
 30
0.0
  0
POINT
  5
2206
330
41B
100
AcDbEntity
  8
Defpoints
 62
     0
100
AcDbPoint
 10
463.7543291184011
 20
1548.63209989488
 30
0.0
  0
POINT
  5
2207
330
41B
100
AcDbEntity
  8
Defpoints
 62
     0
100
AcDbPoint
 10
359.9586682568416
 20
1548.63209989488
 30
0.0
  0
ENDBLK
  5
426
330
41B
100
AcDbEntity
  8
0
100
AcDbBlockEnd
  0
BLOCK
  5
432
330
428
100
AcDbEntity
  8
0
100
AcDbBlockBegin
  2
*D9
 70
     1
 10
0.0
 20
0.0
 30
0.0
  3
*D9
  1

  0
LINE
  5
2208
330
428
100
AcDbEntity
  8
寸法
 62
     0
370
    15
100
AcDbLine
 10
398.7543291184011
 20
1548.63209989488
 30
0.0
 11
359.9586682568416
 21
1548.63209989488
 31
0.0
  0
LINE
  5
2209
330
428
100
AcDbEntity
  8
寸法
 62
     0
370
    15
100
AcDbLine
 10
398.7543291184011
 20
1563.63209989488
 30
0.0
 11
359.9586682568416
 21
1563.63209989488
 31
0.0
  0
LINE
  5
220A
330
428
100
AcDbEntity
  8
寸法
 62
     0
370
    15
100
AcDbLine
 10
359.9586682568416
 20
1548.63209989488
 30
0.0
 11
359.9586682568416
 21
1563.63209989488
 31
0.0
  0
MTEXT
  5
220B
330
428
100
AcDbEntity
  8
寸法
 62
     0
100
AcDbMText
 10
332.5905174395293
 20
1539.525809798597
 30
0.0
 40
25.0
 41
0.0
 71
     5
 72
     1
  1
15
 11
0.0000000000000001
 21
1.0
 31
0.0
 73
     1
 44
1.0
1001
ACAD
1000
MTEXTBEGIN
1070
    73
1070
     1
1070
    44
1040
1.0
1070
    74
1070
     0
1000
MTEXTEND
  0
INSERT
  5
220C
330
428
100
AcDbEntity
  8
寸法
 62
     0
370
    15
100
AcDbBlockReference
  2
_DotSmall
 10
359.9586682568416
 20
1548.63209989488
 30
0.0
 41
35.0
 42
35.0
 43
35.0
 50
270.0
  0
INSERT
  5
220D
330
428
100
AcDbEntity
  8
寸法
 62
     0
370
    15
100
AcDbBlockReference
  2
_DotSmall
 10
359.9586682568416
 20
1563.63209989488
 30
0.0
 41
35.0
 42
35.0
 43
35.0
 50
90.0
  0
POINT
  5
220E
330
428
100
AcDbEntity
  8
Defpoints
 62
     0
100
AcDbPoint
 10
463.7543291184011
 20
1548.63209989488
 30
0.0
  0
POINT
  5
220F
330
428
100
AcDbEntity
  8
Defpoints
 62
     0
100
AcDbPoint
 10
463.7543291184011
 20
1563.63209989488
 30
0.0
  0
POINT
  5
2210
330
428
100
AcDbEntity
  8
Defpoints
 62
     0
100
AcDbPoint
 10
359.9586682568416
 20
1563.63209989488
 30
0.0
  0
ENDBLK
  5
433
330
428
100
AcDbEntity
  8
0
100
AcDbBlockEnd
  0
BLOCK
  5
464
330
45A
100
AcDbEntity
  8
0
100
AcDbBlockBegin
  2
*D10
 70
     1
 10
0.0
 20
0.0
 30
0.0
  3
*D10
  1

  0
LINE
  5
2211
330
45A
100
AcDbEntity
  8
寸法
 62
     0
370
    15
100
AcDbLine
 10
398.7543291184011
 20
1563.63209989488
 30
0.0
 11
283.4662260172846
 21
1563.63209989488
 31
0.0
  0
LINE
  5
2212
330
45A
100
AcDbEntity
  8
寸法
 62
     0
370
    15
100
AcDbLine
 10
398.7543291184011
 20
1123.63209989488
 30
0.0
 11
283.4662260172845
 21
1123.63209989488
 31
0.0
  0
LINE
  5
2213
330
45A
100
AcDbEntity
  8
寸法
 62
     0
370
    15
100
AcDbLine
 10
283.4662260172846
 20
1563.63209989488
 30
0.0
 11
283.4662260172845
 21
1123.63209989488
 31
0.0
  0
INSERT
  5
2214
330
45A
100
AcDbEntity
  8
寸法
 62
     0
370
    15
100
AcDbBlockReference
  2
_DotSmall
 10
283.4662260172846
 20
1563.63209989488
 30
0.0
 41
35.0
 42
35.0
 43
35.0
 50
90.0
  0
INSERT
  5
2215
330
45A
100
AcDbEntity
  8
寸法
 62
     0
370
    15
100
AcDbBlockReference
  2
_DotSmall
 10
283.4662260172845
 20
1123.63209989488
 30
0.0
 41
35.0
 42
35.0
 43
35.0
 50
270.0
  0
MTEXT
  5
2216
330
45A
100
AcDbEntity
  8
寸法
 62
     0
100
AcDbMText
 10
264.7162260172843
 20
1343.63209989488
 30
0.0
 40
25.0
 41
0.0
 71
     5
 72
     1
  1
440
 11
0.0000000000000001
 21
1.0
 31
0.0
 73
     1
 44
1.0
1001
ACAD
1000
MTEXTBEGIN
1070
    73
1070
     1
1070
    44
1040
1.0
1070
    74
1070
     0
1000
MTEXTEND
  0
POINT
  5
2217
330
45A
100
AcDbEntity
  8
Defpoints
 62
     0
100
AcDbPoint
 10
463.7543291184011
 20
1563.63209989488
 30
0.0
  0
POINT
  5
2218
330
45A
100
AcDbEntity
  8
Defpoints
 62
     0
100
AcDbPoint
 10
463.7543291184011
 20
1123.63209989488
 30
0.0
  0
POINT
  5
2219
330
45A
100
AcDbEntity
  8
Defpoints
 62
     0
100
AcDbPoint
 10
283.4662260172845
 20
1123.63209989488
 30
0.0
  0
ENDBLK
  5
465
330
45A
100
AcDbEntity
  8
0
100
AcDbBlockEnd
  0
BLOCK
  5
471
330
467
100
AcDbEntity
  8
0
100
AcDbBlockBegin
  2
*D11
 70
     1
 10
0.0
 20
0.0
 30
0.0
  3
*D11
  1

  0
LINE
  5
221A
330
467
100
AcDbEntity
  8
寸法
 62
     0
370
    15
100
AcDbLine
 10
398.7543291184011
 20
1563.63209989488
 30
0.0
 11
283.4662260172845
 21
1563.63209989488
 31
0.0
  0
LINE
  5
221B
330
467
100
AcDbEntity
  8
寸法
 62
     0
370
    15
100
AcDbLine
 10
398.7543291184011
 20
1643.63209989488
 30
0.0
 11
283.4662260172845
 21
1643.63209989488
 31
0.0
  0
LINE
  5
221C
330
467
100
AcDbEntity
  8
寸法
 62
     0
370
    15
100
AcDbLine
 10
283.4662260172845
 20
1563.63209989488
 30
0.0
 11
283.4662260172845
 21
1643.63209989488
 31
0.0
  0
INSERT
  5
221D
330
467
100
AcDbEntity
  8
寸法
 62
     0
370
    15
100
AcDbBlockReference
  2
_DotSmall
 10
283.4662260172845
 20
1563.63209989488
 30
0.0
 41
35.0
 42
35.0
 43
35.0
 50
270.0
  0
INSERT
  5
221E
330
467
100
AcDbEntity
  8
寸法
 62
     0
370
    15
100
AcDbBlockReference
  2
_DotSmall
 10
283.4662260172845
 20
1643.63209989488
 30
0.0
 41
35.0
 42
35.0
 43
35.0
 50
90.0
  0
MTEXT
  5
221F
330
467
100
AcDbEntity
  8
寸法
 62
     0
100
AcDbMText
 10
264.7162260172843
 20
1603.63209989488
 30
0.0
 40
25.0
 41
0.0
 71
     5
 72
     1
  1
80
 11
0.0000000000000001
 21
1.0
 31
0.0
 73
     1
 44
1.0
1001
ACAD
1000
MTEXTBEGIN
1070
    73
1070
     1
1070
    44
1040
1.0
1070
    74
1070
     0
1000
MTEXTEND
  0
POINT
  5
2220
330
467
100
AcDbEntity
  8
Defpoints
 62
     0
100
AcDbPoint
 10
463.7543291184011
 20
1563.63209989488
 30
0.0
  0
POINT
  5
2221
330
467
100
AcDbEntity
  8
Defpoints
 62
     0
100
AcDbPoint
 10
463.7543291184011
 20
1643.63209989488
 30
0.0
  0
POINT
  5
2222
330
467
100
AcDbEntity
  8
Defpoints
 62
     0
100
AcDbPoint
 10
283.4662260172845
 20
1643.63209989488
 30
0.0
  0
ENDBLK
  5
472
330
467
100
AcDbEntity
  8
0
100
AcDbBlockEnd
  0
BLOCK
  5
487
330
47D
100
AcDbEntity
  8
0
100
AcDbBlockBegin
  2
*D12
 70
     1
 10
0.0
 20
0.0
 30
0.0
  3
*D12
  1

  0
LINE
  5
2223
330
47D
100
AcDbEntity
  8
寸法
 62
     0
370
    15
100
AcDbLine
 10
398.7543291184011
 20
1643.63209989488
 30
0.0
 11
283.4662260172845
 21
1643.63209989488
 31
0.0
  0
LINE
  5
2224
330
47D
100
AcDbEntity
  8
寸法
 62
     0
370
    15
100
AcDbLine
 10
398.7543291184011
 20
1658.63209989488
 30
0.0
 11
283.4662260172845
 21
1658.63209989488
 31
0.0
  0
LINE
  5
2225
330
47D
100
AcDbEntity
  8
寸法
 62
     0
370
    15
100
AcDbLine
 10
283.4662260172845
 20
1643.63209989488
 30
0.0
 11
283.4662260172845
 21
1658.63209989488
 31
0.0
  0
MTEXT
  5
2226
330
47D
100
AcDbEntity
  8
寸法
 62
     0
100
AcDbMText
 10
275.2313163226863
 20
1685.558819175213
 30
0.0
 40
25.0
 41
0.0
 71
     5
 72
     1
  1
15
 11
0.0000000000000001
 21
1.0
 31
0.0
 73
     1
 44
1.0
1001
ACAD
1000
MTEXTBEGIN
1070
    73
1070
     1
1070
    44
1040
1.0
1070
    74
1070
     0
1000
MTEXTEND
  0
INSERT
  5
2227
330
47D
100
AcDbEntity
  8
寸法
 62
     0
370
    15
100
AcDbBlockReference
  2
_DotSmall
 10
283.4662260172845
 20
1643.63209989488
 30
0.0
 41
35.0
 42
35.0
 43
35.0
 50
270.0
  0
INSERT
  5
2228
330
47D
100
AcDbEntity
  8
寸法
 62
     0
370
    15
100
AcDbBlockReference
  2
_DotSmall
 10
283.4662260172845
 20
1658.63209989488
 30
0.0
 41
35.0
 42
35.0
 43
35.0
 50
90.0
  0
POINT
  5
2229
330
47D
100
AcDbEntity
  8
Defpoints
 62
     0
100
AcDbPoint
 10
463.7543291184011
 20
1643.63209989488
 30
0.0
  0
POINT
  5
222A
330
47D
100
AcDbEntity
  8
Defpoints
 62
     0
100
AcDbPoint
 10
463.7543291184011
 20
1658.63209989488
 30
0.0
  0
POINT
  5
222B
330
47D
100
AcDbEntity
  8
Defpoints
 62
     0
100
AcDbPoint
 10
283.4662260172845
 20
1658.63209989488
 30
0.0
  0
ENDBLK
  5
488
330
47D
100
AcDbEntity
  8
0
100
AcDbBlockEnd
  0
BLOCK
  5
49D
330
493
100
AcDbEntity
  8
0
100
AcDbBlockBegin
  2
*D13
 70
     1
 10
0.0
 20
0.0
 30
0.0
  3
*D13
  1

  0
LINE
  5
222C
330
493
100
AcDbEntity
  8
寸法
 62
     0
370
    15
100
AcDbLine
 10
398.7543291184011
 20
1658.63209989488
 30
0.0
 11
205.9174423071064
 21
1658.63209989488
 31
0.0
  0
LINE
  5
222D
330
493
100
AcDbEntity
  8
寸法
 62
     0
370
    15
100
AcDbLine
 10
398.7543291184011
 20
1108.63209989488
 30
0.0
 11
205.9174423071063
 21
1108.63209989488
 31
0.0
  0
LINE
  5
222E
330
493
100
AcDbEntity
  8
寸法
 62
     0
370
    15
100
AcDbLine
 10
205.9174423071064
 20
1658.63209989488
 30
0.0
 11
205.9174423071063
 21
1108.63209989488
 31
0.0
  0
INSERT
  5
222F
330
493
100
AcDbEntity
  8
寸法
 62
     0
370
    15
100
AcDbBlockReference
  2
_DotSmall
 10
205.9174423071064
 20
1658.63209989488
 30
0.0
 41
35.0
 42
35.0
 43
35.0
 50
90.0
  0
INSERT
  5
2230
330
493
100
AcDbEntity
  8
寸法
 62
     0
370
    15
100
AcDbBlockReference
  2
_DotSmall
 10
205.9174423071063
 20
1108.63209989488
 30
0.0
 41
35.0
 42
35.0
 43
35.0
 50
270.0
  0
MTEXT
  5
2231
330
493
100
AcDbEntity
  8
寸法
 62
     0
100
AcDbMText
 10
187.1674423071061
 20
1383.63209989488
 30
0.0
 40
25.0
 41
0.0
 71
     5
 72
     1
  1
550
 11
0.0000000000000001
 21
1.0
 31
0.0
 73
     1
 44
1.0
1001
ACAD
1000
MTEXTBEGIN
1070
    73
1070
     1
1070
    44
1040
1.0
1070
    74
1070
     0
1000
MTEXTEND
  0
POINT
  5
2232
330
493
100
AcDbEntity
  8
Defpoints
 62
     0
100
AcDbPoint
 10
463.7543291184011
 20
1658.63209989488
 30
0.0
  0
POINT
  5
2233
330
493
100
AcDbEntity
  8
Defpoints
 62
     0
100
AcDbPoint
 10
463.7543291184011
 20
1108.63209989488
 30
0.0
  0
POINT
  5
2234
330
493
100
AcDbEntity
  8
Defpoints
 62
     0
100
AcDbPoint
 10
205.9174423071063
 20
1108.63209989488
 30
0.0
  0
ENDBLK
  5
49E
330
493
100
AcDbEntity
  8
0
100
AcDbBlockEnd
  0
BLOCK
  5
4CF
330
4C4
100
AcDbEntity
  8
0
100
AcDbBlockBegin
  2
*D14
 70
     1
 10
0.0
 20
0.0
 30
0.0
  3
*D14
  1

  0
LINE
  5
2235
330
4C4
100
AcDbEntity
  8
寸法
 62
     0
370
    15
100
AcDbLine
 10
398.7543291184011
 20
1123.63209989488
 30
0.0
 11
283.4662260172845
 21
1123.63209989488
 31
0.0
  0
LINE
  5
2236
330
4C4
100
AcDbEntity
  8
寸法
 62
     0
370
    15
100
AcDbLine
 10
398.7543291184011
 20
1108.63209989488
 30
0.0
 11
283.4662260172845
 21
1108.63209989488
 31
0.0
  0
LINE
  5
2237
330
4C4
100
AcDbEntity
  8
寸法
 62
     0
370
    15
100
AcDbLine
 10
283.4662260172845
 20
1123.63209989488
 30
0.0
 11
283.4662260172845
 21
1108.63209989488
 31
0.0
  0
MTEXT
  5
2238
330
4C4
100
AcDbEntity
  8
寸法
 62
     0
100
AcDbMText
 10
255.5034398240887
 20
1136.072207351462
 30
0.0
 40
25.0
 41
0.0
 71
     5
 72
     1
  1
15
 11
0.0000000000000001
 21
1.0
 31
0.0
 73
     1
 44
1.0
1001
ACAD
1000
MTEXTBEGIN
1070
    73
1070
     1
1070
    44
1040
1.0
1070
    74
1070
     0
1000
MTEXTEND
  0
INSERT
  5
2239
330
4C4
100
AcDbEntity
  8
寸法
 62
     0
370
    15
100
AcDbBlockReference
  2
_DotSmall
 10
283.4662260172845
 20
1123.63209989488
 30
0.0
 41
35.0
 42
35.0
 43
35.0
 50
90.0
  0
INSERT
  5
223A
330
4C4
100
AcDbEntity
  8
寸法
 62
     0
370
    15
100
AcDbBlockReference
  2
_DotSmall
 10
283.4662260172845
 20
1108.63209989488
 30
0.0
 41
35.0
 42
35.0
 43
35.0
 50
270.0
  0
POINT
  5
223B
330
4C4
100
AcDbEntity
  8
Defpoints
 62
     0
100
AcDbPoint
 10
463.7543291184011
 20
1123.63209989488
 30
0.0
  0
POINT
  5
223C
330
4C4
100
AcDbEntity
  8
Defpoints
 62
     0
100
AcDbPoint
 10
463.7543291184011
 20
1108.63209989488
 30
0.0
  0
POINT
  5
223D
330
4C4
100
AcDbEntity
  8
Defpoints
 62
     0
100
AcDbPoint
 10
283.4662260172845
 20
1108.63209989488
 30
0.0
  0
ENDBLK
  5
4D0
330
4C4
100
AcDbEntity
  8
0
100
AcDbBlockEnd
  0
BLOCK
  5
4F1
330
4E6
100
AcDbEntity
  8
0
100
AcDbBlockBegin
  2
*D15
 70
     1
 10
0.0
 20
0.0
 30
0.0
  3
*D15
  1

  0
LINE
  5
223E
330
4E6
100
AcDbEntity
  8
寸法
 62
     0
370
    15
100
AcDbLine
 10
463.7543291184011
 20
1043.63209989488
 30
0.0
 11
463.7543291184011
 21
991.4087744939752
 31
0.0
  0
LINE
  5
223F
330
4E6
100
AcDbEntity
  8
寸法
 62
     0
370
    15
100
AcDbLine
 10
478.754329118401
 20
1043.63209989488
 30
0.0
 11
478.754329118401
 21
991.4087744939752
 31
0.0
  0
LINE
  5
2240
330
4E6
100
AcDbEntity
  8
寸法
 62
     0
370
    15
100
AcDbLine
 10
463.7543291184011
 20
991.4087744939752
 30
0.0
 11
478.754329118401
 21
991.4087744939752
 31
0.0
  0
MTEXT
  5
2241
330
4E6
100
AcDbEntity
  8
寸法
 62
     0
100
AcDbMText
 10
514.6487505056493
 20
1010.956653596044
 30
0.0
 40
25.0
 41
0.0
 71
     5
 72
     1
  1
15
 73
     1
 44
1.0
1001
ACAD
1000
MTEXTBEGIN
1070
    73
1070
     1
1070
    44
1040
1.0
1070
    74
1070
     0
1000
MTEXTEND
  0
INSERT
  5
2242
330
4E6
100
AcDbEntity
  8
寸法
 62
     0
370
    15
100
AcDbBlockReference
  2
_DotSmall
 10
463.7543291184011
 20
991.4087744939752
 30
0.0
 41
35.0
 42
35.0
 43
35.0
 50
180.0
  0
INSERT
  5
2243
330
4E6
100
AcDbEntity
  8
寸法
 62
     0
370
    15
100
AcDbBlockReference
  2
_DotSmall
 10
478.754329118401
 20
991.4087744939752
 30
0.0
 41
35.0
 42
35.0
 43
35.0
  0
POINT
  5
2244
330
4E6
100
AcDbEntity
  8
Defpoints
 62
     0
100
AcDbPoint
 10
463.7543291184011
 20
1108.63209989488
 30
0.0
  0
POINT
  5
2245
330
4E6
100
AcDbEntity
  8
Defpoints
 62
     0
100
AcDbPoint
 10
478.754329118401
 20
1108.63209989488
 30
0.0
  0
POINT
  5
2246
330
4E6
100
AcDbEntity
  8
Defpoints
 62
     0
100
AcDbPoint
 10
478.754329118401
 20
991.4087744939752
 30
0.0
  0
ENDBLK
  5
4F2
330
4E6
100
AcDbEntity
  8
0
100
AcDbBlockEnd
  0
BLOCK
  5
508
330
4FE
100
AcDbEntity
  8
0
100
AcDbBlockBegin
  2
*D16
 70
     1
 10
0.0
 20
0.0
 30
0.0
  3
*D16
  1

  0
LINE
  5
2247
330
4FE
100
AcDbEntity
  8
寸法
 62
     0
370
    15
100
AcDbLine
 10
478.754329118401
 20
1043.63209989488
 30
0.0
 11
478.754329118401
 21
991.4087744939752
 31
0.0
  0
LINE
  5
2248
330
4FE
100
AcDbEntity
  8
寸法
 62
     0
370
    15
100
AcDbLine
 10
1428.754329118401
 20
1043.63209989488
 30
0.0
 11
1428.754329118401
 21
991.4087744939752
 31
0.0
  0
LINE
  5
2249
330
4FE
100
AcDbEntity
  8
寸法
 62
     0
370
    15
100
AcDbLine
 10
478.754329118401
 20
991.4087744939752
 30
0.0
 11
1428.754329118401
 21
991.4087744939752
 31
0.0
  0
INSERT
  5
224A
330
4FE
100
AcDbEntity
  8
寸法
 62
     0
370
    15
100
AcDbBlockReference
  2
_DotSmall
 10
478.754329118401
 20
991.4087744939752
 30
0.0
 41
35.0
 42
35.0
 43
35.0
 50
180.0
  0
INSERT
  5
224B
330
4FE
100
AcDbEntity
  8
寸法
 62
     0
370
    15
100
AcDbBlockReference
  2
_DotSmall
 10
1428.754329118401
 20
991.4087744939752
 30
0.0
 41
35.0
 42
35.0
 43
35.0
  0
MTEXT
  5
224C
330
4FE
100
AcDbEntity
  8
寸法
 62
     0
100
AcDbMText
 10
953.7543291184011
 20
1010.158774493975
 30
0.0
 40
25.0
 41
0.0
 71
     5
 72
     1
  1
950
 73
     1
 44
1.0
1001
ACAD
1000
MTEXTBEGIN
1070
    73
1070
     1
1070
    44
1040
1.0
1070
    74
1070
     0
1000
MTEXTEND
  0
POINT
  5
224D
330
4FE
100
AcDbEntity
  8
Defpoints
 62
     0
100
AcDbPoint
 10
478.754329118401
 20
1108.63209989488
 30
0.0
  0
POINT
  5
224E
330
4FE
100
AcDbEntity
  8
Defpoints
 62
     0
100
AcDbPoint
 10
1428.754329118401
 20
1108.63209989488
 30
0.0
  0
POINT
  5
224F
330
4FE
100
AcDbEntity
  8
Defpoints
 62
     0
100
AcDbPoint
 10
1428.754329118401
 20
991.4087744939752
 30
0.0
  0
ENDBLK
  5
509
330
4FE
100
AcDbEntity
  8
0
100
AcDbBlockEnd
  0
BLOCK
  5
517
330
50B
100
AcDbEntity
  8
0
100
AcDbBlockBegin
  2
*D17
 70
     1
 10
0.0
 20
0.0
 30
0.0
  3
*D17
  1

  0
LINE
  5
2250
330
50B
100
AcDbEntity
  8
寸法
 62
     0
370
    15
100
AcDbLine
 10
1428.754329118401
 20
1043.63209989488
 30
0.0
 11
1428.754329118401
 21
991.4087744939752
 31
0.0
  0
LINE
  5
2251
330
50B
100
AcDbEntity
  8
寸法
 62
     0
370
    15
100
AcDbLine
 10
1443.754329118401
 20
1043.63209989488
 30
0.0
 11
1443.754329118401
 21
991.4087744939752
 31
0.0
  0
LINE
  5
2252
330
50B
100
AcDbEntity
  8
寸法
 62
     0
370
    15
100
AcDbLine
 10
1428.754329118401
 20
991.4087744939752
 30
0.0
 11
1443.754329118401
 21
991.4087744939752
 31
0.0
  0
MTEXT
  5
2253
330
50B
100
AcDbEntity
  8
寸法
 62
     0
100
AcDbMText
 10
1387.121551311662
 20
1010.158774493975
 30
0.0
 40
25.0
 41
0.0
 71
     5
 72
     1
  1
15
 73
     1
 44
1.0
1001
ACAD
1000
MTEXTBEGIN
1070
    73
1070
     1
1070
    44
1040
1.0
1070
    74
1070
     0
1000
MTEXTEND
  0
INSERT
  5
2254
330
50B
100
AcDbEntity
  8
寸法
 62
     0
370
    15
100
AcDbBlockReference
  2
_DotSmall
 10
1428.754329118401
 20
991.4087744939752
 30
0.0
 41
35.0
 42
35.0
 43
35.0
 50
180.0
  0
INSERT
  5
2255
330
50B
100
AcDbEntity
  8
寸法
 62
     0
370
    15
100
AcDbBlockReference
  2
_DotSmall
 10
1443.754329118401
 20
991.4087744939752
 30
0.0
 41
35.0
 42
35.0
 43
35.0
  0
POINT
  5
2256
330
50B
100
AcDbEntity
  8
Defpoints
 62
     0
100
AcDbPoint
 10
1428.754329118401
 20
1108.63209989488
 30
0.0
  0
POINT
  5
2257
330
50B
100
AcDbEntity
  8
Defpoints
 62
     0
100
AcDbPoint
 10
1443.754329118401
 20
1108.63209989488
 30
0.0
  0
POINT
  5
2258
330
50B
100
AcDbEntity
  8
Defpoints
 62
     0
100
AcDbPoint
 10
1443.754329118401
 20
991.4087744939752
 30
0.0
  0
ENDBLK
  5
518
330
50B
100
AcDbEntity
  8
0
100
AcDbBlockEnd
  0
BLOCK
  5
52D
330
523
100
AcDbEntity
  8
0
100
AcDbBlockBegin
  2
*D18
 70
     1
 10
0.0
 20
0.0
 30
0.0
  3
*D18
  1

  0
LINE
  5
2259
330
523
100
AcDbEntity
  8
寸法
 62
     0
370
    15
100
AcDbLine
 10
463.7543291184011
 20
1043.63209989488
 30
0.0
 11
463.7543291184011
 21
917.2883592603156
 31
0.0
  0
LINE
  5
225A
330
523
100
AcDbEntity
  8
寸法
 62
     0
370
    15
100
AcDbLine
 10
1443.754329118401
 20
1043.63209989488
 30
0.0
 11
1443.754329118401
 21
917.2883592603156
 31
0.0
  0
LINE
  5
225B
330
523
100
AcDbEntity
  8
寸法
 62
     0
370
    15
100
AcDbLine
 10
463.7543291184011
 20
917.2883592603156
 30
0.0
 11
1443.754329118401
 21
917.2883592603156
 31
0.0
  0
INSERT
  5
225C
330
523
100
AcDbEntity
  8
寸法
 62
     0
370
    15
100
AcDbBlockReference
  2
_DotSmall
 10
463.7543291184011
 20
917.2883592603156
 30
0.0
 41
35.0
 42
35.0
 43
35.0
 50
180.0
  0
INSERT
  5
225D
330
523
100
AcDbEntity
  8
寸法
 62
     0
370
    15
100
AcDbBlockReference
  2
_DotSmall
 10
1443.754329118401
 20
917.2883592603156
 30
0.0
 41
35.0
 42
35.0
 43
35.0
  0
MTEXT
  5
225E
330
523
100
AcDbEntity
  8
寸法
 62
     0
100
AcDbMText
 10
953.7543291184011
 20
936.0383592603156
 30
0.0
 40
25.0
 41
0.0
 71
     5
 72
     1
  1
980
 73
     1
 44
1.0
1001
ACAD
1000
MTEXTBEGIN
1070
    73
1070
     1
1070
    44
1040
1.0
1070
    74
1070
     0
1000
MTEXTEND
  0
POINT
  5
225F
330
523
100
AcDbEntity
  8
Defpoints
 62
     0
100
AcDbPoint
 10
463.7543291184011
 20
1108.63209989488
 30
0.0
  0
POINT
  5
2260
330
523
100
AcDbEntity
  8
Defpoints
 62
     0
100
AcDbPoint
 10
1443.754329118401
 20
1108.63209989488
 30
0.0
  0
POINT
  5
2261
330
523
100
AcDbEntity
  8
Defpoints
 62
     0
100
AcDbPoint
 10
1443.754329118401
 20
917.2883592603156
 30
0.0
  0
ENDBLK
  5
52E
330
523
100
AcDbEntity
  8
0
100
AcDbBlockEnd
  0
BLOCK
  5
1988
330
197E
100
AcDbEntity
  8
0
100
AcDbBlockBegin
  2
*D19
 70
     1
 10
0.0
 20
0.0
 30
0.0
  3
*D19
  1

  0
LINE
  5
2262
330
197E
100
AcDbEntity
  8
寸法
 62
     0
370
    15
100
AcDbLine
 10
518.7543291184008
 20
1693.516559666225
 30
0.0
 11
518.7543291184008
 21
1720.724406117599
 31
0.0
  0
LINE
  5
2263
330
197E
100
AcDbEntity
  8
寸法
 62
     0
370
    15
100
AcDbLine
 10
808.7543291184008
 20
1691.520798069397
 30
0.0
 11
808.7543291184008
 21
1720.724406117599
 31
0.0
  0
LINE
  5
2264
330
197E
100
AcDbEntity
  8
寸法
 62
     0
370
    15
100
AcDbLine
 10
518.7543291184008
 20
1720.724406117599
 30
0.0
 11
808.7543291184008
 21
1720.724406117599
 31
0.0
  0
INSERT
  5
2265
330
197E
100
AcDbEntity
  8
寸法
 62
     0
370
    15
100
AcDbBlockReference
  2
_DotSmall
 10
518.7543291184008
 20
1720.724406117599
 30
0.0
 41
35.0
 42
35.0
 43
35.0
 50
180.0
  0
INSERT
  5
2266
330
197E
100
AcDbEntity
  8
寸法
 62
     0
370
    15
100
AcDbBlockReference
  2
_DotSmall
 10
808.7543291184008
 20
1720.724406117599
 30
0.0
 41
35.0
 42
35.0
 43
35.0
  0
MTEXT
  5
2267
330
197E
100
AcDbEntity
  8
寸法
 62
     0
100
AcDbMText
 10
663.7543291184008
 20
1739.474406117599
 30
0.0
 40
25.0
 41
0.0
 71
     5
 72
     1
  1
290
 73
     1
 44
1.0
1001
ACAD
1000
MTEXTBEGIN
1070
    73
1070
     1
1070
    44
1040
1.0
1070
    74
1070
     0
1000
MTEXTEND
  0
POINT
  5
2268
330
197E
100
AcDbEntity
  8
Defpoints
 62
     0
100
AcDbPoint
 10
518.7543291184008
 20
1628.516559666225
 30
0.0
  0
POINT
  5
2269
330
197E
100
AcDbEntity
  8
Defpoints
 62
     0
100
AcDbPoint
 10
808.7543291184008
 20
1626.520798069397
 30
0.0
  0
POINT
  5
226A
330
197E
100
AcDbEntity
  8
Defpoints
 62
     0
100
AcDbPoint
 10
808.7543291184008
 20
1720.724406117599
 30
0.0
  0
ENDBLK
  5
1989
330
197E
100
AcDbEntity
  8
0
100
AcDbBlockEnd
  0
BLOCK
  5
19AD
330
19A3
100
AcDbEntity
  8
0
100
AcDbBlockBegin
  2
*D20
 70
     1
 10
0.0
 20
0.0
 30
0.0
  3
*D20
  1

  0
LINE
  5
226B
330
19A3
100
AcDbEntity
  8
実形
 62
     0
370
    15
100
AcDbLine
 10
478.4914494894046
 20
1706.469060954631
 30
0.0
 11
478.4914494894046
 21
1720.724406117599
 31
0.0
  0
LINE
  5
226C
330
19A3
100
AcDbEntity
  8
実形
 62
     0
370
    15
100
AcDbLine
 10
518.754329118401
 20
1707.706599895969
 30
0.0
 11
518.754329118401
 21
1720.724406117599
 31
0.0
  0
LINE
  5
226D
330
19A3
100
AcDbEntity
  8
実形
 62
     0
370
    15
100
AcDbLine
 10
478.4914494894046
 20
1720.724406117599
 30
0.0
 11
518.754329118401
 21
1720.724406117599
 31
0.0
  0
MTEXT
  5
226E
330
19A3
100
AcDbEntity
  8
実形
 62
     0
100
AcDbMText
 10
514.4176395329632
 20
1747.691062728015
 30
0.0
 40
25.0
 41
0.0
 71
     5
 72
     1
  1
40
 73
     1
 44
1.0
1001
ACAD
1000
MTEXTBEGIN
1070
    73
1070
     1
1070
    44
1040
1.0
1070
    74
1070
     0
1000
MTEXTEND
  0
INSERT
  5
226F
330
19A3
100
AcDbEntity
  8
実形
 62
     0
370
    15
100
AcDbBlockReference
  2
_DotSmall
 10
478.4914494894046
 20
1720.724406117599
 30
0.0
 41
35.0
 42
35.0
 43
35.0
 50
180.0
  0
INSERT
  5
2270
330
19A3
100
AcDbEntity
  8
実形
 62
     0
370
    15
100
AcDbBlockReference
  2
_DotSmall
 10
518.754329118401
 20
1720.724406117599
 30
0.0
 41
35.0
 42
35.0
 43
35.0
  0
POINT
  5
2271
330
19A3
100
AcDbEntity
  8
Defpoints
 62
     0
100
AcDbPoint
 10
478.4914494894046
 20
1641.46906095463
 30
0.0
  0
POINT
  5
2272
330
19A3
100
AcDbEntity
  8
Defpoints
 62
     0
100
AcDbPoint
 10
518.754329118401
 20
1642.706599895969
 30
0.0
  0
POINT
  5
2273
330
19A3
100
AcDbEntity
  8
Defpoints
 62
     0
100
AcDbPoint
 10
518.754329118401
 20
1720.724406117599
 30
0.0
  0
ENDBLK
  5
19AE
330
19A3
100
AcDbEntity
  8
0
100
AcDbBlockEnd
  0
BLOCK
  5
1A65
330
1A64
100
AcDbEntity
  8
0
100
AcDbBlockBegin
  2
_None
 70
     0
 10
0.0
 20
0.0
 30
0.0
  3
_None
  1

  0
ENDBLK
  5
1A66
330
1A64
100
AcDbEntity
  8
0
100
AcDbBlockEnd
  0
BLOCK
  5
1E95
330
1E8B
100
AcDbEntity
  8
0
100
AcDbBlockBegin
  2
*D22
 70
     1
 10
0.0
 20
0.0
 30
0.0
  3
*D22
  1

  0
LINE
  5
2286
330
1E8B
100
AcDbEntity
  8
実形
 62
     0
370
    15
100
AcDbLine
 10
444.754329118401
 20
1708.422288272021
 30
0.0
 11
444.754329118401
 21
1776.531149828578
 31
0.0
  0
LINE
  5
2287
330
1E8B
100
AcDbEntity
  8
実形
 62
     0
370
    15
100
AcDbLine
 10
478.754329118401
 20
1708.422288272021
 30
0.0
 11
478.754329118401
 21
1776.531149828578
 31
0.0
  0
LINE
  5
2288
330
1E8B
100
AcDbEntity
  8
実形
 62
     0
370
    15
100
AcDbLine
 10
444.754329118401
 20
1776.531149828578
 30
0.0
 11
478.754329118401
 21
1776.531149828578
 31
0.0
  0
MTEXT
  5
2289
330
1E8B
100
AcDbEntity
  8
実形
 62
     0
100
AcDbMText
 10
480.9050973260564
 20
1802.691525789512
 30
0.0
 40
25.0
 41
0.0
 71
     5
 72
     1
  1
35
 73
     1
 44
1.0
1001
ACAD
1000
MTEXTBEGIN
1070
    73
1070
     1
1070
    44
1040
1.0
1070
    74
1070
     0
1000
MTEXTEND
  0
INSERT
  5
228A
330
1E8B
100
AcDbEntity
  8
実形
 62
     0
370
    15
100
AcDbBlockReference
  2
_DotSmall
 10
444.754329118401
 20
1776.531149828578
 30
0.0
 41
35.0
 42
35.0
 43
35.0
 50
180.0
  0
INSERT
  5
228B
330
1E8B
100
AcDbEntity
  8
実形
 62
     0
370
    15
100
AcDbBlockReference
  2
_DotSmall
 10
478.754329118401
 20
1776.531149828578
 30
0.0
 41
35.0
 42
35.0
 43
35.0
  0
POINT
  5
228C
330
1E8B
100
AcDbEntity
  8
Defpoints
 62
     0
100
AcDbPoint
 10
444.754329118401
 20
1643.422288272021
 30
0.0
  0
POINT
  5
228D
330
1E8B
100
AcDbEntity
  8
Defpoints
 62
     0
100
AcDbPoint
 10
478.754329118401
 20
1643.422288272021
 30
0.0
  0
POINT
  5
228E
330
1E8B
100
AcDbEntity
  8
Defpoints
 62
     0
100
AcDbPoint
 10
478.754329118401
 20
1776.531149828578
 30
0.0
  0
ENDBLK
  5
1E96
330
1E8B
100
AcDbEntity
  8
0
100
AcDbBlockEnd
  0
BLOCK
  5
1EFC
330
1EF2
100
AcDbEntity
  8
0
100
AcDbBlockBegin
  2
*D23
 70
     1
 10
0.0
 20
0.0
 30
0.0
  3
*D23
  1

  0
LINE
  5
228F
330
1EF2
100
AcDbEntity
  8
実形
 62
     0
370
    15
100
AcDbLine
 10
1428.754329118401
 20
1708.422288272021
 30
0.0
 11
1428.754329118401
 21
1741.531149828578
 31
0.0
  0
LINE
  5
2290
330
1EF2
100
AcDbEntity
  8
実形
 62
     0
370
    15
100
AcDbLine
 10
1462.754329118401
 20
1708.422288272021
 30
0.0
 11
1462.754329118401
 21
1741.531149828578
 31
0.0
  0
LINE
  5
2291
330
1EF2
100
AcDbEntity
  8
実形
 62
     0
370
    15
100
AcDbLine
 10
1428.754329118401
 20
1741.531149828578
 30
0.0
 11
1462.754329118401
 21
1741.531149828578
 31
0.0
  0
MTEXT
  5
2292
330
1EF2
100
AcDbEntity
  8
実形
 62
     0
100
AcDbMText
 10
1412.923336505389
 20
1776.531149828578
 30
0.0
 40
25.0
 41
0.0
 71
     5
 72
     1
  1
35
 73
     1
 44
1.0
1001
ACAD
1000
MTEXTBEGIN
1070
    73
1070
     1
1070
    44
1040
1.0
1070
    74
1070
     0
1000
MTEXTEND
  0
INSERT
  5
2293
330
1EF2
100
AcDbEntity
  8
実形
 62
     0
370
    15
100
AcDbBlockReference
  2
_DotSmall
 10
1428.754329118401
 20
1741.531149828578
 30
0.0
 41
35.0
 42
35.0
 43
35.0
 50
180.0
  0
INSERT
  5
2294
330
1EF2
100
AcDbEntity
  8
実形
 62
     0
370
    15
100
AcDbBlockReference
  2
_DotSmall
 10
1462.754329118401
 20
1741.531149828578
 30
0.0
 41
35.0
 42
35.0
 43
35.0
  0
POINT
  5
2295
330
1EF2
100
AcDbEntity
  8
Defpoints
 62
     0
100
AcDbPoint
 10
1428.754329118401
 20
1643.422288272021
 30
0.0
  0
POINT
  5
2296
330
1EF2
100
AcDbEntity
  8
Defpoints
 62
     0
100
AcDbPoint
 10
1462.754329118401
 20
1643.422288272021
 30
0.0
  0
POINT
  5
2297
330
1EF2
100
AcDbEntity
  8
Defpoints
 62
     0
100
AcDbPoint
 10
1462.754329118401
 20
1741.531149828578
 30
0.0
  0
ENDBLK
  5
1EFD
330
1EF2
100
AcDbEntity
  8
0
100
AcDbBlockEnd
  0
BLOCK
  5
1F25
330
1F1B
100
AcDbEntity
  8
0
100
AcDbBlockBegin
  2
*D24
 70
     1
 10
0.0
 20
0.0
 30
0.0
  3
*D24
  1

  0
LINE
  5
2298
330
1F1B
100
AcDbEntity
  8
実形
 62
     0
370
    15
100
AcDbLine
 10
444.754329118401
 20
1680.561446464711
 30
0.0
 11
444.754329118401
 21
1854.399714700673
 31
0.0
  0
LINE
  5
2299
330
1F1B
100
AcDbEntity
  8
実形
 62
     0
370
    15
100
AcDbLine
 10
1462.754329118401
 20
1708.422288272021
 30
0.0
 11
1462.754329118401
 21
1854.399714700673
 31
0.0
  0
LINE
  5
229A
330
1F1B
100
AcDbEntity
  8
実形
 62
     0
370
    15
100
AcDbLine
 10
444.754329118401
 20
1854.399714700673
 30
0.0
 11
1462.754329118401
 21
1854.399714700673
 31
0.0
  0
INSERT
  5
229B
330
1F1B
100
AcDbEntity
  8
実形
 62
     0
370
    15
100
AcDbBlockReference
  2
_DotSmall
 10
444.754329118401
 20
1854.399714700673
 30
0.0
 41
35.0
 42
35.0
 43
35.0
 50
180.0
  0
INSERT
  5
229C
330
1F1B
100
AcDbEntity
  8
実形
 62
     0
370
    15
100
AcDbBlockReference
  2
_DotSmall
 10
1462.754329118401
 20
1854.399714700673
 30
0.0
 41
35.0
 42
35.0
 43
35.0
  0
MTEXT
  5
229D
330
1F1B
100
AcDbEntity
  8
実形
 62
     0
100
AcDbMText
 10
953.7543291184009
 20
1873.149714700673
 30
0.0
 40
25.0
 41
0.0
 71
     5
 72
     1
  1
1018
 73
     1
 44
1.0
1001
ACAD
1000
MTEXTBEGIN
1070
    73
1070
     1
1070
    44
1040
1.0
1070
    74
1070
     0
1000
MTEXTEND
  0
POINT
  5
229E
330
1F1B
100
AcDbEntity
  8
Defpoints
 62
     0
100
AcDbPoint
 10
444.754329118401
 20
1615.561446464711
 30
0.0
  0
POINT
  5
229F
330
1F1B
100
AcDbEntity
  8
Defpoints
 62
     0
100
AcDbPoint
 10
1462.754329118401
 20
1643.422288272021
 30
0.0
  0
POINT
  5
22A0
330
1F1B
100
AcDbEntity
  8
Defpoints
 62
     0
100
AcDbPoint
 10
1462.754329118401
 20
1854.399714700673
 30
0.0
  0
ENDBLK
  5
1F26
330
1F1B
100
AcDbEntity
  8
0
100
AcDbBlockEnd
  0
BLOCK
  5
1FAB
330
1FA1
100
AcDbEntity
  8
0
100
AcDbBlockBegin
  2
*D25
 70
     1
 10
0.0
 20
0.0
 30
0.0
  3
*D25
  1

  0
LINE
  5
22A1
330
1FA1
100
AcDbEntity
  8
実形
 62
     0
370
    15
100
AcDbLine
 10
1484.63942717831
 20
1677.63209989488
 30
0.0
 11
1542.753853342881
 21
1677.63209989488
 31
0.0
  0
LINE
  5
22A2
330
1FA1
100
AcDbEntity
  8
実形
 62
     0
370
    15
100
AcDbLine
 10
1484.63942717831
 20
1643.63209989488
 30
0.0
 11
1542.753853342881
 21
1643.63209989488
 31
0.0
  0
LINE
  5
22A3
330
1FA1
100
AcDbEntity
  8
実形
 62
     0
370
    15
100
AcDbLine
 10
1542.753853342881
 20
1677.63209989488
 30
0.0
 11
1542.753853342881
 21
1643.63209989488
 31
0.0
  0
MTEXT
  5
22A4
330
1FA1
100
AcDbEntity
  8
実形
 62
     0
100
AcDbMText
 10
1511.124783842333
 20
1600.534409005663
 30
0.0
 40
25.0
 41
0.0
 71
     5
 72
     1
  1
35
 11
0.0000000000000001
 21
1.0
 31
0.0
 73
     1
 44
1.0
1001
ACAD
1000
MTEXTBEGIN
1070
    73
1070
     1
1070
    44
1040
1.0
1070
    74
1070
     0
1000
MTEXTEND
  0
INSERT
  5
22A5
330
1FA1
100
AcDbEntity
  8
実形
 62
     0
370
    15
100
AcDbBlockReference
  2
_DotSmall
 10
1542.753853342881
 20
1677.63209989488
 30
0.0
 41
35.0
 42
35.0
 43
35.0
 50
90.0
  0
INSERT
  5
22A6
330
1FA1
100
AcDbEntity
  8
実形
 62
     0
370
    15
100
AcDbBlockReference
  2
_DotSmall
 10
1542.753853342881
 20
1643.63209989488
 30
0.0
 41
35.0
 42
35.0
 43
35.0
 50
270.0
  0
POINT
  5
22A7
330
1FA1
100
AcDbEntity
  8
Defpoints
 62
     0
100
AcDbPoint
 10
1419.63942717831
 20
1677.63209989488
 30
0.0
  0
POINT
  5
22A8
330
1FA1
100
AcDbEntity
  8
Defpoints
 62
     0
100
AcDbPoint
 10
1419.63942717831
 20
1643.63209989488
 30
0.0
  0
POINT
  5
22A9
330
1FA1
100
AcDbEntity
  8
Defpoints
 62
     0
100
AcDbPoint
 10
1542.753853342881
 20
1643.63209989488
 30
0.0
  0
ENDBLK
  5
1FAC
330
1FA1
100
AcDbEntity
  8
0
100
AcDbBlockEnd
  0
BLOCK
  5
1FCA
330
1FC0
100
AcDbEntity
  8
0
100
AcDbBlockBegin
  2
*D26
 70
     1
 10
0.0
 20
0.0
 30
0.0
  3
*D26
  1

  0
LINE
  5
22AA
330
1FC0
100
AcDbEntity
  8
実形
 62
     0
370
    15
100
AcDbLine
 10
1484.63942717831
 20
1123.63209989488
 30
0.0
 11
1542.753853342881
 21
1123.63209989488
 31
0.0
  0
LINE
  5
22AB
330
1FC0
100
AcDbEntity
  8
実形
 62
     0
370
    15
100
AcDbLine
 10
1484.63942717831
 20
1089.63209989488
 30
0.0
 11
1542.753853342881
 21
1089.63209989488
 31
0.0
  0
LINE
  5
22AC
330
1FC0
100
AcDbEntity
  8
実形
 62
     0
370
    15
100
AcDbLine
 10
1542.753853342881
 20
1123.63209989488
 30
0.0
 11
1542.753853342881
 21
1089.63209989488
 31
0.0
  0
MTEXT
  5
22AD
330
1FC0
100
AcDbEntity
  8
実形
 62
     0
100
AcDbMText
 10
1516.269462184696
 20
1164.564622926586
 30
0.0
 40
25.0
 41
0.0
 71
     5
 72
     1
  1
35
 11
0.0000000000000001
 21
1.0
 31
0.0
 73
     1
 44
1.0
1001
ACAD
1000
MTEXTBEGIN
1070
    73
1070
     1
1070
    44
1040
1.0
1070
    74
1070
     0
1000
MTEXTEND
  0
INSERT
  5
22AE
330
1FC0
100
AcDbEntity
  8
実形
 62
     0
370
    15
100
AcDbBlockReference
  2
_DotSmall
 10
1542.753853342881
 20
1123.63209989488
 30
0.0
 41
35.0
 42
35.0
 43
35.0
 50
90.0
  0
INSERT
  5
22AF
330
1FC0
100
AcDbEntity
  8
実形
 62
     0
370
    15
100
AcDbBlockReference
  2
_DotSmall
 10
1542.753853342881
 20
1089.63209989488
 30
0.0
 41
35.0
 42
35.0
 43
35.0
 50
270.0
  0
POINT
  5
22B0
330
1FC0
100
AcDbEntity
  8
Defpoints
 62
     0
100
AcDbPoint
 10
1419.63942717831
 20
1123.63209989488
 30
0.0
  0
POINT
  5
22B1
330
1FC0
100
AcDbEntity
  8
Defpoints
 62
     0
100
AcDbPoint
 10
1419.63942717831
 20
1089.63209989488
 30
0.0
  0
POINT
  5
22B2
330
1FC0
100
AcDbEntity
  8
Defpoints
 62
     0
100
AcDbPoint
 10
1542.753853342881
 20
1089.63209989488
 30
0.0
  0
ENDBLK
  5
1FCB
330
1FC0
100
AcDbEntity
  8
0
100
AcDbBlockEnd
  0
BLOCK
  5
1FE9
330
1FDF
100
AcDbEntity
  8
0
100
AcDbBlockBegin
  2
*D27
 70
     1
 10
0.0
 20
0.0
 30
0.0
  3
*D27
  1

  0
LINE
  5
22B3
330
1FDF
100
AcDbEntity
  8
実形
 62
     0
370
    15
100
AcDbLine
 10
1484.63942717831
 20
1677.63209989488
 30
0.0
 11
1585.941663393297
 21
1677.63209989488
 31
0.0
  0
LINE
  5
22B4
330
1FDF
100
AcDbEntity
  8
実形
 62
     0
370
    15
100
AcDbLine
 10
1484.63942717831
 20
1089.63209989488
 30
0.0
 11
1585.941663393297
 21
1089.63209989488
 31
0.0
  0
LINE
  5
22B5
330
1FDF
100
AcDbEntity
  8
実形
 62
     0
370
    15
100
AcDbLine
 10
1585.941663393297
 20
1677.63209989488
 30
0.0
 11
1585.941663393297
 21
1089.63209989488
 31
0.0
  0
INSERT
  5
22B6
330
1FDF
100
AcDbEntity
  8
実形
 62
     0
370
    15
100
AcDbBlockReference
  2
_DotSmall
 10
1585.941663393297
 20
1677.63209989488
 30
0.0
 41
35.0
 42
35.0
 43
35.0
 50
90.0
  0
INSERT
  5
22B7
330
1FDF
100
AcDbEntity
  8
実形
 62
     0
370
    15
100
AcDbBlockReference
  2
_DotSmall
 10
1585.941663393297
 20
1089.63209989488
 30
0.0
 41
35.0
 42
35.0
 43
35.0
 50
270.0
  0
MTEXT
  5
22B8
330
1FDF
100
AcDbEntity
  8
実形
 62
     0
100
AcDbMText
 10
1567.191663393297
 20
1383.632099894881
 30
0.0
 40
25.0
 41
0.0
 71
     5
 72
     1
  1
588
 11
0.0000000000000001
 21
1.0
 31
0.0
 73
     1
 44
1.0
1001
ACAD
1000
MTEXTBEGIN
1070
    73
1070
     1
1070
    44
1040
1.0
1070
    74
1070
     0
1000
MTEXTEND
  0
POINT
  5
22B9
330
1FDF
100
AcDbEntity
  8
Defpoints
 62
     0
100
AcDbPoint
 10
1419.63942717831
 20
1677.63209989488
 30
0.0
  0
POINT
  5
22BA
330
1FDF
100
AcDbEntity
  8
Defpoints
 62
     0
100
AcDbPoint
 10
1419.63942717831
 20
1089.63209989488
 30
0.0
  0
POINT
  5
22BB
330
1FDF
100
AcDbEntity
  8
Defpoints
 62
     0
100
AcDbPoint
 10
1585.941663393297
 20
1089.63209989488
 30
0.0
  0
ENDBLK
  5
1FEA
330
1FDF
100
AcDbEntity
  8
0
100
AcDbBlockEnd
  0
BLOCK
  5
20E7
330
20E6
100
AcDbEntity
  8
0
100
AcDbBlockBegin
  2
_Dot
 70
     0
 10
0.0
 20
0.0
 30
0.0
  3
_Dot
  1

  0
LWPOLYLINE
  5
20E8
330
20E6
100
AcDbEntity
  8
0
  6
ByBlock
 62
     0
100
AcDbPolyline
 90
        2
 70
     1
 43
0.5
 10
-0.25
 20
0.0
 42
1.0
 10
0.25
 20
0.0
 42
1.0
  0
LINE
  5
20E9
330
20E6
100
AcDbEntity
  8
0
  6
ByBlock
 62
     0
370
    -2
100
AcDbLine
 10
-0.5
 20
0.0
 30
0.0
 11
-1.0
 21
0.0
 31
0.0
  0
ENDBLK
  5
20EA
330
20E6
100
AcDbEntity
  8
0
100
AcDbBlockEnd
  0
BLOCK
  5
24D7
330
24D0
100
AcDbEntity
  8
0
100
AcDbBlockBegin
  2
*D29
 70
     1
 10
0.0
 20
0.0
 30
0.0
  3
*D29
  1

  0
LINE
  5
25BD
330
24D0
100
AcDbEntity
  8
実形
 62
     0
370
    13
100
AcDbLine
 10
2090.833877365067
 20
553.2947101512847
 30
0.0
 11
2090.833877365067
 21
467.1003685502147
 31
0.0
  0
LINE
  5
25BE
330
24D0
100
AcDbEntity
  8
実形
 62
     0
370
    13
100
AcDbLine
 10
2075.233877365067
 20
527.502986728412
 30
0.0
 11
2075.233877365067
 21
467.1003685502147
 31
0.0
  0
MTEXT
  5
25BF
330
24D0
100
AcDbEntity
  8
実形
 62
     0
100
AcDbMText
 10
2054.88545157578
 20
491.5915116428197
 30
0.0
 40
25.0
 41
0.0
 71
     5
 72
     1
  1
1
 73
     1
 44
1.0
1001
ACAD
1000
MTEXTBEGIN
1070
    73
1070
     1
1070
    44
1040
1.0
1070
    74
1070
     0
1000
MTEXTEND
  0
POINT
  5
25C0
330
24D0
100
AcDbEntity
  8
Defpoints
 62
     0
100
AcDbPoint
 10
2090.833877365067
 20
559.2947101512846
 30
0.0
  0
POINT
  5
25C1
330
24D0
100
AcDbEntity
  8
Defpoints
 62
     0
100
AcDbPoint
 10
2075.233877365067
 20
533.5029867284119
 30
0.0
  0
POINT
  5
25C2
330
24D0
100
AcDbEntity
  8
Defpoints
 62
     0
100
AcDbPoint
 10
2075.233877365067
 20
467.1003685502147
 30
0.0
  0
ENDBLK
  5
24D8
330
24D0
100
AcDbEntity
  8
0
100
AcDbBlockEnd
  0
BLOCK
  5
24E3
330
24D9
100
AcDbEntity
  8
0
100
AcDbBlockBegin
  2
*D30
 70
     1
 10
0.0
 20
0.0
 30
0.0
  3
*D30
  1

  0
LINE
  5
25C3
330
24D9
100
AcDbEntity
  8
実形
 62
     0
370
    18
100
AcDbLine
 10
2090.833877365066
 20
591.9073852958003
 30
0.0
 11
2090.833877365066
 21
617.1548568615962
 31
0.0
  0
LINE
  5
25C4
330
24D9
100
AcDbEntity
  8
実形
 62
     0
370
    18
100
AcDbLine
 10
2324.833877365066
 20
591.9073852958003
 30
0.0
 11
2324.833877365066
 21
617.1548568615962
 31
0.0
  0
LINE
  5
25C5
330
24D9
100
AcDbEntity
  8
実形
 62
     0
370
    18
100
AcDbLine
 10
2090.833877365066
 20
617.1548568615962
 30
0.0
 11
2324.833877365066
 21
617.1548568615962
 31
0.0
  0
INSERT
  5
25C6
330
24D9
100
AcDbEntity
  8
実形
 62
     0
370
    18
100
AcDbBlockReference
  2
_DotSmall
 10
2090.833877365066
 20
617.1548568615962
 30
0.0
 41
35.0
 42
35.0
 43
35.0
 50
180.0
  0
INSERT
  5
25C7
330
24D9
100
AcDbEntity
  8
実形
 62
     0
370
    18
100
AcDbBlockReference
  2
_DotSmall
 10
2324.833877365066
 20
617.1548568615962
 30
0.0
 41
35.0
 42
35.0
 43
35.0
  0
MTEXT
  5
25C8
330
24D9
100
AcDbEntity
  8
実形
 62
     0
100
AcDbMText
 10
2207.833877365066
 20
635.9048568615962
 30
0.0
 40
25.0
 41
0.0
 71
     5
 72
     1
  1
15
 73
     1
 44
1.0
1001
ACAD
1000
MTEXTBEGIN
1070
    73
1070
     1
1070
    44
1040
1.0
1070
    74
1070
     0
1000
MTEXTEND
  0
POINT
  5
25C9
330
24D9
100
AcDbEntity
  8
Defpoints
 62
     0
100
AcDbPoint
 10
2090.833877365066
 20
526.9073852958004
 30
0.0
  0
POINT
  5
25CA
330
24D9
100
AcDbEntity
  8
Defpoints
 62
     0
100
AcDbPoint
 10
2324.833877365066
 20
526.9073852958004
 30
0.0
  0
POINT
  5
25CB
330
24D9
100
AcDbEntity
  8
Defpoints
 62
     0
100
AcDbPoint
 10
2324.833877365066
 20
617.1548568615962
 30
0.0
  0
ENDBLK
  5
24E4
330
24D9
100
AcDbEntity
  8
0
100
AcDbBlockEnd
  0
BLOCK
  5
24EF
330
24E5
100
AcDbEntity
  8
0
100
AcDbBlockBegin
  2
*D31
 70
     1
 10
0.0
 20
0.0
 30
0.0
  3
*D31
  1

  0
LINE
  5
25CC
330
24E5
100
AcDbEntity
  8
実形
 62
     0
370
    18
100
AcDbLine
 10
2292.614562018892
 20
504.6947101512855
 30
0.0
 11
2228.767481940162
 21
504.6947101512855
 31
0.0
  0
LINE
  5
25CD
330
24E5
100
AcDbEntity
  8
実形
 62
     0
370
    18
100
AcDbLine
 10
2216.267191428404
 20
543.6947101512855
 30
0.0
 11
2228.767481940162
 21
543.6947101512855
 31
0.0
  0
LINE
  5
25CE
330
24E5
100
AcDbEntity
  8
実形
 62
     0
370
    18
100
AcDbLine
 10
2228.767481940162
 20
504.6947101512855
 30
0.0
 11
2228.767481940162
 21
543.6947101512855
 31
0.0
  0
MTEXT
  5
25CF
330
24E5
100
AcDbEntity
  8
実形
 62
     0
100
AcDbMText
 10
2197.294896545438
 20
515.0052225685112
 30
0.0
 40
23.0
 41
0.0
 71
     5
 72
     1
  1
2.5
 11
0.0000000000000001
 21
1.0
 31
0.0
 73
     1
 44
1.0
1001
ACAD
1000
MTEXTBEGIN
1070
    73
1070
     1
1070
    44
1040
1.0
1070
    74
1070
     0
1000
MTEXTEND
  0
INSERT
  5
25D0
330
24E5
100
AcDbEntity
  8
実形
 62
     0
370
    18
100
AcDbBlockReference
  2
_DotSmall
 10
2228.767481940162
 20
504.6947101512855
 30
0.0
 41
35.0
 42
35.0
 43
35.0
 50
270.0
  0
INSERT
  5
25D1
330
24E5
100
AcDbEntity
  8
実形
 62
     0
370
    18
100
AcDbBlockReference
  2
_DotSmall
 10
2228.767481940162
 20
543.6947101512855
 30
0.0
 41
35.0
 42
35.0
 43
35.0
 50
90.0
  0
POINT
  5
25D2
330
24E5
100
AcDbEntity
  8
Defpoints
 62
     0
100
AcDbPoint
 10
2357.614562018891
 20
504.6947101512855
 30
0.0
  0
POINT
  5
25D3
330
24E5
100
AcDbEntity
  8
Defpoints
 62
     0
100
AcDbPoint
 10
2281.267191428404
 20
543.6947101512855
 30
0.0
  0
POINT
  5
25D4
330
24E5
100
AcDbEntity
  8
Defpoints
 62
     0
100
AcDbPoint
 10
2228.767481940162
 20
543.6947101512855
 30
0.0
  0
ENDBLK
  5
24F0
330
24E5
100
AcDbEntity
  8
0
100
AcDbBlockEnd
  0
BLOCK
  5
24FB
330
24F1
100
AcDbEntity
  8
0
100
AcDbBlockBegin
  2
*D32
 70
     1
 10
0.0
 20
0.0
 30
0.0
  3
*D32
  1

  0
LINE
  5
25D5
330
24F1
100
AcDbEntity
  8
実形
 62
     0
370
    18
100
AcDbLine
 10
2278.033877365066
 20
448.0145559292668
 30
0.0
 11
2278.033877365066
 21
452.0882219802177
 31
0.0
  0
LINE
  5
25D6
330
24F1
100
AcDbEntity
  8
実形
 62
     0
370
    18
100
AcDbLine
 10
2356.033877365066
 20
448.0145559292668
 30
0.0
 11
2356.033877365066
 21
452.0882219802177
 31
0.0
  0
LINE
  5
25D7
330
24F1
100
AcDbEntity
  8
実形
 62
     0
370
    18
100
AcDbLine
 10
2278.033877365066
 20
452.0882219802177
 30
0.0
 11
2356.033877365066
 21
452.0882219802177
 31
0.0
  0
INSERT
  5
25D8
330
24F1
100
AcDbEntity
  8
実形
 62
     0
370
    18
100
AcDbBlockReference
  2
_DotSmall
 10
2278.033877365066
 20
452.0882219802177
 30
0.0
 41
35.0
 42
35.0
 43
35.0
 50
180.0
  0
INSERT
  5
25D9
330
24F1
100
AcDbEntity
  8
実形
 62
     0
370
    18
100
AcDbBlockReference
  2
_DotSmall
 10
2356.033877365066
 20
452.0882219802177
 30
0.0
 41
35.0
 42
35.0
 43
35.0
  0
MTEXT
  5
25DA
330
24F1
100
AcDbEntity
  8
実形
 62
     0
100
AcDbMText
 10
2317.033877365066
 20
470.8382219802177
 30
0.0
 40
25.0
 41
0.0
 71
     5
 72
     1
  1
5
 73
     1
 44
1.0
1001
ACAD
1000
MTEXTBEGIN
1070
    73
1070
     1
1070
    44
1040
1.0
1070
    74
1070
     0
1000
MTEXTEND
  0
POINT
  5
25DB
330
24F1
100
AcDbEntity
  8
Defpoints
 62
     0
100
AcDbPoint
 10
2278.033877365066
 20
513.0145559292668
 30
0.0
  0
POINT
  5
25DC
330
24F1
100
AcDbEntity
  8
Defpoints
 62
     0
100
AcDbPoint
 10
2356.033877365066
 20
513.0145559292668
 30
0.0
  0
POINT
  5
25DD
330
24F1
100
AcDbEntity
  8
Defpoints
 62
     0
100
AcDbPoint
 10
2356.033877365066
 20
452.0882219802177
 30
0.0
  0
ENDBLK
  5
24FC
330
24F1
100
AcDbEntity
  8
0
100
AcDbBlockEnd
  0
BLOCK
  5
2507
330
24FD
100
AcDbEntity
  8
0
100
AcDbBlockBegin
  2
*D33
 70
     1
 10
0.0
 20
0.0
 30
0.0
  3
*D33
  1

  0
LINE
  5
25DE
330
24FD
100
AcDbEntity
  8
実形
 62
     0
370
    18
100
AcDbLine
 10
2266.326187506493
 20
442.2947101512853
 30
0.0
 11
2230.705930897853
 21
442.2947101512853
 31
0.0
  0
LINE
  5
25DF
330
24FD
100
AcDbEntity
  8
実形
 62
     0
370
    18
100
AcDbLine
 10
2278.612691407768
 20
403.2947101512855
 30
0.0
 11
2230.705930897853
 21
403.2947101512855
 31
0.0
  0
LINE
  5
25E0
330
24FD
100
AcDbEntity
  8
実形
 62
     0
370
    18
100
AcDbLine
 10
2230.705930897853
 20
442.2947101512853
 30
0.0
 11
2230.705930897853
 21
403.2947101512855
 31
0.0
  0
MTEXT
  5
25E1
330
24FD
100
AcDbEntity
  8
実形
 62
     0
100
AcDbMText
 10
2198.086469593912
 20
431.6583152348946
 30
0.0
 40
23.0
 41
0.0
 71
     5
 72
     1
  1
2.5
 11
0.0000000000000001
 21
1.0
 31
0.0
 73
     1
 44
1.0
1001
ACAD
1000
MTEXTBEGIN
1070
    73
1070
     1
1070
    44
1040
1.0
1070
    74
1070
     0
1000
MTEXTEND
  0
INSERT
  5
25E2
330
24FD
100
AcDbEntity
  8
実形
 62
     0
370
    18
100
AcDbBlockReference
  2
_DotSmall
 10
2230.705930897853
 20
442.2947101512853
 30
0.0
 41
35.0
 42
35.0
 43
35.0
 50
90.0
  0
INSERT
  5
25E3
330
24FD
100
AcDbEntity
  8
実形
 62
     0
370
    18
100
AcDbBlockReference
  2
_DotSmall
 10
2230.705930897853
 20
403.2947101512855
 30
0.0
 41
35.0
 42
35.0
 43
35.0
 50
270.0
  0
POINT
  5
25E4
330
24FD
100
AcDbEntity
  8
Defpoints
 62
     0
100
AcDbPoint
 10
2331.326187506493
 20
442.2947101512853
 30
0.0
  0
POINT
  5
25E5
330
24FD
100
AcDbEntity
  8
Defpoints
 62
     0
100
AcDbPoint
 10
2343.612691407768
 20
403.2947101512855
 30
0.0
  0
POINT
  5
25E6
330
24FD
100
AcDbEntity
  8
Defpoints
 62
     0
100
AcDbPoint
 10
2230.705930897853
 20
403.2947101512855
 30
0.0
  0
ENDBLK
  5
2508
330
24FD
100
AcDbEntity
  8
0
100
AcDbBlockEnd
  0
BLOCK
  5
2513
330
2509
100
AcDbEntity
  8
0
100
AcDbBlockBegin
  2
*D34
 70
     1
 10
0.0
 20
0.0
 30
0.0
  3
*D34
  1

  0
LINE
  5
25E7
330
2509
100
AcDbEntity
  8
実形
 62
     0
370
    18
100
AcDbLine
 10
2075.233877365066
 20
696.1956311673393
 30
0.0
 11
2075.233877365066
 21
733.9587029177619
 31
0.0
  0
LINE
  5
25E8
330
2509
100
AcDbEntity
  8
実形
 62
     0
370
    18
100
AcDbLine
 10
2356.033877365066
 20
696.1956311673393
 30
0.0
 11
2356.033877365066
 21
733.9587029177619
 31
0.0
  0
LINE
  5
25E9
330
2509
100
AcDbEntity
  8
実形
 62
     0
370
    18
100
AcDbLine
 10
2075.233877365066
 20
733.9587029177619
 30
0.0
 11
2356.033877365066
 21
733.9587029177619
 31
0.0
  0
INSERT
  5
25EA
330
2509
100
AcDbEntity
  8
実形
 62
     0
370
    18
100
AcDbBlockReference
  2
_DotSmall
 10
2075.233877365066
 20
733.9587029177619
 30
0.0
 41
35.0
 42
35.0
 43
35.0
 50
180.0
  0
INSERT
  5
25EB
330
2509
100
AcDbEntity
  8
実形
 62
     0
370
    18
100
AcDbBlockReference
  2
_DotSmall
 10
2356.033877365066
 20
733.9587029177619
 30
0.0
 41
35.0
 42
35.0
 43
35.0
  0
MTEXT
  5
25EC
330
2509
100
AcDbEntity
  8
実形
 62
     0
100
AcDbMText
 10
2215.633877365066
 20
752.7087029177619
 30
0.0
 40
25.0
 41
0.0
 71
     5
 72
     1
  1
18
 73
     1
 44
1.0
1001
ACAD
1000
MTEXTBEGIN
1070
    73
1070
     1
1070
    44
1040
1.0
1070
    74
1070
     0
1000
MTEXTEND
  0
POINT
  5
25ED
330
2509
100
AcDbEntity
  8
Defpoints
 62
     0
100
AcDbPoint
 10
2075.233877365066
 20
631.1956311673393
 30
0.0
  0
POINT
  5
25EE
330
2509
100
AcDbEntity
  8
Defpoints
 62
     0
100
AcDbPoint
 10
2356.033877365066
 20
631.1956311673393
 30
0.0
  0
POINT
  5
25EF
330
2509
100
AcDbEntity
  8
Defpoints
 62
     0
100
AcDbPoint
 10
2356.033877365066
 20
733.9587029177619
 30
0.0
  0
ENDBLK
  5
2514
330
2509
100
AcDbEntity
  8
0
100
AcDbBlockEnd
  0
BLOCK
  5
251F
330
2515
100
AcDbEntity
  8
0
100
AcDbBlockBegin
  2
*D35
 70
     1
 10
0.0
 20
0.0
 30
0.0
  3
*D35
  1

  0
LINE
  5
25F0
330
2515
100
AcDbEntity
  8
実形
 62
     0
370
    18
100
AcDbLine
 10
2356.033877365066
 20
696.1956311673382
 30
0.0
 11
2356.033877365066
 21
733.9587029177619
 31
0.0
  0
LINE
  5
25F1
330
2515
100
AcDbEntity
  8
実形
 62
     0
370
    18
100
AcDbLine
 10
2621.233877365066
 20
696.1956311673382
 30
0.0
 11
2621.233877365066
 21
733.9587029177619
 31
0.0
  0
LINE
  5
25F2
330
2515
100
AcDbEntity
  8
実形
 62
     0
370
    18
100
AcDbLine
 10
2356.033877365066
 20
733.9587029177619
 30
0.0
 11
2621.233877365066
 21
733.9587029177619
 31
0.0
  0
INSERT
  5
25F3
330
2515
100
AcDbEntity
  8
実形
 62
     0
370
    18
100
AcDbBlockReference
  2
_DotSmall
 10
2356.033877365066
 20
733.9587029177619
 30
0.0
 41
35.0
 42
35.0
 43
35.0
 50
180.0
  0
INSERT
  5
25F4
330
2515
100
AcDbEntity
  8
実形
 62
     0
370
    18
100
AcDbBlockReference
  2
_DotSmall
 10
2621.233877365066
 20
733.9587029177619
 30
0.0
 41
35.0
 42
35.0
 43
35.0
  0
MTEXT
  5
25F5
330
2515
100
AcDbEntity
  8
実形
 62
     0
100
AcDbMText
 10
2488.633877365066
 20
752.7087029177619
 30
0.0
 40
25.0
 41
0.0
 71
     5
 72
     1
  1
17
 73
     1
 44
1.0
1001
ACAD
1000
MTEXTBEGIN
1070
    73
1070
     1
1070
    44
1040
1.0
1070
    74
1070
     0
1000
MTEXTEND
  0
POINT
  5
25F6
330
2515
100
AcDbEntity
  8
Defpoints
 62
     0
100
AcDbPoint
 10
2356.033877365066
 20
631.1956311673382
 30
0.0
  0
POINT
  5
25F7
330
2515
100
AcDbEntity
  8
Defpoints
 62
     0
100
AcDbPoint
 10
2621.233877365066
 20
631.1956311673382
 30
0.0
  0
POINT
  5
25F8
330
2515
100
AcDbEntity
  8
Defpoints
 62
     0
100
AcDbPoint
 10
2621.233877365066
 20
733.9587029177619
 30
0.0
  0
ENDBLK
  5
2520
330
2515
100
AcDbEntity
  8
0
100
AcDbBlockEnd
  0
BLOCK
  5
252B
330
2521
100
AcDbEntity
  8
0
100
AcDbBlockBegin
  2
*D36
 70
     1
 10
0.0
 20
0.0
 30
0.0
  3
*D36
  1

  0
LINE
  5
25F9
330
2521
100
AcDbEntity
  8
実形
 62
     0
370
    18
100
AcDbLine
 10
2075.233877365066
 20
696.1956311673382
 30
0.0
 11
2075.233877365066
 21
777.4666415156134
 31
0.0
  0
LINE
  5
25FA
330
2521
100
AcDbEntity
  8
実形
 62
     0
370
    18
100
AcDbLine
 10
2621.233877365066
 20
696.1956311673382
 30
0.0
 11
2621.233877365066
 21
777.4666415156134
 31
0.0
  0
LINE
  5
25FB
330
2521
100
AcDbEntity
  8
実形
 62
     0
370
    18
100
AcDbLine
 10
2075.233877365066
 20
777.4666415156134
 30
0.0
 11
2621.233877365066
 21
777.4666415156134
 31
0.0
  0
INSERT
  5
25FC
330
2521
100
AcDbEntity
  8
実形
 62
     0
370
    18
100
AcDbBlockReference
  2
_DotSmall
 10
2075.233877365066
 20
777.4666415156134
 30
0.0
 41
35.0
 42
35.0
 43
35.0
 50
180.0
  0
INSERT
  5
25FD
330
2521
100
AcDbEntity
  8
実形
 62
     0
370
    18
100
AcDbBlockReference
  2
_DotSmall
 10
2621.233877365066
 20
777.4666415156134
 30
0.0
 41
35.0
 42
35.0
 43
35.0
  0
MTEXT
  5
25FE
330
2521
100
AcDbEntity
  8
実形
 62
     0
100
AcDbMText
 10
2348.233877365066
 20
796.2166415156134
 30
0.0
 40
25.0
 41
0.0
 71
     5
 72
     1
  1
35
 73
     1
 44
1.0
1001
ACAD
1000
MTEXTBEGIN
1070
    73
1070
     1
1070
    44
1040
1.0
1070
    74
1070
     0
1000
MTEXTEND
  0
POINT
  5
25FF
330
2521
100
AcDbEntity
  8
Defpoints
 62
     0
100
AcDbPoint
 10
2075.233877365066
 20
631.1956311673382
 30
0.0
  0
POINT
  5
2600
330
2521
100
AcDbEntity
  8
Defpoints
 62
     0
100
AcDbPoint
 10
2621.233877365066
 20
631.1956311673382
 30
0.0
  0
POINT
  5
2601
330
2521
100
AcDbEntity
  8
Defpoints
 62
     0
100
AcDbPoint
 10
2621.233877365066
 20
777.4666415156134
 30
0.0
  0
ENDBLK
  5
252C
330
2521
100
AcDbEntity
  8
0
100
AcDbBlockEnd
  0
BLOCK
  5
2537
330
252D
100
AcDbEntity
  8
0
100
AcDbBlockBegin
  2
*D37
 70
     1
 10
0.0
 20
0.0
 30
0.0
  3
*D37
  1

  0
LINE
  5
2602
330
252D
100
AcDbEntity
  8
実形
 62
     0
370
    18
100
AcDbLine
 10
2106.433877365066
 20
346.5474686202858
 30
0.0
 11
2106.433877365066
 21
297.5085770831867
 31
0.0
  0
LINE
  5
2603
330
252D
100
AcDbEntity
  8
実形
 62
     0
370
    18
100
AcDbLine
 10
2153.233877365066
 20
346.5474686202858
 30
0.0
 11
2153.233877365066
 21
297.5085770831867
 31
0.0
  0
LINE
  5
2604
330
252D
100
AcDbEntity
  8
実形
 62
     0
370
    18
100
AcDbLine
 10
2106.433877365066
 20
297.5085770831867
 30
0.0
 11
2153.233877365066
 21
297.5085770831867
 31
0.0
  0
MTEXT
  5
2605
330
252D
100
AcDbEntity
  8
実形
 62
     0
100
AcDbMText
 10
2053.203290699754
 20
332.9138518235977
 30
0.0
 40
25.0
 41
0.0
 71
     5
 72
     1
  1
3.2
 73
     1
 44
1.0
1001
ACAD
1000
MTEXTBEGIN
1070
    73
1070
     1
1070
    44
1040
1.0
1070
    74
1070
     0
1000
MTEXTEND
  0
INSERT
  5
2606
330
252D
100
AcDbEntity
  8
実形
 62
     0
370
    18
100
AcDbBlockReference
  2
_DotSmall
 10
2106.433877365066
 20
297.5085770831867
 30
0.0
 41
35.0
 42
35.0
 43
35.0
 50
180.0
  0
INSERT
  5
2607
330
252D
100
AcDbEntity
  8
実形
 62
     0
370
    18
100
AcDbBlockReference
  2
_DotSmall
 10
2153.233877365066
 20
297.5085770831867
 30
0.0
 41
35.0
 42
35.0
 43
35.0
  0
POINT
  5
2608
330
252D
100
AcDbEntity
  8
Defpoints
 62
     0
100
AcDbPoint
 10
2106.433877365066
 20
411.5474686202857
 30
0.0
  0
POINT
  5
2609
330
252D
100
AcDbEntity
  8
Defpoints
 62
     0
100
AcDbPoint
 10
2153.233877365066
 20
411.5474686202857
 30
0.0
  0
POINT
  5
260A
330
252D
100
AcDbEntity
  8
Defpoints
 62
     0
100
AcDbPoint
 10
2153.233877365066
 20
297.5085770831867
 30
0.0
  0
ENDBLK
  5
2538
330
252D
100
AcDbEntity
  8
0
100
AcDbBlockEnd
  0
BLOCK
  5
2543
330
2539
100
AcDbEntity
  8
0
100
AcDbBlockBegin
  2
*D38
 70
     1
 10
0.0
 20
0.0
 30
0.0
  3
*D38
  1

  0
LINE
  5
260B
330
2539
100
AcDbEntity
  8
実形
 62
     0
370
    18
100
AcDbLine
 10
2153.233877365066
 20
346.5474686202858
 30
0.0
 11
2153.233877365066
 21
297.5085770831867
 31
0.0
  0
LINE
  5
260C
330
2539
100
AcDbEntity
  8
実形
 62
     0
370
    18
100
AcDbLine
 10
2278.033877365066
 20
346.5474686202858
 30
0.0
 11
2278.033877365066
 21
297.5085770831867
 31
0.0
  0
LINE
  5
260D
330
2539
100
AcDbEntity
  8
実形
 62
     0
370
    18
100
AcDbLine
 10
2153.233877365066
 20
297.5085770831867
 30
0.0
 11
2278.033877365066
 21
297.5085770831867
 31
0.0
  0
INSERT
  5
260E
330
2539
100
AcDbEntity
  8
実形
 62
     0
370
    18
100
AcDbBlockReference
  2
_DotSmall
 10
2153.233877365066
 20
297.5085770831867
 30
0.0
 41
35.0
 42
35.0
 43
35.0
 50
180.0
  0
INSERT
  5
260F
330
2539
100
AcDbEntity
  8
実形
 62
     0
370
    18
100
AcDbBlockReference
  2
_DotSmall
 10
2278.033877365066
 20
297.5085770831867
 30
0.0
 41
35.0
 42
35.0
 43
35.0
  0
MTEXT
  5
2610
330
2539
100
AcDbEntity
  8
実形
 62
     0
100
AcDbMText
 10
2215.633877365066
 20
316.2585770831867
 30
0.0
 40
25.0
 41
0.0
 71
     5
 72
     1
  1
8
 73
     1
 44
1.0
1001
ACAD
1000
MTEXTBEGIN
1070
    73
1070
     1
1070
    44
1040
1.0
1070
    74
1070
     0
1000
MTEXTEND
  0
POINT
  5
2611
330
2539
100
AcDbEntity
  8
Defpoints
 62
     0
100
AcDbPoint
 10
2153.233877365066
 20
411.5474686202857
 30
0.0
  0
POINT
  5
2612
330
2539
100
AcDbEntity
  8
Defpoints
 62
     0
100
AcDbPoint
 10
2278.033877365066
 20
411.5474686202857
 30
0.0
  0
POINT
  5
2613
330
2539
100
AcDbEntity
  8
Defpoints
 62
     0
100
AcDbPoint
 10
2278.033877365066
 20
297.5085770831867
 30
0.0
  0
ENDBLK
  5
2544
330
2539
100
AcDbEntity
  8
0
100
AcDbBlockEnd
  0
BLOCK
  5
254F
330
2545
100
AcDbEntity
  8
0
100
AcDbBlockBegin
  2
*D39
 70
     1
 10
0.0
 20
0.0
 30
0.0
  3
*D39
  1

  0
LINE
  5
2614
330
2545
100
AcDbEntity
  8
実形
 62
     0
370
    18
100
AcDbLine
 10
2278.033877365066
 20
346.5474686202858
 30
0.0
 11
2278.033877365066
 21
297.5085770831867
 31
0.0
  0
LINE
  5
2615
330
2545
100
AcDbEntity
  8
実形
 62
     0
370
    18
100
AcDbLine
 10
2356.033877365066
 20
346.5474686202858
 30
0.0
 11
2356.033877365066
 21
297.5085770831867
 31
0.0
  0
LINE
  5
2616
330
2545
100
AcDbEntity
  8
実形
 62
     0
370
    18
100
AcDbLine
 10
2278.033877365066
 20
297.5085770831867
 30
0.0
 11
2356.033877365066
 21
297.5085770831867
 31
0.0
  0
INSERT
  5
2617
330
2545
100
AcDbEntity
  8
実形
 62
     0
370
    18
100
AcDbBlockReference
  2
_DotSmall
 10
2278.033877365066
 20
297.5085770831867
 30
0.0
 41
35.0
 42
35.0
 43
35.0
 50
180.0
  0
INSERT
  5
2618
330
2545
100
AcDbEntity
  8
実形
 62
     0
370
    18
100
AcDbBlockReference
  2
_DotSmall
 10
2356.033877365066
 20
297.5085770831867
 30
0.0
 41
35.0
 42
35.0
 43
35.0
  0
MTEXT
  5
2619
330
2545
100
AcDbEntity
  8
実形
 62
     0
100
AcDbMText
 10
2317.033877365066
 20
316.2585770831867
 30
0.0
 40
25.0
 41
0.0
 71
     5
 72
     1
  1
5
 73
     1
 44
1.0
1001
ACAD
1000
MTEXTBEGIN
1070
    73
1070
     1
1070
    44
1040
1.0
1070
    74
1070
     0
1000
MTEXTEND
  0
POINT
  5
261A
330
2545
100
AcDbEntity
  8
Defpoints
 62
     0
100
AcDbPoint
 10
2278.033877365066
 20
411.5474686202857
 30
0.0
  0
POINT
  5
261B
330
2545
100
AcDbEntity
  8
Defpoints
 62
     0
100
AcDbPoint
 10
2356.033877365066
 20
411.5474686202857
 30
0.0
  0
POINT
  5
261C
330
2545
100
AcDbEntity
  8
Defpoints
 62
     0
100
AcDbPoint
 10
2356.033877365066
 20
297.5085770831867
 30
0.0
  0
ENDBLK
  5
2550
330
2545
100
AcDbEntity
  8
0
100
AcDbBlockEnd
  0
BLOCK
  5
255B
330
2551
100
AcDbEntity
  8
0
100
AcDbBlockBegin
  2
*D40
 70
     1
 10
0.0
 20
0.0
 30
0.0
  3
*D40
  1

  0
LINE
  5
261D
330
2551
100
AcDbEntity
  8
実形
 62
     0
370
    18
100
AcDbLine
 10
2356.033877365066
 20
346.5474686202858
 30
0.0
 11
2356.033877365066
 21
297.5085770831867
 31
0.0
  0
LINE
  5
261E
330
2551
100
AcDbEntity
  8
実形
 62
     0
370
    18
100
AcDbLine
 10
2621.233877365066
 20
346.5474686202858
 30
0.0
 11
2621.233877365066
 21
297.5085770831867
 31
0.0
  0
LINE
  5
261F
330
2551
100
AcDbEntity
  8
実形
 62
     0
370
    18
100
AcDbLine
 10
2356.033877365066
 20
297.5085770831867
 30
0.0
 11
2621.233877365066
 21
297.5085770831867
 31
0.0
  0
INSERT
  5
2620
330
2551
100
AcDbEntity
  8
実形
 62
     0
370
    18
100
AcDbBlockReference
  2
_DotSmall
 10
2356.033877365066
 20
297.5085770831867
 30
0.0
 41
35.0
 42
35.0
 43
35.0
 50
180.0
  0
INSERT
  5
2621
330
2551
100
AcDbEntity
  8
実形
 62
     0
370
    18
100
AcDbBlockReference
  2
_DotSmall
 10
2621.233877365066
 20
297.5085770831867
 30
0.0
 41
35.0
 42
35.0
 43
35.0
  0
MTEXT
  5
2622
330
2551
100
AcDbEntity
  8
実形
 62
     0
100
AcDbMText
 10
2488.633877365066
 20
316.2585770831867
 30
0.0
 40
25.0
 41
0.0
 71
     5
 72
     1
  1
17
 73
     1
 44
1.0
1001
ACAD
1000
MTEXTBEGIN
1070
    73
1070
     1
1070
    44
1040
1.0
1070
    74
1070
     0
1000
MTEXTEND
  0
POINT
  5
2623
330
2551
100
AcDbEntity
  8
Defpoints
 62
     0
100
AcDbPoint
 10
2356.033877365066
 20
411.5474686202857
 30
0.0
  0
POINT
  5
2624
330
2551
100
AcDbEntity
  8
Defpoints
 62
     0
100
AcDbPoint
 10
2621.233877365066
 20
411.5474686202857
 30
0.0
  0
POINT
  5
2625
330
2551
100
AcDbEntity
  8
Defpoints
 62
     0
100
AcDbPoint
 10
2621.233877365066
 20
297.5085770831867
 30
0.0
  0
ENDBLK
  5
255C
330
2551
100
AcDbEntity
  8
0
100
AcDbBlockEnd
  0
BLOCK
  5
2567
330
255D
100
AcDbEntity
  8
0
100
AcDbBlockBegin
  2
*D41
 70
     1
 10
0.0
 20
0.0
 30
0.0
  3
*D41
  1

  0
LINE
  5
2626
330
255D
100
AcDbEntity
  8
実形
 62
     0
370
    18
100
AcDbLine
 10
2077.023276234157
 20
297.8281686160613
 30
0.0
 11
2077.023276234157
 21
247.5388396829094
 31
0.0
  0
LINE
  5
2627
330
255D
100
AcDbEntity
  8
実形
 62
     0
370
    18
100
AcDbLine
 10
2155.023276234156
 20
297.8281686160613
 30
0.0
 11
2155.023276234156
 21
247.5388396829094
 31
0.0
  0
LINE
  5
2628
330
255D
100
AcDbEntity
  8
実形
 62
     0
370
    18
100
AcDbLine
 10
2077.023276234157
 20
247.5388396829094
 30
0.0
 11
2155.023276234156
 21
247.5388396829094
 31
0.0
  0
INSERT
  5
2629
330
255D
100
AcDbEntity
  8
実形
 62
     0
370
    18
100
AcDbBlockReference
  2
_DotSmall
 10
2077.023276234157
 20
247.5388396829094
 30
0.0
 41
35.0
 42
35.0
 43
35.0
 50
180.0
  0
INSERT
  5
262A
330
255D
100
AcDbEntity
  8
実形
 62
     0
370
    18
100
AcDbBlockReference
  2
_DotSmall
 10
2155.023276234156
 20
247.5388396829094
 30
0.0
 41
35.0
 42
35.0
 43
35.0
  0
MTEXT
  5
262B
330
255D
100
AcDbEntity
  8
実形
 62
     0
100
AcDbMText
 10
2116.023276234157
 20
266.2888396829094
 30
0.0
 40
25.0
 41
0.0
 71
     5
 72
     1
  1
5
 73
     1
 44
1.0
1001
ACAD
1000
MTEXTBEGIN
1070
    73
1070
     1
1070
    44
1040
1.0
1070
    74
1070
     0
1000
MTEXTEND
  0
POINT
  5
262C
330
255D
100
AcDbEntity
  8
Defpoints
 62
     0
100
AcDbPoint
 10
2077.023276234157
 20
362.8281686160613
 30
0.0
  0
POINT
  5
262D
330
255D
100
AcDbEntity
  8
Defpoints
 62
     0
100
AcDbPoint
 10
2155.023276234156
 20
362.8281686160613
 30
0.0
  0
POINT
  5
262E
330
255D
100
AcDbEntity
  8
Defpoints
 62
     0
100
AcDbPoint
 10
2155.023276234156
 20
247.5388396829094
 30
0.0
  0
ENDBLK
  5
2568
330
255D
100
AcDbEntity
  8
0
100
AcDbBlockEnd
  0
BLOCK
  5
2573
330
2569
100
AcDbEntity
  8
0
100
AcDbBlockBegin
  2
*D42
 70
     1
 10
0.0
 20
0.0
 30
0.0
  3
*D42
  1

  0
LINE
  5
262F
330
2569
100
AcDbEntity
  8
実形
 62
     0
370
    18
100
AcDbLine
 10
2155.023276234156
 20
297.8281686160613
 30
0.0
 11
2155.023276234156
 21
247.5388396829094
 31
0.0
  0
LINE
  5
2630
330
2569
100
AcDbEntity
  8
実形
 62
     0
370
    18
100
AcDbLine
 10
2623.023276234156
 20
297.8281686160613
 30
0.0
 11
2623.023276234156
 21
247.5388396829094
 31
0.0
  0
LINE
  5
2631
330
2569
100
AcDbEntity
  8
実形
 62
     0
370
    18
100
AcDbLine
 10
2155.023276234156
 20
247.5388396829094
 30
0.0
 11
2623.023276234156
 21
247.5388396829094
 31
0.0
  0
INSERT
  5
2632
330
2569
100
AcDbEntity
  8
実形
 62
     0
370
    18
100
AcDbBlockReference
  2
_DotSmall
 10
2155.023276234156
 20
247.5388396829094
 30
0.0
 41
35.0
 42
35.0
 43
35.0
 50
180.0
  0
INSERT
  5
2633
330
2569
100
AcDbEntity
  8
実形
 62
     0
370
    18
100
AcDbBlockReference
  2
_DotSmall
 10
2623.023276234156
 20
247.5388396829094
 30
0.0
 41
35.0
 42
35.0
 43
35.0
  0
MTEXT
  5
2634
330
2569
100
AcDbEntity
  8
実形
 62
     0
100
AcDbMText
 10
2389.023276234156
 20
266.2888396829094
 30
0.0
 40
25.0
 41
0.0
 71
     5
 72
     1
  1
30
 73
     1
 44
1.0
1001
ACAD
1000
MTEXTBEGIN
1070
    73
1070
     1
1070
    44
1040
1.0
1070
    74
1070
     0
1000
MTEXTEND
  0
POINT
  5
2635
330
2569
100
AcDbEntity
  8
Defpoints
 62
     0
100
AcDbPoint
 10
2155.023276234156
 20
362.8281686160613
 30
0.0
  0
POINT
  5
2636
330
2569
100
AcDbEntity
  8
Defpoints
 62
     0
100
AcDbPoint
 10
2623.023276234156
 20
362.8281686160613
 30
0.0
  0
POINT
  5
2637
330
2569
100
AcDbEntity
  8
Defpoints
 62
     0
100
AcDbPoint
 10
2623.023276234156
 20
247.5388396829094
 30
0.0
  0
ENDBLK
  5
2574
330
2569
100
AcDbEntity
  8
0
100
AcDbBlockEnd
  0
BLOCK
  5
257F
330
2575
100
AcDbEntity
  8
0
100
AcDbBlockBegin
  2
*D43
 70
     1
 10
0.0
 20
0.0
 30
0.0
  3
*D43
  1

  0
LINE
  5
2638
330
2575
100
AcDbEntity
  8
実形
 62
     0
370
    18
100
AcDbLine
 10
2032.328912889143
 20
684.0947101512855
 30
0.0
 11
1970.032114275532
 21
684.0947101512855
 31
0.0
  0
LINE
  5
2639
330
2575
100
AcDbEntity
  8
実形
 62
     0
370
    18
100
AcDbLine
 10
2032.328912889143
 20
585.2947101512854
 30
0.0
 11
1970.032114275532
 21
585.2947101512854
 31
0.0
  0
LINE
  5
263A
330
2575
100
AcDbEntity
  8
実形
 62
     0
370
    18
100
AcDbLine
 10
1970.032114275532
 20
684.0947101512855
 30
0.0
 11
1970.032114275532
 21
585.2947101512854
 31
0.0
  0
INSERT
  5
263B
330
2575
100
AcDbEntity
  8
実形
 62
     0
370
    18
100
AcDbBlockReference
  2
_DotSmall
 10
1970.032114275532
 20
684.0947101512855
 30
0.0
 41
35.0
 42
35.0
 43
35.0
 50
90.0
  0
INSERT
  5
263C
330
2575
100
AcDbEntity
  8
実形
 62
     0
370
    18
100
AcDbBlockReference
  2
_DotSmall
 10
1970.032114275532
 20
585.2947101512854
 30
0.0
 41
35.0
 42
35.0
 43
35.0
 50
270.0
  0
MTEXT
  5
263D
330
2575
100
AcDbEntity
  8
実形
 62
     0
100
AcDbMText
 10
1951.282114275532
 20
634.6947101512859
 30
0.0
 40
25.0
 41
0.0
 71
     5
 72
     1
  1
6.5
 11
0.0000000000000001
 21
1.0
 31
0.0
 73
     1
 44
1.0
1001
ACAD
1000
MTEXTBEGIN
1070
    73
1070
     1
1070
    44
1040
1.0
1070
    74
1070
     0
1000
MTEXTEND
  0
POINT
  5
263E
330
2575
100
AcDbEntity
  8
Defpoints
 62
     0
100
AcDbPoint
 10
2097.328912889143
 20
684.0947101512855
 30
0.0
  0
POINT
  5
263F
330
2575
100
AcDbEntity
  8
Defpoints
 62
     0
100
AcDbPoint
 10
2097.328912889143
 20
585.2947101512854
 30
0.0
  0
POINT
  5
2640
330
2575
100
AcDbEntity
  8
Defpoints
 62
     0
100
AcDbPoint
 10
1970.032114275532
 20
585.2947101512854
 30
0.0
  0
ENDBLK
  5
2580
330
2575
100
AcDbEntity
  8
0
100
AcDbBlockEnd
  0
BLOCK
  5
258B
330
2581
100
AcDbEntity
  8
0
100
AcDbBlockBegin
  2
*D44
 70
     1
 10
0.0
 20
0.0
 30
0.0
  3
*D44
  1

  0
LINE
  5
2641
330
2581
100
AcDbEntity
  8
実形
 62
     0
370
    18
100
AcDbLine
 10
2032.328912889143
 20
684.0947101512855
 30
0.0
 11
1916.035186721017
 21
684.0947101512855
 31
0.0
  0
LINE
  5
2642
330
2581
100
AcDbEntity
  8
実形
 62
     0
370
    18
100
AcDbLine
 10
2032.328912889143
 20
559.2947101512846
 30
0.0
 11
1916.035186721017
 21
559.2947101512846
 31
0.0
  0
LINE
  5
2643
330
2581
100
AcDbEntity
  8
実形
 62
     0
370
    18
100
AcDbLine
 10
1916.035186721017
 20
684.0947101512855
 30
0.0
 11
1916.035186721017
 21
559.2947101512846
 31
0.0
  0
INSERT
  5
2644
330
2581
100
AcDbEntity
  8
実形
 62
     0
370
    18
100
AcDbBlockReference
  2
_DotSmall
 10
1916.035186721017
 20
684.0947101512855
 30
0.0
 41
35.0
 42
35.0
 43
35.0
 50
90.0
  0
INSERT
  5
2645
330
2581
100
AcDbEntity
  8
実形
 62
     0
370
    18
100
AcDbBlockReference
  2
_DotSmall
 10
1916.035186721017
 20
559.2947101512846
 30
0.0
 41
35.0
 42
35.0
 43
35.0
 50
270.0
  0
MTEXT
  5
2646
330
2581
100
AcDbEntity
  8
実形
 62
     0
100
AcDbMText
 10
1897.285186721017
 20
621.6947101512854
 30
0.0
 40
25.0
 41
0.0
 71
     5
 72
     1
  1
8.2
 11
0.0000000000000001
 21
1.0
 31
0.0
 73
     1
 44
1.0
1001
ACAD
1000
MTEXTBEGIN
1070
    73
1070
     1
1070
    44
1040
1.0
1070
    74
1070
     0
1000
MTEXTEND
  0
POINT
  5
2647
330
2581
100
AcDbEntity
  8
Defpoints
 62
     0
100
AcDbPoint
 10
2097.328912889143
 20
684.0947101512855
 30
0.0
  0
POINT
  5
2648
330
2581
100
AcDbEntity
  8
Defpoints
 62
     0
100
AcDbPoint
 10
2097.328912889143
 20
559.2947101512846
 30
0.0
  0
POINT
  5
2649
330
2581
100
AcDbEntity
  8
Defpoints
 62
     0
100
AcDbPoint
 10
1916.035186721017
 20
559.2947101512846
 30
0.0
  0
ENDBLK
  5
258C
330
2581
100
AcDbEntity
  8
0
100
AcDbBlockEnd
  0
BLOCK
  5
2597
330
258D
100
AcDbEntity
  8
0
100
AcDbBlockBegin
  2
*D45
 70
     1
 10
0.0
 20
0.0
 30
0.0
  3
*D45
  1

  0
LINE
  5
264A
330
258D
100
AcDbEntity
  8
実形
 62
     0
370
    18
100
AcDbLine
 10
2032.328912889143
 20
543.6947101512854
 30
0.0
 11
1864.389549972262
 21
543.6947101512854
 31
0.0
  0
LINE
  5
264B
330
258D
100
AcDbEntity
  8
実形
 62
     0
370
    18
100
AcDbLine
 10
2032.328912889143
 20
684.0947101512855
 30
0.0
 11
1864.389549972262
 21
684.0947101512855
 31
0.0
  0
LINE
  5
264C
330
258D
100
AcDbEntity
  8
実形
 62
     0
370
    18
100
AcDbLine
 10
1864.389549972262
 20
543.6947101512854
 30
0.0
 11
1864.389549972262
 21
684.0947101512855
 31
0.0
  0
INSERT
  5
264D
330
258D
100
AcDbEntity
  8
実形
 62
     0
370
    18
100
AcDbBlockReference
  2
_DotSmall
 10
1864.389549972262
 20
543.6947101512854
 30
0.0
 41
35.0
 42
35.0
 43
35.0
 50
270.0
  0
INSERT
  5
264E
330
258D
100
AcDbEntity
  8
実形
 62
     0
370
    18
100
AcDbBlockReference
  2
_DotSmall
 10
1864.389549972262
 20
684.0947101512855
 30
0.0
 41
35.0
 42
35.0
 43
35.0
 50
90.0
  0
MTEXT
  5
264F
330
258D
100
AcDbEntity
  8
実形
 62
     0
100
AcDbMText
 10
1845.639549972261
 20
613.8947101512858
 30
0.0
 40
25.0
 41
0.0
 71
     5
 72
     1
  1
9
 11
0.0000000000000001
 21
1.0
 31
0.0
 73
     1
 44
1.0
1001
ACAD
1000
MTEXTBEGIN
1070
    73
1070
     1
1070
    44
1040
1.0
1070
    74
1070
     0
1000
MTEXTEND
  0
POINT
  5
2650
330
258D
100
AcDbEntity
  8
Defpoints
 62
     0
100
AcDbPoint
 10
2097.328912889143
 20
543.6947101512854
 30
0.0
  0
POINT
  5
2651
330
258D
100
AcDbEntity
  8
Defpoints
 62
     0
100
AcDbPoint
 10
2097.328912889143
 20
684.0947101512855
 30
0.0
  0
POINT
  5
2652
330
258D
100
AcDbEntity
  8
Defpoints
 62
     0
100
AcDbPoint
 10
1864.389549972262
 20
684.0947101512855
 30
0.0
  0
ENDBLK
  5
2598
330
258D
100
AcDbEntity
  8
0
100
AcDbBlockEnd
  0
BLOCK
  5
25A3
330
2599
100
AcDbEntity
  8
0
100
AcDbBlockBegin
  2
*D46
 70
     1
 10
0.0
 20
0.0
 30
0.0
  3
*D46
  1

  0
LINE
  5
2653
330
2599
100
AcDbEntity
  8
実形
 62
     0
370
    18
100
AcDbLine
 10
2647.25404811461
 20
543.6947101512855
 30
0.0
 11
2673.699912636183
 21
543.6947101512855
 31
0.0
  0
LINE
  5
2654
330
2599
100
AcDbEntity
  8
実形
 62
     0
370
    18
100
AcDbLine
 10
2647.25404811461
 20
403.2947101512855
 30
0.0
 11
2673.699912636183
 21
403.2947101512855
 31
0.0
  0
LINE
  5
2655
330
2599
100
AcDbEntity
  8
実形
 62
     0
370
    18
100
AcDbLine
 10
2673.699912636183
 20
543.6947101512855
 30
0.0
 11
2673.699912636183
 21
403.2947101512855
 31
0.0
  0
INSERT
  5
2656
330
2599
100
AcDbEntity
  8
実形
 62
     0
370
    18
100
AcDbBlockReference
  2
_DotSmall
 10
2673.699912636183
 20
543.6947101512855
 30
0.0
 41
35.0
 42
35.0
 43
35.0
 50
90.0
  0
INSERT
  5
2657
330
2599
100
AcDbEntity
  8
実形
 62
     0
370
    18
100
AcDbBlockReference
  2
_DotSmall
 10
2673.699912636183
 20
403.2947101512855
 30
0.0
 41
35.0
 42
35.0
 43
35.0
 50
270.0
  0
MTEXT
  5
2658
330
2599
100
AcDbEntity
  8
実形
 62
     0
100
AcDbMText
 10
2654.949912636183
 20
473.4947101512859
 30
0.0
 40
25.0
 41
0.0
 71
     5
 72
     1
  1
9
 11
0.0000000000000001
 21
1.0
 31
0.0
 73
     1
 44
1.0
1001
ACAD
1000
MTEXTBEGIN
1070
    73
1070
     1
1070
    44
1040
1.0
1070
    74
1070
     0
1000
MTEXTEND
  0
POINT
  5
2659
330
2599
100
AcDbEntity
  8
Defpoints
 62
     0
100
AcDbPoint
 10
2582.25404811461
 20
543.6947101512855
 30
0.0
  0
POINT
  5
265A
330
2599
100
AcDbEntity
  8
Defpoints
 62
     0
100
AcDbPoint
 10
2582.25404811461
 20
403.2947101512855
 30
0.0
  0
POINT
  5
265B
330
2599
100
AcDbEntity
  8
Defpoints
 62
     0
100
AcDbPoint
 10
2673.699912636183
 20
403.2947101512855
 30
0.0
  0
ENDBLK
  5
25A4
330
2599
100
AcDbEntity
  8
0
100
AcDbBlockEnd
  0
BLOCK
  5
25AF
330
25A5
100
AcDbEntity
  8
0
100
AcDbBlockBegin
  2
*D47
 70
     1
 10
0.0
 20
0.0
 30
0.0
  3
*D47
  1

  0
LINE
  5
265C
330
25A5
100
AcDbEntity
  8
実形
 62
     0
370
    18
100
AcDbLine
 10
2647.25404811461
 20
684.0947101512855
 30
0.0
 11
2673.699912636183
 21
684.0947101512855
 31
0.0
  0
LINE
  5
265D
330
25A5
100
AcDbEntity
  8
実形
 62
     0
370
    18
100
AcDbLine
 10
2647.25404811461
 20
543.6947101512855
 30
0.0
 11
2673.699912636183
 21
543.6947101512855
 31
0.0
  0
LINE
  5
265E
330
25A5
100
AcDbEntity
  8
実形
 62
     0
370
    18
100
AcDbLine
 10
2673.699912636183
 20
684.0947101512855
 30
0.0
 11
2673.699912636183
 21
543.6947101512855
 31
0.0
  0
INSERT
  5
265F
330
25A5
100
AcDbEntity
  8
実形
 62
     0
370
    18
100
AcDbBlockReference
  2
_DotSmall
 10
2673.699912636183
 20
684.0947101512855
 30
0.0
 41
35.0
 42
35.0
 43
35.0
 50
90.0
  0
INSERT
  5
2660
330
25A5
100
AcDbEntity
  8
実形
 62
     0
370
    18
100
AcDbBlockReference
  2
_DotSmall
 10
2673.699912636183
 20
543.6947101512855
 30
0.0
 41
35.0
 42
35.0
 43
35.0
 50
270.0
  0
MTEXT
  5
2661
330
25A5
100
AcDbEntity
  8
実形
 62
     0
100
AcDbMText
 10
2654.949912636183
 20
613.8947101512859
 30
0.0
 40
25.0
 41
0.0
 71
     5
 72
     1
  1
9
 11
0.0000000000000001
 21
1.0
 31
0.0
 73
     1
 44
1.0
1001
ACAD
1000
MTEXTBEGIN
1070
    73
1070
     1
1070
    44
1040
1.0
1070
    74
1070
     0
1000
MTEXTEND
  0
POINT
  5
2662
330
25A5
100
AcDbEntity
  8
Defpoints
 62
     0
100
AcDbPoint
 10
2582.25404811461
 20
684.0947101512855
 30
0.0
  0
POINT
  5
2663
330
25A5
100
AcDbEntity
  8
Defpoints
 62
     0
100
AcDbPoint
 10
2582.25404811461
 20
543.6947101512855
 30
0.0
  0
POINT
  5
2664
330
25A5
100
AcDbEntity
  8
Defpoints
 62
     0
100
AcDbPoint
 10
2673.699912636183
 20
543.6947101512855
 30
0.0
  0
ENDBLK
  5
25B0
330
25A5
100
AcDbEntity
  8
0
100
AcDbBlockEnd
  0
BLOCK
  5
25BB
330
25B1
100
AcDbEntity
  8
0
100
AcDbBlockBegin
  2
*D48
 70
     1
 10
0.0
 20
0.0
 30
0.0
  3
*D48
  1

  0
LINE
  5
2665
330
25B1
100
AcDbEntity
  8
実形
 62
     0
370
    18
100
AcDbLine
 10
2647.25404811461
 20
684.0947101512855
 30
0.0
 11
2715.480008308167
 21
684.0947101512855
 31
0.0
  0
LINE
  5
2666
330
25B1
100
AcDbEntity
  8
実形
 62
     0
370
    18
100
AcDbLine
 10
2647.25404811461
 20
403.2947101512855
 30
0.0
 11
2715.480008308167
 21
403.2947101512855
 31
0.0
  0
LINE
  5
2667
330
25B1
100
AcDbEntity
  8
実形
 62
     0
370
    18
100
AcDbLine
 10
2715.480008308167
 20
684.0947101512855
 30
0.0
 11
2715.480008308167
 21
403.2947101512855
 31
0.0
  0
INSERT
  5
2668
330
25B1
100
AcDbEntity
  8
実形
 62
     0
370
    18
100
AcDbBlockReference
  2
_DotSmall
 10
2715.480008308167
 20
684.0947101512855
 30
0.0
 41
35.0
 42
35.0
 43
35.0
 50
90.0
  0
INSERT
  5
2669
330
25B1
100
AcDbEntity
  8
実形
 62
     0
370
    18
100
AcDbBlockReference
  2
_DotSmall
 10
2715.480008308167
 20
403.2947101512855
 30
0.0
 41
35.0
 42
35.0
 43
35.0
 50
270.0
  0
MTEXT
  5
266A
330
25B1
100
AcDbEntity
  8
実形
 62
     0
100
AcDbMText
 10
2696.730008308167
 20
543.694710151286
 30
0.0
 40
25.0
 41
0.0
 71
     5
 72
     1
  1
18
 11
0.0000000000000001
 21
1.0
 31
0.0
 73
     1
 44
1.0
1001
ACAD
1000
MTEXTBEGIN
1070
    73
1070
     1
1070
    44
1040
1.0
1070
    74
1070
     0
1000
MTEXTEND
  0
POINT
  5
266B
330
25B1
100
AcDbEntity
  8
Defpoints
 62
     0
100
AcDbPoint
 10
2582.25404811461
 20
684.0947101512855
 30
0.0
  0
POINT
  5
266C
330
25B1
100
AcDbEntity
  8
Defpoints
 62
     0
100
AcDbPoint
 10
2582.25404811461
 20
403.2947101512855
 30
0.0
  0
POINT
  5
266D
330
25B1
100
AcDbEntity
  8
Defpoints
 62
     0
100
AcDbPoint
 10
2715.480008308167
 20
403.2947101512855
 30
0.0
  0
ENDBLK
  5
25BC
330
25B1
100
AcDbEntity
  8
0
100
AcDbBlockEnd
  0
BLOCK
  5
2796
330
278B
100
AcDbEntity
  8
0
100
AcDbBlockBegin
  2
*D49
 70
     1
 10
0.0
 20
0.0
 30
0.0
  3
*D49
  1

  0
LINE
  5
284C
330
278B
100
AcDbEntity
  8
寸法
 62
     0
370
    15
100
AcDbLine
 10
2072.14911698151
 20
1498.13209989488
 30
0.0
 11
2118.720961652898
 21
1498.13209989488
 31
0.0
  0
LINE
  5
284D
330
278B
100
AcDbEntity
  8
寸法
 62
     0
370
    15
100
AcDbLine
 10
2072.14911698151
 20
1339.13209989488
 30
0.0
 11
2118.720961652898
 21
1339.13209989488
 31
0.0
  0
LINE
  5
284E
330
278B
100
AcDbEntity
  8
寸法
 62
     0
370
    15
100
AcDbLine
 10
2118.720961652898
 20
1498.13209989488
 30
0.0
 11
2118.720961652898
 21
1465.756758518673
 31
0.0
  0
LINE
  5
284F
330
278B
100
AcDbEntity
  8
寸法
 62
     0
370
    15
100
AcDbLine
 10
2118.720961652898
 20
1339.13209989488
 30
0.0
 11
2118.720961652898
 21
1369.92342518534
 31
0.0
  0
MTEXT
  5
2850
330
278B
100
AcDbEntity
  8
寸法
 62
     0
100
AcDbMText
 10
2118.720961652897
 20
1417.840091852007
 30
0.0
 40
25.0
 41
0.0
 71
     5
 72
     1
  1
158%%C
 11
0.0000000000000001
 21
1.0
 31
0.0
 73
     1
 44
1.0
1001
ACAD
1000
MTEXTBEGIN
1070
    73
1070
     1
1070
    44
1040
1.0
1070
    74
1070
     0
1000
MTEXTEND
  0
INSERT
  5
2851
330
278B
100
AcDbEntity
  8
寸法
 62
     0
370
    15
100
AcDbBlockReference
  2
_DotSmall
 10
2118.720961652898
 20
1498.13209989488
 30
0.0
 41
35.0
 42
35.0
 43
35.0
 50
90.0
  0
INSERT
  5
2852
330
278B
100
AcDbEntity
  8
寸法
 62
     0
370
    15
100
AcDbBlockReference
  2
_DotSmall
 10
2118.720961652898
 20
1339.13209989488
 30
0.0
 41
35.0
 42
35.0
 43
35.0
 50
270.0
  0
POINT
  5
2853
330
278B
100
AcDbEntity
  8
Defpoints
 62
     0
100
AcDbPoint
 10
2007.14911698151
 20
1498.13209989488
 30
0.0
  0
POINT
  5
2854
330
278B
100
AcDbEntity
  8
Defpoints
 62
     0
100
AcDbPoint
 10
2007.14911698151
 20
1339.13209989488
 30
0.0
  0
POINT
  5
2855
330
278B
100
AcDbEntity
  8
Defpoints
 62
     0
100
AcDbPoint
 10
2118.720961652898
 20
1339.13209989488
 30
0.0
  0
ENDBLK
  5
2797
330
278B
100
AcDbEntity
  8
0
100
AcDbBlockEnd
  0
BLOCK
  5
27A3
330
2798
100
AcDbEntity
  8
0
100
AcDbBlockBegin
  2
*D50
 70
     1
 10
0.0
 20
0.0
 30
0.0
  3
*D50
  1

  0
LINE
  5
2856
330
2798
100
AcDbEntity
  8
寸法
 62
     0
370
    15
100
AcDbLine
 10
1989.38850280464
 20
1509.13209989488
 30
0.0
 11
1946.685378215365
 21
1509.13209989488
 31
0.0
  0
LINE
  5
2857
330
2798
100
AcDbEntity
  8
寸法
 62
     0
370
    15
100
AcDbLine
 10
1989.38850280464
 20
1328.13209989488
 30
0.0
 11
1946.685378215365
 21
1328.13209989488
 31
0.0
  0
LINE
  5
2858
330
2798
100
AcDbEntity
  8
寸法
 62
     0
370
    15
100
AcDbLine
 10
1946.685378215365
 20
1509.13209989488
 30
0.0
 11
1946.685378215365
 21
1462.38209989488
 31
0.0
  0
LINE
  5
2859
330
2798
100
AcDbEntity
  8
寸法
 62
     0
370
    15
100
AcDbLine
 10
1946.685378215365
 20
1328.13209989488
 30
0.0
 11
1946.685378215365
 21
1374.88209989488
 31
0.0
  0
MTEXT
  5
285A
330
2798
100
AcDbEntity
  8
寸法
 62
     0
100
AcDbMText
 10
1946.685378215365
 20
1418.63209989488
 30
0.0
 40
25.0
 41
0.0
 71
     5
 72
     1
  1
181%%C
 11
0.0000000000000001
 21
1.0
 31
0.0
 73
     1
 44
1.0
1001
ACAD
1000
MTEXTBEGIN
1070
    73
1070
     1
1070
    44
1040
1.0
1070
    74
1070
     0
1000
MTEXTEND
  0
INSERT
  5
285B
330
2798
100
AcDbEntity
  8
寸法
 62
     0
370
    15
100
AcDbBlockReference
  2
_DotSmall
 10
1946.685378215365
 20
1509.13209989488
 30
0.0
 41
35.0
 42
35.0
 43
35.0
 50
90.0
  0
INSERT
  5
285C
330
2798
100
AcDbEntity
  8
寸法
 62
     0
370
    15
100
AcDbBlockReference
  2
_DotSmall
 10
1946.685378215365
 20
1328.13209989488
 30
0.0
 41
35.0
 42
35.0
 43
35.0
 50
270.0
  0
POINT
  5
285D
330
2798
100
AcDbEntity
  8
Defpoints
 62
     0
100
AcDbPoint
 10
2054.388502804641
 20
1509.13209989488
 30
0.0
  0
POINT
  5
285E
330
2798
100
AcDbEntity
  8
Defpoints
 62
     0
100
AcDbPoint
 10
2054.388502804641
 20
1328.13209989488
 30
0.0
  0
POINT
  5
285F
330
2798
100
AcDbEntity
  8
Defpoints
 62
     0
100
AcDbPoint
 10
1946.685378215365
 20
1328.13209989488
 30
0.0
  0
ENDBLK
  5
27A4
330
2798
100
AcDbEntity
  8
0
100
AcDbBlockEnd
  0
BLOCK
  5
27AD
330
27A5
100
AcDbEntity
  8
0
100
AcDbBlockBegin
  2
*D51
 70
     1
 10
0.0
 20
0.0
 30
0.0
  3
*D51
  1

  0
LINE
  5
2860
330
27A5
100
AcDbEntity
  8
実形
 62
     0
370
    15
100
AcDbLine
 10
1967.935456580462
 20
1620.23209989488
 30
0.0
 11
1967.935456580462
 21
1587.03209989488
 31
0.0
  0
MTEXT
  5
2861
330
27A5
100
AcDbEntity
  8
実形
 62
     0
100
AcDbMText
 10
1996.583890271535
 20
1603.63209989488
 30
0.0
 40
25.0
 41
0.0
 71
     5
 72
     1
  1
33
 11
0.0000000000000001
 21
1.0
 31
0.0
 73
     1
 44
1.0
1001
ACAD
1000
MTEXTBEGIN
1070
    73
1070
     1
1070
    44
1040
1.0
1070
    74
1070
     0
1000
MTEXTEND
  0
INSERT
  5
2862
330
27A5
100
AcDbEntity
  8
実形
 62
     0
370
    15
100
AcDbBlockReference
  2
_DotSmall
 10
1967.935456580462
 20
1620.23209989488
 30
0.0
 41
35.0
 42
35.0
 43
35.0
 50
90.0
  0
INSERT
  5
2863
330
27A5
100
AcDbEntity
  8
実形
 62
     0
370
    15
100
AcDbBlockReference
  2
_DotSmall
 10
1967.935456580462
 20
1587.03209989488
 30
0.0
 41
35.0
 42
35.0
 43
35.0
 50
270.0
  0
POINT
  5
2864
330
27A5
100
AcDbEntity
  8
Defpoints
 62
     0
100
AcDbPoint
 10
1926.14911698151
 20
1620.23209989488
 30
0.0
  0
POINT
  5
2865
330
27A5
100
AcDbEntity
  8
Defpoints
 62
     0
100
AcDbPoint
 10
1926.14911698151
 20
1587.03209989488
 30
0.0
  0
POINT
  5
2866
330
27A5
100
AcDbEntity
  8
Defpoints
 62
     0
100
AcDbPoint
 10
1967.935456580462
 20
1587.03209989488
 30
0.0
  0
ENDBLK
  5
27AE
330
27A5
100
AcDbEntity
  8
0
100
AcDbBlockEnd
  0
BLOCK
  5
27B9
330
27AF
100
AcDbEntity
  8
0
100
AcDbBlockBegin
  2
*D52
 70
     1
 10
0.0
 20
0.0
 30
0.0
  3
*D52
  1

  0
LINE
  5
2867
330
27AF
100
AcDbEntity
  8
実形
 62
     0
370
    15
100
AcDbLine
 10
1791.949116981509
 20
1685.23209989488
 30
0.0
 11
1791.949116981509
 21
1719.541246899665
 31
0.0
  0
LINE
  5
2868
330
27AF
100
AcDbEntity
  8
実形
 62
     0
370
    15
100
AcDbLine
 10
1906.14911698151
 20
1685.23209989488
 30
0.0
 11
1906.14911698151
 21
1719.541246899665
 31
0.0
  0
LINE
  5
2869
330
27AF
100
AcDbEntity
  8
実形
 62
     0
370
    15
100
AcDbLine
 10
1791.949116981509
 20
1719.541246899665
 30
0.0
 11
1906.14911698151
 21
1719.541246899665
 31
0.0
  0
INSERT
  5
286A
330
27AF
100
AcDbEntity
  8
実形
 62
     0
370
    15
100
AcDbBlockReference
  2
_DotSmall
 10
1791.949116981509
 20
1719.541246899665
 30
0.0
 41
35.0
 42
35.0
 43
35.0
 50
180.0
  0
INSERT
  5
286B
330
27AF
100
AcDbEntity
  8
実形
 62
     0
370
    15
100
AcDbBlockReference
  2
_DotSmall
 10
1906.14911698151
 20
1719.541246899665
 30
0.0
 41
35.0
 42
35.0
 43
35.0
  0
MTEXT
  5
286C
330
27AF
100
AcDbEntity
  8
実形
 62
     0
100
AcDbMText
 10
1849.049116981509
 20
1738.291246899665
 30
0.0
 40
25.0
 41
0.0
 71
     5
 72
     1
  1
114.2
 73
     1
 44
1.0
1001
ACAD
1000
MTEXTBEGIN
1070
    73
1070
     1
1070
    44
1040
1.0
1070
    74
1070
     0
1000
MTEXTEND
  0
POINT
  5
286D
330
27AF
100
AcDbEntity
  8
Defpoints
 62
     0
100
AcDbPoint
 10
1791.949116981509
 20
1620.23209989488
 30
0.0
  0
POINT
  5
286E
330
27AF
100
AcDbEntity
  8
Defpoints
 62
     0
100
AcDbPoint
 10
1906.14911698151
 20
1620.23209989488
 30
0.0
  0
POINT
  5
286F
330
27AF
100
AcDbEntity
  8
Defpoints
 62
     0
100
AcDbPoint
 10
1906.14911698151
 20
1719.541246899665
 30
0.0
  0
ENDBLK
  5
27BA
330
27AF
100
AcDbEntity
  8
0
100
AcDbBlockEnd
  0
BLOCK
  5
27C5
330
27BB
100
AcDbEntity
  8
0
100
AcDbBlockBegin
  2
*D53
 70
     1
 10
0.0
 20
0.0
 30
0.0
  3
*D53
  1

  0
LINE
  5
2870
330
27BB
100
AcDbEntity
  8
実形
 62
     0
370
    15
100
AcDbLine
 10
1906.14911698151
 20
1685.23209989488
 30
0.0
 11
1906.14911698151
 21
1719.541246899665
 31
0.0
  0
LINE
  5
2871
330
27BB
100
AcDbEntity
  8
実形
 62
     0
370
    15
100
AcDbLine
 10
1926.14911698151
 20
1685.23209989488
 30
0.0
 11
1926.14911698151
 21
1719.541246899665
 31
0.0
  0
LINE
  5
2872
330
27BB
100
AcDbEntity
  8
実形
 62
     0
370
    15
100
AcDbLine
 10
1906.14911698151
 20
1719.541246899665
 30
0.0
 11
1926.14911698151
 21
1719.541246899665
 31
0.0
  0
MTEXT
  5
2873
330
27BB
100
AcDbEntity
  8
実形
 62
     0
100
AcDbMText
 10
1953.108159286323
 20
1723.202956427704
 30
0.0
 40
25.0
 41
0.0
 71
     5
 72
     1
  1
20
 73
     1
 44
1.0
1001
ACAD
1000
MTEXTBEGIN
1070
    73
1070
     1
1070
    44
1040
1.0
1070
    74
1070
     0
1000
MTEXTEND
  0
INSERT
  5
2874
330
27BB
100
AcDbEntity
  8
実形
 62
     0
370
    15
100
AcDbBlockReference
  2
_DotSmall
 10
1906.14911698151
 20
1719.541246899665
 30
0.0
 41
35.0
 42
35.0
 43
35.0
 50
180.0
  0
INSERT
  5
2875
330
27BB
100
AcDbEntity
  8
実形
 62
     0
370
    15
100
AcDbBlockReference
  2
_DotSmall
 10
1926.14911698151
 20
1719.541246899665
 30
0.0
 41
35.0
 42
35.0
 43
35.0
  0
POINT
  5
2876
330
27BB
100
AcDbEntity
  8
Defpoints
 62
     0
100
AcDbPoint
 10
1906.14911698151
 20
1620.23209989488
 30
0.0
  0
POINT
  5
2877
330
27BB
100
AcDbEntity
  8
Defpoints
 62
     0
100
AcDbPoint
 10
1926.14911698151
 20
1620.23209989488
 30
0.0
  0
POINT
  5
2878
330
27BB
100
AcDbEntity
  8
Defpoints
 62
     0
100
AcDbPoint
 10
1926.14911698151
 20
1719.541246899665
 30
0.0
  0
ENDBLK
  5
27C6
330
27BB
100
AcDbEntity
  8
0
100
AcDbBlockEnd
  0
BLOCK
  5
27D3
330
27C7
100
AcDbEntity
  8
0
100
AcDbBlockBegin
  2
*D54
 70
     1
 10
0.0
 20
0.0
 30
0.0
  3
*D54
  1

  0
LINE
  5
2879
330
27C7
100
AcDbEntity
  8
実形
 62
     0
370
    15
100
AcDbLine
 10
2000.14911698151
 20
1060.720725531923
 30
0.0
 11
2000.14911698151
 21
1009.213870944212
 31
0.0
  0
LINE
  5
287A
330
27C7
100
AcDbEntity
  8
実形
 62
     0
370
    15
100
AcDbLine
 10
2007.149116981511
 20
1060.720725531923
 30
0.0
 11
2007.149116981511
 21
1009.213870944212
 31
0.0
  0
LINE
  5
287B
330
27C7
100
AcDbEntity
  8
実形
 62
     0
370
    15
100
AcDbLine
 10
2000.14911698151
 20
1009.213870944212
 30
0.0
 11
1965.14911698151
 21
1009.213870944212
 31
0.0
  0
LINE
  5
287C
330
27C7
100
AcDbEntity
  8
実形
 62
     0
370
    15
100
AcDbLine
 10
2007.149116981511
 20
1009.213870944212
 30
0.0
 11
2042.149116981511
 21
1009.213870944212
 31
0.0
  0
MTEXT
  5
287D
330
27C7
100
AcDbEntity
  8
実形
 62
     0
100
AcDbMText
 10
2058.551160517128
 20
1020.150765421663
 30
0.0
 40
25.0
 41
0.0
 71
     5
 72
     1
  1
7
 73
     1
 44
1.0
1001
ACAD
1000
MTEXTBEGIN
1070
    73
1070
     1
1070
    44
1040
1.0
1070
    74
1070
     0
1000
MTEXTEND
  0
LINE
  5
287E
330
27C7
100
AcDbEntity
  8
実形
 62
     0
370
    15
100
AcDbLine
 10
2000.14911698151
 20
1009.213870944212
 30
0.0
 11
2007.149116981511
 21
1009.213870944212
 31
0.0
  0
INSERT
  5
287F
330
27C7
100
AcDbEntity
  8
実形
 62
     0
370
    15
100
AcDbBlockReference
  2
_DotSmall
 10
2000.14911698151
 20
1009.213870944212
 30
0.0
 41
35.0
 42
35.0
 43
35.0
  0
INSERT
  5
2880
330
27C7
100
AcDbEntity
  8
実形
 62
     0
370
    15
100
AcDbBlockReference
  2
_DotSmall
 10
2007.149116981511
 20
1009.213870944212
 30
0.0
 41
35.0
 42
35.0
 43
35.0
 50
180.0
  0
POINT
  5
2881
330
27C7
100
AcDbEntity
  8
Defpoints
 62
     0
100
AcDbPoint
 10
2000.14911698151
 20
1125.720725531923
 30
0.0
  0
POINT
  5
2882
330
27C7
100
AcDbEntity
  8
Defpoints
 62
     0
100
AcDbPoint
 10
2007.149116981511
 20
1125.720725531923
 30
0.0
  0
POINT
  5
2883
330
27C7
100
AcDbEntity
  8
Defpoints
 62
     0
100
AcDbPoint
 10
2007.149116981511
 20
1009.213870944212
 30
0.0
  0
ENDBLK
  5
27D4
330
27C7
100
AcDbEntity
  8
0
100
AcDbBlockEnd
  0
BLOCK
  5
27DF
330
27D5
100
AcDbEntity
  8
0
100
AcDbBlockBegin
  2
*D55
 70
     1
 10
0.0
 20
0.0
 30
0.0
  3
*D55
  1

  0
LINE
  5
2884
330
27D5
100
AcDbEntity
  8
実形
 62
     0
370
    15
100
AcDbLine
 10
1809.94911698151
 20
1060.720725531923
 30
0.0
 11
1809.94911698151
 21
966.0470255649533
 31
0.0
  0
LINE
  5
2885
330
27D5
100
AcDbEntity
  8
実形
 62
     0
370
    15
100
AcDbLine
 10
2000.14911698151
 20
1060.720725531924
 30
0.0
 11
2000.14911698151
 21
966.0470255649533
 31
0.0
  0
LINE
  5
2886
330
27D5
100
AcDbEntity
  8
実形
 62
     0
370
    15
100
AcDbLine
 10
1809.94911698151
 20
966.0470255649533
 30
0.0
 11
2000.14911698151
 21
966.0470255649533
 31
0.0
  0
INSERT
  5
2887
330
27D5
100
AcDbEntity
  8
実形
 62
     0
370
    15
100
AcDbBlockReference
  2
_DotSmall
 10
1809.94911698151
 20
966.0470255649533
 30
0.0
 41
35.0
 42
35.0
 43
35.0
 50
180.0
  0
INSERT
  5
2888
330
27D5
100
AcDbEntity
  8
実形
 62
     0
370
    15
100
AcDbBlockReference
  2
_DotSmall
 10
2000.14911698151
 20
966.0470255649533
 30
0.0
 41
35.0
 42
35.0
 43
35.0
  0
MTEXT
  5
2889
330
27D5
100
AcDbEntity
  8
実形
 62
     0
100
AcDbMText
 10
1905.04911698151
 20
984.7970255649533
 30
0.0
 40
25.0
 41
0.0
 71
     5
 72
     1
  1
190.2
 73
     1
 44
1.0
1001
ACAD
1000
MTEXTBEGIN
1070
    73
1070
     1
1070
    44
1040
1.0
1070
    74
1070
     0
1000
MTEXTEND
  0
POINT
  5
288A
330
27D5
100
AcDbEntity
  8
Defpoints
 62
     0
100
AcDbPoint
 10
1809.94911698151
 20
1125.720725531923
 30
0.0
  0
POINT
  5
288B
330
27D5
100
AcDbEntity
  8
Defpoints
 62
     0
100
AcDbPoint
 10
2000.14911698151
 20
1125.720725531924
 30
0.0
  0
POINT
  5
288C
330
27D5
100
AcDbEntity
  8
Defpoints
 62
     0
100
AcDbPoint
 10
2000.14911698151
 20
966.0470255649533
 30
0.0
  0
ENDBLK
  5
27E0
330
27D5
100
AcDbEntity
  8
0
100
AcDbBlockEnd
  0
BLOCK
  5
27EB
330
27E1
100
AcDbEntity
  8
0
100
AcDbBlockBegin
  2
*D56
 70
     1
 10
0.0
 20
0.0
 30
0.0
  3
*D56
  1

  0
LINE
  5
288D
330
27E1
100
AcDbEntity
  8
実形
 62
     0
370
    15
100
AcDbLine
 10
1791.94911698151
 20
1060.720725531923
 30
0.0
 11
1791.94911698151
 21
966.0470255649533
 31
0.0
  0
LINE
  5
288E
330
27E1
100
AcDbEntity
  8
実形
 62
     0
370
    15
100
AcDbLine
 10
2000.14911698151
 20
1060.720725531923
 30
0.0
 11
2000.14911698151
 21
966.0470255649533
 31
0.0
  0
LINE
  5
288F
330
27E1
100
AcDbEntity
  8
実形
 62
     0
370
    15
100
AcDbLine
 10
1791.94911698151
 20
966.0470255649533
 30
0.0
 11
2000.14911698151
 21
966.0470255649533
 31
0.0
  0
MTEXT
  5
2890
330
27E1
100
AcDbEntity
  8
実形
 62
     0
100
AcDbMText
 10
1756.460076691675
 20
984.7970255649533
 30
0.0
 40
25.0
 41
0.0
 71
     5
 72
     1
  1
18
 73
     1
 44
1.0
1001
ACAD
1000
MTEXTBEGIN
1070
    73
1070
     1
1070
    44
1040
1.0
1070
    74
1070
     0
1000
MTEXTEND
  0
INSERT
  5
2891
330
27E1
100
AcDbEntity
  8
実形
 62
     0
370
    15
100
AcDbBlockReference
  2
_DotSmall
 10
1791.94911698151
 20
966.0470255649533
 30
0.0
 41
35.0
 42
35.0
 43
35.0
 50
180.0
  0
INSERT
  5
2892
330
27E1
100
AcDbEntity
  8
実形
 62
     0
370
    15
100
AcDbBlockReference
  2
_DotSmall
 10
2000.14911698151
 20
966.0470255649533
 30
0.0
 41
35.0
 42
35.0
 43
35.0
  0
POINT
  5
2893
330
27E1
100
AcDbEntity
  8
Defpoints
 62
     0
100
AcDbPoint
 10
1791.94911698151
 20
1125.720725531923
 30
0.0
  0
POINT
  5
2894
330
27E1
100
AcDbEntity
  8
Defpoints
 62
     0
100
AcDbPoint
 10
2000.14911698151
 20
1125.720725531923
 30
0.0
  0
POINT
  5
2895
330
27E1
100
AcDbEntity
  8
Defpoints
 62
     0
100
AcDbPoint
 10
2000.14911698151
 20
966.0470255649533
 30
0.0
  0
ENDBLK
  5
27EC
330
27E1
100
AcDbEntity
  8
0
100
AcDbBlockEnd
  0
BLOCK
  5
27F7
330
27ED
100
AcDbEntity
  8
0
100
AcDbBlockBegin
  2
*D57
 70
     1
 10
0.0
 20
0.0
 30
0.0
  3
*D57
  1

  0
LINE
  5
2896
330
27ED
100
AcDbEntity
  8
実形
 62
     0
370
    15
100
AcDbLine
 10
1791.94911698151
 20
995.7207255319236
 30
0.0
 11
1791.94911698151
 21
918.0288402494179
 31
0.0
  0
LINE
  5
2897
330
27ED
100
AcDbEntity
  8
実形
 62
     0
370
    15
100
AcDbLine
 10
2000.14911698151
 20
995.7207255319232
 30
0.0
 11
2000.14911698151
 21
918.0288402494179
 31
0.0
  0
LINE
  5
2898
330
27ED
100
AcDbEntity
  8
実形
 62
     0
370
    15
100
AcDbLine
 10
1791.94911698151
 20
918.0288402494179
 30
0.0
 11
2000.14911698151
 21
918.0288402494179
 31
0.0
  0
INSERT
  5
2899
330
27ED
100
AcDbEntity
  8
実形
 62
     0
370
    15
100
AcDbBlockReference
  2
_DotSmall
 10
1791.94911698151
 20
918.0288402494179
 30
0.0
 41
35.0
 42
35.0
 43
35.0
 50
180.0
  0
INSERT
  5
289A
330
27ED
100
AcDbEntity
  8
実形
 62
     0
370
    15
100
AcDbBlockReference
  2
_DotSmall
 10
2000.14911698151
 20
918.0288402494179
 30
0.0
 41
35.0
 42
35.0
 43
35.0
  0
MTEXT
  5
289B
330
27ED
100
AcDbEntity
  8
実形
 62
     0
100
AcDbMText
 10
1896.04911698151
 20
936.7788402494179
 30
0.0
 40
25.0
 41
0.0
 71
     5
 72
     1
  1
208.2
 73
     1
 44
1.0
1001
ACAD
1000
MTEXTBEGIN
1070
    73
1070
     1
1070
    44
1040
1.0
1070
    74
1070
     0
1000
MTEXTEND
  0
POINT
  5
289C
330
27ED
100
AcDbEntity
  8
Defpoints
 62
     0
100
AcDbPoint
 10
1791.94911698151
 20
1060.720725531923
 30
0.0
  0
POINT
  5
289D
330
27ED
100
AcDbEntity
  8
Defpoints
 62
     0
100
AcDbPoint
 10
2000.14911698151
 20
1060.720725531923
 30
0.0
  0
POINT
  5
289E
330
27ED
100
AcDbEntity
  8
Defpoints
 62
     0
100
AcDbPoint
 10
2000.14911698151
 20
918.0288402494179
 30
0.0
  0
ENDBLK
  5
27F8
330
27ED
100
AcDbEntity
  8
0
100
AcDbBlockEnd
  0
BLOCK
  5
2A10
330
2A06
100
AcDbEntity
  8
0
100
AcDbBlockBegin
  2
*D58
 70
     1
 10
0.0
 20
0.0
 30
0.0
  3
*D58
  1

  0
LINE
  5
2AA1
330
2A06
100
AcDbEntity
  8
実形
 62
     0
370
    18
100
AcDbLine
 10
407.0322791688209
 20
815.249312304499
 30
0.0
 11
329.0325010601059
 21
815.249312304499
 31
0.0
  0
LINE
  5
2AA2
330
2A06
100
AcDbEntity
  8
実形
 62
     0
370
    18
100
AcDbLine
 10
408.0110568099967
 20
797.2493123044991
 30
0.0
 11
329.0325010601059
 21
797.2493123044991
 31
0.0
  0
LINE
  5
2AA3
330
2A06
100
AcDbEntity
  8
実形
 62
     0
370
    18
100
AcDbLine
 10
329.0325010601059
 20
815.249312304499
 30
0.0
 11
329.0325010601059
 21
797.2493123044991
 31
0.0
  0
MTEXT
  5
2AA4
330
2A06
100
AcDbEntity
  8
実形
 62
     0
100
AcDbMText
 10
248.8304203927523
 20
866.7957916495581
 30
0.0
 40
25.0
 41
0.0
 71
     5
 72
     1
  1
18
 11
0.0000000000000001
 21
1.0
 31
0.0
 73
     1
 44
1.0
1001
ACAD
1000
MTEXTBEGIN
1070
    73
1070
     1
1070
    44
1040
1.0
1070
    74
1070
     0
1000
MTEXTEND
  0
INSERT
  5
2AA5
330
2A06
100
AcDbEntity
  8
実形
 62
     0
370
    18
100
AcDbBlockReference
  2
_DotSmall
 10
329.0325010601059
 20
815.249312304499
 30
0.0
 41
35.0
 42
35.0
 43
35.0
 50
90.0
  0
INSERT
  5
2AA6
330
2A06
100
AcDbEntity
  8
実形
 62
     0
370
    18
100
AcDbBlockReference
  2
_DotSmall
 10
329.0325010601059
 20
797.2493123044991
 30
0.0
 41
35.0
 42
35.0
 43
35.0
 50
270.0
  0
POINT
  5
2AA7
330
2A06
100
AcDbEntity
  8
Defpoints
 62
     0
100
AcDbPoint
 10
472.0322791688208
 20
815.249312304499
 30
0.0
  0
POINT
  5
2AA8
330
2A06
100
AcDbEntity
  8
Defpoints
 62
     0
100
AcDbPoint
 10
473.0110568099966
 20
797.2493123044991
 30
0.0
  0
POINT
  5
2AA9
330
2A06
100
AcDbEntity
  8
Defpoints
 62
     0
100
AcDbPoint
 10
329.0325010601059
 20
797.2493123044991
 30
0.0
  0
ENDBLK
  5
2A11
330
2A06
100
AcDbEntity
  8
0
100
AcDbBlockEnd
  0
BLOCK
  5
2A1E
330
2A12
100
AcDbEntity
  8
0
100
AcDbBlockBegin
  2
*D59
 70
     1
 10
0.0
 20
0.0
 30
0.0
  3
*D59
  1

  0
LINE
  5
2A96
330
2A12
100
AcDbEntity
  8
実形
 62
     0
370
    18
100
AcDbLine
 10
408.0110568099967
 20
797.2493123044991
 30
0.0
 11
329.0325010601059
 21
797.2493123044991
 31
0.0
  0
LINE
  5
2A97
330
2A12
100
AcDbEntity
  8
実形
 62
     0
370
    18
100
AcDbLine
 10
408.0110568099967
 20
792.0493123044991
 30
0.0
 11
329.0325010601059
 21
792.0493123044991
 31
0.0
  0
LINE
  5
2A98
330
2A12
100
AcDbEntity
  8
実形
 62
     0
370
    18
100
AcDbLine
 10
329.0325010601059
 20
797.2493123044991
 30
0.0
 11
329.0325010601059
 21
832.249312304499
 31
0.0
  0
LINE
  5
2A99
330
2A12
100
AcDbEntity
  8
実形
 62
     0
370
    18
100
AcDbLine
 10
329.0325010601059
 20
792.0493123044991
 30
0.0
 11
329.0325010601059
 21
757.0493123044991
 31
0.0
  0
MTEXT
  5
2A9A
330
2A12
100
AcDbEntity
  8
実形
 62
     0
100
AcDbMText
 10
251.6052708141319
 20
768.9890298485571
 30
0.0
 40
25.0
 41
0.0
 71
     5
 72
     1
  1
5.2
 11
0.0000000000000001
 21
1.0
 31
0.0
 73
     1
 44
1.0
1001
ACAD
1000
MTEXTBEGIN
1070
    73
1070
     1
1070
    44
1040
1.0
1070
    74
1070
     0
1000
MTEXTEND
  0
LINE
  5
2A9B
330
2A12
100
AcDbEntity
  8
実形
 62
     0
370
    18
100
AcDbLine
 10
329.0325010601059
 20
797.2493123044991
 30
0.0
 11
329.0325010601059
 21
792.0493123044991
 31
0.0
  0
INSERT
  5
2A9C
330
2A12
100
AcDbEntity
  8
実形
 62
     0
370
    18
100
AcDbBlockReference
  2
_DotSmall
 10
329.0325010601059
 20
797.2493123044991
 30
0.0
 41
35.0
 42
35.0
 43
35.0
 50
270.0
  0
INSERT
  5
2A9D
330
2A12
100
AcDbEntity
  8
実形
 62
     0
370
    18
100
AcDbBlockReference
  2
_DotSmall
 10
329.0325010601059
 20
792.0493123044991
 30
0.0
 41
35.0
 42
35.0
 43
35.0
 50
90.0
  0
POINT
  5
2A9E
330
2A12
100
AcDbEntity
  8
Defpoints
 62
     0
100
AcDbPoint
 10
473.0110568099966
 20
797.2493123044991
 30
0.0
  0
POINT
  5
2A9F
330
2A12
100
AcDbEntity
  8
Defpoints
 62
     0
100
AcDbPoint
 10
473.0110568099966
 20
792.0493123044991
 30
0.0
  0
POINT
  5
2AA0
330
2A12
100
AcDbEntity
  8
Defpoints
 62
     0
100
AcDbPoint
 10
329.0325010601059
 20
792.0493123044991
 30
0.0
  0
ENDBLK
  5
2A1F
330
2A12
100
AcDbEntity
  8
0
100
AcDbBlockEnd
  0
BLOCK
  5
2A2A
330
2A20
100
AcDbEntity
  8
0
100
AcDbBlockBegin
  2
*D60
 70
     1
 10
0.0
 20
0.0
 30
0.0
  3
*D60
  1

  0
LINE
  5
2A8D
330
2A20
100
AcDbEntity
  8
実形
 62
     0
370
    18
100
AcDbLine
 10
408.0110568099967
 20
792.0493123044991
 30
0.0
 11
329.0325010601059
 21
792.0493123044991
 31
0.0
  0
LINE
  5
2A8E
330
2A20
100
AcDbEntity
  8
実形
 62
     0
370
    18
100
AcDbLine
 10
352.9445490352495
 20
607.049312304499
 30
0.0
 11
329.0325010601058
 21
607.049312304499
 31
0.0
  0
LINE
  5
2A8F
330
2A20
100
AcDbEntity
  8
実形
 62
     0
370
    18
100
AcDbLine
 10
329.0325010601059
 20
792.0493123044991
 30
0.0
 11
329.0325010601058
 21
607.049312304499
 31
0.0
  0
MTEXT
  5
2A90
330
2A20
100
AcDbEntity
  8
実形
 62
     0
100
AcDbMText
 10
303.1586747155756
 20
687.8120641887509
 30
0.0
 40
25.0
 41
0.0
 71
     5
 72
     1
  1
185
 11
0.0000000000000001
 21
1.0
 31
0.0
 73
     1
 44
1.0
1001
ACAD
1000
MTEXTBEGIN
1070
    73
1070
     1
1070
    44
1040
1.0
1070
    74
1070
     0
1000
MTEXTEND
  0
INSERT
  5
2A91
330
2A20
100
AcDbEntity
  8
実形
 62
     0
370
    18
100
AcDbBlockReference
  2
_DotSmall
 10
329.0325010601059
 20
792.0493123044991
 30
0.0
 41
35.0
 42
35.0
 43
35.0
 50
90.0
  0
INSERT
  5
2A92
330
2A20
100
AcDbEntity
  8
実形
 62
     0
370
    18
100
AcDbBlockReference
  2
_DotSmall
 10
329.0325010601058
 20
607.049312304499
 30
0.0
 41
35.0
 42
35.0
 43
35.0
 50
270.0
  0
POINT
  5
2A93
330
2A20
100
AcDbEntity
  8
Defpoints
 62
     0
100
AcDbPoint
 10
473.0110568099966
 20
792.0493123044991
 30
0.0
  0
POINT
  5
2A94
330
2A20
100
AcDbEntity
  8
Defpoints
 62
     0
100
AcDbPoint
 10
417.9445490352494
 20
607.049312304499
 30
0.0
  0
POINT
  5
2A95
330
2A20
100
AcDbEntity
  8
Defpoints
 62
     0
100
AcDbPoint
 10
329.0325010601058
 20
607.049312304499
 30
0.0
  0
ENDBLK
  5
2A2B
330
2A20
100
AcDbEntity
  8
0
100
AcDbBlockEnd
  0
BLOCK
  5
2A36
330
2A2C
100
AcDbEntity
  8
0
100
AcDbBlockBegin
  2
*D61
 70
     1
 10
0.0
 20
0.0
 30
0.0
  3
*D61
  1

  0
LINE
  5
2A84
330
2A2C
100
AcDbEntity
  8
実形
 62
     0
370
    18
100
AcDbLine
 10
407.0322791688209
 20
815.249312304499
 30
0.0
 11
218.4106026094646
 21
815.2493123044992
 31
0.0
  0
LINE
  5
2A85
330
2A2C
100
AcDbEntity
  8
実形
 62
     0
370
    18
100
AcDbLine
 10
352.9445490352495
 20
607.049312304499
 30
0.0
 11
218.4106026094645
 21
607.0493123044991
 31
0.0
  0
LINE
  5
2A86
330
2A2C
100
AcDbEntity
  8
実形
 62
     0
370
    18
100
AcDbLine
 10
218.4106026094646
 20
815.2493123044992
 30
0.0
 11
218.4106026094645
 21
607.0493123044991
 31
0.0
  0
INSERT
  5
2A87
330
2A2C
100
AcDbEntity
  8
実形
 62
     0
370
    18
100
AcDbBlockReference
  2
_DotSmall
 10
218.4106026094646
 20
815.2493123044992
 30
0.0
 41
35.0
 42
35.0
 43
35.0
 50
90.0
  0
INSERT
  5
2A88
330
2A2C
100
AcDbEntity
  8
実形
 62
     0
370
    18
100
AcDbBlockReference
  2
_DotSmall
 10
218.4106026094645
 20
607.0493123044991
 30
0.0
 41
35.0
 42
35.0
 43
35.0
 50
270.0
  0
MTEXT
  5
2A89
330
2A2C
100
AcDbEntity
  8
実形
 62
     0
100
AcDbMText
 10
199.6606026094644
 20
711.1493123044992
 30
0.0
 40
25.0
 41
0.0
 71
     5
 72
     1
  1
208.2
 11
0.0000000000000001
 21
1.0
 31
0.0
 73
     1
 44
1.0
1001
ACAD
1000
MTEXTBEGIN
1070
    73
1070
     1
1070
    44
1040
1.0
1070
    74
1070
     0
1000
MTEXTEND
  0
POINT
  5
2A8A
330
2A2C
100
AcDbEntity
  8
Defpoints
 62
     0
100
AcDbPoint
 10
472.0322791688208
 20
815.249312304499
 30
0.0
  0
POINT
  5
2A8B
330
2A2C
100
AcDbEntity
  8
Defpoints
 62
     0
100
AcDbPoint
 10
417.9445490352494
 20
607.049312304499
 30
0.0
  0
POINT
  5
2A8C
330
2A2C
100
AcDbEntity
  8
Defpoints
 62
     0
100
AcDbPoint
 10
218.4106026094645
 20
607.0493123044991
 30
0.0
  0
ENDBLK
  5
2A37
330
2A2C
100
AcDbEntity
  8
0
100
AcDbBlockEnd
  0
BLOCK
  5
2A44
330
2A38
100
AcDbEntity
  8
0
100
AcDbBlockBegin
  2
*D62
 70
     1
 10
0.0
 20
0.0
 30
0.0
  3
*D62
  1

  0
LINE
  5
2A6C
330
2A38
100
AcDbEntity
  8
実形
 62
     0
370
    18
100
AcDbLine
 10
409.1044546192292
 20
597.049312304499
 30
0.0
 11
329.0325010601058
 21
597.049312304499
 31
0.0
  0
LINE
  5
2A6D
330
2A38
100
AcDbEntity
  8
実形
 62
     0
370
    18
100
AcDbLine
 10
409.1044546192292
 20
607.049312304499
 30
0.0
 11
329.0325010601058
 21
607.049312304499
 31
0.0
  0
LINE
  5
2A6E
330
2A38
100
AcDbEntity
  8
実形
 62
     0
370
    18
100
AcDbLine
 10
329.0325010601058
 20
597.049312304499
 30
0.0
 11
329.0325010601058
 21
562.049312304499
 31
0.0
  0
LINE
  5
2A6F
330
2A38
100
AcDbEntity
  8
実形
 62
     0
370
    18
100
AcDbLine
 10
329.0325010601058
 20
607.049312304499
 30
0.0
 11
329.0325010601059
 21
642.049312304499
 31
0.0
  0
MTEXT
  5
2A70
330
2A38
100
AcDbEntity
  8
実形
 62
     0
100
AcDbMText
 10
294.0325010601057
 20
580.7115286402623
 30
0.0
 40
25.0
 41
0.0
 71
     5
 72
     1
  1
7
 11
0.0000000000000001
 21
1.0
 31
0.0
 73
     1
 44
1.0
1001
ACAD
1000
MTEXTBEGIN
1070
    73
1070
     1
1070
    44
1040
1.0
1070
    74
1070
     0
1000
MTEXTEND
  0
LINE
  5
2A71
330
2A38
100
AcDbEntity
  8
実形
 62
     0
370
    18
100
AcDbLine
 10
329.0325010601058
 20
597.049312304499
 30
0.0
 11
329.0325010601058
 21
607.049312304499
 31
0.0
  0
INSERT
  5
2A72
330
2A38
100
AcDbEntity
  8
実形
 62
     0
370
    18
100
AcDbBlockReference
  2
_DotSmall
 10
329.0325010601058
 20
597.049312304499
 30
0.0
 41
35.0
 42
35.0
 43
35.0
 50
90.0
  0
INSERT
  5
2A73
330
2A38
100
AcDbEntity
  8
実形
 62
     0
370
    18
100
AcDbBlockReference
  2
_DotSmall
 10
329.0325010601058
 20
607.049312304499
 30
0.0
 41
35.0
 42
35.0
 43
35.0
 50
270.0
  0
POINT
  5
2A74
330
2A38
100
AcDbEntity
  8
Defpoints
 62
     0
100
AcDbPoint
 10
474.1044546192291
 20
597.049312304499
 30
0.0
  0
POINT
  5
2A75
330
2A38
100
AcDbEntity
  8
Defpoints
 62
     0
100
AcDbPoint
 10
474.1044546192292
 20
607.049312304499
 30
0.0
  0
POINT
  5
2A76
330
2A38
100
AcDbEntity
  8
Defpoints
 62
     0
100
AcDbPoint
 10
329.0325010601058
 20
607.049312304499
 30
0.0
  0
ENDBLK
  5
2A45
330
2A38
100
AcDbEntity
  8
0
100
AcDbBlockEnd
  0
ENDSEC
  0
SECTION
  2
ENTITIES
  0
LINE
  5
73
330
1F
100
AcDbEntity
  8
0
100
AcDbLine
 10
104.0
 20
4.0
 30
0.0
 11
278.0
 21
4.0
 31
0.0
  0
LINE
  5
9C
330
1F
100
AcDbEntity
  8
補助
100
AcDbLine
 10
104.0
 20
4.0
 30
0.0
 11
2784.0
 21
4.0
 31
0.0
  0
LINE
  5
A0
330
1F
100
AcDbEntity
  8
補助
100
AcDbLine
 10
2784.0
 20
2024.0
 30
0.0
 11
104.0
 21
2024.0
 31
0.0
  0
LINE
  5
A5
330
1F
100
AcDbEntity
  8
補助
100
AcDbLine
 10
2784.0
 20
4.0
 30
0.0
 11
2784.0
 21
2024.0
 31
0.0
  0
LINE
  5
2DD
330
1F
100
AcDbEntity
  8
実形
100
AcDbLine
 10
538.7543291184011
 20
1123.63209989488
 30
0.0
 11
1368.754329118401
 21
1123.63209989488
 31
0.0
  0
LINE
  5
2E0
330
1F
100
AcDbEntity
  8
実形
100
AcDbLine
 10
538.7543291184011
 20
1643.63209989488
 30
0.0
 11
1368.754329118401
 21
1643.63209989488
 31
0.0
  0
CIRCLE
  5
2E8
330
1F
100
AcDbEntity
  8
実形
100
AcDbCircle
 10
628.754329118401
 20
1418.63209989488
 30
0.0
 40
90.5
  0
CIRCLE
  5
2E9
330
1F
100
AcDbEntity
  8
実形
100
AcDbCircle
 10
628.754329118401
 20
1418.63209989488
 30
0.0
 40
79.5
  0
LINE
  5
2F1
330
1F
100
AcDbEntity
  8
実形
100
AcDbLine
 10
478.754329118401
 20
1441.690567721056
 30
0.0
 11
478.754329118401
 21
1245.573632068705
 31
0.0
  0
LINE
  5
2F2
330
1F
100
AcDbEntity
  8
実形
100
AcDbLine
 10
1428.754329118401
 20
1441.690567721056
 30
0.0
 11
1428.754329118401
 21
1245.573632068705
 31
0.0
  0
LINE
  5
2FD
330
1F
100
AcDbEntity
  8
実形
100
AcDbLine
 10
478.754329118401
 20
1503.63209989488
 30
0.0
 11
478.754329118401
 21
1183.63209989488
 31
0.0
  0
LINE
  5
2FE
330
1F
100
AcDbEntity
  8
実形
100
AcDbLine
 10
538.7543291184011
 20
1563.63209989488
 30
0.0
 11
1368.754329118401
 21
1563.63209989488
 31
0.0
  0
LINE
  5
2FF
330
1F
100
AcDbEntity
  8
実形
100
AcDbLine
 10
1428.754329118401
 20
1503.63209989488
 30
0.0
 11
1428.754329118401
 21
1183.63209989488
 31
0.0
  0
ARC
  5
300
330
1F
100
AcDbEntity
  8
実形
100
AcDbCircle
 10
538.7543291184011
 20
1503.63209989488
 30
0.0
 40
60.0
100
AcDbArc
 50
90.0
 51
180.0
  0
ARC
  5
301
330
1F
100
AcDbEntity
  8
実形
100
AcDbCircle
 10
538.7543291184011
 20
1183.63209989488
 30
0.0
 40
60.0
100
AcDbArc
 50
180.0
 51
270.0
  0
ARC
  5
302
330
1F
100
AcDbEntity
  8
実形
100
AcDbCircle
 10
1368.754329118401
 20
1183.63209989488
 30
0.0
 40
60.0
100
AcDbArc
 50
270.0
 51
0.0
  0
ARC
  5
303
330
1F
100
AcDbEntity
  8
実形
100
AcDbCircle
 10
1368.754329118401
 20
1503.63209989488
 30
0.0
 40
60.0
100
AcDbArc
 50
0.0
 51
90.0
  0
LINE
  5
306
330
1F
100
AcDbEntity
  8
実形
100
AcDbLine
 10
478.754329118401
 20
1583.63209989488
 30
0.0
 11
478.754329118401
 21
1245.573632068705
 31
0.0
  0
LINE
  5
307
330
1F
100
AcDbEntity
  8
実形
100
AcDbLine
 10
1428.754329118401
 20
1583.63209989488
 30
0.0
 11
1428.754329118401
 21
1245.573632068705
 31
0.0
  0
ARC
  5
308
330
1F
100
AcDbEntity
  8
実形
100
AcDbCircle
 10
538.7543291184011
 20
1583.63209989488
 30
0.0
 40
60.0
100
AcDbArc
 50
90.0
 51
180.0
  0
ARC
  5
309
330
1F
100
AcDbEntity
  8
実形
100
AcDbCircle
 10
1368.754329118401
 20
1583.63209989488
 30
0.0
 40
60.0
100
AcDbArc
 50
0.0
 51
90.0
  0
LINE
  5
315
330
1F
100
AcDbEntity
  8
センター
100
AcDbLine
 10
628.754329118401
 20
1552.760223208219
 30
0.0
 11
628.754329118401
 21
1263.91203044393
 31
0.0
  0
LINE
  5
316
330
1F
100
AcDbEntity
  8
センター
100
AcDbLine
 10
492.1860150881066
 20
1418.63209989488
 30
0.0
 11
765.3608870061134
 21
1418.63209989488
 31
0.0
  0
LINE
  5
319
330
1F
100
AcDbEntity
  8
実形
100
AcDbLine
 10
478.754329118401
 20
797.249312304499
 30
0.0
 11
478.754329118401
 21
637.0493123044988
 31
0.0
  0
LINE
  5
31A
330
1F
100
AcDbEntity
  8
実形
100
AcDbLine
 10
508.7543291184011
 20
607.0493123044988
 30
0.0
 11
719.2543291184006
 21
607.0493123044988
 31
0.0
  0
LINE
  5
31B
330
1F
100
AcDbEntity
  8
実形
100
AcDbLine
 10
1428.754329118401
 20
646.9971533147314
 30
0.0
 11
1428.754329118401
 21
797.249312304499
 31
0.0
  0
LINE
  5
323
330
1F
100
AcDbEntity
  8
実形
100
AcDbLine
 10
719.254329118401
 20
607.0493123044989
 30
0.0
 11
1399.539637567637
 21
617.0074335654647
 31
0.0
  0
ARC
  5
324
330
1F
100
AcDbEntity
  8
実形
100
AcDbCircle
 10
1398.754329118401
 20
646.9971533147314
 30
0.0
 40
30.0
100
AcDbArc
 50
271.5
 51
0.000000000000007
  0
ARC
  5
325
330
1F
100
AcDbEntity
  8
実形
100
AcDbCircle
 10
508.7543291184011
 20
637.0493123044988
 30
0.0
 40
30.0
100
AcDbArc
 50
180.0
 51
270.0
  0
LINE
  5
327
330
1F
100
AcDbEntity
  8
実形
100
AcDbLine
 10
478.754329118401
 20
792.0493123044989
 30
0.0
 11
1428.754329118401
 21
792.0493123044989
 31
0.0
  0
LINE
  5
328
330
1F
100
AcDbEntity
  8
センター
100
AcDbLine
 10
719.2543291183967
 20
607.0493123044988
 30
0.0
 11
1422.882854236202
 21
607.0493123044988
 31
0.0
  0
LINE
  5
329
330
1F
100
AcDbEntity
  8
センター
 48
0.5
100
AcDbLine
 10
628.754329118401
 20
679.2968631229132
 30
0.0
 11
628.754329118401
 21
527.3512092653
 31
0.0
  0
DIMENSION
  5
3C2
330
1F
100
AcDbEntity
  8
寸法
100
AcDbDimension
  2
*D4
 10
897.0543780375171
 20
1573.63209989488
 30
0.0
 11
878.3043780375169
 21
1603.63209989488
 31
0.0
 70
    33
 71
     5
 42
59.99999999999977
  3
ISO-25
100
AcDbAlignedDimension
 13
769.7543291184008
 23
1633.63209989488
 33
0.0
 14
769.754329118401
 24
1573.63209989488
 34
0.0
  0
DIMENSION
  5
3E9
330
1F
100
AcDbEntity
  8
寸法
100
AcDbDimension
  2
*D5
 10
953.7543291184011
 20
1548.63209989488
 30
0.0
 11
935.0043291184007
 21
1483.632099894881
 31
0.0
 70
    32
 71
     5
 42
130.0
  3
ISO-25
100
AcDbAlignedDimension
 13
694.9190915315185
 23
1418.63209989488
 33
0.0
 14
803.7543291184011
 24
1548.63209989488
 34
0.0
 50
90.0
100
AcDbRotatedDimension
1001
ACAD
1000
DSTYLE
1002
{
1070
    76
1070
     1
1002
}
  0
DIMENSION
  5
3F6
330
1F
100
AcDbEntity
  8
寸法
100
AcDbDimension
  2
*D6
 10
478.754329118401
 20
1266.039333623879
 30
0.0
 11
553.754329118401
 21
1284.789333623879
 31
0.0
 70
    32
 71
     5
 42
150.0
  3
ISO-25
100
AcDbAlignedDimension
 13
628.754329118401
 23
1339.13209989488
 33
0.0
 14
478.754329118401
 24
1328.13209989488
 34
0.0
100
AcDbRotatedDimension
  0
DIMENSION
  5
40C
330
1F
100
AcDbEntity
  8
寸法
100
AcDbDimension
  2
*D7
 10
359.9586682568416
 20
1138.63209989488
 30
0.0
 11
334.0584170672582
 21
1147.061223947217
 31
0.0
 70
   160
 71
     5
 42
15.0
  3
ISO-25
100
AcDbAlignedDimension
 13
463.7543291184011
 23
1123.63209989488
 33
0.0
 14
463.7543291184011
 24
1138.63209989488
 34
0.0
 50
90.0
100
AcDbRotatedDimension
  0
DIMENSION
  5
41A
330
1F
100
AcDbEntity
  8
寸法
100
AcDbDimension
  2
*D8
 10
359.9586682568416
 20
1548.63209989488
 30
0.0
 11
341.2086682568414
 21
1343.63209989488
 31
0.0
 70
    32
 71
     5
 42
410.0
  3
ISO-25
100
AcDbAlignedDimension
 13
463.7543291184011
 23
1138.63209989488
 33
0.0
 14
463.7543291184011
 24
1548.63209989488
 34
0.0
 50
90.0
100
AcDbRotatedDimension
1001
ACAD
1000
DSTYLE
1002
{
1070
   279
1070
     1
1002
}
  0
DIMENSION
  5
427
330
1F
100
AcDbEntity
  8
寸法
100
AcDbDimension
  2
*D9
 10
359.9586682568416
 20
1563.63209989488
 30
0.0
 11
351.3405174395293
 21
1539.525809798597
 31
0.0
 70
   160
 71
     5
 42
15.0
  3
ISO-25
100
AcDbAlignedDimension
 13
463.7543291184011
 23
1548.63209989488
 33
0.0
 14
463.7543291184011
 24
1563.63209989488
 34
0.0
 50
90.0
100
AcDbRotatedDimension
1001
ACAD
1000
DSTYLE
1002
{
1070
   279
1070
     1
1002
}
  0
DIMENSION
  5
459
330
1F
100
AcDbEntity
  8
寸法
100
AcDbDimension
  2
*D10
 10
283.4662260172845
 20
1123.63209989488
 30
0.0
 11
264.7162260172843
 21
1343.63209989488
 31
0.0
 70
    32
 71
     5
 42
440.0
  3
ISO-25
100
AcDbAlignedDimension
 13
463.7543291184011
 23
1563.63209989488
 33
0.0
 14
463.7543291184011
 24
1123.63209989488
 34
0.0
 50
90.0
100
AcDbRotatedDimension
  0
DIMENSION
  5
466
330
1F
100
AcDbEntity
  8
寸法
100
AcDbDimension
  2
*D11
 10
283.4662260172845
 20
1643.63209989488
 30
0.0
 11
264.7162260172843
 21
1603.63209989488
 31
0.0
 70
    32
 71
     5
 42
80.0
  3
ISO-25
100
AcDbAlignedDimension
 13
463.7543291184011
 23
1563.63209989488
 33
0.0
 14
463.7543291184011
 24
1643.63209989488
 34
0.0
 50
90.0
100
AcDbRotatedDimension
  0
DIMENSION
  5
47C
330
1F
100
AcDbEntity
  8
寸法
100
AcDbDimension
  2
*D12
 10
283.4662260172845
 20
1658.63209989488
 30
0.0
 11
293.9813163226863
 21
1685.558819175213
 31
0.0
 70
   160
 71
     5
 42
15.0
  3
ISO-25
100
AcDbAlignedDimension
 13
463.7543291184011
 23
1643.63209989488
 33
0.0
 14
463.7543291184011
 24
1658.63209989488
 34
0.0
 50
90.0
100
AcDbRotatedDimension
1001
ACAD
1000
DSTYLE
1002
{
1070
   279
1070
     1
1002
}
  0
DIMENSION
  5
492
330
1F
100
AcDbEntity
  8
寸法
100
AcDbDimension
  2
*D13
 10
205.9174423071063
 20
1108.63209989488
 30
0.0
 11
187.1674423071061
 21
1383.63209989488
 31
0.0
 70
    32
 71
     5
 42
550.0
  3
ISO-25
100
AcDbAlignedDimension
 13
463.7543291184011
 23
1658.63209989488
 33
0.0
 14
463.7543291184011
 24
1108.63209989488
 34
0.0
 50
90.0
100
AcDbRotatedDimension
  0
DIMENSION
  5
4C3
330
1F
100
AcDbEntity
  8
寸法
100
AcDbDimension
  2
*D14
 10
283.4662260172845
 20
1108.63209989488
 30
0.0
 11
255.5034398240887
 21
1136.072207351462
 31
0.0
 70
   160
 71
     5
 42
15.0
  3
ISO-25
100
AcDbAlignedDimension
 13
463.7543291184011
 23
1123.63209989488
 33
0.0
 14
463.7543291184011
 24
1108.63209989488
 34
0.0
 50
90.0
100
AcDbRotatedDimension
  0
DIMENSION
  5
4E5
330
1F
100
AcDbEntity
  8
寸法
100
AcDbDimension
  2
*D15
 10
478.754329118401
 20
991.4087744939752
 30
0.0
 11
514.6487505056493
 21
1010.956653596044
 31
0.0
 70
   160
 71
     5
 42
15.0
  3
ISO-25
100
AcDbAlignedDimension
 13
463.7543291184011
 23
1108.63209989488
 33
0.0
 14
478.754329118401
 24
1108.63209989488
 34
0.0
100
AcDbRotatedDimension
  0
DIMENSION
  5
4FD
330
1F
100
AcDbEntity
  8
寸法
100
AcDbDimension
  2
*D16
 10
1428.754329118401
 20
991.4087744939752
 30
0.0
 11
953.7543291184011
 21
1010.158774493975
 31
0.0
 70
    32
 71
     5
 42
950.0
  3
ISO-25
100
AcDbAlignedDimension
 13
478.754329118401
 23
1108.63209989488
 33
0.0
 14
1428.754329118401
 24
1108.63209989488
 34
0.0
100
AcDbRotatedDimension
1001
ACAD
1000
DSTYLE
1002
{
1070
   279
1070
     1
1002
}
  0
DIMENSION
  5
50A
330
1F
100
AcDbEntity
  8
寸法
100
AcDbDimension
  2
*D17
 10
1443.754329118401
 20
991.4087744939752
 30
0.0
 11
1387.121551311662
 21
991.4087744939752
 31
0.0
 70
   160
 71
     5
 42
15.0
  3
ISO-25
100
AcDbAlignedDimension
 13
1428.754329118401
 23
1108.63209989488
 33
0.0
 14
1443.754329118401
 24
1108.63209989488
 34
0.0
100
AcDbRotatedDimension
1001
ACAD
1000
DSTYLE
1002
{
1070
   279
1070
     1
1002
}
  0
DIMENSION
  5
522
330
1F
100
AcDbEntity
  8
寸法
100
AcDbDimension
  2
*D18
 10
1443.754329118401
 20
917.2883592603156
 30
0.0
 11
953.7543291184011
 21
936.0383592603156
 31
0.0
 70
    33
 71
     5
 42
980.0
  3
ISO-25
100
AcDbAlignedDimension
 13
463.7543291184011
 23
1108.63209989488
 33
0.0
 14
1443.754329118401
 24
1108.63209989488
 34
0.0
  0
ARC
  5
570
330
1F
100
AcDbEntity
  8
寸法
100
AcDbCircle
 10
1019.254329118397
 20
607.0493123044988
 30
0.0
 40
346.6490970545442
100
AcDbArc
 50
0.0
 51
1.500000000000023
  0
TEXT
  5
571
330
1F
100
AcDbEntity
  8
寸法
100
AcDbText
 10
1345.830878727334
 20
565.4230151001788
 30
0.0
 40
25.0
  1
1.5゜
 11
1345.830878727334
 21
562.0896817668453
 31
0.0
100
AcDbText
 73
     1
  0
LEADER
  5
8DB
330
1F
100
AcDbEntity
  8
寸法
100
AcDbLeader
  3
ISO-25
 40
66.66666666666666
 41
87.5
 76
     2
 10
844.5964955391938
 20
1150.922717747925
 30
0.0
 10
872.7402933982284
 20
1190.761604474787
 30
0.0
213
0.0
223
-12.5
233
0.0
1001
ACAD
1000
DSTYLE
1002
{
1070
   147
1040
6.25
1070
    77
1070
     0
1070
    41
1040
20.0
1070
   342
1005
DA
1002
}
  0
TEXT
  5
8DD
330
1F
100
AcDbEntity
  8
寸法
100
AcDbText
 10
883.2942196788426
 20
1190.579742060448
 30
0.0
 40
25.0
  1
8500R
 11
883.2942196788426
 21
1187.246408727114
 31
0.0
100
AcDbText
 73
     1
  0
LEADER
  5
C24
330
1F
100
AcDbEntity
  8
実形
100
AcDbLeader
  3
ISO-25
 40
25.0
 41
16.66666666666666
 76
     2
 10
1401.127599563658
 20
1546.055524152405
 30
0.0
 10
1332.857353638057
 20
1515.947716111717
 30
0.0
213
0.0
223
12.5
233
0.0
1001
ACAD
1000
DSTYLE
1002
{
1070
   147
1040
6.25
1070
    77
1070
     0
1070
    41
1040
20.0
1070
   342
1005
DA
1002
}
  0
LEADER
  5
C26
330
1F
100
AcDbEntity
  8
実形
100
AcDbLeader
  3
ISO-25
 40
25.0
 41
16.66666666666666
 76
     2
 10
1397.868160358265
 20
1504.794330420063
 30
0.0
 10
1360.346279881989
 20
1463.284571629668
 30
0.0
213
0.0
223
12.5
233
0.0
1001
ACAD
1000
DSTYLE
1002
{
1070
   147
1040
6.25
1070
    77
1070
     0
1070
    41
1040
20.0
1070
   342
1005
DA
1002
}
  0
LEADER
  5
C29
330
1F
100
AcDbEntity
  8
実形
100
AcDbLeader
  3
ISO-25
 40
74.99999999999999
 41
41.66666666666666
 76
     2
 10
1421.884911815357
 20
1343.726182987204
 30
0.0
 10
1362.597966389692
 20
1343.726182987204
 30
0.0
213
0.0
223
12.5
233
0.0
1001
ACAD
1000
DSTYLE
1002
{
1070
   147
1040
6.25
1070
    77
1070
     0
1070
    41
1040
20.0
1070
   342
1005
DA
1002
}
  0
TEXT
  5
C2B
330
1F
100
AcDbEntity
  8
実形
100
AcDbText
 10
1260.68425187755
 20
1498.182947236631
 30
0.0
 40
25.0
  1
60R
 72
     2
 11
1323.18425187755
 21
1494.849613903298
 31
0.0
100
AcDbText
 73
     1
  0
TEXT
  5
C2C
330
1F
100
AcDbEntity
  8
実形
100
AcDbText
 10
1281.081481429095
 20
1433.946956109718
 30
0.0
 40
25.0
  1
100R
 72
     2
 11
1356.081481429095
 21
1430.613622776384
 31
0.0
100
AcDbText
 73
     1
  0
TEXT
  5
C2E
330
1F
100
AcDbEntity
  8
実形
100
AcDbText
 10
1247.058509404577
 20
1331.226182987204
 30
0.0
 40
25.0
  1
2000R
 72
     2
 11
1351.225176071244
 21
1343.726182987204
 31
0.0
100
AcDbText
 73
     2
  0
LEADER
  5
CB8
330
1F
100
AcDbEntity
  8
実形
100
AcDbLeader
  3
ISO-25
 76
     2
 10
1411.86131290836
 20
630.351594454141
 30
0.0
 10
1368.669482358653
 20
669.3230619782634
 30
0.0
1001
ACAD
1000
DSTYLE
1002
{
1070
   147
1040
6.25
1070
    77
1070
     0
1070
    41
1040
20.0
1070
   342
1005
DA
1002
}
  0
LEADER
  5
CB9
330
1F
100
AcDbEntity
  8
実形
100
AcDbLeader
  3
ISO-25
 76
     2
 10
494.8800610611637
 20
618.8509778666164
 30
0.0
 10
535.529814702495
 20
659.4830746139759
 30
0.0
1001
ACAD
1000
DSTYLE
1002
{
1070
   147
1040
6.25
1070
    77
1070
     0
1070
    41
1040
20.0
1070
   342
1005
DA
1002
}
  0
TEXT
  5
CC2
330
1F
100
AcDbEntity
  8
寸法
100
AcDbText
 10
1297.373690684666
 20
662.8263129238579
 30
0.0
 40
25.0
  1
30R
 11
1297.373690684666
 21
659.4929795905245
 31
0.0
100
AcDbText
 73
     1
  0
TEXT
  5
CC3
330
1F
100
AcDbEntity
  8
寸法
100
AcDbText
 10
544.3741663532982
 20
665.1456256843744
 30
0.0
 40
25.0
  1
30R
 11
544.3741663532982
 21
661.8122923510411
 31
0.0
100
AcDbText
 73
     1
  0
TEXT
  5
DC3
330
1F
100
AcDbEntity
  8
0
100
AcDbText
 10
191.7098177320886
 20
90.06009540427749
 30
0.0
 40
30.0
  1
※実寸には製造上の誤差が多少生ずる場合があります。シンクの穴あけ加工は現物合わせにてお願いします。
100
AcDbText
  0
TEXT
  5
FFB
330
1F
100
AcDbEntity
  8
補助
100
AcDbText
 10
2086.666666666667
 20
84.0
 30
0.0
 40
35.0
  1
尺度
 72
     4
 11
2124.0
 21
101.5
 31
0.0
100
AcDbText
  0
TEXT
  5
FFC
330
1F
100
AcDbEntity
  8
補助
100
AcDbText
 10
2086.666666666667
 20
149.0
 30
0.0
 40
35.0
  1
品番
 72
     4
 11
2124.0
 21
166.5
 31
0.0
100
AcDbText
  0
LINE
  5
FFD
330
1F
100
AcDbEntity
  8
補助
100
AcDbLine
 10
2064.0
 20
69.0
 30
0.0
 11
2784.0
 21
69.0
 31
0.0
  0
LINE
  5
FFE
330
1F
100
AcDbEntity
  8
補助
100
AcDbLine
 10
2064.0
 20
199.0
 30
0.0
 11
2784.0
 21
199.0
 31
0.0
  0
LINE
  5
FFF
330
1F
100
AcDbEntity
  8
補助
100
AcDbLine
 10
2064.0
 20
134.0
 30
0.0
 11
2784.0
 21
134.0
 31
0.0
  0
LINE
  5
1000
330
1F
100
AcDbEntity
  8
補助
100
AcDbLine
 10
2064.0
 20
4.0
 30
0.0
 11
2064.0
 21
199.0
 31
0.0
  0
TEXT
  5
1001
330
1F
100
AcDbEntity
  8
補助
100
AcDbText
 10
2300.255774665348
 20
16.49999999999999
 30
0.0
 40
40.0
  1
中外交易株式会社
 72
     4
 11
2488.255774665347
 21
36.5
 31
0.0
100
AcDbText
  0
LINE
  5
1003
330
1F
100
AcDbEntity
  8
補助
100
AcDbLine
 10
2184.0
 20
69.0
 30
0.0
 11
2784.0
 21
69.0
 31
0.0
  0
LINE
  5
1004
102
{ACAD_REACTORS
330
1011
102
}
330
1F
100
AcDbEntity
  8
補助
370
     5
100
AcDbLine
 10
2207.843923164362
 20
40.53787547858519
 30
0.0
 11
2183.255774665347
 21
40.53787547858519
 31
0.0
  0
LINE
  5
1005
102
{ACAD_REACTORS
330
1011
102
}
330
1F
100
AcDbEntity
  8
補助
370
     5
100
AcDbLine
 10
2183.255774665347
 20
40.53787547858519
 30
0.0
 11
2183.255774665347
 21
30.53787547858519
 31
0.0
  0
LINE
  5
1006
102
{ACAD_REACTORS
330
1011
102
}
330
1F
100
AcDbEntity
  8
補助
370
     5
100
AcDbLine
 10
2183.255774665347
 20
30.53787547858519
 30
0.0
 11
2207.346428692676
 21
30.53787547858514
 31
0.0
  0
LINE
  5
1007
102
{ACAD_REACTORS
330
1011
102
}
330
1F
100
AcDbEntity
  8
補助
370
     5
100
AcDbLine
 10
2210.641894042939
 20
56.5
 30
0.0
 11
2210.641894042939
 21
16.5
 31
0.0
  0
LINE
  5
1008
102
{ACAD_REACTORS
330
1011
102
}
330
1F
100
AcDbEntity
  8
補助
370
     5
100
AcDbLine
 10
2210.641894042939
 20
16.5
 30
0.0
 11
2245.64189404294
 21
16.5
 31
0.0
  0
LINE
  5
1009
102
{ACAD_REACTORS
330
1011
102
}
330
1F
100
AcDbEntity
  8
補助
370
     5
100
AcDbLine
 10
2245.64189404294
 20
16.5
 30
0.0
 11
2210.641894042939
 21
36.5
 31
0.0
  0
LINE
  5
100A
102
{ACAD_REACTORS
330
1011
102
}
330
1F
100
AcDbEntity
  8
補助
370
     5
100
AcDbLine
 10
2210.641894042939
 20
36.5
 30
0.0
 11
2245.64189404294
 21
56.5
 31
0.0
  0
LINE
  5
100B
102
{ACAD_REACTORS
330
1011
102
}
330
1F
100
AcDbEntity
  8
補助
370
     5
100
AcDbLine
 10
2245.64189404294
 20
56.5
 30
0.0
 11
2210.641894042939
 21
56.5
 31
0.0
  0
LINE
  5
100C
102
{ACAD_REACTORS
330
1011
102
}
330
1F
100
AcDbEntity
  8
補助
370
     5
100
AcDbLine
 10
2276.75434681301
 20
40.53787547858519
 30
0.0
 11
2252.166198313995
 21
40.53787547858519
 31
0.0
  0
LINE
  5
100D
102
{ACAD_REACTORS
330
1011
102
}
330
1F
100
AcDbEntity
  8
補助
370
     5
100
AcDbLine
 10
2252.166198313995
 20
40.53787547858519
 30
0.0
 11
2252.166198313995
 21
30.53787547858519
 31
0.0
  0
LINE
  5
100E
102
{ACAD_REACTORS
330
1011
102
}
330
1F
100
AcDbEntity
  8
補助
370
     5
100
AcDbLine
 10
2252.166198313995
 20
30.53787547858519
 30
0.0
 11
2276.256852341323
 21
30.53787547858514
 31
0.0
  0
ARC
  5
100F
102
{ACAD_REACTORS
330
1011
102
}
330
1F
100
AcDbEntity
  8
補助
370
     5
100
AcDbCircle
 10
2188.255774665348
 20
36.5
 30
0.0
 40
20.0
100
AcDbArc
 50
11.6477236670766
 51
342.6561058784746
  0
ARC
  5
1010
102
{ACAD_REACTORS
330
1011
102
}
330
1F
100
AcDbEntity
  8
補助
370
     5
100
AcDbCircle
 10
2257.166198313996
 20
36.5
 30
0.0
 40
20.0
100
AcDbArc
 50
11.6477236670766
 51
342.6561058784746
  0
HATCH
  5
1011
330
1F
100
AcDbEntity
  8
補助
100
AcDbHatch
 10
0.0
 20
0.0
 30
0.0
210
0.0
220
0.0
230
1.0
  2
SOLID
 70
     1
 71
     1
 91
        3
 92
        1
 93
        4
 72
     2
 10
2257.166198313996
 20
36.5
 40
20.0
 50
11.6477236670766
 51
342.6561058784746
 73
     1
 72
     1
 10
2276.256852341323
 20
30.53787547858514
 11
2252.166198313995
 21
30.53787547858519
 72
     1
 10
2252.166198313995
 20
30.53787547858519
 11
2252.166198313995
 21
40.53787547858519
 72
     1
 10
2252.166198313995
 20
40.53787547858519
 11
2276.75434681301
 21
40.53787547858519
 97
        4
330
1010
330
100E
330
100D
330
100C
 92
        1
 93
        4
 72
     2
 10
2188.255774665348
 20
36.5
 40
20.0
 50
11.6477236670766
 51
342.6561058784746
 73
     1
 72
     1
 10
2207.346428692676
 20
30.53787547858514
 11
2183.255774665347
 21
30.53787547858519
 72
     1
 10
2183.255774665347
 20
30.53787547858519
 11
2183.255774665347
 21
40.53787547858519
 72
     1
 10
2183.255774665347
 20
40.53787547858519
 11
2207.843923164362
 21
40.53787547858519
 97
        4
330
100F
330
1006
330
1005
330
1004
 92
        1
 93
        5
 72
     1
 10
2245.64189404294
 20
56.5
 11
2210.641894042939
 21
56.5
 72
     1
 10
2210.641894042939
 20
56.5
 11
2210.641894042939
 21
16.5
 72
     1
 10
2210.641894042939
 20
16.5
 11
2245.64189404294
 21
16.5
 72
     1
 10
2245.64189404294
 20
16.5
 11
2210.641894042939
 21
36.5
 72
     1
 10
2210.641894042939
 20
36.5
 11
2245.64189404294
 21
56.5
 97
        5
330
100B
330
1007
330
1008
330
1009
330
100A
 75
     0
 76
     1
 98
        1
 10
-60.0
 20
0.0
  0
LINE
  5
1012
330
1F
100
AcDbEntity
  8
補助
100
AcDbLine
 10
2184.0
 20
69.0
 30
0.0
 11
2184.0
 21
199.0
 31
0.0
  0
TEXT
  5
1013
330
1F
100
AcDbEntity
  8
0
100
AcDbText
 10
2430.916666666667
 20
84.0
 30
0.0
 40
35.0
  1
1：10
 72
     4
 11
2484.0
 21
101.5
 31
0.0
100
AcDbText
  0
LINE
  5
1014
330
1F
100
AcDbEntity
  8
補助
100
AcDbLine
 10
2784.0
 20
69.0
 30
0.0
 11
2784.0
 21
134.0
 31
0.0
  0
LINE
  5
1015
330
1F
100
AcDbEntity
  8
補助
100
AcDbLine
 10
2784.0
 20
134.0
 30
0.0
 11
2784.0
 21
199.0
 31
0.0
  0
LINE
  5
1016
330
1F
100
AcDbEntity
  8
補助
100
AcDbLine
 10
2784.0
 20
4.0
 30
0.0
 11
2784.0
 21
69.0
 31
0.0
  0
ARC
  5
175B
330
1F
100
AcDbEntity
  8
実形
100
AcDbCircle
 10
953.7543291184011
 20
9638.632099894881
 30
0.0
 40
8500.0
100
AcDbArc
 50
267.4581267083559
 51
272.5418732916442
  0
ARC
  5
175E
330
1F
100
AcDbEntity
  8
実形
100
AcDbCircle
 10
2478.754329118401
 20
1343.63209989488
 30
0.0
 40
2000.0
100
AcDbArc
 50
177.0816278913649
 51
182.9183721086351
  0
ARC
  5
175F
330
1F
100
AcDbEntity
  8
実形
100
AcDbCircle
 10
953.7543291184011
 20
-6951.367900105118
 30
0.0
 40
8500.0
100
AcDbArc
 50
87.45812670835583
 51
92.54187329164416
  0
ARC
  5
1760
330
1F
100
AcDbEntity
  8
実形
100
AcDbCircle
 10
-571.2456708815989
 20
1343.63209989488
 30
0.0
 40
2000.0
100
AcDbArc
 50
357.0816278913649
 51
2.918372108635103
  0
ARC
  5
1761
330
1F
100
AcDbEntity
  8
実形
100
AcDbCircle
 10
581.2184713745393
 20
1440.367143060569
 30
0.0
 40
100.0
100
AcDbArc
 50
92.54187329164306
 51
177.0816278913649
  0
ARC
  5
1762
330
1F
100
AcDbEntity
  8
実形
100
AcDbCircle
 10
581.2184713745393
 20
1246.897056729191
 30
0.0
 40
100.0
100
AcDbArc
 50
182.9183721086348
 51
267.4581267083579
  0
ARC
  5
1763
330
1F
100
AcDbEntity
  8
実形
100
AcDbCircle
 10
1326.290186862262
 20
1440.367143060569
 30
0.0
 40
100.0
100
AcDbArc
 50
2.918372108635088
 51
87.45812670835629
  0
ARC
  5
1764
330
1F
100
AcDbEntity
  8
実形
100
AcDbCircle
 10
1326.290186862262
 20
1246.897056729191
 30
0.0
 40
100.0
100
AcDbArc
 50
272.5418732916403
 51
357.0816278913643
  0
LINE
  5
1938
330
1F
100
AcDbEntity
  8
実形
100
AcDbLine
 10
779.7543291184011
 20
1573.72141235053
 30
0.0
 11
547.754329118401
 21
1573.72141235053
 31
0.0
  0
LINE
  5
1939
330
1F
100
AcDbEntity
  8
実形
100
AcDbLine
 10
779.7543291184008
 20
1633.721412350531
 30
0.0
 11
547.754329118401
 21
1633.721412350531
 31
0.0
  0
ARC
  5
193A
330
1F
100
AcDbEntity
  8
実形
100
AcDbCircle
 10
779.7543291184008
 20
1604.721412350531
 30
0.0
 40
29.0
100
AcDbArc
 50
0.0
 51
90.0
  0
ARC
  5
193B
330
1F
100
AcDbEntity
  8
実形
100
AcDbCircle
 10
779.7543291184011
 20
1602.72141235053
 30
0.0
 40
29.0
100
AcDbArc
 50
270.0
 51
0.0
  0
ARC
  5
193C
330
1F
100
AcDbEntity
  8
実形
100
AcDbCircle
 10
547.754329118401
 20
1602.72141235053
 30
0.0
 40
29.0
100
AcDbArc
 50
180.0
 51
270.0
  0
ARC
  5
193D
330
1F
100
AcDbEntity
  8
実形
100
AcDbCircle
 10
547.754329118401
 20
1604.721412350531
 30
0.0
 40
29.0
100
AcDbArc
 50
90.0
 51
180.0
  0
DIMENSION
  5
193E
330
1F
100
AcDbEntity
  8
寸法
100
AcDbDimension
  2
*D19
 10
808.7543291184008
 20
1720.724406117599
 30
0.0
 11
663.7543291184008
 21
1739.474406117599
 31
0.0
 70
    32
 71
     5
 42
290.0
  3
ISO-25
100
AcDbAlignedDimension
 13
518.7543291184008
 23
1628.516559666225
 33
0.0
 14
808.7543291184008
 24
1626.520798069397
 34
0.0
100
AcDbRotatedDimension
1001
ACAD
1000
DSTYLE
1002
{
1070
   279
1070
     1
1002
}
  0
LEADER
  5
193F
330
1F
100
AcDbEntity
  8
実形
100
AcDbLeader
  3
ISO-25
 40
74.99999999999999
 41
41.66666666666666
 76
     2
 10
809.8647613342054
 20
1610.476677731983
 30
0.0
 10
854.583926712894
 20
1685.704585670239
 30
0.0
213
0.0
223
12.5
233
0.0
1001
ACAD
1000
DSTYLE
1002
{
1070
   147
1040
6.25
1070
    77
1070
     0
1070
    41
1040
20.0
1070
   342
1005
DA
1002
}
  0
TEXT
  5
1940
330
1F
100
AcDbEntity
  8
実形
100
AcDbText
 10
836.2316931427022
 20
1695.489272483114
 30
0.0
 40
25.0
  1
30R
 41
0.9
 72
     2
 11
892.4816931427022
 21
1707.989272483114
 31
0.0
100
AcDbText
 73
     2
  0
LINE
  5
1941
330
1F
100
AcDbEntity
  8
実形
370
    15
100
AcDbLine
 10
588.7208678314996
 20
1593.632099894881
 30
0.0
 11
628.7208678314996
 21
1593.632099894881
 31
0.0
  0
LINE
  5
1942
330
1F
100
AcDbEntity
  8
実形
370
    15
100
AcDbLine
 10
638.7208678314996
 20
1603.632099894881
 30
0.0
 11
638.7208678314996
 21
1603.632099894881
 31
0.0
  0
LINE
  5
1943
330
1F
100
AcDbEntity
  8
実形
370
    15
100
AcDbLine
 10
628.7208678314996
 20
1613.632099894881
 30
0.0
 11
538.0208103152786
 21
1613.63209989488
 31
0.0
  0
ARC
  5
1944
330
1F
100
AcDbEntity
  8
実形
370
    15
100
AcDbCircle
 10
628.7208678314996
 20
1603.632099894881
 30
0.0
 40
10.0
100
AcDbArc
 50
0.0
 51
90.0
  0
ARC
  5
1945
330
1F
100
AcDbEntity
  8
実形
370
    15
100
AcDbCircle
 10
628.7208678314996
 20
1603.632099894881
 30
0.0
 40
10.0
100
AcDbArc
 50
270.0
 51
0.0
  0
LINE
  5
1946
330
1F
100
AcDbEntity
  8
実形
370
    15
100
AcDbLine
 10
539.3543291184009
 20
1598.63209989488
 30
0.0
 11
628.7208678314996
 21
1598.632099894881
 31
0.0
  0
LINE
  5
1947
330
1F
100
AcDbEntity
  8
実形
370
    15
100
AcDbLine
 10
628.7208678314996
 20
1608.632099894881
 30
0.0
 11
538.4135061585552
 21
1608.63209989488
 31
0.0
  0
LINE
  5
1949
330
1F
100
AcDbEntity
  8
実形
370
    15
100
AcDbLine
 10
628.7208678314996
 20
1598.632099894881
 30
0.0
 11
538.4135061585552
 21
1598.63209989488
 31
0.0
  0
LINE
  5
194A
330
1F
100
AcDbEntity
  8
実形
370
    15
100
AcDbLine
 10
628.7208678314996
 20
1598.632099894881
 30
0.0
 11
538.4135061585552
 21
1598.63209989488
 31
0.0
  0
LINE
  5
194B
330
1F
100
AcDbEntity
  8
実形
370
    15
100
AcDbLine
 10
628.7208678314996
 20
1598.632099894881
 30
0.0
 11
538.4135061585552
 21
1598.63209989488
 31
0.0
  0
LINE
  5
194C
330
1F
100
AcDbEntity
  8
実形
370
    15
100
AcDbLine
 10
628.7208678314996
 20
1598.632099894881
 30
0.0
 11
538.4135061585552
 21
1598.63209989488
 31
0.0
  0
LINE
  5
194D
330
1F
100
AcDbEntity
  8
実形
370
    15
100
AcDbLine
 10
628.7208678314996
 20
1598.632099894881
 30
0.0
 11
538.4135061585552
 21
1598.63209989488
 31
0.0
  0
LINE
  5
194E
330
1F
100
AcDbEntity
  8
実形
370
    15
100
AcDbLine
 10
628.7208678314996
 20
1598.632099894881
 30
0.0
 11
538.4135061585552
 21
1598.63209989488
 31
0.0
  0
ARC
  5
194F
330
1F
100
AcDbEntity
  8
実形
370
    15
100
AcDbCircle
 10
628.7208678314996
 20
1603.632099894881
 30
0.0
 40
5.0
100
AcDbArc
 50
0.0
 51
90.0
  0
ARC
  5
1950
330
1F
100
AcDbEntity
  8
実形
370
    15
100
AcDbCircle
 10
628.7208678314996
 20
1603.632099894881
 30
0.0
 40
5.0
100
AcDbArc
 50
270.0
 51
0.0
  0
LINE
  5
1951
330
1F
100
AcDbEntity
  8
実形
370
    15
100
AcDbLine
 10
688.7208678314998
 20
1603.632099894881
 30
0.0
 11
688.7208678314998
 21
1603.632099894881
 31
0.0
  0
ARC
  5
1952
330
1F
100
AcDbEntity
  8
実形
370
    15
100
AcDbCircle
 10
539.3543291184009
 20
1603.72141235053
 30
0.0
 40
10.0
100
AcDbArc
 50
180.0
 51
270.0
  0
ARC
  5
1953
330
1F
100
AcDbEntity
  8
実形
370
    15
100
AcDbCircle
 10
539.3543291184009
 20
1603.72141235053
 30
0.0
 40
10.0
100
AcDbArc
 50
97.66332789946368
 51
180.0
  0
ARC
  5
1954
330
1F
100
AcDbEntity
  8
実形
370
    15
100
AcDbCircle
 10
539.5101245308082
 20
1603.785944923306
 30
0.0
 40
5.156199257937148
100
AcDbArc
 50
180.7171058390016
 51
268.2685350296829
  0
ARC
  5
1955
330
1F
100
AcDbEntity
  8
実形
370
    15
100
AcDbCircle
 10
539.3543291184009
 20
1603.72141235053
 30
0.0
 40
5.0
100
AcDbArc
 50
100.8456912240022
 51
180.0
  0
LINE
  5
1956
330
1F
100
AcDbEntity
  8
実形
100
AcDbLine
 10
588.7208678314996
 20
1593.632099894881
 30
0.0
 11
540.682848599351
 21
1593.632099894881
 31
0.0
  0
LWPOLYLINE
  5
1957
330
1F
100
AcDbEntity
  8
実形
100
AcDbPolyline
 90
        2
 70
     0
 43
0.0
 10
539.3543291184009
 20
1593.721412350531
 10
540.682848599351
 20
1593.632099894881
  0
LINE
  5
1958
330
1F
100
AcDbEntity
  8
実形
370
    15
100
AcDbLine
 10
698.7877904053021
 20
1613.632099894881
 30
0.0
 11
789.4878479215231
 21
1613.63209989488
 31
0.0
  0
ARC
  5
1959
330
1F
100
AcDbEntity
  8
実形
370
    15
100
AcDbCircle
 10
698.7877904053021
 20
1603.632099894881
 30
0.0
 40
10.0
100
AcDbArc
 50
90.0
 51
180.0
  0
ARC
  5
195A
330
1F
100
AcDbEntity
  8
実形
370
    15
100
AcDbCircle
 10
698.921592651792
 20
1603.687522600053
 30
0.0
 40
10.13395380131631
100
AcDbArc
 50
180.3133528125275
 51
277.1375613778998
  0
LINE
  5
195B
330
1F
100
AcDbEntity
  8
実形
370
    15
100
AcDbLine
 10
788.1543291184007
 20
1598.63209989488
 30
0.0
 11
698.7877904053021
 21
1598.632099894881
 31
0.0
  0
LINE
  5
195C
330
1F
100
AcDbEntity
  8
実形
370
    15
100
AcDbLine
 10
698.7877904053021
 20
1608.632099894881
 30
0.0
 11
789.0951520782464
 21
1608.63209989488
 31
0.0
  0
ARC
  5
195D
330
1F
100
AcDbEntity
  8
実形
370
    15
100
AcDbCircle
 10
698.7877904053021
 20
1603.632099894881
 30
0.0
 40
5.0
100
AcDbArc
 50
90.0
 51
180.0
  0
ARC
  5
195E
330
1F
100
AcDbEntity
  8
実形
370
    15
100
AcDbCircle
 10
698.7877904053021
 20
1603.632099894881
 30
0.0
 40
5.0
100
AcDbArc
 50
180.0
 51
270.0
  0
ARC
  5
195F
330
1F
100
AcDbEntity
  8
実形
370
    15
100
AcDbCircle
 10
788.1543291184007
 20
1603.72141235053
 30
0.0
 40
10.0
100
AcDbArc
 50
270.0
 51
0.0
  0
ARC
  5
1960
330
1F
100
AcDbEntity
  8
実形
370
    15
100
AcDbCircle
 10
788.1543291184007
 20
1603.72141235053
 30
0.0
 40
10.0
100
AcDbArc
 50
0.0
 51
82.33667210053631
  0
ARC
  5
1961
330
1F
100
AcDbEntity
  8
実形
370
    15
100
AcDbCircle
 10
787.9985337059934
 20
1603.785944923306
 30
0.0
 40
5.156199257937148
100
AcDbArc
 50
271.7314649703171
 51
359.2828941609984
  0
ARC
  5
1962
330
1F
100
AcDbEntity
  8
実形
370
    15
100
AcDbCircle
 10
788.1543291184007
 20
1603.72141235053
 30
0.0
 40
5.0
100
AcDbArc
 50
0.0
 51
79.15430877599776
  0
LINE
  5
1963
330
1F
100
AcDbEntity
  8
実形
100
AcDbLine
 10
738.787790405302
 20
1593.632099894881
 30
0.0
 11
786.8258096374506
 21
1593.632099894881
 31
0.0
  0
LINE
  5
1964
330
1F
100
AcDbEntity
  8
実形
100
AcDbLine
 10
738.787790405302
 20
1593.632099894881
 30
0.0
 11
700.1807566075667
 21
1593.632099894881
 31
0.0
  0
ARC
  5
1966
330
1F
100
AcDbEntity
  8
実形
370
    15
100
AcDbCircle
 10
663.7543291184011
 20
1603.63209989488
 30
0.0
 40
12.5
100
AcDbArc
 50
282.5558577985876
 51
347.4441422014046
  0
LINE
  5
1967
330
1F
100
AcDbEntity
  8
実形
370
    15
100
AcDbLine
 10
652.5293569580794
 20
1605.132099894881
 30
0.0
 11
661.2543291184011
 21
1605.132099894881
 31
0.0
  0
LINE
  5
1968
330
1F
100
AcDbEntity
  8
実形
370
    15
100
AcDbLine
 10
652.5293569580793
 20
1602.13209989488
 30
0.0
 11
661.2543291184011
 21
1602.13209989488
 31
0.0
  0
LINE
  5
1969
330
1F
100
AcDbEntity
  8
実形
370
    15
100
AcDbLine
 10
665.2543291184011
 20
1614.857072055202
 30
0.0
 11
665.254329118401
 21
1606.13209989488
 31
0.0
  0
LINE
  5
196A
330
1F
100
AcDbEntity
  8
実形
370
    15
100
AcDbLine
 10
662.2543291184012
 20
1614.857072055202
 30
0.0
 11
662.2543291184012
 21
1606.132099894881
 31
0.0
  0
LINE
  5
196B
330
1F
100
AcDbEntity
  8
実形
370
    15
100
AcDbLine
 10
662.2543291184012
 20
1601.13209989488
 30
0.0
 11
662.2543291184012
 21
1592.407127734559
 31
0.0
  0
LINE
  5
196C
330
1F
100
AcDbEntity
  8
実形
370
    15
100
AcDbLine
 10
666.254329118401
 20
1605.13209989488
 30
0.0
 11
674.9793012787231
 21
1605.132099894881
 31
0.0
  0
LINE
  5
196D
330
1F
100
AcDbEntity
  8
実形
370
    15
100
AcDbLine
 10
665.254329118401
 20
1601.132099894881
 30
0.0
 11
665.2543291184011
 21
1592.407127734559
 31
0.0
  0
LINE
  5
196E
330
1F
100
AcDbEntity
  8
実形
370
    15
100
AcDbLine
 10
666.254329118401
 20
1602.13209989488
 30
0.0
 11
674.9793012787229
 21
1602.13209989488
 31
0.0
  0
ARC
  5
196F
330
1F
100
AcDbEntity
  8
実形
370
    15
100
AcDbCircle
 10
663.7543291184011
 20
1603.63209989488
 30
0.0
 40
12.5
100
AcDbArc
 50
192.5558577985953
 51
257.4441422014124
  0
ARC
  5
1970
330
1F
100
AcDbEntity
  8
実形
370
    15
100
AcDbCircle
 10
663.7543291184011
 20
1603.63209989488
 30
0.0
 40
12.5
100
AcDbArc
 50
102.5558577985876
 51
167.4441422014046
  0
ARC
  5
1971
330
1F
100
AcDbEntity
  8
実形
370
    15
100
AcDbCircle
 10
663.7543291184011
 20
1603.63209989488
 30
0.0
 40
12.5
100
AcDbArc
 50
12.55585779859536
 51
77.44414220141242
  0
ARC
  5
1972
330
1F
100
AcDbEntity
  8
実形
370
    15
100
AcDbCircle
 10
666.2543291184013
 20
1614.857072055202
 30
0.0
 40
1.0
100
AcDbArc
 50
77.44414220141242
 51
180.0
  0
ARC
  5
1973
330
1F
100
AcDbEntity
  8
実形
370
    15
100
AcDbCircle
 10
674.9793012787231
 20
1606.13209989488
 30
0.0
 40
1.0
100
AcDbArc
 50
270.0
 51
12.55585779859536
  0
ARC
  5
1974
330
1F
100
AcDbEntity
  8
実形
370
    15
100
AcDbCircle
 10
674.9793012787229
 20
1601.13209989488
 30
0.0
 40
1.0
100
AcDbArc
 50
347.4441422014046
 51
90.0
  0
ARC
  5
1975
330
1F
100
AcDbEntity
  8
実形
370
    15
100
AcDbCircle
 10
666.2543291184012
 20
1592.407127734559
 30
0.0
 40
1.0
100
AcDbArc
 50
180.0
 51
282.5558577985876
  0
ARC
  5
1976
330
1F
100
AcDbEntity
  8
実形
370
    15
100
AcDbCircle
 10
661.2543291184011
 20
1592.407127734559
 30
0.0
 40
1.0
100
AcDbArc
 50
257.4441422014124
 51
0.0
  0
ARC
  5
1977
330
1F
100
AcDbEntity
  8
実形
370
    15
100
AcDbCircle
 10
652.5293569580793
 20
1601.132099894881
 30
0.0
 40
1.0
100
AcDbArc
 50
90.0
 51
192.5558577985685
  0
ARC
  5
1978
330
1F
100
AcDbEntity
  8
実形
370
    15
100
AcDbCircle
 10
652.5293569580794
 20
1606.132099894881
 30
0.0
 40
1.0
100
AcDbArc
 50
167.4441422014315
 51
270.0
  0
ARC
  5
1979
330
1F
100
AcDbEntity
  8
実形
370
    15
100
AcDbCircle
 10
661.2543291184011
 20
1614.857072055202
 30
0.0
 40
1.0
100
AcDbArc
 50
0.0
 51
102.5558577985876
  0
ARC
  5
197A
330
1F
100
AcDbEntity
  8
実形
370
    15
100
AcDbCircle
 10
661.2543291184011
 20
1601.13209989488
 30
0.0
 40
1.0
100
AcDbArc
 50
0.0
 51
90.0
  0
ARC
  5
197B
330
1F
100
AcDbEntity
  8
実形
370
    15
100
AcDbCircle
 10
666.254329118401
 20
1601.132099894881
 30
0.0
 40
1.0
100
AcDbArc
 50
90.0
 51
180.0
  0
ARC
  5
197C
330
1F
100
AcDbEntity
  8
実形
370
    15
100
AcDbCircle
 10
666.254329118401
 20
1606.13209989488
 30
0.0
 40
1.0
100
AcDbArc
 50
180.0
 51
270.0
  0
ARC
  5
197D
330
1F
100
AcDbEntity
  8
実形
370
    15
100
AcDbCircle
 10
661.2543291184011
 20
1606.132099894881
 30
0.0
 40
1.0
100
AcDbArc
 50
270.0
 51
0.0
  0
DIMENSION
  5
19A2
330
1F
100
AcDbEntity
  8
実形
100
AcDbDimension
  2
*D20
 10
518.754329118401
 20
1720.724406117599
 30
0.0
 11
514.4176395329632
 21
1747.691062728015
 31
0.0
 70
   160
  1
40
 71
     5
 42
40.26287962899641
  3
ISO-25
100
AcDbAlignedDimension
 13
478.4914494894046
 23
1641.46906095463
 33
0.0
 14
518.754329118401
 24
1642.706599895969
 34
0.0
100
AcDbRotatedDimension
  0
CIRCLE
  5
1B2E
330
1F
100
AcDbEntity
  8
実形
100
AcDbCircle
 10
628.754329118401
 20
1418.63209989488
 30
0.0
 40
115.5
  0
LINE
  5
1C7A
330
1F
100
AcDbEntity
  8
実形
100
AcDbLine
 10
719.2543291184013
 20
600.0493123044989
 30
0.0
 11
538.2543291184011
 21
600.0493123044989
 31
0.0
  0
LINE
  5
1C7B
330
1F
100
AcDbEntity
  8
実形
100
AcDbLine
 10
538.2543291184011
 20
607.0493123044989
 30
0.0
 11
538.2543291184008
 21
600.0493123044989
 31
0.0
  0
LINE
  5
1C7C
330
1F
100
AcDbEntity
  8
実形
100
AcDbLine
 10
719.254329118401
 20
607.0493123044989
 30
0.0
 11
719.254329118401
 21
600.0493123044989
 31
0.0
  0
TEXT
  5
1CF7
330
1F
100
AcDbEntity
  8
0
100
AcDbText
 10
2264.667030651399
 20
151.8
 30
0.0
 40
35.0
  1
Jstn         
  7
MS明朝
 72
     4
 11
2431.067030651399
 21
166.5
 31
0.0
100
AcDbText
  0
TEXT
  5
1CF8
330
1F
100
AcDbEntity
  8
0
100
AcDbText
 10
2388.12133577152
 20
149.3938667970955
 30
0.0
 40
35.0
  1
1018-588
  7
MS明朝
 72
     4
 11
2490.52133577152
 21
166.4938667970955
 31
0.0
100
AcDbText
  0
TEXT
  5
1CF9
330
1F
100
AcDbEntity
  8
0
100
AcDbText
 10
2591.766661827541
 20
149.277932775477
 30
0.0
 40
35.0
  1
S-POL
  7
MS明朝
 72
     4
 11
2655.766661827541
 21
166.377932775477
 31
0.0
100
AcDbText
  0
LINE
  5
1E7B
330
1F
100
AcDbEntity
  8
実形
100
AcDbLine
 10
538.7543291184011
 20
1677.63209989488
 30
0.0
 11
1368.754329118401
 21
1677.63209989488
 31
0.0
  0
ARC
  5
1E7C
330
1F
100
AcDbEntity
  8
実形
100
AcDbCircle
 10
1368.754329118401
 20
1583.63209989488
 30
0.0
 40
94.0
100
AcDbArc
 50
0.0
 51
90.0
  0
LINE
  5
1E7D
330
1F
100
AcDbEntity
  8
実形
100
AcDbLine
 10
1462.754329118401
 20
1583.63209989488
 30
0.0
 11
1462.754329118401
 21
1245.573632068705
 31
0.0
  0
LINE
  5
1E7E
330
1F
100
AcDbEntity
  8
実形
100
AcDbLine
 10
1462.754329118401
 20
1503.63209989488
 30
0.0
 11
1462.754329118401
 21
1183.63209989488
 31
0.0
  0
ARC
  5
1E7F
330
1F
100
AcDbEntity
  8
実形
100
AcDbCircle
 10
1368.754329118401
 20
1183.63209989488
 30
0.0
 40
94.0
100
AcDbArc
 50
270.0
 51
0.0
  0
LINE
  5
1E80
330
1F
100
AcDbEntity
  8
実形
100
AcDbLine
 10
538.7543291184011
 20
1089.63209989488
 30
0.0
 11
1368.754329118401
 21
1089.63209989488
 31
0.0
  0
ARC
  5
1E81
330
1F
100
AcDbEntity
  8
実形
100
AcDbCircle
 10
538.7543291184011
 20
1183.63209989488
 30
0.0
 40
94.0
100
AcDbArc
 50
180.0
 51
270.0
  0
LINE
  5
1E82
330
1F
100
AcDbEntity
  8
実形
100
AcDbLine
 10
444.754329118401
 20
1503.63209989488
 30
0.0
 11
444.754329118401
 21
1183.63209989488
 31
0.0
  0
LINE
  5
1E84
330
1F
100
AcDbEntity
  8
実形
100
AcDbLine
 10
444.754329118401
 20
1583.63209989488
 30
0.0
 11
444.754329118401
 21
1245.573632068705
 31
0.0
  0
ARC
  5
1E85
330
1F
100
AcDbEntity
  8
実形
100
AcDbCircle
 10
538.7543291184011
 20
1583.63209989488
 30
0.0
 40
94.0
100
AcDbArc
 50
90.0
 51
180.0
  0
DIMENSION
  5
1E8A
330
1F
100
AcDbEntity
  8
実形
100
AcDbDimension
  2
*D22
 10
478.754329118401
 20
1776.531149828578
 30
0.0
 11
480.9050973260564
 21
1802.691525789512
 31
0.0
 70
   160
  1
35
 71
     5
 42
34.0
  3
ISO-25
100
AcDbAlignedDimension
 13
444.754329118401
 23
1643.422288272021
 33
0.0
 14
478.754329118401
 24
1643.422288272021
 34
0.0
100
AcDbRotatedDimension
  0
DIMENSION
  5
1EF1
330
1F
100
AcDbEntity
  8
実形
100
AcDbDimension
  2
*D23
 10
1462.754329118401
 20
1741.531149828578
 30
0.0
 11
1412.923336505389
 21
1776.531149828578
 31
0.0
 70
   160
  1
35
 71
     5
 42
34.0
  3
ISO-25
100
AcDbAlignedDimension
 13
1428.754329118401
 23
1643.422288272021
 33
0.0
 14
1462.754329118401
 24
1643.422288272021
 34
0.0
100
AcDbRotatedDimension
  0
DIMENSION
  5
1F1A
330
1F
100
AcDbEntity
  8
実形
100
AcDbDimension
  2
*D24
 10
1462.754329118401
 20
1854.399714700673
 30
0.0
 11
953.7543291184009
 21
1873.149714700673
 31
0.0
 70
    32
 71
     5
 42
1018.0
  3
ISO-25
100
AcDbAlignedDimension
 13
444.754329118401
 23
1615.561446464711
 33
0.0
 14
1462.754329118401
 24
1643.422288272021
 34
0.0
100
AcDbRotatedDimension
  0
DIMENSION
  5
1FA0
330
1F
100
AcDbEntity
  8
実形
100
AcDbDimension
  2
*D25
 10
1542.753853342881
 20
1643.63209989488
 30
0.0
 11
1511.124783842333
 21
1600.534409005663
 31
0.0
 70
   160
  1
35
 71
     5
 42
34.0
  3
ISO-25
100
AcDbAlignedDimension
 13
1419.63942717831
 23
1677.63209989488
 33
0.0
 14
1419.63942717831
 24
1643.63209989488
 34
0.0
 50
90.0
100
AcDbRotatedDimension
  0
DIMENSION
  5
1FBF
330
1F
100
AcDbEntity
  8
実形
100
AcDbDimension
  2
*D26
 10
1542.753853342881
 20
1089.63209989488
 30
0.0
 11
1516.269462184696
 21
1164.564622926586
 31
0.0
 70
   160
  1
35
 71
     5
 42
33.99999999999977
  3
ISO-25
100
AcDbAlignedDimension
 13
1419.63942717831
 23
1123.63209989488
 33
0.0
 14
1419.63942717831
 24
1089.63209989488
 34
0.0
 50
90.0
100
AcDbRotatedDimension
  0
DIMENSION
  5
1FDE
330
1F
100
AcDbEntity
  8
実形
100
AcDbDimension
  2
*D27
 10
1585.941663393297
 20
1089.63209989488
 30
0.0
 11
1567.191663393297
 21
1383.632099894881
 31
0.0
 70
    32
 71
     5
 42
588.0
  3
ISO-25
100
AcDbAlignedDimension
 13
1419.63942717831
 23
1677.63209989488
 33
0.0
 14
1419.63942717831
 24
1089.63209989488
 34
0.0
 50
90.0
100
AcDbRotatedDimension
  0
LEADER
  5
20F6
330
1F
100
AcDbEntity
  8
実形
100
AcDbLeader
  3
ISO-25
 40
25.0
 41
16.66666666666666
 76
     2
 10
455.94666375223
 20
1640.3338886818
 30
0.0
 10
414.3253043342438
 20
1695.180643089296
 30
0.0
213
0.0
223
12.5
233
0.0
1001
ACAD
1000
DSTYLE
1002
{
1070
   147
1040
6.25
1070
    77
1070
     0
1070
    41
1040
20.0
1070
   342
1005
DA
1002
}
  0
TEXT
  5
20F7
330
1F
100
AcDbEntity
  8
実形
100
AcDbText
 10
353.4022434626271
 20
1706.528237616507
 30
0.0
 40
25.0
  1
94R
 72
     2
 11
420.0689101292937
 21
1731.528237616507
 31
0.0
100
AcDbText
 73
     3
  0
LEADER
  5
20F8
330
1F
100
AcDbEntity
  8
実形
100
AcDbLeader
  3
ISO-25
 40
25.0
 41
16.66666666666666
 76
     2
 10
467.3041249996376
 20
1111.435743398626
 30
0.0
 10
410.5349794210187
 20
1053.086399282478
 30
0.0
213
0.0
223
12.5
233
0.0
1001
ACAD
1000
DSTYLE
1002
{
1070
   147
1040
6.25
1070
    77
1070
     0
1070
    41
1040
20.0
1070
   342
1005
DA
1002
}
  0
TEXT
  5
20F9
330
1F
100
AcDbEntity
  8
実形
100
AcDbText
 10
371.9132950990601
 20
1022.56907902734
 30
0.0
 40
25.0
  1
94R
 72
     2
 11
438.5799617657267
 21
1047.56907902734
 31
0.0
100
AcDbText
 73
     3
  0
LINE
  5
20FA
330
1F
100
AcDbEntity
  8
補助
100
AcDbLine
 10
104.0
 20
2024.0
 30
0.0
 11
104.0
 21
4.0
 31
0.0
  0
LEADER
  5
22C6
330
1F
100
AcDbEntity
  8
実形
100
AcDbLeader
  3
ISO-25
 40
25.0
 41
16.66666666666666
 76
     2
 10
1440.591646159226
 20
1660.117514491498
 30
0.0
 10
1504.894718389221
 20
1710.866662590152
 30
0.0
213
0.0
223
12.5
233
0.0
1001
ACAD
1000
DSTYLE
1002
{
1070
   147
1040
6.25
1070
    77
1070
     0
1070
    41
1040
20.0
1070
   342
1005
DA
1002
}
  0
TEXT
  5
22C7
330
1F
100
AcDbEntity
  8
実形
100
AcDbText
 10
1482.421087372524
 20
1716.008441848612
 30
0.0
 40
25.0
  1
94R
 72
     2
 11
1549.087754039191
 21
1741.008441848612
 31
0.0
100
AcDbText
 73
     3
  0
LEADER
  5
22C8
330
1F
100
AcDbEntity
  8
実形
100
AcDbLeader
  3
ISO-25
 40
25.0
 41
16.66666666666666
 76
     2
 10
1432.287758669406
 20
1103.583940000157
 30
0.0
 10
1491.836791416926
 20
1058.655828099527
 30
0.0
213
0.0
223
12.5
233
0.0
1001
ACAD
1000
DSTYLE
1002
{
1070
   147
1040
6.25
1070
    77
1070
     0
1070
    41
1040
20.0
1070
   342
1005
DA
1002
}
  0
TEXT
  5
22C9
330
1F
100
AcDbEntity
  8
実形
100
AcDbText
 10
1485.747266296051
 20
1023.552578305995
 30
0.0
 40
25.0
  1
94R
 72
     2
 11
1552.413932962718
 21
1048.552578305995
 31
0.0
100
AcDbText
 73
     3
  0
TEXT
  5
22F2
330
1F
100
AcDbEntity
  8
実形
100
AcDbText
 10
1159.356624429944
 20
1587.499388726399
 30
0.0
 40
25.0
  1
4角×
  7
MS明朝
 72
     2
 11
1250.785195858516
 21
1612.499388726399
 31
0.0
100
AcDbText
 73
     3
  0
LEADER
  5
22F3
330
1F
100
AcDbEntity
  8
実形
100
AcDbLeader
  3
ISO-25
 40
25.0
 41
16.66666666666666
 76
     2
 10
1394.45001052997
 20
1627.222611845492
 30
0.0
 10
1329.118306776511
 20
1603.809403386027
 30
0.0
213
0.0
223
12.5
233
0.0
1001
ACAD
1000
DSTYLE
1002
{
1070
   147
1040
6.25
1070
    77
1070
     0
1070
    41
1040
20.0
1070
   342
1005
DA
1002
}
  0
TEXT
  5
22F4
330
1F
100
AcDbEntity
  8
実形
100
AcDbText
 10
1256.605478575643
 20
1587.793448923873
 30
0.0
 40
25.0
  1
59R
 72
     2
 11
1323.27214524231
 21
1612.793448923873
 31
0.0
100
AcDbText
 73
     3
  0
LINE
  5
247B
330
1F
100
AcDbEntity
  8
実形
100
AcDbLine
 10
2543.233877365066
 20
684.0947101512854
 30
0.0
 11
2153.233877365066
 21
684.0947101512854
 31
0.0
  0
LINE
  5
247C
330
1F
100
AcDbEntity
  8
実形
100
AcDbLine
 10
2356.033877365065
 20
585.2947101512854
 30
0.0
 11
2075.233877365066
 21
585.2947101512854
 31
0.0
  0
ARC
  5
247D
330
1F
100
AcDbEntity
  8
実形
100
AcDbCircle
 10
2153.233877365066
 20
606.0947101512854
 30
0.0
 40
78.0
100
AcDbArc
 50
90.0
 51
180.0
  0
ARC
  5
247E
330
1F
100
AcDbEntity
  8
実形
100
AcDbCircle
 10
2543.233877365066
 20
606.0947101512854
 30
0.0
 40
78.0
100
AcDbArc
 50
0.0
 51
90.0
  0
LINE
  5
247F
330
1F
100
AcDbEntity
  8
実形
100
AcDbLine
 10
2621.233877365066
 20
543.6947101512854
 30
0.0
 11
2356.033877365065
 21
543.6947101512854
 31
0.0
  0
LINE
  5
2480
330
1F
100
AcDbEntity
  8
実形
100
AcDbLine
 10
2278.033877365066
 20
543.6947101512854
 30
0.0
 11
2153.233877365066
 21
543.6947101512854
 31
0.0
  0
LINE
  5
2481
330
1F
100
AcDbEntity
  8
実形
100
AcDbLine
 10
2324.833877365066
 20
543.6947101512854
 30
0.0
 11
2106.433877365066
 21
543.6947101512854
 31
0.0
  0
LINE
  5
2482
330
1F
100
AcDbEntity
  8
実形
100
AcDbLine
 10
2621.233877365066
 20
403.2947101512855
 30
0.0
 11
2386.105494977745
 21
403.2947101512855
 31
0.0
  0
LINE
  5
2483
330
1F
100
AcDbEntity
  8
実形
100
AcDbLine
 10
2278.033877365066
 20
403.2947101512855
 30
0.0
 11
2153.233877365066
 21
403.2947101512855
 31
0.0
  0
LINE
  5
2484
330
1F
100
AcDbEntity
  8
実形
100
AcDbLine
 10
2075.233877365066
 20
606.0947101512854
 30
0.0
 11
2075.233877365066
 21
585.2947101512854
 31
0.0
  0
LINE
  5
2485
330
1F
100
AcDbEntity
  8
実形
100
AcDbLine
 10
2090.833877365066
 20
559.2947101512845
 30
0.0
 11
2324.833877365066
 21
559.2947101512845
 31
0.0
  0
LINE
  5
2486
330
1F
100
AcDbEntity
  8
実形
100
AcDbLine
 10
2356.033877365065
 20
585.2947101512854
 30
0.0
 11
2356.033877365065
 21
543.6947101512854
 31
0.0
  0
LINE
  5
2487
330
1F
100
AcDbEntity
  8
実形
100
AcDbLine
 10
2278.033877365066
 20
543.6947101512854
 30
0.0
 11
2153.233877365066
 21
543.6947101512854
 31
0.0
  0
LINE
  5
2488
330
1F
100
AcDbEntity
  8
実形
100
AcDbLine
 10
2621.233877365066
 20
606.0947101512854
 30
0.0
 11
2621.233877365066
 21
403.2947101512855
 31
0.0
  0
LINE
  5
2489
330
1F
100
AcDbEntity
  8
実形
100
AcDbLine
 10
2153.233877365066
 20
543.6947101512854
 30
0.0
 11
2153.233877365066
 21
403.2947101512863
 31
0.0
  0
LINE
  5
248A
330
1F
100
AcDbEntity
  8
実形
100
AcDbLine
 10
2090.833877365066
 20
559.2947101512845
 30
0.0
 11
2090.833877365066
 21
356.5086976533553
 31
0.0
  0
LINE
  5
248B
330
1F
100
AcDbEntity
  8
実形
100
AcDbLine
 10
2106.433877365066
 20
543.6947101512854
 30
0.0
 11
2106.433877365066
 21
356.5086976533554
 31
0.0
  0
ARC
  5
248C
330
1F
100
AcDbEntity
  8
実形
100
AcDbCircle
 10
2317.033877365066
 20
543.6947101512854
 30
0.0
 40
39.0
100
AcDbArc
 50
180.0
 51
0.0
  0
TEXT
  5
248D
330
1F
100
AcDbEntity
  8
実形
100
AcDbText
 10
1844.08269694555
 20
410.9876312842443
 30
0.0
 40
35.0
  1
シンク厚　
 11
1844.08269694555
 21
406.3209646175776
 31
0.0
100
AcDbText
 73
     1
  0
DIMENSION
  5
248E
330
1F
100
AcDbEntity
  8
実形
100
AcDbDimension
  2
*D29
 10
2075.233877365067
 20
467.1003685502147
 30
0.0
 11
2054.88545157578
 21
491.5915116428197
 31
0.0
 70
   160
  1
1
 71
     5
 42
15.59999999999991
  3
ISO-25
100
AcDbAlignedDimension
 13
2090.833877365067
 23
559.2947101512846
 33
0.0
 14
2075.233877365067
 24
533.5029867284119
 34
0.0
 50
180.0
100
AcDbRotatedDimension
1001
ACAD
1000
DSTYLE
1002
{
1070
   282
1070
     1
1070
   281
1070
     1
1070
    41
1040
5.0
1070
    42
1040
6.0
1070
   140
1040
25.0
1070
   147
1040
1.199999999999999
1070
   279
1070
     2
1070
   289
1070
     2
1070
   371
1070
    13
1070
   372
1070
    13
1002
}
  0
TEXT
  5
248F
330
1F
100
AcDbEntity
  8
実形
  6
HIDDEN2
100
AcDbText
 10
2095.797198899368
 20
462.9308652071995
 30
0.0
 40
10.14
  1
● 
 71
     2
100
AcDbText
  0
TEXT
  5
2490
330
1F
100
AcDbEntity
  8
実形
  6
HIDDEN2
100
AcDbText
 10
2079.566838424828
 20
462.4970760796131
 30
0.0
 40
10.14
  1
● 
 71
     2
100
AcDbText
  0
LINE
  5
2491
330
1F
100
AcDbEntity
  8
実形
100
AcDbLine
 10
2091.245173341136
 20
467.4229398449074
 30
0.0
 11
2075.560266305432
 21
467.4229398449074
 31
0.0
  0
LINE
  5
2492
330
1F
100
AcDbEntity
  8
実形
100
AcDbLine
 10
2386.105494977745
 20
403.2947101512855
 30
0.0
 11
2356.033877365065
 21
403.2947101512855
 31
0.0
  0
ARC
  5
2493
330
1F
100
AcDbEntity
  8
実形
100
AcDbCircle
 10
2317.033877365066
 20
403.2947101512855
 30
0.0
 40
39.0
100
AcDbArc
 50
0.0
 51
180.0
  0
LINE
  5
2494
330
1F
100
AcDbEntity
  8
実形
100
AcDbLine
 10
2278.033877365066
 20
457.3521962228079
 30
0.0
 11
2278.033877365066
 21
439.4500692892673
 31
0.0
  0
LINE
  5
2495
330
1F
100
AcDbEntity
  8
実形
100
AcDbLine
 10
2356.033877365065
 20
457.3521962228079
 30
0.0
 11
2356.033877365065
 21
439.4977027967055
 31
0.0
  0
TEXT
  5
2496
330
1F
100
AcDbEntity
  8
実形
100
AcDbText
 10
1859.409434822997
 20
359.2737114633438
 30
0.0
 40
28.0
  1
0.8mm
 11
1859.409434822997
 21
355.5403781300104
 31
0.0
100
AcDbText
 73
     1
  0
TEXT
  5
2497
330
1F
100
AcDbEntity
  8
実形
100
AcDbText
 10
1969.171950854548
 20
724.7069313792997
 30
0.0
 40
28.0
  1
5R
 11
1969.171950854548
 21
720.9735980459663
 31
0.0
100
AcDbText
 73
     1
  0
DIMENSION
  5
2498
330
1F
100
AcDbEntity
  8
実形
100
AcDbDimension
  2
*D30
 10
2324.833877365066
 20
617.1548568615962
 30
0.0
 11
2207.833877365066
 21
635.9048568615962
 31
0.0
 70
    32
  1
15
 71
     5
 42
234.0
  3
ISO-25
100
AcDbAlignedDimension
 13
2090.833877365066
 23
526.9073852958004
 33
0.0
 14
2324.833877365066
 24
526.9073852958004
 34
0.0
100
AcDbRotatedDimension
1001
ACAD
1000
DSTYLE
1002
{
1070
   279
1070
     2
1070
   371
1070
    18
1070
   372
1070
    18
1002
}
  0
LEADER
  5
2499
330
1F
100
AcDbEntity
  8
実形
100
AcDbLeader
  3
ISO-25
 76
     2
 10
2080.730586898456
 20
658.778126851076
 30
0.0
 10
2006.358162869183
 20
712.4806979619262
 30
0.0
1001
ACAD
1000
DSTYLE
1002
{
1070
   147
1040
6.25
1070
    77
1070
     0
1070
   279
1070
     2
1070
   371
1070
    18
1070
   372
1070
    18
1002
}
  0
LINE
  5
249A
330
1F
100
AcDbEntity
  8
実形
100
AcDbLine
 10
2324.833877365066
 20
559.2947101512845
 30
0.0
 11
2324.833877365066
 21
543.6947101512854
 31
0.0
  0
DIMENSION
  5
249B
330
1F
100
AcDbEntity
  8
実形
100
AcDbDimension
  2
*D31
 10
2228.767481940162
 20
543.6947101512855
 30
0.0
 11
2197.294896545438
 21
515.0052225685112
 31
0.0
 70
   160
  1
2.5
 71
     5
 42
38.99999999999995
  3
ISO-25
100
AcDbAlignedDimension
 13
2357.614562018891
 23
504.6947101512855
 33
0.0
 14
2281.267191428404
 24
543.6947101512855
 34
0.0
 50
90.0
100
AcDbRotatedDimension
1001
ACAD
1000
DSTYLE
1002
{
1070
   140
1040
23.0
1070
   279
1070
     2
1070
   371
1070
    18
1070
   372
1070
    18
1002
}
  0
DIMENSION
  5
249C
330
1F
100
AcDbEntity
  8
実形
100
AcDbDimension
  2
*D32
 10
2356.033877365066
 20
452.0882219802177
 30
0.0
 11
2317.033877365066
 21
470.8382219802177
 31
0.0
 70
    32
  1
5
 71
     5
 42
78.0
  3
ISO-25
100
AcDbAlignedDimension
 13
2278.033877365066
 23
513.0145559292668
 33
0.0
 14
2356.033877365066
 24
513.0145559292668
 34
0.0
100
AcDbRotatedDimension
1001
ACAD
1000
DSTYLE
1002
{
1070
   279
1070
     2
1070
   371
1070
    18
1070
   372
1070
    18
1002
}
  0
LINE
  5
249D
330
1F
100
AcDbEntity
  8
実形
100
AcDbLine
 10
2278.033877365066
 20
452.0882219802177
 30
0.0
 11
2278.033877365066
 21
494.7079487038194
 31
0.0
  0
LINE
  5
249E
330
1F
100
AcDbEntity
  8
実形
100
AcDbLine
 10
2356.033877365065
 20
452.0882219802177
 30
0.0
 11
2356.033877365065
 21
493.5103420910408
 31
0.0
  0
DIMENSION
  5
249F
330
1F
100
AcDbEntity
  8
実形
100
AcDbDimension
  2
*D33
 10
2230.705930897853
 20
403.2947101512855
 30
0.0
 11
2198.086469593912
 21
431.6583152348946
 31
0.0
 70
   160
  1
2.5
 71
     5
 42
38.99999999999995
  3
ISO-25
100
AcDbAlignedDimension
 13
2331.326187506493
 23
442.2947101512853
 33
0.0
 14
2343.612691407768
 24
403.2947101512855
 34
0.0
 50
90.0
100
AcDbRotatedDimension
1001
ACAD
1000
DSTYLE
1002
{
1070
   140
1040
23.0
1070
   279
1070
     2
1070
   371
1070
    18
1070
   372
1070
    18
1002
}
  0
DIMENSION
  5
24A0
330
1F
100
AcDbEntity
  8
実形
100
AcDbDimension
  2
*D34
 10
2356.033877365066
 20
733.9587029177619
 30
0.0
 11
2215.633877365066
 21
752.7087029177619
 31
0.0
 70
    32
  1
18
 71
     5
 42
280.7999999999997
  3
ISO-25
100
AcDbAlignedDimension
 13
2075.233877365066
 23
631.1956311673393
 33
0.0
 14
2356.033877365066
 24
631.1956311673393
 34
0.0
100
AcDbRotatedDimension
1001
ACAD
1000
DSTYLE
1002
{
1070
   279
1070
     2
1070
   371
1070
    18
1070
   372
1070
    18
1002
}
  0
DIMENSION
  5
24A1
330
1F
100
AcDbEntity
  8
実形
100
AcDbDimension
  2
*D35
 10
2621.233877365066
 20
733.9587029177619
 30
0.0
 11
2488.633877365066
 21
752.7087029177619
 31
0.0
 70
    32
  1
17
 71
     5
 42
265.1999999999998
  3
ISO-25
100
AcDbAlignedDimension
 13
2356.033877365066
 23
631.1956311673382
 33
0.0
 14
2621.233877365066
 24
631.1956311673382
 34
0.0
100
AcDbRotatedDimension
1001
ACAD
1000
DSTYLE
1002
{
1070
   279
1070
     2
1070
   371
1070
    18
1070
   372
1070
    18
1002
}
  0
DIMENSION
  5
24A2
330
1F
100
AcDbEntity
  8
実形
100
AcDbDimension
  2
*D36
 10
2621.233877365066
 20
777.4666415156134
 30
0.0
 11
2348.233877365066
 21
796.2166415156134
 31
0.0
 70
    32
  1
35
 71
     5
 42
545.9999999999995
  3
ISO-25
100
AcDbAlignedDimension
 13
2075.233877365066
 23
631.1956311673382
 33
0.0
 14
2621.233877365066
 24
631.1956311673382
 34
0.0
100
AcDbRotatedDimension
1001
ACAD
1000
DSTYLE
1002
{
1070
   279
1070
     2
1070
   371
1070
    18
1070
   372
1070
    18
1002
}
  0
TEXT
  5
24A3
330
1F
100
AcDbEntity
  8
実形
100
AcDbText
 10
2661.234589240095
 20
713.6502811430476
 30
0.0
 40
28.0
  1
5R
 11
2661.234589240095
 21
709.9169478097143
 31
0.0
100
AcDbText
 73
     1
  0
DIMENSION
  5
24A4
330
1F
100
AcDbEntity
  8
実形
100
AcDbDimension
  2
*D37
 10
2153.233877365066
 20
297.5085770831867
 30
0.0
 11
2053.203290699754
 21
332.9138518235977
 31
0.0
 70
   160
  1
3.2
 71
     5
 42
46.80000000000018
  3
ISO-25
100
AcDbAlignedDimension
 13
2106.433877365066
 23
411.5474686202857
 33
0.0
 14
2153.233877365066
 24
411.5474686202857
 34
0.0
100
AcDbRotatedDimension
1001
ACAD
1000
DSTYLE
1002
{
1070
   140
1040
25.0
1070
   279
1070
     2
1070
   371
1070
    18
1070
   372
1070
    18
1002
}
  0
DIMENSION
  5
24A5
330
1F
100
AcDbEntity
  8
実形
100
AcDbDimension
  2
*D38
 10
2278.033877365066
 20
297.5085770831867
 30
0.0
 11
2215.633877365066
 21
316.2585770831867
 31
0.0
 70
    32
  1
8
 71
     5
 42
124.8000000000001
  3
ISO-25
100
AcDbAlignedDimension
 13
2153.233877365066
 23
411.5474686202857
 33
0.0
 14
2278.033877365066
 24
411.5474686202857
 34
0.0
100
AcDbRotatedDimension
1001
ACAD
1000
DSTYLE
1002
{
1070
   279
1070
     2
1070
   371
1070
    18
1070
   372
1070
    18
1002
}
  0
DIMENSION
  5
24A6
330
1F
100
AcDbEntity
  8
実形
100
AcDbDimension
  2
*D39
 10
2356.033877365066
 20
297.5085770831867
 30
0.0
 11
2317.033877365066
 21
316.2585770831867
 31
0.0
 70
    32
  1
5
 71
     5
 42
78.0
  3
ISO-25
100
AcDbAlignedDimension
 13
2278.033877365066
 23
411.5474686202857
 33
0.0
 14
2356.033877365066
 24
411.5474686202857
 34
0.0
100
AcDbRotatedDimension
1001
ACAD
1000
DSTYLE
1002
{
1070
   279
1070
     2
1070
   371
1070
    18
1070
   372
1070
    18
1002
}
  0
DIMENSION
  5
24A7
330
1F
100
AcDbEntity
  8
実形
100
AcDbDimension
  2
*D40
 10
2621.233877365066
 20
297.5085770831867
 30
0.0
 11
2488.633877365066
 21
316.2585770831867
 31
0.0
 70
    32
  1
17
 71
     5
 42
265.1999999999998
  3
ISO-25
100
AcDbAlignedDimension
 13
2356.033877365066
 23
411.5474686202857
 33
0.0
 14
2621.233877365066
 24
411.5474686202857
 34
0.0
100
AcDbRotatedDimension
1001
ACAD
1000
DSTYLE
1002
{
1070
   279
1070
     2
1070
   371
1070
    18
1070
   372
1070
    18
1002
}
  0
DIMENSION
  5
24A8
330
1F
100
AcDbEntity
  8
実形
100
AcDbDimension
  2
*D41
 10
2155.023276234156
 20
247.5388396829094
 30
0.0
 11
2116.023276234157
 21
266.2888396829094
 31
0.0
 70
    32
  1
5
 71
     5
 42
77.99999999999954
  3
ISO-25
100
AcDbAlignedDimension
 13
2077.023276234157
 23
362.8281686160613
 33
0.0
 14
2155.023276234156
 24
362.8281686160613
 34
0.0
100
AcDbRotatedDimension
1001
ACAD
1000
DSTYLE
1002
{
1070
   279
1070
     2
1070
   371
1070
    18
1070
   372
1070
    18
1002
}
  0
DIMENSION
  5
24A9
330
1F
100
AcDbEntity
  8
実形
100
AcDbDimension
  2
*D42
 10
2623.023276234156
 20
247.5388396829094
 30
0.0
 11
2389.023276234156
 21
266.2888396829094
 31
0.0
 70
    32
  1
30
 71
     5
 42
468.0
  3
ISO-25
100
AcDbAlignedDimension
 13
2155.023276234156
 23
362.8281686160613
 33
0.0
 14
2623.023276234156
 24
362.8281686160613
 34
0.0
100
AcDbRotatedDimension
1001
ACAD
1000
DSTYLE
1002
{
1070
   279
1070
     2
1070
   371
1070
    18
1070
   372
1070
    18
1002
}
  0
LINE
  5
24AA
330
1F
100
AcDbEntity
  8
実形
100
AcDbLine
 10
2089.14414202772
 20
414.8786635805636
 30
0.0
 11
2005.196656620899
 21
408.9889439325022
 31
0.0
  0
LINE
  5
24AB
330
1F
100
AcDbEntity
  8
実形
100
AcDbLine
 10
2088.820600113063
 20
414.7274049971472
 30
0.0
 11
2056.485883910302
 21
400.9756935648645
 31
0.0
  0
LINE
  5
24AC
330
1F
100
AcDbEntity
  8
実形
100
AcDbLine
 10
2088.472360117057
 20
415.6242072570588
 30
0.0
 11
2056.198770657017
 21
421.9662971197472
 31
0.0
  0
TEXT
  5
24AD
330
1F
100
AcDbEntity
  8
実形
370
    -2
100
AcDbText
 10
1943.905583280765
 20
836.850626796042
 30
0.0
 40
38.0
  1
A-A　断面詳細図
100
AcDbText
  0
TEXT
  5
24AE
330
1F
100
AcDbEntity
  8
実形
370
    -2
100
AcDbText
 10
2039.041635208127
 20
838.8009194430942
 30
0.0
 40
35.0
  1
´
100
AcDbText
  0
DIMENSION
  5
24AF
330
1F
100
AcDbEntity
  8
実形
100
AcDbDimension
  2
*D43
 10
1970.032114275532
 20
585.2947101512854
 30
0.0
 11
1951.282114275532
 21
634.6947101512859
 31
0.0
 70
    32
  1
6.5
 71
     5
 42
98.80000000000007
  3
ISO-25
100
AcDbAlignedDimension
 13
2097.328912889143
 23
684.0947101512855
 33
0.0
 14
2097.328912889143
 24
585.2947101512854
 34
0.0
 50
90.0
100
AcDbRotatedDimension
1001
ACAD
1000
DSTYLE
1002
{
1070
   279
1070
     2
1070
   371
1070
    18
1070
   372
1070
    18
1002
}
  0
DIMENSION
  5
24B0
330
1F
100
AcDbEntity
  8
実形
100
AcDbDimension
  2
*D44
 10
1916.035186721017
 20
559.2947101512846
 30
0.0
 11
1897.285186721017
 21
621.6947101512854
 31
0.0
 70
    32
  1
8.2
 71
     5
 42
124.8000000000008
  3
ISO-25
100
AcDbAlignedDimension
 13
2097.328912889143
 23
684.0947101512855
 33
0.0
 14
2097.328912889143
 24
559.2947101512846
 34
0.0
 50
90.0
100
AcDbRotatedDimension
1001
ACAD
1000
DSTYLE
1002
{
1070
   279
1070
     2
1070
   371
1070
    18
1070
   372
1070
    18
1002
}
  0
DIMENSION
  5
24B1
330
1F
100
AcDbEntity
  8
実形
100
AcDbDimension
  2
*D45
 10
1864.389549972262
 20
684.0947101512855
 30
0.0
 11
1845.639549972261
 21
613.8947101512858
 31
0.0
 70
    32
  1
9
 71
     5
 42
140.4000000000001
  3
ISO-25
100
AcDbAlignedDimension
 13
2097.328912889143
 23
543.6947101512854
 33
0.0
 14
2097.328912889143
 24
684.0947101512855
 34
0.0
 50
90.0
100
AcDbRotatedDimension
1001
ACAD
1000
DSTYLE
1002
{
1070
   279
1070
     2
1070
   371
1070
    18
1070
   372
1070
    18
1002
}
  0
LINE
  5
24B2
330
1F
100
AcDbEntity
  8
実形
100
AcDbLine
 10
1970.032114275532
 20
559.4808025581515
 30
0.0
 11
1970.032114275532
 21
543.6947101512854
 31
0.0
  0
TEXT
  5
24B3
330
1F
100
AcDbEntity
  8
実形
  6
HIDDEN2
100
AcDbText
 10
1974.759963930668
 20
554.1584046865482
 30
0.0
 40
10.14
  1
● 
 71
     2
100
AcDbText
  0
TEXT
  5
24B4
330
1F
100
AcDbEntity
  8
実形
  6
HIDDEN2
100
AcDbText
 10
1974.759963930668
 20
539.0050600708654
 30
0.0
 40
10.14
  1
● 
 71
     2
100
AcDbText
  0
TEXT
  5
24B5
330
1F
100
AcDbEntity
  8
実形
100
AcDbText
 10
1965.904597556985
 20
483.7785695213888
 30
0.0
 40
29.25
  1
0.8
 50
90.0
 11
1969.804597556985
 21
483.7785695213888
 31
0.0
100
AcDbText
 73
     1
  0
ARC
  5
24B6
330
1F
100
AcDbEntity
  8
実形
100
AcDbCircle
 10
2095.749391898479
 20
294.0352561825519
 30
0.0
 40
37.21807911390647
100
AcDbArc
 50
10.88380498131339
 51
99.73672806232286
  0
ARC
  5
24B7
330
1F
100
AcDbEntity
  8
実形
100
AcDbCircle
 10
2101.132326064329
 20
286.3222816243725
 30
0.0
 40
34.71092069179851
100
AcDbArc
 50
27.82370983300087
 51
64.29661093933541
  0
ARC
  5
24B8
330
1F
100
AcDbEntity
  8
実形
100
AcDbCircle
 10
2095.736654257051
 20
304.1012932169378
 30
0.0
 40
36.96117099445193
100
AcDbArc
 50
355.5051092068189
 51
31.89192001425599
  0
DIMENSION
  5
24B9
330
1F
100
AcDbEntity
  8
実形
100
AcDbDimension
  2
*D46
 10
2673.699912636183
 20
403.2947101512855
 30
0.0
 11
2654.949912636183
 21
473.4947101512859
 31
0.0
 70
    32
  1
9
 71
     5
 42
140.4
  3
ISO-25
100
AcDbAlignedDimension
 13
2582.25404811461
 23
543.6947101512855
 33
0.0
 14
2582.25404811461
 24
403.2947101512855
 34
0.0
 50
90.0
100
AcDbRotatedDimension
1001
ACAD
1000
DSTYLE
1002
{
1070
   279
1070
     2
1070
   371
1070
    18
1070
   372
1070
    18
1002
}
  0
DIMENSION
  5
24BA
330
1F
100
AcDbEntity
  8
実形
100
AcDbDimension
  2
*D47
 10
2673.699912636183
 20
543.6947101512855
 30
0.0
 11
2654.949912636183
 21
613.8947101512859
 31
0.0
 70
    32
  1
9
 71
     5
 42
140.3999999999999
  3
ISO-25
100
AcDbAlignedDimension
 13
2582.25404811461
 23
684.0947101512855
 33
0.0
 14
2582.25404811461
 24
543.6947101512855
 34
0.0
 50
90.0
100
AcDbRotatedDimension
1001
ACAD
1000
DSTYLE
1002
{
1070
   279
1070
     2
1070
   371
1070
    18
1070
   372
1070
    18
1002
}
  0
DIMENSION
  5
24BB
330
1F
100
AcDbEntity
  8
実形
100
AcDbDimension
  2
*D48
 10
2715.480008308167
 20
403.2947101512855
 30
0.0
 11
2696.730008308167
 21
543.694710151286
 31
0.0
 70
    32
  1
18
 71
     5
 42
280.8
  3
ISO-25
100
AcDbAlignedDimension
 13
2582.25404811461
 23
684.0947101512855
 33
0.0
 14
2582.25404811461
 24
403.2947101512855
 34
0.0
 50
90.0
100
AcDbRotatedDimension
1001
ACAD
1000
DSTYLE
1002
{
1070
   279
1070
     2
1070
   371
1070
    18
1070
   372
1070
    18
1002
}
  0
LEADER
  5
24BC
330
1F
100
AcDbEntity
  8
実形
100
AcDbLeader
  3
ISO-25
 76
     2
 10
2598.968887029636
 20
666.6445109732322
 30
0.0
 10
2665.822583513264
 20
707.9203906258708
 30
0.0
1001
ACAD
1000
DSTYLE
1002
{
1070
   147
1040
6.25
1070
    77
1070
     0
1070
   279
1070
     2
1070
   371
1070
    18
1070
   372
1070
    18
1002
}
  0
LINE
  5
24BD
330
1F
100
AcDbEntity
  8
補助
100
AcDbLine
 10
2784.0
 20
1959.0
 30
0.0
 11
2019.387286519283
 21
1959.000000000001
 31
0.0
  0
LINE
  5
24BE
330
1F
100
AcDbEntity
  8
補助
100
AcDbLine
 10
2784.0
 20
1894.0
 30
0.0
 11
2019.387286519283
 21
1894.0
 31
0.0
  0
LINE
  5
24BF
330
1F
100
AcDbEntity
  8
補助
100
AcDbLine
 10
2784.0
 20
1829.0
 30
0.0
 11
2019.387286519283
 21
1829.0
 31
0.0
  0
LINE
  5
24C0
330
1F
100
AcDbEntity
  8
補助
100
AcDbLine
 10
2784.0
 20
1764.0
 30
0.0
 11
2019.387286519283
 21
1764.0
 31
0.0
  0
LINE
  5
24C1
330
1F
100
AcDbEntity
  8
補助
100
AcDbLine
 10
2202.547653420927
 20
1764.0
 30
0.0
 11
2202.547653420927
 21
2024.0
 31
0.0
  0
LINE
  5
24C2
330
1F
100
AcDbEntity
  8
補助
100
AcDbLine
 10
2019.387286519283
 20
1764.0
 30
0.0
 11
2019.387286519283
 21
2024.0
 31
0.0
  0
TEXT
  5
24C3
330
1F
100
AcDbEntity
  8
補助
100
AcDbText
 10
2050.295698850121
 20
1976.328571428572
 30
0.0
 40
30.0
  1
部品名
  7
明朝
 72
     4
 11
2116.124270278692
 21
1991.5
 31
0.0
100
AcDbText
  0
TEXT
  5
24C4
330
1F
100
AcDbEntity
  8
補助
100
AcDbText
 10
2627.614285714286
 20
1976.071428571429
 30
0.0
 40
30.0
  1
厚さ
  7
明朝
 72
     4
 11
2671.5
 21
1991.5
 31
0.0
100
AcDbText
  0
LINE
  5
24C5
330
1F
100
AcDbEntity
  8
補助
100
AcDbLine
 10
2559.0
 20
1764.0
 30
0.0
 11
2559.0
 21
2024.0
 31
0.0
  0
TEXT
  5
24C6
330
1F
100
AcDbEntity
  8
補助
100
AcDbText
 10
2338.490869919937
 20
1975.947979478155
 30
0.0
 40
30.0
  1
材質
  7
明朝
 72
     4
 11
2382.376584205651
 21
1991.119408049583
 31
0.0
100
AcDbText
  0
TEXT
  5
24C7
330
1F
100
AcDbEntity
  8
実形
100
AcDbText
 10
2048.227810657788
 20
1910.557142857143
 30
0.0
 40
30.0
  1
ボウル
  7
明朝
 72
     4
 11
2114.056382086359
 21
1926.5
 31
0.0
100
AcDbText
  0
TEXT
  5
24C8
330
1F
100
AcDbEntity
  8
実形
100
AcDbText
 10
2594.700000000001
 20
1911.842857142857
 30
0.0
 40
30.0
  1
0.8ｍｍ
  7
明朝
 72
     4
 11
2671.500000000001
 21
1926.5
 31
0.0
100
AcDbText
  0
TEXT
  5
24C9
330
1F
100
AcDbEntity
  8
実形
100
AcDbText
 10
2239.074011965008
 20
1910.728571428572
 30
0.0
 40
30.0
  1
SUS304（No.4）
  7
明朝
 72
     4
 11
2392.674011965008
 21
1926.5
 31
0.0
100
AcDbText
  0
TEXT
  5
24CA
330
1F
100
AcDbEntity
  8
実形
100
AcDbText
 10
2070.170667800645
 20
1846.242857142857
 30
0.0
 40
30.0
  1
天板
  7
明朝
 72
     4
 11
2114.056382086359
 21
1861.5
 31
0.0
100
AcDbText
  0
TEXT
  5
24CB
330
1F
100
AcDbEntity
  8
実形
100
AcDbText
 10
2219.734774251222
 20
1848.285714285714
 30
0.0
 40
25.0
  1
アクリル人工大理石
  7
明朝
 72
     4
 11
2384.306202822651
 21
1861.5
 31
0.0
100
AcDbText
  0
TEXT
  5
24CC
330
1F
100
AcDbEntity
  8
実形
100
AcDbText
 10
2605.67142857143
 20
1846.842857142857
 30
0.0
 40
30.0
  1
18ｍｍ
  7
明朝
 72
     4
 11
2671.500000000001
 21
1861.5
 31
0.0
100
AcDbText
  0
TEXT
  5
24CD
330
1F
100
AcDbEntity
  8
実形
100
AcDbText
 10
2026.284953514931
 20
1780.557142857143
 30
0.0
 40
30.0
  1
ポケット
  7
明朝
 72
     4
 11
2114.056382086359
 21
1796.5
 31
0.0
100
AcDbText
  0
TEXT
  5
24CE
330
1F
100
AcDbEntity
  8
実形
100
AcDbText
 10
2292.877631394079
 20
1783.642857142857
 30
0.0
 40
25.0
  1
樹脂（PP）
  7
明朝
 72
     4
 11
2384.306202822651
 21
1796.5
 31
0.0
100
AcDbText
  0
TEXT
  5
24CF
330
1F
100
AcDbEntity
  8
実形
100
AcDbText
 10
2616.642857142859
 20
1781.842857142857
 30
0.0
 40
30.0
  1
3ｍｍ
  7
明朝
 72
     4
 11
2671.500000000001
 21
1796.5
 31
0.0
100
AcDbText
  0
LINE
  5
2736
330
1F
100
AcDbEntity
  8
実形
100
AcDbLine
 10
1809.949116981509
 20
1123.63209989488
 30
0.0
 11
1812.14911698151
 21
1123.63209989488
 31
0.0
  0
LINE
  5
2737
330
1F
100
AcDbEntity
  8
実形
100
AcDbLine
 10
1815.14911698151
 20
1126.63209989488
 30
0.0
 11
1815.14911698151
 21
1133.63209989488
 31
0.0
  0
LINE
  5
2738
330
1F
100
AcDbEntity
  8
実形
100
AcDbLine
 10
1820.14911698151
 20
1138.63209989488
 30
0.0
 11
1965.962178716498
 21
1138.63209989488
 31
0.0
  0
LINE
  5
2739
330
1F
100
AcDbEntity
  8
実形
100
AcDbLine
 10
2000.149116981509
 20
1328.13209989488
 30
0.0
 11
2000.14911698151
 21
1518.63209989488
 31
0.0
  0
LINE
  5
273A
330
1F
100
AcDbEntity
  8
実形
100
AcDbLine
 10
1970.14911698151
 20
1548.63209989488
 30
0.0
 11
1820.14911698151
 21
1548.63209989488
 31
0.0
  0
LINE
  5
273B
330
1F
100
AcDbEntity
  8
実形
100
AcDbLine
 10
1815.14911698151
 20
1553.63209989488
 30
0.0
 11
1815.14911698151
 21
1560.63209989488
 31
0.0
  0
LINE
  5
273C
330
1F
100
AcDbEntity
  8
実形
100
AcDbLine
 10
1812.14911698151
 20
1563.63209989488
 30
0.0
 11
1809.949116981509
 21
1563.63209989488
 31
0.0
  0
ARC
  5
273D
330
1F
100
AcDbEntity
  8
実形
100
AcDbCircle
 10
1812.14911698151
 20
1560.63209989488
 30
0.0
 40
3.0
100
AcDbArc
 50
0.0
 51
90.0
  0
ARC
  5
273E
330
1F
100
AcDbEntity
  8
実形
100
AcDbCircle
 10
1820.14911698151
 20
1133.63209989488
 30
0.0
 40
5.0
100
AcDbArc
 50
90.0
 51
180.0
  0
ARC
  5
273F
330
1F
100
AcDbEntity
  8
実形
100
AcDbCircle
 10
1820.14911698151
 20
1553.63209989488
 30
0.0
 40
5.0
100
AcDbArc
 50
180.0
 51
270.0
  0
ARC
  5
2740
330
1F
100
AcDbEntity
  8
実形
100
AcDbCircle
 10
1970.14911698151
 20
1518.63209989488
 30
0.0
 40
30.0
100
AcDbArc
 50
0.0
 51
90.0
  0
LINE
  5
2741
330
1F
100
AcDbEntity
  8
実形
100
AcDbLine
 10
2000.14911698151
 20
1328.13209989488
 30
0.0
 11
1995.951898465765
 21
1167.846791445644
 31
0.0
  0
ARC
  5
2742
330
1F
100
AcDbEntity
  8
実形
100
AcDbCircle
 10
1965.962178716498
 20
1168.63209989488
 30
0.0
 40
30.0
100
AcDbArc
 50
270.0
 51
358.4999999999972
  0
LINE
  5
2743
330
1F
100
AcDbEntity
  8
実形
100
AcDbLine
 10
1791.94911698151
 20
1672.63209989488
 30
0.0
 11
1791.949116981509
 21
1094.63209989488
 31
0.0
  0
ARC
  5
2744
330
1F
100
AcDbEntity
  8
実形
100
AcDbCircle
 10
1796.949116981509
 20
1094.63209989488
 30
0.0
 40
5.0
100
AcDbArc
 50
180.0
 51
270.0
  0
LINE
  5
2745
330
1F
100
AcDbEntity
  8
実形
100
AcDbLine
 10
1809.94911698151
 20
1677.632099894881
 30
0.0
 11
1809.94911698151
 21
1089.63209989488
 31
0.0
  0
ARC
  5
2746
330
1F
100
AcDbEntity
  8
実形
100
AcDbCircle
 10
1812.14911698151
 20
1126.63209989488
 30
0.0
 40
3.0
100
AcDbArc
 50
270.0
 51
0.0
  0
DIMENSION
  5
2747
330
1F
100
AcDbEntity
  8
寸法
100
AcDbDimension
  2
*D49
 10
2118.720961652898
 20
1339.13209989488
 30
0.0
 11
2118.720961652897
 21
1417.840091852007
 31
0.0
 70
   160
  1
158%%C
 71
     5
 42
159.0
  3
ISO-25
100
AcDbAlignedDimension
 13
2007.14911698151
 23
1498.13209989488
 33
0.0
 14
2007.14911698151
 24
1339.13209989488
 34
0.0
 50
90.0
100
AcDbRotatedDimension
  0
DIMENSION
  5
2748
330
1F
100
AcDbEntity
  8
寸法
100
AcDbDimension
  2
*D50
 10
1946.685378215365
 20
1328.13209989488
 30
0.0
 11
1946.685378215365
 21
1418.63209989488
 31
0.0
 70
   160
  1
181%%C
 71
     5
 42
181.0
  3
ISO-25
100
AcDbAlignedDimension
 13
2054.388502804641
 23
1509.13209989488
 33
0.0
 14
2054.388502804641
 24
1328.13209989488
 34
0.0
 50
90.0
100
AcDbRotatedDimension
  0
LEADER
  5
2749
330
1F
100
AcDbEntity
  8
寸法
100
AcDbLeader
  3
ISO-25
 40
25.0
 41
62.5
 76
     2
 10
1995.477370283126
 20
1537.614933337339
 30
0.0
 10
2042.056394159385
 20
1570.069828996605
 30
0.0
213
0.0
223
-12.5
233
0.0
1001
ACAD
1000
DSTYLE
1002
{
1070
   147
1040
6.25
1070
    77
1070
     0
1070
    41
1040
25.0
1070
   342
1005
DA
1002
}
  0
TEXT
  5
274A
330
1F
100
AcDbEntity
  8
寸法
100
AcDbText
 10
2052.533990247517
 20
1569.022895343171
 30
0.0
 40
25.0
  1
30R
 11
2052.533990247517
 21
1565.689562009838
 31
0.0
100
AcDbText
 73
     1
  0
LEADER
  5
274B
330
1F
100
AcDbEntity
  8
実形
100
AcDbLeader
  3
ISO-25
 76
     2
 10
1820.284628052652
 20
1134.44971953632
 30
0.0
 10
1854.898915424992
 20
1096.727738348246
 30
0.0
1001
ACAD
1000
DSTYLE
1002
{
1070
   147
1040
6.25
1070
    77
1070
     0
1070
    41
1040
20.0
1070
   342
1005
DA
1002
}
  0
LEADER
  5
274C
330
1F
100
AcDbEntity
  8
実形
100
AcDbLeader
  3
ISO-25
 76
     2
 10
1811.395211114165
 20
1126.952564418616
 30
0.0
 10
1760.992777313417
 20
1162.914652881744
 30
0.0
1001
ACAD
1000
DSTYLE
1002
{
1070
   147
1040
6.25
1070
    77
1070
     0
1070
    41
1040
20.0
1070
   342
1005
DA
1002
}
  0
LEADER
  5
274D
330
1F
100
AcDbEntity
  8
実形
100
AcDbLeader
  3
ISO-25
 76
     2
 10
1985.256886949407
 20
1151.902966150922
 30
0.0
 10
1947.602116438895
 20
1188.142318839879
 30
0.0
1001
ACAD
1000
DSTYLE
1002
{
1070
   147
1040
6.25
1070
    77
1070
     0
1070
    41
1040
20.0
1070
   342
1005
DA
1002
}
  0
TEXT
  5
274E
330
1F
100
AcDbEntity
  8
寸法
100
AcDbText
 10
1875.603332331404
 20
1186.19241401332
 30
0.0
 40
25.0
  1
30R
 11
1875.603332331404
 21
1182.859080679987
 31
0.0
100
AcDbText
 73
     1
  0
TEXT
  5
274F
330
1F
100
AcDbEntity
  8
寸法
100
AcDbText
 10
1711.562506408885
 20
1156.38170444597
 30
0.0
 40
25.0
  1
3R
 11
1711.562506408885
 21
1153.048371112637
 31
0.0
100
AcDbText
 73
     1
  0
TEXT
  5
2750
330
1F
100
AcDbEntity
  8
寸法
100
AcDbText
 10
1874.867551890354
 20
1075.240176123859
 30
0.0
 40
25.0
  1
5R
 11
1874.867551890354
 21
1071.906842790526
 31
0.0
100
AcDbText
 73
     1
  0
LINE
  5
2751
330
1F
100
AcDbEntity
  8
実形
100
AcDbLine
 10
1924.149116981509
 20
1620.23209989488
 30
0.0
 11
1912.14911698151
 21
1620.23209989488
 31
0.0
  0
LINE
  5
2752
330
1F
100
AcDbEntity
  8
実形
100
AcDbLine
 10
1926.14911698151
 20
1618.78209989488
 30
0.0
 11
1906.14911698151
 21
1618.78209989488
 31
0.0
  0
LINE
  5
2753
330
1F
100
AcDbEntity
  8
実形
100
AcDbLine
 10
1812.14911698151
 20
1643.63209989488
 30
0.0
 11
1809.94911698151
 21
1643.63209989488
 31
0.0
  0
ARC
  5
2754
330
1F
100
AcDbEntity
  8
実形
100
AcDbCircle
 10
1812.14911698151
 20
1640.63209989488
 30
0.0
 40
3.0
100
AcDbArc
 50
0.0
 51
90.0
  0
LINE
  5
2755
330
1F
100
AcDbEntity
  8
実形
100
AcDbLine
 10
1818.14911698151
 20
1633.632099894879
 30
0.0
 11
1900.14911698151
 21
1633.632099894879
 31
0.0
  0
ARC
  5
2756
330
1F
100
AcDbEntity
  8
実形
100
AcDbCircle
 10
1906.14911698151
 20
1629.932099894879
 30
0.0
 40
3.0
100
AcDbArc
 50
180.0
 51
240.0000000000027
  0
ARC
  5
2757
330
1F
100
AcDbEntity
  8
実形
100
AcDbCircle
 10
1903.14911698151
 20
1624.735947472173
 30
0.0
 40
3.0
100
AcDbArc
 50
0.0
 51
60.00000000000272
  0
LINE
  5
2758
330
1F
100
AcDbEntity
  8
実形
100
AcDbLine
 10
1903.14911698151
 20
1630.63209989488
 30
0.0
 11
1903.14911698151
 21
1629.128252317586
 31
0.0
  0
LINE
  5
2759
330
1F
100
AcDbEntity
  8
実形
100
AcDbLine
 10
1906.14911698151
 20
1624.735947472173
 30
0.0
 11
1906.14911698151
 21
1582.528252317588
 31
0.0
  0
LINE
  5
275A
330
1F
100
AcDbEntity
  8
実形
100
AcDbLine
 10
1926.14911698151
 20
1618.78209989488
 30
0.0
 11
1926.14911698151
 21
1603.63209989488
 31
0.0
  0
LINE
  5
275B
330
1F
100
AcDbEntity
  8
実形
100
AcDbLine
 10
1911.14911698151
 20
1618.78209989488
 30
0.0
 11
1911.14911698151
 21
1603.632099894881
 31
0.0
  0
LINE
  5
275C
330
1F
100
AcDbEntity
  8
実形
100
AcDbLine
 10
1893.64911698151
 20
1573.63209989488
 30
0.0
 11
1809.94911698151
 21
1573.63209989488
 31
0.0
  0
ARC
  5
275D
330
1F
100
AcDbEntity
  8
実形
100
AcDbCircle
 10
1900.14911698151
 20
1630.632099894879
 30
0.0
 40
3.0
100
AcDbArc
 50
0.0
 51
90.0
  0
LINE
  5
275E
330
1F
100
AcDbEntity
  8
実形
100
AcDbLine
 10
1815.14911698151
 20
1640.63209989488
 30
0.0
 11
1815.14911698151
 21
1636.632099894879
 31
0.0
  0
ARC
  5
275F
330
1F
100
AcDbEntity
  8
実形
100
AcDbCircle
 10
1818.14911698151
 20
1636.632099894879
 30
0.0
 40
3.0
100
AcDbArc
 50
180.0
 51
270.0
  0
LINE
  5
2760
330
1F
100
AcDbEntity
  8
実形
100
AcDbLine
 10
1818.14911698151
 20
1573.63209989488
 30
0.0
 11
1900.14911698151
 21
1573.63209989488
 31
0.0
  0
LINE
  5
2761
330
1F
100
AcDbEntity
  8
実形
100
AcDbLine
 10
1906.14911698151
 20
1582.528252317587
 30
0.0
 11
1906.14911698151
 21
1624.735947472173
 31
0.0
  0
LINE
  5
2762
330
1F
100
AcDbEntity
  8
実形
100
AcDbLine
 10
1903.149116981509
 20
1576.63209989488
 30
0.0
 11
1903.14911698151
 21
1577.33209989488
 31
0.0
  0
DIMENSION
  5
2763
330
1F
100
AcDbEntity
  8
実形
100
AcDbDimension
  2
*D51
 10
1967.935456580462
 20
1587.03209989488
 30
0.0
 11
1996.583890271535
 21
1603.63209989488
 31
0.0
 70
   160
  1
33
 71
     5
 42
33.19999999999982
  3
ISO-25
100
AcDbAlignedDimension
 13
1926.14911698151
 23
1620.23209989488
 33
0.0
 14
1926.14911698151
 24
1587.03209989488
 34
0.0
 50
90.0
100
AcDbRotatedDimension
1001
ACAD
1000
DSTYLE
1002
{
1070
    76
1070
     1
1070
    75
1070
     1
1070
   279
1070
     2
1070
   341
1005
1A64
1002
}
  0
LINE
  5
2764
330
1F
100
AcDbEntity
  8
実形
100
AcDbLine
 10
1967.935456580462
 20
1587.03209989488
 30
0.0
 11
1938.988388442006
 21
1587.03209989488
 31
0.0
  0
LINE
  5
2765
330
1F
100
AcDbEntity
  8
実形
100
AcDbLine
 10
1967.935456580462
 20
1618.04459989488
 30
0.0
 11
1967.935456580462
 21
1620.23209989488
 31
0.0
  0
LINE
  5
2766
330
1F
100
AcDbEntity
  8
実形
100
AcDbLine
 10
1967.935456580462
 20
1620.23209989488
 30
0.0
 11
1939.161254975484
 21
1620.23209989488
 31
0.0
  0
ARC
  5
2767
330
1F
100
AcDbEntity
  8
実形
100
AcDbCircle
 10
1906.14911698151
 20
1577.332099894881
 30
0.0
 40
3.0
100
AcDbArc
 50
119.9999999999973
 51
180.0
  0
ARC
  5
2768
330
1F
100
AcDbEntity
  8
実形
100
AcDbCircle
 10
1903.14911698151
 20
1582.528252317588
 30
0.0
 40
3.0
100
AcDbArc
 50
299.9999999999973
 51
0.0
  0
ARC
  5
2769
330
1F
100
AcDbEntity
  8
実形
100
AcDbCircle
 10
1900.14911698151
 20
1576.632099894881
 30
0.0
 40
3.0
100
AcDbArc
 50
270.0
 51
0.0
  0
LINE
  5
276A
330
1F
100
AcDbEntity
  8
実形
100
AcDbLine
 10
1906.14911698151
 20
1624.735947472173
 30
0.0
 11
1906.14911698151
 21
1582.528252317588
 31
0.0
  0
LINE
  5
276B
330
1F
100
AcDbEntity
  8
実形
100
AcDbLine
 10
1925.14911698151
 20
1618.78209989488
 30
0.0
 11
1924.14911698151
 21
1620.23209989488
 31
0.0
  0
LINE
  5
276C
330
1F
100
AcDbEntity
  8
実形
100
AcDbLine
 10
1912.14911698151
 20
1620.23209989488
 30
0.0
 11
1911.14911698151
 21
1618.78209989488
 31
0.0
  0
LINE
  5
276D
330
1F
100
AcDbEntity
  8
実形
100
AcDbLine
 10
1924.149116981509
 20
1587.03209989488
 30
0.0
 11
1912.14911698151
 21
1587.03209989488
 31
0.0
  0
LINE
  5
276E
330
1F
100
AcDbEntity
  8
実形
100
AcDbLine
 10
1926.14911698151
 20
1588.48209989488
 30
0.0
 11
1906.14911698151
 21
1588.48209989488
 31
0.0
  0
LINE
  5
276F
330
1F
100
AcDbEntity
  8
実形
100
AcDbLine
 10
1926.14911698151
 20
1588.48209989488
 30
0.0
 11
1926.14911698151
 21
1603.63209989488
 31
0.0
  0
LINE
  5
2770
330
1F
100
AcDbEntity
  8
実形
100
AcDbLine
 10
1911.14911698151
 20
1588.48209989488
 30
0.0
 11
1911.14911698151
 21
1603.63209989488
 31
0.0
  0
LINE
  5
2771
330
1F
100
AcDbEntity
  8
実形
100
AcDbLine
 10
1925.14911698151
 20
1588.48209989488
 30
0.0
 11
1924.14911698151
 21
1587.03209989488
 31
0.0
  0
LINE
  5
2772
330
1F
100
AcDbEntity
  8
実形
100
AcDbLine
 10
1912.14911698151
 20
1587.03209989488
 30
0.0
 11
1911.14911698151
 21
1588.48209989488
 31
0.0
  0
LINE
  5
2773
330
1F
100
AcDbEntity
  8
実形
100
AcDbLine
 10
1988.634312696834
 20
1534.13209989488
 30
0.0
 11
1946.463467652199
 21
1534.13209989488
 31
0.0
  0
LINE
  5
2774
330
1F
100
AcDbEntity
  8
実形
100
AcDbLine
 10
1946.685378215365
 20
1509.13209989488
 30
0.0
 11
1946.685378215365
 21
1534.080143287854
 31
0.0
  0
HATCH
  5
2775
330
1F
100
AcDbEntity
  8
実形
100
AcDbHatch
 10
0.0
 20
0.0
 30
0.0
210
0.0
220
0.0
230
1.0
  2
SOLID
 70
     1
 71
     0
 91
        1
 92
        7
 72
     1
 73
     1
 93
        2
 10
1950.255062317104
 20
1534.369736735348
 42
1.0
 10
1943.268803544013
 20
1534.369736735348
 42
1.0
 97
        0
 75
     0
 76
     1
 47
0.3373960739521582
 98
        1
 10
1946.981829141688
 20
1532.563587361934
  0
TEXT
  5
2776
330
1F
100
AcDbEntity
  8
寸法
100
AcDbText
 10
1938.539206500833
 20
1503.755888556673
 30
0.0
 40
20.0
  1
25
 50
90.0
 11
1941.205873167499
 21
1503.755888556673
 31
0.0
100
AcDbText
 73
     1
  0
LINE
  5
2777
330
1F
100
AcDbEntity
  8
実形
100
AcDbLine
 10
1988.634312696834
 20
1303.13209989488
 30
0.0
 11
1946.463467652199
 21
1303.13209989488
 31
0.0
  0
LINE
  5
2778
330
1F
100
AcDbEntity
  8
実形
100
AcDbLine
 10
1946.685378215365
 20
1328.13209989488
 30
0.0
 11
1946.685378215365
 21
1303.184056501906
 31
0.0
  0
HATCH
  5
2779
330
1F
100
AcDbEntity
  8
実形
100
AcDbHatch
 10
0.0
 20
0.0
 30
0.0
210
0.0
220
0.0
230
1.0
  2
SOLID
 70
     1
 71
     0
 91
        1
 92
        7
 72
     1
 73
     1
 93
        2
 10
1950.255062317104
 20
1302.894463054413
 42
-1.0
 10
1943.268803544013
 20
1302.894463054413
 42
-1.0
 97
        0
 75
     0
 76
     1
 47
0.3373960739521582
 98
        1
 10
1946.981829141688
 20
1304.700612427827
  0
TEXT
  5
277A
330
1F
100
AcDbEntity
  8
寸法
100
AcDbText
 10
1938.539206500833
 20
1297.755888556673
 30
0.0
 40
20.0
  1
25
 50
90.0
 11
1941.205873167499
 21
1297.755888556673
 31
0.0
100
AcDbText
 73
     1
  0
LINE
  5
277B
330
1F
100
AcDbEntity
  8
実形
100
AcDbLine
 10
2007.14911698151
 20
1509.13209989488
 30
0.0
 11
2007.14911698151
 21
1328.132099894865
 31
0.0
  0
LINE
  5
277C
330
1F
100
AcDbEntity
  8
実形
100
AcDbLine
 10
2000.14911698151
 20
1509.13209989488
 30
0.0
 11
2007.14911698151
 21
1509.13209989488
 31
0.0
  0
LINE
  5
277D
330
1F
100
AcDbEntity
  8
実形
100
AcDbLine
 10
2000.149116981509
 20
1328.132099894863
 30
0.0
 11
2007.14911698151
 21
1328.132099894865
 31
0.0
  0
LINE
  5
277E
330
1F
100
AcDbEntity
  8
実形
100
AcDbLine
 10
1796.94911698151
 20
1677.63209989488
 30
0.0
 11
1809.949116981509
 21
1677.63209989488
 31
0.0
  0
ARC
  5
277F
330
1F
100
AcDbEntity
  8
実形
100
AcDbCircle
 10
1796.94911698151
 20
1672.63209989488
 30
0.0
 40
5.0
100
AcDbArc
 50
90.0
 51
180.0
  0
LINE
  5
2780
330
1F
100
AcDbEntity
  8
実形
100
AcDbLine
 10
1796.949116981509
 20
1089.63209989488
 30
0.0
 11
1809.94911698151
 21
1089.63209989488
 31
0.0
  0
DIMENSION
  5
2781
330
1F
100
AcDbEntity
  8
実形
100
AcDbDimension
  2
*D52
 10
1906.14911698151
 20
1719.541246899665
 30
0.0
 11
1849.049116981509
 21
1738.291246899665
 31
0.0
 70
    32
 71
     5
 42
114.2000000000007
  3
ISO-25
100
AcDbAlignedDimension
 13
1791.949116981509
 23
1620.23209989488
 33
0.0
 14
1906.14911698151
 24
1620.23209989488
 34
0.0
100
AcDbRotatedDimension
1001
ACAD
1000
DSTYLE
1002
{
1070
   341
1005
1A64
1002
}
  0
DIMENSION
  5
2782
330
1F
100
AcDbEntity
  8
実形
100
AcDbDimension
  2
*D53
 10
1926.14911698151
 20
1719.541246899665
 30
0.0
 11
1953.108159286323
 21
1723.202956427704
 31
0.0
 70
   160
 71
     5
 42
20.0
  3
ISO-25
100
AcDbAlignedDimension
 13
1906.14911698151
 23
1620.23209989488
 33
0.0
 14
1926.14911698151
 24
1620.23209989488
 34
0.0
100
AcDbRotatedDimension
1001
ACAD
1000
DSTYLE
1002
{
1070
   279
1070
     2
1070
   341
1005
1A64
1002
}
  0
LEADER
  5
2783
330
1F
100
AcDbEntity
  8
実形
100
AcDbLeader
  3
ISO-25
 40
25.0
 41
16.66666666666666
 76
     2
 10
1783.534594678808
 20
1106.085693023133
 30
0.0
 10
1724.057893496378
 20
1066.450033224284
 30
0.0
213
0.0
223
12.5
233
0.0
1001
ACAD
1000
DSTYLE
1002
{
1070
   147
1040
6.25
1070
    77
1070
     0
1070
    41
1040
20.0
1070
   342
1005
DA
1002
}
  0
TEXT
  5
2784
330
1F
100
AcDbEntity
  8
実形
100
AcDbText
 10
1692.667416393878
 20
1033.762065300064
 30
0.0
 40
25.0
  1
5R
 72
     2
 11
1734.334083060545
 21
1058.762065300064
 31
0.0
100
AcDbText
 73
     3
  0
DIMENSION
  5
2785
330
1F
100
AcDbEntity
  8
実形
100
AcDbDimension
  2
*D54
 10
2007.149116981511
 20
1009.213870944212
 30
0.0
 11
2058.551160517128
 21
1020.150765421663
 31
0.0
 70
   160
 71
     5
 42
7.000000000000909
  3
ISO-25
100
AcDbAlignedDimension
 13
2000.14911698151
 23
1125.720725531923
 33
0.0
 14
2007.149116981511
 24
1125.720725531923
 34
0.0
100
AcDbRotatedDimension
1001
ACAD
1000
DSTYLE
1002
{
1070
   279
1070
     2
1070
   289
1070
     2
1002
}
  0
DIMENSION
  5
2786
330
1F
100
AcDbEntity
  8
実形
100
AcDbDimension
  2
*D55
 10
2000.14911698151
 20
966.0470255649533
 30
0.0
 11
1905.04911698151
 21
984.7970255649533
 31
0.0
 70
    32
 71
     5
 42
190.1999999999998
  3
ISO-25
100
AcDbAlignedDimension
 13
1809.94911698151
 23
1125.720725531923
 33
0.0
 14
2000.14911698151
 24
1125.720725531924
 34
0.0
100
AcDbRotatedDimension
1001
ACAD
1000
DSTYLE
1002
{
1070
   279
1070
     2
1070
   289
1070
     2
1002
}
  0
DIMENSION
  5
2787
330
1F
100
AcDbEntity
  8
実形
100
AcDbDimension
  2
*D56
 10
2000.14911698151
 20
966.0470255649533
 30
0.0
 11
1756.460076691675
 21
984.7970255649533
 31
0.0
 70
   160
  1
18
 71
     5
 42
208.1999999999998
  3
ISO-25
100
AcDbAlignedDimension
 13
1791.94911698151
 23
1125.720725531923
 33
0.0
 14
2000.14911698151
 24
1125.720725531923
 34
0.0
100
AcDbRotatedDimension
1001
ACAD
1000
DSTYLE
1002
{
1070
   279
1070
     2
1070
   289
1070
     2
1002
}
  0
DIMENSION
  5
2788
330
1F
100
AcDbEntity
  8
実形
100
AcDbDimension
  2
*D57
 10
2000.14911698151
 20
918.0288402494179
 30
0.0
 11
1896.04911698151
 21
936.7788402494179
 31
0.0
 70
    32
 71
     5
 42
208.1999999999998
  3
ISO-25
100
AcDbAlignedDimension
 13
1791.94911698151
 23
1060.720725531923
 33
0.0
 14
2000.14911698151
 24
1060.720725531923
 34
0.0
100
AcDbRotatedDimension
1001
ACAD
1000
DSTYLE
1002
{
1070
   279
1070
     2
1070
   289
1070
     2
1002
}
  0
LEADER
  5
2789
330
1F
100
AcDbEntity
  8
実形
100
AcDbLeader
  3
ISO-25
 40
25.0
 41
16.66666666666666
 76
     2
 10
1785.55247891544
 20
1681.893367129387
 30
0.0
 10
1739.047811038159
 20
1724.247756950971
 30
0.0
213
0.0
223
12.5
233
0.0
1001
ACAD
1000
DSTYLE
1002
{
1070
   147
1040
6.25
1070
    77
1070
     0
1070
    41
1040
20.0
1070
   342
1005
DA
1002
}
  0
TEXT
  5
278A
330
1F
100
AcDbEntity
  8
実形
100
AcDbText
 10
1712.626808426227
 20
1731.779703143025
 30
0.0
 40
25.0
  1
5R
 72
     2
 11
1754.293475092894
 21
1756.779703143025
 31
0.0
100
AcDbText
 73
     3
  0
LINE
  5
29A2
330
1F
100
AcDbEntity
  8
実形
100
AcDbLine
 10
444.7543291184011
 20
810.249312304499
 30
0.0
 11
444.7543291184011
 21
797.2493123044988
 31
0.0
  0
LINE
  5
29A3
330
1F
100
AcDbEntity
  8
実形
100
AcDbLine
 10
1462.754329118401
 20
810.2493123044988
 30
0.0
 11
1462.754329118401
 21
797.249312304499
 31
0.0
  0
LINE
  5
29A4
330
1F
100
AcDbEntity
  8
実形
100
AcDbLine
 10
449.7543291184011
 20
815.249312304499
 30
0.0
 11
1457.754329118401
 21
815.2493123044989
 31
0.0
  0
LINE
  5
29A5
330
1F
100
AcDbEntity
  8
実形
100
AcDbLine
 10
444.7543291184011
 20
797.249312304499
 30
0.0
 11
1462.754329118401
 21
797.249312304499
 31
0.0
  0
DIMENSION
  5
29F9
330
1F
100
AcDbEntity
  8
実形
100
AcDbDimension
  2
*D58
 10
329.0325010601059
 20
797.2493123044991
 30
0.0
 11
248.8304203927523
 21
866.7957916495581
 31
0.0
 70
   160
 71
     5
 42
18.0
  3
ISO-25
100
AcDbAlignedDimension
 13
472.0322791688208
 23
815.249312304499
 33
0.0
 14
473.0110568099966
 24
797.2493123044991
 34
0.0
 50
90.0
100
AcDbRotatedDimension
1001
ACAD
1000
DSTYLE
1002
{
1070
   140
1040
25.0
1070
   279
1070
     2
1070
   371
1070
    18
1070
   372
1070
    18
1002
}
  0
DIMENSION
  5
29FA
330
1F
100
AcDbEntity
  8
実形
100
AcDbDimension
  2
*D59
 10
329.0325010601059
 20
792.0493123044991
 30
0.0
 11
251.6052708141319
 21
768.9890298485571
 31
0.0
 70
   160
 71
     5
 42
5.199999999999931
  3
ISO-25
100
AcDbAlignedDimension
 13
473.0110568099966
 23
797.2493123044991
 33
0.0
 14
473.0110568099966
 24
792.0493123044991
 34
0.0
 50
90.0
100
AcDbRotatedDimension
1001
ACAD
1000
DSTYLE
1002
{
1070
   140
1040
25.0
1070
   279
1070
     2
1070
   371
1070
    18
1070
   372
1070
    18
1002
}
  0
DIMENSION
  5
29FB
330
1F
100
AcDbEntity
  8
実形
100
AcDbDimension
  2
*D60
 10
329.0325010601058
 20
607.049312304499
 30
0.0
 11
303.1586747155756
 21
687.8120641887509
 31
0.0
 70
   160
 71
     5
 42
185.0000000000001
  3
ISO-25
100
AcDbAlignedDimension
 13
473.0110568099966
 23
792.0493123044991
 33
0.0
 14
417.9445490352494
 24
607.049312304499
 34
0.0
 50
90.0
100
AcDbRotatedDimension
1001
ACAD
1000
DSTYLE
1002
{
1070
   279
1070
     2
1070
   371
1070
    18
1070
   372
1070
    18
1002
}
  0
DIMENSION
  5
29FC
330
1F
100
AcDbEntity
  8
実形
100
AcDbDimension
  2
*D61
 10
218.4106026094645
 20
607.0493123044991
 30
0.0
 11
199.6606026094644
 21
711.1493123044992
 31
0.0
 70
    32
 71
     5
 42
208.2
  3
ISO-25
100
AcDbAlignedDimension
 13
472.0322791688208
 23
815.249312304499
 33
0.0
 14
417.9445490352494
 24
607.049312304499
 34
0.0
 50
90.0
100
AcDbRotatedDimension
1001
ACAD
1000
DSTYLE
1002
{
1070
   279
1070
     2
1070
   371
1070
    18
1070
   372
1070
    18
1002
}
  0
DIMENSION
  5
29FD
330
1F
100
AcDbEntity
  8
実形
100
AcDbDimension
  2
*D62
 10
329.0325010601058
 20
607.049312304499
 30
0.0
 11
294.0325010601057
 21
580.7115286402623
 31
0.0
 70
   160
  1
7
 71
     5
 42
10.0
  3
ISO-25
100
AcDbAlignedDimension
 13
474.1044546192291
 23
597.049312304499
 33
0.0
 14
474.1044546192292
 24
607.049312304499
 34
0.0
 50
90.0
100
AcDbRotatedDimension
1001
ACAD
1000
DSTYLE
1002
{
1070
   279
1070
     2
1070
   371
1070
    18
1070
   372
1070
    18
1002
}
  0
LINE
  5
29FE
330
1F
100
AcDbEntity
  8
実形
100
AcDbLine
 10
326.8295160194261
 20
794.6674020615593
 30
0.0
 11
279.8556486132961
 21
772.7056439534337
 31
0.0
  0
LINE
  5
29FF
330
1F
100
AcDbEntity
  8
実形
100
AcDbLine
 10
324.4639308224627
 20
793.9916645448103
 30
0.0
 11
306.2150870309356
 21
789.2614297241217
 31
0.0
  0
LINE
  5
2A00
330
1F
100
AcDbEntity
  8
実形
100
AcDbLine
 10
324.8018850112507
 20
793.3159125873718
 30
0.0
 11
311.2842116136466
 21
783.1797198699334
 31
0.0
  0
ARC
  5
2A01
330
1F
100
AcDbEntity
  8
実形
100
AcDbCircle
 10
371.8751966809943
 20
927.2526502542859
 30
0.0
 40
128.7156019851906
100
AcDbArc
 50
213.3909885014397
 51
249.3522921630743
  0
LINE
  5
2A02
330
1F
100
AcDbEntity
  8
実形
100
AcDbLine
 10
326.5253067344615
 20
806.9601032855844
 30
0.0
 11
315.6199535376831
 21
814.6368037283719
 31
0.0
  0
LINE
  5
2A03
330
1F
100
AcDbEntity
  8
実形
100
AcDbLine
 10
326.322912607256
 20
806.8191531670091
 30
0.0
 11
312.438265635817
 21
810.4015559036962
 31
0.0
  0
LEADER
  5
2A04
330
1F
100
AcDbEntity
  8
実形
100
AcDbLeader
  3
ISO-25
 40
25.0
 41
16.66666666666666
 76
     2
 10
439.2943653539181
 20
820.9188561365801
 30
0.0
 10
398.4212733484732
 20
864.6265044182692
 30
0.0
213
0.0
223
12.5
233
0.0
1001
ACAD
1000
DSTYLE
1002
{
1070
   147
1040
6.25
1070
    77
1070
     0
1070
    41
1040
20.0
1070
   342
1005
DA
1002
}
  0
TEXT
  5
2A05
330
1F
100
AcDbEntity
  8
実形
100
AcDbText
 10
373.5463353102166
 20
877.0533514440023
 30
0.0
 40
25.0
  1
5R
 72
     2
 11
415.2130019768832
 21
902.0533514440023
 31
0.0
100
AcDbText
 73
     3
  0
LEADER
  5
2A7F
330
1F
100
AcDbEntity
  8
実形
100
AcDbLeader
  3
ISO-25
 40
25.0
 41
16.66666666666666
 76
     2
 10
1475.730938136394
 20
820.6574165553101
 30
0.0
 10
1513.118413459941
 20
854.3968280158486
 30
0.0
213
0.0
223
12.5
233
0.0
1001
ACAD
1000
DSTYLE
1002
{
1070
   147
1040
6.25
1070
    77
1070
     0
1070
    41
1040
20.0
1070
   342
1005
DA
1002
}
  0
TEXT
  5
2A80
330
1F
100
AcDbEntity
  8
実形
100
AcDbText
 10
1503.485355552111
 20
861.1963383073687
 30
0.0
 40
25.0
  1
5R
 72
     2
 11
1545.152022218777
 21
886.1963383073687
 31
0.0
100
AcDbText
 73
     3
  0
ARC
  5
2A82
330
1F
100
AcDbEntity
  8
実形
100
AcDbCircle
 10
449.7543291184011
 20
810.249312304499
 30
0.0
 40
5.0
100
AcDbArc
 50
89.99999999999998
 51
180.0
  0
ARC
  5
2A83
330
1F
100
AcDbEntity
  8
実形
100
AcDbCircle
 10
1457.754329118401
 20
810.2493123044988
 30
0.0
 40
5.0
100
AcDbArc
 50
0.0
 51
89.99999999999998
  0
LINE
  5
2AB4
330
1F
100
AcDbEntity
  8
センター
 48
0.5
370
    15
100
AcDbLine
 10
1401.564855556763
 20
1395.892841328766
 30
0.0
 11
1488.969629212435
 21
1395.892841328766
 31
0.0
  0
TEXT
  5
2AB5
330
1F
100
AcDbEntity
  8
実形
370
    -2
100
AcDbText
 10
1375.15710720066
 20
1385.522521512677
 30
0.0
 40
25.0
  1
A
100
AcDbText
  0
TEXT
  5
2AB6
330
1F
100
AcDbEntity
  8
実形
370
    -2
100
AcDbText
 10
1496.017026837363
 20
1385.522521512677
 30
0.0
 40
25.0
  1
A
100
AcDbText
  0
VIEWPORT
  5
2E
102
{ACAD_XDICTIONARY
360
2AED
102
}
330
1B
100
AcDbEntity
 67
     1
  8
0
100
AcDbViewport
 10
144.7270812988281
 20
101.2295806407928
 30
0.0
 40
411.6736216682419
 41
222.1517806396485
 68
     1
 69
     1
 12
144.7270812988281
 22
101.2295806407928
 13
0.0
 23
0.0
 14
10.0
 24
10.0
 15
10.0
 25
10.0
 16
0.0
 26
0.0
 36
1.0
 17
0.0
 27
0.0
 37
0.0
 42
50.0
 43
0.0
 44
0.0
 45
222.1517806396485
 50
0.0
 51
0.0
 72
   100
 90
    32800
  1

281
     0
 71
     1
 74
     0
110
0.0
120
0.0
130
0.0
111
1.0
121
0.0
131
0.0
112
0.0
122
1.0
132
0.0
 79
     0
146
0.0
  0
VIEWPORT
  5
30
102
{ACAD_XDICTIONARY
360
2AEF
102
}
330
1B
100
AcDbEntity
 67
     1
  8
0
100
AcDbViewport
 10
139.2237563133239
 20
101.2295821905136
 30
0.0
 40
222.7580101013184
 41
161.9673315048218
 68
     2
 69
     2
 12
210.0
 22
148.5
 13
0.0
 23
0.0
 14
10.0
 24
10.0
 15
10.0
 25
10.0
 16
0.0
 26
0.0
 36
1.0
 17
0.0
 27
0.0
 37
0.0
 42
50.0
 43
0.0
 44
0.0
 45
309.0686705647124
 50
0.0
 51
0.0
 72
   100
 90
    32864
  1

281
     0
 71
     1
 74
     0
110
0.0
120
0.0
130
0.0
111
1.0
121
0.0
131
0.0
112
0.0
122
1.0
132
0.0
 79
     0
146
0.0
  0
ENDSEC
  0
SECTION
  2
OBJECTS
  0
DICTIONARY
  5
C
330
0
100
AcDbDictionary
281
     1
  3
ACAD_COLOR
350
18C4
  3
ACAD_GROUP
350
D
  3
ACAD_LAYOUT
350
1A
  3
ACAD_MATERIAL
350
18C3
  3
ACAD_MLINESTYLE
350
17
  3
ACAD_PLOTSETTINGS
350
19
  3
ACAD_PLOTSTYLENAME
350
E
  3
ACAD_TABLESTYLE
350
18C5
  3
AcadDim
350
CBC
  3
ACDBHEADERROUNDTRIPXREC
350
2AE6
  3
AcDbVariableDictionary
350
EFD
  0
DICTIONARY
  5
18EA
330
2
100
AcDbDictionary
280
     1
281
     1
  3
ACAD_LAYERFILTERS
360
19EC
  3
ACAD_LAYERSTATES
360
18EB
  3
ACLYDICTIONARY
360
19EB
  0
DICTIONARY
  5
18D8
330
1F
100
AcDbDictionary
280
     1
281
     1
  3
ACAD_SORTENTS
360
18D9
  0
DICTIONARY
  5
2AED
330
2E
100
AcDbDictionary
280
     1
281
     1
  3
ACAD_XREC_ROUNDTRIP
360
2AEE
  0
DICTIONARY
  5
2AEF
330
30
100
AcDbDictionary
280
     1
281
     1
  3
ACAD_XREC_ROUNDTRIP
360
2AF0
  0
DICTIONARY
  5
18C4
102
{ACAD_REACTORS
330
C
102
}
330
C
100
AcDbDictionary
281
     1
  0
DICTIONARY
  5
D
102
{ACAD_REACTORS
330
C
102
}
330
C
100
AcDbDictionary
281
     1
  0
DICTIONARY
  5
1A
102
{ACAD_REACTORS
330
C
102
}
330
C
100
AcDbDictionary
281
     1
  3
Model
350
22
  3
ﾚｲｱｳﾄ1
350
1E
  3
ﾚｲｱｳﾄ2
350
26
  0
DICTIONARY
  5
18C3
102
{ACAD_REACTORS
330
C
102
}
330
C
100
AcDbDictionary
281
     1
  0
DICTIONARY
  5
17
102
{ACAD_REACTORS
330
C
102
}
330
C
100
AcDbDictionary
281
     1
  3
Standard
350
18
  0
DICTIONARY
  5
19
102
{ACAD_REACTORS
330
C
102
}
330
C
100
AcDbDictionary
281
     1
  0
ACDBDICTIONARYWDFLT
  5
E
102
{ACAD_REACTORS
330
C
102
}
330
C
100
AcDbDictionary
281
     1
  3
Normal
350
F
100
AcDbDictionaryWithDefault
340
F
  0
DICTIONARY
  5
18C5
102
{ACAD_REACTORS
330
C
102
}
330
C
100
AcDbDictionary
281
     1
  3
Standard
350
18C6
  0
XRECORD
  5
CBC
102
{ACAD_REACTORS
330
C
102
}
330
C
100
AcDbXrecord
280
     1
 90
   990106
  3

 60
     0
 61
     0
 62
     1
 63
     3
 64
     0
 65
     0
 66
     0
 67
     3
 68
     1
 69
     0
 70
     0
 71
     0
 72
     0
 40
30.0
170
     0
  0
DICTIONARY
  5
2AE6
102
{ACAD_REACTORS
330
C
102
}
330
C
100
AcDbDictionary
281
     1
  0
DICTIONARY
  5
EFD
102
{ACAD_REACTORS
330
C
102
}
330
C
100
AcDbDictionary
281
     1
  3
CTABLESTYLE
350
18CC
  3
DIMASSOC
350
2AE3
  3
PROJECTNAME
350
2AE4
  3
SORTENTS
350
EFE
  0
DICTIONARY
  5
19EC
102
{ACAD_REACTORS
330
18EA
102
}
330
18EA
100
AcDbDictionary
281
     1
  0
DICTIONARY
  5
18EB
102
{ACAD_REACTORS
330
18EA
102
}
330
18EA
100
AcDbDictionary
281
     1
  0
DICTIONARY
  5
19EB
102
{ACAD_REACTORS
330
18EA
102
}
330
18EA
100
AcDbDictionary
281
     1
1001
ACAD
1000
<All
  0
SORTENTSTABLE
  5
18D9
102
{ACAD_REACTORS
330
18D8
102
}
330
18D8
100
AcDbSortentsTable
330
1F
331
1975
  5
1A42
331
CB8
  5
100B
331
315
  5
337
331
100F
  5
134D
331
20F9
  5
22C9
331
249C
  5
24A0
331
197D
  5
1DC8
331
193E
  5
1951
331
1C7C
  5
1EF1
331
24A4
  5
24A8
331
175F
  5
1944
331
40C
  5
BD6
331
1946
  5
1959
331
273C
  5
2740
331
277B
  5
277F
331
24AC
  5
24B0
331
194E
  5
1960
331
2744
  5
2748
331
2783
  5
2787
331
24B4
  5
24B8
331
274C
  5
2750
331
2754
  5
2758
331
325
  5
549
331
1956
  5
1969
331
571
  5
1000
331
24BC
  5
24C0
331
247D
  5
2481
331
195E
  5
1971
331
2FE
  5
307
331
1E7C
  5
336
331
24C4
  5
24C8
331
2485
  5
2489
331
1966
  5
1978
331
1000
  5
1015
331
306
  5
317
331
50A
  5
CBF
331
1E84
  5
319
331
275C
  5
2760
331
24CC
  5
2736
331
248D
  5
2491
331
196E
  5
19E4
331
2764
  5
2768
331
2495
  5
2499
331
22C6
  5
22F2
331
276C
  5
2770
331
2A00
  5
2A02
331
2774
  5
2778
331
C29
  5
1007
331
1008
  5
101F
331
1976
  5
1A43
331
CB9
  5
100C
331
316
  5
41A
331
4C3
  5
CB8
331
1010
  5
175B
331
20FA
  5
A0
331
249D
  5
24A1
331
193F
  5
1952
331
522
  5
EFC
331
24A5
  5
24A9
331
1947
  5
195A
331
273D
  5
2741
331
277C
  5
2780
331
24AD
  5
24B1
331
194F
  5
1961
331
2745
  5
2749
331
2784
  5
2788
331
24B5
  5
24B9
331
274D
  5
2751
331
2755
  5
2759
331
2A7F
  5
2A82
331
A0
  5
A5
331
1760
  5
1945
331
47C
  5
C2D
331
1957
  5
196A
331
24BD
  5
24C1
331
247E
  5
2482
331
195F
  5
1972
331
2FF
  5
308
331
1E7D
  5
31B
331
24C5
  5
24C9
331
2486
  5
248A
331
1967
  5
1979
331
1001
  5
1016
331
307
  5
31A
331
1E85
  5
321
331
275D
  5
2761
331
24CD
  5
2737
331
248E
  5
2492
331
196F
  5
19E5
331
2765
  5
2769
331
29F9
  5
29FB
331
2496
  5
249A
331
22C7
  5
22F3
331
276D
  5
2771
331
2A01
  5
2A03
331
2775
  5
2779
331
2736
  5
273A
331
1009
  5
1020
331
1B2E
  5
1E7E
331
1977
  5
1A44
331
1938
  5
194B
331
1011
  5
175E
331
3F6
  5
918
331
249E
  5
24A2
331
1940
  5
1953
331
CC2
  5
100D
331
2E0
  5
2FD
331
24A6
  5
24AA
331
273E
  5
2742
331
277D
  5
2781
331
24AE
  5
24B2
331
2746
  5
274A
331
2785
  5
2789
331
24B6
  5
24BA
331
274E
  5
2752
331
2756
  5
275A
331
2A80
  5
2A83
331
2E8
  5
2FF
331
1761
  5
1946
331
327
  5
556
331
1950
  5
1962
331
1958
  5
196B
331
24BE
  5
24C2
331
247F
  5
2483
331
1960
  5
1973
331
300
  5
30A
331
8DB
  5
1001
331
1E7E
  5
309
331
24C6
  5
24CA
331
2487
  5
248B
331
1968
  5
197A
331
275E
  5
2762
331
29A2
  5
29F9
331
24CE
  5
2738
331
248F
  5
2493
331
2766
  5
276A
331
29FA
  5
29FC
331
2497
  5
249B
331
276E
  5
2772
331
2A02
  5
2A04
331
2776
  5
277A
331
2737
  5
273B
331
308
  5
320
331
1970
  5
19E6
331
C2B
  5
1008
331
100A
  5
1021
331
1978
  5
1A45
331
1939
  5
194C
331
1012
  5
1761
331
466
  5
C2C
331
22C8
  5
22F4
331
249F
  5
24A3
331
1941
  5
1954
331
CC3
  5
100E
331
24A7
  5
24AB
331
1949
  5
195B
331
DC3
  5
100F
331
273F
  5
2743
331
277E
  5
2782
331
24AF
  5
24B3
331
1CF7
  5
1F1A
331
2747
  5
274B
331
2786
  5
278A
331
24B7
  5
24BB
331
274F
  5
2753
331
2757
  5
275B
331
2E9
  5
300
331
1762
  5
1947
331
2F1
  5
301
331
328
  5
570
331
4E5
  5
CB9
331
1951
  5
1963
331
1959
  5
196C
331
427
  5
BDC
331
24BF
  5
24C3
331
1E7F
  5
315
331
1961
  5
1974
331
FFB
  5
1010
331
301
  5
30B
331
4FD
  5
CBE
331
2480
  5
2484
331
24C7
  5
24CB
331
2488
  5
248C
331
1969
  5
197B
331
C24
  5
1004
331
1003
  5
1019
331
275F
  5
2763
331
29A3
  5
29FA
331
24CF
  5
2739
331
2490
  5
2494
331
2767
  5
276B
331
29FB
  5
29FD
331
276F
  5
2773
331
2A03
  5
2A05
331
2777
  5
277B
331
73
  5
73
331
309
  5
325
331
C2C
  5
1009
331
100B
  5
1022
331
1971
  5
19E7
331
22C9
  5
247B
331
1979
  5
1A47
331
1013
  5
193E
331
319
  5
4C3
331
193A
  5
194D
331
2498
  5
249C
331
175B
  5
1942
331
1942
  5
1955
331
24A0
  5
24A4
331
2738
  5
273C
331
194A
  5
195C
331
24A8
  5
24AC
331
2740
  5
2744
331
277F
  5
2783
331
1FDE
  5
20FA
331
24B0
  5
24B4
331
2748
  5
274C
331
2787
  5
29A2
331
2750
  5
2754
331
2A82
  5
47C
331
2F2
  5
302
331
329
  5
63C
331
1763
  5
1949
331
1952
  5
1964
331
1CF8
  5
1FA0
331
195A
  5
196D
331
24B8
  5
24BC
331
24C0
  5
24C4
331
FFC
  5
1011
331
302
  5
30D
331
8DD
  5
1002
331
1962
  5
1975
331
1E80
  5
2E9
331
2481
  5
2485
331
2758
  5
275C
331
29A4
  5
459
331
24C8
  5
24CC
331
1004
  5
101A
331
196A
  5
197C
331
2489
  5
248D
331
2760
  5
2764
331
29FC
  5
29FE
331
20F6
  5
22C6
331
2491
  5
2495
331
2768
  5
276C
331
2A04
  5
2A7F
331
2770
  5
2774
331
3E9
  5
914
331
100C
  5
1023
331
9C
  5
9C
331
1972
  5
19E8
331
197A
  5
1A48
331
1014
  5
193F
331
31A
  5
4E5
331
193B
  5
194E
331
1FBF
  5
20F9
331
2499
  5
249D
331
1943
  5
1956
331
22F2
  5
247C
331
24A1
  5
24A5
331
2739
  5
273D
331
2778
  5
277C
331
194B
  5
195D
331
24A9
  5
24AD
331
2741
  5
2745
331
2780
  5
2784
331
24B1
  5
24B5
331
2749
  5
274D
331
2788
  5
29A3
331
2751
  5
2755
331
2A83
  5
466
331
1764
  5
194A
331
1953
  5
1966
331
19A2
  5
1E7D
331
1CF9
  5
1FBF
331
3C2
  5
66C
331
195B
  5
196E
331
24B9
  5
24BD
331
24C1
  5
24C5
331
FFD
  5
1012
331
303
  5
316
331
1963
  5
1976
331
1E81
  5
30C
331
1FA0
  5
20F8
331
2482
  5
2486
331
2759
  5
275D
331
2761
  5
2765
331
24C9
  5
24CD
331
C26
  5
1005
331
1005
  5
101B
331
196B
  5
197D
331
248A
  5
248E
331
29A5
  5
492
331
2769
  5
276D
331
20F7
  5
22C7
331
2492
  5
2496
331
29FD
  5
29FF
331
2771
  5
2775
331
2A05
  5
2A80
331
459
  5
C2B
331
C2E
  5
100A
331
100D
  5
1024
331
1973
  5
19E9
331
197B
  5
1CF8
331
1015
  5
1940
331
31B
  5
4FD
331
193C
  5
194F
331
1C7A
  5
1E7F
331
1EF1
  5
20F6
331
249A
  5
249E
331
273A
  5
273E
331
1944
  5
1957
331
22F3
  5
247D
331
24A2
  5
24A6
331
2779
  5
277D
331
2742
  5
2746
331
194C
  5
195E
331
24AA
  5
24AE
331
2781
  5
2785
331
274A
  5
274E
331
24B2
  5
24B6
331
2789
  5
29A4
331
2752
  5
2756
331
A5
  5
2E0
331
323
  5
522
331
41A
  5
BD7
331
1954
  5
1967
331
24BA
  5
24BE
331
195C
  5
196F
331
247B
  5
247F
331
275A
  5
275E
331
24C2
  5
24C6
331
1964
  5
1977
331
FFE
  5
1013
331
1E82
  5
306
331
2483
  5
2487
331
2762
  5
2766
331
24CA
  5
24CE
331
196C
  5
19A2
331
1006
  5
101D
331
1E8A
  5
1FDE
331
248B
  5
248F
331
276A
  5
276E
331
2493
  5
2497
331
29FE
  5
2A00
331
2772
  5
2776
331
1974
  5
19EA
331
100E
  5
134C
331
20F8
  5
22C8
331
197C
  5
1CF9
331
193D
  5
1950
331
1016
  5
1941
331
2DD
  5
2E8
331
1C7B
  5
1E80
331
249B
  5
249F
331
273B
  5
273F
331
175E
  5
1943
331
1945
  5
1958
331
22F4
  5
247E
331
24A3
  5
24A7
331
277A
  5
277E
331
2743
  5
2747
331
194D
  5
195F
331
24AB
  5
24AF
331
2782
  5
2786
331
274B
  5
274F
331
24B3
  5
24B7
331
278A
  5
29A5
331
2753
  5
2757
331
324
  5
52F
331
1955
  5
1968
331
570
  5
FFF
331
1F1A
  5
20F7
331
24BB
  5
24BF
331
247C
  5
2480
331
195D
  5
1970
331
2FD
  5
303
331
1E7B
  5
2FE
331
24C3
  5
24C7
331
2484
  5
2488
331
FFF
  5
1014
331
492
  5
C2E
331
275B
  5
275F
331
24CB
  5
24CF
331
248C
  5
2490
331
196D
  5
19E3
331
1007
  5
101E
331
2763
  5
2767
331
2494
  5
2498
331
276B
  5
276F
331
29FF
  5
2A01
331
2773
  5
2777
  0
XRECORD
  5
2AEE
102
{ACAD_REACTORS
330
2AED
102
}
330
2AED
100
AcDbXrecord
280
     1
102
SHADEPLOT
 70
     0
  0
XRECORD
  5
2AF0
102
{ACAD_REACTORS
330
2AEF
102
}
330
2AEF
100
AcDbXrecord
280
     1
102
SHADEPLOT
 70
     0
  0
LAYOUT
  5
22
102
{ACAD_XDICTIONARY
360
2AE9
102
}
102
{ACAD_REACTORS
330
1A
102
}
330
1A
100
AcDbPlotSettings
  1

  2
EPSON PM-800C
  4
A4
  6

 40
3.757083177566528
 41
14.7637300491333
 42
3.757080078125
 43
3.757080078125
 44
209.9733276367187
 45
296.9683227539062
 46
0.0
 47
0.0
 48
0.0
 49
0.0
140
0.0
141
0.0
142
1.0
143
10.0
 70
 11952
 72
     1
 73
     1
 74
     2
  7

 75
    20
147
0.1
148
0.0
149
0.0
100
AcDbLayout
  1
Model
 70
     1
 71
     0
 10
0.0
 20
0.0
 11
12.0
 21
9.0
 12
0.0
 22
0.0
 32
0.0
 14
0.0
 24
0.0
 34
0.0
 15
0.0
 25
0.0
 35
0.0
146
0.0
 13
0.0
 23
0.0
 33
0.0
 16
1.0
 26
0.0
 36
0.0
 17
0.0
 27
1.0
 37
0.0
 76
     0
330
1F
  0
LAYOUT
  5
1E
102
{ACAD_XDICTIONARY
360
2AE7
102
}
102
{ACAD_REACTORS
330
1A
102
}
330
1A
100
AcDbPlotSettings
  1

  2
EPSON PM-800C
  4
A4
  6

 40
3.757083177566528
 41
14.7637300491333
 42
3.757080078125
 43
3.757080078125
 44
209.9733276367187
 45
296.9683227539062
 46
0.0
 47
0.0
 48
0.0
 49
0.0
140
0.0
141
0.0
142
1.0
143
1.0
 70
   688
 72
     1
 73
     1
 74
     5
  7

 75
    16
147
1.0
148
0.0
149
0.0
100
AcDbLayout
  1
ﾚｲｱｳﾄ1
 70
     1
 71
     1
 10
-3.757080078125
 20
-3.757083177566528
 11
293.2112426757813
 21
206.2162444591522
 12
0.0
 22
0.0
 32
0.0
 14
27.8447512626648
 24
20.24591643810271
 34
0.0
 15
250.6027613639831
 25
182.2132479429245
 35
0.0
146
0.0
 13
0.0
 23
0.0
 33
0.0
 16
1.0
 26
0.0
 36
0.0
 17
0.0
 27
1.0
 37
0.0
 76
     0
330
1B
331
2E
  0
LAYOUT
  5
26
102
{ACAD_XDICTIONARY
360
2AEB
102
}
102
{ACAD_REACTORS
330
1A
102
}
330
1A
100
AcDbPlotSettings
  1

  2
EPSON PM-800C
  4

  6

 40
0.0
 41
0.0
 42
0.0
 43
0.0
 44
0.0
 45
0.0
 46
0.0
 47
0.0
 48
0.0
 49
0.0
140
0.0
141
0.0
142
1.0
143
1.0
 70
   688
 72
     0
 73
     0
 74
     5
  7

 75
    16
147
1.0
148
0.0
149
0.0
100
AcDbLayout
  1
ﾚｲｱｳﾄ2
 70
     1
 71
     2
 10
0.0
 20
0.0
 11
12.0
 21
9.0
 12
0.0
 22
0.0
 32
0.0
 14
0.0
 24
0.0
 34
0.0
 15
0.0
 25
0.0
 35
0.0
146
0.0
 13
0.0
 23
0.0
 33
0.0
 16
1.0
 26
0.0
 36
0.0
 17
0.0
 27
1.0
 37
0.0
 76
     0
330
23
  0
MLINESTYLE
  5
18
102
{ACAD_REACTORS
330
17
102
}
330
17
100
AcDbMlineStyle
  2
STANDARD
 70
     0
  3

 62
   256
 51
90.0
 52
90.0
 71
     2
 49
0.5
 62
   256
  6
BYLAYER
 49
-0.5
 62
   256
  6
BYLAYER
  0
ACDBPLACEHOLDER
  5
F
102
{ACAD_REACTORS
330
E
102
}
330
E
  0
TABLESTYLE
  5
18C6
102
{ACAD_REACTORS
330
18C5
102
}
330
18C5
100
AcDbTableStyle
  3
Standard
 70
     0
 71
     0
 40
1.5
 41
1.5
280
     0
281
     0
  7
Standard
140
4.5
170
     2
 62
     0
 63
     7
283
     0
274
    -2
284
     1
 64
     0
275
    -2
285
     1
 65
     0
276
    -2
286
     1
 66
     0
277
    -2
287
     1
 67
     0
278
    -2
288
     1
 68
     0
279
    -2
289
     1
 69
     0
  7
Standard
140
6.0
170
     5
 62
     0
 63
     7
283
     0
274
    -2
284
     1
 64
     0
275
    -2
285
     1
 65
     0
276
    -2
286
     1
 66
     0
277
    -2
287
     1
 67
     0
278
    -2
288
     1
 68
     0
279
    -2
289
     1
 69
     0
  7
Standard
140
4.5
170
     5
 62
     0
 63
     7
283
     0
274
    -2
284
     1
 64
     0
275
    -2
285
     1
 65
     0
276
    -2
286
     1
 66
     0
277
    -2
287
     1
 67
     0
278
    -2
288
     1
 68
     0
279
    -2
289
     1
 69
     0
  0
DICTIONARYVAR
  5
18CC
102
{ACAD_REACTORS
330
EFD
102
}
330
EFD
100
DictionaryVariables
280
     0
  1
STANDARD
  0
DICTIONARYVAR
  5
2AE3
102
{ACAD_REACTORS
330
EFD
102
}
330
EFD
100
DictionaryVariables
280
     0
  1
1
  0
DICTIONARYVAR
  5
2AE4
102
{ACAD_REACTORS
330
EFD
102
}
330
EFD
100
DictionaryVariables
280
     0
  1

  0
DICTIONARYVAR
  5
EFE
102
{ACAD_REACTORS
330
EFD
102
}
330
EFD
100
DictionaryVariables
280
     0
  1
96
  0
DICTIONARY
  5
2AE9
330
22
100
AcDbDictionary
280
     1
281
     1
  3
ACAD_XREC_ROUNDTRIP
360
2AEA
  0
DICTIONARY
  5
2AE7
330
1E
100
AcDbDictionary
280
     1
281
     1
  3
ACAD_XREC_ROUNDTRIP
360
2AE8
  0
DICTIONARY
  5
2AEB
330
26
100
AcDbDictionary
280
     1
281
     1
  3
ACAD_XREC_ROUNDTRIP
360
2AEC
  0
XRECORD
  5
2AEA
102
{ACAD_REACTORS
330
2AE9
102
}
330
2AE9
100
AcDbXrecord
280
     1
102
SHADEPLOT
 70
     0
102
SHADEPLOTRESLEVEL
 70
     2
102
SHADEPLOTCUSTOMDPI
 70
   300
  0
XRECORD
  5
2AE8
102
{ACAD_REACTORS
330
2AE7
102
}
330
2AE7
100
AcDbXrecord
280
     1
102
SHADEPLOT
 70
     0
102
SHADEPLOTRESLEVEL
 70
     2
102
SHADEPLOTCUSTOMDPI
 70
   300
  0
XRECORD
  5
2AEC
102
{ACAD_REACTORS
330
2AEB
102
}
330
2AEB
100
AcDbXrecord
280
     1
102
SHADEPLOT
 70
     0
102
SHADEPLOTRESLEVEL
 70
     2
102
SHADEPLOTCUSTOMDPI
 70
   300
  0
ENDSEC
  0
EOF
