  0
SECTION
  2
HEADER
  9
$ACADVER
  1
AC1015
  9
$ACADMAINTVER
 70
    20
  9
$DWGCODEPAGE
  3
ANSI_932
  9
$INSBASE
 10
0.0
 20
0.0
 30
0.0
  9
$EXTMIN
 10
104.0
 20
4.0
 30
0.0
  9
$EXTMAX
 10
2784.0
 20
2024.0
 30
0.0
  9
$LIMMIN
 10
0.0
 20
0.0
  9
$LIMMAX
 10
29700.0
 20
21000.0
  9
$ORTHOMODE
 70
     1
  9
$REGENMODE
 70
     1
  9
$FILLMODE
 70
     1
  9
$QTEXTMODE
 70
     0
  9
$MIRRTEXT
 70
     1
  9
$LTSCALE
 40
4.0
  9
$ATTMODE
 70
     1
  9
$TEXTSIZE
 40
35.0
  9
$TRACEWID
 40
1.0
  9
$TEXTSTYLE
  7
Standard
  9
$CLAYER
  8
実形
  9
$CELTYPE
  6
ByLayer
  9
$CECOLOR
 62
   256
  9
$CELTSCALE
 40
1.0
  9
$DISPSILH
 70
     0
  9
$DIMSCALE
 40
1.0
  9
$DIMASZ
 40
35.0
  9
$DIMEXO
 40
65.0
  9
$DIMDLI
 40
3.75
  9
$DIMRND
 40
0.0
  9
$DIMDLE
 40
0.0
  9
$DIMEXE
 40
0.0
  9
$DIMTP
 40
0.0
  9
$DIMTM
 40
0.0
  9
$DIMTXT
 40
25.0
  9
$DIMCEN
 40
2.5
  9
$DIMTSZ
 40
0.0
  9
$DIMTOL
 70
     0
  9
$DIMLIM
 70
     0
  9
$DIMTIH
 70
     0
  9
$DIMTOH
 70
     0
  9
$DIMSE1
 70
     0
  9
$DIMSE2
 70
     0
  9
$DIMTAD
 70
     1
  9
$DIMZIN
 70
     8
  9
$DIMBLK
  1
DotSmall
  9
$DIMASO
 70
     1
  9
$DIMSHO
 70
     1
  9
$DIMPOST
  1

  9
$DIMAPOST
  1

  9
$DIMALT
 70
     0
  9
$DIMALTD
 70
     3
  9
$DIMALTF
 40
0.03937007874016
  9
$DIMLFAC
 40
1.0
  9
$DIMTOFL
 70
     1
  9
$DIMTVP
 40
0.0
  9
$DIMTIX
 70
     0
  9
$DIMSOXD
 70
     0
  9
$DIMSAH
 70
     0
  9
$DIMBLK1
  1

  9
$DIMBLK2
  1

  9
$DIMSTYLE
  2
ISO-25
  9
$DIMCLRD
 70
     0
  9
$DIMCLRE
 70
     0
  9
$DIMCLRT
 70
     0
  9
$DIMTFAC
 40
1.0
  9
$DIMGAP
 40
6.25
  9
$DIMJUST
 70
     0
  9
$DIMSD1
 70
     0
  9
$DIMSD2
 70
     0
  9
$DIMTOLJ
 70
     0
  9
$DIMTZIN
 70
     8
  9
$DIMALTZ
 70
     0
  9
$DIMALTTZ
 70
     0
  9
$DIMUPT
 70
     0
  9
$DIMDEC
 70
     2
  9
$DIMTDEC
 70
     2
  9
$DIMALTU
 70
     2
  9
$DIMALTTD
 70
     3
  9
$DIMTXSTY
  7
Standard
  9
$DIMAUNIT
 70
     0
  9
$DIMADEC
 70
     0
  9
$DIMALTRND
 40
0.0
  9
$DIMAZIN
 70
     0
  9
$DIMDSEP
 70
    46
  9
$DIMATFIT
 70
     2
  9
$DIMFRAC
 70
     0
  9
$DIMLDRBLK
  1
Open30
  9
$DIMLUNIT
 70
     2
  9
$DIMLWD
 70
    15
  9
$DIMLWE
 70
    15
  9
$DIMTMOVE
 70
     2
  9
$LUNITS
 70
     2
  9
$LUPREC
 70
     2
  9
$SKETCHINC
 40
1.0
  9
$FILLETRAD
 40
5.0
  9
$AUNITS
 70
     0
  9
$AUPREC
 70
     0
  9
$MENU
  1
.
  9
$ELEVATION
 40
0.0
  9
$PELEVATION
 40
0.0
  9
$THICKNESS
 40
0.0
  9
$LIMCHECK
 70
     1
  9
$CHAMFERA
 40
10.0
  9
$CHAMFERB
 40
10.0
  9
$CHAMFERC
 40
20.0
  9
$CHAMFERD
 40
0.0
  9
$SKPOLY
 70
     0
  9
$TDCREATE
 40
2451673.575802199
  9
$TDUCREATE
 40
2451673.200802199
  9
$TDUPDATE
 40
2458813.760007801
  9
$TDUUPDATE
 40
2458813.385007801
  9
$TDINDWG
 40
0.9758243171
  9
$TDUSRTIMER
 40
0.9758236227
  9
$USRTIMER
 70
     1
  9
$ANGBASE
 50
0.0
  9
$ANGDIR
 70
     0
  9
$PDMODE
 70
     0
  9
$PDSIZE
 40
0.0
  9
$PLINEWID
 40
0.0
  9
$SPLFRAME
 70
     0
  9
$SPLINETYPE
 70
     6
  9
$SPLINESEGS
 70
     8
  9
$HANDSEED
  5
26CC
  9
$SURFTAB1
 70
     6
  9
$SURFTAB2
 70
     6
  9
$SURFTYPE
 70
     6
  9
$SURFU
 70
     6
  9
$SURFV
 70
     6
  9
$UCSBASE
  2

  9
$UCSNAME
  2

  9
$UCSORG
 10
0.0
 20
0.0
 30
0.0
  9
$UCSXDIR
 10
1.0
 20
0.0
 30
0.0
  9
$UCSYDIR
 10
0.0
 20
1.0
 30
0.0
  9
$UCSORTHOREF
  2

  9
$UCSORTHOVIEW
 70
     0
  9
$UCSORGTOP
 10
0.0
 20
0.0
 30
0.0
  9
$UCSORGBOTTOM
 10
0.0
 20
0.0
 30
0.0
  9
$UCSORGLEFT
 10
0.0
 20
0.0
 30
0.0
  9
$UCSORGRIGHT
 10
0.0
 20
0.0
 30
0.0
  9
$UCSORGFRONT
 10
0.0
 20
0.0
 30
0.0
  9
$UCSORGBACK
 10
0.0
 20
0.0
 30
0.0
  9
$PUCSBASE
  2

  9
$PUCSNAME
  2

  9
$PUCSORG
 10
0.0
 20
0.0
 30
0.0
  9
$PUCSXDIR
 10
1.0
 20
0.0
 30
0.0
  9
$PUCSYDIR
 10
0.0
 20
1.0
 30
0.0
  9
$PUCSORTHOREF
  2

  9
$PUCSORTHOVIEW
 70
     0
  9
$PUCSORGTOP
 10
0.0
 20
0.0
 30
0.0
  9
$PUCSORGBOTTOM
 10
0.0
 20
0.0
 30
0.0
  9
$PUCSORGLEFT
 10
0.0
 20
0.0
 30
0.0
  9
$PUCSORGRIGHT
 10
0.0
 20
0.0
 30
0.0
  9
$PUCSORGFRONT
 10
0.0
 20
0.0
 30
0.0
  9
$PUCSORGBACK
 10
0.0
 20
0.0
 30
0.0
  9
$USERI1
 70
     0
  9
$USERI2
 70
     0
  9
$USERI3
 70
     0
  9
$USERI4
 70
     0
  9
$USERI5
 70
     0
  9
$USERR1
 40
0.0
  9
$USERR2
 40
0.0
  9
$USERR3
 40
0.0
  9
$USERR4
 40
0.0
  9
$USERR5
 40
0.0
  9
$WORLDVIEW
 70
     1
  9
$SHADEDGE
 70
     3
  9
$SHADEDIF
 70
    70
  9
$TILEMODE
 70
     1
  9
$MAXACTVP
 70
    64
  9
$PINSBASE
 10
0.0
 20
0.0
 30
0.0
  9
$PLIMCHECK
 70
     0
  9
$PEXTMIN
 10
27.8447512626648
 20
20.24591643810271
 30
0.0
  9
$PEXTMAX
 10
250.6027613639831
 20
182.2132479429245
 30
0.0
  9
$PLIMMIN
 10
-3.757080078125
 20
-3.757083177566528
  9
$PLIMMAX
 10
293.2112426757813
 20
206.2162444591522
  9
$UNITMODE
 70
     0
  9
$VISRETAIN
 70
     1
  9
$PLINEGEN
 70
     0
  9
$PSLTSCALE
 70
     1
  9
$TREEDEPTH
 70
  3020
  9
$CMLSTYLE
  2
Standard
  9
$CMLJUST
 70
     0
  9
$CMLSCALE
 40
20.0
  9
$PROXYGRAPHICS
 70
     1
  9
$MEASUREMENT
 70
     1
  9
$CELWEIGHT
370
    -1
  9
$ENDCAPS
280
     0
  9
$JOINSTYLE
280
     0
  9
$LWDISPLAY
290
     0
  9
$INSUNITS
 70
     4
  9
$HYPERLINKBASE
  1

  9
$STYLESHEET
  1

  9
$XEDIT
290
     1
  9
$CEPSNTYPE
380
     0
  9
$PSTYLEMODE
290
     1
  9
$FINGERPRINTGUID
  2
{C8EA1F16-24C9-11D4-9416-CE0A3B32152F}
  9
$VERSIONGUID
  2
{C6A5AC1D-EFD3-4EEC-BAD0-502E3963F10C}
  9
$EXTNAMES
290
     1
  9
$PSVPSCALE
 40
0.0
  9
$OLESTARTUP
290
     0
  0
ENDSEC
  0
SECTION
  2
CLASSES
  0
CLASS
  1
ACDBDICTIONARYWDFLT
  2
AcDbDictionaryWithDefault
  3
ObjectDBX Classes
 90
        0
280
     0
281
     0
  0
CLASS
  1
ACDBPLACEHOLDER
  2
AcDbPlaceHolder
  3
ObjectDBX Classes
 90
        0
280
     0
281
     0
  0
CLASS
  1
LAYOUT
  2
AcDbLayout
  3
ObjectDBX Classes
 90
        0
280
     0
281
     0
  0
CLASS
  1
DICTIONARYVAR
  2
AcDbDictionaryVar
  3
ObjectDBX Classes
 90
        0
280
     0
281
     0
  0
CLASS
  1
TABLESTYLE
  2
AcDbTableStyle
  3
ObjectDBX Classes
 90
     2047
280
     0
281
     0
  0
CLASS
  1
SORTENTSTABLE
  2
AcDbSortentsTable
  3
ObjectDBX Classes
 90
        0
280
     0
281
     0
  0
ENDSEC
  0
SECTION
  2
TABLES
  0
TABLE
  2
VPORT
  5
8
330
0
100
AcDbSymbolTable
 70
     2
  0
VPORT
  5
26C0
330
8
100
AcDbSymbolTableRecord
100
AcDbViewportTableRecord
  2
*Active
 70
     0
 10
0.0
 20
0.0
 11
1.0
 21
1.0
 12
1530.214214173354
 22
1105.646625838845
 13
0.0
 23
0.0
 14
10.0
 24
10.0
 15
10.0
 25
10.0
 16
0.0
 26
0.0
 36
1.0
 17
0.0
 27
0.0
 37
0.0
 40
2386.624692228278
 41
1.29038112522686
 42
50.0
 43
0.0
 44
0.0
 50
0.0
 51
0.0
 71
     0
 72
   100
 73
     1
 74
     3
 75
     0
 76
     0
 77
     0
 78
     0
281
     0
 65
     1
110
0.0
120
0.0
130
0.0
111
1.0
121
0.0
131
0.0
112
0.0
122
1.0
132
0.0
 79
     0
146
0.0
  0
ENDTAB
  0
TABLE
  2
LTYPE
  5
5
330
0
100
AcDbSymbolTable
 70
    46
  0
LTYPE
  5
14
330
5
100
AcDbSymbolTableRecord
100
AcDbLinetypeTableRecord
  2
ByBlock
 70
     0
  3

 72
    65
 73
     0
 40
0.0
  0
LTYPE
  5
15
330
5
100
AcDbSymbolTableRecord
100
AcDbLinetypeTableRecord
  2
ByLayer
 70
     0
  3

 72
    65
 73
     0
 40
0.0
  0
LTYPE
  5
16
330
5
100
AcDbSymbolTableRecord
100
AcDbLinetypeTableRecord
  2
Continuous
 70
     0
  3
Solid line
 72
    65
 73
     0
 40
0.0
  0
LTYPE
  5
34
330
5
100
AcDbSymbolTableRecord
100
AcDbLinetypeTableRecord
  2
ACAD_ISO02W100
 70
     0
  3
ISO dash __ __ __ __ __ __ __ __ __ __ __ __ __
 72
    65
 73
     2
 40
15.0
 49
12.0
 74
     0
 49
-3.0
 74
     0
  0
LTYPE
  5
35
330
5
100
AcDbSymbolTableRecord
100
AcDbLinetypeTableRecord
  2
ACAD_ISO03W100
 70
     0
  3
ISO dash space __    __    __    __    __    __
 72
    65
 73
     2
 40
30.0
 49
12.0
 74
     0
 49
-18.0
 74
     0
  0
LTYPE
  5
36
330
5
100
AcDbSymbolTableRecord
100
AcDbLinetypeTableRecord
  2
ACAD_ISO04W100
 70
     0
  3
ISO long-dash dot ____ . ____ . ____ . ____ . _
 72
    65
 73
     4
 40
30.0
 49
24.0
 74
     0
 49
-3.0
 74
     0
 49
0.0
 74
     0
 49
-3.0
 74
     0
  0
LTYPE
  5
37
330
5
100
AcDbSymbolTableRecord
100
AcDbLinetypeTableRecord
  2
ACAD_ISO05W100
 70
     0
  3
ISO long-dash double-dot ____ .. ____ .. ____ .
 72
    65
 73
     6
 40
34.0
 49
24.0
 74
     0
 49
-3.0
 74
     0
 49
0.5
 74
     0
 49
-3.0
 74
     0
 49
0.5
 74
     0
 49
-3.0
 74
     0
  0
LTYPE
  5
38
330
5
100
AcDbSymbolTableRecord
100
AcDbLinetypeTableRecord
  2
ACAD_ISO06W100
 70
     0
  3
ISO long-dash triple-dot ____ ... ____ ... ____
 72
    65
 73
     8
 40
37.5
 49
24.0
 74
     0
 49
-3.0
 74
     0
 49
0.5
 74
     0
 49
-3.0
 74
     0
 49
0.5
 74
     0
 49
-3.0
 74
     0
 49
0.5
 74
     0
 49
-3.0
 74
     0
  0
LTYPE
  5
39
330
5
100
AcDbSymbolTableRecord
100
AcDbLinetypeTableRecord
  2
ACAD_ISO07W100
 70
     0
  3
ISO dot . . . . . . . . . . . . . . . . . . . .
 72
    65
 73
     2
 40
3.0
 49
0.0
 74
     0
 49
-3.0
 74
     0
  0
LTYPE
  5
3A
330
5
100
AcDbSymbolTableRecord
100
AcDbLinetypeTableRecord
  2
ACAD_ISO08W100
 70
     0
  3
ISO long-dash short-dash ____ __ ____ __ ____ _
 72
    65
 73
     4
 40
36.0
 49
24.0
 74
     0
 49
-3.0
 74
     0
 49
6.0
 74
     0
 49
-3.0
 74
     0
  0
LTYPE
  5
3B
330
5
100
AcDbSymbolTableRecord
100
AcDbLinetypeTableRecord
  2
ACAD_ISO09W100
 70
     0
  3
ISO long-dash double-short-dash ____ __ __ ____
 72
    65
 73
     6
 40
45.0
 49
24.0
 74
     0
 49
-3.0
 74
     0
 49
6.0
 74
     0
 49
-3.0
 74
     0
 49
6.0
 74
     0
 49
-3.0
 74
     0
  0
LTYPE
  5
3C
330
5
100
AcDbSymbolTableRecord
100
AcDbLinetypeTableRecord
  2
ACAD_ISO10W100
 70
     0
  3
ISO dash dot __ . __ . __ . __ . __ . __ . __ .
 72
    65
 73
     4
 40
18.0
 49
12.0
 74
     0
 49
-3.0
 74
     0
 49
0.0
 74
     0
 49
-3.0
 74
     0
  0
LTYPE
  5
3D
330
5
100
AcDbSymbolTableRecord
100
AcDbLinetypeTableRecord
  2
ACAD_ISO11W100
 70
     0
  3
ISO double-dash dot __ __ . __ __ . __ __ . __ 
 72
    65
 73
     6
 40
33.0
 49
12.0
 74
     0
 49
-3.0
 74
     0
 49
12.0
 74
     0
 49
-3.0
 74
     0
 49
0.0
 74
     0
 49
-3.0
 74
     0
  0
LTYPE
  5
3E
330
5
100
AcDbSymbolTableRecord
100
AcDbLinetypeTableRecord
  2
ACAD_ISO12W100
 70
     0
  3
ISO dash double-dot __ . . __ . . __ . . __ . .
 72
    65
 73
     6
 40
21.0
 49
12.0
 74
     0
 49
-3.0
 74
     0
 49
0.0
 74
     0
 49
-3.0
 74
     0
 49
0.0
 74
     0
 49
-3.0
 74
     0
  0
LTYPE
  5
3F
330
5
100
AcDbSymbolTableRecord
100
AcDbLinetypeTableRecord
  2
ACAD_ISO13W100
 70
     0
  3
ISO double-dash double-dot __ __ . . __ __ . . 
 72
    65
 73
     8
 40
36.0
 49
12.0
 74
     0
 49
-3.0
 74
     0
 49
12.0
 74
     0
 49
-3.0
 74
     0
 49
0.0
 74
     0
 49
-3.0
 74
     0
 49
0.0
 74
     0
 49
-3.0
 74
     0
  0
LTYPE
  5
40
330
5
100
AcDbSymbolTableRecord
100
AcDbLinetypeTableRecord
  2
ACAD_ISO14W100
 70
     0
  3
ISO dash triple-dot __ . . . __ . . . __ . . . 
 72
    65
 73
     8
 40
24.0
 49
12.0
 74
     0
 49
-3.0
 74
     0
 49
0.0
 74
     0
 49
-3.0
 74
     0
 49
0.0
 74
     0
 49
-3.0
 74
     0
 49
0.0
 74
     0
 49
-3.0
 74
     0
  0
LTYPE
  5
41
330
5
100
AcDbSymbolTableRecord
100
AcDbLinetypeTableRecord
  2
ACAD_ISO15W100
 70
     0
  3
ISO double-dash triple-dot __ __ . . . __ __ . 
 72
    65
 73
    10
 40
39.0
 49
12.0
 74
     0
 49
-3.0
 74
     0
 49
12.0
 74
     0
 49
-3.0
 74
     0
 49
0.0
 74
     0
 49
-3.0
 74
     0
 49
0.0
 74
     0
 49
-3.0
 74
     0
 49
0.0
 74
     0
 49
-3.0
 74
     0
  0
LTYPE
  5
42
330
5
100
AcDbSymbolTableRecord
100
AcDbLinetypeTableRecord
  2
BATTING
 70
     0
  3
Batting SSSSSSSSSSSSSSSSSSSSSSSSSSSSSSSSSSSSSSS
 72
    65
 73
     4
 40
10.16254
 49
0.00254
 74
     0
 49
-2.54
 74
     4
 75
   134
340
33
 46
2.54
 50
0.0
 44
-2.54
 45
0.0
 49
-5.08
 74
     4
 75
   134
340
33
 46
2.54
 50
180.0
 44
2.54
 45
0.0
 49
-2.54
 74
     0
  0
LTYPE
  5
43
330
5
100
AcDbSymbolTableRecord
100
AcDbLinetypeTableRecord
  2
BORDER
 70
     0
  3
Border __ __ . __ __ . __ __ . __ __ . __ __ .
 72
    65
 73
     6
 40
44.45
 49
12.7
 74
     0
 49
-6.349999999999999
 74
     0
 49
12.7
 74
     0
 49
-6.349999999999999
 74
     0
 49
0.0
 74
     0
 49
-6.349999999999999
 74
     0
  0
LTYPE
  5
44
330
5
100
AcDbSymbolTableRecord
100
AcDbLinetypeTableRecord
  2
BORDER2
 70
     0
  3
Border (.5x) __.__.__.__.__.__.__.__.__.__.__.
 72
    65
 73
     6
 40
22.225
 49
6.349999999999999
 74
     0
 49
-3.174999999999999
 74
     0
 49
6.349999999999999
 74
     0
 49
-3.174999999999999
 74
     0
 49
0.0
 74
     0
 49
-3.174999999999999
 74
     0
  0
LTYPE
  5
45
330
5
100
AcDbSymbolTableRecord
100
AcDbLinetypeTableRecord
  2
BORDERX2
 70
     0
  3
Border (2x) ____  ____  .  ____  ____  .  ___
 72
    65
 73
     6
 40
88.9
 49
25.4
 74
     0
 49
-12.7
 74
     0
 49
25.4
 74
     0
 49
-12.7
 74
     0
 49
0.0
 74
     0
 49
-12.7
 74
     0
  0
LTYPE
  5
46
330
5
100
AcDbSymbolTableRecord
100
AcDbLinetypeTableRecord
  2
CENTER
 70
     0
  3
Center ____ _ ____ _ ____ _ ____ _ ____ _ ____
 72
    65
 73
     4
 40
50.8
 49
31.75
 74
     0
 49
-6.349999999999999
 74
     0
 49
6.349999999999999
 74
     0
 49
-6.349999999999999
 74
     0
  0
LTYPE
  5
47
330
5
100
AcDbSymbolTableRecord
100
AcDbLinetypeTableRecord
  2
CENTER2
 70
     0
  3
Center (.5x) ___ _ ___ _ ___ _ ___ _ ___ _ ___
 72
    65
 73
     4
 40
28.575
 49
19.05
 74
     0
 49
-3.174999999999999
 74
     0
 49
3.174999999999999
 74
     0
 49
-3.174999999999999
 74
     0
  0
LTYPE
  5
48
330
5
100
AcDbSymbolTableRecord
100
AcDbLinetypeTableRecord
  2
CENTERX2
 70
     0
  3
Center (2x) ________  __  ________  __  _____
 72
    65
 73
     4
 40
101.6
 49
63.5
 74
     0
 49
-12.7
 74
     0
 49
12.7
 74
     0
 49
-12.7
 74
     0
  0
LTYPE
  5
49
330
5
100
AcDbSymbolTableRecord
100
AcDbLinetypeTableRecord
  2
DASHDOT
 70
     0
  3
Dash dot __ . __ . __ . __ . __ . __ . __ . __
 72
    65
 73
     4
 40
25.4
 49
12.7
 74
     0
 49
-6.349999999999999
 74
     0
 49
0.0
 74
     0
 49
-6.349999999999999
 74
     0
  0
LTYPE
  5
4A
330
5
100
AcDbSymbolTableRecord
100
AcDbLinetypeTableRecord
  2
DASHDOT2
 70
     0
  3
Dash dot (.5x) _._._._._._._._._._._._._._._.
 72
    65
 73
     4
 40
12.7
 49
6.349999999999999
 74
     0
 49
-3.174999999999999
 74
     0
 49
0.0
 74
     0
 49
-3.174999999999999
 74
     0
  0
LTYPE
  5
4B
330
5
100
AcDbSymbolTableRecord
100
AcDbLinetypeTableRecord
  2
DASHDOTX2
 70
     0
  3
Dash dot (2x) ____  .  ____  .  ____  .  ___
 72
    65
 73
     4
 40
50.8
 49
25.4
 74
     0
 49
-12.7
 74
     0
 49
0.0
 74
     0
 49
-12.7
 74
     0
  0
LTYPE
  5
4C
330
5
100
AcDbSymbolTableRecord
100
AcDbLinetypeTableRecord
  2
DASHED
 70
     0
  3
Dashed __ __ __ __ __ __ __ __ __ __ __ __ __ _
 72
    65
 73
     2
 40
19.05
 49
12.7
 74
     0
 49
-6.349999999999999
 74
     0
  0
LTYPE
  5
4D
330
5
100
AcDbSymbolTableRecord
100
AcDbLinetypeTableRecord
  2
DASHED2
 70
     0
  3
Dashed (.5x) _ _ _ _ _ _ _ _ _ _ _ _ _ _ _ _ _
 72
    65
 73
     2
 40
9.524999999999998
 49
6.349999999999999
 74
     0
 49
-3.174999999999999
 74
     0
  0
LTYPE
  5
4E
330
5
100
AcDbSymbolTableRecord
100
AcDbLinetypeTableRecord
  2
DASHEDX2
 70
     0
  3
Dashed (2x) ____  ____  ____  ____  ____  ___
 72
    65
 73
     2
 40
38.1
 49
25.4
 74
     0
 49
-12.7
 74
     0
  0
LTYPE
  5
4F
330
5
100
AcDbSymbolTableRecord
100
AcDbLinetypeTableRecord
  2
DIVIDE
 70
     0
  3
Divide ____ . . ____ . . ____ . . ____ . . ____
 72
    65
 73
     6
 40
31.75
 49
12.7
 74
     0
 49
-6.349999999999999
 74
     0
 49
0.0
 74
     0
 49
-6.349999999999999
 74
     0
 49
0.0
 74
     0
 49
-6.349999999999999
 74
     0
  0
LTYPE
  5
50
330
5
100
AcDbSymbolTableRecord
100
AcDbLinetypeTableRecord
  2
DIVIDE2
 70
     0
  3
Divide (.5x) __..__..__..__..__..__..__..__.._
 72
    65
 73
     6
 40
15.875
 49
6.349999999999999
 74
     0
 49
-3.174999999999999
 74
     0
 49
0.0
 74
     0
 49
-3.174999999999999
 74
     0
 49
0.0
 74
     0
 49
-3.174999999999999
 74
     0
  0
LTYPE
  5
51
330
5
100
AcDbSymbolTableRecord
100
AcDbLinetypeTableRecord
  2
DIVIDEX2
 70
     0
  3
Divide (2x) ________  .  .  ________  .  .  _
 72
    65
 73
     6
 40
63.49999999999999
 49
25.4
 74
     0
 49
-12.7
 74
     0
 49
0.0
 74
     0
 49
-12.7
 74
     0
 49
0.0
 74
     0
 49
-12.7
 74
     0
  0
LTYPE
  5
52
330
5
100
AcDbSymbolTableRecord
100
AcDbLinetypeTableRecord
  2
DOT
 70
     0
  3
Dot . . . . . . . . . . . . . . . . . . . . . .
 72
    65
 73
     2
 40
6.349999999999999
 49
0.0
 74
     0
 49
-6.349999999999999
 74
     0
  0
LTYPE
  5
53
330
5
100
AcDbSymbolTableRecord
100
AcDbLinetypeTableRecord
  2
DOT2
 70
     0
  3
Dot (.5x) .....................................
 72
    65
 73
     2
 40
3.174999999999999
 49
0.0
 74
     0
 49
-3.174999999999999
 74
     0
  0
LTYPE
  5
54
330
5
100
AcDbSymbolTableRecord
100
AcDbLinetypeTableRecord
  2
DOTX2
 70
     0
  3
Dot (2x) .  .  .  .  .  .  .  .  .  .  .  .  . 
 72
    65
 73
     2
 40
12.7
 49
0.0
 74
     0
 49
-12.7
 74
     0
  0
LTYPE
  5
55
330
5
100
AcDbSymbolTableRecord
100
AcDbLinetypeTableRecord
  2
FENCELINE1
 70
     0
  3
Fenceline circle ----0-----0----0-----0----0---
 72
    65
 73
     4
 40
36.83
 49
6.349999999999999
 74
     0
 49
-2.54
 74
     4
 75
   133
340
33
 46
2.54
 50
0.0
 44
-2.54
 45
0.0
 49
-2.54
 74
     0
 49
25.4
 74
     0
  0
LTYPE
  5
56
330
5
100
AcDbSymbolTableRecord
100
AcDbLinetypeTableRecord
  2
FENCELINE2
 70
     0
  3
Fenceline square ----[]-----[]----[]-----[]----
 72
    65
 73
     4
 40
36.83
 49
6.349999999999999
 74
     0
 49
-2.54
 74
     4
 75
   132
340
33
 46
2.54
 50
0.0
 44
-2.54
 45
0.0
 49
-2.54
 74
     0
 49
25.4
 74
     0
  0
LTYPE
  5
57
330
5
100
AcDbSymbolTableRecord
100
AcDbLinetypeTableRecord
  2
GAS_LINE
 70
     0
  3
Gas line ----GAS----GAS----GAS----GAS----GAS---
 72
    65
 73
     3
 40
24.13
 49
12.7
 74
     0
 49
-5.08
 74
     2
 75
     0
340
11
 46
2.54
 50
0.0
 44
-2.54
 45
-1.27
  9
GAS
 49
-6.349999999999999
 74
     0
  0
LTYPE
  5
58
330
5
100
AcDbSymbolTableRecord
100
AcDbLinetypeTableRecord
  2
HIDDEN
 70
     0
  3
Hidden __ __ __ __ __ __ __ __ __ __ __ __ __ _
 72
    65
 73
     2
 40
9.524999999999998
 49
6.349999999999999
 74
     0
 49
-3.174999999999999
 74
     0
  0
LTYPE
  5
59
330
5
100
AcDbSymbolTableRecord
100
AcDbLinetypeTableRecord
  2
HIDDEN2
 70
     0
  3
Hidden (.5x) _ _ _ _ _ _ _ _ _ _ _ _ _ _ _ _ _
 72
    65
 73
     2
 40
4.762499999999999
 49
3.174999999999999
 74
     0
 49
-1.587499999999999
 74
     0
  0
LTYPE
  5
5A
330
5
100
AcDbSymbolTableRecord
100
AcDbLinetypeTableRecord
  2
HIDDENX2
 70
     0
  3
Hidden (2x) ____ ____ ____ ____ ____ ____ ____
 72
    65
 73
     2
 40
19.05
 49
12.7
 74
     0
 49
-6.349999999999999
 74
     0
  0
LTYPE
  5
5B
330
5
100
AcDbSymbolTableRecord
100
AcDbLinetypeTableRecord
  2
HOT_WATER_SUPPLY
 70
     0
  3
Hot water supply ---- HW ---- HW ---- HW ----
 72
    65
 73
     3
 40
22.86
 49
12.7
 74
     0
 49
-5.08
 74
     2
 75
     0
340
11
 46
2.54
 50
0.0
 44
-2.54
 45
-1.27
  9
HW
 49
-5.08
 74
     0
  0
LTYPE
  5
5C
330
5
100
AcDbSymbolTableRecord
100
AcDbLinetypeTableRecord
  2
PHANTOM
 70
     0
  3
Phantom ______  __  __  ______  __  __  ______
 72
    65
 73
     6
 40
63.5
 49
31.75
 74
     0
 49
-6.349999999999999
 74
     0
 49
6.349999999999999
 74
     0
 49
-6.349999999999999
 74
     0
 49
6.349999999999999
 74
     0
 49
-6.349999999999999
 74
     0
  0
LTYPE
  5
5D
330
5
100
AcDbSymbolTableRecord
100
AcDbLinetypeTableRecord
  2
PHANTOM2
 70
     0
  3
Phantom (.5x) ___ _ _ ___ _ _ ___ _ _ ___ _ _
 72
    65
 73
     6
 40
31.75
 49
15.875
 74
     0
 49
-3.174999999999999
 74
     0
 49
3.174999999999999
 74
     0
 49
-3.174999999999999
 74
     0
 49
3.174999999999999
 74
     0
 49
-3.174999999999999
 74
     0
  0
LTYPE
  5
5E
330
5
100
AcDbSymbolTableRecord
100
AcDbLinetypeTableRecord
  2
PHANTOMX2
 70
     0
  3
Phantom (2x) ____________    ____    ____   _
 72
    65
 73
     6
 40
127.0
 49
63.5
 74
     0
 49
-12.7
 74
     0
 49
12.7
 74
     0
 49
-12.7
 74
     0
 49
12.7
 74
     0
 49
-12.7
 74
     0
  0
LTYPE
  5
5F
330
5
100
AcDbSymbolTableRecord
100
AcDbLinetypeTableRecord
  2
TRACKS
 70
     0
  3
Tracks -|-|-|-|-|-|-|-|-|-|-|-|-|-|-|-|-|-|-|-|
 72
    65
 73
     2
 40
7.62
 49
3.81
 74
     4
 75
   130
340
33
 46
6.349999999999999
 50
0.0
 44
0.0
 45
0.0
 49
3.81
 74
     0
  0
LTYPE
  5
60
330
5
100
AcDbSymbolTableRecord
100
AcDbLinetypeTableRecord
  2
ZIGZAG
 70
     0
  3
Zig zag /\/\/\/\/\/\/\/\/\/\/\/\/\/\/\/\/\/\/\/
 72
    65
 73
     4
 40
20.32254
 49
0.00254
 74
     0
 49
-5.08
 74
     4
 75
   131
340
33
 46
5.08
 50
0.0
 44
-5.08
 45
0.0
 49
-10.16
 74
     4
 75
   131
340
33
 46
5.08
 50
180.0
 44
5.08
 45
0.0
 49
-5.08
 74
     0
  0
ENDTAB
  0
TABLE
  2
LAYER
  5
2
102
{ACAD_XDICTIONARY
360
17E1
102
}
330
0
100
AcDbSymbolTable
 70
     9
  0
LAYER
  5
10
330
2
100
AcDbSymbolTableRecord
100
AcDbLayerTableRecord
  2
0
 70
     0
 62
     7
  6
Continuous
370
    -3
390
F
  0
LAYER
  5
C3
330
2
100
AcDbSymbolTableRecord
100
AcDbLayerTableRecord
  2
Defpoints
 70
     0
 62
     7
  6
Continuous
290
     0
370
    -3
390
F
  0
LAYER
  5
256
330
2
100
AcDbSymbolTableRecord
100
AcDbLayerTableRecord
  2
センター
 70
     0
 62
     7
  6
CENTER2
370
    15
390
F
  0
LAYER
  5
268
330
2
100
AcDbSymbolTableRecord
100
AcDbLayerTableRecord
  2
実形
 70
     0
 62
     7
  6
Continuous
370
    -3
390
F
  0
LAYER
  5
269
330
2
100
AcDbSymbolTableRecord
100
AcDbLayerTableRecord
  2
補助
 70
     0
 62
     7
  6
Continuous
370
    -3
390
F
  0
LAYER
  5
26A
330
2
100
AcDbSymbolTableRecord
100
AcDbLayerTableRecord
  2
寸法
 70
     0
 62
     7
  6
Continuous
370
    -3
390
F
  0
LAYER
  5
26B
330
2
100
AcDbSymbolTableRecord
100
AcDbLayerTableRecord
  2
ハッチング
 70
     0
 62
     7
  6
Continuous
370
    18
390
F
  0
LAYER
  5
26D
330
2
100
AcDbSymbolTableRecord
100
AcDbLayerTableRecord
  2
文字
 70
     0
 62
     7
  6
Continuous
370
    -3
390
F
  0
LAYER
  5
FCC
330
2
100
AcDbSymbolTableRecord
100
AcDbLayerTableRecord
  2
Cen
 70
     0
 62
     7
  6
CENTER2
370
    15
390
F
  0
ENDTAB
  0
TABLE
  2
STYLE
  5
3
330
0
100
AcDbSymbolTable
 70
     4
  0
STYLE
  5
11
330
3
100
AcDbSymbolTableRecord
100
AcDbTextStyleTableRecord
  2
Standard
 70
     0
 40
0.0
 41
1.0
 50
0.0
 71
     0
 42
35.0
  3
txt.shx
  4
bigfont.shx
  0
STYLE
  5
33
330
3
100
AcDbSymbolTableRecord
100
AcDbTextStyleTableRecord
  2

 70
     1
 40
0.0
 41
1.0
 50
0.0
 71
     0
 42
2.5
  3
ltypeshp.shx
  4

  0
STYLE
  5
1B0A
330
3
100
AcDbSymbolTableRecord
100
AcDbTextStyleTableRecord
  2
MS明朝
 70
     0
 40
0.0
 41
1.0
 50
0.0
 71
     0
 42
35.0
  3
MS Mincho.ttf
  4

1001
ACAD
1000
MS Mincho
1071
    32785
  0
STYLE
  5
1EB3
330
3
100
AcDbSymbolTableRecord
100
AcDbTextStyleTableRecord
  2
明朝
 70
     0
 40
0.0
 41
1.0
 50
0.0
 71
     0
 42
25.0
  3
MS Mincho.ttf
  4

1001
ACAD
1000
MS Mincho
1071
    32785
  0
ENDTAB
  0
TABLE
  2
VIEW
  5
6
330
0
100
AcDbSymbolTable
 70
     0
  0
ENDTAB
  0
TABLE
  2
UCS
  5
7
330
0
100
AcDbSymbolTable
 70
     0
  0
ENDTAB
  0
TABLE
  2
APPID
  5
9
330
0
100
AcDbSymbolTable
 70
     2
  0
APPID
  5
12
330
9
100
AcDbSymbolTableRecord
100
AcDbRegAppTableRecord
  2
ACAD
 70
     0
  0
APPID
  5
1D8B
330
9
100
AcDbSymbolTableRecord
100
AcDbRegAppTableRecord
  2
ACAD_PSEXT
 70
     0
  0
ENDTAB
  0
TABLE
  2
DIMSTYLE
  5
A
330
0
100
AcDbSymbolTable
 70
     1
100
AcDbDimStyleTable
 71
     1
340
27
  0
DIMSTYLE
105
27
102
{ACAD_REACTORS
330
50A
330
3F6
330
4E5
330
4FD
330
522
330
3E9
330
40C
330
41A
330
459
330
466
330
47C
330
492
330
4C3
330
13C4
330
1837
330
19A1
330
1C3E
330
1C3F
330
1C40
330
1C41
330
1CE5
330
1D20
330
2069
330
2073
330
2076
330
2077
330
207A
330
207B
330
207C
330
207D
330
207F
330
2080
330
2081
330
2082
330
2083
330
2084
330
208A
330
208B
330
208C
330
2094
330
2095
330
2096
330
229E
330
229F
330
22A0
330
22A1
330
22A2
330
2434
330
2435
330
2459
330
2544
330
2545
330
25B1
330
25B2
330
25B3
330
25B4
102
}
330
A
100
AcDbSymbolTableRecord
100
AcDbDimStyleTableRecord
  2
ISO-25
 70
     0
 41
35.0
 42
65.0
 43
3.75
 44
0.0
 73
     0
 74
     0
 77
     1
 78
     8
140
25.0
141
2.5
143
0.03937007874016
147
6.25
171
     3
172
     1
271
     2
272
     2
274
     3
283
     0
284
     8
340
11
341
DA
342
D0
371
    15
372
    15
  0
ENDTAB
  0
TABLE
  2
BLOCK_RECORD
  5
1
330
0
100
AcDbSymbolTable
 70
    83
  0
BLOCK_RECORD
  5
1F
102
{ACAD_XDICTIONARY
360
17BB
102
}
330
1
100
AcDbSymbolTableRecord
100
AcDbBlockTableRecord
  2
*Model_Space
340
22
  0
BLOCK_RECORD
  5
1B
330
1
100
AcDbSymbolTableRecord
100
AcDbBlockTableRecord
  2
*Paper_Space
340
1E
  0
BLOCK_RECORD
  5
23
330
1
100
AcDbSymbolTableRecord
100
AcDbBlockTableRecord
  2
*Paper_Space0
340
26
  0
BLOCK_RECORD
  5
D0
330
1
100
AcDbSymbolTableRecord
100
AcDbBlockTableRecord
  2
_DotSmall
340
0
102
{BLKREFS
331
1B2D
331
1B2E
331
1B36
331
1B37
331
1B40
331
1B41
331
1B48
331
1B49
331
1B5A
331
1B5B
331
1B63
331
1B64
331
1B6D
331
1B6E
331
1B75
331
1B76
331
1B7F
331
1B80
331
1B89
331
1B8A
331
1B91
331
1B92
331
1B9B
331
1B9C
331
1BAC
331
1BAD
331
1BB5
331
1BB6
331
1CB7
331
1CB8
331
1CC1
331
1CC2
331
1D08
331
1D09
331
1D10
331
1D11
331
1D1A
331
1D1B
331
1D4C
331
1D4D
331
1DD4
331
1DD5
331
1DE1
331
1DE2
331
1DEC
331
1DED
331
1DF9
331
1DFA
331
1E04
331
1E05
331
1E10
331
1E11
331
1E1C
331
1E1D
331
1E29
331
1E2A
331
1E34
331
1E35
331
1E40
331
1E41
331
1E4C
331
1E4D
331
1E58
331
1E59
331
1E64
331
1E65
331
1E70
331
1E71
331
1E7C
331
1E7D
331
1E88
331
1E89
331
1E94
331
1E95
331
1EA0
331
1EA1
331
1EAC
331
1EAD
331
21A1
331
21A2
331
21AB
331
21AC
331
21B3
331
21B4
331
21BD
331
21BE
331
21C5
331
21C6
331
21CE
331
21CF
331
21D7
331
21D8
331
21E1
331
21E2
331
21E9
331
21EA
331
21F2
331
21F3
331
21FB
331
21FC
331
2204
331
2205
331
220D
331
220E
331
2216
331
2217
331
221F
331
2220
331
2228
331
2229
331
2231
331
2232
331
223A
331
223B
331
2243
331
2244
331
2325
331
2326
331
232E
331
232F
331
2338
331
2339
331
2343
331
2344
331
234E
331
234F
331
2357
331
2358
331
24F0
331
24F1
331
2612
331
2613
331
261C
331
261D
331
2624
331
2625
331
2630
331
2631
331
2638
331
2639
331
2641
331
2642
331
264B
331
264C
331
2653
331
2654
331
265B
331
265C
102
}
  0
BLOCK_RECORD
  5
D4
330
1
100
AcDbSymbolTableRecord
100
AcDbBlockTableRecord
  2
_Origin2
340
0
  0
BLOCK_RECORD
  5
DA
330
1
100
AcDbSymbolTableRecord
100
AcDbBlockTableRecord
  2
_Open30
340
0
  0
BLOCK_RECORD
  5
3EA
330
1
100
AcDbSymbolTableRecord
100
AcDbBlockTableRecord
  2
*D4
340
0
  0
BLOCK_RECORD
  5
3F7
330
1
100
AcDbSymbolTableRecord
100
AcDbBlockTableRecord
  2
*D5
340
0
  0
BLOCK_RECORD
  5
40D
330
1
100
AcDbSymbolTableRecord
100
AcDbBlockTableRecord
  2
*D6
340
0
  0
BLOCK_RECORD
  5
41B
330
1
100
AcDbSymbolTableRecord
100
AcDbBlockTableRecord
  2
*D7
340
0
  0
BLOCK_RECORD
  5
45A
330
1
100
AcDbSymbolTableRecord
100
AcDbBlockTableRecord
  2
*D8
340
0
  0
BLOCK_RECORD
  5
467
330
1
100
AcDbSymbolTableRecord
100
AcDbBlockTableRecord
  2
*D9
340
0
  0
BLOCK_RECORD
  5
47D
330
1
100
AcDbSymbolTableRecord
100
AcDbBlockTableRecord
  2
*D10
340
0
  0
BLOCK_RECORD
  5
493
330
1
100
AcDbSymbolTableRecord
100
AcDbBlockTableRecord
  2
*D11
340
0
  0
BLOCK_RECORD
  5
4C4
330
1
100
AcDbSymbolTableRecord
100
AcDbBlockTableRecord
  2
*D12
340
0
  0
BLOCK_RECORD
  5
4E6
330
1
100
AcDbSymbolTableRecord
100
AcDbBlockTableRecord
  2
*D13
340
0
  0
BLOCK_RECORD
  5
4FE
330
1
100
AcDbSymbolTableRecord
100
AcDbBlockTableRecord
  2
*D14
340
0
  0
BLOCK_RECORD
  5
50B
330
1
100
AcDbSymbolTableRecord
100
AcDbBlockTableRecord
  2
*D15
340
0
  0
BLOCK_RECORD
  5
523
330
1
100
AcDbSymbolTableRecord
100
AcDbBlockTableRecord
  2
*D16
340
0
  0
BLOCK_RECORD
  5
13D2
330
1
100
AcDbSymbolTableRecord
100
AcDbBlockTableRecord
  2
*D17
340
0
  0
BLOCK_RECORD
  5
1879
330
1
100
AcDbSymbolTableRecord
100
AcDbBlockTableRecord
  2
*D18
340
0
  0
BLOCK_RECORD
  5
1890
330
1
100
AcDbSymbolTableRecord
100
AcDbBlockTableRecord
  2
_None
340
0
  0
BLOCK_RECORD
  5
19A2
330
1
100
AcDbSymbolTableRecord
100
AcDbBlockTableRecord
  2
*D20
340
0
  0
BLOCK_RECORD
  5
1C64
330
1
100
AcDbSymbolTableRecord
100
AcDbBlockTableRecord
  2
*D21
340
0
  0
BLOCK_RECORD
  5
1C70
330
1
100
AcDbSymbolTableRecord
100
AcDbBlockTableRecord
  2
*D22
340
0
  0
BLOCK_RECORD
  5
1C7D
330
1
100
AcDbSymbolTableRecord
100
AcDbBlockTableRecord
  2
*D23
340
0
  0
BLOCK_RECORD
  5
1C8A
330
1
100
AcDbSymbolTableRecord
100
AcDbBlockTableRecord
  2
*D24
340
0
  0
BLOCK_RECORD
  5
1CE6
330
1
100
AcDbSymbolTableRecord
100
AcDbBlockTableRecord
  2
*D25
340
0
  0
BLOCK_RECORD
  5
1D21
330
1
100
AcDbSymbolTableRecord
100
AcDbBlockTableRecord
  2
*D26
340
0
  0
BLOCK_RECORD
  5
1D86
330
1
100
AcDbSymbolTableRecord
100
AcDbBlockTableRecord
  2
_Dot
340
0
  0
BLOCK_RECORD
  5
1DC6
330
1
100
AcDbSymbolTableRecord
100
AcDbBlockTableRecord
  2
*D28
340
0
  0
BLOCK_RECORD
  5
1DCF
330
1
100
AcDbSymbolTableRecord
100
AcDbBlockTableRecord
  2
*D29
340
0
  0
BLOCK_RECORD
  5
1DDB
330
1
100
AcDbSymbolTableRecord
100
AcDbBlockTableRecord
  2
*D30
340
0
  0
BLOCK_RECORD
  5
1DE7
330
1
100
AcDbSymbolTableRecord
100
AcDbBlockTableRecord
  2
*D31
340
0
  0
BLOCK_RECORD
  5
1DF3
330
1
100
AcDbSymbolTableRecord
100
AcDbBlockTableRecord
  2
*D32
340
0
  0
BLOCK_RECORD
  5
1DFF
330
1
100
AcDbSymbolTableRecord
100
AcDbBlockTableRecord
  2
*D33
340
0
  0
BLOCK_RECORD
  5
1E0B
330
1
100
AcDbSymbolTableRecord
100
AcDbBlockTableRecord
  2
*D34
340
0
  0
BLOCK_RECORD
  5
1E17
330
1
100
AcDbSymbolTableRecord
100
AcDbBlockTableRecord
  2
*D35
340
0
  0
BLOCK_RECORD
  5
1E23
330
1
100
AcDbSymbolTableRecord
100
AcDbBlockTableRecord
  2
*D36
340
0
  0
BLOCK_RECORD
  5
1E2F
330
1
100
AcDbSymbolTableRecord
100
AcDbBlockTableRecord
  2
*D37
340
0
  0
BLOCK_RECORD
  5
1E3B
330
1
100
AcDbSymbolTableRecord
100
AcDbBlockTableRecord
  2
*D38
340
0
  0
BLOCK_RECORD
  5
1E47
330
1
100
AcDbSymbolTableRecord
100
AcDbBlockTableRecord
  2
*D39
340
0
  0
BLOCK_RECORD
  5
1E53
330
1
100
AcDbSymbolTableRecord
100
AcDbBlockTableRecord
  2
*D40
340
0
  0
BLOCK_RECORD
  5
1E5F
330
1
100
AcDbSymbolTableRecord
100
AcDbBlockTableRecord
  2
*D41
340
0
  0
BLOCK_RECORD
  5
1E6B
330
1
100
AcDbSymbolTableRecord
100
AcDbBlockTableRecord
  2
*D42
340
0
  0
BLOCK_RECORD
  5
1E77
330
1
100
AcDbSymbolTableRecord
100
AcDbBlockTableRecord
  2
*D43
340
0
  0
BLOCK_RECORD
  5
1E83
330
1
100
AcDbSymbolTableRecord
100
AcDbBlockTableRecord
  2
*D44
340
0
  0
BLOCK_RECORD
  5
1E8F
330
1
100
AcDbSymbolTableRecord
100
AcDbBlockTableRecord
  2
*D45
340
0
  0
BLOCK_RECORD
  5
1E9B
330
1
100
AcDbSymbolTableRecord
100
AcDbBlockTableRecord
  2
*D46
340
0
  0
BLOCK_RECORD
  5
1EA7
330
1
100
AcDbSymbolTableRecord
100
AcDbBlockTableRecord
  2
*D47
340
0
  0
BLOCK_RECORD
  5
1EB4
102
{ACAD_XDICTIONARY
360
1F0A
102
}
330
1
100
AcDbSymbolTableRecord
100
AcDbBlockTableRecord
  2
A$C5B666412
340
0
  0
BLOCK_RECORD
  5
20AB
330
1
100
AcDbSymbolTableRecord
100
AcDbBlockTableRecord
  2
*D49
340
0
  0
BLOCK_RECORD
  5
20B4
330
1
100
AcDbSymbolTableRecord
100
AcDbBlockTableRecord
  2
*D50
340
0
  0
BLOCK_RECORD
  5
20C0
330
1
100
AcDbSymbolTableRecord
100
AcDbBlockTableRecord
  2
*D51
340
0
  0
BLOCK_RECORD
  5
20CC
330
1
100
AcDbSymbolTableRecord
100
AcDbBlockTableRecord
  2
*D52
340
0
  0
BLOCK_RECORD
  5
20D8
330
1
100
AcDbSymbolTableRecord
100
AcDbBlockTableRecord
  2
*D53
340
0
  0
BLOCK_RECORD
  5
20E4
330
1
100
AcDbSymbolTableRecord
100
AcDbBlockTableRecord
  2
*D54
340
0
  0
BLOCK_RECORD
  5
20F0
330
1
100
AcDbSymbolTableRecord
100
AcDbBlockTableRecord
  2
*D55
340
0
  0
BLOCK_RECORD
  5
20FC
330
1
100
AcDbSymbolTableRecord
100
AcDbBlockTableRecord
  2
*D56
340
0
  0
BLOCK_RECORD
  5
2108
330
1
100
AcDbSymbolTableRecord
100
AcDbBlockTableRecord
  2
*D57
340
0
  0
BLOCK_RECORD
  5
2114
330
1
100
AcDbSymbolTableRecord
100
AcDbBlockTableRecord
  2
*D58
340
0
  0
BLOCK_RECORD
  5
2120
330
1
100
AcDbSymbolTableRecord
100
AcDbBlockTableRecord
  2
*D59
340
0
  0
BLOCK_RECORD
  5
212C
330
1
100
AcDbSymbolTableRecord
100
AcDbBlockTableRecord
  2
*D60
340
0
  0
BLOCK_RECORD
  5
2138
330
1
100
AcDbSymbolTableRecord
100
AcDbBlockTableRecord
  2
*D61
340
0
  0
BLOCK_RECORD
  5
2144
330
1
100
AcDbSymbolTableRecord
100
AcDbBlockTableRecord
  2
*D62
340
0
  0
BLOCK_RECORD
  5
2150
330
1
100
AcDbSymbolTableRecord
100
AcDbBlockTableRecord
  2
*D63
340
0
  0
BLOCK_RECORD
  5
215C
330
1
100
AcDbSymbolTableRecord
100
AcDbBlockTableRecord
  2
*D64
340
0
  0
BLOCK_RECORD
  5
2168
330
1
100
AcDbSymbolTableRecord
100
AcDbBlockTableRecord
  2
*D65
340
0
  0
BLOCK_RECORD
  5
2174
330
1
100
AcDbSymbolTableRecord
100
AcDbBlockTableRecord
  2
*D66
340
0
  0
BLOCK_RECORD
  5
2180
330
1
100
AcDbSymbolTableRecord
100
AcDbBlockTableRecord
  2
*D67
340
0
  0
BLOCK_RECORD
  5
218C
330
1
100
AcDbSymbolTableRecord
100
AcDbBlockTableRecord
  2
*D68
340
0
  0
BLOCK_RECORD
  5
22AD
330
1
100
AcDbSymbolTableRecord
100
AcDbBlockTableRecord
  2
*D69
340
0
  0
BLOCK_RECORD
  5
22B9
330
1
100
AcDbSymbolTableRecord
100
AcDbBlockTableRecord
  2
*D70
340
0
  0
BLOCK_RECORD
  5
22C7
330
1
100
AcDbSymbolTableRecord
100
AcDbBlockTableRecord
  2
*D71
340
0
  0
BLOCK_RECORD
  5
22D3
330
1
100
AcDbSymbolTableRecord
100
AcDbBlockTableRecord
  2
*D72
340
0
  0
BLOCK_RECORD
  5
22DF
330
1
100
AcDbSymbolTableRecord
100
AcDbBlockTableRecord
  2
*D73
340
0
  0
BLOCK_RECORD
  5
2493
330
1
100
AcDbSymbolTableRecord
100
AcDbBlockTableRecord
  2
*D74
340
0
  0
BLOCK_RECORD
  5
249F
330
1
100
AcDbSymbolTableRecord
100
AcDbBlockTableRecord
  2
*D75
340
0
  0
BLOCK_RECORD
  5
24C2
330
1
100
AcDbSymbolTableRecord
100
AcDbBlockTableRecord
  2
*D76
340
0
  0
BLOCK_RECORD
  5
2546
330
1
100
AcDbSymbolTableRecord
100
AcDbBlockTableRecord
  2
*D77
340
0
  0
BLOCK_RECORD
  5
2552
330
1
100
AcDbSymbolTableRecord
100
AcDbBlockTableRecord
  2
*D78
340
0
  0
BLOCK_RECORD
  5
25B5
330
1
100
AcDbSymbolTableRecord
100
AcDbBlockTableRecord
  2
*D79
340
0
  0
BLOCK_RECORD
  5
25C3
330
1
100
AcDbSymbolTableRecord
100
AcDbBlockTableRecord
  2
*D80
340
0
  0
BLOCK_RECORD
  5
25CF
330
1
100
AcDbSymbolTableRecord
100
AcDbBlockTableRecord
  2
*D81
340
0
  0
BLOCK_RECORD
  5
25DB
330
1
100
AcDbSymbolTableRecord
100
AcDbBlockTableRecord
  2
*D82
340
0
  0
ENDTAB
  0
ENDSEC
  0
SECTION
  2
BLOCKS
  0
BLOCK
  5
20
330
1F
100
AcDbEntity
  8
0
100
AcDbBlockBegin
  2
*Model_Space
 70
     0
 10
0.0
 20
0.0
 30
0.0
  3
*Model_Space
  1

  0
ENDBLK
  5
21
330
1F
100
AcDbEntity
  8
0
100
AcDbBlockEnd
  0
BLOCK
  5
1C
330
1B
100
AcDbEntity
 67
     1
  8
0
100
AcDbBlockBegin
  2
*Paper_Space
 70
     0
 10
0.0
 20
0.0
 30
0.0
  3
*Paper_Space
  1

  0
ENDBLK
  5
1D
330
1B
100
AcDbEntity
 67
     1
  8
0
100
AcDbBlockEnd
  0
BLOCK
  5
24
330
23
100
AcDbEntity
  8
0
100
AcDbBlockBegin
  2
*Paper_Space0
 70
     0
 10
0.0
 20
0.0
 30
0.0
  3
*Paper_Space0
  1

  0
ENDBLK
  5
25
330
23
100
AcDbEntity
  8
0
100
AcDbBlockEnd
  0
BLOCK
  5
D2
330
D0
100
AcDbEntity
  8
0
100
AcDbBlockBegin
  2
_DotSmall
 70
     0
 10
0.0
 20
0.0
 30
0.0
  3
_DotSmall
  1

  0
LWPOLYLINE
  5
D1
330
D0
100
AcDbEntity
  8
0
 62
     0
100
AcDbPolyline
 90
        2
 70
     1
 43
0.5
 10
-0.0625
 20
0.0
 42
1.0
 10
0.0625
 20
0.0
 42
1.0
  0
ENDBLK
  5
D3
330
D0
100
AcDbEntity
  8
0
100
AcDbBlockEnd
  0
BLOCK
  5
D8
330
D4
100
AcDbEntity
  8
0
100
AcDbBlockBegin
  2
_Origin2
 70
     0
 10
0.0
 20
0.0
 30
0.0
  3
_Origin2
  1

  0
CIRCLE
  5
D5
330
D4
100
AcDbEntity
  8
0
 62
     0
370
    -2
100
AcDbCircle
 10
0.0
 20
0.0
 30
0.0
 40
0.5
  0
CIRCLE
  5
D6
330
D4
100
AcDbEntity
  8
0
 62
     0
370
    -2
100
AcDbCircle
 10
0.0
 20
0.0
 30
0.0
 40
0.25
  0
LINE
  5
D7
330
D4
100
AcDbEntity
  8
0
 62
     0
370
    -2
100
AcDbLine
 10
-0.5
 20
0.0
 30
0.0
 11
-1.0
 21
0.0
 31
0.0
  0
ENDBLK
  5
D9
330
D4
100
AcDbEntity
  8
0
100
AcDbBlockEnd
  0
BLOCK
  5
DE
330
DA
100
AcDbEntity
  8
0
100
AcDbBlockBegin
  2
_Open30
 70
     0
 10
0.0
 20
0.0
 30
0.0
  3
_Open30
  1

  0
LINE
  5
DB
330
DA
100
AcDbEntity
  8
0
 62
     0
370
    -2
100
AcDbLine
 10
-1.0
 20
0.26794919
 30
0.0
 11
0.0
 21
0.0
 31
0.0
  0
LINE
  5
DC
330
DA
100
AcDbEntity
  8
0
 62
     0
370
    -2
100
AcDbLine
 10
0.0
 20
0.0
 30
0.0
 11
-1.0
 21
-0.26794919
 31
0.0
  0
LINE
  5
DD
330
DA
100
AcDbEntity
  8
0
 62
     0
370
    -2
100
AcDbLine
 10
0.0
 20
0.0
 30
0.0
 11
-1.0
 21
0.0
 31
0.0
  0
ENDBLK
  5
DF
330
DA
100
AcDbEntity
  8
0
100
AcDbBlockEnd
  0
BLOCK
  5
3F4
330
3EA
100
AcDbEntity
  8
0
100
AcDbBlockBegin
  2
*D4
 70
     1
 10
0.0
 20
0.0
 30
0.0
  3
*D4
  1

  0
LINE
  5
1B2B
330
3EA
100
AcDbEntity
  8
寸法
 62
     0
370
    15
100
AcDbLine
 10
1130.437435415243
 20
1367.3522772966
 30
0.0
 11
916.5103197613808
 21
1367.3522772966
 31
0.0
  0
LINE
  5
1B2C
330
3EA
100
AcDbEntity
  8
寸法
 62
     0
370
    15
100
AcDbLine
 10
916.5103197613808
 20
1367.3522772966
 30
0.0
 11
916.5103197613808
 21
1497.3522772966
 31
0.0
  0
INSERT
  5
1B2D
330
3EA
100
AcDbEntity
  8
寸法
 62
     0
370
    15
100
AcDbBlockReference
  2
_DotSmall
 10
916.5103197613808
 20
1367.3522772966
 30
0.0
 41
35.0
 42
35.0
 43
35.0
 50
270.0
  0
INSERT
  5
1B2E
330
3EA
100
AcDbEntity
  8
寸法
 62
     0
370
    15
100
AcDbBlockReference
  2
_DotSmall
 10
916.5103197613808
 20
1497.3522772966
 30
0.0
 41
35.0
 42
35.0
 43
35.0
 50
90.0
  0
MTEXT
  5
1B2F
330
3EA
100
AcDbEntity
  8
寸法
 62
     0
100
AcDbMText
 10
897.7603197613804
 20
1432.3522772966
 30
0.0
 40
25.0
 41
0.0
 71
     5
 72
     1
  1
130
 11
0.0000000000000001
 21
1.0
 31
0.0
 73
     1
 44
1.0
1001
ACAD
1000
MTEXTBEGIN
1070
    73
1070
     1
1070
    44
1040
1.0
1070
    74
1070
     0
1000
MTEXTEND
  0
POINT
  5
1B30
330
3EA
100
AcDbEntity
  8
Defpoints
 62
     0
100
AcDbPoint
 10
1195.437435415243
 20
1367.3522772966
 30
0.0
  0
POINT
  5
1B31
330
3EA
100
AcDbEntity
  8
Defpoints
 62
     0
100
AcDbPoint
 10
916.5103197613808
 20
1497.3522772966
 30
0.0
  0
POINT
  5
1B32
330
3EA
100
AcDbEntity
  8
Defpoints
 62
     0
100
AcDbPoint
 10
916.5103197613808
 20
1497.3522772966
 30
0.0
  0
ENDBLK
  5
3F5
330
3EA
100
AcDbEntity
  8
0
100
AcDbBlockEnd
  0
BLOCK
  5
401
330
3F7
100
AcDbEntity
  8
0
100
AcDbBlockBegin
  2
*D5
 70
     1
 10
0.0
 20
0.0
 30
0.0
  3
*D5
  1

  0
LINE
  5
1B33
330
3F7
100
AcDbEntity
  8
寸法
 62
     0
370
    15
100
AcDbLine
 10
1260.570849396604
 20
1222.8522772966
 30
0.0
 11
1260.570849396604
 21
1214.759511025599
 31
0.0
  0
LINE
  5
1B34
330
3F7
100
AcDbEntity
  8
寸法
 62
     0
370
    15
100
AcDbLine
 10
1410.570849396604
 20
1211.8522772966
 30
0.0
 11
1410.570849396604
 21
1214.759511025599
 31
0.0
  0
LINE
  5
1B35
330
3F7
100
AcDbEntity
  8
寸法
 62
     0
370
    15
100
AcDbLine
 10
1260.570849396604
 20
1214.759511025599
 30
0.0
 11
1410.570849396604
 21
1214.759511025599
 31
0.0
  0
INSERT
  5
1B36
330
3F7
100
AcDbEntity
  8
寸法
 62
     0
370
    15
100
AcDbBlockReference
  2
_DotSmall
 10
1260.570849396604
 20
1214.759511025599
 30
0.0
 41
35.0
 42
35.0
 43
35.0
 50
180.0
  0
INSERT
  5
1B37
330
3F7
100
AcDbEntity
  8
寸法
 62
     0
370
    15
100
AcDbBlockReference
  2
_DotSmall
 10
1410.570849396604
 20
1214.759511025599
 30
0.0
 41
35.0
 42
35.0
 43
35.0
  0
MTEXT
  5
1B38
330
3F7
100
AcDbEntity
  8
寸法
 62
     0
100
AcDbMText
 10
1335.570849396604
 20
1233.509511025599
 30
0.0
 40
25.0
 41
0.0
 71
     5
 72
     1
  1
150
 73
     1
 44
1.0
1001
ACAD
1000
MTEXTBEGIN
1070
    73
1070
     1
1070
    44
1040
1.0
1070
    74
1070
     0
1000
MTEXTEND
  0
POINT
  5
1B39
330
3F7
100
AcDbEntity
  8
Defpoints
 62
     0
100
AcDbPoint
 10
1260.570849396604
 20
1287.8522772966
 30
0.0
  0
POINT
  5
1B3A
330
3F7
100
AcDbEntity
  8
Defpoints
 62
     0
100
AcDbPoint
 10
1410.570849396604
 20
1276.8522772966
 30
0.0
  0
POINT
  5
1B3B
330
3F7
100
AcDbEntity
  8
Defpoints
 62
     0
100
AcDbPoint
 10
1410.570849396604
 20
1214.759511025599
 30
0.0
  0
ENDBLK
  5
402
330
3F7
100
AcDbEntity
  8
0
100
AcDbBlockEnd
  0
BLOCK
  5
418
330
40D
100
AcDbEntity
  8
0
100
AcDbBlockBegin
  2
*D6
 70
     1
 10
0.0
 20
0.0
 30
0.0
  3
*D6
  1

  0
LINE
  5
1B3C
330
40D
100
AcDbEntity
  8
寸法
 62
     0
370
    15
100
AcDbLine
 10
380.570849396604
 20
1072.3522772966
 30
0.0
 11
341.6869335034063
 21
1072.3522772966
 31
0.0
  0
LINE
  5
1B3D
330
40D
100
AcDbEntity
  8
寸法
 62
     0
370
    15
100
AcDbLine
 10
380.570849396604
 20
1087.3522772966
 30
0.0
 11
341.6869335034063
 21
1087.3522772966
 31
0.0
  0
LINE
  5
1B3E
330
40D
100
AcDbEntity
  8
寸法
 62
     0
370
    15
100
AcDbLine
 10
341.6869335034063
 20
1072.3522772966
 30
0.0
 11
341.6869335034063
 21
1087.3522772966
 31
0.0
  0
MTEXT
  5
1B3F
330
40D
100
AcDbEntity
  8
寸法
 62
     0
100
AcDbMText
 10
317.3723100336975
 20
1097.355470058334
 30
0.0
 40
25.0
 41
0.0
 71
     5
 72
     1
  1
15
 11
0.0000000000000001
 21
1.0
 31
0.0
 73
     1
 44
1.0
1001
ACAD
1000
MTEXTBEGIN
1070
    73
1070
     1
1070
    44
1040
1.0
1070
    74
1070
     0
1000
MTEXTEND
  0
INSERT
  5
1B40
330
40D
100
AcDbEntity
  8
寸法
 62
     0
370
    15
100
AcDbBlockReference
  2
_DotSmall
 10
341.6869335034063
 20
1072.3522772966
 30
0.0
 41
35.0
 42
35.0
 43
35.0
 50
270.0
  0
INSERT
  5
1B41
330
40D
100
AcDbEntity
  8
寸法
 62
     0
370
    15
100
AcDbBlockReference
  2
_DotSmall
 10
341.6869335034063
 20
1087.3522772966
 30
0.0
 41
35.0
 42
35.0
 43
35.0
 50
90.0
  0
POINT
  5
1B42
330
40D
100
AcDbEntity
  8
Defpoints
 62
     0
100
AcDbPoint
 10
445.570849396604
 20
1072.3522772966
 30
0.0
  0
POINT
  5
1B43
330
40D
100
AcDbEntity
  8
Defpoints
 62
     0
100
AcDbPoint
 10
445.570849396604
 20
1087.3522772966
 30
0.0
  0
POINT
  5
1B44
330
40D
100
AcDbEntity
  8
Defpoints
 62
     0
100
AcDbPoint
 10
341.6869335034063
 20
1087.3522772966
 30
0.0
  0
ENDBLK
  5
419
330
40D
100
AcDbEntity
  8
0
100
AcDbBlockEnd
  0
BLOCK
  5
425
330
41B
100
AcDbEntity
  8
0
100
AcDbBlockBegin
  2
*D7
 70
     1
 10
0.0
 20
0.0
 30
0.0
  3
*D7
  1

  0
LINE
  5
1B45
330
41B
100
AcDbEntity
  8
寸法
 62
     0
370
    15
100
AcDbLine
 10
380.570849396604
 20
1087.3522772966
 30
0.0
 11
341.7751885350444
 21
1087.3522772966
 31
0.0
  0
LINE
  5
1B46
330
41B
100
AcDbEntity
  8
寸法
 62
     0
370
    15
100
AcDbLine
 10
380.570849396604
 20
1497.3522772966
 30
0.0
 11
341.7751885350445
 21
1497.3522772966
 31
0.0
  0
LINE
  5
1B47
330
41B
100
AcDbEntity
  8
寸法
 62
     0
370
    15
100
AcDbLine
 10
341.7751885350444
 20
1087.3522772966
 30
0.0
 11
341.7751885350445
 21
1497.3522772966
 31
0.0
  0
INSERT
  5
1B48
330
41B
100
AcDbEntity
  8
寸法
 62
     0
370
    15
100
AcDbBlockReference
  2
_DotSmall
 10
341.7751885350444
 20
1087.3522772966
 30
0.0
 41
35.0
 42
35.0
 43
35.0
 50
270.0
  0
INSERT
  5
1B49
330
41B
100
AcDbEntity
  8
寸法
 62
     0
370
    15
100
AcDbBlockReference
  2
_DotSmall
 10
341.7751885350445
 20
1497.3522772966
 30
0.0
 41
35.0
 42
35.0
 43
35.0
 50
90.0
  0
MTEXT
  5
1B4A
330
41B
100
AcDbEntity
  8
寸法
 62
     0
100
AcDbMText
 10
323.0251885350443
 20
1292.3522772966
 30
0.0
 40
25.0
 41
0.0
 71
     5
 72
     1
  1
410
 11
0.0000000000000001
 21
1.0
 31
0.0
 73
     1
 44
1.0
1001
ACAD
1000
MTEXTBEGIN
1070
    73
1070
     1
1070
    44
1040
1.0
1070
    74
1070
     0
1000
MTEXTEND
  0
POINT
  5
1B4B
330
41B
100
AcDbEntity
  8
Defpoints
 62
     0
100
AcDbPoint
 10
445.570849396604
 20
1087.3522772966
 30
0.0
  0
POINT
  5
1B4C
330
41B
100
AcDbEntity
  8
Defpoints
 62
     0
100
AcDbPoint
 10
445.570849396604
 20
1497.3522772966
 30
0.0
  0
POINT
  5
1B4D
330
41B
100
AcDbEntity
  8
Defpoints
 62
     0
100
AcDbPoint
 10
341.7751885350445
 20
1497.3522772966
 30
0.0
  0
ENDBLK
  5
426
330
41B
100
AcDbEntity
  8
0
100
AcDbBlockEnd
  0
BLOCK
  5
464
330
45A
100
AcDbEntity
  8
0
100
AcDbBlockBegin
  2
*D8
 70
     1
 10
0.0
 20
0.0
 30
0.0
  3
*D8
  1

  0
LINE
  5
1B57
330
45A
100
AcDbEntity
  8
寸法
 62
     0
370
    15
100
AcDbLine
 10
380.570849396604
 20
1512.3522772966
 30
0.0
 11
265.2827462954875
 21
1512.3522772966
 31
0.0
  0
LINE
  5
1B58
330
45A
100
AcDbEntity
  8
寸法
 62
     0
370
    15
100
AcDbLine
 10
380.570849396604
 20
1072.3522772966
 30
0.0
 11
265.2827462954874
 21
1072.3522772966
 31
0.0
  0
LINE
  5
1B59
330
45A
100
AcDbEntity
  8
寸法
 62
     0
370
    15
100
AcDbLine
 10
265.2827462954875
 20
1512.3522772966
 30
0.0
 11
265.2827462954874
 21
1072.3522772966
 31
0.0
  0
INSERT
  5
1B5A
330
45A
100
AcDbEntity
  8
寸法
 62
     0
370
    15
100
AcDbBlockReference
  2
_DotSmall
 10
265.2827462954875
 20
1512.3522772966
 30
0.0
 41
35.0
 42
35.0
 43
35.0
 50
90.0
  0
INSERT
  5
1B5B
330
45A
100
AcDbEntity
  8
寸法
 62
     0
370
    15
100
AcDbBlockReference
  2
_DotSmall
 10
265.2827462954874
 20
1072.3522772966
 30
0.0
 41
35.0
 42
35.0
 43
35.0
 50
270.0
  0
MTEXT
  5
1B5C
330
45A
100
AcDbEntity
  8
寸法
 62
     0
100
AcDbMText
 10
246.5327462954873
 20
1292.3522772966
 30
0.0
 40
25.0
 41
0.0
 71
     5
 72
     1
  1
440
 11
0.0000000000000001
 21
1.0
 31
0.0
 73
     1
 44
1.0
1001
ACAD
1000
MTEXTBEGIN
1070
    73
1070
     1
1070
    44
1040
1.0
1070
    74
1070
     0
1000
MTEXTEND
  0
POINT
  5
1B5D
330
45A
100
AcDbEntity
  8
Defpoints
 62
     0
100
AcDbPoint
 10
445.570849396604
 20
1512.3522772966
 30
0.0
  0
POINT
  5
1B5E
330
45A
100
AcDbEntity
  8
Defpoints
 62
     0
100
AcDbPoint
 10
445.570849396604
 20
1072.3522772966
 30
0.0
  0
POINT
  5
1B5F
330
45A
100
AcDbEntity
  8
Defpoints
 62
     0
100
AcDbPoint
 10
265.2827462954874
 20
1072.3522772966
 30
0.0
  0
ENDBLK
  5
465
330
45A
100
AcDbEntity
  8
0
100
AcDbBlockEnd
  0
BLOCK
  5
471
330
467
100
AcDbEntity
  8
0
100
AcDbBlockBegin
  2
*D9
 70
     1
 10
0.0
 20
0.0
 30
0.0
  3
*D9
  1

  0
LINE
  5
1B60
330
467
100
AcDbEntity
  8
寸法
 62
     0
370
    15
100
AcDbLine
 10
380.570849396604
 20
1512.3522772966
 30
0.0
 11
265.2827462954874
 21
1512.3522772966
 31
0.0
  0
LINE
  5
1B61
330
467
100
AcDbEntity
  8
寸法
 62
     0
370
    15
100
AcDbLine
 10
380.570849396604
 20
1592.3522772966
 30
0.0
 11
265.2827462954874
 21
1592.3522772966
 31
0.0
  0
LINE
  5
1B62
330
467
100
AcDbEntity
  8
寸法
 62
     0
370
    15
100
AcDbLine
 10
265.2827462954874
 20
1512.3522772966
 30
0.0
 11
265.2827462954874
 21
1592.3522772966
 31
0.0
  0
INSERT
  5
1B63
330
467
100
AcDbEntity
  8
寸法
 62
     0
370
    15
100
AcDbBlockReference
  2
_DotSmall
 10
265.2827462954874
 20
1512.3522772966
 30
0.0
 41
35.0
 42
35.0
 43
35.0
 50
270.0
  0
INSERT
  5
1B64
330
467
100
AcDbEntity
  8
寸法
 62
     0
370
    15
100
AcDbBlockReference
  2
_DotSmall
 10
265.2827462954874
 20
1592.3522772966
 30
0.0
 41
35.0
 42
35.0
 43
35.0
 50
90.0
  0
MTEXT
  5
1B65
330
467
100
AcDbEntity
  8
寸法
 62
     0
100
AcDbMText
 10
246.5327462954872
 20
1552.3522772966
 30
0.0
 40
25.0
 41
0.0
 71
     5
 72
     1
  1
80
 11
0.0000000000000001
 21
1.0
 31
0.0
 73
     1
 44
1.0
1001
ACAD
1000
MTEXTBEGIN
1070
    73
1070
     1
1070
    44
1040
1.0
1070
    74
1070
     0
1000
MTEXTEND
  0
POINT
  5
1B66
330
467
100
AcDbEntity
  8
Defpoints
 62
     0
100
AcDbPoint
 10
445.570849396604
 20
1512.3522772966
 30
0.0
  0
POINT
  5
1B67
330
467
100
AcDbEntity
  8
Defpoints
 62
     0
100
AcDbPoint
 10
445.570849396604
 20
1592.3522772966
 30
0.0
  0
POINT
  5
1B68
330
467
100
AcDbEntity
  8
Defpoints
 62
     0
100
AcDbPoint
 10
265.2827462954874
 20
1592.3522772966
 30
0.0
  0
ENDBLK
  5
472
330
467
100
AcDbEntity
  8
0
100
AcDbBlockEnd
  0
BLOCK
  5
487
330
47D
100
AcDbEntity
  8
0
100
AcDbBlockBegin
  2
*D10
 70
     1
 10
0.0
 20
0.0
 30
0.0
  3
*D10
  1

  0
LINE
  5
1B69
330
47D
100
AcDbEntity
  8
寸法
 62
     0
370
    15
100
AcDbLine
 10
380.570849396604
 20
1592.3522772966
 30
0.0
 11
265.2827462954874
 21
1592.3522772966
 31
0.0
  0
LINE
  5
1B6A
330
47D
100
AcDbEntity
  8
寸法
 62
     0
370
    15
100
AcDbLine
 10
380.570849396604
 20
1607.3522772966
 30
0.0
 11
265.2827462954874
 21
1607.3522772966
 31
0.0
  0
LINE
  5
1B6B
330
47D
100
AcDbEntity
  8
寸法
 62
     0
370
    15
100
AcDbLine
 10
265.2827462954874
 20
1592.3522772966
 30
0.0
 11
265.2827462954874
 21
1607.3522772966
 31
0.0
  0
MTEXT
  5
1B6C
330
47D
100
AcDbEntity
  8
寸法
 62
     0
100
AcDbMText
 10
257.0478366008893
 20
1634.278996576932
 30
0.0
 40
25.0
 41
0.0
 71
     5
 72
     1
  1
15
 11
0.0000000000000001
 21
1.0
 31
0.0
 73
     1
 44
1.0
1001
ACAD
1000
MTEXTBEGIN
1070
    73
1070
     1
1070
    44
1040
1.0
1070
    74
1070
     0
1000
MTEXTEND
  0
INSERT
  5
1B6D
330
47D
100
AcDbEntity
  8
寸法
 62
     0
370
    15
100
AcDbBlockReference
  2
_DotSmall
 10
265.2827462954874
 20
1592.3522772966
 30
0.0
 41
35.0
 42
35.0
 43
35.0
 50
270.0
  0
INSERT
  5
1B6E
330
47D
100
AcDbEntity
  8
寸法
 62
     0
370
    15
100
AcDbBlockReference
  2
_DotSmall
 10
265.2827462954874
 20
1607.3522772966
 30
0.0
 41
35.0
 42
35.0
 43
35.0
 50
90.0
  0
POINT
  5
1B6F
330
47D
100
AcDbEntity
  8
Defpoints
 62
     0
100
AcDbPoint
 10
445.570849396604
 20
1592.3522772966
 30
0.0
  0
POINT
  5
1B70
330
47D
100
AcDbEntity
  8
Defpoints
 62
     0
100
AcDbPoint
 10
445.570849396604
 20
1607.3522772966
 30
0.0
  0
POINT
  5
1B71
330
47D
100
AcDbEntity
  8
Defpoints
 62
     0
100
AcDbPoint
 10
265.2827462954874
 20
1607.3522772966
 30
0.0
  0
ENDBLK
  5
488
330
47D
100
AcDbEntity
  8
0
100
AcDbBlockEnd
  0
BLOCK
  5
49D
330
493
100
AcDbEntity
  8
0
100
AcDbBlockBegin
  2
*D11
 70
     1
 10
0.0
 20
0.0
 30
0.0
  3
*D11
  1

  0
LINE
  5
1B72
330
493
100
AcDbEntity
  8
寸法
 62
     0
370
    15
100
AcDbLine
 10
380.570849396604
 20
1607.3522772966
 30
0.0
 11
187.7339625853093
 21
1607.3522772966
 31
0.0
  0
LINE
  5
1B73
330
493
100
AcDbEntity
  8
寸法
 62
     0
370
    15
100
AcDbLine
 10
380.570849396604
 20
1057.3522772966
 30
0.0
 11
187.7339625853092
 21
1057.3522772966
 31
0.0
  0
LINE
  5
1B74
330
493
100
AcDbEntity
  8
寸法
 62
     0
370
    15
100
AcDbLine
 10
187.7339625853093
 20
1607.3522772966
 30
0.0
 11
187.7339625853092
 21
1057.3522772966
 31
0.0
  0
INSERT
  5
1B75
330
493
100
AcDbEntity
  8
寸法
 62
     0
370
    15
100
AcDbBlockReference
  2
_DotSmall
 10
187.7339625853093
 20
1607.3522772966
 30
0.0
 41
35.0
 42
35.0
 43
35.0
 50
90.0
  0
INSERT
  5
1B76
330
493
100
AcDbEntity
  8
寸法
 62
     0
370
    15
100
AcDbBlockReference
  2
_DotSmall
 10
187.7339625853092
 20
1057.3522772966
 30
0.0
 41
35.0
 42
35.0
 43
35.0
 50
270.0
  0
MTEXT
  5
1B77
330
493
100
AcDbEntity
  8
寸法
 62
     0
100
AcDbMText
 10
168.983962585309
 20
1332.3522772966
 30
0.0
 40
25.0
 41
0.0
 71
     5
 72
     1
  1
550
 11
0.0000000000000001
 21
1.0
 31
0.0
 73
     1
 44
1.0
1001
ACAD
1000
MTEXTBEGIN
1070
    73
1070
     1
1070
    44
1040
1.0
1070
    74
1070
     0
1000
MTEXTEND
  0
POINT
  5
1B78
330
493
100
AcDbEntity
  8
Defpoints
 62
     0
100
AcDbPoint
 10
445.570849396604
 20
1607.3522772966
 30
0.0
  0
POINT
  5
1B79
330
493
100
AcDbEntity
  8
Defpoints
 62
     0
100
AcDbPoint
 10
445.570849396604
 20
1057.3522772966
 30
0.0
  0
POINT
  5
1B7A
330
493
100
AcDbEntity
  8
Defpoints
 62
     0
100
AcDbPoint
 10
187.7339625853092
 20
1057.3522772966
 30
0.0
  0
ENDBLK
  5
49E
330
493
100
AcDbEntity
  8
0
100
AcDbBlockEnd
  0
BLOCK
  5
4CF
330
4C4
100
AcDbEntity
  8
0
100
AcDbBlockBegin
  2
*D12
 70
     1
 10
0.0
 20
0.0
 30
0.0
  3
*D12
  1

  0
LINE
  5
1B7B
330
4C4
100
AcDbEntity
  8
寸法
 62
     0
370
    15
100
AcDbLine
 10
380.570849396604
 20
1072.3522772966
 30
0.0
 11
265.2827462954875
 21
1072.3522772966
 31
0.0
  0
LINE
  5
1B7C
330
4C4
100
AcDbEntity
  8
寸法
 62
     0
370
    15
100
AcDbLine
 10
380.570849396604
 20
1057.3522772966
 30
0.0
 11
265.2827462954875
 21
1057.3522772966
 31
0.0
  0
LINE
  5
1B7D
330
4C4
100
AcDbEntity
  8
寸法
 62
     0
370
    15
100
AcDbLine
 10
265.2827462954875
 20
1057.3522772966
 30
0.0
 11
265.2827462954875
 21
1072.3522772966
 31
0.0
  0
LINE
  5
1B7E
330
4C4
100
AcDbEntity
  8
寸法
 62
     0
370
    15
100
AcDbLine
 10
265.2827462954875
 20
1072.3522772966
 30
0.0
 11
265.2827462954875
 21
1153.185610629933
 31
0.0
  0
INSERT
  5
1B7F
330
4C4
100
AcDbEntity
  8
寸法
 62
     0
370
    15
100
AcDbBlockReference
  2
_DotSmall
 10
265.2827462954875
 20
1057.3522772966
 30
0.0
 41
35.0
 42
35.0
 43
35.0
 50
270.0
  0
INSERT
  5
1B80
330
4C4
100
AcDbEntity
  8
寸法
 62
     0
370
    15
100
AcDbBlockReference
  2
_DotSmall
 10
265.2827462954875
 20
1072.3522772966
 30
0.0
 41
35.0
 42
35.0
 43
35.0
 50
90.0
  0
MTEXT
  5
1B81
330
4C4
100
AcDbEntity
  8
寸法
 62
     0
100
AcDbMText
 10
246.5327462954873
 20
1130.268943963267
 30
0.0
 40
25.0
 41
0.0
 71
     5
 72
     1
  1
15
 11
0.0000000000000001
 21
1.0
 31
0.0
 73
     1
 44
1.0
1001
ACAD
1000
MTEXTBEGIN
1070
    73
1070
     1
1070
    44
1040
1.0
1070
    74
1070
     0
1000
MTEXTEND
  0
POINT
  5
1B82
330
4C4
100
AcDbEntity
  8
Defpoints
 62
     0
100
AcDbPoint
 10
445.570849396604
 20
1072.3522772966
 30
0.0
  0
POINT
  5
1B83
330
4C4
100
AcDbEntity
  8
Defpoints
 62
     0
100
AcDbPoint
 10
445.570849396604
 20
1057.3522772966
 30
0.0
  0
POINT
  5
1B84
330
4C4
100
AcDbEntity
  8
Defpoints
 62
     0
100
AcDbPoint
 10
265.2827462954875
 20
1057.3522772966
 30
0.0
  0
ENDBLK
  5
4D0
330
4C4
100
AcDbEntity
  8
0
100
AcDbBlockEnd
  0
BLOCK
  5
4F1
330
4E6
100
AcDbEntity
  8
0
100
AcDbBlockBegin
  2
*D13
 70
     1
 10
0.0
 20
0.0
 30
0.0
  3
*D13
  1

  0
LINE
  5
1B85
330
4E6
100
AcDbEntity
  8
寸法
 62
     0
370
    15
100
AcDbLine
 10
1425.570849396604
 20
992.3522772965998
 30
0.0
 11
1425.570849396604
 21
940.1289518956946
 31
0.0
  0
LINE
  5
1B86
330
4E6
100
AcDbEntity
  8
寸法
 62
     0
370
    15
100
AcDbLine
 10
1410.570849396604
 20
992.3522772965998
 30
0.0
 11
1410.570849396604
 21
940.1289518956946
 31
0.0
  0
LINE
  5
1B87
330
4E6
100
AcDbEntity
  8
寸法
 62
     0
370
    15
100
AcDbLine
 10
1425.570849396604
 20
940.1289518956946
 30
0.0
 11
1410.570849396604
 21
940.1289518956946
 31
0.0
  0
MTEXT
  5
1B88
330
4E6
100
AcDbEntity
  8
寸法
 62
     0
100
AcDbMText
 10
1379.170751325539
 20
959.1752627609185
 30
0.0
 40
25.0
 41
0.0
 71
     5
 72
     1
  1
15
 73
     1
 44
1.0
1001
ACAD
1000
MTEXTBEGIN
1070
    73
1070
     1
1070
    44
1040
1.0
1070
    74
1070
     0
1000
MTEXTEND
  0
INSERT
  5
1B89
330
4E6
100
AcDbEntity
  8
寸法
 62
     0
370
    15
100
AcDbBlockReference
  2
_DotSmall
 10
1425.570849396604
 20
940.1289518956946
 30
0.0
 41
35.0
 42
35.0
 43
35.0
  0
INSERT
  5
1B8A
330
4E6
100
AcDbEntity
  8
寸法
 62
     0
370
    15
100
AcDbBlockReference
  2
_DotSmall
 10
1410.570849396604
 20
940.1289518956946
 30
0.0
 41
35.0
 42
35.0
 43
35.0
 50
180.0
  0
POINT
  5
1B8B
330
4E6
100
AcDbEntity
  8
Defpoints
 62
     0
100
AcDbPoint
 10
1425.570849396604
 20
1057.3522772966
 30
0.0
  0
POINT
  5
1B8C
330
4E6
100
AcDbEntity
  8
Defpoints
 62
     0
100
AcDbPoint
 10
1410.570849396604
 20
1057.3522772966
 30
0.0
  0
POINT
  5
1B8D
330
4E6
100
AcDbEntity
  8
Defpoints
 62
     0
100
AcDbPoint
 10
1410.570849396604
 20
940.1289518956946
 30
0.0
  0
ENDBLK
  5
4F2
330
4E6
100
AcDbEntity
  8
0
100
AcDbBlockEnd
  0
BLOCK
  5
508
330
4FE
100
AcDbEntity
  8
0
100
AcDbBlockBegin
  2
*D14
 70
     1
 10
0.0
 20
0.0
 30
0.0
  3
*D14
  1

  0
LINE
  5
1B8E
330
4FE
100
AcDbEntity
  8
寸法
 62
     0
370
    15
100
AcDbLine
 10
1410.570849396604
 20
992.3522772965998
 30
0.0
 11
1410.570849396604
 21
940.1289518956946
 31
0.0
  0
LINE
  5
1B8F
330
4FE
100
AcDbEntity
  8
寸法
 62
     0
370
    15
100
AcDbLine
 10
460.570849396604
 20
992.3522772965998
 30
0.0
 11
460.570849396604
 21
940.1289518956946
 31
0.0
  0
LINE
  5
1B90
330
4FE
100
AcDbEntity
  8
寸法
 62
     0
370
    15
100
AcDbLine
 10
1410.570849396604
 20
940.1289518956946
 30
0.0
 11
460.570849396604
 21
940.1289518956946
 31
0.0
  0
INSERT
  5
1B91
330
4FE
100
AcDbEntity
  8
寸法
 62
     0
370
    15
100
AcDbBlockReference
  2
_DotSmall
 10
1410.570849396604
 20
940.1289518956946
 30
0.0
 41
35.0
 42
35.0
 43
35.0
  0
INSERT
  5
1B92
330
4FE
100
AcDbEntity
  8
寸法
 62
     0
370
    15
100
AcDbBlockReference
  2
_DotSmall
 10
460.570849396604
 20
940.1289518956946
 30
0.0
 41
35.0
 42
35.0
 43
35.0
 50
180.0
  0
MTEXT
  5
1B93
330
4FE
100
AcDbEntity
  8
寸法
 62
     0
100
AcDbMText
 10
935.5708493966039
 20
958.8789518956946
 30
0.0
 40
25.0
 41
0.0
 71
     5
 72
     1
  1
950
 73
     1
 44
1.0
1001
ACAD
1000
MTEXTBEGIN
1070
    73
1070
     1
1070
    44
1040
1.0
1070
    74
1070
     0
1000
MTEXTEND
  0
POINT
  5
1B94
330
4FE
100
AcDbEntity
  8
Defpoints
 62
     0
100
AcDbPoint
 10
1410.570849396604
 20
1057.3522772966
 30
0.0
  0
POINT
  5
1B95
330
4FE
100
AcDbEntity
  8
Defpoints
 62
     0
100
AcDbPoint
 10
460.570849396604
 20
1057.3522772966
 30
0.0
  0
POINT
  5
1B96
330
4FE
100
AcDbEntity
  8
Defpoints
 62
     0
100
AcDbPoint
 10
460.570849396604
 20
940.1289518956946
 30
0.0
  0
ENDBLK
  5
509
330
4FE
100
AcDbEntity
  8
0
100
AcDbBlockEnd
  0
BLOCK
  5
517
330
50B
100
AcDbEntity
  8
0
100
AcDbBlockBegin
  2
*D15
 70
     1
 10
0.0
 20
0.0
 30
0.0
  3
*D15
  1

  0
LINE
  5
1B97
330
50B
100
AcDbEntity
  8
寸法
 62
     0
370
    15
100
AcDbLine
 10
460.570849396604
 20
992.3522772965998
 30
0.0
 11
460.570849396604
 21
940.1289518956946
 31
0.0
  0
LINE
  5
1B98
330
50B
100
AcDbEntity
  8
寸法
 62
     0
370
    15
100
AcDbLine
 10
445.570849396604
 20
992.3522772965998
 30
0.0
 11
445.570849396604
 21
940.1289518956946
 31
0.0
  0
LINE
  5
1B99
330
50B
100
AcDbEntity
  8
寸法
 62
     0
370
    15
100
AcDbLine
 10
460.570849396604
 20
940.1289518956946
 30
0.0
 11
445.570849396604
 21
940.1289518956946
 31
0.0
  0
MTEXT
  5
1B9A
330
50B
100
AcDbEntity
  8
寸法
 62
     0
100
AcDbMText
 10
492.1336724790471
 20
964.2590874354709
 30
0.0
 40
25.0
 41
0.0
 71
     5
 72
     1
  1
15
 73
     1
 44
1.0
1001
ACAD
1000
MTEXTBEGIN
1070
    73
1070
     1
1070
    44
1040
1.0
1070
    74
1070
     0
1000
MTEXTEND
  0
INSERT
  5
1B9B
330
50B
100
AcDbEntity
  8
寸法
 62
     0
370
    15
100
AcDbBlockReference
  2
_DotSmall
 10
460.570849396604
 20
940.1289518956946
 30
0.0
 41
35.0
 42
35.0
 43
35.0
  0
INSERT
  5
1B9C
330
50B
100
AcDbEntity
  8
寸法
 62
     0
370
    15
100
AcDbBlockReference
  2
_DotSmall
 10
445.570849396604
 20
940.1289518956946
 30
0.0
 41
35.0
 42
35.0
 43
35.0
 50
180.0
  0
POINT
  5
1B9D
330
50B
100
AcDbEntity
  8
Defpoints
 62
     0
100
AcDbPoint
 10
460.570849396604
 20
1057.3522772966
 30
0.0
  0
POINT
  5
1B9E
330
50B
100
AcDbEntity
  8
Defpoints
 62
     0
100
AcDbPoint
 10
445.570849396604
 20
1057.3522772966
 30
0.0
  0
POINT
  5
1B9F
330
50B
100
AcDbEntity
  8
Defpoints
 62
     0
100
AcDbPoint
 10
445.570849396604
 20
940.1289518956946
 30
0.0
  0
ENDBLK
  5
518
330
50B
100
AcDbEntity
  8
0
100
AcDbBlockEnd
  0
BLOCK
  5
52D
330
523
100
AcDbEntity
  8
0
100
AcDbBlockBegin
  2
*D16
 70
     1
 10
0.0
 20
0.0
 30
0.0
  3
*D16
  1

  0
LINE
  5
2322
330
523
100
AcDbEntity
  8
寸法
 62
     0
370
    15
100
AcDbLine
 10
1425.570849396604
 20
992.3522772965998
 30
0.0
 11
1425.570849396604
 21
866.008536662035
 31
0.0
  0
LINE
  5
2323
330
523
100
AcDbEntity
  8
寸法
 62
     0
370
    15
100
AcDbLine
 10
445.570849396604
 20
992.3522772965998
 30
0.0
 11
445.570849396604
 21
866.008536662035
 31
0.0
  0
LINE
  5
2324
330
523
100
AcDbEntity
  8
寸法
 62
     0
370
    15
100
AcDbLine
 10
1425.570849396604
 20
866.008536662035
 30
0.0
 11
445.570849396604
 21
866.008536662035
 31
0.0
  0
INSERT
  5
2325
330
523
100
AcDbEntity
  8
寸法
 62
     0
370
    15
100
AcDbBlockReference
  2
_DotSmall
 10
1425.570849396604
 20
866.008536662035
 30
0.0
 41
35.0
 42
35.0
 43
35.0
  0
INSERT
  5
2326
330
523
100
AcDbEntity
  8
寸法
 62
     0
370
    15
100
AcDbBlockReference
  2
_DotSmall
 10
445.570849396604
 20
866.008536662035
 30
0.0
 41
35.0
 42
35.0
 43
35.0
 50
180.0
  0
MTEXT
  5
2327
330
523
100
AcDbEntity
  8
寸法
 62
     0
100
AcDbMText
 10
935.5708493966039
 20
884.758536662035
 30
0.0
 40
25.0
 41
0.0
 71
     5
 72
     1
  1
980
 73
     1
 44
1.0
1001
ACAD
1000
MTEXTBEGIN
1070
    73
1070
     1
1070
    44
1040
1.0
1070
    74
1070
     0
1000
MTEXTEND
  0
POINT
  5
2328
330
523
100
AcDbEntity
  8
Defpoints
 62
     0
100
AcDbPoint
 10
1425.570849396604
 20
1057.3522772966
 30
0.0
  0
POINT
  5
2329
330
523
100
AcDbEntity
  8
Defpoints
 62
     0
100
AcDbPoint
 10
445.570849396604
 20
1057.3522772966
 30
0.0
  0
POINT
  5
232A
330
523
100
AcDbEntity
  8
Defpoints
 62
     0
100
AcDbPoint
 10
445.570849396604
 20
866.008536662035
 30
0.0
  0
ENDBLK
  5
52E
330
523
100
AcDbEntity
  8
0
100
AcDbBlockEnd
  0
BLOCK
  5
13DC
330
13D2
100
AcDbEntity
  8
0
100
AcDbBlockBegin
  2
*D17
 70
     1
 10
0.0
 20
0.0
 30
0.0
  3
*D17
  1

  0
LINE
  5
1BA9
330
13D2
100
AcDbEntity
  8
寸法
 62
     0
370
    15
100
AcDbLine
 10
1054.570849396605
 20
1582.3522772966
 30
0.0
 11
992.2708004774893
 21
1582.3522772966
 31
0.0
  0
LINE
  5
1BAA
330
13D2
100
AcDbEntity
  8
寸法
 62
     0
370
    15
100
AcDbLine
 10
1054.570849396605
 20
1522.3522772966
 30
0.0
 11
992.2708004774893
 21
1522.3522772966
 31
0.0
  0
LINE
  5
1BAB
330
13D2
100
AcDbEntity
  8
寸法
 62
     0
370
    15
100
AcDbLine
 10
992.2708004774893
 20
1582.3522772966
 30
0.0
 11
992.2708004774893
 21
1522.3522772966
 31
0.0
  0
INSERT
  5
1BAC
330
13D2
100
AcDbEntity
  8
寸法
 62
     0
370
    15
100
AcDbBlockReference
  2
_DotSmall
 10
992.2708004774893
 20
1582.3522772966
 30
0.0
 41
35.0
 42
35.0
 43
35.0
 50
90.0
  0
INSERT
  5
1BAD
330
13D2
100
AcDbEntity
  8
寸法
 62
     0
370
    15
100
AcDbBlockReference
  2
_DotSmall
 10
992.2708004774893
 20
1522.3522772966
 30
0.0
 41
35.0
 42
35.0
 43
35.0
 50
270.0
  0
MTEXT
  5
1BAE
330
13D2
100
AcDbEntity
  8
寸法
 62
     0
100
AcDbMText
 10
973.5208004774889
 20
1552.3522772966
 30
0.0
 40
25.0
 41
0.0
 71
     5
 72
     1
  1
60
 11
0.0000000000000001
 21
1.0
 31
0.0
 73
     1
 44
1.0
1001
ACAD
1000
MTEXTBEGIN
1070
    73
1070
     1
1070
    44
1040
1.0
1070
    74
1070
     0
1000
MTEXTEND
  0
POINT
  5
1BAF
330
13D2
100
AcDbEntity
  8
Defpoints
 62
     0
100
AcDbPoint
 10
1119.570849396605
 20
1582.3522772966
 30
0.0
  0
POINT
  5
1BB0
330
13D2
100
AcDbEntity
  8
Defpoints
 62
     0
100
AcDbPoint
 10
1119.570849396605
 20
1522.3522772966
 30
0.0
  0
POINT
  5
1BB1
330
13D2
100
AcDbEntity
  8
Defpoints
 62
     0
100
AcDbPoint
 10
992.2708004774893
 20
1522.3522772966
 30
0.0
  0
ENDBLK
  5
13DD
330
13D2
100
AcDbEntity
  8
0
100
AcDbBlockEnd
  0
BLOCK
  5
1883
330
1879
100
AcDbEntity
  8
0
100
AcDbBlockBegin
  2
*D18
 70
     1
 10
0.0
 20
0.0
 30
0.0
  3
*D18
  1

  0
LINE
  5
1BB2
330
1879
100
AcDbEntity
  8
寸法
 62
     0
370
    15
100
AcDbLine
 10
1080.570849396603
 20
1647.44158975225
 30
0.0
 11
1080.570849396603
 21
1686.772788979915
 31
0.0
  0
LINE
  5
1BB3
330
1879
100
AcDbEntity
  8
寸法
 62
     0
370
    15
100
AcDbLine
 10
1370.570849396604
 20
1647.44158975225
 30
0.0
 11
1370.570849396604
 21
1686.772788979915
 31
0.0
  0
LINE
  5
1BB4
330
1879
100
AcDbEntity
  8
寸法
 62
     0
370
    15
100
AcDbLine
 10
1080.570849396603
 20
1686.772788979915
 30
0.0
 11
1370.570849396604
 21
1686.772788979915
 31
0.0
  0
INSERT
  5
1BB5
330
1879
100
AcDbEntity
  8
寸法
 62
     0
370
    15
100
AcDbBlockReference
  2
_DotSmall
 10
1080.570849396603
 20
1686.772788979915
 30
0.0
 41
35.0
 42
35.0
 43
35.0
 50
180.0
  0
INSERT
  5
1BB6
330
1879
100
AcDbEntity
  8
寸法
 62
     0
370
    15
100
AcDbBlockReference
  2
_DotSmall
 10
1370.570849396604
 20
1686.772788979915
 30
0.0
 41
35.0
 42
35.0
 43
35.0
  0
MTEXT
  5
1BB7
330
1879
100
AcDbEntity
  8
寸法
 62
     0
100
AcDbMText
 10
1225.570849396604
 20
1705.522788979915
 30
0.0
 40
25.0
 41
0.0
 71
     5
 72
     1
  1
290
 73
     1
 44
1.0
1001
ACAD
1000
MTEXTBEGIN
1070
    73
1070
     1
1070
    44
1040
1.0
1070
    74
1070
     0
1000
MTEXTEND
  0
POINT
  5
1BB8
330
1879
100
AcDbEntity
  8
Defpoints
 62
     0
100
AcDbPoint
 10
1080.570849396603
 20
1582.44158975225
 30
0.0
  0
POINT
  5
1BB9
330
1879
100
AcDbEntity
  8
Defpoints
 62
     0
100
AcDbPoint
 10
1370.570849396604
 20
1582.44158975225
 30
0.0
  0
POINT
  5
1BBA
330
1879
100
AcDbEntity
  8
Defpoints
 62
     0
100
AcDbPoint
 10
1370.570849396604
 20
1686.772788979915
 30
0.0
  0
ENDBLK
  5
1884
330
1879
100
AcDbEntity
  8
0
100
AcDbBlockEnd
  0
BLOCK
  5
1891
330
1890
100
AcDbEntity
  8
0
100
AcDbBlockBegin
  2
_None
 70
     0
 10
0.0
 20
0.0
 30
0.0
  3
_None
  1

  0
ENDBLK
  5
1892
330
1890
100
AcDbEntity
  8
0
100
AcDbBlockEnd
  0
BLOCK
  5
19AC
330
19A2
100
AcDbEntity
  8
0
100
AcDbBlockBegin
  2
*D20
 70
     1
 10
0.0
 20
0.0
 30
0.0
  3
*D20
  1

  0
LINE
  5
1D16
330
19A2
100
AcDbEntity
  8
実形
 62
     0
370
    15
100
AcDbLine
 10
1410.570849396604
 20
1653.320081513866
 30
0.0
 11
1410.570849396604
 21
1686.772788979915
 31
0.0
  0
LINE
  5
1D17
330
19A2
100
AcDbEntity
  8
実形
 62
     0
370
    15
100
AcDbLine
 10
1370.570849396604
 20
1651.44158975225
 30
0.0
 11
1370.570849396604
 21
1686.772788979915
 31
0.0
  0
LINE
  5
1D18
330
19A2
100
AcDbEntity
  8
実形
 62
     0
370
    15
100
AcDbLine
 10
1410.570849396604
 20
1686.772788979915
 30
0.0
 11
1370.570849396604
 21
1686.772788979915
 31
0.0
  0
MTEXT
  5
1D19
330
19A2
100
AcDbEntity
  8
実形
 62
     0
100
AcDbMText
 10
1381.534890361101
 20
1706.039033935798
 30
0.0
 40
25.0
 41
0.0
 71
     5
 72
     1
  1
40
 73
     1
 44
1.0
1001
ACAD
1000
MTEXTBEGIN
1070
    73
1070
     1
1070
    44
1040
1.0
1070
    74
1070
     0
1000
MTEXTEND
  0
INSERT
  5
1D1A
330
19A2
100
AcDbEntity
  8
実形
 62
     0
370
    15
100
AcDbBlockReference
  2
_DotSmall
 10
1410.570849396604
 20
1686.772788979915
 30
0.0
 41
35.0
 42
35.0
 43
35.0
  0
INSERT
  5
1D1B
330
19A2
100
AcDbEntity
  8
実形
 62
     0
370
    15
100
AcDbBlockReference
  2
_DotSmall
 10
1370.570849396604
 20
1686.772788979915
 30
0.0
 41
35.0
 42
35.0
 43
35.0
 50
180.0
  0
POINT
  5
1D1C
330
19A2
100
AcDbEntity
  8
Defpoints
 62
     0
100
AcDbPoint
 10
1410.570849396604
 20
1553.320081513866
 30
0.0
  0
POINT
  5
1D1D
330
19A2
100
AcDbEntity
  8
Defpoints
 62
     0
100
AcDbPoint
 10
1370.570849396604
 20
1551.44158975225
 30
0.0
  0
POINT
  5
1D1E
330
19A2
100
AcDbEntity
  8
Defpoints
 62
     0
100
AcDbPoint
 10
1370.570849396604
 20
1686.772788979915
 30
0.0
  0
ENDBLK
  5
19AD
330
19A2
100
AcDbEntity
  8
0
100
AcDbBlockEnd
  0
BLOCK
  5
1C6E
330
1C64
100
AcDbEntity
  8
0
100
AcDbBlockBegin
  2
*D21
 70
     1
 10
0.0
 20
0.0
 30
0.0
  3
*D21
  1

  0
LINE
  5
1D0D
330
1C64
100
AcDbEntity
  8
実形
 62
     0
370
    15
100
AcDbLine
 10
426.5708493966039
 20
1672.109385148558
 30
0.0
 11
426.5708493966039
 21
1803.119892102392
 31
0.0
  0
LINE
  5
1D0E
330
1C64
100
AcDbEntity
  8
実形
 62
     0
370
    15
100
AcDbLine
 10
1444.570849396604
 20
1657.142465673741
 30
0.0
 11
1444.570849396604
 21
1803.119892102392
 31
0.0
  0
LINE
  5
1D0F
330
1C64
100
AcDbEntity
  8
実形
 62
     0
370
    15
100
AcDbLine
 10
426.5708493966039
 20
1803.119892102392
 30
0.0
 11
1444.570849396604
 21
1803.119892102392
 31
0.0
  0
INSERT
  5
1D10
330
1C64
100
AcDbEntity
  8
実形
 62
     0
370
    15
100
AcDbBlockReference
  2
_DotSmall
 10
426.5708493966039
 20
1803.119892102392
 30
0.0
 41
35.0
 42
35.0
 43
35.0
 50
180.0
  0
INSERT
  5
1D11
330
1C64
100
AcDbEntity
  8
実形
 62
     0
370
    15
100
AcDbBlockReference
  2
_DotSmall
 10
1444.570849396604
 20
1803.119892102392
 30
0.0
 41
35.0
 42
35.0
 43
35.0
  0
MTEXT
  5
1D12
330
1C64
100
AcDbEntity
  8
実形
 62
     0
100
AcDbMText
 10
935.5708493966039
 20
1821.869892102392
 30
0.0
 40
25.0
 41
0.0
 71
     5
 72
     1
  1
1018
 73
     1
 44
1.0
1001
ACAD
1000
MTEXTBEGIN
1070
    73
1070
     1
1070
    44
1040
1.0
1070
    74
1070
     0
1000
MTEXTEND
  0
POINT
  5
1D13
330
1C64
100
AcDbEntity
  8
Defpoints
 62
     0
100
AcDbPoint
 10
426.5708493966039
 20
1607.109385148558
 30
0.0
  0
POINT
  5
1D14
330
1C64
100
AcDbEntity
  8
Defpoints
 62
     0
100
AcDbPoint
 10
1444.570849396604
 20
1592.142465673741
 30
0.0
  0
POINT
  5
1D15
330
1C64
100
AcDbEntity
  8
Defpoints
 62
     0
100
AcDbPoint
 10
1444.570849396604
 20
1803.119892102392
 30
0.0
  0
ENDBLK
  5
1C6F
330
1C64
100
AcDbEntity
  8
0
100
AcDbBlockEnd
  0
BLOCK
  5
1C7B
330
1C70
100
AcDbEntity
  8
0
100
AcDbBlockBegin
  2
*D22
 70
     1
 10
0.0
 20
0.0
 30
0.0
  3
*D22
  1

  0
LINE
  5
1CB3
330
1C70
100
AcDbEntity
  8
実形
 62
     0
370
    15
100
AcDbLine
 10
1466.455947456513
 20
1626.3522772966
 30
0.0
 11
1492.941304120537
 21
1626.3522772966
 31
0.0
  0
LINE
  5
1CB4
330
1C70
100
AcDbEntity
  8
実形
 62
     0
370
    15
100
AcDbLine
 10
1466.455947456513
 20
1592.3522772966
 30
0.0
 11
1492.941304120537
 21
1592.3522772966
 31
0.0
  0
LINE
  5
1CB5
330
1C70
100
AcDbEntity
  8
実形
 62
     0
370
    15
100
AcDbLine
 10
1492.941304120537
 20
1626.3522772966
 30
0.0
 11
1492.941304120537
 21
1592.3522772966
 31
0.0
  0
LINE
  5
1CB6
330
1C70
100
AcDbEntity
  8
実形
 62
     0
370
    15
100
AcDbLine
 10
1492.941304120537
 20
1592.3522772966
 30
0.0
 11
1492.941304120536
 21
1503.185610629933
 31
0.0
  0
INSERT
  5
1CB7
330
1C70
100
AcDbEntity
  8
実形
 62
     0
370
    15
100
AcDbBlockReference
  2
_DotSmall
 10
1492.941304120537
 20
1626.3522772966
 30
0.0
 41
35.0
 42
35.0
 43
35.0
 50
90.0
  0
INSERT
  5
1CB8
330
1C70
100
AcDbEntity
  8
実形
 62
     0
370
    15
100
AcDbBlockReference
  2
_DotSmall
 10
1492.941304120537
 20
1592.3522772966
 30
0.0
 41
35.0
 42
35.0
 43
35.0
 50
270.0
  0
MTEXT
  5
1CB9
330
1C70
100
AcDbEntity
  8
実形
 62
     0
100
AcDbMText
 10
1474.191304120536
 20
1530.268943963266
 30
0.0
 40
25.0
 41
0.0
 71
     5
 72
     1
  1
35
 11
0.0000000000000001
 21
1.0
 31
0.0
 73
     1
 44
1.0
1001
ACAD
1000
MTEXTBEGIN
1070
    73
1070
     1
1070
    44
1040
1.0
1070
    74
1070
     0
1000
MTEXTEND
  0
POINT
  5
1CBA
330
1C70
100
AcDbEntity
  8
Defpoints
 62
     0
100
AcDbPoint
 10
1401.455947456513
 20
1626.3522772966
 30
0.0
  0
POINT
  5
1CBB
330
1C70
100
AcDbEntity
  8
Defpoints
 62
     0
100
AcDbPoint
 10
1401.455947456513
 20
1592.3522772966
 30
0.0
  0
POINT
  5
1CBC
330
1C70
100
AcDbEntity
  8
Defpoints
 62
     0
100
AcDbPoint
 10
1492.941304120537
 20
1592.3522772966
 30
0.0
  0
ENDBLK
  5
1C7C
330
1C70
100
AcDbEntity
  8
0
100
AcDbBlockEnd
  0
BLOCK
  5
1C88
330
1C7D
100
AcDbEntity
  8
0
100
AcDbBlockBegin
  2
*D23
 70
     1
 10
0.0
 20
0.0
 30
0.0
  3
*D23
  1

  0
LINE
  5
1CBD
330
1C7D
100
AcDbEntity
  8
実形
 62
     0
370
    15
100
AcDbLine
 10
1466.455947456513
 20
1072.352277296599
 30
0.0
 11
1498.085982462899
 21
1072.352277296599
 31
0.0
  0
LINE
  5
1CBE
330
1C7D
100
AcDbEntity
  8
実形
 62
     0
370
    15
100
AcDbLine
 10
1466.455947456513
 20
1038.3522772966
 30
0.0
 11
1498.085982462899
 21
1038.3522772966
 31
0.0
  0
LINE
  5
1CBF
330
1C7D
100
AcDbEntity
  8
実形
 62
     0
370
    15
100
AcDbLine
 10
1498.085982462899
 20
1038.3522772966
 30
0.0
 11
1498.085982462899
 21
1072.352277296599
 31
0.0
  0
LINE
  5
1CC0
330
1C7D
100
AcDbEntity
  8
実形
 62
     0
370
    15
100
AcDbLine
 10
1498.085982462899
 20
1072.352277296599
 30
0.0
 11
1498.085982462899
 21
1161.518943963266
 31
0.0
  0
INSERT
  5
1CC1
330
1C7D
100
AcDbEntity
  8
実形
 62
     0
370
    15
100
AcDbBlockReference
  2
_DotSmall
 10
1498.085982462899
 20
1038.3522772966
 30
0.0
 41
35.0
 42
35.0
 43
35.0
 50
270.0
  0
INSERT
  5
1CC2
330
1C7D
100
AcDbEntity
  8
実形
 62
     0
370
    15
100
AcDbBlockReference
  2
_DotSmall
 10
1498.085982462899
 20
1072.352277296599
 30
0.0
 41
35.0
 42
35.0
 43
35.0
 50
90.0
  0
MTEXT
  5
1CC3
330
1C7D
100
AcDbEntity
  8
実形
 62
     0
100
AcDbMText
 10
1479.335982462899
 20
1134.435610629933
 30
0.0
 40
25.0
 41
0.0
 71
     5
 72
     1
  1
35
 11
0.0000000000000001
 21
1.0
 31
0.0
 73
     1
 44
1.0
1001
ACAD
1000
MTEXTBEGIN
1070
    73
1070
     1
1070
    44
1040
1.0
1070
    74
1070
     0
1000
MTEXTEND
  0
POINT
  5
1CC4
330
1C7D
100
AcDbEntity
  8
Defpoints
 62
     0
100
AcDbPoint
 10
1401.455947456513
 20
1072.352277296599
 30
0.0
  0
POINT
  5
1CC5
330
1C7D
100
AcDbEntity
  8
Defpoints
 62
     0
100
AcDbPoint
 10
1401.455947456513
 20
1038.3522772966
 30
0.0
  0
POINT
  5
1CC6
330
1C7D
100
AcDbEntity
  8
Defpoints
 62
     0
100
AcDbPoint
 10
1498.085982462899
 20
1038.3522772966
 30
0.0
  0
ENDBLK
  5
1C89
330
1C7D
100
AcDbEntity
  8
0
100
AcDbBlockEnd
  0
BLOCK
  5
1C94
330
1C8A
100
AcDbEntity
  8
0
100
AcDbBlockBegin
  2
*D24
 70
     1
 10
0.0
 20
0.0
 30
0.0
  3
*D24
  1

  0
LINE
  5
260F
330
1C8A
100
AcDbEntity
  8
実形
 62
     0
370
    15
100
AcDbLine
 10
1466.455947456513
 20
1626.3522772966
 30
0.0
 11
1567.7581836715
 21
1626.352277296599
 31
0.0
  0
LINE
  5
2610
330
1C8A
100
AcDbEntity
  8
実形
 62
     0
370
    15
100
AcDbLine
 10
1466.455947456513
 20
1038.3522772966
 30
0.0
 11
1567.7581836715
 21
1038.352277296599
 31
0.0
  0
LINE
  5
2611
330
1C8A
100
AcDbEntity
  8
実形
 62
     0
370
    15
100
AcDbLine
 10
1567.7581836715
 20
1626.352277296599
 30
0.0
 11
1567.7581836715
 21
1038.352277296599
 31
0.0
  0
INSERT
  5
2612
330
1C8A
100
AcDbEntity
  8
実形
 62
     0
370
    15
100
AcDbBlockReference
  2
_DotSmall
 10
1567.7581836715
 20
1626.352277296599
 30
0.0
 41
35.0
 42
35.0
 43
35.0
 50
90.0
  0
INSERT
  5
2613
330
1C8A
100
AcDbEntity
  8
実形
 62
     0
370
    15
100
AcDbBlockReference
  2
_DotSmall
 10
1567.7581836715
 20
1038.352277296599
 30
0.0
 41
35.0
 42
35.0
 43
35.0
 50
270.0
  0
MTEXT
  5
2614
330
1C8A
100
AcDbEntity
  8
実形
 62
     0
100
AcDbMText
 10
1549.008183671499
 20
1332.3522772966
 30
0.0
 40
25.0
 41
0.0
 71
     5
 72
     1
  1
588
 11
0.0000000000000001
 21
1.0
 31
0.0
 73
     1
 44
1.0
1001
ACAD
1000
MTEXTBEGIN
1070
    73
1070
     1
1070
    44
1040
1.0
1070
    74
1070
     0
1000
MTEXTEND
  0
POINT
  5
2615
330
1C8A
100
AcDbEntity
  8
Defpoints
 62
     0
100
AcDbPoint
 10
1401.455947456513
 20
1626.3522772966
 30
0.0
  0
POINT
  5
2616
330
1C8A
100
AcDbEntity
  8
Defpoints
 62
     0
100
AcDbPoint
 10
1401.455947456513
 20
1038.3522772966
 30
0.0
  0
POINT
  5
2617
330
1C8A
100
AcDbEntity
  8
Defpoints
 62
     0
100
AcDbPoint
 10
1567.7581836715
 20
1038.352277296599
 30
0.0
  0
ENDBLK
  5
1C95
330
1C8A
100
AcDbEntity
  8
0
100
AcDbBlockEnd
  0
BLOCK
  5
1CF0
330
1CE6
100
AcDbEntity
  8
0
100
AcDbBlockBegin
  2
*D25
 70
     1
 10
0.0
 20
0.0
 30
0.0
  3
*D25
  1

  0
LINE
  5
1D04
330
1CE6
100
AcDbEntity
  8
実形
 62
     0
370
    15
100
AcDbLine
 10
426.5708493966039
 20
1677.489944579861
 30
0.0
 11
426.5708493966039
 21
1710.584089516598
 31
0.0
  0
LINE
  5
1D05
330
1CE6
100
AcDbEntity
  8
実形
 62
     0
370
    15
100
AcDbLine
 10
460.570849396604
 20
1677.489944579861
 30
0.0
 11
460.570849396604
 21
1710.584089516598
 31
0.0
  0
LINE
  5
1D06
330
1CE6
100
AcDbEntity
  8
実形
 62
     0
370
    15
100
AcDbLine
 10
426.5708493966039
 20
1710.584089516598
 30
0.0
 11
460.570849396604
 21
1710.584089516598
 31
0.0
  0
MTEXT
  5
1D07
330
1CE6
100
AcDbEntity
  8
実形
 62
     0
100
AcDbMText
 10
471.2828602940208
 20
1745.584089516598
 30
0.0
 40
25.0
 41
0.0
 71
     5
 72
     1
  1
35
 73
     1
 44
1.0
1001
ACAD
1000
MTEXTBEGIN
1070
    73
1070
     1
1070
    44
1040
1.0
1070
    74
1070
     0
1000
MTEXTEND
  0
INSERT
  5
1D08
330
1CE6
100
AcDbEntity
  8
実形
 62
     0
370
    15
100
AcDbBlockReference
  2
_DotSmall
 10
426.5708493966039
 20
1710.584089516598
 30
0.0
 41
35.0
 42
35.0
 43
35.0
 50
180.0
  0
INSERT
  5
1D09
330
1CE6
100
AcDbEntity
  8
実形
 62
     0
370
    15
100
AcDbBlockReference
  2
_DotSmall
 10
460.570849396604
 20
1710.584089516598
 30
0.0
 41
35.0
 42
35.0
 43
35.0
  0
POINT
  5
1D0A
330
1CE6
100
AcDbEntity
  8
Defpoints
 62
     0
100
AcDbPoint
 10
426.5708493966039
 20
1612.489944579861
 30
0.0
  0
POINT
  5
1D0B
330
1CE6
100
AcDbEntity
  8
Defpoints
 62
     0
100
AcDbPoint
 10
460.570849396604
 20
1612.489944579861
 30
0.0
  0
POINT
  5
1D0C
330
1CE6
100
AcDbEntity
  8
Defpoints
 62
     0
100
AcDbPoint
 10
460.570849396604
 20
1710.584089516598
 30
0.0
  0
ENDBLK
  5
1CF1
330
1CE6
100
AcDbEntity
  8
0
100
AcDbBlockEnd
  0
BLOCK
  5
1D2B
330
1D21
100
AcDbEntity
  8
0
100
AcDbBlockBegin
  2
*D26
 70
     1
 10
0.0
 20
0.0
 30
0.0
  3
*D26
  1

  0
LINE
  5
1D48
330
1D21
100
AcDbEntity
  8
実形
 62
     0
370
    15
100
AcDbLine
 10
1410.570849396604
 20
1689.980648317911
 30
0.0
 11
1410.570849396604
 21
1733.905237643899
 31
0.0
  0
LINE
  5
1D49
330
1D21
100
AcDbEntity
  8
実形
 62
     0
370
    15
100
AcDbLine
 10
1444.570849396604
 20
1706.704334695308
 30
0.0
 11
1444.570849396604
 21
1733.905237643899
 31
0.0
  0
LINE
  5
1D4A
330
1D21
100
AcDbEntity
  8
実形
 62
     0
370
    15
100
AcDbLine
 10
1410.570849396604
 20
1733.905237643899
 30
0.0
 11
1444.570849396604
 21
1733.905237643899
 31
0.0
  0
MTEXT
  5
1D4B
330
1D21
100
AcDbEntity
  8
実形
 62
     0
100
AcDbMText
 10
1412.421166024298
 20
1759.635455941288
 30
0.0
 40
25.0
 41
0.0
 71
     5
 72
     1
  1
35
 73
     1
 44
1.0
1001
ACAD
1000
MTEXTBEGIN
1070
    73
1070
     1
1070
    44
1040
1.0
1070
    74
1070
     0
1000
MTEXTEND
  0
INSERT
  5
1D4C
330
1D21
100
AcDbEntity
  8
実形
 62
     0
370
    15
100
AcDbBlockReference
  2
_DotSmall
 10
1410.570849396604
 20
1733.905237643899
 30
0.0
 41
35.0
 42
35.0
 43
35.0
 50
180.0
  0
INSERT
  5
1D4D
330
1D21
100
AcDbEntity
  8
実形
 62
     0
370
    15
100
AcDbBlockReference
  2
_DotSmall
 10
1444.570849396604
 20
1733.905237643899
 30
0.0
 41
35.0
 42
35.0
 43
35.0
  0
POINT
  5
1D4E
330
1D21
100
AcDbEntity
  8
Defpoints
 62
     0
100
AcDbPoint
 10
1410.570849396604
 20
1624.980648317911
 30
0.0
  0
POINT
  5
1D4F
330
1D21
100
AcDbEntity
  8
Defpoints
 62
     0
100
AcDbPoint
 10
1444.570849396604
 20
1641.704334695308
 30
0.0
  0
POINT
  5
1D50
330
1D21
100
AcDbEntity
  8
Defpoints
 62
     0
100
AcDbPoint
 10
1444.570849396604
 20
1733.905237643899
 30
0.0
  0
ENDBLK
  5
1D2C
330
1D21
100
AcDbEntity
  8
0
100
AcDbBlockEnd
  0
BLOCK
  5
1D87
330
1D86
100
AcDbEntity
  8
0
100
AcDbBlockBegin
  2
_Dot
 70
     0
 10
0.0
 20
0.0
 30
0.0
  3
_Dot
  1

  0
LWPOLYLINE
  5
1D88
330
1D86
100
AcDbEntity
  8
0
  6
ByBlock
 62
     0
100
AcDbPolyline
 90
        2
 70
     1
 43
0.5
 10
-0.25
 20
0.0
 42
1.0
 10
0.25
 20
0.0
 42
1.0
  0
LINE
  5
1D89
330
1D86
100
AcDbEntity
  8
0
  6
ByBlock
 62
     0
370
    -2
100
AcDbLine
 10
-0.5
 20
0.0
 30
0.0
 11
-1.0
 21
0.0
 31
0.0
  0
ENDBLK
  5
1D8A
330
1D86
100
AcDbEntity
  8
0
100
AcDbBlockEnd
  0
BLOCK
  5
1DC7
330
1DC6
100
AcDbEntity
  8
0
100
AcDbBlockBegin
  2
*D28
 70
     1
 10
0.0
 20
0.0
 30
0.0
  3
*D28
  1

  0
LINE
  5
1DC8
330
1DC6
100
AcDbEntity
  8
実形
 62
     0
370
    13
100
AcDbLine
 10
2090.833877365067
 20
553.2947101512847
 30
0.0
 11
2090.833877365067
 21
467.1003685502147
 31
0.0
  0
LINE
  5
1DC9
330
1DC6
100
AcDbEntity
  8
実形
 62
     0
370
    13
100
AcDbLine
 10
2075.233877365067
 20
527.502986728412
 30
0.0
 11
2075.233877365067
 21
467.1003685502147
 31
0.0
  0
MTEXT
  5
1DCA
330
1DC6
100
AcDbEntity
  8
実形
 62
     0
100
AcDbMText
 10
2054.88545157578
 20
491.5915116428197
 30
0.0
 40
25.0
 41
0.0
 71
     5
 72
     1
  1
1
 73
     1
 44
1.0
1001
ACAD
1000
MTEXTBEGIN
1070
    73
1070
     1
1070
    44
1040
1.0
1070
    74
1070
     0
1000
MTEXTEND
  0
POINT
  5
1DCB
330
1DC6
100
AcDbEntity
  8
Defpoints
 62
     0
100
AcDbPoint
 10
2090.833877365067
 20
559.2947101512846
 30
0.0
  0
POINT
  5
1DCC
330
1DC6
100
AcDbEntity
  8
Defpoints
 62
     0
100
AcDbPoint
 10
2075.233877365067
 20
533.5029867284119
 30
0.0
  0
POINT
  5
1DCD
330
1DC6
100
AcDbEntity
  8
Defpoints
 62
     0
100
AcDbPoint
 10
2075.233877365067
 20
467.1003685502147
 30
0.0
  0
ENDBLK
  5
1DCE
330
1DC6
100
AcDbEntity
  8
0
100
AcDbBlockEnd
  0
BLOCK
  5
1DD0
330
1DCF
100
AcDbEntity
  8
0
100
AcDbBlockBegin
  2
*D29
 70
     1
 10
0.0
 20
0.0
 30
0.0
  3
*D29
  1

  0
LINE
  5
1DD1
330
1DCF
100
AcDbEntity
  8
実形
 62
     0
370
    18
100
AcDbLine
 10
2090.833877365066
 20
591.9073852958003
 30
0.0
 11
2090.833877365066
 21
617.1548568615962
 31
0.0
  0
LINE
  5
1DD2
330
1DCF
100
AcDbEntity
  8
実形
 62
     0
370
    18
100
AcDbLine
 10
2324.833877365066
 20
591.9073852958003
 30
0.0
 11
2324.833877365066
 21
617.1548568615962
 31
0.0
  0
LINE
  5
1DD3
330
1DCF
100
AcDbEntity
  8
実形
 62
     0
370
    18
100
AcDbLine
 10
2090.833877365066
 20
617.1548568615962
 30
0.0
 11
2324.833877365066
 21
617.1548568615962
 31
0.0
  0
INSERT
  5
1DD4
330
1DCF
100
AcDbEntity
  8
実形
 62
     0
370
    18
100
AcDbBlockReference
  2
_DotSmall
 10
2090.833877365066
 20
617.1548568615962
 30
0.0
 41
35.0
 42
35.0
 43
35.0
 50
180.0
  0
INSERT
  5
1DD5
330
1DCF
100
AcDbEntity
  8
実形
 62
     0
370
    18
100
AcDbBlockReference
  2
_DotSmall
 10
2324.833877365066
 20
617.1548568615962
 30
0.0
 41
35.0
 42
35.0
 43
35.0
  0
MTEXT
  5
1DD6
330
1DCF
100
AcDbEntity
  8
実形
 62
     0
100
AcDbMText
 10
2207.833877365066
 20
635.9048568615962
 30
0.0
 40
25.0
 41
0.0
 71
     5
 72
     1
  1
15
 73
     1
 44
1.0
1001
ACAD
1000
MTEXTBEGIN
1070
    73
1070
     1
1070
    44
1040
1.0
1070
    74
1070
     0
1000
MTEXTEND
  0
POINT
  5
1DD7
330
1DCF
100
AcDbEntity
  8
Defpoints
 62
     0
100
AcDbPoint
 10
2090.833877365066
 20
526.9073852958004
 30
0.0
  0
POINT
  5
1DD8
330
1DCF
100
AcDbEntity
  8
Defpoints
 62
     0
100
AcDbPoint
 10
2324.833877365066
 20
526.9073852958004
 30
0.0
  0
POINT
  5
1DD9
330
1DCF
100
AcDbEntity
  8
Defpoints
 62
     0
100
AcDbPoint
 10
2324.833877365066
 20
617.1548568615962
 30
0.0
  0
ENDBLK
  5
1DDA
330
1DCF
100
AcDbEntity
  8
0
100
AcDbBlockEnd
  0
BLOCK
  5
1DDC
330
1DDB
100
AcDbEntity
  8
0
100
AcDbBlockBegin
  2
*D30
 70
     1
 10
0.0
 20
0.0
 30
0.0
  3
*D30
  1

  0
LINE
  5
1DDD
330
1DDB
100
AcDbEntity
  8
実形
 62
     0
370
    18
100
AcDbLine
 10
2292.614562018892
 20
504.6947101512855
 30
0.0
 11
2228.767481940162
 21
504.6947101512855
 31
0.0
  0
LINE
  5
1DDE
330
1DDB
100
AcDbEntity
  8
実形
 62
     0
370
    18
100
AcDbLine
 10
2216.267191428404
 20
543.6947101512855
 30
0.0
 11
2228.767481940162
 21
543.6947101512855
 31
0.0
  0
LINE
  5
1DDF
330
1DDB
100
AcDbEntity
  8
実形
 62
     0
370
    18
100
AcDbLine
 10
2228.767481940162
 20
504.6947101512855
 30
0.0
 11
2228.767481940162
 21
543.6947101512855
 31
0.0
  0
MTEXT
  5
1DE0
330
1DDB
100
AcDbEntity
  8
実形
 62
     0
100
AcDbMText
 10
2197.294896545438
 20
515.0052225685112
 30
0.0
 40
23.0
 41
0.0
 71
     5
 72
     1
  1
2.5
 11
0.0000000000000001
 21
1.0
 31
0.0
 73
     1
 44
1.0
1001
ACAD
1000
MTEXTBEGIN
1070
    73
1070
     1
1070
    44
1040
1.0
1070
    74
1070
     0
1000
MTEXTEND
  0
INSERT
  5
1DE1
330
1DDB
100
AcDbEntity
  8
実形
 62
     0
370
    18
100
AcDbBlockReference
  2
_DotSmall
 10
2228.767481940162
 20
504.6947101512855
 30
0.0
 41
35.0
 42
35.0
 43
35.0
 50
270.0
  0
INSERT
  5
1DE2
330
1DDB
100
AcDbEntity
  8
実形
 62
     0
370
    18
100
AcDbBlockReference
  2
_DotSmall
 10
2228.767481940162
 20
543.6947101512855
 30
0.0
 41
35.0
 42
35.0
 43
35.0
 50
90.0
  0
POINT
  5
1DE3
330
1DDB
100
AcDbEntity
  8
Defpoints
 62
     0
100
AcDbPoint
 10
2357.614562018891
 20
504.6947101512855
 30
0.0
  0
POINT
  5
1DE4
330
1DDB
100
AcDbEntity
  8
Defpoints
 62
     0
100
AcDbPoint
 10
2281.267191428404
 20
543.6947101512855
 30
0.0
  0
POINT
  5
1DE5
330
1DDB
100
AcDbEntity
  8
Defpoints
 62
     0
100
AcDbPoint
 10
2228.767481940162
 20
543.6947101512855
 30
0.0
  0
ENDBLK
  5
1DE6
330
1DDB
100
AcDbEntity
  8
0
100
AcDbBlockEnd
  0
BLOCK
  5
1DE8
330
1DE7
100
AcDbEntity
  8
0
100
AcDbBlockBegin
  2
*D31
 70
     1
 10
0.0
 20
0.0
 30
0.0
  3
*D31
  1

  0
LINE
  5
1DE9
330
1DE7
100
AcDbEntity
  8
実形
 62
     0
370
    18
100
AcDbLine
 10
2278.033877365066
 20
448.0145559292668
 30
0.0
 11
2278.033877365066
 21
452.0882219802177
 31
0.0
  0
LINE
  5
1DEA
330
1DE7
100
AcDbEntity
  8
実形
 62
     0
370
    18
100
AcDbLine
 10
2356.033877365066
 20
448.0145559292668
 30
0.0
 11
2356.033877365066
 21
452.0882219802177
 31
0.0
  0
LINE
  5
1DEB
330
1DE7
100
AcDbEntity
  8
実形
 62
     0
370
    18
100
AcDbLine
 10
2278.033877365066
 20
452.0882219802177
 30
0.0
 11
2356.033877365066
 21
452.0882219802177
 31
0.0
  0
INSERT
  5
1DEC
330
1DE7
100
AcDbEntity
  8
実形
 62
     0
370
    18
100
AcDbBlockReference
  2
_DotSmall
 10
2278.033877365066
 20
452.0882219802177
 30
0.0
 41
35.0
 42
35.0
 43
35.0
 50
180.0
  0
INSERT
  5
1DED
330
1DE7
100
AcDbEntity
  8
実形
 62
     0
370
    18
100
AcDbBlockReference
  2
_DotSmall
 10
2356.033877365066
 20
452.0882219802177
 30
0.0
 41
35.0
 42
35.0
 43
35.0
  0
MTEXT
  5
1DEE
330
1DE7
100
AcDbEntity
  8
実形
 62
     0
100
AcDbMText
 10
2317.033877365066
 20
470.8382219802177
 30
0.0
 40
25.0
 41
0.0
 71
     5
 72
     1
  1
5
 73
     1
 44
1.0
1001
ACAD
1000
MTEXTBEGIN
1070
    73
1070
     1
1070
    44
1040
1.0
1070
    74
1070
     0
1000
MTEXTEND
  0
POINT
  5
1DEF
330
1DE7
100
AcDbEntity
  8
Defpoints
 62
     0
100
AcDbPoint
 10
2278.033877365066
 20
513.0145559292668
 30
0.0
  0
POINT
  5
1DF0
330
1DE7
100
AcDbEntity
  8
Defpoints
 62
     0
100
AcDbPoint
 10
2356.033877365066
 20
513.0145559292668
 30
0.0
  0
POINT
  5
1DF1
330
1DE7
100
AcDbEntity
  8
Defpoints
 62
     0
100
AcDbPoint
 10
2356.033877365066
 20
452.0882219802177
 30
0.0
  0
ENDBLK
  5
1DF2
330
1DE7
100
AcDbEntity
  8
0
100
AcDbBlockEnd
  0
BLOCK
  5
1DF4
330
1DF3
100
AcDbEntity
  8
0
100
AcDbBlockBegin
  2
*D32
 70
     1
 10
0.0
 20
0.0
 30
0.0
  3
*D32
  1

  0
LINE
  5
1DF5
330
1DF3
100
AcDbEntity
  8
実形
 62
     0
370
    18
100
AcDbLine
 10
2266.326187506493
 20
442.2947101512853
 30
0.0
 11
2230.705930897853
 21
442.2947101512853
 31
0.0
  0
LINE
  5
1DF6
330
1DF3
100
AcDbEntity
  8
実形
 62
     0
370
    18
100
AcDbLine
 10
2278.612691407768
 20
403.2947101512855
 30
0.0
 11
2230.705930897853
 21
403.2947101512855
 31
0.0
  0
LINE
  5
1DF7
330
1DF3
100
AcDbEntity
  8
実形
 62
     0
370
    18
100
AcDbLine
 10
2230.705930897853
 20
442.2947101512853
 30
0.0
 11
2230.705930897853
 21
403.2947101512855
 31
0.0
  0
MTEXT
  5
1DF8
330
1DF3
100
AcDbEntity
  8
実形
 62
     0
100
AcDbMText
 10
2198.086469593912
 20
431.6583152348946
 30
0.0
 40
23.0
 41
0.0
 71
     5
 72
     1
  1
2.5
 11
0.0000000000000001
 21
1.0
 31
0.0
 73
     1
 44
1.0
1001
ACAD
1000
MTEXTBEGIN
1070
    73
1070
     1
1070
    44
1040
1.0
1070
    74
1070
     0
1000
MTEXTEND
  0
INSERT
  5
1DF9
330
1DF3
100
AcDbEntity
  8
実形
 62
     0
370
    18
100
AcDbBlockReference
  2
_DotSmall
 10
2230.705930897853
 20
442.2947101512853
 30
0.0
 41
35.0
 42
35.0
 43
35.0
 50
90.0
  0
INSERT
  5
1DFA
330
1DF3
100
AcDbEntity
  8
実形
 62
     0
370
    18
100
AcDbBlockReference
  2
_DotSmall
 10
2230.705930897853
 20
403.2947101512855
 30
0.0
 41
35.0
 42
35.0
 43
35.0
 50
270.0
  0
POINT
  5
1DFB
330
1DF3
100
AcDbEntity
  8
Defpoints
 62
     0
100
AcDbPoint
 10
2331.326187506493
 20
442.2947101512853
 30
0.0
  0
POINT
  5
1DFC
330
1DF3
100
AcDbEntity
  8
Defpoints
 62
     0
100
AcDbPoint
 10
2343.612691407768
 20
403.2947101512855
 30
0.0
  0
POINT
  5
1DFD
330
1DF3
100
AcDbEntity
  8
Defpoints
 62
     0
100
AcDbPoint
 10
2230.705930897853
 20
403.2947101512855
 30
0.0
  0
ENDBLK
  5
1DFE
330
1DF3
100
AcDbEntity
  8
0
100
AcDbBlockEnd
  0
BLOCK
  5
1E00
330
1DFF
100
AcDbEntity
  8
0
100
AcDbBlockBegin
  2
*D33
 70
     1
 10
0.0
 20
0.0
 30
0.0
  3
*D33
  1

  0
LINE
  5
1E01
330
1DFF
100
AcDbEntity
  8
実形
 62
     0
370
    18
100
AcDbLine
 10
2075.233877365066
 20
696.1956311673393
 30
0.0
 11
2075.233877365066
 21
733.9587029177619
 31
0.0
  0
LINE
  5
1E02
330
1DFF
100
AcDbEntity
  8
実形
 62
     0
370
    18
100
AcDbLine
 10
2356.033877365066
 20
696.1956311673393
 30
0.0
 11
2356.033877365066
 21
733.9587029177619
 31
0.0
  0
LINE
  5
1E03
330
1DFF
100
AcDbEntity
  8
実形
 62
     0
370
    18
100
AcDbLine
 10
2075.233877365066
 20
733.9587029177619
 30
0.0
 11
2356.033877365066
 21
733.9587029177619
 31
0.0
  0
INSERT
  5
1E04
330
1DFF
100
AcDbEntity
  8
実形
 62
     0
370
    18
100
AcDbBlockReference
  2
_DotSmall
 10
2075.233877365066
 20
733.9587029177619
 30
0.0
 41
35.0
 42
35.0
 43
35.0
 50
180.0
  0
INSERT
  5
1E05
330
1DFF
100
AcDbEntity
  8
実形
 62
     0
370
    18
100
AcDbBlockReference
  2
_DotSmall
 10
2356.033877365066
 20
733.9587029177619
 30
0.0
 41
35.0
 42
35.0
 43
35.0
  0
MTEXT
  5
1E06
330
1DFF
100
AcDbEntity
  8
実形
 62
     0
100
AcDbMText
 10
2215.633877365066
 20
752.7087029177619
 30
0.0
 40
25.0
 41
0.0
 71
     5
 72
     1
  1
18
 73
     1
 44
1.0
1001
ACAD
1000
MTEXTBEGIN
1070
    73
1070
     1
1070
    44
1040
1.0
1070
    74
1070
     0
1000
MTEXTEND
  0
POINT
  5
1E07
330
1DFF
100
AcDbEntity
  8
Defpoints
 62
     0
100
AcDbPoint
 10
2075.233877365066
 20
631.1956311673393
 30
0.0
  0
POINT
  5
1E08
330
1DFF
100
AcDbEntity
  8
Defpoints
 62
     0
100
AcDbPoint
 10
2356.033877365066
 20
631.1956311673393
 30
0.0
  0
POINT
  5
1E09
330
1DFF
100
AcDbEntity
  8
Defpoints
 62
     0
100
AcDbPoint
 10
2356.033877365066
 20
733.9587029177619
 30
0.0
  0
ENDBLK
  5
1E0A
330
1DFF
100
AcDbEntity
  8
0
100
AcDbBlockEnd
  0
BLOCK
  5
1E0C
330
1E0B
100
AcDbEntity
  8
0
100
AcDbBlockBegin
  2
*D34
 70
     1
 10
0.0
 20
0.0
 30
0.0
  3
*D34
  1

  0
LINE
  5
1E0D
330
1E0B
100
AcDbEntity
  8
実形
 62
     0
370
    18
100
AcDbLine
 10
2356.033877365066
 20
696.1956311673382
 30
0.0
 11
2356.033877365066
 21
733.9587029177619
 31
0.0
  0
LINE
  5
1E0E
330
1E0B
100
AcDbEntity
  8
実形
 62
     0
370
    18
100
AcDbLine
 10
2621.233877365066
 20
696.1956311673382
 30
0.0
 11
2621.233877365066
 21
733.9587029177619
 31
0.0
  0
LINE
  5
1E0F
330
1E0B
100
AcDbEntity
  8
実形
 62
     0
370
    18
100
AcDbLine
 10
2356.033877365066
 20
733.9587029177619
 30
0.0
 11
2621.233877365066
 21
733.9587029177619
 31
0.0
  0
INSERT
  5
1E10
330
1E0B
100
AcDbEntity
  8
実形
 62
     0
370
    18
100
AcDbBlockReference
  2
_DotSmall
 10
2356.033877365066
 20
733.9587029177619
 30
0.0
 41
35.0
 42
35.0
 43
35.0
 50
180.0
  0
INSERT
  5
1E11
330
1E0B
100
AcDbEntity
  8
実形
 62
     0
370
    18
100
AcDbBlockReference
  2
_DotSmall
 10
2621.233877365066
 20
733.9587029177619
 30
0.0
 41
35.0
 42
35.0
 43
35.0
  0
MTEXT
  5
1E12
330
1E0B
100
AcDbEntity
  8
実形
 62
     0
100
AcDbMText
 10
2488.633877365066
 20
752.7087029177619
 30
0.0
 40
25.0
 41
0.0
 71
     5
 72
     1
  1
17
 73
     1
 44
1.0
1001
ACAD
1000
MTEXTBEGIN
1070
    73
1070
     1
1070
    44
1040
1.0
1070
    74
1070
     0
1000
MTEXTEND
  0
POINT
  5
1E13
330
1E0B
100
AcDbEntity
  8
Defpoints
 62
     0
100
AcDbPoint
 10
2356.033877365066
 20
631.1956311673382
 30
0.0
  0
POINT
  5
1E14
330
1E0B
100
AcDbEntity
  8
Defpoints
 62
     0
100
AcDbPoint
 10
2621.233877365066
 20
631.1956311673382
 30
0.0
  0
POINT
  5
1E15
330
1E0B
100
AcDbEntity
  8
Defpoints
 62
     0
100
AcDbPoint
 10
2621.233877365066
 20
733.9587029177619
 30
0.0
  0
ENDBLK
  5
1E16
330
1E0B
100
AcDbEntity
  8
0
100
AcDbBlockEnd
  0
BLOCK
  5
1E18
330
1E17
100
AcDbEntity
  8
0
100
AcDbBlockBegin
  2
*D35
 70
     1
 10
0.0
 20
0.0
 30
0.0
  3
*D35
  1

  0
LINE
  5
1E19
330
1E17
100
AcDbEntity
  8
実形
 62
     0
370
    18
100
AcDbLine
 10
2075.233877365066
 20
696.1956311673382
 30
0.0
 11
2075.233877365066
 21
777.4666415156134
 31
0.0
  0
LINE
  5
1E1A
330
1E17
100
AcDbEntity
  8
実形
 62
     0
370
    18
100
AcDbLine
 10
2621.233877365066
 20
696.1956311673382
 30
0.0
 11
2621.233877365066
 21
777.4666415156134
 31
0.0
  0
LINE
  5
1E1B
330
1E17
100
AcDbEntity
  8
実形
 62
     0
370
    18
100
AcDbLine
 10
2075.233877365066
 20
777.4666415156134
 30
0.0
 11
2621.233877365066
 21
777.4666415156134
 31
0.0
  0
INSERT
  5
1E1C
330
1E17
100
AcDbEntity
  8
実形
 62
     0
370
    18
100
AcDbBlockReference
  2
_DotSmall
 10
2075.233877365066
 20
777.4666415156134
 30
0.0
 41
35.0
 42
35.0
 43
35.0
 50
180.0
  0
INSERT
  5
1E1D
330
1E17
100
AcDbEntity
  8
実形
 62
     0
370
    18
100
AcDbBlockReference
  2
_DotSmall
 10
2621.233877365066
 20
777.4666415156134
 30
0.0
 41
35.0
 42
35.0
 43
35.0
  0
MTEXT
  5
1E1E
330
1E17
100
AcDbEntity
  8
実形
 62
     0
100
AcDbMText
 10
2348.233877365066
 20
796.2166415156134
 30
0.0
 40
25.0
 41
0.0
 71
     5
 72
     1
  1
35
 73
     1
 44
1.0
1001
ACAD
1000
MTEXTBEGIN
1070
    73
1070
     1
1070
    44
1040
1.0
1070
    74
1070
     0
1000
MTEXTEND
  0
POINT
  5
1E1F
330
1E17
100
AcDbEntity
  8
Defpoints
 62
     0
100
AcDbPoint
 10
2075.233877365066
 20
631.1956311673382
 30
0.0
  0
POINT
  5
1E20
330
1E17
100
AcDbEntity
  8
Defpoints
 62
     0
100
AcDbPoint
 10
2621.233877365066
 20
631.1956311673382
 30
0.0
  0
POINT
  5
1E21
330
1E17
100
AcDbEntity
  8
Defpoints
 62
     0
100
AcDbPoint
 10
2621.233877365066
 20
777.4666415156134
 30
0.0
  0
ENDBLK
  5
1E22
330
1E17
100
AcDbEntity
  8
0
100
AcDbBlockEnd
  0
BLOCK
  5
1E24
330
1E23
100
AcDbEntity
  8
0
100
AcDbBlockBegin
  2
*D36
 70
     1
 10
0.0
 20
0.0
 30
0.0
  3
*D36
  1

  0
LINE
  5
1E25
330
1E23
100
AcDbEntity
  8
実形
 62
     0
370
    18
100
AcDbLine
 10
2106.433877365066
 20
346.5474686202858
 30
0.0
 11
2106.433877365066
 21
297.5085770831867
 31
0.0
  0
LINE
  5
1E26
330
1E23
100
AcDbEntity
  8
実形
 62
     0
370
    18
100
AcDbLine
 10
2153.233877365066
 20
346.5474686202858
 30
0.0
 11
2153.233877365066
 21
297.5085770831867
 31
0.0
  0
LINE
  5
1E27
330
1E23
100
AcDbEntity
  8
実形
 62
     0
370
    18
100
AcDbLine
 10
2106.433877365066
 20
297.5085770831867
 30
0.0
 11
2153.233877365066
 21
297.5085770831867
 31
0.0
  0
MTEXT
  5
1E28
330
1E23
100
AcDbEntity
  8
実形
 62
     0
100
AcDbMText
 10
2053.203290699754
 20
332.9138518235977
 30
0.0
 40
25.0
 41
0.0
 71
     5
 72
     1
  1
3.2
 73
     1
 44
1.0
1001
ACAD
1000
MTEXTBEGIN
1070
    73
1070
     1
1070
    44
1040
1.0
1070
    74
1070
     0
1000
MTEXTEND
  0
INSERT
  5
1E29
330
1E23
100
AcDbEntity
  8
実形
 62
     0
370
    18
100
AcDbBlockReference
  2
_DotSmall
 10
2106.433877365066
 20
297.5085770831867
 30
0.0
 41
35.0
 42
35.0
 43
35.0
 50
180.0
  0
INSERT
  5
1E2A
330
1E23
100
AcDbEntity
  8
実形
 62
     0
370
    18
100
AcDbBlockReference
  2
_DotSmall
 10
2153.233877365066
 20
297.5085770831867
 30
0.0
 41
35.0
 42
35.0
 43
35.0
  0
POINT
  5
1E2B
330
1E23
100
AcDbEntity
  8
Defpoints
 62
     0
100
AcDbPoint
 10
2106.433877365066
 20
411.5474686202857
 30
0.0
  0
POINT
  5
1E2C
330
1E23
100
AcDbEntity
  8
Defpoints
 62
     0
100
AcDbPoint
 10
2153.233877365066
 20
411.5474686202857
 30
0.0
  0
POINT
  5
1E2D
330
1E23
100
AcDbEntity
  8
Defpoints
 62
     0
100
AcDbPoint
 10
2153.233877365066
 20
297.5085770831867
 30
0.0
  0
ENDBLK
  5
1E2E
330
1E23
100
AcDbEntity
  8
0
100
AcDbBlockEnd
  0
BLOCK
  5
1E30
330
1E2F
100
AcDbEntity
  8
0
100
AcDbBlockBegin
  2
*D37
 70
     1
 10
0.0
 20
0.0
 30
0.0
  3
*D37
  1

  0
LINE
  5
1E31
330
1E2F
100
AcDbEntity
  8
実形
 62
     0
370
    18
100
AcDbLine
 10
2153.233877365066
 20
346.5474686202858
 30
0.0
 11
2153.233877365066
 21
297.5085770831867
 31
0.0
  0
LINE
  5
1E32
330
1E2F
100
AcDbEntity
  8
実形
 62
     0
370
    18
100
AcDbLine
 10
2278.033877365066
 20
346.5474686202858
 30
0.0
 11
2278.033877365066
 21
297.5085770831867
 31
0.0
  0
LINE
  5
1E33
330
1E2F
100
AcDbEntity
  8
実形
 62
     0
370
    18
100
AcDbLine
 10
2153.233877365066
 20
297.5085770831867
 30
0.0
 11
2278.033877365066
 21
297.5085770831867
 31
0.0
  0
INSERT
  5
1E34
330
1E2F
100
AcDbEntity
  8
実形
 62
     0
370
    18
100
AcDbBlockReference
  2
_DotSmall
 10
2153.233877365066
 20
297.5085770831867
 30
0.0
 41
35.0
 42
35.0
 43
35.0
 50
180.0
  0
INSERT
  5
1E35
330
1E2F
100
AcDbEntity
  8
実形
 62
     0
370
    18
100
AcDbBlockReference
  2
_DotSmall
 10
2278.033877365066
 20
297.5085770831867
 30
0.0
 41
35.0
 42
35.0
 43
35.0
  0
MTEXT
  5
1E36
330
1E2F
100
AcDbEntity
  8
実形
 62
     0
100
AcDbMText
 10
2215.633877365066
 20
316.2585770831867
 30
0.0
 40
25.0
 41
0.0
 71
     5
 72
     1
  1
8
 73
     1
 44
1.0
1001
ACAD
1000
MTEXTBEGIN
1070
    73
1070
     1
1070
    44
1040
1.0
1070
    74
1070
     0
1000
MTEXTEND
  0
POINT
  5
1E37
330
1E2F
100
AcDbEntity
  8
Defpoints
 62
     0
100
AcDbPoint
 10
2153.233877365066
 20
411.5474686202857
 30
0.0
  0
POINT
  5
1E38
330
1E2F
100
AcDbEntity
  8
Defpoints
 62
     0
100
AcDbPoint
 10
2278.033877365066
 20
411.5474686202857
 30
0.0
  0
POINT
  5
1E39
330
1E2F
100
AcDbEntity
  8
Defpoints
 62
     0
100
AcDbPoint
 10
2278.033877365066
 20
297.5085770831867
 30
0.0
  0
ENDBLK
  5
1E3A
330
1E2F
100
AcDbEntity
  8
0
100
AcDbBlockEnd
  0
BLOCK
  5
1E3C
330
1E3B
100
AcDbEntity
  8
0
100
AcDbBlockBegin
  2
*D38
 70
     1
 10
0.0
 20
0.0
 30
0.0
  3
*D38
  1

  0
LINE
  5
1E3D
330
1E3B
100
AcDbEntity
  8
実形
 62
     0
370
    18
100
AcDbLine
 10
2278.033877365066
 20
346.5474686202858
 30
0.0
 11
2278.033877365066
 21
297.5085770831867
 31
0.0
  0
LINE
  5
1E3E
330
1E3B
100
AcDbEntity
  8
実形
 62
     0
370
    18
100
AcDbLine
 10
2356.033877365066
 20
346.5474686202858
 30
0.0
 11
2356.033877365066
 21
297.5085770831867
 31
0.0
  0
LINE
  5
1E3F
330
1E3B
100
AcDbEntity
  8
実形
 62
     0
370
    18
100
AcDbLine
 10
2278.033877365066
 20
297.5085770831867
 30
0.0
 11
2356.033877365066
 21
297.5085770831867
 31
0.0
  0
INSERT
  5
1E40
330
1E3B
100
AcDbEntity
  8
実形
 62
     0
370
    18
100
AcDbBlockReference
  2
_DotSmall
 10
2278.033877365066
 20
297.5085770831867
 30
0.0
 41
35.0
 42
35.0
 43
35.0
 50
180.0
  0
INSERT
  5
1E41
330
1E3B
100
AcDbEntity
  8
実形
 62
     0
370
    18
100
AcDbBlockReference
  2
_DotSmall
 10
2356.033877365066
 20
297.5085770831867
 30
0.0
 41
35.0
 42
35.0
 43
35.0
  0
MTEXT
  5
1E42
330
1E3B
100
AcDbEntity
  8
実形
 62
     0
100
AcDbMText
 10
2317.033877365066
 20
316.2585770831867
 30
0.0
 40
25.0
 41
0.0
 71
     5
 72
     1
  1
5
 73
     1
 44
1.0
1001
ACAD
1000
MTEXTBEGIN
1070
    73
1070
     1
1070
    44
1040
1.0
1070
    74
1070
     0
1000
MTEXTEND
  0
POINT
  5
1E43
330
1E3B
100
AcDbEntity
  8
Defpoints
 62
     0
100
AcDbPoint
 10
2278.033877365066
 20
411.5474686202857
 30
0.0
  0
POINT
  5
1E44
330
1E3B
100
AcDbEntity
  8
Defpoints
 62
     0
100
AcDbPoint
 10
2356.033877365066
 20
411.5474686202857
 30
0.0
  0
POINT
  5
1E45
330
1E3B
100
AcDbEntity
  8
Defpoints
 62
     0
100
AcDbPoint
 10
2356.033877365066
 20
297.5085770831867
 30
0.0
  0
ENDBLK
  5
1E46
330
1E3B
100
AcDbEntity
  8
0
100
AcDbBlockEnd
  0
BLOCK
  5
1E48
330
1E47
100
AcDbEntity
  8
0
100
AcDbBlockBegin
  2
*D39
 70
     1
 10
0.0
 20
0.0
 30
0.0
  3
*D39
  1

  0
LINE
  5
1E49
330
1E47
100
AcDbEntity
  8
実形
 62
     0
370
    18
100
AcDbLine
 10
2356.033877365066
 20
346.5474686202858
 30
0.0
 11
2356.033877365066
 21
297.5085770831867
 31
0.0
  0
LINE
  5
1E4A
330
1E47
100
AcDbEntity
  8
実形
 62
     0
370
    18
100
AcDbLine
 10
2621.233877365066
 20
346.5474686202858
 30
0.0
 11
2621.233877365066
 21
297.5085770831867
 31
0.0
  0
LINE
  5
1E4B
330
1E47
100
AcDbEntity
  8
実形
 62
     0
370
    18
100
AcDbLine
 10
2356.033877365066
 20
297.5085770831867
 30
0.0
 11
2621.233877365066
 21
297.5085770831867
 31
0.0
  0
INSERT
  5
1E4C
330
1E47
100
AcDbEntity
  8
実形
 62
     0
370
    18
100
AcDbBlockReference
  2
_DotSmall
 10
2356.033877365066
 20
297.5085770831867
 30
0.0
 41
35.0
 42
35.0
 43
35.0
 50
180.0
  0
INSERT
  5
1E4D
330
1E47
100
AcDbEntity
  8
実形
 62
     0
370
    18
100
AcDbBlockReference
  2
_DotSmall
 10
2621.233877365066
 20
297.5085770831867
 30
0.0
 41
35.0
 42
35.0
 43
35.0
  0
MTEXT
  5
1E4E
330
1E47
100
AcDbEntity
  8
実形
 62
     0
100
AcDbMText
 10
2488.633877365066
 20
316.2585770831867
 30
0.0
 40
25.0
 41
0.0
 71
     5
 72
     1
  1
17
 73
     1
 44
1.0
1001
ACAD
1000
MTEXTBEGIN
1070
    73
1070
     1
1070
    44
1040
1.0
1070
    74
1070
     0
1000
MTEXTEND
  0
POINT
  5
1E4F
330
1E47
100
AcDbEntity
  8
Defpoints
 62
     0
100
AcDbPoint
 10
2356.033877365066
 20
411.5474686202857
 30
0.0
  0
POINT
  5
1E50
330
1E47
100
AcDbEntity
  8
Defpoints
 62
     0
100
AcDbPoint
 10
2621.233877365066
 20
411.5474686202857
 30
0.0
  0
POINT
  5
1E51
330
1E47
100
AcDbEntity
  8
Defpoints
 62
     0
100
AcDbPoint
 10
2621.233877365066
 20
297.5085770831867
 30
0.0
  0
ENDBLK
  5
1E52
330
1E47
100
AcDbEntity
  8
0
100
AcDbBlockEnd
  0
BLOCK
  5
1E54
330
1E53
100
AcDbEntity
  8
0
100
AcDbBlockBegin
  2
*D40
 70
     1
 10
0.0
 20
0.0
 30
0.0
  3
*D40
  1

  0
LINE
  5
1E55
330
1E53
100
AcDbEntity
  8
実形
 62
     0
370
    18
100
AcDbLine
 10
2077.023276234157
 20
297.8281686160613
 30
0.0
 11
2077.023276234157
 21
247.5388396829094
 31
0.0
  0
LINE
  5
1E56
330
1E53
100
AcDbEntity
  8
実形
 62
     0
370
    18
100
AcDbLine
 10
2155.023276234156
 20
297.8281686160613
 30
0.0
 11
2155.023276234156
 21
247.5388396829094
 31
0.0
  0
LINE
  5
1E57
330
1E53
100
AcDbEntity
  8
実形
 62
     0
370
    18
100
AcDbLine
 10
2077.023276234157
 20
247.5388396829094
 30
0.0
 11
2155.023276234156
 21
247.5388396829094
 31
0.0
  0
INSERT
  5
1E58
330
1E53
100
AcDbEntity
  8
実形
 62
     0
370
    18
100
AcDbBlockReference
  2
_DotSmall
 10
2077.023276234157
 20
247.5388396829094
 30
0.0
 41
35.0
 42
35.0
 43
35.0
 50
180.0
  0
INSERT
  5
1E59
330
1E53
100
AcDbEntity
  8
実形
 62
     0
370
    18
100
AcDbBlockReference
  2
_DotSmall
 10
2155.023276234156
 20
247.5388396829094
 30
0.0
 41
35.0
 42
35.0
 43
35.0
  0
MTEXT
  5
1E5A
330
1E53
100
AcDbEntity
  8
実形
 62
     0
100
AcDbMText
 10
2116.023276234157
 20
266.2888396829094
 30
0.0
 40
25.0
 41
0.0
 71
     5
 72
     1
  1
5
 73
     1
 44
1.0
1001
ACAD
1000
MTEXTBEGIN
1070
    73
1070
     1
1070
    44
1040
1.0
1070
    74
1070
     0
1000
MTEXTEND
  0
POINT
  5
1E5B
330
1E53
100
AcDbEntity
  8
Defpoints
 62
     0
100
AcDbPoint
 10
2077.023276234157
 20
362.8281686160613
 30
0.0
  0
POINT
  5
1E5C
330
1E53
100
AcDbEntity
  8
Defpoints
 62
     0
100
AcDbPoint
 10
2155.023276234156
 20
362.8281686160613
 30
0.0
  0
POINT
  5
1E5D
330
1E53
100
AcDbEntity
  8
Defpoints
 62
     0
100
AcDbPoint
 10
2155.023276234156
 20
247.5388396829094
 30
0.0
  0
ENDBLK
  5
1E5E
330
1E53
100
AcDbEntity
  8
0
100
AcDbBlockEnd
  0
BLOCK
  5
1E60
330
1E5F
100
AcDbEntity
  8
0
100
AcDbBlockBegin
  2
*D41
 70
     1
 10
0.0
 20
0.0
 30
0.0
  3
*D41
  1

  0
LINE
  5
1E61
330
1E5F
100
AcDbEntity
  8
実形
 62
     0
370
    18
100
AcDbLine
 10
2155.023276234156
 20
297.8281686160613
 30
0.0
 11
2155.023276234156
 21
247.5388396829094
 31
0.0
  0
LINE
  5
1E62
330
1E5F
100
AcDbEntity
  8
実形
 62
     0
370
    18
100
AcDbLine
 10
2623.023276234156
 20
297.8281686160613
 30
0.0
 11
2623.023276234156
 21
247.5388396829094
 31
0.0
  0
LINE
  5
1E63
330
1E5F
100
AcDbEntity
  8
実形
 62
     0
370
    18
100
AcDbLine
 10
2155.023276234156
 20
247.5388396829094
 30
0.0
 11
2623.023276234156
 21
247.5388396829094
 31
0.0
  0
INSERT
  5
1E64
330
1E5F
100
AcDbEntity
  8
実形
 62
     0
370
    18
100
AcDbBlockReference
  2
_DotSmall
 10
2155.023276234156
 20
247.5388396829094
 30
0.0
 41
35.0
 42
35.0
 43
35.0
 50
180.0
  0
INSERT
  5
1E65
330
1E5F
100
AcDbEntity
  8
実形
 62
     0
370
    18
100
AcDbBlockReference
  2
_DotSmall
 10
2623.023276234156
 20
247.5388396829094
 30
0.0
 41
35.0
 42
35.0
 43
35.0
  0
MTEXT
  5
1E66
330
1E5F
100
AcDbEntity
  8
実形
 62
     0
100
AcDbMText
 10
2389.023276234156
 20
266.2888396829094
 30
0.0
 40
25.0
 41
0.0
 71
     5
 72
     1
  1
30
 73
     1
 44
1.0
1001
ACAD
1000
MTEXTBEGIN
1070
    73
1070
     1
1070
    44
1040
1.0
1070
    74
1070
     0
1000
MTEXTEND
  0
POINT
  5
1E67
330
1E5F
100
AcDbEntity
  8
Defpoints
 62
     0
100
AcDbPoint
 10
2155.023276234156
 20
362.8281686160613
 30
0.0
  0
POINT
  5
1E68
330
1E5F
100
AcDbEntity
  8
Defpoints
 62
     0
100
AcDbPoint
 10
2623.023276234156
 20
362.8281686160613
 30
0.0
  0
POINT
  5
1E69
330
1E5F
100
AcDbEntity
  8
Defpoints
 62
     0
100
AcDbPoint
 10
2623.023276234156
 20
247.5388396829094
 30
0.0
  0
ENDBLK
  5
1E6A
330
1E5F
100
AcDbEntity
  8
0
100
AcDbBlockEnd
  0
BLOCK
  5
1E6C
330
1E6B
100
AcDbEntity
  8
0
100
AcDbBlockBegin
  2
*D42
 70
     1
 10
0.0
 20
0.0
 30
0.0
  3
*D42
  1

  0
LINE
  5
1E6D
330
1E6B
100
AcDbEntity
  8
実形
 62
     0
370
    18
100
AcDbLine
 10
2032.328912889143
 20
684.0947101512855
 30
0.0
 11
1970.032114275532
 21
684.0947101512855
 31
0.0
  0
LINE
  5
1E6E
330
1E6B
100
AcDbEntity
  8
実形
 62
     0
370
    18
100
AcDbLine
 10
2032.328912889143
 20
585.2947101512854
 30
0.0
 11
1970.032114275532
 21
585.2947101512854
 31
0.0
  0
LINE
  5
1E6F
330
1E6B
100
AcDbEntity
  8
実形
 62
     0
370
    18
100
AcDbLine
 10
1970.032114275532
 20
684.0947101512855
 30
0.0
 11
1970.032114275532
 21
585.2947101512854
 31
0.0
  0
INSERT
  5
1E70
330
1E6B
100
AcDbEntity
  8
実形
 62
     0
370
    18
100
AcDbBlockReference
  2
_DotSmall
 10
1970.032114275532
 20
684.0947101512855
 30
0.0
 41
35.0
 42
35.0
 43
35.0
 50
90.0
  0
INSERT
  5
1E71
330
1E6B
100
AcDbEntity
  8
実形
 62
     0
370
    18
100
AcDbBlockReference
  2
_DotSmall
 10
1970.032114275532
 20
585.2947101512854
 30
0.0
 41
35.0
 42
35.0
 43
35.0
 50
270.0
  0
MTEXT
  5
1E72
330
1E6B
100
AcDbEntity
  8
実形
 62
     0
100
AcDbMText
 10
1951.282114275532
 20
634.6947101512859
 30
0.0
 40
25.0
 41
0.0
 71
     5
 72
     1
  1
6.5
 11
0.0000000000000001
 21
1.0
 31
0.0
 73
     1
 44
1.0
1001
ACAD
1000
MTEXTBEGIN
1070
    73
1070
     1
1070
    44
1040
1.0
1070
    74
1070
     0
1000
MTEXTEND
  0
POINT
  5
1E73
330
1E6B
100
AcDbEntity
  8
Defpoints
 62
     0
100
AcDbPoint
 10
2097.328912889143
 20
684.0947101512855
 30
0.0
  0
POINT
  5
1E74
330
1E6B
100
AcDbEntity
  8
Defpoints
 62
     0
100
AcDbPoint
 10
2097.328912889143
 20
585.2947101512854
 30
0.0
  0
POINT
  5
1E75
330
1E6B
100
AcDbEntity
  8
Defpoints
 62
     0
100
AcDbPoint
 10
1970.032114275532
 20
585.2947101512854
 30
0.0
  0
ENDBLK
  5
1E76
330
1E6B
100
AcDbEntity
  8
0
100
AcDbBlockEnd
  0
BLOCK
  5
1E78
330
1E77
100
AcDbEntity
  8
0
100
AcDbBlockBegin
  2
*D43
 70
     1
 10
0.0
 20
0.0
 30
0.0
  3
*D43
  1

  0
LINE
  5
1E79
330
1E77
100
AcDbEntity
  8
実形
 62
     0
370
    18
100
AcDbLine
 10
2032.328912889143
 20
684.0947101512855
 30
0.0
 11
1916.035186721017
 21
684.0947101512855
 31
0.0
  0
LINE
  5
1E7A
330
1E77
100
AcDbEntity
  8
実形
 62
     0
370
    18
100
AcDbLine
 10
2032.328912889143
 20
559.2947101512846
 30
0.0
 11
1916.035186721017
 21
559.2947101512846
 31
0.0
  0
LINE
  5
1E7B
330
1E77
100
AcDbEntity
  8
実形
 62
     0
370
    18
100
AcDbLine
 10
1916.035186721017
 20
684.0947101512855
 30
0.0
 11
1916.035186721017
 21
559.2947101512846
 31
0.0
  0
INSERT
  5
1E7C
330
1E77
100
AcDbEntity
  8
実形
 62
     0
370
    18
100
AcDbBlockReference
  2
_DotSmall
 10
1916.035186721017
 20
684.0947101512855
 30
0.0
 41
35.0
 42
35.0
 43
35.0
 50
90.0
  0
INSERT
  5
1E7D
330
1E77
100
AcDbEntity
  8
実形
 62
     0
370
    18
100
AcDbBlockReference
  2
_DotSmall
 10
1916.035186721017
 20
559.2947101512846
 30
0.0
 41
35.0
 42
35.0
 43
35.0
 50
270.0
  0
MTEXT
  5
1E7E
330
1E77
100
AcDbEntity
  8
実形
 62
     0
100
AcDbMText
 10
1897.285186721017
 20
621.6947101512854
 30
0.0
 40
25.0
 41
0.0
 71
     5
 72
     1
  1
8.2
 11
0.0000000000000001
 21
1.0
 31
0.0
 73
     1
 44
1.0
1001
ACAD
1000
MTEXTBEGIN
1070
    73
1070
     1
1070
    44
1040
1.0
1070
    74
1070
     0
1000
MTEXTEND
  0
POINT
  5
1E7F
330
1E77
100
AcDbEntity
  8
Defpoints
 62
     0
100
AcDbPoint
 10
2097.328912889143
 20
684.0947101512855
 30
0.0
  0
POINT
  5
1E80
330
1E77
100
AcDbEntity
  8
Defpoints
 62
     0
100
AcDbPoint
 10
2097.328912889143
 20
559.2947101512846
 30
0.0
  0
POINT
  5
1E81
330
1E77
100
AcDbEntity
  8
Defpoints
 62
     0
100
AcDbPoint
 10
1916.035186721017
 20
559.2947101512846
 30
0.0
  0
ENDBLK
  5
1E82
330
1E77
100
AcDbEntity
  8
0
100
AcDbBlockEnd
  0
BLOCK
  5
1E84
330
1E83
100
AcDbEntity
  8
0
100
AcDbBlockBegin
  2
*D44
 70
     1
 10
0.0
 20
0.0
 30
0.0
  3
*D44
  1

  0
LINE
  5
1E85
330
1E83
100
AcDbEntity
  8
実形
 62
     0
370
    18
100
AcDbLine
 10
2032.328912889143
 20
543.6947101512854
 30
0.0
 11
1864.389549972262
 21
543.6947101512854
 31
0.0
  0
LINE
  5
1E86
330
1E83
100
AcDbEntity
  8
実形
 62
     0
370
    18
100
AcDbLine
 10
2032.328912889143
 20
684.0947101512855
 30
0.0
 11
1864.389549972262
 21
684.0947101512855
 31
0.0
  0
LINE
  5
1E87
330
1E83
100
AcDbEntity
  8
実形
 62
     0
370
    18
100
AcDbLine
 10
1864.389549972262
 20
543.6947101512854
 30
0.0
 11
1864.389549972262
 21
684.0947101512855
 31
0.0
  0
INSERT
  5
1E88
330
1E83
100
AcDbEntity
  8
実形
 62
     0
370
    18
100
AcDbBlockReference
  2
_DotSmall
 10
1864.389549972262
 20
543.6947101512854
 30
0.0
 41
35.0
 42
35.0
 43
35.0
 50
270.0
  0
INSERT
  5
1E89
330
1E83
100
AcDbEntity
  8
実形
 62
     0
370
    18
100
AcDbBlockReference
  2
_DotSmall
 10
1864.389549972262
 20
684.0947101512855
 30
0.0
 41
35.0
 42
35.0
 43
35.0
 50
90.0
  0
MTEXT
  5
1E8A
330
1E83
100
AcDbEntity
  8
実形
 62
     0
100
AcDbMText
 10
1845.639549972261
 20
613.8947101512858
 30
0.0
 40
25.0
 41
0.0
 71
     5
 72
     1
  1
9
 11
0.0000000000000001
 21
1.0
 31
0.0
 73
     1
 44
1.0
1001
ACAD
1000
MTEXTBEGIN
1070
    73
1070
     1
1070
    44
1040
1.0
1070
    74
1070
     0
1000
MTEXTEND
  0
POINT
  5
1E8B
330
1E83
100
AcDbEntity
  8
Defpoints
 62
     0
100
AcDbPoint
 10
2097.328912889143
 20
543.6947101512854
 30
0.0
  0
POINT
  5
1E8C
330
1E83
100
AcDbEntity
  8
Defpoints
 62
     0
100
AcDbPoint
 10
2097.328912889143
 20
684.0947101512855
 30
0.0
  0
POINT
  5
1E8D
330
1E83
100
AcDbEntity
  8
Defpoints
 62
     0
100
AcDbPoint
 10
1864.389549972262
 20
684.0947101512855
 30
0.0
  0
ENDBLK
  5
1E8E
330
1E83
100
AcDbEntity
  8
0
100
AcDbBlockEnd
  0
BLOCK
  5
1E90
330
1E8F
100
AcDbEntity
  8
0
100
AcDbBlockBegin
  2
*D45
 70
     1
 10
0.0
 20
0.0
 30
0.0
  3
*D45
  1

  0
LINE
  5
1E91
330
1E8F
100
AcDbEntity
  8
実形
 62
     0
370
    18
100
AcDbLine
 10
2647.25404811461
 20
543.6947101512855
 30
0.0
 11
2673.699912636183
 21
543.6947101512855
 31
0.0
  0
LINE
  5
1E92
330
1E8F
100
AcDbEntity
  8
実形
 62
     0
370
    18
100
AcDbLine
 10
2647.25404811461
 20
403.2947101512855
 30
0.0
 11
2673.699912636183
 21
403.2947101512855
 31
0.0
  0
LINE
  5
1E93
330
1E8F
100
AcDbEntity
  8
実形
 62
     0
370
    18
100
AcDbLine
 10
2673.699912636183
 20
543.6947101512855
 30
0.0
 11
2673.699912636183
 21
403.2947101512855
 31
0.0
  0
INSERT
  5
1E94
330
1E8F
100
AcDbEntity
  8
実形
 62
     0
370
    18
100
AcDbBlockReference
  2
_DotSmall
 10
2673.699912636183
 20
543.6947101512855
 30
0.0
 41
35.0
 42
35.0
 43
35.0
 50
90.0
  0
INSERT
  5
1E95
330
1E8F
100
AcDbEntity
  8
実形
 62
     0
370
    18
100
AcDbBlockReference
  2
_DotSmall
 10
2673.699912636183
 20
403.2947101512855
 30
0.0
 41
35.0
 42
35.0
 43
35.0
 50
270.0
  0
MTEXT
  5
1E96
330
1E8F
100
AcDbEntity
  8
実形
 62
     0
100
AcDbMText
 10
2654.949912636183
 20
473.4947101512859
 30
0.0
 40
25.0
 41
0.0
 71
     5
 72
     1
  1
9
 11
0.0000000000000001
 21
1.0
 31
0.0
 73
     1
 44
1.0
1001
ACAD
1000
MTEXTBEGIN
1070
    73
1070
     1
1070
    44
1040
1.0
1070
    74
1070
     0
1000
MTEXTEND
  0
POINT
  5
1E97
330
1E8F
100
AcDbEntity
  8
Defpoints
 62
     0
100
AcDbPoint
 10
2582.25404811461
 20
543.6947101512855
 30
0.0
  0
POINT
  5
1E98
330
1E8F
100
AcDbEntity
  8
Defpoints
 62
     0
100
AcDbPoint
 10
2582.25404811461
 20
403.2947101512855
 30
0.0
  0
POINT
  5
1E99
330
1E8F
100
AcDbEntity
  8
Defpoints
 62
     0
100
AcDbPoint
 10
2673.699912636183
 20
403.2947101512855
 30
0.0
  0
ENDBLK
  5
1E9A
330
1E8F
100
AcDbEntity
  8
0
100
AcDbBlockEnd
  0
BLOCK
  5
1E9C
330
1E9B
100
AcDbEntity
  8
0
100
AcDbBlockBegin
  2
*D46
 70
     1
 10
0.0
 20
0.0
 30
0.0
  3
*D46
  1

  0
LINE
  5
1E9D
330
1E9B
100
AcDbEntity
  8
実形
 62
     0
370
    18
100
AcDbLine
 10
2647.25404811461
 20
684.0947101512855
 30
0.0
 11
2673.699912636183
 21
684.0947101512855
 31
0.0
  0
LINE
  5
1E9E
330
1E9B
100
AcDbEntity
  8
実形
 62
     0
370
    18
100
AcDbLine
 10
2647.25404811461
 20
543.6947101512855
 30
0.0
 11
2673.699912636183
 21
543.6947101512855
 31
0.0
  0
LINE
  5
1E9F
330
1E9B
100
AcDbEntity
  8
実形
 62
     0
370
    18
100
AcDbLine
 10
2673.699912636183
 20
684.0947101512855
 30
0.0
 11
2673.699912636183
 21
543.6947101512855
 31
0.0
  0
INSERT
  5
1EA0
330
1E9B
100
AcDbEntity
  8
実形
 62
     0
370
    18
100
AcDbBlockReference
  2
_DotSmall
 10
2673.699912636183
 20
684.0947101512855
 30
0.0
 41
35.0
 42
35.0
 43
35.0
 50
90.0
  0
INSERT
  5
1EA1
330
1E9B
100
AcDbEntity
  8
実形
 62
     0
370
    18
100
AcDbBlockReference
  2
_DotSmall
 10
2673.699912636183
 20
543.6947101512855
 30
0.0
 41
35.0
 42
35.0
 43
35.0
 50
270.0
  0
MTEXT
  5
1EA2
330
1E9B
100
AcDbEntity
  8
実形
 62
     0
100
AcDbMText
 10
2654.949912636183
 20
613.8947101512859
 30
0.0
 40
25.0
 41
0.0
 71
     5
 72
     1
  1
9
 11
0.0000000000000001
 21
1.0
 31
0.0
 73
     1
 44
1.0
1001
ACAD
1000
MTEXTBEGIN
1070
    73
1070
     1
1070
    44
1040
1.0
1070
    74
1070
     0
1000
MTEXTEND
  0
POINT
  5
1EA3
330
1E9B
100
AcDbEntity
  8
Defpoints
 62
     0
100
AcDbPoint
 10
2582.25404811461
 20
684.0947101512855
 30
0.0
  0
POINT
  5
1EA4
330
1E9B
100
AcDbEntity
  8
Defpoints
 62
     0
100
AcDbPoint
 10
2582.25404811461
 20
543.6947101512855
 30
0.0
  0
POINT
  5
1EA5
330
1E9B
100
AcDbEntity
  8
Defpoints
 62
     0
100
AcDbPoint
 10
2673.699912636183
 20
543.6947101512855
 30
0.0
  0
ENDBLK
  5
1EA6
330
1E9B
100
AcDbEntity
  8
0
100
AcDbBlockEnd
  0
BLOCK
  5
1EA8
330
1EA7
100
AcDbEntity
  8
0
100
AcDbBlockBegin
  2
*D47
 70
     1
 10
0.0
 20
0.0
 30
0.0
  3
*D47
  1

  0
LINE
  5
1EA9
330
1EA7
100
AcDbEntity
  8
実形
 62
     0
370
    18
100
AcDbLine
 10
2647.25404811461
 20
684.0947101512855
 30
0.0
 11
2715.480008308167
 21
684.0947101512855
 31
0.0
  0
LINE
  5
1EAA
330
1EA7
100
AcDbEntity
  8
実形
 62
     0
370
    18
100
AcDbLine
 10
2647.25404811461
 20
403.2947101512855
 30
0.0
 11
2715.480008308167
 21
403.2947101512855
 31
0.0
  0
LINE
  5
1EAB
330
1EA7
100
AcDbEntity
  8
実形
 62
     0
370
    18
100
AcDbLine
 10
2715.480008308167
 20
684.0947101512855
 30
0.0
 11
2715.480008308167
 21
403.2947101512855
 31
0.0
  0
INSERT
  5
1EAC
330
1EA7
100
AcDbEntity
  8
実形
 62
     0
370
    18
100
AcDbBlockReference
  2
_DotSmall
 10
2715.480008308167
 20
684.0947101512855
 30
0.0
 41
35.0
 42
35.0
 43
35.0
 50
90.0
  0
INSERT
  5
1EAD
330
1EA7
100
AcDbEntity
  8
実形
 62
     0
370
    18
100
AcDbBlockReference
  2
_DotSmall
 10
2715.480008308167
 20
403.2947101512855
 30
0.0
 41
35.0
 42
35.0
 43
35.0
 50
270.0
  0
MTEXT
  5
1EAE
330
1EA7
100
AcDbEntity
  8
実形
 62
     0
100
AcDbMText
 10
2696.730008308167
 20
543.694710151286
 30
0.0
 40
25.0
 41
0.0
 71
     5
 72
     1
  1
18
 11
0.0000000000000001
 21
1.0
 31
0.0
 73
     1
 44
1.0
1001
ACAD
1000
MTEXTBEGIN
1070
    73
1070
     1
1070
    44
1040
1.0
1070
    74
1070
     0
1000
MTEXTEND
  0
POINT
  5
1EAF
330
1EA7
100
AcDbEntity
  8
Defpoints
 62
     0
100
AcDbPoint
 10
2582.25404811461
 20
684.0947101512855
 30
0.0
  0
POINT
  5
1EB0
330
1EA7
100
AcDbEntity
  8
Defpoints
 62
     0
100
AcDbPoint
 10
2582.25404811461
 20
403.2947101512855
 30
0.0
  0
POINT
  5
1EB1
330
1EA7
100
AcDbEntity
  8
Defpoints
 62
     0
100
AcDbPoint
 10
2715.480008308167
 20
403.2947101512855
 30
0.0
  0
ENDBLK
  5
1EB2
330
1EA7
100
AcDbEntity
  8
0
100
AcDbBlockEnd
  0
BLOCK
  5
1F0C
330
1EB4
100
AcDbEntity
  8
0
100
AcDbBlockBegin
  2
A$C5B666412
 70
     0
 10
0.0
 20
0.0
 30
0.0
  3
A$C5B666412
  1

  0
LINE
  5
1EB5
330
1EB4
100
AcDbEntity
  8
実形
100
AcDbLine
 10
-240.7661226349341
 20
-1339.905289848714
 30
0.0
 11
-630.7661226349341
 21
-1339.905289848714
 31
0.0
  0
LINE
  5
1EB6
330
1EB4
100
AcDbEntity
  8
実形
100
AcDbLine
 10
-427.9661226349344
 20
-1438.705289848714
 30
0.0
 11
-708.7661226349337
 21
-1438.705289848714
 31
0.0
  0
ARC
  5
1EB7
330
1EB4
100
AcDbEntity
  8
実形
100
AcDbCircle
 10
-630.7661226349341
 20
-1417.905289848715
 30
0.0
 40
78.0
100
AcDbArc
 50
90.0
 51
180.0
  0
ARC
  5
1EB8
330
1EB4
100
AcDbEntity
  8
実形
100
AcDbCircle
 10
-240.7661226349341
 20
-1417.905289848715
 30
0.0
 40
78.0
100
AcDbArc
 50
0.0
 51
90.0
  0
LINE
  5
1EB9
330
1EB4
100
AcDbEntity
  8
実形
100
AcDbLine
 10
-162.7661226349341
 20
-1480.305289848714
 30
0.0
 11
-427.9661226349344
 21
-1480.305289848714
 31
0.0
  0
LINE
  5
1EBA
330
1EB4
100
AcDbEntity
  8
実形
100
AcDbLine
 10
-505.9661226349344
 20
-1480.305289848714
 30
0.0
 11
-630.7661226349341
 21
-1480.305289848714
 31
0.0
  0
LINE
  5
1EBB
330
1EB4
100
AcDbEntity
  8
実形
100
AcDbLine
 10
-459.1661226349343
 20
-1480.305289848714
 30
0.0
 11
-677.5661226349343
 21
-1480.305289848714
 31
0.0
  0
LINE
  5
1EBC
330
1EB4
100
AcDbEntity
  8
実形
100
AcDbLine
 10
-162.7661226349341
 20
-1620.705289848714
 30
0.0
 11
-397.8945050222551
 21
-1620.705289848714
 31
0.0
  0
LINE
  5
1EBD
330
1EB4
100
AcDbEntity
  8
実形
100
AcDbLine
 10
-505.9661226349344
 20
-1620.705289848714
 30
0.0
 11
-630.7661226349341
 21
-1620.705289848714
 31
0.0
  0
LINE
  5
1EBE
330
1EB4
100
AcDbEntity
  8
実形
100
AcDbLine
 10
-708.7661226349341
 20
-1417.905289848715
 30
0.0
 11
-708.7661226349337
 21
-1438.705289848714
 31
0.0
  0
LINE
  5
1EBF
330
1EB4
100
AcDbEntity
  8
実形
100
AcDbLine
 10
-693.1661226349342
 20
-1464.705289848715
 30
0.0
 11
-459.1661226349343
 21
-1464.705289848715
 31
0.0
  0
LINE
  5
1EC0
330
1EB4
100
AcDbEntity
  8
実形
100
AcDbLine
 10
-427.9661226349344
 20
-1438.705289848714
 30
0.0
 11
-427.9661226349344
 21
-1480.305289848714
 31
0.0
  0
LINE
  5
1EC1
330
1EB4
100
AcDbEntity
  8
実形
100
AcDbLine
 10
-505.9661226349344
 20
-1480.305289848714
 30
0.0
 11
-630.7661226349341
 21
-1480.305289848714
 31
0.0
  0
LINE
  5
1EC2
330
1EB4
100
AcDbEntity
  8
実形
100
AcDbLine
 10
-162.7661226349341
 20
-1417.905289848715
 30
0.0
 11
-162.7661226349341
 21
-1620.705289848714
 31
0.0
  0
LINE
  5
1EC3
330
1EB4
100
AcDbEntity
  8
実形
100
AcDbLine
 10
-630.7661226349341
 20
-1480.305289848714
 30
0.0
 11
-630.7661226349341
 21
-1620.705289848714
 31
0.0
  0
LINE
  5
1EC4
330
1EB4
100
AcDbEntity
  8
実形
100
AcDbLine
 10
-693.1661226349342
 20
-1464.705289848715
 30
0.0
 11
-693.1661226349338
 21
-1667.491302346645
 31
0.0
  0
LINE
  5
1EC5
330
1EB4
100
AcDbEntity
  8
実形
100
AcDbLine
 10
-677.5661226349343
 20
-1480.305289848714
 30
0.0
 11
-677.5661226349343
 21
-1667.491302346645
 31
0.0
  0
ARC
  5
1EC6
330
1EB4
100
AcDbEntity
  8
実形
100
AcDbCircle
 10
-466.9661226349344
 20
-1480.305289848714
 30
0.0
 40
39.0
100
AcDbArc
 50
180.0
 51
0.0
  0
TEXT
  5
1EC7
330
1EB4
100
AcDbEntity
  8
実形
100
AcDbText
 10
-939.9173030544497
 20
-1613.012368715756
 30
0.0
 40
35.0
  1
シンク厚　
 11
-939.9173030544497
 21
-1617.679035382422
 31
0.0
100
AcDbText
 73
     1
  0
DIMENSION
  5
1EC8
330
1EB4
100
AcDbEntity
  8
実形
100
AcDbDimension
  2
*D28
 10
-708.7661226349332
 20
-1556.899631449785
 30
0.0
 11
-729.1145484242202
 21
-1532.40848835718
 31
0.0
 12
-2784.0
 22
-2024.0
 32
0.0
 70
   128
  1
1
 71
     5
 42
15.59999999999991
  3
ISO-25
100
AcDbAlignedDimension
 13
-693.1661226349334
 23
-1464.705289848715
 33
0.0
 14
-708.7661226349332
 24
-1490.497013271588
 34
0.0
 50
180.0
100
AcDbRotatedDimension
1001
ACAD
1000
DSTYLE
1002
{
1070
   282
1070
     1
1070
   281
1070
     1
1070
    41
1040
5.0
1070
    42
1040
6.0
1070
   140
1040
25.0
1070
   147
1040
1.199999999999999
1070
   279
1070
     2
1070
   289
1070
     2
1070
   371
1070
    13
1070
   372
1070
    13
1002
}
  0
TEXT
  5
1EC9
330
1EB4
100
AcDbEntity
  8
実形
  6
HIDDEN2
100
AcDbText
 10
-688.2028011006322
 20
-1561.0691347928
 30
0.0
 40
10.14
  1
● 
 71
     2
100
AcDbText
  0
TEXT
  5
1ECA
330
1EB4
100
AcDbEntity
  8
実形
  6
HIDDEN2
100
AcDbText
 10
-704.4331615751725
 20
-1561.502923920387
 30
0.0
 40
10.14
  1
● 
 71
     2
100
AcDbText
  0
LINE
  5
1ECB
330
1EB4
100
AcDbEntity
  8
実形
100
AcDbLine
 10
-692.7548266588637
 20
-1556.577060155092
 30
0.0
 11
-708.4397336945685
 21
-1556.577060155092
 31
0.0
  0
LINE
  5
1ECC
330
1EB4
100
AcDbEntity
  8
実形
100
AcDbLine
 10
-397.8945050222551
 20
-1620.705289848714
 30
0.0
 11
-427.9661226349344
 21
-1620.705289848714
 31
0.0
  0
ARC
  5
1ECD
330
1EB4
100
AcDbEntity
  8
実形
100
AcDbCircle
 10
-466.9661226349344
 20
-1620.705289848714
 30
0.0
 40
39.0
100
AcDbArc
 50
0.0
 51
180.0
  0
LINE
  5
1ECE
330
1EB4
100
AcDbEntity
  8
実形
100
AcDbLine
 10
-505.9661226349344
 20
-1566.647803777192
 30
0.0
 11
-505.9661226349344
 21
-1584.549930710732
 31
0.0
  0
LINE
  5
1ECF
330
1EB4
100
AcDbEntity
  8
実形
100
AcDbLine
 10
-427.9661226349344
 20
-1566.647803777192
 30
0.0
 11
-427.9661226349344
 21
-1584.502297203294
 31
0.0
  0
TEXT
  5
1ED0
330
1EB4
100
AcDbEntity
  8
実形
100
AcDbText
 10
-924.5905651770026
 20
-1664.726288536656
 30
0.0
 40
28.0
  1
0.8mm
 11
-924.5905651770026
 21
-1668.45962186999
 31
0.0
100
AcDbText
 73
     1
  0
TEXT
  5
1ED1
330
1EB4
100
AcDbEntity
  8
実形
100
AcDbText
 10
-814.8280491454517
 20
-1299.2930686207
 30
0.0
 40
28.0
  1
5R
 11
-814.8280491454517
 21
-1303.026401954033
 31
0.0
100
AcDbText
 73
     1
  0
DIMENSION
  5
1ED2
330
1EB4
100
AcDbEntity
  8
実形
100
AcDbDimension
  2
*D29
 10
-459.1661226349343
 20
-1406.845143138404
 30
0.0
 11
-576.1661226349342
 21
-1388.095143138404
 31
0.0
 12
-2784.0
 22
-2024.0
 32
0.0
  1
15
 71
     5
 42
234.0
  3
ISO-25
100
AcDbAlignedDimension
 13
-693.1661226349342
 23
-1497.0926147042
 33
0.0
 14
-459.1661226349343
 24
-1497.0926147042
 34
0.0
100
AcDbRotatedDimension
1001
ACAD
1000
DSTYLE
1002
{
1070
   279
1070
     2
1070
   371
1070
    18
1070
   372
1070
    18
1002
}
  0
LEADER
  5
1ED3
330
1EB4
100
AcDbEntity
  8
実形
100
AcDbLeader
  3
ISO-25
 76
     2
 10
-703.2694131015441
 20
-1365.221873148924
 30
0.0
 10
-777.6418371308168
 20
-1311.519302038074
 30
0.0
1001
ACAD
1000
DSTYLE
1002
{
1070
   147
1040
6.25
1070
    77
1070
     0
1070
   279
1070
     2
1070
   371
1070
    18
1070
   372
1070
    18
1002
}
  0
LINE
  5
1ED4
330
1EB4
100
AcDbEntity
  8
実形
100
AcDbLine
 10
-459.1661226349343
 20
-1464.705289848715
 30
0.0
 11
-459.1661226349343
 21
-1480.305289848714
 31
0.0
  0
DIMENSION
  5
1ED5
330
1EB4
100
AcDbEntity
  8
実形
100
AcDbDimension
  2
*D30
 10
-555.2325180598382
 20
-1480.305289848714
 30
0.0
 11
-586.705103454562
 21
-1508.994777431489
 31
0.0
 12
-2784.0
 22
-2024.0
 32
0.0
 70
   128
  1
2.5
 71
     5
 42
38.99999999999995
  3
ISO-25
100
AcDbAlignedDimension
 13
-426.3854379811086
 23
-1519.305289848714
 33
0.0
 14
-502.7328085715963
 24
-1480.305289848714
 34
0.0
 50
90.0
100
AcDbRotatedDimension
1001
ACAD
1000
DSTYLE
1002
{
1070
   140
1040
23.0
1070
   279
1070
     2
1070
   371
1070
    18
1070
   372
1070
    18
1002
}
  0
DIMENSION
  5
1ED6
330
1EB4
100
AcDbEntity
  8
実形
100
AcDbDimension
  2
*D31
 10
-427.966122634934
 20
-1571.911778019782
 30
0.0
 11
-466.9661226349339
 21
-1553.161778019782
 31
0.0
 12
-2784.0
 22
-2024.0
 32
0.0
  1
5
 71
     5
 42
78.0
  3
ISO-25
100
AcDbAlignedDimension
 13
-505.966122634934
 23
-1510.985444070733
 33
0.0
 14
-427.966122634934
 24
-1510.985444070733
 34
0.0
100
AcDbRotatedDimension
1001
ACAD
1000
DSTYLE
1002
{
1070
   279
1070
     2
1070
   371
1070
    18
1070
   372
1070
    18
1002
}
  0
LINE
  5
1ED7
330
1EB4
100
AcDbEntity
  8
実形
100
AcDbLine
 10
-505.9661226349344
 20
-1571.911778019782
 30
0.0
 11
-505.9661226349344
 21
-1529.29205129618
 31
0.0
  0
LINE
  5
1ED8
330
1EB4
100
AcDbEntity
  8
実形
100
AcDbLine
 10
-427.9661226349344
 20
-1571.911778019782
 30
0.0
 11
-427.9661226349344
 21
-1530.489657908959
 31
0.0
  0
DIMENSION
  5
1ED9
330
1EB4
100
AcDbEntity
  8
実形
100
AcDbDimension
  2
*D32
 10
-553.2940691021472
 20
-1620.705289848714
 30
0.0
 11
-585.9135304060887
 21
-1592.341684765105
 31
0.0
 12
-2784.0
 22
-2024.0
 32
0.0
 70
   128
  1
2.5
 71
     5
 42
38.99999999999995
  3
ISO-25
100
AcDbAlignedDimension
 13
-452.6738124935072
 23
-1581.705289848714
 33
0.0
 14
-440.3873085922318
 24
-1620.705289848714
 34
0.0
 50
90.0
100
AcDbRotatedDimension
1001
ACAD
1000
DSTYLE
1002
{
1070
   140
1040
23.0
1070
   279
1070
     2
1070
   371
1070
    18
1070
   372
1070
    18
1002
}
  0
DIMENSION
  5
1EDA
330
1EB4
100
AcDbEntity
  8
実形
100
AcDbDimension
  2
*D33
 10
-427.966122634934
 20
-1290.041297082238
 30
0.0
 11
-568.366122634934
 21
-1271.291297082238
 31
0.0
 12
-2784.0
 22
-2024.0
 32
0.0
  1
18
 71
     5
 42
280.7999999999997
  3
ISO-25
100
AcDbAlignedDimension
 13
-708.7661226349337
 23
-1392.804368832661
 33
0.0
 14
-427.966122634934
 24
-1392.804368832661
 34
0.0
100
AcDbRotatedDimension
1001
ACAD
1000
DSTYLE
1002
{
1070
   279
1070
     2
1070
   371
1070
    18
1070
   372
1070
    18
1002
}
  0
DIMENSION
  5
1EDB
330
1EB4
100
AcDbEntity
  8
実形
100
AcDbDimension
  2
*D34
 10
-162.7661226349341
 20
-1290.041297082238
 30
0.0
 11
-295.3661226349341
 21
-1271.291297082238
 31
0.0
 12
-2784.0
 22
-2024.0
 32
0.0
  1
17
 71
     5
 42
265.1999999999998
  3
ISO-25
100
AcDbAlignedDimension
 13
-427.966122634934
 23
-1392.804368832662
 33
0.0
 14
-162.7661226349341
 24
-1392.804368832662
 34
0.0
100
AcDbRotatedDimension
1001
ACAD
1000
DSTYLE
1002
{
1070
   279
1070
     2
1070
   371
1070
    18
1070
   372
1070
    18
1002
}
  0
DIMENSION
  5
1EDC
330
1EB4
100
AcDbEntity
  8
実形
100
AcDbDimension
  2
*D35
 10
-162.7661226349341
 20
-1246.533358484386
 30
0.0
 11
-435.7661226349336
 21
-1227.783358484386
 31
0.0
 12
-2784.0
 22
-2024.0
 32
0.0
  1
35
 71
     5
 42
545.9999999999995
  3
ISO-25
100
AcDbAlignedDimension
 13
-708.7661226349337
 23
-1392.804368832662
 33
0.0
 14
-162.7661226349341
 24
-1392.804368832662
 34
0.0
100
AcDbRotatedDimension
1001
ACAD
1000
DSTYLE
1002
{
1070
   279
1070
     2
1070
   371
1070
    18
1070
   372
1070
    18
1002
}
  0
TEXT
  5
1EDD
330
1EB4
100
AcDbEntity
  8
実形
100
AcDbText
 10
-122.7654107599046
 20
-1310.349718856952
 30
0.0
 40
28.0
  1
5R
 11
-122.7654107599046
 21
-1314.083052190286
 31
0.0
100
AcDbText
 73
     1
  0
DIMENSION
  5
1EDE
330
1EB4
100
AcDbEntity
  8
実形
100
AcDbDimension
  2
*D36
 10
-630.7661226349341
 20
-1726.491422916813
 30
0.0
 11
-730.7967093002462
 21
-1691.086148176402
 31
0.0
 12
-2784.0
 22
-2024.0
 32
0.0
 70
   128
  1
3.2
 71
     5
 42
46.80000000000018
  3
ISO-25
100
AcDbAlignedDimension
 13
-677.5661226349343
 23
-1612.452531379714
 33
0.0
 14
-630.7661226349341
 24
-1612.452531379714
 34
0.0
100
AcDbRotatedDimension
1001
ACAD
1000
DSTYLE
1002
{
1070
   140
1040
25.0
1070
   279
1070
     2
1070
   371
1070
    18
1070
   372
1070
    18
1002
}
  0
DIMENSION
  5
1EDF
330
1EB4
100
AcDbEntity
  8
実形
100
AcDbDimension
  2
*D37
 10
-505.966122634934
 20
-1726.491422916813
 30
0.0
 11
-568.366122634934
 21
-1707.741422916813
 31
0.0
 12
-2784.0
 22
-2024.0
 32
0.0
  1
8
 71
     5
 42
124.8000000000001
  3
ISO-25
100
AcDbAlignedDimension
 13
-630.7661226349341
 23
-1612.452531379714
 33
0.0
 14
-505.966122634934
 24
-1612.452531379714
 34
0.0
100
AcDbRotatedDimension
1001
ACAD
1000
DSTYLE
1002
{
1070
   279
1070
     2
1070
   371
1070
    18
1070
   372
1070
    18
1002
}
  0
DIMENSION
  5
1EE0
330
1EB4
100
AcDbEntity
  8
実形
100
AcDbDimension
  2
*D38
 10
-427.966122634934
 20
-1726.491422916813
 30
0.0
 11
-466.9661226349339
 21
-1707.741422916813
 31
0.0
 12
-2784.0
 22
-2024.0
 32
0.0
  1
5
 71
     5
 42
78.0
  3
ISO-25
100
AcDbAlignedDimension
 13
-505.966122634934
 23
-1612.452531379714
 33
0.0
 14
-427.966122634934
 24
-1612.452531379714
 34
0.0
100
AcDbRotatedDimension
1001
ACAD
1000
DSTYLE
1002
{
1070
   279
1070
     2
1070
   371
1070
    18
1070
   372
1070
    18
1002
}
  0
DIMENSION
  5
1EE1
330
1EB4
100
AcDbEntity
  8
実形
100
AcDbDimension
  2
*D39
 10
-162.7661226349341
 20
-1726.491422916813
 30
0.0
 11
-295.3661226349341
 21
-1707.741422916813
 31
0.0
 12
-2784.0
 22
-2024.0
 32
0.0
  1
17
 71
     5
 42
265.1999999999998
  3
ISO-25
100
AcDbAlignedDimension
 13
-427.966122634934
 23
-1612.452531379714
 33
0.0
 14
-162.7661226349341
 24
-1612.452531379714
 34
0.0
100
AcDbRotatedDimension
1001
ACAD
1000
DSTYLE
1002
{
1070
   279
1070
     2
1070
   371
1070
    18
1070
   372
1070
    18
1002
}
  0
DIMENSION
  5
1EE2
330
1EB4
100
AcDbEntity
  8
実形
100
AcDbDimension
  2
*D40
 10
-628.9767237658439
 20
-1776.46116031709
 30
0.0
 11
-667.9767237658434
 21
-1757.71116031709
 31
0.0
 12
-2784.0
 22
-2024.0
 32
0.0
  1
5
 71
     5
 42
77.99999999999954
  3
ISO-25
100
AcDbAlignedDimension
 13
-706.9767237658433
 23
-1661.171831383938
 33
0.0
 14
-628.9767237658439
 24
-1661.171831383938
 34
0.0
100
AcDbRotatedDimension
1001
ACAD
1000
DSTYLE
1002
{
1070
   279
1070
     2
1070
   371
1070
    18
1070
   372
1070
    18
1002
}
  0
DIMENSION
  5
1EE3
330
1EB4
100
AcDbEntity
  8
実形
100
AcDbDimension
  2
*D41
 10
-160.9767237658438
 20
-1776.46116031709
 30
0.0
 11
-394.9767237658439
 21
-1757.71116031709
 31
0.0
 12
-2784.0
 22
-2024.0
 32
0.0
  1
30
 71
     5
 42
468.0
  3
ISO-25
100
AcDbAlignedDimension
 13
-628.9767237658439
 23
-1661.171831383938
 33
0.0
 14
-160.9767237658438
 24
-1661.171831383938
 34
0.0
100
AcDbRotatedDimension
1001
ACAD
1000
DSTYLE
1002
{
1070
   279
1070
     2
1070
   371
1070
    18
1070
   372
1070
    18
1002
}
  0
LINE
  5
1EE4
330
1EB4
100
AcDbEntity
  8
実形
100
AcDbLine
 10
-694.8558579722798
 20
-1609.121336419436
 30
0.0
 11
-778.803343379101
 21
-1615.011056067498
 31
0.0
  0
LINE
  5
1EE5
330
1EB4
100
AcDbEntity
  8
実形
100
AcDbLine
 10
-695.179399886937
 20
-1609.272595002853
 30
0.0
 11
-727.5141160896983
 21
-1623.024306435135
 31
0.0
  0
LINE
  5
1EE6
330
1EB4
100
AcDbEntity
  8
実形
100
AcDbLine
 10
-695.5276398829433
 20
-1608.375792742941
 30
0.0
 11
-727.8012293429829
 21
-1602.033702880253
 31
0.0
  0
TEXT
  5
1EE7
330
1EB4
100
AcDbEntity
  8
実形
370
    -2
100
AcDbText
 10
-840.0944167192346
 20
-1187.149373203958
 30
0.0
 40
38.0
  1
A-A　断面詳細図
100
AcDbText
  0
TEXT
  5
1EE8
330
1EB4
100
AcDbEntity
  8
実形
370
    -2
100
AcDbText
 10
-744.9583647918735
 20
-1185.199080556905
 30
0.0
 40
35.0
  1
´
100
AcDbText
  0
DIMENSION
  5
1EE9
330
1EB4
100
AcDbEntity
  8
実形
100
AcDbDimension
  2
*D42
 10
-813.967885724468
 20
-1438.705289848714
 30
0.0
 11
-832.7178857244682
 21
-1389.305289848714
 31
0.0
 12
-2784.0
 22
-2024.0
 32
0.0
  1
6.5
 71
     5
 42
98.80000000000007
  3
ISO-25
100
AcDbAlignedDimension
 13
-686.6710871108575
 23
-1339.905289848714
 33
0.0
 14
-686.6710871108575
 24
-1438.705289848714
 34
0.0
 50
90.0
100
AcDbRotatedDimension
1001
ACAD
1000
DSTYLE
1002
{
1070
   279
1070
     2
1070
   371
1070
    18
1070
   372
1070
    18
1002
}
  0
DIMENSION
  5
1EEA
330
1EB4
100
AcDbEntity
  8
実形
100
AcDbDimension
  2
*D43
 10
-867.9648132789825
 20
-1464.705289848715
 30
0.0
 11
-886.7148132789827
 21
-1402.305289848714
 31
0.0
 12
-2784.0
 22
-2024.0
 32
0.0
  1
8.2
 71
     5
 42
124.8000000000008
  3
ISO-25
100
AcDbAlignedDimension
 13
-686.6710871108575
 23
-1339.905289848714
 33
0.0
 14
-686.6710871108575
 24
-1464.705289848715
 34
0.0
 50
90.0
100
AcDbRotatedDimension
1001
ACAD
1000
DSTYLE
1002
{
1070
   279
1070
     2
1070
   371
1070
    18
1070
   372
1070
    18
1002
}
  0
DIMENSION
  5
1EEB
330
1EB4
100
AcDbEntity
  8
実形
100
AcDbDimension
  2
*D44
 10
-919.6104500277378
 20
-1339.905289848714
 30
0.0
 11
-938.3604500277382
 21
-1410.105289848714
 31
0.0
 12
-2784.0
 22
-2024.0
 32
0.0
  1
9
 71
     5
 42
140.4000000000001
  3
ISO-25
100
AcDbAlignedDimension
 13
-686.6710871108575
 23
-1480.305289848714
 33
0.0
 14
-686.6710871108575
 24
-1339.905289848714
 34
0.0
 50
90.0
100
AcDbRotatedDimension
1001
ACAD
1000
DSTYLE
1002
{
1070
   279
1070
     2
1070
   371
1070
    18
1070
   372
1070
    18
1002
}
  0
LINE
  5
1EEC
330
1EB4
100
AcDbEntity
  8
実形
100
AcDbLine
 10
-813.967885724468
 20
-1464.519197441848
 30
0.0
 11
-813.967885724468
 21
-1480.305289848714
 31
0.0
  0
TEXT
  5
1EED
330
1EB4
100
AcDbEntity
  8
実形
  6
HIDDEN2
100
AcDbText
 10
-809.240036069332
 20
-1469.841595313452
 30
0.0
 40
10.14
  1
● 
 71
     2
100
AcDbText
  0
TEXT
  5
1EEE
330
1EB4
100
AcDbEntity
  8
実形
  6
HIDDEN2
100
AcDbText
 10
-809.240036069332
 20
-1484.994939929134
 30
0.0
 40
10.14
  1
● 
 71
     2
100
AcDbText
  0
TEXT
  5
1EEF
330
1EB4
100
AcDbEntity
  8
実形
100
AcDbText
 10
-818.0954024430151
 20
-1540.221430478611
 30
0.0
 40
29.25
  1
0.8
 50
90.0
 11
-814.1954024430152
 21
-1540.221430478611
 31
0.0
100
AcDbText
 73
     1
  0
ARC
  5
1EF0
330
1EB4
100
AcDbEntity
  8
実形
100
AcDbCircle
 10
-688.2506081015208
 20
-1729.964743817448
 30
0.0
 40
37.21807911390647
100
AcDbArc
 50
10.88380498131659
 51
99.73672806232201
  0
ARC
  5
1EF1
330
1EB4
100
AcDbEntity
  8
実形
100
AcDbCircle
 10
-682.8676739356715
 20
-1737.677718375627
 30
0.0
 40
34.71092069179851
100
AcDbArc
 50
27.82370983299799
 51
64.2966109393361
  0
ARC
  5
1EF2
330
1EB4
100
AcDbEntity
  8
実形
100
AcDbCircle
 10
-688.2633457429492
 20
-1719.898706783062
 30
0.0
 40
36.96117099445193
100
AcDbArc
 50
355.5051092068156
 51
31.89192001425737
  0
DIMENSION
  5
1EF3
330
1EB4
100
AcDbEntity
  8
実形
100
AcDbDimension
  2
*D45
 10
-110.300087363817
 20
-1620.705289848714
 30
0.0
 11
-129.050087363817
 21
-1550.505289848714
 31
0.0
 12
-2784.0
 22
-2024.0
 32
0.0
  1
9
 71
     5
 42
140.4
  3
ISO-25
100
AcDbAlignedDimension
 13
-201.7459518853903
 23
-1480.305289848714
 33
0.0
 14
-201.7459518853903
 24
-1620.705289848714
 34
0.0
 50
90.0
100
AcDbRotatedDimension
1001
ACAD
1000
DSTYLE
1002
{
1070
   279
1070
     2
1070
   371
1070
    18
1070
   372
1070
    18
1002
}
  0
DIMENSION
  5
1EF4
330
1EB4
100
AcDbEntity
  8
実形
100
AcDbDimension
  2
*D46
 10
-110.300087363817
 20
-1480.305289848714
 30
0.0
 11
-129.050087363817
 21
-1410.105289848714
 31
0.0
 12
-2784.0
 22
-2024.0
 32
0.0
  1
9
 71
     5
 42
140.3999999999999
  3
ISO-25
100
AcDbAlignedDimension
 13
-201.7459518853903
 23
-1339.905289848714
 33
0.0
 14
-201.7459518853903
 24
-1480.305289848714
 34
0.0
 50
90.0
100
AcDbRotatedDimension
1001
ACAD
1000
DSTYLE
1002
{
1070
   279
1070
     2
1070
   371
1070
    18
1070
   372
1070
    18
1002
}
  0
DIMENSION
  5
1EF5
330
1EB4
100
AcDbEntity
  8
実形
100
AcDbDimension
  2
*D47
 10
-68.51999169183319
 20
-1620.705289848714
 30
0.0
 11
-87.26999169183319
 21
-1480.305289848714
 31
0.0
 12
-2784.0
 22
-2024.0
 32
0.0
  1
18
 71
     5
 42
280.8
  3
ISO-25
100
AcDbAlignedDimension
 13
-201.7459518853903
 23
-1339.905289848714
 33
0.0
 14
-201.7459518853903
 24
-1620.705289848714
 34
0.0
 50
90.0
100
AcDbRotatedDimension
1001
ACAD
1000
DSTYLE
1002
{
1070
   279
1070
     2
1070
   371
1070
    18
1070
   372
1070
    18
1002
}
  0
LEADER
  5
1EF6
330
1EB4
100
AcDbEntity
  8
実形
100
AcDbLeader
  3
ISO-25
 76
     2
 10
-185.0311129703641
 20
-1357.355489026768
 30
0.0
 10
-118.1774164867365
 20
-1316.079609374129
 30
0.0
1001
ACAD
1000
DSTYLE
1002
{
1070
   147
1040
6.25
1070
    77
1070
     0
1070
   279
1070
     2
1070
   371
1070
    18
1070
   372
1070
    18
1002
}
  0
LINE
  5
1EF7
330
1EB4
100
AcDbEntity
  8
補助
100
AcDbLine
 10
0.0
 20
-64.99999999999954
 30
0.0
 11
-764.6127134807173
 21
-64.99999999999932
 31
0.0
  0
LINE
  5
1EF8
330
1EB4
100
AcDbEntity
  8
補助
100
AcDbLine
 10
0.0
 20
-129.9999999999995
 30
0.0
 11
-764.6127134807177
 21
-129.9999999999995
 31
0.0
  0
LINE
  5
1EF9
330
1EB4
100
AcDbEntity
  8
補助
100
AcDbLine
 10
0.0
 20
-194.9999999999995
 30
0.0
 11
-764.6127134807177
 21
-194.9999999999995
 31
0.0
  0
LINE
  5
1EFA
330
1EB4
100
AcDbEntity
  8
補助
100
AcDbLine
 10
0.0
 20
-259.9999999999996
 30
0.0
 11
-764.6127134807177
 21
-259.9999999999996
 31
0.0
  0
LINE
  5
1EFB
330
1EB4
100
AcDbEntity
  8
補助
100
AcDbLine
 10
-581.4523465790735
 20
-259.9999999999996
 30
0.0
 11
-581.4523465790735
 21
0.0000000000006821
 31
0.0
  0
LINE
  5
1EFC
330
1EB4
100
AcDbEntity
  8
補助
100
AcDbLine
 10
-764.6127134807173
 20
-259.9999999999996
 30
0.0
 11
-764.6127134807173
 21
0.0000000000006821
 31
0.0
  0
TEXT
  5
1EFD
330
1EB4
100
AcDbEntity
  8
補助
100
AcDbText
 10
-733.7043011498792
 20
-47.67142857142789
 30
0.0
 40
30.0
  1
部品名
  7
明朝
 72
     4
 11
-667.8757297213078
 21
-32.49999999999932
 31
0.0
100
AcDbText
  0
TEXT
  5
1EFE
330
1EB4
100
AcDbEntity
  8
補助
100
AcDbText
 10
-156.3857142857143
 20
-47.92857142857075
 30
0.0
 40
30.0
  1
厚さ
  7
明朝
 72
     4
 11
-112.5
 21
-32.49999999999932
 31
0.0
100
AcDbText
  0
LINE
  5
1EFF
330
1EB4
100
AcDbEntity
  8
補助
100
AcDbLine
 10
-225.0000000000004
 20
-259.9999999999996
 30
0.0
 11
-225.0
 21
0.0000000000006821
 31
0.0
  0
TEXT
  5
1F00
330
1EB4
100
AcDbEntity
  8
補助
100
AcDbText
 10
-445.5091300800633
 20
-48.05202052184517
 30
0.0
 40
30.0
  1
材質
  7
明朝
 72
     4
 11
-401.6234157943491
 21
-32.8805919504166
 31
0.0
100
AcDbText
  0
TEXT
  5
1F01
330
1EB4
100
AcDbEntity
  8
実形
100
AcDbText
 10
-735.7721893422124
 20
-113.4428571428569
 30
0.0
 40
30.0
  1
ボウル
  7
明朝
 72
     4
 11
-669.943617913641
 21
-97.49999999999978
 31
0.0
100
AcDbText
  0
TEXT
  5
1F02
330
1EB4
100
AcDbEntity
  8
実形
100
AcDbText
 10
-189.2999999999991
 20
-112.1571428571426
 30
0.0
 40
30.0
  1
0.8ｍｍ
  7
明朝
 72
     4
 11
-112.4999999999991
 21
-97.49999999999978
 31
0.0
100
AcDbText
  0
TEXT
  5
1F03
330
1EB4
100
AcDbEntity
  8
実形
100
AcDbText
 10
-544.9259880349915
 20
-113.2714285714283
 30
0.0
 40
30.0
  1
SUS304（No.4）
  7
明朝
 72
     4
 11
-391.3259880349915
 21
-97.49999999999978
 31
0.0
100
AcDbText
  0
TEXT
  5
1F04
330
1EB4
100
AcDbEntity
  8
実形
100
AcDbText
 10
-713.8293321993552
 20
-177.7571428571429
 30
0.0
 40
30.0
  1
天板
  7
明朝
 72
     4
 11
-669.943617913641
 21
-162.5
 31
0.0
100
AcDbText
  0
TEXT
  5
1F05
330
1EB4
100
AcDbEntity
  8
実形
100
AcDbText
 10
-564.2652257487781
 20
-175.7142857142855
 30
0.0
 40
25.0
  1
アクリル人工大理石
  7
明朝
 72
     4
 11
-399.6937971773495
 21
-162.4999999999998
 31
0.0
100
AcDbText
  0
TEXT
  5
1F06
330
1EB4
100
AcDbEntity
  8
実形
100
AcDbText
 10
-178.3285714285705
 20
-177.1571428571426
 30
0.0
 40
30.0
  1
18ｍｍ
  7
明朝
 72
     4
 11
-112.4999999999991
 21
-162.4999999999998
 31
0.0
100
AcDbText
  0
TEXT
  5
1F07
330
1EB4
100
AcDbEntity
  8
実形
100
AcDbText
 10
-757.7150464850696
 20
-243.4428571428569
 30
0.0
 40
30.0
  1
ポケット
  7
明朝
 72
     4
 11
-669.943617913641
 21
-227.4999999999998
 31
0.0
100
AcDbText
  0
TEXT
  5
1F08
330
1EB4
100
AcDbEntity
  8
実形
100
AcDbText
 10
-491.122368605921
 20
-240.3571428571424
 30
0.0
 40
25.0
  1
樹脂（PP）
  7
明朝
 72
     4
 11
-399.6937971773495
 21
-227.4999999999995
 31
0.0
100
AcDbText
  0
TEXT
  5
1F09
330
1EB4
100
AcDbEntity
  8
実形
100
AcDbText
 10
-167.3571428571419
 20
-242.1571428571426
 30
0.0
 40
30.0
  1
3ｍｍ
  7
明朝
 72
     4
 11
-112.4999999999991
 21
-227.4999999999998
 31
0.0
100
AcDbText
  0
ENDBLK
  5
1F0D
330
1EB4
100
AcDbEntity
  8
0
100
AcDbBlockEnd
  0
BLOCK
  5
20B2
330
20AB
100
AcDbEntity
  8
0
100
AcDbBlockBegin
  2
*D49
 70
     1
 10
0.0
 20
0.0
 30
0.0
  3
*D49
  1

  0
LINE
  5
2198
330
20AB
100
AcDbEntity
  8
実形
 62
     0
370
    13
100
AcDbLine
 10
2090.833877365067
 20
553.2947101512847
 30
0.0
 11
2090.833877365067
 21
467.1003685502147
 31
0.0
  0
LINE
  5
2199
330
20AB
100
AcDbEntity
  8
実形
 62
     0
370
    13
100
AcDbLine
 10
2075.233877365067
 20
527.502986728412
 30
0.0
 11
2075.233877365067
 21
467.1003685502147
 31
0.0
  0
MTEXT
  5
219A
330
20AB
100
AcDbEntity
  8
実形
 62
     0
100
AcDbMText
 10
2054.88545157578
 20
491.5915116428197
 30
0.0
 40
25.0
 41
0.0
 71
     5
 72
     1
  1
1
 73
     1
 44
1.0
1001
ACAD
1000
MTEXTBEGIN
1070
    73
1070
     1
1070
    44
1040
1.0
1070
    74
1070
     0
1000
MTEXTEND
  0
POINT
  5
219B
330
20AB
100
AcDbEntity
  8
Defpoints
 62
     0
100
AcDbPoint
 10
2090.833877365067
 20
559.2947101512846
 30
0.0
  0
POINT
  5
219C
330
20AB
100
AcDbEntity
  8
Defpoints
 62
     0
100
AcDbPoint
 10
2075.233877365067
 20
533.5029867284119
 30
0.0
  0
POINT
  5
219D
330
20AB
100
AcDbEntity
  8
Defpoints
 62
     0
100
AcDbPoint
 10
2075.233877365067
 20
467.1003685502147
 30
0.0
  0
ENDBLK
  5
20B3
330
20AB
100
AcDbEntity
  8
0
100
AcDbBlockEnd
  0
BLOCK
  5
20BE
330
20B4
100
AcDbEntity
  8
0
100
AcDbBlockBegin
  2
*D50
 70
     1
 10
0.0
 20
0.0
 30
0.0
  3
*D50
  1

  0
LINE
  5
219E
330
20B4
100
AcDbEntity
  8
実形
 62
     0
370
    18
100
AcDbLine
 10
2090.833877365066
 20
591.9073852958003
 30
0.0
 11
2090.833877365066
 21
617.1548568615962
 31
0.0
  0
LINE
  5
219F
330
20B4
100
AcDbEntity
  8
実形
 62
     0
370
    18
100
AcDbLine
 10
2324.833877365066
 20
591.9073852958003
 30
0.0
 11
2324.833877365066
 21
617.1548568615962
 31
0.0
  0
LINE
  5
21A0
330
20B4
100
AcDbEntity
  8
実形
 62
     0
370
    18
100
AcDbLine
 10
2090.833877365066
 20
617.1548568615962
 30
0.0
 11
2324.833877365066
 21
617.1548568615962
 31
0.0
  0
INSERT
  5
21A1
330
20B4
100
AcDbEntity
  8
実形
 62
     0
370
    18
100
AcDbBlockReference
  2
_DotSmall
 10
2090.833877365066
 20
617.1548568615962
 30
0.0
 41
35.0
 42
35.0
 43
35.0
 50
180.0
  0
INSERT
  5
21A2
330
20B4
100
AcDbEntity
  8
実形
 62
     0
370
    18
100
AcDbBlockReference
  2
_DotSmall
 10
2324.833877365066
 20
617.1548568615962
 30
0.0
 41
35.0
 42
35.0
 43
35.0
  0
MTEXT
  5
21A3
330
20B4
100
AcDbEntity
  8
実形
 62
     0
100
AcDbMText
 10
2207.833877365066
 20
635.9048568615962
 30
0.0
 40
25.0
 41
0.0
 71
     5
 72
     1
  1
15
 73
     1
 44
1.0
1001
ACAD
1000
MTEXTBEGIN
1070
    73
1070
     1
1070
    44
1040
1.0
1070
    74
1070
     0
1000
MTEXTEND
  0
POINT
  5
21A4
330
20B4
100
AcDbEntity
  8
Defpoints
 62
     0
100
AcDbPoint
 10
2090.833877365066
 20
526.9073852958004
 30
0.0
  0
POINT
  5
21A5
330
20B4
100
AcDbEntity
  8
Defpoints
 62
     0
100
AcDbPoint
 10
2324.833877365066
 20
526.9073852958004
 30
0.0
  0
POINT
  5
21A6
330
20B4
100
AcDbEntity
  8
Defpoints
 62
     0
100
AcDbPoint
 10
2324.833877365066
 20
617.1548568615962
 30
0.0
  0
ENDBLK
  5
20BF
330
20B4
100
AcDbEntity
  8
0
100
AcDbBlockEnd
  0
BLOCK
  5
20CA
330
20C0
100
AcDbEntity
  8
0
100
AcDbBlockBegin
  2
*D51
 70
     1
 10
0.0
 20
0.0
 30
0.0
  3
*D51
  1

  0
LINE
  5
21A7
330
20C0
100
AcDbEntity
  8
実形
 62
     0
370
    18
100
AcDbLine
 10
2292.614562018892
 20
504.6947101512855
 30
0.0
 11
2228.767481940162
 21
504.6947101512855
 31
0.0
  0
LINE
  5
21A8
330
20C0
100
AcDbEntity
  8
実形
 62
     0
370
    18
100
AcDbLine
 10
2216.267191428404
 20
543.6947101512855
 30
0.0
 11
2228.767481940162
 21
543.6947101512855
 31
0.0
  0
LINE
  5
21A9
330
20C0
100
AcDbEntity
  8
実形
 62
     0
370
    18
100
AcDbLine
 10
2228.767481940162
 20
504.6947101512855
 30
0.0
 11
2228.767481940162
 21
543.6947101512855
 31
0.0
  0
MTEXT
  5
21AA
330
20C0
100
AcDbEntity
  8
実形
 62
     0
100
AcDbMText
 10
2197.294896545438
 20
515.0052225685112
 30
0.0
 40
23.0
 41
0.0
 71
     5
 72
     1
  1
2.5
 11
0.0000000000000001
 21
1.0
 31
0.0
 73
     1
 44
1.0
1001
ACAD
1000
MTEXTBEGIN
1070
    73
1070
     1
1070
    44
1040
1.0
1070
    74
1070
     0
1000
MTEXTEND
  0
INSERT
  5
21AB
330
20C0
100
AcDbEntity
  8
実形
 62
     0
370
    18
100
AcDbBlockReference
  2
_DotSmall
 10
2228.767481940162
 20
504.6947101512855
 30
0.0
 41
35.0
 42
35.0
 43
35.0
 50
270.0
  0
INSERT
  5
21AC
330
20C0
100
AcDbEntity
  8
実形
 62
     0
370
    18
100
AcDbBlockReference
  2
_DotSmall
 10
2228.767481940162
 20
543.6947101512855
 30
0.0
 41
35.0
 42
35.0
 43
35.0
 50
90.0
  0
POINT
  5
21AD
330
20C0
100
AcDbEntity
  8
Defpoints
 62
     0
100
AcDbPoint
 10
2357.614562018891
 20
504.6947101512855
 30
0.0
  0
POINT
  5
21AE
330
20C0
100
AcDbEntity
  8
Defpoints
 62
     0
100
AcDbPoint
 10
2281.267191428404
 20
543.6947101512855
 30
0.0
  0
POINT
  5
21AF
330
20C0
100
AcDbEntity
  8
Defpoints
 62
     0
100
AcDbPoint
 10
2228.767481940162
 20
543.6947101512855
 30
0.0
  0
ENDBLK
  5
20CB
330
20C0
100
AcDbEntity
  8
0
100
AcDbBlockEnd
  0
BLOCK
  5
20D6
330
20CC
100
AcDbEntity
  8
0
100
AcDbBlockBegin
  2
*D52
 70
     1
 10
0.0
 20
0.0
 30
0.0
  3
*D52
  1

  0
LINE
  5
21B0
330
20CC
100
AcDbEntity
  8
実形
 62
     0
370
    18
100
AcDbLine
 10
2278.033877365066
 20
448.0145559292668
 30
0.0
 11
2278.033877365066
 21
452.0882219802177
 31
0.0
  0
LINE
  5
21B1
330
20CC
100
AcDbEntity
  8
実形
 62
     0
370
    18
100
AcDbLine
 10
2356.033877365066
 20
448.0145559292668
 30
0.0
 11
2356.033877365066
 21
452.0882219802177
 31
0.0
  0
LINE
  5
21B2
330
20CC
100
AcDbEntity
  8
実形
 62
     0
370
    18
100
AcDbLine
 10
2278.033877365066
 20
452.0882219802177
 30
0.0
 11
2356.033877365066
 21
452.0882219802177
 31
0.0
  0
INSERT
  5
21B3
330
20CC
100
AcDbEntity
  8
実形
 62
     0
370
    18
100
AcDbBlockReference
  2
_DotSmall
 10
2278.033877365066
 20
452.0882219802177
 30
0.0
 41
35.0
 42
35.0
 43
35.0
 50
180.0
  0
INSERT
  5
21B4
330
20CC
100
AcDbEntity
  8
実形
 62
     0
370
    18
100
AcDbBlockReference
  2
_DotSmall
 10
2356.033877365066
 20
452.0882219802177
 30
0.0
 41
35.0
 42
35.0
 43
35.0
  0
MTEXT
  5
21B5
330
20CC
100
AcDbEntity
  8
実形
 62
     0
100
AcDbMText
 10
2317.033877365066
 20
470.8382219802177
 30
0.0
 40
25.0
 41
0.0
 71
     5
 72
     1
  1
5
 73
     1
 44
1.0
1001
ACAD
1000
MTEXTBEGIN
1070
    73
1070
     1
1070
    44
1040
1.0
1070
    74
1070
     0
1000
MTEXTEND
  0
POINT
  5
21B6
330
20CC
100
AcDbEntity
  8
Defpoints
 62
     0
100
AcDbPoint
 10
2278.033877365066
 20
513.0145559292668
 30
0.0
  0
POINT
  5
21B7
330
20CC
100
AcDbEntity
  8
Defpoints
 62
     0
100
AcDbPoint
 10
2356.033877365066
 20
513.0145559292668
 30
0.0
  0
POINT
  5
21B8
330
20CC
100
AcDbEntity
  8
Defpoints
 62
     0
100
AcDbPoint
 10
2356.033877365066
 20
452.0882219802177
 30
0.0
  0
ENDBLK
  5
20D7
330
20CC
100
AcDbEntity
  8
0
100
AcDbBlockEnd
  0
BLOCK
  5
20E2
330
20D8
100
AcDbEntity
  8
0
100
AcDbBlockBegin
  2
*D53
 70
     1
 10
0.0
 20
0.0
 30
0.0
  3
*D53
  1

  0
LINE
  5
21B9
330
20D8
100
AcDbEntity
  8
実形
 62
     0
370
    18
100
AcDbLine
 10
2266.326187506493
 20
442.2947101512853
 30
0.0
 11
2230.705930897853
 21
442.2947101512853
 31
0.0
  0
LINE
  5
21BA
330
20D8
100
AcDbEntity
  8
実形
 62
     0
370
    18
100
AcDbLine
 10
2278.612691407768
 20
403.2947101512855
 30
0.0
 11
2230.705930897853
 21
403.2947101512855
 31
0.0
  0
LINE
  5
21BB
330
20D8
100
AcDbEntity
  8
実形
 62
     0
370
    18
100
AcDbLine
 10
2230.705930897853
 20
442.2947101512853
 30
0.0
 11
2230.705930897853
 21
403.2947101512855
 31
0.0
  0
MTEXT
  5
21BC
330
20D8
100
AcDbEntity
  8
実形
 62
     0
100
AcDbMText
 10
2198.086469593912
 20
431.6583152348946
 30
0.0
 40
23.0
 41
0.0
 71
     5
 72
     1
  1
2.5
 11
0.0000000000000001
 21
1.0
 31
0.0
 73
     1
 44
1.0
1001
ACAD
1000
MTEXTBEGIN
1070
    73
1070
     1
1070
    44
1040
1.0
1070
    74
1070
     0
1000
MTEXTEND
  0
INSERT
  5
21BD
330
20D8
100
AcDbEntity
  8
実形
 62
     0
370
    18
100
AcDbBlockReference
  2
_DotSmall
 10
2230.705930897853
 20
442.2947101512853
 30
0.0
 41
35.0
 42
35.0
 43
35.0
 50
90.0
  0
INSERT
  5
21BE
330
20D8
100
AcDbEntity
  8
実形
 62
     0
370
    18
100
AcDbBlockReference
  2
_DotSmall
 10
2230.705930897853
 20
403.2947101512855
 30
0.0
 41
35.0
 42
35.0
 43
35.0
 50
270.0
  0
POINT
  5
21BF
330
20D8
100
AcDbEntity
  8
Defpoints
 62
     0
100
AcDbPoint
 10
2331.326187506493
 20
442.2947101512853
 30
0.0
  0
POINT
  5
21C0
330
20D8
100
AcDbEntity
  8
Defpoints
 62
     0
100
AcDbPoint
 10
2343.612691407768
 20
403.2947101512855
 30
0.0
  0
POINT
  5
21C1
330
20D8
100
AcDbEntity
  8
Defpoints
 62
     0
100
AcDbPoint
 10
2230.705930897853
 20
403.2947101512855
 30
0.0
  0
ENDBLK
  5
20E3
330
20D8
100
AcDbEntity
  8
0
100
AcDbBlockEnd
  0
BLOCK
  5
20EE
330
20E4
100
AcDbEntity
  8
0
100
AcDbBlockBegin
  2
*D54
 70
     1
 10
0.0
 20
0.0
 30
0.0
  3
*D54
  1

  0
LINE
  5
21C2
330
20E4
100
AcDbEntity
  8
実形
 62
     0
370
    18
100
AcDbLine
 10
2075.233877365066
 20
696.1956311673393
 30
0.0
 11
2075.233877365066
 21
733.9587029177619
 31
0.0
  0
LINE
  5
21C3
330
20E4
100
AcDbEntity
  8
実形
 62
     0
370
    18
100
AcDbLine
 10
2356.033877365066
 20
696.1956311673393
 30
0.0
 11
2356.033877365066
 21
733.9587029177619
 31
0.0
  0
LINE
  5
21C4
330
20E4
100
AcDbEntity
  8
実形
 62
     0
370
    18
100
AcDbLine
 10
2075.233877365066
 20
733.9587029177619
 30
0.0
 11
2356.033877365066
 21
733.9587029177619
 31
0.0
  0
INSERT
  5
21C5
330
20E4
100
AcDbEntity
  8
実形
 62
     0
370
    18
100
AcDbBlockReference
  2
_DotSmall
 10
2075.233877365066
 20
733.9587029177619
 30
0.0
 41
35.0
 42
35.0
 43
35.0
 50
180.0
  0
INSERT
  5
21C6
330
20E4
100
AcDbEntity
  8
実形
 62
     0
370
    18
100
AcDbBlockReference
  2
_DotSmall
 10
2356.033877365066
 20
733.9587029177619
 30
0.0
 41
35.0
 42
35.0
 43
35.0
  0
MTEXT
  5
21C7
330
20E4
100
AcDbEntity
  8
実形
 62
     0
100
AcDbMText
 10
2215.633877365066
 20
752.7087029177619
 30
0.0
 40
25.0
 41
0.0
 71
     5
 72
     1
  1
18
 73
     1
 44
1.0
1001
ACAD
1000
MTEXTBEGIN
1070
    73
1070
     1
1070
    44
1040
1.0
1070
    74
1070
     0
1000
MTEXTEND
  0
POINT
  5
21C8
330
20E4
100
AcDbEntity
  8
Defpoints
 62
     0
100
AcDbPoint
 10
2075.233877365066
 20
631.1956311673393
 30
0.0
  0
POINT
  5
21C9
330
20E4
100
AcDbEntity
  8
Defpoints
 62
     0
100
AcDbPoint
 10
2356.033877365066
 20
631.1956311673393
 30
0.0
  0
POINT
  5
21CA
330
20E4
100
AcDbEntity
  8
Defpoints
 62
     0
100
AcDbPoint
 10
2356.033877365066
 20
733.9587029177619
 30
0.0
  0
ENDBLK
  5
20EF
330
20E4
100
AcDbEntity
  8
0
100
AcDbBlockEnd
  0
BLOCK
  5
20FA
330
20F0
100
AcDbEntity
  8
0
100
AcDbBlockBegin
  2
*D55
 70
     1
 10
0.0
 20
0.0
 30
0.0
  3
*D55
  1

  0
LINE
  5
21CB
330
20F0
100
AcDbEntity
  8
実形
 62
     0
370
    18
100
AcDbLine
 10
2356.033877365066
 20
696.1956311673382
 30
0.0
 11
2356.033877365066
 21
733.9587029177619
 31
0.0
  0
LINE
  5
21CC
330
20F0
100
AcDbEntity
  8
実形
 62
     0
370
    18
100
AcDbLine
 10
2621.233877365066
 20
696.1956311673382
 30
0.0
 11
2621.233877365066
 21
733.9587029177619
 31
0.0
  0
LINE
  5
21CD
330
20F0
100
AcDbEntity
  8
実形
 62
     0
370
    18
100
AcDbLine
 10
2356.033877365066
 20
733.9587029177619
 30
0.0
 11
2621.233877365066
 21
733.9587029177619
 31
0.0
  0
INSERT
  5
21CE
330
20F0
100
AcDbEntity
  8
実形
 62
     0
370
    18
100
AcDbBlockReference
  2
_DotSmall
 10
2356.033877365066
 20
733.9587029177619
 30
0.0
 41
35.0
 42
35.0
 43
35.0
 50
180.0
  0
INSERT
  5
21CF
330
20F0
100
AcDbEntity
  8
実形
 62
     0
370
    18
100
AcDbBlockReference
  2
_DotSmall
 10
2621.233877365066
 20
733.9587029177619
 30
0.0
 41
35.0
 42
35.0
 43
35.0
  0
MTEXT
  5
21D0
330
20F0
100
AcDbEntity
  8
実形
 62
     0
100
AcDbMText
 10
2488.633877365066
 20
752.7087029177619
 30
0.0
 40
25.0
 41
0.0
 71
     5
 72
     1
  1
17
 73
     1
 44
1.0
1001
ACAD
1000
MTEXTBEGIN
1070
    73
1070
     1
1070
    44
1040
1.0
1070
    74
1070
     0
1000
MTEXTEND
  0
POINT
  5
21D1
330
20F0
100
AcDbEntity
  8
Defpoints
 62
     0
100
AcDbPoint
 10
2356.033877365066
 20
631.1956311673382
 30
0.0
  0
POINT
  5
21D2
330
20F0
100
AcDbEntity
  8
Defpoints
 62
     0
100
AcDbPoint
 10
2621.233877365066
 20
631.1956311673382
 30
0.0
  0
POINT
  5
21D3
330
20F0
100
AcDbEntity
  8
Defpoints
 62
     0
100
AcDbPoint
 10
2621.233877365066
 20
733.9587029177619
 30
0.0
  0
ENDBLK
  5
20FB
330
20F0
100
AcDbEntity
  8
0
100
AcDbBlockEnd
  0
BLOCK
  5
2106
330
20FC
100
AcDbEntity
  8
0
100
AcDbBlockBegin
  2
*D56
 70
     1
 10
0.0
 20
0.0
 30
0.0
  3
*D56
  1

  0
LINE
  5
21D4
330
20FC
100
AcDbEntity
  8
実形
 62
     0
370
    18
100
AcDbLine
 10
2075.233877365066
 20
696.1956311673382
 30
0.0
 11
2075.233877365066
 21
777.4666415156134
 31
0.0
  0
LINE
  5
21D5
330
20FC
100
AcDbEntity
  8
実形
 62
     0
370
    18
100
AcDbLine
 10
2621.233877365066
 20
696.1956311673382
 30
0.0
 11
2621.233877365066
 21
777.4666415156134
 31
0.0
  0
LINE
  5
21D6
330
20FC
100
AcDbEntity
  8
実形
 62
     0
370
    18
100
AcDbLine
 10
2075.233877365066
 20
777.4666415156134
 30
0.0
 11
2621.233877365066
 21
777.4666415156134
 31
0.0
  0
INSERT
  5
21D7
330
20FC
100
AcDbEntity
  8
実形
 62
     0
370
    18
100
AcDbBlockReference
  2
_DotSmall
 10
2075.233877365066
 20
777.4666415156134
 30
0.0
 41
35.0
 42
35.0
 43
35.0
 50
180.0
  0
INSERT
  5
21D8
330
20FC
100
AcDbEntity
  8
実形
 62
     0
370
    18
100
AcDbBlockReference
  2
_DotSmall
 10
2621.233877365066
 20
777.4666415156134
 30
0.0
 41
35.0
 42
35.0
 43
35.0
  0
MTEXT
  5
21D9
330
20FC
100
AcDbEntity
  8
実形
 62
     0
100
AcDbMText
 10
2348.233877365066
 20
796.2166415156134
 30
0.0
 40
25.0
 41
0.0
 71
     5
 72
     1
  1
35
 73
     1
 44
1.0
1001
ACAD
1000
MTEXTBEGIN
1070
    73
1070
     1
1070
    44
1040
1.0
1070
    74
1070
     0
1000
MTEXTEND
  0
POINT
  5
21DA
330
20FC
100
AcDbEntity
  8
Defpoints
 62
     0
100
AcDbPoint
 10
2075.233877365066
 20
631.1956311673382
 30
0.0
  0
POINT
  5
21DB
330
20FC
100
AcDbEntity
  8
Defpoints
 62
     0
100
AcDbPoint
 10
2621.233877365066
 20
631.1956311673382
 30
0.0
  0
POINT
  5
21DC
330
20FC
100
AcDbEntity
  8
Defpoints
 62
     0
100
AcDbPoint
 10
2621.233877365066
 20
777.4666415156134
 30
0.0
  0
ENDBLK
  5
2107
330
20FC
100
AcDbEntity
  8
0
100
AcDbBlockEnd
  0
BLOCK
  5
2112
330
2108
100
AcDbEntity
  8
0
100
AcDbBlockBegin
  2
*D57
 70
     1
 10
0.0
 20
0.0
 30
0.0
  3
*D57
  1

  0
LINE
  5
21DD
330
2108
100
AcDbEntity
  8
実形
 62
     0
370
    18
100
AcDbLine
 10
2106.433877365066
 20
346.5474686202858
 30
0.0
 11
2106.433877365066
 21
297.5085770831867
 31
0.0
  0
LINE
  5
21DE
330
2108
100
AcDbEntity
  8
実形
 62
     0
370
    18
100
AcDbLine
 10
2153.233877365066
 20
346.5474686202858
 30
0.0
 11
2153.233877365066
 21
297.5085770831867
 31
0.0
  0
LINE
  5
21DF
330
2108
100
AcDbEntity
  8
実形
 62
     0
370
    18
100
AcDbLine
 10
2106.433877365066
 20
297.5085770831867
 30
0.0
 11
2153.233877365066
 21
297.5085770831867
 31
0.0
  0
MTEXT
  5
21E0
330
2108
100
AcDbEntity
  8
実形
 62
     0
100
AcDbMText
 10
2053.203290699754
 20
332.9138518235977
 30
0.0
 40
25.0
 41
0.0
 71
     5
 72
     1
  1
3.2
 73
     1
 44
1.0
1001
ACAD
1000
MTEXTBEGIN
1070
    73
1070
     1
1070
    44
1040
1.0
1070
    74
1070
     0
1000
MTEXTEND
  0
INSERT
  5
21E1
330
2108
100
AcDbEntity
  8
実形
 62
     0
370
    18
100
AcDbBlockReference
  2
_DotSmall
 10
2106.433877365066
 20
297.5085770831867
 30
0.0
 41
35.0
 42
35.0
 43
35.0
 50
180.0
  0
INSERT
  5
21E2
330
2108
100
AcDbEntity
  8
実形
 62
     0
370
    18
100
AcDbBlockReference
  2
_DotSmall
 10
2153.233877365066
 20
297.5085770831867
 30
0.0
 41
35.0
 42
35.0
 43
35.0
  0
POINT
  5
21E3
330
2108
100
AcDbEntity
  8
Defpoints
 62
     0
100
AcDbPoint
 10
2106.433877365066
 20
411.5474686202857
 30
0.0
  0
POINT
  5
21E4
330
2108
100
AcDbEntity
  8
Defpoints
 62
     0
100
AcDbPoint
 10
2153.233877365066
 20
411.5474686202857
 30
0.0
  0
POINT
  5
21E5
330
2108
100
AcDbEntity
  8
Defpoints
 62
     0
100
AcDbPoint
 10
2153.233877365066
 20
297.5085770831867
 30
0.0
  0
ENDBLK
  5
2113
330
2108
100
AcDbEntity
  8
0
100
AcDbBlockEnd
  0
BLOCK
  5
211E
330
2114
100
AcDbEntity
  8
0
100
AcDbBlockBegin
  2
*D58
 70
     1
 10
0.0
 20
0.0
 30
0.0
  3
*D58
  1

  0
LINE
  5
21E6
330
2114
100
AcDbEntity
  8
実形
 62
     0
370
    18
100
AcDbLine
 10
2153.233877365066
 20
346.5474686202858
 30
0.0
 11
2153.233877365066
 21
297.5085770831867
 31
0.0
  0
LINE
  5
21E7
330
2114
100
AcDbEntity
  8
実形
 62
     0
370
    18
100
AcDbLine
 10
2278.033877365066
 20
346.5474686202858
 30
0.0
 11
2278.033877365066
 21
297.5085770831867
 31
0.0
  0
LINE
  5
21E8
330
2114
100
AcDbEntity
  8
実形
 62
     0
370
    18
100
AcDbLine
 10
2153.233877365066
 20
297.5085770831867
 30
0.0
 11
2278.033877365066
 21
297.5085770831867
 31
0.0
  0
INSERT
  5
21E9
330
2114
100
AcDbEntity
  8
実形
 62
     0
370
    18
100
AcDbBlockReference
  2
_DotSmall
 10
2153.233877365066
 20
297.5085770831867
 30
0.0
 41
35.0
 42
35.0
 43
35.0
 50
180.0
  0
INSERT
  5
21EA
330
2114
100
AcDbEntity
  8
実形
 62
     0
370
    18
100
AcDbBlockReference
  2
_DotSmall
 10
2278.033877365066
 20
297.5085770831867
 30
0.0
 41
35.0
 42
35.0
 43
35.0
  0
MTEXT
  5
21EB
330
2114
100
AcDbEntity
  8
実形
 62
     0
100
AcDbMText
 10
2215.633877365066
 20
316.2585770831867
 30
0.0
 40
25.0
 41
0.0
 71
     5
 72
     1
  1
8
 73
     1
 44
1.0
1001
ACAD
1000
MTEXTBEGIN
1070
    73
1070
     1
1070
    44
1040
1.0
1070
    74
1070
     0
1000
MTEXTEND
  0
POINT
  5
21EC
330
2114
100
AcDbEntity
  8
Defpoints
 62
     0
100
AcDbPoint
 10
2153.233877365066
 20
411.5474686202857
 30
0.0
  0
POINT
  5
21ED
330
2114
100
AcDbEntity
  8
Defpoints
 62
     0
100
AcDbPoint
 10
2278.033877365066
 20
411.5474686202857
 30
0.0
  0
POINT
  5
21EE
330
2114
100
AcDbEntity
  8
Defpoints
 62
     0
100
AcDbPoint
 10
2278.033877365066
 20
297.5085770831867
 30
0.0
  0
ENDBLK
  5
211F
330
2114
100
AcDbEntity
  8
0
100
AcDbBlockEnd
  0
BLOCK
  5
212A
330
2120
100
AcDbEntity
  8
0
100
AcDbBlockBegin
  2
*D59
 70
     1
 10
0.0
 20
0.0
 30
0.0
  3
*D59
  1

  0
LINE
  5
21EF
330
2120
100
AcDbEntity
  8
実形
 62
     0
370
    18
100
AcDbLine
 10
2278.033877365066
 20
346.5474686202858
 30
0.0
 11
2278.033877365066
 21
297.5085770831867
 31
0.0
  0
LINE
  5
21F0
330
2120
100
AcDbEntity
  8
実形
 62
     0
370
    18
100
AcDbLine
 10
2356.033877365066
 20
346.5474686202858
 30
0.0
 11
2356.033877365066
 21
297.5085770831867
 31
0.0
  0
LINE
  5
21F1
330
2120
100
AcDbEntity
  8
実形
 62
     0
370
    18
100
AcDbLine
 10
2278.033877365066
 20
297.5085770831867
 30
0.0
 11
2356.033877365066
 21
297.5085770831867
 31
0.0
  0
INSERT
  5
21F2
330
2120
100
AcDbEntity
  8
実形
 62
     0
370
    18
100
AcDbBlockReference
  2
_DotSmall
 10
2278.033877365066
 20
297.5085770831867
 30
0.0
 41
35.0
 42
35.0
 43
35.0
 50
180.0
  0
INSERT
  5
21F3
330
2120
100
AcDbEntity
  8
実形
 62
     0
370
    18
100
AcDbBlockReference
  2
_DotSmall
 10
2356.033877365066
 20
297.5085770831867
 30
0.0
 41
35.0
 42
35.0
 43
35.0
  0
MTEXT
  5
21F4
330
2120
100
AcDbEntity
  8
実形
 62
     0
100
AcDbMText
 10
2317.033877365066
 20
316.2585770831867
 30
0.0
 40
25.0
 41
0.0
 71
     5
 72
     1
  1
5
 73
     1
 44
1.0
1001
ACAD
1000
MTEXTBEGIN
1070
    73
1070
     1
1070
    44
1040
1.0
1070
    74
1070
     0
1000
MTEXTEND
  0
POINT
  5
21F5
330
2120
100
AcDbEntity
  8
Defpoints
 62
     0
100
AcDbPoint
 10
2278.033877365066
 20
411.5474686202857
 30
0.0
  0
POINT
  5
21F6
330
2120
100
AcDbEntity
  8
Defpoints
 62
     0
100
AcDbPoint
 10
2356.033877365066
 20
411.5474686202857
 30
0.0
  0
POINT
  5
21F7
330
2120
100
AcDbEntity
  8
Defpoints
 62
     0
100
AcDbPoint
 10
2356.033877365066
 20
297.5085770831867
 30
0.0
  0
ENDBLK
  5
212B
330
2120
100
AcDbEntity
  8
0
100
AcDbBlockEnd
  0
BLOCK
  5
2136
330
212C
100
AcDbEntity
  8
0
100
AcDbBlockBegin
  2
*D60
 70
     1
 10
0.0
 20
0.0
 30
0.0
  3
*D60
  1

  0
LINE
  5
21F8
330
212C
100
AcDbEntity
  8
実形
 62
     0
370
    18
100
AcDbLine
 10
2356.033877365066
 20
346.5474686202858
 30
0.0
 11
2356.033877365066
 21
297.5085770831867
 31
0.0
  0
LINE
  5
21F9
330
212C
100
AcDbEntity
  8
実形
 62
     0
370
    18
100
AcDbLine
 10
2621.233877365066
 20
346.5474686202858
 30
0.0
 11
2621.233877365066
 21
297.5085770831867
 31
0.0
  0
LINE
  5
21FA
330
212C
100
AcDbEntity
  8
実形
 62
     0
370
    18
100
AcDbLine
 10
2356.033877365066
 20
297.5085770831867
 30
0.0
 11
2621.233877365066
 21
297.5085770831867
 31
0.0
  0
INSERT
  5
21FB
330
212C
100
AcDbEntity
  8
実形
 62
     0
370
    18
100
AcDbBlockReference
  2
_DotSmall
 10
2356.033877365066
 20
297.5085770831867
 30
0.0
 41
35.0
 42
35.0
 43
35.0
 50
180.0
  0
INSERT
  5
21FC
330
212C
100
AcDbEntity
  8
実形
 62
     0
370
    18
100
AcDbBlockReference
  2
_DotSmall
 10
2621.233877365066
 20
297.5085770831867
 30
0.0
 41
35.0
 42
35.0
 43
35.0
  0
MTEXT
  5
21FD
330
212C
100
AcDbEntity
  8
実形
 62
     0
100
AcDbMText
 10
2488.633877365066
 20
316.2585770831867
 30
0.0
 40
25.0
 41
0.0
 71
     5
 72
     1
  1
17
 73
     1
 44
1.0
1001
ACAD
1000
MTEXTBEGIN
1070
    73
1070
     1
1070
    44
1040
1.0
1070
    74
1070
     0
1000
MTEXTEND
  0
POINT
  5
21FE
330
212C
100
AcDbEntity
  8
Defpoints
 62
     0
100
AcDbPoint
 10
2356.033877365066
 20
411.5474686202857
 30
0.0
  0
POINT
  5
21FF
330
212C
100
AcDbEntity
  8
Defpoints
 62
     0
100
AcDbPoint
 10
2621.233877365066
 20
411.5474686202857
 30
0.0
  0
POINT
  5
2200
330
212C
100
AcDbEntity
  8
Defpoints
 62
     0
100
AcDbPoint
 10
2621.233877365066
 20
297.5085770831867
 30
0.0
  0
ENDBLK
  5
2137
330
212C
100
AcDbEntity
  8
0
100
AcDbBlockEnd
  0
BLOCK
  5
2142
330
2138
100
AcDbEntity
  8
0
100
AcDbBlockBegin
  2
*D61
 70
     1
 10
0.0
 20
0.0
 30
0.0
  3
*D61
  1

  0
LINE
  5
2201
330
2138
100
AcDbEntity
  8
実形
 62
     0
370
    18
100
AcDbLine
 10
2077.023276234157
 20
297.8281686160613
 30
0.0
 11
2077.023276234157
 21
247.5388396829094
 31
0.0
  0
LINE
  5
2202
330
2138
100
AcDbEntity
  8
実形
 62
     0
370
    18
100
AcDbLine
 10
2155.023276234156
 20
297.8281686160613
 30
0.0
 11
2155.023276234156
 21
247.5388396829094
 31
0.0
  0
LINE
  5
2203
330
2138
100
AcDbEntity
  8
実形
 62
     0
370
    18
100
AcDbLine
 10
2077.023276234157
 20
247.5388396829094
 30
0.0
 11
2155.023276234156
 21
247.5388396829094
 31
0.0
  0
INSERT
  5
2204
330
2138
100
AcDbEntity
  8
実形
 62
     0
370
    18
100
AcDbBlockReference
  2
_DotSmall
 10
2077.023276234157
 20
247.5388396829094
 30
0.0
 41
35.0
 42
35.0
 43
35.0
 50
180.0
  0
INSERT
  5
2205
330
2138
100
AcDbEntity
  8
実形
 62
     0
370
    18
100
AcDbBlockReference
  2
_DotSmall
 10
2155.023276234156
 20
247.5388396829094
 30
0.0
 41
35.0
 42
35.0
 43
35.0
  0
MTEXT
  5
2206
330
2138
100
AcDbEntity
  8
実形
 62
     0
100
AcDbMText
 10
2116.023276234157
 20
266.2888396829094
 30
0.0
 40
25.0
 41
0.0
 71
     5
 72
     1
  1
5
 73
     1
 44
1.0
1001
ACAD
1000
MTEXTBEGIN
1070
    73
1070
     1
1070
    44
1040
1.0
1070
    74
1070
     0
1000
MTEXTEND
  0
POINT
  5
2207
330
2138
100
AcDbEntity
  8
Defpoints
 62
     0
100
AcDbPoint
 10
2077.023276234157
 20
362.8281686160613
 30
0.0
  0
POINT
  5
2208
330
2138
100
AcDbEntity
  8
Defpoints
 62
     0
100
AcDbPoint
 10
2155.023276234156
 20
362.8281686160613
 30
0.0
  0
POINT
  5
2209
330
2138
100
AcDbEntity
  8
Defpoints
 62
     0
100
AcDbPoint
 10
2155.023276234156
 20
247.5388396829094
 30
0.0
  0
ENDBLK
  5
2143
330
2138
100
AcDbEntity
  8
0
100
AcDbBlockEnd
  0
BLOCK
  5
214E
330
2144
100
AcDbEntity
  8
0
100
AcDbBlockBegin
  2
*D62
 70
     1
 10
0.0
 20
0.0
 30
0.0
  3
*D62
  1

  0
LINE
  5
220A
330
2144
100
AcDbEntity
  8
実形
 62
     0
370
    18
100
AcDbLine
 10
2155.023276234156
 20
297.8281686160613
 30
0.0
 11
2155.023276234156
 21
247.5388396829094
 31
0.0
  0
LINE
  5
220B
330
2144
100
AcDbEntity
  8
実形
 62
     0
370
    18
100
AcDbLine
 10
2623.023276234156
 20
297.8281686160613
 30
0.0
 11
2623.023276234156
 21
247.5388396829094
 31
0.0
  0
LINE
  5
220C
330
2144
100
AcDbEntity
  8
実形
 62
     0
370
    18
100
AcDbLine
 10
2155.023276234156
 20
247.5388396829094
 30
0.0
 11
2623.023276234156
 21
247.5388396829094
 31
0.0
  0
INSERT
  5
220D
330
2144
100
AcDbEntity
  8
実形
 62
     0
370
    18
100
AcDbBlockReference
  2
_DotSmall
 10
2155.023276234156
 20
247.5388396829094
 30
0.0
 41
35.0
 42
35.0
 43
35.0
 50
180.0
  0
INSERT
  5
220E
330
2144
100
AcDbEntity
  8
実形
 62
     0
370
    18
100
AcDbBlockReference
  2
_DotSmall
 10
2623.023276234156
 20
247.5388396829094
 30
0.0
 41
35.0
 42
35.0
 43
35.0
  0
MTEXT
  5
220F
330
2144
100
AcDbEntity
  8
実形
 62
     0
100
AcDbMText
 10
2389.023276234156
 20
266.2888396829094
 30
0.0
 40
25.0
 41
0.0
 71
     5
 72
     1
  1
30
 73
     1
 44
1.0
1001
ACAD
1000
MTEXTBEGIN
1070
    73
1070
     1
1070
    44
1040
1.0
1070
    74
1070
     0
1000
MTEXTEND
  0
POINT
  5
2210
330
2144
100
AcDbEntity
  8
Defpoints
 62
     0
100
AcDbPoint
 10
2155.023276234156
 20
362.8281686160613
 30
0.0
  0
POINT
  5
2211
330
2144
100
AcDbEntity
  8
Defpoints
 62
     0
100
AcDbPoint
 10
2623.023276234156
 20
362.8281686160613
 30
0.0
  0
POINT
  5
2212
330
2144
100
AcDbEntity
  8
Defpoints
 62
     0
100
AcDbPoint
 10
2623.023276234156
 20
247.5388396829094
 30
0.0
  0
ENDBLK
  5
214F
330
2144
100
AcDbEntity
  8
0
100
AcDbBlockEnd
  0
BLOCK
  5
215A
330
2150
100
AcDbEntity
  8
0
100
AcDbBlockBegin
  2
*D63
 70
     1
 10
0.0
 20
0.0
 30
0.0
  3
*D63
  1

  0
LINE
  5
2213
330
2150
100
AcDbEntity
  8
実形
 62
     0
370
    18
100
AcDbLine
 10
2032.328912889143
 20
684.0947101512855
 30
0.0
 11
1970.032114275532
 21
684.0947101512855
 31
0.0
  0
LINE
  5
2214
330
2150
100
AcDbEntity
  8
実形
 62
     0
370
    18
100
AcDbLine
 10
2032.328912889143
 20
585.2947101512854
 30
0.0
 11
1970.032114275532
 21
585.2947101512854
 31
0.0
  0
LINE
  5
2215
330
2150
100
AcDbEntity
  8
実形
 62
     0
370
    18
100
AcDbLine
 10
1970.032114275532
 20
684.0947101512855
 30
0.0
 11
1970.032114275532
 21
585.2947101512854
 31
0.0
  0
INSERT
  5
2216
330
2150
100
AcDbEntity
  8
実形
 62
     0
370
    18
100
AcDbBlockReference
  2
_DotSmall
 10
1970.032114275532
 20
684.0947101512855
 30
0.0
 41
35.0
 42
35.0
 43
35.0
 50
90.0
  0
INSERT
  5
2217
330
2150
100
AcDbEntity
  8
実形
 62
     0
370
    18
100
AcDbBlockReference
  2
_DotSmall
 10
1970.032114275532
 20
585.2947101512854
 30
0.0
 41
35.0
 42
35.0
 43
35.0
 50
270.0
  0
MTEXT
  5
2218
330
2150
100
AcDbEntity
  8
実形
 62
     0
100
AcDbMText
 10
1951.282114275532
 20
634.6947101512859
 30
0.0
 40
25.0
 41
0.0
 71
     5
 72
     1
  1
6.5
 11
0.0000000000000001
 21
1.0
 31
0.0
 73
     1
 44
1.0
1001
ACAD
1000
MTEXTBEGIN
1070
    73
1070
     1
1070
    44
1040
1.0
1070
    74
1070
     0
1000
MTEXTEND
  0
POINT
  5
2219
330
2150
100
AcDbEntity
  8
Defpoints
 62
     0
100
AcDbPoint
 10
2097.328912889143
 20
684.0947101512855
 30
0.0
  0
POINT
  5
221A
330
2150
100
AcDbEntity
  8
Defpoints
 62
     0
100
AcDbPoint
 10
2097.328912889143
 20
585.2947101512854
 30
0.0
  0
POINT
  5
221B
330
2150
100
AcDbEntity
  8
Defpoints
 62
     0
100
AcDbPoint
 10
1970.032114275532
 20
585.2947101512854
 30
0.0
  0
ENDBLK
  5
215B
330
2150
100
AcDbEntity
  8
0
100
AcDbBlockEnd
  0
BLOCK
  5
2166
330
215C
100
AcDbEntity
  8
0
100
AcDbBlockBegin
  2
*D64
 70
     1
 10
0.0
 20
0.0
 30
0.0
  3
*D64
  1

  0
LINE
  5
221C
330
215C
100
AcDbEntity
  8
実形
 62
     0
370
    18
100
AcDbLine
 10
2032.328912889143
 20
684.0947101512855
 30
0.0
 11
1916.035186721017
 21
684.0947101512855
 31
0.0
  0
LINE
  5
221D
330
215C
100
AcDbEntity
  8
実形
 62
     0
370
    18
100
AcDbLine
 10
2032.328912889143
 20
559.2947101512846
 30
0.0
 11
1916.035186721017
 21
559.2947101512846
 31
0.0
  0
LINE
  5
221E
330
215C
100
AcDbEntity
  8
実形
 62
     0
370
    18
100
AcDbLine
 10
1916.035186721017
 20
684.0947101512855
 30
0.0
 11
1916.035186721017
 21
559.2947101512846
 31
0.0
  0
INSERT
  5
221F
330
215C
100
AcDbEntity
  8
実形
 62
     0
370
    18
100
AcDbBlockReference
  2
_DotSmall
 10
1916.035186721017
 20
684.0947101512855
 30
0.0
 41
35.0
 42
35.0
 43
35.0
 50
90.0
  0
INSERT
  5
2220
330
215C
100
AcDbEntity
  8
実形
 62
     0
370
    18
100
AcDbBlockReference
  2
_DotSmall
 10
1916.035186721017
 20
559.2947101512846
 30
0.0
 41
35.0
 42
35.0
 43
35.0
 50
270.0
  0
MTEXT
  5
2221
330
215C
100
AcDbEntity
  8
実形
 62
     0
100
AcDbMText
 10
1897.285186721017
 20
621.6947101512854
 30
0.0
 40
25.0
 41
0.0
 71
     5
 72
     1
  1
8.2
 11
0.0000000000000001
 21
1.0
 31
0.0
 73
     1
 44
1.0
1001
ACAD
1000
MTEXTBEGIN
1070
    73
1070
     1
1070
    44
1040
1.0
1070
    74
1070
     0
1000
MTEXTEND
  0
POINT
  5
2222
330
215C
100
AcDbEntity
  8
Defpoints
 62
     0
100
AcDbPoint
 10
2097.328912889143
 20
684.0947101512855
 30
0.0
  0
POINT
  5
2223
330
215C
100
AcDbEntity
  8
Defpoints
 62
     0
100
AcDbPoint
 10
2097.328912889143
 20
559.2947101512846
 30
0.0
  0
POINT
  5
2224
330
215C
100
AcDbEntity
  8
Defpoints
 62
     0
100
AcDbPoint
 10
1916.035186721017
 20
559.2947101512846
 30
0.0
  0
ENDBLK
  5
2167
330
215C
100
AcDbEntity
  8
0
100
AcDbBlockEnd
  0
BLOCK
  5
2172
330
2168
100
AcDbEntity
  8
0
100
AcDbBlockBegin
  2
*D65
 70
     1
 10
0.0
 20
0.0
 30
0.0
  3
*D65
  1

  0
LINE
  5
2225
330
2168
100
AcDbEntity
  8
実形
 62
     0
370
    18
100
AcDbLine
 10
2032.328912889143
 20
543.6947101512854
 30
0.0
 11
1864.389549972262
 21
543.6947101512854
 31
0.0
  0
LINE
  5
2226
330
2168
100
AcDbEntity
  8
実形
 62
     0
370
    18
100
AcDbLine
 10
2032.328912889143
 20
684.0947101512855
 30
0.0
 11
1864.389549972262
 21
684.0947101512855
 31
0.0
  0
LINE
  5
2227
330
2168
100
AcDbEntity
  8
実形
 62
     0
370
    18
100
AcDbLine
 10
1864.389549972262
 20
543.6947101512854
 30
0.0
 11
1864.389549972262
 21
684.0947101512855
 31
0.0
  0
INSERT
  5
2228
330
2168
100
AcDbEntity
  8
実形
 62
     0
370
    18
100
AcDbBlockReference
  2
_DotSmall
 10
1864.389549972262
 20
543.6947101512854
 30
0.0
 41
35.0
 42
35.0
 43
35.0
 50
270.0
  0
INSERT
  5
2229
330
2168
100
AcDbEntity
  8
実形
 62
     0
370
    18
100
AcDbBlockReference
  2
_DotSmall
 10
1864.389549972262
 20
684.0947101512855
 30
0.0
 41
35.0
 42
35.0
 43
35.0
 50
90.0
  0
MTEXT
  5
222A
330
2168
100
AcDbEntity
  8
実形
 62
     0
100
AcDbMText
 10
1845.639549972261
 20
613.8947101512858
 30
0.0
 40
25.0
 41
0.0
 71
     5
 72
     1
  1
9
 11
0.0000000000000001
 21
1.0
 31
0.0
 73
     1
 44
1.0
1001
ACAD
1000
MTEXTBEGIN
1070
    73
1070
     1
1070
    44
1040
1.0
1070
    74
1070
     0
1000
MTEXTEND
  0
POINT
  5
222B
330
2168
100
AcDbEntity
  8
Defpoints
 62
     0
100
AcDbPoint
 10
2097.328912889143
 20
543.6947101512854
 30
0.0
  0
POINT
  5
222C
330
2168
100
AcDbEntity
  8
Defpoints
 62
     0
100
AcDbPoint
 10
2097.328912889143
 20
684.0947101512855
 30
0.0
  0
POINT
  5
222D
330
2168
100
AcDbEntity
  8
Defpoints
 62
     0
100
AcDbPoint
 10
1864.389549972262
 20
684.0947101512855
 30
0.0
  0
ENDBLK
  5
2173
330
2168
100
AcDbEntity
  8
0
100
AcDbBlockEnd
  0
BLOCK
  5
217E
330
2174
100
AcDbEntity
  8
0
100
AcDbBlockBegin
  2
*D66
 70
     1
 10
0.0
 20
0.0
 30
0.0
  3
*D66
  1

  0
LINE
  5
222E
330
2174
100
AcDbEntity
  8
実形
 62
     0
370
    18
100
AcDbLine
 10
2647.25404811461
 20
543.6947101512855
 30
0.0
 11
2673.699912636183
 21
543.6947101512855
 31
0.0
  0
LINE
  5
222F
330
2174
100
AcDbEntity
  8
実形
 62
     0
370
    18
100
AcDbLine
 10
2647.25404811461
 20
403.2947101512855
 30
0.0
 11
2673.699912636183
 21
403.2947101512855
 31
0.0
  0
LINE
  5
2230
330
2174
100
AcDbEntity
  8
実形
 62
     0
370
    18
100
AcDbLine
 10
2673.699912636183
 20
543.6947101512855
 30
0.0
 11
2673.699912636183
 21
403.2947101512855
 31
0.0
  0
INSERT
  5
2231
330
2174
100
AcDbEntity
  8
実形
 62
     0
370
    18
100
AcDbBlockReference
  2
_DotSmall
 10
2673.699912636183
 20
543.6947101512855
 30
0.0
 41
35.0
 42
35.0
 43
35.0
 50
90.0
  0
INSERT
  5
2232
330
2174
100
AcDbEntity
  8
実形
 62
     0
370
    18
100
AcDbBlockReference
  2
_DotSmall
 10
2673.699912636183
 20
403.2947101512855
 30
0.0
 41
35.0
 42
35.0
 43
35.0
 50
270.0
  0
MTEXT
  5
2233
330
2174
100
AcDbEntity
  8
実形
 62
     0
100
AcDbMText
 10
2654.949912636183
 20
473.4947101512859
 30
0.0
 40
25.0
 41
0.0
 71
     5
 72
     1
  1
9
 11
0.0000000000000001
 21
1.0
 31
0.0
 73
     1
 44
1.0
1001
ACAD
1000
MTEXTBEGIN
1070
    73
1070
     1
1070
    44
1040
1.0
1070
    74
1070
     0
1000
MTEXTEND
  0
POINT
  5
2234
330
2174
100
AcDbEntity
  8
Defpoints
 62
     0
100
AcDbPoint
 10
2582.25404811461
 20
543.6947101512855
 30
0.0
  0
POINT
  5
2235
330
2174
100
AcDbEntity
  8
Defpoints
 62
     0
100
AcDbPoint
 10
2582.25404811461
 20
403.2947101512855
 30
0.0
  0
POINT
  5
2236
330
2174
100
AcDbEntity
  8
Defpoints
 62
     0
100
AcDbPoint
 10
2673.699912636183
 20
403.2947101512855
 30
0.0
  0
ENDBLK
  5
217F
330
2174
100
AcDbEntity
  8
0
100
AcDbBlockEnd
  0
BLOCK
  5
218A
330
2180
100
AcDbEntity
  8
0
100
AcDbBlockBegin
  2
*D67
 70
     1
 10
0.0
 20
0.0
 30
0.0
  3
*D67
  1

  0
LINE
  5
2237
330
2180
100
AcDbEntity
  8
実形
 62
     0
370
    18
100
AcDbLine
 10
2647.25404811461
 20
684.0947101512855
 30
0.0
 11
2673.699912636183
 21
684.0947101512855
 31
0.0
  0
LINE
  5
2238
330
2180
100
AcDbEntity
  8
実形
 62
     0
370
    18
100
AcDbLine
 10
2647.25404811461
 20
543.6947101512855
 30
0.0
 11
2673.699912636183
 21
543.6947101512855
 31
0.0
  0
LINE
  5
2239
330
2180
100
AcDbEntity
  8
実形
 62
     0
370
    18
100
AcDbLine
 10
2673.699912636183
 20
684.0947101512855
 30
0.0
 11
2673.699912636183
 21
543.6947101512855
 31
0.0
  0
INSERT
  5
223A
330
2180
100
AcDbEntity
  8
実形
 62
     0
370
    18
100
AcDbBlockReference
  2
_DotSmall
 10
2673.699912636183
 20
684.0947101512855
 30
0.0
 41
35.0
 42
35.0
 43
35.0
 50
90.0
  0
INSERT
  5
223B
330
2180
100
AcDbEntity
  8
実形
 62
     0
370
    18
100
AcDbBlockReference
  2
_DotSmall
 10
2673.699912636183
 20
543.6947101512855
 30
0.0
 41
35.0
 42
35.0
 43
35.0
 50
270.0
  0
MTEXT
  5
223C
330
2180
100
AcDbEntity
  8
実形
 62
     0
100
AcDbMText
 10
2654.949912636183
 20
613.8947101512859
 30
0.0
 40
25.0
 41
0.0
 71
     5
 72
     1
  1
9
 11
0.0000000000000001
 21
1.0
 31
0.0
 73
     1
 44
1.0
1001
ACAD
1000
MTEXTBEGIN
1070
    73
1070
     1
1070
    44
1040
1.0
1070
    74
1070
     0
1000
MTEXTEND
  0
POINT
  5
223D
330
2180
100
AcDbEntity
  8
Defpoints
 62
     0
100
AcDbPoint
 10
2582.25404811461
 20
684.0947101512855
 30
0.0
  0
POINT
  5
223E
330
2180
100
AcDbEntity
  8
Defpoints
 62
     0
100
AcDbPoint
 10
2582.25404811461
 20
543.6947101512855
 30
0.0
  0
POINT
  5
223F
330
2180
100
AcDbEntity
  8
Defpoints
 62
     0
100
AcDbPoint
 10
2673.699912636183
 20
543.6947101512855
 30
0.0
  0
ENDBLK
  5
218B
330
2180
100
AcDbEntity
  8
0
100
AcDbBlockEnd
  0
BLOCK
  5
2196
330
218C
100
AcDbEntity
  8
0
100
AcDbBlockBegin
  2
*D68
 70
     1
 10
0.0
 20
0.0
 30
0.0
  3
*D68
  1

  0
LINE
  5
2240
330
218C
100
AcDbEntity
  8
実形
 62
     0
370
    18
100
AcDbLine
 10
2647.25404811461
 20
684.0947101512855
 30
0.0
 11
2715.480008308167
 21
684.0947101512855
 31
0.0
  0
LINE
  5
2241
330
218C
100
AcDbEntity
  8
実形
 62
     0
370
    18
100
AcDbLine
 10
2647.25404811461
 20
403.2947101512855
 30
0.0
 11
2715.480008308167
 21
403.2947101512855
 31
0.0
  0
LINE
  5
2242
330
218C
100
AcDbEntity
  8
実形
 62
     0
370
    18
100
AcDbLine
 10
2715.480008308167
 20
684.0947101512855
 30
0.0
 11
2715.480008308167
 21
403.2947101512855
 31
0.0
  0
INSERT
  5
2243
330
218C
100
AcDbEntity
  8
実形
 62
     0
370
    18
100
AcDbBlockReference
  2
_DotSmall
 10
2715.480008308167
 20
684.0947101512855
 30
0.0
 41
35.0
 42
35.0
 43
35.0
 50
90.0
  0
INSERT
  5
2244
330
218C
100
AcDbEntity
  8
実形
 62
     0
370
    18
100
AcDbBlockReference
  2
_DotSmall
 10
2715.480008308167
 20
403.2947101512855
 30
0.0
 41
35.0
 42
35.0
 43
35.0
 50
270.0
  0
MTEXT
  5
2245
330
218C
100
AcDbEntity
  8
実形
 62
     0
100
AcDbMText
 10
2696.730008308167
 20
543.694710151286
 30
0.0
 40
25.0
 41
0.0
 71
     5
 72
     1
  1
18
 11
0.0000000000000001
 21
1.0
 31
0.0
 73
     1
 44
1.0
1001
ACAD
1000
MTEXTBEGIN
1070
    73
1070
     1
1070
    44
1040
1.0
1070
    74
1070
     0
1000
MTEXTEND
  0
POINT
  5
2246
330
218C
100
AcDbEntity
  8
Defpoints
 62
     0
100
AcDbPoint
 10
2582.25404811461
 20
684.0947101512855
 30
0.0
  0
POINT
  5
2247
330
218C
100
AcDbEntity
  8
Defpoints
 62
     0
100
AcDbPoint
 10
2582.25404811461
 20
403.2947101512855
 30
0.0
  0
POINT
  5
2248
330
218C
100
AcDbEntity
  8
Defpoints
 62
     0
100
AcDbPoint
 10
2715.480008308167
 20
403.2947101512855
 30
0.0
  0
ENDBLK
  5
2197
330
218C
100
AcDbEntity
  8
0
100
AcDbBlockEnd
  0
BLOCK
  5
22B7
330
22AD
100
AcDbEntity
  8
0
100
AcDbBlockBegin
  2
*D69
 70
     1
 10
0.0
 20
0.0
 30
0.0
  3
*D69
  1

  0
LINE
  5
2353
330
22AD
100
AcDbEntity
  8
実形
 62
     0
370
    18
100
AcDbLine
 10
388.8487994470236
 20
781.1986691217082
 30
0.0
 11
310.8490213383086
 21
781.1986691217082
 31
0.0
  0
LINE
  5
2354
330
22AD
100
AcDbEntity
  8
実形
 62
     0
370
    18
100
AcDbLine
 10
389.8275770881994
 20
763.1986691217082
 30
0.0
 11
310.8490213383086
 21
763.1986691217082
 31
0.0
  0
LINE
  5
2355
330
22AD
100
AcDbEntity
  8
実形
 62
     0
370
    18
100
AcDbLine
 10
310.8490213383086
 20
781.1986691217082
 30
0.0
 11
310.8490213383086
 21
763.1986691217082
 31
0.0
  0
MTEXT
  5
2356
330
22AD
100
AcDbEntity
  8
実形
 62
     0
100
AcDbMText
 10
230.646940670955
 20
832.7451484667673
 30
0.0
 40
25.0
 41
0.0
 71
     5
 72
     1
  1
18
 11
0.0000000000000001
 21
1.0
 31
0.0
 73
     1
 44
1.0
1001
ACAD
1000
MTEXTBEGIN
1070
    73
1070
     1
1070
    44
1040
1.0
1070
    74
1070
     0
1000
MTEXTEND
  0
INSERT
  5
2357
330
22AD
100
AcDbEntity
  8
実形
 62
     0
370
    18
100
AcDbBlockReference
  2
_DotSmall
 10
310.8490213383086
 20
781.1986691217082
 30
0.0
 41
35.0
 42
35.0
 43
35.0
 50
90.0
  0
INSERT
  5
2358
330
22AD
100
AcDbEntity
  8
実形
 62
     0
370
    18
100
AcDbBlockReference
  2
_DotSmall
 10
310.8490213383086
 20
763.1986691217082
 30
0.0
 41
35.0
 42
35.0
 43
35.0
 50
270.0
  0
POINT
  5
2359
330
22AD
100
AcDbEntity
  8
Defpoints
 62
     0
100
AcDbPoint
 10
453.8487994470236
 20
781.1986691217082
 30
0.0
  0
POINT
  5
235A
330
22AD
100
AcDbEntity
  8
Defpoints
 62
     0
100
AcDbPoint
 10
454.8275770881994
 20
763.1986691217082
 30
0.0
  0
POINT
  5
235B
330
22AD
100
AcDbEntity
  8
Defpoints
 62
     0
100
AcDbPoint
 10
310.8490213383086
 20
763.1986691217082
 30
0.0
  0
ENDBLK
  5
22B8
330
22AD
100
AcDbEntity
  8
0
100
AcDbBlockEnd
  0
BLOCK
  5
22C5
330
22B9
100
AcDbEntity
  8
0
100
AcDbBlockBegin
  2
*D70
 70
     1
 10
0.0
 20
0.0
 30
0.0
  3
*D70
  1

  0
LINE
  5
2348
330
22B9
100
AcDbEntity
  8
実形
 62
     0
370
    18
100
AcDbLine
 10
389.8275770881994
 20
763.1986691217082
 30
0.0
 11
310.8490213383086
 21
763.1986691217082
 31
0.0
  0
LINE
  5
2349
330
22B9
100
AcDbEntity
  8
実形
 62
     0
370
    18
100
AcDbLine
 10
389.8275770881994
 20
757.9986691217083
 30
0.0
 11
310.8490213383086
 21
757.9986691217083
 31
0.0
  0
LINE
  5
234A
330
22B9
100
AcDbEntity
  8
実形
 62
     0
370
    18
100
AcDbLine
 10
310.8490213383086
 20
763.1986691217082
 30
0.0
 11
310.8490213383086
 21
798.1986691217082
 31
0.0
  0
LINE
  5
234B
330
22B9
100
AcDbEntity
  8
実形
 62
     0
370
    18
100
AcDbLine
 10
310.8490213383086
 20
757.9986691217083
 30
0.0
 11
310.8490213383086
 21
722.9986691217082
 31
0.0
  0
MTEXT
  5
234C
330
22B9
100
AcDbEntity
  8
実形
 62
     0
100
AcDbMText
 10
233.4217910923346
 20
734.9383866657663
 30
0.0
 40
25.0
 41
0.0
 71
     5
 72
     1
  1
5.2
 11
0.0000000000000001
 21
1.0
 31
0.0
 73
     1
 44
1.0
1001
ACAD
1000
MTEXTBEGIN
1070
    73
1070
     1
1070
    44
1040
1.0
1070
    74
1070
     0
1000
MTEXTEND
  0
LINE
  5
234D
330
22B9
100
AcDbEntity
  8
実形
 62
     0
370
    18
100
AcDbLine
 10
310.8490213383086
 20
763.1986691217082
 30
0.0
 11
310.8490213383086
 21
757.9986691217083
 31
0.0
  0
INSERT
  5
234E
330
22B9
100
AcDbEntity
  8
実形
 62
     0
370
    18
100
AcDbBlockReference
  2
_DotSmall
 10
310.8490213383086
 20
763.1986691217082
 30
0.0
 41
35.0
 42
35.0
 43
35.0
 50
270.0
  0
INSERT
  5
234F
330
22B9
100
AcDbEntity
  8
実形
 62
     0
370
    18
100
AcDbBlockReference
  2
_DotSmall
 10
310.8490213383086
 20
757.9986691217083
 30
0.0
 41
35.0
 42
35.0
 43
35.0
 50
90.0
  0
POINT
  5
2350
330
22B9
100
AcDbEntity
  8
Defpoints
 62
     0
100
AcDbPoint
 10
454.8275770881994
 20
763.1986691217082
 30
0.0
  0
POINT
  5
2351
330
22B9
100
AcDbEntity
  8
Defpoints
 62
     0
100
AcDbPoint
 10
454.8275770881994
 20
757.9986691217083
 30
0.0
  0
POINT
  5
2352
330
22B9
100
AcDbEntity
  8
Defpoints
 62
     0
100
AcDbPoint
 10
310.8490213383086
 20
757.9986691217083
 30
0.0
  0
ENDBLK
  5
22C6
330
22B9
100
AcDbEntity
  8
0
100
AcDbBlockEnd
  0
BLOCK
  5
22D1
330
22C7
100
AcDbEntity
  8
0
100
AcDbBlockBegin
  2
*D71
 70
     1
 10
0.0
 20
0.0
 30
0.0
  3
*D71
  1

  0
LINE
  5
2334
330
22C7
100
AcDbEntity
  8
実形
 62
     0
370
    18
100
AcDbLine
 10
389.8275770881994
 20
757.9986691217083
 30
0.0
 11
310.8490213383086
 21
757.9986691217083
 31
0.0
  0
LINE
  5
2335
330
22C7
100
AcDbEntity
  8
実形
 62
     0
370
    18
100
AcDbLine
 10
334.7610693134523
 20
572.9986691217082
 30
0.0
 11
310.8490213383086
 21
572.9986691217082
 31
0.0
  0
LINE
  5
2336
330
22C7
100
AcDbEntity
  8
実形
 62
     0
370
    18
100
AcDbLine
 10
310.8490213383086
 20
757.9986691217083
 30
0.0
 11
310.8490213383086
 21
572.9986691217082
 31
0.0
  0
MTEXT
  5
2337
330
22C7
100
AcDbEntity
  8
実形
 62
     0
100
AcDbMText
 10
284.9751949937783
 20
653.7614210059601
 30
0.0
 40
25.0
 41
0.0
 71
     5
 72
     1
  1
185
 11
0.0000000000000001
 21
1.0
 31
0.0
 73
     1
 44
1.0
1001
ACAD
1000
MTEXTBEGIN
1070
    73
1070
     1
1070
    44
1040
1.0
1070
    74
1070
     0
1000
MTEXTEND
  0
INSERT
  5
2338
330
22C7
100
AcDbEntity
  8
実形
 62
     0
370
    18
100
AcDbBlockReference
  2
_DotSmall
 10
310.8490213383086
 20
757.9986691217083
 30
0.0
 41
35.0
 42
35.0
 43
35.0
 50
90.0
  0
INSERT
  5
2339
330
22C7
100
AcDbEntity
  8
実形
 62
     0
370
    18
100
AcDbBlockReference
  2
_DotSmall
 10
310.8490213383086
 20
572.9986691217082
 30
0.0
 41
35.0
 42
35.0
 43
35.0
 50
270.0
  0
POINT
  5
233A
330
22C7
100
AcDbEntity
  8
Defpoints
 62
     0
100
AcDbPoint
 10
454.8275770881994
 20
757.9986691217083
 30
0.0
  0
POINT
  5
233B
330
22C7
100
AcDbEntity
  8
Defpoints
 62
     0
100
AcDbPoint
 10
399.7610693134522
 20
572.9986691217082
 30
0.0
  0
POINT
  5
233C
330
22C7
100
AcDbEntity
  8
Defpoints
 62
     0
100
AcDbPoint
 10
310.8490213383086
 20
572.9986691217082
 30
0.0
  0
ENDBLK
  5
22D2
330
22C7
100
AcDbEntity
  8
0
100
AcDbBlockEnd
  0
BLOCK
  5
22DD
330
22D3
100
AcDbEntity
  8
0
100
AcDbBlockBegin
  2
*D72
 70
     1
 10
0.0
 20
0.0
 30
0.0
  3
*D72
  1

  0
LINE
  5
232B
330
22D3
100
AcDbEntity
  8
実形
 62
     0
370
    18
100
AcDbLine
 10
388.8487994470236
 20
781.1986691217082
 30
0.0
 11
200.2271228876673
 21
781.1986691217083
 31
0.0
  0
LINE
  5
232C
330
22D3
100
AcDbEntity
  8
実形
 62
     0
370
    18
100
AcDbLine
 10
334.7610693134523
 20
572.9986691217082
 30
0.0
 11
200.2271228876673
 21
572.9986691217082
 31
0.0
  0
LINE
  5
232D
330
22D3
100
AcDbEntity
  8
実形
 62
     0
370
    18
100
AcDbLine
 10
200.2271228876673
 20
781.1986691217083
 30
0.0
 11
200.2271228876673
 21
572.9986691217082
 31
0.0
  0
INSERT
  5
232E
330
22D3
100
AcDbEntity
  8
実形
 62
     0
370
    18
100
AcDbBlockReference
  2
_DotSmall
 10
200.2271228876673
 20
781.1986691217083
 30
0.0
 41
35.0
 42
35.0
 43
35.0
 50
90.0
  0
INSERT
  5
232F
330
22D3
100
AcDbEntity
  8
実形
 62
     0
370
    18
100
AcDbBlockReference
  2
_DotSmall
 10
200.2271228876673
 20
572.9986691217082
 30
0.0
 41
35.0
 42
35.0
 43
35.0
 50
270.0
  0
MTEXT
  5
2330
330
22D3
100
AcDbEntity
  8
実形
 62
     0
100
AcDbMText
 10
181.4771228876672
 20
677.0986691217083
 30
0.0
 40
25.0
 41
0.0
 71
     5
 72
     1
  1
208.2
 11
0.0000000000000001
 21
1.0
 31
0.0
 73
     1
 44
1.0
1001
ACAD
1000
MTEXTBEGIN
1070
    73
1070
     1
1070
    44
1040
1.0
1070
    74
1070
     0
1000
MTEXTEND
  0
POINT
  5
2331
330
22D3
100
AcDbEntity
  8
Defpoints
 62
     0
100
AcDbPoint
 10
453.8487994470236
 20
781.1986691217082
 30
0.0
  0
POINT
  5
2332
330
22D3
100
AcDbEntity
  8
Defpoints
 62
     0
100
AcDbPoint
 10
399.7610693134522
 20
572.9986691217082
 30
0.0
  0
POINT
  5
2333
330
22D3
100
AcDbEntity
  8
Defpoints
 62
     0
100
AcDbPoint
 10
200.2271228876673
 20
572.9986691217082
 30
0.0
  0
ENDBLK
  5
22DE
330
22D3
100
AcDbEntity
  8
0
100
AcDbBlockEnd
  0
BLOCK
  5
22EB
330
22DF
100
AcDbEntity
  8
0
100
AcDbBlockBegin
  2
*D73
 70
     1
 10
0.0
 20
0.0
 30
0.0
  3
*D73
  1

  0
LINE
  5
233D
330
22DF
100
AcDbEntity
  8
実形
 62
     0
370
    18
100
AcDbLine
 10
390.9209748974319
 20
562.9986691217082
 30
0.0
 11
310.8490213383086
 21
562.9986691217082
 31
0.0
  0
LINE
  5
233E
330
22DF
100
AcDbEntity
  8
実形
 62
     0
370
    18
100
AcDbLine
 10
390.920974897432
 20
572.9986691217082
 30
0.0
 11
310.8490213383086
 21
572.9986691217082
 31
0.0
  0
LINE
  5
233F
330
22DF
100
AcDbEntity
  8
実形
 62
     0
370
    18
100
AcDbLine
 10
310.8490213383086
 20
562.9986691217082
 30
0.0
 11
310.8490213383086
 21
527.9986691217081
 31
0.0
  0
LINE
  5
2340
330
22DF
100
AcDbEntity
  8
実形
 62
     0
370
    18
100
AcDbLine
 10
310.8490213383086
 20
572.9986691217082
 30
0.0
 11
310.8490213383086
 21
607.9986691217081
 31
0.0
  0
MTEXT
  5
2341
330
22DF
100
AcDbEntity
  8
実形
 62
     0
100
AcDbMText
 10
275.8490213383085
 20
546.6608854574714
 30
0.0
 40
25.0
 41
0.0
 71
     5
 72
     1
  1
7
 11
0.0000000000000001
 21
1.0
 31
0.0
 73
     1
 44
1.0
1001
ACAD
1000
MTEXTBEGIN
1070
    73
1070
     1
1070
    44
1040
1.0
1070
    74
1070
     0
1000
MTEXTEND
  0
LINE
  5
2342
330
22DF
100
AcDbEntity
  8
実形
 62
     0
370
    18
100
AcDbLine
 10
310.8490213383086
 20
562.9986691217082
 30
0.0
 11
310.8490213383086
 21
572.9986691217082
 31
0.0
  0
INSERT
  5
2343
330
22DF
100
AcDbEntity
  8
実形
 62
     0
370
    18
100
AcDbBlockReference
  2
_DotSmall
 10
310.8490213383086
 20
562.9986691217082
 30
0.0
 41
35.0
 42
35.0
 43
35.0
 50
90.0
  0
INSERT
  5
2344
330
22DF
100
AcDbEntity
  8
実形
 62
     0
370
    18
100
AcDbBlockReference
  2
_DotSmall
 10
310.8490213383086
 20
572.9986691217082
 30
0.0
 41
35.0
 42
35.0
 43
35.0
 50
270.0
  0
POINT
  5
2345
330
22DF
100
AcDbEntity
  8
Defpoints
 62
     0
100
AcDbPoint
 10
455.9209748974319
 20
562.9986691217082
 30
0.0
  0
POINT
  5
2346
330
22DF
100
AcDbEntity
  8
Defpoints
 62
     0
100
AcDbPoint
 10
455.9209748974319
 20
572.9986691217082
 30
0.0
  0
POINT
  5
2347
330
22DF
100
AcDbEntity
  8
Defpoints
 62
     0
100
AcDbPoint
 10
310.8490213383086
 20
572.9986691217082
 30
0.0
  0
ENDBLK
  5
22EC
330
22DF
100
AcDbEntity
  8
0
100
AcDbBlockEnd
  0
BLOCK
  5
249D
330
2493
100
AcDbEntity
  8
0
100
AcDbBlockBegin
  2
*D74
 70
     1
 10
0.0
 20
0.0
 30
0.0
  3
*D74
  1

  0
LINE
  5
24ED
330
2493
100
AcDbEntity
  8
寸法
 62
     0
370
    15
100
AcDbLine
 10
1967.049268087123
 20
1446.8522772966
 30
0.0
 11
2013.621112758511
 21
1446.8522772966
 31
0.0
  0
LINE
  5
24EE
330
2493
100
AcDbEntity
  8
寸法
 62
     0
370
    15
100
AcDbLine
 10
1967.049268087123
 20
1287.8522772966
 30
0.0
 11
2013.621112758511
 21
1287.8522772966
 31
0.0
  0
LINE
  5
24EF
330
2493
100
AcDbEntity
  8
寸法
 62
     0
370
    15
100
AcDbLine
 10
2013.621112758511
 20
1446.8522772966
 30
0.0
 11
2013.621112758511
 21
1287.8522772966
 31
0.0
  0
INSERT
  5
24F0
330
2493
100
AcDbEntity
  8
寸法
 62
     0
370
    15
100
AcDbBlockReference
  2
_DotSmall
 10
2013.621112758511
 20
1446.8522772966
 30
0.0
 41
35.0
 42
35.0
 43
35.0
 50
90.0
  0
INSERT
  5
24F1
330
2493
100
AcDbEntity
  8
寸法
 62
     0
370
    15
100
AcDbBlockReference
  2
_DotSmall
 10
2013.621112758511
 20
1287.8522772966
 30
0.0
 41
35.0
 42
35.0
 43
35.0
 50
270.0
  0
MTEXT
  5
24F2
330
2493
100
AcDbEntity
  8
寸法
 62
     0
100
AcDbMText
 10
1994.87111275851
 20
1366.560269253726
 30
0.0
 40
25.0
 41
0.0
 71
     5
 72
     1
  1
158%%C
 11
0.0000000000000001
 21
1.0
 31
0.0
 73
     1
 44
1.0
1001
ACAD
1000
MTEXTBEGIN
1070
    73
1070
     1
1070
    44
1040
1.0
1070
    74
1070
     0
1000
MTEXTEND
  0
POINT
  5
24F3
330
2493
100
AcDbEntity
  8
Defpoints
 62
     0
100
AcDbPoint
 10
1902.049268087123
 20
1446.8522772966
 30
0.0
  0
POINT
  5
24F4
330
2493
100
AcDbEntity
  8
Defpoints
 62
     0
100
AcDbPoint
 10
1902.049268087123
 20
1287.8522772966
 30
0.0
  0
POINT
  5
24F5
330
2493
100
AcDbEntity
  8
Defpoints
 62
     0
100
AcDbPoint
 10
2013.621112758511
 20
1287.8522772966
 30
0.0
  0
ENDBLK
  5
249E
330
2493
100
AcDbEntity
  8
0
100
AcDbBlockEnd
  0
BLOCK
  5
24A9
330
249F
100
AcDbEntity
  8
0
100
AcDbBlockBegin
  2
*D75
 70
     1
 10
0.0
 20
0.0
 30
0.0
  3
*D75
  1

  0
LINE
  5
263E
330
249F
100
AcDbEntity
  8
寸法
 62
     0
370
    15
100
AcDbLine
 10
1884.288653910253
 20
1457.8522772966
 30
0.0
 11
1841.585529320978
 21
1457.8522772966
 31
0.0
  0
LINE
  5
263F
330
249F
100
AcDbEntity
  8
寸法
 62
     0
370
    15
100
AcDbLine
 10
1884.288653910253
 20
1276.8522772966
 30
0.0
 11
1841.585529320978
 21
1276.8522772966
 31
0.0
  0
LINE
  5
2640
330
249F
100
AcDbEntity
  8
寸法
 62
     0
370
    15
100
AcDbLine
 10
1841.585529320978
 20
1457.8522772966
 30
0.0
 11
1841.585529320978
 21
1276.8522772966
 31
0.0
  0
INSERT
  5
2641
330
249F
100
AcDbEntity
  8
寸法
 62
     0
370
    15
100
AcDbBlockReference
  2
_DotSmall
 10
1841.585529320978
 20
1457.8522772966
 30
0.0
 41
35.0
 42
35.0
 43
35.0
 50
90.0
  0
INSERT
  5
2642
330
249F
100
AcDbEntity
  8
寸法
 62
     0
370
    15
100
AcDbBlockReference
  2
_DotSmall
 10
1841.585529320978
 20
1276.8522772966
 30
0.0
 41
35.0
 42
35.0
 43
35.0
 50
270.0
  0
MTEXT
  5
2643
330
249F
100
AcDbEntity
  8
寸法
 62
     0
100
AcDbMText
 10
1822.835529320978
 20
1367.3522772966
 30
0.0
 40
25.0
 41
0.0
 71
     5
 72
     1
  1
181%%C
 11
0.0000000000000001
 21
1.0
 31
0.0
 73
     1
 44
1.0
1001
ACAD
1000
MTEXTBEGIN
1070
    73
1070
     1
1070
    44
1040
1.0
1070
    74
1070
     0
1000
MTEXTEND
  0
POINT
  5
2644
330
249F
100
AcDbEntity
  8
Defpoints
 62
     0
100
AcDbPoint
 10
1949.288653910254
 20
1457.8522772966
 30
0.0
  0
POINT
  5
2645
330
249F
100
AcDbEntity
  8
Defpoints
 62
     0
100
AcDbPoint
 10
1949.288653910254
 20
1276.8522772966
 30
0.0
  0
POINT
  5
2646
330
249F
100
AcDbEntity
  8
Defpoints
 62
     0
100
AcDbPoint
 10
1841.585529320978
 20
1276.8522772966
 30
0.0
  0
ENDBLK
  5
24AA
330
249F
100
AcDbEntity
  8
0
100
AcDbBlockEnd
  0
BLOCK
  5
24CA
330
24C2
100
AcDbEntity
  8
0
100
AcDbBlockBegin
  2
*D76
 70
     1
 10
0.0
 20
0.0
 30
0.0
  3
*D76
  1

  0
LINE
  5
2659
330
24C2
100
AcDbEntity
  8
実形
 62
     0
370
    15
100
AcDbLine
 10
1862.835607686075
 20
1568.9522772966
 30
0.0
 11
1862.835607686075
 21
1535.7522772966
 31
0.0
  0
MTEXT
  5
265A
330
24C2
100
AcDbEntity
  8
実形
 62
     0
100
AcDbMText
 10
1891.484041377148
 20
1552.3522772966
 30
0.0
 40
25.0
 41
0.0
 71
     5
 72
     1
  1
33
 11
0.0000000000000001
 21
1.0
 31
0.0
 73
     1
 44
1.0
1001
ACAD
1000
MTEXTBEGIN
1070
    73
1070
     1
1070
    44
1040
1.0
1070
    74
1070
     0
1000
MTEXTEND
  0
INSERT
  5
265B
330
24C2
100
AcDbEntity
  8
実形
 62
     0
370
    15
100
AcDbBlockReference
  2
_DotSmall
 10
1862.835607686075
 20
1568.9522772966
 30
0.0
 41
35.0
 42
35.0
 43
35.0
 50
90.0
  0
INSERT
  5
265C
330
24C2
100
AcDbEntity
  8
実形
 62
     0
370
    15
100
AcDbBlockReference
  2
_DotSmall
 10
1862.835607686075
 20
1535.7522772966
 30
0.0
 41
35.0
 42
35.0
 43
35.0
 50
270.0
  0
POINT
  5
265D
330
24C2
100
AcDbEntity
  8
Defpoints
 62
     0
100
AcDbPoint
 10
1821.049268087123
 20
1568.9522772966
 30
0.0
  0
POINT
  5
265E
330
24C2
100
AcDbEntity
  8
Defpoints
 62
     0
100
AcDbPoint
 10
1821.049268087123
 20
1535.7522772966
 30
0.0
  0
POINT
  5
265F
330
24C2
100
AcDbEntity
  8
Defpoints
 62
     0
100
AcDbPoint
 10
1862.835607686075
 20
1535.7522772966
 30
0.0
  0
ENDBLK
  5
24CB
330
24C2
100
AcDbEntity
  8
0
100
AcDbBlockEnd
  0
BLOCK
  5
2550
330
2546
100
AcDbEntity
  8
0
100
AcDbBlockBegin
  2
*D77
 70
     1
 10
0.0
 20
0.0
 30
0.0
  3
*D77
  1

  0
LINE
  5
2650
330
2546
100
AcDbEntity
  8
実形
 62
     0
370
    15
100
AcDbLine
 10
1686.849268087122
 20
1633.9522772966
 30
0.0
 11
1686.849268087122
 21
1668.261424301384
 31
0.0
  0
LINE
  5
2651
330
2546
100
AcDbEntity
  8
実形
 62
     0
370
    15
100
AcDbLine
 10
1801.049268087123
 20
1633.9522772966
 30
0.0
 11
1801.049268087123
 21
1668.261424301384
 31
0.0
  0
LINE
  5
2652
330
2546
100
AcDbEntity
  8
実形
 62
     0
370
    15
100
AcDbLine
 10
1686.849268087122
 20
1668.261424301384
 30
0.0
 11
1801.049268087123
 21
1668.261424301384
 31
0.0
  0
INSERT
  5
2653
330
2546
100
AcDbEntity
  8
実形
 62
     0
370
    15
100
AcDbBlockReference
  2
_DotSmall
 10
1686.849268087122
 20
1668.261424301384
 30
0.0
 41
35.0
 42
35.0
 43
35.0
 50
180.0
  0
INSERT
  5
2654
330
2546
100
AcDbEntity
  8
実形
 62
     0
370
    15
100
AcDbBlockReference
  2
_DotSmall
 10
1801.049268087123
 20
1668.261424301384
 30
0.0
 41
35.0
 42
35.0
 43
35.0
  0
MTEXT
  5
2655
330
2546
100
AcDbEntity
  8
実形
 62
     0
100
AcDbMText
 10
1743.949268087123
 20
1687.011424301384
 30
0.0
 40
25.0
 41
0.0
 71
     5
 72
     1
  1
114.2
 73
     1
 44
1.0
1001
ACAD
1000
MTEXTBEGIN
1070
    73
1070
     1
1070
    44
1040
1.0
1070
    74
1070
     0
1000
MTEXTEND
  0
POINT
  5
2656
330
2546
100
AcDbEntity
  8
Defpoints
 62
     0
100
AcDbPoint
 10
1686.849268087122
 20
1568.9522772966
 30
0.0
  0
POINT
  5
2657
330
2546
100
AcDbEntity
  8
Defpoints
 62
     0
100
AcDbPoint
 10
1801.049268087123
 20
1568.9522772966
 30
0.0
  0
POINT
  5
2658
330
2546
100
AcDbEntity
  8
Defpoints
 62
     0
100
AcDbPoint
 10
1801.049268087123
 20
1668.261424301384
 30
0.0
  0
ENDBLK
  5
2551
330
2546
100
AcDbEntity
  8
0
100
AcDbBlockEnd
  0
BLOCK
  5
255C
330
2552
100
AcDbEntity
  8
0
100
AcDbBlockBegin
  2
*D78
 70
     1
 10
0.0
 20
0.0
 30
0.0
  3
*D78
  1

  0
LINE
  5
2647
330
2552
100
AcDbEntity
  8
実形
 62
     0
370
    15
100
AcDbLine
 10
1801.049268087123
 20
1633.9522772966
 30
0.0
 11
1801.049268087123
 21
1668.261424301384
 31
0.0
  0
LINE
  5
2648
330
2552
100
AcDbEntity
  8
実形
 62
     0
370
    15
100
AcDbLine
 10
1821.049268087123
 20
1633.9522772966
 30
0.0
 11
1821.049268087123
 21
1668.261424301384
 31
0.0
  0
LINE
  5
2649
330
2552
100
AcDbEntity
  8
実形
 62
     0
370
    15
100
AcDbLine
 10
1801.049268087123
 20
1668.261424301384
 30
0.0
 11
1821.049268087123
 21
1668.261424301384
 31
0.0
  0
MTEXT
  5
264A
330
2552
100
AcDbEntity
  8
実形
 62
     0
100
AcDbMText
 10
1848.008310391936
 20
1671.923133829423
 30
0.0
 40
25.0
 41
0.0
 71
     5
 72
     1
  1
20
 73
     1
 44
1.0
1001
ACAD
1000
MTEXTBEGIN
1070
    73
1070
     1
1070
    44
1040
1.0
1070
    74
1070
     0
1000
MTEXTEND
  0
INSERT
  5
264B
330
2552
100
AcDbEntity
  8
実形
 62
     0
370
    15
100
AcDbBlockReference
  2
_DotSmall
 10
1801.049268087123
 20
1668.261424301384
 30
0.0
 41
35.0
 42
35.0
 43
35.0
 50
180.0
  0
INSERT
  5
264C
330
2552
100
AcDbEntity
  8
実形
 62
     0
370
    15
100
AcDbBlockReference
  2
_DotSmall
 10
1821.049268087123
 20
1668.261424301384
 30
0.0
 41
35.0
 42
35.0
 43
35.0
  0
POINT
  5
264D
330
2552
100
AcDbEntity
  8
Defpoints
 62
     0
100
AcDbPoint
 10
1801.049268087123
 20
1568.9522772966
 30
0.0
  0
POINT
  5
264E
330
2552
100
AcDbEntity
  8
Defpoints
 62
     0
100
AcDbPoint
 10
1821.049268087123
 20
1568.9522772966
 30
0.0
  0
POINT
  5
264F
330
2552
100
AcDbEntity
  8
Defpoints
 62
     0
100
AcDbPoint
 10
1821.049268087123
 20
1668.261424301384
 30
0.0
  0
ENDBLK
  5
255D
330
2552
100
AcDbEntity
  8
0
100
AcDbBlockEnd
  0
BLOCK
  5
25C1
330
25B5
100
AcDbEntity
  8
0
100
AcDbBlockBegin
  2
*D79
 70
     1
 10
0.0
 20
0.0
 30
0.0
  3
*D79
  1

  0
LINE
  5
262A
330
25B5
100
AcDbEntity
  8
実形
 62
     0
370
    15
100
AcDbLine
 10
1895.049268087123
 20
1009.440902933643
 30
0.0
 11
1895.049268087123
 21
957.9340483459318
 31
0.0
  0
LINE
  5
262B
330
25B5
100
AcDbEntity
  8
実形
 62
     0
370
    15
100
AcDbLine
 10
1902.049268087123
 20
1009.440902933643
 30
0.0
 11
1902.049268087123
 21
957.9340483459318
 31
0.0
  0
LINE
  5
262C
330
25B5
100
AcDbEntity
  8
実形
 62
     0
370
    15
100
AcDbLine
 10
1895.049268087123
 20
957.9340483459318
 30
0.0
 11
1860.049268087123
 21
957.9340483459318
 31
0.0
  0
LINE
  5
262D
330
25B5
100
AcDbEntity
  8
実形
 62
     0
370
    15
100
AcDbLine
 10
1902.049268087123
 20
957.9340483459318
 30
0.0
 11
1937.049268087124
 21
957.9340483459318
 31
0.0
  0
MTEXT
  5
262E
330
25B5
100
AcDbEntity
  8
実形
 62
     0
100
AcDbMText
 10
1953.451311622741
 20
968.8709428233824
 30
0.0
 40
25.0
 41
0.0
 71
     5
 72
     1
  1
7
 73
     1
 44
1.0
1001
ACAD
1000
MTEXTBEGIN
1070
    73
1070
     1
1070
    44
1040
1.0
1070
    74
1070
     0
1000
MTEXTEND
  0
LINE
  5
262F
330
25B5
100
AcDbEntity
  8
実形
 62
     0
370
    15
100
AcDbLine
 10
1895.049268087123
 20
957.9340483459318
 30
0.0
 11
1902.049268087123
 21
957.9340483459318
 31
0.0
  0
INSERT
  5
2630
330
25B5
100
AcDbEntity
  8
実形
 62
     0
370
    15
100
AcDbBlockReference
  2
_DotSmall
 10
1895.049268087123
 20
957.9340483459318
 30
0.0
 41
35.0
 42
35.0
 43
35.0
  0
INSERT
  5
2631
330
25B5
100
AcDbEntity
  8
実形
 62
     0
370
    15
100
AcDbBlockReference
  2
_DotSmall
 10
1902.049268087123
 20
957.9340483459318
 30
0.0
 41
35.0
 42
35.0
 43
35.0
 50
180.0
  0
POINT
  5
2632
330
25B5
100
AcDbEntity
  8
Defpoints
 62
     0
100
AcDbPoint
 10
1895.049268087123
 20
1074.440902933643
 30
0.0
  0
POINT
  5
2633
330
25B5
100
AcDbEntity
  8
Defpoints
 62
     0
100
AcDbPoint
 10
1902.049268087123
 20
1074.440902933643
 30
0.0
  0
POINT
  5
2634
330
25B5
100
AcDbEntity
  8
Defpoints
 62
     0
100
AcDbPoint
 10
1902.049268087123
 20
957.9340483459318
 30
0.0
  0
ENDBLK
  5
25C2
330
25B5
100
AcDbEntity
  8
0
100
AcDbBlockEnd
  0
BLOCK
  5
25CD
330
25C3
100
AcDbEntity
  8
0
100
AcDbBlockBegin
  2
*D80
 70
     1
 10
0.0
 20
0.0
 30
0.0
  3
*D80
  1

  0
LINE
  5
2621
330
25C3
100
AcDbEntity
  8
実形
 62
     0
370
    15
100
AcDbLine
 10
1704.849268087123
 20
1009.440902933643
 30
0.0
 11
1704.849268087123
 21
914.7672029666727
 31
0.0
  0
LINE
  5
2622
330
25C3
100
AcDbEntity
  8
実形
 62
     0
370
    15
100
AcDbLine
 10
1895.049268087123
 20
1009.440902933643
 30
0.0
 11
1895.049268087123
 21
914.7672029666727
 31
0.0
  0
LINE
  5
2623
330
25C3
100
AcDbEntity
  8
実形
 62
     0
370
    15
100
AcDbLine
 10
1704.849268087123
 20
914.7672029666727
 30
0.0
 11
1895.049268087123
 21
914.7672029666727
 31
0.0
  0
INSERT
  5
2624
330
25C3
100
AcDbEntity
  8
実形
 62
     0
370
    15
100
AcDbBlockReference
  2
_DotSmall
 10
1704.849268087123
 20
914.7672029666727
 30
0.0
 41
35.0
 42
35.0
 43
35.0
 50
180.0
  0
INSERT
  5
2625
330
25C3
100
AcDbEntity
  8
実形
 62
     0
370
    15
100
AcDbBlockReference
  2
_DotSmall
 10
1895.049268087123
 20
914.7672029666727
 30
0.0
 41
35.0
 42
35.0
 43
35.0
  0
MTEXT
  5
2626
330
25C3
100
AcDbEntity
  8
実形
 62
     0
100
AcDbMText
 10
1799.949268087123
 20
933.5172029666727
 30
0.0
 40
25.0
 41
0.0
 71
     5
 72
     1
  1
190.2
 73
     1
 44
1.0
1001
ACAD
1000
MTEXTBEGIN
1070
    73
1070
     1
1070
    44
1040
1.0
1070
    74
1070
     0
1000
MTEXTEND
  0
POINT
  5
2627
330
25C3
100
AcDbEntity
  8
Defpoints
 62
     0
100
AcDbPoint
 10
1704.849268087123
 20
1074.440902933643
 30
0.0
  0
POINT
  5
2628
330
25C3
100
AcDbEntity
  8
Defpoints
 62
     0
100
AcDbPoint
 10
1895.049268087123
 20
1074.440902933643
 30
0.0
  0
POINT
  5
2629
330
25C3
100
AcDbEntity
  8
Defpoints
 62
     0
100
AcDbPoint
 10
1895.049268087123
 20
914.7672029666727
 30
0.0
  0
ENDBLK
  5
25CE
330
25C3
100
AcDbEntity
  8
0
100
AcDbBlockEnd
  0
BLOCK
  5
25D9
330
25CF
100
AcDbEntity
  8
0
100
AcDbBlockBegin
  2
*D81
 70
     1
 10
0.0
 20
0.0
 30
0.0
  3
*D81
  1

  0
LINE
  5
2618
330
25CF
100
AcDbEntity
  8
実形
 62
     0
370
    15
100
AcDbLine
 10
1686.849268087123
 20
1009.440902933643
 30
0.0
 11
1686.849268087123
 21
914.7672029666727
 31
0.0
  0
LINE
  5
2619
330
25CF
100
AcDbEntity
  8
実形
 62
     0
370
    15
100
AcDbLine
 10
1895.049268087123
 20
1009.440902933643
 30
0.0
 11
1895.049268087123
 21
914.7672029666727
 31
0.0
  0
LINE
  5
261A
330
25CF
100
AcDbEntity
  8
実形
 62
     0
370
    15
100
AcDbLine
 10
1686.849268087123
 20
914.7672029666727
 30
0.0
 11
1895.049268087123
 21
914.7672029666727
 31
0.0
  0
MTEXT
  5
261B
330
25CF
100
AcDbEntity
  8
実形
 62
     0
100
AcDbMText
 10
1651.360227797288
 20
933.5172029666727
 30
0.0
 40
25.0
 41
0.0
 71
     5
 72
     1
  1
18
 73
     1
 44
1.0
1001
ACAD
1000
MTEXTBEGIN
1070
    73
1070
     1
1070
    44
1040
1.0
1070
    74
1070
     0
1000
MTEXTEND
  0
INSERT
  5
261C
330
25CF
100
AcDbEntity
  8
実形
 62
     0
370
    15
100
AcDbBlockReference
  2
_DotSmall
 10
1686.849268087123
 20
914.7672029666727
 30
0.0
 41
35.0
 42
35.0
 43
35.0
 50
180.0
  0
INSERT
  5
261D
330
25CF
100
AcDbEntity
  8
実形
 62
     0
370
    15
100
AcDbBlockReference
  2
_DotSmall
 10
1895.049268087123
 20
914.7672029666727
 30
0.0
 41
35.0
 42
35.0
 43
35.0
  0
POINT
  5
261E
330
25CF
100
AcDbEntity
  8
Defpoints
 62
     0
100
AcDbPoint
 10
1686.849268087123
 20
1074.440902933643
 30
0.0
  0
POINT
  5
261F
330
25CF
100
AcDbEntity
  8
Defpoints
 62
     0
100
AcDbPoint
 10
1895.049268087123
 20
1074.440902933643
 30
0.0
  0
POINT
  5
2620
330
25CF
100
AcDbEntity
  8
Defpoints
 62
     0
100
AcDbPoint
 10
1895.049268087123
 20
914.7672029666727
 30
0.0
  0
ENDBLK
  5
25DA
330
25CF
100
AcDbEntity
  8
0
100
AcDbBlockEnd
  0
BLOCK
  5
25E5
330
25DB
100
AcDbEntity
  8
0
100
AcDbBlockBegin
  2
*D82
 70
     1
 10
0.0
 20
0.0
 30
0.0
  3
*D82
  1

  0
LINE
  5
2635
330
25DB
100
AcDbEntity
  8
実形
 62
     0
370
    15
100
AcDbLine
 10
1686.849268087123
 20
944.440902933643
 30
0.0
 11
1686.849268087123
 21
866.7490176511373
 31
0.0
  0
LINE
  5
2636
330
25DB
100
AcDbEntity
  8
実形
 62
     0
370
    15
100
AcDbLine
 10
1895.049268087123
 20
944.4409029336426
 30
0.0
 11
1895.049268087123
 21
866.7490176511373
 31
0.0
  0
LINE
  5
2637
330
25DB
100
AcDbEntity
  8
実形
 62
     0
370
    15
100
AcDbLine
 10
1686.849268087123
 20
866.7490176511373
 30
0.0
 11
1895.049268087123
 21
866.7490176511373
 31
0.0
  0
INSERT
  5
2638
330
25DB
100
AcDbEntity
  8
実形
 62
     0
370
    15
100
AcDbBlockReference
  2
_DotSmall
 10
1686.849268087123
 20
866.7490176511373
 30
0.0
 41
35.0
 42
35.0
 43
35.0
 50
180.0
  0
INSERT
  5
2639
330
25DB
100
AcDbEntity
  8
実形
 62
     0
370
    15
100
AcDbBlockReference
  2
_DotSmall
 10
1895.049268087123
 20
866.7490176511373
 30
0.0
 41
35.0
 42
35.0
 43
35.0
  0
MTEXT
  5
263A
330
25DB
100
AcDbEntity
  8
実形
 62
     0
100
AcDbMText
 10
1790.949268087123
 20
885.4990176511373
 30
0.0
 40
25.0
 41
0.0
 71
     5
 72
     1
  1
208.2
 73
     1
 44
1.0
1001
ACAD
1000
MTEXTBEGIN
1070
    73
1070
     1
1070
    44
1040
1.0
1070
    74
1070
     0
1000
MTEXTEND
  0
POINT
  5
263B
330
25DB
100
AcDbEntity
  8
Defpoints
 62
     0
100
AcDbPoint
 10
1686.849268087123
 20
1009.440902933643
 30
0.0
  0
POINT
  5
263C
330
25DB
100
AcDbEntity
  8
Defpoints
 62
     0
100
AcDbPoint
 10
1895.049268087123
 20
1009.440902933643
 30
0.0
  0
POINT
  5
263D
330
25DB
100
AcDbEntity
  8
Defpoints
 62
     0
100
AcDbPoint
 10
1895.049268087123
 20
866.7490176511373
 30
0.0
  0
ENDBLK
  5
25E6
330
25DB
100
AcDbEntity
  8
0
100
AcDbBlockEnd
  0
ENDSEC
  0
SECTION
  2
ENTITIES
  0
LINE
  5
73
330
1F
100
AcDbEntity
  8
0
100
AcDbLine
 10
104.0
 20
4.0
 30
0.0
 11
278.0
 21
4.0
 31
0.0
  0
LINE
  5
9C
330
1F
100
AcDbEntity
  8
補助
100
AcDbLine
 10
104.0
 20
4.0
 30
0.0
 11
2784.0
 21
4.0
 31
0.0
  0
LINE
  5
A0
330
1F
100
AcDbEntity
  8
補助
100
AcDbLine
 10
2784.0
 20
2024.0
 30
0.0
 11
104.0
 21
2024.0
 31
0.0
  0
LINE
  5
A5
330
1F
100
AcDbEntity
  8
補助
100
AcDbLine
 10
2784.0
 20
4.0
 30
0.0
 11
2784.0
 21
2024.0
 31
0.0
  0
LINE
  5
2DD
330
1F
100
AcDbEntity
  8
実形
100
AcDbLine
 10
1350.570849396604
 20
1072.3522772966
 30
0.0
 11
520.570849396604
 21
1072.3522772966
 31
0.0
  0
LINE
  5
2E0
330
1F
100
AcDbEntity
  8
実形
100
AcDbLine
 10
1350.570849396604
 20
1592.3522772966
 30
0.0
 11
520.5708493966041
 21
1592.3522772966
 31
0.0
  0
CIRCLE
  5
2E8
330
1F
100
AcDbEntity
  8
実形
100
AcDbCircle
 10
1260.570849396604
 20
1367.3522772966
 30
0.0
 40
90.5
  0
CIRCLE
  5
2E9
330
1F
100
AcDbEntity
  8
実形
100
AcDbCircle
 10
1260.570849396604
 20
1367.3522772966
 30
0.0
 40
79.5
  0
LINE
  5
2F1
330
1F
100
AcDbEntity
  8
実形
100
AcDbLine
 10
1410.570849396604
 20
1390.410745122775
 30
0.0
 11
1410.570849396604
 21
1194.293809470424
 31
0.0
  0
LINE
  5
2F2
330
1F
100
AcDbEntity
  8
実形
100
AcDbLine
 10
460.570849396604
 20
1390.410745122775
 30
0.0
 11
460.570849396604
 21
1194.293809470424
 31
0.0
  0
LINE
  5
2FD
330
1F
100
AcDbEntity
  8
実形
100
AcDbLine
 10
1410.570849396604
 20
1452.3522772966
 30
0.0
 11
1410.570849396604
 21
1132.3522772966
 31
0.0
  0
LINE
  5
2FE
330
1F
100
AcDbEntity
  8
実形
100
AcDbLine
 10
1350.570849396604
 20
1512.3522772966
 30
0.0
 11
520.5708493966037
 21
1512.3522772966
 31
0.0
  0
LINE
  5
2FF
330
1F
100
AcDbEntity
  8
実形
100
AcDbLine
 10
460.5708493966037
 20
1452.3522772966
 30
0.0
 11
460.570849396604
 21
1132.3522772966
 31
0.0
  0
ARC
  5
300
330
1F
100
AcDbEntity
  8
実形
100
AcDbCircle
 10
1350.570849396604
 20
1452.3522772966
 30
0.0
 40
60.0
100
AcDbArc
 50
0.000000000000007
 51
90.0
  0
ARC
  5
301
330
1F
100
AcDbEntity
  8
実形
100
AcDbCircle
 10
1350.570849396604
 20
1132.3522772966
 30
0.0
 40
60.0
100
AcDbArc
 50
270.0
 51
0.000000000000007
  0
ARC
  5
302
330
1F
100
AcDbEntity
  8
実形
100
AcDbCircle
 10
520.570849396604
 20
1132.3522772966
 30
0.0
 40
60.0
100
AcDbArc
 50
180.0
 51
270.0
  0
ARC
  5
303
330
1F
100
AcDbEntity
  8
実形
100
AcDbCircle
 10
520.5708493966037
 20
1452.3522772966
 30
0.0
 40
60.0
100
AcDbArc
 50
90.0
 51
180.0
  0
LINE
  5
306
330
1F
100
AcDbEntity
  8
実形
100
AcDbLine
 10
1410.570849396604
 20
1532.3522772966
 30
0.0
 11
1410.570849396604
 21
1194.293809470424
 31
0.0
  0
LINE
  5
307
330
1F
100
AcDbEntity
  8
実形
100
AcDbLine
 10
460.5708493966042
 20
1532.3522772966
 30
0.0
 11
460.570849396604
 21
1194.293809470424
 31
0.0
  0
ARC
  5
308
330
1F
100
AcDbEntity
  8
実形
100
AcDbCircle
 10
1350.570849396604
 20
1532.3522772966
 30
0.0
 40
60.0
100
AcDbArc
 50
0.000000000000007
 51
90.0
  0
ARC
  5
309
330
1F
100
AcDbEntity
  8
実形
100
AcDbCircle
 10
520.5708493966041
 20
1532.3522772966
 30
0.0
 40
60.0
100
AcDbArc
 50
90.0
 51
180.0
  0
LINE
  5
315
330
1F
100
AcDbEntity
  8
センター
100
AcDbLine
 10
1260.570849396604
 20
1518.754778385752
 30
0.0
 11
1260.570849396604
 21
1212.632207845649
 31
0.0
  0
LINE
  5
316
330
1F
100
AcDbEntity
  8
センター
100
AcDbLine
 10
1397.139163426898
 20
1367.3522772966
 30
0.0
 11
1123.964291508891
 21
1367.3522772966
 31
0.0
  0
LINE
  5
319
330
1F
100
AcDbEntity
  8
実形
100
AcDbLine
 10
1410.570849396604
 20
763.1986691217082
 30
0.0
 11
1410.570849396604
 21
602.998669121708
 31
0.0
  0
LINE
  5
31A
330
1F
100
AcDbEntity
  8
実形
100
AcDbLine
 10
1380.570849396604
 20
572.9986691217081
 30
0.0
 11
1170.070849396604
 21
572.9986691217081
 31
0.0
  0
LINE
  5
31B
330
1F
100
AcDbEntity
  8
実形
100
AcDbLine
 10
460.570849396604
 20
612.9465101319407
 30
0.0
 11
460.570849396604
 21
763.1986691217081
 31
0.0
  0
LINE
  5
323
330
1F
100
AcDbEntity
  8
実形
100
AcDbLine
 10
1170.070849396604
 20
572.9986691217082
 30
0.0
 11
489.7855409473677
 21
582.956790382674
 31
0.0
  0
ARC
  5
324
330
1F
100
AcDbEntity
  8
実形
100
AcDbCircle
 10
490.570849396604
 20
612.9465101319407
 30
0.0
 40
30.0
100
AcDbArc
 50
180.0
 51
268.5
  0
ARC
  5
325
330
1F
100
AcDbEntity
  8
実形
100
AcDbCircle
 10
1380.570849396604
 20
602.998669121708
 30
0.0
 40
30.0
100
AcDbArc
 50
270.0
 51
0.000000000000007
  0
LINE
  5
327
330
1F
100
AcDbEntity
  8
実形
100
AcDbLine
 10
1410.570849396604
 20
757.9986691217081
 30
0.0
 11
460.570849396604
 21
757.9986691217081
 31
0.0
  0
LINE
  5
328
330
1F
100
AcDbEntity
  8
センター
100
AcDbLine
 10
1170.070849396608
 20
572.9986691217081
 30
0.0
 11
466.4423242788025
 21
572.9986691217081
 31
0.0
  0
LINE
  5
329
330
1F
100
AcDbEntity
  8
センター
 48
0.5
100
AcDbLine
 10
1260.570849396604
 20
645.2462199401225
 30
0.0
 11
1260.570849396604
 21
483.3005660825092
 31
0.0
  0
DIMENSION
  5
3E9
330
1F
100
AcDbEntity
  8
寸法
100
AcDbDimension
  2
*D4
 10
916.5103197613808
 20
1497.3522772966
 30
0.0
 11
897.7603197613804
 21
1432.3522772966
 31
0.0
 70
    32
 71
     5
 42
130.0
  3
ISO-25
100
AcDbAlignedDimension
 13
1195.437435415243
 23
1367.3522772966
 33
0.0
 14
916.5103197613808
 24
1497.3522772966
 34
0.0
 50
90.0
100
AcDbRotatedDimension
1001
ACAD
1000
DSTYLE
1002
{
1070
    76
1070
     1
1070
    75
1070
     0
1002
}
  0
DIMENSION
  5
3F6
330
1F
100
AcDbEntity
  8
寸法
100
AcDbDimension
  2
*D5
 10
1410.570849396604
 20
1214.759511025599
 30
0.0
 11
1335.570849396604
 21
1233.509511025599
 31
0.0
 70
    32
 71
     5
 42
150.0
  3
ISO-25
100
AcDbAlignedDimension
 13
1260.570849396604
 23
1287.8522772966
 33
0.0
 14
1410.570849396604
 24
1276.8522772966
 34
0.0
 50
180.0
100
AcDbRotatedDimension
  0
DIMENSION
  5
40C
330
1F
100
AcDbEntity
  8
寸法
100
AcDbDimension
  2
*D6
 10
341.6869335034063
 20
1087.3522772966
 30
0.0
 11
317.3723100336975
 21
1097.355470058334
 31
0.0
 70
   160
 71
     5
 42
15.0
  3
ISO-25
100
AcDbAlignedDimension
 13
445.570849396604
 23
1072.3522772966
 33
0.0
 14
445.570849396604
 24
1087.3522772966
 34
0.0
 50
90.0
100
AcDbRotatedDimension
1001
ACAD
1000
DSTYLE
1002
{
1070
   279
1070
     2
1002
}
  0
DIMENSION
  5
41A
330
1F
100
AcDbEntity
  8
寸法
100
AcDbDimension
  2
*D7
 10
341.7751885350445
 20
1497.3522772966
 30
0.0
 11
323.0251885350443
 21
1292.3522772966
 31
0.0
 70
    32
 71
     5
 42
410.0
  3
ISO-25
100
AcDbAlignedDimension
 13
445.570849396604
 23
1087.3522772966
 33
0.0
 14
445.570849396604
 24
1497.3522772966
 34
0.0
 50
90.0
100
AcDbRotatedDimension
1001
ACAD
1000
DSTYLE
1002
{
1070
   279
1070
     1
1002
}
  0
DIMENSION
  5
459
330
1F
100
AcDbEntity
  8
寸法
100
AcDbDimension
  2
*D8
 10
265.2827462954874
 20
1072.3522772966
 30
0.0
 11
246.5327462954873
 21
1292.3522772966
 31
0.0
 70
    32
 71
     5
 42
440.0
  3
ISO-25
100
AcDbAlignedDimension
 13
445.570849396604
 23
1512.3522772966
 33
0.0
 14
445.570849396604
 24
1072.3522772966
 34
0.0
 50
90.0
100
AcDbRotatedDimension
  0
DIMENSION
  5
466
330
1F
100
AcDbEntity
  8
寸法
100
AcDbDimension
  2
*D9
 10
265.2827462954874
 20
1592.3522772966
 30
0.0
 11
246.5327462954872
 21
1552.3522772966
 31
0.0
 70
    32
 71
     5
 42
80.0
  3
ISO-25
100
AcDbAlignedDimension
 13
445.570849396604
 23
1512.3522772966
 33
0.0
 14
445.570849396604
 24
1592.3522772966
 34
0.0
 50
90.0
100
AcDbRotatedDimension
  0
DIMENSION
  5
47C
330
1F
100
AcDbEntity
  8
寸法
100
AcDbDimension
  2
*D10
 10
265.2827462954874
 20
1607.3522772966
 30
0.0
 11
275.7978366008893
 21
1634.278996576932
 31
0.0
 70
   160
 71
     5
 42
15.0
  3
ISO-25
100
AcDbAlignedDimension
 13
445.570849396604
 23
1592.3522772966
 33
0.0
 14
445.570849396604
 24
1607.3522772966
 34
0.0
 50
90.0
100
AcDbRotatedDimension
1001
ACAD
1000
DSTYLE
1002
{
1070
   279
1070
     1
1002
}
  0
DIMENSION
  5
492
330
1F
100
AcDbEntity
  8
寸法
100
AcDbDimension
  2
*D11
 10
187.7339625853092
 20
1057.3522772966
 30
0.0
 11
168.983962585309
 21
1332.3522772966
 31
0.0
 70
    32
 71
     5
 42
550.0
  3
ISO-25
100
AcDbAlignedDimension
 13
445.570849396604
 23
1607.3522772966
 33
0.0
 14
445.570849396604
 24
1057.3522772966
 34
0.0
 50
90.0
100
AcDbRotatedDimension
  0
DIMENSION
  5
4C3
330
1F
100
AcDbEntity
  8
寸法
100
AcDbDimension
  2
*D12
 10
265.2827462954875
 20
1057.3522772966
 30
0.0
 11
265.2827462954873
 21
1130.268943963267
 31
0.0
 70
   160
 71
     5
 42
15.0
  3
ISO-25
100
AcDbAlignedDimension
 13
445.570849396604
 23
1072.3522772966
 33
0.0
 14
445.570849396604
 24
1057.3522772966
 34
0.0
 50
90.0
100
AcDbRotatedDimension
  0
DIMENSION
  5
4E5
330
1F
100
AcDbEntity
  8
寸法
100
AcDbDimension
  2
*D13
 10
1410.570849396604
 20
940.1289518956946
 30
0.0
 11
1379.170751325539
 21
959.1752627609185
 31
0.0
 70
   160
 71
     5
 42
15.0
  3
ISO-25
100
AcDbAlignedDimension
 13
1425.570849396604
 23
1057.3522772966
 33
0.0
 14
1410.570849396604
 24
1057.3522772966
 34
0.0
 50
180.0
100
AcDbRotatedDimension
1001
ACAD
1000
DSTYLE
1002
{
1070
   279
1070
     2
1002
}
  0
DIMENSION
  5
4FD
330
1F
100
AcDbEntity
  8
寸法
100
AcDbDimension
  2
*D14
 10
460.570849396604
 20
940.1289518956946
 30
0.0
 11
935.5708493966039
 21
958.8789518956946
 31
0.0
 70
    32
 71
     5
 42
950.0
  3
ISO-25
100
AcDbAlignedDimension
 13
1410.570849396604
 23
1057.3522772966
 33
0.0
 14
460.570849396604
 24
1057.3522772966
 34
0.0
 50
180.0
100
AcDbRotatedDimension
1001
ACAD
1000
DSTYLE
1002
{
1070
   279
1070
     1
1002
}
  0
DIMENSION
  5
50A
330
1F
100
AcDbEntity
  8
寸法
100
AcDbDimension
  2
*D15
 10
445.570849396604
 20
940.1289518956946
 30
0.0
 11
492.1336724790471
 21
945.5090874354709
 31
0.0
 70
   160
 71
     5
 42
15.0
  3
ISO-25
100
AcDbAlignedDimension
 13
460.570849396604
 23
1057.3522772966
 33
0.0
 14
445.570849396604
 24
1057.3522772966
 34
0.0
 50
180.0
100
AcDbRotatedDimension
1001
ACAD
1000
DSTYLE
1002
{
1070
   279
1070
     1
1002
}
  0
DIMENSION
  5
522
330
1F
100
AcDbEntity
  8
寸法
100
AcDbDimension
  2
*D16
 10
445.570849396604
 20
866.008536662035
 30
0.0
 11
935.5708493966039
 21
884.758536662035
 31
0.0
 70
    33
 71
     5
 42
980.0
  3
ISO-25
100
AcDbAlignedDimension
 13
1425.570849396604
 23
1057.3522772966
 33
0.0
 14
445.570849396604
 24
1057.3522772966
 34
0.0
  0
ARC
  5
570
330
1F
100
AcDbEntity
  8
寸法
100
AcDbCircle
 10
870.0708493966082
 20
572.9986691217081
 30
0.0
 40
346.6490970545442
100
AcDbArc
 50
178.4999999999999
 51
180.0
  0
TEXT
  5
571
330
1F
100
AcDbEntity
  8
寸法
100
AcDbText
 10
493.6037448360038
 20
536.9726009324589
 30
0.0
 40
25.0
  1
1.5゜
 11
493.6037448360038
 21
533.6392675991255
 31
0.0
100
AcDbText
 73
     1
  0
LEADER
  5
8DB
330
1F
100
AcDbEntity
  8
寸法
100
AcDbLeader
  3
ISO-25
 40
66.66666666666666
 41
87.5
 76
     2
 10
1097.670645506915
 20
1097.416598335276
 30
0.0
 10
1069.52684764788
 20
1137.255485062138
 30
0.0
211
-1.0
221
0.0
231
0.0
210
0.0
220
0.0
230
-1.0
213
0.0
223
-12.5
233
0.0
1001
ACAD
1000
DSTYLE
1002
{
1070
   147
1040
6.25
1070
    77
1070
     0
1070
    41
1040
20.0
1070
   342
1005
DA
1002
}
  0
TEXT
  5
8DD
330
1F
100
AcDbEntity
  8
寸法
100
AcDbText
 10
946.8393180322063
 20
1142.195447481853
 30
0.0
 40
25.0
  1
8500R
 11
946.8393180322063
 21
1138.86211414852
 31
0.0
100
AcDbText
 73
     1
  0
LEADER
  5
C24
330
1F
100
AcDbEntity
  8
実形
100
AcDbLeader
  3
ISO-25
 40
25.0
 41
16.66666666666666
 76
     2
 10
488.1975789513473
 20
1494.775701554124
 30
0.0
 10
556.4678248769478
 20
1464.667893513437
 30
0.0
211
-1.0
221
0.0
231
0.0
210
0.0
220
0.0
230
-1.0
213
0.0
223
12.5
233
0.0
1001
ACAD
1000
DSTYLE
1002
{
1070
   147
1040
6.25
1070
    77
1070
     0
1070
    41
1040
20.0
1070
   342
1005
DA
1002
}
  0
LEADER
  5
C26
330
1F
100
AcDbEntity
  8
実形
100
AcDbLeader
  3
ISO-25
 40
25.0
 41
16.66666666666666
 76
     2
 10
491.4570181567401
 20
1453.514507821782
 30
0.0
 10
528.9788986330158
 20
1412.004749031388
 30
0.0
211
-1.0
221
0.0
231
0.0
210
0.0
220
0.0
230
-1.0
213
0.0
223
12.5
233
0.0
1001
ACAD
1000
DSTYLE
1002
{
1070
   147
1040
6.25
1070
    77
1070
     0
1070
    41
1040
20.0
1070
   342
1005
DA
1002
}
  0
LEADER
  5
C29
330
1F
100
AcDbEntity
  8
実形
100
AcDbLeader
  3
ISO-25
 40
74.99999999999999
 41
41.66666666666666
 76
     2
 10
467.4402666996477
 20
1292.446360388923
 30
0.0
 10
526.7272121253126
 20
1292.446360388923
 30
0.0
211
-1.0
221
0.0
231
0.0
210
0.0
220
0.0
230
-1.0
213
0.0
223
12.5
233
0.0
1001
ACAD
1000
DSTYLE
1002
{
1070
   147
1040
6.25
1070
    77
1070
     0
1070
    41
1040
20.0
1070
   342
1005
DA
1002
}
  0
TEXT
  5
C2B
330
1F
100
AcDbEntity
  8
実形
100
AcDbText
 10
565.7490680214587
 20
1446.90312463835
 30
0.0
 40
25.0
  1
60R
 72
     2
 11
628.2490680214587
 21
1443.569791305017
 31
0.0
100
AcDbText
 73
     1
  0
TEXT
  5
C2C
330
1F
100
AcDbEntity
  8
実形
100
AcDbText
 10
537.4505099645512
 20
1382.667133511437
 30
0.0
 40
25.0
  1
100R
 72
     2
 11
612.4505099645512
 21
1379.333800178104
 31
0.0
100
AcDbText
 73
     1
  0
TEXT
  5
C2E
330
1F
100
AcDbEntity
  8
実形
100
AcDbText
 10
541.8715781570557
 20
1279.946360388923
 30
0.0
 40
25.0
  1
2000R
 72
     2
 11
646.0382448237224
 21
1292.446360388923
 31
0.0
100
AcDbText
 73
     2
  0
LEADER
  5
CB8
330
1F
100
AcDbEntity
  8
実形
100
AcDbLeader
  3
ISO-25
 76
     2
 10
477.4638656066449
 20
596.3009512713503
 30
0.0
 10
520.6556961563519
 20
635.2724187954727
 30
0.0
211
-1.0
221
0.0
231
0.0
210
0.0
220
0.0
230
-1.0
1001
ACAD
1000
DSTYLE
1002
{
1070
   147
1040
6.25
1070
    77
1070
     0
1070
    41
1040
20.0
1070
   342
1005
DA
1002
}
  0
LEADER
  5
CB9
330
1F
100
AcDbEntity
  8
実形
100
AcDbLeader
  3
ISO-25
 76
     2
 10
1394.445117453841
 20
584.8003346838257
 30
0.0
 10
1353.79536381251
 20
625.4324314311852
 30
0.0
211
-1.0
221
0.0
231
0.0
210
0.0
220
0.0
230
-1.0
1001
ACAD
1000
DSTYLE
1002
{
1070
   147
1040
6.25
1070
    77
1070
     0
1070
    41
1040
20.0
1070
   342
1005
DA
1002
}
  0
TEXT
  5
CC2
330
1F
100
AcDbEntity
  8
寸法
100
AcDbText
 10
1284.794867228532
 20
628.7756697410672
 30
0.0
 40
25.0
  1
30R
 11
1284.794867228532
 21
625.4423364077338
 31
0.0
100
AcDbText
 73
     1
  0
TEXT
  5
CC3
330
1F
100
AcDbEntity
  8
寸法
100
AcDbText
 10
526.9913494311959
 20
634.2951133673392
 30
0.0
 40
25.0
  1
30R
 11
526.9913494311959
 21
630.9617800340058
 31
0.0
100
AcDbText
 73
     1
  0
TEXT
  5
DC3
330
1F
100
AcDbEntity
  8
0
100
AcDbText
 10
191.7098177320886
 20
90.06009540427749
 30
0.0
 40
30.0
  1
※実寸には製造上の誤差が多少生ずる場合があります。シンクの穴あけ加工は現物合わせにてお願いします。
100
AcDbText
  0
TEXT
  5
FFB
330
1F
100
AcDbEntity
  8
補助
100
AcDbText
 10
2086.666666666667
 20
84.0
 30
0.0
 40
35.0
  1
尺度
 72
     4
 11
2124.0
 21
101.5
 31
0.0
100
AcDbText
  0
TEXT
  5
FFC
330
1F
100
AcDbEntity
  8
補助
100
AcDbText
 10
2086.666666666667
 20
149.0
 30
0.0
 40
35.0
  1
品番
 72
     4
 11
2124.0
 21
166.5
 31
0.0
100
AcDbText
  0
LINE
  5
FFD
330
1F
100
AcDbEntity
  8
補助
100
AcDbLine
 10
2064.0
 20
69.0
 30
0.0
 11
2784.0
 21
69.0
 31
0.0
  0
LINE
  5
FFE
330
1F
100
AcDbEntity
  8
補助
100
AcDbLine
 10
2064.0
 20
199.0
 30
0.0
 11
2784.0
 21
199.0
 31
0.0
  0
LINE
  5
FFF
330
1F
100
AcDbEntity
  8
補助
100
AcDbLine
 10
2064.0
 20
134.0
 30
0.0
 11
2784.0
 21
134.0
 31
0.0
  0
LINE
  5
1000
330
1F
100
AcDbEntity
  8
補助
100
AcDbLine
 10
2064.0
 20
4.0
 30
0.0
 11
2064.0
 21
199.0
 31
0.0
  0
TEXT
  5
1001
330
1F
100
AcDbEntity
  8
補助
100
AcDbText
 10
2300.255774665348
 20
16.49999999999999
 30
0.0
 40
40.0
  1
中外交易株式会社
 72
     4
 11
2488.255774665347
 21
36.5
 31
0.0
100
AcDbText
  0
LINE
  5
1003
330
1F
100
AcDbEntity
  8
補助
100
AcDbLine
 10
2184.0
 20
69.0
 30
0.0
 11
2784.0
 21
69.0
 31
0.0
  0
LINE
  5
1004
102
{ACAD_REACTORS
330
1011
102
}
330
1F
100
AcDbEntity
  8
補助
370
     5
100
AcDbLine
 10
2207.843923164362
 20
40.53787547858519
 30
0.0
 11
2183.255774665347
 21
40.53787547858519
 31
0.0
  0
LINE
  5
1005
102
{ACAD_REACTORS
330
1011
102
}
330
1F
100
AcDbEntity
  8
補助
370
     5
100
AcDbLine
 10
2183.255774665347
 20
40.53787547858519
 30
0.0
 11
2183.255774665347
 21
30.53787547858519
 31
0.0
  0
LINE
  5
1006
102
{ACAD_REACTORS
330
1011
102
}
330
1F
100
AcDbEntity
  8
補助
370
     5
100
AcDbLine
 10
2183.255774665347
 20
30.53787547858519
 30
0.0
 11
2207.346428692676
 21
30.53787547858514
 31
0.0
  0
LINE
  5
1007
102
{ACAD_REACTORS
330
1011
102
}
330
1F
100
AcDbEntity
  8
補助
370
     5
100
AcDbLine
 10
2210.641894042939
 20
56.5
 30
0.0
 11
2210.641894042939
 21
16.5
 31
0.0
  0
LINE
  5
1008
102
{ACAD_REACTORS
330
1011
102
}
330
1F
100
AcDbEntity
  8
補助
370
     5
100
AcDbLine
 10
2210.641894042939
 20
16.5
 30
0.0
 11
2245.64189404294
 21
16.5
 31
0.0
  0
LINE
  5
1009
102
{ACAD_REACTORS
330
1011
102
}
330
1F
100
AcDbEntity
  8
補助
370
     5
100
AcDbLine
 10
2245.64189404294
 20
16.5
 30
0.0
 11
2210.641894042939
 21
36.5
 31
0.0
  0
LINE
  5
100A
102
{ACAD_REACTORS
330
1011
102
}
330
1F
100
AcDbEntity
  8
補助
370
     5
100
AcDbLine
 10
2210.641894042939
 20
36.5
 30
0.0
 11
2245.64189404294
 21
56.5
 31
0.0
  0
LINE
  5
100B
102
{ACAD_REACTORS
330
1011
102
}
330
1F
100
AcDbEntity
  8
補助
370
     5
100
AcDbLine
 10
2245.64189404294
 20
56.5
 30
0.0
 11
2210.641894042939
 21
56.5
 31
0.0
  0
LINE
  5
100C
102
{ACAD_REACTORS
330
1011
102
}
330
1F
100
AcDbEntity
  8
補助
370
     5
100
AcDbLine
 10
2276.75434681301
 20
40.53787547858519
 30
0.0
 11
2252.166198313995
 21
40.53787547858519
 31
0.0
  0
LINE
  5
100D
102
{ACAD_REACTORS
330
1011
102
}
330
1F
100
AcDbEntity
  8
補助
370
     5
100
AcDbLine
 10
2252.166198313995
 20
40.53787547858519
 30
0.0
 11
2252.166198313995
 21
30.53787547858519
 31
0.0
  0
LINE
  5
100E
102
{ACAD_REACTORS
330
1011
102
}
330
1F
100
AcDbEntity
  8
補助
370
     5
100
AcDbLine
 10
2252.166198313995
 20
30.53787547858519
 30
0.0
 11
2276.256852341323
 21
30.53787547858514
 31
0.0
  0
ARC
  5
100F
102
{ACAD_REACTORS
330
1011
102
}
330
1F
100
AcDbEntity
  8
補助
370
     5
100
AcDbCircle
 10
2188.255774665348
 20
36.5
 30
0.0
 40
20.0
100
AcDbArc
 50
11.6477236670766
 51
342.6561058784746
  0
ARC
  5
1010
102
{ACAD_REACTORS
330
1011
102
}
330
1F
100
AcDbEntity
  8
補助
370
     5
100
AcDbCircle
 10
2257.166198313996
 20
36.5
 30
0.0
 40
20.0
100
AcDbArc
 50
11.6477236670766
 51
342.6561058784746
  0
HATCH
  5
1011
330
1F
100
AcDbEntity
  8
補助
100
AcDbHatch
 10
0.0
 20
0.0
 30
0.0
210
0.0
220
0.0
230
1.0
  2
SOLID
 70
     1
 71
     1
 91
        3
 92
        1
 93
        4
 72
     2
 10
2257.166198313996
 20
36.5
 40
20.0
 50
11.6477236670766
 51
342.6561058784746
 73
     1
 72
     1
 10
2276.256852341323
 20
30.53787547858514
 11
2252.166198313995
 21
30.53787547858519
 72
     1
 10
2252.166198313995
 20
30.53787547858519
 11
2252.166198313995
 21
40.53787547858519
 72
     1
 10
2252.166198313995
 20
40.53787547858519
 11
2276.75434681301
 21
40.53787547858519
 97
        4
330
1010
330
100E
330
100D
330
100C
 92
        1
 93
        4
 72
     2
 10
2188.255774665348
 20
36.5
 40
20.0
 50
11.6477236670766
 51
342.6561058784746
 73
     1
 72
     1
 10
2207.346428692676
 20
30.53787547858514
 11
2183.255774665347
 21
30.53787547858519
 72
     1
 10
2183.255774665347
 20
30.53787547858519
 11
2183.255774665347
 21
40.53787547858519
 72
     1
 10
2183.255774665347
 20
40.53787547858519
 11
2207.843923164362
 21
40.53787547858519
 97
        4
330
100F
330
1006
330
1005
330
1004
 92
        1
 93
        5
 72
     1
 10
2245.64189404294
 20
56.5
 11
2210.641894042939
 21
56.5
 72
     1
 10
2210.641894042939
 20
56.5
 11
2210.641894042939
 21
16.5
 72
     1
 10
2210.641894042939
 20
16.5
 11
2245.64189404294
 21
16.5
 72
     1
 10
2245.64189404294
 20
16.5
 11
2210.641894042939
 21
36.5
 72
     1
 10
2210.641894042939
 20
36.5
 11
2245.64189404294
 21
56.5
 97
        5
330
100B
330
1007
330
1008
330
1009
330
100A
 75
     0
 76
     1
 98
        1
 10
-60.0
 20
0.0
  0
LINE
  5
1012
330
1F
100
AcDbEntity
  8
補助
100
AcDbLine
 10
2184.0
 20
69.0
 30
0.0
 11
2184.0
 21
199.0
 31
0.0
  0
TEXT
  5
1013
330
1F
100
AcDbEntity
  8
0
100
AcDbText
 10
2430.916666666667
 20
84.0
 30
0.0
 40
35.0
  1
1：10
 72
     4
 11
2484.0
 21
101.5
 31
0.0
100
AcDbText
  0
LINE
  5
1014
330
1F
100
AcDbEntity
  8
補助
100
AcDbLine
 10
2784.0
 20
69.0
 30
0.0
 11
2784.0
 21
134.0
 31
0.0
  0
LINE
  5
1015
330
1F
100
AcDbEntity
  8
補助
100
AcDbLine
 10
2784.0
 20
134.0
 30
0.0
 11
2784.0
 21
199.0
 31
0.0
  0
LINE
  5
1016
330
1F
100
AcDbEntity
  8
補助
100
AcDbLine
 10
2784.0
 20
4.0
 30
0.0
 11
2784.0
 21
69.0
 31
0.0
  0
DIMENSION
  5
13C4
330
1F
100
AcDbEntity
  8
寸法
100
AcDbDimension
  2
*D17
 10
992.2708004774893
 20
1522.3522772966
 30
0.0
 11
973.5208004774889
 21
1552.3522772966
 31
0.0
 70
    33
 71
     5
 42
60.0
  3
ISO-25
100
AcDbAlignedDimension
 13
1119.570849396605
 23
1582.3522772966
 33
0.0
 14
1119.570849396605
 24
1522.3522772966
 34
0.0
  0
ARC
  5
163F
330
1F
100
AcDbEntity
  8
実形
100
AcDbCircle
 10
563.0349935989454
 20
1389.08731814427
 30
0.0
 40
100.0
100
AcDbArc
 50
92.54187329164322
 51
177.0816278913584
  0
ARC
  5
1640
330
1F
100
AcDbEntity
  8
実形
100
AcDbCircle
 10
935.5708513428071
 20
-7002.647725021417
 30
0.0
 40
8500.0
100
AcDbArc
 50
87.45812670835675
 51
92.54187329164322
  0
ARC
  5
1641
330
1F
100
AcDbEntity
  8
実形
100
AcDbCircle
 10
1308.106709086669
 20
1389.08731814427
 30
0.0
 40
100.0
100
AcDbArc
 50
2.918372108641579
 51
87.45812670835675
  0
ARC
  5
1642
330
1F
100
AcDbEntity
  8
実形
100
AcDbCircle
 10
-589.4291486571928
 20
1292.35227497858
 30
0.0
 40
2000.0
100
AcDbArc
 50
357.0816278913584
 51
2.918372108641579
  0
ARC
  5
1643
330
1F
100
AcDbEntity
  8
実形
100
AcDbCircle
 10
1308.106709086669
 20
1195.617231812891
 30
0.0
 40
100.0
100
AcDbArc
 50
272.5418732916432
 51
357.0816278913584
  0
ARC
  5
1644
330
1F
100
AcDbEntity
  8
実形
100
AcDbCircle
 10
935.5708513428071
 20
9587.352274978577
 30
0.0
 40
8500.0
100
AcDbArc
 50
267.4581267083568
 51
272.5418732916432
  0
ARC
  5
1645
330
1F
100
AcDbEntity
  8
実形
100
AcDbCircle
 10
563.0349935989454
 20
1195.617231812891
 30
0.0
 40
100.0
100
AcDbArc
 50
182.9183721086285
 51
267.4581267083568
  0
ARC
  5
1646
330
1F
100
AcDbEntity
  8
実形
100
AcDbCircle
 10
2460.570851342807
 20
1292.35227497858
 30
0.0
 40
2000.0
100
AcDbArc
 50
177.0816278913584
 51
182.9183721086416
  0
LINE
  5
1831
330
1F
100
AcDbEntity
  8
実形
100
AcDbLine
 10
1341.570849396604
 20
1522.44158975225
 30
0.0
 11
1109.570849396604
 21
1522.44158975225
 31
0.0
  0
LINE
  5
1832
330
1F
100
AcDbEntity
  8
実形
100
AcDbLine
 10
1341.570849396604
 20
1582.44158975225
 30
0.0
 11
1109.570849396604
 21
1582.44158975225
 31
0.0
  0
ARC
  5
1833
330
1F
100
AcDbEntity
  8
実形
100
AcDbCircle
 10
1341.570849396604
 20
1553.44158975225
 30
0.0
 40
29.0
100
AcDbArc
 50
0.0
 51
90.0
  0
ARC
  5
1834
330
1F
100
AcDbEntity
  8
実形
100
AcDbCircle
 10
1341.570849396604
 20
1551.44158975225
 30
0.0
 40
29.0
100
AcDbArc
 50
270.0
 51
0.0
  0
ARC
  5
1835
330
1F
100
AcDbEntity
  8
実形
100
AcDbCircle
 10
1109.570849396604
 20
1551.44158975225
 30
0.0
 40
29.0
100
AcDbArc
 50
180.0
 51
270.0
  0
ARC
  5
1836
330
1F
100
AcDbEntity
  8
実形
100
AcDbCircle
 10
1109.570849396604
 20
1553.44158975225
 30
0.0
 40
29.0
100
AcDbArc
 50
90.0
 51
180.0
  0
DIMENSION
  5
1837
330
1F
100
AcDbEntity
  8
寸法
100
AcDbDimension
  2
*D18
 10
1370.570849396604
 20
1686.772788979915
 30
0.0
 11
1225.570849396604
 21
1705.522788979915
 31
0.0
 70
    32
 71
     5
 42
290.0
  3
ISO-25
100
AcDbAlignedDimension
 13
1080.570849396603
 23
1582.44158975225
 33
0.0
 14
1370.570849396604
 24
1582.44158975225
 34
0.0
100
AcDbRotatedDimension
1001
ACAD
1000
DSTYLE
1002
{
1070
   279
1070
     1
1002
}
  0
TEXT
  5
1839
330
1F
100
AcDbEntity
  8
実形
100
AcDbText
 10
1003.385750748595
 20
1675.788656634615
 30
0.0
 40
25.0
  1
30R
 41
0.9
 72
     2
 11
1059.635750748595
 21
1688.288656634615
 31
0.0
100
AcDbText
 73
     2
  0
LINE
  5
183A
330
1F
100
AcDbEntity
  8
実形
370
    15
100
AcDbLine
 10
1150.537388109702
 20
1542.3522772966
 30
0.0
 11
1190.537388109702
 21
1542.3522772966
 31
0.0
  0
LINE
  5
183B
330
1F
100
AcDbEntity
  8
実形
370
    15
100
AcDbLine
 10
1200.537388109702
 20
1552.3522772966
 30
0.0
 11
1200.537388109702
 21
1552.3522772966
 31
0.0
  0
LINE
  5
183C
330
1F
100
AcDbEntity
  8
実形
370
    15
100
AcDbLine
 10
1190.537388109702
 20
1562.3522772966
 30
0.0
 11
1099.837330593481
 21
1562.352277296599
 31
0.0
  0
ARC
  5
183D
330
1F
100
AcDbEntity
  8
実形
370
    15
100
AcDbCircle
 10
1190.537388109702
 20
1552.3522772966
 30
0.0
 40
10.0
100
AcDbArc
 50
0.0
 51
90.0
  0
ARC
  5
183E
330
1F
100
AcDbEntity
  8
実形
370
    15
100
AcDbCircle
 10
1190.537388109702
 20
1552.3522772966
 30
0.0
 40
10.0
100
AcDbArc
 50
270.0
 51
0.0
  0
LINE
  5
183F
330
1F
100
AcDbEntity
  8
実形
370
    15
100
AcDbLine
 10
1101.170849396604
 20
1547.352277296599
 30
0.0
 11
1190.537388109702
 21
1547.3522772966
 31
0.0
  0
LINE
  5
1840
330
1F
100
AcDbEntity
  8
実形
370
    15
100
AcDbLine
 10
1190.537388109702
 20
1557.3522772966
 30
0.0
 11
1100.230026436758
 21
1557.352277296599
 31
0.0
  0
LINE
  5
1842
330
1F
100
AcDbEntity
  8
実形
370
    15
100
AcDbLine
 10
1190.537388109702
 20
1547.3522772966
 30
0.0
 11
1100.230026436758
 21
1547.352277296599
 31
0.0
  0
LINE
  5
1843
330
1F
100
AcDbEntity
  8
実形
370
    15
100
AcDbLine
 10
1190.537388109702
 20
1547.3522772966
 30
0.0
 11
1100.230026436758
 21
1547.352277296599
 31
0.0
  0
LINE
  5
1844
330
1F
100
AcDbEntity
  8
実形
370
    15
100
AcDbLine
 10
1190.537388109702
 20
1547.3522772966
 30
0.0
 11
1100.230026436758
 21
1547.352277296599
 31
0.0
  0
LINE
  5
1845
330
1F
100
AcDbEntity
  8
実形
370
    15
100
AcDbLine
 10
1190.537388109702
 20
1547.3522772966
 30
0.0
 11
1100.230026436758
 21
1547.352277296599
 31
0.0
  0
LINE
  5
1846
330
1F
100
AcDbEntity
  8
実形
370
    15
100
AcDbLine
 10
1190.537388109702
 20
1547.3522772966
 30
0.0
 11
1100.230026436758
 21
1547.352277296599
 31
0.0
  0
LINE
  5
1847
330
1F
100
AcDbEntity
  8
実形
370
    15
100
AcDbLine
 10
1190.537388109702
 20
1547.3522772966
 30
0.0
 11
1100.230026436758
 21
1547.352277296599
 31
0.0
  0
ARC
  5
1848
330
1F
100
AcDbEntity
  8
実形
370
    15
100
AcDbCircle
 10
1190.537388109702
 20
1552.3522772966
 30
0.0
 40
5.0
100
AcDbArc
 50
0.0
 51
90.0
  0
ARC
  5
1849
330
1F
100
AcDbEntity
  8
実形
370
    15
100
AcDbCircle
 10
1190.537388109702
 20
1552.3522772966
 30
0.0
 40
5.0
100
AcDbArc
 50
270.0
 51
0.0
  0
LINE
  5
184A
330
1F
100
AcDbEntity
  8
実形
370
    15
100
AcDbLine
 10
1250.537388109703
 20
1552.3522772966
 30
0.0
 11
1250.537388109703
 21
1552.3522772966
 31
0.0
  0
ARC
  5
184B
330
1F
100
AcDbEntity
  8
実形
370
    15
100
AcDbCircle
 10
1101.170849396604
 20
1552.44158975225
 30
0.0
 40
10.0
100
AcDbArc
 50
180.0
 51
270.0
  0
ARC
  5
184C
330
1F
100
AcDbEntity
  8
実形
370
    15
100
AcDbCircle
 10
1101.170849396604
 20
1552.44158975225
 30
0.0
 40
10.0
100
AcDbArc
 50
97.66332789946368
 51
180.0
  0
ARC
  5
184D
330
1F
100
AcDbEntity
  8
実形
370
    15
100
AcDbCircle
 10
1101.326644809011
 20
1552.506122325025
 30
0.0
 40
5.156199257937148
100
AcDbArc
 50
180.7171058390016
 51
268.2685350296829
  0
ARC
  5
184E
330
1F
100
AcDbEntity
  8
実形
370
    15
100
AcDbCircle
 10
1101.170849396604
 20
1552.44158975225
 30
0.0
 40
5.0
100
AcDbArc
 50
100.8456912240022
 51
180.0
  0
LINE
  5
184F
330
1F
100
AcDbEntity
  8
実形
100
AcDbLine
 10
1150.537388109702
 20
1542.3522772966
 30
0.0
 11
1102.499368877554
 21
1542.3522772966
 31
0.0
  0
LWPOLYLINE
  5
1850
330
1F
100
AcDbEntity
  8
実形
100
AcDbPolyline
 90
        2
 70
     0
 43
0.0
 10
1101.170849396604
 20
1542.44158975225
 10
1102.499368877554
 20
1542.3522772966
  0
LINE
  5
1851
330
1F
100
AcDbEntity
  8
実形
370
    15
100
AcDbLine
 10
1260.604310683505
 20
1562.3522772966
 30
0.0
 11
1351.304368199726
 21
1562.352277296599
 31
0.0
  0
ARC
  5
1852
330
1F
100
AcDbEntity
  8
実形
370
    15
100
AcDbCircle
 10
1260.604310683505
 20
1552.3522772966
 30
0.0
 40
10.0
100
AcDbArc
 50
90.0
 51
180.0
  0
ARC
  5
1853
330
1F
100
AcDbEntity
  8
実形
370
    15
100
AcDbCircle
 10
1260.738112929995
 20
1552.407700001772
 30
0.0
 40
10.13395380131631
100
AcDbArc
 50
180.3133528125275
 51
277.1375613778998
  0
LINE
  5
1854
330
1F
100
AcDbEntity
  8
実形
370
    15
100
AcDbLine
 10
1349.970849396603
 20
1547.352277296599
 30
0.0
 11
1260.604310683505
 21
1547.3522772966
 31
0.0
  0
LINE
  5
1855
330
1F
100
AcDbEntity
  8
実形
370
    15
100
AcDbLine
 10
1260.604310683505
 20
1557.3522772966
 30
0.0
 11
1350.911672356449
 21
1557.352277296599
 31
0.0
  0
ARC
  5
1856
330
1F
100
AcDbEntity
  8
実形
370
    15
100
AcDbCircle
 10
1260.604310683505
 20
1552.3522772966
 30
0.0
 40
5.0
100
AcDbArc
 50
90.0
 51
180.0
  0
ARC
  5
1857
330
1F
100
AcDbEntity
  8
実形
370
    15
100
AcDbCircle
 10
1260.604310683505
 20
1552.3522772966
 30
0.0
 40
5.0
100
AcDbArc
 50
180.0
 51
270.0
  0
ARC
  5
1858
330
1F
100
AcDbEntity
  8
実形
370
    15
100
AcDbCircle
 10
1349.970849396603
 20
1552.44158975225
 30
0.0
 40
10.0
100
AcDbArc
 50
270.0
 51
0.0
  0
ARC
  5
1859
330
1F
100
AcDbEntity
  8
実形
370
    15
100
AcDbCircle
 10
1349.970849396603
 20
1552.44158975225
 30
0.0
 40
10.0
100
AcDbArc
 50
0.0
 51
82.33667210053631
  0
ARC
  5
185A
330
1F
100
AcDbEntity
  8
実形
370
    15
100
AcDbCircle
 10
1349.815053984196
 20
1552.506122325025
 30
0.0
 40
5.156199257937148
100
AcDbArc
 50
271.7314649703171
 51
359.2828941609984
  0
ARC
  5
185B
330
1F
100
AcDbEntity
  8
実形
370
    15
100
AcDbCircle
 10
1349.970849396603
 20
1552.44158975225
 30
0.0
 40
5.0
100
AcDbArc
 50
0.0
 51
79.15430877599776
  0
LINE
  5
185C
330
1F
100
AcDbEntity
  8
実形
100
AcDbLine
 10
1300.604310683505
 20
1542.3522772966
 30
0.0
 11
1348.642329915654
 21
1542.3522772966
 31
0.0
  0
LINE
  5
185D
330
1F
100
AcDbEntity
  8
実形
100
AcDbLine
 10
1300.604310683505
 20
1542.3522772966
 30
0.0
 11
1261.997276885769
 21
1542.3522772966
 31
0.0
  0
ARC
  5
1861
330
1F
100
AcDbEntity
  8
実形
370
    15
100
AcDbCircle
 10
1225.570849396604
 20
1552.3522772966
 30
0.0
 40
12.5
100
AcDbArc
 50
282.555857798594
 51
347.4441422014061
  0
LINE
  5
1862
330
1F
100
AcDbEntity
  8
実形
370
    15
100
AcDbLine
 10
1214.345877236282
 20
1553.8522772966
 30
0.0
 11
1223.070849396604
 21
1553.8522772966
 31
0.0
  0
LINE
  5
1863
330
1F
100
AcDbEntity
  8
実形
370
    15
100
AcDbLine
 10
1214.345877236282
 20
1550.852277296599
 30
0.0
 11
1223.070849396604
 21
1550.852277296599
 31
0.0
  0
LINE
  5
1864
330
1F
100
AcDbEntity
  8
実形
370
    15
100
AcDbLine
 10
1227.070849396604
 20
1563.577249456921
 30
0.0
 11
1227.070849396604
 21
1554.852277296599
 31
0.0
  0
LINE
  5
1865
330
1F
100
AcDbEntity
  8
実形
370
    15
100
AcDbLine
 10
1224.070849396604
 20
1563.577249456921
 30
0.0
 11
1224.070849396604
 21
1554.8522772966
 31
0.0
  0
LINE
  5
1866
330
1F
100
AcDbEntity
  8
実形
370
    15
100
AcDbLine
 10
1224.070849396604
 20
1549.852277296599
 30
0.0
 11
1224.070849396604
 21
1541.127305136278
 31
0.0
  0
LINE
  5
1867
330
1F
100
AcDbEntity
  8
実形
370
    15
100
AcDbLine
 10
1228.070849396604
 20
1553.852277296599
 30
0.0
 11
1236.795821556926
 21
1553.8522772966
 31
0.0
  0
LINE
  5
1868
330
1F
100
AcDbEntity
  8
実形
370
    15
100
AcDbLine
 10
1227.070849396604
 20
1549.8522772966
 30
0.0
 11
1227.070849396604
 21
1541.127305136278
 31
0.0
  0
LINE
  5
1869
330
1F
100
AcDbEntity
  8
実形
370
    15
100
AcDbLine
 10
1228.070849396604
 20
1550.852277296599
 30
0.0
 11
1236.795821556926
 21
1550.852277296599
 31
0.0
  0
ARC
  5
186A
330
1F
100
AcDbEntity
  8
実形
370
    15
100
AcDbCircle
 10
1225.570849396604
 20
1552.3522772966
 30
0.0
 40
12.5
100
AcDbArc
 50
192.5558577985939
 51
257.4441422014061
  0
ARC
  5
186B
330
1F
100
AcDbEntity
  8
実形
370
    15
100
AcDbCircle
 10
1225.570849396604
 20
1552.3522772966
 30
0.0
 40
12.5
100
AcDbArc
 50
102.5558577985939
 51
167.444142201406
  0
ARC
  5
186C
330
1F
100
AcDbEntity
  8
実形
370
    15
100
AcDbCircle
 10
1225.570849396604
 20
1552.3522772966
 30
0.0
 40
12.5
100
AcDbArc
 50
12.55585779859394
 51
77.44414220140606
  0
ARC
  5
186D
330
1F
100
AcDbEntity
  8
実形
370
    15
100
AcDbCircle
 10
1228.070849396604
 20
1563.577249456921
 30
0.0
 40
1.0
100
AcDbArc
 50
77.44414220140606
 51
180.0
  0
ARC
  5
186E
330
1F
100
AcDbEntity
  8
実形
370
    15
100
AcDbCircle
 10
1236.795821556926
 20
1554.852277296599
 30
0.0
 40
1.0
100
AcDbArc
 50
270.0
 51
12.55585779859394
  0
ARC
  5
186F
330
1F
100
AcDbEntity
  8
実形
370
    15
100
AcDbCircle
 10
1236.795821556926
 20
1549.852277296599
 30
0.0
 40
1.0
100
AcDbArc
 50
347.4441422014061
 51
90.0
  0
ARC
  5
1870
330
1F
100
AcDbEntity
  8
実形
370
    15
100
AcDbCircle
 10
1228.070849396604
 20
1541.127305136278
 30
0.0
 40
1.0
100
AcDbArc
 50
180.0
 51
282.555857798594
  0
ARC
  5
1871
330
1F
100
AcDbEntity
  8
実形
370
    15
100
AcDbCircle
 10
1223.070849396604
 20
1541.127305136278
 30
0.0
 40
1.0
100
AcDbArc
 50
257.4441422014061
 51
0.0
  0
ARC
  5
1872
330
1F
100
AcDbEntity
  8
実形
370
    15
100
AcDbCircle
 10
1214.345877236282
 20
1549.8522772966
 30
0.0
 40
1.0
100
AcDbArc
 50
90.0
 51
192.5558577985685
  0
ARC
  5
1873
330
1F
100
AcDbEntity
  8
実形
370
    15
100
AcDbCircle
 10
1214.345877236282
 20
1554.8522772966
 30
0.0
 40
1.0
100
AcDbArc
 50
167.4441422014315
 51
270.0
  0
ARC
  5
1874
330
1F
100
AcDbEntity
  8
実形
370
    15
100
AcDbCircle
 10
1223.070849396604
 20
1563.577249456921
 30
0.0
 40
1.0
100
AcDbArc
 50
0.0
 51
102.5558577985939
  0
ARC
  5
1875
330
1F
100
AcDbEntity
  8
実形
370
    15
100
AcDbCircle
 10
1223.070849396604
 20
1549.852277296599
 30
0.0
 40
1.0
100
AcDbArc
 50
0.0
 51
90.0
  0
ARC
  5
1876
330
1F
100
AcDbEntity
  8
実形
370
    15
100
AcDbCircle
 10
1228.070849396604
 20
1549.8522772966
 30
0.0
 40
1.0
100
AcDbArc
 50
90.0
 51
180.0
  0
ARC
  5
1877
330
1F
100
AcDbEntity
  8
実形
370
    15
100
AcDbCircle
 10
1228.070849396604
 20
1554.852277296599
 30
0.0
 40
1.0
100
AcDbArc
 50
180.0
 51
270.0
  0
ARC
  5
1878
330
1F
100
AcDbEntity
  8
実形
370
    15
100
AcDbCircle
 10
1223.070849396604
 20
1554.8522772966
 30
0.0
 40
1.0
100
AcDbArc
 50
270.0
 51
0.0
  0
DIMENSION
  5
19A1
330
1F
100
AcDbEntity
  8
実形
100
AcDbDimension
  2
*D20
 10
1370.570849396604
 20
1686.772788979915
 30
0.0
 11
1381.534890361101
 21
1706.039033935798
 31
0.0
 70
   160
 71
     5
 42
40.0
  3
ISO-25
100
AcDbAlignedDimension
 13
1410.570849396604
 23
1553.320081513866
 33
0.0
 14
1370.570849396604
 24
1551.44158975225
 34
0.0
100
AcDbRotatedDimension
1001
ACAD
1000
DSTYLE
1002
{
1070
    42
1040
100.0
1070
   279
1070
     2
1070
   289
1070
     2
1002
}
  0
LINE
  5
19CA
330
1F
100
AcDbEntity
  8
実形
100
AcDbLine
 10
1410.570849396604
 20
1653.320081513866
 30
0.0
 11
1410.570849396604
 21
1647.44158975225
 31
0.0
  0
CIRCLE
  5
19F7
330
1F
100
AcDbEntity
  8
実形
100
AcDbCircle
 10
1260.570849396604
 20
1367.3522772966
 30
0.0
 40
115.5
  0
LINE
  5
1ACB
330
1F
100
AcDbEntity
  8
実形
100
AcDbLine
 10
1351.070849396604
 20
565.9986691217081
 30
0.0
 11
1170.070849396604
 21
565.9986691217081
 31
0.0
  0
LINE
  5
1ACC
330
1F
100
AcDbEntity
  8
実形
100
AcDbLine
 10
1170.070849396604
 20
572.9986691217082
 30
0.0
 11
1170.070849396604
 21
565.9986691217081
 31
0.0
  0
LINE
  5
1ACD
330
1F
100
AcDbEntity
  8
実形
100
AcDbLine
 10
1351.070849396604
 20
572.9986691217082
 30
0.0
 11
1351.070849396604
 21
565.9986691217081
 31
0.0
  0
TEXT
  5
1B15
330
1F
100
AcDbEntity
  8
0
100
AcDbText
 10
2264.667030651399
 20
151.8
 30
0.0
 40
35.0
  1
Jstn         
  7
MS明朝
 72
     4
 11
2431.067030651399
 21
166.5
 31
0.0
100
AcDbText
  0
TEXT
  5
1B16
330
1F
100
AcDbEntity
  8
0
100
AcDbText
 10
2388.12133577152
 20
149.3938667970955
 30
0.0
 40
35.0
  1
1018-588
  7
MS明朝
 72
     4
 11
2490.52133577152
 21
166.4938667970955
 31
0.0
100
AcDbText
  0
TEXT
  5
1B17
330
1F
100
AcDbEntity
  8
0
100
AcDbText
 10
2591.766661827541
 20
149.277932775477
 30
0.0
 40
35.0
  1
S-POR
  7
MS明朝
 72
     4
 11
2655.766661827541
 21
166.377932775477
 31
0.0
100
AcDbText
  0
LINE
  5
1B2A
330
1F
100
AcDbEntity
  8
補助
100
AcDbLine
 10
104.0
 20
2024.0
 30
0.0
 11
104.0
 21
4.0
 31
0.0
  0
LINE
  5
1BD6
330
1F
100
AcDbEntity
  8
実形
100
AcDbLine
 10
1350.570849396604
 20
1626.3522772966
 30
0.0
 11
520.5708493966041
 21
1626.3522772966
 31
0.0
  0
ARC
  5
1BD7
330
1F
100
AcDbEntity
  8
実形
100
AcDbCircle
 10
1350.570849396604
 20
1532.3522772966
 30
0.0
 40
94.0
100
AcDbArc
 50
0.000000000000007
 51
90.0
  0
LINE
  5
1BD8
330
1F
100
AcDbEntity
  8
実形
100
AcDbLine
 10
1444.570849396604
 20
1532.3522772966
 30
0.0
 11
1444.570849396604
 21
1194.293809470424
 31
0.0
  0
LINE
  5
1BD9
330
1F
100
AcDbEntity
  8
実形
100
AcDbLine
 10
1444.570849396604
 20
1452.3522772966
 30
0.0
 11
1444.570849396604
 21
1132.3522772966
 31
0.0
  0
ARC
  5
1BDA
330
1F
100
AcDbEntity
  8
実形
100
AcDbCircle
 10
1350.570849396604
 20
1132.3522772966
 30
0.0
 40
94.0
100
AcDbArc
 50
270.0
 51
0.000000000000007
  0
LINE
  5
1BDB
330
1F
100
AcDbEntity
  8
実形
100
AcDbLine
 10
1350.570849396604
 20
1038.3522772966
 30
0.0
 11
520.570849396604
 21
1038.3522772966
 31
0.0
  0
ARC
  5
1BDC
330
1F
100
AcDbEntity
  8
実形
100
AcDbCircle
 10
520.570849396604
 20
1132.3522772966
 30
0.0
 40
94.0
100
AcDbArc
 50
180.0
 51
270.0
  0
LINE
  5
1BDD
330
1F
100
AcDbEntity
  8
実形
100
AcDbLine
 10
426.5708493966037
 20
1452.3522772966
 30
0.0
 11
426.5708493966039
 21
1132.3522772966
 31
0.0
  0
LINE
  5
1BDE
330
1F
100
AcDbEntity
  8
実形
100
AcDbLine
 10
426.5708493966042
 20
1532.3522772966
 30
0.0
 11
426.5708493966039
 21
1194.293809470424
 31
0.0
  0
ARC
  5
1BDF
330
1F
100
AcDbEntity
  8
実形
100
AcDbCircle
 10
520.5708493966041
 20
1532.3522772966
 30
0.0
 40
94.0
100
AcDbArc
 50
90.0
 51
180.0
  0
DIMENSION
  5
1C3E
330
1F
100
AcDbEntity
  8
実形
100
AcDbDimension
  2
*D21
 10
1444.570849396604
 20
1803.119892102392
 30
0.0
 11
935.5708493966039
 21
1821.869892102392
 31
0.0
 70
    32
 71
     5
 42
1018.0
  3
ISO-25
100
AcDbAlignedDimension
 13
426.5708493966039
 23
1607.109385148558
 33
0.0
 14
1444.570849396604
 24
1592.142465673741
 34
0.0
100
AcDbRotatedDimension
  0
DIMENSION
  5
1C3F
330
1F
100
AcDbEntity
  8
実形
100
AcDbDimension
  2
*D22
 10
1492.941304120537
 20
1592.3522772966
 30
0.0
 11
1492.941304120536
 21
1530.268943963266
 31
0.0
 70
   160
  1
35
 71
     5
 42
34.0
  3
ISO-25
100
AcDbAlignedDimension
 13
1401.455947456513
 23
1626.3522772966
 33
0.0
 14
1401.455947456513
 24
1592.3522772966
 34
0.0
 50
90.0
100
AcDbRotatedDimension
  0
DIMENSION
  5
1C40
330
1F
100
AcDbEntity
  8
実形
100
AcDbDimension
  2
*D23
 10
1498.085982462899
 20
1038.3522772966
 30
0.0
 11
1498.085982462899
 21
1134.435610629933
 31
0.0
 70
   160
  1
35
 71
     5
 42
33.99999999999977
  3
ISO-25
100
AcDbAlignedDimension
 13
1401.455947456513
 23
1072.352277296599
 33
0.0
 14
1401.455947456513
 24
1038.3522772966
 34
0.0
 50
90.0
100
AcDbRotatedDimension
  0
DIMENSION
  5
1C41
330
1F
100
AcDbEntity
  8
実形
100
AcDbDimension
  2
*D24
 10
1567.7581836715
 20
1038.352277296599
 30
0.0
 11
1549.008183671499
 21
1332.3522772966
 31
0.0
 70
    32
 71
     5
 42
588.0
  3
ISO-25
100
AcDbAlignedDimension
 13
1401.455947456513
 23
1626.3522772966
 33
0.0
 14
1401.455947456513
 24
1038.3522772966
 34
0.0
 50
90.0
100
AcDbRotatedDimension
  0
LEADER
  5
1C42
330
1F
100
AcDbEntity
  8
実形
100
AcDbLeader
  3
ISO-25
 40
25.0
 41
16.66666666666666
 76
     2
 10
437.763184030433
 20
1589.054066083519
 30
0.0
 10
396.1418246124467
 20
1643.900820491015
 30
0.0
213
0.0
223
12.5
233
0.0
1001
ACAD
1000
DSTYLE
1002
{
1070
   147
1040
6.25
1070
    77
1070
     0
1070
    41
1040
20.0
1070
   342
1005
DA
1002
}
  0
TEXT
  5
1C43
330
1F
100
AcDbEntity
  8
実形
100
AcDbText
 10
335.21876374083
 20
1655.248415018226
 30
0.0
 40
25.0
  1
94R
 72
     2
 11
401.8854304074966
 21
1680.248415018226
 31
0.0
100
AcDbText
 73
     3
  0
LEADER
  5
1C44
330
1F
100
AcDbEntity
  8
実形
100
AcDbLeader
  3
ISO-25
 40
25.0
 41
16.66666666666666
 76
     2
 10
449.1206452778405
 20
1060.155920800345
 30
0.0
 10
392.3514996992217
 20
1001.806576684197
 30
0.0
213
0.0
223
12.5
233
0.0
1001
ACAD
1000
DSTYLE
1002
{
1070
   147
1040
6.25
1070
    77
1070
     0
1070
    41
1040
20.0
1070
   342
1005
DA
1002
}
  0
TEXT
  5
1C45
330
1F
100
AcDbEntity
  8
実形
100
AcDbText
 10
353.729815377263
 20
971.2892564290596
 30
0.0
 40
25.0
  1
94R
 72
     2
 11
420.3964820439296
 21
996.2892564290596
 31
0.0
100
AcDbText
 73
     3
  0
LEADER
  5
1C46
330
1F
100
AcDbEntity
  8
実形
100
AcDbLeader
  3
ISO-25
 40
25.0
 41
16.66666666666666
 76
     2
 10
1431.488857116859
 20
1600.732720886024
 30
0.0
 10
1486.711238667424
 20
1659.58683999187
 30
0.0
213
0.0
223
12.5
233
0.0
1001
ACAD
1000
DSTYLE
1002
{
1070
   147
1040
6.25
1070
    77
1070
     0
1070
    41
1040
20.0
1070
   342
1005
DA
1002
}
  0
TEXT
  5
1C47
330
1F
100
AcDbEntity
  8
実形
100
AcDbText
 10
1464.237607650727
 20
1664.728619250331
 30
0.0
 40
25.0
  1
94R
 72
     2
 11
1530.904274317394
 21
1689.728619250331
 31
0.0
100
AcDbText
 73
     3
  0
LEADER
  5
1C48
330
1F
100
AcDbEntity
  8
実形
100
AcDbLeader
  3
ISO-25
 40
25.0
 41
16.66666666666666
 76
     2
 10
1414.104278947609
 20
1052.304117401876
 30
0.0
 10
1473.653311695129
 20
1007.376005501246
 30
0.0
213
0.0
223
12.5
233
0.0
1001
ACAD
1000
DSTYLE
1002
{
1070
   147
1040
6.25
1070
    77
1070
     0
1070
    41
1040
20.0
1070
   342
1005
DA
1002
}
  0
TEXT
  5
1C49
330
1F
100
AcDbEntity
  8
実形
100
AcDbText
 10
1467.563786574254
 20
972.2727557077142
 30
0.0
 40
25.0
  1
94R
 72
     2
 11
1534.230453240921
 21
997.2727557077142
 31
0.0
100
AcDbText
 73
     3
  0
DIMENSION
  5
1CE5
330
1F
100
AcDbEntity
  8
実形
100
AcDbDimension
  2
*D25
 10
460.570849396604
 20
1710.584089516598
 30
0.0
 11
471.2828602940208
 21
1745.584089516598
 31
0.0
 70
   160
  1
35
 71
     5
 42
34.0
  3
ISO-25
100
AcDbAlignedDimension
 13
426.5708493966039
 23
1612.489944579861
 33
0.0
 14
460.570849396604
 24
1612.489944579861
 34
0.0
100
AcDbRotatedDimension
1001
ACAD
1000
DSTYLE
1002
{
1070
   279
1070
     2
1070
   289
1070
     2
1002
}
  0
DIMENSION
  5
1D20
330
1F
100
AcDbEntity
  8
実形
100
AcDbDimension
  2
*D26
 10
1444.570849396604
 20
1733.905237643899
 30
0.0
 11
1412.421166024298
 21
1759.635455941288
 31
0.0
 70
   160
  1
35
 71
     5
 42
33.99999999999977
  3
ISO-25
100
AcDbAlignedDimension
 13
1410.570849396604
 23
1624.980648317911
 33
0.0
 14
1444.570849396604
 24
1641.704334695308
 34
0.0
100
AcDbRotatedDimension
1001
ACAD
1000
DSTYLE
1002
{
1070
   279
1070
     2
1070
   289
1070
     2
1002
}
  0
LEADER
  5
1D5D
330
1F
100
AcDbEntity
  8
実形
100
AcDbLeader
  3
ISO-25
 76
     2
 10
1083.238909287405
 20
1575.144965588
 30
0.0
 10
1035.019925701162
 20
1668.283655152627
 30
0.0
1001
ACAD
1000
DSTYLE
1002
{
1070
   147
1040
6.25
1070
    77
1070
     0
1070
   279
1070
     2
1070
   289
1070
     2
1002
}
  0
TEXT
  5
1D95
330
1F
100
AcDbEntity
  8
実形
100
AcDbText
 10
578.7615933485894
 20
1531.597044072235
 30
0.0
 40
25.0
  1
4角×
  7
MS明朝
 72
     2
 11
670.1901647771609
 21
1556.597044072235
 31
0.0
100
AcDbText
 73
     3
  0
LEADER
  5
1D96
330
1F
100
AcDbEntity
  8
実形
100
AcDbLeader
  3
ISO-25
 40
25.0
 41
16.66666666666666
 76
     2
 10
496.2510177153626
 20
1563.086412946304
 30
0.0
 10
561.3345261414833
 20
1543.897048993685
 30
0.0
213
0.0
223
12.5
233
0.0
1001
ACAD
1000
DSTYLE
1002
{
1070
   147
1040
6.25
1070
    77
1070
     0
1070
    41
1040
20.0
1070
   342
1005
DA
1002
}
  0
TEXT
  5
1D97
330
1F
100
AcDbEntity
  8
実形
100
AcDbText
 10
676.0104474942885
 20
1531.891104269709
 30
0.0
 40
25.0
  1
59R
 72
     2
 11
742.6771141609552
 21
1556.891104269709
 31
0.0
100
AcDbText
 73
     3
  0
LINE
  5
1DC2
330
1F
100
AcDbEntity
  8
実形
100
AcDbLine
 10
426.5708493966038
 20
776.1986691217082
 30
0.0
 11
426.5708493966037
 21
763.1986691217081
 31
0.0
  0
LINE
  5
1DC3
330
1F
100
AcDbEntity
  8
実形
100
AcDbLine
 10
1444.570849396604
 20
776.1986691217081
 30
0.0
 11
1444.570849396604
 21
763.1986691217082
 31
0.0
  0
LINE
  5
1DC4
330
1F
100
AcDbEntity
  8
実形
100
AcDbLine
 10
1439.570849396604
 20
781.1986691217081
 30
0.0
 11
431.5708493966038
 21
781.1986691217082
 31
0.0
  0
LINE
  5
1DC5
330
1F
100
AcDbEntity
  8
実形
100
AcDbLine
 10
1444.570849396604
 20
763.1986691217082
 30
0.0
 11
426.5708493966039
 21
763.1986691217082
 31
0.0
  0
LINE
  5
2056
330
1F
100
AcDbEntity
  8
実形
100
AcDbLine
 10
2543.233877365066
 20
684.0947101512854
 30
0.0
 11
2153.233877365066
 21
684.0947101512854
 31
0.0
  0
LINE
  5
2057
330
1F
100
AcDbEntity
  8
実形
100
AcDbLine
 10
2356.033877365065
 20
585.2947101512854
 30
0.0
 11
2075.233877365066
 21
585.2947101512854
 31
0.0
  0
ARC
  5
2058
330
1F
100
AcDbEntity
  8
実形
100
AcDbCircle
 10
2153.233877365066
 20
606.0947101512854
 30
0.0
 40
78.0
100
AcDbArc
 50
90.0
 51
180.0
  0
ARC
  5
2059
330
1F
100
AcDbEntity
  8
実形
100
AcDbCircle
 10
2543.233877365066
 20
606.0947101512854
 30
0.0
 40
78.0
100
AcDbArc
 50
0.0
 51
90.0
  0
LINE
  5
205A
330
1F
100
AcDbEntity
  8
実形
100
AcDbLine
 10
2621.233877365066
 20
543.6947101512854
 30
0.0
 11
2356.033877365065
 21
543.6947101512854
 31
0.0
  0
LINE
  5
205B
330
1F
100
AcDbEntity
  8
実形
100
AcDbLine
 10
2278.033877365066
 20
543.6947101512854
 30
0.0
 11
2153.233877365066
 21
543.6947101512854
 31
0.0
  0
LINE
  5
205C
330
1F
100
AcDbEntity
  8
実形
100
AcDbLine
 10
2324.833877365066
 20
543.6947101512854
 30
0.0
 11
2106.433877365066
 21
543.6947101512854
 31
0.0
  0
LINE
  5
205D
330
1F
100
AcDbEntity
  8
実形
100
AcDbLine
 10
2621.233877365066
 20
403.2947101512855
 30
0.0
 11
2386.105494977745
 21
403.2947101512855
 31
0.0
  0
LINE
  5
205E
330
1F
100
AcDbEntity
  8
実形
100
AcDbLine
 10
2278.033877365066
 20
403.2947101512855
 30
0.0
 11
2153.233877365066
 21
403.2947101512855
 31
0.0
  0
LINE
  5
205F
330
1F
100
AcDbEntity
  8
実形
100
AcDbLine
 10
2075.233877365066
 20
606.0947101512854
 30
0.0
 11
2075.233877365066
 21
585.2947101512854
 31
0.0
  0
LINE
  5
2060
330
1F
100
AcDbEntity
  8
実形
100
AcDbLine
 10
2090.833877365066
 20
559.2947101512845
 30
0.0
 11
2324.833877365066
 21
559.2947101512845
 31
0.0
  0
LINE
  5
2061
330
1F
100
AcDbEntity
  8
実形
100
AcDbLine
 10
2356.033877365065
 20
585.2947101512854
 30
0.0
 11
2356.033877365065
 21
543.6947101512854
 31
0.0
  0
LINE
  5
2062
330
1F
100
AcDbEntity
  8
実形
100
AcDbLine
 10
2278.033877365066
 20
543.6947101512854
 30
0.0
 11
2153.233877365066
 21
543.6947101512854
 31
0.0
  0
LINE
  5
2063
330
1F
100
AcDbEntity
  8
実形
100
AcDbLine
 10
2621.233877365066
 20
606.0947101512854
 30
0.0
 11
2621.233877365066
 21
403.2947101512855
 31
0.0
  0
LINE
  5
2064
330
1F
100
AcDbEntity
  8
実形
100
AcDbLine
 10
2153.233877365066
 20
543.6947101512854
 30
0.0
 11
2153.233877365066
 21
403.2947101512863
 31
0.0
  0
LINE
  5
2065
330
1F
100
AcDbEntity
  8
実形
100
AcDbLine
 10
2090.833877365066
 20
559.2947101512845
 30
0.0
 11
2090.833877365066
 21
356.5086976533553
 31
0.0
  0
LINE
  5
2066
330
1F
100
AcDbEntity
  8
実形
100
AcDbLine
 10
2106.433877365066
 20
543.6947101512854
 30
0.0
 11
2106.433877365066
 21
356.5086976533554
 31
0.0
  0
ARC
  5
2067
330
1F
100
AcDbEntity
  8
実形
100
AcDbCircle
 10
2317.033877365066
 20
543.6947101512854
 30
0.0
 40
39.0
100
AcDbArc
 50
180.0
 51
0.0
  0
TEXT
  5
2068
330
1F
100
AcDbEntity
  8
実形
100
AcDbText
 10
1844.08269694555
 20
410.9876312842443
 30
0.0
 40
35.0
  1
シンク厚　
 11
1844.08269694555
 21
406.3209646175776
 31
0.0
100
AcDbText
 73
     1
  0
DIMENSION
  5
2069
330
1F
100
AcDbEntity
  8
実形
100
AcDbDimension
  2
*D49
 10
2075.233877365067
 20
467.1003685502147
 30
0.0
 11
2054.88545157578
 21
491.5915116428197
 31
0.0
 70
   160
  1
1
 71
     5
 42
15.59999999999991
  3
ISO-25
100
AcDbAlignedDimension
 13
2090.833877365067
 23
559.2947101512846
 33
0.0
 14
2075.233877365067
 24
533.5029867284119
 34
0.0
 50
180.0
100
AcDbRotatedDimension
1001
ACAD
1000
DSTYLE
1002
{
1070
   282
1070
     1
1070
   281
1070
     1
1070
    41
1040
5.0
1070
    42
1040
6.0
1070
   140
1040
25.0
1070
   147
1040
1.199999999999999
1070
   279
1070
     2
1070
   289
1070
     2
1070
   371
1070
    13
1070
   372
1070
    13
1002
}
  0
TEXT
  5
206A
330
1F
100
AcDbEntity
  8
実形
  6
HIDDEN2
100
AcDbText
 10
2095.797198899368
 20
462.9308652071995
 30
0.0
 40
10.14
  1
● 
 71
     2
100
AcDbText
  0
TEXT
  5
206B
330
1F
100
AcDbEntity
  8
実形
  6
HIDDEN2
100
AcDbText
 10
2079.566838424828
 20
462.4970760796131
 30
0.0
 40
10.14
  1
● 
 71
     2
100
AcDbText
  0
LINE
  5
206C
330
1F
100
AcDbEntity
  8
実形
100
AcDbLine
 10
2091.245173341136
 20
467.4229398449074
 30
0.0
 11
2075.560266305432
 21
467.4229398449074
 31
0.0
  0
LINE
  5
206D
330
1F
100
AcDbEntity
  8
実形
100
AcDbLine
 10
2386.105494977745
 20
403.2947101512855
 30
0.0
 11
2356.033877365065
 21
403.2947101512855
 31
0.0
  0
ARC
  5
206E
330
1F
100
AcDbEntity
  8
実形
100
AcDbCircle
 10
2317.033877365066
 20
403.2947101512855
 30
0.0
 40
39.0
100
AcDbArc
 50
0.0
 51
180.0
  0
LINE
  5
206F
330
1F
100
AcDbEntity
  8
実形
100
AcDbLine
 10
2278.033877365066
 20
457.3521962228079
 30
0.0
 11
2278.033877365066
 21
439.4500692892673
 31
0.0
  0
LINE
  5
2070
330
1F
100
AcDbEntity
  8
実形
100
AcDbLine
 10
2356.033877365065
 20
457.3521962228079
 30
0.0
 11
2356.033877365065
 21
439.4977027967055
 31
0.0
  0
TEXT
  5
2071
330
1F
100
AcDbEntity
  8
実形
100
AcDbText
 10
1859.409434822997
 20
359.2737114633438
 30
0.0
 40
28.0
  1
0.8mm
 11
1859.409434822997
 21
355.5403781300104
 31
0.0
100
AcDbText
 73
     1
  0
TEXT
  5
2072
330
1F
100
AcDbEntity
  8
実形
100
AcDbText
 10
1969.171950854548
 20
724.7069313792997
 30
0.0
 40
28.0
  1
5R
 11
1969.171950854548
 21
720.9735980459663
 31
0.0
100
AcDbText
 73
     1
  0
DIMENSION
  5
2073
330
1F
100
AcDbEntity
  8
実形
100
AcDbDimension
  2
*D50
 10
2324.833877365066
 20
617.1548568615962
 30
0.0
 11
2207.833877365066
 21
635.9048568615962
 31
0.0
 70
    32
  1
15
 71
     5
 42
234.0
  3
ISO-25
100
AcDbAlignedDimension
 13
2090.833877365066
 23
526.9073852958004
 33
0.0
 14
2324.833877365066
 24
526.9073852958004
 34
0.0
100
AcDbRotatedDimension
1001
ACAD
1000
DSTYLE
1002
{
1070
   279
1070
     2
1070
   371
1070
    18
1070
   372
1070
    18
1002
}
  0
LEADER
  5
2074
330
1F
100
AcDbEntity
  8
実形
100
AcDbLeader
  3
ISO-25
 76
     2
 10
2080.730586898456
 20
658.778126851076
 30
0.0
 10
2006.358162869183
 20
712.4806979619262
 30
0.0
1001
ACAD
1000
DSTYLE
1002
{
1070
   147
1040
6.25
1070
    77
1070
     0
1070
   279
1070
     2
1070
   371
1070
    18
1070
   372
1070
    18
1002
}
  0
LINE
  5
2075
330
1F
100
AcDbEntity
  8
実形
100
AcDbLine
 10
2324.833877365066
 20
559.2947101512845
 30
0.0
 11
2324.833877365066
 21
543.6947101512854
 31
0.0
  0
DIMENSION
  5
2076
330
1F
100
AcDbEntity
  8
実形
100
AcDbDimension
  2
*D51
 10
2228.767481940162
 20
543.6947101512855
 30
0.0
 11
2197.294896545438
 21
515.0052225685112
 31
0.0
 70
   160
  1
2.5
 71
     5
 42
38.99999999999995
  3
ISO-25
100
AcDbAlignedDimension
 13
2357.614562018891
 23
504.6947101512855
 33
0.0
 14
2281.267191428404
 24
543.6947101512855
 34
0.0
 50
90.0
100
AcDbRotatedDimension
1001
ACAD
1000
DSTYLE
1002
{
1070
   140
1040
23.0
1070
   279
1070
     2
1070
   371
1070
    18
1070
   372
1070
    18
1002
}
  0
DIMENSION
  5
2077
330
1F
100
AcDbEntity
  8
実形
100
AcDbDimension
  2
*D52
 10
2356.033877365066
 20
452.0882219802177
 30
0.0
 11
2317.033877365066
 21
470.8382219802177
 31
0.0
 70
    32
  1
5
 71
     5
 42
78.0
  3
ISO-25
100
AcDbAlignedDimension
 13
2278.033877365066
 23
513.0145559292668
 33
0.0
 14
2356.033877365066
 24
513.0145559292668
 34
0.0
100
AcDbRotatedDimension
1001
ACAD
1000
DSTYLE
1002
{
1070
   279
1070
     2
1070
   371
1070
    18
1070
   372
1070
    18
1002
}
  0
LINE
  5
2078
330
1F
100
AcDbEntity
  8
実形
100
AcDbLine
 10
2278.033877365066
 20
452.0882219802177
 30
0.0
 11
2278.033877365066
 21
494.7079487038194
 31
0.0
  0
LINE
  5
2079
330
1F
100
AcDbEntity
  8
実形
100
AcDbLine
 10
2356.033877365065
 20
452.0882219802177
 30
0.0
 11
2356.033877365065
 21
493.5103420910408
 31
0.0
  0
DIMENSION
  5
207A
330
1F
100
AcDbEntity
  8
実形
100
AcDbDimension
  2
*D53
 10
2230.705930897853
 20
403.2947101512855
 30
0.0
 11
2198.086469593912
 21
431.6583152348946
 31
0.0
 70
   160
  1
2.5
 71
     5
 42
38.99999999999995
  3
ISO-25
100
AcDbAlignedDimension
 13
2331.326187506493
 23
442.2947101512853
 33
0.0
 14
2343.612691407768
 24
403.2947101512855
 34
0.0
 50
90.0
100
AcDbRotatedDimension
1001
ACAD
1000
DSTYLE
1002
{
1070
   140
1040
23.0
1070
   279
1070
     2
1070
   371
1070
    18
1070
   372
1070
    18
1002
}
  0
DIMENSION
  5
207B
330
1F
100
AcDbEntity
  8
実形
100
AcDbDimension
  2
*D54
 10
2356.033877365066
 20
733.9587029177619
 30
0.0
 11
2215.633877365066
 21
752.7087029177619
 31
0.0
 70
    32
  1
18
 71
     5
 42
280.7999999999997
  3
ISO-25
100
AcDbAlignedDimension
 13
2075.233877365066
 23
631.1956311673393
 33
0.0
 14
2356.033877365066
 24
631.1956311673393
 34
0.0
100
AcDbRotatedDimension
1001
ACAD
1000
DSTYLE
1002
{
1070
   279
1070
     2
1070
   371
1070
    18
1070
   372
1070
    18
1002
}
  0
DIMENSION
  5
207C
330
1F
100
AcDbEntity
  8
実形
100
AcDbDimension
  2
*D55
 10
2621.233877365066
 20
733.9587029177619
 30
0.0
 11
2488.633877365066
 21
752.7087029177619
 31
0.0
 70
    32
  1
17
 71
     5
 42
265.1999999999998
  3
ISO-25
100
AcDbAlignedDimension
 13
2356.033877365066
 23
631.1956311673382
 33
0.0
 14
2621.233877365066
 24
631.1956311673382
 34
0.0
100
AcDbRotatedDimension
1001
ACAD
1000
DSTYLE
1002
{
1070
   279
1070
     2
1070
   371
1070
    18
1070
   372
1070
    18
1002
}
  0
DIMENSION
  5
207D
330
1F
100
AcDbEntity
  8
実形
100
AcDbDimension
  2
*D56
 10
2621.233877365066
 20
777.4666415156134
 30
0.0
 11
2348.233877365066
 21
796.2166415156134
 31
0.0
 70
    32
  1
35
 71
     5
 42
545.9999999999995
  3
ISO-25
100
AcDbAlignedDimension
 13
2075.233877365066
 23
631.1956311673382
 33
0.0
 14
2621.233877365066
 24
631.1956311673382
 34
0.0
100
AcDbRotatedDimension
1001
ACAD
1000
DSTYLE
1002
{
1070
   279
1070
     2
1070
   371
1070
    18
1070
   372
1070
    18
1002
}
  0
TEXT
  5
207E
330
1F
100
AcDbEntity
  8
実形
100
AcDbText
 10
2661.234589240095
 20
713.6502811430476
 30
0.0
 40
28.0
  1
5R
 11
2661.234589240095
 21
709.9169478097143
 31
0.0
100
AcDbText
 73
     1
  0
DIMENSION
  5
207F
330
1F
100
AcDbEntity
  8
実形
100
AcDbDimension
  2
*D57
 10
2153.233877365066
 20
297.5085770831867
 30
0.0
 11
2053.203290699754
 21
332.9138518235977
 31
0.0
 70
   160
  1
3.2
 71
     5
 42
46.80000000000018
  3
ISO-25
100
AcDbAlignedDimension
 13
2106.433877365066
 23
411.5474686202857
 33
0.0
 14
2153.233877365066
 24
411.5474686202857
 34
0.0
100
AcDbRotatedDimension
1001
ACAD
1000
DSTYLE
1002
{
1070
   140
1040
25.0
1070
   279
1070
     2
1070
   371
1070
    18
1070
   372
1070
    18
1002
}
  0
DIMENSION
  5
2080
330
1F
100
AcDbEntity
  8
実形
100
AcDbDimension
  2
*D58
 10
2278.033877365066
 20
297.5085770831867
 30
0.0
 11
2215.633877365066
 21
316.2585770831867
 31
0.0
 70
    32
  1
8
 71
     5
 42
124.8000000000001
  3
ISO-25
100
AcDbAlignedDimension
 13
2153.233877365066
 23
411.5474686202857
 33
0.0
 14
2278.033877365066
 24
411.5474686202857
 34
0.0
100
AcDbRotatedDimension
1001
ACAD
1000
DSTYLE
1002
{
1070
   279
1070
     2
1070
   371
1070
    18
1070
   372
1070
    18
1002
}
  0
DIMENSION
  5
2081
330
1F
100
AcDbEntity
  8
実形
100
AcDbDimension
  2
*D59
 10
2356.033877365066
 20
297.5085770831867
 30
0.0
 11
2317.033877365066
 21
316.2585770831867
 31
0.0
 70
    32
  1
5
 71
     5
 42
78.0
  3
ISO-25
100
AcDbAlignedDimension
 13
2278.033877365066
 23
411.5474686202857
 33
0.0
 14
2356.033877365066
 24
411.5474686202857
 34
0.0
100
AcDbRotatedDimension
1001
ACAD
1000
DSTYLE
1002
{
1070
   279
1070
     2
1070
   371
1070
    18
1070
   372
1070
    18
1002
}
  0
DIMENSION
  5
2082
330
1F
100
AcDbEntity
  8
実形
100
AcDbDimension
  2
*D60
 10
2621.233877365066
 20
297.5085770831867
 30
0.0
 11
2488.633877365066
 21
316.2585770831867
 31
0.0
 70
    32
  1
17
 71
     5
 42
265.1999999999998
  3
ISO-25
100
AcDbAlignedDimension
 13
2356.033877365066
 23
411.5474686202857
 33
0.0
 14
2621.233877365066
 24
411.5474686202857
 34
0.0
100
AcDbRotatedDimension
1001
ACAD
1000
DSTYLE
1002
{
1070
   279
1070
     2
1070
   371
1070
    18
1070
   372
1070
    18
1002
}
  0
DIMENSION
  5
2083
330
1F
100
AcDbEntity
  8
実形
100
AcDbDimension
  2
*D61
 10
2155.023276234156
 20
247.5388396829094
 30
0.0
 11
2116.023276234157
 21
266.2888396829094
 31
0.0
 70
    32
  1
5
 71
     5
 42
77.99999999999954
  3
ISO-25
100
AcDbAlignedDimension
 13
2077.023276234157
 23
362.8281686160613
 33
0.0
 14
2155.023276234156
 24
362.8281686160613
 34
0.0
100
AcDbRotatedDimension
1001
ACAD
1000
DSTYLE
1002
{
1070
   279
1070
     2
1070
   371
1070
    18
1070
   372
1070
    18
1002
}
  0
DIMENSION
  5
2084
330
1F
100
AcDbEntity
  8
実形
100
AcDbDimension
  2
*D62
 10
2623.023276234156
 20
247.5388396829094
 30
0.0
 11
2389.023276234156
 21
266.2888396829094
 31
0.0
 70
    32
  1
30
 71
     5
 42
468.0
  3
ISO-25
100
AcDbAlignedDimension
 13
2155.023276234156
 23
362.8281686160613
 33
0.0
 14
2623.023276234156
 24
362.8281686160613
 34
0.0
100
AcDbRotatedDimension
1001
ACAD
1000
DSTYLE
1002
{
1070
   279
1070
     2
1070
   371
1070
    18
1070
   372
1070
    18
1002
}
  0
LINE
  5
2085
330
1F
100
AcDbEntity
  8
実形
100
AcDbLine
 10
2089.14414202772
 20
414.8786635805636
 30
0.0
 11
2005.196656620899
 21
408.9889439325022
 31
0.0
  0
LINE
  5
2086
330
1F
100
AcDbEntity
  8
実形
100
AcDbLine
 10
2088.820600113063
 20
414.7274049971472
 30
0.0
 11
2056.485883910302
 21
400.9756935648645
 31
0.0
  0
LINE
  5
2087
330
1F
100
AcDbEntity
  8
実形
100
AcDbLine
 10
2088.472360117057
 20
415.6242072570588
 30
0.0
 11
2056.198770657017
 21
421.9662971197472
 31
0.0
  0
TEXT
  5
2088
330
1F
100
AcDbEntity
  8
実形
370
    -2
100
AcDbText
 10
1943.905583280765
 20
836.850626796042
 30
0.0
 40
38.0
  1
A-A　断面詳細図
100
AcDbText
  0
TEXT
  5
2089
330
1F
100
AcDbEntity
  8
実形
370
    -2
100
AcDbText
 10
2039.041635208127
 20
838.8009194430942
 30
0.0
 40
35.0
  1
´
100
AcDbText
  0
DIMENSION
  5
208A
330
1F
100
AcDbEntity
  8
実形
100
AcDbDimension
  2
*D63
 10
1970.032114275532
 20
585.2947101512854
 30
0.0
 11
1951.282114275532
 21
634.6947101512859
 31
0.0
 70
    32
  1
6.5
 71
     5
 42
98.80000000000007
  3
ISO-25
100
AcDbAlignedDimension
 13
2097.328912889143
 23
684.0947101512855
 33
0.0
 14
2097.328912889143
 24
585.2947101512854
 34
0.0
 50
90.0
100
AcDbRotatedDimension
1001
ACAD
1000
DSTYLE
1002
{
1070
   279
1070
     2
1070
   371
1070
    18
1070
   372
1070
    18
1002
}
  0
DIMENSION
  5
208B
330
1F
100
AcDbEntity
  8
実形
100
AcDbDimension
  2
*D64
 10
1916.035186721017
 20
559.2947101512846
 30
0.0
 11
1897.285186721017
 21
621.6947101512854
 31
0.0
 70
    32
  1
8.2
 71
     5
 42
124.8000000000008
  3
ISO-25
100
AcDbAlignedDimension
 13
2097.328912889143
 23
684.0947101512855
 33
0.0
 14
2097.328912889143
 24
559.2947101512846
 34
0.0
 50
90.0
100
AcDbRotatedDimension
1001
ACAD
1000
DSTYLE
1002
{
1070
   279
1070
     2
1070
   371
1070
    18
1070
   372
1070
    18
1002
}
  0
DIMENSION
  5
208C
330
1F
100
AcDbEntity
  8
実形
100
AcDbDimension
  2
*D65
 10
1864.389549972262
 20
684.0947101512855
 30
0.0
 11
1845.639549972261
 21
613.8947101512858
 31
0.0
 70
    32
  1
9
 71
     5
 42
140.4000000000001
  3
ISO-25
100
AcDbAlignedDimension
 13
2097.328912889143
 23
543.6947101512854
 33
0.0
 14
2097.328912889143
 24
684.0947101512855
 34
0.0
 50
90.0
100
AcDbRotatedDimension
1001
ACAD
1000
DSTYLE
1002
{
1070
   279
1070
     2
1070
   371
1070
    18
1070
   372
1070
    18
1002
}
  0
LINE
  5
208D
330
1F
100
AcDbEntity
  8
実形
100
AcDbLine
 10
1970.032114275532
 20
559.4808025581515
 30
0.0
 11
1970.032114275532
 21
543.6947101512854
 31
0.0
  0
TEXT
  5
208E
330
1F
100
AcDbEntity
  8
実形
  6
HIDDEN2
100
AcDbText
 10
1974.759963930668
 20
554.1584046865482
 30
0.0
 40
10.14
  1
● 
 71
     2
100
AcDbText
  0
TEXT
  5
208F
330
1F
100
AcDbEntity
  8
実形
  6
HIDDEN2
100
AcDbText
 10
1974.759963930668
 20
539.0050600708654
 30
0.0
 40
10.14
  1
● 
 71
     2
100
AcDbText
  0
TEXT
  5
2090
330
1F
100
AcDbEntity
  8
実形
100
AcDbText
 10
1965.904597556985
 20
483.7785695213888
 30
0.0
 40
29.25
  1
0.8
 50
90.0
 11
1969.804597556985
 21
483.7785695213888
 31
0.0
100
AcDbText
 73
     1
  0
ARC
  5
2091
330
1F
100
AcDbEntity
  8
実形
100
AcDbCircle
 10
2095.749391898479
 20
294.0352561825519
 30
0.0
 40
37.21807911390647
100
AcDbArc
 50
10.88380498131659
 51
99.73672806232286
  0
ARC
  5
2092
330
1F
100
AcDbEntity
  8
実形
100
AcDbCircle
 10
2101.132326064329
 20
286.3222816243725
 30
0.0
 40
34.71092069179851
100
AcDbArc
 50
27.82370983300087
 51
64.29661093933541
  0
ARC
  5
2093
330
1F
100
AcDbEntity
  8
実形
100
AcDbCircle
 10
2095.736654257051
 20
304.1012932169378
 30
0.0
 40
36.96117099445193
100
AcDbArc
 50
355.5051092068189
 51
31.89192001425599
  0
DIMENSION
  5
2094
330
1F
100
AcDbEntity
  8
実形
100
AcDbDimension
  2
*D66
 10
2673.699912636183
 20
403.2947101512855
 30
0.0
 11
2654.949912636183
 21
473.4947101512859
 31
0.0
 70
    32
  1
9
 71
     5
 42
140.4
  3
ISO-25
100
AcDbAlignedDimension
 13
2582.25404811461
 23
543.6947101512855
 33
0.0
 14
2582.25404811461
 24
403.2947101512855
 34
0.0
 50
90.0
100
AcDbRotatedDimension
1001
ACAD
1000
DSTYLE
1002
{
1070
   279
1070
     2
1070
   371
1070
    18
1070
   372
1070
    18
1002
}
  0
DIMENSION
  5
2095
330
1F
100
AcDbEntity
  8
実形
100
AcDbDimension
  2
*D67
 10
2673.699912636183
 20
543.6947101512855
 30
0.0
 11
2654.949912636183
 21
613.8947101512859
 31
0.0
 70
    32
  1
9
 71
     5
 42
140.3999999999999
  3
ISO-25
100
AcDbAlignedDimension
 13
2582.25404811461
 23
684.0947101512855
 33
0.0
 14
2582.25404811461
 24
543.6947101512855
 34
0.0
 50
90.0
100
AcDbRotatedDimension
1001
ACAD
1000
DSTYLE
1002
{
1070
   279
1070
     2
1070
   371
1070
    18
1070
   372
1070
    18
1002
}
  0
DIMENSION
  5
2096
330
1F
100
AcDbEntity
  8
実形
100
AcDbDimension
  2
*D68
 10
2715.480008308167
 20
403.2947101512855
 30
0.0
 11
2696.730008308167
 21
543.694710151286
 31
0.0
 70
    32
  1
18
 71
     5
 42
280.8
  3
ISO-25
100
AcDbAlignedDimension
 13
2582.25404811461
 23
684.0947101512855
 33
0.0
 14
2582.25404811461
 24
403.2947101512855
 34
0.0
 50
90.0
100
AcDbRotatedDimension
1001
ACAD
1000
DSTYLE
1002
{
1070
   279
1070
     2
1070
   371
1070
    18
1070
   372
1070
    18
1002
}
  0
LEADER
  5
2097
330
1F
100
AcDbEntity
  8
実形
100
AcDbLeader
  3
ISO-25
 76
     2
 10
2598.968887029636
 20
666.6445109732322
 30
0.0
 10
2665.822583513264
 20
707.9203906258708
 30
0.0
1001
ACAD
1000
DSTYLE
1002
{
1070
   147
1040
6.25
1070
    77
1070
     0
1070
   279
1070
     2
1070
   371
1070
    18
1070
   372
1070
    18
1002
}
  0
LINE
  5
2098
330
1F
100
AcDbEntity
  8
補助
100
AcDbLine
 10
2784.0
 20
1959.0
 30
0.0
 11
2019.387286519283
 21
1959.000000000001
 31
0.0
  0
LINE
  5
2099
330
1F
100
AcDbEntity
  8
補助
100
AcDbLine
 10
2784.0
 20
1894.0
 30
0.0
 11
2019.387286519283
 21
1894.0
 31
0.0
  0
LINE
  5
209A
330
1F
100
AcDbEntity
  8
補助
100
AcDbLine
 10
2784.0
 20
1829.0
 30
0.0
 11
2019.387286519283
 21
1829.0
 31
0.0
  0
LINE
  5
209B
330
1F
100
AcDbEntity
  8
補助
100
AcDbLine
 10
2784.0
 20
1764.0
 30
0.0
 11
2019.387286519283
 21
1764.0
 31
0.0
  0
LINE
  5
209C
330
1F
100
AcDbEntity
  8
補助
100
AcDbLine
 10
2202.547653420927
 20
1764.0
 30
0.0
 11
2202.547653420927
 21
2024.0
 31
0.0
  0
LINE
  5
209D
330
1F
100
AcDbEntity
  8
補助
100
AcDbLine
 10
2019.387286519283
 20
1764.0
 30
0.0
 11
2019.387286519283
 21
2024.0
 31
0.0
  0
TEXT
  5
209E
330
1F
100
AcDbEntity
  8
補助
100
AcDbText
 10
2050.295698850121
 20
1976.328571428572
 30
0.0
 40
30.0
  1
部品名
  7
明朝
 72
     4
 11
2116.124270278692
 21
1991.5
 31
0.0
100
AcDbText
  0
TEXT
  5
209F
330
1F
100
AcDbEntity
  8
補助
100
AcDbText
 10
2627.614285714286
 20
1976.071428571429
 30
0.0
 40
30.0
  1
厚さ
  7
明朝
 72
     4
 11
2671.5
 21
1991.5
 31
0.0
100
AcDbText
  0
LINE
  5
20A0
330
1F
100
AcDbEntity
  8
補助
100
AcDbLine
 10
2559.0
 20
1764.0
 30
0.0
 11
2559.0
 21
2024.0
 31
0.0
  0
TEXT
  5
20A1
330
1F
100
AcDbEntity
  8
補助
100
AcDbText
 10
2338.490869919937
 20
1975.947979478155
 30
0.0
 40
30.0
  1
材質
  7
明朝
 72
     4
 11
2382.376584205651
 21
1991.119408049583
 31
0.0
100
AcDbText
  0
TEXT
  5
20A2
330
1F
100
AcDbEntity
  8
実形
100
AcDbText
 10
2048.227810657788
 20
1910.557142857143
 30
0.0
 40
30.0
  1
ボウル
  7
明朝
 72
     4
 11
2114.056382086359
 21
1926.5
 31
0.0
100
AcDbText
  0
TEXT
  5
20A3
330
1F
100
AcDbEntity
  8
実形
100
AcDbText
 10
2594.700000000001
 20
1911.842857142857
 30
0.0
 40
30.0
  1
0.8ｍｍ
  7
明朝
 72
     4
 11
2671.500000000001
 21
1926.5
 31
0.0
100
AcDbText
  0
TEXT
  5
20A4
330
1F
100
AcDbEntity
  8
実形
100
AcDbText
 10
2239.074011965008
 20
1910.728571428572
 30
0.0
 40
30.0
  1
SUS304（No.4）
  7
明朝
 72
     4
 11
2392.674011965008
 21
1926.5
 31
0.0
100
AcDbText
  0
TEXT
  5
20A5
330
1F
100
AcDbEntity
  8
実形
100
AcDbText
 10
2070.170667800645
 20
1846.242857142857
 30
0.0
 40
30.0
  1
天板
  7
明朝
 72
     4
 11
2114.056382086359
 21
1861.5
 31
0.0
100
AcDbText
  0
TEXT
  5
20A6
330
1F
100
AcDbEntity
  8
実形
100
AcDbText
 10
2219.734774251222
 20
1848.285714285714
 30
0.0
 40
25.0
  1
アクリル人工大理石
  7
明朝
 72
     4
 11
2384.306202822651
 21
1861.5
 31
0.0
100
AcDbText
  0
TEXT
  5
20A7
330
1F
100
AcDbEntity
  8
実形
100
AcDbText
 10
2605.67142857143
 20
1846.842857142857
 30
0.0
 40
30.0
  1
18ｍｍ
  7
明朝
 72
     4
 11
2671.500000000001
 21
1861.5
 31
0.0
100
AcDbText
  0
TEXT
  5
20A8
330
1F
100
AcDbEntity
  8
実形
100
AcDbText
 10
2026.284953514931
 20
1780.557142857143
 30
0.0
 40
30.0
  1
ポケット
  7
明朝
 72
     4
 11
2114.056382086359
 21
1796.5
 31
0.0
100
AcDbText
  0
TEXT
  5
20A9
330
1F
100
AcDbEntity
  8
実形
100
AcDbText
 10
2292.877631394079
 20
1783.642857142857
 30
0.0
 40
25.0
  1
樹脂（PP）
  7
明朝
 72
     4
 11
2384.306202822651
 21
1796.5
 31
0.0
100
AcDbText
  0
TEXT
  5
20AA
330
1F
100
AcDbEntity
  8
実形
100
AcDbText
 10
2616.642857142859
 20
1781.842857142857
 30
0.0
 40
30.0
  1
3ｍｍ
  7
明朝
 72
     4
 11
2671.500000000001
 21
1796.5
 31
0.0
100
AcDbText
  0
DIMENSION
  5
229E
330
1F
100
AcDbEntity
  8
実形
100
AcDbDimension
  2
*D69
 10
310.8490213383086
 20
763.1986691217082
 30
0.0
 11
230.646940670955
 21
832.7451484667673
 31
0.0
 70
   160
 71
     5
 42
18.0
  3
ISO-25
100
AcDbAlignedDimension
 13
453.8487994470236
 23
781.1986691217082
 33
0.0
 14
454.8275770881994
 24
763.1986691217082
 34
0.0
 50
90.0
100
AcDbRotatedDimension
1001
ACAD
1000
DSTYLE
1002
{
1070
   140
1040
25.0
1070
   279
1070
     2
1070
   371
1070
    18
1070
   372
1070
    18
1002
}
  0
DIMENSION
  5
229F
330
1F
100
AcDbEntity
  8
実形
100
AcDbDimension
  2
*D70
 10
310.8490213383086
 20
757.9986691217083
 30
0.0
 11
233.4217910923346
 21
734.9383866657663
 31
0.0
 70
   160
 71
     5
 42
5.199999999999931
  3
ISO-25
100
AcDbAlignedDimension
 13
454.8275770881994
 23
763.1986691217082
 33
0.0
 14
454.8275770881994
 24
757.9986691217083
 34
0.0
 50
90.0
100
AcDbRotatedDimension
1001
ACAD
1000
DSTYLE
1002
{
1070
   140
1040
25.0
1070
   279
1070
     2
1070
   371
1070
    18
1070
   372
1070
    18
1002
}
  0
DIMENSION
  5
22A0
330
1F
100
AcDbEntity
  8
実形
100
AcDbDimension
  2
*D71
 10
310.8490213383086
 20
572.9986691217082
 30
0.0
 11
284.9751949937783
 21
653.7614210059601
 31
0.0
 70
   160
 71
     5
 42
185.0000000000001
  3
ISO-25
100
AcDbAlignedDimension
 13
454.8275770881994
 23
757.9986691217083
 33
0.0
 14
399.7610693134522
 24
572.9986691217082
 34
0.0
 50
90.0
100
AcDbRotatedDimension
1001
ACAD
1000
DSTYLE
1002
{
1070
   279
1070
     2
1070
   371
1070
    18
1070
   372
1070
    18
1002
}
  0
DIMENSION
  5
22A1
330
1F
100
AcDbEntity
  8
実形
100
AcDbDimension
  2
*D72
 10
200.2271228876673
 20
572.9986691217082
 30
0.0
 11
181.4771228876672
 21
677.0986691217083
 31
0.0
 70
    32
 71
     5
 42
208.2
  3
ISO-25
100
AcDbAlignedDimension
 13
453.8487994470236
 23
781.1986691217082
 33
0.0
 14
399.7610693134522
 24
572.9986691217082
 34
0.0
 50
90.0
100
AcDbRotatedDimension
1001
ACAD
1000
DSTYLE
1002
{
1070
   279
1070
     2
1070
   371
1070
    18
1070
   372
1070
    18
1002
}
  0
DIMENSION
  5
22A2
330
1F
100
AcDbEntity
  8
実形
100
AcDbDimension
  2
*D73
 10
310.8490213383086
 20
572.9986691217082
 30
0.0
 11
275.8490213383085
 21
546.6608854574714
 31
0.0
 70
   160
  1
7
 71
     5
 42
10.0
  3
ISO-25
100
AcDbAlignedDimension
 13
455.9209748974319
 23
562.9986691217082
 33
0.0
 14
455.9209748974319
 24
572.9986691217082
 34
0.0
 50
90.0
100
AcDbRotatedDimension
1001
ACAD
1000
DSTYLE
1002
{
1070
   279
1070
     2
1070
   371
1070
    18
1070
   372
1070
    18
1002
}
  0
LINE
  5
22A3
330
1F
100
AcDbEntity
  8
実形
100
AcDbLine
 10
308.6460362976288
 20
760.6167588787684
 30
0.0
 11
261.6721688914988
 21
738.6550007706428
 31
0.0
  0
LINE
  5
22A4
330
1F
100
AcDbEntity
  8
実形
100
AcDbLine
 10
306.2804511006655
 20
759.9410213620195
 30
0.0
 11
288.0316073091383
 21
755.2107865413309
 31
0.0
  0
LINE
  5
22A5
330
1F
100
AcDbEntity
  8
実形
100
AcDbLine
 10
306.6184052894535
 20
759.265269404581
 30
0.0
 11
293.1007318918494
 21
749.1290766871425
 31
0.0
  0
ARC
  5
22A6
330
1F
100
AcDbEntity
  8
実形
100
AcDbCircle
 10
353.691716959197
 20
893.2020070714951
 30
0.0
 40
128.7156019851906
100
AcDbArc
 50
213.3909885014397
 51
249.3522921630743
  0
LINE
  5
22A7
330
1F
100
AcDbEntity
  8
実形
100
AcDbLine
 10
308.3418270126642
 20
772.9094601027936
 30
0.0
 11
297.4364738158858
 21
780.5861605455811
 31
0.0
  0
LINE
  5
22A8
330
1F
100
AcDbEntity
  8
実形
100
AcDbLine
 10
308.1394328854587
 20
772.7685099842183
 30
0.0
 11
294.2547859140197
 21
776.3509127209053
 31
0.0
  0
LEADER
  5
22A9
330
1F
100
AcDbEntity
  8
実形
100
AcDbLeader
  3
ISO-25
 40
25.0
 41
16.66666666666666
 76
     2
 10
421.1108856321208
 20
786.8682129537892
 30
0.0
 10
380.237793626676
 20
830.5758612354784
 30
0.0
213
0.0
223
12.5
233
0.0
1001
ACAD
1000
DSTYLE
1002
{
1070
   147
1040
6.25
1070
    77
1070
     0
1070
    41
1040
20.0
1070
   342
1005
DA
1002
}
  0
TEXT
  5
22AA
330
1F
100
AcDbEntity
  8
実形
100
AcDbText
 10
355.3628555884194
 20
843.0027082612113
 30
0.0
 40
25.0
  1
5R
 72
     2
 11
397.029522255086
 21
868.0027082612113
 31
0.0
100
AcDbText
 73
     3
  0
LEADER
  5
22AB
330
1F
100
AcDbEntity
  8
実形
100
AcDbLeader
  3
ISO-25
 40
25.0
 41
16.66666666666666
 76
     2
 10
1457.547458414597
 20
786.6067733725193
 30
0.0
 10
1494.934933738144
 20
820.3461848330579
 30
0.0
213
0.0
223
12.5
233
0.0
1001
ACAD
1000
DSTYLE
1002
{
1070
   147
1040
6.25
1070
    77
1070
     0
1070
    41
1040
20.0
1070
   342
1005
DA
1002
}
  0
TEXT
  5
22AC
330
1F
100
AcDbEntity
  8
実形
100
AcDbText
 10
1485.301875830314
 20
827.1456951245781
 30
0.0
 40
25.0
  1
5R
 72
     2
 11
1526.96854249698
 21
852.1456951245781
 31
0.0
100
AcDbText
 73
     3
  0
ARC
  5
2320
330
1F
100
AcDbEntity
  8
実形
100
AcDbCircle
 10
431.5708493966038
 20
776.1986691217082
 30
0.0
 40
5.0
100
AcDbArc
 50
90.0
 51
180.0
  0
ARC
  5
2321
330
1F
100
AcDbEntity
  8
実形
100
AcDbCircle
 10
1439.570849396604
 20
776.1986691217081
 30
0.0
 40
5.0
100
AcDbArc
 50
0.0
 51
90.0
  0
LINE
  5
241E
330
1F
100
AcDbEntity
  8
実形
100
AcDbLine
 10
1704.849268087123
 20
1072.3522772966
 30
0.0
 11
1707.049268087123
 21
1072.3522772966
 31
0.0
  0
LINE
  5
241F
330
1F
100
AcDbEntity
  8
実形
100
AcDbLine
 10
1710.049268087123
 20
1075.3522772966
 30
0.0
 11
1710.049268087123
 21
1082.3522772966
 31
0.0
  0
LINE
  5
2420
330
1F
100
AcDbEntity
  8
実形
100
AcDbLine
 10
1715.049268087123
 20
1087.3522772966
 30
0.0
 11
1860.862329822111
 21
1087.3522772966
 31
0.0
  0
LINE
  5
2421
330
1F
100
AcDbEntity
  8
実形
100
AcDbLine
 10
1895.049268087122
 20
1276.852277296599
 30
0.0
 11
1895.049268087123
 21
1467.3522772966
 31
0.0
  0
LINE
  5
2422
330
1F
100
AcDbEntity
  8
実形
100
AcDbLine
 10
1865.049268087123
 20
1497.3522772966
 30
0.0
 11
1715.049268087123
 21
1497.3522772966
 31
0.0
  0
LINE
  5
2423
330
1F
100
AcDbEntity
  8
実形
100
AcDbLine
 10
1710.049268087123
 20
1502.3522772966
 30
0.0
 11
1710.049268087123
 21
1509.352277296599
 31
0.0
  0
LINE
  5
2424
330
1F
100
AcDbEntity
  8
実形
100
AcDbLine
 10
1707.049268087123
 20
1512.3522772966
 30
0.0
 11
1704.849268087123
 21
1512.352277296599
 31
0.0
  0
ARC
  5
2429
330
1F
100
AcDbEntity
  8
実形
100
AcDbCircle
 10
1707.049268087123
 20
1509.352277296599
 30
0.0
 40
3.0
100
AcDbArc
 50
0.0
 51
90.0
  0
ARC
  5
242A
330
1F
100
AcDbEntity
  8
実形
100
AcDbCircle
 10
1715.049268087123
 20
1082.3522772966
 30
0.0
 40
5.0
100
AcDbArc
 50
90.0
 51
180.0
  0
ARC
  5
242B
330
1F
100
AcDbEntity
  8
実形
100
AcDbCircle
 10
1715.049268087123
 20
1502.3522772966
 30
0.0
 40
5.0
100
AcDbArc
 50
180.0
 51
270.0
  0
ARC
  5
242C
330
1F
100
AcDbEntity
  8
実形
100
AcDbCircle
 10
1865.049268087123
 20
1467.3522772966
 30
0.0
 40
30.0
100
AcDbArc
 50
0.0
 51
90.0
  0
LINE
  5
242D
330
1F
100
AcDbEntity
  8
実形
100
AcDbLine
 10
1895.049268087123
 20
1276.8522772966
 30
0.0
 11
1890.852049571378
 21
1116.566968847363
 31
0.0
  0
ARC
  5
242E
330
1F
100
AcDbEntity
  8
実形
100
AcDbCircle
 10
1860.862329822111
 20
1117.3522772966
 30
0.0
 40
30.0
100
AcDbArc
 50
270.0
 51
358.4999999999972
  0
ARC
  5
2430
330
1F
100
AcDbEntity
  8
実形
100
AcDbCircle
 10
1707.049268087123
 20
1075.3522772966
 30
0.0
 40
3.0
100
AcDbArc
 50
270.0
 51
0.0
  0
DIMENSION
  5
2434
330
1F
100
AcDbEntity
  8
寸法
100
AcDbDimension
  2
*D74
 10
2013.621112758511
 20
1287.8522772966
 30
0.0
 11
2013.621112758511
 21
1366.560269253726
 31
0.0
 70
   160
  1
158%%C
 71
     5
 42
159.0
  3
ISO-25
100
AcDbAlignedDimension
 13
1902.049268087123
 23
1446.8522772966
 33
0.0
 14
1902.049268087123
 24
1287.8522772966
 34
0.0
 50
90.0
100
AcDbRotatedDimension
  0
DIMENSION
  5
2435
330
1F
100
AcDbEntity
  8
寸法
100
AcDbDimension
  2
*D75
 10
1841.585529320978
 20
1276.8522772966
 30
0.0
 11
1841.585529320978
 21
1367.3522772966
 31
0.0
 70
   160
  1
181%%C
 71
     5
 42
181.0
  3
ISO-25
100
AcDbAlignedDimension
 13
1949.288653910254
 23
1457.8522772966
 33
0.0
 14
1949.288653910254
 24
1276.8522772966
 34
0.0
 50
90.0
100
AcDbRotatedDimension
  0
LEADER
  5
2436
330
1F
100
AcDbEntity
  8
寸法
100
AcDbLeader
  3
ISO-25
 40
25.0
 41
62.5
 76
     2
 10
1890.377521388739
 20
1486.335110739059
 30
0.0
 10
1936.956545264997
 20
1518.790006398325
 30
0.0
213
0.0
223
-12.5
233
0.0
1001
ACAD
1000
DSTYLE
1002
{
1070
   147
1040
6.25
1070
    77
1070
     0
1070
    41
1040
25.0
1070
   342
1005
DA
1002
}
  0
TEXT
  5
2437
330
1F
100
AcDbEntity
  8
寸法
100
AcDbText
 10
1947.43414135313
 20
1517.743072744891
 30
0.0
 40
25.0
  1
30R
 11
1947.43414135313
 21
1514.409739411557
 31
0.0
100
AcDbText
 73
     1
  0
LEADER
  5
2438
330
1F
100
AcDbEntity
  8
実形
100
AcDbLeader
  3
ISO-25
 76
     2
 10
1715.184779158265
 20
1083.169896938039
 30
0.0
 10
1749.799066530605
 20
1045.447915749965
 30
0.0
1001
ACAD
1000
DSTYLE
1002
{
1070
   147
1040
6.25
1070
    77
1070
     0
1070
    41
1040
20.0
1070
   342
1005
DA
1002
}
  0
LEADER
  5
2439
330
1F
100
AcDbEntity
  8
実形
100
AcDbLeader
  3
ISO-25
 76
     2
 10
1706.295362219778
 20
1075.672741820335
 30
0.0
 10
1655.89292841903
 20
1111.634830283464
 30
0.0
1001
ACAD
1000
DSTYLE
1002
{
1070
   147
1040
6.25
1070
    77
1070
     0
1070
    41
1040
20.0
1070
   342
1005
DA
1002
}
  0
LEADER
  5
243A
330
1F
100
AcDbEntity
  8
実形
100
AcDbLeader
  3
ISO-25
 76
     2
 10
1880.15703805502
 20
1100.623143552641
 30
0.0
 10
1842.502267544508
 20
1136.862496241599
 30
0.0
1001
ACAD
1000
DSTYLE
1002
{
1070
   147
1040
6.25
1070
    77
1070
     0
1070
    41
1040
20.0
1070
   342
1005
DA
1002
}
  0
TEXT
  5
243B
330
1F
100
AcDbEntity
  8
寸法
100
AcDbText
 10
1770.503483437017
 20
1134.91259141504
 30
0.0
 40
25.0
  1
30R
 11
1770.503483437017
 21
1131.579258081707
 31
0.0
100
AcDbText
 73
     1
  0
TEXT
  5
243C
330
1F
100
AcDbEntity
  8
寸法
100
AcDbText
 10
1606.462657514498
 20
1105.101881847689
 30
0.0
 40
25.0
  1
3R
 11
1606.462657514498
 21
1101.768548514356
 31
0.0
100
AcDbText
 73
     1
  0
TEXT
  5
243D
330
1F
100
AcDbEntity
  8
寸法
100
AcDbText
 10
1769.767702995968
 20
1023.960353525579
 30
0.0
 40
25.0
  1
5R
 11
1769.767702995968
 21
1020.627020192245
 31
0.0
100
AcDbText
 73
     1
  0
LINE
  5
2441
330
1F
100
AcDbEntity
  8
実形
100
AcDbLine
 10
1819.049268087123
 20
1568.9522772966
 30
0.0
 11
1807.049268087123
 21
1568.9522772966
 31
0.0
  0
LINE
  5
2442
330
1F
100
AcDbEntity
  8
実形
100
AcDbLine
 10
1821.049268087123
 20
1567.5022772966
 30
0.0
 11
1801.049268087123
 21
1567.502277296599
 31
0.0
  0
LINE
  5
2444
330
1F
100
AcDbEntity
  8
実形
100
AcDbLine
 10
1707.049268087123
 20
1592.352277296599
 30
0.0
 11
1704.849268087123
 21
1592.352277296599
 31
0.0
  0
ARC
  5
2445
330
1F
100
AcDbEntity
  8
実形
100
AcDbCircle
 10
1707.049268087123
 20
1589.352277296599
 30
0.0
 40
3.0
100
AcDbArc
 50
0.0
 51
90.0
  0
LINE
  5
2446
330
1F
100
AcDbEntity
  8
実形
100
AcDbLine
 10
1713.049268087123
 20
1582.352277296599
 30
0.0
 11
1795.049268087123
 21
1582.352277296599
 31
0.0
  0
ARC
  5
2447
330
1F
100
AcDbEntity
  8
実形
100
AcDbCircle
 10
1801.049268087123
 20
1578.652277296598
 30
0.0
 40
3.0
100
AcDbArc
 50
180.0
 51
240.0000000000027
  0
ARC
  5
2448
330
1F
100
AcDbEntity
  8
実形
100
AcDbCircle
 10
1798.049268087123
 20
1573.456124873892
 30
0.0
 40
3.0
100
AcDbArc
 50
0.0
 51
60.00000000000272
  0
LINE
  5
2449
330
1F
100
AcDbEntity
  8
実形
100
AcDbLine
 10
1798.049268087123
 20
1579.352277296599
 30
0.0
 11
1798.049268087123
 21
1577.848429719305
 31
0.0
  0
LINE
  5
244A
330
1F
100
AcDbEntity
  8
実形
100
AcDbLine
 10
1801.049268087123
 20
1573.456124873892
 30
0.0
 11
1801.049268087123
 21
1531.248429719307
 31
0.0
  0
LINE
  5
244B
330
1F
100
AcDbEntity
  8
実形
100
AcDbLine
 10
1821.049268087123
 20
1567.5022772966
 30
0.0
 11
1821.049268087123
 21
1552.3522772966
 31
0.0
  0
LINE
  5
244C
330
1F
100
AcDbEntity
  8
実形
100
AcDbLine
 10
1806.049268087123
 20
1567.502277296599
 30
0.0
 11
1806.049268087123
 21
1552.3522772966
 31
0.0
  0
LINE
  5
244D
330
1F
100
AcDbEntity
  8
実形
100
AcDbLine
 10
1788.549268087123
 20
1522.352277296599
 30
0.0
 11
1704.849268087123
 21
1522.352277296599
 31
0.0
  0
ARC
  5
244E
330
1F
100
AcDbEntity
  8
実形
100
AcDbCircle
 10
1795.049268087123
 20
1579.352277296599
 30
0.0
 40
3.0
100
AcDbArc
 50
0.0
 51
90.0
  0
LINE
  5
2452
330
1F
100
AcDbEntity
  8
実形
100
AcDbLine
 10
1710.049268087123
 20
1589.352277296599
 30
0.0
 11
1710.049268087123
 21
1585.352277296599
 31
0.0
  0
ARC
  5
2453
330
1F
100
AcDbEntity
  8
実形
100
AcDbCircle
 10
1713.049268087123
 20
1585.352277296599
 30
0.0
 40
3.0
100
AcDbArc
 50
180.0
 51
270.0
  0
LINE
  5
2456
330
1F
100
AcDbEntity
  8
実形
100
AcDbLine
 10
1713.049268087123
 20
1522.352277296599
 30
0.0
 11
1795.049268087123
 21
1522.3522772966
 31
0.0
  0
LINE
  5
2457
330
1F
100
AcDbEntity
  8
実形
100
AcDbLine
 10
1801.049268087123
 20
1531.248429719306
 30
0.0
 11
1801.049268087123
 21
1573.456124873892
 31
0.0
  0
LINE
  5
2458
330
1F
100
AcDbEntity
  8
実形
100
AcDbLine
 10
1798.049268087123
 20
1525.3522772966
 30
0.0
 11
1798.049268087123
 21
1526.0522772966
 31
0.0
  0
DIMENSION
  5
2459
330
1F
100
AcDbEntity
  8
実形
100
AcDbDimension
  2
*D76
 10
1862.835607686075
 20
1535.7522772966
 30
0.0
 11
1891.484041377148
 21
1552.3522772966
 31
0.0
 70
   160
  1
33
 71
     5
 42
33.19999999999982
  3
ISO-25
100
AcDbAlignedDimension
 13
1821.049268087123
 23
1568.9522772966
 33
0.0
 14
1821.049268087123
 24
1535.7522772966
 34
0.0
 50
90.0
100
AcDbRotatedDimension
1001
ACAD
1000
DSTYLE
1002
{
1070
    76
1070
     1
1070
    75
1070
     1
1070
   279
1070
     2
1070
   341
1005
1890
1002
}
  0
LINE
  5
245A
330
1F
100
AcDbEntity
  8
実形
100
AcDbLine
 10
1862.835607686075
 20
1535.7522772966
 30
0.0
 11
1833.88853954762
 21
1535.7522772966
 31
0.0
  0
LINE
  5
245B
330
1F
100
AcDbEntity
  8
実形
100
AcDbLine
 10
1862.835607686075
 20
1566.7647772966
 30
0.0
 11
1862.835607686075
 21
1568.9522772966
 31
0.0
  0
LINE
  5
245C
330
1F
100
AcDbEntity
  8
実形
100
AcDbLine
 10
1862.835607686075
 20
1568.9522772966
 30
0.0
 11
1834.061406081097
 21
1568.9522772966
 31
0.0
  0
ARC
  5
245E
330
1F
100
AcDbEntity
  8
実形
100
AcDbCircle
 10
1801.049268087123
 20
1526.0522772966
 30
0.0
 40
3.0
100
AcDbArc
 50
119.9999999999973
 51
180.0
  0
ARC
  5
245F
330
1F
100
AcDbEntity
  8
実形
100
AcDbCircle
 10
1798.049268087123
 20
1531.248429719307
 30
0.0
 40
3.0
100
AcDbArc
 50
299.9999999999973
 51
0.0
  0
ARC
  5
2460
330
1F
100
AcDbEntity
  8
実形
100
AcDbCircle
 10
1795.049268087123
 20
1525.3522772966
 30
0.0
 40
3.0
100
AcDbArc
 50
270.0
 51
0.0
  0
LINE
  5
2461
330
1F
100
AcDbEntity
  8
実形
100
AcDbLine
 10
1801.049268087123
 20
1573.456124873892
 30
0.0
 11
1801.049268087123
 21
1531.248429719307
 31
0.0
  0
LINE
  5
2462
330
1F
100
AcDbEntity
  8
実形
100
AcDbLine
 10
1820.049268087123
 20
1567.5022772966
 30
0.0
 11
1819.049268087123
 21
1568.9522772966
 31
0.0
  0
LINE
  5
2463
330
1F
100
AcDbEntity
  8
実形
100
AcDbLine
 10
1807.049268087124
 20
1568.9522772966
 30
0.0
 11
1806.049268087123
 21
1567.502277296599
 31
0.0
  0
LINE
  5
2464
330
1F
100
AcDbEntity
  8
実形
100
AcDbLine
 10
1819.049268087123
 20
1535.7522772966
 30
0.0
 11
1807.049268087123
 21
1535.7522772966
 31
0.0
  0
LINE
  5
2465
330
1F
100
AcDbEntity
  8
実形
100
AcDbLine
 10
1821.049268087123
 20
1537.2022772966
 30
0.0
 11
1801.049268087123
 21
1537.2022772966
 31
0.0
  0
LINE
  5
2466
330
1F
100
AcDbEntity
  8
実形
100
AcDbLine
 10
1821.049268087123
 20
1537.2022772966
 30
0.0
 11
1821.049268087123
 21
1552.3522772966
 31
0.0
  0
LINE
  5
2467
330
1F
100
AcDbEntity
  8
実形
100
AcDbLine
 10
1806.049268087123
 20
1537.2022772966
 30
0.0
 11
1806.049268087123
 21
1552.352277296599
 31
0.0
  0
LINE
  5
2468
330
1F
100
AcDbEntity
  8
実形
100
AcDbLine
 10
1820.049268087123
 20
1537.2022772966
 30
0.0
 11
1819.049268087123
 21
1535.7522772966
 31
0.0
  0
LINE
  5
2469
330
1F
100
AcDbEntity
  8
実形
100
AcDbLine
 10
1807.049268087124
 20
1535.7522772966
 30
0.0
 11
1806.049268087123
 21
1537.2022772966
 31
0.0
  0
LINE
  5
246A
330
1F
100
AcDbEntity
  8
実形
100
AcDbLine
 10
1883.534463802447
 20
1482.8522772966
 30
0.0
 11
1841.363618757812
 21
1482.8522772966
 31
0.0
  0
LINE
  5
246B
330
1F
100
AcDbEntity
  8
実形
100
AcDbLine
 10
1841.585529320978
 20
1457.8522772966
 30
0.0
 11
1841.585529320978
 21
1482.800320689573
 31
0.0
  0
HATCH
  5
246C
330
1F
100
AcDbEntity
  8
実形
100
AcDbHatch
 10
0.0
 20
0.0
 30
0.0
210
0.0
220
0.0
230
1.0
  2
SOLID
 70
     1
 71
     0
 91
        1
 92
        7
 72
     1
 73
     1
 93
        2
 10
1845.155213422717
 20
1483.089914137067
 42
1.0
 10
1838.168954649626
 20
1483.089914137067
 42
1.0
 97
        0
 75
     0
 76
     1
 47
0.3373960739521582
 98
        1
 10
1841.881980247301
 20
1481.283764763653
  0
TEXT
  5
246D
330
1F
100
AcDbEntity
  8
寸法
100
AcDbText
 10
1833.439357606446
 20
1452.476065958392
 30
0.0
 40
20.0
  1
25
 50
90.0
 11
1836.106024273113
 21
1452.476065958392
 31
0.0
100
AcDbText
 73
     1
  0
LINE
  5
246E
330
1F
100
AcDbEntity
  8
実形
100
AcDbLine
 10
1883.534463802447
 20
1251.8522772966
 30
0.0
 11
1841.363618757812
 21
1251.8522772966
 31
0.0
  0
LINE
  5
246F
330
1F
100
AcDbEntity
  8
実形
100
AcDbLine
 10
1841.585529320978
 20
1276.8522772966
 30
0.0
 11
1841.585529320978
 21
1251.904233903626
 31
0.0
  0
HATCH
  5
2470
330
1F
100
AcDbEntity
  8
実形
100
AcDbHatch
 10
0.0
 20
0.0
 30
0.0
210
0.0
220
0.0
230
1.0
  2
SOLID
 70
     1
 71
     0
 91
        1
 92
        7
 72
     1
 73
     1
 93
        2
 10
1845.155213422717
 20
1251.614640456132
 42
-1.0
 10
1838.168954649626
 20
1251.614640456132
 42
-1.0
 97
        0
 75
     0
 76
     1
 47
0.3373960739521582
 98
        1
 10
1841.881980247301
 20
1253.420789829546
  0
TEXT
  5
2471
330
1F
100
AcDbEntity
  8
寸法
100
AcDbText
 10
1833.439357606446
 20
1246.476065958393
 30
0.0
 40
20.0
  1
25
 50
90.0
 11
1836.106024273113
 21
1246.476065958393
 31
0.0
100
AcDbText
 73
     1
  0
LINE
  5
2472
330
1F
100
AcDbEntity
  8
実形
100
AcDbLine
 10
1902.049268087123
 20
1457.8522772966
 30
0.0
 11
1902.049268087123
 21
1276.852277296585
 31
0.0
  0
LINE
  5
2473
330
1F
100
AcDbEntity
  8
実形
100
AcDbLine
 10
1895.049268087123
 20
1457.8522772966
 30
0.0
 11
1902.049268087123
 21
1457.8522772966
 31
0.0
  0
LINE
  5
2474
330
1F
100
AcDbEntity
  8
実形
100
AcDbLine
 10
1895.049268087122
 20
1276.852277296582
 30
0.0
 11
1902.049268087123
 21
1276.852277296585
 31
0.0
  0
LINE
  5
2520
330
1F
100
AcDbEntity
  8
実形
100
AcDbLine
 10
1691.849268087123
 20
1626.3522772966
 30
0.0
 11
1704.849268087123
 21
1626.352277296599
 31
0.0
  0
LINE
  5
2521
330
1F
100
AcDbEntity
  8
実形
100
AcDbLine
 10
1691.849268087123
 20
1038.352277296599
 30
0.0
 11
1704.849268087123
 21
1038.352277296599
 31
0.0
  0
LINE
  5
2522
330
1F
100
AcDbEntity
  8
実形
100
AcDbLine
 10
1686.849268087123
 20
1621.352277296599
 30
0.0
 11
1686.849268087122
 21
1043.352277296599
 31
0.0
  0
LINE
  5
2523
330
1F
100
AcDbEntity
  8
実形
100
AcDbLine
 10
1704.849268087123
 20
1626.3522772966
 30
0.0
 11
1704.849268087123
 21
1038.3522772966
 31
0.0
  0
DIMENSION
  5
2544
330
1F
100
AcDbEntity
  8
実形
100
AcDbDimension
  2
*D77
 10
1801.049268087123
 20
1668.261424301384
 30
0.0
 11
1743.949268087123
 21
1687.011424301384
 31
0.0
 70
    32
 71
     5
 42
114.2000000000007
  3
ISO-25
100
AcDbAlignedDimension
 13
1686.849268087122
 23
1568.9522772966
 33
0.0
 14
1801.049268087123
 24
1568.9522772966
 34
0.0
100
AcDbRotatedDimension
1001
ACAD
1000
DSTYLE
1002
{
1070
   341
1005
1890
1002
}
  0
DIMENSION
  5
2545
330
1F
100
AcDbEntity
  8
実形
100
AcDbDimension
  2
*D78
 10
1821.049268087123
 20
1668.261424301384
 30
0.0
 11
1848.008310391936
 21
1671.923133829423
 31
0.0
 70
   160
 71
     5
 42
20.0
  3
ISO-25
100
AcDbAlignedDimension
 13
1801.049268087123
 23
1568.9522772966
 33
0.0
 14
1821.049268087123
 24
1568.9522772966
 34
0.0
100
AcDbRotatedDimension
1001
ACAD
1000
DSTYLE
1002
{
1070
   279
1070
     2
1070
   341
1005
1890
1002
}
  0
LEADER
  5
25AF
330
1F
100
AcDbEntity
  8
実形
100
AcDbLeader
  3
ISO-25
 40
25.0
 41
16.66666666666666
 76
     2
 10
1678.434745784421
 20
1054.805870424853
 30
0.0
 10
1618.958044601991
 20
1015.170210626004
 30
0.0
213
0.0
223
12.5
233
0.0
1001
ACAD
1000
DSTYLE
1002
{
1070
   147
1040
6.25
1070
    77
1070
     0
1070
    41
1040
20.0
1070
   342
1005
DA
1002
}
  0
TEXT
  5
25B0
330
1F
100
AcDbEntity
  8
実形
100
AcDbText
 10
1587.567567499491
 20
982.4822427017839
 30
0.0
 40
25.0
  1
5R
 72
     2
 11
1629.234234166158
 21
1007.482242701784
 31
0.0
100
AcDbText
 73
     3
  0
DIMENSION
  5
25B1
330
1F
100
AcDbEntity
  8
実形
100
AcDbDimension
  2
*D79
 10
1902.049268087123
 20
957.9340483459318
 30
0.0
 11
1953.451311622741
 21
968.8709428233824
 31
0.0
 70
   160
 71
     5
 42
7.000000000000682
  3
ISO-25
100
AcDbAlignedDimension
 13
1895.049268087123
 23
1074.440902933643
 33
0.0
 14
1902.049268087123
 24
1074.440902933643
 34
0.0
100
AcDbRotatedDimension
1001
ACAD
1000
DSTYLE
1002
{
1070
   279
1070
     2
1070
   289
1070
     2
1002
}
  0
DIMENSION
  5
25B2
330
1F
100
AcDbEntity
  8
実形
100
AcDbDimension
  2
*D80
 10
1895.049268087123
 20
914.7672029666727
 30
0.0
 11
1799.949268087123
 21
933.5172029666727
 31
0.0
 70
    32
 71
     5
 42
190.2
  3
ISO-25
100
AcDbAlignedDimension
 13
1704.849268087123
 23
1074.440902933643
 33
0.0
 14
1895.049268087123
 24
1074.440902933643
 34
0.0
100
AcDbRotatedDimension
1001
ACAD
1000
DSTYLE
1002
{
1070
   279
1070
     2
1070
   289
1070
     2
1002
}
  0
DIMENSION
  5
25B3
330
1F
100
AcDbEntity
  8
実形
100
AcDbDimension
  2
*D81
 10
1895.049268087123
 20
914.7672029666727
 30
0.0
 11
1651.360227797288
 21
933.5172029666727
 31
0.0
 70
   160
  1
18
 71
     5
 42
208.2
  3
ISO-25
100
AcDbAlignedDimension
 13
1686.849268087123
 23
1074.440902933643
 33
0.0
 14
1895.049268087123
 24
1074.440902933643
 34
0.0
100
AcDbRotatedDimension
1001
ACAD
1000
DSTYLE
1002
{
1070
   279
1070
     2
1070
   289
1070
     2
1002
}
  0
DIMENSION
  5
25B4
330
1F
100
AcDbEntity
  8
実形
100
AcDbDimension
  2
*D82
 10
1895.049268087123
 20
866.7490176511373
 30
0.0
 11
1790.949268087123
 21
885.4990176511373
 31
0.0
 70
    32
 71
     5
 42
208.2
  3
ISO-25
100
AcDbAlignedDimension
 13
1686.849268087123
 23
1009.440902933643
 33
0.0
 14
1895.049268087123
 24
1009.440902933643
 34
0.0
100
AcDbRotatedDimension
1001
ACAD
1000
DSTYLE
1002
{
1070
   279
1070
     2
1070
   289
1070
     2
1002
}
  0
ARC
  5
260D
330
1F
100
AcDbEntity
  8
実形
100
AcDbCircle
 10
1691.849268087123
 20
1043.352277296599
 30
0.0
 40
5.0
100
AcDbArc
 50
180.0
 51
270.0
  0
ARC
  5
260E
330
1F
100
AcDbEntity
  8
実形
100
AcDbCircle
 10
1691.849268087123
 20
1621.352277296599
 30
0.0
 40
5.0
100
AcDbArc
 50
90.0
 51
180.0
  0
LEADER
  5
2668
330
1F
100
AcDbEntity
  8
実形
100
AcDbLeader
  3
ISO-25
 40
25.0
 41
16.66666666666666
 76
     2
 10
1680.452630021054
 20
1630.613544531106
 30
0.0
 10
1633.947962143772
 20
1672.967934352691
 30
0.0
213
0.0
223
12.5
233
0.0
1001
ACAD
1000
DSTYLE
1002
{
1070
   147
1040
6.25
1070
    77
1070
     0
1070
    41
1040
20.0
1070
   342
1005
DA
1002
}
  0
TEXT
  5
2669
330
1F
100
AcDbEntity
  8
実形
100
AcDbText
 10
1607.526959531841
 20
1680.499880544744
 30
0.0
 40
25.0
  1
5R
 72
     2
 11
1649.193626198508
 21
1705.499880544744
 31
0.0
100
AcDbText
 73
     3
  0
LINE
  5
2674
330
1F
100
AcDbEntity
  8
センター
 48
0.5
370
    15
100
AcDbLine
 10
1384.134318297092
 20
1273.177279976156
 30
0.0
 11
1471.539091952764
 21
1273.177279976156
 31
0.0
  0
TEXT
  5
2675
330
1F
100
AcDbEntity
  8
実形
370
    -2
100
AcDbText
 10
1357.726569940989
 20
1262.806960160067
 30
0.0
 40
25.0
  1
A
100
AcDbText
  0
TEXT
  5
2676
330
1F
100
AcDbEntity
  8
実形
370
    -2
100
AcDbText
 10
1478.586489577692
 20
1262.806960160067
 30
0.0
 40
25.0
  1
A
100
AcDbText
  0
TEXT
  5
2677
330
1F
100
AcDbEntity
  8
実形
370
    -2
100
AcDbText
 10
1488.191264337458
 20
1261.206498797895
 30
0.0
 40
25.0
  1
´
100
AcDbText
  0
VIEWPORT
  5
2E
102
{ACAD_XDICTIONARY
360
26C8
102
}
330
1B
100
AcDbEntity
 67
     1
  8
0
100
AcDbViewport
 10
144.7270812988281
 20
101.2295806407928
 30
0.0
 40
411.6736216682419
 41
222.1517806396485
 68
     1
 69
     1
 12
144.7270812988281
 22
101.2295806407928
 13
0.0
 23
0.0
 14
10.0
 24
10.0
 15
10.0
 25
10.0
 16
0.0
 26
0.0
 36
1.0
 17
0.0
 27
0.0
 37
0.0
 42
50.0
 43
0.0
 44
0.0
 45
222.1517806396485
 50
0.0
 51
0.0
 72
   100
 90
    32800
  1

281
     0
 71
     1
 74
     0
110
0.0
120
0.0
130
0.0
111
1.0
121
0.0
131
0.0
112
0.0
122
1.0
132
0.0
 79
     0
146
0.0
  0
VIEWPORT
  5
30
102
{ACAD_XDICTIONARY
360
26CA
102
}
330
1B
100
AcDbEntity
 67
     1
  8
0
100
AcDbViewport
 10
139.2237563133239
 20
101.2295821905136
 30
0.0
 40
222.7580101013184
 41
161.9673315048218
 68
     2
 69
     2
 12
210.0
 22
148.5
 13
0.0
 23
0.0
 14
10.0
 24
10.0
 15
10.0
 25
10.0
 16
0.0
 26
0.0
 36
1.0
 17
0.0
 27
0.0
 37
0.0
 42
50.0
 43
0.0
 44
0.0
 45
309.0686705647124
 50
0.0
 51
0.0
 72
   100
 90
    32864
  1

281
     0
 71
     1
 74
     0
110
0.0
120
0.0
130
0.0
111
1.0
121
0.0
131
0.0
112
0.0
122
1.0
132
0.0
 79
     0
146
0.0
  0
ENDSEC
  0
SECTION
  2
OBJECTS
  0
DICTIONARY
  5
C
330
0
100
AcDbDictionary
281
     1
  3
ACAD_COLOR
350
17A3
  3
ACAD_GROUP
350
D
  3
ACAD_LAYOUT
350
1A
  3
ACAD_MATERIAL
350
17A2
  3
ACAD_MLINESTYLE
350
17
  3
ACAD_PLOTSETTINGS
350
19
  3
ACAD_PLOTSTYLENAME
350
E
  3
ACAD_TABLESTYLE
350
17A4
  3
AcadDim
350
CBC
  3
ACDBHEADERROUNDTRIPXREC
350
26C1
  3
AcDbVariableDictionary
350
EFD
  0
DICTIONARY
  5
17E1
330
2
100
AcDbDictionary
280
     1
281
     1
  3
ACAD_LAYERFILTERS
360
19E3
  3
ACAD_LAYERSTATES
360
17E2
  3
ACLYDICTIONARY
360
19E2
  0
DICTIONARY
  5
17BB
330
1F
100
AcDbDictionary
280
     1
281
     1
  3
ACAD_SORTENTS
360
17BC
  0
DICTIONARY
  5
1F0A
330
1EB4
100
AcDbDictionary
280
     1
281
     1
  3
ACAD_SORTENTS
360
1F0B
  0
DICTIONARY
  5
26C8
330
2E
100
AcDbDictionary
280
     1
281
     1
  3
ACAD_XREC_ROUNDTRIP
360
26C9
  0
DICTIONARY
  5
26CA
330
30
100
AcDbDictionary
280
     1
281
     1
  3
ACAD_XREC_ROUNDTRIP
360
26CB
  0
DICTIONARY
  5
17A3
102
{ACAD_REACTORS
330
C
102
}
330
C
100
AcDbDictionary
281
     1
  0
DICTIONARY
  5
D
102
{ACAD_REACTORS
330
C
102
}
330
C
100
AcDbDictionary
281
     1
  0
DICTIONARY
  5
1A
102
{ACAD_REACTORS
330
C
102
}
330
C
100
AcDbDictionary
281
     1
  3
Model
350
22
  3
ﾚｲｱｳﾄ1
350
1E
  3
ﾚｲｱｳﾄ2
350
26
  0
DICTIONARY
  5
17A2
102
{ACAD_REACTORS
330
C
102
}
330
C
100
AcDbDictionary
281
     1
  0
DICTIONARY
  5
17
102
{ACAD_REACTORS
330
C
102
}
330
C
100
AcDbDictionary
281
     1
  3
Standard
350
18
  0
DICTIONARY
  5
19
102
{ACAD_REACTORS
330
C
102
}
330
C
100
AcDbDictionary
281
     1
  0
ACDBDICTIONARYWDFLT
  5
E
102
{ACAD_REACTORS
330
C
102
}
330
C
100
AcDbDictionary
281
     1
  3
Normal
350
F
100
AcDbDictionaryWithDefault
340
F
  0
DICTIONARY
  5
17A4
102
{ACAD_REACTORS
330
C
102
}
330
C
100
AcDbDictionary
281
     1
  3
Standard
350
17A5
  0
XRECORD
  5
CBC
102
{ACAD_REACTORS
330
C
102
}
330
C
100
AcDbXrecord
280
     1
 90
   990106
  3

 60
     0
 61
     0
 62
     1
 63
     3
 64
     0
 65
     0
 66
     0
 67
     3
 68
     1
 69
     0
 70
     0
 71
     0
 72
     0
 40
30.0
170
     0
  0
DICTIONARY
  5
26C1
102
{ACAD_REACTORS
330
C
102
}
330
C
100
AcDbDictionary
281
     1
  0
DICTIONARY
  5
EFD
102
{ACAD_REACTORS
330
C
102
}
330
C
100
AcDbDictionary
281
     1
  3
CTABLESTYLE
350
17AB
  3
DIMASSOC
350
26BE
  3
PROJECTNAME
350
26BF
  3
SORTENTS
350
EFE
  0
DICTIONARY
  5
19E3
102
{ACAD_REACTORS
330
17E1
102
}
330
17E1
100
AcDbDictionary
281
     1
  0
DICTIONARY
  5
17E2
102
{ACAD_REACTORS
330
17E1
102
}
330
17E1
100
AcDbDictionary
281
     1
  0
DICTIONARY
  5
19E2
102
{ACAD_REACTORS
330
17E1
102
}
330
17E1
100
AcDbDictionary
281
     1
1001
ACAD
1000
<All
  0
SORTENTSTABLE
  5
17BC
102
{ACAD_REACTORS
330
17BB
102
}
330
17BB
100
AcDbSortentsTable
330
1F
331
244A
  5
244D
331
2452
  5
2455
331
245A
  5
245D
331
2423
  5
2423
331
2462
  5
2465
331
25B0
  5
25B2
331
207F
  5
2081
331
571
  5
FFD
331
40C
  5
918
331
2087
  5
2089
331
315
  5
328
331
22A1
  5
22A3
331
208F
  5
2091
331
163F
  5
1839
331
22A9
  5
22AB
331
50A
  5
CBD
331
1000
  5
1011
331
1877
  5
1A7B
331
1BDB
  5
2E8
331
1840
  5
1851
331
1848
  5
1858
331
246A
  5
246D
331
242B
  5
242B
331
2472
  5
2520
331
2521
  5
2545
331
243B
  5
243E
331
2058
  5
205A
331
1008
  5
101A
331
2060
  5
2062
331
1D96
  5
1DC3
331
325
  5
50A
331
C29
  5
1002
331
2091
  5
2093
331
1010
  5
1023
331
2068
  5
206A
331
4C3
  5
C2E
331
CB9
  5
1008
331
2099
  5
209B
331
522
  5
DC3
331
2070
  5
2072
331
2FE
  5
302
331
1850
  5
1863
331
1C43
  5
1C46
331
1B16
  5
1C3F
331
20A1
  5
20A3
331
47C
  5
C2C
331
306
  5
316
331
1858
  5
186B
331
20A9
  5
229E
331
1868
  5
1878
331
244B
  5
244E
331
2453
  5
2456
331
2424
  5
2424
331
245B
  5
245E
331
2463
  5
2466
331
25B1
  5
25B3
331
2078
  5
207A
331
2080
  5
2082
331
2088
  5
208A
331
316
  5
329
331
22A2
  5
22A4
331
1640
  5
183A
331
1831
  5
1842
331
1870
  5
196B
331
22AA
  5
22AC
331
1001
  5
1012
331
1839
  5
184A
331
1878
  5
1B15
331
1BDC
  5
30D
331
19F7
  5
1BDC
331
1849
  5
1859
331
246B
  5
246E
331
242C
  5
242C
331
2473
  5
2521
331
2434
  5
2437
331
243C
  5
243F
331
2522
  5
2430
331
2444
  5
2447
331
2059
  5
205B
331
A0
  5
A5
331
1D97
  5
1DC4
331
1D20
  5
1D96
331
2061
  5
2063
331
1009
  5
101B
331
2092
  5
2094
331
2069
  5
206B
331
1011
  5
1024
331
209A
  5
209C
331
CC2
  5
1009
331
2071
  5
2073
331
2FF
  5
303
331
1851
  5
1864
331
1C44
  5
1C47
331
1B17
  5
1C40
331
20A2
  5
20A4
331
3F6
  5
8DB
331
307
  5
319
331
1859
  5
186C
331
20AA
  5
229F
331
1861
  5
1871
331
1869
  5
188E
331
244C
  5
244F
331
73
  5
73
331
245C
  5
2460
331
2464
  5
2467
331
25B2
  5
25B4
331
2079
  5
207B
331
2081
  5
2083
331
2089
  5
208B
331
8DB
  5
FFE
331
22A3
  5
22A5
331
2E0
  5
2E9
331
1641
  5
183B
331
1832
  5
1843
331
1871
  5
196C
331
22AB
  5
2320
331
183A
  5
184B
331
1BDD
  5
306
331
1842
  5
1852
331
184A
  5
185A
331
242D
  5
242D
331
246C
  5
246F
331
2474
  5
2522
331
2435
  5
2438
331
2523
  5
2432
331
243D
  5
2440
331
2445
  5
2448
331
205A
  5
205C
331
2E8
  5
2F2
331
100A
  5
101D
331
2062
  5
2064
331
327
  5
522
331
C2B
  5
1003
331
2093
  5
2095
331
206A
  5
206C
331
466
  5
C2B
331
1012
  5
146B
331
209B
  5
209D
331
2072
  5
2074
331
300
  5
307
331
CC3
  5
100A
331
1852
  5
1865
331
1C45
  5
1C48
331
20A3
  5
20A5
331
DC3
  5
100B
331
185A
  5
186D
331
19A1
  5
1B16
331
1862
  5
1872
331
186A
  5
188F
331
244D
  5
2450
331
9C
  5
9C
331
241E
  5
241E
331
25B3
  5
260D
331
2465
  5
2468
331
207A
  5
207C
331
308
  5
31B
331
2082
  5
2084
331
4E5
  5
CB8
331
208A
  5
208C
331
22A4
  5
22A6
331
FFB
  5
100C
331
4FD
  5
CBA
331
C24
  5
1000
331
1642
  5
183C
331
1833
  5
1844
331
1872
  5
196D
331
1BD6
  5
2F1
331
22AC
  5
2321
331
1003
  5
1013
331
183B
  5
184C
331
1BDE
  5
31A
331
1843
  5
1853
331
1C3E
  5
1C41
331
184B
  5
185B
331
246D
  5
2470
331
242E
  5
242E
331
2436
  5
2439
331
2544
  5
25AF
331
2446
  5
2449
331
205B
  5
205D
331
2E9
  5
2FD
331
100B
  5
101E
331
328
  5
52F
331
2063
  5
2065
331
2F1
  5
2FE
331
C2C
  5
1005
331
2094
  5
2096
331
206B
  5
206D
331
1013
  5
1478
331
209C
  5
209E
331
2073
  5
2075
331
301
  5
308
331
1853
  5
1866
331
1C46
  5
1C49
331
20A4
  5
20A6
331
185B
  5
186E
331
1863
  5
1873
331
186B
  5
1966
331
19CA
  5
1B17
331
1CE5
  5
1D95
331
2320
  5
427
331
244E
  5
2451
331
2456
  5
2459
331
241F
  5
241F
331
245E
  5
2461
331
25B4
  5
260E
331
2466
  5
2469
331
207B
  5
207D
331
309
  5
324
331
2083
  5
2085
331
8DD
  5
FFF
331
208B
  5
208D
331
319
  5
466
331
22A5
  5
22A7
331
FFC
  5
100D
331
1643
  5
183D
331
1834
  5
1845
331
1873
  5
196E
331
1BD7
  5
323
331
1004
  5
1014
331
183C
  5
184D
331
1BDF
  5
325
331
1844
  5
1854
331
1C3F
  5
1C42
331
184C
  5
185C
331
246E
  5
2471
331
2437
  5
243A
331
2545
  5
25B0
331
2447
  5
244A
331
205C
  5
205E
331
329
  5
549
331
2F2
  5
2FF
331
100C
  5
101F
331
1DC2
  5
1DC5
331
2064
  5
2066
331
3E9
  5
5C9
331
1014
  5
1835
331
2095
  5
2097
331
206C
  5
206E
331
1854
  5
1867
331
13C4
  5
1838
331
302
  5
30A
331
209D
  5
209F
331
2074
  5
2076
331
1C47
  5
1CE5
331
1B2A
  5
A0
331
185C
  5
186F
331
20A5
  5
20A7
331
1864
  5
1874
331
186C
  5
1967
331
229E
  5
22A0
331
2321
  5
2057
331
2457
  5
245A
331
2420
  5
2420
331
245F
  5
2462
331
2467
  5
246A
331
207C
  5
207E
331
2084
  5
2086
331
31A
  5
47C
331
208C
  5
208E
331
1835
  5
1847
331
1874
  5
196F
331
FFD
  5
100E
331
C26
  5
1001
331
1644
  5
183E
331
22A6
  5
22A8
331
1005
  5
1015
331
183D
  5
184E
331
1BD8
  5
317
331
1ACB
  5
1BDD
331
1845
  5
1855
331
184D
  5
185D
331
246F
  5
2472
331
2430
  5
2433
331
2438
  5
243B
331
459
  5
C26
331
205D
  5
205F
331
100D
  5
1020
331
C2E
  5
1006
331
2065
  5
2067
331
1DC3
  5
2056
331
1015
  5
1836
331
2096
  5
2098
331
206D
  5
206F
331
1855
  5
1868
331
1C40
  5
1C43
331
303
  5
315
331
209E
  5
20A0
331
2075
  5
2077
331
185D
  5
1870
331
1C48
  5
1D20
331
20A6
  5
20A8
331
1865
  5
1875
331
186D
  5
1968
331
229F
  5
22A1
331
2448
  5
244B
331
260D
  5
2431
331
2421
  5
2421
331
2458
  5
245B
331
2460
  5
2463
331
207D
  5
207F
331
2085
  5
2087
331
41A
  5
BD9
331
31B
  5
492
331
208D
  5
208F
331
1836
  5
1848
331
1875
  5
1970
331
FFE
  5
100F
331
1645
  5
183F
331
22A7
  5
22A9
331
2056
  5
2058
331
1BD9
  5
301
331
1006
  5
1016
331
183E
  5
184F
331
1ACC
  5
1BDE
331
1846
  5
1856
331
184E
  5
1861
331
2468
  5
246B
331
2429
  5
2429
331
2470
  5
2473
331
2439
  5
243C
331
2441
  5
2444
331
323
  5
4E5
331
205E
  5
2060
331
A5
  5
2D8
331
2066
  5
2068
331
1DC4
  5
41A
331
100E
  5
1021
331
2097
  5
2099
331
206E
  5
2070
331
1016
  5
1837
331
1C41
  5
1C44
331
209F
  5
20A1
331
2076
  5
2078
331
1856
  5
1869
331
20A7
  5
20A9
331
1C49
  5
1D5D
331
1866
  5
1876
331
186E
  5
1969
331
2449
  5
244C
331
260E
  5
2544
331
2459
  5
245C
331
2422
  5
2422
331
25AF
  5
25B1
331
2461
  5
2464
331
207E
  5
2080
331
570
  5
EB5
331
2086
  5
2088
331
1D5D
  5
1D97
331
22A0
  5
22A2
331
492
  5
C2D
331
208E
  5
2090
331
2DD
  5
2E0
331
22A8
  5
22AA
331
2057
  5
2059
331
FFF
  5
1010
331
1646
  5
1840
331
1837
  5
1849
331
1876
  5
1A7A
331
1BDA
  5
309
331
1007
  5
1019
331
183F
  5
1850
331
1ACD
  5
1BDF
331
1847
  5
1857
331
184F
  5
1862
331
2469
  5
246C
331
242A
  5
242A
331
2471
  5
2474
331
2520
  5
2523
331
243A
  5
243D
331
2442
  5
2445
331
205F
  5
2061
331
1D95
  5
1DC2
331
324
  5
4FD
331
2090
  5
2092
331
100F
  5
1022
331
2067
  5
2069
331
1DC5
  5
459
331
CB8
  5
1007
331
2098
  5
209A
331
206F
  5
2071
331
2FD
  5
300
331
1C42
  5
1C45
331
1B15
  5
1C3E
331
20A0
  5
20A2
331
2077
  5
2079
331
1857
  5
186A
331
20A8
  5
20AA
331
1867
  5
1877
331
186F
  5
196A
  0
SORTENTSTABLE
  5
1F0B
102
{ACAD_REACTORS
330
1F0A
102
}
330
1F0A
100
AcDbSortentsTable
330
1EB4
  0
XRECORD
  5
26C9
102
{ACAD_REACTORS
330
26C8
102
}
330
26C8
100
AcDbXrecord
280
     1
102
SHADEPLOT
 70
     0
  0
XRECORD
  5
26CB
102
{ACAD_REACTORS
330
26CA
102
}
330
26CA
100
AcDbXrecord
280
     1
102
SHADEPLOT
 70
     0
  0
LAYOUT
  5
22
102
{ACAD_XDICTIONARY
360
26C4
102
}
102
{ACAD_REACTORS
330
1A
102
}
330
1A
100
AcDbPlotSettings
  1

  2
EPSON PM-800C
  4
A4
  6

 40
3.757083177566528
 41
14.7637300491333
 42
3.757080078125
 43
3.757080078125
 44
209.9733276367187
 45
296.9683227539062
 46
0.0
 47
0.0
 48
0.0
 49
0.0
140
0.0
141
0.0
142
1.0
143
10.0
 70
 11952
 72
     1
 73
     1
 74
     2
  7

 75
    20
147
0.1
148
0.0
149
0.0
100
AcDbLayout
  1
Model
 70
     1
 71
     0
 10
0.0
 20
0.0
 11
12.0
 21
9.0
 12
0.0
 22
0.0
 32
0.0
 14
0.0
 24
0.0
 34
0.0
 15
0.0
 25
0.0
 35
0.0
146
0.0
 13
0.0
 23
0.0
 33
0.0
 16
1.0
 26
0.0
 36
0.0
 17
0.0
 27
1.0
 37
0.0
 76
     0
330
1F
  0
LAYOUT
  5
1E
102
{ACAD_XDICTIONARY
360
26C2
102
}
102
{ACAD_REACTORS
330
1A
102
}
330
1A
100
AcDbPlotSettings
  1

  2
EPSON PM-800C
  4
A4
  6

 40
3.757083177566528
 41
14.7637300491333
 42
3.757080078125
 43
3.757080078125
 44
209.9733276367187
 45
296.9683227539062
 46
0.0
 47
0.0
 48
0.0
 49
0.0
140
0.0
141
0.0
142
1.0
143
1.0
 70
   688
 72
     1
 73
     1
 74
     5
  7

 75
    16
147
1.0
148
0.0
149
0.0
100
AcDbLayout
  1
ﾚｲｱｳﾄ1
 70
     1
 71
     1
 10
-3.757080078125
 20
-3.757083177566528
 11
293.2112426757813
 21
206.2162444591522
 12
0.0
 22
0.0
 32
0.0
 14
27.8447512626648
 24
20.24591643810271
 34
0.0
 15
250.6027613639831
 25
182.2132479429245
 35
0.0
146
0.0
 13
0.0
 23
0.0
 33
0.0
 16
1.0
 26
0.0
 36
0.0
 17
0.0
 27
1.0
 37
0.0
 76
     0
330
1B
331
2E
  0
LAYOUT
  5
26
102
{ACAD_XDICTIONARY
360
26C6
102
}
102
{ACAD_REACTORS
330
1A
102
}
330
1A
100
AcDbPlotSettings
  1

  2
EPSON PM-800C
  4

  6

 40
0.0
 41
0.0
 42
0.0
 43
0.0
 44
0.0
 45
0.0
 46
0.0
 47
0.0
 48
0.0
 49
0.0
140
0.0
141
0.0
142
1.0
143
1.0
 70
   688
 72
     0
 73
     0
 74
     5
  7

 75
    16
147
1.0
148
0.0
149
0.0
100
AcDbLayout
  1
ﾚｲｱｳﾄ2
 70
     1
 71
     2
 10
0.0
 20
0.0
 11
12.0
 21
9.0
 12
0.0
 22
0.0
 32
0.0
 14
0.0
 24
0.0
 34
0.0
 15
0.0
 25
0.0
 35
0.0
146
0.0
 13
0.0
 23
0.0
 33
0.0
 16
1.0
 26
0.0
 36
0.0
 17
0.0
 27
1.0
 37
0.0
 76
     0
330
23
  0
MLINESTYLE
  5
18
102
{ACAD_REACTORS
330
17
102
}
330
17
100
AcDbMlineStyle
  2
STANDARD
 70
     0
  3

 62
   256
 51
90.0
 52
90.0
 71
     2
 49
0.5
 62
   256
  6
BYLAYER
 49
-0.5
 62
   256
  6
BYLAYER
  0
ACDBPLACEHOLDER
  5
F
102
{ACAD_REACTORS
330
E
102
}
330
E
  0
TABLESTYLE
  5
17A5
102
{ACAD_REACTORS
330
17A4
102
}
330
17A4
100
AcDbTableStyle
  3
Standard
 70
     0
 71
     0
 40
1.5
 41
1.5
280
     0
281
     0
  7
Standard
140
4.5
170
     2
 62
     0
 63
     7
283
     0
274
    -2
284
     1
 64
     0
275
    -2
285
     1
 65
     0
276
    -2
286
     1
 66
     0
277
    -2
287
     1
 67
     0
278
    -2
288
     1
 68
     0
279
    -2
289
     1
 69
     0
  7
Standard
140
6.0
170
     5
 62
     0
 63
     7
283
     0
274
    -2
284
     1
 64
     0
275
    -2
285
     1
 65
     0
276
    -2
286
     1
 66
     0
277
    -2
287
     1
 67
     0
278
    -2
288
     1
 68
     0
279
    -2
289
     1
 69
     0
  7
Standard
140
4.5
170
     5
 62
     0
 63
     7
283
     0
274
    -2
284
     1
 64
     0
275
    -2
285
     1
 65
     0
276
    -2
286
     1
 66
     0
277
    -2
287
     1
 67
     0
278
    -2
288
     1
 68
     0
279
    -2
289
     1
 69
     0
  0
DICTIONARYVAR
  5
17AB
102
{ACAD_REACTORS
330
EFD
102
}
330
EFD
100
DictionaryVariables
280
     0
  1
STANDARD
  0
DICTIONARYVAR
  5
26BE
102
{ACAD_REACTORS
330
EFD
102
}
330
EFD
100
DictionaryVariables
280
     0
  1
1
  0
DICTIONARYVAR
  5
26BF
102
{ACAD_REACTORS
330
EFD
102
}
330
EFD
100
DictionaryVariables
280
     0
  1

  0
DICTIONARYVAR
  5
EFE
102
{ACAD_REACTORS
330
EFD
102
}
330
EFD
100
DictionaryVariables
280
     0
  1
96
  0
DICTIONARY
  5
26C4
330
22
100
AcDbDictionary
280
     1
281
     1
  3
ACAD_XREC_ROUNDTRIP
360
26C5
  0
DICTIONARY
  5
26C2
330
1E
100
AcDbDictionary
280
     1
281
     1
  3
ACAD_XREC_ROUNDTRIP
360
26C3
  0
DICTIONARY
  5
26C6
330
26
100
AcDbDictionary
280
     1
281
     1
  3
ACAD_XREC_ROUNDTRIP
360
26C7
  0
XRECORD
  5
26C5
102
{ACAD_REACTORS
330
26C4
102
}
330
26C4
100
AcDbXrecord
280
     1
102
SHADEPLOT
 70
     0
102
SHADEPLOTRESLEVEL
 70
     2
102
SHADEPLOTCUSTOMDPI
 70
   300
  0
XRECORD
  5
26C3
102
{ACAD_REACTORS
330
26C2
102
}
330
26C2
100
AcDbXrecord
280
     1
102
SHADEPLOT
 70
     0
102
SHADEPLOTRESLEVEL
 70
     2
102
SHADEPLOTCUSTOMDPI
 70
   300
  0
XRECORD
  5
26C7
102
{ACAD_REACTORS
330
26C6
102
}
330
26C6
100
AcDbXrecord
280
     1
102
SHADEPLOT
 70
     0
102
SHADEPLOTRESLEVEL
 70
     2
102
SHADEPLOTCUSTOMDPI
 70
   300
  0
ENDSEC
  0
EOF
