  0
SECTION
  2
HEADER
  9
$ACADVER
  1
AC1015
  9
$ACADMAINTVER
 70
    20
  9
$DWGCODEPAGE
  3
ANSI_932
  9
$INSBASE
 10
0.0
 20
0.0
 30
0.0
  9
$EXTMIN
 10
119.0
 20
4.0
 30
0.0
  9
$EXTMAX
 10
2784.000000000001
 20
2024.0
 30
0.0
  9
$LIMMIN
 10
0.0
 20
0.0
  9
$LIMMAX
 10
29700.0
 20
21000.0
  9
$ORTHOMODE
 70
     1
  9
$REGENMODE
 70
     1
  9
$FILLMODE
 70
     1
  9
$QTEXTMODE
 70
     0
  9
$MIRRTEXT
 70
     1
  9
$LTSCALE
 40
4.0
  9
$ATTMODE
 70
     1
  9
$TEXTSIZE
 40
25.0
  9
$TRACEWID
 40
1.0
  9
$TEXTSTYLE
  7
Standard
  9
$CLAYER
  8
実形
  9
$CELTYPE
  6
ByLayer
  9
$CECOLOR
 62
   256
  9
$CELTSCALE
 40
1.0
  9
$DISPSILH
 70
     0
  9
$DIMSCALE
 40
1.0
  9
$DIMASZ
 40
35.0
  9
$DIMEXO
 40
65.0
  9
$DIMDLI
 40
3.75
  9
$DIMRND
 40
0.0
  9
$DIMDLE
 40
0.0
  9
$DIMEXE
 40
0.0
  9
$DIMTP
 40
0.0
  9
$DIMTM
 40
0.0
  9
$DIMTXT
 40
25.0
  9
$DIMCEN
 40
2.5
  9
$DIMTSZ
 40
0.0
  9
$DIMTOL
 70
     0
  9
$DIMLIM
 70
     0
  9
$DIMTIH
 70
     0
  9
$DIMTOH
 70
     0
  9
$DIMSE1
 70
     0
  9
$DIMSE2
 70
     0
  9
$DIMTAD
 70
     1
  9
$DIMZIN
 70
     8
  9
$DIMBLK
  1
DotSmall
  9
$DIMASO
 70
     1
  9
$DIMSHO
 70
     1
  9
$DIMPOST
  1

  9
$DIMAPOST
  1

  9
$DIMALT
 70
     0
  9
$DIMALTD
 70
     3
  9
$DIMALTF
 40
0.03937007874016
  9
$DIMLFAC
 40
1.0
  9
$DIMTOFL
 70
     1
  9
$DIMTVP
 40
0.0
  9
$DIMTIX
 70
     0
  9
$DIMSOXD
 70
     0
  9
$DIMSAH
 70
     0
  9
$DIMBLK1
  1

  9
$DIMBLK2
  1

  9
$DIMSTYLE
  2
ISO-25
  9
$DIMCLRD
 70
     0
  9
$DIMCLRE
 70
     0
  9
$DIMCLRT
 70
     0
  9
$DIMTFAC
 40
1.0
  9
$DIMGAP
 40
6.25
  9
$DIMJUST
 70
     0
  9
$DIMSD1
 70
     0
  9
$DIMSD2
 70
     0
  9
$DIMTOLJ
 70
     0
  9
$DIMTZIN
 70
     8
  9
$DIMALTZ
 70
     0
  9
$DIMALTTZ
 70
     0
  9
$DIMUPT
 70
     0
  9
$DIMDEC
 70
     2
  9
$DIMTDEC
 70
     2
  9
$DIMALTU
 70
     2
  9
$DIMALTTD
 70
     3
  9
$DIMTXSTY
  7
Standard
  9
$DIMAUNIT
 70
     0
  9
$DIMADEC
 70
     0
  9
$DIMALTRND
 40
0.0
  9
$DIMAZIN
 70
     0
  9
$DIMDSEP
 70
    46
  9
$DIMATFIT
 70
     3
  9
$DIMFRAC
 70
     0
  9
$DIMLDRBLK
  1
Open30
  9
$DIMLUNIT
 70
     2
  9
$DIMLWD
 70
    18
  9
$DIMLWE
 70
    18
  9
$DIMTMOVE
 70
     0
  9
$LUNITS
 70
     2
  9
$LUPREC
 70
     2
  9
$SKETCHINC
 40
1.0
  9
$FILLETRAD
 40
0.0
  9
$AUNITS
 70
     0
  9
$AUPREC
 70
     0
  9
$MENU
  1
.
  9
$ELEVATION
 40
0.0
  9
$PELEVATION
 40
0.0
  9
$THICKNESS
 40
0.0
  9
$LIMCHECK
 70
     1
  9
$CHAMFERA
 40
10.0
  9
$CHAMFERB
 40
10.0
  9
$CHAMFERC
 40
20.0
  9
$CHAMFERD
 40
0.0
  9
$SKPOLY
 70
     0
  9
$TDCREATE
 40
2451673.575802199
  9
$TDUCREATE
 40
2451673.200802199
  9
$TDUPDATE
 40
2458813.763305255
  9
$TDUUPDATE
 40
2458813.388305255
  9
$TDINDWG
 40
1.7081963310
  9
$TDUSRTIMER
 40
1.7081956366
  9
$USRTIMER
 70
     1
  9
$ANGBASE
 50
0.0
  9
$ANGDIR
 70
     0
  9
$PDMODE
 70
     3
  9
$PDSIZE
 40
0.0
  9
$PLINEWID
 40
0.0
  9
$SPLFRAME
 70
     0
  9
$SPLINETYPE
 70
     6
  9
$SPLINESEGS
 70
     8
  9
$HANDSEED
  5
2D57
  9
$SURFTAB1
 70
     6
  9
$SURFTAB2
 70
     6
  9
$SURFTYPE
 70
     6
  9
$SURFU
 70
     6
  9
$SURFV
 70
     6
  9
$UCSBASE
  2

  9
$UCSNAME
  2

  9
$UCSORG
 10
0.0
 20
0.0
 30
0.0
  9
$UCSXDIR
 10
1.0
 20
0.0
 30
0.0
  9
$UCSYDIR
 10
0.0
 20
1.0
 30
0.0
  9
$UCSORTHOREF
  2

  9
$UCSORTHOVIEW
 70
     0
  9
$UCSORGTOP
 10
0.0
 20
0.0
 30
0.0
  9
$UCSORGBOTTOM
 10
0.0
 20
0.0
 30
0.0
  9
$UCSORGLEFT
 10
0.0
 20
0.0
 30
0.0
  9
$UCSORGRIGHT
 10
0.0
 20
0.0
 30
0.0
  9
$UCSORGFRONT
 10
0.0
 20
0.0
 30
0.0
  9
$UCSORGBACK
 10
0.0
 20
0.0
 30
0.0
  9
$PUCSBASE
  2

  9
$PUCSNAME
  2

  9
$PUCSORG
 10
0.0
 20
0.0
 30
0.0
  9
$PUCSXDIR
 10
1.0
 20
0.0
 30
0.0
  9
$PUCSYDIR
 10
0.0
 20
1.0
 30
0.0
  9
$PUCSORTHOREF
  2

  9
$PUCSORTHOVIEW
 70
     0
  9
$PUCSORGTOP
 10
0.0
 20
0.0
 30
0.0
  9
$PUCSORGBOTTOM
 10
0.0
 20
0.0
 30
0.0
  9
$PUCSORGLEFT
 10
0.0
 20
0.0
 30
0.0
  9
$PUCSORGRIGHT
 10
0.0
 20
0.0
 30
0.0
  9
$PUCSORGFRONT
 10
0.0
 20
0.0
 30
0.0
  9
$PUCSORGBACK
 10
0.0
 20
0.0
 30
0.0
  9
$USERI1
 70
     0
  9
$USERI2
 70
     0
  9
$USERI3
 70
     0
  9
$USERI4
 70
     0
  9
$USERI5
 70
     0
  9
$USERR1
 40
0.0
  9
$USERR2
 40
0.0
  9
$USERR3
 40
0.0
  9
$USERR4
 40
0.0
  9
$USERR5
 40
0.0
  9
$WORLDVIEW
 70
     1
  9
$SHADEDGE
 70
     3
  9
$SHADEDIF
 70
    70
  9
$TILEMODE
 70
     1
  9
$MAXACTVP
 70
    64
  9
$PINSBASE
 10
0.0
 20
0.0
 30
0.0
  9
$PLIMCHECK
 70
     0
  9
$PEXTMIN
 10
27.8447512626648
 20
20.24591643810271
 30
0.0
  9
$PEXTMAX
 10
250.6027613639831
 20
182.2132479429245
 30
0.0
  9
$PLIMMIN
 10
-3.757080078125
 20
-3.757083177566528
  9
$PLIMMAX
 10
293.2112426757813
 20
206.2162444591522
  9
$UNITMODE
 70
     0
  9
$VISRETAIN
 70
     1
  9
$PLINEGEN
 70
     0
  9
$PSLTSCALE
 70
     1
  9
$TREEDEPTH
 70
  3020
  9
$CMLSTYLE
  2
Standard
  9
$CMLJUST
 70
     0
  9
$CMLSCALE
 40
20.0
  9
$PROXYGRAPHICS
 70
     1
  9
$MEASUREMENT
 70
     1
  9
$CELWEIGHT
370
    -1
  9
$ENDCAPS
280
     0
  9
$JOINSTYLE
280
     0
  9
$LWDISPLAY
290
     0
  9
$INSUNITS
 70
     4
  9
$HYPERLINKBASE
  1

  9
$STYLESHEET
  1

  9
$XEDIT
290
     1
  9
$CEPSNTYPE
380
     0
  9
$PSTYLEMODE
290
     1
  9
$FINGERPRINTGUID
  2
{C8EA1F16-24C9-11D4-9416-CE0A3B32152F}
  9
$VERSIONGUID
  2
{A32C6360-A059-46B4-B735-9F1456E0ABDE}
  9
$EXTNAMES
290
     1
  9
$PSVPSCALE
 40
0.0
  9
$OLESTARTUP
290
     0
  0
ENDSEC
  0
SECTION
  2
CLASSES
  0
CLASS
  1
ACDBDICTIONARYWDFLT
  2
AcDbDictionaryWithDefault
  3
ObjectDBX Classes
 90
        0
280
     0
281
     0
  0
CLASS
  1
ACDBPLACEHOLDER
  2
AcDbPlaceHolder
  3
ObjectDBX Classes
 90
        0
280
     0
281
     0
  0
CLASS
  1
LAYOUT
  2
AcDbLayout
  3
ObjectDBX Classes
 90
        0
280
     0
281
     0
  0
CLASS
  1
TABLESTYLE
  2
AcDbTableStyle
  3
ObjectDBX Classes
 90
     2047
280
     0
281
     0
  0
CLASS
  1
SORTENTSTABLE
  2
AcDbSortentsTable
  3
ObjectDBX Classes
 90
        0
280
     0
281
     0
  0
CLASS
  1
DICTIONARYVAR
  2
AcDbDictionaryVar
  3
ObjectDBX Classes
 90
        0
280
     0
281
     0
  0
ENDSEC
  0
SECTION
  2
TABLES
  0
TABLE
  2
VPORT
  5
8
330
0
100
AcDbSymbolTable
 70
     2
  0
VPORT
  5
2D4B
330
8
100
AcDbSymbolTableRecord
100
AcDbViewportTableRecord
  2
*Active
 70
     0
 10
0.0
 20
0.0
 11
1.0
 21
1.0
 12
1318.851344665161
 22
893.1300712745683
 13
0.0
 23
0.0
 14
10.0
 24
10.0
 15
10.0
 25
10.0
 16
0.0
 26
0.0
 36
1.0
 17
0.0
 27
0.0
 37
0.0
 40
2316.022676177726
 41
1.29038112522686
 42
50.0
 43
0.0
 44
0.0
 50
0.0
 51
0.0
 71
     0
 72
   100
 73
     1
 74
     3
 75
     0
 76
     0
 77
     0
 78
     0
281
     0
 65
     1
110
0.0
120
0.0
130
0.0
111
1.0
121
0.0
131
0.0
112
0.0
122
1.0
132
0.0
 79
     0
146
0.0
  0
ENDTAB
  0
TABLE
  2
LTYPE
  5
5
330
0
100
AcDbSymbolTable
 70
    46
  0
LTYPE
  5
14
330
5
100
AcDbSymbolTableRecord
100
AcDbLinetypeTableRecord
  2
ByBlock
 70
     0
  3

 72
    65
 73
     0
 40
0.0
  0
LTYPE
  5
15
330
5
100
AcDbSymbolTableRecord
100
AcDbLinetypeTableRecord
  2
ByLayer
 70
     0
  3

 72
    65
 73
     0
 40
0.0
  0
LTYPE
  5
16
330
5
100
AcDbSymbolTableRecord
100
AcDbLinetypeTableRecord
  2
Continuous
 70
     0
  3
Solid line
 72
    65
 73
     0
 40
0.0
  0
LTYPE
  5
34
330
5
100
AcDbSymbolTableRecord
100
AcDbLinetypeTableRecord
  2
ACAD_ISO02W100
 70
     0
  3
ISO dash __ __ __ __ __ __ __ __ __ __ __ __ __
 72
    65
 73
     2
 40
15.0
 49
12.0
 74
     0
 49
-3.0
 74
     0
  0
LTYPE
  5
35
330
5
100
AcDbSymbolTableRecord
100
AcDbLinetypeTableRecord
  2
ACAD_ISO03W100
 70
     0
  3
ISO dash space __    __    __    __    __    __
 72
    65
 73
     2
 40
30.0
 49
12.0
 74
     0
 49
-18.0
 74
     0
  0
LTYPE
  5
36
330
5
100
AcDbSymbolTableRecord
100
AcDbLinetypeTableRecord
  2
ACAD_ISO04W100
 70
     0
  3
ISO long-dash dot ____ . ____ . ____ . ____ . _
 72
    65
 73
     4
 40
30.0
 49
24.0
 74
     0
 49
-3.0
 74
     0
 49
0.0
 74
     0
 49
-3.0
 74
     0
  0
LTYPE
  5
37
330
5
100
AcDbSymbolTableRecord
100
AcDbLinetypeTableRecord
  2
ACAD_ISO05W100
 70
     0
  3
ISO long-dash double-dot ____ .. ____ .. ____ .
 72
    65
 73
     6
 40
34.0
 49
24.0
 74
     0
 49
-3.0
 74
     0
 49
0.5
 74
     0
 49
-3.0
 74
     0
 49
0.5
 74
     0
 49
-3.0
 74
     0
  0
LTYPE
  5
38
330
5
100
AcDbSymbolTableRecord
100
AcDbLinetypeTableRecord
  2
ACAD_ISO06W100
 70
     0
  3
ISO long-dash triple-dot ____ ... ____ ... ____
 72
    65
 73
     8
 40
37.5
 49
24.0
 74
     0
 49
-3.0
 74
     0
 49
0.5
 74
     0
 49
-3.0
 74
     0
 49
0.5
 74
     0
 49
-3.0
 74
     0
 49
0.5
 74
     0
 49
-3.0
 74
     0
  0
LTYPE
  5
39
330
5
100
AcDbSymbolTableRecord
100
AcDbLinetypeTableRecord
  2
ACAD_ISO07W100
 70
     0
  3
ISO dot . . . . . . . . . . . . . . . . . . . .
 72
    65
 73
     2
 40
3.0
 49
0.0
 74
     0
 49
-3.0
 74
     0
  0
LTYPE
  5
3A
330
5
100
AcDbSymbolTableRecord
100
AcDbLinetypeTableRecord
  2
ACAD_ISO08W100
 70
     0
  3
ISO long-dash short-dash ____ __ ____ __ ____ _
 72
    65
 73
     4
 40
36.0
 49
24.0
 74
     0
 49
-3.0
 74
     0
 49
6.0
 74
     0
 49
-3.0
 74
     0
  0
LTYPE
  5
3B
330
5
100
AcDbSymbolTableRecord
100
AcDbLinetypeTableRecord
  2
ACAD_ISO09W100
 70
     0
  3
ISO long-dash double-short-dash ____ __ __ ____
 72
    65
 73
     6
 40
45.0
 49
24.0
 74
     0
 49
-3.0
 74
     0
 49
6.0
 74
     0
 49
-3.0
 74
     0
 49
6.0
 74
     0
 49
-3.0
 74
     0
  0
LTYPE
  5
3C
330
5
100
AcDbSymbolTableRecord
100
AcDbLinetypeTableRecord
  2
ACAD_ISO10W100
 70
     0
  3
ISO dash dot __ . __ . __ . __ . __ . __ . __ .
 72
    65
 73
     4
 40
18.0
 49
12.0
 74
     0
 49
-3.0
 74
     0
 49
0.0
 74
     0
 49
-3.0
 74
     0
  0
LTYPE
  5
3D
330
5
100
AcDbSymbolTableRecord
100
AcDbLinetypeTableRecord
  2
ACAD_ISO11W100
 70
     0
  3
ISO double-dash dot __ __ . __ __ . __ __ . __ 
 72
    65
 73
     6
 40
33.0
 49
12.0
 74
     0
 49
-3.0
 74
     0
 49
12.0
 74
     0
 49
-3.0
 74
     0
 49
0.0
 74
     0
 49
-3.0
 74
     0
  0
LTYPE
  5
3E
330
5
100
AcDbSymbolTableRecord
100
AcDbLinetypeTableRecord
  2
ACAD_ISO12W100
 70
     0
  3
ISO dash double-dot __ . . __ . . __ . . __ . .
 72
    65
 73
     6
 40
21.0
 49
12.0
 74
     0
 49
-3.0
 74
     0
 49
0.0
 74
     0
 49
-3.0
 74
     0
 49
0.0
 74
     0
 49
-3.0
 74
     0
  0
LTYPE
  5
3F
330
5
100
AcDbSymbolTableRecord
100
AcDbLinetypeTableRecord
  2
ACAD_ISO13W100
 70
     0
  3
ISO double-dash double-dot __ __ . . __ __ . . 
 72
    65
 73
     8
 40
36.0
 49
12.0
 74
     0
 49
-3.0
 74
     0
 49
12.0
 74
     0
 49
-3.0
 74
     0
 49
0.0
 74
     0
 49
-3.0
 74
     0
 49
0.0
 74
     0
 49
-3.0
 74
     0
  0
LTYPE
  5
40
330
5
100
AcDbSymbolTableRecord
100
AcDbLinetypeTableRecord
  2
ACAD_ISO14W100
 70
     0
  3
ISO dash triple-dot __ . . . __ . . . __ . . . 
 72
    65
 73
     8
 40
24.0
 49
12.0
 74
     0
 49
-3.0
 74
     0
 49
0.0
 74
     0
 49
-3.0
 74
     0
 49
0.0
 74
     0
 49
-3.0
 74
     0
 49
0.0
 74
     0
 49
-3.0
 74
     0
  0
LTYPE
  5
41
330
5
100
AcDbSymbolTableRecord
100
AcDbLinetypeTableRecord
  2
ACAD_ISO15W100
 70
     0
  3
ISO double-dash triple-dot __ __ . . . __ __ . 
 72
    65
 73
    10
 40
39.0
 49
12.0
 74
     0
 49
-3.0
 74
     0
 49
12.0
 74
     0
 49
-3.0
 74
     0
 49
0.0
 74
     0
 49
-3.0
 74
     0
 49
0.0
 74
     0
 49
-3.0
 74
     0
 49
0.0
 74
     0
 49
-3.0
 74
     0
  0
LTYPE
  5
42
330
5
100
AcDbSymbolTableRecord
100
AcDbLinetypeTableRecord
  2
BATTING
 70
     0
  3
Batting SSSSSSSSSSSSSSSSSSSSSSSSSSSSSSSSSSSSSSS
 72
    65
 73
     4
 40
10.16254
 49
0.00254
 74
     0
 49
-2.54
 74
     4
 75
   134
340
33
 46
2.54
 50
0.0
 44
-2.54
 45
0.0
 49
-5.08
 74
     4
 75
   134
340
33
 46
2.54
 50
180.0
 44
2.54
 45
0.0
 49
-2.54
 74
     0
  0
LTYPE
  5
43
330
5
100
AcDbSymbolTableRecord
100
AcDbLinetypeTableRecord
  2
BORDER
 70
     0
  3
Border __ __ . __ __ . __ __ . __ __ . __ __ .
 72
    65
 73
     6
 40
44.45
 49
12.7
 74
     0
 49
-6.349999999999999
 74
     0
 49
12.7
 74
     0
 49
-6.349999999999999
 74
     0
 49
0.0
 74
     0
 49
-6.349999999999999
 74
     0
  0
LTYPE
  5
44
330
5
100
AcDbSymbolTableRecord
100
AcDbLinetypeTableRecord
  2
BORDER2
 70
     0
  3
Border (.5x) __.__.__.__.__.__.__.__.__.__.__.
 72
    65
 73
     6
 40
22.225
 49
6.349999999999999
 74
     0
 49
-3.174999999999999
 74
     0
 49
6.349999999999999
 74
     0
 49
-3.174999999999999
 74
     0
 49
0.0
 74
     0
 49
-3.174999999999999
 74
     0
  0
LTYPE
  5
45
330
5
100
AcDbSymbolTableRecord
100
AcDbLinetypeTableRecord
  2
BORDERX2
 70
     0
  3
Border (2x) ____  ____  .  ____  ____  .  ___
 72
    65
 73
     6
 40
88.9
 49
25.4
 74
     0
 49
-12.7
 74
     0
 49
25.4
 74
     0
 49
-12.7
 74
     0
 49
0.0
 74
     0
 49
-12.7
 74
     0
  0
LTYPE
  5
46
330
5
100
AcDbSymbolTableRecord
100
AcDbLinetypeTableRecord
  2
CENTER
 70
     0
  3
Center ____ _ ____ _ ____ _ ____ _ ____ _ ____
 72
    65
 73
     4
 40
50.8
 49
31.75
 74
     0
 49
-6.349999999999999
 74
     0
 49
6.349999999999999
 74
     0
 49
-6.349999999999999
 74
     0
  0
LTYPE
  5
47
330
5
100
AcDbSymbolTableRecord
100
AcDbLinetypeTableRecord
  2
CENTER2
 70
     0
  3
Center (.5x) ___ _ ___ _ ___ _ ___ _ ___ _ ___
 72
    65
 73
     4
 40
28.575
 49
19.05
 74
     0
 49
-3.174999999999999
 74
     0
 49
3.174999999999999
 74
     0
 49
-3.174999999999999
 74
     0
  0
LTYPE
  5
48
330
5
100
AcDbSymbolTableRecord
100
AcDbLinetypeTableRecord
  2
CENTERX2
 70
     0
  3
Center (2x) ________  __  ________  __  _____
 72
    65
 73
     4
 40
101.6
 49
63.5
 74
     0
 49
-12.7
 74
     0
 49
12.7
 74
     0
 49
-12.7
 74
     0
  0
LTYPE
  5
49
330
5
100
AcDbSymbolTableRecord
100
AcDbLinetypeTableRecord
  2
DASHDOT
 70
     0
  3
Dash dot __ . __ . __ . __ . __ . __ . __ . __
 72
    65
 73
     4
 40
25.4
 49
12.7
 74
     0
 49
-6.349999999999999
 74
     0
 49
0.0
 74
     0
 49
-6.349999999999999
 74
     0
  0
LTYPE
  5
4A
330
5
100
AcDbSymbolTableRecord
100
AcDbLinetypeTableRecord
  2
DASHDOT2
 70
     0
  3
Dash dot (.5x) _._._._._._._._._._._._._._._.
 72
    65
 73
     4
 40
12.7
 49
6.349999999999999
 74
     0
 49
-3.174999999999999
 74
     0
 49
0.0
 74
     0
 49
-3.174999999999999
 74
     0
  0
LTYPE
  5
4B
330
5
100
AcDbSymbolTableRecord
100
AcDbLinetypeTableRecord
  2
DASHDOTX2
 70
     0
  3
Dash dot (2x) ____  .  ____  .  ____  .  ___
 72
    65
 73
     4
 40
50.8
 49
25.4
 74
     0
 49
-12.7
 74
     0
 49
0.0
 74
     0
 49
-12.7
 74
     0
  0
LTYPE
  5
4C
330
5
100
AcDbSymbolTableRecord
100
AcDbLinetypeTableRecord
  2
DASHED
 70
     0
  3
Dashed __ __ __ __ __ __ __ __ __ __ __ __ __ _
 72
    65
 73
     2
 40
19.05
 49
12.7
 74
     0
 49
-6.349999999999999
 74
     0
  0
LTYPE
  5
4D
330
5
100
AcDbSymbolTableRecord
100
AcDbLinetypeTableRecord
  2
DASHED2
 70
     0
  3
Dashed (.5x) _ _ _ _ _ _ _ _ _ _ _ _ _ _ _ _ _
 72
    65
 73
     2
 40
9.524999999999998
 49
6.349999999999999
 74
     0
 49
-3.174999999999999
 74
     0
  0
LTYPE
  5
4E
330
5
100
AcDbSymbolTableRecord
100
AcDbLinetypeTableRecord
  2
DASHEDX2
 70
     0
  3
Dashed (2x) ____  ____  ____  ____  ____  ___
 72
    65
 73
     2
 40
38.1
 49
25.4
 74
     0
 49
-12.7
 74
     0
  0
LTYPE
  5
4F
330
5
100
AcDbSymbolTableRecord
100
AcDbLinetypeTableRecord
  2
DIVIDE
 70
     0
  3
Divide ____ . . ____ . . ____ . . ____ . . ____
 72
    65
 73
     6
 40
31.75
 49
12.7
 74
     0
 49
-6.349999999999999
 74
     0
 49
0.0
 74
     0
 49
-6.349999999999999
 74
     0
 49
0.0
 74
     0
 49
-6.349999999999999
 74
     0
  0
LTYPE
  5
50
330
5
100
AcDbSymbolTableRecord
100
AcDbLinetypeTableRecord
  2
DIVIDE2
 70
     0
  3
Divide (.5x) __..__..__..__..__..__..__..__.._
 72
    65
 73
     6
 40
15.875
 49
6.349999999999999
 74
     0
 49
-3.174999999999999
 74
     0
 49
0.0
 74
     0
 49
-3.174999999999999
 74
     0
 49
0.0
 74
     0
 49
-3.174999999999999
 74
     0
  0
LTYPE
  5
51
330
5
100
AcDbSymbolTableRecord
100
AcDbLinetypeTableRecord
  2
DIVIDEX2
 70
     0
  3
Divide (2x) ________  .  .  ________  .  .  _
 72
    65
 73
     6
 40
63.49999999999999
 49
25.4
 74
     0
 49
-12.7
 74
     0
 49
0.0
 74
     0
 49
-12.7
 74
     0
 49
0.0
 74
     0
 49
-12.7
 74
     0
  0
LTYPE
  5
52
330
5
100
AcDbSymbolTableRecord
100
AcDbLinetypeTableRecord
  2
DOT
 70
     0
  3
Dot . . . . . . . . . . . . . . . . . . . . . .
 72
    65
 73
     2
 40
6.349999999999999
 49
0.0
 74
     0
 49
-6.349999999999999
 74
     0
  0
LTYPE
  5
53
330
5
100
AcDbSymbolTableRecord
100
AcDbLinetypeTableRecord
  2
DOT2
 70
     0
  3
Dot (.5x) .....................................
 72
    65
 73
     2
 40
3.174999999999999
 49
0.0
 74
     0
 49
-3.174999999999999
 74
     0
  0
LTYPE
  5
54
330
5
100
AcDbSymbolTableRecord
100
AcDbLinetypeTableRecord
  2
DOTX2
 70
     0
  3
Dot (2x) .  .  .  .  .  .  .  .  .  .  .  .  . 
 72
    65
 73
     2
 40
12.7
 49
0.0
 74
     0
 49
-12.7
 74
     0
  0
LTYPE
  5
55
330
5
100
AcDbSymbolTableRecord
100
AcDbLinetypeTableRecord
  2
FENCELINE1
 70
     0
  3
Fenceline circle ----0-----0----0-----0----0---
 72
    65
 73
     4
 40
36.83
 49
6.349999999999999
 74
     0
 49
-2.54
 74
     4
 75
   133
340
33
 46
2.54
 50
0.0
 44
-2.54
 45
0.0
 49
-2.54
 74
     0
 49
25.4
 74
     0
  0
LTYPE
  5
56
330
5
100
AcDbSymbolTableRecord
100
AcDbLinetypeTableRecord
  2
FENCELINE2
 70
     0
  3
Fenceline square ----[]-----[]----[]-----[]----
 72
    65
 73
     4
 40
36.83
 49
6.349999999999999
 74
     0
 49
-2.54
 74
     4
 75
   132
340
33
 46
2.54
 50
0.0
 44
-2.54
 45
0.0
 49
-2.54
 74
     0
 49
25.4
 74
     0
  0
LTYPE
  5
57
330
5
100
AcDbSymbolTableRecord
100
AcDbLinetypeTableRecord
  2
GAS_LINE
 70
     0
  3
Gas line ----GAS----GAS----GAS----GAS----GAS---
 72
    65
 73
     3
 40
24.13
 49
12.7
 74
     0
 49
-5.08
 74
     2
 75
     0
340
11
 46
2.54
 50
0.0
 44
-2.54
 45
-1.27
  9
GAS
 49
-6.349999999999999
 74
     0
  0
LTYPE
  5
58
330
5
100
AcDbSymbolTableRecord
100
AcDbLinetypeTableRecord
  2
HIDDEN
 70
     0
  3
Hidden __ __ __ __ __ __ __ __ __ __ __ __ __ _
 72
    65
 73
     2
 40
9.524999999999998
 49
6.349999999999999
 74
     0
 49
-3.174999999999999
 74
     0
  0
LTYPE
  5
59
330
5
100
AcDbSymbolTableRecord
100
AcDbLinetypeTableRecord
  2
HIDDEN2
 70
     0
  3
Hidden (.5x) _ _ _ _ _ _ _ _ _ _ _ _ _ _ _ _ _
 72
    65
 73
     2
 40
4.762499999999999
 49
3.174999999999999
 74
     0
 49
-1.587499999999999
 74
     0
  0
LTYPE
  5
5A
330
5
100
AcDbSymbolTableRecord
100
AcDbLinetypeTableRecord
  2
HIDDENX2
 70
     0
  3
Hidden (2x) ____ ____ ____ ____ ____ ____ ____
 72
    65
 73
     2
 40
19.05
 49
12.7
 74
     0
 49
-6.349999999999999
 74
     0
  0
LTYPE
  5
5B
330
5
100
AcDbSymbolTableRecord
100
AcDbLinetypeTableRecord
  2
HOT_WATER_SUPPLY
 70
     0
  3
Hot water supply ---- HW ---- HW ---- HW ----
 72
    65
 73
     3
 40
22.86
 49
12.7
 74
     0
 49
-5.08
 74
     2
 75
     0
340
11
 46
2.54
 50
0.0
 44
-2.54
 45
-1.27
  9
HW
 49
-5.08
 74
     0
  0
LTYPE
  5
5C
330
5
100
AcDbSymbolTableRecord
100
AcDbLinetypeTableRecord
  2
PHANTOM
 70
     0
  3
Phantom ______  __  __  ______  __  __  ______
 72
    65
 73
     6
 40
63.5
 49
31.75
 74
     0
 49
-6.349999999999999
 74
     0
 49
6.349999999999999
 74
     0
 49
-6.349999999999999
 74
     0
 49
6.349999999999999
 74
     0
 49
-6.349999999999999
 74
     0
  0
LTYPE
  5
5D
330
5
100
AcDbSymbolTableRecord
100
AcDbLinetypeTableRecord
  2
PHANTOM2
 70
     0
  3
Phantom (.5x) ___ _ _ ___ _ _ ___ _ _ ___ _ _
 72
    65
 73
     6
 40
31.75
 49
15.875
 74
     0
 49
-3.174999999999999
 74
     0
 49
3.174999999999999
 74
     0
 49
-3.174999999999999
 74
     0
 49
3.174999999999999
 74
     0
 49
-3.174999999999999
 74
     0
  0
LTYPE
  5
5E
330
5
100
AcDbSymbolTableRecord
100
AcDbLinetypeTableRecord
  2
PHANTOMX2
 70
     0
  3
Phantom (2x) ____________    ____    ____   _
 72
    65
 73
     6
 40
127.0
 49
63.5
 74
     0
 49
-12.7
 74
     0
 49
12.7
 74
     0
 49
-12.7
 74
     0
 49
12.7
 74
     0
 49
-12.7
 74
     0
  0
LTYPE
  5
5F
330
5
100
AcDbSymbolTableRecord
100
AcDbLinetypeTableRecord
  2
TRACKS
 70
     0
  3
Tracks -|-|-|-|-|-|-|-|-|-|-|-|-|-|-|-|-|-|-|-|
 72
    65
 73
     2
 40
7.62
 49
3.81
 74
     4
 75
   130
340
33
 46
6.349999999999999
 50
0.0
 44
0.0
 45
0.0
 49
3.81
 74
     0
  0
LTYPE
  5
60
330
5
100
AcDbSymbolTableRecord
100
AcDbLinetypeTableRecord
  2
ZIGZAG
 70
     0
  3
Zig zag /\/\/\/\/\/\/\/\/\/\/\/\/\/\/\/\/\/\/\/
 72
    65
 73
     4
 40
20.32254
 49
0.00254
 74
     0
 49
-5.08
 74
     4
 75
   131
340
33
 46
5.08
 50
0.0
 44
-5.08
 45
0.0
 49
-10.16
 74
     4
 75
   131
340
33
 46
5.08
 50
180.0
 44
5.08
 45
0.0
 49
-5.08
 74
     0
  0
ENDTAB
  0
TABLE
  2
LAYER
  5
2
102
{ACAD_XDICTIONARY
360
178C
102
}
330
0
100
AcDbSymbolTable
 70
     8
  0
LAYER
  5
10
330
2
100
AcDbSymbolTableRecord
100
AcDbLayerTableRecord
  2
0
 70
     0
 62
     7
  6
Continuous
290
     0
370
    -3
390
F
  0
LAYER
  5
C3
330
2
100
AcDbSymbolTableRecord
100
AcDbLayerTableRecord
  2
Defpoints
 70
     0
 62
     7
  6
Continuous
290
     0
370
    -3
390
F
  0
LAYER
  5
256
330
2
100
AcDbSymbolTableRecord
100
AcDbLayerTableRecord
  2
センター
 70
     0
 62
     7
  6
CENTER2
370
    18
390
F
  0
LAYER
  5
268
330
2
100
AcDbSymbolTableRecord
100
AcDbLayerTableRecord
  2
実形
 70
     0
 62
     7
  6
Continuous
370
    -3
390
F
  0
LAYER
  5
269
330
2
100
AcDbSymbolTableRecord
100
AcDbLayerTableRecord
  2
補助
 70
     0
 62
     7
  6
Continuous
370
    -3
390
F
  0
LAYER
  5
26A
330
2
100
AcDbSymbolTableRecord
100
AcDbLayerTableRecord
  2
寸法
 70
     0
 62
     7
  6
Continuous
370
    18
390
F
  0
LAYER
  5
26B
330
2
100
AcDbSymbolTableRecord
100
AcDbLayerTableRecord
  2
ハッチング
 70
     0
 62
     7
  6
Continuous
370
    18
390
F
  0
LAYER
  5
26D
330
2
100
AcDbSymbolTableRecord
100
AcDbLayerTableRecord
  2
文字
 70
     0
 62
     7
  6
Continuous
370
    -3
390
F
  0
ENDTAB
  0
TABLE
  2
STYLE
  5
3
330
0
100
AcDbSymbolTable
 70
     4
  0
STYLE
  5
11
330
3
100
AcDbSymbolTableRecord
100
AcDbTextStyleTableRecord
  2
Standard
 70
     0
 40
0.0
 41
1.0
 50
0.0
 71
     0
 42
25.0
  3
txt.shx
  4
bigfont.shx
  0
STYLE
  5
33
330
3
100
AcDbSymbolTableRecord
100
AcDbTextStyleTableRecord
  2

 70
     1
 40
0.0
 41
1.0
 50
0.0
 71
     0
 42
2.5
  3
ltypeshp.shx
  4

  0
STYLE
  5
1960
330
3
100
AcDbSymbolTableRecord
100
AcDbTextStyleTableRecord
  2
明朝
 70
     0
 40
0.0
 41
1.0
 50
0.0
 71
     0
 42
25.0
  3
MS Mincho.ttf
  4

1001
ACAD
1000
MS Mincho
1071
    32785
  0
STYLE
  5
1CD1
330
3
100
AcDbSymbolTableRecord
100
AcDbTextStyleTableRecord
  2
MSｺﾞｼｯｸ
 70
     0
 40
0.0
 41
1.0
 50
0.0
 71
     0
 42
3.0
  3
@MS Gothic.ttf
  4

1001
ACAD
1000
@MS Gothic
1071
    32817
  0
ENDTAB
  0
TABLE
  2
VIEW
  5
6
330
0
100
AcDbSymbolTable
 70
     0
  0
ENDTAB
  0
TABLE
  2
UCS
  5
7
330
0
100
AcDbSymbolTable
 70
     0
  0
ENDTAB
  0
TABLE
  2
APPID
  5
9
330
0
100
AcDbSymbolTable
 70
     1
  0
APPID
  5
12
330
9
100
AcDbSymbolTableRecord
100
AcDbRegAppTableRecord
  2
ACAD
 70
     0
  0
ENDTAB
  0
TABLE
  2
DIMSTYLE
  5
A
330
0
100
AcDbSymbolTable
 70
     1
100
AcDbDimStyleTable
 71
     1
340
27
  0
DIMSTYLE
105
27
102
{ACAD_REACTORS
330
368
330
569
330
57F
330
35B
330
4F8
330
505
330
166B
330
166C
330
16BE
330
16BF
330
1ED2
330
1EF2
330
1F33
330
1F5D
330
1F6A
330
1F82
330
24CD
330
24ED
330
2516
330
253B
330
257C
330
259C
330
25AF
330
25C6
330
2600
330
268B
330
2698
330
2BC7
330
2C01
330
2C35
102
}
330
A
100
AcDbSymbolTableRecord
100
AcDbDimStyleTableRecord
  2
ISO-25
 70
     0
 41
35.0
 42
65.0
 43
3.75
 44
0.0
 73
     0
 74
     0
 77
     1
 78
     8
140
25.0
141
2.5
143
0.03937007874016
147
6.25
171
     3
172
     1
271
     2
272
     2
274
     3
283
     0
284
     8
340
11
341
DA
342
D0
371
    15
372
    15
  0
ENDTAB
  0
TABLE
  2
BLOCK_RECORD
  5
1
330
0
100
AcDbSymbolTable
 70
    47
  0
BLOCK_RECORD
  5
1F
102
{ACAD_XDICTIONARY
360
197F
102
}
330
1
100
AcDbSymbolTableRecord
100
AcDbBlockTableRecord
  2
*Model_Space
340
22
  0
BLOCK_RECORD
  5
1B
330
1
100
AcDbSymbolTableRecord
100
AcDbBlockTableRecord
  2
*Paper_Space
340
1E
  0
BLOCK_RECORD
  5
23
330
1
100
AcDbSymbolTableRecord
100
AcDbBlockTableRecord
  2
*Paper_Space0
340
26
  0
BLOCK_RECORD
  5
D0
330
1
100
AcDbSymbolTableRecord
100
AcDbBlockTableRecord
  2
_DotSmall
340
0
102
{BLKREFS
331
1CA1
331
1CA2
331
1CAC
331
1CAD
331
1CB8
331
1CB9
331
1C7D
331
1C7E
331
1C89
331
1C8A
331
1C95
331
1C96
331
2644
331
2645
331
282D
331
282E
331
2836
331
2837
331
283F
331
2840
331
2848
331
2849
331
2851
331
2852
331
285A
331
285B
331
2863
331
2864
331
2874
331
2875
331
2885
331
2886
331
288E
331
288F
331
28A0
331
28A1
331
28A9
331
28AA
331
28B2
331
28B3
331
2A0C
331
2A0D
331
2A15
331
2A16
331
2A30
331
2A31
331
2A39
331
2A3A
331
2B1D
331
2B1E
331
2B2F
331
2B30
331
2BE0
331
2BE1
331
2BFB
331
2BFC
331
2C11
331
2C12
331
2C9C
331
2C9D
331
2CC9
331
2CCA
331
2CD2
331
2CD3
331
2CE4
331
2CE5
331
2CED
331
2CEE
331
2CF6
331
2CF7
331
2CFF
331
2D00
331
2D08
331
2D09
102
}
  0
BLOCK_RECORD
  5
D4
330
1
100
AcDbSymbolTableRecord
100
AcDbBlockTableRecord
  2
_Origin2
340
0
  0
BLOCK_RECORD
  5
DA
330
1
100
AcDbSymbolTableRecord
100
AcDbBlockTableRecord
  2
_Open30
340
0
  0
BLOCK_RECORD
  5
35C
330
1
100
AcDbSymbolTableRecord
100
AcDbBlockTableRecord
  2
*D4
340
0
  0
BLOCK_RECORD
  5
369
330
1
100
AcDbSymbolTableRecord
100
AcDbBlockTableRecord
  2
*D5
340
0
  0
BLOCK_RECORD
  5
4F9
330
1
100
AcDbSymbolTableRecord
100
AcDbBlockTableRecord
  2
*D6
340
0
  0
BLOCK_RECORD
  5
506
330
1
100
AcDbSymbolTableRecord
100
AcDbBlockTableRecord
  2
*D7
340
0
  0
BLOCK_RECORD
  5
56A
330
1
100
AcDbSymbolTableRecord
100
AcDbBlockTableRecord
  2
*D8
340
0
  0
BLOCK_RECORD
  5
580
330
1
100
AcDbSymbolTableRecord
100
AcDbBlockTableRecord
  2
*D9
340
0
  0
BLOCK_RECORD
  5
1673
330
1
100
AcDbSymbolTableRecord
100
AcDbBlockTableRecord
  2
*D10
340
0
  0
BLOCK_RECORD
  5
167E
330
1
100
AcDbSymbolTableRecord
100
AcDbBlockTableRecord
  2
*D11
340
0
  0
BLOCK_RECORD
  5
16C6
330
1
100
AcDbSymbolTableRecord
100
AcDbBlockTableRecord
  2
*D12
340
0
  0
BLOCK_RECORD
  5
16D1
330
1
100
AcDbSymbolTableRecord
100
AcDbBlockTableRecord
  2
*D13
340
0
  0
BLOCK_RECORD
  5
1C77
330
1
100
AcDbSymbolTableRecord
100
AcDbBlockTableRecord
  2
*D14
340
0
  0
BLOCK_RECORD
  5
1C83
330
1
100
AcDbSymbolTableRecord
100
AcDbBlockTableRecord
  2
*D15
340
0
  0
BLOCK_RECORD
  5
1C8F
330
1
100
AcDbSymbolTableRecord
100
AcDbBlockTableRecord
  2
*D16
340
0
  0
BLOCK_RECORD
  5
1C9B
330
1
100
AcDbSymbolTableRecord
100
AcDbBlockTableRecord
  2
*D17
340
0
  0
BLOCK_RECORD
  5
1CA7
330
1
100
AcDbSymbolTableRecord
100
AcDbBlockTableRecord
  2
*D18
340
0
  0
BLOCK_RECORD
  5
1CB3
330
1
100
AcDbSymbolTableRecord
100
AcDbBlockTableRecord
  2
*D19
340
0
  0
BLOCK_RECORD
  5
1CBF
330
1
100
AcDbSymbolTableRecord
100
AcDbBlockTableRecord
  2
*D20
340
0
  0
BLOCK_RECORD
  5
1CC8
330
1
100
AcDbSymbolTableRecord
100
AcDbBlockTableRecord
  2
*D21
340
0
  0
BLOCK_RECORD
  5
1CD2
102
{ACAD_XDICTIONARY
360
1CFE
102
}
330
1
100
AcDbSymbolTableRecord
100
AcDbBlockTableRecord
  2
A$C220A74A5
340
0
  0
BLOCK_RECORD
  5
1ED3
330
1
100
AcDbSymbolTableRecord
100
AcDbBlockTableRecord
  2
*D23
340
0
  0
BLOCK_RECORD
  5
1EF3
330
1
100
AcDbSymbolTableRecord
100
AcDbBlockTableRecord
  2
*D24
340
0
  0
BLOCK_RECORD
  5
1F34
330
1
100
AcDbSymbolTableRecord
100
AcDbBlockTableRecord
  2
*D25
340
0
  0
BLOCK_RECORD
  5
1F5E
330
1
100
AcDbSymbolTableRecord
100
AcDbBlockTableRecord
  2
*D26
340
0
  0
BLOCK_RECORD
  5
1F6B
330
1
100
AcDbSymbolTableRecord
100
AcDbBlockTableRecord
  2
*D27
340
0
  0
BLOCK_RECORD
  5
1F83
330
1
100
AcDbSymbolTableRecord
100
AcDbBlockTableRecord
  2
*D28
340
0
  0
BLOCK_RECORD
  5
1FF8
102
{ACAD_XDICTIONARY
360
1FFA
102
}
330
1
100
AcDbSymbolTableRecord
100
AcDbBlockTableRecord
  2
A$C7600333B
340
0
  0
BLOCK_RECORD
  5
24CE
330
1
100
AcDbSymbolTableRecord
100
AcDbBlockTableRecord
  2
*D30
340
0
  0
BLOCK_RECORD
  5
24EE
330
1
100
AcDbSymbolTableRecord
100
AcDbBlockTableRecord
  2
*D31
340
0
  0
BLOCK_RECORD
  5
2517
330
1
100
AcDbSymbolTableRecord
100
AcDbBlockTableRecord
  2
*D32
340
0
  0
BLOCK_RECORD
  5
253C
330
1
100
AcDbSymbolTableRecord
100
AcDbBlockTableRecord
  2
*D33
340
0
  0
BLOCK_RECORD
  5
257D
330
1
100
AcDbSymbolTableRecord
100
AcDbBlockTableRecord
  2
*D34
340
0
  0
BLOCK_RECORD
  5
259D
330
1
100
AcDbSymbolTableRecord
100
AcDbBlockTableRecord
  2
*D35
340
0
  0
BLOCK_RECORD
  5
25B0
330
1
100
AcDbSymbolTableRecord
100
AcDbBlockTableRecord
  2
*D36
340
0
  0
BLOCK_RECORD
  5
25C7
330
1
100
AcDbSymbolTableRecord
100
AcDbBlockTableRecord
  2
*D37
340
0
  0
BLOCK_RECORD
  5
2601
330
1
100
AcDbSymbolTableRecord
100
AcDbBlockTableRecord
  2
*D38
340
0
  0
BLOCK_RECORD
  5
263F
330
1
100
AcDbSymbolTableRecord
100
AcDbBlockTableRecord
  2
*D39
340
0
  0
BLOCK_RECORD
  5
264B
102
{ACAD_XDICTIONARY
360
264D
102
}
330
1
100
AcDbSymbolTableRecord
100
AcDbBlockTableRecord
  2
A$C125533AC
340
0
  0
BLOCK_RECORD
  5
268C
330
1
100
AcDbSymbolTableRecord
100
AcDbBlockTableRecord
  2
*D41
340
0
  0
BLOCK_RECORD
  5
2699
330
1
100
AcDbSymbolTableRecord
100
AcDbBlockTableRecord
  2
*D42
340
0
  0
BLOCK_RECORD
  5
29BC
102
{ACAD_XDICTIONARY
360
29BE
102
}
330
1
100
AcDbSymbolTableRecord
100
AcDbBlockTableRecord
  2
A$C38736A37
340
0
  0
BLOCK_RECORD
  5
2BC8
330
1
100
AcDbSymbolTableRecord
100
AcDbBlockTableRecord
  2
*D44
340
0
  0
BLOCK_RECORD
  5
2C02
330
1
100
AcDbSymbolTableRecord
100
AcDbBlockTableRecord
  2
*D45
340
0
  0
BLOCK_RECORD
  5
2C36
330
1
100
AcDbSymbolTableRecord
100
AcDbBlockTableRecord
  2
*D46
340
0
  0
ENDTAB
  0
ENDSEC
  0
SECTION
  2
BLOCKS
  0
BLOCK
  5
20
330
1F
100
AcDbEntity
  8
0
100
AcDbBlockBegin
  2
*Model_Space
 70
     0
 10
0.0
 20
0.0
 30
0.0
  3
*Model_Space
  1

  0
ENDBLK
  5
21
330
1F
100
AcDbEntity
  8
0
100
AcDbBlockEnd
  0
BLOCK
  5
1C
330
1B
100
AcDbEntity
 67
     1
  8
0
100
AcDbBlockBegin
  2
*Paper_Space
 70
     0
 10
0.0
 20
0.0
 30
0.0
  3
*Paper_Space
  1

  0
ENDBLK
  5
1D
330
1B
100
AcDbEntity
 67
     1
  8
0
100
AcDbBlockEnd
  0
BLOCK
  5
24
330
23
100
AcDbEntity
  8
0
100
AcDbBlockBegin
  2
*Paper_Space0
 70
     0
 10
0.0
 20
0.0
 30
0.0
  3
*Paper_Space0
  1

  0
ENDBLK
  5
25
330
23
100
AcDbEntity
  8
0
100
AcDbBlockEnd
  0
BLOCK
  5
D2
330
D0
100
AcDbEntity
  8
0
100
AcDbBlockBegin
  2
_DotSmall
 70
     0
 10
0.0
 20
0.0
 30
0.0
  3
_DotSmall
  1

  0
LWPOLYLINE
  5
D1
330
D0
100
AcDbEntity
  8
0
 62
     0
100
AcDbPolyline
 90
        2
 70
     1
 43
0.5
 10
-0.0625
 20
0.0
 42
1.0
 10
0.0625
 20
0.0
 42
1.0
  0
ENDBLK
  5
D3
330
D0
100
AcDbEntity
  8
0
100
AcDbBlockEnd
  0
BLOCK
  5
D8
330
D4
100
AcDbEntity
  8
0
100
AcDbBlockBegin
  2
_Origin2
 70
     0
 10
0.0
 20
0.0
 30
0.0
  3
_Origin2
  1

  0
CIRCLE
  5
D5
330
D4
100
AcDbEntity
  8
0
 62
     0
370
    -2
100
AcDbCircle
 10
0.0
 20
0.0
 30
0.0
 40
0.5
  0
CIRCLE
  5
D6
330
D4
100
AcDbEntity
  8
0
 62
     0
370
    -2
100
AcDbCircle
 10
0.0
 20
0.0
 30
0.0
 40
0.25
  0
LINE
  5
D7
330
D4
100
AcDbEntity
  8
0
 62
     0
370
    -2
100
AcDbLine
 10
-0.5
 20
0.0
 30
0.0
 11
-1.0
 21
0.0
 31
0.0
  0
ENDBLK
  5
D9
330
D4
100
AcDbEntity
  8
0
100
AcDbBlockEnd
  0
BLOCK
  5
DE
330
DA
100
AcDbEntity
  8
0
100
AcDbBlockBegin
  2
_Open30
 70
     0
 10
0.0
 20
0.0
 30
0.0
  3
_Open30
  1

  0
LINE
  5
DB
330
DA
100
AcDbEntity
  8
0
 62
     0
370
    -2
100
AcDbLine
 10
-1.0
 20
0.26794919
 30
0.0
 11
0.0
 21
0.0
 31
0.0
  0
LINE
  5
DC
330
DA
100
AcDbEntity
  8
0
 62
     0
370
    -2
100
AcDbLine
 10
0.0
 20
0.0
 30
0.0
 11
-1.0
 21
-0.26794919
 31
0.0
  0
LINE
  5
DD
330
DA
100
AcDbEntity
  8
0
 62
     0
370
    -2
100
AcDbLine
 10
0.0
 20
0.0
 30
0.0
 11
-1.0
 21
0.0
 31
0.0
  0
ENDBLK
  5
DF
330
DA
100
AcDbEntity
  8
0
100
AcDbBlockEnd
  0
BLOCK
  5
366
330
35C
100
AcDbEntity
  8
0
100
AcDbBlockBegin
  2
*D4
 70
     1
 10
0.0
 20
0.0
 30
0.0
  3
*D4
  1

  0
LINE
  5
282A
330
35C
100
AcDbEntity
  8
実形
 62
     0
370
    15
100
AcDbLine
 10
933.4099390919263
 20
1568.359507154115
 30
0.0
 11
933.4099390919263
 21
1747.162625317523
 31
0.0
  0
LINE
  5
282B
330
35C
100
AcDbEntity
  8
実形
 62
     0
370
    15
100
AcDbLine
 10
788.4099390919266
 20
1658.826706059002
 30
0.0
 11
788.4099390919266
 21
1747.162625317523
 31
0.0
  0
LINE
  5
282C
330
35C
100
AcDbEntity
  8
実形
 62
     0
370
    18
100
AcDbLine
 10
933.4099390919263
 20
1747.162625317523
 30
0.0
 11
788.4099390919266
 21
1747.162625317523
 31
0.0
  0
INSERT
  5
282D
330
35C
100
AcDbEntity
  8
実形
 62
     0
370
    18
100
AcDbBlockReference
  2
_DotSmall
 10
933.4099390919263
 20
1747.162625317523
 30
0.0
 41
25.0
 42
25.0
 43
25.0
  0
INSERT
  5
282E
330
35C
100
AcDbEntity
  8
実形
 62
     0
370
    18
100
AcDbBlockReference
  2
_DotSmall
 10
788.4099390919266
 20
1747.162625317523
 30
0.0
 41
25.0
 42
25.0
 43
25.0
 50
180.0
  0
MTEXT
  5
282F
330
35C
100
AcDbEntity
  8
実形
 62
     0
100
AcDbMText
 10
860.9099390919265
 20
1765.912625317523
 30
0.0
 40
25.0
 41
0.0
 71
     5
 72
     1
  1
145
 73
     1
 44
1.0
1001
ACAD
1000
MTEXTBEGIN
1070
    73
1070
     1
1070
    44
1040
1.0
1070
    74
1070
     0
1000
MTEXTEND
  0
POINT
  5
2830
330
35C
100
AcDbEntity
  8
Defpoints
 62
     0
100
AcDbPoint
 10
933.4099390919263
 20
1503.359507154115
 30
0.0
  0
POINT
  5
2831
330
35C
100
AcDbEntity
  8
Defpoints
 62
     0
100
AcDbPoint
 10
788.4099390919266
 20
1593.826706059003
 30
0.0
  0
POINT
  5
2832
330
35C
100
AcDbEntity
  8
Defpoints
 62
     0
100
AcDbPoint
 10
788.4099390919266
 20
1747.162625317523
 30
0.0
  0
ENDBLK
  5
367
330
35C
100
AcDbEntity
  8
0
100
AcDbBlockEnd
  0
BLOCK
  5
373
330
369
100
AcDbEntity
  8
0
100
AcDbBlockBegin
  2
*D5
 70
     1
 10
0.0
 20
0.0
 30
0.0
  3
*D5
  1

  0
LINE
  5
2833
330
369
100
AcDbEntity
  8
実形
 62
     0
370
    15
100
AcDbLine
 10
998.4099390919263
 20
1503.359507154115
 30
0.0
 11
1196.012951710908
 21
1503.359507154115
 31
0.0
  0
LINE
  5
2834
330
369
100
AcDbEntity
  8
実形
 62
     0
370
    15
100
AcDbLine
 10
1088.409939091926
 20
1648.359507154115
 30
0.0
 11
1196.012951710908
 21
1648.359507154115
 31
0.0
  0
LINE
  5
2835
330
369
100
AcDbEntity
  8
実形
 62
     0
370
    18
100
AcDbLine
 10
1196.012951710908
 20
1503.359507154115
 30
0.0
 11
1196.012951710908
 21
1648.359507154115
 31
0.0
  0
INSERT
  5
2836
330
369
100
AcDbEntity
  8
実形
 62
     0
370
    18
100
AcDbBlockReference
  2
_DotSmall
 10
1196.012951710908
 20
1503.359507154115
 30
0.0
 41
25.0
 42
25.0
 43
25.0
 50
270.0
  0
INSERT
  5
2837
330
369
100
AcDbEntity
  8
実形
 62
     0
370
    18
100
AcDbBlockReference
  2
_DotSmall
 10
1196.012951710908
 20
1648.359507154115
 30
0.0
 41
25.0
 42
25.0
 43
25.0
 50
90.0
  0
MTEXT
  5
2838
330
369
100
AcDbEntity
  8
実形
 62
     0
100
AcDbMText
 10
1177.262951710907
 20
1575.859507154115
 30
0.0
 40
25.0
 41
0.0
 71
     5
 72
     1
  1
145
 11
0.0000000000000001
 21
1.0
 31
0.0
 73
     1
 44
1.0
1001
ACAD
1000
MTEXTBEGIN
1070
    73
1070
     1
1070
    44
1040
1.0
1070
    74
1070
     0
1000
MTEXTEND
  0
POINT
  5
2839
330
369
100
AcDbEntity
  8
Defpoints
 62
     0
100
AcDbPoint
 10
933.4099390919263
 20
1503.359507154115
 30
0.0
  0
POINT
  5
283A
330
369
100
AcDbEntity
  8
Defpoints
 62
     0
100
AcDbPoint
 10
1023.409939091926
 20
1648.359507154115
 30
0.0
  0
POINT
  5
283B
330
369
100
AcDbEntity
  8
Defpoints
 62
     0
100
AcDbPoint
 10
1196.012951710908
 20
1648.359507154115
 30
0.0
  0
ENDBLK
  5
374
330
369
100
AcDbEntity
  8
0
100
AcDbBlockEnd
  0
BLOCK
  5
503
330
4F9
100
AcDbEntity
  8
0
100
AcDbBlockBegin
  2
*D6
 70
     1
 10
0.0
 20
0.0
 30
0.0
  3
*D6
  1

  0
LINE
  5
283C
330
4F9
100
AcDbEntity
  8
実形
 62
     0
370
    15
100
AcDbLine
 10
886.0892247980746
 20
730.2344549922473
 30
0.0
 11
886.0892247980746
 21
678.8070476911745
 31
0.0
  0
LINE
  5
283D
330
4F9
100
AcDbEntity
  8
実形
 62
     0
370
    15
100
AcDbLine
 10
974.0892247980745
 20
730.2344549922473
 30
0.0
 11
974.0892247980745
 21
678.8070476911745
 31
0.0
  0
LINE
  5
283E
330
4F9
100
AcDbEntity
  8
実形
 62
     0
370
    18
100
AcDbLine
 10
886.0892247980746
 20
678.8070476911745
 30
0.0
 11
974.0892247980745
 21
678.8070476911745
 31
0.0
  0
INSERT
  5
283F
330
4F9
100
AcDbEntity
  8
実形
 62
     0
370
    18
100
AcDbBlockReference
  2
_DotSmall
 10
886.0892247980746
 20
678.8070476911745
 30
0.0
 41
25.0
 42
25.0
 43
25.0
 50
180.0
  0
INSERT
  5
2840
330
4F9
100
AcDbEntity
  8
実形
 62
     0
370
    18
100
AcDbBlockReference
  2
_DotSmall
 10
974.0892247980745
 20
678.8070476911745
 30
0.0
 41
25.0
 42
25.0
 43
25.0
  0
MTEXT
  5
2841
330
4F9
100
AcDbEntity
  8
実形
 62
     0
100
AcDbMText
 10
930.0892247980746
 20
697.5570476911745
 30
0.0
 40
25.0
 41
0.0
 71
     5
 72
     1
  1
88
 73
     1
 44
1.0
1001
ACAD
1000
MTEXTBEGIN
1070
    73
1070
     1
1070
    44
1040
1.0
1070
    74
1070
     0
1000
MTEXTEND
  0
POINT
  5
2842
330
4F9
100
AcDbEntity
  8
Defpoints
 62
     0
100
AcDbPoint
 10
886.0892247980746
 20
795.2344549922473
 30
0.0
  0
POINT
  5
2843
330
4F9
100
AcDbEntity
  8
Defpoints
 62
     0
100
AcDbPoint
 10
974.0892247980745
 20
795.2344549922473
 30
0.0
  0
POINT
  5
2844
330
4F9
100
AcDbEntity
  8
Defpoints
 62
     0
100
AcDbPoint
 10
974.0892247980745
 20
678.8070476911745
 30
0.0
  0
ENDBLK
  5
504
330
4F9
100
AcDbEntity
  8
0
100
AcDbBlockEnd
  0
BLOCK
  5
510
330
506
100
AcDbEntity
  8
0
100
AcDbBlockBegin
  2
*D7
 70
     1
 10
0.0
 20
0.0
 30
0.0
  3
*D7
  1

  0
LINE
  5
2845
330
506
100
AcDbEntity
  8
実形
 62
     0
370
    15
100
AcDbLine
 10
872.0892247980746
 20
730.2344549922473
 30
0.0
 11
872.0892247980746
 21
618.8476491222456
 31
0.0
  0
LINE
  5
2846
330
506
100
AcDbEntity
  8
実形
 62
     0
370
    15
100
AcDbLine
 10
988.0892247980746
 20
730.2344549922473
 30
0.0
 11
988.0892247980746
 21
618.8476491222456
 31
0.0
  0
LINE
  5
2847
330
506
100
AcDbEntity
  8
実形
 62
     0
370
    18
100
AcDbLine
 10
872.0892247980746
 20
618.8476491222456
 30
0.0
 11
988.0892247980746
 21
618.8476491222456
 31
0.0
  0
INSERT
  5
2848
330
506
100
AcDbEntity
  8
実形
 62
     0
370
    18
100
AcDbBlockReference
  2
_DotSmall
 10
872.0892247980746
 20
618.8476491222456
 30
0.0
 41
25.0
 42
25.0
 43
25.0
 50
180.0
  0
INSERT
  5
2849
330
506
100
AcDbEntity
  8
実形
 62
     0
370
    18
100
AcDbBlockReference
  2
_DotSmall
 10
988.0892247980746
 20
618.8476491222456
 30
0.0
 41
25.0
 42
25.0
 43
25.0
  0
MTEXT
  5
284A
330
506
100
AcDbEntity
  8
実形
 62
     0
100
AcDbMText
 10
930.0892247980746
 20
637.5976491222456
 30
0.0
 40
25.0
 41
0.0
 71
     5
 72
     1
  1
116
 73
     1
 44
1.0
1001
ACAD
1000
MTEXTBEGIN
1070
    73
1070
     1
1070
    44
1040
1.0
1070
    74
1070
     0
1000
MTEXTEND
  0
POINT
  5
284B
330
506
100
AcDbEntity
  8
Defpoints
 62
     0
100
AcDbPoint
 10
872.0892247980746
 20
795.2344549922473
 30
0.0
  0
POINT
  5
284C
330
506
100
AcDbEntity
  8
Defpoints
 62
     0
100
AcDbPoint
 10
988.0892247980746
 20
795.2344549922473
 30
0.0
  0
POINT
  5
284D
330
506
100
AcDbEntity
  8
Defpoints
 62
     0
100
AcDbPoint
 10
988.0892247980746
 20
618.8476491222456
 30
0.0
  0
ENDBLK
  5
511
330
506
100
AcDbEntity
  8
0
100
AcDbBlockEnd
  0
BLOCK
  5
574
330
56A
100
AcDbEntity
  8
0
100
AcDbBlockBegin
  2
*D8
 70
     1
 10
0.0
 20
0.0
 30
0.0
  3
*D8
  1

  0
LINE
  5
284E
330
56A
100
AcDbEntity
  8
実形
 62
     0
370
    15
100
AcDbLine
 10
1773.409939091926
 20
1547.359507154115
 30
0.0
 11
1818.716083183846
 21
1547.359507154115
 31
0.0
  0
LINE
  5
284F
330
56A
100
AcDbEntity
  8
実形
 62
     0
370
    15
100
AcDbLine
 10
1773.409939091926
 20
1459.359507154115
 30
0.0
 11
1818.716083183846
 21
1459.359507154115
 31
0.0
  0
LINE
  5
2850
330
56A
100
AcDbEntity
  8
実形
 62
     0
370
    18
100
AcDbLine
 10
1818.716083183846
 20
1547.359507154115
 30
0.0
 11
1818.716083183846
 21
1459.359507154115
 31
0.0
  0
INSERT
  5
2851
330
56A
100
AcDbEntity
  8
実形
 62
     0
370
    18
100
AcDbBlockReference
  2
_DotSmall
 10
1818.716083183846
 20
1547.359507154115
 30
0.0
 41
25.0
 42
25.0
 43
25.0
 50
90.0
  0
INSERT
  5
2852
330
56A
100
AcDbEntity
  8
実形
 62
     0
370
    18
100
AcDbBlockReference
  2
_DotSmall
 10
1818.716083183846
 20
1459.359507154115
 30
0.0
 41
25.0
 42
25.0
 43
25.0
 50
270.0
  0
MTEXT
  5
2853
330
56A
100
AcDbEntity
  8
実形
 62
     0
100
AcDbMText
 10
1799.966083183846
 20
1503.359507154115
 30
0.0
 40
25.0
 41
0.0
 71
     5
 72
     1
  1
88
 11
0.0000000000000001
 21
1.0
 31
0.0
 73
     1
 44
1.0
1001
ACAD
1000
MTEXTBEGIN
1070
    73
1070
     1
1070
    44
1040
1.0
1070
    74
1070
     0
1000
MTEXTEND
  0
POINT
  5
2854
330
56A
100
AcDbEntity
  8
Defpoints
 62
     0
100
AcDbPoint
 10
1708.409939091926
 20
1547.359507154115
 30
0.0
  0
POINT
  5
2855
330
56A
100
AcDbEntity
  8
Defpoints
 62
     0
100
AcDbPoint
 10
1708.409939091926
 20
1459.359507154115
 30
0.0
  0
POINT
  5
2856
330
56A
100
AcDbEntity
  8
Defpoints
 62
     0
100
AcDbPoint
 10
1818.716083183846
 20
1459.359507154115
 30
0.0
  0
ENDBLK
  5
575
330
56A
100
AcDbEntity
  8
0
100
AcDbBlockEnd
  0
BLOCK
  5
58A
330
580
100
AcDbEntity
  8
0
100
AcDbBlockBegin
  2
*D9
 70
     1
 10
0.0
 20
0.0
 30
0.0
  3
*D9
  1

  0
LINE
  5
2857
330
580
100
AcDbEntity
  8
実形
 62
     0
370
    15
100
AcDbLine
 10
1773.409939091926
 20
1561.359507154115
 30
0.0
 11
1883.637671148688
 21
1561.359507154115
 31
0.0
  0
LINE
  5
2858
330
580
100
AcDbEntity
  8
実形
 62
     0
370
    15
100
AcDbLine
 10
1773.409939091926
 20
1445.359507154115
 30
0.0
 11
1883.637671148688
 21
1445.359507154115
 31
0.0
  0
LINE
  5
2859
330
580
100
AcDbEntity
  8
実形
 62
     0
370
    18
100
AcDbLine
 10
1883.637671148688
 20
1561.359507154115
 30
0.0
 11
1883.637671148688
 21
1445.359507154115
 31
0.0
  0
INSERT
  5
285A
330
580
100
AcDbEntity
  8
実形
 62
     0
370
    18
100
AcDbBlockReference
  2
_DotSmall
 10
1883.637671148688
 20
1561.359507154115
 30
0.0
 41
25.0
 42
25.0
 43
25.0
 50
90.0
  0
INSERT
  5
285B
330
580
100
AcDbEntity
  8
実形
 62
     0
370
    18
100
AcDbBlockReference
  2
_DotSmall
 10
1883.637671148688
 20
1445.359507154115
 30
0.0
 41
25.0
 42
25.0
 43
25.0
 50
270.0
  0
MTEXT
  5
285C
330
580
100
AcDbEntity
  8
実形
 62
     0
100
AcDbMText
 10
1864.887671148688
 20
1503.359507154115
 30
0.0
 40
25.0
 41
0.0
 71
     5
 72
     1
  1
116
 11
0.0000000000000001
 21
1.0
 31
0.0
 73
     1
 44
1.0
1001
ACAD
1000
MTEXTBEGIN
1070
    73
1070
     1
1070
    44
1040
1.0
1070
    74
1070
     0
1000
MTEXTEND
  0
POINT
  5
285D
330
580
100
AcDbEntity
  8
Defpoints
 62
     0
100
AcDbPoint
 10
1708.409939091926
 20
1561.359507154115
 30
0.0
  0
POINT
  5
285E
330
580
100
AcDbEntity
  8
Defpoints
 62
     0
100
AcDbPoint
 10
1708.409939091926
 20
1445.359507154115
 30
0.0
  0
POINT
  5
285F
330
580
100
AcDbEntity
  8
Defpoints
 62
     0
100
AcDbPoint
 10
1883.637671148688
 20
1445.359507154115
 30
0.0
  0
ENDBLK
  5
58B
330
580
100
AcDbEntity
  8
0
100
AcDbBlockEnd
  0
BLOCK
  5
167C
330
1673
100
AcDbEntity
  8
0
100
AcDbBlockBegin
  2
*D10
 70
     1
 10
0.0
 20
0.0
 30
0.0
  3
*D10
  1

  0
LINE
  5
2860
330
1673
100
AcDbEntity
  8
実形
 62
     0
370
    15
100
AcDbLine
 10
716.180822607213
 20
820.2344549922475
 30
0.0
 11
662.2890721195058
 21
820.2344549922475
 31
0.0
  0
LINE
  5
2861
330
1673
100
AcDbEntity
  8
実形
 62
     0
370
    15
100
AcDbLine
 10
716.180822607213
 20
805.2344549922475
 30
0.0
 11
662.2890721195058
 21
805.2344549922475
 31
0.0
  0
LINE
  5
2862
330
1673
100
AcDbEntity
  8
実形
 62
     0
370
    15
100
AcDbLine
 10
662.2890721195058
 20
820.2344549922475
 30
0.0
 11
662.2890721195058
 21
805.2344549922475
 31
0.0
  0
INSERT
  5
2863
330
1673
100
AcDbEntity
  8
実形
 62
     0
370
    15
100
AcDbBlockReference
  2
_DotSmall
 10
662.2890721195058
 20
820.2344549922475
 30
0.0
 41
25.0
 42
25.0
 43
25.0
 50
90.0
  0
INSERT
  5
2864
330
1673
100
AcDbEntity
  8
実形
 62
     0
370
    15
100
AcDbBlockReference
  2
_DotSmall
 10
662.2890721195058
 20
805.2344549922475
 30
0.0
 41
25.0
 42
25.0
 43
25.0
 50
270.0
  0
POINT
  5
2865
330
1673
100
AcDbEntity
  8
Defpoints
 62
     0
100
AcDbPoint
 10
781.180822607213
 20
820.2344549922473
 30
0.0
  0
POINT
  5
2866
330
1673
100
AcDbEntity
  8
Defpoints
 62
     0
100
AcDbPoint
 10
781.180822607213
 20
805.2344549922473
 30
0.0
  0
POINT
  5
2867
330
1673
100
AcDbEntity
  8
Defpoints
 62
     0
100
AcDbPoint
 10
662.2890721195058
 20
805.2344549922475
 30
0.0
  0
ENDBLK
  5
167D
330
1673
100
AcDbEntity
  8
0
100
AcDbBlockEnd
  0
BLOCK
  5
1688
330
167E
100
AcDbEntity
  8
0
100
AcDbBlockBegin
  2
*D11
 70
     1
 10
0.0
 20
0.0
 30
0.0
  3
*D11
  1

  0
LINE
  5
2B1A
330
167E
100
AcDbEntity
  8
実形
 62
     0
370
    15
100
AcDbLine
 10
714.0414579512735
 20
967.2344549922467
 30
0.0
 11
593.5247583742629
 21
967.2344549922467
 31
0.0
  0
LINE
  5
2B1B
330
167E
100
AcDbEntity
  8
実形
 62
     0
370
    15
100
AcDbLine
 10
716.180822607213
 20
805.2344549922475
 30
0.0
 11
593.5247583742629
 21
805.2344549922475
 31
0.0
  0
LINE
  5
2B1C
330
167E
100
AcDbEntity
  8
実形
 62
     0
370
    15
100
AcDbLine
 10
593.5247583742629
 20
967.2344549922467
 30
0.0
 11
593.5247583742629
 21
805.2344549922475
 31
0.0
  0
INSERT
  5
2B1D
330
167E
100
AcDbEntity
  8
実形
 62
     0
370
    15
100
AcDbBlockReference
  2
_DotSmall
 10
593.5247583742629
 20
967.2344549922467
 30
0.0
 41
25.0
 42
25.0
 43
25.0
 50
90.0
  0
INSERT
  5
2B1E
330
167E
100
AcDbEntity
  8
実形
 62
     0
370
    15
100
AcDbBlockReference
  2
_DotSmall
 10
593.5247583742629
 20
805.2344549922475
 30
0.0
 41
25.0
 42
25.0
 43
25.0
 50
270.0
  0
MTEXT
  5
2B1F
330
167E
100
AcDbEntity
  8
実形
 62
     0
100
AcDbMText
 10
574.7747583742627
 20
886.2344549922472
 30
0.0
 40
25.0
 41
0.0
 71
     5
 72
     1
  1
157
 11
0.0000000000000001
 21
1.0
 31
0.0
 73
     1
 44
1.0
1001
ACAD
1000
MTEXTBEGIN
1070
    73
1070
     1
1070
    44
1040
1.0
1070
    74
1070
     0
1000
MTEXTEND
  0
POINT
  5
2B20
330
167E
100
AcDbEntity
  8
Defpoints
 62
     0
100
AcDbPoint
 10
779.0414579512735
 20
967.2344549922465
 30
0.0
  0
POINT
  5
2B21
330
167E
100
AcDbEntity
  8
Defpoints
 62
     0
100
AcDbPoint
 10
781.180822607213
 20
805.2344549922473
 30
0.0
  0
POINT
  5
2B22
330
167E
100
AcDbEntity
  8
Defpoints
 62
     0
100
AcDbPoint
 10
593.5247583742629
 20
805.2344549922475
 30
0.0
  0
ENDBLK
  5
1689
330
167E
100
AcDbEntity
  8
0
100
AcDbBlockEnd
  0
BLOCK
  5
16CF
330
16C6
100
AcDbEntity
  8
0
100
AcDbBlockBegin
  2
*D12
 70
     1
 10
0.0
 20
0.0
 30
0.0
  3
*D12
  1

  0
LINE
  5
2871
330
16C6
100
AcDbEntity
  8
実形
 62
     0
370
    15
100
AcDbLine
 10
1698.409939091926
 20
1298.493516178804
 30
0.0
 11
1698.409939091926
 21
1242.586782141369
 31
0.0
  0
LINE
  5
2872
330
16C6
100
AcDbEntity
  8
実形
 62
     0
370
    15
100
AcDbLine
 10
1683.409939091926
 20
1298.493516178804
 30
0.0
 11
1683.409939091926
 21
1242.586782141369
 31
0.0
  0
LINE
  5
2873
330
16C6
100
AcDbEntity
  8
実形
 62
     0
370
    18
100
AcDbLine
 10
1698.409939091926
 20
1242.586782141369
 30
0.0
 11
1683.409939091926
 21
1242.586782141369
 31
0.0
  0
INSERT
  5
2874
330
16C6
100
AcDbEntity
  8
実形
 62
     0
370
    18
100
AcDbBlockReference
  2
_DotSmall
 10
1698.409939091926
 20
1242.586782141369
 30
0.0
 41
25.0
 42
25.0
 43
25.0
  0
INSERT
  5
2875
330
16C6
100
AcDbEntity
  8
実形
 62
     0
370
    18
100
AcDbBlockReference
  2
_DotSmall
 10
1683.409939091926
 20
1242.586782141369
 30
0.0
 41
25.0
 42
25.0
 43
25.0
 50
180.0
  0
POINT
  5
2876
330
16C6
100
AcDbEntity
  8
Defpoints
 62
     0
100
AcDbPoint
 10
1698.409939091926
 20
1363.493516178804
 30
0.0
  0
POINT
  5
2877
330
16C6
100
AcDbEntity
  8
Defpoints
 62
     0
100
AcDbPoint
 10
1683.409939091926
 20
1363.493516178804
 30
0.0
  0
POINT
  5
2878
330
16C6
100
AcDbEntity
  8
Defpoints
 62
     0
100
AcDbPoint
 10
1683.409939091926
 20
1242.586782141369
 30
0.0
  0
ENDBLK
  5
16D0
330
16C6
100
AcDbEntity
  8
0
100
AcDbBlockEnd
  0
BLOCK
  5
16DB
330
16D1
100
AcDbEntity
  8
0
100
AcDbBlockBegin
  2
*D13
 70
     1
 10
0.0
 20
0.0
 30
0.0
  3
*D13
  1

  0
LINE
  5
2B2C
330
16D1
100
AcDbEntity
  8
実形
 62
     0
370
    15
100
AcDbLine
 10
1698.409939091926
 20
1275.199554958367
 30
0.0
 11
1698.409939091926
 21
1179.215095242327
 31
0.0
  0
LINE
  5
2B2D
330
16D1
100
AcDbEntity
  8
実形
 62
     0
370
    15
100
AcDbLine
 10
1536.409939091926
 20
1297.366711402464
 30
0.0
 11
1536.409939091926
 21
1179.215095242327
 31
0.0
  0
LINE
  5
2B2E
330
16D1
100
AcDbEntity
  8
実形
 62
     0
370
    18
100
AcDbLine
 10
1698.409939091926
 20
1179.215095242327
 30
0.0
 11
1536.409939091926
 21
1179.215095242327
 31
0.0
  0
INSERT
  5
2B2F
330
16D1
100
AcDbEntity
  8
実形
 62
     0
370
    18
100
AcDbBlockReference
  2
_DotSmall
 10
1698.409939091926
 20
1179.215095242327
 30
0.0
 41
25.0
 42
25.0
 43
25.0
  0
INSERT
  5
2B30
330
16D1
100
AcDbEntity
  8
実形
 62
     0
370
    18
100
AcDbBlockReference
  2
_DotSmall
 10
1536.409939091926
 20
1179.215095242327
 30
0.0
 41
25.0
 42
25.0
 43
25.0
 50
180.0
  0
MTEXT
  5
2B31
330
16D1
100
AcDbEntity
  8
実形
 62
     0
100
AcDbMText
 10
1617.409939091926
 20
1197.965095242327
 30
0.0
 40
25.0
 41
0.0
 71
     5
 72
     1
  1
157
 73
     1
 44
1.0
1001
ACAD
1000
MTEXTBEGIN
1070
    73
1070
     1
1070
    44
1040
1.0
1070
    74
1070
     0
1000
MTEXTEND
  0
POINT
  5
2B32
330
16D1
100
AcDbEntity
  8
Defpoints
 62
     0
100
AcDbPoint
 10
1698.409939091926
 20
1340.199554958367
 30
0.0
  0
POINT
  5
2B33
330
16D1
100
AcDbEntity
  8
Defpoints
 62
     0
100
AcDbPoint
 10
1536.409939091926
 20
1362.366711402464
 30
0.0
  0
POINT
  5
2B34
330
16D1
100
AcDbEntity
  8
Defpoints
 62
     0
100
AcDbPoint
 10
1536.409939091926
 20
1179.215095242327
 30
0.0
  0
ENDBLK
  5
16DC
330
16D1
100
AcDbEntity
  8
0
100
AcDbBlockEnd
  0
BLOCK
  5
1C78
330
1C77
100
AcDbEntity
  8
0
100
AcDbBlockBegin
  2
*D14
 70
     1
 10
0.0
 20
0.0
 30
0.0
  3
*D14
  1

  0
LINE
  5
1C79
330
1C77
100
AcDbEntity
  8
実形
 62
     0
370
    13
100
AcDbLine
 10
92.76626270020233
 20
117.4446509800009
 30
0.0
 11
92.76626270020233
 21
113.4355320084737
 31
0.0
  0
LINE
  5
1C7A
330
1C77
100
AcDbEntity
  8
実形
 62
     0
370
    13
100
AcDbLine
 10
97.76626270020233
 20
117.4446509800009
 30
0.0
 11
97.76626270020233
 21
113.4355320084737
 31
0.0
  0
LINE
  5
1C7B
330
1C77
100
AcDbEntity
  8
実形
 62
     0
370
    13
100
AcDbLine
 10
92.76626270020233
 20
113.4355320084737
 30
0.0
 11
97.76626270020233
 21
113.4355320084737
 31
0.0
  0
MTEXT
  5
1C7C
330
1C77
100
AcDbEntity
  8
実形
 62
     0
100
AcDbMText
 10
93.89735576232714
 20
109.902198300716
 30
0.0
 40
3.0
 41
0.0
 71
     5
 72
     1
  1
50
 73
     1
 44
1.0
1001
ACAD
1000
MTEXTBEGIN
1070
    73
1070
     1
1070
    44
1040
1.0
1070
    74
1070
     0
1000
MTEXTEND
  0
INSERT
  5
1C7D
330
1C77
100
AcDbEntity
  8
実形
 62
     0
370
    13
100
AcDbBlockReference
  2
_DotSmall
 10
92.76626270020233
 20
113.4355320084737
 30
0.0
 41
5.0
 42
5.0
 43
5.0
 50
180.0
  0
INSERT
  5
1C7E
330
1C77
100
AcDbEntity
  8
実形
 62
     0
370
    13
100
AcDbBlockReference
  2
_DotSmall
 10
97.76626270020233
 20
113.4355320084737
 30
0.0
 41
5.0
 42
5.0
 43
5.0
  0
POINT
  5
1C7F
330
1C77
100
AcDbEntity
  8
Defpoints
 62
     0
100
AcDbPoint
 10
92.76626270020233
 20
123.4446509800009
 30
0.0
  0
POINT
  5
1C80
330
1C77
100
AcDbEntity
  8
Defpoints
 62
     0
100
AcDbPoint
 10
97.76626270020233
 20
123.4446509800009
 30
0.0
  0
POINT
  5
1C81
330
1C77
100
AcDbEntity
  8
Defpoints
 62
     0
100
AcDbPoint
 10
97.76626270020233
 20
113.4355320084737
 30
0.0
  0
ENDBLK
  5
1C82
330
1C77
100
AcDbEntity
  8
0
100
AcDbBlockEnd
  0
BLOCK
  5
1C84
330
1C83
100
AcDbEntity
  8
0
100
AcDbBlockBegin
  2
*D15
 70
     1
 10
0.0
 20
0.0
 30
0.0
  3
*D15
  1

  0
LINE
  5
1C85
330
1C83
100
AcDbEntity
  8
実形
 62
     0
370
    13
100
AcDbLine
 10
58.76626270020233
 20
117.4446509800009
 30
0.0
 11
58.76626270020233
 21
113.4355320084737
 31
0.0
  0
LINE
  5
1C86
330
1C83
100
AcDbEntity
  8
実形
 62
     0
370
    13
100
AcDbLine
 10
63.76626270020233
 20
117.4446509800009
 30
0.0
 11
63.76626270020233
 21
113.4355320084737
 31
0.0
  0
LINE
  5
1C87
330
1C83
100
AcDbEntity
  8
実形
 62
     0
370
    13
100
AcDbLine
 10
58.76626270020233
 20
113.4355320084737
 30
0.0
 11
63.76626270020233
 21
113.4355320084737
 31
0.0
  0
MTEXT
  5
1C88
330
1C83
100
AcDbEntity
  8
実形
 62
     0
100
AcDbMText
 10
62.29900358337591
 20
109.902198300716
 30
0.0
 40
3.0
 41
0.0
 71
     5
 72
     1
  1
50
 73
     1
 44
1.0
1001
ACAD
1000
MTEXTBEGIN
1070
    73
1070
     1
1070
    44
1040
1.0
1070
    74
1070
     0
1000
MTEXTEND
  0
INSERT
  5
1C89
330
1C83
100
AcDbEntity
  8
実形
 62
     0
370
    13
100
AcDbBlockReference
  2
_DotSmall
 10
58.76626270020233
 20
113.4355320084737
 30
0.0
 41
5.0
 42
5.0
 43
5.0
 50
180.0
  0
INSERT
  5
1C8A
330
1C83
100
AcDbEntity
  8
実形
 62
     0
370
    13
100
AcDbBlockReference
  2
_DotSmall
 10
63.76626270020233
 20
113.4355320084737
 30
0.0
 41
5.0
 42
5.0
 43
5.0
  0
POINT
  5
1C8B
330
1C83
100
AcDbEntity
  8
Defpoints
 62
     0
100
AcDbPoint
 10
58.76626270020233
 20
123.4446509800009
 30
0.0
  0
POINT
  5
1C8C
330
1C83
100
AcDbEntity
  8
Defpoints
 62
     0
100
AcDbPoint
 10
63.76626270020233
 20
123.4446509800009
 30
0.0
  0
POINT
  5
1C8D
330
1C83
100
AcDbEntity
  8
Defpoints
 62
     0
100
AcDbPoint
 10
63.76626270020233
 20
113.4355320084737
 30
0.0
  0
ENDBLK
  5
1C8E
330
1C83
100
AcDbEntity
  8
0
100
AcDbBlockEnd
  0
BLOCK
  5
1C90
330
1C8F
100
AcDbEntity
  8
0
100
AcDbBlockBegin
  2
*D16
 70
     1
 10
0.0
 20
0.0
 30
0.0
  3
*D16
  1

  0
LINE
  5
1C91
330
1C8F
100
AcDbEntity
  8
実形
 62
     0
370
    13
100
AcDbLine
 10
52.76626270020233
 20
159.0458421175171
 30
0.0
 11
50.31546262564552
 21
159.0458421175171
 31
0.0
  0
LINE
  5
1C92
330
1C8F
100
AcDbEntity
  8
実形
 62
     0
370
    13
100
AcDbLine
 10
52.76626270020233
 20
154.0458421175171
 30
0.0
 11
50.31546262564552
 21
154.0458421175171
 31
0.0
  0
LINE
  5
1C93
330
1C8F
100
AcDbEntity
  8
実形
 62
     0
370
    13
100
AcDbLine
 10
50.31546262564552
 20
159.0458421175171
 30
0.0
 11
50.31546262564552
 21
154.0458421175171
 31
0.0
  0
MTEXT
  5
1C94
330
1C8F
100
AcDbEntity
  8
実形
 62
     0
100
AcDbMText
 10
45.31546262564551
 20
155.3099152724489
 30
0.0
 40
3.0
 41
0.0
 71
     5
 72
     1
  1
50
 11
0.0000000000000001
 21
1.0
 31
0.0
 73
     1
 44
1.0
1001
ACAD
1000
MTEXTBEGIN
1070
    73
1070
     1
1070
    44
1040
1.0
1070
    74
1070
     0
1000
MTEXTEND
  0
INSERT
  5
1C95
330
1C8F
100
AcDbEntity
  8
実形
 62
     0
370
    13
100
AcDbBlockReference
  2
_DotSmall
 10
50.31546262564552
 20
159.0458421175171
 30
0.0
 41
5.0
 42
5.0
 43
5.0
 50
90.0
  0
INSERT
  5
1C96
330
1C8F
100
AcDbEntity
  8
実形
 62
     0
370
    13
100
AcDbBlockReference
  2
_DotSmall
 10
50.31546262564552
 20
154.0458421175171
 30
0.0
 41
5.0
 42
5.0
 43
5.0
 50
270.0
  0
POINT
  5
1C97
330
1C8F
100
AcDbEntity
  8
Defpoints
 62
     0
100
AcDbPoint
 10
58.76626270020233
 20
159.0458421175171
 30
0.0
  0
POINT
  5
1C98
330
1C8F
100
AcDbEntity
  8
Defpoints
 62
     0
100
AcDbPoint
 10
58.76626270020233
 20
154.0458421175171
 30
0.0
  0
POINT
  5
1C99
330
1C8F
100
AcDbEntity
  8
Defpoints
 62
     0
100
AcDbPoint
 10
50.31546262564552
 20
154.0458421175171
 30
0.0
  0
ENDBLK
  5
1C9A
330
1C8F
100
AcDbEntity
  8
0
100
AcDbBlockEnd
  0
BLOCK
  5
1C9C
330
1C9B
100
AcDbEntity
  8
0
100
AcDbBlockBegin
  2
*D17
 70
     1
 10
0.0
 20
0.0
 30
0.0
  3
*D17
  1

  0
LINE
  5
1C9D
330
1C9B
100
AcDbEntity
  8
実形
 62
     0
370
    13
100
AcDbLine
 10
52.76626270020233
 20
125.0458421175171
 30
0.0
 11
50.26384986393987
 21
125.0458421175171
 31
0.0
  0
LINE
  5
1C9E
330
1C9B
100
AcDbEntity
  8
実形
 62
     0
370
    13
100
AcDbLine
 10
52.76626270020233
 20
120.0458421175171
 30
0.0
 11
50.26384986393987
 21
120.0458421175171
 31
0.0
  0
LINE
  5
1C9F
330
1C9B
100
AcDbEntity
  8
実形
 62
     0
370
    13
100
AcDbLine
 10
50.26384986393987
 20
125.0458421175171
 30
0.0
 11
50.26384986393987
 21
120.0458421175171
 31
0.0
  0
MTEXT
  5
1CA0
330
1C9B
100
AcDbEntity
  8
実形
 62
     0
100
AcDbMText
 10
46.82123843355748
 20
124.4678246953885
 30
0.0
 40
3.0
 41
0.0
 71
     5
 72
     1
  1
50
 11
0.0000000000000001
 21
1.0
 31
0.0
 73
     1
 44
1.0
1001
ACAD
1000
MTEXTBEGIN
1070
    73
1070
     1
1070
    44
1040
1.0
1070
    74
1070
     0
1000
MTEXTEND
  0
INSERT
  5
1CA1
330
1C9B
100
AcDbEntity
  8
実形
 62
     0
370
    13
100
AcDbBlockReference
  2
_DotSmall
 10
50.26384986393987
 20
125.0458421175171
 30
0.0
 41
5.0
 42
5.0
 43
5.0
 50
90.0
  0
INSERT
  5
1CA2
330
1C9B
100
AcDbEntity
  8
実形
 62
     0
370
    13
100
AcDbBlockReference
  2
_DotSmall
 10
50.26384986393987
 20
120.0458421175171
 30
0.0
 41
5.0
 42
5.0
 43
5.0
 50
270.0
  0
POINT
  5
1CA3
330
1C9B
100
AcDbEntity
  8
Defpoints
 62
     0
100
AcDbPoint
 10
58.76626270020233
 20
125.0458421175171
 30
0.0
  0
POINT
  5
1CA4
330
1C9B
100
AcDbEntity
  8
Defpoints
 62
     0
100
AcDbPoint
 10
58.76626270020233
 20
120.0458421175171
 30
0.0
  0
POINT
  5
1CA5
330
1C9B
100
AcDbEntity
  8
Defpoints
 62
     0
100
AcDbPoint
 10
50.26384986393987
 20
120.0458421175171
 30
0.0
  0
ENDBLK
  5
1CA6
330
1C9B
100
AcDbEntity
  8
0
100
AcDbBlockEnd
  0
BLOCK
  5
1CA8
330
1CA7
100
AcDbEntity
  8
0
100
AcDbBlockBegin
  2
*D18
 70
     1
 10
0.0
 20
0.0
 30
0.0
  3
*D18
  1

  0
LINE
  5
1CA9
330
1CA7
100
AcDbEntity
  8
実形
 62
     0
370
    13
100
AcDbLine
 10
52.76626270020233
 20
159.0458421175171
 30
0.0
 11
41.51918280087557
 21
159.0458421175171
 31
0.0
  0
LINE
  5
1CAA
330
1CA7
100
AcDbEntity
  8
実形
 62
     0
370
    13
100
AcDbLine
 10
52.76626270020233
 20
120.0458421175171
 30
0.0
 11
41.51918280087556
 21
120.0458421175171
 31
0.0
  0
LINE
  5
1CAB
330
1CA7
100
AcDbEntity
  8
実形
 62
     0
370
    13
100
AcDbLine
 10
41.51918280087557
 20
159.0458421175171
 30
0.0
 11
41.51918280087556
 21
120.0458421175171
 31
0.0
  0
INSERT
  5
1CAC
330
1CA7
100
AcDbEntity
  8
実形
 62
     0
370
    13
100
AcDbBlockReference
  2
_DotSmall
 10
41.51918280087557
 20
159.0458421175171
 30
0.0
 41
5.0
 42
5.0
 43
5.0
 50
90.0
  0
INSERT
  5
1CAD
330
1CA7
100
AcDbEntity
  8
実形
 62
     0
370
    13
100
AcDbBlockReference
  2
_DotSmall
 10
41.51918280087556
 20
120.0458421175171
 30
0.0
 41
5.0
 42
5.0
 43
5.0
 50
270.0
  0
MTEXT
  5
1CAE
330
1CA7
100
AcDbEntity
  8
実形
 62
     0
100
AcDbMText
 10
38.81918280087555
 20
139.5458421175171
 30
0.0
 40
3.0
 41
0.0
 71
     5
 72
     1
  1
390
 11
0.0000000000000001
 21
1.0
 31
0.0
 73
     1
 44
1.0
1001
ACAD
1000
MTEXTBEGIN
1070
    73
1070
     1
1070
    44
1040
1.0
1070
    74
1070
     0
1000
MTEXTEND
  0
POINT
  5
1CAF
330
1CA7
100
AcDbEntity
  8
Defpoints
 62
     0
100
AcDbPoint
 10
58.76626270020233
 20
159.0458421175171
 30
0.0
  0
POINT
  5
1CB0
330
1CA7
100
AcDbEntity
  8
Defpoints
 62
     0
100
AcDbPoint
 10
58.76626270020233
 20
120.0458421175171
 30
0.0
  0
POINT
  5
1CB1
330
1CA7
100
AcDbEntity
  8
Defpoints
 62
     0
100
AcDbPoint
 10
41.51918280087556
 20
120.0458421175171
 30
0.0
  0
ENDBLK
  5
1CB2
330
1CA7
100
AcDbEntity
  8
0
100
AcDbBlockEnd
  0
BLOCK
  5
1CB4
330
1CB3
100
AcDbEntity
  8
0
100
AcDbBlockBegin
  2
*D19
 70
     1
 10
0.0
 20
0.0
 30
0.0
  3
*D19
  1

  0
LINE
  5
1CB5
330
1CB3
100
AcDbEntity
  8
実形
 62
     0
370
    13
100
AcDbLine
 10
58.76626270020233
 20
114.9999648391545
 30
0.0
 11
58.76626270020233
 21
105.3718084151887
 31
0.0
  0
LINE
  5
1CB6
330
1CB3
100
AcDbEntity
  8
実形
 62
     0
370
    13
100
AcDbLine
 10
97.76626270020233
 20
114.0458421175171
 30
0.0
 11
97.76626270020233
 21
105.3718084151887
 31
0.0
  0
LINE
  5
1CB7
330
1CB3
100
AcDbEntity
  8
実形
 62
     0
370
    13
100
AcDbLine
 10
58.76626270020233
 20
105.3718084151887
 30
0.0
 11
97.76626270020233
 21
105.3718084151887
 31
0.0
  0
INSERT
  5
1CB8
330
1CB3
100
AcDbEntity
  8
実形
 62
     0
370
    13
100
AcDbBlockReference
  2
_DotSmall
 10
58.76626270020233
 20
105.3718084151887
 30
0.0
 41
5.0
 42
5.0
 43
5.0
 50
180.0
  0
INSERT
  5
1CB9
330
1CB3
100
AcDbEntity
  8
実形
 62
     0
370
    13
100
AcDbBlockReference
  2
_DotSmall
 10
97.76626270020233
 20
105.3718084151887
 30
0.0
 41
5.0
 42
5.0
 43
5.0
  0
MTEXT
  5
1CBA
330
1CB3
100
AcDbEntity
  8
実形
 62
     0
100
AcDbMText
 10
78.26626270020233
 20
108.0718084151887
 30
0.0
 40
3.0
 41
0.0
 71
     5
 72
     1
  1
390
 73
     1
 44
1.0
1001
ACAD
1000
MTEXTBEGIN
1070
    73
1070
     1
1070
    44
1040
1.0
1070
    74
1070
     0
1000
MTEXTEND
  0
POINT
  5
1CBB
330
1CB3
100
AcDbEntity
  8
Defpoints
 62
     0
100
AcDbPoint
 10
58.76626270020233
 20
120.9999648391545
 30
0.0
  0
POINT
  5
1CBC
330
1CB3
100
AcDbEntity
  8
Defpoints
 62
     0
100
AcDbPoint
 10
97.76626270020233
 20
120.0458421175171
 30
0.0
  0
POINT
  5
1CBD
330
1CB3
100
AcDbEntity
  8
Defpoints
 62
     0
100
AcDbPoint
 10
97.76626270020233
 20
105.3718084151887
 30
0.0
  0
ENDBLK
  5
1CBE
330
1CB3
100
AcDbEntity
  8
0
100
AcDbBlockEnd
  0
BLOCK
  5
1CC0
330
1CBF
100
AcDbEntity
  8
0
100
AcDbBlockBegin
  2
*D20
 70
     1
 10
0.0
 20
0.0
 30
0.0
  3
*D20
  1

  0
LINE
  5
1CC1
330
1CBF
100
AcDbEntity
  8
実形
 62
     0
370
    13
100
AcDbLine
 10
97.26626270020233
 20
160.454594918735
 30
0.0
 11
97.26626270020233
 21
162.7899815411915
 31
0.0
  0
LINE
  5
1CC2
330
1CBF
100
AcDbEntity
  8
実形
 62
     0
370
    13
100
AcDbLine
 10
97.76626270020233
 20
160.454594918735
 30
0.0
 11
97.76626270020233
 21
162.7899815411915
 31
0.0
  0
MTEXT
  5
1CC3
330
1CBF
100
AcDbEntity
  8
実形
 62
     0
100
AcDbMText
 10
97.51626270020233
 20
165.7074204486912
 30
0.0
 40
3.0
 41
0.0
 71
     5
 72
     1
  1
5
 73
     1
 44
1.0
1001
ACAD
1000
MTEXTBEGIN
1070
    73
1070
     1
1070
    44
1040
1.0
1070
    74
1070
     0
1000
MTEXTEND
  0
POINT
  5
1CC4
330
1CBF
100
AcDbEntity
  8
Defpoints
 62
     0
100
AcDbPoint
 10
97.26626270020233
 20
154.454594918735
 30
0.0
  0
POINT
  5
1CC5
330
1CBF
100
AcDbEntity
  8
Defpoints
 62
     0
100
AcDbPoint
 10
97.76626270020233
 20
154.454594918735
 30
0.0
  0
POINT
  5
1CC6
330
1CBF
100
AcDbEntity
  8
Defpoints
 62
     0
100
AcDbPoint
 10
97.76626270020233
 20
162.7899815411915
 30
0.0
  0
ENDBLK
  5
1CC7
330
1CBF
100
AcDbEntity
  8
0
100
AcDbBlockEnd
  0
BLOCK
  5
1CC9
330
1CC8
100
AcDbEntity
  8
0
100
AcDbBlockBegin
  2
*D21
 70
     1
 10
0.0
 20
0.0
 30
0.0
  3
*D21
  1

  0
LINE
  5
1CCA
330
1CC8
100
AcDbEntity
  8
実形
 62
     0
370
    13
100
AcDbLine
 10
100.0559005893151
 20
159.0458421175171
 30
0.0
 11
103.4918133958122
 21
159.0458421175171
 31
0.0
  0
LINE
  5
1CCB
330
1CC8
100
AcDbEntity
  8
実形
 62
     0
370
    13
100
AcDbLine
 10
100.0559005893151
 20
158.5458421175171
 30
0.0
 11
103.4918133958122
 21
158.5458421175171
 31
0.0
  0
MTEXT
  5
1CCC
330
1CC8
100
AcDbEntity
  8
実形
 62
     0
100
AcDbMText
 10
106.5900561977828
 20
158.7958421175172
 30
0.0
 40
3.0
 41
0.0
 71
     5
 72
     1
  1
5
 11
0.0000000000000001
 21
1.0
 31
0.0
 73
     1
 44
1.0
1001
ACAD
1000
MTEXTBEGIN
1070
    73
1070
     1
1070
    44
1040
1.0
1070
    74
1070
     0
1000
MTEXTEND
  0
POINT
  5
1CCD
330
1CC8
100
AcDbEntity
  8
Defpoints
 62
     0
100
AcDbPoint
 10
94.05590058931512
 20
159.0458421175171
 30
0.0
  0
POINT
  5
1CCE
330
1CC8
100
AcDbEntity
  8
Defpoints
 62
     0
100
AcDbPoint
 10
94.05590058931512
 20
158.5458421175171
 30
0.0
  0
POINT
  5
1CCF
330
1CC8
100
AcDbEntity
  8
Defpoints
 62
     0
100
AcDbPoint
 10
103.4918133958122
 20
158.5458421175171
 30
0.0
  0
ENDBLK
  5
1CD0
330
1CC8
100
AcDbEntity
  8
0
100
AcDbBlockEnd
  0
BLOCK
  5
1D00
330
1CD2
100
AcDbEntity
  8
0
100
AcDbBlockBegin
  2
A$C220A74A5
 70
     0
 10
0.0
 20
0.0
 30
0.0
  3
A$C220A74A5
  1

  0
LINE
  5
1CD3
330
1CD2
100
AcDbEntity
  8
実形
100
AcDbLine
 10
-19.0
 20
19.5
 30
0.0
 11
19.0
 21
19.5
 31
0.0
  0
LINE
  5
1CD4
330
1CD2
100
AcDbEntity
  8
実形
100
AcDbLine
 10
-9.0
 20
14.5
 30
0.0
 11
9.0
 21
14.5
 31
0.0
  0
ARC
  5
1CD5
330
1CD2
100
AcDbEntity
  8
実形
100
AcDbCircle
 10
-9.0
 20
9.0
 30
0.0
 40
5.5
100
AcDbArc
 50
90.0
 51
180.0
  0
LINE
  5
1CD6
330
1CD2
100
AcDbEntity
  8
実形
100
AcDbLine
 10
19.5
 20
19.0
 30
0.0
 11
19.50000000000001
 21
-18.99999999999998
 31
0.0
  0
LINE
  5
1CD7
330
1CD2
100
AcDbEntity
  8
実形
100
AcDbLine
 10
14.5
 20
9.0
 30
0.0
 11
14.5
 21
-9.0
 31
0.0
  0
ARC
  5
1CD8
330
1CD2
100
AcDbEntity
  8
実形
100
AcDbCircle
 10
9.0
 20
-9.0
 30
0.0
 40
5.5
100
AcDbArc
 50
270.0
 51
0.0
  0
ARC
  5
1CD9
330
1CD2
100
AcDbEntity
  8
実形
100
AcDbCircle
 10
9.0
 20
9.0
 30
0.0
 40
5.5
100
AcDbArc
 50
0.0
 51
90.0
  0
LINE
  5
1CDA
330
1CD2
100
AcDbEntity
  8
実形
100
AcDbLine
 10
19.0
 20
-19.5
 30
0.0
 11
-19.0
 21
-19.49999999999998
 31
0.0
  0
LINE
  5
1CDB
330
1CD2
100
AcDbEntity
  8
実形
100
AcDbLine
 10
9.0
 20
-14.5
 30
0.0
 11
-9.0
 21
-14.5
 31
0.0
  0
LINE
  5
1CDC
330
1CD2
100
AcDbEntity
  8
実形
100
AcDbLine
 10
-19.5
 20
-19.0
 30
0.0
 11
-19.5
 21
19.0
 31
0.0
  0
LINE
  5
1CDD
330
1CD2
100
AcDbEntity
  8
実形
100
AcDbLine
 10
-14.5
 20
-9.0
 30
0.0
 11
-14.5
 21
9.0
 31
0.0
  0
ARC
  5
1CDE
330
1CD2
100
AcDbEntity
  8
実形
100
AcDbCircle
 10
-9.0
 20
-9.0
 30
0.0
 40
5.5
100
AcDbArc
 50
180.0
 51
270.0
  0
LWPOLYLINE
  5
1CDF
330
1CD2
100
AcDbEntity
  8
実形
100
AcDbPolyline
 90
        3
 70
     1
 43
0.0
 10
-21.14281582083744
 20
-0.2518238391252225
 10
-24.18003320710318
 20
1.50171443642273
 10
-24.18003320710318
 20
-2.005362114673175
  0
LWPOLYLINE
  5
1CE0
330
1CD2
100
AcDbEntity
  8
実形
100
AcDbPolyline
 90
        3
 70
     1
 43
0.0
 10
0.050517076764578
 20
21.27488766273939
 10
1.804055352312531
 20
24.31210504900511
 10
-1.703021198783375
 20
24.31210504900511
  0
LWPOLYLINE
  5
1CE1
330
1CD2
100
AcDbEntity
  8
実形
100
AcDbPolyline
 90
        3
 70
     1
 43
0.0
 10
-0.1708632267996961
 20
-21.02040806513253
 10
1.582675048748257
 20
-24.05762545139825
 10
-1.924401502347649
 20
-24.05762545139825
  0
LWPOLYLINE
  5
1CE2
330
1CD2
100
AcDbEntity
  8
実形
100
AcDbPolyline
 90
        3
 70
     1
 43
0.0
 10
20.57976854047856
 20
-0.0305134738490551
 10
23.61698592674429
 20
1.723024801698898
 10
23.61698592674429
 20
-1.784051749397008
  0
DIMENSION
  5
1CE3
330
1CD2
100
AcDbEntity
  8
実形
100
AcDbDimension
  2
*D14
 10
19.5
 20
-26.11031010904344
 30
0.0
 11
15.63109306212482
 21
-29.64364381680116
 31
0.0
 12
-78.26626270020233
 22
-139.5458421175171
 32
0.0
 70
   128
  1
50
 71
     5
 42
5.0
  3
ISO-25
100
AcDbAlignedDimension
 13
14.5
 23
-16.10119113751625
 33
0.0
 14
19.5
 24
-16.10119113751625
 34
0.0
100
AcDbRotatedDimension
1001
ACAD
1000
DSTYLE
1002
{
1070
    41
1040
5.0
1070
    42
1040
6.0
1070
   140
1040
3.0
1070
   147
1040
1.199999999999999
1070
   279
1070
     2
1070
   289
1070
     2
1070
   371
1070
    13
1070
   372
1070
    13
1002
}
  0
DIMENSION
  5
1CE4
330
1CD2
100
AcDbEntity
  8
実形
100
AcDbDimension
  2
*D15
 10
-14.5
 20
-26.11031010904344
 30
0.0
 11
-15.96725911682642
 21
-29.64364381680116
 31
0.0
 12
-78.26626270020233
 22
-139.5458421175171
 32
0.0
 70
   128
  1
50
 71
     5
 42
5.0
  3
ISO-25
100
AcDbAlignedDimension
 13
-19.5
 23
-16.10119113751625
 33
0.0
 14
-14.5
 24
-16.10119113751625
 34
0.0
100
AcDbRotatedDimension
1001
ACAD
1000
DSTYLE
1002
{
1070
    41
1040
5.0
1070
    42
1040
6.0
1070
   140
1040
3.0
1070
   147
1040
1.199999999999999
1070
   279
1070
     2
1070
   289
1070
     2
1070
   371
1070
    13
1070
   372
1070
    13
1002
}
  0
CIRCLE
  5
1CE5
330
1CD2
100
AcDbEntity
  8
実形
100
AcDbCircle
 10
-11.25025039223953
 20
-0.0817608217865882
 30
0.0
 40
1.547193654855618
  0
CIRCLE
  5
1CE6
330
1CD2
100
AcDbEntity
  8
実形
100
AcDbCircle
 10
0.0780090207504145
 20
-11.65177120383759
 30
0.0
 40
1.547193654855618
  0
DIMENSION
  5
1CE7
330
1CD2
100
AcDbEntity
  8
実形
100
AcDbDimension
  2
*D16
 10
-27.95080007455681
 20
14.5
 30
0.0
 11
-32.95080007455683
 21
15.76407315493179
 31
0.0
 12
-78.26626270020233
 22
-139.5458421175171
 32
0.0
 70
   128
  1
50
 71
     5
 42
5.0
  3
ISO-25
100
AcDbAlignedDimension
 13
-19.5
 23
19.5
 33
0.0
 14
-19.5
 24
14.5
 34
0.0
 50
90.0
100
AcDbRotatedDimension
1001
ACAD
1000
DSTYLE
1002
{
1070
    41
1040
5.0
1070
    42
1040
6.0
1070
   140
1040
3.0
1070
   147
1040
1.199999999999999
1070
   279
1070
     2
1070
   289
1070
     2
1070
   371
1070
    13
1070
   372
1070
    13
1002
}
  0
DIMENSION
  5
1CE8
330
1CD2
100
AcDbEntity
  8
実形
100
AcDbDimension
  2
*D17
 10
-28.00241283626247
 20
-19.5
 30
0.0
 11
-31.44502426664485
 21
-15.07801742212859
 31
0.0
 12
-78.26626270020233
 22
-139.5458421175171
 32
0.0
 70
   128
  1
50
 71
     5
 42
5.0
  3
ISO-25
100
AcDbAlignedDimension
 13
-19.5
 23
-14.5
 33
0.0
 14
-19.5
 24
-19.5
 34
0.0
 50
90.0
100
AcDbRotatedDimension
1001
ACAD
1000
DSTYLE
1002
{
1070
    41
1040
5.0
1070
    42
1040
6.0
1070
   140
1040
3.0
1070
   147
1040
1.199999999999999
1070
   279
1070
     2
1070
   289
1070
     2
1070
   371
1070
    13
1070
   372
1070
    13
1002
}
  0
DIMENSION
  5
1CE9
330
1CD2
100
AcDbEntity
  8
実形
100
AcDbDimension
  2
*D18
 10
-36.74707989932676
 20
-19.5
 30
0.0
 11
-39.44707989932679
 21
0.0
 31
0.0
 12
-78.26626270020233
 22
-139.5458421175171
 32
0.0
  1
390
 71
     5
 42
38.99999999999998
  3
ISO-25
100
AcDbAlignedDimension
 13
-19.5
 23
19.5
 33
0.0
 14
-19.5
 24
-19.5
 34
0.0
 50
90.0
100
AcDbRotatedDimension
1001
ACAD
1000
DSTYLE
1002
{
1070
    41
1040
5.0
1070
    42
1040
6.0
1070
   140
1040
3.0
1070
   147
1040
1.199999999999999
1070
   279
1070
     2
1070
   289
1070
     2
1070
   371
1070
    13
1070
   372
1070
    13
1002
}
  0
DIMENSION
  5
1CEA
330
1CD2
100
AcDbEntity
  8
実形
100
AcDbDimension
  2
*D19
 10
19.5
 20
-34.17403370232842
 30
0.0
 11
0.0
 21
-31.47403370232841
 31
0.0
 12
-78.26626270020233
 22
-139.5458421175171
 32
0.0
  1
390
 71
     5
 42
39.0
  3
ISO-25
100
AcDbAlignedDimension
 13
-19.5
 23
-18.54587727836268
 33
0.0
 14
19.5
 24
-19.5
 34
0.0
100
AcDbRotatedDimension
1001
ACAD
1000
DSTYLE
1002
{
1070
    41
1040
5.0
1070
    42
1040
6.0
1070
   140
1040
3.0
1070
   147
1040
1.199999999999999
1070
   279
1070
     2
1070
   289
1070
     2
1070
   371
1070
    13
1070
   372
1070
    13
1002
}
  0
LINE
  5
1CEB
330
1CD2
100
AcDbEntity
  8
実形
100
AcDbLine
 10
19.0
 20
19.5
 30
0.0
 11
19.5
 21
19.0
 31
0.0
  0
DIMENSION
  5
1CEC
330
1CD2
100
AcDbEntity
  8
実形
100
AcDbDimension
  2
*D20
 10
19.5
 20
23.24413942367437
 30
0.0
 11
19.25
 21
26.16157833117404
 31
0.0
 12
-78.26626270020233
 22
-139.5458421175171
 32
0.0
 70
   128
  1
5
 71
     5
 42
0.5
  3
ISO-25
100
AcDbAlignedDimension
 13
19.0
 23
14.90875280121781
 33
0.0
 14
19.5
 24
14.90875280121781
 34
0.0
100
AcDbRotatedDimension
1001
ACAD
1000
DSTYLE
1002
{
1070
   175
1070
     1
1070
   172
1070
     0
1070
    41
1040
5.0
1070
    42
1040
6.0
1070
   140
1040
3.0
1070
   147
1040
1.199999999999999
1070
   279
1070
     2
1070
   289
1070
     2
1070
   371
1070
    13
1070
   372
1070
    13
1002
}
  0
DIMENSION
  5
1CED
330
1CD2
100
AcDbEntity
  8
実形
100
AcDbDimension
  2
*D21
 10
25.22555069560985
 20
19.0
 30
0.0
 11
28.32379349758048
 21
19.25000000000003
 31
0.0
 12
-78.26626270020233
 22
-139.5458421175171
 32
0.0
 70
   128
  1
5
 71
     5
 42
0.5
  3
ISO-25
100
AcDbAlignedDimension
 13
15.78963788911278
 23
19.5
 33
0.0
 14
15.78963788911278
 24
19.0
 34
0.0
 50
90.0
100
AcDbRotatedDimension
1001
ACAD
1000
DSTYLE
1002
{
1070
   175
1070
     1
1070
   172
1070
     0
1070
    41
1040
5.0
1070
    42
1040
6.0
1070
   140
1040
3.0
1070
   147
1040
1.199999999999999
1070
   279
1070
     2
1070
   289
1070
     2
1070
   371
1070
    13
1070
   372
1070
    13
1002
}
  0
TEXT
  5
1CEE
330
1CD2
100
AcDbEntity
  8
実形
  6
HIDDEN2
100
AcDbText
 10
25.93183237405089
 20
18.97502039227811
 30
0.0
 40
1.3
  1
● 
 71
     2
100
AcDbText
  0
TEXT
  5
1CEF
330
1CD2
100
AcDbEntity
  8
実形
  6
HIDDEN2
100
AcDbText
 10
25.91466438821959
 20
18.4772279798135
 30
0.0
 40
1.3
  1
● 
 71
     2
100
AcDbText
  0
LEADER
  5
1CF0
330
1CD2
100
AcDbEntity
  8
実形
100
AcDbLeader
  3
ISO-25
 76
     2
 10
12.10567503213588
 20
11.76475255362766
 30
0.0
 10
2.712838197876862
 20
7.077184388546811
 30
0.0
1001
ACAD
1000
DSTYLE
1002
{
1070
    77
1070
     0
1070
    41
1040
5.0
1070
    42
1040
6.0
1070
   140
1040
3.0
1070
   147
1040
1.199999999999999
1070
   279
1070
     2
1070
   289
1070
     2
1070
   371
1070
    13
1070
   372
1070
    13
1002
}
  0
TEXT
  5
1CF1
330
1CD2
100
AcDbEntity
  8
実形
  6
HIDDEN2
100
AcDbText
 10
19.70781600734887
 20
22.78114291660904
 30
0.0
 40
1.3
  1
● 
 71
     2
100
AcDbText
  0
TEXT
  5
1CF2
330
1CD2
100
AcDbEntity
  8
実形
  6
HIDDEN2
100
AcDbText
 10
20.13429554782948
 20
22.7385087807329
 30
0.0
 40
1.3
  1
● 
 71
     2
100
AcDbText
  0
LINE
  5
1CF3
330
1CD2
100
AcDbEntity
  8
実形
100
AcDbLine
 10
-19.5
 20
19.0
 30
0.0
 11
-19.0
 21
19.5
 31
0.0
  0
LINE
  5
1CF4
330
1CD2
100
AcDbEntity
  8
実形
100
AcDbLine
 10
-19.5
 20
-19.0
 30
0.0
 11
-19.0
 21
-19.5
 31
0.0
  0
LINE
  5
1CF5
330
1CD2
100
AcDbEntity
  8
実形
100
AcDbLine
 10
19.0
 20
-19.5
 30
0.0
 11
19.5
 21
-19.0
 31
0.0
  0
TEXT
  5
1CF6
330
1CD2
100
AcDbEntity
  8
実形
100
AcDbText
 10
-2.505152925570655
 20
-6.153039468629229
 30
0.0
 40
4.0
  1
55R
 11
-2.505152925570655
 21
-6.686372801962562
 31
0.0
100
AcDbText
 73
     1
  0
TEXT
  5
1CF7
330
1CD2
100
AcDbEntity
  8
実形
100
AcDbText
 10
-2.407011526251153
 20
1.258729031027998
 30
0.0
 40
4.0
  1
4角
 11
-2.407011526251153
 21
0.7253956976946654
 31
0.0
100
AcDbText
 73
     1
  0
LEADER
  5
1CF8
330
1CD2
100
AcDbEntity
  8
実形
100
AcDbLeader
  3
ISO-25
 76
     2
 10
21.2547068298818
 20
21.122716261184
 30
0.0
 10
29.58937441891612
 20
28.52202514716328
 30
0.0
1001
ACAD
1000
DSTYLE
1002
{
1070
    77
1070
     0
1070
    41
1040
5.0
1070
    42
1040
6.0
1070
   140
1040
3.0
1070
   147
1040
1.199999999999999
1070
   279
1070
     2
1070
   289
1070
     2
1070
   371
1070
    13
1070
   372
1070
    13
1002
}
  0
TEXT
  5
1CF9
330
1CD2
100
AcDbEntity
  8
実形
100
AcDbText
 10
31.55180675361999
 20
29.33446772771401
 30
0.0
 40
3.0
  1
5C
 11
31.55180675361999
 21
28.93446772771401
 31
0.0
100
AcDbText
 73
     1
  0
CIRCLE
  5
1CFA
330
1CD2
100
AcDbEntity
  8
実形
100
AcDbCircle
 10
-0.2943651524374218
 20
11.93499212683355
 30
0.0
 40
1.547193654855618
  0
CIRCLE
  5
1CFB
330
1CD2
100
AcDbEntity
  8
実形
100
AcDbCircle
 10
11.4387019148312
 20
-0.2370536657799676
 30
0.0
 40
1.547193654855618
  0
LINE
  5
1CFC
330
1CD2
100
AcDbEntity
  8
実形
 62
     3
100
AcDbLine
 10
0.0
 20
19.5
 30
0.0
 11
0.0
 21
-47.64843810667389
 31
0.0
  0
LINE
  5
1CFD
330
1CD2
100
AcDbEntity
  8
実形
 62
     3
100
AcDbLine
 10
19.5
 20
0.0
 30
0.0
 11
-61.26837976212209
 21
0.0
 31
0.0
  0
ENDBLK
  5
1D01
330
1CD2
100
AcDbEntity
  8
0
100
AcDbBlockEnd
  0
BLOCK
  5
1EDD
330
1ED3
100
AcDbEntity
  8
0
100
AcDbBlockBegin
  2
*D23
 70
     1
 10
0.0
 20
0.0
 30
0.0
  3
*D23
  1

  0
LINE
  5
2882
330
1ED3
100
AcDbEntity
  8
実形
 62
     0
370
    18
100
AcDbLine
 10
1078.409939091926
 20
1243.359507154115
 30
0.0
 11
1078.409939091926
 21
1212.707225379389
 31
0.0
  0
LINE
  5
2883
330
1ED3
100
AcDbEntity
  8
実形
 62
     0
370
    18
100
AcDbLine
 10
1128.409939091926
 20
1243.359507154115
 30
0.0
 11
1128.409939091926
 21
1212.707225379389
 31
0.0
  0
LINE
  5
2884
330
1ED3
100
AcDbEntity
  8
実形
 62
     0
370
    18
100
AcDbLine
 10
1078.409939091926
 20
1212.707225379389
 30
0.0
 11
1128.409939091926
 21
1212.707225379389
 31
0.0
  0
INSERT
  5
2885
330
1ED3
100
AcDbEntity
  8
実形
 62
     0
370
    18
100
AcDbBlockReference
  2
_DotSmall
 10
1078.409939091926
 20
1212.707225379389
 30
0.0
 41
35.0
 42
35.0
 43
35.0
 50
180.0
  0
INSERT
  5
2886
330
1ED3
100
AcDbEntity
  8
実形
 62
     0
370
    18
100
AcDbBlockReference
  2
_DotSmall
 10
1128.409939091926
 20
1212.707225379389
 30
0.0
 41
35.0
 42
35.0
 43
35.0
  0
MTEXT
  5
2887
330
1ED3
100
AcDbEntity
  8
実形
 62
     0
100
AcDbMText
 10
1105.30166751135
 20
1231.457225379389
 30
0.0
 40
25.0
 41
0.0
 71
     5
 72
     1
  1
50
 73
     1
 44
1.0
1001
ACAD
1000
MTEXTBEGIN
1070
    73
1070
     1
1070
    44
1040
1.0
1070
    74
1070
     0
1000
MTEXTEND
  0
POINT
  5
2888
330
1ED3
100
AcDbEntity
  8
Defpoints
 62
     0
100
AcDbPoint
 10
1078.409939091926
 20
1308.359507154115
 30
0.0
  0
POINT
  5
2889
330
1ED3
100
AcDbEntity
  8
Defpoints
 62
     0
100
AcDbPoint
 10
1128.409939091926
 20
1308.359507154115
 30
0.0
  0
POINT
  5
288A
330
1ED3
100
AcDbEntity
  8
Defpoints
 62
     0
100
AcDbPoint
 10
1128.409939091926
 20
1212.707225379389
 30
0.0
  0
ENDBLK
  5
1EDE
330
1ED3
100
AcDbEntity
  8
0
100
AcDbBlockEnd
  0
BLOCK
  5
1EFD
330
1EF3
100
AcDbEntity
  8
0
100
AcDbBlockBegin
  2
*D24
 70
     1
 10
0.0
 20
0.0
 30
0.0
  3
*D24
  1

  0
LINE
  5
288B
330
1EF3
100
AcDbEntity
  8
実形
 62
     0
370
    18
100
AcDbLine
 10
738.4099390919264
 20
1248.359507154115
 30
0.0
 11
738.4099390919264
 21
1210.992113302725
 31
0.0
  0
LINE
  5
288C
330
1EF3
100
AcDbEntity
  8
実形
 62
     0
370
    18
100
AcDbLine
 10
788.4099390919266
 20
1248.359507154115
 30
0.0
 11
788.4099390919266
 21
1210.992113302725
 31
0.0
  0
LINE
  5
288D
330
1EF3
100
AcDbEntity
  8
実形
 62
     0
370
    18
100
AcDbLine
 10
738.4099390919264
 20
1210.992113302725
 30
0.0
 11
788.4099390919266
 21
1210.992113302725
 31
0.0
  0
INSERT
  5
288E
330
1EF3
100
AcDbEntity
  8
実形
 62
     0
370
    18
100
AcDbBlockReference
  2
_DotSmall
 10
738.4099390919264
 20
1210.992113302725
 30
0.0
 41
35.0
 42
35.0
 43
35.0
 50
180.0
  0
INSERT
  5
288F
330
1EF3
100
AcDbEntity
  8
実形
 62
     0
370
    18
100
AcDbBlockReference
  2
_DotSmall
 10
788.4099390919266
 20
1210.992113302725
 30
0.0
 41
35.0
 42
35.0
 43
35.0
  0
MTEXT
  5
2890
330
1EF3
100
AcDbEntity
  8
実形
 62
     0
100
AcDbMText
 10
763.4099390919266
 20
1229.742113302725
 30
0.0
 40
25.0
 41
0.0
 71
     5
 72
     1
  1
50
 73
     1
 44
1.0
1001
ACAD
1000
MTEXTBEGIN
1070
    73
1070
     1
1070
    44
1040
1.0
1070
    74
1070
     0
1000
MTEXTEND
  0
POINT
  5
2891
330
1EF3
100
AcDbEntity
  8
Defpoints
 62
     0
100
AcDbPoint
 10
738.4099390919264
 20
1313.359507154115
 30
0.0
  0
POINT
  5
2892
330
1EF3
100
AcDbEntity
  8
Defpoints
 62
     0
100
AcDbPoint
 10
788.4099390919266
 20
1313.359507154115
 30
0.0
  0
POINT
  5
2893
330
1EF3
100
AcDbEntity
  8
Defpoints
 62
     0
100
AcDbPoint
 10
788.4099390919266
 20
1210.992113302725
 30
0.0
  0
ENDBLK
  5
1EFE
330
1EF3
100
AcDbEntity
  8
0
100
AcDbBlockEnd
  0
BLOCK
  5
1F3E
330
1F34
100
AcDbEntity
  8
0
100
AcDbBlockBegin
  2
*D25
 70
     1
 10
0.0
 20
0.0
 30
0.0
  3
*D25
  1

  0
LINE
  5
2BF8
330
1F34
100
AcDbEntity
  8
実形
 62
     0
370
    18
100
AcDbLine
 10
738.4099390919264
 20
1214.477567875047
 30
0.0
 11
738.4099390919264
 21
1160.936821390689
 31
0.0
  0
LINE
  5
2BF9
330
1F34
100
AcDbEntity
  8
実形
 62
     0
370
    18
100
AcDbLine
 10
1128.409939091926
 20
1218.045046506731
 30
0.0
 11
1128.409939091926
 21
1160.936821390689
 31
0.0
  0
LINE
  5
2BFA
330
1F34
100
AcDbEntity
  8
実形
 62
     0
370
    18
100
AcDbLine
 10
738.4099390919264
 20
1160.936821390689
 30
0.0
 11
1128.409939091926
 21
1160.936821390689
 31
0.0
  0
INSERT
  5
2BFB
330
1F34
100
AcDbEntity
  8
実形
 62
     0
370
    18
100
AcDbBlockReference
  2
_DotSmall
 10
738.4099390919264
 20
1160.936821390689
 30
0.0
 41
35.0
 42
35.0
 43
35.0
 50
180.0
  0
INSERT
  5
2BFC
330
1F34
100
AcDbEntity
  8
実形
 62
     0
370
    18
100
AcDbBlockReference
  2
_DotSmall
 10
1128.409939091926
 20
1160.936821390689
 30
0.0
 41
35.0
 42
35.0
 43
35.0
  0
MTEXT
  5
2BFD
330
1F34
100
AcDbEntity
  8
実形
 62
     0
100
AcDbMText
 10
933.4099390919263
 20
1179.686821390689
 30
0.0
 40
25.0
 41
0.0
 71
     5
 72
     1
  1
390
 73
     1
 44
1.0
1001
ACAD
1000
MTEXTBEGIN
1070
    73
1070
     1
1070
    44
1040
1.0
1070
    74
1070
     0
1000
MTEXTEND
  0
POINT
  5
2BFE
330
1F34
100
AcDbEntity
  8
Defpoints
 62
     0
100
AcDbPoint
 10
738.4099390919264
 20
1279.477567875047
 30
0.0
  0
POINT
  5
2BFF
330
1F34
100
AcDbEntity
  8
Defpoints
 62
     0
100
AcDbPoint
 10
1128.409939091926
 20
1283.045046506731
 30
0.0
  0
POINT
  5
2C00
330
1F34
100
AcDbEntity
  8
Defpoints
 62
     0
100
AcDbPoint
 10
1128.409939091926
 20
1160.936821390689
 30
0.0
  0
ENDBLK
  5
1F3F
330
1F34
100
AcDbEntity
  8
0
100
AcDbBlockEnd
  0
BLOCK
  5
1F68
330
1F5E
100
AcDbEntity
  8
0
100
AcDbBlockBegin
  2
*D26
 70
     1
 10
0.0
 20
0.0
 30
0.0
  3
*D26
  1

  0
LINE
  5
289D
330
1F5E
100
AcDbEntity
  8
実形
 62
     0
370
    18
100
AcDbLine
 10
673.4099390919265
 20
1358.359507154115
 30
0.0
 11
636.0627967005666
 21
1358.359507154115
 31
0.0
  0
LINE
  5
289E
330
1F5E
100
AcDbEntity
  8
実形
 62
     0
370
    18
100
AcDbLine
 10
673.4099390919265
 20
1308.359507154114
 30
0.0
 11
636.0627967005666
 21
1308.359507154114
 31
0.0
  0
LINE
  5
289F
330
1F5E
100
AcDbEntity
  8
実形
 62
     0
370
    18
100
AcDbLine
 10
636.0627967005666
 20
1358.359507154115
 30
0.0
 11
636.0627967005666
 21
1308.359507154114
 31
0.0
  0
INSERT
  5
28A0
330
1F5E
100
AcDbEntity
  8
実形
 62
     0
370
    18
100
AcDbBlockReference
  2
_DotSmall
 10
636.0627967005666
 20
1358.359507154115
 30
0.0
 41
35.0
 42
35.0
 43
35.0
 50
90.0
  0
INSERT
  5
28A1
330
1F5E
100
AcDbEntity
  8
実形
 62
     0
370
    18
100
AcDbBlockReference
  2
_DotSmall
 10
636.0627967005666
 20
1308.359507154114
 30
0.0
 41
35.0
 42
35.0
 43
35.0
 50
270.0
  0
MTEXT
  5
28A2
330
1F5E
100
AcDbEntity
  8
実形
 62
     0
100
AcDbMText
 10
617.3127967005664
 20
1333.359507154115
 30
0.0
 40
25.0
 41
0.0
 71
     5
 72
     1
  1
50
 11
0.0000000000000001
 21
1.0
 31
0.0
 73
     1
 44
1.0
1001
ACAD
1000
MTEXTBEGIN
1070
    73
1070
     1
1070
    44
1040
1.0
1070
    74
1070
     0
1000
MTEXTEND
  0
POINT
  5
28A3
330
1F5E
100
AcDbEntity
  8
Defpoints
 62
     0
100
AcDbPoint
 10
738.4099390919264
 20
1358.359507154115
 30
0.0
  0
POINT
  5
28A4
330
1F5E
100
AcDbEntity
  8
Defpoints
 62
     0
100
AcDbPoint
 10
738.4099390919264
 20
1308.359507154114
 30
0.0
  0
POINT
  5
28A5
330
1F5E
100
AcDbEntity
  8
Defpoints
 62
     0
100
AcDbPoint
 10
636.0627967005666
 20
1308.359507154114
 30
0.0
  0
ENDBLK
  5
1F69
330
1F5E
100
AcDbEntity
  8
0
100
AcDbBlockEnd
  0
BLOCK
  5
1F76
330
1F6B
100
AcDbEntity
  8
0
100
AcDbBlockBegin
  2
*D27
 70
     1
 10
0.0
 20
0.0
 30
0.0
  3
*D27
  1

  0
LINE
  5
28A6
330
1F6B
100
AcDbEntity
  8
実形
 62
     0
370
    18
100
AcDbLine
 10
673.4099390919263
 20
1698.359507154114
 30
0.0
 11
636.0627967005669
 21
1698.359507154114
 31
0.0
  0
LINE
  5
28A7
330
1F6B
100
AcDbEntity
  8
実形
 62
     0
370
    18
100
AcDbLine
 10
673.4099390919263
 20
1648.359507154115
 30
0.0
 11
636.0627967005669
 21
1648.359507154115
 31
0.0
  0
LINE
  5
28A8
330
1F6B
100
AcDbEntity
  8
実形
 62
     0
370
    18
100
AcDbLine
 10
636.0627967005669
 20
1698.359507154114
 30
0.0
 11
636.0627967005669
 21
1648.359507154115
 31
0.0
  0
INSERT
  5
28A9
330
1F6B
100
AcDbEntity
  8
実形
 62
     0
370
    18
100
AcDbBlockReference
  2
_DotSmall
 10
636.0627967005669
 20
1698.359507154114
 30
0.0
 41
35.0
 42
35.0
 43
35.0
 50
90.0
  0
INSERT
  5
28AA
330
1F6B
100
AcDbEntity
  8
実形
 62
     0
370
    18
100
AcDbBlockReference
  2
_DotSmall
 10
636.0627967005669
 20
1648.359507154115
 30
0.0
 41
35.0
 42
35.0
 43
35.0
 50
270.0
  0
MTEXT
  5
28AB
330
1F6B
100
AcDbEntity
  8
実形
 62
     0
100
AcDbMText
 10
617.3127967005666
 20
1673.359507154115
 30
0.0
 40
25.0
 41
0.0
 71
     5
 72
     1
  1
50
 11
0.0000000000000001
 21
1.0
 31
0.0
 73
     1
 44
1.0
1001
ACAD
1000
MTEXTBEGIN
1070
    73
1070
     1
1070
    44
1040
1.0
1070
    74
1070
     0
1000
MTEXTEND
  0
POINT
  5
28AC
330
1F6B
100
AcDbEntity
  8
Defpoints
 62
     0
100
AcDbPoint
 10
738.4099390919264
 20
1698.359507154114
 30
0.0
  0
POINT
  5
28AD
330
1F6B
100
AcDbEntity
  8
Defpoints
 62
     0
100
AcDbPoint
 10
738.4099390919264
 20
1648.359507154115
 30
0.0
  0
POINT
  5
28AE
330
1F6B
100
AcDbEntity
  8
Defpoints
 62
     0
100
AcDbPoint
 10
636.0627967005669
 20
1648.359507154115
 30
0.0
  0
ENDBLK
  5
1F77
330
1F6B
100
AcDbEntity
  8
0
100
AcDbBlockEnd
  0
BLOCK
  5
1F8D
330
1F83
100
AcDbEntity
  8
0
100
AcDbBlockBegin
  2
*D28
 70
     1
 10
0.0
 20
0.0
 30
0.0
  3
*D28
  1

  0
LINE
  5
28AF
330
1F83
100
AcDbEntity
  8
実形
 62
     0
370
    18
100
AcDbLine
 10
673.4099390919263
 20
1698.359507154114
 30
0.0
 11
565.74507771964
 21
1698.359507154114
 31
0.0
  0
LINE
  5
28B0
330
1F83
100
AcDbEntity
  8
実形
 62
     0
370
    18
100
AcDbLine
 10
673.4099390919265
 20
1308.359507154114
 30
0.0
 11
565.74507771964
 21
1308.359507154114
 31
0.0
  0
LINE
  5
28B1
330
1F83
100
AcDbEntity
  8
実形
 62
     0
370
    18
100
AcDbLine
 10
565.74507771964
 20
1698.359507154114
 30
0.0
 11
565.74507771964
 21
1308.359507154114
 31
0.0
  0
INSERT
  5
28B2
330
1F83
100
AcDbEntity
  8
実形
 62
     0
370
    18
100
AcDbBlockReference
  2
_DotSmall
 10
565.74507771964
 20
1698.359507154114
 30
0.0
 41
35.0
 42
35.0
 43
35.0
 50
90.0
  0
INSERT
  5
28B3
330
1F83
100
AcDbEntity
  8
実形
 62
     0
370
    18
100
AcDbBlockReference
  2
_DotSmall
 10
565.74507771964
 20
1308.359507154114
 30
0.0
 41
35.0
 42
35.0
 43
35.0
 50
270.0
  0
MTEXT
  5
28B4
330
1F83
100
AcDbEntity
  8
実形
 62
     0
100
AcDbMText
 10
546.9950777196397
 20
1503.359507154115
 30
0.0
 40
25.0
 41
0.0
 71
     5
 72
     1
  1
390
 11
0.0000000000000001
 21
1.0
 31
0.0
 73
     1
 44
1.0
1001
ACAD
1000
MTEXTBEGIN
1070
    73
1070
     1
1070
    44
1040
1.0
1070
    74
1070
     0
1000
MTEXTEND
  0
POINT
  5
28B5
330
1F83
100
AcDbEntity
  8
Defpoints
 62
     0
100
AcDbPoint
 10
738.4099390919264
 20
1698.359507154114
 30
0.0
  0
POINT
  5
28B6
330
1F83
100
AcDbEntity
  8
Defpoints
 62
     0
100
AcDbPoint
 10
738.4099390919264
 20
1308.359507154114
 30
0.0
  0
POINT
  5
28B7
330
1F83
100
AcDbEntity
  8
Defpoints
 62
     0
100
AcDbPoint
 10
565.74507771964
 20
1308.359507154114
 30
0.0
  0
ENDBLK
  5
1F8E
330
1F83
100
AcDbEntity
  8
0
100
AcDbBlockEnd
  0
BLOCK
  5
1FFC
330
1FF8
100
AcDbEntity
  8
0
100
AcDbBlockBegin
  2
A$C7600333B
 70
     0
 10
0.0
 20
0.0
 30
0.0
  3
A$C7600333B
  1

  0
TEXT
  5
1FF9
330
1FF8
100
AcDbEntity
  8
実形
370
    18
100
AcDbText
 10
0.000000000001819
 20
0.0
 30
0.0
 40
25.0
  1
5
100
AcDbText
  0
ENDBLK
  5
1FFD
330
1FF8
100
AcDbEntity
  8
0
100
AcDbBlockEnd
  0
BLOCK
  5
24D9
330
24CE
100
AcDbEntity
  8
0
100
AcDbBlockBegin
  2
*D30
 70
     1
 10
0.0
 20
0.0
 30
0.0
  3
*D30
  1

  0
LINE
  5
2CEA
330
24CE
100
AcDbEntity
  8
実形
 62
     0
370
    18
100
AcDbLine
 10
1817.899627132798
 20
591.2145273062869
 30
0.0
 11
1817.899627132798
 21
560.7316764226998
 31
0.0
  0
LINE
  5
2CEB
330
24CE
100
AcDbEntity
  8
実形
 62
     0
370
    18
100
AcDbLine
 10
1867.899627132798
 20
591.2145273062869
 30
0.0
 11
1867.899627132798
 21
560.7316764226998
 31
0.0
  0
LINE
  5
2CEC
330
24CE
100
AcDbEntity
  8
実形
 62
     0
370
    18
100
AcDbLine
 10
1817.899627132798
 20
560.7316764226998
 30
0.0
 11
1867.899627132798
 21
560.7316764226998
 31
0.0
  0
INSERT
  5
2CED
330
24CE
100
AcDbEntity
  8
実形
 62
     0
370
    18
100
AcDbBlockReference
  2
_DotSmall
 10
1817.899627132798
 20
560.7316764226998
 30
0.0
 41
35.0
 42
35.0
 43
35.0
 50
180.0
  0
INSERT
  5
2CEE
330
24CE
100
AcDbEntity
  8
実形
 62
     0
370
    18
100
AcDbBlockReference
  2
_DotSmall
 10
1867.899627132798
 20
560.7316764226998
 30
0.0
 41
35.0
 42
35.0
 43
35.0
  0
MTEXT
  5
2CEF
330
24CE
100
AcDbEntity
  8
実形
 62
     0
100
AcDbMText
 10
1844.014601998565
 20
579.4816764226998
 30
0.0
 40
25.0
 41
0.0
 71
     5
 72
     1
  1
5
 73
     1
 44
1.0
1001
ACAD
1000
MTEXTBEGIN
1070
    73
1070
     1
1070
    44
1040
1.0
1070
    74
1070
     0
1000
MTEXTEND
  0
POINT
  5
2CF0
330
24CE
100
AcDbEntity
  8
Defpoints
 62
     0
100
AcDbPoint
 10
1817.899627132798
 20
656.214527306287
 30
0.0
  0
POINT
  5
2CF1
330
24CE
100
AcDbEntity
  8
Defpoints
 62
     0
100
AcDbPoint
 10
1867.899627132798
 20
656.214527306287
 30
0.0
  0
POINT
  5
2CF2
330
24CE
100
AcDbEntity
  8
Defpoints
 62
     0
100
AcDbPoint
 10
1867.899627132798
 20
560.7316764226998
 30
0.0
  0
ENDBLK
  5
24DA
330
24CE
100
AcDbEntity
  8
0
100
AcDbBlockEnd
  0
BLOCK
  5
24F8
330
24EE
100
AcDbEntity
  8
0
100
AcDbBlockBegin
  2
*D31
 70
     1
 10
0.0
 20
0.0
 30
0.0
  3
*D31
  1

  0
LINE
  5
2CE1
330
24EE
100
AcDbEntity
  8
実形
 62
     0
370
    18
100
AcDbLine
 10
1791.050329074197
 20
741.7745986296069
 30
0.0
 11
1753.525428541637
 21
741.7745986296069
 31
0.0
  0
LINE
  5
2CE2
330
24EE
100
AcDbEntity
  8
実形
 62
     0
370
    18
100
AcDbLine
 10
1785.70111206964
 20
621.774598629607
 30
0.0
 11
1753.525428541637
 21
621.774598629607
 31
0.0
  0
LINE
  5
2CE3
330
24EE
100
AcDbEntity
  8
実形
 62
     0
370
    18
100
AcDbLine
 10
1753.525428541637
 20
741.7745986296069
 30
0.0
 11
1753.525428541637
 21
621.774598629607
 31
0.0
  0
INSERT
  5
2CE4
330
24EE
100
AcDbEntity
  8
実形
 62
     0
370
    18
100
AcDbBlockReference
  2
_DotSmall
 10
1753.525428541637
 20
741.7745986296069
 30
0.0
 41
35.0
 42
35.0
 43
35.0
 50
90.0
  0
INSERT
  5
2CE5
330
24EE
100
AcDbEntity
  8
実形
 62
     0
370
    18
100
AcDbBlockReference
  2
_DotSmall
 10
1753.525428541637
 20
621.774598629607
 30
0.0
 41
35.0
 42
35.0
 43
35.0
 50
270.0
  0
MTEXT
  5
2CE6
330
24EE
100
AcDbEntity
  8
実形
 62
     0
100
AcDbMText
 10
1734.775428541636
 20
681.7745986296072
 30
0.0
 40
25.0
 41
0.0
 71
     5
 72
     1
  1
12
 11
0.0000000000000001
 21
1.0
 31
0.0
 73
     1
 44
1.0
1001
ACAD
1000
MTEXTBEGIN
1070
    73
1070
     1
1070
    44
1040
1.0
1070
    74
1070
     0
1000
MTEXTEND
  0
POINT
  5
2CE7
330
24EE
100
AcDbEntity
  8
Defpoints
 62
     0
100
AcDbPoint
 10
1856.050329074197
 20
741.7745986296068
 30
0.0
  0
POINT
  5
2CE8
330
24EE
100
AcDbEntity
  8
Defpoints
 62
     0
100
AcDbPoint
 10
1850.701112069639
 20
621.7745986296068
 30
0.0
  0
POINT
  5
2CE9
330
24EE
100
AcDbEntity
  8
Defpoints
 62
     0
100
AcDbPoint
 10
1753.525428541637
 20
621.774598629607
 30
0.0
  0
ENDBLK
  5
24F9
330
24EE
100
AcDbEntity
  8
0
100
AcDbBlockEnd
  0
BLOCK
  5
2521
330
2517
100
AcDbEntity
  8
0
100
AcDbBlockBegin
  2
*D32
 70
     1
 10
0.0
 20
0.0
 30
0.0
  3
*D32
  1

  0
LINE
  5
2A36
330
2517
100
AcDbEntity
  8
実形
 62
     0
370
    18
100
AcDbLine
 10
2217.899627132799
 20
589.3938049223925
 30
0.0
 11
2217.899627132799
 21
566.132923262845
 31
0.0
  0
LINE
  5
2A37
330
2517
100
AcDbEntity
  8
実形
 62
     0
370
    18
100
AcDbLine
 10
2317.899627132798
 20
589.3938049223925
 30
0.0
 11
2317.899627132798
 21
566.132923262845
 31
0.0
  0
LINE
  5
2A38
330
2517
100
AcDbEntity
  8
実形
 62
     0
370
    18
100
AcDbLine
 10
2217.899627132799
 20
566.132923262845
 30
0.0
 11
2317.899627132798
 21
566.132923262845
 31
0.0
  0
INSERT
  5
2A39
330
2517
100
AcDbEntity
  8
実形
 62
     0
370
    18
100
AcDbBlockReference
  2
_DotSmall
 10
2217.899627132799
 20
566.132923262845
 30
0.0
 41
35.0
 42
35.0
 43
35.0
 50
180.0
  0
INSERT
  5
2A3A
330
2517
100
AcDbEntity
  8
実形
 62
     0
370
    18
100
AcDbBlockReference
  2
_DotSmall
 10
2317.899627132798
 20
566.132923262845
 30
0.0
 41
35.0
 42
35.0
 43
35.0
  0
MTEXT
  5
2A3B
330
2517
100
AcDbEntity
  8
実形
 62
     0
100
AcDbMText
 10
2267.899627132799
 20
584.882923262845
 30
0.0
 40
25.0
 41
0.0
 71
     5
 72
     1
  1
10
 73
     1
 44
1.0
1001
ACAD
1000
MTEXTBEGIN
1070
    73
1070
     1
1070
    44
1040
1.0
1070
    74
1070
     0
1000
MTEXTEND
  0
POINT
  5
2A3C
330
2517
100
AcDbEntity
  8
Defpoints
 62
     0
100
AcDbPoint
 10
2217.899627132799
 20
654.3938049223925
 30
0.0
  0
POINT
  5
2A3D
330
2517
100
AcDbEntity
  8
Defpoints
 62
     0
100
AcDbPoint
 10
2317.899627132798
 20
654.3938049223925
 30
0.0
  0
POINT
  5
2A3E
330
2517
100
AcDbEntity
  8
Defpoints
 62
     0
100
AcDbPoint
 10
2317.899627132798
 20
566.132923262845
 30
0.0
  0
ENDBLK
  5
2522
330
2517
100
AcDbEntity
  8
0
100
AcDbBlockEnd
  0
BLOCK
  5
2547
330
253C
100
AcDbEntity
  8
0
100
AcDbBlockBegin
  2
*D33
 70
     1
 10
0.0
 20
0.0
 30
0.0
  3
*D33
  1

  0
LINE
  5
2A2D
330
253C
100
AcDbEntity
  8
実形
 62
     0
370
    18
100
AcDbLine
 10
2167.899627132798
 20
589.3938049223925
 30
0.0
 11
2167.899627132798
 21
566.132923262845
 31
0.0
  0
LINE
  5
2A2E
330
253C
100
AcDbEntity
  8
実形
 62
     0
370
    18
100
AcDbLine
 10
2217.750478700636
 20
589.3938049223925
 30
0.0
 11
2217.750478700636
 21
566.132923262845
 31
0.0
  0
LINE
  5
2A2F
330
253C
100
AcDbEntity
  8
実形
 62
     0
370
    18
100
AcDbLine
 10
2167.899627132798
 20
566.132923262845
 30
0.0
 11
2217.750478700636
 21
566.132923262845
 31
0.0
  0
INSERT
  5
2A30
330
253C
100
AcDbEntity
  8
実形
 62
     0
370
    18
100
AcDbBlockReference
  2
_DotSmall
 10
2167.899627132798
 20
566.132923262845
 30
0.0
 41
35.0
 42
35.0
 43
35.0
 50
180.0
  0
INSERT
  5
2A31
330
253C
100
AcDbEntity
  8
実形
 62
     0
370
    18
100
AcDbBlockReference
  2
_DotSmall
 10
2217.750478700636
 20
566.132923262845
 30
0.0
 41
35.0
 42
35.0
 43
35.0
  0
MTEXT
  5
2A32
330
253C
100
AcDbEntity
  8
実形
 62
     0
100
AcDbMText
 10
2192.825052916717
 20
584.882923262845
 30
0.0
 40
25.0
 41
0.0
 71
     5
 72
     1
  1
5
 73
     1
 44
1.0
1001
ACAD
1000
MTEXTBEGIN
1070
    73
1070
     1
1070
    44
1040
1.0
1070
    74
1070
     0
1000
MTEXTEND
  0
POINT
  5
2A33
330
253C
100
AcDbEntity
  8
Defpoints
 62
     0
100
AcDbPoint
 10
2167.899627132798
 20
654.3938049223925
 30
0.0
  0
POINT
  5
2A34
330
253C
100
AcDbEntity
  8
Defpoints
 62
     0
100
AcDbPoint
 10
2217.750478700636
 20
654.3938049223925
 30
0.0
  0
POINT
  5
2A35
330
253C
100
AcDbEntity
  8
Defpoints
 62
     0
100
AcDbPoint
 10
2217.750478700636
 20
566.132923262845
 30
0.0
  0
ENDBLK
  5
2548
330
253C
100
AcDbEntity
  8
0
100
AcDbBlockEnd
  0
BLOCK
  5
2587
330
257D
100
AcDbEntity
  8
0
100
AcDbBlockBegin
  2
*D34
 70
     1
 10
0.0
 20
0.0
 30
0.0
  3
*D34
  1

  0
LINE
  5
2CF3
330
257D
100
AcDbEntity
  8
実形
 62
     0
370
    18
100
AcDbLine
 10
1867.899627132799
 20
771.2498690356978
 30
0.0
 11
1867.899627132799
 21
804.2436145081255
 31
0.0
  0
LINE
  5
2CF4
330
257D
100
AcDbEntity
  8
実形
 62
     0
370
    18
100
AcDbLine
 10
2047.899627132799
 20
771.2498690356978
 30
0.0
 11
2047.899627132799
 21
804.2436145081255
 31
0.0
  0
LINE
  5
2CF5
330
257D
100
AcDbEntity
  8
実形
 62
     0
370
    18
100
AcDbLine
 10
1867.899627132799
 20
804.2436145081255
 30
0.0
 11
2047.899627132799
 21
804.2436145081255
 31
0.0
  0
INSERT
  5
2CF6
330
257D
100
AcDbEntity
  8
実形
 62
     0
370
    18
100
AcDbBlockReference
  2
_DotSmall
 10
1867.899627132799
 20
804.2436145081255
 30
0.0
 41
35.0
 42
35.0
 43
35.0
 50
180.0
  0
INSERT
  5
2CF7
330
257D
100
AcDbEntity
  8
実形
 62
     0
370
    18
100
AcDbBlockReference
  2
_DotSmall
 10
2047.899627132799
 20
804.2436145081255
 30
0.0
 41
35.0
 42
35.0
 43
35.0
  0
MTEXT
  5
2CF8
330
257D
100
AcDbEntity
  8
実形
 62
     0
100
AcDbMText
 10
1957.899627132799
 20
822.9936145081255
 30
0.0
 40
25.0
 41
0.0
 71
     5
 72
     1
  1
18
 73
     1
 44
1.0
1001
ACAD
1000
MTEXTBEGIN
1070
    73
1070
     1
1070
    44
1040
1.0
1070
    74
1070
     0
1000
MTEXTEND
  0
POINT
  5
2CF9
330
257D
100
AcDbEntity
  8
Defpoints
 62
     0
100
AcDbPoint
 10
1867.899627132799
 20
706.2498690356979
 30
0.0
  0
POINT
  5
2CFA
330
257D
100
AcDbEntity
  8
Defpoints
 62
     0
100
AcDbPoint
 10
2047.899627132799
 20
706.2498690356979
 30
0.0
  0
POINT
  5
2CFB
330
257D
100
AcDbEntity
  8
Defpoints
 62
     0
100
AcDbPoint
 10
2047.899627132799
 20
804.2436145081255
 30
0.0
  0
ENDBLK
  5
2588
330
257D
100
AcDbEntity
  8
0
100
AcDbBlockEnd
  0
BLOCK
  5
25A7
330
259D
100
AcDbEntity
  8
0
100
AcDbBlockBegin
  2
*D35
 70
     1
 10
0.0
 20
0.0
 30
0.0
  3
*D35
  1

  0
LINE
  5
2CCF
330
259D
100
AcDbEntity
  8
実形
 62
     0
370
    18
100
AcDbLine
 10
1817.899627132799
 20
776.1883187961321
 30
0.0
 11
1817.899627132799
 21
865.148744994477
 31
0.0
  0
LINE
  5
2CD0
330
259D
100
AcDbEntity
  8
実形
 62
     0
370
    18
100
AcDbLine
 10
2317.899627132799
 20
770.188318796132
 30
0.0
 11
2317.899627132799
 21
865.148744994477
 31
0.0
  0
LINE
  5
2CD1
330
259D
100
AcDbEntity
  8
実形
 62
     0
370
    18
100
AcDbLine
 10
1817.899627132799
 20
865.148744994477
 30
0.0
 11
2317.899627132799
 21
865.148744994477
 31
0.0
  0
INSERT
  5
2CD2
330
259D
100
AcDbEntity
  8
実形
 62
     0
370
    18
100
AcDbBlockReference
  2
_DotSmall
 10
1817.899627132799
 20
865.148744994477
 30
0.0
 41
35.0
 42
35.0
 43
35.0
 50
180.0
  0
INSERT
  5
2CD3
330
259D
100
AcDbEntity
  8
実形
 62
     0
370
    18
100
AcDbBlockReference
  2
_DotSmall
 10
2317.899627132799
 20
865.148744994477
 30
0.0
 41
35.0
 42
35.0
 43
35.0
  0
MTEXT
  5
2CD4
330
259D
100
AcDbEntity
  8
実形
 62
     0
100
AcDbMText
 10
2067.899627132799
 20
883.898744994477
 30
0.0
 40
25.0
 41
0.0
 71
     5
 72
     1
  1
50
 73
     1
 44
1.0
1001
ACAD
1000
MTEXTBEGIN
1070
    73
1070
     1
1070
    44
1040
1.0
1070
    74
1070
     0
1000
MTEXTEND
  0
POINT
  5
2CD5
330
259D
100
AcDbEntity
  8
Defpoints
 62
     0
100
AcDbPoint
 10
1817.899627132799
 20
711.188318796132
 30
0.0
  0
POINT
  5
2CD6
330
259D
100
AcDbEntity
  8
Defpoints
 62
     0
100
AcDbPoint
 10
2317.899627132799
 20
705.1883187961321
 30
0.0
  0
POINT
  5
2CD7
330
259D
100
AcDbEntity
  8
Defpoints
 62
     0
100
AcDbPoint
 10
2317.899627132799
 20
865.148744994477
 30
0.0
  0
ENDBLK
  5
25A8
330
259D
100
AcDbEntity
  8
0
100
AcDbBlockEnd
  0
BLOCK
  5
25BB
330
25B0
100
AcDbEntity
  8
0
100
AcDbBlockBegin
  2
*D36
 70
     1
 10
0.0
 20
0.0
 30
0.0
  3
*D36
  1

  0
LINE
  5
2A12
330
25B0
100
AcDbEntity
  8
実形
 62
     0
370
    18
100
AcDbLine
 10
2346.301992771529
 20
741.7745986296067
 30
0.0
 11
2389.409955385397
 21
741.7745986296067
 31
0.0
  0
LINE
  5
2A13
330
25B0
100
AcDbEntity
  8
実形
 62
     0
370
    18
100
AcDbLine
 10
2346.301992771529
 20
691.7745986296067
 30
0.0
 11
2389.409955385397
 21
691.7745986296067
 31
0.0
  0
LINE
  5
2A14
330
25B0
100
AcDbEntity
  8
実形
 62
     0
370
    18
100
AcDbLine
 10
2389.409955385397
 20
741.7745986296067
 30
0.0
 11
2389.409955385397
 21
691.7745986296067
 31
0.0
  0
INSERT
  5
2A15
330
25B0
100
AcDbEntity
  8
実形
 62
     0
370
    18
100
AcDbBlockReference
  2
_DotSmall
 10
2389.409955385397
 20
741.7745986296067
 30
0.0
 41
35.0
 42
35.0
 43
35.0
 50
90.0
  0
INSERT
  5
2A16
330
25B0
100
AcDbEntity
  8
実形
 62
     0
370
    18
100
AcDbBlockReference
  2
_DotSmall
 10
2389.409955385397
 20
691.7745986296067
 30
0.0
 41
35.0
 42
35.0
 43
35.0
 50
270.0
  0
MTEXT
  5
2A17
330
25B0
100
AcDbEntity
  8
実形
 62
     0
100
AcDbMText
 10
2370.659955385397
 20
716.7745986296071
 30
0.0
 40
25.0
 41
0.0
 71
     5
 72
     1
  1
5
 11
0.0000000000000001
 21
1.0
 31
0.0
 73
     1
 44
1.0
1001
ACAD
1000
MTEXTBEGIN
1070
    73
1070
     1
1070
    44
1040
1.0
1070
    74
1070
     0
1000
MTEXTEND
  0
POINT
  5
2A18
330
25B0
100
AcDbEntity
  8
Defpoints
 62
     0
100
AcDbPoint
 10
2281.301992771529
 20
741.7745986296067
 30
0.0
  0
POINT
  5
2A19
330
25B0
100
AcDbEntity
  8
Defpoints
 62
     0
100
AcDbPoint
 10
2281.301992771529
 20
691.7745986296067
 30
0.0
  0
POINT
  5
2A1A
330
25B0
100
AcDbEntity
  8
Defpoints
 62
     0
100
AcDbPoint
 10
2389.409955385397
 20
691.7745986296067
 30
0.0
  0
ENDBLK
  5
25BC
330
25B0
100
AcDbEntity
  8
0
100
AcDbBlockEnd
  0
BLOCK
  5
25D2
330
25C7
100
AcDbEntity
  8
0
100
AcDbBlockBegin
  2
*D37
 70
     1
 10
0.0
 20
0.0
 30
0.0
  3
*D37
  1

  0
LINE
  5
2A09
330
25C7
100
AcDbEntity
  8
実形
 62
     0
370
    18
100
AcDbLine
 10
2267.899627132799
 20
770.188318796132
 30
0.0
 11
2267.899627132799
 21
817.6685318953046
 31
0.0
  0
LINE
  5
2A0A
330
25C7
100
AcDbEntity
  8
実形
 62
     0
370
    18
100
AcDbLine
 10
2317.899627132799
 20
770.188318796132
 30
0.0
 11
2317.899627132799
 21
817.6685318953046
 31
0.0
  0
LINE
  5
2A0B
330
25C7
100
AcDbEntity
  8
実形
 62
     0
370
    18
100
AcDbLine
 10
2267.899627132799
 20
817.6685318953046
 30
0.0
 11
2317.899627132799
 21
817.6685318953046
 31
0.0
  0
INSERT
  5
2A0C
330
25C7
100
AcDbEntity
  8
実形
 62
     0
370
    18
100
AcDbBlockReference
  2
_DotSmall
 10
2267.899627132799
 20
817.6685318953046
 30
0.0
 41
35.0
 42
35.0
 43
35.0
 50
180.0
  0
INSERT
  5
2A0D
330
25C7
100
AcDbEntity
  8
実形
 62
     0
370
    18
100
AcDbBlockReference
  2
_DotSmall
 10
2317.899627132799
 20
817.6685318953046
 30
0.0
 41
35.0
 42
35.0
 43
35.0
  0
MTEXT
  5
2A0E
330
25C7
100
AcDbEntity
  8
実形
 62
     0
100
AcDbMText
 10
2292.899627132799
 20
836.4185318953046
 30
0.0
 40
25.0
 41
0.0
 71
     5
 72
     1
  1
5
 73
     1
 44
1.0
1001
ACAD
1000
MTEXTBEGIN
1070
    73
1070
     1
1070
    44
1040
1.0
1070
    74
1070
     0
1000
MTEXTEND
  0
POINT
  5
2A0F
330
25C7
100
AcDbEntity
  8
Defpoints
 62
     0
100
AcDbPoint
 10
2267.899627132799
 20
705.1883187961321
 30
0.0
  0
POINT
  5
2A10
330
25C7
100
AcDbEntity
  8
Defpoints
 62
     0
100
AcDbPoint
 10
2317.899627132799
 20
705.1883187961321
 30
0.0
  0
POINT
  5
2A11
330
25C7
100
AcDbEntity
  8
Defpoints
 62
     0
100
AcDbPoint
 10
2317.899627132799
 20
817.6685318953046
 30
0.0
  0
ENDBLK
  5
25D3
330
25C7
100
AcDbEntity
  8
0
100
AcDbBlockEnd
  0
BLOCK
  5
260C
330
2601
100
AcDbEntity
  8
0
100
AcDbBlockBegin
  2
*D38
 70
     1
 10
0.0
 20
0.0
 30
0.0
  3
*D38
  1

  0
LINE
  5
2C99
330
2601
100
AcDbEntity
  8
実形
 62
     0
370
    18
100
AcDbLine
 10
2075.802413108495
 20
671.7745986296067
 30
0.0
 11
2085.319751330999
 21
671.7745986296067
 31
0.0
  0
LINE
  5
2C9A
330
2601
100
AcDbEntity
  8
実形
 62
     0
370
    18
100
AcDbLine
 10
2075.802413108495
 20
621.7745986296067
 30
0.0
 11
2085.319751330999
 21
621.7745986296067
 31
0.0
  0
LINE
  5
2C9B
330
2601
100
AcDbEntity
  8
実形
 62
     0
370
    18
100
AcDbLine
 10
2085.319751330999
 20
671.7745986296067
 30
0.0
 11
2085.319751330999
 21
621.7745986296067
 31
0.0
  0
INSERT
  5
2C9C
330
2601
100
AcDbEntity
  8
実形
 62
     0
370
    18
100
AcDbBlockReference
  2
_DotSmall
 10
2085.319751330999
 20
671.7745986296067
 30
0.0
 41
35.0
 42
35.0
 43
35.0
 50
90.0
  0
INSERT
  5
2C9D
330
2601
100
AcDbEntity
  8
実形
 62
     0
370
    18
100
AcDbBlockReference
  2
_DotSmall
 10
2085.319751330999
 20
621.7745986296067
 30
0.0
 41
35.0
 42
35.0
 43
35.0
 50
270.0
  0
MTEXT
  5
2C9E
330
2601
100
AcDbEntity
  8
実形
 62
     0
100
AcDbMText
 10
2066.569751330999
 20
646.7745986296071
 30
0.0
 40
25.0
 41
0.0
 71
     5
 72
     1
  1
5
 11
0.0000000000000001
 21
1.0
 31
0.0
 73
     1
 44
1.0
1001
ACAD
1000
MTEXTBEGIN
1070
    73
1070
     1
1070
    44
1040
1.0
1070
    74
1070
     0
1000
MTEXTEND
  0
POINT
  5
2C9F
330
2601
100
AcDbEntity
  8
Defpoints
 62
     0
100
AcDbPoint
 10
2010.802413108495
 20
671.7745986296067
 30
0.0
  0
POINT
  5
2CA0
330
2601
100
AcDbEntity
  8
Defpoints
 62
     0
100
AcDbPoint
 10
2010.802413108495
 20
621.7745986296067
 30
0.0
  0
POINT
  5
2CA1
330
2601
100
AcDbEntity
  8
Defpoints
 62
     0
100
AcDbPoint
 10
2085.319751330999
 20
621.7745986296067
 30
0.0
  0
ENDBLK
  5
260D
330
2601
100
AcDbEntity
  8
0
100
AcDbBlockEnd
  0
BLOCK
  5
2640
330
263F
100
AcDbEntity
  8
0
100
AcDbBlockBegin
  2
*D39
 70
     1
 10
0.0
 20
0.0
 30
0.0
  3
*D39
  1

  0
LINE
  5
2641
330
263F
100
AcDbEntity
  8
実形
 62
     0
370
    18
100
AcDbLine
 10
2026.214038854987
 20
775.2102528415361
 30
0.0
 11
2055.731377077491
 21
775.2102528415361
 31
0.0
  0
LINE
  5
2642
330
263F
100
AcDbEntity
  8
実形
 62
     0
370
    18
100
AcDbLine
 10
2026.214038854987
 20
725.2102528415361
 30
0.0
 11
2055.731377077491
 21
725.2102528415361
 31
0.0
  0
LINE
  5
2643
330
263F
100
AcDbEntity
  8
実形
 62
     0
370
    18
100
AcDbLine
 10
2055.731377077491
 20
775.2102528415361
 30
0.0
 11
2055.731377077491
 21
725.2102528415361
 31
0.0
  0
INSERT
  5
2644
330
263F
100
AcDbEntity
  8
実形
 62
     0
370
    18
100
AcDbBlockReference
  2
_DotSmall
 10
2055.731377077491
 20
775.2102528415361
 30
0.0
 41
35.0
 42
35.0
 43
35.0
 50
90.0
  0
INSERT
  5
2645
330
263F
100
AcDbEntity
  8
実形
 62
     0
370
    18
100
AcDbBlockReference
  2
_DotSmall
 10
2055.731377077491
 20
725.2102528415361
 30
0.0
 41
35.0
 42
35.0
 43
35.0
 50
270.0
  0
MTEXT
  5
2646
330
263F
100
AcDbEntity
  8
実形
 62
     0
100
AcDbMText
 10
2036.981377077491
 20
750.2102528415365
 30
0.0
 40
25.0
 41
0.0
 71
     5
 72
     1
  1
5
 11
0.0000000000000001
 21
1.0
 31
0.0
 73
     1
 44
1.0
1001
ACAD
1000
MTEXTBEGIN
1070
    73
1070
     1
1070
    44
1040
1.0
1070
    74
1070
     0
1000
MTEXTEND
  0
POINT
  5
2647
330
263F
100
AcDbEntity
  8
Defpoints
 62
     0
100
AcDbPoint
 10
1961.214038854987
 20
775.2102528415361
 30
0.0
  0
POINT
  5
2648
330
263F
100
AcDbEntity
  8
Defpoints
 62
     0
100
AcDbPoint
 10
1961.214038854987
 20
725.2102528415361
 30
0.0
  0
POINT
  5
2649
330
263F
100
AcDbEntity
  8
Defpoints
 62
     0
100
AcDbPoint
 10
2055.731377077491
 20
725.2102528415361
 30
0.0
  0
ENDBLK
  5
264A
330
263F
100
AcDbEntity
  8
0
100
AcDbBlockEnd
  0
BLOCK
  5
264F
330
264B
100
AcDbEntity
  8
0
100
AcDbBlockBegin
  2
A$C125533AC
 70
     0
 10
0.0
 20
0.0
 30
0.0
  3
A$C125533AC
  1

  0
DIMENSION
  5
264C
330
264B
100
AcDbEntity
  8
実形
100
AcDbDimension
  2
*D39
 10
94.5173339883313
 20
4.375004707424523
 30
0.0
 11
75.7673339883313
 21
29.37500470742487
 31
0.0
 12
-1961.214043089159
 22
-720.8352481341116
 32
0.0
  1
5
 71
     5
 42
50.0
  3
ISO-25
100
AcDbAlignedDimension
 13
-0.000004234172593
 23
54.37500470742453
 33
0.0
 14
-0.000004234172593
 24
4.375004707424523
 34
0.0
 50
90.0
100
AcDbRotatedDimension
1001
ACAD
1000
DSTYLE
1002
{
1070
   371
1070
    18
1070
   372
1070
    18
1002
}
  0
ENDBLK
  5
2650
330
264B
100
AcDbEntity
  8
0
100
AcDbBlockEnd
  0
BLOCK
  5
2696
330
268C
100
AcDbEntity
  8
0
100
AcDbBlockBegin
  2
*D41
 70
     1
 10
0.0
 20
0.0
 30
0.0
  3
*D41
  1

  0
LINE
  5
2CFC
330
268C
100
AcDbEntity
  8
実形
 62
     0
370
    18
100
AcDbLine
 10
1897.899627132798
 20
512.5399579777349
 30
0.0
 11
1897.899627132798
 21
489.0759292349884
 31
0.0
  0
LINE
  5
2CFD
330
268C
100
AcDbEntity
  8
実形
 62
     0
370
    18
100
AcDbLine
 10
2077.899627132798
 20
512.5399579777349
 30
0.0
 11
2077.899627132798
 21
489.0759292349884
 31
0.0
  0
LINE
  5
2CFE
330
268C
100
AcDbEntity
  8
実形
 62
     0
370
    18
100
AcDbLine
 10
1897.899627132798
 20
489.0759292349884
 30
0.0
 11
2077.899627132798
 21
489.0759292349884
 31
0.0
  0
INSERT
  5
2CFF
330
268C
100
AcDbEntity
  8
実形
 62
     0
370
    18
100
AcDbBlockReference
  2
_DotSmall
 10
1897.899627132798
 20
489.0759292349884
 30
0.0
 41
35.0
 42
35.0
 43
35.0
 50
180.0
  0
INSERT
  5
2D00
330
268C
100
AcDbEntity
  8
実形
 62
     0
370
    18
100
AcDbBlockReference
  2
_DotSmall
 10
2077.899627132798
 20
489.0759292349884
 30
0.0
 41
35.0
 42
35.0
 43
35.0
  0
MTEXT
  5
2D01
330
268C
100
AcDbEntity
  8
実形
 62
     0
100
AcDbMText
 10
1987.899627132798
 20
507.8259292349884
 30
0.0
 40
25.0
 41
0.0
 71
     5
 72
     1
  1
18
 73
     1
 44
1.0
1001
ACAD
1000
MTEXTBEGIN
1070
    73
1070
     1
1070
    44
1040
1.0
1070
    74
1070
     0
1000
MTEXTEND
  0
POINT
  5
2D02
330
268C
100
AcDbEntity
  8
Defpoints
 62
     0
100
AcDbPoint
 10
1897.899627132798
 20
577.5399579777349
 30
0.0
  0
POINT
  5
2D03
330
268C
100
AcDbEntity
  8
Defpoints
 62
     0
100
AcDbPoint
 10
2077.899627132798
 20
577.5399579777349
 30
0.0
  0
POINT
  5
2D04
330
268C
100
AcDbEntity
  8
Defpoints
 62
     0
100
AcDbPoint
 10
2077.899627132798
 20
489.0759292349884
 30
0.0
  0
ENDBLK
  5
2697
330
268C
100
AcDbEntity
  8
0
100
AcDbBlockEnd
  0
BLOCK
  5
26A3
330
2699
100
AcDbEntity
  8
0
100
AcDbBlockBegin
  2
*D42
 70
     1
 10
0.0
 20
0.0
 30
0.0
  3
*D42
  1

  0
LINE
  5
2D05
330
2699
100
AcDbEntity
  8
実形
 62
     0
370
    18
100
AcDbLine
 10
2107.667552183736
 20
613.3475735696975
 30
0.0
 11
2125.611732425682
 21
613.3475735696975
 31
0.0
  0
LINE
  5
2D06
330
2699
100
AcDbEntity
  8
実形
 62
     0
370
    18
100
AcDbLine
 10
2107.667552183736
 20
543.3475735696974
 30
0.0
 11
2125.611732425682
 21
543.3475735696974
 31
0.0
  0
LINE
  5
2D07
330
2699
100
AcDbEntity
  8
実形
 62
     0
370
    18
100
AcDbLine
 10
2125.611732425682
 20
613.3475735696975
 30
0.0
 11
2125.611732425682
 21
543.3475735696974
 31
0.0
  0
INSERT
  5
2D08
330
2699
100
AcDbEntity
  8
実形
 62
     0
370
    18
100
AcDbBlockReference
  2
_DotSmall
 10
2125.611732425682
 20
613.3475735696975
 30
0.0
 41
35.0
 42
35.0
 43
35.0
 50
90.0
  0
INSERT
  5
2D09
330
2699
100
AcDbEntity
  8
実形
 62
     0
370
    18
100
AcDbBlockReference
  2
_DotSmall
 10
2125.611732425682
 20
543.3475735696974
 30
0.0
 41
35.0
 42
35.0
 43
35.0
 50
270.0
  0
MTEXT
  5
2D0A
330
2699
100
AcDbEntity
  8
実形
 62
     0
100
AcDbMText
 10
2106.861732425683
 20
578.3475735696978
 30
0.0
 40
25.0
 41
0.0
 71
     5
 72
     1
  1
7
 11
0.0000000000000001
 21
1.0
 31
0.0
 73
     1
 44
1.0
1001
ACAD
1000
MTEXTBEGIN
1070
    73
1070
     1
1070
    44
1040
1.0
1070
    74
1070
     0
1000
MTEXTEND
  0
POINT
  5
2D0B
330
2699
100
AcDbEntity
  8
Defpoints
 62
     0
100
AcDbPoint
 10
2042.667552183736
 20
613.3475735696975
 30
0.0
  0
POINT
  5
2D0C
330
2699
100
AcDbEntity
  8
Defpoints
 62
     0
100
AcDbPoint
 10
2042.667552183736
 20
543.3475735696974
 30
0.0
  0
POINT
  5
2D0D
330
2699
100
AcDbEntity
  8
Defpoints
 62
     0
100
AcDbPoint
 10
2125.611732425682
 20
543.3475735696974
 30
0.0
  0
ENDBLK
  5
26A4
330
2699
100
AcDbEntity
  8
0
100
AcDbBlockEnd
  0
BLOCK
  5
29C0
330
29BC
100
AcDbEntity
  8
0
100
AcDbBlockBegin
  2
A$C38736A37
 70
     0
 10
0.0
 20
0.0
 30
0.0
  3
A$C38736A37
  1

  0
TEXT
  5
29BD
330
29BC
100
AcDbEntity
  8
実形
370
    18
100
AcDbText
 10
0.0000036572928366
 20
-0.0000009026298358
 30
0.0
 40
25.0
  1
A
100
AcDbText
  0
ENDBLK
  5
29C1
330
29BC
100
AcDbEntity
  8
0
100
AcDbBlockEnd
  0
BLOCK
  5
2BD2
330
2BC8
100
AcDbEntity
  8
0
100
AcDbBlockBegin
  2
*D44
 70
     1
 10
0.0
 20
0.0
 30
0.0
  3
*D44
  1

  0
LINE
  5
2BDD
330
2BC8
100
AcDbEntity
  8
実形
 62
     0
370
    18
100
AcDbLine
 10
788.4099390919266
 20
1218.304004923656
 30
0.0
 11
788.4099390919266
 21
1212.707225379389
 31
0.0
  0
LINE
  5
2BDE
330
2BC8
100
AcDbEntity
  8
実形
 62
     0
370
    18
100
AcDbLine
 10
1078.409939091926
 20
1218.304004923656
 30
0.0
 11
1078.409939091926
 21
1212.707225379389
 31
0.0
  0
LINE
  5
2BDF
330
2BC8
100
AcDbEntity
  8
実形
 62
     0
370
    18
100
AcDbLine
 10
788.4099390919266
 20
1212.707225379389
 30
0.0
 11
1078.409939091926
 21
1212.707225379389
 31
0.0
  0
INSERT
  5
2BE0
330
2BC8
100
AcDbEntity
  8
実形
 62
     0
370
    18
100
AcDbBlockReference
  2
_DotSmall
 10
788.4099390919266
 20
1212.707225379389
 30
0.0
 41
35.0
 42
35.0
 43
35.0
 50
180.0
  0
INSERT
  5
2BE1
330
2BC8
100
AcDbEntity
  8
実形
 62
     0
370
    18
100
AcDbBlockReference
  2
_DotSmall
 10
1078.409939091926
 20
1212.707225379389
 30
0.0
 41
35.0
 42
35.0
 43
35.0
  0
MTEXT
  5
2BE2
330
2BC8
100
AcDbEntity
  8
実形
 62
     0
100
AcDbMText
 10
933.4099390919265
 20
1231.457225379389
 30
0.0
 40
25.0
 41
0.0
 71
     5
 72
     1
  1
290
 73
     1
 44
1.0
1001
ACAD
1000
MTEXTBEGIN
1070
    73
1070
     1
1070
    44
1040
1.0
1070
    74
1070
     0
1000
MTEXTEND
  0
POINT
  5
2BE3
330
2BC8
100
AcDbEntity
  8
Defpoints
 62
     0
100
AcDbPoint
 10
788.4099390919266
 20
1283.304004923656
 30
0.0
  0
POINT
  5
2BE4
330
2BC8
100
AcDbEntity
  8
Defpoints
 62
     0
100
AcDbPoint
 10
1078.409939091926
 20
1283.304004923656
 30
0.0
  0
POINT
  5
2BE5
330
2BC8
100
AcDbEntity
  8
Defpoints
 62
     0
100
AcDbPoint
 10
1078.409939091926
 20
1212.707225379389
 30
0.0
  0
ENDBLK
  5
2BD3
330
2BC8
100
AcDbEntity
  8
0
100
AcDbBlockEnd
  0
BLOCK
  5
2C0C
330
2C02
100
AcDbEntity
  8
0
100
AcDbBlockBegin
  2
*D45
 70
     1
 10
0.0
 20
0.0
 30
0.0
  3
*D45
  1

  0
LINE
  5
2C0E
330
2C02
100
AcDbEntity
  8
実形
 62
     0
370
    18
100
AcDbLine
 10
671.8228538401445
 20
1648.359507154115
 30
0.0
 11
636.0627967005666
 21
1648.359507154115
 31
0.0
  0
LINE
  5
2C0F
330
2C02
100
AcDbEntity
  8
実形
 62
     0
370
    18
100
AcDbLine
 10
671.8228538401445
 20
1358.359507154115
 30
0.0
 11
636.0627967005666
 21
1358.359507154115
 31
0.0
  0
LINE
  5
2C10
330
2C02
100
AcDbEntity
  8
実形
 62
     0
370
    18
100
AcDbLine
 10
636.0627967005666
 20
1648.359507154115
 30
0.0
 11
636.0627967005666
 21
1358.359507154115
 31
0.0
  0
INSERT
  5
2C11
330
2C02
100
AcDbEntity
  8
実形
 62
     0
370
    18
100
AcDbBlockReference
  2
_DotSmall
 10
636.0627967005666
 20
1648.359507154115
 30
0.0
 41
35.0
 42
35.0
 43
35.0
 50
90.0
  0
INSERT
  5
2C12
330
2C02
100
AcDbEntity
  8
実形
 62
     0
370
    18
100
AcDbBlockReference
  2
_DotSmall
 10
636.0627967005666
 20
1358.359507154115
 30
0.0
 41
35.0
 42
35.0
 43
35.0
 50
270.0
  0
MTEXT
  5
2C13
330
2C02
100
AcDbEntity
  8
実形
 62
     0
100
AcDbMText
 10
617.3127967005664
 20
1503.359507154115
 30
0.0
 40
25.0
 41
0.0
 71
     5
 72
     1
  1
290
 11
0.0000000000000001
 21
1.0
 31
0.0
 73
     1
 44
1.0
1001
ACAD
1000
MTEXTBEGIN
1070
    73
1070
     1
1070
    44
1040
1.0
1070
    74
1070
     0
1000
MTEXTEND
  0
POINT
  5
2C14
330
2C02
100
AcDbEntity
  8
Defpoints
 62
     0
100
AcDbPoint
 10
606.8228538401444
 20
1648.359507154115
 30
0.0
  0
POINT
  5
2C15
330
2C02
100
AcDbEntity
  8
Defpoints
 62
     0
100
AcDbPoint
 10
606.8228538401446
 20
1358.359507154115
 30
0.0
  0
POINT
  5
2C16
330
2C02
100
AcDbEntity
  8
Defpoints
 62
     0
100
AcDbPoint
 10
636.0627967005666
 20
1358.359507154115
 30
0.0
  0
ENDBLK
  5
2C0D
330
2C02
100
AcDbEntity
  8
0
100
AcDbBlockEnd
  0
BLOCK
  5
2C40
330
2C36
100
AcDbEntity
  8
0
100
AcDbBlockBegin
  2
*D46
 70
     1
 10
0.0
 20
0.0
 30
0.0
  3
*D46
  1

  0
LINE
  5
2CC6
330
2C36
100
AcDbEntity
  8
実形
 62
     0
370
    18
100
AcDbLine
 10
2047.899627132798
 20
776.6596186260776
 30
0.0
 11
2047.899627132798
 21
804.2436145081255
 31
0.0
  0
LINE
  5
2CC7
330
2C36
100
AcDbEntity
  8
実形
 62
     0
370
    18
100
AcDbLine
 10
2167.899627132798
 20
773.1041422751441
 30
0.0
 11
2167.899627132798
 21
804.2436145081255
 31
0.0
  0
LINE
  5
2CC8
330
2C36
100
AcDbEntity
  8
実形
 62
     0
370
    18
100
AcDbLine
 10
2047.899627132798
 20
804.2436145081255
 30
0.0
 11
2167.899627132798
 21
804.2436145081255
 31
0.0
  0
INSERT
  5
2CC9
330
2C36
100
AcDbEntity
  8
実形
 62
     0
370
    18
100
AcDbBlockReference
  2
_DotSmall
 10
2047.899627132798
 20
804.2436145081255
 30
0.0
 41
35.0
 42
35.0
 43
35.0
 50
180.0
  0
INSERT
  5
2CCA
330
2C36
100
AcDbEntity
  8
実形
 62
     0
370
    18
100
AcDbBlockReference
  2
_DotSmall
 10
2167.899627132798
 20
804.2436145081255
 30
0.0
 41
35.0
 42
35.0
 43
35.0
  0
MTEXT
  5
2CCB
330
2C36
100
AcDbEntity
  8
実形
 62
     0
100
AcDbMText
 10
2107.899627132798
 20
822.9936145081255
 30
0.0
 40
25.0
 41
0.0
 71
     5
 72
     1
  1
12
 73
     1
 44
1.0
1001
ACAD
1000
MTEXTBEGIN
1070
    73
1070
     1
1070
    44
1040
1.0
1070
    74
1070
     0
1000
MTEXTEND
  0
POINT
  5
2CCC
330
2C36
100
AcDbEntity
  8
Defpoints
 62
     0
100
AcDbPoint
 10
2047.899627132798
 20
711.6596186260776
 30
0.0
  0
POINT
  5
2CCD
330
2C36
100
AcDbEntity
  8
Defpoints
 62
     0
100
AcDbPoint
 10
2167.899627132798
 20
708.104142275144
 30
0.0
  0
POINT
  5
2CCE
330
2C36
100
AcDbEntity
  8
Defpoints
 62
     0
100
AcDbPoint
 10
2167.899627132798
 20
804.2436145081255
 30
0.0
  0
ENDBLK
  5
2C41
330
2C36
100
AcDbEntity
  8
0
100
AcDbBlockEnd
  0
ENDSEC
  0
SECTION
  2
ENTITIES
  0
LINE
  5
9C
330
1F
100
AcDbEntity
  8
実形
100
AcDbLine
 10
119.0
 20
4.0
 30
0.0
 11
2784.0
 21
4.0
 31
0.0
  0
LINE
  5
A0
330
1F
100
AcDbEntity
  8
実形
100
AcDbLine
 10
2784.0
 20
2024.0
 30
0.0
 11
119.0
 21
2024.0
 31
0.0
  0
LINE
  5
A5
330
1F
100
AcDbEntity
  8
実形
100
AcDbLine
 10
2784.0
 20
4.0
 30
0.0
 11
2784.0
 21
2024.0
 31
0.0
  0
LINE
  5
2E6
330
1F
100
AcDbEntity
  8
実形
100
AcDbLine
 10
765.0892247980745
 20
955.2344549922473
 30
0.0
 11
1095.089224798075
 21
955.2344549922473
 31
0.0
  0
CIRCLE
  5
2EB
330
1F
100
AcDbEntity
  8
実形
100
AcDbCircle
 10
933.4099390919263
 20
1503.359507154115
 30
0.0
 40
44.0
  0
CIRCLE
  5
2EE
330
1F
100
AcDbEntity
  8
実形
100
AcDbCircle
 10
933.4099390919263
 20
1503.359507154115
 30
0.0
 40
58.0
  0
LINE
  5
2FE
330
1F
100
AcDbEntity
  8
実形
100
AcDbLine
 10
1548.409939091926
 20
1668.359507154115
 30
0.0
 11
1548.409939091926
 21
1338.359507154115
 31
0.0
  0
LINE
  5
33A
330
1F
100
AcDbEntity
  8
実形
  6
ACAD_ISO08W100
 48
0.5
370
    15
100
AcDbLine
 10
848.195238235538
 20
1503.359507154115
 30
0.0
 11
1018.624639948314
 21
1503.359507154115
 31
0.0
  0
LINE
  5
33B
330
1F
100
AcDbEntity
  8
実形
  6
ACAD_ISO08W100
 48
0.5
370
    15
100
AcDbLine
 10
933.4099390919263
 20
1588.574208010503
 30
0.0
 11
933.4099390919263
 21
1418.144806297726
 31
0.0
  0
LINE
  5
33C
330
1F
100
AcDbEntity
  8
実形
  6
ACAD_ISO08W100
 48
0.5
370
    15
100
AcDbLine
 10
930.0892247980746
 20
883.4510788676608
 30
0.0
 11
930.0892247980746
 21
727.0352585603606
 31
0.0
  0
LINE
  5
33D
330
1F
100
AcDbEntity
  8
実形
  6
ACAD_ISO08W100
 48
0.5
370
    15
100
AcDbLine
 10
1621.874150412969
 20
1503.359507154115
 30
0.0
 11
1730.785102670031
 21
1503.359507154115
 31
0.0
  0
DIMENSION
  5
35B
330
1F
100
AcDbEntity
  8
実形
100
AcDbDimension
  2
*D4
 10
788.4099390919266
 20
1747.162625317523
 30
0.0
 11
860.9099390919265
 21
1765.912625317523
 31
0.0
 70
    32
 71
     5
 42
144.9999999999997
  3
ISO-25
100
AcDbAlignedDimension
 13
933.4099390919263
 23
1503.359507154115
 33
0.0
 14
788.4099390919266
 24
1593.826706059003
 34
0.0
100
AcDbRotatedDimension
1001
ACAD
1000
DSTYLE
1002
{
1070
    41
1040
25.0
1070
   371
1070
    18
1002
}
  0
DIMENSION
  5
368
330
1F
100
AcDbEntity
  8
実形
100
AcDbDimension
  2
*D5
 10
1196.012951710908
 20
1648.359507154115
 30
0.0
 11
1177.262951710907
 21
1575.859507154115
 31
0.0
 70
    32
 71
     5
 42
145.0
  3
ISO-25
100
AcDbAlignedDimension
 13
933.4099390919263
 23
1503.359507154115
 33
0.0
 14
1023.409939091926
 24
1648.359507154115
 34
0.0
 50
90.0
100
AcDbRotatedDimension
1001
ACAD
1000
DSTYLE
1002
{
1070
    41
1040
25.0
1070
   371
1070
    18
1002
}
  0
TEXT
  5
398
330
1F
100
AcDbEntity
  8
実形
370
    18
100
AcDbText
 10
825.3253476237924
 20
1384.918222929564
 30
0.0
 40
25.0
  1
4角　55R
100
AcDbText
  0
TEXT
  5
3AF
330
1F
100
AcDbEntity
  8
実形
100
AcDbText
 10
949.6093343751308
 20
866.4636534528892
 30
0.0
 40
25.0
  1
30R
100
AcDbText
  0
TEXT
  5
3B1
330
1F
100
AcDbEntity
  8
実形
370
    18
100
AcDbText
 10
1582.134076063125
 20
1418.393340999667
 30
0.0
 40
25.0
  1
30R
100
AcDbText
  0
DIMENSION
  5
4F8
330
1F
100
AcDbEntity
  8
実形
100
AcDbDimension
  2
*D6
 10
974.0892247980745
 20
678.8070476911745
 30
0.0
 11
930.0892247980746
 21
697.5570476911745
 31
0.0
 70
    32
 71
     5
 42
88.0
  3
ISO-25
100
AcDbAlignedDimension
 13
886.0892247980746
 23
795.2344549922473
 33
0.0
 14
974.0892247980745
 24
795.2344549922473
 34
0.0
100
AcDbRotatedDimension
1001
ACAD
1000
DSTYLE
1002
{
1070
    41
1040
25.0
1070
   371
1070
    18
1002
}
  0
DIMENSION
  5
505
330
1F
100
AcDbEntity
  8
実形
100
AcDbDimension
  2
*D7
 10
988.0892247980746
 20
618.8476491222456
 30
0.0
 11
930.0892247980746
 21
637.5976491222456
 31
0.0
 70
    32
 71
     5
 42
116.0
  3
ISO-25
100
AcDbAlignedDimension
 13
872.0892247980746
 23
795.2344549922473
 33
0.0
 14
988.0892247980746
 24
795.2344549922473
 34
0.0
100
AcDbRotatedDimension
1001
ACAD
1000
DSTYLE
1002
{
1070
    41
1040
25.0
1070
   371
1070
    18
1002
}
  0
DIMENSION
  5
569
330
1F
100
AcDbEntity
  8
実形
100
AcDbDimension
  2
*D8
 10
1818.716083183846
 20
1459.359507154115
 30
0.0
 11
1799.966083183846
 21
1503.359507154115
 31
0.0
 70
    32
 71
     5
 42
88.0
  3
ISO-25
100
AcDbAlignedDimension
 13
1708.409939091926
 23
1547.359507154115
 33
0.0
 14
1708.409939091926
 24
1459.359507154115
 34
0.0
 50
90.0
100
AcDbRotatedDimension
1001
ACAD
1000
DSTYLE
1002
{
1070
    41
1040
25.0
1070
   371
1070
    18
1002
}
  0
DIMENSION
  5
57F
330
1F
100
AcDbEntity
  8
実形
100
AcDbDimension
  2
*D9
 10
1883.637671148688
 20
1445.359507154115
 30
0.0
 11
1864.887671148688
 21
1503.359507154115
 31
0.0
 70
    32
 71
     5
 42
116.0
  3
ISO-25
100
AcDbAlignedDimension
 13
1708.409939091926
 23
1561.359507154115
 33
0.0
 14
1708.409939091926
 24
1445.359507154115
 34
0.0
 50
90.0
100
AcDbRotatedDimension
1001
ACAD
1000
DSTYLE
1002
{
1070
    41
1040
25.0
1070
   371
1070
    18
1002
}
  0
LEADER
  5
7D1
330
1F
100
AcDbEntity
  8
実形
100
AcDbLeader
  3
ISO-25
 40
25.0
 41
16.66666666666666
 76
     2
 10
1046.556597649125
 20
1377.542590463056
 30
0.0
 10
983.3023780706762
 20
1394.457496279252
 30
0.0
213
0.0
223
-12.5
233
0.0
1001
ACAD
1000
DSTYLE
1002
{
1070
    41
1040
25.0
1070
   147
1040
6.25
1070
    77
1070
     0
1070
    73
1070
     1
1070
    74
1070
     1
1070
   279
1070
     1
1070
   342
1005
DA
1002
}
  0
LEADER
  5
7D2
330
1F
100
AcDbEntity
  8
実形
100
AcDbLeader
  3
ISO-25
 40
25.0
 41
16.66666666666666
 76
     2
 10
1070.934903256423
 20
833.8475624489966
 30
0.0
 10
1026.572022390617
 20
868.4353765940114
 30
0.0
213
0.0
223
-12.5
233
0.0
1001
ACAD
1000
DSTYLE
1002
{
1070
    41
1040
25.0
1070
   147
1040
6.25
1070
    77
1070
     0
1070
    73
1070
     1
1070
    74
1070
     1
1070
   279
1070
     1
1070
   342
1005
DA
1002
}
  0
LEADER
  5
7D3
330
1F
100
AcDbEntity
  8
実形
100
AcDbLeader
  3
ISO-25
 40
25.0
 41
16.66666666666666
 76
     2
 10
1674.08351395055
 20
1368.211480383066
 30
0.0
 10
1647.024710089876
 20
1411.893205544883
 30
0.0
213
0.0
223
-12.5
233
0.0
1001
ACAD
1000
DSTYLE
1002
{
1070
    41
1040
25.0
1070
   147
1040
6.25
1070
    77
1070
     0
1070
    73
1070
     1
1070
    74
1070
     1
1070
   279
1070
     1
1070
   342
1005
DA
1002
}
  0
TEXT
  5
8C9
330
1F
100
AcDbEntity
  8
実形
100
AcDbText
 10
163.6733449541498
 20
83.52862940911927
 30
0.0
 40
30.0
  1
※実寸には製造上の誤差(+5/-1mm)が生ずる場合があります｡シンクの穴あけ加工は現物合わせにてお願いします。
100
AcDbText
  0
LINE
  5
F27
330
1F
100
AcDbEntity
  8
実形
100
AcDbLine
 10
765.0892247980745
 20
955.2344549922473
 30
0.0
 11
1095.089224798075
 21
955.2344549922473
 31
0.0
  0
LINE
  5
1238
330
1F
100
AcDbEntity
  8
実形
100
AcDbLine
 10
1095.089224798075
 20
955.2344549922473
 30
0.0
 11
765.0892247980745
 21
955.2344549922473
 31
0.0
  0
LINE
  5
123B
330
1F
100
AcDbEntity
  8
実形
100
AcDbLine
 10
872.0892247980746
 20
805.2344549922473
 30
0.0
 11
872.0892247980746
 21
795.2344549922473
 31
0.0
  0
LINE
  5
123C
330
1F
100
AcDbEntity
  8
実形
100
AcDbLine
 10
872.0892247980746
 20
795.2344549922473
 30
0.0
 11
988.0892247980746
 21
795.2344549922473
 31
0.0
  0
LINE
  5
123D
330
1F
100
AcDbEntity
  8
実形
100
AcDbLine
 10
988.0892247980746
 20
795.2344549922473
 30
0.0
 11
988.0892247980746
 21
805.2344549922473
 31
0.0
  0
LINE
  5
123E
330
1F
100
AcDbEntity
  8
実形
100
AcDbLine
 10
988.0892247980746
 20
805.2344549922473
 30
0.0
 11
872.0892247980746
 21
805.2344549922473
 31
0.0
  0
LINE
  5
12A9
330
1F
100
AcDbEntity
  8
実形
100
AcDbLine
 10
1548.409939091927
 20
1698.359507154114
 30
0.0
 11
1548.409939091926
 21
1338.359507154115
 31
0.0
  0
LINE
  5
12AC
330
1F
100
AcDbEntity
  8
実形
100
AcDbLine
 10
1698.409939091926
 20
1445.359507154115
 30
0.0
 11
1708.409939091926
 21
1445.359507154115
 31
0.0
  0
LINE
  5
12AD
330
1F
100
AcDbEntity
  8
実形
100
AcDbLine
 10
1708.409939091926
 20
1445.359507154115
 30
0.0
 11
1708.409939091926
 21
1561.359507154115
 31
0.0
  0
LINE
  5
12AE
330
1F
100
AcDbEntity
  8
実形
100
AcDbLine
 10
1708.409939091926
 20
1561.359507154115
 30
0.0
 11
1698.409939091926
 21
1561.359507154115
 31
0.0
  0
LINE
  5
12AF
330
1F
100
AcDbEntity
  8
実形
100
AcDbLine
 10
1698.409939091926
 20
1561.359507154115
 30
0.0
 11
1698.409939091926
 21
1445.359507154115
 31
0.0
  0
LINE
  5
15F5
330
1F
100
AcDbEntity
  8
実形
100
AcDbLine
 10
1080.089224798075
 20
948.7344549922477
 30
0.0
 11
1080.089224798074
 21
845.739282934946
 31
0.0
  0
LINE
  5
15F6
330
1F
100
AcDbEntity
  8
実形
100
AcDbLine
 10
1054.916784075428
 20
816.1302527005117
 30
0.0
 11
988.0892247980746
 21
805.2344549922473
 31
0.0
  0
LINE
  5
15F7
330
1F
100
AcDbEntity
  8
実形
100
AcDbLine
 10
872.0892247980746
 20
805.2344549922473
 30
0.0
 11
805.2616655207211
 21
816.1302527005119
 31
0.0
  0
LINE
  5
15F8
330
1F
100
AcDbEntity
  8
実形
100
AcDbLine
 10
780.0892247980746
 20
845.739282934946
 30
0.0
 11
780.0892247980747
 21
948.7344549922466
 31
0.0
  0
LINE
  5
15F9
330
1F
100
AcDbEntity
  8
実形
100
AcDbLine
 10
1554.909939091927
 20
1353.359507154115
 30
0.0
 11
1657.905111149228
 21
1353.359507154115
 31
0.0
  0
LINE
  5
15FA
330
1F
100
AcDbEntity
  8
実形
100
AcDbLine
 10
1687.514141383662
 20
1378.531947876761
 30
0.0
 11
1698.409939091926
 21
1445.359507154115
 31
0.0
  0
LINE
  5
15FB
330
1F
100
AcDbEntity
  8
実形
100
AcDbLine
 10
1554.909939091927
 20
1653.359507154115
 30
0.0
 11
1657.905111149228
 21
1653.359507154115
 31
0.0
  0
LINE
  5
15FC
330
1F
100
AcDbEntity
  8
実形
100
AcDbLine
 10
1687.514141383662
 20
1628.187066431468
 30
0.0
 11
1698.409939091926
 21
1561.359507154115
 31
0.0
  0
ARC
  5
162E
330
1F
100
AcDbEntity
  8
実形
100
AcDbCircle
 10
1657.905111149228
 20
1623.359507154115
 30
0.0
 40
30.0
100
AcDbArc
 50
9.260221531171733
 51
90.0
  0
ARC
  5
162F
330
1F
100
AcDbEntity
  8
実形
100
AcDbCircle
 10
1657.905111149228
 20
1383.359507154115
 30
0.0
 40
30.0
100
AcDbArc
 50
270.0
 51
350.7397784688283
  0
ARC
  5
1630
330
1F
100
AcDbEntity
  8
実形
100
AcDbCircle
 10
810.0892247980747
 20
845.739282934946
 30
0.0
 40
30.0
100
AcDbArc
 50
180.0
 51
260.7397784688282
  0
ARC
  5
1631
330
1F
100
AcDbEntity
  8
実形
100
AcDbCircle
 10
1050.089224798074
 20
845.739282934946
 30
0.0
 40
30.0
100
AcDbArc
 50
279.2602215311716
 51
0.0
  0
DIMENSION
  5
166B
330
1F
100
AcDbEntity
  8
実形
100
AcDbDimension
  2
*D10
 10
662.2890721195058
 20
805.2344549922475
 30
0.0
 11
662.2890721195055
 21
812.7344549922476
 31
0.0
 70
    32
  1
 
 71
     5
 42
15.0
  3
ISO-25
100
AcDbAlignedDimension
 13
781.180822607213
 23
820.2344549922473
 33
0.0
 14
781.180822607213
 24
805.2344549922473
 34
0.0
 50
90.0
100
AcDbRotatedDimension
1001
ACAD
1000
DSTYLE
1002
{
1070
    41
1040
25.0
1070
   371
1070
    15
1002
}
  0
DIMENSION
  5
166C
330
1F
100
AcDbEntity
  8
実形
100
AcDbDimension
  2
*D11
 10
593.5247583742629
 20
805.2344549922475
 30
0.0
 11
574.7747583742627
 21
886.2344549922472
 31
0.0
 70
    32
  1
157
 71
     5
 42
161.9999999999992
  3
ISO-25
100
AcDbAlignedDimension
 13
779.0414579512735
 23
967.2344549922465
 33
0.0
 14
781.180822607213
 24
805.2344549922473
 34
0.0
 50
90.0
100
AcDbRotatedDimension
1001
ACAD
1000
DSTYLE
1002
{
1070
    41
1040
25.0
1070
   371
1070
    15
1002
}
  0
TEXT
  5
166D
330
1F
100
AcDbEntity
  8
実形
370
    18
100
AcDbText
 10
636.3406694735559
 20
819.5051672168439
 30
0.0
 40
25.0
  1
15
 50
90.0
100
AcDbText
  0
LINE
  5
166E
330
1F
100
AcDbEntity
  8
実形
100
AcDbLine
 10
662.2890721195058
 20
805.2344549922473
 30
0.0
 11
716.180822607213
 21
805.2344549922473
 31
0.0
  0
LINE
  5
166F
330
1F
100
AcDbEntity
  8
実形
100
AcDbLine
 10
662.2890721195058
 20
795.2344549922473
 30
0.0
 11
716.180822607213
 21
795.2344549922474
 31
0.0
  0
LINE
  5
1670
330
1F
100
AcDbEntity
  8
実形
100
AcDbLine
 10
662.2890721195058
 20
795.2344549922473
 30
0.0
 11
662.2890721195058
 21
805.2344549922473
 31
0.0
  0
TEXT
  5
1671
330
1F
100
AcDbEntity
  8
実形
370
    18
100
AcDbText
 10
659.9547454690427
 20
792.7435608997139
 30
0.0
 40
5.0
  1
●
100
AcDbText
  0
TEXT
  5
1672
330
1F
100
AcDbEntity
  8
実形
370
    18
100
AcDbText
 10
636.9544516108462
 20
780.5308161517087
 30
0.0
 40
25.0
  1
7
 50
90.0
100
AcDbText
  0
DIMENSION
  5
16BE
330
1F
100
AcDbEntity
  8
実形
100
AcDbDimension
  2
*D12
 10
1683.409939091926
 20
1242.586782141369
 30
0.0
 11
1690.909939091926
 21
1242.586782141369
 31
0.0
 70
    32
  1
 
 71
     5
 42
15.0
  3
ISO-25
100
AcDbAlignedDimension
 13
1698.409939091926
 23
1363.493516178804
 33
0.0
 14
1683.409939091926
 24
1363.493516178804
 34
0.0
100
AcDbRotatedDimension
1001
ACAD
1000
DSTYLE
1002
{
1070
    41
1040
25.0
1070
   371
1070
    18
1002
}
  0
DIMENSION
  5
16BF
330
1F
100
AcDbEntity
  8
実形
100
AcDbDimension
  2
*D13
 10
1536.409939091926
 20
1179.215095242327
 30
0.0
 11
1617.409939091926
 21
1197.965095242327
 31
0.0
 70
    32
  1
157
 71
     5
 42
162.0
  3
ISO-25
100
AcDbAlignedDimension
 13
1698.409939091926
 23
1340.199554958367
 33
0.0
 14
1536.409939091926
 24
1362.366711402464
 34
0.0
100
AcDbRotatedDimension
1001
ACAD
1000
DSTYLE
1002
{
1070
    41
1040
25.0
1070
   371
1070
    18
1002
}
  0
TEXT
  5
16C0
330
1F
100
AcDbEntity
  8
実形
370
    18
100
AcDbText
 10
1639.59004120561
 20
1254.821954924187
 30
0.0
 40
25.0
  1
15
100
AcDbText
  0
TEXT
  5
16C1
330
1F
100
AcDbEntity
  8
実形
370
    18
100
AcDbText
 10
1718.280677331299
 20
1253.571674322149
 30
0.0
 40
25.0
  1
7
100
AcDbText
  0
LINE
  5
16C2
330
1F
100
AcDbEntity
  8
実形
100
AcDbLine
 10
1698.409939091926
 20
1242.586782141369
 30
0.0
 11
1698.409939091926
 21
1298.493516178804
 31
0.0
  0
LINE
  5
16C3
330
1F
100
AcDbEntity
  8
実形
100
AcDbLine
 10
1698.409939091926
 20
1242.586782141369
 30
0.0
 11
1708.409939091926
 21
1242.586782141369
 31
0.0
  0
LINE
  5
16C4
330
1F
100
AcDbEntity
  8
実形
100
AcDbLine
 10
1708.409939091927
 20
1298.493516178804
 30
0.0
 11
1708.409939091927
 21
1242.586782141369
 31
0.0
  0
TEXT
  5
16C5
330
1F
100
AcDbEntity
  8
実形
370
    18
100
AcDbText
 10
1707.058713468154
 20
1241.048314270894
 30
0.0
 40
3.0
  1
●
100
AcDbText
  0
LINE
  5
17C5
330
1F
100
AcDbEntity
  8
実形
100
AcDbLine
 10
2784.0
 20
4.0
 30
0.0
 11
2784.0
 21
2024.0
 31
0.0
  0
LINE
  5
17C6
330
1F
100
AcDbEntity
  8
実形
100
AcDbLine
 10
2784.0
 20
4.0
 30
0.0
 11
2784.0
 21
69.0
 31
0.0
  0
TEXT
  5
17C7
330
1F
100
AcDbEntity
  8
実形
100
AcDbText
 10
2303.520900600747
 20
146.871873564718
 30
0.0
 40
35.0
  1
Jstn390ｰ390S
 72
     4
 11
2494.854233934081
 21
164.371873564718
 31
0.0
100
AcDbText
  0
LINE
  5
17C8
330
1F
100
AcDbEntity
  8
実形
100
AcDbLine
 10
2084.0
 20
2024.0
 30
0.0
 11
2784.0
 21
2024.0
 31
0.0
  0
LINE
  5
17D8
330
1F
100
AcDbEntity
  8
実形
100
AcDbLine
 10
2784.0
 20
2024.0
 30
0.0
 11
2784.000000000001
 21
1829.0
 31
0.0
  0
LINE
  5
17D9
330
1F
100
AcDbEntity
  8
実形
100
AcDbLine
 10
2784.0
 20
1829.0
 30
0.0
 11
2784.0
 21
2024.0
 31
0.0
  0
LINE
  5
17DA
330
1F
100
AcDbEntity
  8
実形
100
AcDbLine
 10
2084.0
 20
69.0
 30
0.0
 11
2784.0
 21
69.0
 31
0.0
  0
LINE
  5
17DB
330
1F
100
AcDbEntity
  8
実形
100
AcDbLine
 10
2084.0
 20
199.0
 30
0.0
 11
2784.0
 21
199.0
 31
0.0
  0
LINE
  5
17DC
330
1F
100
AcDbEntity
  8
実形
100
AcDbLine
 10
2084.0
 20
134.0
 30
0.0
 11
2784.0
 21
134.0
 31
0.0
  0
LINE
  5
17DD
330
1F
100
AcDbEntity
  8
実形
100
AcDbLine
 10
2084.0
 20
4.0
 30
0.0
 11
2084.0
 21
199.0
 31
0.0
  0
LINE
  5
17DE
330
1F
100
AcDbEntity
  8
実形
100
AcDbLine
 10
2204.0
 20
69.0
 30
0.0
 11
2784.0
 21
69.0
 31
0.0
  0
TEXT
  5
17DF
330
1F
100
AcDbEntity
  8
実形
100
AcDbText
 10
2320.255774665348
 20
16.49999999999999
 30
0.0
 40
40.0
  1
中外交易株式会社
 72
     4
 11
2508.255774665347
 21
36.5
 31
0.0
100
AcDbText
  0
HATCH
  5
17E0
330
1F
100
AcDbEntity
  8
実形
100
AcDbHatch
 10
0.0
 20
0.0
 30
0.0
210
0.0
220
0.0
230
1.0
  2
SOLID
 70
     1
 71
     1
 91
        3
 92
        1
 93
        4
 72
     2
 10
2277.166198313995
 20
36.5
 40
20.0
 50
11.64772366707341
 51
342.6561058784793
 73
     1
 72
     1
 10
2296.256852341324
 20
30.53787547858519
 11
2272.166198313995
 21
30.53787547858519
 72
     1
 10
2272.166198313995
 20
30.53787547858519
 11
2272.166198313995
 21
40.53787547858519
 72
     1
 10
2272.166198313995
 20
40.53787547858519
 11
2296.75434681301
 21
40.53787547858519
 97
        4
330
17EC
330
17E4
330
17E5
330
17E6
 92
        1
 93
        4
 72
     2
 10
2208.255774665348
 20
36.5
 40
20.0
 50
11.64772366707341
 51
342.6561058784793
 73
     1
 72
     1
 10
2227.346428692676
 20
30.53787547858519
 11
2203.255774665347
 21
30.53787547858519
 72
     1
 10
2203.255774665347
 20
30.53787547858519
 11
2203.255774665347
 21
40.53787547858519
 72
     1
 10
2203.255774665347
 20
40.53787547858519
 11
2227.843923164362
 21
40.53787547858519
 97
        4
330
17ED
330
17E9
330
17EA
330
17EB
 92
        1
 93
        5
 72
     1
 10
2265.641894042939
 20
56.5
 11
2230.641894042939
 21
56.5
 72
     1
 10
2230.641894042939
 20
56.5
 11
2230.641894042939
 21
16.5
 72
     1
 10
2230.641894042939
 20
16.5
 11
2265.641894042939
 21
16.5
 72
     1
 10
2265.641894042939
 20
16.5
 11
2230.641894042939
 21
36.5
 72
     1
 10
2230.641894042939
 20
36.5
 11
2265.641894042939
 21
56.5
 97
        5
330
17E3
330
17EF
330
17E8
330
17E7
330
17EE
 75
     0
 76
     1
 98
        1
 10
-40.0
 20
0.0
  0
TEXT
  5
17E1
330
1F
100
AcDbEntity
  8
実形
100
AcDbText
 10
2106.666666666667
 20
149.0
 30
0.0
 40
35.0
  1
品番
 72
     4
 11
2144.0
 21
166.5
 31
0.0
100
AcDbText
  0
TEXT
  5
17E2
330
1F
100
AcDbEntity
  8
実形
100
AcDbText
 10
2106.666666666667
 20
84.0
 30
0.0
 40
35.0
  1
尺度
 72
     4
 11
2144.0
 21
101.5
 31
0.0
100
AcDbText
  0
LINE
  5
17E3
102
{ACAD_REACTORS
330
17E0
102
}
330
1F
100
AcDbEntity
  8
実形
370
     5
100
AcDbLine
 10
2265.641894042939
 20
56.5
 30
0.0
 11
2230.641894042939
 21
56.5
 31
0.0
  0
LINE
  5
17E4
102
{ACAD_REACTORS
330
17E0
102
}
330
1F
100
AcDbEntity
  8
実形
370
     5
100
AcDbLine
 10
2272.166198313995
 20
30.53787547858519
 30
0.0
 11
2296.256852341324
 21
30.53787547858519
 31
0.0
  0
LINE
  5
17E5
102
{ACAD_REACTORS
330
17E0
102
}
330
1F
100
AcDbEntity
  8
実形
370
     5
100
AcDbLine
 10
2272.166198313995
 20
40.53787547858519
 30
0.0
 11
2272.166198313995
 21
30.53787547858519
 31
0.0
  0
LINE
  5
17E6
102
{ACAD_REACTORS
330
17E0
102
}
330
1F
100
AcDbEntity
  8
実形
370
     5
100
AcDbLine
 10
2296.75434681301
 20
40.53787547858519
 30
0.0
 11
2272.166198313995
 21
40.53787547858519
 31
0.0
  0
LINE
  5
17E7
102
{ACAD_REACTORS
330
17E0
102
}
330
1F
100
AcDbEntity
  8
実形
370
     5
100
AcDbLine
 10
2265.641894042939
 20
16.5
 30
0.0
 11
2230.641894042939
 21
36.5
 31
0.0
  0
LINE
  5
17E8
102
{ACAD_REACTORS
330
17E0
102
}
330
1F
100
AcDbEntity
  8
実形
370
     5
100
AcDbLine
 10
2230.641894042939
 20
16.5
 30
0.0
 11
2265.641894042939
 21
16.5
 31
0.0
  0
LINE
  5
17E9
102
{ACAD_REACTORS
330
17E0
102
}
330
1F
100
AcDbEntity
  8
実形
370
     5
100
AcDbLine
 10
2203.255774665347
 20
30.53787547858519
 30
0.0
 11
2227.346428692676
 21
30.53787547858519
 31
0.0
  0
LINE
  5
17EA
102
{ACAD_REACTORS
330
17E0
102
}
330
1F
100
AcDbEntity
  8
実形
370
     5
100
AcDbLine
 10
2203.255774665347
 20
40.53787547858519
 30
0.0
 11
2203.255774665347
 21
30.53787547858519
 31
0.0
  0
LINE
  5
17EB
102
{ACAD_REACTORS
330
17E0
102
}
330
1F
100
AcDbEntity
  8
実形
370
     5
100
AcDbLine
 10
2227.843923164362
 20
40.53787547858519
 30
0.0
 11
2203.255774665347
 21
40.53787547858519
 31
0.0
  0
ARC
  5
17EC
102
{ACAD_REACTORS
330
17E0
102
}
330
1F
100
AcDbEntity
  8
実形
370
     5
100
AcDbCircle
 10
2277.166198313995
 20
36.5
 30
0.0
 40
20.0
100
AcDbArc
 50
11.64772366707341
 51
342.6561058784793
  0
ARC
  5
17ED
102
{ACAD_REACTORS
330
17E0
102
}
330
1F
100
AcDbEntity
  8
実形
370
     5
100
AcDbCircle
 10
2208.255774665348
 20
36.5
 30
0.0
 40
20.0
100
AcDbArc
 50
11.64772366707341
 51
342.6561058784793
  0
LINE
  5
17EE
102
{ACAD_REACTORS
330
17E0
102
}
330
1F
100
AcDbEntity
  8
実形
370
     5
100
AcDbLine
 10
2230.641894042939
 20
36.5
 30
0.0
 11
2265.641894042939
 21
56.5
 31
0.0
  0
LINE
  5
17EF
102
{ACAD_REACTORS
330
17E0
102
}
330
1F
100
AcDbEntity
  8
実形
370
     5
100
AcDbLine
 10
2230.641894042939
 20
56.5
 30
0.0
 11
2230.641894042939
 21
16.5
 31
0.0
  0
TEXT
  5
17F0
330
1F
100
AcDbEntity
  8
実形
100
AcDbText
 10
2440.916666666666
 20
84.0
 30
0.0
 40
35.0
  1
1：10
 72
     4
 11
2494.0
 21
101.5
 31
0.0
100
AcDbText
  0
LINE
  5
17F1
330
1F
100
AcDbEntity
  8
実形
100
AcDbLine
 10
2784.0
 20
69.0
 30
0.0
 11
2784.0
 21
134.0
 31
0.0
  0
LINE
  5
17F2
330
1F
100
AcDbEntity
  8
実形
100
AcDbLine
 10
2784.0
 20
134.0
 30
0.0
 11
2784.0
 21
199.0
 31
0.0
  0
LINE
  5
17F3
330
1F
100
AcDbEntity
  8
実形
100
AcDbLine
 10
2784.0
 20
4.0
 30
0.0
 11
2784.0
 21
69.0
 31
0.0
  0
LINE
  5
17F4
330
1F
100
AcDbEntity
  8
実形
100
AcDbLine
 10
2203.770133950012
 20
69.0
 30
0.0
 11
2203.770133950012
 21
199.0
 31
0.0
  0
LINE
  5
1973
330
1F
100
AcDbEntity
  8
補助
100
AcDbLine
 10
2784.0
 20
1959.0
 30
0.0
 11
2019.387286519283
 21
1959.000000000001
 31
0.0
  0
LINE
  5
1974
330
1F
100
AcDbEntity
  8
補助
100
AcDbLine
 10
2784.0
 20
1894.0
 30
0.0
 11
2019.387286519283
 21
1894.0
 31
0.0
  0
LINE
  5
1975
330
1F
100
AcDbEntity
  8
補助
100
AcDbLine
 10
2202.547653420927
 20
1829.0
 30
0.0
 11
2202.547653420927
 21
2024.0
 31
0.0
  0
LINE
  5
1976
330
1F
100
AcDbEntity
  8
補助
100
AcDbLine
 10
2019.387286519283
 20
1829.0
 30
0.0
 11
2019.387286519283
 21
2024.0
 31
0.0
  0
TEXT
  5
1977
330
1F
100
AcDbEntity
  8
補助
100
AcDbText
 10
2050.295698850121
 20
1976.328571428572
 30
0.0
 40
30.0
  1
部品名
  7
明朝
 72
     4
 11
2116.124270278692
 21
1991.5
 31
0.0
100
AcDbText
  0
TEXT
  5
1978
330
1F
100
AcDbEntity
  8
補助
100
AcDbText
 10
2627.614285714286
 20
1976.071428571429
 30
0.0
 40
30.0
  1
厚さ
  7
明朝
 72
     4
 11
2671.5
 21
1991.5
 31
0.0
100
AcDbText
  0
LINE
  5
1979
330
1F
100
AcDbEntity
  8
補助
100
AcDbLine
 10
2559.0
 20
1829.0
 30
0.0
 11
2559.0
 21
2024.0
 31
0.0
  0
TEXT
  5
197A
330
1F
100
AcDbEntity
  8
補助
100
AcDbText
 10
2338.490869919937
 20
1975.947979478155
 30
0.0
 40
30.0
  1
材質
  7
明朝
 72
     4
 11
2382.376584205651
 21
1991.119408049583
 31
0.0
100
AcDbText
  0
TEXT
  5
197B
330
1F
100
AcDbEntity
  8
実形
100
AcDbText
 10
2048.227810657788
 20
1910.557142857143
 30
0.0
 40
30.0
  1
ボウル
  7
明朝
 72
     4
 11
2114.056382086359
 21
1926.5
 31
0.0
100
AcDbText
  0
TEXT
  5
197C
330
1F
100
AcDbEntity
  8
実形
100
AcDbText
 10
2594.700000000001
 20
1911.842857142857
 30
0.0
 40
30.0
  1
0.7ｍｍ
  7
明朝
 72
     4
 11
2671.500000000001
 21
1926.5
 31
0.0
100
AcDbText
  0
TEXT
  5
197D
330
1F
100
AcDbEntity
  8
実形
100
AcDbText
 10
2261.016869107866
 20
1910.728571428572
 30
0.0
 40
30.0
  1
SUS304（BA）
  7
明朝
 72
     4
 11
2392.674011965008
 21
1926.5
 31
0.0
100
AcDbText
  0
LINE
  5
197E
330
1F
100
AcDbEntity
  8
実形
100
AcDbLine
 10
119.0
 20
2024.0
 30
0.0
 11
119.0
 21
4.0
 31
0.0
  0
LINE
  5
1AE6
330
1F
100
AcDbEntity
  8
実形
100
AcDbLine
 10
1536.409939091926
 20
1693.359507154115
 30
0.0
 11
1536.409939091926
 21
1338.359507154115
 31
0.0
  0
LINE
  5
1AE8
330
1F
100
AcDbEntity
  8
実形
100
AcDbLine
 10
1548.409939091926
 20
1698.359507154115
 30
0.0
 11
1541.409939091926
 21
1698.359507154115
 31
0.0
  0
LINE
  5
1AEB
330
1F
100
AcDbEntity
  8
実形
100
AcDbLine
 10
1541.409939091926
 20
1698.359507154115
 30
0.0
 11
1536.409939091926
 21
1693.359507154115
 31
0.0
  0
LINE
  5
1AEF
330
1F
100
AcDbEntity
  8
実形
100
AcDbLine
 10
1548.409939091926
 20
1698.359507154115
 30
0.0
 11
1541.409939091926
 21
1698.359507154115
 31
0.0
  0
LINE
  5
1AF3
330
1F
100
AcDbEntity
  8
実形
100
AcDbLine
 10
1554.909939091927
 20
1671.359507154115
 30
0.0
 11
1554.909939091926
 21
1338.359507154115
 31
0.0
  0
LINE
  5
1AF4
330
1F
100
AcDbEntity
  8
実形
100
AcDbLine
 10
1548.409939091926
 20
1671.359507154115
 30
0.0
 11
1554.909939091927
 21
1671.359507154115
 31
0.0
  0
LINE
  5
1AF5
330
1F
100
AcDbEntity
  8
実形
100
AcDbLine
 10
1548.409939091925
 20
1338.359507154115
 30
0.0
 11
1548.409939091927
 21
1668.359507154115
 31
0.0
  0
LINE
  5
1AF6
330
1F
100
AcDbEntity
  8
実形
100
AcDbLine
 10
1548.409939091925
 20
1308.359507154115
 30
0.0
 11
1548.409939091927
 21
1668.359507154115
 31
0.0
  0
LINE
  5
1AF7
330
1F
100
AcDbEntity
  8
実形
100
AcDbLine
 10
1554.909939091926
 20
1335.359507154115
 30
0.0
 11
1554.909939091927
 21
1668.359507154115
 31
0.0
  0
LINE
  5
1AF8
330
1F
100
AcDbEntity
  8
実形
100
AcDbLine
 10
1536.409939091926
 20
1313.359507154115
 30
0.0
 11
1536.409939091927
 21
1668.359507154115
 31
0.0
  0
LINE
  5
1AF9
330
1F
100
AcDbEntity
  8
実形
100
AcDbLine
 10
1548.409939091925
 20
1335.359507154115
 30
0.0
 11
1554.909939091926
 21
1335.359507154115
 31
0.0
  0
LINE
  5
1AFA
330
1F
100
AcDbEntity
  8
実形
100
AcDbLine
 10
1548.409939091925
 20
1308.359507154115
 30
0.0
 11
1541.409939091925
 21
1308.359507154115
 31
0.0
  0
LINE
  5
1AFB
330
1F
100
AcDbEntity
  8
実形
100
AcDbLine
 10
1548.409939091925
 20
1308.359507154115
 30
0.0
 11
1541.409939091925
 21
1308.359507154115
 31
0.0
  0
LINE
  5
1AFC
330
1F
100
AcDbEntity
  8
実形
100
AcDbLine
 10
1541.409939091925
 20
1308.359507154115
 30
0.0
 11
1536.409939091925
 21
1313.359507154115
 31
0.0
  0
TEXT
  5
1B05
330
1F
100
AcDbEntity
  8
実形
370
    18
100
AcDbText
 10
1470.664515372803
 20
1768.987683400657
 30
0.0
 40
25.0
  1
5C
100
AcDbText
  0
LEADER
  5
1B0F
330
1F
100
AcDbEntity
  8
実形
100
AcDbLeader
  3
ISO-25
 40
25.0
 41
16.66666666666666
 76
     2
 10
1529.518962992492
 20
1706.789952880472
 30
0.0
 10
1502.460159131819
 20
1750.471678042288
 30
0.0
213
0.0
223
-12.5
233
0.0
1001
ACAD
1000
DSTYLE
1002
{
1070
    41
1040
25.0
1070
   147
1040
6.25
1070
    77
1070
     0
1070
    73
1070
     1
1070
    74
1070
     1
1070
   279
1070
     1
1070
   342
1005
DA
1002
}
  0
LEADER
  5
1B19
330
1F
100
AcDbEntity
  8
実形
100
AcDbLeader
  3
ISO-25
 40
25.0
 41
16.66666666666666
 76
     2
 10
1529.518962992492
 20
1299.929061427758
 30
0.0
 10
1502.460159131819
 20
1256.247336265941
 30
0.0
213
0.0
223
12.5
233
0.0
1001
ACAD
1000
DSTYLE
1002
{
1070
    41
1040
25.0
1070
   147
1040
6.25
1070
    77
1070
     0
1070
    73
1070
     1
1070
    74
1070
     1
1070
   279
1070
     1
1070
   342
1005
DA
1002
}
  0
TEXT
  5
1B22
330
1F
100
AcDbEntity
  8
実形
370
    18
100
AcDbText
 10
1460.257671917579
 20
1218.209601116796
 30
0.0
 40
25.0
  1
5C
100
AcDbText
  0
LINE
  5
1B5C
330
1F
100
AcDbEntity
  8
実形
100
AcDbLine
 10
1095.089224798074
 20
955.2344549922473
 30
0.0
 11
765.0892247980741
 21
955.2344549922475
 31
0.0
  0
LINE
  5
1B5D
330
1F
100
AcDbEntity
  8
実形
100
AcDbLine
 10
1125.089224798074
 20
955.2344549922469
 30
0.0
 11
765.0892247980741
 21
955.2344549922475
 31
0.0
  0
LINE
  5
1B5E
330
1F
100
AcDbEntity
  8
実形
100
AcDbLine
 10
1098.089224798074
 20
948.7344549922468
 30
0.0
 11
765.0892247980741
 21
948.7344549922475
 31
0.0
  0
LINE
  5
1B5F
330
1F
100
AcDbEntity
  8
実形
100
AcDbLine
 10
1120.089224798075
 20
967.234454992247
 30
0.0
 11
765.0892247980741
 21
967.2344549922474
 31
0.0
  0
LINE
  5
1B60
330
1F
100
AcDbEntity
  8
実形
100
AcDbLine
 10
1098.089224798074
 20
955.2344549922473
 30
0.0
 11
1098.089224798074
 21
948.7344549922468
 31
0.0
  0
LINE
  5
1B61
330
1F
100
AcDbEntity
  8
実形
100
AcDbLine
 10
1125.089224798074
 20
955.2344549922473
 30
0.0
 11
1125.089224798074
 21
962.2344549922475
 31
0.0
  0
LINE
  5
1B62
330
1F
100
AcDbEntity
  8
実形
100
AcDbLine
 10
1125.089224798074
 20
955.2344549922473
 30
0.0
 11
1125.089224798074
 21
962.2344549922477
 31
0.0
  0
LINE
  5
1B63
330
1F
100
AcDbEntity
  8
実形
100
AcDbLine
 10
1125.089224798074
 20
962.2344549922472
 30
0.0
 11
1120.089224798074
 21
967.2344549922472
 31
0.0
  0
LINE
  5
1B64
330
1F
100
AcDbEntity
  8
実形
100
AcDbLine
 10
765.0892247980745
 20
955.2344549922482
 30
0.0
 11
1095.089224798075
 21
955.2344549922466
 31
0.0
  0
LINE
  5
1B65
330
1F
100
AcDbEntity
  8
実形
100
AcDbLine
 10
735.089224798075
 20
955.2344549922482
 30
0.0
 11
1095.089224798075
 21
955.2344549922466
 31
0.0
  0
LINE
  5
1B66
330
1F
100
AcDbEntity
  8
実形
100
AcDbLine
 10
762.0892247980746
 20
948.7344549922477
 30
0.0
 11
1095.089224798075
 21
948.7344549922466
 31
0.0
  0
LINE
  5
1B67
330
1F
100
AcDbEntity
  8
実形
100
AcDbLine
 10
740.0892247980741
 20
967.2344549922481
 30
0.0
 11
1095.089224798075
 21
967.2344549922465
 31
0.0
  0
LINE
  5
1B69
330
1F
100
AcDbEntity
  8
実形
100
AcDbLine
 10
1095.089224798075
 20
955.2344549922473
 30
0.0
 11
765.0892247980745
 21
955.2344549922473
 31
0.0
  0
LINE
  5
1B6A
330
1F
100
AcDbEntity
  8
実形
100
AcDbLine
 10
1095.089224798075
 20
955.2344549922473
 30
0.0
 11
765.0892247980745
 21
955.2344549922473
 31
0.0
  0
LINE
  5
1B6B
330
1F
100
AcDbEntity
  8
実形
100
AcDbLine
 10
765.0892247980745
 20
955.2344549922473
 30
0.0
 11
1095.089224798075
 21
955.2344549922473
 31
0.0
  0
LINE
  5
1B6C
330
1F
100
AcDbEntity
  8
実形
100
AcDbLine
 10
765.089224798075
 20
955.2344549922473
 30
0.0
 11
1095.089224798075
 21
955.2344549922475
 31
0.0
  0
LINE
  5
1B6D
330
1F
100
AcDbEntity
  8
実形
100
AcDbLine
 10
735.089224798075
 20
955.2344549922469
 30
0.0
 11
1095.089224798075
 21
955.2344549922475
 31
0.0
  0
LINE
  5
1B6E
330
1F
100
AcDbEntity
  8
実形
100
AcDbLine
 10
762.0892247980746
 20
948.7344549922468
 30
0.0
 11
1095.089224798075
 21
948.7344549922475
 31
0.0
  0
LINE
  5
1B6F
330
1F
100
AcDbEntity
  8
実形
100
AcDbLine
 10
740.0892247980741
 20
967.234454992247
 30
0.0
 11
1095.089224798075
 21
967.2344549922474
 31
0.0
  0
LINE
  5
1B70
330
1F
100
AcDbEntity
  8
実形
100
AcDbLine
 10
762.0892247980751
 20
955.2344549922473
 30
0.0
 11
762.0892247980746
 21
948.7344549922468
 31
0.0
  0
LINE
  5
1B71
330
1F
100
AcDbEntity
  8
実形
100
AcDbLine
 10
735.0892247980746
 20
955.2344549922473
 30
0.0
 11
735.0892247980746
 21
962.2344549922475
 31
0.0
  0
LINE
  5
1B72
330
1F
100
AcDbEntity
  8
実形
100
AcDbLine
 10
735.089224798075
 20
955.2344549922473
 30
0.0
 11
735.089224798075
 21
962.2344549922477
 31
0.0
  0
LINE
  5
1B73
330
1F
100
AcDbEntity
  8
実形
100
AcDbLine
 10
735.0892247980746
 20
962.2344549922472
 30
0.0
 11
740.0892247980745
 21
967.2344549922472
 31
0.0
  0
LINE
  5
1B74
330
1F
100
AcDbEntity
  8
実形
100
AcDbLine
 10
1095.089224798075
 20
955.2344549922482
 30
0.0
 11
765.0892247980745
 21
955.2344549922466
 31
0.0
  0
LINE
  5
1B75
330
1F
100
AcDbEntity
  8
実形
100
AcDbLine
 10
1125.089224798074
 20
955.2344549922482
 30
0.0
 11
765.0892247980745
 21
955.2344549922466
 31
0.0
  0
LINE
  5
1B76
330
1F
100
AcDbEntity
  8
実形
100
AcDbLine
 10
1098.089224798074
 20
948.7344549922477
 30
0.0
 11
765.0892247980745
 21
948.7344549922466
 31
0.0
  0
LINE
  5
1B77
330
1F
100
AcDbEntity
  8
実形
100
AcDbLine
 10
1120.089224798075
 20
967.2344549922481
 30
0.0
 11
765.0892247980745
 21
967.2344549922465
 31
0.0
  0
LEADER
  5
1BFA
330
1F
100
AcDbEntity
  8
実形
100
AcDbLeader
  3
ISO-25
 40
25.0
 41
16.66666666666666
 76
     2
 10
726.3624215484969
 20
970.7335442943151
 30
0.0
 10
688.0459524487096
 20
1011.833254078401
 30
0.0
213
0.0
223
12.5
233
0.0
1001
ACAD
1000
DSTYLE
1002
{
1070
    41
1040
25.0
1070
   147
1040
6.25
1070
    77
1070
     0
1070
    73
1070
     1
1070
    74
1070
     1
1070
   279
1070
     1
1070
   342
1005
DA
1002
}
  0
LEADER
  5
1BFB
330
1F
100
AcDbEntity
  8
実形
100
AcDbLeader
  3
ISO-25
 40
25.0
 41
16.66666666666666
 76
     2
 10
1133.816028047652
 20
970.7335442943159
 30
0.0
 10
1172.132497147439
 20
1011.833254078402
 30
0.0
211
-1.0
221
-0.0000000000000047
231
0.0
213
-0.0000000000000593
223
12.5
233
0.0
1001
ACAD
1000
DSTYLE
1002
{
1070
    41
1040
25.0
1070
   147
1040
6.25
1070
    77
1070
     0
1070
    73
1070
     1
1070
    74
1070
     1
1070
   279
1070
     1
1070
   342
1005
DA
1002
}
  0
TEXT
  5
1C04
330
1F
100
AcDbEntity
  8
実形
370
    18
100
AcDbText
 10
644.5727282519937
 20
1025.465568884972
 30
0.0
 40
25.0
  1
5C
100
AcDbText
  0
TEXT
  5
1C0C
330
1F
100
AcDbEntity
  8
実形
370
    18
100
AcDbText
 10
1162.805361987356
 20
1022.959703634671
 30
0.0
 40
25.0
  1
5C
100
AcDbText
  0
LINE
  5
1E9D
330
1F
100
AcDbEntity
  8
実形
100
AcDbLine
 10
843.4099390919266
 20
1358.359507154115
 30
0.0
 11
1023.409939091926
 21
1358.359507154115
 31
0.0
  0
ARC
  5
1E9E
330
1F
100
AcDbEntity
  8
実形
100
AcDbCircle
 10
1023.409939091926
 20
1413.359507154115
 30
0.0
 40
55.0
100
AcDbArc
 50
270.0
 51
0.0000000000000636
  0
LINE
  5
1E9F
330
1F
100
AcDbEntity
  8
実形
100
AcDbLine
 10
1078.409939091926
 20
1413.359507154115
 30
0.0
 11
1078.409939091926
 21
1593.359507154115
 31
0.0
  0
ARC
  5
1EA0
330
1F
100
AcDbEntity
  8
実形
100
AcDbCircle
 10
1023.409939091926
 20
1593.359507154115
 30
0.0
 40
55.0
100
AcDbArc
 50
0.0000000000000509
 51
90.0
  0
LINE
  5
1EA1
330
1F
100
AcDbEntity
  8
実形
100
AcDbLine
 10
1023.409939091926
 20
1648.359507154115
 30
0.0
 11
843.4099390919266
 21
1648.359507154115
 31
0.0
  0
ARC
  5
1EA2
330
1F
100
AcDbEntity
  8
実形
100
AcDbCircle
 10
843.4099390919266
 20
1593.359507154115
 30
0.0
 40
55.0
100
AcDbArc
 50
90.0
 51
180.0
  0
LINE
  5
1EA3
330
1F
100
AcDbEntity
  8
実形
100
AcDbLine
 10
788.4099390919266
 20
1593.359507154115
 30
0.0
 11
788.4099390919266
 21
1413.359507154115
 31
0.0
  0
ARC
  5
1EA4
330
1F
100
AcDbEntity
  8
実形
100
AcDbCircle
 10
843.4099390919266
 20
1413.359507154115
 30
0.0
 40
55.0
100
AcDbArc
 50
179.9999999999999
 51
270.0
  0
LINE
  5
1EA5
330
1F
100
AcDbEntity
  8
実形
100
AcDbLine
 10
1128.409939091926
 20
1313.359507154115
 30
0.0
 11
1128.409939091927
 21
1693.359507154115
 31
0.0
  0
LINE
  5
1EA7
330
1F
100
AcDbEntity
  8
実形
100
AcDbLine
 10
738.4099390919264
 20
1308.359507154114
 30
0.0
 11
1123.409939091927
 21
1308.359507154115
 31
0.0
  0
LINE
  5
1EA8
330
1F
100
AcDbEntity
  8
実形
100
AcDbLine
 10
738.4099390919264
 20
1698.359507154114
 30
0.0
 11
738.4099390919264
 21
1308.359507154114
 31
0.0
  0
LINE
  5
1EA9
330
1F
100
AcDbEntity
  8
実形
100
AcDbLine
 10
1123.409939091926
 20
1698.359507154115
 30
0.0
 11
738.4099390919264
 21
1698.359507154114
 31
0.0
  0
LINE
  5
1EAF
330
1F
100
AcDbEntity
  8
実形
100
AcDbLine
 10
1123.409939091926
 20
1698.359507154115
 30
0.0
 11
1128.409939091926
 21
1693.359507154115
 31
0.0
  0
LINE
  5
1EB0
330
1F
100
AcDbEntity
  8
実形
100
AcDbLine
 10
743.4099390919266
 20
1698.359507154115
 30
0.0
 11
738.4099390919266
 21
1693.359507154115
 31
0.0
  0
LINE
  5
1EB1
330
1F
100
AcDbEntity
  8
実形
100
AcDbLine
 10
743.4099390919266
 20
1308.359507154115
 30
0.0
 11
738.4099390919266
 21
1313.359507154115
 31
0.0
  0
LINE
  5
1EB2
330
1F
100
AcDbEntity
  8
実形
100
AcDbLine
 10
1123.409939091927
 20
1308.359507154115
 30
0.0
 11
1128.409939091927
 21
1313.359507154115
 31
0.0
  0
LINE
  5
1EBC
330
1F
100
AcDbEntity
  8
実形
  6
ACAD_ISO08W100
 48
0.5
370
    15
100
AcDbLine
 10
1045.517040091914
 20
1455.058846082614
 30
0.0
 11
1169.952052149056
 21
1455.058846082614
 31
0.0
  0
TEXT
  5
1EC5
330
1F
100
AcDbEntity
  8
実形
370
    18
100
AcDbText
 10
1020.030350561185
 20
1441.570083060897
 30
0.0
 40
25.0
  1
A
100
AcDbText
  0
TEXT
  5
1ECE
330
1F
100
AcDbEntity
  8
実形
370
    18
100
AcDbText
 10
1175.948933335864
 20
1440.071326171992
 30
0.0
 40
25.0
  1
A
100
AcDbText
  0
LINE
  5
1ECF
330
1F
100
AcDbEntity
  8
実形
100
AcDbLine
 10
1192.172272393077
 20
1462.328047304481
 30
0.0
 11
1197.364263436929
 21
1467.518435868464
 31
0.0
  0
DIMENSION
  5
1ED2
330
1F
100
AcDbEntity
  8
実形
100
AcDbDimension
  2
*D23
 10
1128.409939091926
 20
1212.707225379389
 30
0.0
 11
1105.30166751135
 21
1212.707225379389
 31
0.0
 70
   160
 71
     5
 42
50.0
  3
ISO-25
100
AcDbAlignedDimension
 13
1078.409939091926
 23
1308.359507154115
 33
0.0
 14
1128.409939091926
 24
1308.359507154115
 34
0.0
100
AcDbRotatedDimension
1001
ACAD
1000
DSTYLE
1002
{
1070
   371
1070
    18
1070
   372
1070
    18
1002
}
  0
DIMENSION
  5
1EF2
330
1F
100
AcDbEntity
  8
実形
100
AcDbDimension
  2
*D24
 10
788.4099390919266
 20
1210.992113302725
 30
0.0
 11
763.4099390919266
 21
1229.742113302725
 31
0.0
 70
    32
 71
     5
 42
50.00000000000011
  3
ISO-25
100
AcDbAlignedDimension
 13
738.4099390919264
 23
1313.359507154115
 33
0.0
 14
788.4099390919266
 24
1313.359507154115
 34
0.0
100
AcDbRotatedDimension
1001
ACAD
1000
DSTYLE
1002
{
1070
   371
1070
    18
1070
   372
1070
    18
1002
}
  0
DIMENSION
  5
1F33
330
1F
100
AcDbEntity
  8
実形
100
AcDbDimension
  2
*D25
 10
1128.409939091926
 20
1160.936821390689
 30
0.0
 11
933.4099390919263
 21
1179.686821390689
 31
0.0
 70
    32
 71
     5
 42
389.9999999999999
  3
ISO-25
100
AcDbAlignedDimension
 13
738.4099390919264
 23
1279.477567875047
 33
0.0
 14
1128.409939091926
 24
1283.045046506731
 34
0.0
100
AcDbRotatedDimension
1001
ACAD
1000
DSTYLE
1002
{
1070
   371
1070
    18
1070
   372
1070
    18
1002
}
  0
DIMENSION
  5
1F5D
330
1F
100
AcDbEntity
  8
実形
100
AcDbDimension
  2
*D26
 10
636.0627967005666
 20
1308.359507154114
 30
0.0
 11
617.3127967005664
 21
1333.359507154115
 31
0.0
 70
    32
 71
     5
 42
50.00000000000023
  3
ISO-25
100
AcDbAlignedDimension
 13
738.4099390919264
 23
1358.359507154115
 33
0.0
 14
738.4099390919264
 24
1308.359507154114
 34
0.0
 50
90.0
100
AcDbRotatedDimension
1001
ACAD
1000
DSTYLE
1002
{
1070
   371
1070
    18
1070
   372
1070
    18
1002
}
  0
DIMENSION
  5
1F6A
330
1F
100
AcDbEntity
  8
実形
100
AcDbDimension
  2
*D27
 10
636.0627967005669
 20
1648.359507154115
 30
0.0
 11
636.0627967005666
 21
1673.359507154115
 31
0.0
 70
   160
 71
     5
 42
49.99999999999977
  3
ISO-25
100
AcDbAlignedDimension
 13
738.4099390919264
 23
1698.359507154114
 33
0.0
 14
738.4099390919264
 24
1648.359507154115
 34
0.0
 50
90.0
100
AcDbRotatedDimension
1001
ACAD
1000
DSTYLE
1002
{
1070
   371
1070
    18
1070
   372
1070
    18
1002
}
  0
DIMENSION
  5
1F82
330
1F
100
AcDbEntity
  8
実形
100
AcDbDimension
  2
*D28
 10
565.74507771964
 20
1308.359507154114
 30
0.0
 11
546.9950777196397
 21
1503.359507154115
 31
0.0
 70
    32
 71
     5
 42
390.0
  3
ISO-25
100
AcDbAlignedDimension
 13
738.4099390919264
 23
1698.359507154114
 33
0.0
 14
738.4099390919264
 24
1308.359507154114
 34
0.0
 50
90.0
100
AcDbRotatedDimension
1001
ACAD
1000
DSTYLE
1002
{
1070
   371
1070
    18
1070
   372
1070
    18
1002
}
  0
LINE
  5
1FA9
330
1F
100
AcDbEntity
  8
実形
100
AcDbLine
 10
1145.520456118743
 20
1698.359507154115
 30
0.0
 11
1196.267245878226
 21
1698.359507154115
 31
0.0
  0
LINE
  5
1FAA
330
1F
100
AcDbEntity
  8
実形
100
AcDbLine
 10
1145.520456118743
 20
1691.931830067476
 30
0.0
 11
1195.520456118743
 21
1691.931830067476
 31
0.0
  0
LINE
  5
1FAC
330
1F
100
AcDbEntity
  8
実形
100
AcDbLine
 10
1128.409939091926
 20
1713.730005784993
 30
0.0
 11
1128.409939091926
 21
1763.730005784993
 31
0.0
  0
LINE
  5
1FAD
330
1F
100
AcDbEntity
  8
実形
100
AcDbLine
 10
1121.979939091926
 20
1713.730005784993
 30
0.0
 11
1121.979939091926
 21
1763.730005784993
 31
0.0
  0
LINE
  5
1FAE
330
1F
100
AcDbEntity
  8
実形
100
AcDbLine
 10
1195.520456118743
 20
1691.931830067476
 30
0.0
 11
1195.520456118743
 21
1698.359507154115
 31
0.0
  0
LINE
  5
1FC4
330
1F
100
AcDbEntity
  8
実形
100
AcDbLine
 10
1121.979939091927
 20
1763.730005784993
 30
0.0
 11
1128.409939091927
 21
1763.730005784993
 31
0.0
  0
TEXT
  5
1FD0
330
1F
100
AcDbEntity
  8
実形
370
    18
100
AcDbText
 10
1118.236686079029
 20
1776.799135094097
 30
0.0
 40
25.0
  1
5
100
AcDbText
  0
TEXT
  5
1FED
330
1F
100
AcDbEntity
  8
実形
370
    18
100
AcDbText
 10
1185.731048540506
 20
1772.124291840484
 30
0.0
 40
25.0
  1
5C
100
AcDbText
  0
LEADER
  5
1FF6
330
1F
100
AcDbEntity
  8
実形
100
AcDbLeader
  3
ISO-25
 40
25.0
 41
16.66666666666666
 76
     2
 10
1139.357070239583
 20
1703.763533177056
 30
0.0
 10
1195.949050836628
 20
1761.123712512999
 30
0.0
213
0.0
223
-12.5
233
0.0
1001
ACAD
1000
DSTYLE
1002
{
1070
    41
1040
25.0
1070
   147
1040
6.25
1070
    77
1070
     0
1070
    73
1070
     1
1070
    74
1070
     1
1070
   279
1070
     1
1070
   342
1005
DA
1002
}
  0
TEXT
  5
2006
330
1F
100
AcDbEntity
  8
実形
370
    18
100
AcDbText
 10
1238.280652699129
 20
1687.363000508876
 30
0.0
 40
25.0
  1
5
 50
90.0
100
AcDbText
  0
CIRCLE
  5
200F
330
1F
100
AcDbEntity
  8
実形
100
AcDbCircle
 10
1195.595676430398
 20
1691.831650918937
 30
0.0
 40
3.0
  0
HATCH
  5
201B
330
1F
100
AcDbEntity
  8
実形
100
AcDbHatch
 10
0.0
 20
0.0
 30
0.0
210
0.0
220
0.0
230
1.0
  2
SOLID
 70
     1
 71
     0
 91
        2
 92
        7
 72
     1
 73
     1
 93
        5
 10
1198.595676430398
 20
1691.831650918937
 42
0.4215773900128738
 10
1195.520456118743
 20
1694.830707754796
 42
0.0
 10
1195.520456118743
 20
1691.931830067477
 42
0.0
 10
1192.597349540581
 20
1691.931830067477
 42
0.008350008729447
 10
1192.595676430398
 20
1691.831650918937
 42
1.0
 97
        0
 92
       23
 72
     1
 73
     1
 93
        3
 10
1195.520456118743
 20
1694.830707754796
 42
0.3971884163904237
 10
1192.597349540581
 20
1691.931830067476
 42
0.0
 10
1195.520456118743
 20
1691.931830067476
 42
0.0
 97
        0
 75
     0
 76
     1
 47
0.0692370396617612
 98
        2
 10
1196.295207433412
 20
1691.263464305084
 10
1194.355972919687
 20
1693.271331346173
  0
HATCH
  5
2025
330
1F
100
AcDbEntity
  8
実形
100
AcDbHatch
 10
0.0
 20
0.0
 30
0.0
210
0.0
220
0.0
230
1.0
  2
SOLID
 70
     1
 71
     0
 91
        2
 92
        7
 72
     1
 73
     1
 93
        5
 10
1198.693758109576
 20
1698.486923262138
 42
0.4215773900128738
 10
1195.618537797921
 20
1701.485980097998
 42
0.0
 10
1195.618537797921
 20
1698.587102410678
 42
0.0
 10
1192.695431219759
 20
1698.587102410678
 42
0.008350008729447
 10
1192.693758109576
 20
1698.486923262138
 42
1.0
 97
        0
 92
       23
 72
     1
 73
     1
 93
        3
 10
1195.618537797921
 20
1701.485980097998
 42
0.3971884163904237
 10
1192.695431219759
 20
1698.587102410678
 42
0.0
 10
1195.618537797921
 20
1698.587102410678
 42
0.0
 97
        0
 75
     0
 76
     1
 47
0.0692370396617612
 98
        2
 10
1196.39328911259
 20
1697.918736648286
 10
1194.454054598865
 20
1699.926603689375
  0
CIRCLE
  5
2026
330
1F
100
AcDbEntity
  8
実形
100
AcDbCircle
 10
1195.693758109576
 20
1698.486923262138
 30
0.0
 40
3.0
  0
HATCH
  5
202F
330
1F
100
AcDbEntity
  8
実形
100
AcDbHatch
 10
0.0
 20
0.0
 30
0.0
210
0.0
220
0.0
230
1.0
  2
SOLID
 70
     1
 71
     0
 91
        2
 92
        7
 72
     1
 73
     1
 93
        5
 10
1124.87452169076
 20
1763.791763287039
 42
0.4215773900128738
 10
1121.799301379104
 20
1766.790820122899
 42
0.0
 10
1121.799301379104
 20
1763.891942435579
 42
0.0
 10
1118.876194800943
 20
1763.891942435579
 42
0.008350008729447
 10
1118.87452169076
 20
1763.791763287039
 42
1.0
 97
        0
 92
       23
 72
     1
 73
     1
 93
        3
 10
1121.799301379105
 20
1766.790820122899
 42
0.3971884163904237
 10
1118.876194800943
 20
1763.891942435579
 42
0.0
 10
1121.799301379105
 20
1763.891942435579
 42
0.0
 97
        0
 75
     0
 76
     1
 47
0.0692370396617612
 98
        2
 10
1122.574052693774
 20
1763.223576673186
 10
1120.634818180048
 20
1765.231443714276
  0
CIRCLE
  5
2030
330
1F
100
AcDbEntity
  8
実形
100
AcDbCircle
 10
1121.87452169076
 20
1763.791763287039
 30
0.0
 40
3.0
  0
HATCH
  5
2039
330
1F
100
AcDbEntity
  8
実形
100
AcDbHatch
 10
0.0
 20
0.0
 30
0.0
210
0.0
220
0.0
230
1.0
  2
SOLID
 70
     1
 71
     0
 91
        2
 92
        7
 72
     1
 73
     1
 93
        5
 10
1131.249965052705
 20
1763.791763287039
 42
0.4215773900128738
 10
1128.17474474105
 20
1766.790820122899
 42
0.0
 10
1128.17474474105
 20
1763.891942435579
 42
0.0
 10
1125.251638162888
 20
1763.891942435579
 42
0.008350008729447
 10
1125.249965052705
 20
1763.791763287039
 42
1.0
 97
        0
 92
       23
 72
     1
 73
     1
 93
        3
 10
1128.17474474105
 20
1766.790820122899
 42
0.3971884163904237
 10
1125.251638162888
 20
1763.891942435579
 42
0.0
 10
1128.17474474105
 20
1763.891942435579
 42
0.0
 97
        0
 75
     0
 76
     1
 47
0.0692370396617612
 98
        2
 10
1128.949496055719
 20
1763.223576673186
 10
1127.010261541993
 20
1765.231443714276
  0
CIRCLE
  5
203A
330
1F
100
AcDbEntity
  8
実形
100
AcDbCircle
 10
1128.249965052705
 20
1763.791763287039
 30
0.0
 40
3.0
  0
ARC
  5
21E4
330
1F
100
AcDbEntity
  8
実形
100
AcDbCircle
 10
1867.899627132798
 20
691.7745986296067
 30
0.0
 40
50.0
100
AcDbArc
 50
90.0
 51
180.0
  0
LINE
  5
21E6
330
1F
100
AcDbEntity
  8
実形
100
AcDbLine
 10
2317.899627132798
 20
621.7745986296067
 30
0.0
 11
2217.899627132798
 21
621.7745986296067
 31
0.0
  0
LINE
  5
21E7
330
1F
100
AcDbEntity
  8
実形
100
AcDbLine
 10
2167.899627132798
 20
621.7745986296067
 30
0.0
 11
2047.899627132798
 21
621.7745986296067
 31
0.0
  0
LINE
  5
21E8
330
1F
100
AcDbEntity
  8
実形
100
AcDbLine
 10
1867.899627132798
 20
621.7745986296067
 30
0.0
 11
1817.899627132798
 21
621.7745986296067
 31
0.0
  0
LINE
  5
21E9
330
1F
100
AcDbEntity
  8
実形
100
AcDbLine
 10
2024.708766078408
 20
661.7745986296068
 30
0.0
 11
1874.978098369962
 21
661.7745986296068
 31
0.0
  0
LINE
  5
21EA
330
1F
100
AcDbEntity
  8
実形
100
AcDbLine
 10
2024.708766078408
 20
651.7745986296067
 30
0.0
 11
1884.978098369962
 21
651.7745986296067
 31
0.0
  0
LINE
  5
21EB
330
1F
100
AcDbEntity
  8
実形
100
AcDbLine
 10
2047.899627132798
 20
671.7745986296067
 30
0.0
 11
2037.899627132798
 21
671.7745986296067
 31
0.0
  0
LINE
  5
21EC
330
1F
100
AcDbEntity
  8
実形
100
AcDbLine
 10
1997.899627132798
 20
671.7745986296067
 30
0.0
 11
1867.899627132798
 21
671.7745986296067
 31
0.0
  0
LINE
  5
21ED
330
1F
100
AcDbEntity
  8
実形
100
AcDbLine
 10
1817.899627132798
 20
621.7745986296067
 30
0.0
 11
1817.899627132798
 21
691.7745986296067
 31
0.0
  0
LINE
  5
21EE
330
1F
100
AcDbEntity
  8
実形
100
AcDbLine
 10
1867.899627132798
 20
621.7745986296067
 30
0.0
 11
1867.899627132798
 21
671.7745986296067
 31
0.0
  0
LINE
  5
21EF
330
1F
100
AcDbEntity
  8
実形
100
AcDbLine
 10
1897.899627132798
 20
621.7745986296067
 30
0.0
 11
1897.899627132798
 21
643.3475735696974
 31
0.0
  0
LINE
  5
21F0
330
1F
100
AcDbEntity
  8
実形
100
AcDbLine
 10
1987.899627132798
 20
621.7745986296067
 30
0.0
 11
1987.899627132798
 21
643.3475735696974
 31
0.0
  0
LINE
  5
21F1
330
1F
100
AcDbEntity
  8
実形
100
AcDbLine
 10
2047.899627132798
 20
621.7745986296067
 30
0.0
 11
2047.899627132798
 21
671.7745986296067
 31
0.0
  0
TEXT
  5
21F3
330
1F
100
AcDbEntity
  8
実形
100
AcDbText
 10
2436.19222783677
 20
492.1033735120927
 30
0.0
 40
30.0
  1
糸面
 11
2436.19222783677
 21
488.1033735120927
 31
0.0
100
AcDbText
 73
     1
  0
TEXT
  5
21F9
330
1F
100
AcDbEntity
  8
実形
100
AcDbText
 10
2458.548718828048
 20
823.8525740430549
 30
0.0
 40
30.0
  1
5C
 11
2458.548718828048
 21
819.852574043055
 31
0.0
100
AcDbText
 73
     1
  0
ARC
  5
21FA
330
1F
100
AcDbEntity
  8
実形
100
AcDbCircle
 10
2192.899627132798
 20
621.7745986296067
 30
0.0
 40
25.0
100
AcDbArc
 50
0.0
 51
180.0
  0
TEXT
  5
21FD
330
1F
100
AcDbEntity
  8
実形
100
AcDbText
 10
1645.151229950476
 20
830.9405545710633
 30
0.0
 40
30.0
  1
5R
 11
1645.151229950476
 21
826.9405545710633
 31
0.0
100
AcDbText
 73
     1
  0
TEXT
  5
21FF
330
1F
100
AcDbEntity
  8
実形
100
AcDbText
 10
1600.549634237201
 20
510.2514344061565
 30
0.0
 40
30.0
  1
糸面
 11
1600.549634237201
 21
506.2514344061565
 31
0.0
100
AcDbText
 73
     1
  0
ARC
  5
2202
330
1F
100
AcDbEntity
  8
実形
100
AcDbCircle
 10
2017.899627132798
 20
671.7745986296067
 30
0.0
 40
20.0
100
AcDbArc
 50
0.0
 51
180.0
  0
LINE
  5
2206
330
1F
100
AcDbEntity
  8
実形
100
AcDbLine
 10
1966.804648729118
 20
691.7745986296067
 30
0.0
 11
1966.804648729118
 21
671.7745986296067
 31
0.0
  0
TEXT
  5
2207
330
1F
100
AcDbEntity
  8
実形
  6
HIDDEN2
100
AcDbText
 10
1972.525610607851
 20
684.4380022953536
 30
0.0
 40
13.0
  1
● 
 71
     2
100
AcDbText
  0
TEXT
  5
2208
330
1F
100
AcDbEntity
  8
実形
  6
HIDDEN2
100
AcDbText
 10
1972.903799752736
 20
665.5344066124853
 30
0.0
 40
13.0
  1
● 
 71
     2
100
AcDbText
  0
LINE
  5
220A
330
1F
100
AcDbEntity
  8
実形
100
AcDbLine
 10
1897.899627132798
 20
643.3475735696974
 30
0.0
 11
1897.899627132798
 21
543.3475735696974
 31
0.0
  0
LINE
  5
220B
330
1F
100
AcDbEntity
  8
実形
100
AcDbLine
 10
1897.899627132798
 20
543.3475735696974
 30
0.0
 11
2077.899627132798
 21
543.3475735696974
 31
0.0
  0
LINE
  5
220D
330
1F
100
AcDbEntity
  8
実形
100
AcDbLine
 10
2077.899627132798
 20
613.3475735696975
 30
0.0
 11
1987.899627132798
 21
613.3475735696975
 31
0.0
  0
LINE
  5
220E
330
1F
100
AcDbEntity
  8
実形
100
AcDbLine
 10
1987.899627132798
 20
613.3475735696975
 30
0.0
 11
1987.899627132798
 21
643.3475735696974
 31
0.0
  0
LINE
  5
220F
330
1F
100
AcDbEntity
  8
実形
100
AcDbLine
 10
1987.899627132798
 20
643.3475735696974
 30
0.0
 11
1897.899627132798
 21
643.3475735696974
 31
0.0
  0
LINE
  5
2210
330
1F
100
AcDbEntity
  8
実形
100
AcDbLine
 10
1874.978098369962
 20
661.7745986296068
 30
0.0
 11
1874.978098369962
 21
352.1897662457859
 31
0.0
  0
LINE
  5
2211
330
1F
100
AcDbEntity
  8
実形
100
AcDbLine
 10
1884.978098369962
 20
651.7745986296067
 30
0.0
 11
1884.978098369962
 21
352.1897662457859
 31
0.0
  0
LINE
  5
2212
330
1F
100
AcDbEntity
  8
実形
100
AcDbLine
 10
2024.708766078408
 20
661.7745986296068
 30
0.0
 11
2024.708766078408
 21
651.7745986296067
 31
0.0
  0
TEXT
  5
2213
330
1F
100
AcDbEntity
  8
実形
100
AcDbText
 10
2158.050347882611
 20
428.9223745382956
 30
0.0
 40
30.0
  1
ホルダーリング
 11
2158.050347882611
 21
424.9223745382956
 31
0.0
100
AcDbText
 73
     1
  0
LEADER
  5
2214
330
1F
100
AcDbEntity
  8
実形
100
AcDbLeader
  3
ISO-25
 76
     2
 10
1999.209784504814
 20
569.1972909868063
 30
0.0
 10
2192.253344445128
 20
482.2281316862581
 30
0.0
1001
ACAD
1000
DSTYLE
1002
{
1070
   341
1005
DA
1070
    77
1070
     0
1070
    41
1040
25.0
1070
    42
1040
6.0
1070
   140
1040
3.0
1070
   147
1040
1.199999999999999
1070
   279
1070
     2
1070
   289
1070
     2
1070
   371
1070
    13
1070
   372
1070
    13
1002
}
  0
TEXT
  5
2215
330
1F
100
AcDbEntity
  8
実形
100
AcDbText
 10
1570.896337947303
 20
258.1047734019167
 30
0.0
 40
30.0
  1
シンク厚0.7ｍｍ
 11
1570.896337947303
 21
254.1047734019167
 31
0.0
100
AcDbText
 73
     1
  0
DIMENSION
  5
24CD
330
1F
100
AcDbEntity
  8
実形
100
AcDbDimension
  2
*D30
 10
1867.899627132798
 20
560.7316764226998
 30
0.0
 11
1844.014601998565
 21
560.7316764226998
 31
0.0
 70
   160
  1
5
 71
     5
 42
50.0
  3
ISO-25
100
AcDbAlignedDimension
 13
1817.899627132798
 23
656.214527306287
 33
0.0
 14
1867.899627132798
 24
656.214527306287
 34
0.0
100
AcDbRotatedDimension
1001
ACAD
1000
DSTYLE
1002
{
1070
   371
1070
    18
1070
   372
1070
    18
1002
}
  0
DIMENSION
  5
24ED
330
1F
100
AcDbEntity
  8
実形
100
AcDbDimension
  2
*D31
 10
1753.525428541637
 20
621.774598629607
 30
0.0
 11
1734.775428541636
 21
681.7745986296072
 31
0.0
 70
    32
  1
12
 71
     5
 42
120.0
  3
ISO-25
100
AcDbAlignedDimension
 13
1856.050329074197
 23
741.7745986296068
 33
0.0
 14
1850.701112069639
 24
621.7745986296068
 34
0.0
 50
90.0
100
AcDbRotatedDimension
1001
ACAD
1000
DSTYLE
1002
{
1070
   371
1070
    18
1070
   372
1070
    18
1002
}
  0
LEADER
  5
2515
330
1F
100
AcDbEntity
  8
実形
100
AcDbLeader
  3
ISO-25
 76
     2
 10
1815.090214893423
 20
744.4335239879401
 30
0.0
 10
1719.434196900952
 20
819.5685138390418
 30
0.0
1001
ACAD
1000
DSTYLE
1002
{
1070
   147
1040
6.25
1070
    77
1070
     0
1070
   371
1070
    18
1070
   372
1070
    18
1002
}
  0
DIMENSION
  5
2516
330
1F
100
AcDbEntity
  8
実形
100
AcDbDimension
  2
*D32
 10
2317.899627132798
 20
566.132923262845
 30
0.0
 11
2267.899627132799
 21
584.882923262845
 31
0.0
 70
    32
  1
10
 71
     5
 42
99.99999999999955
  3
ISO-25
100
AcDbAlignedDimension
 13
2217.899627132799
 23
654.3938049223925
 33
0.0
 14
2317.899627132798
 24
654.3938049223925
 34
0.0
100
AcDbRotatedDimension
1001
ACAD
1000
DSTYLE
1002
{
1070
   371
1070
    18
1070
   372
1070
    18
1002
}
  0
DIMENSION
  5
253B
330
1F
100
AcDbEntity
  8
実形
100
AcDbDimension
  2
*D33
 10
2217.750478700636
 20
566.132923262845
 30
0.0
 11
2192.825052916717
 21
566.132923262845
 31
0.0
 70
   160
  1
5
 71
     5
 42
49.85085156783725
  3
ISO-25
100
AcDbAlignedDimension
 13
2167.899627132798
 23
654.3938049223925
 33
0.0
 14
2217.750478700636
 24
654.3938049223925
 34
0.0
100
AcDbRotatedDimension
1001
ACAD
1000
DSTYLE
1002
{
1070
   371
1070
    18
1070
   372
1070
    18
1002
}
  0
LINE
  5
2578
330
1F
100
AcDbEntity
  8
実形
100
AcDbLine
 10
1867.899627132799
 20
741.7745986296067
 30
0.0
 11
2267.899627132799
 21
741.7745986296067
 31
0.0
  0
LINE
  5
2579
330
1F
100
AcDbEntity
  8
実形
100
AcDbLine
 10
2132.142264273031
 20
622.0870986296067
 30
0.0
 11
2132.142264273031
 21
646.4620986296067
 31
0.0
  0
LINE
  5
257B
330
1F
100
AcDbEntity
  8
実形
100
AcDbLine
 10
2132.142264273031
 20
646.4620986296067
 30
0.0
 11
2164.726988856294
 21
646.4620986296067
 31
0.0
  0
DIMENSION
  5
257C
330
1F
100
AcDbEntity
  8
実形
100
AcDbDimension
  2
*D34
 10
2047.899627132799
 20
804.2436145081255
 30
0.0
 11
1957.899627132799
 21
822.9936145081255
 31
0.0
 70
    32
  1
18
 71
     5
 42
180.0
  3
ISO-25
100
AcDbAlignedDimension
 13
1867.899627132799
 23
706.2498690356979
 33
0.0
 14
2047.899627132799
 24
706.2498690356979
 34
0.0
100
AcDbRotatedDimension
1001
ACAD
1000
DSTYLE
1002
{
1070
   371
1070
    18
1070
   372
1070
    18
1002
}
  0
DIMENSION
  5
259C
330
1F
100
AcDbEntity
  8
実形
100
AcDbDimension
  2
*D35
 10
2317.899627132799
 20
865.148744994477
 30
0.0
 11
2067.899627132799
 21
883.898744994477
 31
0.0
 70
    32
  1
50
 71
     5
 42
500.0
  3
ISO-25
100
AcDbAlignedDimension
 13
1817.899627132799
 23
711.188318796132
 33
0.0
 14
2317.899627132799
 24
705.1883187961321
 34
0.0
100
AcDbRotatedDimension
1001
ACAD
1000
DSTYLE
1002
{
1070
   371
1070
    18
1070
   372
1070
    18
1002
}
  0
LINE
  5
25A9
330
1F
100
AcDbEntity
  8
実形
100
AcDbLine
 10
2317.899627132799
 20
691.7745986296069
 30
0.0
 11
2317.899627132799
 21
621.7745986296068
 31
0.0
  0
LINE
  5
25AE
330
1F
100
AcDbEntity
  8
実形
100
AcDbLine
 10
2267.899627132799
 20
741.7745986296067
 30
0.0
 11
2317.899627132799
 21
691.7745986296067
 31
0.0
  0
DIMENSION
  5
25AF
330
1F
100
AcDbEntity
  8
実形
100
AcDbDimension
  2
*D36
 10
2389.409955385397
 20
691.7745986296067
 30
0.0
 11
2370.659955385397
 21
716.7745986296071
 31
0.0
 70
    32
  1
5
 71
     5
 42
50.0
  3
ISO-25
100
AcDbAlignedDimension
 13
2281.301992771529
 23
741.7745986296067
 33
0.0
 14
2281.301992771529
 24
691.7745986296067
 34
0.0
 50
90.0
100
AcDbRotatedDimension
1001
ACAD
1000
DSTYLE
1002
{
1070
   371
1070
    18
1070
   372
1070
    18
1002
}
  0
DIMENSION
  5
25C6
330
1F
100
AcDbEntity
  8
実形
100
AcDbDimension
  2
*D37
 10
2317.899627132799
 20
817.6685318953046
 30
0.0
 11
2292.899627132799
 21
836.4185318953046
 31
0.0
 70
    32
  1
5
 71
     5
 42
50.0
  3
ISO-25
100
AcDbAlignedDimension
 13
2267.899627132799
 23
705.1883187961321
 33
0.0
 14
2317.899627132799
 24
705.1883187961321
 34
0.0
100
AcDbRotatedDimension
1001
ACAD
1000
DSTYLE
1002
{
1070
   371
1070
    18
1070
   372
1070
    18
1002
}
  0
TEXT
  5
25F7
330
1F
100
AcDbEntity
  8
実形
  6
HIDDEN2
100
AcDbText
 10
2138.024729860347
 20
638.6576570747565
 30
0.0
 40
13.0
  1
● 
 71
     2
100
AcDbText
  0
TEXT
  5
25FF
330
1F
100
AcDbEntity
  8
実形
  6
HIDDEN2
100
AcDbText
 10
2137.547101759287
 20
616.2156961895816
 30
0.0
 40
13.0
  1
● 
 71
     2
100
AcDbText
  0
DIMENSION
  5
2600
330
1F
100
AcDbEntity
  8
実形
100
AcDbDimension
  2
*D38
 10
2085.319751330999
 20
621.7745986296067
 30
0.0
 11
2066.569751330999
 21
646.7745986296071
 31
0.0
 70
    32
  1
5
 71
     5
 42
50.0
  3
ISO-25
100
AcDbAlignedDimension
 13
2010.802413108495
 23
671.7745986296067
 33
0.0
 14
2010.802413108495
 24
621.7745986296067
 34
0.0
 50
90.0
100
AcDbRotatedDimension
1001
ACAD
1000
DSTYLE
1002
{
1070
   371
1070
    18
1070
   372
1070
    18
1002
}
  0
LEADER
  5
2628
330
1F
100
AcDbEntity
  8
実形
100
AcDbLeader
  3
ISO-25
 76
     2
 10
1808.619821546484
 20
612.1978858294769
 30
0.0
 10
1701.016748162185
 20
544.5826408523116
 30
0.0
1001
ACAD
1000
DSTYLE
1002
{
1070
   147
1040
6.25
1070
    77
1070
     0
1070
   371
1070
    18
1070
   372
1070
    18
1002
}
  0
TEXT
  5
2631
330
1F
100
AcDbEntity
  8
実形
100
AcDbText
 10
2125.306621651579
 20
627.9919864037419
 30
0.0
 40
25.0
  1
3
 50
90.0
 11
2128.639954984912
 21
627.9919864037419
 31
0.0
100
AcDbText
 73
     1
  0
LEADER
  5
263B
330
1F
100
AcDbEntity
  8
実形
100
AcDbLeader
  3
ISO-25
 76
     2
 10
2348.013432164114
 20
588.3708395687627
 30
0.0
 10
2423.763596650662
 20
540.8036277882947
 30
0.0
1001
ACAD
1000
DSTYLE
1002
{
1070
   147
1040
6.25
1070
    77
1070
     0
1070
   371
1070
    18
1070
   372
1070
    18
1002
}
  0
LEADER
  5
263C
330
1F
100
AcDbEntity
  8
実形
100
AcDbLeader
  3
ISO-25
 76
     2
 10
2303.255273845019
 20
734.3053176605372
 30
0.0
 10
2432.518009127802
 20
815.3861860887101
 30
0.0
1001
ACAD
1000
DSTYLE
1002
{
1070
   147
1040
6.25
1070
    77
1070
     0
1070
   371
1070
    18
1070
   372
1070
    18
1002
}
  0
LEADER
  5
2651
330
1F
100
AcDbEntity
  8
実形
100
AcDbLeader
  3
ISO-25
 76
     2
 10
1868.132181531267
 20
457.1562668605093
 30
0.0
 10
1696.752901796543
 20
317.3384005179905
 30
0.0
1001
ACAD
1000
DSTYLE
1002
{
1070
   147
1040
6.25
1070
    77
1070
     0
1070
   371
1070
    18
1070
   372
1070
    18
1002
}
  0
TEXT
  5
267F
330
1F
100
AcDbEntity
  8
実形
100
AcDbText
 10
1909.106496644938
 20
786.280342859036
 30
0.0
 40
25.0
  1

 50
90.0
 11
1912.439829978271
 21
786.280342859036
 31
0.0
100
AcDbText
 73
     1
  0
TEXT
  5
2689
330
1F
100
AcDbEntity
  8
実形
100
AcDbText
 10
1950.122021996694
 20
679.8525598878168
 30
0.0
 40
25.0
  1
2
 50
90.0
 11
1953.455355330027
 21
679.8525598878168
 31
0.0
100
AcDbText
 73
     1
  0
LINE
  5
268A
330
1F
100
AcDbEntity
  8
実形
100
AcDbLine
 10
1966.866492664204
 20
690.6858617352754
 30
0.0
 11
1991.031584471474
 21
690.6858617352754
 31
0.0
  0
DIMENSION
  5
268B
330
1F
100
AcDbEntity
  8
実形
100
AcDbDimension
  2
*D41
 10
2077.899627132798
 20
489.0759292349884
 30
0.0
 11
1987.899627132798
 21
507.8259292349884
 31
0.0
 70
    32
  1
18
 71
     5
 42
180.0
  3
ISO-25
100
AcDbAlignedDimension
 13
1897.899627132798
 23
577.5399579777349
 33
0.0
 14
2077.899627132798
 24
577.5399579777349
 34
0.0
100
AcDbRotatedDimension
1001
ACAD
1000
DSTYLE
1002
{
1070
   371
1070
    18
1070
   372
1070
    18
1002
}
  0
DIMENSION
  5
2698
330
1F
100
AcDbEntity
  8
実形
100
AcDbDimension
  2
*D42
 10
2125.611732425682
 20
543.3475735696974
 30
0.0
 11
2106.861732425683
 21
578.3475735696978
 31
0.0
 70
    32
  1
7
 71
     5
 42
70.0
  3
ISO-25
100
AcDbAlignedDimension
 13
2042.667552183736
 23
613.3475735696975
 33
0.0
 14
2042.667552183736
 24
543.3475735696974
 34
0.0
 50
90.0
100
AcDbRotatedDimension
1001
ACAD
1000
DSTYLE
1002
{
1070
   371
1070
    18
1070
   372
1070
    18
1002
}
  0
TEXT
  5
2828
330
1F
100
AcDbEntity
  8
実形
370
    18
100
AcDbText
 10
1647.952023221997
 20
935.6785898056941
 30
0.0
 40
40.0
  1
A-A´断面詳細図
100
AcDbText
  0
LINE
  5
29BA
330
1F
100
AcDbEntity
  8
実形
100
AcDbLine
 10
1979.735758068987
 20
613.3475735696975
 30
0.0
 11
1962.760059772732
 21
613.3475735696975
 31
0.0
  0
LINE
  5
29BB
330
1F
100
AcDbEntity
  8
実形
100
AcDbLine
 10
1962.760059772732
 20
613.3475735696975
 30
0.0
 11
1962.760059772733
 21
643.3475735696974
 31
0.0
  0
TEXT
  5
29CA
330
1F
100
AcDbEntity
  8
実形
  6
HIDDEN2
100
AcDbText
 10
1968.625968949773
 20
607.4759836678931
 30
0.0
 40
13.0
  1
● 
 71
     2
100
AcDbText
  0
TEXT
  5
29D2
330
1F
100
AcDbEntity
  8
実形
  6
HIDDEN2
100
AcDbText
 10
1968.426390955703
 20
636.006153542412
 30
0.0
 40
13.0
  1
● 
 71
     2
100
AcDbText
  0
TEXT
  5
29DB
330
1F
100
AcDbEntity
  8
実形
100
AcDbText
 10
1943.306793804806
 20
614.1722475894339
 30
0.0
 40
25.0
  1
3
 50
90.0
 11
1946.640127138139
 21
614.1722475894339
 31
0.0
100
AcDbText
 73
     1
  0
LINE
  5
2A53
330
1F
100
AcDbEntity
  8
補助
100
AcDbLine
 10
2784.0
 20
1829.0
 30
0.0
 11
2019.387286519283
 21
1829.0
 31
0.0
  0
TEXT
  5
2A5E
330
1F
100
AcDbEntity
  8
実形
100
AcDbText
 10
2070.170667800645
 20
1846.242857142857
 30
0.0
 40
30.0
  1
天板
  7
明朝
 72
     4
 11
2114.056382086359
 21
1861.5
 31
0.0
100
AcDbText
  0
TEXT
  5
2A5F
330
1F
100
AcDbEntity
  8
実形
100
AcDbText
 10
2605.67142857143
 20
1846.842857142857
 30
0.0
 40
30.0
  1
12ｍｍ
  7
明朝
 72
     4
 11
2671.500000000001
 21
1861.5
 31
0.0
100
AcDbText
  0
TEXT
  5
2A60
330
1F
100
AcDbEntity
  8
実形
100
AcDbText
 10
2239.074011965008
 20
1845.642857142857
 30
0.0
 40
30.0
  1
ｱｸﾘﾙ人工大理石
  7
明朝
 72
     4
 11
2392.674011965008
 21
1861.5
 31
0.0
100
AcDbText
  0
LINE
  5
2AC4
330
1F
100
AcDbEntity
  8
実形
100
AcDbLine
 10
1997.388073958595
 20
689.3203850017734
 30
0.0
 11
1997.388073958595
 21
701.887567216354
 31
0.0
  0
LINE
  5
2AC5
330
1F
100
AcDbEntity
  8
実形
100
AcDbLine
 10
1997.388073958595
 20
701.887567216354
 30
0.0
 11
2047.388073958595
 21
701.887567216354
 31
0.0
  0
LINE
  5
2AC6
330
1F
100
AcDbEntity
  8
実形
100
AcDbLine
 10
2047.388073958595
 20
701.887567216354
 30
0.0
 11
2047.388073958595
 21
689.3203850017734
 31
0.0
  0
LINE
  5
2AC7
330
1F
100
AcDbEntity
  8
実形
100
AcDbLine
 10
2037.388073958595
 20
701.887567216354
 30
0.0
 11
2037.388073958595
 21
689.3203850017734
 31
0.0
  0
TEXT
  5
2AD9
330
1F
100
AcDbEntity
  8
実形
370
    18
100
AcDbText
 10
1994.600818876664
 20
713.3745043081298
 30
0.0
 40
21.0
  1
4
100
AcDbText
  0
TEXT
  5
2AE2
330
1F
100
AcDbEntity
  8
実形
  6
HIDDEN2
100
AcDbText
 10
2003.3181555003
 20
695.656007764187
 30
0.0
 40
11.0
  1
● 
 71
     2
100
AcDbText
  0
TEXT
  5
2AEA
330
1F
100
AcDbEntity
  8
実形
  6
HIDDEN2
100
AcDbText
 10
2042.763207470307
 20
695.4612187641778
 30
0.0
 40
11.0
  1
● 
 71
     2
100
AcDbText
  0
TEXT
  5
2AF2
330
1F
100
AcDbEntity
  8
実形
  6
HIDDEN2
100
AcDbText
 10
2052.625333600898
 20
695.6827726649517
 30
0.0
 40
11.0
  1
● 
 71
     2
100
AcDbText
  0
TEXT
  5
2AFB
330
1F
100
AcDbEntity
  8
実形
370
    18
100
AcDbText
 10
2037.911668312217
 20
712.525535607403
 30
0.0
 40
21.0
  1
1
100
AcDbText
  0
LINE
  5
2B0F
330
1F
100
AcDbEntity
  8
実形
100
AcDbLine
 10
714.0414579512735
 20
955.2344549922475
 30
0.0
 11
714.0414579512735
 21
1000.068941720524
 31
0.0
  0
LINE
  5
2B10
330
1F
100
AcDbEntity
  8
実形
100
AcDbLine
 10
740.0892247980741
 20
967.2344549922481
 30
0.0
 11
714.0414579512735
 21
967.2344549922481
 31
0.0
  0
DIMENSION
  5
2BC7
330
1F
100
AcDbEntity
  8
実形
100
AcDbDimension
  2
*D44
 10
1078.409939091926
 20
1212.707225379389
 30
0.0
 11
933.4099390919265
 21
1231.457225379389
 31
0.0
 70
    32
 71
     5
 42
289.9999999999998
  3
ISO-25
100
AcDbAlignedDimension
 13
788.4099390919266
 23
1283.304004923656
 33
0.0
 14
1078.409939091926
 24
1283.304004923656
 34
0.0
100
AcDbRotatedDimension
1001
ACAD
1000
DSTYLE
1002
{
1070
   371
1070
    18
1070
   372
1070
    18
1002
}
  0
DIMENSION
  5
2C01
330
1F
100
AcDbEntity
  8
実形
100
AcDbDimension
  2
*D45
 10
636.0627967005666
 20
1358.359507154115
 30
0.0
 11
617.3127967005664
 21
1503.359507154115
 31
0.0
 70
    32
 71
     5
 42
290.0
  3
ISO-25
100
AcDbAlignedDimension
 13
606.8228538401444
 23
1648.359507154115
 33
0.0
 14
606.8228538401446
 24
1358.359507154115
 34
0.0
 50
90.0
100
AcDbRotatedDimension
1001
ACAD
1000
DSTYLE
1002
{
1070
   371
1070
    18
1070
   372
1070
    18
1002
}
  0
DIMENSION
  5
2C35
330
1F
100
AcDbEntity
  8
実形
100
AcDbDimension
  2
*D46
 10
2167.899627132798
 20
804.2436145081255
 30
0.0
 11
2107.899627132798
 21
822.9936145081255
 31
0.0
 70
    32
  1
12
 71
     5
 42
120.0
  3
ISO-25
100
AcDbAlignedDimension
 13
2047.899627132798
 23
711.6596186260776
 33
0.0
 14
2167.899627132798
 24
708.104142275144
 34
0.0
100
AcDbRotatedDimension
1001
ACAD
1000
DSTYLE
1002
{
1070
   371
1070
    18
1070
   372
1070
    18
1002
}
  0
LINE
  5
2D0E
330
1F
100
AcDbEntity
  8
実形
100
AcDbLine
 10
2077.899627132798
 20
613.3475735696975
 30
0.0
 11
2077.899627132798
 21
543.3475735696974
 31
0.0
  0
VIEWPORT
  5
2E
102
{ACAD_XDICTIONARY
360
2D53
102
}
330
1B
100
AcDbEntity
 67
     1
  8
0
100
AcDbViewport
 10
144.7270812988281
 20
157.5836326612594
 30
0.0
 40
411.6736216682419
 41
334.8598846805816
 68
     1
 69
     1
 12
144.7270812988281
 22
157.5836326612594
 13
0.0
 23
0.0
 14
10.0
 24
10.0
 15
10.0
 25
10.0
 16
0.0
 26
0.0
 36
1.0
 17
0.0
 27
0.0
 37
0.0
 42
50.0
 43
0.0
 44
0.0
 45
334.8598846805816
 50
0.0
 51
0.0
 72
   100
 90
    32800
  1

281
     0
 71
     1
 74
     0
110
0.0
120
0.0
130
0.0
111
1.0
121
0.0
131
0.0
112
0.0
122
1.0
132
0.0
 79
     0
146
0.0
  0
VIEWPORT
  5
30
102
{ACAD_XDICTIONARY
360
2D55
102
}
330
1B
100
AcDbEntity
 67
     1
  8
0
100
AcDbViewport
 10
139.2237563133239
 20
101.2295821905136
 30
0.0
 40
222.7580101013184
 41
161.9673315048218
 68
     2
 69
     2
 12
210.0
 22
148.5
 13
0.0
 23
0.0
 14
10.0
 24
10.0
 15
10.0
 25
10.0
 16
0.0
 26
0.0
 36
1.0
 17
0.0
 27
0.0
 37
0.0
 42
50.0
 43
0.0
 44
0.0
 45
309.0686705647124
 50
0.0
 51
0.0
 72
   100
 90
    32864
  1

281
     0
 71
     1
 74
     0
110
0.0
120
0.0
130
0.0
111
1.0
121
0.0
131
0.0
112
0.0
122
1.0
132
0.0
 79
     0
146
0.0
  0
ENDSEC
  0
SECTION
  2
OBJECTS
  0
DICTIONARY
  5
C
330
0
100
AcDbDictionary
281
     1
  3
ACAD_COLOR
350
1641
  3
ACAD_GROUP
350
D
  3
ACAD_LAYOUT
350
1A
  3
ACAD_MATERIAL
350
1640
  3
ACAD_MLINESTYLE
350
17
  3
ACAD_PLOTSETTINGS
350
19
  3
ACAD_PLOTSTYLENAME
350
E
  3
ACAD_TABLESTYLE
350
1642
  3
AcadDim
350
124
  3
ACDBHEADERROUNDTRIPXREC
350
2D4D
  3
AcDbVariableDictionary
350
17FE
  3
DWGPROPS
350
2D4C
  0
DICTIONARY
  5
178C
330
2
100
AcDbDictionary
280
     1
281
     1
  3
ACAD_LAYERFILTERS
360
203D
  3
ACAD_LAYERSTATES
360
192A
  3
ACLYDICTIONARY
360
203C
  0
DICTIONARY
  5
197F
330
1F
100
AcDbDictionary
280
     1
281
     1
  3
ACAD_SORTENTS
360
1980
  0
DICTIONARY
  5
1CFE
330
1CD2
100
AcDbDictionary
280
     1
281
     1
  3
ACAD_SORTENTS
360
1CFF
  0
DICTIONARY
  5
1FFA
330
1FF8
100
AcDbDictionary
280
     1
281
     1
  3
ACAD_SORTENTS
360
1FFB
  0
DICTIONARY
  5
264D
330
264B
100
AcDbDictionary
280
     1
281
     1
  3
ACAD_SORTENTS
360
264E
  0
DICTIONARY
  5
29BE
330
29BC
100
AcDbDictionary
280
     1
281
     1
  3
ACAD_SORTENTS
360
29BF
  0
DICTIONARY
  5
2D53
330
2E
100
AcDbDictionary
280
     1
281
     1
  3
ACAD_XREC_ROUNDTRIP
360
2D54
  0
DICTIONARY
  5
2D55
330
30
100
AcDbDictionary
280
     1
281
     1
  3
ACAD_XREC_ROUNDTRIP
360
2D56
  0
DICTIONARY
  5
1641
102
{ACAD_REACTORS
330
C
102
}
330
C
100
AcDbDictionary
281
     1
  0
DICTIONARY
  5
D
102
{ACAD_REACTORS
330
C
102
}
330
C
100
AcDbDictionary
281
     1
  0
DICTIONARY
  5
1A
102
{ACAD_REACTORS
330
C
102
}
330
C
100
AcDbDictionary
281
     1
  3
Model
350
22
  3
ﾚｲｱｳﾄ1
350
1E
  3
ﾚｲｱｳﾄ2
350
26
  0
DICTIONARY
  5
1640
102
{ACAD_REACTORS
330
C
102
}
330
C
100
AcDbDictionary
281
     1
  0
DICTIONARY
  5
17
102
{ACAD_REACTORS
330
C
102
}
330
C
100
AcDbDictionary
281
     1
  3
Standard
350
18
  0
DICTIONARY
  5
19
102
{ACAD_REACTORS
330
C
102
}
330
C
100
AcDbDictionary
281
     1
  0
ACDBDICTIONARYWDFLT
  5
E
102
{ACAD_REACTORS
330
C
102
}
330
C
100
AcDbDictionary
281
     1
  3
Normal
350
F
100
AcDbDictionaryWithDefault
340
F
  0
DICTIONARY
  5
1642
102
{ACAD_REACTORS
330
C
102
}
330
C
100
AcDbDictionary
281
     1
  3
Standard
350
1643
  0
XRECORD
  5
124
102
{ACAD_REACTORS
330
C
102
}
330
C
100
AcDbXrecord
280
     1
 90
   990106
  3

 60
     0
 61
     0
 62
     1
 63
     3
 64
     0
 65
     0
 66
     0
 67
     3
 68
     1
 69
     0
 70
     0
 71
     0
 72
     0
 40
30.0
170
     0
  0
DICTIONARY
  5
2D4D
102
{ACAD_REACTORS
330
C
102
}
330
C
100
AcDbDictionary
281
     1
  0
DICTIONARY
  5
17FE
102
{ACAD_REACTORS
330
C
102
}
330
C
100
AcDbDictionary
281
     1
  3
CTABLESTYLE
350
17FF
  3
DIMASSOC
350
2D49
  3
PROJECTNAME
350
2D4A
  0
XRECORD
  5
2D4C
102
{ACAD_REACTORS
330
C
102
}
330
C
100
AcDbXrecord
280
     1
  1
DWGPROPS COOKIE
  2

  3

  4

  6

  7

  8

  9

300
=
301
=
302
=
303
=
304
=
305
=
306
=
307
=
308
=
309
=
 40
1.708195983796296
 41
2451673.575802199
 42
2458813.763305255
  1

 90
        0
  0
DICTIONARY
  5
203D
102
{ACAD_REACTORS
330
178C
102
}
330
178C
100
AcDbDictionary
281
     1
  0
DICTIONARY
  5
192A
102
{ACAD_REACTORS
330
178C
102
}
330
178C
100
AcDbDictionary
281
     1
  0
DICTIONARY
  5
203C
102
{ACAD_REACTORS
330
178C
102
}
330
178C
100
AcDbDictionary
281
     1
1001
ACAD
1000
<All
  0
SORTENTSTABLE
  5
1980
102
{ACAD_REACTORS
330
197F
102
}
330
197F
100
AcDbSortentsTable
330
1F
331
A5
  5
2E6
331
17EE
  5
1AEF
331
1EB0
  5
1EB1
331
12A9
  5
12AC
331
1670
  5
17E0
331
1B5C
  5
1B6F
331
1FAE
  5
1FF6
331
1AF5
  5
1B61
331
1B64
  5
1B77
331
2025
  5
2026
331
1B6C
  5
1D91
331
33C
  5
33D
331
15F9
  5
162F
331
17C7
  5
17ED
331
1B74
  5
1D99
331
253B
  5
2578
331
2214
  5
2215
331
1976
  5
1B05
331
7D2
  5
7D3
331
16C0
  5
17E5
331
1B05
  5
1B69
331
1FF6
  5
2011
331
17DF
  5
1974
331
1631
  5
17DA
331
197E
  5
A0
331
1C04
  5
1D9F
331
1EA1
  5
1627
331
17E7
  5
197C
331
1C0C
  5
1EAF
331
1EA9
  5
1628
331
2006
  5
2012
331
2631
  5
263B
331
21ED
  5
21EE
331
257B
  5
259C
331
2698
  5
270A
331
1AE6
  5
12AF
331
17EF
  5
1AF1
331
1EB1
  5
1EB2
331
1671
  5
17E1
331
1B5D
  5
1B70
331
2828
  5
29BA
331
21FD
  5
21FF
331
1AF6
  5
1B62
331
1B65
  5
1BFA
331
2026
  5
202F
331
1B6D
  5
1D92
331
220D
  5
220E
331
2651
  5
267F
331
33D
  5
35B
331
15FA
  5
1630
331
17C8
  5
17EE
331
1B75
  5
1D9A
331
2215
  5
24CD
331
1977
  5
1B0F
331
17D8
  5
17EF
331
7D3
  5
8C9
331
16C1
  5
17E6
331
24CD
  5
24ED
331
2689
  5
268A
331
17E0
  5
1975
331
1EA2
  5
16C2
331
21E6
  5
21E7
331
257C
  5
25A9
331
21EE
  5
21EF
331
24ED
  5
2515
331
200F
  5
2025
331
17E8
  5
197D
331
123B
  5
123C
331
17F0
  5
1AF3
331
1EB2
  5
1EBC
331
2E6
  5
2EB
331
1672
  5
17E2
331
1AEF
  5
1B5F
331
1B5E
  5
1B71
331
2EE
  5
2FE
331
1AF7
  5
1B63
331
1B66
  5
1BFB
331
1FD0
  5
200F
331
2515
  5
2516
331
1B6E
  5
1D93
331
202F
  5
2030
331
2206
  5
2207
331
259C
  5
25AA
331
220E
  5
220F
331
2FE
  5
33A
331
15FB
  5
1631
331
1B76
  5
1D9B
331
1ED2
  5
1EF2
331
17D9
  5
17F0
331
16C2
  5
17E7
331
1978
  5
1B19
331
1EF2
  5
1F33
331
505
  5
569
331
17E1
  5
1976
331
1B0F
  5
1B6A
331
1EA3
  5
15F6
331
268A
  5
268B
331
21E7
  5
21E8
331
21EF
  5
21F0
331
A0
  5
A5
331
17E9
  5
197E
331
17F1
  5
1AF5
331
123C
  5
123D
331
166B
  5
17DB
331
1AE8
  5
1B5E
331
1FA9
  5
1FAD
331
12AC
  5
15ED
331
1B5F
  5
1B72
331
263B
  5
263C
331
1B67
  5
1C0C
331
21FF
  5
2202
331
2516
  5
253B
331
1B6F
  5
1D94
331
2207
  5
2208
331
220F
  5
2210
331
1AF8
  5
1B64
331
1F6A
  5
1F82
331
15FC
  5
166D
331
1B77
  5
1D9C
331
2030
  5
2039
331
17DA
  5
17F1
331
16C3
  5
17E8
331
1979
  5
1B22
331
1F82
  5
1FA9
331
17E2
  5
1977
331
1EA4
  5
16C4
331
268B
  5
2698
331
21E8
  5
21E9
331
17EA
  5
1AE6
331
1FAA
  5
1FC4
331
17F2
  5
1AF6
331
166C
  5
17DC
331
123D
  5
123E
331
1F33
  5
1F5D
331
21F0
  5
21F1
331
12AD
  5
15EE
331
1B60
  5
1B73
331
1EBC
  5
1EC5
331
263C
  5
2651
331
2208
  5
220A
331
1B70
  5
1D95
331
3AF
  5
3B1
331
15F5
  5
162B
331
1AF9
  5
1B65
331
2210
  5
2211
331
17DB
  5
17F2
331
16C4
  5
17E9
331
197A
  5
1B23
331
1E9D
  5
15FA
331
2039
  5
203A
331
25AE
  5
25AF
331
17E3
  5
1978
331
1B19
  5
1B6B
331
1EA5
  5
160C
331
21E9
  5
21EA
331
25C6
  5
25F7
331
368
  5
398
331
17EB
  5
1AE7
331
17F3
  5
1AF7
331
123E
  5
12A9
331
398
  5
3AF
331
166D
  5
17DD
331
21F1
  5
21F3
331
12AE
  5
15EF
331
1B61
  5
1B74
331
21F9
  5
21FA
331
57F
  5
7D1
331
1B69
  5
1D8E
331
1EC5
  5
1ECE
331
1B71
  5
1D96
331
15F6
  5
162C
331
1AFA
  5
1B66
331
4F8
  5
505
331
1973
  5
1AF9
331
2211
  5
2212
331
17DC
  5
17F3
331
16C5
  5
17EA
331
162E
  5
17C8
331
197B
  5
1B46
331
1E9E
  5
16BE
331
203A
  5
21E4
331
25AF
  5
25C6
331
17E4
  5
1979
331
29BA
  5
29BB
331
21EA
  5
21EB
331
2578
  5
257B
331
29CA
  5
29D2
331
29D2
  5
29DB
331
1B22
  5
1B6E
331
F27
  5
1238
331
17EC
  5
1AE9
331
201B
  5
1FAE
331
1FAC
  5
1FD0
331
17F4
  5
1AF8
331
166E
  5
17DE
331
1AEB
  5
1B60
331
1B62
  5
1B75
331
1FC4
  5
2006
331
21FA
  5
21FD
331
12AF
  5
15F0
331
1AF3
  5
12AD
331
1B6A
  5
1D8F
331
1F5D
  5
1F6A
331
2202
  5
2206
331
25F7
  5
25FF
331
1ECE
  5
1ECF
331
220A
  5
220B
331
25FF
  5
2600
331
1B72
  5
1D97
331
1AFB
  5
1B67
331
3B1
  5
3CE
331
33A
  5
33B
331
15F7
  5
162D
331
17C5
  5
17EB
331
1BFA
  5
1D9D
331
2212
  5
2213
331
16BE
  5
17E3
331
1974
  5
1AFA
331
1E9F
  5
160A
331
197C
  5
1B5C
331
17DD
  5
17F4
331
162F
  5
17D8
331
1EA7
  5
15FB
331
17E5
  5
197A
331
29BB
  5
29CA
331
2579
  5
257C
331
1EAF
  5
1EB0
331
21EB
  5
21EC
331
9C
  5
9C
331
569
  5
57F
331
1238
  5
123B
331
17ED
  5
1AED
331
1FAD
  5
1FED
331
21F3
  5
21F9
331
166F
  5
17DF
331
1B63
  5
1B76
331
2EB
  5
2EE
331
1AF4
  5
166C
331
1B6B
  5
1D90
331
29DB
  5
2A53
331
1FED
  5
2010
331
1ECF
  5
1ED2
331
220B
  5
220C
331
1B73
  5
1D98
331
1AFC
  5
1B68
331
33B
  5
33C
331
15F8
  5
162E
331
17C6
  5
17EC
331
2600
  5
2628
331
25A9
  5
25AE
331
1BFB
  5
1D9E
331
2213
  5
2214
331
35B
  5
368
331
7D1
  5
7D2
331
16BF
  5
17E4
331
1975
  5
1AFC
331
1EA0
  5
16C0
331
267F
  5
2689
331
197D
  5
1B5D
331
17DE
  5
1942
331
8C9
  5
F27
331
1630
  5
17D9
331
1EA8
  5
15F7
331
21E4
  5
21E6
331
2628
  5
2631
331
17E6
  5
197B
331
21EC
  5
21ED
331
2A53
  5
1AFB
  0
SORTENTSTABLE
  5
1CFF
102
{ACAD_REACTORS
330
1CFE
102
}
330
1CFE
100
AcDbSortentsTable
330
1CD2
  0
SORTENTSTABLE
  5
1FFB
102
{ACAD_REACTORS
330
1FFA
102
}
330
1FFA
100
AcDbSortentsTable
330
1FF8
  0
SORTENTSTABLE
  5
264E
102
{ACAD_REACTORS
330
264D
102
}
330
264D
100
AcDbSortentsTable
330
264B
  0
SORTENTSTABLE
  5
29BF
102
{ACAD_REACTORS
330
29BE
102
}
330
29BE
100
AcDbSortentsTable
330
29BC
  0
XRECORD
  5
2D54
102
{ACAD_REACTORS
330
2D53
102
}
330
2D53
100
AcDbXrecord
280
     1
102
SHADEPLOT
 70
     0
  0
XRECORD
  5
2D56
102
{ACAD_REACTORS
330
2D55
102
}
330
2D55
100
AcDbXrecord
280
     1
102
SHADEPLOT
 70
     0
  0
LAYOUT
  5
22
102
{ACAD_XDICTIONARY
360
2D4F
102
}
102
{ACAD_REACTORS
330
1A
102
}
330
1A
100
AcDbPlotSettings
  1

  2
EPSON PM-800C
  4
A4
  6

 40
3.757083177566528
 41
14.7637300491333
 42
3.757080078125
 43
3.757080078125
 44
209.9733276367187
 45
296.9683227539062
 46
0.0
 47
0.0
 48
0.0
 49
0.0
140
0.0
141
0.0
142
1.0
143
10.0
 70
 11952
 72
     1
 73
     1
 74
     2
  7

 75
    20
147
0.1
148
0.0
149
0.0
100
AcDbLayout
  1
Model
 70
     1
 71
     0
 10
0.0
 20
0.0
 11
12.0
 21
9.0
 12
0.0
 22
0.0
 32
0.0
 14
0.0
 24
0.0
 34
0.0
 15
0.0
 25
0.0
 35
0.0
146
0.0
 13
0.0
 23
0.0
 33
0.0
 16
1.0
 26
0.0
 36
0.0
 17
0.0
 27
1.0
 37
0.0
 76
     0
330
1F
  0
LAYOUT
  5
1E
102
{ACAD_XDICTIONARY
360
192C
102
}
102
{ACAD_REACTORS
330
1A
102
}
330
1A
100
AcDbPlotSettings
  1

  2
EPSON PM-800C
  4
A4
  6

 40
3.757083177566528
 41
14.7637300491333
 42
3.757080078125
 43
3.757080078125
 44
209.9733276367187
 45
296.9683227539062
 46
0.0
 47
0.0
 48
0.0
 49
0.0
140
0.0
141
0.0
142
1.0
143
1.0
 70
   688
 72
     1
 73
     1
 74
     5
  7

 75
    16
147
1.0
148
0.0
149
0.0
100
AcDbLayout
  1
ﾚｲｱｳﾄ1
 70
     1
 71
     1
 10
-3.757080078125
 20
-3.757083177566528
 11
293.2112426757813
 21
206.2162444591522
 12
0.0
 22
0.0
 32
0.0
 14
27.8447512626648
 24
20.24591643810271
 34
0.0
 15
250.6027613639831
 25
182.2132479429245
 35
0.0
146
0.0
 13
0.0
 23
0.0
 33
0.0
 16
1.0
 26
0.0
 36
0.0
 17
0.0
 27
1.0
 37
0.0
 76
     0
330
1B
331
2E
  0
LAYOUT
  5
26
102
{ACAD_XDICTIONARY
360
2D51
102
}
102
{ACAD_REACTORS
330
1A
102
}
330
1A
100
AcDbPlotSettings
  1

  2
EPSON PM-800C
  4

  6

 40
0.0
 41
0.0
 42
0.0
 43
0.0
 44
0.0
 45
0.0
 46
0.0
 47
0.0
 48
0.0
 49
0.0
140
0.0
141
0.0
142
1.0
143
1.0
 70
   688
 72
     0
 73
     0
 74
     5
  7

 75
    16
147
1.0
148
0.0
149
0.0
100
AcDbLayout
  1
ﾚｲｱｳﾄ2
 70
     1
 71
     2
 10
0.0
 20
0.0
 11
12.0
 21
9.0
 12
0.0
 22
0.0
 32
0.0
 14
0.0
 24
0.0
 34
0.0
 15
0.0
 25
0.0
 35
0.0
146
0.0
 13
0.0
 23
0.0
 33
0.0
 16
1.0
 26
0.0
 36
0.0
 17
0.0
 27
1.0
 37
0.0
 76
     0
330
23
  0
MLINESTYLE
  5
18
102
{ACAD_REACTORS
330
17
102
}
330
17
100
AcDbMlineStyle
  2
STANDARD
 70
     0
  3

 62
   256
 51
90.0
 52
90.0
 71
     2
 49
0.5
 62
   256
  6
BYLAYER
 49
-0.5
 62
   256
  6
BYLAYER
  0
ACDBPLACEHOLDER
  5
F
102
{ACAD_REACTORS
330
E
102
}
330
E
  0
TABLESTYLE
  5
1643
102
{ACAD_REACTORS
330
1642
102
}
330
1642
100
AcDbTableStyle
  3
Standard
 70
     0
 71
     0
 40
1.5
 41
1.5
280
     0
281
     0
  7
Standard
140
4.5
170
     2
 62
     0
 63
     7
283
     0
274
    -2
284
     1
 64
     0
275
    -2
285
     1
 65
     0
276
    -2
286
     1
 66
     0
277
    -2
287
     1
 67
     0
278
    -2
288
     1
 68
     0
279
    -2
289
     1
 69
     0
  7
Standard
140
6.0
170
     5
 62
     0
 63
     7
283
     0
274
    -2
284
     1
 64
     0
275
    -2
285
     1
 65
     0
276
    -2
286
     1
 66
     0
277
    -2
287
     1
 67
     0
278
    -2
288
     1
 68
     0
279
    -2
289
     1
 69
     0
  7
Standard
140
4.5
170
     5
 62
     0
 63
     7
283
     0
274
    -2
284
     1
 64
     0
275
    -2
285
     1
 65
     0
276
    -2
286
     1
 66
     0
277
    -2
287
     1
 67
     0
278
    -2
288
     1
 68
     0
279
    -2
289
     1
 69
     0
  0
DICTIONARYVAR
  5
17FF
102
{ACAD_REACTORS
330
17FE
102
}
330
17FE
100
DictionaryVariables
280
     0
  1
STANDARD
  0
DICTIONARYVAR
  5
2D49
102
{ACAD_REACTORS
330
17FE
102
}
330
17FE
100
DictionaryVariables
280
     0
  1
1
  0
DICTIONARYVAR
  5
2D4A
102
{ACAD_REACTORS
330
17FE
102
}
330
17FE
100
DictionaryVariables
280
     0
  1

  0
DICTIONARY
  5
2D4F
330
22
100
AcDbDictionary
280
     1
281
     1
  3
ACAD_XREC_ROUNDTRIP
360
2D50
  0
DICTIONARY
  5
192C
330
1E
100
AcDbDictionary
280
     1
281
     1
  3
ACAD_XREC_ROUNDTRIP
360
2D4E
  3
ADSK_XREC_LAYOUTTHUMBNAIL
360
192D
  0
DICTIONARY
  5
2D51
330
26
100
AcDbDictionary
280
     1
281
     1
  3
ACAD_XREC_ROUNDTRIP
360
2D52
  0
XRECORD
  5
2D50
102
{ACAD_REACTORS
330
2D4F
102
}
330
2D4F
100
AcDbXrecord
280
     1
102
SHADEPLOT
 70
     0
102
SHADEPLOTRESLEVEL
 70
     2
102
SHADEPLOTCUSTOMDPI
 70
   300
  0
XRECORD
  5
2D4E
102
{ACAD_REACTORS
330
192C
102
}
330
192C
100
AcDbXrecord
280
     1
102
SHADEPLOT
 70
     0
102
SHADEPLOTRESLEVEL
 70
     2
102
SHADEPLOTCUSTOMDPI
 70
   300
  0
XRECORD
  5
192D
102
{ACAD_REACTORS
330
192C
102
}
330
192C
100
AcDbXrecord
280
     1
310
28000000B40000007F00000001000800000000004C590000000000000000000000010000000000000000000000000000FFFFFF000000000000000000000000000000000000000000000000000000000000000000330000006600000099000000CC000000FF00000000330000333300006633000099330000CC330000FF3300
310
0000660000336600006666000099660000CC660000FF66000000990000339900006699000099990000CC990000FF99000000CC000033CC000066CC000099CC0000CCCC0000FFCC000000FF000033FF000066FF000099FF0000CCFF0000FFFF000000003300330033006600330099003300CC003300FF003300003333003333
310
33006633330099333300CC333300FF33330000663300336633006666330099663300CC663300FF66330000993300339933006699330099993300CC993300FF99330000CC330033CC330066CC330099CC3300CCCC3300FFCC330000FF330033FF330066FF330099FF3300CCFF3300FFFF330000006600330066006600660099
310
006600CC006600FF00660000336600333366006633660099336600CC336600FF33660000666600336666006666660099666600CC666600FF66660000996600339966006699660099996600CC996600FF99660000CC660033CC660066CC660099CC6600CCCC6600FFCC660000FF660033FF660066FF660099FF6600CCFF6600
310
FFFF660000009900330099006600990099009900CC009900FF00990000339900333399006633990099339900CC339900FF33990000669900336699006666990099669900CC669900FF66990000999900339999006699990099999900CC999900FF99990000CC990033CC990066CC990099CC9900CCCC9900FFCC990000FF99
310
0033FF990066FF990099FF9900CCFF9900FFFF99000000CC003300CC006600CC009900CC00CC00CC00FF00CC000033CC003333CC006633CC009933CC00CC33CC00FF33CC000066CC003366CC006666CC009966CC00CC66CC00FF66CC000099CC003399CC006699CC009999CC00CC99CC00FF99CC0000CCCC0033CCCC0066CC
310
CC0099CCCC00CCCCCC00FFCCCC0000FFCC0033FFCC0066FFCC0099FFCC00CCFFCC00FFFFCC000000FF003300FF006600FF009900FF00CC00FF00FF00FF000033FF003333FF006633FF009933FF00CC33FF00FF33FF000066FF003366FF006666FF009966FF00CC66FF00FF66FF000099FF003399FF006699FF009999FF00CC
310
99FF00FF99FF0000CCFF0033CCFF0066CCFF0099CCFF00CCCCFF00FFCCFF0000FFFF0033FFFF0066FFFF0099FFFF00CCFFFF00FFFFFF00000000000D0D0D001A1A1A00282828003535350043434300505050005D5D5D006B6B6B00787878008686860093939300A1A1A100AEAEAE00BBBBBB00C9C9C900D6D6D600E4E4E400
310
F1F1F100FFFFFF0000000000000000000000000000000000000000000000000000000000000000000000000000000000F5F5F5F5F5F5F5F5F5F5F5F5F5F5F5F5F5F5F5F5F5F5F5F5F5F5F5F5F5F5F5F5F5F5F5F5F5F5F5F5F5F5F5F5F5F5F5F5F5F5F5F5F5F5F5F5F5F5F5F5F5F5F5F5F5F5F5F5F5F5F5F5F5F5F5F5F5F5F5
310
F5F5F5F5F5F5F5F5F5F5F5F5F5F5F5F5F5F5F5F5F5F5F5F5F5F5F5F5F5F5F5F5F5F5F5F5F5F5F5F5F5F5F5F5F5F5F5F5F5F5F5F5F5F5F5F5F5F5F5F5F5F5F5F5F5F5F5F5F5F5F5F5F5F5F5F5F5F5F5F5F5F5F5F5F5F5F5F5F5F5F5F5F5F5F5F5F5F5F5F5F5F5E2E2E2E2E2E2E2E2E2E2E2E2E2E2E2E2E2E2E2E2E2E2E2E2E2
310
E2E2E2E2E2E2E2E2E2E2E2E2E2E2E2E2E2E2E2E2E2E2E2E2E2E2E2E2E2E2E2E2E2E2E2E2E2E2E2E2E2E2E2E2E2E2E2E2E2E2E2E2E2E2E2E2E2E2E2E2E2E2E2E2E2E2E2E2E2E2E2E2E2E2E2E2E2E2E2E2E2E2E2E2E2E2E2E2E2E2E2E2E2E2E2E2E2E2E2E2E2E2E2E2E2E2E2E2E2E2E2E2E2E2E2E2E2E2E2E2E2E2E2E2E2E2E2
310
E2E2E2E2E2E2E2E2E2E2E2E2E2E2E2E2E2E2E2E2E2E2E2E2E2E2F5F5E2E2F5F5F5F5F5F5F5F5E2E2E2E2E2E2E2E2E2F5F5F5F5F5F5F5F5F5F5F5F5F5F5F5E2E2E2E2E2E2E2E2E2F5F5F5F5F5F5F5F5F5F5F5F5F5F5F5E2E2E2E2E2E2E2E2F5F5F5F5F5F5F5F5F5F5F5F5F5F5F5F5E2E2E2E2E2E2E2E2F5F5F5F5F5F5F5F5F5
310
F5F5F5F5F5F5F5E2E2E2E2E2E2E2E2F5F5F5F5F5F5F5F5F5F5F5F5F5F5F5E2E2E2E2E2E2E2E2E2F5F5F5F5F5F5F5F5F5F5F5F5F5F5F5E2E2E2E2E2E2E2E2E2F5F5F5F5F5F5F5F5E2E2E2E2E2E2E2E2F5F5E2E2F5E2E2E2E2E2E2E2E2E2E2E2E2E2E2E2E2E2E2E2E2E2E2E2E2E2E2E2E2E2E2E2E2E2E2E2E2E2E2E2E2E2E2E2
310
E2E2E2E2E2E2E2E2E2E2E2E2E2E2E2E2E2E2E2E2E2E2E2E2E2E2E2E2E2E2E2E2E2E2E2E2E2E2E2E2E2E2E2E2E2E2E2E2E2E2E2E2E2E2E2E2E2E2E2E2E2E2E2E2E2E2E2E2E2E2E2E2E2E2E2E2E2E2E2E2E2E2E2E2E2E2E2E2E2E2E2E2E2E2E2E2E2E2E2E2E2E2E2E2E2E2E2E2E2E2E2E2E2E2E2E2E2E2E2E2E2E2E2F5E2E2E2
310
E2E2E2E2E2F5F5E2E2F5E2E2E2E2E2E2E2E2E2E2E2E2E2E2E2E2E2E2E2E2E2E2E2E2E2E2E2E2E2E2E2E2E2E2E2E2E2E2E2E2E2E2E2E2E2E2E2E2E2E2E2E2E2E2E2E2E2E2E2E2E2E2E2E2E2E2E2E2E2E2E2E2E2E2E2E2E2E2E2E2E2E2E2E2E2E2E2E2E2E2E2E2E2E2E2E2E2E2E2E2E2E2E2E2E2E2E2E2E2E2E2E2E2E2E2E2E2
310
E2E2E2E2E2E2E2E2E2E2E2E2E2E2E2E2E2E2E2E2E2E2E2E2E2E2E2E2E2E2E2E2E2E2E2E2E2E2E2E2E2E2E2E2E2E2E2E2E2F5E2E2E2E2E2E2E2E2F5F5E2E2F5E2E2E2E2E2E2E2E2E2E2E2E2E2E2E2E2E2E2E2E2E2E2E2E2E2E2E2E2E2E2E2E2E2E2E2E2E2E2E2E2E2E2E2E2E2E2E2E2E2E2E2E2E2E2E2E2E2E2E2E2E2E2E2E2
310
E2E2E2E2E2E2E2E2E2E2E2E2E2E2E2E2E2E2E2E2E2E2E2E2E2E2E2E2E2E2E2E2E2E2E2E2E2E2E2E2E2E2E2E2E2E2E2E2E2E2E2E2E2E2E2E2E2E2E2E2E2E2E2E2E2E2E2E2E2E2E2E2E2E2E2E2E2E2E2E2E2E2E2E2E2E2E2E2E2E2E2E2E2E2E2E2E2E2E2E2E2E2F5E2E2E2E2E2E2E2E2F5F5E2E2F5E2E2E2E2E2E2E2E2E2E2E2
310
E2E2E2E2E2E2E2E2E2E2E2E2E2E2E2E2E2E2E2E2E2E2E2E2E2E2E2E2E2E2E2E2E2E2E2E2E2E2E2E2E2E2E2E2E2E2E2E2E2E2E2E2E2E2E2E2E2E2E2E2E2E2E2E2E2E2E2E2E2E2E2E2E2E2E2E2E2E2E2E2E2E2E2E2E2E2E2E2E2E2E2E2E2E2E2E2E2E2E2E2E2E2E2E2E2E2E2E2E2E2E2E2E2E2E2E2E2E2E2E2E2E2E2E2E2E2E2
310
E2E2E2E2E2E2E2E2E2E2E2E2E2E2E2E2E2E2E2E2E2E2E2E2E2E2E2E2F5E2E2E2E2E2E2E2E2F5F5E2E2F5E2E2E2E2E2E2E2E2E2E2E2E2E2E2E2E2E2E2E2E2E2E2E2E2E2E2E2E2E2E2E2E2E2E2E2E2E2E2E2E2E2E2E2E2E2E2E2E2E2E2E2E2E2E2E2E2E2E2E2E2E2E2E2E2E2E2E2E2E2E2E2E2E2E2E2E2E2E2E2E2E2E2E2E2E2
310
E2E2E2E2E2E2E2E2E2E2E2E2E2E2E2E2E2E2E2E2E2E2E2E2E2E2E2E2E2E2E2E2E2E2E2E2E2E2E2E2E2E2E2E2E2E2E2E2E2E2E2E2E2E2E2E2E2E2E2E2E2E2E2E2E2E2E2E2E2E2E2E2E2E2E2E2E2E2E2E2E2F5E2E2E2E2E2E2E2E2F5F5E2E2F5E2E2E2E2E2E2E2E2E2E2E2E2E2E2E2E2E2E2E2E2E2E2E2E2E2E2E2E2E2E2E2E2
310
E2E2E2E2E2E2E2E2E2E2E2E2E2E2E2E2E2E2E2E2E2E2E2E2E2E2E2E2E2E2E2E2E2E2E2E2E2E2E2E2E2E2E2E2E2E2E2E2E2E2E2E2E2E2E2E2E2E2E2E2E2E2E2E2E2E2E2E2E2E2E2E2E2E2E2E2E2E2E2E2E2E2E2E2E2E2E2E2E2E2E2E2E2E2E2E2E2E2E2E2E2E2E2E2E2E2E2E2E2E2E2E2E2E2E2E2E2E2E2E2E2E2E2E2E2E2E2
310
E2E2E2E2E2E2E2F5E2E2E2E2E2E2E2E2F5F5E2E2F5E2E2E2E2E2E2E2E2E2E2E2E2E2E2E2E2E2E2E2E2E2E2E2E2E2E2E2E2E2E2E2E2E2E2E2E2E2E2E2E2E2E2E2E2E2E2E2E2E2E2E2E2E2E2E2E2E2E2E2E2E2E2E2E2E2E2E2E2E2E2E2E2E2E2E2E2E2E2E2E2E2E2E2E2E2E2E2E2E2E2E2E2E2E2E2E2E2E2E2E2E2E2E2E2E2E2
310
E2E2E2E2E2E2E2E2E2E2E2E2E2E2E2E2E2E2E2E2E2E2E2E2E2E2E2E2E2E2E2E2E2E2E2E2E2E2E2E2E2E2E2E2E2E2E2E2E2E2E2E2E2E2E2E2E2E2E2E2F5E2E2E2E2E2E2E2E2F5F5E2E2E2E2E2E2E2E2E2E2E2E2E2E2E2E2E2E2E2E2E2E2E2E2E2E2E2E2E2E2E2E2E2E2E2E2E2E2E2E2E2E2E2E2E2E2E2E2E2E2E2E2E2E2E2E2
310
E2E2E2E2E2E2E2E2E2E2E2E2E2E2E2E2E2E2E2E2E2E2E2E2E2E2E2E2E2E2E2E2E2E2E2E2E2E2E2E2E2E2E2E2E2E2E2E2E2E2E2E2E2E2E2E2E2E2E2E2E2E2E2E2E2E2E2E2E2E2E2E2E2E2E2E2E2E2E2E2E2E2E2E2E2E2E2E2E2E2E2E2E2E2E2E2E2E2E2E2E2E2E2E2E2E2E2E2E2E2E2E2E2E2E2E2E2E2E2E2E2E2F5F5E2E2E2
310
E2E2E2E2E2E2E2E2E2E2E2E2E2E2E2E2E2E2E2E2E2E2E2E2E2E2E2E2E2E2E2E2E2E2E2E2E2E2E2E2E2E2E2E2E2E2E2E2E2E2E2E2E2E2E2E2E2E2E2E2E2E2E2E2E2E2E2E2E2E2E2E2E2E2E2E2E2E2E2E2E2E2E2E2E2E2E2E2E2E2E2E2E2E2E2E2E2E2E2E2E2E2E2E2E2E2E2E2E2E2E2E2E2E2E2E2E2E2E2E2E2E2E2E2E2E2E2
310
E2E2E2E2E2E2E2E2E2E2E2E2E2E2E2E2E2E2E2E2E2E2E2E2E2E2E2E2E2E2E2E2E2E2E2E2E2E2E2E2E2E2E2E2E2E2E2E2F5F5E2E2E2E2E2E2E2E2E2E2E2E2E2E2E2E2E2E2E2E2E2E2E2E2E2E2E2E2E2E2E2E2E2E2E2E2E2E2E2E2E2E2E2E2E2E2E2E2E2E2E2E2E2E2E2E2E2E2E2E2E2E2E2E2E2E2E2E2E2E2E2E2E2E2E2E2E2
310
E2E2E2E2E2E2E2E2E2E2E2E2E2E2E2E2E2E2E2E2E2E2E2E2E2E2E2E2E2E2E2E2E2E2E2E2E2E2E2E2E2E2E2E2E2E2E2E2E2E2E2E2E2E2E2E2E2E2E2E2E2E2E2E2E2E2E2E2E2E2E2E2E2E2E2E2E2E2E2E2E2E2E2E2E2E2E2E2E2E2E2E2E2E2E2E2E2E2E2E2E2F5F5E2E2E2E2E2E2E2E2E2E2E2E2E2E2E2E2E2E2E2E2E2E2E2E2
310
E2E2E2E2E2E2E2E2E2E2E2E2E2E2E2E2E2E2E2E2E2E2E2E2E2E2E2E2E2E2E2E2E2E2E2E2E2E2E2E2E2E2E2E2E2E2E2E2E2E2E2E2E2E2E2E2E2E2E2E2E2E2E2E2E2E2E2E2E2E2E2E2E2E2E2E2E2E2E2E2E2E2E2E2E2E2E2E2E2E2E2E2E2E2E2E2E2E2E2E2E2E2E2E2E2E2E2E2E2E2E2E2E2E2E2E2E2E2E2E2E2E2E2E2E2E2E2
310
E2E2E2E2E2E2E2E2E2E2E2E2E2E2E2E2E2E2E2E2E2E2E2E2E2E2E2F5F5E2E2E2E2E2E2E2E2E2E2E2E2E2E2E2E2E2E2F5F5F5F5F5F5F5F5F5F5F5F5F5F5F5F5F5F5F5F5F5F5F5F5F5F5F5F5F5F5F5F5F5F5F5F5F5F5F5F5F5F5F5F5F5F5F5F5F5F5F5F5F5F5F5F5F5F5F5F5F5F5F5F5F5F5F5F5F5F5F5F5F5F5F5F5F5F5F5F5
310
F5F5F5F5F5F5F5F5F5F5F5F5F5F5F5F5F5F5F5F5F5F5F5F5F5F5F5F5F5F5F5F5F5F5F5F5F5F5F5F5F5F5F5F5F5F5F5F5F5F5F5F5F5F5F5E2E2E2E2E2E2E2E2E2E2E2E2E2E2E2E2E2E2E2E2E2E2E2E2E2F5F5E2E2E2E2E2E2E2E2E2E2E2E2E2E2E2E2E2E2F5E2E2E2E2E2E2E2E2E2E2E2E2E2E2E2E2E2E2E2E2E2E2E2E2E2E2
310
E2E2E2E2E2E2E2E2E2E2E2E2E2E2E2E2E2E2E2E2E2E2E2E2E2E2E2E2E2E2E2E2E2E2E2E2E2E2E2E2E2E2E2E2E2E2E2E2E2E2E2E2E2E2E2E2E2E2E2E2E2E2E2E2E2E2E2E2E2E2E2E2E2E2E2E2E2E2E2E2E2E2E2E2E2E2E2E2E2E2E2E2E2E2E2E2E2E2E2E2E2E2E2E2E2E2E2F5E2E2E2E2E2E2E2E2E2E2E2E2E2E2E2E2E2E2E2
310
E2E2E2E2E2E2F5F5E2E2E2E2E2E2E2E2E2E2E2E2E2E2E2E2E2E2F5E2E2E2E2E2E2E2E2E2E2E2E2E2E2E2E2E2E2E2E2E2E2E2E2E2E2E2E2E2E2E2E2E2E2E2E2E2E2E2E2E2E2E2E2E2E2E2E2E2E2E2E2E2E2E2E2E2E2E2E2E2E2E2E2E2E2E2E2E2E2E2E2E2E2E2E2E2E2E2E2E2E2E2E2E2E2E2E2E2E2E2E2E2E2E2E2E2E2E2E2
310
E2E2E2E2E2E2E2E2E2E2E2E2E2E2E2E2E2E2E2E2E2E2E2E2E2E2E2E2E2E2E2E2E2F5E2E2E2E2E2E2E2E2E2E2E2E2E2E2E2E2E2E2E2E2E2E2E2E2E2F5F5E2E2E2E2E2E2E2E2E2E2E2E2E2E2E2E2E2E2F5E2E2E2E2E2E2E2E2E2E2E2E2E2E2E2E2E2E2E2E2E2E2E2E2E2E2E2E2E2E2E2E2E2E2E2E2E2E2E2E2E2E2E2E2E2E2E2
310
E2E2E2E2E2E2E2E2E2E2E2E2E2E2E2E2E2E2E2E2E2E2E2E2E2E2E2E2E2E2E2E2E2E2E2E2E2E2E2E2E2E2E2E2E2E2E2E2E2E2E2E2E2E2E2E2E2E2E2E2E2E2E2E2E2E2E2E2E2E2E2E2E2E2E2E2E2E2E2E2E2E2E2E2E2E2F5E2E2E2E2E2E2E2E2E2E2E2E2E2E2E2E2E2E2E2E2E2E2E2E2E2F5F5E2E2E2E2E2E2E2E2E2E2E2E2E2
310
E2E2E2E2E2F5E2E2F5F5F5F5F5F5F5F5F5F5F5F5F5F5F5F5F5F5F5F5F5F5F5F5F5F5F5F5F5F5F5F5F5F5F5F5F5F5F5F5F5F5F5F5F5F5F5F5F5F5F5F5F5F5F5F5F5F5F5F5F5F5F5F5F5F5F5F5F5F5F5F5F5F5F5F5F5F5F5F5F5F5F5F5F5F5F5F5F5F5F5F5F5F5F5F5F5F5F5F5F5F5F5F5F5F5F5F5F5F5F5F5F5F5F5F5F5F5F5
310
F5F5F5F5F5F5F5F5F5F5F5F5F5E2E2E2E2E2E2E2E2E2E2E2E2E2E2E2E2E2E2E2E2E2E2E2E2E2F5F5E2E2F5E2E2E2E2E2E2E2E2E2E2E2E2E2E2E2F5E2E2F5E2E2E2E2E2E2E2E2E2E2E2E2E2E2E2E2E2E2E2E2E2E2E2E2E2E2E2E2E2E2E2E2E2E2E2E2E2E2E2E2E2E2E2E2E2E2E2E2E2E2E2E2E2E2E2E2E2E2E2E2E2E2E2E2E2
310
E2E2E2E2E2E2E2E2E2E2E2E2E2E2E2E2E2E2E2E2E2E2E2E2E2E2E2E2E2E2E2E2E2E2E2E2E2E2E2E2E2E2E2E2E2E2E2E2E2E2E2E2E2E2E2E2E2E2E2E2E2E2E2E2E2F5E2E2E2E2E2E2E2E2E2E2E2E2E2E2E2E2F5E2E2E2E2E2E2E2E2F5F5E2E2F5E2E2E2E2E2E2E2E2E2E2E2E2E2E2E2F5E2E2F5E2E2E2E2E2E2E2E2E2E2E2E2
310
E2E2E2E2E2E2E2E2E2E2E2E2E2E2E2E2E2E2E2E2E2E2E2E2E2E2E2E2E2E2E2E2E2E2E2E2E2E2E2E2E2E2E2E2E2E2E2E2E2E2E2E2E2E2E2E2E2E2E2E2E2E2E2E2E2E2E2E2E2E2E2E2E2E2E2E2E2E2E2E2E2E2E2E2E2E2E2E2E2E2E2E2E2E2E2E2E2E2E2E2E2E2E2E2E2E2E2E2E2E2E2E2E2E2E2E2E2E2F5E2E2E2E2E2E2E2E2
310
E2E2E2E2E2E2E2E2F5E2E2E2E2E2E2E2E2F5F5E2E2F5E2E2E2E2E2E2E2E2E2E2E2E2E2E2E2F5E2E2F5E2E2E2E2E2E2E2E2E2E2E2E2E2E2E2E2E2E2E2E2E2E2E2E2E2E2E2E2E2E2E2E2E2E2E2E2E2E2E2E2E2E2E2E2E2E2E2E2E2E2E2E2E2E2E2E2E2E2E2E2E2E2E2E2E2E2E2E2E2E2E2E2E2E2E2E2E2E2E2E2E2E2E2E2E2E2
310
E2E2E2E2E2E2E2E2E2E2E2E2E2E2E2E2E2E2E2E2E2E2E2E2E2E2E2E2E2E2E2E2E2E2E2E2E2E2E2E2E2E2E2E2F5E2E2E2E2E2E2E2E2E2E2E2E2E2E2E2E2F5E2E2E2E2E2E2E2E2F5F5E2E2F5E2E2E2E2E2E2E2E2E2E2E2E2E2E2E2F5E2E2F5E2E2E2E2E2E2E2E2E2E2E2E2E2E2E2E2E2E2E2E2E2E2E2E2E2E2E2E2E2E2E2E2E2
310
E2E2E2E2E2E2E2E2E2E2E2E2E2E2E2E2E2E2E2E2E2E2E2E2E2E2E2E2E2E2E2E2E2E2E2E2E2E2E2E2E2E2E2E2E2E2E2E2E2E2E2E2E2E2E2E2E2E2E2E2E2E2E2E2E2E2E2E2E2E2E2E2E2E2E2E2E2E2E2E2E2E2E2E2E2E2E2E2E2E2E2E2E2E2E2E2E2F5E2E2E2E2E2E2E2E2E2E2E2E2E2E2E2E2F5E2E2E2E2E2E2E2E2F5F5E2E2
310
F5E2E2E2E2E2E2E2E2E2E2E2E2E2E2E2F5E2E2F5E2E2E2E2E2E2E2E2E2E2E2E2E2E2E2E2E2E2E2E2E2E2E2E2E2E2E2E2E2E2E2E2E2E2E2E2E2E2E2E2E2E2E2E2E2E2E2E2E2E2E2E2E2E2E2E2E2E2E2E2E2E2E2E2E2E2E2E2E2E2E2E2E2E2E2E2E2E2E2E2E2E2E2E2E2E2E2E2E2E2E2E2E2E2E2E2E2E2E2E2E2E2E2E2E2E2E2
310
E2E2E2E2E2E2E2E2E2E2E2E2E2E2E2E2E2E2E2E2E2E2E2F5E2E2E2E2E2E2E2E2E2E2E2E2E2E2E2E2F5E2E2E2E2E2E2E2E2F5F5E2E2F5E2E2E2E2E2E2E2E2E2E2E2E2E2E2E2F5E2E2F5E2E2E2E2E2E2E2E2E2E2E2E2E2E2E2E2E2E2E2E2E2E2E2E2E2E2E2E2E2E2E2E2E2E2E2E2E2E2E2E2E2E2E2E2E2E2E2E2E2E2E2E2E2E2
310
E2E2E2E2E2E2E2E2E2E2E2E2E2E2E2E2E2E2E2E2E2E2E2E2E2E2E2E2E2E2E2E2E2E2E2E2E2E2E2E2E2E2E2E2E2E2E2E2E2E2E2E2E2E2E2E2E2E2E2E2E2E2E2E2E2E2E2E2E2E2E2E2E2E2E2E2F5E2E2E2E2E2E2E2E2E2E2E2E2E2E2E2E2F5E2E2E2E2E2E2E2E2F5F5E2E2F5E2E2E2E2E2E2E2E2E2E2E2E2E2E2E2F5E2E2F5E2
310
E2E2E2E2E2E2E2E2E2E2E2E2E2E2E2E2E2E2E2E2E2E2E2E2E2E2E2E2E2E2E2E2E2E2E2E2E2E2E2E2E2E2E2E2E2E2E2E2E2E2E2E2E2E2E2E2E2E2E2E2E2E2E2E2E2E2E2E2E2E2E2E2E2E2E2E2E2E2E2E2E2E2E2E2E2E2E2E2E2E2E2E2E2E2E2E2E2E2E2E2E2E2E2E2E2E2E2E2E2E2E2E2E2E2E2E2E2E2E2E2E2E2E2E2E2E2E2
310
E2E2F5E2E2E2E2E2E2E2E2E2E2E2E2E2E2E2E2F5E2E2E2E2E2E2E2E2F5F5E2E2F5E2E2E2E2E2E2E2E2E2E2E2E2E2E2E2F5E2E2F5E2E2E2E2E2E2E2E2E2E2E2E2E2E2E2E2E2E2E2E2E2E2E2E2E2E2E2E2E2E2E2E2E2E2E2E2E2E2E2E2E2E2E2E2E2E2E2E2E2E2E2E2E2E2E2E2E2E2E2E2E2E2E2E2E2E2E2E2E2E2E2E2E2E2E2
310
E2E2E2E2E2E2E2E2E2E2E2E2E2E2E2E2E2E2E2E2E2E2E2E2E2E2E2E2E2E2E2E2E2E2E2E2E2E2E2E2E2E2E2E2E2E2E2E2E2E2E2E2E2E2E2F5E2E2E2E2E2E2E2E2E2E2E2E2E2E2E2E2F5E2E2E2E2E2E2E2E2F5F5E2E2F5E2E2E2E2E2E2E2E2E2E2E2E2E2E2E2F5E2E2F5E2E2E2E2E2E2E2E2E2E2E2E2E2E2E2E2E2E2E2E2E2E2
310
E2E2E2E2E2E2E2E2E2E2E2E2E2E2E2E2E2E2E2E2E2E2E2E2E2E2E2E2E2E2E2E2E2E2E2E2E2E2E2E2E2E2E2E2E2E2E2E2E2E2E2E2E2E2E2E2E2E2E2E2E2E2E2E2E2E2E2E2E2E2E2E2E2E2E2E2E2E2E2E2E2E2E2E2E2E2E2E2E2E2E2E2E2E2E2E2E2E2E2E2E2E2E2E2E2E2E2E2F5E2E2E2E2E2E2E2E2E2E2E2E2E2E2E2E2F5E2
310
E2E2E2E2E2E2E2F5F5E2E2F5E2E2E2E2E2E2E2E2E2E2E2E2E2E2E2F5E2E2F5E2E2E2E2E2E2E2E2E2E2E2E2E2E2E2E2E2E2E2E2E2E2E2E2E2E2E2E2E2E2E2E2E2E2E2E2E2E2E2E2E2E2E2E2E2E2E2E2E2E2E2E2E2E2E2E2E2E2E2E2E2E2E2E2E2E2E2E2E2E2E2E2E2E2E2E2E2E2E2E2E2E2E2E2E2E2E2E2E2E2E2E2E2E2E2E2
310
E2E2E2E2E2E2E2E2E2E2E2E2E2E2E2E2E2E2E2E2E2E2E2E2E2E2E2E2E2E2E2E2E2E2F5E2E2E2E2E2E2E2E2E2E2E2E2E2E2E2E2F5E2E2E2E2E2E2E2E2F5F5E2E2F5E2E2E2E2E2E2E2E2E2E2E2E2E2E2E2F5E2E2F5E2E2E2E2E2E2E2E2E2E2E2E2E2E2E2E2E2E2E2E2E2E2E2E2E2E2E2E2E2E2E2E2E2E2E2E2E2E2E2E2E2E2E2
310
E2E2E2E2E2E2E2E2E2E2E2E2E2E2E2E2E2E2E2E2E2E2E2E2E2E2E2E2E2E2E2E2E2E2E2E2E2E2E2E2E2E2E2E2E2E2E2E2E2E2E2E2E2E2E2E2E2E2E2E2E2E2E2E2E2E2E2E2E2E2E2E2E2E2E2E2E2E2E2E2E2E2E2E2E2E2E2F5E2E2E2E2E2E2E2E2E2E2E2E2E2E2E2E2F5E2E2E2E2E2E2E2E2F5F5E2E2F5E2E2E2E2E2E2E2E2E2
310
E2E2E2E2E2E2F5E2E2F5E2E2E2E2E2E2E2E2E2E2E2E2E2E2E2E2E2E2E2E2E2E2E2E2E2E2E2E2E2E2E2E2E2E2E2E2E2E2E2E2E2E2E2E2E2E2E2E2E2E2E2E2E2E2E2E2E2E2E2E2E2E2E2E2E2E2E2E2E2E2E2E2E2E2E2E2E2E2E2E2E2E2E2E2E2E2E2E2E2E2E2E2E2E2E2E2E2E2E2E2E2E2E2E2E2E2E2E2E2E2E2E2E2E2E2E2E2
310
E2E2E2E2E2E2E2E2E2E2E2E2E2F5E2E2E2E2E2E2E2E2E2E2E2E2E2E2E2E2F5E2E2E2E2E2E2E2E2F5F5E2E2F5E2E2E2E2E2E2E2E2E2E2E2E2E2E2E2F5E2E2F5E2E2E2E2E2E2E2E2E2E2E2E2E2E2E2E2E2E2E2E2E2E2E2E2E2E2E2E2E2E2E2E2E2E2E2E2E2E2E2E2E2E2E2E2E2E2E2E2E2E2E2E2E2E2E2E2E2E2E2E2E2E2E2E2
310
E2E2E2E2E2E2E2E2E2E2E2E2E2E2E2E2E2E2E2E2E2E2E2E2E2E2E2E2E2E2E2E2E2E2E2E2E2E2E2E2E2E2E2E2E2E2E2E2E2E2E2E2E2E2E2E2E2E2E2E2E2E2E2E2E2E2F5E2E2E2E2E2E2E2E2E2E2E2E2E2E2E2E2F5E2E2E2E2E2E2E2E2F5F5E2E2F5E2E2E2E2E2E2E2E2E2E2E2E2E2E2E2F5E2E2F5E2E2E2E2E2E2E2E2E2E2E2
310
E2E2E2E2E2E2E2E2E2E2E2E2E2E2E2E2E2E2E2E2E2E2E2E2E2E2E2E2E2E2E2E2E2E2E2E2E2E2E2E2E2E2E2E2E2E2E2E2E2E2E2E2E2E2E2E2E2E2E2E2E2E2E2E2E2E2E2E2E2E2E2E2E2E2E2E2E2E2E2E2E2E2E2E2E2E2E2E2E2E2E2E2E2E2E2E2E2E2E2E2E2E2E2E2E2E2E2E2E2E2E2E2E2E2E2E2E2E2E2F5E2E2E2E2E2E2E2
310
E2E2E2E2E2E2E2E2E2F5E2E2E2E2E2E2E2E2F5F5E2E2F5E2E2E2E2E2E2E2E2E2E2E2E2E2E2E2F5E2E2F5E2E2E2E2E2E2E2E2E2E2E2E2E2E2E2E2E2E2E2E2E2E2E2E2E2E2E2E2E2E2E2E2E2E2E2E2E2E2E2E2E2E2E2E2E2E2E2E2E2E2E2E2E2E2E2E2E2E2E2E2E2E2E2E2E2E2E2E2E2E2E2E2E2E2E2E2E2E2E2E2E2E2E2E2E2
310
E2E2E2E2E2E2E2E2E2E2E2E2E2E2E2E2E2E2E2E2E2E2E2E2E2E2E2E2E2E2E2E2E2E2E2E2E2E2E2E2E2E2E2E2E2F5E2E2E2E2E2E2E2E2E2E2E2E2E2E2E2E2F5E2E2E2E2E2E2E2E2F5F5E2E2E2E2E2E2E2E2E2E2E2E2E2E2E2E2E2E2F5E2E2F5E2E2E2E2E2E2E2E2E2E2E2E2E2E2E2E2E2E2E2E2E2E2E2E2E2E2E2E2E2E2E2E2
310
E2E2E2E2E2E2E2E2E2E2E2E2E2E2E2E2E2E2E2E2E2E2E2E2E2E2E2E2E2E2E2E2E2E2E2E2E2E2E2E2E2E2E2E2E2E2E2E2E2E2E2E2E2E2E2E2E2E2E2E2E2E2E2E2E2E2E2E2E2E2E2E2E2E2E2E2E2E2E2E2E2E2E2E2E2E2E2E2E2E2E2E2E2E2E2E2E2E2F5E2E2E2E2E2E2E2E2E2E2E2E2E2E2E2E2E2E2E2E2E2E2E2E2E2F5F5E2
310
E2E2E2E2E2E2E2E2E2E2E2E2E2E2E2E2E2F5E2E2F5E2E2E2E2E2E2E2E2E2E2E2E2E2E2E2E2E2E2E2E2E2E2E2E2E2E2E2E2E2E2E2E2E2E2E2E2E2E2E2E2E2E2E2E2E2E2E2E2E2E2E2E2E2E2E2E2E2E2E2E2E2E2E2E2E2E2E2E2E2E2E2E2E2E2E2E2E2E2E2E2E2E2E2E2E2E2E2E2E2E2E2E2E2E2E2E2E2E2E2E2E2E2E2E2E2E2
310
E2E2E2E2E2E2E2E2E2E2E2E2E2E2E2E2E2E2E2E2E2E2E2E2F5E2E2E2E2E2E2E2E2E2E2E2E2E2E2E2E2E2E2E2E2E2E2E2E2E2F5F5E2E2E2E2E2E2E2E2E2E2E2E2E2E2E2E2E2E2F5E2E2F5E2E2E2E2E2E2E2E2E2E2E2E2E2E2E2E2E2E2E2E2E2E2E2E2E2E2E2E2E2E2E2E2E2E2E2E2E2E2E2E2E2E2E2E2E2E2E2E2E2E2E2E2E2
310
E2E2E2E2E2E2E2E2E2E2E2E2E2E2E2E2E2E2E2E2E2E2E2E2E2E2E2E2E2E2E2E2E2E2E2E2E2E2E2E2E2E2E2E2E2E2E2E2E2E2E2E2E2E2E2E2E2E2E2E2E2E2E2E2E2E2E2E2E2E2E2E2E2E2E2E2E2F5E2E2E2E2E2E2E2E2E2E2E2E2E2E2E2E2E2E2E2E2E2E2E2E2E2F5F5E2E2E2E2E2E2E2E2E2E2E2E2E2E2E2E2E2E2F5E2E2F5
310
E2E2E2E2E2E2E2E2E2E2E2E2E2E2E2E2E2E2E2E2E2E2E2E2E2E2E2E2E2E2E2E2E2E2E2E2E2E2E2E2E2E2E2E2E2E2E2E2E2E2E2E2E2E2E2E2E2E2E2E2E2E2E2E2E2E2E2E2E2E2E2E2E2E2E2E2E2E2E2E2E2E2E2E2E2E2E2E2E2E2E2E2E2E2E2E2E2E2E2E2E2E2E2E2E2E2E2E2E2E2E2E2E2E2E2E2E2E2E2E2E2E2E2E2E2E2E2
310
E2E2E2F5E2E2E2E2E2E2E2E2E2E2E2E2E2E2E2E2E2E2E2E2E2E2E2E2E2F5F5E2E2E2E2E2E2E2E2E2E2E2E2E2E2E2E2E2E2F5E2E2F5E2E2E2E2E2E2E2E2E2E2E2E2E2E2E2E2E2E2E2E2E2E2E2E2E2E2E2E2E2E2E2E2E2E2E2E2E2E2E2E2E2E2E2E2E2E2E2E2E2E2E2E2E2E2E2E2E2E2E2E2E2E2E2E2E2E2E2E2E2E2E2E2E2E2
310
E2E2E2E2E2E2E2E2E2E2E2E2E2E2E2E2E2E2E2E2E2E2E2E2E2E2E2E2E2E2E2E2E2E2E2E2E2E2E2E2E2E2E2E2E2E2E2E2E2E2E2E2E2E2E2E2F5E2E2E2E2E2E2E2E2E2E2E2E2E2E2E2E2E2E2E2E2E2E2E2E2E2F5F5E2E2E2E2E2E2E2E2E2E2E2E2E2E2E2E2E2E2F5E2E2F5E2E2E2E2E2E2E2E2E2E2E2E2E2E2E2E2E2E2E2E2E2
310
E2E2E2E2E2E2E2E2E2E2E2E2E2E2E2E2E2E2E2E2E2E2E2E2E2E2E2E2E2E2E2E2E2E2E2E2E2E2E2E2E2E2E2E2E2E2E2E2E2E2E2E2E2E2E2E2E2E2E2E2E2E2E2E2E2E2E2E2E2E2E2E2E2E2E2E2E2E2E2E2E2E2E2E2E2E2E2E2E2E2E2E2E2E2E2E2E2E2E2E2E2E2E2E2E2E2E2E2E2F5E2E2E2E2E2E2E2E2E2E2E2E2E2E2E2E2E2
310
E2E2E2E2E2E2E2E2F5F5E2E2E2E2E2E2E2E2E2E2E2E2E2E2E2E2E2E2F5E2E2F5E2E2E2E2E2E2E2E2E2E2E2E2E2E2E2E2E2E2E2E2E2E2E2E2E2E2E2E2E2E2E2E2E2E2E2E2E2E2E2E2E2E2E2E2E2E2E2E2E2E2E2E2E2E2E2E2E2E2E2E2E2E2E2E2E2E2E2E2E2E2E2E2E2E2E2E2E2E2E2E2E2E2E2E2E2E2E2E2E2E2E2E2E2E2E2
310
E2E2E2E2E2E2E2E2E2E2E2E2E2E2E2E2E2E2E2E2E2E2E2E2E2E2E2E2E2E2E2E2E2E2E2F5E2E2E2E2E2E2E2E2E2E2E2E2E2E2E2E2E2E2E2E2E2E2E2E2E2F5F5E2E2E2E2E2E2E2E2E2E2E2E2E2E2E2E2E2E2F5E2E2F5E2E2E2E2E2E2E2E2E2E2E2E2E2E2E2E2E2E2E2E2E2E2E2E2E2E2E2E2E2E2E2E2E2E2E2E2E2E2E2E2E2E2
310
E2E2E2E2E2E2E2E2E2E2E2E2E2E2E2E2E2E2E2E2E2E2E2E2E2E2E2E2E2E2E2E2E2E2E2E2E2E2E2E2E2E2E2E2E2E2E2E2E2E2E2E2E2E2E2E2E2E2E2E2E2E2E2E2E2E2E2E2E2E2E2E2E2E2E2E2E2E2E2E2E2E2E2E2E2E2E2E2F5E2E2E2E2E2E2E2E2E2E2E2E2E2E2E2E2E2E2E2E2E2E2E2E2E2F5F5E2E2E2E2E2E2E2E2E2E2E2
310
E2E2E2E2E2E2E2F5E2E2F5E2E2E2E2E2E2E2E2E2E2E2E2E2E2E2E2E2E2E2E2E2E2E2E2E2E2E2E2E2E2E2E2E2E2E2E2E2E2E2E2E2E2E2E2E2E2E2E2E2E2E2E2E2E2E2E2E2E2E2E2E2E2E2E2E2E2E2E2E2E2E2E2E2E2E2E2E2E2E2E2E2E2E2E2E2E2E2F5F5E2E2E2E2E2E2F5F5E2E2E2E2E2E2F5F5F5E2E2E2E2E2E2E2E2E2E2
310
E2E2E2E2E2E2E2E2E2E2E2E2E2E2F5E2E2E2E2E2E2E2E2E2E2E2E2E2E2E2E2E2E2E2E2E2E2E2E2E2F5F5E2E2F5E2E2E2E2E2E2E2E2E2E2E2E2E2E2E2F5E2E2F5E2E2E2E2E2E2E2E2E2E2E2E2E2E2E2E2E2E2E2E2E2E2E2E2E2E2E2E2E2E2E2E2E2E2E2E2E2E2E2E2E2E2E2E2E2E2E2E2E2E2E2E2E2E2E2E2E2E2E2E2E2E2E2
310
E2E2E2E2E2E2E2E2E2E2E2E2E2E2E2E2E2E2E2E2E2E2E2E2E2E2F5F5E2E2F5F5E2E2E2E2E2E2E2E2E2E2F5E2E2E2E2E2F5E2E2E2E2E2E2E2E2E2E2F5E2E2F5F5F5E2E2F5E2E2E2E2E2E2E2E2E2E2E2E2E2E2E2E2F5E2E2E2E2E2E2E2E2F5F5E2E2F5E2E2E2E2E2E2E2E2E2E2E2E2E2E2E2F5E2E2F5E2E2E2E2E2E2E2E2E2E2
310
E2E2E2E2E2E2E2E2E2E2E2E2E2E2E2E2E2E2E2E2E2E2E2E2E2E2E2E2E2E2E2E2E2E2E2E2E2E2E2E2E2E2E2E2E2E2E2E2E2E2E2E2E2E2E2E2E2E2E2E2E2E2E2E2E2E2F5E2E2E2F5F5E2E2F5E2E2E2E2E2E2F5E2F5E2E2E2E2E2E2E2E2E2E2E2F5E2E2E2E2F5E2F5E2E2F5F5F5E2E2E2E2F5F5E2F5E2E2F5F5F5E2E2E2E2E2E2
310
E2E2E2E2E2E2E2E2E2E2F5E2E2E2E2E2E2E2E2F5F5E2E2F5E2E2E2E2E2E2E2E2E2E2E2E2E2E2E2F5E2E2F5E2E2E2E2E2E2E2E2E2E2E2E2E2E2E2E2E2E2E2E2E2E2E2E2E2E2E2E2E2E2E2E2E2E2E2E2E2E2E2E2E2E2E2E2E2E2E2E2E2E2E2E2E2E2E2E2E2E2E2E2E2E2E2E2E2E2E2E2E2E2E2E2E2E2E2E2E2F5E2E2F5E2E2F5
310
E2E2E2F5F5F5F5F5F5F5F5F5F5E2E2E2E2E2F5E2E2F5E2E2E2E2F5E2F5E2F5E2E2E2E2E2E2E2F5F5E2F5F5F5F5E2F5E2E2E2E2E2E2E2E2E2E2E2E2E2E2E2E2F5E2E2E2E2E2E2E2E2F5F5E2E2F5E2E2E2E2E2E2E2E2E2E2E2E2E2E2E2F5E2E2F5E2E2E2E2E2E2E2E2E2E2E2E2E2E2E2E2E2E2E2E2E2E2E2E2E2E2E2E2E2E2E2
310
E2E2E2E2E2E2E2E2E2E2E2E2E2E2E2E2E2E2E2E2E2E2E2E2E2E2E2E2E2E2E2E2E2E2E2E2E2E2E2E2E2E2E2E2E2E2E2F5E2E2E2F5E2E2E2E2E2E2E2E2E2F5E2E2E2E2E2E2E2E2F5E2E2E2F5E2E2E2E2F5E2E2E2F5E2E2E2E2E2E2E2F5E2E2E2E2F5E2E2F5E2E2E2E2E2E2E2E2E2E2E2E2E2E2E2E2F5E2E2E2E2E2E2E2E2F5F5
310
E2E2F5E2E2E2E2E2E2E2E2E2E2E2E2E2E2E2F5E2E2F5E2E2E2E2E2E2E2E2E2E2E2E2E2E2E2E2E2E2E2E2E2E2E2E2E2E2E2E2E2E2E2E2E2E2E2E2E2E2E2E2E2E2E2E2E2E2E2E2E2E2E2E2E2E2E2E2E2E2E2E2E2E2E2E2E2E2E2E2E2E2E2E2E2E2E2E2F5F5F5F5F5F5E2F5F5E2E2E2E2F5F5F5F5F5F5E2E2E2E2E2F5E2E2E2E2
310
F5E2E2E2E2F5E2E2E2E2E2E2E2E2E2E2E2F5E2E2E2E2F5E2E2F5E2E2E2E2E2E2E2E2E2E2E2E2E2E2E2E2F5E2E2E2E2E2E2E2E2F5F5E2E2F5E2E2E2E2E2E2E2E2E2E2E2E2E2E2E2F5E2E2F5E2E2E2E2E2E2E2E2E2E2E2E2E2E2E2E2E2E2E2E2E2E2E2E2E2E2E2E2E2E2E2E2E2E2E2E2E2E2E2E2E2E2E2E2E2E2E2E2E2E2E2E2
310
E2E2E2E2E2E2E2E2E2E2E2E2E2E2E2E2E2E2E2E2E2E2E2E2E2F5E2F5F5F5E2F5E2E2E2E2E2E2E2E2F5E2E2E2E2E2E2E2E2E2E2E2E2F5E2E2E2E2F5E2E2E2E2E2E2E2E2E2E2E2F5E2E2E2E2F5E2E2F5E2E2E2E2E2E2E2E2E2E2E2E2E2E2E2E2F5E2E2E2E2E2E2E2E2F5F5E2E2F5E2E2E2E2E2E2E2E2E2E2E2E2E2E2E2F5E2E2
310
F5E2E2E2E2E2E2E2E2E2E2E2E2E2E2E2E2E2E2E2E2E2E2E2E2E2E2E2E2E2E2E2E2E2E2E2E2E2E2E2E2E2E2E2E2E2E2E2E2E2E2E2E2E2E2E2E2E2E2E2E2E2E2E2E2E2E2E2E2E2E2E2E2E2E2E2E2E2E2F5E2E2E2F5E2E2E2E2F5F5F5F5F5F5F5F5F5F5E2F5F5F5F5F5F5F5F5F5F5E2E2E2F5E2E2F5E2F5E2E2E2E2E2F5E2F5F5
310
F5F5F5F5F5E2E2E2E2E2E2E2E2E2E2E2E2E2E2E2E2F5E2E2E2E2E2E2E2E2F5F5E2E2F5E2E2E2E2E2E2E2E2E2E2E2E2E2E2E2F5E2E2F5E2E2E2E2E2E2E2E2E2E2E2E2E2E2E2E2E2E2E2E2E2E2E2E2E2E2E2E2E2E2E2E2E2E2E2E2E2E2E2E2E2E2E2E2E2E2E2E2E2E2E2E2E2E2E2E2E2E2E2E2E2E2E2E2E2E2E2E2E2E2E2E2E2
310
E2E2E2E2F5E2E2F5F5E2F5E2E2E2F5F5F5F5F5F5F5F5F5F5E2E2E2E2E2E2E2E2F5E2E2E2E2F5F5E2E2F5F5F5F5E2E2E2E2F5E2E2E2E2F5E2F5F5E2E2E2E2E2E2E2E2E2E2E2E2E2E2E2E2F5E2E2E2E2E2E2E2E2F5F5E2E2F5E2E2E2E2E2E2E2E2E2E2E2E2E2E2E2F5E2E2F5E2E2E2E2E2E2E2E2E2E2E2E2E2E2E2E2E2E2E2E2
310
E2E2E2E2E2E2E2E2E2E2E2E2E2E2E2E2E2E2E2E2E2E2E2E2E2E2E2E2E2E2E2E2E2E2E2E2E2E2E2E2E2E2E2E2E2E2E2E2E2E2E2E2E2E2E2E2F5E2E2E2F5E2E2E2F5E2E2E2E2E2E2E2F5E2E2E2E2E2E2E2E2E2E2E2E2F5E2E2E2E2E2E2E2E2E2E2E2E2E2E2E2E2E2E2E2E2E2F5E2E2F5E2E2E2E2E2E2E2E2E2E2E2E2E2E2E2E2
310
F5E2E2E2E2E2E2E2E2F5F5E2E2F5E2E2E2E2E2E2E2E2E2E2E2E2E2E2E2F5E2E2F5E2E2E2E2E2E2E2E2E2E2E2E2E2E2E2E2E2E2E2E2E2E2E2E2E2E2E2E2E2E2E2E2E2E2E2E2E2E2E2E2E2E2E2E2E2E2E2E2E2E2E2E2E2E2E2E2E2E2E2E2E2E2E2E2E2E2E2E2E2E2E2E2E2E2E2E2E2E2E2E2E2E2E2E2E2E2E2E2E2E2E2E2F5E2
310
E2E2E2E2E2E2E2E2E2E2E2F5E2E2E2E2E2E2E2E2E2E2E2E2E2E2E2E2E2E2E2E2E2E2E2E2F5E2E2E2E2E2E2E2E2E2E2E2E2E2E2E2E2F5E2E2E2E2E2E2E2E2F5F5E2E2F5E2E2E2E2E2E2E2E2E2E2E2E2E2E2E2F5E2E2F5E2E2E2E2E2E2E2E2E2E2E2E2E2E2E2E2E2E2E2E2E2E2E2E2E2E2E2E2E2E2E2E2E2E2E2E2E2E2E2E2E2
310
E2E2E2E2E2E2E2E2E2E2E2E2E2E2E2E2E2E2E2E2E2E2E2E2E2E2E2E2E2E2E2E2E2E2E2E2E2E2E2E2E2E2E2E2E2E2E2E2E2E2E2E2E2E2E2E2E2E2E2E2E2E2E2E2E2E2E2E2E2E2E2E2E2E2E2E2E2E2E2E2E2E2E2E2E2E2E2E2E2F5E2E2E2E2E2E2E2E2E2E2E2E2E2E2E2E2F5E2E2E2E2E2E2E2E2F5F5E2E2F5E2E2E2E2E2E2E2
310
E2E2E2E2E2E2E2E2F5E2E2F5E2E2E2E2E2E2E2E2E2E2E2E2E2E2E2E2E2E2E2E2E2E2E2E2E2E2E2E2E2E2E2E2E2E2E2E2E2E2E2E2E2E2E2E2E2E2E2E2E2E2E2E2E2E2E2E2E2E2E2E2E2E2E2E2E2E2E2E2E2E2E2E2E2E2E2E2E2E2E2E2E2E2E2E2E2E2E2E2E2E2E2E2E2E2E2E2E2E2E2E2E2E2E2E2E2E2E2E2E2E2E2E2E2E2E2
310
E2E2E2E2E2E2E2E2E2E2E2E2E2E2E2F5E2E2E2E2E2E2E2E2E2E2E2E2E2E2E2E2F5E2E2E2E2E2E2E2E2F5F5E2E2F5E2E2E2E2E2E2E2E2E2E2E2E2E2E2E2F5E2E2F5E2E2E2E2E2E2E2E2E2E2E2E2E2E2E2E2E2E2E2E2E2E2E2E2E2E2E2E2E2E2E2E2E2E2E2E2E2E2E2E2E2E2E2E2E2E2E2E2E2E2E2E2E2E2E2E2E2E2E2E2E2E2
310
E2E2E2E2E2E2E2E2E2E2E2E2E2E2E2E2E2E2E2E2E2E2E2E2E2E2E2E2E2E2E2E2E2E2E2E2E2E2E2E2E2E2E2E2E2E2E2E2E2E2E2E2E2E2E2E2E2E2E2E2E2E2E2E2E2E2E2E2F5E2E2E2E2E2E2E2E2E2E2E2E2E2E2E2E2F5E2E2E2E2E2E2E2E2F5F5E2E2F5E2E2E2E2E2E2E2E2E2E2E2E2E2E2E2F5E2E2F5E2E2E2E2E2E2E2E2E2
310
E2E2E2E2E2E2E2E2E2E2E2E2E2E2E2E2E2E2E2E2E2E2E2E2E2E2E2E2E2E2E2E2E2E2E2E2E2E2E2E2E2E2E2E2E2E2E2E2E2E2E2E2E2E2E2E2E2E2E2E2E2E2E2E2E2E2E2E2E2E2E2E2E2E2E2E2E2E2E2E2E2E2E2E2E2E2E2E2E2E2E2E2E2E2E2E2E2E2E2E2E2E2E2E2E2E2E2E2E2E2E2E2E2E2E2E2E2E2E2E2E2F5E2E2E2E2E2
310
E2E2E2E2E2E2E2E2E2E2E2F5E2E2E2E2E2E2E2E2F5F5E2E2F5E2E2E2E2E2E2E2E2E2E2E2E2E2E2E2F5E2E2F5E2E2E2E2E2E2E2E2E2E2E2E2E2E2E2E2E2E2E2E2E2E2E2E2E2E2E2E2E2E2E2E2E2E2E2E2E2E2E2E2E2E2E2E2E2E2E2E2E2E2E2E2E2E2E2E2E2E2E2E2E2E2E2E2E2E2E2E2E2E2E2E2E2E2E2E2E2E2E2E2E2E2E2
310
E2E2E2E2E2E2E2E2E2E2E2E2E2E2E2E2E2E2E2E2E2E2E2E2E2E2E2E2E2E2E2E2E2E2E2E2E2E2E2E2E2E2E2E2E2E2E2F5E2E2E2E2E2E2E2E2E2E2E2E2E2E2E2E2F5E2E2E2E2E2E2E2E2F5F5E2E2F5E2E2E2E2E2E2E2E2E2E2E2E2E2E2E2F5E2E2F5E2E2E2E2E2E2E2E2E2E2E2E2E2E2E2E2E2E2E2E2E2E2E2E2E2E2E2E2E2E2
310
E2E2E2E2E2E2E2E2E2E2E2E2E2E2E2E2E2E2E2E2E2E2E2E2E2E2E2E2E2E2E2E2E2E2E2E2E2E2E2E2E2E2E2E2E2E2E2E2E2E2E2E2E2E2E2E2E2E2E2E2E2E2E2E2E2E2E2E2E2E2E2E2E2E2E2E2E2E2E2E2E2E2E2E2E2E2E2E2E2E2E2E2E2E2E2E2E2E2E2E2F5E2E2E2E2E2E2E2E2E2E2E2E2E2E2E2E2F5E2E2E2E2E2E2E2E2F5
310
F5E2E2E2E2E2E2E2E2E2E2E2E2E2E2E2E2E2E2F5E2E2F5E2E2E2E2E2E2E2E2E2E2E2E2E2E2E2E2E2E2E2E2E2E2E2E2E2E2E2E2E2E2E2E2E2E2E2E2E2E2E2E2E2E2E2E2E2E2E2E2E2E2E2E2E2E2E2E2E2E2E2E2E2E2E2E2E2E2E2E2E2E2E2E2E2E2E2E2E2E2E2E2E2E2E2E2E2E2E2E2E2E2E2E2E2E2E2E2E2E2E2E2E2E2E2E2
310
E2E2E2E2E2E2E2E2E2E2E2E2E2E2E2E2E2E2E2E2E2E2E2E2E2E2F5E2E2E2E2E2E2E2E2E2E2E2E2E2E2E2E2E2E2E2E2E2E2E2E2E2F5F5E2E2E2E2E2E2E2E2E2E2E2E2E2E2E2E2E2E2F5E2E2F5E2E2E2E2E2E2E2E2E2E2E2E2E2E2E2E2E2E2E2E2E2E2E2E2E2E2E2E2E2E2E2E2E2E2E2E2E2E2E2E2E2E2E2E2E2E2E2E2E2E2E2
310
E2E2E2E2E2E2E2E2E2E2E2E2E2E2E2E2E2E2E2E2E2E2E2E2E2E2E2E2E2E2E2E2E2E2E2E2E2E2E2E2E2E2E2E2E2E2E2E2E2E2E2E2E2E2E2E2E2E2E2E2E2E2E2E2E2E2E2E2E2E2E2E2E2E2E2E2E2E2E2F5E2E2E2E2E2E2E2E2E2E2E2E2E2E2E2E2E2E2E2E2E2E2E2E2E2F5F5E2E2E2E2E2E2E2E2E2E2E2E2E2E2E2E2E2E2F5E2
310
E2F5E2E2E2E2E2E2E2E2E2E2E2E2E2E2E2E2E2E2E2E2E2E2E2E2E2E2E2E2E2E2E2E2E2E2E2E2E2E2E2E2E2E2E2E2E2E2E2E2E2E2E2E2E2E2E2E2E2E2E2E2E2E2E2E2E2E2E2E2E2E2E2E2E2E2E2E2E2E2E2E2E2E2E2E2E2E2E2E2E2E2E2E2E2E2E2E2E2E2E2E2E2E2E2E2E2E2E2E2E2E2E2E2E2E2E2E2E2E2E2E2E2E2E2E2E2
310
E2E2E2E2E2F5E2E2E2E2E2E2E2E2E2E2E2E2E2E2E2E2E2E2E2E2E2E2E2E2E2F5F5E2E2E2E2E2E2E2E2E2E2E2E2E2E2E2E2E2E2F5E2E2F5E2E2E2E2E2E2E2E2E2E2E2E2E2E2E2E2E2E2E2E2E2E2E2E2E2E2E2E2E2E2E2E2E2E2E2E2E2E2E2E2E2E2E2E2E2E2E2E2E2E2E2E2E2E2E2E2E2E2E2E2E2E2E2E2E2E2E2E2E2E2E2E2
310
E2E2E2E2E2E2E2E2E2E2E2E2E2E2E2E2E2E2E2E2E2E2E2E2E2E2E2E2E2E2E2E2E2E2E2E2E2E2E2E2E2E2E2E2E2E2E2E2E2E2E2E2E2E2E2E2E2E2F5E2E2E2E2E2E2E2E2E2E2E2E2E2E2E2E2E2E2E2E2E2E2E2E2E2F5F5E2E2E2E2E2E2E2E2E2E2E2E2E2E2E2E2E2E2F5E2E2F5E2E2E2E2E2E2E2E2E2E2E2E2E2E2E2E2E2E2E2
310
E2E2E2E2E2E2E2E2E2E2E2E2E2E2E2E2E2E2E2E2E2E2E2E2E2E2E2E2E2E2E2E2E2E2E2E2E2E2E2E2E2E2E2E2E2E2E2E2E2E2E2E2E2E2E2E2E2E2E2E2E2E2E2E2E2E2E2E2E2E2E2E2E2E2E2E2E2E2E2E2E2E2E2E2E2E2E2E2E2E2E2E2E2E2E2E2E2E2E2E2E2E2E2E2E2E2E2E2E2E2E2F5E2E2E2E2E2E2E2E2E2E2E2E2E2E2E2
310
E2E2E2E2E2E2E2E2E2E2F5F5E2E2E2E2E2E2E2E2E2E2E2E2E2E2E2E2E2E2F5E2E2F5E2E2E2E2E2E2E2E2E2E2E2E2E2E2E2E2E2E2E2E2E2E2E2E2E2E2E2E2E2E2E2E2E2E2E2E2E2E2E2E2E2E2E2E2E2E2E2E2E2E2E2E2E2E2E2E2E2E2E2E2E2E2E2E2E2E2E2E2E2E2E2E2E2E2E2E2E2E2E2E2E2E2E2E2E2E2E2E2E2E2E2E2E2
310
E2E2E2E2E2E2E2E2E2E2E2E2E2E2E2E2E2E2E2E2E2E2E2E2E2E2E2E2E2E2E2E2E2E2E2E2E2F5E2E2E2E2E2E2E2E2E2E2E2E2E2E2E2E2E2E2E2E2E2E2E2E2E2F5F5E2E2E2E2E2E2E2E2E2E2E2E2E2E2E2E2E2E2F5E2E2F5E2E2E2E2E2E2E2E2E2E2E2E2E2E2E2E2E2E2E2E2E2E2E2E2E2E2E2E2E2E2E2E2E2E2E2E2E2E2E2E2
310
E2E2E2E2E2E2E2E2E2E2E2E2E2E2E2E2E2E2E2E2E2E2E2E2E2E2E2E2E2E2E2E2E2E2E2E2E2E2E2E2E2E2E2E2E2E2E2E2E2E2E2E2E2E2E2E2E2E2E2E2E2E2E2E2E2E2E2E2E2E2E2E2E2E2E2E2E2E2E2E2E2E2E2E2E2E2E2E2E2E2F5E2E2E2E2E2E2E2E2E2E2E2E2E2E2E2E2E2E2E2E2E2E2E2E2E2F5F5E2E2E2E2E2E2E2E2E2
310
E2E2E2E2E2E2E2E2E2F5E2E2F5E2E2E2E2E2E2E2E2E2E2E2E2E2E2E2E2E2E2E2E2E2E2E2E2E2E2E2E2E2E2E2E2E2E2E2E2E2E2E2E2E2E2E2E2E2E2E2E2E2E2E2E2E2E2E2E2E2E2E2E2E2E2E2E2E2E2E2E2E2E2E2E2E2E2E2E2E2E2E2E2E2E2E2E2E2E2E2E2E2E2E2E2E2E2E2E2E2E2E2E2E2E2E2E2E2E2E2E2E2E2E2E2E2E2
310
E2E2E2E2E2E2E2E2E2E2E2E2E2E2E2E2F5E2E2E2E2E2E2E2E2E2E2E2E2E2E2E2E2E2E2E2E2E2E2E2E2E2F5F5E2E2F5E2E2E2E2E2E2E2E2E2E2E2E2E2E2E2F5E2E2F5E2E2E2E2E2E2E2E2E2E2E2E2E2E2E2E2E2E2E2E2E2E2E2E2E2E2E2E2E2E2E2E2E2E2E2E2E2E2E2E2E2E2E2E2E2E2E2E2E2E2E2E2E2E2E2E2E2E2E2E2E2
310
E2E2E2E2E2E2E2E2E2E2E2E2E2E2E2E2E2E2E2E2E2E2E2E2E2E2E2E2E2E2E2E2E2E2E2E2E2E2E2E2E2E2E2E2E2E2E2E2E2E2E2E2E2E2E2E2E2E2E2E2E2E2E2E2E2E2E2E2E2F5E2E2E2E2E2E2E2E2E2E2E2E2E2E2E2E2F5E2E2E2E2E2E2E2E2F5F5E2E2F5E2E2E2E2E2E2E2E2E2E2E2E2E2E2E2F5E2E2F5E2E2E2E2E2E2E2E2
310
E2E2E2E2E2E2E2E2E2E2E2E2E2E2E2E2E2E2E2E2E2E2E2E2E2E2E2E2E2E2E2E2E2E2E2E2E2E2E2E2E2E2E2E2E2E2E2E2E2E2E2E2E2E2E2E2E2E2E2E2E2E2E2E2E2E2E2E2E2E2E2E2E2E2E2E2E2E2E2E2E2E2E2E2E2E2E2E2E2E2E2E2E2E2E2E2E2E2E2E2E2E2E2E2E2E2E2E2E2E2E2E2E2E2E2E2E2E2E2E2E2E2F5E2E2E2E2
310
E2E2E2E2E2E2E2E2E2E2E2E2F5E2E2E2E2E2E2E2E2F5F5E2E2F5E2E2E2E2E2E2E2E2E2E2E2E2E2E2E2F5E2E2F5E2E2E2E2E2E2E2E2E2E2E2E2E2E2E2E2E2E2E2E2E2E2E2E2E2E2E2E2E2E2E2E2E2E2E2E2E2E2E2E2E2E2E2E2E2E2E2E2E2E2E2E2E2E2E2E2E2E2E2E2E2E2E2E2E2E2E2E2E2E2E2E2E2E2E2E2E2E2E2E2E2E2
310
E2E2E2E2E2E2E2E2E2E2E2E2E2E2E2E2E2E2E2E2E2E2E2E2E2E2E2E2E2E2E2E2E2E2E2E2E2E2E2E2E2E2E2E2E2E2E2E2F5E2E2E2E2E2E2E2E2E2E2E2E2E2E2E2E2F5E2E2E2E2E2E2E2E2F5F5E2E2F5E2E2E2E2E2E2E2E2E2E2E2E2E2E2E2F5E2E2F5E2E2E2E2E2E2E2E2E2E2E2E2E2E2E2E2E2E2E2E2E2E2E2E2E2E2E2E2E2
310
E2E2E2E2E2E2E2E2E2E2E2E2E2E2E2E2E2E2E2E2E2E2E2E2E2E2E2E2E2E2E2E2E2E2E2E2E2E2E2E2E2E2E2E2E2E2E2E2E2E2E2E2E2E2E2E2E2E2E2E2E2E2E2E2E2E2E2E2E2E2E2E2E2E2E2E2E2E2E2E2E2E2E2E2E2E2E2E2E2E2E2E2E2E2E2E2E2E2E2E2E2F5E2E2E2E2E2E2E2E2E2E2E2E2E2E2E2E2F5E2E2E2E2E2E2E2E2
310
F5F5E2E2F5E2E2E2E2E2E2E2E2E2E2E2E2E2E2E2F5E2E2F5E2E2E2E2E2E2E2E2E2E2E2E2E2E2E2E2E2E2E2E2E2E2E2E2E2E2E2E2E2E2E2E2E2E2E2E2E2E2E2E2E2E2E2E2E2E2E2E2E2E2E2E2E2E2E2E2E2E2E2E2E2E2E2E2E2E2E2E2E2E2E2E2E2E2E2E2E2E2E2E2E2E2E2E2E2E2E2E2E2E2E2E2E2E2E2E2E2E2E2E2E2E2E2
310
E2E2E2E2E2E2E2E2E2E2E2E2E2E2E2E2E2E2E2E2E2E2E2E2E2E2E2F5E2E2E2E2E2E2E2E2E2E2E2E2E2E2E2E2F5E2E2E2E2E2E2E2E2F5F5E2E2F5E2E2E2E2E2E2E2E2E2E2E2E2E2E2E2F5E2E2F5E2E2E2E2E2E2E2E2E2E2E2E2E2E2E2E2E2E2E2E2E2E2E2E2E2E2E2E2E2E2E2E2E2E2E2E2E2E2E2E2E2E2E2E2E2E2E2E2E2E2
310
E2E2E2E2E2E2E2E2E2E2E2E2E2E2E2E2E2E2E2E2E2E2E2E2E2E2E2E2E2E2E2E2E2E2E2E2E2E2E2E2E2E2E2E2E2E2E2E2E2E2E2E2E2E2E2E2E2E2E2E2E2E2E2E2E2E2E2E2E2E2E2E2E2E2E2E2E2E2E2E2F5E2E2E2E2E2E2E2E2E2E2E2E2E2E2E2E2F5E2E2E2E2E2E2E2E2F5F5E2E2F5E2E2E2E2E2E2E2E2E2E2E2E2E2E2E2F5
310
E2E2F5E2E2E2E2E2E2E2E2E2E2E2E2E2E2E2E2E2E2E2E2E2E2E2E2E2E2E2E2E2E2E2E2E2E2E2E2E2E2E2E2E2E2E2E2E2E2E2E2E2E2E2E2E2E2E2E2E2E2E2E2E2E2E2E2E2E2E2E2E2E2E2E2E2E2E2E2E2E2E2E2E2E2E2E2E2E2E2E2E2E2E2E2E2E2E2E2E2E2E2E2E2E2E2E2E2E2E2E2E2E2E2E2E2E2E2E2E2E2E2E2E2E2E2E2
310
E2E2E2E2E2E2F5E2E2E2E2E2E2E2E2E2E2E2E2E2E2E2E2F5E2E2E2E2E2E2E2E2F5F5E2E2F5E2E2E2E2E2E2E2E2E2E2E2E2E2E2E2F5E2E2F5E2E2E2E2E2E2E2E2E2E2E2E2E2E2E2E2E2E2E2E2E2E2E2E2E2E2E2E2E2E2E2E2E2E2E2E2E2E2E2E2E2E2E2E2E2E2E2E2E2E2E2E2E2E2E2E2E2E2E2E2E2E2E2E2E2E2E2E2E2E2E2
310
E2E2E2E2E2E2E2E2E2E2E2E2E2E2E2E2E2E2E2E2E2E2E2E2E2E2E2E2E2E2E2E2E2E2E2E2E2E2E2E2E2E2E2E2E2E2E2E2E2E2E2E2E2E2E2E2E2E2E2F5E2E2E2E2E2E2E2E2E2E2E2E2E2E2E2E2F5E2E2E2E2E2E2E2E2F5F5E2E2F5E2E2E2E2E2E2E2E2E2E2E2E2E2E2E2F5E2E2F5E2E2E2E2E2E2E2E2E2E2E2E2E2E2E2E2E2E2
310
E2E2E2E2E2E2E2E2E2E2E2E2E2E2E2E2E2E2E2E2E2E2E2E2E2E2E2E2E2E2E2E2E2E2E2E2E2E2E2E2E2E2E2E2E2E2E2E2E2E2E2E2E2E2E2E2E2E2E2E2E2E2E2E2E2E2E2E2E2E2E2E2E2E2E2E2E2E2E2E2E2E2E2E2E2E2E2E2E2E2E2E2E2E2E2E2E2E2E2E2E2E2E2E2E2E2E2E2E2E2E2E2F5E2E2E2E2E2E2E2E2E2E2E2E2E2E2
310
E2E2F5E2E2E2E2E2E2E2E2F5F5E2E2F5E2E2E2E2E2E2E2E2E2E2E2E2E2E2E2F5E2E2F5E2E2E2E2E2E2E2E2E2E2E2E2E2E2E2E2E2E2E2E2E2E2E2E2E2E2E2E2E2E2E2E2E2E2E2E2E2E2E2E2E2E2E2E2E2E2E2E2E2E2E2E2E2E2E2E2E2E2E2E2E2E2E2E2E2E2E2E2E2E2E2E2E2E2E2E2E2E2E2E2E2E2E2E2E2E2E2E2E2E2E2E2
310
E2E2E2E2E2E2E2E2E2E2E2E2E2E2E2E2E2E2E2E2E2E2E2E2E2E2E2E2E2E2E2E2E2E2E2E2E2E2F5E2E2E2E2E2E2E2E2E2E2E2E2E2E2E2E2F5E2E2E2E2E2E2E2E2F5F5E2E2F5E2E2E2E2E2E2E2E2E2E2E2E2E2E2E2F5E2E2F5E2E2E2E2E2E2E2E2E2E2E2E2E2E2E2E2E2E2E2E2E2E2E2E2E2E2E2E2E2E2E2E2E2E2E2E2E2E2E2
310
E2E2E2E2E2E2E2E2E2E2E2E2E2E2E2E2E2E2E2E2E2E2E2E2E2E2E2E2E2E2E2E2E2E2E2E2E2E2E2E2E2E2E2E2E2E2E2E2E2E2E2E2E2E2E2E2E2E2E2E2E2E2E2E2E2E2E2E2E2E2E2E2E2E2E2E2E2E2E2E2E2E2E2E2E2E2E2E2E2E2E2F5E2E2E2E2E2E2E2E2E2E2E2E2E2E2E2E2F5E2E2E2E2E2E2E2E2F5F5E2E2F5E2E2E2E2E2
310
E2E2E2E2E2E2E2E2E2E2F5E2E2F5E2E2E2E2E2E2E2E2E2E2E2E2E2E2E2E2E2E2E2E2E2E2E2E2E2E2E2E2E2E2E2E2E2E2E2E2E2E2E2E2E2E2E2E2E2E2E2E2E2E2E2E2E2E2E2E2E2E2E2E2E2E2E2E2E2E2E2E2E2E2E2E2E2E2E2E2E2E2E2E2E2E2E2E2E2E2E2E2E2E2E2E2E2E2E2E2E2E2E2E2E2E2E2E2E2E2E2E2E2E2E2E2E2
310
E2E2E2E2E2E2E2E2E2E2E2E2E2E2E2E2E2F5E2E2E2E2E2E2E2E2E2E2E2E2E2E2E2E2F5E2E2E2E2E2E2E2E2F5F5E2E2F5E2E2E2E2E2E2E2E2E2E2E2E2E2E2E2F5E2E2F5E2E2E2E2E2E2E2E2E2E2E2E2E2E2E2E2E2E2E2E2E2E2E2E2E2E2E2E2E2E2E2E2E2E2E2E2E2E2E2E2E2E2E2E2E2E2E2E2E2E2E2E2E2E2E2E2E2E2E2E2
310
E2E2E2E2E2E2E2E2E2E2E2E2E2E2E2E2E2E2E2E2E2E2E2E2E2E2E2E2E2E2E2E2E2E2E2E2E2E2E2E2E2E2E2E2E2E2E2E2E2E2E2E2E2E2E2E2E2E2E2E2E2E2E2E2E2E2E2E2E2E2F5E2E2E2E2E2E2E2E2E2E2E2E2E2E2E2E2F5E2E2E2E2E2E2E2E2F5F5E2E2F5E2E2E2E2E2E2E2E2E2E2E2E2E2E2E2F5E2E2F5E2E2E2E2E2E2E2
310
E2E2E2E2E2E2E2E2E2E2E2E2E2E2E2E2E2E2E2E2E2E2E2E2E2E2E2E2E2E2E2E2E2E2E2E2E2E2E2E2E2E2E2E2E2E2E2E2E2E2E2E2E2E2E2E2E2E2E2E2E2E2E2E2E2E2E2E2E2E2E2E2E2E2E2E2E2E2E2E2E2E2E2E2E2E2E2E2E2E2E2E2E2E2E2E2E2E2E2E2E2E2E2E2E2E2E2E2E2E2E2E2E2E2E2E2E2E2E2E2E2E2E2F5E2E2E2
310
E2E2E2E2E2E2E2E2E2E2E2E2E2F5E2E2E2E2E2E2E2E2F5F5E2E2F5E2E2E2E2E2E2E2E2E2E2E2E2E2E2E2F5E2E2F5E2E2E2E2E2E2E2E2E2E2E2E2E2E2E2E2E2E2E2E2E2E2E2E2E2E2E2E2E2E2E2E2E2E2E2E2E2E2E2E2E2E2E2E2E2E2E2E2E2E2E2E2E2E2E2E2E2E2E2E2E2E2E2E2E2E2E2E2E2E2E2E2E2E2E2E2E2E2E2E2E2
310
E2E2E2E2E2E2E2E2E2E2E2E2E2E2E2E2E2E2E2E2E2E2E2E2E2E2E2E2E2E2E2E2E2E2E2E2E2E2E2E2E2E2E2E2E2E2E2E2E2F5E2E2E2E2E2E2E2E2E2E2E2E2E2E2E2E2F5E2E2E2E2E2E2E2E2F5F5E2E2F5E2E2E2E2E2E2E2E2E2E2E2E2E2E2E2F5E2E2F5E2E2E2E2E2E2E2E2E2E2E2E2E2E2E2E2E2E2E2E2E2E2E2E2E2E2E2E2
310
E2E2E2E2E2E2E2E2E2E2E2E2E2E2E2E2E2E2E2E2E2E2E2E2E2E2E2E2E2E2E2E2E2E2E2E2E2E2E2E2E2E2E2E2E2E2E2E2E2E2E2E2E2E2E2E2E2E2E2E2E2E2E2E2E2E2E2E2E2E2E2E2E2E2E2E2E2E2E2E2E2E2E2E2E2E2E2E2E2E2E2E2E2E2E2E2E2E2E2E2E2E2F5E2E2E2E2E2E2E2E2E2E2E2E2E2E2E2E2F5E2E2E2E2E2E2E2
310
E2F5F5E2E2E2E2E2E2E2E2E2E2E2E2E2E2E2E2E2E2F5E2E2F5E2E2E2E2E2E2E2E2E2E2E2E2E2E2E2E2E2E2E2E2E2E2E2E2E2E2E2E2E2E2E2E2E2E2E2E2E2E2E2E2E2E2E2E2E2E2E2E2E2E2E2E2E2E2E2E2E2E2E2E2E2E2E2E2E2E2E2E2E2E2E2E2E2E2E2E2E2E2E2E2E2E2E2E2E2E2E2E2E2E2E2E2E2E2E2E2E2E2E2E2E2E2
310
E2E2E2E2E2E2E2E2E2E2E2E2E2E2E2E2E2E2E2E2E2E2E2E2E2E2E2E2F5E2E2E2E2E2E2E2E2E2E2E2E2E2E2E2E2E2E2E2E2E2E2E2E2E2F5F5E2E2E2E2E2E2E2E2E2E2E2E2E2E2E2E2E2E2F5E2E2F5E2E2E2E2E2E2E2E2E2E2E2E2E2E2E2E2E2E2E2E2E2E2E2E2E2E2E2E2E2E2E2E2E2E2E2E2E2E2E2E2E2E2E2E2E2E2E2E2E2
310
E2E2E2E2E2E2E2E2E2E2E2E2E2E2E2E2E2E2E2E2E2E2E2E2E2E2E2E2E2E2E2E2E2E2E2E2E2E2E2E2E2E2E2E2E2E2E2E2E2E2E2E2E2E2E2E2E2E2E2E2E2E2E2E2E2E2E2E2E2E2E2E2E2E2E2E2E2E2E2E2E2F5E2E2E2E2E2E2E2E2E2E2E2E2E2E2E2E2E2E2E2E2E2E2E2E2E2F5F5E2E2E2E2E2E2E2E2E2E2E2E2E2E2E2E2E2E2
310
F5E2E2F5E2E2E2E2E2E2E2E2E2E2E2E2E2E2E2E2E2E2E2E2E2E2E2E2E2E2E2E2E2E2E2E2E2E2E2E2E2E2E2E2E2E2E2E2E2E2E2E2E2E2E2E2E2E2E2E2E2E2E2E2E2E2E2E2E2E2E2E2E2E2E2E2E2E2E2E2E2E2E2E2E2E2E2E2E2E2E2E2E2E2E2E2E2E2E2E2E2E2E2E2E2E2E2E2E2E2E2E2E2E2E2E2E2E2E2E2E2E2E2E2E2E2E2
310
E2E2E2E2E2E2E2F5E2E2E2E2E2E2E2E2E2E2E2E2E2E2E2E2E2E2E2E2E2E2E2E2E2F5F5E2E2E2E2E2E2E2E2E2E2E2E2E2E2E2E2E2E2F5E2E2F5E2E2E2E2E2E2E2E2E2E2E2E2E2E2E2E2E2E2E2E2E2E2E2E2E2E2E2E2E2E2E2E2E2E2E2E2E2E2E2E2E2E2E2E2E2E2E2E2E2E2E2E2E2E2E2E2E2E2E2E2E2E2E2E2E2E2E2E2E2E2
310
E2E2E2E2E2E2E2E2E2E2E2E2E2E2E2E2E2E2E2E2E2E2E2E2E2E2E2E2E2E2E2E2E2E2E2E2E2E2E2E2E2E2E2E2E2E2E2E2E2E2E2E2E2E2E2E2E2E2E2E2F5E2E2E2E2E2E2E2E2E2E2E2E2E2E2E2E2E2E2E2E2E2E2E2E2E2F5F5E2E2E2E2E2E2E2E2E2E2E2E2E2E2E2E2E2E2F5E2E2F5E2E2E2E2E2E2E2E2E2E2E2E2E2E2E2E2E2
310
E2E2E2E2E2E2E2E2E2E2E2E2E2E2E2E2E2E2E2E2E2E2E2E2E2E2E2E2E2E2E2E2E2E2E2E2E2E2E2E2E2E2E2E2E2E2E2E2E2E2E2E2E2E2E2E2E2E2E2E2E2E2E2E2E2E2E2E2E2E2E2E2E2E2E2E2E2E2E2E2E2E2E2E2E2E2E2E2E2E2E2E2E2E2E2E2E2E2E2E2E2E2E2E2E2E2E2E2E2E2E2E2E2F5E2E2E2E2E2E2E2E2E2E2E2E2E2
310
E2E2E2E2E2E2E2E2E2E2E2E2F5F5E2E2E2E2E2E2E2E2E2E2E2E2E2E2E2E2E2E2F5E2E2F5E2E2E2E2E2E2E2E2E2E2E2E2E2E2E2E2E2E2E2E2E2E2E2E2E2E2E2E2E2E2E2E2E2E2E2E2E2E2E2E2E2E2E2E2E2E2E2E2E2E2E2E2E2E2E2E2E2E2E2E2E2E2E2E2E2E2E2E2E2E2E2E2E2E2E2E2E2E2E2E2E2E2E2E2E2E2E2E2E2E2E2
310
E2E2E2E2E2E2E2E2E2E2E2E2E2E2E2E2E2E2E2E2E2E2E2E2E2E2E2E2E2E2E2E2E2E2E2E2E2E2E2F5E2E2E2E2E2E2E2E2E2E2E2E2E2E2E2E2E2E2E2E2E2E2E2E2E2F5F5E2E2E2E2E2E2E2E2E2E2E2E2E2E2E2E2E2E2F5E2E2F5E2E2E2E2E2E2E2E2E2E2E2E2E2E2E2E2E2E2E2E2E2E2E2E2E2E2E2E2E2E2E2E2E2E2E2E2E2E2
310
E2E2E2E2E2E2E2E2E2E2E2E2E2E2E2E2E2E2E2E2E2E2E2E2E2E2E2E2E2E2E2E2E2E2E2E2E2E2E2E2E2E2E2E2E2E2E2E2E2E2E2E2E2E2E2E2E2E2E2E2E2E2E2E2E2E2E2E2E2E2E2E2E2E2E2E2E2E2E2E2E2E2E2E2E2E2E2E2E2E2E2E2F5E2E2E2E2E2E2E2E2E2E2E2E2E2E2E2E2E2E2E2E2E2E2E2E2E2F5F5E2E2E2E2E2E2E2
310
E2E2E2E2E2E2E2E2E2E2E2F5E2E2F5E2E2E2E2E2E2E2E2E2E2E2E2E2E2E2E2E2E2E2E2E2E2E2E2E2E2E2E2E2E2E2E2E2E2E2E2E2E2E2E2E2E2E2E2E2E2E2E2E2E2E2E2E2E2E2E2E2E2E2E2E2E2E2E2E2E2E2E2E2E2E2E2E2E2E2E2E2E2E2E2E2E2E2E2E2E2E2E2E2E2E2E2E2E2E2E2E2E2E2E2E2E2E2E2E2E2E2E2E2E2E2E2
310
E2E2E2E2E2E2E2E2E2E2E2E2E2E2E2E2E2E2F5E2E2E2E2E2E2E2E2E2E2E2E2E2E2E2E2E2E2E2E2E2E2E2E2E2F5F5E2E2E2E2E2E2E2E2E2E2E2E2E2E2E2E2E2E2F5E2E2F5E2E2E2E2E2E2E2E2E2E2E2E2E2E2E2E2E2E2E2E2E2E2E2E2E2E2E2E2E2E2E2E2E2E2E2E2E2E2E2E2E2E2E2E2E2E2E2E2E2E2E2E2E2E2E2E2E2E2E2
310
E2E2E2E2E2E2E2E2E2E2E2E2E2E2E2E2E2E2E2E2E2E2E2E2E2E2E2E2E2E2E2E2E2E2E2E2E2E2E2E2E2E2E2E2E2E2E2E2E2E2E2E2E2E2E2E2E2E2E2E2E2E2E2E2E2E2E2E2E2E2E2F5E2E2E2E2E2E2E2E2E2E2E2E2E2E2E2E2E2E2E2E2E2E2E2E2E2F5F5E2E2F5E2E2E2E2E2E2E2E2E2E2E2E2E2E2E2F5E2E2F5E2E2E2E2E2E2
310
E2E2E2E2E2E2E2E2E2E2E2E2E2E2E2E2E2E2E2E2E2E2E2E2E2E2E2E2E2E2E2E2E2E2E2E2E2E2E2E2E2E2E2E2E2E2E2E2E2E2E2E2E2E2E2E2E2E2E2E2E2E2E2E2E2E2E2E2E2E2E2E2E2E2E2E2E2E2E2E2E2E2E2E2E2E2E2E2E2E2E2E2E2E2E2E2E2E2E2E2E2E2E2E2E2E2E2E2E2E2E2E2E2E2E2E2E2E2E2E2E2E2E2E2F5E2E2
310
E2E2E2E2E2E2E2E2E2E2E2E2E2E2F5E2E2E2E2E2E2E2E2F5F5E2E2F5E2E2E2E2E2E2E2E2E2E2E2E2E2E2E2F5E2E2F5E2E2E2E2E2E2E2E2E2E2E2E2E2E2E2E2E2E2E2E2E2E2E2E2E2E2E2E2E2E2E2E2E2E2E2E2E2E2E2E2E2E2E2E2E2E2E2E2E2E2E2E2E2E2E2E2E2E2E2E2E2E2E2E2E2E2E2E2E2E2E2E2E2E2E2E2E2E2E2E2
310
E2E2E2E2E2E2E2E2E2E2E2E2E2E2E2E2E2E2E2E2E2E2E2E2E2E2E2E2E2E2E2E2E2E2E2E2E2E2E2E2E2E2E2E2E2E2E2E2E2E2F5E2E2E2E2E2E2E2E2E2E2E2E2E2E2E2E2F5E2E2E2E2E2E2E2E2F5F5E2E2F5E2E2E2E2E2E2E2E2E2E2E2E2E2E2E2F5E2E2F5E2E2E2E2E2E2E2E2E2E2E2E2E2E2E2E2E2E2E2E2E2E2E2E2E2E2E2
310
E2E2E2E2E2E2E2E2E2E2E2E2E2E2E2E2E2E2E2E2E2E2E2E2E2E2E2E2E2E2E2E2E2E2E2E2E2E2E2E2E2E2E2E2E2E2E2E2E2E2E2E2E2E2E2E2E2E2E2E2E2E2E2E2E2E2E2E2E2E2E2E2E2E2E2E2E2E2E2E2E2E2E2E2E2E2E2E2E2E2E2E2E2E2E2E2E2E2E2E2E2E2E2F5E2E2E2E2E2E2E2E2E2E2E2E2E2E2E2E2F5E2E2E2E2E2E2
310
E2E2F5F5E2E2F5E2E2E2E2E2E2E2E2E2E2E2E2E2E2E2F5E2E2F5E2E2E2E2E2E2E2E2E2E2E2E2E2E2E2E2E2E2E2E2E2E2E2E2E2E2E2E2E2E2E2E2E2E2E2E2E2E2E2E2E2E2E2E2E2E2E2E2E2E2E2E2E2E2E2E2E2E2E2E2E2E2E2E2E2E2E2E2E2E2E2E2E2E2E2E2E2E2E2E2E2E2E2E2E2E2E2E2E2E2E2E2E2E2E2E2E2E2E2E2E2
310
E2E2E2E2E2E2E2E2E2E2E2E2E2E2E2E2E2E2E2E2E2E2E2E2E2E2E2E2E2F5E2E2E2E2E2E2E2E2E2E2E2E2E2E2E2E2F5E2E2E2E2E2E2E2E2F5F5E2E2F5E2E2E2E2E2E2E2E2E2E2E2E2E2E2E2F5E2E2F5E2E2E2E2E2E2E2E2E2E2E2E2E2E2E2E2E2E2E2E2E2E2E2E2E2E2E2E2E2E2E2E2E2E2E2E2E2E2E2E2E2E2E2E2E2E2E2E2
310
E2E2E2E2E2E2E2E2E2E2E2E2E2E2E2E2E2E2E2E2E2E2E2E2E2E2E2E2E2E2E2E2E2E2E2E2E2E2E2E2E2E2E2E2E2E2E2E2E2E2E2E2E2E2E2E2E2E2E2E2E2E2E2E2E2E2E2E2E2E2E2E2E2E2E2E2E2E2E2E2E2E2F5E2E2E2E2E2E2E2E2E2E2E2E2E2E2E2E2F5E2E2E2E2E2E2E2E2F5F5E2E2F5E2E2E2E2E2E2E2E2E2E2E2E2E2E2
310
E2F5E2E2F5E2E2E2E2E2E2E2E2E2E2E2E2E2E2E2E2E2E2E2E2E2E2E2E2E2E2E2E2E2E2E2E2E2E2E2E2E2E2E2E2E2E2E2E2E2E2E2E2E2E2E2E2E2E2E2E2E2E2E2E2E2E2E2E2E2E2E2E2E2E2E2E2E2E2E2E2E2E2E2E2E2E2E2E2E2E2E2E2E2E2E2E2E2E2E2E2E2E2E2E2E2E2E2E2E2E2E2E2E2E2E2E2E2E2E2E2E2E2E2E2E2E2
310
E2E2E2E2E2E2E2E2F5E2E2E2E2E2E2E2E2E2E2E2E2E2E2E2E2F5E2E2E2E2E2E2E2E2F5F5E2E2F5E2E2E2E2E2E2E2E2E2E2E2E2E2E2E2F5E2E2F5E2E2E2E2E2E2E2E2E2E2E2E2E2E2E2E2E2E2E2E2E2E2E2E2E2E2E2E2E2E2E2E2E2E2E2E2E2E2E2E2E2E2E2E2E2E2E2E2E2E2E2E2E2E2E2E2E2E2E2E2E2E2E2E2E2E2E2E2E2
310
E2E2E2E2E2E2E2E2E2E2E2E2E2E2E2E2E2E2E2E2E2E2E2E2E2E2E2E2E2E2E2E2E2E2E2E2E2E2E2E2E2E2E2E2E2E2E2E2E2E2E2E2E2E2E2E2E2E2E2E2E2F5E2E2E2E2E2E2E2E2E2E2E2E2E2E2E2E2F5E2E2E2E2E2E2E2E2F5F5E2E2F5E2E2E2E2E2E2E2E2E2E2E2E2E2E2E2F5E2E2F5E2E2E2E2E2E2E2E2E2E2E2E2E2E2E2E2
310
E2E2E2E2E2E2E2E2E2E2E2E2E2E2E2E2E2E2E2E2E2E2E2E2E2E2E2E2E2E2E2E2E2E2E2E2E2E2E2E2E2E2E2E2E2E2E2E2E2E2E2E2E2E2E2E2E2E2E2E2E2E2E2E2E2E2E2E2E2E2E2E2E2E2E2E2E2E2E2E2E2E2E2E2E2E2E2E2E2E2E2E2E2E2E2E2E2E2E2E2E2E2E2E2E2E2E2E2E2E2E2E2E2E2F5E2E2E2E2E2E2E2E2E2E2E2E2
310
E2E2E2E2F5E2E2E2E2E2E2E2E2F5F5E2E2F5E2E2E2E2E2E2E2E2E2E2E2E2E2E2E2F5E2E2F5E2E2E2E2E2E2E2E2E2E2E2E2E2E2E2E2E2E2E2E2E2E2E2E2E2E2E2E2E2E2E2E2E2E2E2E2E2E2E2E2E2E2E2E2E2E2E2E2E2E2E2E2E2E2E2E2E2E2E2E2E2E2E2E2E2E2E2E2E2E2E2E2E2E2E2E2E2E2E2E2E2E2E2E2E2E2E2E2E2E2
310
E2E2E2E2E2E2E2E2E2E2E2E2E2E2E2E2E2E2E2E2E2E2E2E2E2E2E2E2E2E2E2E2E2E2E2E2E2E2E2E2F5E2E2E2E2E2E2E2E2E2E2E2E2E2E2E2E2F5E2E2E2E2E2E2E2E2F5F5E2E2F5E2E2E2E2E2E2E2E2E2E2E2E2E2E2E2F5E2E2F5E2E2E2E2E2E2E2E2E2E2E2E2E2E2E2E2E2E2E2E2E2E2E2E2E2E2E2E2E2E2E2E2E2E2E2E2E2
310
E2E2E2E2E2E2E2E2E2E2E2E2E2E2E2E2E2E2E2E2E2E2E2E2E2E2E2E2E2E2E2E2E2E2E2E2E2E2E2E2E2E2E2E2E2E2E2E2E2E2E2E2E2E2E2E2E2E2E2E2E2E2E2E2E2E2E2E2E2E2E2E2E2E2E2E2E2E2E2E2E2E2E2E2E2E2E2E2E2E2E2E2E2F5E2E2E2E2E2E2E2E2E2E2E2E2E2E2E2E2F5E2E2E2E2E2E2E2E2F5F5E2E2F5E2E2E2
310
E2E2E2E2E2E2E2E2E2E2E2E2F5E2E2F5E2E2E2E2E2E2E2E2E2E2E2E2E2E2E2E2E2E2E2E2E2E2E2E2E2E2E2E2E2E2E2E2E2E2E2E2E2E2E2E2E2E2E2E2E2E2E2E2E2E2E2E2E2E2E2E2E2E2E2E2E2E2E2E2E2E2E2E2E2E2E2E2E2E2E2E2E2E2E2E2E2E2E2E2E2E2E2E2E2E2E2E2E2E2E2E2E2E2E2E2E2E2E2E2E2E2E2E2E2E2E2
310
E2E2E2E2E2E2E2E2E2E2E2E2E2E2E2E2E2E2E2F5E2E2E2E2E2E2E2E2E2E2E2E2E2E2E2E2F5E2E2E2E2E2E2E2E2F5F5E2E2F5E2E2E2E2E2E2E2E2E2E2E2E2E2E2E2F5E2E2F5E2E2E2E2E2E2E2E2E2E2E2E2E2E2E2E2E2E2E2E2E2E2E2E2E2E2E2E2E2E2E2E2E2E2E2E2E2E2E2E2E2E2E2E2E2E2E2E2E2E2E2E2E2E2E2E2E2E2
310
E2E2E2E2E2E2E2E2E2E2E2E2E2E2E2E2E2E2E2E2E2E2E2E2E2E2E2E2E2E2E2E2E2E2E2E2E2E2E2E2E2E2E2E2E2E2E2E2E2E2E2E2E2E2E2E2E2E2E2E2E2E2E2E2E2E2E2E2E2E2E2E2F5E2E2E2E2E2E2E2E2E2E2E2E2E2E2E2E2F5E2E2E2E2E2E2E2E2F5F5E2E2F5E2E2E2E2E2E2E2E2E2E2E2E2E2E2E2F5E2E2F5E2E2E2E2E2
310
E2E2E2E2E2E2E2E2E2E2E2E2E2E2E2E2E2E2E2E2E2E2E2E2E2E2E2E2E2E2E2E2E2E2E2E2E2E2E2E2E2E2E2E2E2E2E2E2E2E2E2E2E2E2E2E2E2E2E2E2E2E2E2E2E2E2E2E2E2E2E2E2E2E2E2E2E2E2E2E2E2E2E2E2E2E2E2E2E2E2E2E2E2E2E2E2E2E2E2E2E2E2E2E2E2E2E2E2E2E2E2E2E2E2E2E2E2E2E2E2E2E2E2E2E2F5E2
310
E2E2E2E2E2E2E2E2E2E2E2E2E2E2E2F5E2E2E2E2E2E2E2E2F5F5E2E2F5E2E2E2E2E2E2E2E2E2E2E2E2E2E2E2F5E2E2F5E2E2E2E2E2E2E2E2E2E2E2E2E2E2E2E2E2E2E2E2E2E2E2E2E2E2E2E2E2E2E2E2E2E2E2E2E2E2E2E2E2E2E2E2E2E2E2E2E2E2E2E2E2E2E2E2E2E2E2E2E2E2E2E2E2E2E2E2E2E2E2E2E2E2E2E2E2E2E2
310
E2E2E2E2E2E2E2E2E2E2E2E2E2E2E2E2E2E2E2E2E2E2E2E2E2E2E2E2E2E2E2E2E2E2E2E2E2E2E2E2E2E2E2E2E2E2E2E2E2E2E2F5E2E2E2E2E2E2E2E2E2E2E2E2E2E2E2E2F5E2E2E2E2E2E2E2E2F5F5E2E2F5E2E2E2E2E2E2E2E2E2E2E2E2E2E2E2F5E2E2F5E2E2E2E2E2E2E2E2E2E2E2E2E2E2E2E2E2E2E2E2E2E2E2E2E2E2
310
E2E2E2E2E2E2E2E2E2E2E2E2E2E2E2E2E2E2E2E2E2E2E2E2E2E2E2E2E2E2E2E2E2E2E2E2E2E2E2E2E2E2E2E2E2E2E2E2E2E2E2E2E2E2E2E2E2E2E2E2E2E2E2E2E2E2E2E2E2E2E2E2E2E2E2E2E2E2E2E2E2E2E2E2E2E2E2E2E2E2E2E2E2E2E2E2E2E2E2E2E2E2E2E2F5E2E2E2E2E2E2E2E2E2E2E2E2E2E2E2E2F5E2E2E2E2E2
310
E2E2E2F5F5E2E2E2E2E2E2E2E2E2E2E2E2E2E2E2E2E2E2F5E2E2F5E2E2E2E2E2E2E2E2E2E2E2E2E2E2E2E2E2E2E2E2E2E2E2E2E2E2E2E2E2E2E2E2E2E2E2E2E2E2E2E2E2E2E2E2E2E2E2E2E2E2E2E2E2E2E2E2E2E2E2E2E2E2E2E2E2E2E2E2E2E2E2E2E2E2E2E2E2E2E2E2E2E2E2E2E2E2E2E2E2E2E2E2E2E2E2E2E2E2E2E2
310
E2E2E2E2E2E2E2E2E2E2E2E2E2E2E2E2E2E2E2E2E2E2E2E2E2E2E2E2E2E2F5E2E2E2E2E2E2E2E2E2E2E2E2E2E2E2E2E2E2E2E2E2E2E2E2E2F5F5E2E2E2E2E2E2E2E2E2E2E2E2E2E2E2E2E2E2F5E2E2F5E2E2E2E2E2E2E2E2E2E2E2E2E2E2E2E2E2E2E2E2E2E2E2E2E2E2E2E2E2E2E2E2E2E2E2E2E2E2E2E2E2E2E2E2E2E2E2
310
E2E2E2E2E2E2E2E2E2E2E2E2E2E2E2E2E2E2E2E2E2E2E2E2E2E2E2E2E2E2E2E2E2E2E2E2E2E2E2E2E2E2E2E2E2E2E2E2E2E2E2E2E2E2E2E2E2E2E2E2E2E2E2E2E2E2E2E2E2E2E2E2E2E2E2E2E2E2E2E2E2E2E2F5E2E2E2E2E2E2E2E2E2E2E2E2E2E2E2E2E2E2E2E2E2E2E2E2E2F5F5E2E2E2E2E2E2E2E2E2E2E2E2E2E2E2E2
310
E2E2F5E2E2F5E2E2E2E2E2E2E2E2E2E2E2E2E2E2E2E2E2E2E2E2E2E2E2E2E2E2E2E2E2E2E2E2E2E2E2E2E2E2E2E2E2E2E2E2E2E2E2E2E2E2E2E2E2E2E2E2E2E2E2E2E2E2E2E2E2E2E2E2E2E2E2E2E2E2E2E2E2E2E2E2E2E2E2E2E2E2E2E2E2E2E2E2E2E2E2E2E2E2E2E2E2E2E2E2E2E2E2E2E2E2E2E2E2E2E2E2E2E2E2E2E2
310
E2E2E2E2E2E2E2E2E2F5E2E2E2E2E2E2E2E2E2E2E2E2E2E2E2E2E2E2E2E2E2E2E2E2E2F5F5E2E2E2E2E2E2E2E2E2E2E2E2E2E2E2E2E2E2F5E2E2F5E2E2E2E2E2E2E2E2E2E2E2E2E2E2E2E2E2E2E2E2E2E2E2E2E2E2E2E2E2E2E2E2E2E2E2E2E2E2E2E2E2E2E2E2E2E2E2E2E2E2E2E2E2E2E2E2E2E2E2E2E2E2E2E2E2E2E2E2
310
E2E2E2E2E2E2E2E2E2E2E2E2E2E2E2E2E2E2E2E2E2E2E2E2E2E2E2E2E2E2E2E2E2E2E2E2E2E2E2E2E2E2E2E2E2E2E2E2E2E2E2E2E2E2E2E2E2E2E2E2E2E2F5E2E2E2E2E2E2E2E2E2E2E2E2E2E2E2E2E2E2E2E2E2E2E2E2E2F5F5E2E2E2E2E2E2E2E2E2E2E2E2E2E2E2E2E2E2F5F5F5F5F5F5F5F5F5F5F5F5F5F5F5F5F5F5F5
310
F5F5F5F5F5F5F5F5F5F5F5F5F5F5F5F5F5F5F5F5F5F5F5F5F5F5F5F5F5F5F5F5F5F5F5F5F5F5F5F5F5F5F5F5F5F5F5F5F5F5F5F5F5F5F5F5F5F5F5F5F5F5F5F5F5F5F5F5F5F5F5F5F5F5F5F5F5F5F5F5F5F5F5F5F5F5F5F5F5F5F5F5F5F5F5F5F5F5F5F5F5F5F5F5F5F5F5F5F5F5F5F5F5F5F5F5E2E2E2E2E2E2E2E2E2E2E2
310
E2E2E2E2E2E2E2E2E2E2E2E2E2E2F5F5E2E2E2E2E2E2E2E2E2E2E2E2E2E2E2E2E2E2E2E2E2E2E2E2E2E2E2E2E2E2E2E2E2E2E2E2E2E2E2E2E2E2E2E2E2E2E2E2E2E2E2E2E2E2E2E2E2E2E2E2E2E2E2E2E2E2E2E2E2E2E2E2E2E2E2E2E2E2E2E2E2E2E2E2E2E2E2E2E2E2E2E2E2E2E2E2E2E2E2E2E2E2E2E2E2E2E2E2E2E2E2
310
E2E2E2E2E2E2E2E2E2E2E2E2E2E2E2E2E2E2E2E2E2E2E2E2E2E2E2E2E2E2E2E2E2E2E2E2E2E2E2E2E2E2E2E2E2E2E2E2E2E2E2E2E2E2E2E2E2E2E2E2E2E2E2E2E2E2E2F5F5E2E2E2E2E2E2E2E2E2E2E2E2E2E2E2E2E2E2E2E2E2E2E2E2E2E2E2E2E2E2E2E2E2E2E2E2E2E2E2E2E2E2E2E2E2E2E2E2E2E2E2E2E2E2E2E2E2E2
310
E2E2E2E2E2E2E2E2E2E2E2E2E2E2E2E2E2E2E2E2E2E2E2E2E2E2E2E2E2E2E2E2E2E2E2E2E2E2E2E2E2E2E2E2E2E2E2E2E2E2E2E2E2E2E2E2E2E2E2E2E2E2E2E2E2E2E2E2E2E2E2E2E2E2E2E2E2E2E2E2E2E2E2E2E2E2E2E2E2E2E2E2E2E2E2E2E2E2E2E2E2E2E2E2E2E2E2E2E2E2E2E2E2E2E2E2E2E2E2E2F5F5E2E2E2E2E2
310
E2E2E2E2E2E2E2E2E2E2E2E2E2E2E2E2E2E2E2E2E2E2E2E2E2E2E2E2E2E2E2E2E2E2E2E2E2E2E2E2E2E2E2E2E2E2E2E2E2E2E2E2E2E2E2E2E2E2E2E2E2E2E2E2E2E2E2E2E2E2E2E2E2E2E2E2E2E2E2E2E2E2E2E2E2E2E2E2E2E2E2E2E2E2E2E2E2E2E2E2E2E2E2E2E2E2E2E2E2E2E2E2E2E2E2E2E2E2E2E2E2E2E2E2E2E2E2
310
E2E2E2E2E2E2E2E2E2E2E2E2E2E2E2E2E2E2E2E2E2E2E2E2E2E2E2E2E2E2E2E2E2E2E2E2E2E2E2E2E2E2E2E2E2E2F5F5E2E2E2E2E2E2E2E2E2E2E2E2E2E2E2E2E2E2E2E2E2E2E2E2E2E2E2E2E2E2E2E2E2E2E2E2E2E2E2E2E2E2E2E2E2E2E2E2E2E2E2E2E2E2E2E2E2E2E2E2E2E2E2E2E2E2E2E2E2E2E2E2E2E2E2E2E2E2E2
310
E2E2E2E2E2E2E2E2E2E2E2E2E2E2E2E2E2E2E2E2E2E2E2E2E2E2E2E2E2E2E2E2E2E2E2E2E2E2E2E2E2E2E2E2E2E2E2E2E2E2E2E2E2E2E2E2E2E2E2E2E2E2E2E2E2E2E2E2E2E2E2E2E2E2E2E2E2E2E2E2E2E2E2E2E2E2E2E2E2E2E2E2E2E2E2E2E2E2E2F5F5E2E2F5E2E2E2E2E2E2E2E2E2E2E2E2E2E2E2E2E2E2E2E2E2E2E2
310
E2E2E2E2E2E2E2E2E2E2E2E2E2E2E2E2E2E2E2E2E2E2E2E2E2E2E2E2E2E2E2E2E2E2E2E2E2E2E2E2E2E2E2E2E2E2E2E2E2E2E2E2E2E2E2E2E2E2E2E2E2E2E2E2E2E2E2E2E2E2E2E2E2E2E2E2E2E2E2E2E2E2E2E2E2E2E2E2E2E2E2E2E2E2E2E2E2E2E2E2E2E2E2E2E2E2E2E2E2E2E2E2E2E2E2E2E2E2E2E2E2E2E2E2E2E2E2
310
E2E2E2E2E2E2E2E2E2E2E2E2E2E2E2E2F5E2E2E2E2E2E2E2E2F5F5E2E2F5E2E2E2E2E2E2E2E2E2E2E2E2E2E2E2E2E2E2E2E2E2E2E2E2E2E2E2E2E2E2E2E2E2E2E2E2E2E2E2E2E2E2E2E2E2E2E2E2E2E2E2E2E2E2E2E2E2E2E2E2E2E2E2E2E2E2E2E2E2E2E2E2E2E2E2E2E2E2E2E2E2E2E2E2E2E2E2E2E2E2E2E2E2E2E2E2E2
310
E2E2E2E2E2E2E2E2E2E2E2E2E2E2E2E2E2E2E2E2E2E2E2E2E2E2E2E2E2E2E2E2E2E2E2E2E2E2E2E2E2E2E2E2E2E2E2E2E2E2E2E2E2E2E2E2E2E2E2E2E2E2E2E2E2E2E2E2E2F5E2E2E2E2E2E2E2E2F5F5E2E2F5E2E2E2E2E2E2E2E2E2E2E2E2E2E2E2E2E2E2E2E2E2E2E2E2E2E2E2E2E2E2E2E2E2E2E2E2E2E2E2E2E2E2E2E2
310
E2E2E2E2E2E2E2E2E2E2E2E2E2E2E2E2E2E2E2E2E2E2E2E2E2E2E2E2E2E2E2E2E2E2E2E2E2E2E2E2E2E2E2E2E2E2E2E2E2E2E2E2E2E2E2E2E2E2E2E2E2E2E2E2E2E2E2E2E2E2E2E2E2E2E2E2E2E2E2E2E2E2E2E2E2E2E2E2E2E2E2E2E2E2E2E2E2E2E2E2E2E2E2E2E2E2E2E2E2E2E2E2E2E2E2E2E2E2E2E2E2E2F5E2E2E2E2
310
E2E2E2E2F5F5E2E2F5E2E2E2E2E2E2E2E2E2E2E2E2E2E2E2E2E2E2E2E2E2E2E2E2E2E2E2E2E2E2E2E2E2E2E2E2E2E2E2E2E2E2E2E2E2E2E2E2E2E2E2E2E2E2E2E2E2E2E2E2E2E2E2E2E2E2E2E2E2E2E2E2E2E2E2E2E2E2E2E2E2E2E2E2E2E2E2E2E2E2E2E2E2E2E2E2E2E2E2E2E2E2E2E2E2E2E2E2E2E2E2E2E2E2E2E2E2E2
310
E2E2E2E2E2E2E2E2E2E2E2E2E2E2E2E2E2E2E2E2E2E2E2E2E2E2E2E2E2E2E2E2E2E2E2E2E2E2E2E2E2E2E2E2E2E2E2E2F5E2E2E2E2E2E2E2E2F5F5E2E2F5E2E2E2E2E2E2E2E2E2E2E2E2E2E2E2E2E2E2E2E2E2E2E2E2E2E2E2E2E2E2E2E2E2E2E2E2E2E2E2E2E2E2E2E2E2E2E2E2E2E2E2E2E2E2E2E2E2E2E2E2E2E2E2E2E2
310
E2E2E2E2E2E2E2E2E2E2E2E2E2E2E2E2E2E2E2E2E2E2E2E2E2E2E2E2E2E2E2E2E2E2E2E2E2E2E2E2E2E2E2E2E2E2E2E2E2E2E2E2E2E2E2E2E2E2E2E2E2E2E2E2E2E2E2E2E2E2E2E2E2E2E2E2E2E2E2E2E2E2E2E2E2E2E2E2E2E2E2E2E2E2E2E2E2E2E2E2E2F5E2E2E2E2E2E2E2E2F5F5E2E2F5E2E2E2E2E2E2E2E2E2E2E2E2
310
E2E2E2E2E2E2E2E2E2E2E2E2E2E2E2E2E2E2E2E2E2E2E2E2E2E2E2E2E2E2E2E2E2E2E2E2E2E2E2E2E2E2E2E2E2E2E2E2E2E2E2E2E2E2E2E2E2E2E2E2E2E2E2E2E2E2E2E2E2E2E2E2E2E2E2E2E2E2E2E2E2E2E2E2E2E2E2E2E2E2E2E2E2E2E2E2E2E2E2E2E2E2E2E2E2E2E2E2E2E2E2E2E2E2E2E2E2E2E2E2E2E2E2E2E2E2E2
310
E2E2E2E2E2E2E2E2E2E2E2E2E2E2E2E2E2E2E2E2E2E2E2E2E2E2E2F5E2E2E2E2E2E2E2E2F5F5E2E2F5E2E2E2E2E2E2E2E2E2E2E2E2E2E2E2E2E2E2E2E2E2E2E2E2E2E2E2E2E2E2E2E2E2E2E2E2E2E2E2E2E2E2E2E2E2E2E2E2E2E2E2E2E2E2E2E2E2E2E2E2E2E2E2E2E2E2E2E2E2E2E2E2E2E2E2E2E2E2E2E2E2E2E2E2E2E2
310
E2E2E2E2E2E2E2E2E2E2E2E2E2E2E2E2E2E2E2E2E2E2E2E2E2E2E2E2E2E2E2E2E2E2E2E2E2E2E2E2E2E2E2E2E2E2E2E2E2E2E2E2E2E2E2E2E2E2E2E2E2E2E2E2E2E2E2E2E2E2E2E2E2E2E2E2E2E2E2E2F5E2E2E2E2E2E2E2E2F5F5E2E2F5F5F5F5F5F5F5F5E2E2E2E2E2E2E2E2E2F5F5F5F5F5F5F5F5F5F5F5F5F5F5F5E2E2
310
E2E2E2E2E2E2E2F5F5F5F5F5F5F5F5F5F5F5F5F5F5F5E2E2E2E2E2E2E2E2F5F5F5F5F5F5F5F5F5F5F5F5F5F5F5F5E2E2E2E2E2E2E2E2F5F5F5F5F5F5F5F5F5F5F5F5F5F5F5F5E2E2E2E2E2E2E2E2F5F5F5F5F5F5F5F5F5F5F5F5F5F5F5E2E2E2E2E2E2E2E2E2F5F5F5F5F5F5F5F5F5F5F5F5F5F5F5E2E2E2E2E2E2E2E2E2F5
310
F5F5F5F5F5F5F5E2E2E2E2E2E2E2E2F5F5E2E2E2E2E2E2E2E2E2E2E2E2E2E2E2E2E2E2E2E2E2E2E2E2E2E2E2E2E2E2E2E2E2E2E2E2E2E2E2E2E2E2E2E2E2E2E2E2E2E2E2E2E2E2E2E2E2E2E2E2E2E2E2E2E2E2E2E2E2E2E2E2E2E2E2E2E2E2E2E2E2E2E2E2E2E2E2E2E2E2E2E2E2E2E2E2E2E2E2E2E2E2E2E2E2E2E2E2E2E2
310
E2E2E2E2E2E2E2E2E2E2E2E2E2E2E2E2E2E2E2E2E2E2E2E2E2E2E2E2E2E2E2E2E2E2E2E2E2E2E2E2E2E2E2E2E2E2E2E2E2E2E2E2E2E2E2E2E2E2E2E2E2E2E2E2E2E2E2E2F5F5F5F5F5F5F5F5F5F5F5F5F5F5F5F5F5F5F5F5F5F5F5F5F5F5F5F5F5F5F5F5F5F5F5F5F5F5F5F5F5F5F5F5F5F5F5F5F5F5F5F5F5F5F5F5F5F5F5
310
F5F5F5F5F5F5F5F5F5F5F5F5F5F5F5F5F5F5F5F5F5F5F5F5F5F5F5F5F5F5F5F5F5F5F5F5F5F5F5F5F5F5F5F5F5F5F5F5F5F5F5F5F5F5F5F5F5F5F5F5F5F5F5F5F5F5F5F5F5F5F5F5F5F5F5F5F5F5F5F5F5F5F5F5F5F5F5F5F5F5F5F5F5F5F5F5F5F5F5F5F5F5F5F5F5F5F5F5F5F5F5F5F5F5F5F5F5F5F5F5F5F5EFEFEFEFEF
310
EFEFEFEFEFEFEFEFEFEFEFEFEFEFEFEFEFEFEFEFEFEFEFEFEFEFEFEFEFEFEFEFEFEFEFEFEFEFEFEFEFEFEFEFEFEFEFEFEFEFEFEFEFEFEFEFEFEFEFEFEFEFEFEFEFEFEFEFEFEFEFEFEFEFEFEFEFEFEFEFEFEFEFEFEFEFEFEFEFEFEFEFEFEFEFEFEFEFEFEFEFEFEFEFEFEFEFEFEFEFEFEFEFEFEFEFEFEFEFEFEFEFEFEFEFEFEF
310
EFEFEFEFEFEFEFEFEFEFEFEFEFEFEFEFEFEFEFEFEFEFEFEFEFEFEFEFEFEFEFEFEFEFEFEFEFEFEFEFEFEFEFEFEFEFEFEF
  0
XRECORD
  5
2D52
102
{ACAD_REACTORS
330
2D51
102
}
330
2D51
100
AcDbXrecord
280
     1
102
SHADEPLOT
 70
     0
102
SHADEPLOTRESLEVEL
 70
     2
102
SHADEPLOTCUSTOMDPI
 70
   300
  0
ENDSEC
  0
EOF
