  0
SECTION
  2
HEADER
  9
$ACADVER
  1
AC1015
  9
$ACADMAINTVER
 70
    20
  9
$DWGCODEPAGE
  3
ANSI_932
  9
$INSBASE
 10
0.0
 20
0.0
 30
0.0
  9
$EXTMIN
 10
119.0
 20
4.0
 30
0.0
  9
$EXTMAX
 10
2784.0
 20
2024.0
 30
0.0
  9
$LIMMIN
 10
0.0
 20
0.0
  9
$LIMMAX
 10
29700.0
 20
21000.0
  9
$ORTHOMODE
 70
     1
  9
$REGENMODE
 70
     1
  9
$FILLMODE
 70
     1
  9
$QTEXTMODE
 70
     0
  9
$MIRRTEXT
 70
     1
  9
$LTSCALE
 40
4.0
  9
$ATTMODE
 70
     1
  9
$TEXTSIZE
 40
25.0
  9
$TRACEWID
 40
1.0
  9
$TEXTSTYLE
  7
Standard
  9
$CLAYER
  8
実形
  9
$CELTYPE
  6
ByLayer
  9
$CECOLOR
 62
     3
  9
$CELTSCALE
 40
1.0
  9
$DISPSILH
 70
     0
  9
$DIMSCALE
 40
1.0
  9
$DIMASZ
 40
35.0
  9
$DIMEXO
 40
65.0
  9
$DIMDLI
 40
3.75
  9
$DIMRND
 40
0.0
  9
$DIMDLE
 40
0.0
  9
$DIMEXE
 40
0.0
  9
$DIMTP
 40
0.0
  9
$DIMTM
 40
0.0
  9
$DIMTXT
 40
25.0
  9
$DIMCEN
 40
2.5
  9
$DIMTSZ
 40
0.0
  9
$DIMTOL
 70
     0
  9
$DIMLIM
 70
     0
  9
$DIMTIH
 70
     0
  9
$DIMTOH
 70
     0
  9
$DIMSE1
 70
     0
  9
$DIMSE2
 70
     0
  9
$DIMTAD
 70
     1
  9
$DIMZIN
 70
     8
  9
$DIMBLK
  1
DotSmall
  9
$DIMASO
 70
     1
  9
$DIMSHO
 70
     1
  9
$DIMPOST
  1

  9
$DIMAPOST
  1

  9
$DIMALT
 70
     0
  9
$DIMALTD
 70
     3
  9
$DIMALTF
 40
0.03937007874016
  9
$DIMLFAC
 40
1.0
  9
$DIMTOFL
 70
     1
  9
$DIMTVP
 40
0.0
  9
$DIMTIX
 70
     0
  9
$DIMSOXD
 70
     0
  9
$DIMSAH
 70
     0
  9
$DIMBLK1
  1

  9
$DIMBLK2
  1

  9
$DIMSTYLE
  2
ISO-25
  9
$DIMCLRD
 70
     0
  9
$DIMCLRE
 70
     0
  9
$DIMCLRT
 70
     0
  9
$DIMTFAC
 40
1.0
  9
$DIMGAP
 40
6.25
  9
$DIMJUST
 70
     0
  9
$DIMSD1
 70
     0
  9
$DIMSD2
 70
     0
  9
$DIMTOLJ
 70
     0
  9
$DIMTZIN
 70
     8
  9
$DIMALTZ
 70
     0
  9
$DIMALTTZ
 70
     0
  9
$DIMUPT
 70
     0
  9
$DIMDEC
 70
     2
  9
$DIMTDEC
 70
     2
  9
$DIMALTU
 70
     2
  9
$DIMALTTD
 70
     3
  9
$DIMTXSTY
  7
Standard
  9
$DIMAUNIT
 70
     0
  9
$DIMADEC
 70
     0
  9
$DIMALTRND
 40
0.0
  9
$DIMAZIN
 70
     0
  9
$DIMDSEP
 70
    46
  9
$DIMATFIT
 70
     3
  9
$DIMFRAC
 70
     0
  9
$DIMLDRBLK
  1
Open30
  9
$DIMLUNIT
 70
     2
  9
$DIMLWD
 70
    18
  9
$DIMLWE
 70
    18
  9
$DIMTMOVE
 70
     0
  9
$LUNITS
 70
     2
  9
$LUPREC
 70
     2
  9
$SKETCHINC
 40
1.0
  9
$FILLETRAD
 40
30.0
  9
$AUNITS
 70
     0
  9
$AUPREC
 70
     0
  9
$MENU
  1
.
  9
$ELEVATION
 40
0.0
  9
$PELEVATION
 40
0.0
  9
$THICKNESS
 40
0.0
  9
$LIMCHECK
 70
     1
  9
$CHAMFERA
 40
10.0
  9
$CHAMFERB
 40
10.0
  9
$CHAMFERC
 40
20.0
  9
$CHAMFERD
 40
0.0
  9
$SKPOLY
 70
     0
  9
$TDCREATE
 40
2451673.575802199
  9
$TDUCREATE
 40
2451673.200802199
  9
$TDUPDATE
 40
2458813.763721829
  9
$TDUUPDATE
 40
2458813.388721829
  9
$TDINDWG
 40
1.6721571065
  9
$TDUSRTIMER
 40
1.6721564120
  9
$USRTIMER
 70
     1
  9
$ANGBASE
 50
0.0
  9
$ANGDIR
 70
     0
  9
$PDMODE
 70
     3
  9
$PDSIZE
 40
0.0
  9
$PLINEWID
 40
0.0
  9
$SPLFRAME
 70
     0
  9
$SPLINETYPE
 70
     6
  9
$SPLINESEGS
 70
     8
  9
$HANDSEED
  5
2694
  9
$SURFTAB1
 70
     6
  9
$SURFTAB2
 70
     6
  9
$SURFTYPE
 70
     6
  9
$SURFU
 70
     6
  9
$SURFV
 70
     6
  9
$UCSBASE
  2

  9
$UCSNAME
  2

  9
$UCSORG
 10
0.0
 20
0.0
 30
0.0
  9
$UCSXDIR
 10
1.0
 20
0.0
 30
0.0
  9
$UCSYDIR
 10
0.0
 20
1.0
 30
0.0
  9
$UCSORTHOREF
  2

  9
$UCSORTHOVIEW
 70
     0
  9
$UCSORGTOP
 10
0.0
 20
0.0
 30
0.0
  9
$UCSORGBOTTOM
 10
0.0
 20
0.0
 30
0.0
  9
$UCSORGLEFT
 10
0.0
 20
0.0
 30
0.0
  9
$UCSORGRIGHT
 10
0.0
 20
0.0
 30
0.0
  9
$UCSORGFRONT
 10
0.0
 20
0.0
 30
0.0
  9
$UCSORGBACK
 10
0.0
 20
0.0
 30
0.0
  9
$PUCSBASE
  2

  9
$PUCSNAME
  2

  9
$PUCSORG
 10
0.0
 20
0.0
 30
0.0
  9
$PUCSXDIR
 10
1.0
 20
0.0
 30
0.0
  9
$PUCSYDIR
 10
0.0
 20
1.0
 30
0.0
  9
$PUCSORTHOREF
  2

  9
$PUCSORTHOVIEW
 70
     0
  9
$PUCSORGTOP
 10
0.0
 20
0.0
 30
0.0
  9
$PUCSORGBOTTOM
 10
0.0
 20
0.0
 30
0.0
  9
$PUCSORGLEFT
 10
0.0
 20
0.0
 30
0.0
  9
$PUCSORGRIGHT
 10
0.0
 20
0.0
 30
0.0
  9
$PUCSORGFRONT
 10
0.0
 20
0.0
 30
0.0
  9
$PUCSORGBACK
 10
0.0
 20
0.0
 30
0.0
  9
$USERI1
 70
     0
  9
$USERI2
 70
     0
  9
$USERI3
 70
     0
  9
$USERI4
 70
     0
  9
$USERI5
 70
     0
  9
$USERR1
 40
0.0
  9
$USERR2
 40
0.0
  9
$USERR3
 40
0.0
  9
$USERR4
 40
0.0
  9
$USERR5
 40
0.0
  9
$WORLDVIEW
 70
     1
  9
$SHADEDGE
 70
     3
  9
$SHADEDIF
 70
    70
  9
$TILEMODE
 70
     1
  9
$MAXACTVP
 70
    64
  9
$PINSBASE
 10
0.0
 20
0.0
 30
0.0
  9
$PLIMCHECK
 70
     0
  9
$PEXTMIN
 10
27.8447512626648
 20
20.24591643810271
 30
0.0
  9
$PEXTMAX
 10
250.6027613639831
 20
182.2132479429245
 30
0.0
  9
$PLIMMIN
 10
-3.757080078125
 20
-3.757083177566528
  9
$PLIMMAX
 10
293.2112426757813
 20
206.2162444591522
  9
$UNITMODE
 70
     0
  9
$VISRETAIN
 70
     1
  9
$PLINEGEN
 70
     0
  9
$PSLTSCALE
 70
     1
  9
$TREEDEPTH
 70
  3020
  9
$CMLSTYLE
  2
Standard
  9
$CMLJUST
 70
     0
  9
$CMLSCALE
 40
20.0
  9
$PROXYGRAPHICS
 70
     1
  9
$MEASUREMENT
 70
     1
  9
$CELWEIGHT
370
    -1
  9
$ENDCAPS
280
     0
  9
$JOINSTYLE
280
     0
  9
$LWDISPLAY
290
     0
  9
$INSUNITS
 70
     4
  9
$HYPERLINKBASE
  1

  9
$STYLESHEET
  1

  9
$XEDIT
290
     1
  9
$CEPSNTYPE
380
     0
  9
$PSTYLEMODE
290
     1
  9
$FINGERPRINTGUID
  2
{C8EA1F16-24C9-11D4-9416-CE0A3B32152F}
  9
$VERSIONGUID
  2
{3C6EFC34-FC50-4858-B66D-EFC88F916CBF}
  9
$EXTNAMES
290
     1
  9
$PSVPSCALE
 40
0.0
  9
$OLESTARTUP
290
     0
  0
ENDSEC
  0
SECTION
  2
CLASSES
  0
CLASS
  1
ACDBDICTIONARYWDFLT
  2
AcDbDictionaryWithDefault
  3
ObjectDBX Classes
 90
        0
280
     0
281
     0
  0
CLASS
  1
ACDBPLACEHOLDER
  2
AcDbPlaceHolder
  3
ObjectDBX Classes
 90
        0
280
     0
281
     0
  0
CLASS
  1
LAYOUT
  2
AcDbLayout
  3
ObjectDBX Classes
 90
        0
280
     0
281
     0
  0
CLASS
  1
TABLESTYLE
  2
AcDbTableStyle
  3
ObjectDBX Classes
 90
     2047
280
     0
281
     0
  0
CLASS
  1
DICTIONARYVAR
  2
AcDbDictionaryVar
  3
ObjectDBX Classes
 90
        0
280
     0
281
     0
  0
CLASS
  1
SORTENTSTABLE
  2
AcDbSortentsTable
  3
ObjectDBX Classes
 90
        0
280
     0
281
     0
  0
ENDSEC
  0
SECTION
  2
TABLES
  0
TABLE
  2
VPORT
  5
8
330
0
100
AcDbSymbolTable
 70
     2
  0
VPORT
  5
2689
330
8
100
AcDbSymbolTableRecord
100
AcDbViewportTableRecord
  2
*Active
 70
     0
 10
0.0
 20
0.0
 11
1.0
 21
1.0
 12
1523.181902287318
 22
863.8988868597435
 13
0.0
 23
0.0
 14
10.0
 24
10.0
 15
10.0
 25
10.0
 16
0.0
 26
0.0
 36
1.0
 17
0.0
 27
0.0
 37
0.0
 40
2730.792350125476
 41
1.29038112522686
 42
50.0
 43
0.0
 44
0.0
 50
0.0
 51
0.0
 71
     0
 72
   100
 73
     1
 74
     3
 75
     0
 76
     0
 77
     0
 78
     0
281
     0
 65
     1
110
0.0
120
0.0
130
0.0
111
1.0
121
0.0
131
0.0
112
0.0
122
1.0
132
0.0
 79
     0
146
0.0
  0
ENDTAB
  0
TABLE
  2
LTYPE
  5
5
330
0
100
AcDbSymbolTable
 70
    46
  0
LTYPE
  5
14
330
5
100
AcDbSymbolTableRecord
100
AcDbLinetypeTableRecord
  2
ByBlock
 70
     0
  3

 72
    65
 73
     0
 40
0.0
  0
LTYPE
  5
15
330
5
100
AcDbSymbolTableRecord
100
AcDbLinetypeTableRecord
  2
ByLayer
 70
     0
  3

 72
    65
 73
     0
 40
0.0
  0
LTYPE
  5
16
330
5
100
AcDbSymbolTableRecord
100
AcDbLinetypeTableRecord
  2
Continuous
 70
     0
  3
Solid line
 72
    65
 73
     0
 40
0.0
  0
LTYPE
  5
34
330
5
100
AcDbSymbolTableRecord
100
AcDbLinetypeTableRecord
  2
ACAD_ISO02W100
 70
     0
  3
ISO dash __ __ __ __ __ __ __ __ __ __ __ __ __
 72
    65
 73
     2
 40
15.0
 49
12.0
 74
     0
 49
-3.0
 74
     0
  0
LTYPE
  5
35
330
5
100
AcDbSymbolTableRecord
100
AcDbLinetypeTableRecord
  2
ACAD_ISO03W100
 70
     0
  3
ISO dash space __    __    __    __    __    __
 72
    65
 73
     2
 40
30.0
 49
12.0
 74
     0
 49
-18.0
 74
     0
  0
LTYPE
  5
36
330
5
100
AcDbSymbolTableRecord
100
AcDbLinetypeTableRecord
  2
ACAD_ISO04W100
 70
     0
  3
ISO long-dash dot ____ . ____ . ____ . ____ . _
 72
    65
 73
     4
 40
30.0
 49
24.0
 74
     0
 49
-3.0
 74
     0
 49
0.0
 74
     0
 49
-3.0
 74
     0
  0
LTYPE
  5
37
330
5
100
AcDbSymbolTableRecord
100
AcDbLinetypeTableRecord
  2
ACAD_ISO05W100
 70
     0
  3
ISO long-dash double-dot ____ .. ____ .. ____ .
 72
    65
 73
     6
 40
34.0
 49
24.0
 74
     0
 49
-3.0
 74
     0
 49
0.5
 74
     0
 49
-3.0
 74
     0
 49
0.5
 74
     0
 49
-3.0
 74
     0
  0
LTYPE
  5
38
330
5
100
AcDbSymbolTableRecord
100
AcDbLinetypeTableRecord
  2
ACAD_ISO06W100
 70
     0
  3
ISO long-dash triple-dot ____ ... ____ ... ____
 72
    65
 73
     8
 40
37.5
 49
24.0
 74
     0
 49
-3.0
 74
     0
 49
0.5
 74
     0
 49
-3.0
 74
     0
 49
0.5
 74
     0
 49
-3.0
 74
     0
 49
0.5
 74
     0
 49
-3.0
 74
     0
  0
LTYPE
  5
39
330
5
100
AcDbSymbolTableRecord
100
AcDbLinetypeTableRecord
  2
ACAD_ISO07W100
 70
     0
  3
ISO dot . . . . . . . . . . . . . . . . . . . .
 72
    65
 73
     2
 40
3.0
 49
0.0
 74
     0
 49
-3.0
 74
     0
  0
LTYPE
  5
3A
330
5
100
AcDbSymbolTableRecord
100
AcDbLinetypeTableRecord
  2
ACAD_ISO08W100
 70
     0
  3
ISO long-dash short-dash ____ __ ____ __ ____ _
 72
    65
 73
     4
 40
36.0
 49
24.0
 74
     0
 49
-3.0
 74
     0
 49
6.0
 74
     0
 49
-3.0
 74
     0
  0
LTYPE
  5
3B
330
5
100
AcDbSymbolTableRecord
100
AcDbLinetypeTableRecord
  2
ACAD_ISO09W100
 70
     0
  3
ISO long-dash double-short-dash ____ __ __ ____
 72
    65
 73
     6
 40
45.0
 49
24.0
 74
     0
 49
-3.0
 74
     0
 49
6.0
 74
     0
 49
-3.0
 74
     0
 49
6.0
 74
     0
 49
-3.0
 74
     0
  0
LTYPE
  5
3C
330
5
100
AcDbSymbolTableRecord
100
AcDbLinetypeTableRecord
  2
ACAD_ISO10W100
 70
     0
  3
ISO dash dot __ . __ . __ . __ . __ . __ . __ .
 72
    65
 73
     4
 40
18.0
 49
12.0
 74
     0
 49
-3.0
 74
     0
 49
0.0
 74
     0
 49
-3.0
 74
     0
  0
LTYPE
  5
3D
330
5
100
AcDbSymbolTableRecord
100
AcDbLinetypeTableRecord
  2
ACAD_ISO11W100
 70
     0
  3
ISO double-dash dot __ __ . __ __ . __ __ . __ 
 72
    65
 73
     6
 40
33.0
 49
12.0
 74
     0
 49
-3.0
 74
     0
 49
12.0
 74
     0
 49
-3.0
 74
     0
 49
0.0
 74
     0
 49
-3.0
 74
     0
  0
LTYPE
  5
3E
330
5
100
AcDbSymbolTableRecord
100
AcDbLinetypeTableRecord
  2
ACAD_ISO12W100
 70
     0
  3
ISO dash double-dot __ . . __ . . __ . . __ . .
 72
    65
 73
     6
 40
21.0
 49
12.0
 74
     0
 49
-3.0
 74
     0
 49
0.0
 74
     0
 49
-3.0
 74
     0
 49
0.0
 74
     0
 49
-3.0
 74
     0
  0
LTYPE
  5
3F
330
5
100
AcDbSymbolTableRecord
100
AcDbLinetypeTableRecord
  2
ACAD_ISO13W100
 70
     0
  3
ISO double-dash double-dot __ __ . . __ __ . . 
 72
    65
 73
     8
 40
36.0
 49
12.0
 74
     0
 49
-3.0
 74
     0
 49
12.0
 74
     0
 49
-3.0
 74
     0
 49
0.0
 74
     0
 49
-3.0
 74
     0
 49
0.0
 74
     0
 49
-3.0
 74
     0
  0
LTYPE
  5
40
330
5
100
AcDbSymbolTableRecord
100
AcDbLinetypeTableRecord
  2
ACAD_ISO14W100
 70
     0
  3
ISO dash triple-dot __ . . . __ . . . __ . . . 
 72
    65
 73
     8
 40
24.0
 49
12.0
 74
     0
 49
-3.0
 74
     0
 49
0.0
 74
     0
 49
-3.0
 74
     0
 49
0.0
 74
     0
 49
-3.0
 74
     0
 49
0.0
 74
     0
 49
-3.0
 74
     0
  0
LTYPE
  5
41
330
5
100
AcDbSymbolTableRecord
100
AcDbLinetypeTableRecord
  2
ACAD_ISO15W100
 70
     0
  3
ISO double-dash triple-dot __ __ . . . __ __ . 
 72
    65
 73
    10
 40
39.0
 49
12.0
 74
     0
 49
-3.0
 74
     0
 49
12.0
 74
     0
 49
-3.0
 74
     0
 49
0.0
 74
     0
 49
-3.0
 74
     0
 49
0.0
 74
     0
 49
-3.0
 74
     0
 49
0.0
 74
     0
 49
-3.0
 74
     0
  0
LTYPE
  5
42
330
5
100
AcDbSymbolTableRecord
100
AcDbLinetypeTableRecord
  2
BATTING
 70
     0
  3
Batting SSSSSSSSSSSSSSSSSSSSSSSSSSSSSSSSSSSSSSS
 72
    65
 73
     4
 40
10.16254
 49
0.00254
 74
     0
 49
-2.54
 74
     4
 75
   134
340
33
 46
2.54
 50
0.0
 44
-2.54
 45
0.0
 49
-5.08
 74
     4
 75
   134
340
33
 46
2.54
 50
180.0
 44
2.54
 45
0.0
 49
-2.54
 74
     0
  0
LTYPE
  5
43
330
5
100
AcDbSymbolTableRecord
100
AcDbLinetypeTableRecord
  2
BORDER
 70
     0
  3
Border __ __ . __ __ . __ __ . __ __ . __ __ .
 72
    65
 73
     6
 40
44.45
 49
12.7
 74
     0
 49
-6.349999999999999
 74
     0
 49
12.7
 74
     0
 49
-6.349999999999999
 74
     0
 49
0.0
 74
     0
 49
-6.349999999999999
 74
     0
  0
LTYPE
  5
44
330
5
100
AcDbSymbolTableRecord
100
AcDbLinetypeTableRecord
  2
BORDER2
 70
     0
  3
Border (.5x) __.__.__.__.__.__.__.__.__.__.__.
 72
    65
 73
     6
 40
22.225
 49
6.349999999999999
 74
     0
 49
-3.174999999999999
 74
     0
 49
6.349999999999999
 74
     0
 49
-3.174999999999999
 74
     0
 49
0.0
 74
     0
 49
-3.174999999999999
 74
     0
  0
LTYPE
  5
45
330
5
100
AcDbSymbolTableRecord
100
AcDbLinetypeTableRecord
  2
BORDERX2
 70
     0
  3
Border (2x) ____  ____  .  ____  ____  .  ___
 72
    65
 73
     6
 40
88.9
 49
25.4
 74
     0
 49
-12.7
 74
     0
 49
25.4
 74
     0
 49
-12.7
 74
     0
 49
0.0
 74
     0
 49
-12.7
 74
     0
  0
LTYPE
  5
46
330
5
100
AcDbSymbolTableRecord
100
AcDbLinetypeTableRecord
  2
CENTER
 70
     0
  3
Center ____ _ ____ _ ____ _ ____ _ ____ _ ____
 72
    65
 73
     4
 40
50.8
 49
31.75
 74
     0
 49
-6.349999999999999
 74
     0
 49
6.349999999999999
 74
     0
 49
-6.349999999999999
 74
     0
  0
LTYPE
  5
47
330
5
100
AcDbSymbolTableRecord
100
AcDbLinetypeTableRecord
  2
CENTER2
 70
     0
  3
Center (.5x) ___ _ ___ _ ___ _ ___ _ ___ _ ___
 72
    65
 73
     4
 40
28.575
 49
19.05
 74
     0
 49
-3.174999999999999
 74
     0
 49
3.174999999999999
 74
     0
 49
-3.174999999999999
 74
     0
  0
LTYPE
  5
48
330
5
100
AcDbSymbolTableRecord
100
AcDbLinetypeTableRecord
  2
CENTERX2
 70
     0
  3
Center (2x) ________  __  ________  __  _____
 72
    65
 73
     4
 40
101.6
 49
63.5
 74
     0
 49
-12.7
 74
     0
 49
12.7
 74
     0
 49
-12.7
 74
     0
  0
LTYPE
  5
49
330
5
100
AcDbSymbolTableRecord
100
AcDbLinetypeTableRecord
  2
DASHDOT
 70
     0
  3
Dash dot __ . __ . __ . __ . __ . __ . __ . __
 72
    65
 73
     4
 40
25.4
 49
12.7
 74
     0
 49
-6.349999999999999
 74
     0
 49
0.0
 74
     0
 49
-6.349999999999999
 74
     0
  0
LTYPE
  5
4A
330
5
100
AcDbSymbolTableRecord
100
AcDbLinetypeTableRecord
  2
DASHDOT2
 70
     0
  3
Dash dot (.5x) _._._._._._._._._._._._._._._.
 72
    65
 73
     4
 40
12.7
 49
6.349999999999999
 74
     0
 49
-3.174999999999999
 74
     0
 49
0.0
 74
     0
 49
-3.174999999999999
 74
     0
  0
LTYPE
  5
4B
330
5
100
AcDbSymbolTableRecord
100
AcDbLinetypeTableRecord
  2
DASHDOTX2
 70
     0
  3
Dash dot (2x) ____  .  ____  .  ____  .  ___
 72
    65
 73
     4
 40
50.8
 49
25.4
 74
     0
 49
-12.7
 74
     0
 49
0.0
 74
     0
 49
-12.7
 74
     0
  0
LTYPE
  5
4C
330
5
100
AcDbSymbolTableRecord
100
AcDbLinetypeTableRecord
  2
DASHED
 70
     0
  3
Dashed __ __ __ __ __ __ __ __ __ __ __ __ __ _
 72
    65
 73
     2
 40
19.05
 49
12.7
 74
     0
 49
-6.349999999999999
 74
     0
  0
LTYPE
  5
4D
330
5
100
AcDbSymbolTableRecord
100
AcDbLinetypeTableRecord
  2
DASHED2
 70
     0
  3
Dashed (.5x) _ _ _ _ _ _ _ _ _ _ _ _ _ _ _ _ _
 72
    65
 73
     2
 40
9.524999999999998
 49
6.349999999999999
 74
     0
 49
-3.174999999999999
 74
     0
  0
LTYPE
  5
4E
330
5
100
AcDbSymbolTableRecord
100
AcDbLinetypeTableRecord
  2
DASHEDX2
 70
     0
  3
Dashed (2x) ____  ____  ____  ____  ____  ___
 72
    65
 73
     2
 40
38.1
 49
25.4
 74
     0
 49
-12.7
 74
     0
  0
LTYPE
  5
4F
330
5
100
AcDbSymbolTableRecord
100
AcDbLinetypeTableRecord
  2
DIVIDE
 70
     0
  3
Divide ____ . . ____ . . ____ . . ____ . . ____
 72
    65
 73
     6
 40
31.75
 49
12.7
 74
     0
 49
-6.349999999999999
 74
     0
 49
0.0
 74
     0
 49
-6.349999999999999
 74
     0
 49
0.0
 74
     0
 49
-6.349999999999999
 74
     0
  0
LTYPE
  5
50
330
5
100
AcDbSymbolTableRecord
100
AcDbLinetypeTableRecord
  2
DIVIDE2
 70
     0
  3
Divide (.5x) __..__..__..__..__..__..__..__.._
 72
    65
 73
     6
 40
15.875
 49
6.349999999999999
 74
     0
 49
-3.174999999999999
 74
     0
 49
0.0
 74
     0
 49
-3.174999999999999
 74
     0
 49
0.0
 74
     0
 49
-3.174999999999999
 74
     0
  0
LTYPE
  5
51
330
5
100
AcDbSymbolTableRecord
100
AcDbLinetypeTableRecord
  2
DIVIDEX2
 70
     0
  3
Divide (2x) ________  .  .  ________  .  .  _
 72
    65
 73
     6
 40
63.49999999999999
 49
25.4
 74
     0
 49
-12.7
 74
     0
 49
0.0
 74
     0
 49
-12.7
 74
     0
 49
0.0
 74
     0
 49
-12.7
 74
     0
  0
LTYPE
  5
52
330
5
100
AcDbSymbolTableRecord
100
AcDbLinetypeTableRecord
  2
DOT
 70
     0
  3
Dot . . . . . . . . . . . . . . . . . . . . . .
 72
    65
 73
     2
 40
6.349999999999999
 49
0.0
 74
     0
 49
-6.349999999999999
 74
     0
  0
LTYPE
  5
53
330
5
100
AcDbSymbolTableRecord
100
AcDbLinetypeTableRecord
  2
DOT2
 70
     0
  3
Dot (.5x) .....................................
 72
    65
 73
     2
 40
3.174999999999999
 49
0.0
 74
     0
 49
-3.174999999999999
 74
     0
  0
LTYPE
  5
54
330
5
100
AcDbSymbolTableRecord
100
AcDbLinetypeTableRecord
  2
DOTX2
 70
     0
  3
Dot (2x) .  .  .  .  .  .  .  .  .  .  .  .  . 
 72
    65
 73
     2
 40
12.7
 49
0.0
 74
     0
 49
-12.7
 74
     0
  0
LTYPE
  5
55
330
5
100
AcDbSymbolTableRecord
100
AcDbLinetypeTableRecord
  2
FENCELINE1
 70
     0
  3
Fenceline circle ----0-----0----0-----0----0---
 72
    65
 73
     4
 40
36.83
 49
6.349999999999999
 74
     0
 49
-2.54
 74
     4
 75
   133
340
33
 46
2.54
 50
0.0
 44
-2.54
 45
0.0
 49
-2.54
 74
     0
 49
25.4
 74
     0
  0
LTYPE
  5
56
330
5
100
AcDbSymbolTableRecord
100
AcDbLinetypeTableRecord
  2
FENCELINE2
 70
     0
  3
Fenceline square ----[]-----[]----[]-----[]----
 72
    65
 73
     4
 40
36.83
 49
6.349999999999999
 74
     0
 49
-2.54
 74
     4
 75
   132
340
33
 46
2.54
 50
0.0
 44
-2.54
 45
0.0
 49
-2.54
 74
     0
 49
25.4
 74
     0
  0
LTYPE
  5
57
330
5
100
AcDbSymbolTableRecord
100
AcDbLinetypeTableRecord
  2
GAS_LINE
 70
     0
  3
Gas line ----GAS----GAS----GAS----GAS----GAS---
 72
    65
 73
     3
 40
24.13
 49
12.7
 74
     0
 49
-5.08
 74
     2
 75
     0
340
11
 46
2.54
 50
0.0
 44
-2.54
 45
-1.27
  9
GAS
 49
-6.349999999999999
 74
     0
  0
LTYPE
  5
58
330
5
100
AcDbSymbolTableRecord
100
AcDbLinetypeTableRecord
  2
HIDDEN
 70
     0
  3
Hidden __ __ __ __ __ __ __ __ __ __ __ __ __ _
 72
    65
 73
     2
 40
9.524999999999998
 49
6.349999999999999
 74
     0
 49
-3.174999999999999
 74
     0
  0
LTYPE
  5
59
330
5
100
AcDbSymbolTableRecord
100
AcDbLinetypeTableRecord
  2
HIDDEN2
 70
     0
  3
Hidden (.5x) _ _ _ _ _ _ _ _ _ _ _ _ _ _ _ _ _
 72
    65
 73
     2
 40
4.762499999999999
 49
3.174999999999999
 74
     0
 49
-1.587499999999999
 74
     0
  0
LTYPE
  5
5A
330
5
100
AcDbSymbolTableRecord
100
AcDbLinetypeTableRecord
  2
HIDDENX2
 70
     0
  3
Hidden (2x) ____ ____ ____ ____ ____ ____ ____
 72
    65
 73
     2
 40
19.05
 49
12.7
 74
     0
 49
-6.349999999999999
 74
     0
  0
LTYPE
  5
5B
330
5
100
AcDbSymbolTableRecord
100
AcDbLinetypeTableRecord
  2
HOT_WATER_SUPPLY
 70
     0
  3
Hot water supply ---- HW ---- HW ---- HW ----
 72
    65
 73
     3
 40
22.86
 49
12.7
 74
     0
 49
-5.08
 74
     2
 75
     0
340
11
 46
2.54
 50
0.0
 44
-2.54
 45
-1.27
  9
HW
 49
-5.08
 74
     0
  0
LTYPE
  5
5C
330
5
100
AcDbSymbolTableRecord
100
AcDbLinetypeTableRecord
  2
PHANTOM
 70
     0
  3
Phantom ______  __  __  ______  __  __  ______
 72
    65
 73
     6
 40
63.5
 49
31.75
 74
     0
 49
-6.349999999999999
 74
     0
 49
6.349999999999999
 74
     0
 49
-6.349999999999999
 74
     0
 49
6.349999999999999
 74
     0
 49
-6.349999999999999
 74
     0
  0
LTYPE
  5
5D
330
5
100
AcDbSymbolTableRecord
100
AcDbLinetypeTableRecord
  2
PHANTOM2
 70
     0
  3
Phantom (.5x) ___ _ _ ___ _ _ ___ _ _ ___ _ _
 72
    65
 73
     6
 40
31.75
 49
15.875
 74
     0
 49
-3.174999999999999
 74
     0
 49
3.174999999999999
 74
     0
 49
-3.174999999999999
 74
     0
 49
3.174999999999999
 74
     0
 49
-3.174999999999999
 74
     0
  0
LTYPE
  5
5E
330
5
100
AcDbSymbolTableRecord
100
AcDbLinetypeTableRecord
  2
PHANTOMX2
 70
     0
  3
Phantom (2x) ____________    ____    ____   _
 72
    65
 73
     6
 40
127.0
 49
63.5
 74
     0
 49
-12.7
 74
     0
 49
12.7
 74
     0
 49
-12.7
 74
     0
 49
12.7
 74
     0
 49
-12.7
 74
     0
  0
LTYPE
  5
5F
330
5
100
AcDbSymbolTableRecord
100
AcDbLinetypeTableRecord
  2
TRACKS
 70
     0
  3
Tracks -|-|-|-|-|-|-|-|-|-|-|-|-|-|-|-|-|-|-|-|
 72
    65
 73
     2
 40
7.62
 49
3.81
 74
     4
 75
   130
340
33
 46
6.349999999999999
 50
0.0
 44
0.0
 45
0.0
 49
3.81
 74
     0
  0
LTYPE
  5
60
330
5
100
AcDbSymbolTableRecord
100
AcDbLinetypeTableRecord
  2
ZIGZAG
 70
     0
  3
Zig zag /\/\/\/\/\/\/\/\/\/\/\/\/\/\/\/\/\/\/\/
 72
    65
 73
     4
 40
20.32254
 49
0.00254
 74
     0
 49
-5.08
 74
     4
 75
   131
340
33
 46
5.08
 50
0.0
 44
-5.08
 45
0.0
 49
-10.16
 74
     4
 75
   131
340
33
 46
5.08
 50
180.0
 44
5.08
 45
0.0
 49
-5.08
 74
     0
  0
ENDTAB
  0
TABLE
  2
LAYER
  5
2
102
{ACAD_XDICTIONARY
360
12C0
102
}
330
0
100
AcDbSymbolTable
 70
     9
  0
LAYER
  5
10
330
2
100
AcDbSymbolTableRecord
100
AcDbLayerTableRecord
  2
0
 70
     0
 62
     7
  6
Continuous
370
    -3
390
F
  0
LAYER
  5
C3
330
2
100
AcDbSymbolTableRecord
100
AcDbLayerTableRecord
  2
Defpoints
 70
     0
 62
     7
  6
Continuous
290
     0
370
    -3
390
F
  0
LAYER
  5
256
330
2
100
AcDbSymbolTableRecord
100
AcDbLayerTableRecord
  2
センター
 70
     0
 62
     7
  6
CENTER2
370
    18
390
F
  0
LAYER
  5
268
330
2
100
AcDbSymbolTableRecord
100
AcDbLayerTableRecord
  2
実形
 70
     0
 62
     7
  6
Continuous
370
    -3
390
F
  0
LAYER
  5
269
330
2
100
AcDbSymbolTableRecord
100
AcDbLayerTableRecord
  2
補助
 70
     0
 62
     7
  6
Continuous
370
    -3
390
F
  0
LAYER
  5
26A
330
2
100
AcDbSymbolTableRecord
100
AcDbLayerTableRecord
  2
寸法
 70
     0
 62
     7
  6
Continuous
370
    18
390
F
  0
LAYER
  5
26B
330
2
100
AcDbSymbolTableRecord
100
AcDbLayerTableRecord
  2
ハッチング
 70
     0
 62
     7
  6
Continuous
370
    18
390
F
  0
LAYER
  5
26D
330
2
100
AcDbSymbolTableRecord
100
AcDbLayerTableRecord
  2
文字
 70
     0
 62
     7
  6
Continuous
370
    -3
390
F
  0
LAYER
  5
10EF
330
2
100
AcDbSymbolTableRecord
100
AcDbLayerTableRecord
  2
Cen
 70
     0
 62
     7
  6
CENTER2
370
    15
390
F
  0
ENDTAB
  0
TABLE
  2
STYLE
  5
3
330
0
100
AcDbSymbolTable
 70
     3
  0
STYLE
  5
11
330
3
100
AcDbSymbolTableRecord
100
AcDbTextStyleTableRecord
  2
Standard
 70
     0
 40
0.0
 41
1.0
 50
0.0
 71
     0
 42
25.0
  3
txt.shx
  4
bigfont.shx
  0
STYLE
  5
33
330
3
100
AcDbSymbolTableRecord
100
AcDbTextStyleTableRecord
  2

 70
     1
 40
0.0
 41
1.0
 50
0.0
 71
     0
 42
2.5
  3
ltypeshp.shx
  4

  0
STYLE
  5
1362
330
3
100
AcDbSymbolTableRecord
100
AcDbTextStyleTableRecord
  2
明朝
 70
     0
 40
0.0
 41
1.0
 50
0.0
 71
     0
 42
25.0
  3
MS Mincho.ttf
  4

1001
ACAD
1000
MS Mincho
1071
    32785
  0
ENDTAB
  0
TABLE
  2
VIEW
  5
6
330
0
100
AcDbSymbolTable
 70
     0
  0
ENDTAB
  0
TABLE
  2
UCS
  5
7
330
0
100
AcDbSymbolTable
 70
     0
  0
ENDTAB
  0
TABLE
  2
APPID
  5
9
330
0
100
AcDbSymbolTable
 70
     2
  0
APPID
  5
12
330
9
100
AcDbSymbolTableRecord
100
AcDbRegAppTableRecord
  2
ACAD
 70
     0
  0
APPID
  5
12BF
330
9
100
AcDbSymbolTableRecord
100
AcDbRegAppTableRecord
  2
ACAD_PSEXT
 70
     0
  0
ENDTAB
  0
TABLE
  2
DIMSTYLE
  5
A
330
0
100
AcDbSymbolTable
 70
     1
100
AcDbDimStyleTable
 71
     1
340
27
  0
DIMSTYLE
105
27
102
{ACAD_REACTORS
330
1A11
330
1A12
330
1A13
330
1A14
330
1C54
330
1C55
330
1C56
330
1C59
330
1D1B
330
1D1C
330
1EA2
330
1EA3
330
1F84
330
1F85
330
22C3
330
22C4
330
22C6
330
22C7
330
22CB
330
22CC
330
22CF
330
22D0
330
22D3
330
22DB
330
22DC
330
22EC
102
}
330
A
100
AcDbSymbolTableRecord
100
AcDbDimStyleTableRecord
  2
ISO-25
 70
     0
 41
35.0
 42
65.0
 43
3.75
 44
0.0
 73
     0
 74
     0
 77
     1
 78
     8
140
25.0
141
2.5
143
0.03937007874016
147
6.25
171
     3
172
     1
271
     2
272
     2
274
     3
283
     0
284
     8
340
11
341
DA
342
D0
371
    15
372
    15
  0
ENDTAB
  0
TABLE
  2
BLOCK_RECORD
  5
1
330
0
100
AcDbSymbolTable
 70
    30
  0
BLOCK_RECORD
  5
1F
102
{ACAD_XDICTIONARY
360
1381
102
}
330
1
100
AcDbSymbolTableRecord
100
AcDbBlockTableRecord
  2
*Model_Space
340
22
  0
BLOCK_RECORD
  5
1B
330
1
100
AcDbSymbolTableRecord
100
AcDbBlockTableRecord
  2
*Paper_Space
340
1E
  0
BLOCK_RECORD
  5
23
330
1
100
AcDbSymbolTableRecord
100
AcDbBlockTableRecord
  2
*Paper_Space0
340
26
  0
BLOCK_RECORD
  5
D0
330
1
100
AcDbSymbolTableRecord
100
AcDbBlockTableRecord
  2
_DotSmall
340
0
102
{BLKREFS
331
2380
331
2381
331
2389
331
238A
331
2392
331
2393
331
239B
331
239C
331
23A4
331
23A5
331
23AD
331
23AE
331
23B6
331
23B7
331
23BF
331
23C0
331
23C8
331
23C9
331
23D1
331
23D2
331
23DA
331
23DB
331
23E3
331
23E4
331
2556
331
2557
331
255F
331
2560
331
2568
331
2569
331
2571
331
2572
331
2597
331
2598
331
25A0
331
25A1
331
25A9
331
25AA
331
25B1
331
25B2
331
25BB
331
25BC
331
25C3
331
25C4
331
25CD
331
25CE
331
25D5
331
25D6
331
25DE
331
25DF
331
2629
331
262A
102
}
  0
BLOCK_RECORD
  5
D4
330
1
100
AcDbSymbolTableRecord
100
AcDbBlockTableRecord
  2
_Origin2
340
0
  0
BLOCK_RECORD
  5
DA
330
1
100
AcDbSymbolTableRecord
100
AcDbBlockTableRecord
  2
_Open30
340
0
  0
BLOCK_RECORD
  5
1A1A
330
1
100
AcDbSymbolTableRecord
100
AcDbBlockTableRecord
  2
*D4
340
0
  0
BLOCK_RECORD
  5
1A25
330
1
100
AcDbSymbolTableRecord
100
AcDbBlockTableRecord
  2
*D5
340
0
  0
BLOCK_RECORD
  5
1A31
330
1
100
AcDbSymbolTableRecord
100
AcDbBlockTableRecord
  2
*D6
340
0
  0
BLOCK_RECORD
  5
1A3D
330
1
100
AcDbSymbolTableRecord
100
AcDbBlockTableRecord
  2
*D7
340
0
  0
BLOCK_RECORD
  5
1C5A
330
1
100
AcDbSymbolTableRecord
100
AcDbBlockTableRecord
  2
*D8
340
0
  0
BLOCK_RECORD
  5
1C66
330
1
100
AcDbSymbolTableRecord
100
AcDbBlockTableRecord
  2
*D9
340
0
  0
BLOCK_RECORD
  5
1C72
330
1
100
AcDbSymbolTableRecord
100
AcDbBlockTableRecord
  2
*D10
340
0
  0
BLOCK_RECORD
  5
1C7D
330
1
100
AcDbSymbolTableRecord
100
AcDbBlockTableRecord
  2
*D11
340
0
  0
BLOCK_RECORD
  5
1D1D
330
1
100
AcDbSymbolTableRecord
100
AcDbBlockTableRecord
  2
*D12
340
0
  0
BLOCK_RECORD
  5
1D29
330
1
100
AcDbSymbolTableRecord
100
AcDbBlockTableRecord
  2
*D13
340
0
  0
BLOCK_RECORD
  5
1EC1
330
1
100
AcDbSymbolTableRecord
100
AcDbBlockTableRecord
  2
*D14
340
0
  0
BLOCK_RECORD
  5
1ECD
330
1
100
AcDbSymbolTableRecord
100
AcDbBlockTableRecord
  2
*D15
340
0
  0
BLOCK_RECORD
  5
1F9C
330
1
100
AcDbSymbolTableRecord
100
AcDbBlockTableRecord
  2
*D16
340
0
  0
BLOCK_RECORD
  5
1FA8
330
1
100
AcDbSymbolTableRecord
100
AcDbBlockTableRecord
  2
*D17
340
0
  0
BLOCK_RECORD
  5
22ED
330
1
100
AcDbSymbolTableRecord
100
AcDbBlockTableRecord
  2
*D18
340
0
  0
BLOCK_RECORD
  5
22F9
330
1
100
AcDbSymbolTableRecord
100
AcDbBlockTableRecord
  2
*D19
340
0
  0
BLOCK_RECORD
  5
2305
330
1
100
AcDbSymbolTableRecord
100
AcDbBlockTableRecord
  2
*D20
340
0
  0
BLOCK_RECORD
  5
2311
330
1
100
AcDbSymbolTableRecord
100
AcDbBlockTableRecord
  2
*D21
340
0
  0
BLOCK_RECORD
  5
231D
330
1
100
AcDbSymbolTableRecord
100
AcDbBlockTableRecord
  2
*D22
340
0
  0
BLOCK_RECORD
  5
2329
330
1
100
AcDbSymbolTableRecord
100
AcDbBlockTableRecord
  2
*D23
340
0
  0
BLOCK_RECORD
  5
2335
330
1
100
AcDbSymbolTableRecord
100
AcDbBlockTableRecord
  2
*D24
340
0
  0
BLOCK_RECORD
  5
2341
330
1
100
AcDbSymbolTableRecord
100
AcDbBlockTableRecord
  2
*D25
340
0
  0
BLOCK_RECORD
  5
234D
330
1
100
AcDbSymbolTableRecord
100
AcDbBlockTableRecord
  2
*D26
340
0
  0
BLOCK_RECORD
  5
2359
330
1
100
AcDbSymbolTableRecord
100
AcDbBlockTableRecord
  2
*D27
340
0
  0
BLOCK_RECORD
  5
2365
330
1
100
AcDbSymbolTableRecord
100
AcDbBlockTableRecord
  2
*D28
340
0
  0
BLOCK_RECORD
  5
2371
330
1
100
AcDbSymbolTableRecord
100
AcDbBlockTableRecord
  2
*D29
340
0
  0
ENDTAB
  0
ENDSEC
  0
SECTION
  2
BLOCKS
  0
BLOCK
  5
20
330
1F
100
AcDbEntity
  8
0
100
AcDbBlockBegin
  2
*Model_Space
 70
     0
 10
0.0
 20
0.0
 30
0.0
  3
*Model_Space
  1

  0
ENDBLK
  5
21
330
1F
100
AcDbEntity
  8
0
100
AcDbBlockEnd
  0
BLOCK
  5
1C
330
1B
100
AcDbEntity
 67
     1
  8
0
100
AcDbBlockBegin
  2
*Paper_Space
 70
     0
 10
0.0
 20
0.0
 30
0.0
  3
*Paper_Space
  1

  0
ENDBLK
  5
1D
330
1B
100
AcDbEntity
 67
     1
  8
0
100
AcDbBlockEnd
  0
BLOCK
  5
24
330
23
100
AcDbEntity
  8
0
100
AcDbBlockBegin
  2
*Paper_Space0
 70
     0
 10
0.0
 20
0.0
 30
0.0
  3
*Paper_Space0
  1

  0
ENDBLK
  5
25
330
23
100
AcDbEntity
  8
0
100
AcDbBlockEnd
  0
BLOCK
  5
D2
330
D0
100
AcDbEntity
  8
0
100
AcDbBlockBegin
  2
_DotSmall
 70
     0
 10
0.0
 20
0.0
 30
0.0
  3
_DotSmall
  1

  0
LWPOLYLINE
  5
D1
330
D0
100
AcDbEntity
  8
0
 62
     0
100
AcDbPolyline
 90
        2
 70
     1
 43
0.5
 10
-0.0625
 20
0.0
 42
1.0
 10
0.0625
 20
0.0
 42
1.0
  0
ENDBLK
  5
D3
330
D0
100
AcDbEntity
  8
0
100
AcDbBlockEnd
  0
BLOCK
  5
D8
330
D4
100
AcDbEntity
  8
0
100
AcDbBlockBegin
  2
_Origin2
 70
     0
 10
0.0
 20
0.0
 30
0.0
  3
_Origin2
  1

  0
CIRCLE
  5
D5
330
D4
100
AcDbEntity
  8
0
 62
     0
370
    -2
100
AcDbCircle
 10
0.0
 20
0.0
 30
0.0
 40
0.5
  0
CIRCLE
  5
D6
330
D4
100
AcDbEntity
  8
0
 62
     0
370
    -2
100
AcDbCircle
 10
0.0
 20
0.0
 30
0.0
 40
0.25
  0
LINE
  5
D7
330
D4
100
AcDbEntity
  8
0
 62
     0
370
    -2
100
AcDbLine
 10
-0.5
 20
0.0
 30
0.0
 11
-1.0
 21
0.0
 31
0.0
  0
ENDBLK
  5
D9
330
D4
100
AcDbEntity
  8
0
100
AcDbBlockEnd
  0
BLOCK
  5
DE
330
DA
100
AcDbEntity
  8
0
100
AcDbBlockBegin
  2
_Open30
 70
     0
 10
0.0
 20
0.0
 30
0.0
  3
_Open30
  1

  0
LINE
  5
DB
330
DA
100
AcDbEntity
  8
0
 62
     0
370
    -2
100
AcDbLine
 10
-1.0
 20
0.26794919
 30
0.0
 11
0.0
 21
0.0
 31
0.0
  0
LINE
  5
DC
330
DA
100
AcDbEntity
  8
0
 62
     0
370
    -2
100
AcDbLine
 10
0.0
 20
0.0
 30
0.0
 11
-1.0
 21
-0.26794919
 31
0.0
  0
LINE
  5
DD
330
DA
100
AcDbEntity
  8
0
 62
     0
370
    -2
100
AcDbLine
 10
0.0
 20
0.0
 30
0.0
 11
-1.0
 21
0.0
 31
0.0
  0
ENDBLK
  5
DF
330
DA
100
AcDbEntity
  8
0
100
AcDbBlockEnd
  0
BLOCK
  5
1A23
330
1A1A
100
AcDbEntity
  8
0
100
AcDbBlockBegin
  2
*D4
 70
     1
 10
0.0
 20
0.0
 30
0.0
  3
*D4
  1

  0
LINE
  5
25DB
330
1A1A
100
AcDbEntity
  8
寸法
 62
     0
370
    15
100
AcDbLine
 10
691.1569829004329
 20
1694.871555206365
 30
0.0
 11
613.7632250777151
 21
1694.871555206365
 31
0.0
  0
LINE
  5
25DC
330
1A1A
100
AcDbEntity
  8
寸法
 62
     0
370
    15
100
AcDbLine
 10
691.1569829004329
 20
1644.871555206365
 30
0.0
 11
613.7632250777151
 21
1644.871555206365
 31
0.0
  0
LINE
  5
25DD
330
1A1A
100
AcDbEntity
  8
寸法
 62
     0
370
    18
100
AcDbLine
 10
613.7632250777151
 20
1694.871555206365
 30
0.0
 11
613.7632250777151
 21
1644.871555206365
 31
0.0
  0
INSERT
  5
25DE
330
1A1A
100
AcDbEntity
  8
寸法
 62
     0
370
    18
100
AcDbBlockReference
  2
_DotSmall
 10
613.7632250777151
 20
1694.871555206365
 30
0.0
 41
25.0
 42
25.0
 43
25.0
 50
90.0
  0
INSERT
  5
25DF
330
1A1A
100
AcDbEntity
  8
寸法
 62
     0
370
    18
100
AcDbBlockReference
  2
_DotSmall
 10
613.7632250777151
 20
1644.871555206365
 30
0.0
 41
25.0
 42
25.0
 43
25.0
 50
270.0
  0
POINT
  5
25E0
330
1A1A
100
AcDbEntity
  8
Defpoints
 62
     0
100
AcDbPoint
 10
756.1569829004329
 20
1694.871555206365
 30
0.0
  0
POINT
  5
25E1
330
1A1A
100
AcDbEntity
  8
Defpoints
 62
     0
100
AcDbPoint
 10
756.1569829004329
 20
1644.871555206365
 30
0.0
  0
POINT
  5
25E2
330
1A1A
100
AcDbEntity
  8
Defpoints
 62
     0
100
AcDbPoint
 10
613.7632250777151
 20
1644.871555206365
 30
0.0
  0
ENDBLK
  5
1A24
330
1A1A
100
AcDbEntity
  8
0
100
AcDbBlockEnd
  0
BLOCK
  5
1A2F
330
1A25
100
AcDbEntity
  8
0
100
AcDbBlockBegin
  2
*D5
 70
     1
 10
0.0
 20
0.0
 30
0.0
  3
*D5
  1

  0
LINE
  5
25D2
330
1A25
100
AcDbEntity
  8
寸法
 62
     0
370
    15
100
AcDbLine
 10
691.1569829004329
 20
1644.871555206365
 30
0.0
 11
613.7632250777151
 21
1644.871555206365
 31
0.0
  0
LINE
  5
25D3
330
1A25
100
AcDbEntity
  8
寸法
 62
     0
370
    15
100
AcDbLine
 10
691.1569829004329
 20
1334.871555206363
 30
0.0
 11
613.7632250777151
 21
1334.871555206363
 31
0.0
  0
LINE
  5
25D4
330
1A25
100
AcDbEntity
  8
寸法
 62
     0
370
    18
100
AcDbLine
 10
613.7632250777151
 20
1644.871555206365
 30
0.0
 11
613.7632250777151
 21
1334.871555206363
 31
0.0
  0
INSERT
  5
25D5
330
1A25
100
AcDbEntity
  8
寸法
 62
     0
370
    18
100
AcDbBlockReference
  2
_DotSmall
 10
613.7632250777151
 20
1644.871555206365
 30
0.0
 41
25.0
 42
25.0
 43
25.0
 50
90.0
  0
INSERT
  5
25D6
330
1A25
100
AcDbEntity
  8
寸法
 62
     0
370
    18
100
AcDbBlockReference
  2
_DotSmall
 10
613.7632250777151
 20
1334.871555206363
 30
0.0
 41
25.0
 42
25.0
 43
25.0
 50
270.0
  0
MTEXT
  5
25D7
330
1A25
100
AcDbEntity
  8
寸法
 62
     0
100
AcDbMText
 10
595.013225077715
 20
1489.871555206364
 30
0.0
 40
25.0
 41
0.0
 71
     5
 72
     1
  1
310
 11
0.0000000000000001
 21
1.0
 31
0.0
 73
     1
 44
1.0
1001
ACAD
1000
MTEXTBEGIN
1070
    73
1070
     1
1070
    44
1040
1.0
1070
    74
1070
     0
1000
MTEXTEND
  0
POINT
  5
25D8
330
1A25
100
AcDbEntity
  8
Defpoints
 62
     0
100
AcDbPoint
 10
756.1569829004329
 20
1644.871555206365
 30
0.0
  0
POINT
  5
25D9
330
1A25
100
AcDbEntity
  8
Defpoints
 62
     0
100
AcDbPoint
 10
756.1569829004329
 20
1334.871555206363
 30
0.0
  0
POINT
  5
25DA
330
1A25
100
AcDbEntity
  8
Defpoints
 62
     0
100
AcDbPoint
 10
613.7632250777151
 20
1334.871555206363
 30
0.0
  0
ENDBLK
  5
1A30
330
1A25
100
AcDbEntity
  8
0
100
AcDbBlockEnd
  0
BLOCK
  5
1A3B
330
1A31
100
AcDbEntity
  8
0
100
AcDbBlockBegin
  2
*D6
 70
     1
 10
0.0
 20
0.0
 30
0.0
  3
*D6
  1

  0
LINE
  5
25C9
330
1A31
100
AcDbEntity
  8
寸法
 62
     0
370
    15
100
AcDbLine
 10
691.1569829004329
 20
1334.871555206363
 30
0.0
 11
613.7632250777151
 21
1334.871555206363
 31
0.0
  0
LINE
  5
25CA
330
1A31
100
AcDbEntity
  8
寸法
 62
     0
370
    15
100
AcDbLine
 10
691.1569829004329
 20
1284.871555206363
 30
0.0
 11
613.7632250777151
 21
1284.871555206363
 31
0.0
  0
LINE
  5
25CB
330
1A31
100
AcDbEntity
  8
寸法
 62
     0
370
    18
100
AcDbLine
 10
613.7632250777151
 20
1334.871555206363
 30
0.0
 11
613.7632250777151
 21
1284.871555206363
 31
0.0
  0
MTEXT
  5
25CC
330
1A31
100
AcDbEntity
  8
寸法
 62
     0
370
    18
100
AcDbMText
 10
591.5155481191813
 20
1309.938981824355
 30
0.0
 40
25.0
 41
0.0
 71
     5
 72
     1
  1
50
 11
0.0000000000000001
 21
1.0
 31
0.0
 73
     1
 44
1.0
1001
ACAD
1000
MTEXTBEGIN
1070
    73
1070
     1
1070
    44
1040
1.0
1070
    74
1070
     0
1000
MTEXTEND
  0
INSERT
  5
25CD
330
1A31
100
AcDbEntity
  8
寸法
 62
     0
370
    18
100
AcDbBlockReference
  2
_DotSmall
 10
613.7632250777151
 20
1334.871555206363
 30
0.0
 41
25.0
 42
25.0
 43
25.0
 50
90.0
  0
INSERT
  5
25CE
330
1A31
100
AcDbEntity
  8
寸法
 62
     0
370
    18
100
AcDbBlockReference
  2
_DotSmall
 10
613.7632250777151
 20
1284.871555206363
 30
0.0
 41
25.0
 42
25.0
 43
25.0
 50
270.0
  0
POINT
  5
25CF
330
1A31
100
AcDbEntity
  8
Defpoints
 62
     0
100
AcDbPoint
 10
756.1569829004329
 20
1334.871555206363
 30
0.0
  0
POINT
  5
25D0
330
1A31
100
AcDbEntity
  8
Defpoints
 62
     0
100
AcDbPoint
 10
756.1569829004329
 20
1284.871555206363
 30
0.0
  0
POINT
  5
25D1
330
1A31
100
AcDbEntity
  8
Defpoints
 62
     0
100
AcDbPoint
 10
613.7632250777151
 20
1284.871555206363
 30
0.0
  0
ENDBLK
  5
1A3C
330
1A31
100
AcDbEntity
  8
0
100
AcDbBlockEnd
  0
BLOCK
  5
1A47
330
1A3D
100
AcDbEntity
  8
0
100
AcDbBlockBegin
  2
*D7
 70
     1
 10
0.0
 20
0.0
 30
0.0
  3
*D7
  1

  0
LINE
  5
25C0
330
1A3D
100
AcDbEntity
  8
寸法
 62
     0
370
    15
100
AcDbLine
 10
691.9385398015886
 20
1694.871555206365
 30
0.0
 11
544.9233267530309
 21
1694.871555206365
 31
0.0
  0
LINE
  5
25C1
330
1A3D
100
AcDbEntity
  8
寸法
 62
     0
370
    15
100
AcDbLine
 10
691.9385398015888
 20
1284.871555206363
 30
0.0
 11
544.9233267530309
 21
1284.871555206363
 31
0.0
  0
LINE
  5
25C2
330
1A3D
100
AcDbEntity
  8
寸法
 62
     0
370
    18
100
AcDbLine
 10
544.9233267530309
 20
1694.871555206365
 30
0.0
 11
544.9233267530309
 21
1284.871555206363
 31
0.0
  0
INSERT
  5
25C3
330
1A3D
100
AcDbEntity
  8
寸法
 62
     0
370
    18
100
AcDbBlockReference
  2
_DotSmall
 10
544.9233267530309
 20
1694.871555206365
 30
0.0
 41
25.0
 42
25.0
 43
25.0
 50
90.0
  0
INSERT
  5
25C4
330
1A3D
100
AcDbEntity
  8
寸法
 62
     0
370
    18
100
AcDbBlockReference
  2
_DotSmall
 10
544.9233267530309
 20
1284.871555206363
 30
0.0
 41
25.0
 42
25.0
 43
25.0
 50
270.0
  0
MTEXT
  5
25C5
330
1A3D
100
AcDbEntity
  8
寸法
 62
     0
100
AcDbMText
 10
526.1733267530306
 20
1489.871555206364
 30
0.0
 40
25.0
 41
0.0
 71
     5
 72
     1
  1
410
 11
0.0000000000000001
 21
1.0
 31
0.0
 73
     1
 44
1.0
1001
ACAD
1000
MTEXTBEGIN
1070
    73
1070
     1
1070
    44
1040
1.0
1070
    74
1070
     0
1000
MTEXTEND
  0
POINT
  5
25C6
330
1A3D
100
AcDbEntity
  8
Defpoints
 62
     0
100
AcDbPoint
 10
756.9385398015886
 20
1694.871555206365
 30
0.0
  0
POINT
  5
25C7
330
1A3D
100
AcDbEntity
  8
Defpoints
 62
     0
100
AcDbPoint
 10
756.9385398015888
 20
1284.871555206363
 30
0.0
  0
POINT
  5
25C8
330
1A3D
100
AcDbEntity
  8
Defpoints
 62
     0
100
AcDbPoint
 10
544.9233267530309
 20
1284.871555206363
 30
0.0
  0
ENDBLK
  5
1A48
330
1A3D
100
AcDbEntity
  8
0
100
AcDbBlockEnd
  0
BLOCK
  5
1C64
330
1C5A
100
AcDbEntity
  8
0
100
AcDbBlockBegin
  2
*D8
 70
     1
 10
0.0
 20
0.0
 30
0.0
  3
*D8
  1

  0
LINE
  5
25B7
330
1C5A
100
AcDbEntity
  8
寸法
 62
     0
370
    15
100
AcDbLine
 10
749.629431614303
 20
1235.419852724631
 30
0.0
 11
749.629431614303
 21
1152.487734954577
 31
0.0
  0
LINE
  5
25B8
330
1C5A
100
AcDbEntity
  8
寸法
 62
     0
370
    15
100
AcDbLine
 10
799.6294316143031
 20
1235.419852724631
 30
0.0
 11
799.6294316143031
 21
1152.487734954577
 31
0.0
  0
LINE
  5
25B9
330
1C5A
100
AcDbEntity
  8
寸法
 62
     0
370
    18
100
AcDbLine
 10
749.629431614303
 20
1152.487734954577
 30
0.0
 11
799.6294316143031
 21
1152.487734954577
 31
0.0
  0
LINE
  5
25BA
330
1C5A
100
AcDbEntity
  8
寸法
 62
     0
370
    18
100
AcDbLine
 10
799.6294316143031
 20
1152.487734954577
 30
0.0
 11
860.3794316143032
 21
1152.487734954577
 31
0.0
  0
INSERT
  5
25BB
330
1C5A
100
AcDbEntity
  8
寸法
 62
     0
370
    18
100
AcDbBlockReference
  2
_DotSmall
 10
749.629431614303
 20
1152.487734954577
 30
0.0
 41
25.0
 42
25.0
 43
25.0
 50
180.0
  0
INSERT
  5
25BC
330
1C5A
100
AcDbEntity
  8
寸法
 62
     0
370
    18
100
AcDbBlockReference
  2
_DotSmall
 10
799.6294316143031
 20
1152.487734954577
 30
0.0
 41
25.0
 42
25.0
 43
25.0
  0
POINT
  5
25BD
330
1C5A
100
AcDbEntity
  8
Defpoints
 62
     0
100
AcDbPoint
 10
749.629431614303
 20
1300.419852724631
 30
0.0
  0
POINT
  5
25BE
330
1C5A
100
AcDbEntity
  8
Defpoints
 62
     0
100
AcDbPoint
 10
799.6294316143031
 20
1300.419852724631
 30
0.0
  0
POINT
  5
25BF
330
1C5A
100
AcDbEntity
  8
Defpoints
 62
     0
100
AcDbPoint
 10
799.6294316143031
 20
1152.487734954577
 30
0.0
  0
ENDBLK
  5
1C65
330
1C5A
100
AcDbEntity
  8
0
100
AcDbBlockEnd
  0
BLOCK
  5
1C70
330
1C66
100
AcDbEntity
  8
0
100
AcDbBlockBegin
  2
*D9
 70
     1
 10
0.0
 20
0.0
 30
0.0
  3
*D9
  1

  0
LINE
  5
25AE
330
1C66
100
AcDbEntity
  8
寸法
 62
     0
370
    15
100
AcDbLine
 10
799.6294316143031
 20
1235.419852724631
 30
0.0
 11
799.6294316143031
 21
1152.487734954577
 31
0.0
  0
LINE
  5
25AF
330
1C66
100
AcDbEntity
  8
寸法
 62
     0
370
    15
100
AcDbLine
 10
1219.629431614299
 20
1236.109689355358
 30
0.0
 11
1219.629431614299
 21
1152.487734954577
 31
0.0
  0
LINE
  5
25B0
330
1C66
100
AcDbEntity
  8
寸法
 62
     0
370
    18
100
AcDbLine
 10
799.6294316143031
 20
1152.487734954577
 30
0.0
 11
1219.629431614299
 21
1152.487734954577
 31
0.0
  0
INSERT
  5
25B1
330
1C66
100
AcDbEntity
  8
寸法
 62
     0
370
    18
100
AcDbBlockReference
  2
_DotSmall
 10
799.6294316143031
 20
1152.487734954577
 30
0.0
 41
25.0
 42
25.0
 43
25.0
 50
180.0
  0
INSERT
  5
25B2
330
1C66
100
AcDbEntity
  8
寸法
 62
     0
370
    18
100
AcDbBlockReference
  2
_DotSmall
 10
1219.629431614299
 20
1152.487734954577
 30
0.0
 41
25.0
 42
25.0
 43
25.0
  0
MTEXT
  5
25B3
330
1C66
100
AcDbEntity
  8
寸法
 62
     0
100
AcDbMText
 10
1009.629431614301
 20
1171.237734954577
 30
0.0
 40
25.0
 41
0.0
 71
     5
 72
     1
  1
420
 73
     1
 44
1.0
1001
ACAD
1000
MTEXTBEGIN
1070
    73
1070
     1
1070
    44
1040
1.0
1070
    74
1070
     0
1000
MTEXTEND
  0
POINT
  5
25B4
330
1C66
100
AcDbEntity
  8
Defpoints
 62
     0
100
AcDbPoint
 10
799.6294316143031
 20
1300.419852724631
 30
0.0
  0
POINT
  5
25B5
330
1C66
100
AcDbEntity
  8
Defpoints
 62
     0
100
AcDbPoint
 10
1219.629431614299
 20
1301.109689355357
 30
0.0
  0
POINT
  5
25B6
330
1C66
100
AcDbEntity
  8
Defpoints
 62
     0
100
AcDbPoint
 10
1219.629431614299
 20
1152.487734954577
 30
0.0
  0
ENDBLK
  5
1C71
330
1C66
100
AcDbEntity
  8
0
100
AcDbBlockEnd
  0
BLOCK
  5
1C7B
330
1C72
100
AcDbEntity
  8
0
100
AcDbBlockBegin
  2
*D10
 70
     1
 10
0.0
 20
0.0
 30
0.0
  3
*D10
  1

  0
LINE
  5
25A6
330
1C72
100
AcDbEntity
  8
寸法
 62
     0
370
    15
100
AcDbLine
 10
1219.629431614299
 20
1235.220158970717
 30
0.0
 11
1219.629431614299
 21
1152.487734954577
 31
0.0
  0
LINE
  5
25A7
330
1C72
100
AcDbEntity
  8
寸法
 62
     0
370
    15
100
AcDbLine
 10
1269.629431614299
 20
1235.220158970717
 30
0.0
 11
1269.629431614299
 21
1152.487734954577
 31
0.0
  0
LINE
  5
25A8
330
1C72
100
AcDbEntity
  8
寸法
 62
     0
370
    18
100
AcDbLine
 10
1219.629431614299
 20
1152.487734954577
 30
0.0
 11
1269.629431614299
 21
1152.487734954577
 31
0.0
  0
INSERT
  5
25A9
330
1C72
100
AcDbEntity
  8
寸法
 62
     0
370
    18
100
AcDbBlockReference
  2
_DotSmall
 10
1219.629431614299
 20
1152.487734954577
 30
0.0
 41
25.0
 42
25.0
 43
25.0
 50
180.0
  0
INSERT
  5
25AA
330
1C72
100
AcDbEntity
  8
寸法
 62
     0
370
    18
100
AcDbBlockReference
  2
_DotSmall
 10
1269.629431614299
 20
1152.487734954577
 30
0.0
 41
25.0
 42
25.0
 43
25.0
  0
POINT
  5
25AB
330
1C72
100
AcDbEntity
  8
Defpoints
 62
     0
100
AcDbPoint
 10
1219.629431614299
 20
1300.220158970717
 30
0.0
  0
POINT
  5
25AC
330
1C72
100
AcDbEntity
  8
Defpoints
 62
     0
100
AcDbPoint
 10
1269.629431614299
 20
1300.220158970717
 30
0.0
  0
POINT
  5
25AD
330
1C72
100
AcDbEntity
  8
Defpoints
 62
     0
100
AcDbPoint
 10
1269.629431614299
 20
1152.487734954577
 30
0.0
  0
ENDBLK
  5
1C7C
330
1C72
100
AcDbEntity
  8
0
100
AcDbBlockEnd
  0
BLOCK
  5
1C87
330
1C7D
100
AcDbEntity
  8
0
100
AcDbBlockBegin
  2
*D11
 70
     1
 10
0.0
 20
0.0
 30
0.0
  3
*D11
  1

  0
LINE
  5
259D
330
1C7D
100
AcDbEntity
  8
寸法
 62
     0
370
    15
100
AcDbLine
 10
749.629431614303
 20
1235.419852724631
 30
0.0
 11
749.629431614303
 21
1074.695824798707
 31
0.0
  0
LINE
  5
259E
330
1C7D
100
AcDbEntity
  8
寸法
 62
     0
370
    15
100
AcDbLine
 10
1269.629431614299
 20
1235.220158970717
 30
0.0
 11
1269.629431614299
 21
1074.695824798707
 31
0.0
  0
LINE
  5
259F
330
1C7D
100
AcDbEntity
  8
寸法
 62
     0
370
    18
100
AcDbLine
 10
749.629431614303
 20
1074.695824798707
 30
0.0
 11
1269.629431614299
 21
1074.695824798707
 31
0.0
  0
INSERT
  5
25A0
330
1C7D
100
AcDbEntity
  8
寸法
 62
     0
370
    18
100
AcDbBlockReference
  2
_DotSmall
 10
749.629431614303
 20
1074.695824798707
 30
0.0
 41
25.0
 42
25.0
 43
25.0
 50
180.0
  0
INSERT
  5
25A1
330
1C7D
100
AcDbEntity
  8
寸法
 62
     0
370
    18
100
AcDbBlockReference
  2
_DotSmall
 10
1269.629431614299
 20
1074.695824798707
 30
0.0
 41
25.0
 42
25.0
 43
25.0
  0
MTEXT
  5
25A2
330
1C7D
100
AcDbEntity
  8
寸法
 62
     0
100
AcDbMText
 10
1009.629431614301
 20
1093.445824798707
 30
0.0
 40
25.0
 41
0.0
 71
     5
 72
     1
  1
520
 73
     1
 44
1.0
1001
ACAD
1000
MTEXTBEGIN
1070
    73
1070
     1
1070
    44
1040
1.0
1070
    74
1070
     0
1000
MTEXTEND
  0
POINT
  5
25A3
330
1C7D
100
AcDbEntity
  8
Defpoints
 62
     0
100
AcDbPoint
 10
749.629431614303
 20
1300.419852724631
 30
0.0
  0
POINT
  5
25A4
330
1C7D
100
AcDbEntity
  8
Defpoints
 62
     0
100
AcDbPoint
 10
1269.629431614299
 20
1300.220158970717
 30
0.0
  0
POINT
  5
25A5
330
1C7D
100
AcDbEntity
  8
Defpoints
 62
     0
100
AcDbPoint
 10
1269.629431614299
 20
1074.695824798707
 30
0.0
  0
ENDBLK
  5
1C88
330
1C7D
100
AcDbEntity
  8
0
100
AcDbBlockEnd
  0
BLOCK
  5
1D27
330
1D1D
100
AcDbEntity
  8
0
100
AcDbBlockBegin
  2
*D12
 70
     1
 10
0.0
 20
0.0
 30
0.0
  3
*D12
  1

  0
LINE
  5
2594
330
1D1D
100
AcDbEntity
  8
寸法
 62
     0
370
    15
100
AcDbLine
 10
944.6294300602598
 20
1598.939834952301
 30
0.0
 11
944.6294300602598
 21
1788.742953115709
 31
0.0
  0
LINE
  5
2595
330
1D1D
100
AcDbEntity
  8
寸法
 62
     0
370
    15
100
AcDbLine
 10
799.6294316143031
 20
1554.946555206365
 30
0.0
 11
799.6294316143031
 21
1788.742953115709
 31
0.0
  0
LINE
  5
2596
330
1D1D
100
AcDbEntity
  8
寸法
 62
     0
370
    18
100
AcDbLine
 10
944.6294300602598
 20
1788.742953115709
 30
0.0
 11
799.6294316143031
 21
1788.742953115709
 31
0.0
  0
INSERT
  5
2597
330
1D1D
100
AcDbEntity
  8
寸法
 62
     0
370
    18
100
AcDbBlockReference
  2
_DotSmall
 10
944.6294300602598
 20
1788.742953115709
 30
0.0
 41
25.0
 42
25.0
 43
25.0
  0
INSERT
  5
2598
330
1D1D
100
AcDbEntity
  8
寸法
 62
     0
370
    18
100
AcDbBlockReference
  2
_DotSmall
 10
799.6294316143031
 20
1788.742953115709
 30
0.0
 41
25.0
 42
25.0
 43
25.0
 50
180.0
  0
MTEXT
  5
2599
330
1D1D
100
AcDbEntity
  8
寸法
 62
     0
100
AcDbMText
 10
872.1294308372815
 20
1807.492953115709
 30
0.0
 40
25.0
 41
0.0
 71
     5
 72
     1
  1
145
 73
     1
 44
1.0
1001
ACAD
1000
MTEXTBEGIN
1070
    73
1070
     1
1070
    44
1040
1.0
1070
    74
1070
     0
1000
MTEXTEND
  0
POINT
  5
259A
330
1D1D
100
AcDbEntity
  8
Defpoints
 62
     0
100
AcDbPoint
 10
944.6294300602598
 20
1533.939834952301
 30
0.0
  0
POINT
  5
259B
330
1D1D
100
AcDbEntity
  8
Defpoints
 62
     0
100
AcDbPoint
 10
799.6294316143031
 20
1489.946555206365
 30
0.0
  0
POINT
  5
259C
330
1D1D
100
AcDbEntity
  8
Defpoints
 62
     0
100
AcDbPoint
 10
799.6294316143031
 20
1788.742953115709
 30
0.0
  0
ENDBLK
  5
1D28
330
1D1D
100
AcDbEntity
  8
0
100
AcDbBlockEnd
  0
BLOCK
  5
1D33
330
1D29
100
AcDbEntity
  8
0
100
AcDbBlockBegin
  2
*D13
 70
     1
 10
0.0
 20
0.0
 30
0.0
  3
*D13
  1

  0
LINE
  5
2626
330
1D29
100
AcDbEntity
  8
寸法
 62
     0
370
    15
100
AcDbLine
 10
1006.272632766433
 20
1489.939834952301
 30
0.0
 11
1010.772632766433
 21
1489.939834952301
 31
0.0
  0
LINE
  5
2627
330
1D29
100
AcDbEntity
  8
寸法
 62
     0
370
    15
100
AcDbLine
 10
1005.793068337551
 20
1644.448102004484
 30
0.0
 11
1010.772632766433
 21
1644.448102004484
 31
0.0
  0
LINE
  5
2628
330
1D29
100
AcDbEntity
  8
寸法
 62
     0
370
    18
100
AcDbLine
 10
1010.772632766433
 20
1489.939834952301
 30
0.0
 11
1010.772632766433
 21
1644.448102004484
 31
0.0
  0
INSERT
  5
2629
330
1D29
100
AcDbEntity
  8
寸法
 62
     0
370
    18
100
AcDbBlockReference
  2
_DotSmall
 10
1010.772632766433
 20
1489.939834952301
 30
0.0
 41
25.0
 42
25.0
 43
25.0
 50
270.0
  0
INSERT
  5
262A
330
1D29
100
AcDbEntity
  8
寸法
 62
     0
370
    18
100
AcDbBlockReference
  2
_DotSmall
 10
1010.772632766433
 20
1644.448102004484
 30
0.0
 41
25.0
 42
25.0
 43
25.0
 50
90.0
  0
MTEXT
  5
262B
330
1D29
100
AcDbEntity
  8
寸法
 62
     0
100
AcDbMText
 10
992.0226327664328
 20
1567.193968478393
 30
0.0
 40
25.0
 41
0.0
 71
     5
 72
     1
  1
155
 11
0.0000000000000001
 21
1.0
 31
0.0
 73
     1
 44
1.0
1001
ACAD
1000
MTEXTBEGIN
1070
    73
1070
     1
1070
    44
1040
1.0
1070
    74
1070
     0
1000
MTEXTEND
  0
POINT
  5
262C
330
1D29
100
AcDbEntity
  8
Defpoints
 62
     0
100
AcDbPoint
 10
986.2726327664333
 20
1489.939834952301
 30
0.0
  0
POINT
  5
262D
330
1D29
100
AcDbEntity
  8
Defpoints
 62
     0
100
AcDbPoint
 10
985.7930683375506
 20
1644.448102004484
 30
0.0
  0
POINT
  5
262E
330
1D29
100
AcDbEntity
  8
Defpoints
 62
     0
100
AcDbPoint
 10
1010.772632766433
 20
1644.448102004484
 30
0.0
  0
ENDBLK
  5
1D34
330
1D29
100
AcDbEntity
  8
0
100
AcDbBlockEnd
  0
BLOCK
  5
1ECB
330
1EC1
100
AcDbEntity
  8
0
100
AcDbBlockBegin
  2
*D14
 70
     1
 10
0.0
 20
0.0
 30
0.0
  3
*D14
  1

  0
LINE
  5
256E
330
1EC1
100
AcDbEntity
  8
寸法
 62
     0
370
    15
100
AcDbLine
 10
1803.879664025061
 20
1533.871555206365
 30
0.0
 11
1849.185808116981
 21
1533.871555206365
 31
0.0
  0
LINE
  5
256F
330
1EC1
100
AcDbEntity
  8
寸法
 62
     0
370
    15
100
AcDbLine
 10
1803.879664025061
 20
1445.871555206365
 30
0.0
 11
1849.185808116981
 21
1445.871555206365
 31
0.0
  0
LINE
  5
2570
330
1EC1
100
AcDbEntity
  8
寸法
 62
     0
370
    18
100
AcDbLine
 10
1849.185808116981
 20
1533.871555206365
 30
0.0
 11
1849.185808116981
 21
1445.871555206365
 31
0.0
  0
INSERT
  5
2571
330
1EC1
100
AcDbEntity
  8
寸法
 62
     0
370
    18
100
AcDbBlockReference
  2
_DotSmall
 10
1849.185808116981
 20
1533.871555206365
 30
0.0
 41
25.0
 42
25.0
 43
25.0
 50
90.0
  0
INSERT
  5
2572
330
1EC1
100
AcDbEntity
  8
寸法
 62
     0
370
    18
100
AcDbBlockReference
  2
_DotSmall
 10
1849.185808116981
 20
1445.871555206365
 30
0.0
 41
25.0
 42
25.0
 43
25.0
 50
270.0
  0
MTEXT
  5
2573
330
1EC1
100
AcDbEntity
  8
寸法
 62
     0
100
AcDbMText
 10
1830.435808116981
 20
1489.871555206366
 30
0.0
 40
25.0
 41
0.0
 71
     5
 72
     1
  1
88
 11
0.0000000000000001
 21
1.0
 31
0.0
 73
     1
 44
1.0
1001
ACAD
1000
MTEXTBEGIN
1070
    73
1070
     1
1070
    44
1040
1.0
1070
    74
1070
     0
1000
MTEXTEND
  0
POINT
  5
2574
330
1EC1
100
AcDbEntity
  8
Defpoints
 62
     0
100
AcDbPoint
 10
1738.879664025061
 20
1533.871555206365
 30
0.0
  0
POINT
  5
2575
330
1EC1
100
AcDbEntity
  8
Defpoints
 62
     0
100
AcDbPoint
 10
1738.879664025061
 20
1445.871555206365
 30
0.0
  0
POINT
  5
2576
330
1EC1
100
AcDbEntity
  8
Defpoints
 62
     0
100
AcDbPoint
 10
1849.185808116981
 20
1445.871555206365
 30
0.0
  0
ENDBLK
  5
1ECC
330
1EC1
100
AcDbEntity
  8
0
100
AcDbBlockEnd
  0
BLOCK
  5
1ED7
330
1ECD
100
AcDbEntity
  8
0
100
AcDbBlockBegin
  2
*D15
 70
     1
 10
0.0
 20
0.0
 30
0.0
  3
*D15
  1

  0
LINE
  5
2565
330
1ECD
100
AcDbEntity
  8
寸法
 62
     0
370
    15
100
AcDbLine
 10
1803.879664025061
 20
1547.871555206365
 30
0.0
 11
1914.107396081823
 21
1547.871555206365
 31
0.0
  0
LINE
  5
2566
330
1ECD
100
AcDbEntity
  8
寸法
 62
     0
370
    15
100
AcDbLine
 10
1803.879664025061
 20
1431.871555206365
 30
0.0
 11
1914.107396081823
 21
1431.871555206365
 31
0.0
  0
LINE
  5
2567
330
1ECD
100
AcDbEntity
  8
寸法
 62
     0
370
    18
100
AcDbLine
 10
1914.107396081823
 20
1547.871555206365
 30
0.0
 11
1914.107396081823
 21
1431.871555206365
 31
0.0
  0
INSERT
  5
2568
330
1ECD
100
AcDbEntity
  8
寸法
 62
     0
370
    18
100
AcDbBlockReference
  2
_DotSmall
 10
1914.107396081823
 20
1547.871555206365
 30
0.0
 41
25.0
 42
25.0
 43
25.0
 50
90.0
  0
INSERT
  5
2569
330
1ECD
100
AcDbEntity
  8
寸法
 62
     0
370
    18
100
AcDbBlockReference
  2
_DotSmall
 10
1914.107396081823
 20
1431.871555206365
 30
0.0
 41
25.0
 42
25.0
 43
25.0
 50
270.0
  0
MTEXT
  5
256A
330
1ECD
100
AcDbEntity
  8
寸法
 62
     0
100
AcDbMText
 10
1895.357396081823
 20
1489.871555206366
 30
0.0
 40
25.0
 41
0.0
 71
     5
 72
     1
  1
116
 11
0.0000000000000001
 21
1.0
 31
0.0
 73
     1
 44
1.0
1001
ACAD
1000
MTEXTBEGIN
1070
    73
1070
     1
1070
    44
1040
1.0
1070
    74
1070
     0
1000
MTEXTEND
  0
POINT
  5
256B
330
1ECD
100
AcDbEntity
  8
Defpoints
 62
     0
100
AcDbPoint
 10
1738.879664025061
 20
1547.871555206365
 30
0.0
  0
POINT
  5
256C
330
1ECD
100
AcDbEntity
  8
Defpoints
 62
     0
100
AcDbPoint
 10
1738.879664025061
 20
1431.871555206365
 30
0.0
  0
POINT
  5
256D
330
1ECD
100
AcDbEntity
  8
Defpoints
 62
     0
100
AcDbPoint
 10
1914.107396081823
 20
1431.871555206365
 30
0.0
  0
ENDBLK
  5
1ED8
330
1ECD
100
AcDbEntity
  8
0
100
AcDbBlockEnd
  0
BLOCK
  5
1FA6
330
1F9C
100
AcDbEntity
  8
0
100
AcDbBlockBegin
  2
*D16
 70
     1
 10
0.0
 20
0.0
 30
0.0
  3
*D16
  1

  0
LINE
  5
255C
330
1F9C
100
AcDbEntity
  8
寸法
 62
     0
370
    15
100
AcDbLine
 10
900.6294316143012
 20
609.9153129974673
 30
0.0
 11
900.6294316143012
 21
558.4879056963946
 31
0.0
  0
LINE
  5
255D
330
1F9C
100
AcDbEntity
  8
寸法
 62
     0
370
    15
100
AcDbLine
 10
988.6294316143013
 20
609.9153129974674
 30
0.0
 11
988.6294316143013
 21
558.4879056963946
 31
0.0
  0
LINE
  5
255E
330
1F9C
100
AcDbEntity
  8
寸法
 62
     0
370
    18
100
AcDbLine
 10
900.6294316143012
 20
558.4879056963946
 30
0.0
 11
988.6294316143013
 21
558.4879056963946
 31
0.0
  0
INSERT
  5
255F
330
1F9C
100
AcDbEntity
  8
寸法
 62
     0
370
    18
100
AcDbBlockReference
  2
_DotSmall
 10
900.6294316143012
 20
558.4879056963946
 30
0.0
 41
25.0
 42
25.0
 43
25.0
 50
180.0
  0
INSERT
  5
2560
330
1F9C
100
AcDbEntity
  8
寸法
 62
     0
370
    18
100
AcDbBlockReference
  2
_DotSmall
 10
988.6294316143013
 20
558.4879056963946
 30
0.0
 41
25.0
 42
25.0
 43
25.0
  0
MTEXT
  5
2561
330
1F9C
100
AcDbEntity
  8
寸法
 62
     0
100
AcDbMText
 10
944.6294316143012
 20
577.2379056963946
 30
0.0
 40
25.0
 41
0.0
 71
     5
 72
     1
  1
88
 73
     1
 44
1.0
1001
ACAD
1000
MTEXTBEGIN
1070
    73
1070
     1
1070
    44
1040
1.0
1070
    74
1070
     0
1000
MTEXTEND
  0
POINT
  5
2562
330
1F9C
100
AcDbEntity
  8
Defpoints
 62
     0
100
AcDbPoint
 10
900.6294316143012
 20
674.9153129974673
 30
0.0
  0
POINT
  5
2563
330
1F9C
100
AcDbEntity
  8
Defpoints
 62
     0
100
AcDbPoint
 10
988.6294316143013
 20
674.9153129974675
 30
0.0
  0
POINT
  5
2564
330
1F9C
100
AcDbEntity
  8
Defpoints
 62
     0
100
AcDbPoint
 10
988.6294316143013
 20
558.4879056963946
 30
0.0
  0
ENDBLK
  5
1FA7
330
1F9C
100
AcDbEntity
  8
0
100
AcDbBlockEnd
  0
BLOCK
  5
1FB2
330
1FA8
100
AcDbEntity
  8
0
100
AcDbBlockBegin
  2
*D17
 70
     1
 10
0.0
 20
0.0
 30
0.0
  3
*D17
  1

  0
LINE
  5
2553
330
1FA8
100
AcDbEntity
  8
寸法
 62
     0
370
    15
100
AcDbLine
 10
886.6294316143012
 20
609.9153129974675
 30
0.0
 11
886.6294316143012
 21
498.5285071274656
 31
0.0
  0
LINE
  5
2554
330
1FA8
100
AcDbEntity
  8
寸法
 62
     0
370
    15
100
AcDbLine
 10
1002.629431614301
 20
609.9153129974674
 30
0.0
 11
1002.629431614301
 21
498.5285071274656
 31
0.0
  0
LINE
  5
2555
330
1FA8
100
AcDbEntity
  8
寸法
 62
     0
370
    18
100
AcDbLine
 10
886.6294316143012
 20
498.5285071274656
 30
0.0
 11
1002.629431614301
 21
498.5285071274656
 31
0.0
  0
INSERT
  5
2556
330
1FA8
100
AcDbEntity
  8
寸法
 62
     0
370
    18
100
AcDbBlockReference
  2
_DotSmall
 10
886.6294316143012
 20
498.5285071274656
 30
0.0
 41
25.0
 42
25.0
 43
25.0
 50
180.0
  0
INSERT
  5
2557
330
1FA8
100
AcDbEntity
  8
寸法
 62
     0
370
    18
100
AcDbBlockReference
  2
_DotSmall
 10
1002.629431614301
 20
498.5285071274656
 30
0.0
 41
25.0
 42
25.0
 43
25.0
  0
MTEXT
  5
2558
330
1FA8
100
AcDbEntity
  8
寸法
 62
     0
100
AcDbMText
 10
944.6294316143012
 20
517.2785071274656
 30
0.0
 40
25.0
 41
0.0
 71
     5
 72
     1
  1
116
 73
     1
 44
1.0
1001
ACAD
1000
MTEXTBEGIN
1070
    73
1070
     1
1070
    44
1040
1.0
1070
    74
1070
     0
1000
MTEXTEND
  0
POINT
  5
2559
330
1FA8
100
AcDbEntity
  8
Defpoints
 62
     0
100
AcDbPoint
 10
886.6294316143012
 20
674.9153129974676
 30
0.0
  0
POINT
  5
255A
330
1FA8
100
AcDbEntity
  8
Defpoints
 62
     0
100
AcDbPoint
 10
1002.629431614301
 20
674.9153129974675
 30
0.0
  0
POINT
  5
255B
330
1FA8
100
AcDbEntity
  8
Defpoints
 62
     0
100
AcDbPoint
 10
1002.629431614301
 20
498.5285071274656
 30
0.0
  0
ENDBLK
  5
1FB3
330
1FA8
100
AcDbEntity
  8
0
100
AcDbBlockEnd
  0
BLOCK
  5
22F7
330
22ED
100
AcDbEntity
  8
0
 62
     3
100
AcDbBlockBegin
  2
*D18
 70
     1
 10
0.0
 20
0.0
 30
0.0
  3
*D18
  1

  0
LINE
  5
237D
330
22ED
100
AcDbEntity
  8
実形
 62
     0
370
    18
100
AcDbLine
 10
1817.899627132798
 20
591.2145273062869
 30
0.0
 11
1817.899627132798
 21
560.7316764226998
 31
0.0
  0
LINE
  5
237E
330
22ED
100
AcDbEntity
  8
実形
 62
     0
370
    18
100
AcDbLine
 10
1867.899627132798
 20
591.2145273062869
 30
0.0
 11
1867.899627132798
 21
560.7316764226998
 31
0.0
  0
LINE
  5
237F
330
22ED
100
AcDbEntity
  8
実形
 62
     0
370
    18
100
AcDbLine
 10
1817.899627132798
 20
560.7316764226998
 30
0.0
 11
1867.899627132798
 21
560.7316764226998
 31
0.0
  0
INSERT
  5
2380
330
22ED
100
AcDbEntity
  8
実形
 62
     0
370
    18
100
AcDbBlockReference
  2
_DotSmall
 10
1817.899627132798
 20
560.7316764226998
 30
0.0
 41
35.0
 42
35.0
 43
35.0
 50
180.0
  0
INSERT
  5
2381
330
22ED
100
AcDbEntity
  8
実形
 62
     0
370
    18
100
AcDbBlockReference
  2
_DotSmall
 10
1867.899627132798
 20
560.7316764226998
 30
0.0
 41
35.0
 42
35.0
 43
35.0
  0
MTEXT
  5
2382
330
22ED
100
AcDbEntity
  8
実形
 62
     0
100
AcDbMText
 10
1844.014601998565
 20
579.4816764226998
 30
0.0
 40
25.0
 41
0.0
 71
     5
 72
     1
  1
5
 73
     1
 44
1.0
1001
ACAD
1000
MTEXTBEGIN
1070
    73
1070
     1
1070
    44
1040
1.0
1070
    74
1070
     0
1000
MTEXTEND
  0
POINT
  5
2383
330
22ED
100
AcDbEntity
  8
Defpoints
 62
     0
100
AcDbPoint
 10
1817.899627132798
 20
656.214527306287
 30
0.0
  0
POINT
  5
2384
330
22ED
100
AcDbEntity
  8
Defpoints
 62
     0
100
AcDbPoint
 10
1867.899627132798
 20
656.214527306287
 30
0.0
  0
POINT
  5
2385
330
22ED
100
AcDbEntity
  8
Defpoints
 62
     0
100
AcDbPoint
 10
1867.899627132798
 20
560.7316764226998
 30
0.0
  0
ENDBLK
  5
22F8
330
22ED
100
AcDbEntity
  8
0
 62
     3
100
AcDbBlockEnd
  0
BLOCK
  5
2303
330
22F9
100
AcDbEntity
  8
0
 62
     3
100
AcDbBlockBegin
  2
*D19
 70
     1
 10
0.0
 20
0.0
 30
0.0
  3
*D19
  1

  0
LINE
  5
2386
330
22F9
100
AcDbEntity
  8
実形
 62
     0
370
    18
100
AcDbLine
 10
1791.050329074197
 20
741.7745986296069
 30
0.0
 11
1753.525428541637
 21
741.7745986296069
 31
0.0
  0
LINE
  5
2387
330
22F9
100
AcDbEntity
  8
実形
 62
     0
370
    18
100
AcDbLine
 10
1785.70111206964
 20
621.774598629607
 30
0.0
 11
1753.525428541637
 21
621.774598629607
 31
0.0
  0
LINE
  5
2388
330
22F9
100
AcDbEntity
  8
実形
 62
     0
370
    18
100
AcDbLine
 10
1753.525428541637
 20
741.7745986296069
 30
0.0
 11
1753.525428541637
 21
621.774598629607
 31
0.0
  0
INSERT
  5
2389
330
22F9
100
AcDbEntity
  8
実形
 62
     0
370
    18
100
AcDbBlockReference
  2
_DotSmall
 10
1753.525428541637
 20
741.7745986296069
 30
0.0
 41
35.0
 42
35.0
 43
35.0
 50
90.0
  0
INSERT
  5
238A
330
22F9
100
AcDbEntity
  8
実形
 62
     0
370
    18
100
AcDbBlockReference
  2
_DotSmall
 10
1753.525428541637
 20
621.774598629607
 30
0.0
 41
35.0
 42
35.0
 43
35.0
 50
270.0
  0
MTEXT
  5
238B
330
22F9
100
AcDbEntity
  8
実形
 62
     0
100
AcDbMText
 10
1734.775428541636
 20
681.7745986296072
 30
0.0
 40
25.0
 41
0.0
 71
     5
 72
     1
  1
12
 11
0.0000000000000001
 21
1.0
 31
0.0
 73
     1
 44
1.0
1001
ACAD
1000
MTEXTBEGIN
1070
    73
1070
     1
1070
    44
1040
1.0
1070
    74
1070
     0
1000
MTEXTEND
  0
POINT
  5
238C
330
22F9
100
AcDbEntity
  8
Defpoints
 62
     0
100
AcDbPoint
 10
1856.050329074197
 20
741.7745986296068
 30
0.0
  0
POINT
  5
238D
330
22F9
100
AcDbEntity
  8
Defpoints
 62
     0
100
AcDbPoint
 10
1850.701112069639
 20
621.7745986296068
 30
0.0
  0
POINT
  5
238E
330
22F9
100
AcDbEntity
  8
Defpoints
 62
     0
100
AcDbPoint
 10
1753.525428541637
 20
621.774598629607
 30
0.0
  0
ENDBLK
  5
2304
330
22F9
100
AcDbEntity
  8
0
 62
     3
100
AcDbBlockEnd
  0
BLOCK
  5
230F
330
2305
100
AcDbEntity
  8
0
 62
     3
100
AcDbBlockBegin
  2
*D20
 70
     1
 10
0.0
 20
0.0
 30
0.0
  3
*D20
  1

  0
LINE
  5
238F
330
2305
100
AcDbEntity
  8
実形
 62
     0
370
    18
100
AcDbLine
 10
2217.899627132799
 20
589.3938049223925
 30
0.0
 11
2217.899627132799
 21
566.132923262845
 31
0.0
  0
LINE
  5
2390
330
2305
100
AcDbEntity
  8
実形
 62
     0
370
    18
100
AcDbLine
 10
2317.899627132798
 20
589.3938049223925
 30
0.0
 11
2317.899627132798
 21
566.132923262845
 31
0.0
  0
LINE
  5
2391
330
2305
100
AcDbEntity
  8
実形
 62
     0
370
    18
100
AcDbLine
 10
2217.899627132799
 20
566.132923262845
 30
0.0
 11
2317.899627132798
 21
566.132923262845
 31
0.0
  0
INSERT
  5
2392
330
2305
100
AcDbEntity
  8
実形
 62
     0
370
    18
100
AcDbBlockReference
  2
_DotSmall
 10
2217.899627132799
 20
566.132923262845
 30
0.0
 41
35.0
 42
35.0
 43
35.0
 50
180.0
  0
INSERT
  5
2393
330
2305
100
AcDbEntity
  8
実形
 62
     0
370
    18
100
AcDbBlockReference
  2
_DotSmall
 10
2317.899627132798
 20
566.132923262845
 30
0.0
 41
35.0
 42
35.0
 43
35.0
  0
MTEXT
  5
2394
330
2305
100
AcDbEntity
  8
実形
 62
     0
100
AcDbMText
 10
2267.899627132799
 20
584.882923262845
 30
0.0
 40
25.0
 41
0.0
 71
     5
 72
     1
  1
10
 73
     1
 44
1.0
1001
ACAD
1000
MTEXTBEGIN
1070
    73
1070
     1
1070
    44
1040
1.0
1070
    74
1070
     0
1000
MTEXTEND
  0
POINT
  5
2395
330
2305
100
AcDbEntity
  8
Defpoints
 62
     0
100
AcDbPoint
 10
2217.899627132799
 20
654.3938049223925
 30
0.0
  0
POINT
  5
2396
330
2305
100
AcDbEntity
  8
Defpoints
 62
     0
100
AcDbPoint
 10
2317.899627132798
 20
654.3938049223925
 30
0.0
  0
POINT
  5
2397
330
2305
100
AcDbEntity
  8
Defpoints
 62
     0
100
AcDbPoint
 10
2317.899627132798
 20
566.132923262845
 30
0.0
  0
ENDBLK
  5
2310
330
2305
100
AcDbEntity
  8
0
 62
     3
100
AcDbBlockEnd
  0
BLOCK
  5
231B
330
2311
100
AcDbEntity
  8
0
 62
     3
100
AcDbBlockBegin
  2
*D21
 70
     1
 10
0.0
 20
0.0
 30
0.0
  3
*D21
  1

  0
LINE
  5
2398
330
2311
100
AcDbEntity
  8
実形
 62
     0
370
    18
100
AcDbLine
 10
2167.899627132798
 20
589.3938049223925
 30
0.0
 11
2167.899627132798
 21
566.132923262845
 31
0.0
  0
LINE
  5
2399
330
2311
100
AcDbEntity
  8
実形
 62
     0
370
    18
100
AcDbLine
 10
2217.750478700636
 20
589.3938049223925
 30
0.0
 11
2217.750478700636
 21
566.132923262845
 31
0.0
  0
LINE
  5
239A
330
2311
100
AcDbEntity
  8
実形
 62
     0
370
    18
100
AcDbLine
 10
2167.899627132798
 20
566.132923262845
 30
0.0
 11
2217.750478700636
 21
566.132923262845
 31
0.0
  0
INSERT
  5
239B
330
2311
100
AcDbEntity
  8
実形
 62
     0
370
    18
100
AcDbBlockReference
  2
_DotSmall
 10
2167.899627132798
 20
566.132923262845
 30
0.0
 41
35.0
 42
35.0
 43
35.0
 50
180.0
  0
INSERT
  5
239C
330
2311
100
AcDbEntity
  8
実形
 62
     0
370
    18
100
AcDbBlockReference
  2
_DotSmall
 10
2217.750478700636
 20
566.132923262845
 30
0.0
 41
35.0
 42
35.0
 43
35.0
  0
MTEXT
  5
239D
330
2311
100
AcDbEntity
  8
実形
 62
     0
100
AcDbMText
 10
2192.825052916717
 20
584.882923262845
 30
0.0
 40
25.0
 41
0.0
 71
     5
 72
     1
  1
5
 73
     1
 44
1.0
1001
ACAD
1000
MTEXTBEGIN
1070
    73
1070
     1
1070
    44
1040
1.0
1070
    74
1070
     0
1000
MTEXTEND
  0
POINT
  5
239E
330
2311
100
AcDbEntity
  8
Defpoints
 62
     0
100
AcDbPoint
 10
2167.899627132798
 20
654.3938049223925
 30
0.0
  0
POINT
  5
239F
330
2311
100
AcDbEntity
  8
Defpoints
 62
     0
100
AcDbPoint
 10
2217.750478700636
 20
654.3938049223925
 30
0.0
  0
POINT
  5
23A0
330
2311
100
AcDbEntity
  8
Defpoints
 62
     0
100
AcDbPoint
 10
2217.750478700636
 20
566.132923262845
 30
0.0
  0
ENDBLK
  5
231C
330
2311
100
AcDbEntity
  8
0
 62
     3
100
AcDbBlockEnd
  0
BLOCK
  5
2327
330
231D
100
AcDbEntity
  8
0
 62
     3
100
AcDbBlockBegin
  2
*D22
 70
     1
 10
0.0
 20
0.0
 30
0.0
  3
*D22
  1

  0
LINE
  5
23A1
330
231D
100
AcDbEntity
  8
実形
 62
     0
370
    18
100
AcDbLine
 10
1867.899627132799
 20
771.2498690356978
 30
0.0
 11
1867.899627132799
 21
804.2436145081255
 31
0.0
  0
LINE
  5
23A2
330
231D
100
AcDbEntity
  8
実形
 62
     0
370
    18
100
AcDbLine
 10
2047.899627132799
 20
771.2498690356978
 30
0.0
 11
2047.899627132799
 21
804.2436145081255
 31
0.0
  0
LINE
  5
23A3
330
231D
100
AcDbEntity
  8
実形
 62
     0
370
    18
100
AcDbLine
 10
1867.899627132799
 20
804.2436145081255
 30
0.0
 11
2047.899627132799
 21
804.2436145081255
 31
0.0
  0
INSERT
  5
23A4
330
231D
100
AcDbEntity
  8
実形
 62
     0
370
    18
100
AcDbBlockReference
  2
_DotSmall
 10
1867.899627132799
 20
804.2436145081255
 30
0.0
 41
35.0
 42
35.0
 43
35.0
 50
180.0
  0
INSERT
  5
23A5
330
231D
100
AcDbEntity
  8
実形
 62
     0
370
    18
100
AcDbBlockReference
  2
_DotSmall
 10
2047.899627132799
 20
804.2436145081255
 30
0.0
 41
35.0
 42
35.0
 43
35.0
  0
MTEXT
  5
23A6
330
231D
100
AcDbEntity
  8
実形
 62
     0
100
AcDbMText
 10
1957.899627132799
 20
822.9936145081255
 30
0.0
 40
25.0
 41
0.0
 71
     5
 72
     1
  1
18
 73
     1
 44
1.0
1001
ACAD
1000
MTEXTBEGIN
1070
    73
1070
     1
1070
    44
1040
1.0
1070
    74
1070
     0
1000
MTEXTEND
  0
POINT
  5
23A7
330
231D
100
AcDbEntity
  8
Defpoints
 62
     0
100
AcDbPoint
 10
1867.899627132799
 20
706.2498690356979
 30
0.0
  0
POINT
  5
23A8
330
231D
100
AcDbEntity
  8
Defpoints
 62
     0
100
AcDbPoint
 10
2047.899627132799
 20
706.2498690356979
 30
0.0
  0
POINT
  5
23A9
330
231D
100
AcDbEntity
  8
Defpoints
 62
     0
100
AcDbPoint
 10
2047.899627132799
 20
804.2436145081255
 30
0.0
  0
ENDBLK
  5
2328
330
231D
100
AcDbEntity
  8
0
 62
     3
100
AcDbBlockEnd
  0
BLOCK
  5
2333
330
2329
100
AcDbEntity
  8
0
 62
     3
100
AcDbBlockBegin
  2
*D23
 70
     1
 10
0.0
 20
0.0
 30
0.0
  3
*D23
  1

  0
LINE
  5
23AA
330
2329
100
AcDbEntity
  8
実形
 62
     0
370
    18
100
AcDbLine
 10
1817.899627132799
 20
776.1883187961321
 30
0.0
 11
1817.899627132799
 21
865.148744994477
 31
0.0
  0
LINE
  5
23AB
330
2329
100
AcDbEntity
  8
実形
 62
     0
370
    18
100
AcDbLine
 10
2317.899627132799
 20
770.188318796132
 30
0.0
 11
2317.899627132799
 21
865.148744994477
 31
0.0
  0
LINE
  5
23AC
330
2329
100
AcDbEntity
  8
実形
 62
     0
370
    18
100
AcDbLine
 10
1817.899627132799
 20
865.148744994477
 30
0.0
 11
2317.899627132799
 21
865.148744994477
 31
0.0
  0
INSERT
  5
23AD
330
2329
100
AcDbEntity
  8
実形
 62
     0
370
    18
100
AcDbBlockReference
  2
_DotSmall
 10
1817.899627132799
 20
865.148744994477
 30
0.0
 41
35.0
 42
35.0
 43
35.0
 50
180.0
  0
INSERT
  5
23AE
330
2329
100
AcDbEntity
  8
実形
 62
     0
370
    18
100
AcDbBlockReference
  2
_DotSmall
 10
2317.899627132799
 20
865.148744994477
 30
0.0
 41
35.0
 42
35.0
 43
35.0
  0
MTEXT
  5
23AF
330
2329
100
AcDbEntity
  8
実形
 62
     0
100
AcDbMText
 10
2067.899627132799
 20
883.898744994477
 30
0.0
 40
25.0
 41
0.0
 71
     5
 72
     1
  1
50
 73
     1
 44
1.0
1001
ACAD
1000
MTEXTBEGIN
1070
    73
1070
     1
1070
    44
1040
1.0
1070
    74
1070
     0
1000
MTEXTEND
  0
POINT
  5
23B0
330
2329
100
AcDbEntity
  8
Defpoints
 62
     0
100
AcDbPoint
 10
1817.899627132799
 20
711.188318796132
 30
0.0
  0
POINT
  5
23B1
330
2329
100
AcDbEntity
  8
Defpoints
 62
     0
100
AcDbPoint
 10
2317.899627132799
 20
705.1883187961321
 30
0.0
  0
POINT
  5
23B2
330
2329
100
AcDbEntity
  8
Defpoints
 62
     0
100
AcDbPoint
 10
2317.899627132799
 20
865.148744994477
 30
0.0
  0
ENDBLK
  5
2334
330
2329
100
AcDbEntity
  8
0
 62
     3
100
AcDbBlockEnd
  0
BLOCK
  5
233F
330
2335
100
AcDbEntity
  8
0
 62
     3
100
AcDbBlockBegin
  2
*D24
 70
     1
 10
0.0
 20
0.0
 30
0.0
  3
*D24
  1

  0
LINE
  5
23B3
330
2335
100
AcDbEntity
  8
実形
 62
     0
370
    18
100
AcDbLine
 10
2346.301992771529
 20
741.7745986296067
 30
0.0
 11
2389.409955385397
 21
741.7745986296067
 31
0.0
  0
LINE
  5
23B4
330
2335
100
AcDbEntity
  8
実形
 62
     0
370
    18
100
AcDbLine
 10
2346.301992771529
 20
691.7745986296067
 30
0.0
 11
2389.409955385397
 21
691.7745986296067
 31
0.0
  0
LINE
  5
23B5
330
2335
100
AcDbEntity
  8
実形
 62
     0
370
    18
100
AcDbLine
 10
2389.409955385397
 20
741.7745986296067
 30
0.0
 11
2389.409955385397
 21
691.7745986296067
 31
0.0
  0
INSERT
  5
23B6
330
2335
100
AcDbEntity
  8
実形
 62
     0
370
    18
100
AcDbBlockReference
  2
_DotSmall
 10
2389.409955385397
 20
741.7745986296067
 30
0.0
 41
35.0
 42
35.0
 43
35.0
 50
90.0
  0
INSERT
  5
23B7
330
2335
100
AcDbEntity
  8
実形
 62
     0
370
    18
100
AcDbBlockReference
  2
_DotSmall
 10
2389.409955385397
 20
691.7745986296067
 30
0.0
 41
35.0
 42
35.0
 43
35.0
 50
270.0
  0
MTEXT
  5
23B8
330
2335
100
AcDbEntity
  8
実形
 62
     0
100
AcDbMText
 10
2370.659955385397
 20
716.7745986296071
 30
0.0
 40
25.0
 41
0.0
 71
     5
 72
     1
  1
5
 11
0.0000000000000001
 21
1.0
 31
0.0
 73
     1
 44
1.0
1001
ACAD
1000
MTEXTBEGIN
1070
    73
1070
     1
1070
    44
1040
1.0
1070
    74
1070
     0
1000
MTEXTEND
  0
POINT
  5
23B9
330
2335
100
AcDbEntity
  8
Defpoints
 62
     0
100
AcDbPoint
 10
2281.301992771529
 20
741.7745986296067
 30
0.0
  0
POINT
  5
23BA
330
2335
100
AcDbEntity
  8
Defpoints
 62
     0
100
AcDbPoint
 10
2281.301992771529
 20
691.7745986296067
 30
0.0
  0
POINT
  5
23BB
330
2335
100
AcDbEntity
  8
Defpoints
 62
     0
100
AcDbPoint
 10
2389.409955385397
 20
691.7745986296067
 30
0.0
  0
ENDBLK
  5
2340
330
2335
100
AcDbEntity
  8
0
 62
     3
100
AcDbBlockEnd
  0
BLOCK
  5
234B
330
2341
100
AcDbEntity
  8
0
 62
     3
100
AcDbBlockBegin
  2
*D25
 70
     1
 10
0.0
 20
0.0
 30
0.0
  3
*D25
  1

  0
LINE
  5
23BC
330
2341
100
AcDbEntity
  8
実形
 62
     0
370
    18
100
AcDbLine
 10
2267.899627132799
 20
770.188318796132
 30
0.0
 11
2267.899627132799
 21
817.6685318953046
 31
0.0
  0
LINE
  5
23BD
330
2341
100
AcDbEntity
  8
実形
 62
     0
370
    18
100
AcDbLine
 10
2317.899627132799
 20
770.188318796132
 30
0.0
 11
2317.899627132799
 21
817.6685318953046
 31
0.0
  0
LINE
  5
23BE
330
2341
100
AcDbEntity
  8
実形
 62
     0
370
    18
100
AcDbLine
 10
2267.899627132799
 20
817.6685318953046
 30
0.0
 11
2317.899627132799
 21
817.6685318953046
 31
0.0
  0
INSERT
  5
23BF
330
2341
100
AcDbEntity
  8
実形
 62
     0
370
    18
100
AcDbBlockReference
  2
_DotSmall
 10
2267.899627132799
 20
817.6685318953046
 30
0.0
 41
35.0
 42
35.0
 43
35.0
 50
180.0
  0
INSERT
  5
23C0
330
2341
100
AcDbEntity
  8
実形
 62
     0
370
    18
100
AcDbBlockReference
  2
_DotSmall
 10
2317.899627132799
 20
817.6685318953046
 30
0.0
 41
35.0
 42
35.0
 43
35.0
  0
MTEXT
  5
23C1
330
2341
100
AcDbEntity
  8
実形
 62
     0
100
AcDbMText
 10
2292.899627132799
 20
836.4185318953046
 30
0.0
 40
25.0
 41
0.0
 71
     5
 72
     1
  1
5
 73
     1
 44
1.0
1001
ACAD
1000
MTEXTBEGIN
1070
    73
1070
     1
1070
    44
1040
1.0
1070
    74
1070
     0
1000
MTEXTEND
  0
POINT
  5
23C2
330
2341
100
AcDbEntity
  8
Defpoints
 62
     0
100
AcDbPoint
 10
2267.899627132799
 20
705.1883187961321
 30
0.0
  0
POINT
  5
23C3
330
2341
100
AcDbEntity
  8
Defpoints
 62
     0
100
AcDbPoint
 10
2317.899627132799
 20
705.1883187961321
 30
0.0
  0
POINT
  5
23C4
330
2341
100
AcDbEntity
  8
Defpoints
 62
     0
100
AcDbPoint
 10
2317.899627132799
 20
817.6685318953046
 30
0.0
  0
ENDBLK
  5
234C
330
2341
100
AcDbEntity
  8
0
 62
     3
100
AcDbBlockEnd
  0
BLOCK
  5
2357
330
234D
100
AcDbEntity
  8
0
 62
     3
100
AcDbBlockBegin
  2
*D26
 70
     1
 10
0.0
 20
0.0
 30
0.0
  3
*D26
  1

  0
LINE
  5
23C5
330
234D
100
AcDbEntity
  8
実形
 62
     0
370
    18
100
AcDbLine
 10
2061.610652705695
 20
671.7745986296067
 30
0.0
 11
2091.1279909282
 21
671.7745986296067
 31
0.0
  0
LINE
  5
23C6
330
234D
100
AcDbEntity
  8
実形
 62
     0
370
    18
100
AcDbLine
 10
2061.610652705695
 20
621.7745986296067
 30
0.0
 11
2091.1279909282
 21
621.7745986296067
 31
0.0
  0
LINE
  5
23C7
330
234D
100
AcDbEntity
  8
実形
 62
     0
370
    18
100
AcDbLine
 10
2091.1279909282
 20
671.7745986296067
 30
0.0
 11
2091.1279909282
 21
621.7745986296067
 31
0.0
  0
INSERT
  5
23C8
330
234D
100
AcDbEntity
  8
実形
 62
     0
370
    18
100
AcDbBlockReference
  2
_DotSmall
 10
2091.1279909282
 20
671.7745986296067
 30
0.0
 41
35.0
 42
35.0
 43
35.0
 50
90.0
  0
INSERT
  5
23C9
330
234D
100
AcDbEntity
  8
実形
 62
     0
370
    18
100
AcDbBlockReference
  2
_DotSmall
 10
2091.1279909282
 20
621.7745986296067
 30
0.0
 41
35.0
 42
35.0
 43
35.0
 50
270.0
  0
MTEXT
  5
23CA
330
234D
100
AcDbEntity
  8
実形
 62
     0
100
AcDbMText
 10
2072.377990928199
 20
646.7745986296071
 30
0.0
 40
25.0
 41
0.0
 71
     5
 72
     1
  1
5
 11
0.0000000000000001
 21
1.0
 31
0.0
 73
     1
 44
1.0
1001
ACAD
1000
MTEXTBEGIN
1070
    73
1070
     1
1070
    44
1040
1.0
1070
    74
1070
     0
1000
MTEXTEND
  0
POINT
  5
23CB
330
234D
100
AcDbEntity
  8
Defpoints
 62
     0
100
AcDbPoint
 10
1996.610652705695
 20
671.7745986296067
 30
0.0
  0
POINT
  5
23CC
330
234D
100
AcDbEntity
  8
Defpoints
 62
     0
100
AcDbPoint
 10
1996.610652705695
 20
621.7745986296067
 30
0.0
  0
POINT
  5
23CD
330
234D
100
AcDbEntity
  8
Defpoints
 62
     0
100
AcDbPoint
 10
2091.1279909282
 20
621.7745986296067
 30
0.0
  0
ENDBLK
  5
2358
330
234D
100
AcDbEntity
  8
0
 62
     3
100
AcDbBlockEnd
  0
BLOCK
  5
2363
330
2359
100
AcDbEntity
  8
0
 62
     3
100
AcDbBlockBegin
  2
*D27
 70
     1
 10
0.0
 20
0.0
 30
0.0
  3
*D27
  1

  0
LINE
  5
23CE
330
2359
100
AcDbEntity
  8
実形
 62
     0
370
    18
100
AcDbLine
 10
1897.899627132798
 20
512.5399579777349
 30
0.0
 11
1897.899627132798
 21
489.0759292349884
 31
0.0
  0
LINE
  5
23CF
330
2359
100
AcDbEntity
  8
実形
 62
     0
370
    18
100
AcDbLine
 10
2077.899627132798
 20
512.5399579777349
 30
0.0
 11
2077.899627132798
 21
489.0759292349884
 31
0.0
  0
LINE
  5
23D0
330
2359
100
AcDbEntity
  8
実形
 62
     0
370
    18
100
AcDbLine
 10
1897.899627132798
 20
489.0759292349884
 30
0.0
 11
2077.899627132798
 21
489.0759292349884
 31
0.0
  0
INSERT
  5
23D1
330
2359
100
AcDbEntity
  8
実形
 62
     0
370
    18
100
AcDbBlockReference
  2
_DotSmall
 10
1897.899627132798
 20
489.0759292349884
 30
0.0
 41
35.0
 42
35.0
 43
35.0
 50
180.0
  0
INSERT
  5
23D2
330
2359
100
AcDbEntity
  8
実形
 62
     0
370
    18
100
AcDbBlockReference
  2
_DotSmall
 10
2077.899627132798
 20
489.0759292349884
 30
0.0
 41
35.0
 42
35.0
 43
35.0
  0
MTEXT
  5
23D3
330
2359
100
AcDbEntity
  8
実形
 62
     0
100
AcDbMText
 10
1987.899627132798
 20
507.8259292349884
 30
0.0
 40
25.0
 41
0.0
 71
     5
 72
     1
  1
18
 73
     1
 44
1.0
1001
ACAD
1000
MTEXTBEGIN
1070
    73
1070
     1
1070
    44
1040
1.0
1070
    74
1070
     0
1000
MTEXTEND
  0
POINT
  5
23D4
330
2359
100
AcDbEntity
  8
Defpoints
 62
     0
100
AcDbPoint
 10
1897.899627132798
 20
577.5399579777349
 30
0.0
  0
POINT
  5
23D5
330
2359
100
AcDbEntity
  8
Defpoints
 62
     0
100
AcDbPoint
 10
2077.899627132798
 20
577.5399579777349
 30
0.0
  0
POINT
  5
23D6
330
2359
100
AcDbEntity
  8
Defpoints
 62
     0
100
AcDbPoint
 10
2077.899627132798
 20
489.0759292349884
 30
0.0
  0
ENDBLK
  5
2364
330
2359
100
AcDbEntity
  8
0
 62
     3
100
AcDbBlockEnd
  0
BLOCK
  5
236F
330
2365
100
AcDbEntity
  8
0
 62
     3
100
AcDbBlockBegin
  2
*D28
 70
     1
 10
0.0
 20
0.0
 30
0.0
  3
*D28
  1

  0
LINE
  5
23D7
330
2365
100
AcDbEntity
  8
実形
 62
     0
370
    18
100
AcDbLine
 10
2107.667552183736
 20
613.3475735696975
 30
0.0
 11
2125.611732425682
 21
613.3475735696975
 31
0.0
  0
LINE
  5
23D8
330
2365
100
AcDbEntity
  8
実形
 62
     0
370
    18
100
AcDbLine
 10
2107.667552183736
 20
543.3475735696974
 30
0.0
 11
2125.611732425682
 21
543.3475735696974
 31
0.0
  0
LINE
  5
23D9
330
2365
100
AcDbEntity
  8
実形
 62
     0
370
    18
100
AcDbLine
 10
2125.611732425682
 20
613.3475735696975
 30
0.0
 11
2125.611732425682
 21
543.3475735696974
 31
0.0
  0
INSERT
  5
23DA
330
2365
100
AcDbEntity
  8
実形
 62
     0
370
    18
100
AcDbBlockReference
  2
_DotSmall
 10
2125.611732425682
 20
613.3475735696975
 30
0.0
 41
35.0
 42
35.0
 43
35.0
 50
90.0
  0
INSERT
  5
23DB
330
2365
100
AcDbEntity
  8
実形
 62
     0
370
    18
100
AcDbBlockReference
  2
_DotSmall
 10
2125.611732425682
 20
543.3475735696974
 30
0.0
 41
35.0
 42
35.0
 43
35.0
 50
270.0
  0
MTEXT
  5
23DC
330
2365
100
AcDbEntity
  8
実形
 62
     0
100
AcDbMText
 10
2106.861732425683
 20
578.3475735696978
 30
0.0
 40
25.0
 41
0.0
 71
     5
 72
     1
  1
7
 11
0.0000000000000001
 21
1.0
 31
0.0
 73
     1
 44
1.0
1001
ACAD
1000
MTEXTBEGIN
1070
    73
1070
     1
1070
    44
1040
1.0
1070
    74
1070
     0
1000
MTEXTEND
  0
POINT
  5
23DD
330
2365
100
AcDbEntity
  8
Defpoints
 62
     0
100
AcDbPoint
 10
2042.667552183736
 20
613.3475735696975
 30
0.0
  0
POINT
  5
23DE
330
2365
100
AcDbEntity
  8
Defpoints
 62
     0
100
AcDbPoint
 10
2042.667552183736
 20
543.3475735696974
 30
0.0
  0
POINT
  5
23DF
330
2365
100
AcDbEntity
  8
Defpoints
 62
     0
100
AcDbPoint
 10
2125.611732425682
 20
543.3475735696974
 30
0.0
  0
ENDBLK
  5
2370
330
2365
100
AcDbEntity
  8
0
 62
     3
100
AcDbBlockEnd
  0
BLOCK
  5
237B
330
2371
100
AcDbEntity
  8
0
 62
     3
100
AcDbBlockBegin
  2
*D29
 70
     1
 10
0.0
 20
0.0
 30
0.0
  3
*D29
  1

  0
LINE
  5
23E0
330
2371
100
AcDbEntity
  8
実形
 62
     0
370
    18
100
AcDbLine
 10
2047.899627132798
 20
776.6596186260776
 30
0.0
 11
2047.899627132798
 21
804.2436145081255
 31
0.0
  0
LINE
  5
23E1
330
2371
100
AcDbEntity
  8
実形
 62
     0
370
    18
100
AcDbLine
 10
2167.899627132798
 20
773.1041422751441
 30
0.0
 11
2167.899627132798
 21
804.2436145081255
 31
0.0
  0
LINE
  5
23E2
330
2371
100
AcDbEntity
  8
実形
 62
     0
370
    18
100
AcDbLine
 10
2047.899627132798
 20
804.2436145081255
 30
0.0
 11
2167.899627132798
 21
804.2436145081255
 31
0.0
  0
INSERT
  5
23E3
330
2371
100
AcDbEntity
  8
実形
 62
     0
370
    18
100
AcDbBlockReference
  2
_DotSmall
 10
2047.899627132798
 20
804.2436145081255
 30
0.0
 41
35.0
 42
35.0
 43
35.0
 50
180.0
  0
INSERT
  5
23E4
330
2371
100
AcDbEntity
  8
実形
 62
     0
370
    18
100
AcDbBlockReference
  2
_DotSmall
 10
2167.899627132798
 20
804.2436145081255
 30
0.0
 41
35.0
 42
35.0
 43
35.0
  0
MTEXT
  5
23E5
330
2371
100
AcDbEntity
  8
実形
 62
     0
100
AcDbMText
 10
2107.899627132798
 20
822.9936145081255
 30
0.0
 40
25.0
 41
0.0
 71
     5
 72
     1
  1
12
 73
     1
 44
1.0
1001
ACAD
1000
MTEXTBEGIN
1070
    73
1070
     1
1070
    44
1040
1.0
1070
    74
1070
     0
1000
MTEXTEND
  0
POINT
  5
23E6
330
2371
100
AcDbEntity
  8
Defpoints
 62
     0
100
AcDbPoint
 10
2047.899627132798
 20
711.6596186260776
 30
0.0
  0
POINT
  5
23E7
330
2371
100
AcDbEntity
  8
Defpoints
 62
     0
100
AcDbPoint
 10
2167.899627132798
 20
708.104142275144
 30
0.0
  0
POINT
  5
23E8
330
2371
100
AcDbEntity
  8
Defpoints
 62
     0
100
AcDbPoint
 10
2167.899627132798
 20
804.2436145081255
 30
0.0
  0
ENDBLK
  5
237C
330
2371
100
AcDbEntity
  8
0
 62
     3
100
AcDbBlockEnd
  0
ENDSEC
  0
SECTION
  2
ENTITIES
  0
LINE
  5
9C
330
1F
100
AcDbEntity
  8
補助
100
AcDbLine
 10
119.0
 20
4.0
 30
0.0
 11
2784.0
 21
4.0
 31
0.0
  0
LINE
  5
A0
330
1F
100
AcDbEntity
  8
補助
100
AcDbLine
 10
2784.0
 20
2024.0
 30
0.0
 11
119.0
 21
2024.0
 31
0.0
  0
LINE
  5
A5
330
1F
100
AcDbEntity
  8
補助
100
AcDbLine
 10
2784.0
 20
4.0
 30
0.0
 11
2784.0
 21
2024.0
 31
0.0
  0
TEXT
  5
1126
330
1F
100
AcDbEntity
  8
補助
100
AcDbText
 10
2086.666666666667
 20
84.0
 30
0.0
 40
35.0
  1
尺度
 72
     4
 11
2124.0
 21
101.5
 31
0.0
100
AcDbText
  0
TEXT
  5
1127
330
1F
100
AcDbEntity
  8
補助
100
AcDbText
 10
2086.666666666667
 20
149.0
 30
0.0
 40
35.0
  1
品番
 72
     4
 11
2124.0
 21
166.5
 31
0.0
100
AcDbText
  0
LINE
  5
1128
330
1F
100
AcDbEntity
  8
補助
100
AcDbLine
 10
2064.0
 20
69.0
 30
0.0
 11
2784.0
 21
69.0
 31
0.0
  0
LINE
  5
1129
330
1F
100
AcDbEntity
  8
補助
100
AcDbLine
 10
2064.0
 20
199.0
 30
0.0
 11
2784.0
 21
199.0
 31
0.0
  0
LINE
  5
112A
330
1F
100
AcDbEntity
  8
補助
100
AcDbLine
 10
2064.0
 20
134.0
 30
0.0
 11
2784.0
 21
134.0
 31
0.0
  0
LINE
  5
112B
330
1F
100
AcDbEntity
  8
補助
100
AcDbLine
 10
2064.0
 20
4.0
 30
0.0
 11
2064.0
 21
199.0
 31
0.0
  0
TEXT
  5
112C
330
1F
100
AcDbEntity
  8
0
100
AcDbText
 10
2291.5
 20
149.0
 30
0.0
 40
35.0
  1
Jstn520-410S
 72
     4
 11
2484.0
 21
166.5
 31
0.0
100
AcDbText
  0
TEXT
  5
112D
330
1F
100
AcDbEntity
  8
補助
100
AcDbText
 10
2300.255774665348
 20
16.49999999999999
 30
0.0
 40
40.0
  1
中外交易株式会社
 72
     4
 11
2488.255774665347
 21
36.5
 31
0.0
100
AcDbText
  0
LINE
  5
112E
330
1F
100
AcDbEntity
  8
補助
100
AcDbLine
 10
2184.0
 20
69.0
 30
0.0
 11
2784.0
 21
69.0
 31
0.0
  0
HATCH
  5
112F
330
1F
100
AcDbEntity
  8
補助
100
AcDbHatch
 10
0.0
 20
0.0
 30
0.0
210
0.0
220
0.0
230
1.0
  2
SOLID
 70
     1
 71
     1
 91
        3
 92
        1
 93
        4
 72
     2
 10
2257.166198313996
 20
36.5
 40
20.0
 50
11.64772366707341
 51
342.6561058784909
 73
     1
 72
     1
 10
2276.256852341323
 20
30.53787547858514
 11
2252.166198313995
 21
30.53787547858519
 72
     1
 10
2252.166198313995
 20
30.53787547858519
 11
2252.166198313995
 21
40.53787547858519
 72
     1
 10
2252.166198313995
 20
40.53787547858519
 11
2276.75434681301
 21
40.53787547858519
 97
        4
330
113C
330
113A
330
1139
330
1138
 92
        1
 93
        4
 72
     2
 10
2188.255774665348
 20
36.5
 40
20.0
 50
11.64772366707341
 51
342.6561058784909
 73
     1
 72
     1
 10
2207.346428692676
 20
30.53787547858514
 11
2183.255774665347
 21
30.53787547858519
 72
     1
 10
2183.255774665347
 20
30.53787547858519
 11
2183.255774665347
 21
40.53787547858519
 72
     1
 10
2183.255774665347
 20
40.53787547858519
 11
2207.843923164362
 21
40.53787547858519
 97
        4
330
113B
330
1132
330
1131
330
1130
 92
        1
 93
        5
 72
     1
 10
2245.64189404294
 20
56.5
 11
2210.641894042939
 21
56.5
 72
     1
 10
2210.641894042939
 20
56.5
 11
2210.641894042939
 21
16.5
 72
     1
 10
2210.641894042939
 20
16.5
 11
2245.64189404294
 21
16.5
 72
     1
 10
2245.64189404294
 20
16.5
 11
2210.641894042939
 21
36.5
 72
     1
 10
2210.641894042939
 20
36.5
 11
2245.64189404294
 21
56.5
 97
        5
330
1137
330
1133
330
1134
330
1135
330
1136
 75
     0
 76
     1
 98
        1
 10
-60.0
 20
0.0
  0
LINE
  5
1130
102
{ACAD_REACTORS
330
112F
102
}
330
1F
100
AcDbEntity
  8
補助
370
     5
100
AcDbLine
 10
2207.843923164362
 20
40.53787547858519
 30
0.0
 11
2183.255774665347
 21
40.53787547858519
 31
0.0
  0
LINE
  5
1131
102
{ACAD_REACTORS
330
112F
102
}
330
1F
100
AcDbEntity
  8
補助
370
     5
100
AcDbLine
 10
2183.255774665347
 20
40.53787547858519
 30
0.0
 11
2183.255774665347
 21
30.53787547858519
 31
0.0
  0
LINE
  5
1132
102
{ACAD_REACTORS
330
112F
102
}
330
1F
100
AcDbEntity
  8
補助
370
     5
100
AcDbLine
 10
2183.255774665347
 20
30.53787547858519
 30
0.0
 11
2207.346428692676
 21
30.53787547858514
 31
0.0
  0
LINE
  5
1133
102
{ACAD_REACTORS
330
112F
102
}
330
1F
100
AcDbEntity
  8
補助
370
     5
100
AcDbLine
 10
2210.641894042939
 20
56.5
 30
0.0
 11
2210.641894042939
 21
16.5
 31
0.0
  0
LINE
  5
1134
102
{ACAD_REACTORS
330
112F
102
}
330
1F
100
AcDbEntity
  8
補助
370
     5
100
AcDbLine
 10
2210.641894042939
 20
16.5
 30
0.0
 11
2245.64189404294
 21
16.5
 31
0.0
  0
LINE
  5
1135
102
{ACAD_REACTORS
330
112F
102
}
330
1F
100
AcDbEntity
  8
補助
370
     5
100
AcDbLine
 10
2245.64189404294
 20
16.5
 30
0.0
 11
2210.641894042939
 21
36.5
 31
0.0
  0
LINE
  5
1136
102
{ACAD_REACTORS
330
112F
102
}
330
1F
100
AcDbEntity
  8
補助
370
     5
100
AcDbLine
 10
2210.641894042939
 20
36.5
 30
0.0
 11
2245.64189404294
 21
56.5
 31
0.0
  0
LINE
  5
1137
102
{ACAD_REACTORS
330
112F
102
}
330
1F
100
AcDbEntity
  8
補助
370
     5
100
AcDbLine
 10
2245.64189404294
 20
56.5
 30
0.0
 11
2210.641894042939
 21
56.5
 31
0.0
  0
LINE
  5
1138
102
{ACAD_REACTORS
330
112F
102
}
330
1F
100
AcDbEntity
  8
補助
370
     5
100
AcDbLine
 10
2276.75434681301
 20
40.53787547858519
 30
0.0
 11
2252.166198313995
 21
40.53787547858519
 31
0.0
  0
LINE
  5
1139
102
{ACAD_REACTORS
330
112F
102
}
330
1F
100
AcDbEntity
  8
補助
370
     5
100
AcDbLine
 10
2252.166198313995
 20
40.53787547858519
 30
0.0
 11
2252.166198313995
 21
30.53787547858519
 31
0.0
  0
LINE
  5
113A
102
{ACAD_REACTORS
330
112F
102
}
330
1F
100
AcDbEntity
  8
補助
370
     5
100
AcDbLine
 10
2252.166198313995
 20
30.53787547858519
 30
0.0
 11
2276.256852341323
 21
30.53787547858514
 31
0.0
  0
ARC
  5
113B
102
{ACAD_REACTORS
330
112F
102
}
330
1F
100
AcDbEntity
  8
補助
370
     5
100
AcDbCircle
 10
2188.255774665348
 20
36.5
 30
0.0
 40
20.0
100
AcDbArc
 50
11.64772366707341
 51
342.6561058784909
  0
ARC
  5
113C
102
{ACAD_REACTORS
330
112F
102
}
330
1F
100
AcDbEntity
  8
補助
370
     5
100
AcDbCircle
 10
2257.166198313996
 20
36.5
 30
0.0
 40
20.0
100
AcDbArc
 50
11.64772366707341
 51
342.6561058784909
  0
LINE
  5
113D
330
1F
100
AcDbEntity
  8
補助
100
AcDbLine
 10
2184.0
 20
69.0
 30
0.0
 11
2184.0
 21
199.0
 31
0.0
  0
TEXT
  5
113E
330
1F
100
AcDbEntity
  8
0
100
AcDbText
 10
2430.916666666667
 20
84.0
 30
0.0
 40
35.0
  1
1：10
 72
     4
 11
2484.0
 21
101.5
 31
0.0
100
AcDbText
  0
LINE
  5
113F
330
1F
100
AcDbEntity
  8
補助
100
AcDbLine
 10
2784.0
 20
69.0
 30
0.0
 11
2784.0
 21
134.0
 31
0.0
  0
LINE
  5
1140
330
1F
100
AcDbEntity
  8
補助
100
AcDbLine
 10
2784.0
 20
4.0
 30
0.0
 11
2784.0
 21
69.0
 31
0.0
  0
LINE
  5
1141
330
1F
100
AcDbEntity
  8
補助
100
AcDbLine
 10
2784.0
 20
134.0
 30
0.0
 11
2784.0
 21
199.0
 31
0.0
  0
LINE
  5
1375
330
1F
100
AcDbEntity
  8
補助
100
AcDbLine
 10
2784.0
 20
1959.0
 30
0.0
 11
2019.387286519283
 21
1959.000000000001
 31
0.0
  0
LINE
  5
1376
330
1F
100
AcDbEntity
  8
補助
100
AcDbLine
 10
2784.0
 20
1894.0
 30
0.0
 11
2019.387286519283
 21
1894.0
 31
0.0
  0
LINE
  5
1377
330
1F
100
AcDbEntity
  8
補助
100
AcDbLine
 10
2202.547653420927
 20
1894.0
 30
0.0
 11
2202.547653420927
 21
2024.0
 31
0.0
  0
LINE
  5
1378
330
1F
100
AcDbEntity
  8
補助
100
AcDbLine
 10
2019.387286519283
 20
1894.0
 30
0.0
 11
2019.387286519283
 21
2024.0
 31
0.0
  0
TEXT
  5
1379
330
1F
100
AcDbEntity
  8
補助
100
AcDbText
 10
2050.295698850121
 20
1976.328571428572
 30
0.0
 40
30.0
  1
部品名
  7
明朝
 72
     4
 11
2116.124270278692
 21
1991.5
 31
0.0
100
AcDbText
  0
TEXT
  5
137A
330
1F
100
AcDbEntity
  8
補助
100
AcDbText
 10
2627.614285714286
 20
1976.071428571429
 30
0.0
 40
30.0
  1
厚さ
  7
明朝
 72
     4
 11
2671.5
 21
1991.5
 31
0.0
100
AcDbText
  0
LINE
  5
137B
330
1F
100
AcDbEntity
  8
補助
100
AcDbLine
 10
2559.0
 20
1894.0
 30
0.0
 11
2559.0
 21
2024.0
 31
0.0
  0
TEXT
  5
137C
330
1F
100
AcDbEntity
  8
補助
100
AcDbText
 10
2338.490869919937
 20
1975.947979478155
 30
0.0
 40
30.0
  1
材質
  7
明朝
 72
     4
 11
2382.376584205651
 21
1991.119408049583
 31
0.0
100
AcDbText
  0
TEXT
  5
137D
330
1F
100
AcDbEntity
  8
実形
100
AcDbText
 10
2048.227810657788
 20
1910.557142857143
 30
0.0
 40
30.0
  1
ボウル
  7
明朝
 72
     4
 11
2114.056382086359
 21
1926.5
 31
0.0
100
AcDbText
  0
TEXT
  5
137E
330
1F
100
AcDbEntity
  8
実形
100
AcDbText
 10
2594.700000000001
 20
1911.842857142857
 30
0.0
 40
30.0
  1
0.5ｍｍ
  7
明朝
 72
     4
 11
2671.500000000001
 21
1926.5
 31
0.0
100
AcDbText
  0
TEXT
  5
137F
330
1F
100
AcDbEntity
  8
実形
100
AcDbText
 10
2261.016869107866
 20
1910.728571428572
 30
0.0
 40
30.0
  1
SUS304（BA）
  7
明朝
 72
     4
 11
2392.674011965008
 21
1926.5
 31
0.0
100
AcDbText
  0
LINE
  5
1380
330
1F
100
AcDbEntity
  8
補助
100
AcDbLine
 10
119.0
 20
2024.0
 30
0.0
 11
119.0
 21
4.0
 31
0.0
  0
DIMENSION
  5
1A11
330
1F
100
AcDbEntity
  8
寸法
100
AcDbDimension
  2
*D4
 10
613.7632250777151
 20
1644.871555206365
 30
0.0
 11
613.763225077715
 21
1669.871555206365
 31
0.0
 70
    32
  1
 
 71
     5
 42
50.00000000000023
  3
ISO-25
100
AcDbAlignedDimension
 13
756.1569829004329
 23
1694.871555206365
 33
0.0
 14
756.1569829004329
 24
1644.871555206365
 34
0.0
 50
90.0
100
AcDbRotatedDimension
1001
ACAD
1000
DSTYLE
1002
{
1070
    41
1040
25.0
1070
   371
1070
    18
1002
}
  0
DIMENSION
  5
1A12
330
1F
100
AcDbEntity
  8
寸法
100
AcDbDimension
  2
*D5
 10
613.7632250777151
 20
1334.871555206363
 30
0.0
 11
595.013225077715
 21
1489.871555206364
 31
0.0
 70
    32
 71
     5
 42
310.000000000002
  3
ISO-25
100
AcDbAlignedDimension
 13
756.1569829004329
 23
1644.871555206365
 33
0.0
 14
756.1569829004329
 24
1334.871555206363
 34
0.0
 50
90.0
100
AcDbRotatedDimension
1001
ACAD
1000
DSTYLE
1002
{
1070
    41
1040
25.0
1070
   371
1070
    18
1070
   279
1070
     1
1002
}
  0
DIMENSION
  5
1A13
330
1F
100
AcDbEntity
  8
寸法
370
    18
100
AcDbDimension
  2
*D6
 10
613.7632250777151
 20
1284.871555206363
 30
0.0
 11
610.2655481191813
 21
1309.938981824355
 31
0.0
 70
   160
 71
     5
 42
50.0
  3
ISO-25
100
AcDbAlignedDimension
 13
756.1569829004329
 23
1334.871555206363
 33
0.0
 14
756.1569829004329
 24
1284.871555206363
 34
0.0
 50
90.0
100
AcDbRotatedDimension
1001
ACAD
1000
DSTYLE
1002
{
1070
    41
1040
25.0
1070
   371
1070
    18
1070
   279
1070
     1
1002
}
  0
DIMENSION
  5
1A14
330
1F
100
AcDbEntity
  8
寸法
100
AcDbDimension
  2
*D7
 10
544.9233267530309
 20
1284.871555206363
 30
0.0
 11
526.1733267530306
 21
1489.871555206364
 31
0.0
 70
    32
 71
     5
 42
410.0000000000022
  3
ISO-25
100
AcDbAlignedDimension
 13
756.9385398015886
 23
1694.871555206365
 33
0.0
 14
756.9385398015888
 24
1284.871555206363
 34
0.0
 50
90.0
100
AcDbRotatedDimension
1001
ACAD
1000
DSTYLE
1002
{
1070
    41
1040
25.0
1070
   371
1070
    18
1002
}
  0
TEXT
  5
1A15
330
1F
100
AcDbEntity
  8
寸法
370
    18
100
AcDbText
 10
603.7950060895528
 20
1654.053318682047
 30
0.0
 40
25.0
  1
50
 50
90.0
100
AcDbText
  0
DIMENSION
  5
1C54
330
1F
100
AcDbEntity
  8
寸法
100
AcDbDimension
  2
*D8
 10
799.6294316143031
 20
1152.487734954577
 30
0.0
 11
854.1294316143032
 21
1152.487734954577
 31
0.0
 70
   160
  1
 
 71
     5
 42
50.00000000000011
  3
ISO-25
100
AcDbAlignedDimension
 13
749.629431614303
 23
1300.419852724631
 33
0.0
 14
799.6294316143031
 24
1300.419852724631
 34
0.0
100
AcDbRotatedDimension
1001
ACAD
1000
DSTYLE
1002
{
1070
    41
1040
25.0
1070
   371
1070
    18
1002
}
  0
DIMENSION
  5
1C55
330
1F
100
AcDbEntity
  8
寸法
100
AcDbDimension
  2
*D9
 10
1219.629431614299
 20
1152.487734954577
 30
0.0
 11
1009.629431614301
 21
1171.237734954577
 31
0.0
 70
    32
 71
     5
 42
419.9999999999962
  3
ISO-25
100
AcDbAlignedDimension
 13
799.6294316143031
 23
1300.419852724631
 33
0.0
 14
1219.629431614299
 24
1301.109689355357
 34
0.0
100
AcDbRotatedDimension
1001
ACAD
1000
DSTYLE
1002
{
1070
    41
1040
25.0
1070
   371
1070
    18
1070
   279
1070
     1
1002
}
  0
DIMENSION
  5
1C56
330
1F
100
AcDbEntity
  8
寸法
100
AcDbDimension
  2
*D10
 10
1269.629431614299
 20
1152.487734954577
 30
0.0
 11
1244.629431614299
 21
1152.487734954577
 31
0.0
 70
    32
  1
 
 71
     5
 42
50.0
  3
ISO-25
100
AcDbAlignedDimension
 13
1219.629431614299
 23
1300.220158970717
 33
0.0
 14
1269.629431614299
 24
1300.220158970717
 34
0.0
100
AcDbRotatedDimension
1001
ACAD
1000
DSTYLE
1002
{
1070
    41
1040
25.0
1070
   371
1070
    18
1070
   279
1070
     1
1002
}
  0
TEXT
  5
1C57
330
1F
100
AcDbEntity
  8
寸法
100
AcDbText
 10
756.3176439204398
 20
1160.398132730834
 30
0.0
 40
25.0
  1
50
100
AcDbText
  0
TEXT
  5
1C58
330
1F
100
AcDbEntity
  8
寸法
370
    18
100
AcDbText
 10
1226.822365642793
 20
1159.872178489269
 30
0.0
 40
25.0
  1
50
100
AcDbText
  0
DIMENSION
  5
1C59
330
1F
100
AcDbEntity
  8
寸法
100
AcDbDimension
  2
*D11
 10
1269.629431614299
 20
1074.695824798707
 30
0.0
 11
1009.629431614301
 21
1093.445824798707
 31
0.0
 70
    32
 71
     5
 42
519.9999999999963
  3
ISO-25
100
AcDbAlignedDimension
 13
749.629431614303
 23
1300.419852724631
 33
0.0
 14
1269.629431614299
 24
1300.220158970717
 34
0.0
100
AcDbRotatedDimension
1001
ACAD
1000
DSTYLE
1002
{
1070
    41
1040
25.0
1070
   371
1070
    18
1002
}
  0
CIRCLE
  5
1D17
330
1F
100
AcDbEntity
  8
実形
100
AcDbCircle
 10
944.6294300602598
 20
1489.939834952301
 30
0.0
 40
44.0
  0
CIRCLE
  5
1D18
330
1F
100
AcDbEntity
  8
実形
100
AcDbCircle
 10
944.6294300602598
 20
1489.939834952301
 30
0.0
 40
58.0
  0
LINE
  5
1D1A
330
1F
100
AcDbEntity
  8
センター
370
    15
100
AcDbLine
 10
944.6294300602598
 20
1583.943752608831
 30
0.0
 11
944.6294300602598
 21
1424.99333223742
 31
0.0
  0
DIMENSION
  5
1D1B
330
1F
100
AcDbEntity
  8
寸法
100
AcDbDimension
  2
*D12
 10
799.6294316143031
 20
1788.742953115709
 30
0.0
 11
872.1294308372815
 21
1807.492953115709
 31
0.0
 70
    32
 71
     5
 42
144.9999984459567
  3
ISO-25
100
AcDbAlignedDimension
 13
944.6294300602598
 23
1533.939834952301
 33
0.0
 14
799.6294316143031
 24
1489.946555206365
 34
0.0
100
AcDbRotatedDimension
1001
ACAD
1000
DSTYLE
1002
{
1070
    41
1040
25.0
1070
   371
1070
    18
1002
}
  0
DIMENSION
  5
1D1C
330
1F
100
AcDbEntity
  8
寸法
100
AcDbDimension
  2
*D13
 10
1010.772632766433
 20
1644.448102004484
 30
0.0
 11
992.0226327664328
 21
1567.193968478393
 31
0.0
 70
    32
  1
155
 71
     5
 42
154.5082670521831
  3
ISO-25
100
AcDbAlignedDimension
 13
986.2726327664333
 23
1489.939834952301
 33
0.0
 14
985.7930683375506
 24
1644.448102004484
 34
0.0
 50
90.0
100
AcDbRotatedDimension
1001
ACAD
1000
DSTYLE
1002
{
1070
    41
1040
25.0
1070
    42
1040
20.0
1070
   371
1070
    18
1002
}
  0
TEXT
  5
1D78
330
1F
100
AcDbEntity
  8
寸法
370
    18
100
AcDbText
 10
854.9932391942855
 20
1390.098323071299
 30
0.0
 40
25.0
  1
3595R
100
AcDbText
  0
TEXT
  5
1D79
330
1F
100
AcDbEntity
  8
寸法
370
    18
100
AcDbText
 10
1048.285491603192
 20
1561.702813874946
 30
0.0
 40
25.0
  1
995R
100
AcDbText
  0
TEXT
  5
1D7A
330
1F
100
AcDbEntity
  8
寸法
370
    18
100
AcDbText
 10
1051.651443667158
 20
1402.494386851758
 30
0.0
 40
25.0
  1
4角　55R
100
AcDbText
  0
LEADER
  5
1D7B
330
1F
100
AcDbEntity
  8
0
100
AcDbLeader
  3
ISO-25
 40
25.0
 41
16.66666666666666
 76
     2
 10
1212.137342770418
 20
1568.007093887174
 30
0.0
 10
1151.306936233882
 20
1568.517220315022
 30
0.0
213
0.0
223
-12.5
233
0.0
1001
ACAD
1000
DSTYLE
1002
{
1070
    41
1040
25.0
1070
   147
1040
6.25
1070
    77
1070
     0
1070
    73
1070
     1
1070
    74
1070
     1
1070
   279
1070
     1
1070
   342
1005
DA
1002
}
  0
LEADER
  5
1D7C
330
1F
100
AcDbEntity
  8
0
100
AcDbLeader
  3
ISO-25
 40
25.0
 41
16.66666666666666
 76
     2
 10
1178.819409421066
 20
1354.834334573857
 30
0.0
 10
1136.020914376983
 20
1400.515130177196
 30
0.0
213
0.0
223
-12.5
233
0.0
1001
ACAD
1000
DSTYLE
1002
{
1070
    41
1040
25.0
1070
   147
1040
6.25
1070
    77
1070
     0
1070
    73
1070
     1
1070
    74
1070
     1
1070
   279
1070
     1
1070
   342
1005
DA
1002
}
  0
LEADER
  5
1D7D
330
1F
100
AcDbEntity
  8
0
100
AcDbLeader
  3
ISO-25
 40
25.0
 41
16.66666666666666
 76
     2
 10
990.1427853243287
 20
1337.746043291595
 30
0.0
 10
947.3442902802464
 20
1383.426838894934
 30
0.0
213
0.0
223
-12.5
233
0.0
1001
ACAD
1000
DSTYLE
1002
{
1070
    41
1040
25.0
1070
   147
1040
6.25
1070
    77
1070
     0
1070
    73
1070
     1
1070
    74
1070
     1
1070
   279
1070
     1
1070
   342
1005
DA
1002
}
  0
LINE
  5
1E90
330
1F
100
AcDbEntity
  8
実形
100
AcDbLine
 10
1548.879664025061
 20
1489.871555206365
 30
0.0
 11
1548.879664025061
 21
1329.871555206363
 31
0.0
  0
LINE
  5
1E91
330
1F
100
AcDbEntity
  8
実形
100
AcDbLine
 10
1548.879664025061
 20
1329.871555206363
 30
0.0
 11
1700.161117742731
 21
1329.871555206363
 31
0.0
  0
LINE
  5
1E92
330
1F
100
AcDbEntity
  8
実形
100
AcDbLine
 10
1728.879664025061
 20
1399.371555206365
 30
0.0
 11
1728.879664025061
 21
1580.371555206365
 31
0.0
  0
LINE
  5
1E94
330
1F
100
AcDbEntity
  8
実形
100
AcDbLine
 10
1738.879664025061
 20
1547.871555206366
 30
0.0
 11
1738.879664025061
 21
1431.871555206365
 31
0.0
  0
LINE
  5
1E9E
330
1F
100
AcDbEntity
  8
センター
 48
0.7
370
    15
100
AcDbLine
 10
1651.366363333538
 20
1489.871555206365
 30
0.0
 11
1786.69911287271
 21
1489.871555206365
 31
0.0
  0
TEXT
  5
1EA1
330
1F
100
AcDbEntity
  8
寸法
370
    18
100
AcDbText
 10
1628.697672414928
 20
1413.671429568675
 30
0.0
 40
25.0
  1
30R
100
AcDbText
  0
DIMENSION
  5
1EA2
330
1F
100
AcDbEntity
  8
寸法
100
AcDbDimension
  2
*D14
 10
1849.185808116981
 20
1445.871555206365
 30
0.0
 11
1830.435808116981
 21
1489.871555206366
 31
0.0
 70
    32
 71
     5
 42
88.0
  3
ISO-25
100
AcDbAlignedDimension
 13
1738.879664025061
 23
1533.871555206365
 33
0.0
 14
1738.879664025061
 24
1445.871555206365
 34
0.0
 50
90.0
100
AcDbRotatedDimension
1001
ACAD
1000
DSTYLE
1002
{
1070
    41
1040
25.0
1070
   371
1070
    18
1002
}
  0
DIMENSION
  5
1EA3
330
1F
100
AcDbEntity
  8
寸法
100
AcDbDimension
  2
*D15
 10
1914.107396081823
 20
1431.871555206365
 30
0.0
 11
1895.357396081823
 21
1489.871555206366
 31
0.0
 70
    32
 71
     5
 42
116.0
  3
ISO-25
100
AcDbAlignedDimension
 13
1738.879664025061
 23
1547.871555206365
 33
0.0
 14
1738.879664025061
 24
1431.871555206365
 34
0.0
 50
90.0
100
AcDbRotatedDimension
1001
ACAD
1000
DSTYLE
1002
{
1070
    41
1040
25.0
1070
   371
1070
    18
1002
}
  0
LEADER
  5
1EA4
330
1F
100
AcDbEntity
  8
0
100
AcDbLeader
  3
ISO-25
 40
25.0
 41
16.66666666666666
 76
     2
 10
1708.701646959673
 20
1341.75528661872
 30
0.0
 10
1660.720820323781
 20
1405.410054219359
 30
0.0
213
0.0
223
-12.5
233
0.0
1001
ACAD
1000
DSTYLE
1002
{
1070
    41
1040
25.0
1070
   147
1040
6.25
1070
    77
1070
     0
1070
    73
1070
     1
1070
    74
1070
     1
1070
   279
1070
     1
1070
   342
1005
DA
1002
}
  0
LINE
  5
1EA5
330
1F
100
AcDbEntity
  8
実形
100
AcDbLine
 10
1548.879664025061
 20
1204.871555206366
 30
0.0
 11
1548.879664025061
 21
1084.871555206365
 31
0.0
  0
LINE
  5
1EA6
330
1F
100
AcDbEntity
  8
実形
100
AcDbLine
 10
1728.879664025061
 20
1204.871555206366
 30
0.0
 11
1728.879664025061
 21
1084.871555206365
 31
0.0
  0
LINE
  5
1EA7
330
1F
100
AcDbEntity
  8
実形
100
AcDbLine
 10
1738.879664025061
 20
1204.871555206366
 30
0.0
 11
1738.879664025061
 21
1138.677798687924
 31
0.0
  0
LINE
  5
1EA8
330
1F
100
AcDbEntity
  8
実形
100
AcDbLine
 10
1548.879664025061
 20
1084.871555206365
 30
0.0
 11
1733.879664025061
 21
1084.871555206365
 31
0.0
  0
TEXT
  5
1EA9
330
1F
100
AcDbEntity
  8
寸法
370
    18
100
AcDbText
 10
1613.113370804351
 20
1092.553743613407
 30
0.0
 40
25.0
  1
180
100
AcDbText
  0
TEXT
  5
1EAA
330
1F
100
AcDbEntity
  8
寸法
370
    18
100
AcDbText
 10
1746.662997435884
 20
1142.602872300349
 30
0.0
 40
25.0
  1
7
100
AcDbText
  0
TEXT
  5
1EAB
330
1F
100
AcDbEntity
  8
寸法
370
    18
100
AcDbText
 10
1547.066160370223
 20
1082.878997428122
 30
0.0
 40
4.0
  1
●
100
AcDbText
  0
TEXT
  5
1EAC
330
1F
100
AcDbEntity
  8
寸法
370
    18
100
AcDbText
 10
1726.97968933815
 20
1082.96384695574
 30
0.0
 40
4.0
  1
●
100
AcDbText
  0
TEXT
  5
1EAD
330
1F
100
AcDbEntity
  8
寸法
370
    18
100
AcDbText
 10
1737.012387187389
 20
1136.721098859366
 30
0.0
 40
4.0
  1
●
100
AcDbText
  0
TEXT
  5
1EAE
330
1F
100
AcDbEntity
  8
寸法
370
    18
100
AcDbText
 10
1726.845075914928
 20
1136.528601070851
 30
0.0
 40
4.0
  1
●
100
AcDbText
  0
LINE
  5
1EAF
330
1F
100
AcDbEntity
  8
実形
100
AcDbLine
 10
1728.879664025061
 20
1399.371555206365
 30
0.0
 11
1727.097620514697
 21
1358.562758819036
 31
0.0
  0
LINE
  5
1EB4
330
1F
100
AcDbEntity
  8
実形
100
AcDbLine
 10
1728.974755321236
 20
1138.565727284869
 30
0.0
 11
1738.814536365298
 21
1138.565727284869
 31
0.0
  0
ARC
  5
1EFF
330
1F
100
AcDbEntity
  8
実形
100
AcDbCircle
 10
1697.126183244914
 20
1359.871555206363
 30
0.0
 40
30.0
100
AcDbArc
 50
270.0
 51
357.4995894356231
  0
LINE
  5
1F0A
330
1F
100
AcDbEntity
  8
実形
100
AcDbLine
 10
1548.879664025061
 20
1489.871555206365
 30
0.0
 11
1548.879664025061
 21
1664.871555206368
 31
0.0
  0
LINE
  5
1F0B
330
1F
100
AcDbEntity
  8
実形
100
AcDbLine
 10
1728.879664025061
 20
1580.371555206365
 30
0.0
 11
1727.097620514697
 21
1621.180351593694
 31
0.0
  0
ARC
  5
1F0C
330
1F
100
AcDbEntity
  8
実形
100
AcDbCircle
 10
1697.126183244914
 20
1619.871555206368
 30
0.0
 40
30.0
100
AcDbArc
 50
2.500410564376912
 51
90.00000000000003
  0
LINE
  5
1F0D
330
1F
100
AcDbEntity
  8
実形
100
AcDbLine
 10
1548.879664025061
 20
1649.871555206368
 30
0.0
 11
1697.126183244914
 21
1649.871555206368
 31
0.0
  0
LINE
  5
1F79
330
1F
100
AcDbEntity
  8
実形
100
AcDbLine
 10
779.629431614303
 20
864.9153129974674
 30
0.0
 11
1239.629431614299
 21
864.9153129974674
 31
0.0
  0
LINE
  5
1F7A
330
1F
100
AcDbEntity
  8
実形
100
AcDbLine
 10
794.6294316143012
 20
864.9153129974674
 30
0.0
 11
794.6294316143016
 21
718.3291508401086
 31
0.0
  0
LINE
  5
1F7C
330
1F
100
AcDbEntity
  8
実形
100
AcDbLine
 10
886.6294316143012
 20
684.9153129974674
 30
0.0
 11
1024.629431614301
 21
684.9153129974674
 31
0.0
  0
LINE
  5
1F7D
330
1F
100
AcDbEntity
  8
実形
100
AcDbLine
 10
1024.629431614301
 20
684.9153129974674
 30
0.0
 11
1035.129431614301
 21
684.9153129974674
 31
0.0
  0
LINE
  5
1F7E
330
1F
100
AcDbEntity
  8
実形
100
AcDbLine
 10
1035.129431614301
 20
684.9153129974674
 30
0.0
 11
1035.129431614301
 21
684.9153129974674
 31
0.0
  0
LINE
  5
1F80
330
1F
100
AcDbEntity
  8
実形
100
AcDbLine
 10
886.6294316143012
 20
674.9153129974675
 30
0.0
 11
1002.629431614301
 21
674.9153129974675
 31
0.0
  0
LINE
  5
1F82
330
1F
100
AcDbEntity
  8
センター
 48
0.5
370
    15
100
AcDbLine
 10
944.6294316143012
 20
763.1319368728809
 30
0.0
 11
944.6294316143012
 21
606.7161165655806
 31
0.0
  0
TEXT
  5
1F83
330
1F
100
AcDbEntity
  8
寸法
100
AcDbText
 10
1120.671369116148
 20
759.8284041815858
 30
0.0
 40
25.0
  1
30R
100
AcDbText
  0
DIMENSION
  5
1F84
330
1F
100
AcDbEntity
  8
寸法
100
AcDbDimension
  2
*D16
 10
988.6294316143013
 20
558.4879056963946
 30
0.0
 11
944.6294316143012
 21
577.2379056963946
 31
0.0
 70
    32
 71
     5
 42
88.00000000000011
  3
ISO-25
100
AcDbAlignedDimension
 13
900.6294316143012
 23
674.9153129974673
 33
0.0
 14
988.6294316143013
 24
674.9153129974675
 34
0.0
100
AcDbRotatedDimension
1001
ACAD
1000
DSTYLE
1002
{
1070
    41
1040
25.0
1070
   371
1070
    18
1002
}
  0
DIMENSION
  5
1F85
330
1F
100
AcDbEntity
  8
寸法
100
AcDbDimension
  2
*D17
 10
1002.629431614301
 20
498.5285071274656
 30
0.0
 11
944.6294316143012
 21
517.2785071274656
 31
0.0
 70
    32
 71
     5
 42
116.0000000000001
  3
ISO-25
100
AcDbAlignedDimension
 13
886.6294316143012
 23
674.9153129974676
 33
0.0
 14
1002.629431614301
 24
674.9153129974675
 34
0.0
100
AcDbRotatedDimension
1001
ACAD
1000
DSTYLE
1002
{
1070
    41
1040
25.0
1070
   371
1070
    18
1002
}
  0
LEADER
  5
1F86
330
1F
100
AcDbEntity
  8
0
100
AcDbLeader
  3
ISO-25
 40
25.0
 41
16.66666666666666
 76
     2
 10
1223.271781728831
 20
714.6646232135008
 30
0.0
 10
1152.380638322813
 20
755.4663760789698
 30
0.0
213
0.0
223
-12.5
233
0.0
1001
ACAD
1000
DSTYLE
1002
{
1070
    41
1040
25.0
1070
   147
1040
6.25
1070
    77
1070
     0
1070
    73
1070
     1
1070
    74
1070
     1
1070
   279
1070
     1
1070
   342
1005
DA
1002
}
  0
LINE
  5
1F87
330
1F
100
AcDbEntity
  8
実形
100
AcDbLine
 10
1239.629431614299
 20
864.9153129974674
 30
0.0
 11
1239.629431614299
 21
728.4011513987845
 31
0.0
  0
TEXT
  5
1F8A
330
1F
100
AcDbEntity
  8
寸法
370
    18
100
AcDbText
 10
1407.87272775175
 20
757.3978724738667
 30
0.0
 40
25.0
  1
180
 50
90.0
100
AcDbText
  0
TEXT
  5
1F8B
330
1F
100
AcDbEntity
  8
寸法
370
    18
100
AcDbText
 10
1340.061666051901
 20
710.1981167052689
 30
0.0
 40
25.0
  1
15
 50
90.0
100
AcDbText
  0
TEXT
  5
1F8C
330
1F
100
AcDbEntity
  8
寸法
370
    18
100
AcDbText
 10
1337.513413062366
 20
646.433697344826
 30
0.0
 40
25.0
  1
7
 50
90.0
100
AcDbText
  0
LINE
  5
1F8D
330
1F
100
AcDbEntity
  8
実形
100
AcDbLine
 10
1302.907023997229
 20
864.9153129974674
 30
0.0
 11
1423.111254868397
 21
864.9153129974674
 31
0.0
  0
LINE
  5
1F8E
330
1F
100
AcDbEntity
  8
実形
100
AcDbLine
 10
1302.907023997229
 20
684.9153129974674
 30
0.0
 11
1423.111254868397
 21
684.9153129974675
 31
0.0
  0
LINE
  5
1F8F
330
1F
100
AcDbEntity
  8
実形
100
AcDbLine
 10
1302.907023997229
 20
674.9153129974675
 30
0.0
 11
1356.111254868397
 21
674.9153129974675
 31
0.0
  0
LINE
  5
1F90
330
1F
100
AcDbEntity
  8
実形
100
AcDbLine
 10
1423.111254868397
 20
864.9153129974674
 30
0.0
 11
1423.111254868397
 21
684.9153129974674
 31
0.0
  0
TEXT
  5
1F91
330
1F
100
AcDbEntity
  8
寸法
370
    18
100
AcDbText
 10
1424.565783298302
 20
863.3152223871766
 30
0.0
 40
3.0
  1
●
 71
     2
100
AcDbText
  0
TEXT
  5
1F92
330
1F
100
AcDbEntity
  8
寸法
370
    18
100
AcDbText
 10
1424.495826477706
 20
683.3856564692923
 30
0.0
 40
3.0
  1
●
 71
     2
100
AcDbText
  0
LINE
  5
1F93
330
1F
100
AcDbEntity
  8
実形
100
AcDbLine
 10
1302.907023997229
 20
699.9153129974673
 30
0.0
 11
1356.111254868397
 21
699.9153129974672
 31
0.0
  0
LINE
  5
1F94
330
1F
100
AcDbEntity
  8
実形
100
AcDbLine
 10
1356.111254868397
 20
699.9153129974671
 30
0.0
 11
1356.111254868397
 21
684.9153129974674
 31
0.0
  0
TEXT
  5
1F95
330
1F
100
AcDbEntity
  8
寸法
370
    18
100
AcDbText
 10
1357.902718939062
 20
682.9679242885456
 30
0.0
 40
4.0
  1
●
 71
     2
100
AcDbText
  0
TEXT
  5
1F96
330
1F
100
AcDbEntity
  8
寸法
370
    18
100
AcDbText
 10
1358.009165982776
 20
697.7136836928082
 30
0.0
 40
4.0
  1
●
 71
     2
100
AcDbText
  0
LINE
  5
1F97
330
1F
100
AcDbEntity
  8
実形
100
AcDbLine
 10
1356.111254868397
 20
684.9153129974674
 30
0.0
 11
1356.111254868397
 21
674.9153129974675
 31
0.0
  0
TEXT
  5
1F98
330
1F
100
AcDbEntity
  8
寸法
370
    18
100
AcDbText
 10
1357.936953918133
 20
673.1740554530468
 30
0.0
 40
4.0
  1
●
 71
     2
100
AcDbText
  0
TEXT
  5
1F9A
330
1F
100
AcDbEntity
  8
寸法
100
AcDbText
 10
849.7965620215163
 20
753.525431258531
 30
0.0
 40
25.0
  1
30R
100
AcDbText
  0
LEADER
  5
1F9B
330
1F
100
AcDbEntity
  8
0
100
AcDbLeader
  3
ISO-25
 40
25.0
 41
16.66666666666666
 76
     2
 10
823.3298152901825
 20
706.4717688137387
 30
0.0
 10
871.8581602387077
 20
751.1743930205774
 30
0.0
213
0.0
223
-12.5
233
0.0
1001
ACAD
1000
DSTYLE
1002
{
1070
    41
1040
25.0
1070
   147
1040
6.25
1070
    77
1070
     0
1070
    73
1070
     1
1070
    74
1070
     1
1070
   279
1070
     1
1070
   342
1005
DA
1002
}
  0
LINE
  5
1FC6
330
1F
100
AcDbEntity
  8
実形
100
AcDbLine
 10
1239.629431614299
 20
864.9153129974676
 30
0.0
 11
1239.629431614299
 21
727.7954182731039
 31
0.0
  0
LINE
  5
1FCA
330
1F
100
AcDbEntity
  8
実形
100
AcDbLine
 10
1035.129431614301
 20
684.9153129974674
 30
0.0
 11
1211.824024890187
 21
697.8757966118357
 31
0.0
  0
ARC
  5
1FCB
330
1F
100
AcDbEntity
  8
実形
100
AcDbCircle
 10
1209.629431614299
 20
727.7954182731039
 30
0.0
 40
30.0
100
AcDbArc
 50
274.1951117082921
 51
0.0
  0
LINE
  5
1FCD
330
1F
100
AcDbEntity
  8
実形
100
AcDbLine
 10
944.6294316143012
 20
684.9240267192308
 30
0.0
 11
944.6294316143012
 21
674.9153129974675
 31
0.0
  0
LINE
  5
1FEB
330
1F
100
AcDbEntity
  8
実形
100
AcDbLine
 10
1002.629431614301
 20
684.9240267192308
 30
0.0
 11
1002.629431614301
 21
674.9153129974675
 31
0.0
  0
LINE
  5
1FEC
330
1F
100
AcDbEntity
  8
実形
100
AcDbLine
 10
886.6294316143012
 20
684.9240267192308
 30
0.0
 11
886.6294316143012
 21
674.9153129974675
 31
0.0
  0
LINE
  5
201A
330
1F
100
AcDbEntity
  8
実形
100
AcDbLine
 10
1738.879664025061
 20
1489.871555206365
 30
0.0
 11
1728.879664025061
 21
1489.871555206365
 31
0.0
  0
LINE
  5
201D
330
1F
100
AcDbEntity
  8
実形
100
AcDbLine
 10
1738.879664025061
 20
1547.871555206365
 30
0.0
 11
1728.879664025061
 21
1547.871555206365
 31
0.0
  0
LINE
  5
201E
330
1F
100
AcDbEntity
  8
実形
100
AcDbLine
 10
1738.879664025061
 20
1431.871555206365
 30
0.0
 11
1728.879664025061
 21
1431.871555206365
 31
0.0
  0
LINE
  5
20F5
330
1F
100
AcDbEntity
  8
センター
370
    15
100
AcDbLine
 10
1018.523983966278
 20
1489.939834952301
 30
0.0
 11
870.7348761542412
 21
1489.939834952301
 31
0.0
  0
LINE
  5
20FF
330
1F
100
AcDbEntity
  8
実形
100
AcDbLine
 10
944.6294300602598
 20
1489.939834952301
 30
0.0
 11
951.6615559359951
 21
1489.939834952301
 31
0.0
  0
LINE
  5
2126
330
1F
100
AcDbEntity
  8
実形
100
AcDbLine
 10
886.6294316143012
 20
684.9153129974674
 30
0.0
 11
823.0013994070199
 21
688.3733582261241
 31
0.0
  0
ARC
  5
2127
330
1F
100
AcDbEntity
  8
実形
100
AcDbCircle
 10
824.6294316143016
 20
718.3291508401087
 30
0.0
 40
30.0
100
AcDbArc
 50
180.0000000000001
 51
266.8891593465092
  0
ARC
  5
213B
330
1F
100
AcDbEntity
  8
実形
100
AcDbCircle
 10
994.6294316143033
 20
4929.871555206364
 30
0.0
 40
3595.0
100
AcDbArc
 50
270.0
 51
272.6455487334862
  0
ARC
  5
213D
330
1F
100
AcDbEntity
  8
実形
100
AcDbCircle
 10
1158.025674324196
 20
1393.644516699322
 30
0.0
 40
55.0
100
AcDbArc
 50
272.6455487334856
 51
353.2044621424605
  0
ARC
  5
213E
330
1F
100
AcDbEntity
  8
実形
100
AcDbCircle
 10
224.6294316142994
 20
1504.871555206367
 30
0.0
 40
995.0
100
AcDbArc
 50
353.2044621424605
 51
359.1405310751642
  0
ARC
  5
213F
330
1F
100
AcDbEntity
  8
実形
100
AcDbCircle
 10
224.6294316142994
 20
1474.871555206358
 30
0.0
 40
995.0
100
AcDbArc
 50
0.8594689248363172
 51
6.795537857539995
  0
ARC
  5
2140
330
1F
100
AcDbEntity
  8
実形
100
AcDbCircle
 10
1158.025674324195
 20
1586.09859371341
 30
0.0
 40
55.0
100
AcDbArc
 50
6.795537857539944
 51
87.35445126651487
  0
ARC
  5
2141
330
1F
100
AcDbEntity
  8
実形
100
AcDbCircle
 10
994.6294316143323
 20
-1950.128444793634
 30
0.0
 40
3595.0
100
AcDbArc
 50
87.35445126651425
 51
90.00000000000049
  0
ARC
  5
2142
330
1F
100
AcDbEntity
  8
実形
100
AcDbCircle
 10
1024.629431614289
 20
-1950.128444793633
 30
0.0
 40
3595.0
100
AcDbArc
 50
89.99999999999989
 51
92.64554873348606
  0
ARC
  5
2143
330
1F
100
AcDbEntity
  8
実形
100
AcDbCircle
 10
861.2331889044048
 20
1586.098593713409
 30
0.0
 40
55.0
100
AcDbArc
 50
92.64554873348545
 51
173.2044621424604
  0
ARC
  5
2144
330
1F
100
AcDbEntity
  8
実形
100
AcDbCircle
 10
1794.629431614301
 20
1474.871555206363
 30
0.0
 40
995.0
100
AcDbArc
 50
173.2044621424603
 51
179.140531075164
  0
ARC
  5
2145
330
1F
100
AcDbEntity
  8
実形
100
AcDbCircle
 10
1794.629431614301
 20
1504.871555206376
 30
0.0
 40
995.0
100
AcDbArc
 50
180.8594689248364
 51
186.7955378575401
  0
ARC
  5
2146
330
1F
100
AcDbEntity
  8
実形
100
AcDbCircle
 10
861.2331889044057
 20
1393.64451669932
 30
0.0
 40
55.0
100
AcDbArc
 50
186.7955378575401
 51
267.354451266515
  0
ARC
  5
2147
330
1F
100
AcDbEntity
  8
実形
100
AcDbCircle
 10
1024.62943161426
 20
4929.871555206364
 30
0.0
 40
3595.0
100
AcDbArc
 50
267.3544512665145
 51
270.0000000000006
  0
LINE
  5
216B
330
1F
100
AcDbEntity
  8
実形
100
AcDbLine
 10
779.6294316143012
 20
864.9153129974674
 30
0.0
 11
1239.629431614299
 21
864.9153129974676
 31
0.0
  0
LINE
  5
216C
330
1F
100
AcDbEntity
  8
実形
100
AcDbLine
 10
1239.629431614299
 20
864.9153129974676
 30
0.0
 11
779.6294316143002
 21
864.9153129974674
 31
0.0
  0
LINE
  5
216D
330
1F
100
AcDbEntity
  8
実形
100
AcDbLine
 10
794.6294316143003
 20
864.9153129974674
 30
0.0
 11
776.6294316143003
 21
864.9153129974674
 31
0.0
  0
LINE
  5
216E
330
1F
100
AcDbEntity
  8
実形
100
AcDbLine
 10
776.6294316143003
 20
864.9153129974674
 30
0.0
 11
776.6294316143003
 21
871.9153129974674
 31
0.0
  0
LINE
  5
216F
330
1F
100
AcDbEntity
  8
実形
100
AcDbLine
 10
776.6294316143003
 20
871.9153129974674
 30
0.0
 11
749.6294316143003
 21
871.9153129974674
 31
0.0
  0
LINE
  5
2170
330
1F
100
AcDbEntity
  8
実形
100
AcDbLine
 10
749.6294316143003
 20
871.9153129974674
 30
0.0
 11
749.6294316143003
 21
878.9153129974677
 31
0.0
  0
LINE
  5
2171
330
1F
100
AcDbEntity
  8
実形
100
AcDbLine
 10
754.6294316143001
 20
883.9153129974674
 30
0.0
 11
1239.629431614299
 21
883.9153129974675
 31
0.0
  0
LINE
  5
2172
330
1F
100
AcDbEntity
  8
実形
100
AcDbLine
 10
754.6294316143002
 20
883.9153129974674
 30
0.0
 11
749.6294316143003
 21
878.9153129974675
 31
0.0
  0
LINE
  5
2173
330
1F
100
AcDbEntity
  8
実形
100
AcDbLine
 10
776.6294316143003
 20
871.9153129974674
 30
0.0
 11
1239.629431614299
 21
871.9153129974674
 31
0.0
  0
TEXT
  5
2174
330
1F
100
AcDbEntity
  8
実形
100
AcDbText
 10
685.9200279531132
 20
947.2252916638842
 30
0.0
 40
25.0
  1
5C
100
AcDbText
  0
LEADER
  5
2175
330
1F
100
AcDbEntity
  8
実形
100
AcDbLeader
  3
ISO-25
 40
25.0
 41
16.66666666666666
 76
     2
 10
748.5899869307822
 20
885.1406677987013
 30
0.0
 10
712.1510463720651
 20
937.3917282398085
 30
0.0
213
0.0
223
-12.5
233
0.0
1001
ACAD
1000
DSTYLE
1002
{
1070
    41
1040
25.0
1070
   147
1040
6.25
1070
    77
1070
     0
1070
    73
1070
     1
1070
    74
1070
     1
1070
   279
1070
     1
1070
   342
1005
DA
1002
}
  0
LINE
  5
217B
330
1F
100
AcDbEntity
  8
実形
100
AcDbLine
 10
1254.629431614298
 20
864.9153129974674
 30
0.0
 11
794.6294316143014
 21
864.9153129974674
 31
0.0
  0
LINE
  5
217C
330
1F
100
AcDbEntity
  8
実形
100
AcDbLine
 10
1254.629431614299
 20
864.9153129974674
 30
0.0
 11
794.6294316143014
 21
864.9153129974676
 31
0.0
  0
LINE
  5
217D
330
1F
100
AcDbEntity
  8
実形
100
AcDbLine
 10
794.6294316143014
 20
864.9153129974676
 30
0.0
 11
1254.6294316143
 21
864.9153129974674
 31
0.0
  0
LINE
  5
217E
330
1F
100
AcDbEntity
  8
実形
100
AcDbLine
 10
1239.6294316143
 20
864.9153129974674
 30
0.0
 11
1257.6294316143
 21
864.9153129974674
 31
0.0
  0
LINE
  5
217F
330
1F
100
AcDbEntity
  8
実形
100
AcDbLine
 10
1257.6294316143
 20
864.9153129974674
 30
0.0
 11
1257.6294316143
 21
871.9153129974674
 31
0.0
  0
LINE
  5
2180
330
1F
100
AcDbEntity
  8
実形
100
AcDbLine
 10
1257.6294316143
 20
871.9153129974674
 30
0.0
 11
1284.6294316143
 21
871.9153129974674
 31
0.0
  0
LINE
  5
2181
330
1F
100
AcDbEntity
  8
実形
100
AcDbLine
 10
1284.6294316143
 20
871.9153129974674
 30
0.0
 11
1284.6294316143
 21
878.9153129974677
 31
0.0
  0
LINE
  5
2182
330
1F
100
AcDbEntity
  8
実形
100
AcDbLine
 10
1279.629431614301
 20
883.9153129974674
 30
0.0
 11
794.6294316143012
 21
883.9153129974675
 31
0.0
  0
LINE
  5
2183
330
1F
100
AcDbEntity
  8
実形
100
AcDbLine
 10
1279.6294316143
 20
883.9153129974674
 30
0.0
 11
1284.6294316143
 21
878.9153129974675
 31
0.0
  0
LINE
  5
2184
330
1F
100
AcDbEntity
  8
実形
100
AcDbLine
 10
1257.6294316143
 20
871.9153129974674
 30
0.0
 11
794.6294316143014
 21
871.9153129974674
 31
0.0
  0
LEADER
  5
2185
330
1F
100
AcDbEntity
  8
実形
100
AcDbLeader
  3
ISO-25
 40
25.0
 41
16.66666666666666
 76
     2
 10
1285.668876297818
 20
885.1406677987013
 30
0.0
 10
1322.107816856536
 20
937.3917282398085
 30
0.0
211
-1.0
221
0.0
231
0.0
213
0.0
223
-12.5
233
0.0
1001
ACAD
1000
DSTYLE
1002
{
1070
    41
1040
25.0
1070
   147
1040
6.25
1070
    77
1070
     0
1070
    73
1070
     1
1070
    74
1070
     1
1070
   279
1070
     1
1070
   342
1005
DA
1002
}
  0
TEXT
  5
218E
330
1F
100
AcDbEntity
  8
実形
100
AcDbText
 10
1303.822376948025
 20
952.2978017738848
 30
0.0
 40
25.0
  1
5C
100
AcDbText
  0
ARC
  5
22A1
330
1F
100
AcDbEntity
  8
実形
100
AcDbCircle
 10
1867.899627132798
 20
691.7745986296067
 30
0.0
 40
50.0
100
AcDbArc
 50
90.0
 51
180.0
  0
LINE
  5
22A2
330
1F
100
AcDbEntity
  8
実形
100
AcDbLine
 10
2317.899627132798
 20
621.7745986296067
 30
0.0
 11
2217.899627132798
 21
621.7745986296067
 31
0.0
  0
LINE
  5
22A3
330
1F
100
AcDbEntity
  8
実形
100
AcDbLine
 10
2167.899627132798
 20
621.7745986296067
 30
0.0
 11
2047.899627132798
 21
621.7745986296067
 31
0.0
  0
LINE
  5
22A4
330
1F
100
AcDbEntity
  8
実形
100
AcDbLine
 10
1867.899627132798
 20
621.7745986296067
 30
0.0
 11
1817.899627132798
 21
621.7745986296067
 31
0.0
  0
LINE
  5
22A5
330
1F
100
AcDbEntity
  8
実形
100
AcDbLine
 10
2024.708766078408
 20
661.7745986296068
 30
0.0
 11
1874.978098369962
 21
661.7745986296068
 31
0.0
  0
LINE
  5
22A6
330
1F
100
AcDbEntity
  8
実形
100
AcDbLine
 10
2024.708766078408
 20
651.7745986296067
 30
0.0
 11
1884.978098369962
 21
651.7745986296067
 31
0.0
  0
LINE
  5
22A7
330
1F
100
AcDbEntity
  8
実形
100
AcDbLine
 10
2047.899627132798
 20
671.7745986296067
 30
0.0
 11
2037.899627132798
 21
671.7745986296067
 31
0.0
  0
LINE
  5
22A8
330
1F
100
AcDbEntity
  8
実形
100
AcDbLine
 10
1997.899627132798
 20
671.7745986296067
 30
0.0
 11
1867.899627132798
 21
671.7745986296067
 31
0.0
  0
LINE
  5
22A9
330
1F
100
AcDbEntity
  8
実形
100
AcDbLine
 10
1817.899627132798
 20
621.7745986296067
 30
0.0
 11
1817.899627132798
 21
691.7745986296067
 31
0.0
  0
LINE
  5
22AA
330
1F
100
AcDbEntity
  8
実形
100
AcDbLine
 10
1867.899627132798
 20
621.7745986296067
 30
0.0
 11
1867.899627132798
 21
671.7745986296067
 31
0.0
  0
LINE
  5
22AB
330
1F
100
AcDbEntity
  8
実形
100
AcDbLine
 10
1897.899627132798
 20
621.7745986296067
 30
0.0
 11
1897.899627132798
 21
643.3475735696974
 31
0.0
  0
LINE
  5
22AC
330
1F
100
AcDbEntity
  8
実形
100
AcDbLine
 10
1987.899627132798
 20
621.7745986296067
 30
0.0
 11
1987.899627132798
 21
643.3475735696974
 31
0.0
  0
LINE
  5
22AD
330
1F
100
AcDbEntity
  8
実形
100
AcDbLine
 10
2047.899627132798
 20
621.7745986296067
 30
0.0
 11
2047.899627132798
 21
671.7745986296067
 31
0.0
  0
TEXT
  5
22AE
330
1F
100
AcDbEntity
  8
実形
100
AcDbText
 10
2410.595219089757
 20
538.751962988057
 30
0.0
 40
30.0
  1
糸面
 11
2410.595219089757
 21
534.7519629880571
 31
0.0
100
AcDbText
 73
     1
  0
TEXT
  5
22AF
330
1F
100
AcDbEntity
  8
実形
100
AcDbText
 10
2458.548718828048
 20
823.8525740430549
 30
0.0
 40
30.0
  1
5C
 11
2458.548718828048
 21
819.852574043055
 31
0.0
100
AcDbText
 73
     1
  0
ARC
  5
22B0
330
1F
100
AcDbEntity
  8
実形
100
AcDbCircle
 10
2192.899627132798
 20
621.7745986296067
 30
0.0
 40
25.0
100
AcDbArc
 50
0.0
 51
180.0
  0
TEXT
  5
22B1
330
1F
100
AcDbEntity
  8
実形
100
AcDbText
 10
1645.151229950476
 20
830.9405545710633
 30
0.0
 40
30.0
  1
5R
 11
1645.151229950476
 21
826.9405545710633
 31
0.0
100
AcDbText
 73
     1
  0
TEXT
  5
22B2
330
1F
100
AcDbEntity
  8
実形
100
AcDbText
 10
1580.549634237201
 20
510.2514344061565
 30
0.0
 40
30.0
  1
糸面
 11
1580.549634237201
 21
506.2514344061565
 31
0.0
100
AcDbText
 73
     1
  0
ARC
  5
22B3
330
1F
100
AcDbEntity
  8
実形
100
AcDbCircle
 10
2017.899627132798
 20
671.7745986296067
 30
0.0
 40
20.0
100
AcDbArc
 50
0.0
 51
180.0
  0
LINE
  5
22B4
330
1F
100
AcDbEntity
  8
実形
100
AcDbLine
 10
1966.804648729118
 20
691.7745986296067
 30
0.0
 11
1966.804648729118
 21
671.7745986296067
 31
0.0
  0
TEXT
  5
22B5
330
1F
100
AcDbEntity
  8
実形
  6
HIDDEN2
100
AcDbText
 10
1972.525610607851
 20
684.4380022953536
 30
0.0
 40
13.0
  1
● 
 71
     2
100
AcDbText
  0
TEXT
  5
22B6
330
1F
100
AcDbEntity
  8
実形
  6
HIDDEN2
100
AcDbText
 10
1972.903799752736
 20
665.5344066124853
 30
0.0
 40
13.0
  1
● 
 71
     2
100
AcDbText
  0
LINE
  5
22B7
330
1F
100
AcDbEntity
  8
実形
100
AcDbLine
 10
1897.899627132798
 20
643.3475735696974
 30
0.0
 11
1897.899627132798
 21
543.3475735696974
 31
0.0
  0
LINE
  5
22B8
330
1F
100
AcDbEntity
  8
実形
100
AcDbLine
 10
1897.899627132798
 20
543.3475735696974
 30
0.0
 11
2077.899627132798
 21
543.3475735696974
 31
0.0
  0
LINE
  5
22B9
330
1F
100
AcDbEntity
  8
実形
100
AcDbLine
 10
2077.899627132798
 20
543.3475735696974
 30
0.0
 11
2077.899627132798
 21
613.3475735696975
 31
0.0
  0
LINE
  5
22BA
330
1F
100
AcDbEntity
  8
実形
100
AcDbLine
 10
2077.899627132798
 20
613.3475735696975
 30
0.0
 11
1987.899627132798
 21
613.3475735696975
 31
0.0
  0
LINE
  5
22BB
330
1F
100
AcDbEntity
  8
実形
100
AcDbLine
 10
1987.899627132798
 20
613.3475735696975
 30
0.0
 11
1987.899627132798
 21
643.3475735696974
 31
0.0
  0
LINE
  5
22BC
330
1F
100
AcDbEntity
  8
実形
100
AcDbLine
 10
1987.899627132798
 20
643.3475735696974
 30
0.0
 11
1897.899627132798
 21
643.3475735696974
 31
0.0
  0
LINE
  5
22BD
330
1F
100
AcDbEntity
  8
実形
100
AcDbLine
 10
1874.978098369962
 20
661.7745986296068
 30
0.0
 11
1874.978098369962
 21
352.1897662457859
 31
0.0
  0
LINE
  5
22BE
330
1F
100
AcDbEntity
  8
実形
100
AcDbLine
 10
1884.978098369962
 20
651.7745986296067
 30
0.0
 11
1884.978098369962
 21
352.1897662457859
 31
0.0
  0
LINE
  5
22BF
330
1F
100
AcDbEntity
  8
実形
100
AcDbLine
 10
2024.708766078408
 20
661.7745986296068
 30
0.0
 11
2024.708766078408
 21
651.7745986296067
 31
0.0
  0
TEXT
  5
22C0
330
1F
100
AcDbEntity
  8
実形
100
AcDbText
 10
2158.050347882611
 20
428.9223745382956
 30
0.0
 40
30.0
  1
ホルダーリング
 11
2158.050347882611
 21
424.9223745382956
 31
0.0
100
AcDbText
 73
     1
  0
LEADER
  5
22C1
330
1F
100
AcDbEntity
  8
実形
100
AcDbLeader
  3
ISO-25
 76
     2
 10
1999.209784504814
 20
569.1972909868063
 30
0.0
 10
2192.253344445128
 20
482.2281316862581
 30
0.0
1001
ACAD
1000
DSTYLE
1002
{
1070
    77
1070
     0
1070
    41
1040
25.0
1070
    42
1040
6.0
1070
   140
1040
3.0
1070
   147
1040
1.199999999999999
1070
   279
1070
     2
1070
   289
1070
     2
1070
   371
1070
    13
1070
   372
1070
    13
1002
}
  0
TEXT
  5
22C2
330
1F
100
AcDbEntity
  8
実形
100
AcDbText
 10
1570.896337947303
 20
258.1047734019167
 30
0.0
 40
30.0
  1
シンク厚0.5ｍｍ
 11
1570.896337947303
 21
254.1047734019167
 31
0.0
100
AcDbText
 73
     1
  0
DIMENSION
  5
22C3
330
1F
100
AcDbEntity
  8
実形
100
AcDbDimension
  2
*D18
 10
1867.899627132798
 20
560.7316764226998
 30
0.0
 11
1844.014601998565
 21
560.7316764226998
 31
0.0
 70
   160
  1
5
 71
     5
 42
50.0
  3
ISO-25
100
AcDbAlignedDimension
 13
1817.899627132798
 23
656.214527306287
 33
0.0
 14
1867.899627132798
 24
656.214527306287
 34
0.0
100
AcDbRotatedDimension
1001
ACAD
1000
DSTYLE
1002
{
1070
   371
1070
    18
1070
   372
1070
    18
1002
}
  0
DIMENSION
  5
22C4
330
1F
100
AcDbEntity
  8
実形
100
AcDbDimension
  2
*D19
 10
1753.525428541637
 20
621.774598629607
 30
0.0
 11
1734.775428541636
 21
681.7745986296072
 31
0.0
 70
    32
  1
12
 71
     5
 42
120.0
  3
ISO-25
100
AcDbAlignedDimension
 13
1856.050329074197
 23
741.7745986296068
 33
0.0
 14
1850.701112069639
 24
621.7745986296068
 34
0.0
 50
90.0
100
AcDbRotatedDimension
1001
ACAD
1000
DSTYLE
1002
{
1070
   371
1070
    18
1070
   372
1070
    18
1002
}
  0
LEADER
  5
22C5
330
1F
100
AcDbEntity
  8
実形
100
AcDbLeader
  3
ISO-25
 76
     2
 10
1815.090214893423
 20
744.4335239879401
 30
0.0
 10
1719.434196900952
 20
819.5685138390418
 30
0.0
1001
ACAD
1000
DSTYLE
1002
{
1070
   147
1040
6.25
1070
    77
1070
     0
1070
   371
1070
    18
1070
   372
1070
    18
1002
}
  0
DIMENSION
  5
22C6
330
1F
100
AcDbEntity
  8
実形
100
AcDbDimension
  2
*D20
 10
2317.899627132798
 20
566.132923262845
 30
0.0
 11
2267.899627132799
 21
584.882923262845
 31
0.0
 70
    32
  1
10
 71
     5
 42
99.99999999999955
  3
ISO-25
100
AcDbAlignedDimension
 13
2217.899627132799
 23
654.3938049223925
 33
0.0
 14
2317.899627132798
 24
654.3938049223925
 34
0.0
100
AcDbRotatedDimension
1001
ACAD
1000
DSTYLE
1002
{
1070
   371
1070
    18
1070
   372
1070
    18
1002
}
  0
DIMENSION
  5
22C7
330
1F
100
AcDbEntity
  8
実形
100
AcDbDimension
  2
*D21
 10
2217.750478700636
 20
566.132923262845
 30
0.0
 11
2192.825052916717
 21
566.132923262845
 31
0.0
 70
   160
  1
5
 71
     5
 42
49.85085156783725
  3
ISO-25
100
AcDbAlignedDimension
 13
2167.899627132798
 23
654.3938049223925
 33
0.0
 14
2217.750478700636
 24
654.3938049223925
 34
0.0
100
AcDbRotatedDimension
1001
ACAD
1000
DSTYLE
1002
{
1070
   371
1070
    18
1070
   372
1070
    18
1002
}
  0
LINE
  5
22C8
330
1F
100
AcDbEntity
  8
実形
100
AcDbLine
 10
1867.899627132799
 20
741.7745986296067
 30
0.0
 11
2267.899627132799
 21
741.7745986296067
 31
0.0
  0
LINE
  5
22C9
330
1F
100
AcDbEntity
  8
実形
100
AcDbLine
 10
2139.062681594319
 20
622.0870986296067
 30
0.0
 11
2139.062681594319
 21
646.4620986296067
 31
0.0
  0
LINE
  5
22CA
330
1F
100
AcDbEntity
  8
実形
100
AcDbLine
 10
2139.062681594319
 20
646.4620986296067
 30
0.0
 11
2171.647406177582
 21
646.4620986296067
 31
0.0
  0
DIMENSION
  5
22CB
330
1F
100
AcDbEntity
  8
実形
100
AcDbDimension
  2
*D22
 10
2047.899627132799
 20
804.2436145081255
 30
0.0
 11
1957.899627132799
 21
822.9936145081255
 31
0.0
 70
    32
  1
18
 71
     5
 42
180.0
  3
ISO-25
100
AcDbAlignedDimension
 13
1867.899627132799
 23
706.2498690356979
 33
0.0
 14
2047.899627132799
 24
706.2498690356979
 34
0.0
100
AcDbRotatedDimension
1001
ACAD
1000
DSTYLE
1002
{
1070
   371
1070
    18
1070
   372
1070
    18
1002
}
  0
DIMENSION
  5
22CC
330
1F
100
AcDbEntity
  8
実形
100
AcDbDimension
  2
*D23
 10
2317.899627132799
 20
865.148744994477
 30
0.0
 11
2067.899627132799
 21
883.898744994477
 31
0.0
 70
    32
  1
50
 71
     5
 42
500.0
  3
ISO-25
100
AcDbAlignedDimension
 13
1817.899627132799
 23
711.188318796132
 33
0.0
 14
2317.899627132799
 24
705.1883187961321
 34
0.0
100
AcDbRotatedDimension
1001
ACAD
1000
DSTYLE
1002
{
1070
   371
1070
    18
1070
   372
1070
    18
1002
}
  0
LINE
  5
22CD
330
1F
100
AcDbEntity
  8
実形
100
AcDbLine
 10
2317.899627132799
 20
691.7745986296069
 30
0.0
 11
2317.899627132799
 21
621.7745986296068
 31
0.0
  0
LINE
  5
22CE
330
1F
100
AcDbEntity
  8
実形
100
AcDbLine
 10
2267.899627132799
 20
741.7745986296067
 30
0.0
 11
2317.899627132799
 21
691.7745986296067
 31
0.0
  0
DIMENSION
  5
22CF
330
1F
100
AcDbEntity
  8
実形
100
AcDbDimension
  2
*D24
 10
2389.409955385397
 20
691.7745986296067
 30
0.0
 11
2370.659955385397
 21
716.7745986296071
 31
0.0
 70
    32
  1
5
 71
     5
 42
50.0
  3
ISO-25
100
AcDbAlignedDimension
 13
2281.301992771529
 23
741.7745986296067
 33
0.0
 14
2281.301992771529
 24
691.7745986296067
 34
0.0
 50
90.0
100
AcDbRotatedDimension
1001
ACAD
1000
DSTYLE
1002
{
1070
   371
1070
    18
1070
   372
1070
    18
1002
}
  0
DIMENSION
  5
22D0
330
1F
100
AcDbEntity
  8
実形
100
AcDbDimension
  2
*D25
 10
2317.899627132799
 20
817.6685318953046
 30
0.0
 11
2292.899627132799
 21
836.4185318953046
 31
0.0
 70
    32
  1
5
 71
     5
 42
50.0
  3
ISO-25
100
AcDbAlignedDimension
 13
2267.899627132799
 23
705.1883187961321
 33
0.0
 14
2317.899627132799
 24
705.1883187961321
 34
0.0
100
AcDbRotatedDimension
1001
ACAD
1000
DSTYLE
1002
{
1070
   371
1070
    18
1070
   372
1070
    18
1002
}
  0
TEXT
  5
22D1
330
1F
100
AcDbEntity
  8
実形
  6
HIDDEN2
100
AcDbText
 10
2144.945147181634
 20
638.6576570747565
 30
0.0
 40
13.0
  1
● 
 71
     2
100
AcDbText
  0
TEXT
  5
22D2
330
1F
100
AcDbEntity
  8
実形
  6
HIDDEN2
100
AcDbText
 10
2144.467519080574
 20
616.2156961895816
 30
0.0
 40
13.0
  1
● 
 71
     2
100
AcDbText
  0
DIMENSION
  5
22D3
330
1F
100
AcDbEntity
  8
実形
100
AcDbDimension
  2
*D26
 10
2091.1279909282
 20
621.7745986296067
 30
0.0
 11
2072.377990928199
 21
646.7745986296071
 31
0.0
 70
    32
  1
5
 71
     5
 42
50.0
  3
ISO-25
100
AcDbAlignedDimension
 13
1996.610652705695
 23
671.7745986296067
 33
0.0
 14
1996.610652705695
 24
621.7745986296067
 34
0.0
 50
90.0
100
AcDbRotatedDimension
1001
ACAD
1000
DSTYLE
1002
{
1070
   371
1070
    18
1070
   372
1070
    18
1002
}
  0
LEADER
  5
22D4
330
1F
100
AcDbEntity
  8
実形
100
AcDbLeader
  3
ISO-25
 76
     2
 10
1808.619821546484
 20
612.1978858294769
 30
0.0
 10
1701.016748162185
 20
544.5826408523116
 30
0.0
1001
ACAD
1000
DSTYLE
1002
{
1070
   147
1040
6.25
1070
    77
1070
     0
1070
   371
1070
    18
1070
   372
1070
    18
1002
}
  0
TEXT
  5
22D5
330
1F
100
AcDbEntity
  8
実形
100
AcDbText
 10
2130.219165043888
 20
627.9919864037419
 30
0.0
 40
25.0
  1
3
 50
90.0
 11
2133.552498377222
 21
627.9919864037419
 31
0.0
100
AcDbText
 73
     1
  0
LEADER
  5
22D6
330
1F
100
AcDbEntity
  8
実形
100
AcDbLeader
  3
ISO-25
 76
     2
 10
2322.80379030641
 20
616.8598495531641
 30
0.0
 10
2398.553954792958
 20
569.2926377726962
 30
0.0
1001
ACAD
1000
DSTYLE
1002
{
1070
   147
1040
6.25
1070
    77
1070
     0
1070
   371
1070
    18
1070
   372
1070
    18
1002
}
  0
LEADER
  5
22D7
330
1F
100
AcDbEntity
  8
実形
100
AcDbLeader
  3
ISO-25
 76
     2
 10
2303.255273845019
 20
734.3053176605372
 30
0.0
 10
2432.518009127802
 20
815.3861860887101
 30
0.0
1001
ACAD
1000
DSTYLE
1002
{
1070
   147
1040
6.25
1070
    77
1070
     0
1070
   371
1070
    18
1070
   372
1070
    18
1002
}
  0
LEADER
  5
22D8
330
1F
100
AcDbEntity
  8
実形
100
AcDbLeader
  3
ISO-25
 76
     2
 10
1868.132181531267
 20
457.1562668605093
 30
0.0
 10
1696.752901796543
 20
317.3384005179905
 30
0.0
1001
ACAD
1000
DSTYLE
1002
{
1070
   147
1040
6.25
1070
    77
1070
     0
1070
   371
1070
    18
1070
   372
1070
    18
1002
}
  0
TEXT
  5
22D9
330
1F
100
AcDbEntity
  8
実形
100
AcDbText
 10
1950.122021996694
 20
679.8525598878168
 30
0.0
 40
25.0
  1
2
 50
90.0
 11
1953.455355330027
 21
679.8525598878168
 31
0.0
100
AcDbText
 73
     1
  0
LINE
  5
22DA
330
1F
100
AcDbEntity
  8
実形
100
AcDbLine
 10
1966.866492664204
 20
690.6858617352754
 30
0.0
 11
1991.031584471474
 21
690.6858617352754
 31
0.0
  0
DIMENSION
  5
22DB
330
1F
100
AcDbEntity
  8
実形
100
AcDbDimension
  2
*D27
 10
2077.899627132798
 20
489.0759292349884
 30
0.0
 11
1987.899627132798
 21
507.8259292349884
 31
0.0
 70
    32
  1
18
 71
     5
 42
180.0
  3
ISO-25
100
AcDbAlignedDimension
 13
1897.899627132798
 23
577.5399579777349
 33
0.0
 14
2077.899627132798
 24
577.5399579777349
 34
0.0
100
AcDbRotatedDimension
1001
ACAD
1000
DSTYLE
1002
{
1070
   371
1070
    18
1070
   372
1070
    18
1002
}
  0
DIMENSION
  5
22DC
330
1F
100
AcDbEntity
  8
実形
100
AcDbDimension
  2
*D28
 10
2125.611732425682
 20
543.3475735696974
 30
0.0
 11
2106.861732425683
 21
578.3475735696978
 31
0.0
 70
    32
  1
7
 71
     5
 42
70.0
  3
ISO-25
100
AcDbAlignedDimension
 13
2042.667552183736
 23
613.3475735696975
 33
0.0
 14
2042.667552183736
 24
543.3475735696974
 34
0.0
 50
90.0
100
AcDbRotatedDimension
1001
ACAD
1000
DSTYLE
1002
{
1070
   371
1070
    18
1070
   372
1070
    18
1002
}
  0
TEXT
  5
22DD
330
1F
100
AcDbEntity
  8
実形
370
    18
100
AcDbText
 10
1647.952023221997
 20
935.6785898056941
 30
0.0
 40
40.0
  1
A-A´断面詳細図
100
AcDbText
  0
LINE
  5
22DE
330
1F
100
AcDbEntity
  8
実形
100
AcDbLine
 10
1979.735758068987
 20
613.3475735696975
 30
0.0
 11
1962.760059772732
 21
613.3475735696975
 31
0.0
  0
LINE
  5
22DF
330
1F
100
AcDbEntity
  8
実形
100
AcDbLine
 10
1962.760059772732
 20
613.3475735696975
 30
0.0
 11
1962.760059772733
 21
643.3475735696974
 31
0.0
  0
TEXT
  5
22E0
330
1F
100
AcDbEntity
  8
実形
  6
HIDDEN2
100
AcDbText
 10
1968.625968949773
 20
607.4759836678931
 30
0.0
 40
13.0
  1
● 
 71
     2
100
AcDbText
  0
TEXT
  5
22E1
330
1F
100
AcDbEntity
  8
実形
  6
HIDDEN2
100
AcDbText
 10
1968.426390955703
 20
636.006153542412
 30
0.0
 40
13.0
  1
● 
 71
     2
100
AcDbText
  0
TEXT
  5
22E2
330
1F
100
AcDbEntity
  8
実形
100
AcDbText
 10
1943.306793804806
 20
614.1722475894339
 30
0.0
 40
25.0
  1
3
 50
90.0
 11
1946.640127138139
 21
614.1722475894339
 31
0.0
100
AcDbText
 73
     1
  0
LINE
  5
22E3
330
1F
100
AcDbEntity
  8
実形
100
AcDbLine
 10
1997.388073958595
 20
689.3203850017734
 30
0.0
 11
1997.388073958595
 21
701.887567216354
 31
0.0
  0
LINE
  5
22E4
330
1F
100
AcDbEntity
  8
実形
100
AcDbLine
 10
1997.388073958595
 20
701.887567216354
 30
0.0
 11
2047.388073958595
 21
701.887567216354
 31
0.0
  0
LINE
  5
22E5
330
1F
100
AcDbEntity
  8
実形
100
AcDbLine
 10
2047.388073958595
 20
701.887567216354
 30
0.0
 11
2047.388073958595
 21
689.3203850017734
 31
0.0
  0
LINE
  5
22E6
330
1F
100
AcDbEntity
  8
実形
100
AcDbLine
 10
2037.388073958595
 20
701.887567216354
 30
0.0
 11
2037.388073958595
 21
689.3203850017734
 31
0.0
  0
TEXT
  5
22E7
330
1F
100
AcDbEntity
  8
実形
370
    18
100
AcDbText
 10
1994.600818876664
 20
713.3745043081298
 30
0.0
 40
21.0
  1
4
100
AcDbText
  0
TEXT
  5
22E8
330
1F
100
AcDbEntity
  8
実形
  6
HIDDEN2
100
AcDbText
 10
2003.3181555003
 20
695.656007764187
 30
0.0
 40
11.0
  1
● 
 71
     2
100
AcDbText
  0
TEXT
  5
22E9
330
1F
100
AcDbEntity
  8
実形
  6
HIDDEN2
100
AcDbText
 10
2042.763207470307
 20
695.4612187641778
 30
0.0
 40
11.0
  1
● 
 71
     2
100
AcDbText
  0
TEXT
  5
22EA
330
1F
100
AcDbEntity
  8
実形
  6
HIDDEN2
100
AcDbText
 10
2052.625333600898
 20
695.6827726649517
 30
0.0
 40
11.0
  1
● 
 71
     2
100
AcDbText
  0
TEXT
  5
22EB
330
1F
100
AcDbEntity
  8
実形
370
    18
100
AcDbText
 10
2037.911668312217
 20
712.525535607403
 30
0.0
 40
21.0
  1
1
100
AcDbText
  0
DIMENSION
  5
22EC
330
1F
100
AcDbEntity
  8
実形
100
AcDbDimension
  2
*D29
 10
2167.899627132798
 20
804.2436145081255
 30
0.0
 11
2107.899627132798
 21
822.9936145081255
 31
0.0
 70
    32
  1
12
 71
     5
 42
120.0
  3
ISO-25
100
AcDbAlignedDimension
 13
2047.899627132798
 23
711.6596186260776
 33
0.0
 14
2167.899627132798
 24
708.104142275144
 34
0.0
100
AcDbRotatedDimension
1001
ACAD
1000
DSTYLE
1002
{
1070
   371
1070
    18
1070
   372
1070
    18
1002
}
  0
LINE
  5
23F6
330
1F
100
AcDbEntity
  8
実形
100
AcDbLine
 10
2784.0
 20
1829.0
 30
0.0
 11
2019.387286519283
 21
1829.0
 31
0.0
  0
LINE
  5
23F7
330
1F
100
AcDbEntity
  8
実形
100
AcDbLine
 10
2202.547653420927
 20
1828.999999999999
 30
0.0
 11
2202.547653420927
 21
2024.0
 31
0.0
  0
LINE
  5
23F8
330
1F
100
AcDbEntity
  8
実形
100
AcDbLine
 10
2019.387286519283
 20
1828.999999999999
 30
0.0
 11
2019.387286519283
 21
2024.0
 31
0.0
  0
LINE
  5
23F9
330
1F
100
AcDbEntity
  8
実形
100
AcDbLine
 10
2559.0
 20
1828.999999999999
 30
0.0
 11
2559.0
 21
2024.0
 31
0.0
  0
TEXT
  5
23FA
330
1F
100
AcDbEntity
  8
実形
100
AcDbText
 10
2070.035283471818
 20
1846.908881478473
 30
0.0
 40
30.0
  1
天板
  7
明朝
 72
     4
 11
2113.920997757532
 21
1862.166024335616
 31
0.0
100
AcDbText
  0
TEXT
  5
23FB
330
1F
100
AcDbEntity
  8
実形
100
AcDbText
 10
2234.861046521259
 20
1847.890381562374
 30
0.0
 40
30.0
  1
ｱｸﾘﾙ人工大理石
  7
明朝
 72
     4
 11
2388.461046521259
 21
1863.747524419516
 31
0.0
100
AcDbText
  0
TEXT
  5
23FC
330
1F
100
AcDbEntity
  8
実形
100
AcDbText
 10
2607.993307313416
 20
1845.017877900232
 30
0.0
 40
30.0
  1
12ｍｍ
  7
明朝
 72
     4
 11
2673.821878741988
 21
1859.675020757374
 31
0.0
100
AcDbText
  0
LINE
  5
2433
330
1F
100
AcDbEntity
  8
実形
100
AcDbLine
 10
1548.879664025061
 20
1664.871555206367
 30
0.0
 11
1548.879664025061
 21
1329.871555206363
 31
0.0
  0
LINE
  5
2434
330
1F
100
AcDbEntity
  8
実形
100
AcDbLine
 10
1548.879664025061
 20
1329.871555206363
 30
0.0
 11
1548.879664025061
 21
1664.871555206367
 31
0.0
  0
LINE
  5
2435
330
1F
100
AcDbEntity
  8
実形
100
AcDbLine
 10
1548.879664025061
 20
1649.871555206368
 30
0.0
 11
1548.879664025061
 21
1667.871555206368
 31
0.0
  0
LINE
  5
2436
330
1F
100
AcDbEntity
  8
実形
100
AcDbLine
 10
1548.879664025061
 20
1667.871555206368
 30
0.0
 11
1541.879664025061
 21
1667.871555206368
 31
0.0
  0
LINE
  5
2437
330
1F
100
AcDbEntity
  8
実形
100
AcDbLine
 10
1541.879664025061
 20
1667.871555206368
 30
0.0
 11
1541.879664025061
 21
1694.871555206368
 31
0.0
  0
LINE
  5
2438
330
1F
100
AcDbEntity
  8
実形
100
AcDbLine
 10
1541.879664025061
 20
1694.871555206368
 30
0.0
 11
1534.879664025061
 21
1694.871555206368
 31
0.0
  0
LINE
  5
2439
330
1F
100
AcDbEntity
  8
実形
100
AcDbLine
 10
1529.879664025061
 20
1689.871555206368
 30
0.0
 11
1529.879664025061
 21
1329.871555206364
 31
0.0
  0
LINE
  5
243A
330
1F
100
AcDbEntity
  8
実形
100
AcDbLine
 10
1529.879664025061
 20
1689.871555206368
 30
0.0
 11
1534.879664025061
 21
1694.871555206368
 31
0.0
  0
LINE
  5
243B
330
1F
100
AcDbEntity
  8
実形
100
AcDbLine
 10
1548.879664025061
 20
1664.871555206367
 30
0.0
 11
1548.879664025061
 21
1329.871555206363
 31
0.0
  0
LINE
  5
243C
330
1F
100
AcDbEntity
  8
実形
100
AcDbLine
 10
1541.879664025061
 20
1329.871555206363
 30
0.0
 11
1541.879664025061
 21
1667.871555206368
 31
0.0
  0
LINE
  5
243D
330
1F
100
AcDbEntity
  8
実形
100
AcDbLine
 10
1548.879664025061
 20
1649.871555206368
 30
0.0
 11
1548.879664025061
 21
1667.871555206368
 31
0.0
  0
LINE
  5
243E
330
1F
100
AcDbEntity
  8
実形
100
AcDbLine
 10
1548.879664025061
 20
1329.871555206363
 30
0.0
 11
1548.879664025061
 21
1664.871555206367
 31
0.0
  0
LEADER
  5
243F
330
1F
100
AcDbEntity
  8
実形
100
AcDbLeader
  3
ISO-25
 40
25.0
 41
16.66666666666666
 76
     2
 10
1526.661235771651
 20
1698.921383486109
 30
0.0
 10
1486.07734553744
 20
1733.005262396158
 30
0.0
211
-1.0
221
0.0
231
0.0
213
0.0
223
-12.5
233
0.0
1001
ACAD
1000
DSTYLE
1002
{
1070
    41
1040
25.0
1070
   147
1040
6.25
1070
    77
1070
     0
1070
    73
1070
     1
1070
    74
1070
     1
1070
   279
1070
     1
1070
   342
1005
DA
1002
}
  0
TEXT
  5
2440
330
1F
100
AcDbEntity
  8
実形
100
AcDbText
 10
1453.630461306406
 20
1743.596868892016
 30
0.0
 40
25.0
  1
5C
100
AcDbText
  0
LINE
  5
2441
330
1F
100
AcDbEntity
  8
実形
100
AcDbLine
 10
1548.879664025061
 20
1329.871555206363
 30
0.0
 11
1529.879664025061
 21
1329.871555206363
 31
0.0
  0
LINE
  5
2442
330
1F
100
AcDbEntity
  8
実形
100
AcDbLine
 10
1548.879664025061
 20
1489.871555206366
 30
0.0
 11
1548.879664025061
 21
1314.871555206363
 31
0.0
  0
LINE
  5
2443
330
1F
100
AcDbEntity
  8
実形
100
AcDbLine
 10
1548.879664025061
 20
1314.871555206363
 30
0.0
 11
1548.879664025061
 21
1649.871555206368
 31
0.0
  0
LINE
  5
2444
330
1F
100
AcDbEntity
  8
実形
100
AcDbLine
 10
1548.879664025061
 20
1649.871555206368
 30
0.0
 11
1548.879664025061
 21
1314.871555206363
 31
0.0
  0
LINE
  5
2445
330
1F
100
AcDbEntity
  8
実形
100
AcDbLine
 10
1548.879664025061
 20
1329.871555206364
 30
0.0
 11
1548.879664025061
 21
1311.871555206363
 31
0.0
  0
LINE
  5
2446
330
1F
100
AcDbEntity
  8
実形
100
AcDbLine
 10
1548.879664025061
 20
1311.871555206363
 30
0.0
 11
1541.879664025061
 21
1311.871555206363
 31
0.0
  0
LINE
  5
2447
330
1F
100
AcDbEntity
  8
実形
100
AcDbLine
 10
1541.879664025061
 20
1311.871555206363
 30
0.0
 11
1541.879664025061
 21
1284.871555206363
 31
0.0
  0
LINE
  5
2448
330
1F
100
AcDbEntity
  8
実形
100
AcDbLine
 10
1541.879664025061
 20
1284.871555206363
 30
0.0
 11
1534.879664025061
 21
1284.871555206363
 31
0.0
  0
LINE
  5
2449
330
1F
100
AcDbEntity
  8
実形
100
AcDbLine
 10
1529.879664025061
 20
1289.871555206363
 30
0.0
 11
1529.879664025061
 21
1649.871555206368
 31
0.0
  0
LINE
  5
244A
330
1F
100
AcDbEntity
  8
実形
100
AcDbLine
 10
1529.879664025061
 20
1289.871555206363
 30
0.0
 11
1534.879664025061
 21
1284.871555206363
 31
0.0
  0
LINE
  5
244B
330
1F
100
AcDbEntity
  8
実形
100
AcDbLine
 10
1548.879664025061
 20
1314.871555206364
 30
0.0
 11
1548.879664025061
 21
1649.871555206368
 31
0.0
  0
LINE
  5
244C
330
1F
100
AcDbEntity
  8
実形
100
AcDbLine
 10
1541.879664025061
 20
1649.871555206368
 30
0.0
 11
1541.879664025061
 21
1311.871555206363
 31
0.0
  0
LINE
  5
244D
330
1F
100
AcDbEntity
  8
実形
100
AcDbLine
 10
1548.879664025061
 20
1329.871555206364
 30
0.0
 11
1548.879664025061
 21
1311.871555206363
 31
0.0
  0
LINE
  5
244E
330
1F
100
AcDbEntity
  8
実形
100
AcDbLine
 10
1548.879664025061
 20
1649.871555206368
 30
0.0
 11
1548.879664025061
 21
1314.871555206363
 31
0.0
  0
LEADER
  5
244F
330
1F
100
AcDbEntity
  8
実形
100
AcDbLeader
  3
ISO-25
 40
25.0
 41
16.66666666666666
 76
     2
 10
1526.661235771651
 20
1280.821726926622
 30
0.0
 10
1486.07734553744
 20
1246.737848016573
 30
0.0
211
-1.0
221
0.0
231
0.0
213
0.0
223
12.5
233
0.0
1001
ACAD
1000
DSTYLE
1002
{
1070
    41
1040
25.0
1070
   147
1040
6.25
1070
    77
1070
     0
1070
    73
1070
     1
1070
    74
1070
     1
1070
   279
1070
     1
1070
   342
1005
DA
1002
}
  0
TEXT
  5
2458
330
1F
100
AcDbEntity
  8
実形
100
AcDbText
 10
1458.010669587694
 20
1213.256741712583
 30
0.0
 40
25.0
  1
5C
100
AcDbText
  0
LINE
  5
245A
330
1F
100
AcDbEntity
  8
実形
100
AcDbLine
 10
1269.629431614299
 20
1289.871555206363
 30
0.0
 11
1269.6294316143
 21
1689.871555206365
 31
0.0
  0
LINE
  5
245C
330
1F
100
AcDbEntity
  8
実形
100
AcDbLine
 10
754.6294316143027
 20
1694.871555206364
 30
0.0
 11
1264.629431614299
 21
1694.871555206365
 31
0.0
  0
LINE
  5
245E
330
1F
100
AcDbEntity
  8
実形
100
AcDbLine
 10
754.629431614303
 20
1284.871555206363
 30
0.0
 11
1264.629431614299
 21
1284.871555206363
 31
0.0
  0
LINE
  5
2460
330
1F
100
AcDbEntity
  8
実形
100
AcDbLine
 10
749.6294316143031
 20
1289.871555206363
 30
0.0
 11
749.6294316143031
 21
1689.871555206365
 31
0.0
  0
LINE
  5
24BB
330
1F
100
AcDbEntity
  8
実形
100
AcDbLine
 10
1264.6294316143
 20
1694.871555206365
 30
0.0
 11
1269.629431614299
 21
1689.871555206365
 31
0.0
  0
LINE
  5
24D4
330
1F
100
AcDbEntity
  8
実形
100
AcDbLine
 10
1286.739948641116
 20
1694.871555206365
 30
0.0
 11
1337.486738400599
 21
1694.871555206365
 31
0.0
  0
HATCH
  5
24D5
330
1F
100
AcDbEntity
  8
実形
100
AcDbHatch
 10
0.0
 20
0.0
 30
0.0
210
0.0
220
0.0
230
1.0
  2
SOLID
 70
     1
 71
     0
 91
        2
 92
        7
 72
     1
 73
     1
 93
        5
 10
1339.815168952771
 20
1688.343698971187
 42
0.4215773900128738
 10
1336.739948641116
 20
1691.342755807046
 42
0.0
 10
1336.739948641116
 20
1688.443878119726
 42
0.0
 10
1333.816842062955
 20
1688.443878119726
 42
0.008350008729447
 10
1333.815168952771
 20
1688.343698971187
 42
1.0
 97
        0
 92
       23
 72
     1
 73
     1
 93
        3
 10
1336.739948641116
 20
1691.342755807046
 42
0.3971884163904237
 10
1333.816842062955
 20
1688.443878119726
 42
0.0
 10
1336.739948641116
 20
1688.443878119726
 42
0.0
 97
        0
 75
     0
 76
     1
 47
0.0692370396617612
 98
        2
 10
1337.514699955786
 20
1687.775512357334
 10
1335.57546544206
 20
1689.783379398423
  0
LINE
  5
24D6
330
1F
100
AcDbEntity
  8
実形
100
AcDbLine
 10
1286.739948641116
 20
1688.443878119726
 30
0.0
 11
1336.739948641116
 21
1688.443878119726
 31
0.0
  0
LINE
  5
24D7
330
1F
100
AcDbEntity
  8
実形
100
AcDbLine
 10
1269.6294316143
 20
1710.242053837243
 30
0.0
 11
1269.6294316143
 21
1760.242053837243
 31
0.0
  0
LINE
  5
24D8
330
1F
100
AcDbEntity
  8
実形
100
AcDbLine
 10
1263.199431614299
 20
1710.242053837243
 30
0.0
 11
1263.1994316143
 21
1760.242053837243
 31
0.0
  0
LINE
  5
24D9
330
1F
100
AcDbEntity
  8
実形
100
AcDbLine
 10
1336.739948641116
 20
1688.443878119726
 30
0.0
 11
1336.739948641116
 21
1694.871555206365
 31
0.0
  0
LINE
  5
24DA
330
1F
100
AcDbEntity
  8
実形
100
AcDbLine
 10
1263.1994316143
 20
1760.242053837243
 30
0.0
 11
1269.6294316143
 21
1760.242053837243
 31
0.0
  0
TEXT
  5
24DB
330
1F
100
AcDbEntity
  8
実形
370
    18
100
AcDbText
 10
1259.456178601402
 20
1773.311183146347
 30
0.0
 40
25.0
  1
5
100
AcDbText
  0
TEXT
  5
24DC
330
1F
100
AcDbEntity
  8
実形
370
    18
100
AcDbText
 10
1326.950541062879
 20
1768.636339892734
 30
0.0
 40
25.0
  1
5C
100
AcDbText
  0
LEADER
  5
24DD
330
1F
100
AcDbEntity
  8
実形
100
AcDbLeader
  3
ISO-25
 40
25.0
 41
16.66666666666666
 76
     2
 10
1280.576562761957
 20
1700.275581229306
 30
0.0
 10
1337.168543359001
 20
1757.635760565249
 30
0.0
213
0.0
223
-12.5
233
0.0
1001
ACAD
1000
DSTYLE
1002
{
1070
    41
1040
25.0
1070
   147
1040
6.25
1070
    77
1070
     0
1070
    73
1070
     1
1070
    74
1070
     1
1070
   279
1070
     1
1070
   342
1005
DA
1002
}
  0
TEXT
  5
24DE
330
1F
100
AcDbEntity
  8
実形
370
    18
100
AcDbText
 10
1379.500145221502
 20
1683.875048561126
 30
0.0
 40
25.0
  1
5
 50
90.0
100
AcDbText
  0
CIRCLE
  5
24DF
330
1F
100
AcDbEntity
  8
実形
100
AcDbCircle
 10
1336.815168952771
 20
1688.343698971187
 30
0.0
 40
3.0
  0
HATCH
  5
24E0
330
1F
100
AcDbEntity
  8
実形
100
AcDbHatch
 10
0.0
 20
0.0
 30
0.0
210
0.0
220
0.0
230
1.0
  2
SOLID
 70
     1
 71
     0
 91
        2
 92
        7
 72
     1
 73
     1
 93
        5
 10
1339.913250631949
 20
1694.998971314388
 42
0.4215773900128738
 10
1336.838030320294
 20
1697.998028150248
 42
0.0
 10
1336.838030320294
 20
1695.099150462928
 42
0.0
 10
1333.914923742133
 20
1695.099150462928
 42
0.008350008729447
 10
1333.913250631949
 20
1694.998971314388
 42
1.0
 97
        0
 92
       23
 72
     1
 73
     1
 93
        3
 10
1336.838030320294
 20
1697.998028150248
 42
0.3971884163904237
 10
1333.914923742133
 20
1695.099150462927
 42
0.0
 10
1336.838030320294
 20
1695.099150462927
 42
0.0
 97
        0
 75
     0
 76
     1
 47
0.0692370396617612
 98
        2
 10
1337.612781634964
 20
1694.430784700535
 10
1335.673547121238
 20
1696.438651741624
  0
CIRCLE
  5
24E1
330
1F
100
AcDbEntity
  8
実形
100
AcDbCircle
 10
1336.913250631949
 20
1694.998971314388
 30
0.0
 40
3.0
  0
HATCH
  5
24E2
330
1F
100
AcDbEntity
  8
実形
100
AcDbHatch
 10
0.0
 20
0.0
 30
0.0
210
0.0
220
0.0
230
1.0
  2
SOLID
 70
     1
 71
     0
 91
        2
 92
        7
 72
     1
 73
     1
 93
        5
 10
1266.094014213133
 20
1760.303811339289
 42
0.4215773900128738
 10
1263.018793901478
 20
1763.302868175149
 42
0.0
 10
1263.018793901478
 20
1760.403990487828
 42
0.0
 10
1260.095687323316
 20
1760.403990487828
 42
0.008350008729447
 10
1260.094014213133
 20
1760.303811339289
 42
1.0
 97
        0
 92
       23
 72
     1
 73
     1
 93
        3
 10
1263.018793901478
 20
1763.302868175149
 42
0.3971884163904237
 10
1260.095687323316
 20
1760.403990487828
 42
0.0
 10
1263.018793901478
 20
1760.403990487828
 42
0.0
 97
        0
 75
     0
 76
     1
 47
0.0692370396617612
 98
        2
 10
1263.793545216147
 20
1759.735624725436
 10
1261.854310702422
 20
1761.743491766526
  0
CIRCLE
  5
24E3
330
1F
100
AcDbEntity
  8
実形
100
AcDbCircle
 10
1263.094014213133
 20
1760.303811339289
 30
0.0
 40
3.0
  0
HATCH
  5
24E4
330
1F
100
AcDbEntity
  8
実形
100
AcDbHatch
 10
0.0
 20
0.0
 30
0.0
210
0.0
220
0.0
230
1.0
  2
SOLID
 70
     1
 71
     0
 91
        2
 92
        7
 72
     1
 73
     1
 93
        5
 10
1272.469457575078
 20
1760.303811339289
 42
0.4215773900128738
 10
1269.394237263423
 20
1763.302868175149
 42
0.0
 10
1269.394237263423
 20
1760.403990487828
 42
0.0
 10
1266.471130685262
 20
1760.403990487828
 42
0.008350008729447
 10
1266.469457575078
 20
1760.303811339289
 42
1.0
 97
        0
 92
       23
 72
     1
 73
     1
 93
        3
 10
1269.394237263423
 20
1763.302868175149
 42
0.3971884163904237
 10
1266.471130685262
 20
1760.403990487828
 42
0.0
 10
1269.394237263423
 20
1760.403990487828
 42
0.0
 97
        0
 75
     0
 76
     1
 47
0.0692370396617612
 98
        2
 10
1270.168988578093
 20
1759.735624725436
 10
1268.229754064367
 20
1761.743491766526
  0
CIRCLE
  5
24E5
330
1F
100
AcDbEntity
  8
実形
100
AcDbCircle
 10
1269.469457575078
 20
1760.303811339289
 30
0.0
 40
3.0
  0
LINE
  5
2578
330
1F
100
AcDbEntity
  8
実形
100
AcDbLine
 10
1264.629431614299
 20
1284.871555206363
 30
0.0
 11
1269.629431614299
 21
1289.871555206363
 31
0.0
  0
LINE
  5
257A
330
1F
100
AcDbEntity
  8
実形
100
AcDbLine
 10
749.6294316143031
 20
1289.871555206363
 30
0.0
 11
754.6294316143031
 21
1284.871555206363
 31
0.0
  0
LINE
  5
257C
330
1F
100
AcDbEntity
  8
実形
100
AcDbLine
 10
749.6294316143031
 20
1689.871555206365
 30
0.0
 11
754.6294316143031
 21
1694.871555206365
 31
0.0
  0
TEXT
  5
2586
330
1F
100
AcDbEntity
  8
実形
370
    18
100
AcDbText
 10
1144.421504483284
 20
1472.321167543908
 30
0.0
 40
40.0
  1
A     A
100
AcDbText
  0
LINE
  5
2587
330
1F
100
AcDbEntity
  8
実形
  6
ACAD_ISO08W100
 48
0.5
370
    15
100
AcDbLine
 10
1198.606290647638
 20
1489.939834952301
 30
0.0
 11
1294.334146282853
 21
1489.939834952301
 31
0.0
  0
LINE
  5
2588
330
1F
100
AcDbEntity
  8
実形
100
AcDbLine
 10
1333.564894915526
 20
1506.256660584078
 30
0.0
 11
1343.541395700708
 21
1517.892307024506
 31
0.0
  0
TEXT
  5
267A
330
1F
100
AcDbEntity
  8
実形
100
AcDbText
 10
161.9866661664982
 20
58.14426619328606
 30
0.0
 40
30.0
  1
※実寸には製造上の誤差(+5/-1mm)が生ずる場合があります｡シンクの穴あけ加工は現物合わせにてお願いします。
100
AcDbText
  0
VIEWPORT
  5
2E
102
{ACAD_XDICTIONARY
360
2690
102
}
330
1B
100
AcDbEntity
 67
     1
  8
0
100
AcDbViewport
 10
85.47314070062819
 20
136.4014440802307
 30
0.0
 40
142.7278235547217
 41
125.026884683728
 68
     1
 69
     1
 12
85.47314070062819
 22
136.4014440802307
 13
0.0
 23
0.0
 14
10.0
 24
10.0
 15
10.0
 25
10.0
 16
0.0
 26
0.0
 36
1.0
 17
0.0
 27
0.0
 37
0.0
 42
50.0
 43
0.0
 44
0.0
 45
125.026884683728
 50
0.0
 51
0.0
 72
   100
 90
    32800
  1

281
     0
 71
     1
 74
     0
110
0.0
120
0.0
130
0.0
111
1.0
121
0.0
131
0.0
112
0.0
122
1.0
132
0.0
 79
     0
146
0.0
  0
VIEWPORT
  5
30
102
{ACAD_XDICTIONARY
360
2692
102
}
330
1B
100
AcDbEntity
 67
     1
  8
0
100
AcDbViewport
 10
139.2237563133239
 20
101.2295821905136
 30
0.0
 40
222.7580101013184
 41
161.9673315048218
 68
     2
 69
     2
 12
210.0
 22
148.5
 13
0.0
 23
0.0
 14
10.0
 24
10.0
 15
10.0
 25
10.0
 16
0.0
 26
0.0
 36
1.0
 17
0.0
 27
0.0
 37
0.0
 42
50.0
 43
0.0
 44
0.0
 45
309.0686705647124
 50
0.0
 51
0.0
 72
   100
 90
    32864
  1

281
     0
 71
     1
 74
     0
110
0.0
120
0.0
130
0.0
111
1.0
121
0.0
131
0.0
112
0.0
122
1.0
132
0.0
 79
     0
146
0.0
  0
ENDSEC
  0
SECTION
  2
OBJECTS
  0
DICTIONARY
  5
C
330
0
100
AcDbDictionary
281
     1
  3
ACAD_COLOR
350
1157
  3
ACAD_GROUP
350
D
  3
ACAD_LAYOUT
350
1A
  3
ACAD_MATERIAL
350
1156
  3
ACAD_MLINESTYLE
350
17
  3
ACAD_PLOTSETTINGS
350
19
  3
ACAD_PLOTSTYLENAME
350
E
  3
ACAD_TABLESTYLE
350
1158
  3
AcadDim
350
124
  3
ACDBHEADERROUNDTRIPXREC
350
268A
  3
AcDbVariableDictionary
350
116B
  0
DICTIONARY
  5
12C0
330
2
100
AcDbDictionary
280
     1
281
     1
  3
ACAD_LAYERFILTERS
360
1346
  3
ACAD_LAYERSTATES
360
12C1
  3
ACLYDICTIONARY
360
1345
  0
DICTIONARY
  5
1381
330
1F
100
AcDbDictionary
280
     1
281
     1
  3
ACAD_SORTENTS
360
1382
  0
DICTIONARY
  5
2690
330
2E
100
AcDbDictionary
280
     1
281
     1
  3
ACAD_XREC_ROUNDTRIP
360
2691
  0
DICTIONARY
  5
2692
330
30
100
AcDbDictionary
280
     1
281
     1
  3
ACAD_XREC_ROUNDTRIP
360
2693
  0
DICTIONARY
  5
1157
102
{ACAD_REACTORS
330
C
102
}
330
C
100
AcDbDictionary
281
     1
  0
DICTIONARY
  5
D
102
{ACAD_REACTORS
330
C
102
}
330
C
100
AcDbDictionary
281
     1
  0
DICTIONARY
  5
1A
102
{ACAD_REACTORS
330
C
102
}
330
C
100
AcDbDictionary
281
     1
  3
Model
350
22
  3
ﾚｲｱｳﾄ1
350
1E
  3
ﾚｲｱｳﾄ2
350
26
  0
DICTIONARY
  5
1156
102
{ACAD_REACTORS
330
C
102
}
330
C
100
AcDbDictionary
281
     1
  0
DICTIONARY
  5
17
102
{ACAD_REACTORS
330
C
102
}
330
C
100
AcDbDictionary
281
     1
  3
Standard
350
18
  0
DICTIONARY
  5
19
102
{ACAD_REACTORS
330
C
102
}
330
C
100
AcDbDictionary
281
     1
  0
ACDBDICTIONARYWDFLT
  5
E
102
{ACAD_REACTORS
330
C
102
}
330
C
100
AcDbDictionary
281
     1
  3
Normal
350
F
100
AcDbDictionaryWithDefault
340
F
  0
DICTIONARY
  5
1158
102
{ACAD_REACTORS
330
C
102
}
330
C
100
AcDbDictionary
281
     1
  3
Standard
350
1159
  0
XRECORD
  5
124
102
{ACAD_REACTORS
330
C
102
}
330
C
100
AcDbXrecord
280
     1
 90
   990106
  3

 60
     0
 61
     0
 62
     1
 63
     3
 64
     0
 65
     0
 66
     0
 67
     3
 68
     1
 69
     0
 70
     0
 71
     0
 72
     0
 40
30.0
170
     0
  0
DICTIONARY
  5
268A
102
{ACAD_REACTORS
330
C
102
}
330
C
100
AcDbDictionary
281
     1
  0
DICTIONARY
  5
116B
102
{ACAD_REACTORS
330
C
102
}
330
C
100
AcDbDictionary
281
     1
  3
CTABLESTYLE
350
116C
  3
DIMASSOC
350
2687
  3
PROJECTNAME
350
2688
  0
DICTIONARY
  5
1346
102
{ACAD_REACTORS
330
12C0
102
}
330
12C0
100
AcDbDictionary
281
     1
  0
DICTIONARY
  5
12C1
102
{ACAD_REACTORS
330
12C0
102
}
330
12C0
100
AcDbDictionary
281
     1
  0
DICTIONARY
  5
1345
102
{ACAD_REACTORS
330
12C0
102
}
330
12C0
100
AcDbDictionary
281
     1
1001
ACAD
1000
<All
  0
SORTENTSTABLE
  5
1382
102
{ACAD_REACTORS
330
1381
102
}
330
1381
100
AcDbSortentsTable
330
1F
331
22B0
  5
22BD
331
1FCA
  5
213E
331
22B8
  5
22C5
331
2171
  5
217A
331
22C0
  5
22CD
331
201A
  5
2142
331
2448
  5
245E
331
22C8
  5
22D5
331
2458
  5
24D7
331
2460
  5
216E
331
1F8F
  5
1FCB
331
1D79
  5
1EA3
331
1E91
  5
1EA9
331
1F97
  5
20FF
331
137C
  5
1380
331
1126
  5
112A
331
22D0
  5
22DD
331
2181
  5
21BD
331
22D8
  5
22E5
331
22A1
  5
22AE
331
22E0
  5
23F6
331
22A9
  5
22B6
331
2142
  5
1D9C
331
22E8
  5
2434
331
23F9
  5
243C
331
24D8
  5
24DD
331
1A14
  5
1C58
331
112E
  5
1132
331
2439
  5
2446
331
24E0
  5
24E5
331
1EA1
  5
1EAD
331
1D1A
  5
1D65
331
1136
  5
113A
331
2441
  5
244E
331
1EA9
  5
1F0D
331
113E
  5
127B
331
1F80
  5
1F91
331
22B1
  5
22BE
331
1FCB
  5
213D
331
22B9
  5
22C6
331
1FEB
  5
2141
331
2172
  5
217B
331
22C1
  5
22CE
331
22C9
  5
22D6
331
2449
  5
2460
331
1F90
  5
1FCD
331
1D7A
  5
1EA4
331
1375
  5
1379
331
1F98
  5
2125
331
1E92
  5
1EAA
331
137D
  5
1405
331
1127
  5
112B
331
2182
  5
22A2
331
22D1
  5
22DE
331
22D9
  5
22E6
331
22A2
  5
22AF
331
213B
  5
190A
331
22E1
  5
23F7
331
2143
  5
1E91
331
22AA
  5
22B7
331
22E9
  5
2435
331
23FA
  5
243D
331
2578
  5
257A
331
24D9
  5
24DE
331
1A15
  5
1C59
331
112F
  5
1133
331
243A
  5
2447
331
24E1
  5
24E6
331
1EA2
  5
1EAE
331
1C54
  5
1D17
331
1137
  5
113B
331
1D1B
  5
1D66
331
2442
  5
244F
331
1F79
  5
1F8B
331
1EAA
  5
1F79
331
113F
  5
127D
331
216B
  5
2171
331
22B2
  5
22BF
331
1FEC
  5
2140
331
2173
  5
217C
331
22BA
  5
22C7
331
217B
  5
2181
331
22C2
  5
22CF
331
22CA
  5
22D7
331
244A
  5
24B9
331
245A
  5
214B
331
1F91
  5
1FCE
331
1D7B
  5
1EA5
331
1376
  5
137A
331
137E
  5
1407
331
2183
  5
22A3
331
22D2
  5
22DF
331
22DA
  5
22E7
331
22A3
  5
22B0
331
22E2
  5
23F8
331
2144
  5
1E9E
331
22AB
  5
22B8
331
22EA
  5
2436
331
23FB
  5
243E
331
2433
  5
2440
331
24DA
  5
24DF
331
1128
  5
112C
331
243B
  5
2448
331
24E2
  5
24E7
331
1130
  5
1134
331
1F0A
  5
1F85
331
1EA3
  5
1EAF
331
1C55
  5
1D18
331
2443
  5
2458
331
1138
  5
113C
331
1D1C
  5
1D67
331
1F7A
  5
1F8C
331
1140
  5
127E
331
1EAB
  5
1F7A
331
1F82
  5
1F92
331
1FCD
  5
213F
331
216C
  5
2172
331
22B3
  5
22C0
331
2174
  5
217D
331
22BB
  5
22C8
331
217C
  5
2182
331
201D
  5
2144
331
22C3
  5
22D0
331
9C
  5
9C
331
23F6
  5
2439
331
20F5
  5
2145
331
22CB
  5
22D8
331
244B
  5
24BA
331
1F8A
  5
1F98
331
1F92
  5
1FCF
331
1D7C
  5
1EA6
331
24BB
  5
24D8
331
1377
  5
137B
331
1F9A
  5
2126
331
1E94
  5
1EAB
331
137F
  5
1408
331
2184
  5
22A4
331
22D3
  5
22E0
331
22DB
  5
22E8
331
213D
  5
1A11
331
22A4
  5
22B1
331
22E3
  5
23F9
331
2145
  5
1D7C
331
1FC6
  5
213B
331
22AC
  5
22B9
331
22EB
  5
2437
331
23FC
  5
243F
331
257A
  5
257B
331
2434
  5
2441
331
24DB
  5
24E0
331
1129
  5
112D
331
243C
  5
2449
331
24E3
  5
24FA
331
1131
  5
1135
331
1F0B
  5
1F86
331
1EA4
  5
1EB1
331
1C56
  5
1D1A
331
2444
  5
245A
331
1139
  5
113D
331
1141
  5
127F
331
1EAC
  5
1F7C
331
1F83
  5
1F93
331
1EB4
  5
1F84
331
216D
  5
2173
331
22B4
  5
22C1
331
2175
  5
2180
331
22BC
  5
22C9
331
217D
  5
2183
331
201E
  5
2143
331
22C4
  5
22D1
331
23F7
  5
243A
331
22CC
  5
22D9
331
A5
  5
2E6
331
244C
  5
24BB
331
245C
  5
22AC
331
1F8B
  5
1F99
331
1F93
  5
201A
331
1D7D
  5
1EA7
331
1378
  5
137C
331
1F9B
  5
2127
331
1380
  5
A0
331
2185
  5
22A5
331
22D4
  5
22E1
331
2126
  5
2147
331
22DC
  5
22E9
331
213E
  5
1A15
331
22A5
  5
22B2
331
22E4
  5
23FA
331
2146
  5
1D79
331
22AD
  5
22BA
331
22EC
  5
2438
331
24D4
  5
24D9
331
2435
  5
2442
331
24DC
  5
24E1
331
112A
  5
112E
331
243D
  5
244A
331
24E4
  5
2578
331
1132
  5
1136
331
1F0C
  5
1F87
331
1EA5
  5
1EFD
331
1C57
  5
1D1B
331
2445
  5
245B
331
113A
  5
113E
331
1F7C
  5
1F8E
331
1EAD
  5
1F7E
331
1F84
  5
1F94
331
216E
  5
2174
331
22B5
  5
22C2
331
22BD
  5
22CA
331
217E
  5
2184
331
22C5
  5
22D2
331
22CD
  5
22DA
331
244D
  5
24D4
331
1F8C
  5
1F9B
331
1F94
  5
201B
331
1379
  5
137D
331
20FF
  5
2146
331
22D5
  5
22E2
331
2127
  5
1F8D
331
218E
  5
22A7
331
22DD
  5
22EA
331
213F
  5
1D99
331
22A6
  5
22B3
331
22E5
  5
23FB
331
2147
  5
1D69
331
22AE
  5
22BB
331
24D5
  5
24DA
331
1A11
  5
1C55
331
2436
  5
2443
331
24DD
  5
24E2
331
112B
  5
112F
331
1E9E
  5
1EAC
331
1D17
  5
1D63
331
243E
  5
244B
331
24E5
  5
2579
331
1133
  5
1137
331
1F0D
  5
1F8A
331
1EA6
  5
1F0A
331
1C58
  5
1D1C
331
2446
  5
245C
331
113B
  5
113F
331
1F7D
  5
1F8F
331
1EAE
  5
1F80
331
1F85
  5
1F95
331
216F
  5
2175
331
22B6
  5
22C3
331
22BE
  5
22CB
331
22C6
  5
22D3
331
217F
  5
2185
331
244E
  5
24D5
331
22CE
  5
22DB
331
245E
  5
22AA
331
1F8D
  5
1FC6
331
1F95
  5
201C
331
137A
  5
137E
331
22D6
  5
22E3
331
22DE
  5
22EB
331
2140
  5
1D96
331
22A7
  5
22B4
331
22E6
  5
23FC
331
24D6
  5
24DB
331
22AF
  5
22BC
331
1A12
  5
1C56
331
2437
  5
2444
331
24DE
  5
24E3
331
112C
  5
1130
331
1D18
  5
1D64
331
243F
  5
244C
331
1134
  5
1138
331
1EA7
  5
1F0B
331
1C59
  5
1D62
331
2447
  5
245D
331
113C
  5
1140
331
1F7E
  5
1F90
331
1EAF
  5
1F82
331
1F86
  5
1F96
331
22B7
  5
22C4
331
2170
  5
2178
331
22BF
  5
22CC
331
A0
  5
A5
331
22C7
  5
22D4
331
244F
  5
24D6
331
22CF
  5
22DC
331
1D78
  5
1EA2
331
1F8E
  5
1FC8
331
1E90
  5
1EA8
331
137B
  5
137F
331
1F96
  5
20F5
331
2180
  5
218E
331
22D7
  5
22E4
331
22DF
  5
22EC
331
23F8
  5
243B
331
22A8
  5
22B5
331
2141
  5
1D93
331
22E7
  5
2433
331
24D7
  5
24DC
331
1A13
  5
1C57
331
2438
  5
2445
331
24DF
  5
24E4
331
112D
  5
1131
331
2440
  5
244D
331
1135
  5
1139
331
1EFF
  5
1F83
331
113D
  5
1141
331
1EA8
  5
1F0C
331
1F87
  5
1F97
  0
XRECORD
  5
2691
102
{ACAD_REACTORS
330
2690
102
}
330
2690
100
AcDbXrecord
280
     1
102
SHADEPLOT
 70
     0
  0
XRECORD
  5
2693
102
{ACAD_REACTORS
330
2692
102
}
330
2692
100
AcDbXrecord
280
     1
102
SHADEPLOT
 70
     0
  0
LAYOUT
  5
22
102
{ACAD_XDICTIONARY
360
268C
102
}
102
{ACAD_REACTORS
330
1A
102
}
330
1A
100
AcDbPlotSettings
  1

  2
EPSON PM-800C
  4
A4
  6

 40
3.757083177566528
 41
14.7637300491333
 42
3.757080078125
 43
3.757080078125
 44
209.9733276367187
 45
296.9683227539062
 46
0.0
 47
0.0
 48
0.0
 49
0.0
140
0.0
141
0.0
142
1.0
143
10.0
 70
 11952
 72
     1
 73
     1
 74
     2
  7

 75
    20
147
0.1
148
0.0
149
0.0
100
AcDbLayout
  1
Model
 70
     1
 71
     0
 10
0.0
 20
0.0
 11
12.0
 21
9.0
 12
0.0
 22
0.0
 32
0.0
 14
0.0
 24
0.0
 34
0.0
 15
0.0
 25
0.0
 35
0.0
146
0.0
 13
0.0
 23
0.0
 33
0.0
 16
1.0
 26
0.0
 36
0.0
 17
0.0
 27
1.0
 37
0.0
 76
     0
330
1F
  0
LAYOUT
  5
1E
102
{ACAD_XDICTIONARY
360
1309
102
}
102
{ACAD_REACTORS
330
1A
102
}
330
1A
100
AcDbPlotSettings
  1

  2
EPSON PM-800C
  4
A4
  6

 40
3.757083177566528
 41
14.7637300491333
 42
3.757080078125
 43
3.757080078125
 44
209.9733276367187
 45
296.9683227539062
 46
0.0
 47
0.0
 48
0.0
 49
0.0
140
0.0
141
0.0
142
1.0
143
1.0
 70
   688
 72
     1
 73
     1
 74
     5
  7

 75
    16
147
1.0
148
0.0
149
0.0
100
AcDbLayout
  1
ﾚｲｱｳﾄ1
 70
     1
 71
     1
 10
-3.757080078125
 20
-3.757083177566528
 11
293.2112426757813
 21
206.2162444591522
 12
0.0
 22
0.0
 32
0.0
 14
27.8447512626648
 24
20.24591643810271
 34
0.0
 15
250.6027613639831
 25
182.2132479429245
 35
0.0
146
0.0
 13
0.0
 23
0.0
 33
0.0
 16
1.0
 26
0.0
 36
0.0
 17
0.0
 27
1.0
 37
0.0
 76
     0
330
1B
331
2E
  0
LAYOUT
  5
26
102
{ACAD_XDICTIONARY
360
268E
102
}
102
{ACAD_REACTORS
330
1A
102
}
330
1A
100
AcDbPlotSettings
  1

  2
EPSON PM-800C
  4

  6

 40
0.0
 41
0.0
 42
0.0
 43
0.0
 44
0.0
 45
0.0
 46
0.0
 47
0.0
 48
0.0
 49
0.0
140
0.0
141
0.0
142
1.0
143
1.0
 70
   688
 72
     0
 73
     0
 74
     5
  7

 75
    16
147
1.0
148
0.0
149
0.0
100
AcDbLayout
  1
ﾚｲｱｳﾄ2
 70
     1
 71
     2
 10
0.0
 20
0.0
 11
12.0
 21
9.0
 12
0.0
 22
0.0
 32
0.0
 14
0.0
 24
0.0
 34
0.0
 15
0.0
 25
0.0
 35
0.0
146
0.0
 13
0.0
 23
0.0
 33
0.0
 16
1.0
 26
0.0
 36
0.0
 17
0.0
 27
1.0
 37
0.0
 76
     0
330
23
  0
MLINESTYLE
  5
18
102
{ACAD_REACTORS
330
17
102
}
330
17
100
AcDbMlineStyle
  2
STANDARD
 70
     0
  3

 62
   256
 51
90.0
 52
90.0
 71
     2
 49
0.5
 62
   256
  6
BYLAYER
 49
-0.5
 62
   256
  6
BYLAYER
  0
ACDBPLACEHOLDER
  5
F
102
{ACAD_REACTORS
330
E
102
}
330
E
  0
TABLESTYLE
  5
1159
102
{ACAD_REACTORS
330
1158
102
}
330
1158
100
AcDbTableStyle
  3
Standard
 70
     0
 71
     0
 40
1.5
 41
1.5
280
     0
281
     0
  7
Standard
140
4.5
170
     2
 62
     0
 63
     7
283
     0
274
    -2
284
     1
 64
     0
275
    -2
285
     1
 65
     0
276
    -2
286
     1
 66
     0
277
    -2
287
     1
 67
     0
278
    -2
288
     1
 68
     0
279
    -2
289
     1
 69
     0
  7
Standard
140
6.0
170
     5
 62
     0
 63
     7
283
     0
274
    -2
284
     1
 64
     0
275
    -2
285
     1
 65
     0
276
    -2
286
     1
 66
     0
277
    -2
287
     1
 67
     0
278
    -2
288
     1
 68
     0
279
    -2
289
     1
 69
     0
  7
Standard
140
4.5
170
     5
 62
     0
 63
     7
283
     0
274
    -2
284
     1
 64
     0
275
    -2
285
     1
 65
     0
276
    -2
286
     1
 66
     0
277
    -2
287
     1
 67
     0
278
    -2
288
     1
 68
     0
279
    -2
289
     1
 69
     0
  0
DICTIONARYVAR
  5
116C
102
{ACAD_REACTORS
330
116B
102
}
330
116B
100
DictionaryVariables
280
     0
  1
STANDARD
  0
DICTIONARYVAR
  5
2687
102
{ACAD_REACTORS
330
116B
102
}
330
116B
100
DictionaryVariables
280
     0
  1
1
  0
DICTIONARYVAR
  5
2688
102
{ACAD_REACTORS
330
116B
102
}
330
116B
100
DictionaryVariables
280
     0
  1

  0
DICTIONARY
  5
268C
330
22
100
AcDbDictionary
280
     1
281
     1
  3
ACAD_XREC_ROUNDTRIP
360
268D
  0
DICTIONARY
  5
1309
330
1E
100
AcDbDictionary
280
     1
281
     1
  3
ACAD_XREC_ROUNDTRIP
360
268B
  3
ADSK_XREC_LAYOUTTHUMBNAIL
360
130A
  0
DICTIONARY
  5
268E
330
26
100
AcDbDictionary
280
     1
281
     1
  3
ACAD_XREC_ROUNDTRIP
360
268F
  0
XRECORD
  5
268D
102
{ACAD_REACTORS
330
268C
102
}
330
268C
100
AcDbXrecord
280
     1
102
SHADEPLOT
 70
     0
102
SHADEPLOTRESLEVEL
 70
     2
102
SHADEPLOTCUSTOMDPI
 70
   300
  0
XRECORD
  5
268B
102
{ACAD_REACTORS
330
1309
102
}
330
1309
100
AcDbXrecord
280
     1
102
SHADEPLOT
 70
     0
102
SHADEPLOTRESLEVEL
 70
     2
102
SHADEPLOTCUSTOMDPI
 70
   300
  0
XRECORD
  5
130A
102
{ACAD_REACTORS
330
1309
102
}
330
1309
100
AcDbXrecord
280
     1
310
28000000B40000007F00000001000800000000004C590000000000000000000000010000000000000000000000000000FFFFFF000000000000000000000000000000000000000000000000000000000000000000330000006600000099000000CC000000FF00000000330000333300006633000099330000CC330000FF3300
310
0000660000336600006666000099660000CC660000FF66000000990000339900006699000099990000CC990000FF99000000CC000033CC000066CC000099CC0000CCCC0000FFCC000000FF000033FF000066FF000099FF0000CCFF0000FFFF000000003300330033006600330099003300CC003300FF003300003333003333
310
33006633330099333300CC333300FF33330000663300336633006666330099663300CC663300FF66330000993300339933006699330099993300CC993300FF99330000CC330033CC330066CC330099CC3300CCCC3300FFCC330000FF330033FF330066FF330099FF3300CCFF3300FFFF330000006600330066006600660099
310
006600CC006600FF00660000336600333366006633660099336600CC336600FF33660000666600336666006666660099666600CC666600FF66660000996600339966006699660099996600CC996600FF99660000CC660033CC660066CC660099CC6600CCCC6600FFCC660000FF660033FF660066FF660099FF6600CCFF6600
310
FFFF660000009900330099006600990099009900CC009900FF00990000339900333399006633990099339900CC339900FF33990000669900336699006666990099669900CC669900FF66990000999900339999006699990099999900CC999900FF99990000CC990033CC990066CC990099CC9900CCCC9900FFCC990000FF99
310
0033FF990066FF990099FF9900CCFF9900FFFF99000000CC003300CC006600CC009900CC00CC00CC00FF00CC000033CC003333CC006633CC009933CC00CC33CC00FF33CC000066CC003366CC006666CC009966CC00CC66CC00FF66CC000099CC003399CC006699CC009999CC00CC99CC00FF99CC0000CCCC0033CCCC0066CC
310
CC0099CCCC00CCCCCC00FFCCCC0000FFCC0033FFCC0066FFCC0099FFCC00CCFFCC00FFFFCC000000FF003300FF006600FF009900FF00CC00FF00FF00FF000033FF003333FF006633FF009933FF00CC33FF00FF33FF000066FF003366FF006666FF009966FF00CC66FF00FF66FF000099FF003399FF006699FF009999FF00CC
310
99FF00FF99FF0000CCFF0033CCFF0066CCFF0099CCFF00CCCCFF00FFCCFF0000FFFF0033FFFF0066FFFF0099FFFF00CCFFFF00FFFFFF00000000000D0D0D001A1A1A00282828003535350043434300505050005D5D5D006B6B6B00787878008686860093939300A1A1A100AEAEAE00BBBBBB00C9C9C900D6D6D600E4E4E400
310
F1F1F100FFFFFF0000000000000000000000000000000000000000000000000000000000000000000000000000000000F5F5F5F5F5F5F5F5F5F5F5F5F5F5F5F5F5F5F5F5F5F5F5F5F5F5F5F5F5F5F5F5F5F5F5F5F5F5F5F5F5F5F5F5F5F5F5F5F5F5F5F5F5F5F5F5F5F5F5F5F5F5F5F5F5F5F5F5F5F5F5F5F5F5F5F5F5F5F5
310
F5F5F5F5F5F5F5F5F5F5F5F5F5F5F5F5F5F5F5F5F5F5F5F5F5F5F5F5F5F5F5F5F5F5F5F5F5F5F5F5F5F5F5F5F5F5F5F5F5F5F5F5F5F5F5F5F5F5F5F5F5F5F5F5F5F5F5F5F5F5F5F5F5F5F5F5F5F5F5F5F5F5F5F5F5F5F5F5F5F5F5F5F5F5F5F5F5F5F5F5F5F5E2E2E2E2E2E2E2E2E2E2E2E2E2E2E2E2E2E2E2E2E2E2E2E2E2
310
E2E2E2E2E2E2E2E2E2E2E2E2E2E2E2E2E2E2E2E2E2E2E2E2E2E2E2E2E2E2E2E2E2E2E2E2E2E2E2E2E2E2E2E2E2E2E2E2E2E2E2E2E2E2E2E2E2E2E2E2E2E2E2E2E2E2E2E2E2E2E2E2E2E2E2E2E2E2E2E2E2E2E2E2E2E2E2E2E2E2E2E2E2E2E2E2E2E2E2E2E2E2E2E2E2E2E2E2E2E2E2E2E2E2E2E2E2E2E2E2E2E2E2E2E2E2E2
310
E2E2E2E2E2E2E2E2E2E2E2E2E2E2E2E2E2E2E2E2E2E2E2E2E2E2F5F5E2E2F5F5F5F5F5F5F5F5E2E2E2E2E2E2E2E2E2F5F5F5F5F5F5F5F5F5F5F5F5F5F5F5E2E2E2E2E2E2E2E2E2F5F5F5F5F5F5F5F5F5F5F5F5F5F5F5E2E2E2E2E2E2E2E2F5F5F5F5F5F5F5F5F5F5F5F5F5F5F5F5E2E2E2E2E2E2E2E2F5F5F5F5F5F5F5F5F5
310
F5F5F5F5F5F5F5E2E2E2E2E2E2E2E2F5F5F5F5F5F5F5F5F5F5F5F5F5F5F5E2E2E2E2E2E2E2E2E2F5F5F5F5F5F5F5F5F5F5F5F5F5F5F5E2E2E2E2E2E2E2E2E2F5F5F5F5F5F5F5F5E2E2E2E2E2E2E2E2F5F5E2E2F5E2E2E2E2E2E2E2E2E2E2E2E2E2E2E2E2E2E2E2E2E2E2E2E2E2E2E2E2E2E2E2E2E2E2E2E2E2E2E2E2E2E2E2
310
E2E2E2E2E2E2E2E2E2E2E2E2E2E2E2E2E2E2E2E2E2E2E2E2E2E2E2E2E2E2E2E2E2E2E2E2E2E2E2E2E2E2E2E2E2E2E2E2E2E2E2E2E2E2E2E2E2E2E2E2E2E2E2E2E2E2E2E2E2E2E2E2E2E2E2E2E2E2E2E2E2E2E2E2E2E2E2E2E2E2E2E2E2E2E2E2E2E2E2E2E2E2E2E2E2E2E2E2E2E2E2E2E2E2E2E2E2E2E2E2E2E2E2F5E2E2E2
310
E2E2E2E2E2F5F5E2E2F5E2E2E2E2E2E2E2E2E2E2E2E2E2E2E2E2E2E2E2E2E2E2E2E2E2E2E2E2E2E2E2E2E2E2E2E2E2E2E2E2E2E2E2E2E2E2E2E2E2E2E2E2E2E2E2E2E2E2E2E2E2E2E2E2E2E2E2E2E2E2E2E2E2E2E2E2E2E2E2E2E2E2E2E2E2E2E2E2E2E2E2E2E2E2E2E2E2E2E2E2E2E2E2E2E2E2E2E2E2E2E2E2E2E2E2E2E2
310
E2E2E2E2E2E2E2E2E2E2E2E2E2E2E2E2E2E2E2E2E2E2E2E2E2E2E2E2E2E2E2E2E2E2E2E2E2E2E2E2E2E2E2E2E2E2E2E2E2F5E2E2E2E2E2E2E2E2F5F5E2E2F5E2E2E2E2E2E2E2E2E2E2E2E2E2E2E2E2E2E2E2E2E2E2E2E2E2E2E2E2E2E2E2E2E2E2E2E2E2E2E2E2E2E2E2E2E2E2E2E2E2E2E2E2E2E2E2E2E2E2E2E2E2E2E2E2
310
E2E2E2E2E2E2E2E2E2E2E2E2E2E2E2E2E2E2E2E2E2E2E2E2E2E2E2E2E2E2E2E2E2E2E2E2E2E2E2E2E2E2E2E2E2E2E2E2E2E2E2E2E2E2E2E2E2E2E2E2E2E2E2E2E2E2E2E2E2E2E2E2E2E2E2E2E2E2E2E2E2E2E2E2E2E2E2E2E2E2E2E2E2E2E2E2E2E2E2E2E2E2F5E2E2E2E2E2E2E2E2F5F5E2E2F5E2E2E2E2E2E2E2E2E2E2E2
310
E2E2E2E2E2E2E2E2E2E2E2E2E2E2E2E2E2E2E2E2E2E2E2E2E2E2E2E2E2E2E2E2E2E2E2E2E2E2E2E2E2E2E2E2E2E2E2E2E2E2E2E2E2E2E2E2E2E2E2E2E2E2E2E2E2E2E2E2E2E2E2E2E2E2E2E2E2E2E2E2E2E2E2E2E2E2E2E2E2E2E2E2E2E2E2E2E2E2E2E2E2E2E2E2E2E2E2E2E2E2E2E2E2E2E2E2E2E2E2E2E2E2E2E2E2E2E2
310
E2E2E2E2E2E2E2E2E2E2E2E2E2E2E2E2E2E2E2E2E2E2E2E2E2E2E2E2F5E2E2E2E2E2E2E2E2F5F5E2E2F5E2E2E2E2E2E2E2E2E2E2E2E2E2E2E2E2E2E2E2E2E2E2E2E2E2E2E2E2E2E2E2E2E2E2E2E2E2E2E2E2E2E2E2E2E2E2E2E2E2E2E2E2E2E2E2E2E2E2E2E2E2E2E2E2E2E2E2E2E2E2E2E2E2E2E2E2E2E2E2E2E2E2E2E2E2
310
E2E2E2E2E2E2E2E2E2E2E2E2E2E2E2E2E2E2E2E2E2E2E2E2E2E2E2E2E2E2E2E2E2E2E2E2E2E2E2E2E2E2E2E2E2E2E2E2E2E2E2E2E2E2E2E2E2E2E2E2E2E2E2E2E2E2E2E2E2E2E2E2E2E2E2E2E2E2E2E2E2F5E2E2E2E2E2E2E2E2F5F5E2E2F5E2E2E2E2E2E2E2E2E2E2E2E2E2E2E2E2E2E2E2E2E2E2E2E2E2E2E2E2E2E2E2E2
310
E2E2E2E2E2E2E2E2E2E2E2E2E2E2E2E2E2E2E2E2E2E2E2E2E2E2E2E2E2E2E2E2E2E2E2E2E2E2E2E2E2E2E2E2E2E2E2E2E2E2E2E2E2E2E2E2E2E2E2E2E2E2E2E2E2E2E2E2E2E2E2E2E2E2E2E2E2E2E2E2E2E2E2E2E2E2E2E2E2E2E2E2E2E2E2E2E2E2E2E2E2E2E2E2E2E2E2E2E2E2E2E2E2E2E2E2E2E2E2E2E2E2E2E2E2E2E2
310
E2E2E2E2E2E2E2F5E2E2E2E2E2E2E2E2F5F5E2E2F5E2E2E2E2E2E2E2E2E2E2E2E2E2E2E2E2E2E2E2E2E2E2E2E2E2E2E2E2E2E2E2E2E2E2E2E2E2E2E2E2E2E2E2E2E2E2E2E2E2E2E2E2E2E2E2E2E2E2E2E2E2E2E2E2E2E2E2E2E2E2E2E2E2E2E2E2E2E2E2E2E2E2E2E2E2E2E2E2E2E2E2E2E2E2E2E2E2E2E2E2E2E2E2E2E2E2
310
E2E2E2E2E2E2E2E2E2E2E2E2E2E2E2E2E2E2E2E2E2E2E2E2E2E2E2E2E2E2E2E2E2E2E2E2E2E2E2E2E2E2E2E2E2E2E2E2E2E2E2E2E2E2E2E2E2E2E2E2F5E2E2E2E2E2E2E2E2F5F5E2E2E2E2E2E2E2E2E2E2E2E2E2E2E2E2E2E2E2E2E2E2E2E2E2E2E2E2E2E2E2E2E2E2E2E2E2E2E2E2E2E2E2E2E2E2E2E2E2E2E2E2E2E2E2E2
310
E2E2E2E2E2E2E2E2E2E2E2E2E2E2E2E2E2E2E2E2E2E2E2E2E2E2E2E2E2E2E2E2E2E2E2E2E2E2E2E2E2E2E2E2E2E2E2E2E2E2E2E2E2E2E2E2E2E2E2E2E2E2E2E2E2E2E2E2E2E2E2E2E2E2E2E2E2E2E2E2E2E2E2E2E2E2E2E2E2E2E2E2E2E2E2E2E2E2E2E2E2E2E2E2E2E2E2E2E2E2E2E2E2E2E2E2E2E2E2E2E2E2F5F5E2E2E2
310
E2E2E2E2E2E2E2E2E2E2E2E2E2E2E2E2E2E2E2E2E2E2E2E2E2E2E2E2E2E2E2E2E2E2E2E2E2E2E2E2E2E2E2E2E2E2E2E2E2E2E2E2E2E2E2E2E2E2E2E2E2E2E2E2E2E2E2E2E2E2E2E2E2E2E2E2E2E2E2E2E2E2E2E2E2E2E2E2E2E2E2E2E2E2E2E2E2E2E2E2E2E2E2E2E2E2E2E2E2E2E2E2E2E2E2E2E2E2E2E2E2E2E2E2E2E2E2
310
E2E2E2E2E2E2E2E2E2E2E2E2E2E2E2E2E2E2E2E2E2E2E2E2E2E2E2E2E2E2E2E2E2E2E2E2E2E2E2E2E2E2E2E2E2E2E2E2F5F5E2E2E2E2E2E2E2E2E2E2E2E2E2E2E2E2E2E2E2E2E2E2E2E2E2E2E2E2E2E2E2E2E2E2E2E2E2E2E2E2E2E2E2E2E2E2E2E2E2E2E2E2E2E2E2E2E2E2E2E2E2E2E2E2E2E2E2E2E2E2E2E2E2E2E2E2E2
310
E2E2E2E2E2E2E2E2E2E2E2E2E2E2E2E2E2E2E2E2E2E2E2E2E2E2E2E2E2E2E2E2E2E2E2E2E2E2E2E2E2E2E2E2E2E2E2E2E2E2E2E2E2E2E2E2E2E2E2E2E2E2E2E2E2E2E2E2E2E2E2E2E2E2E2E2E2E2E2E2E2E2E2E2E2E2E2E2E2E2E2E2E2E2E2E2E2E2E2E2E2F5F5E2E2E2E2E2E2E2E2E2E2E2E2E2E2E2E2E2E2E2E2E2E2E2E2
310
E2E2E2E2E2E2E2E2E2E2E2E2E2E2E2E2E2E2E2E2E2E2E2E2E2E2E2E2E2E2E2E2E2E2E2E2E2E2E2E2E2E2E2E2E2E2E2E2E2E2E2E2E2E2E2E2E2E2E2E2E2E2E2E2E2E2E2E2E2E2E2E2E2E2E2E2E2E2E2E2E2E2E2E2E2E2E2E2E2E2E2E2E2E2E2E2E2E2E2E2E2E2E2E2E2E2E2E2E2E2E2E2E2E2E2E2E2E2E2E2E2E2E2E2E2E2E2
310
E2E2E2E2E2E2E2E2E2E2E2E2E2E2E2E2E2E2E2E2E2E2E2E2E2E2E2F5F5E2E2E2E2E2E2E2E2E2E2E2E2E2E2E2E2E2E2F5F5F5F5F5F5F5F5F5F5F5F5F5F5F5F5F5F5F5F5F5F5F5F5F5F5F5F5F5F5F5F5F5F5F5F5F5F5F5F5F5F5F5F5F5F5F5F5F5F5F5F5F5F5F5F5F5F5F5F5F5F5F5F5F5F5F5F5F5F5F5F5F5F5F5F5F5F5F5F5
310
F5F5F5F5F5F5F5F5F5F5F5F5F5F5F5F5F5F5F5F5F5F5F5F5F5F5F5F5F5F5F5F5F5F5F5F5F5F5F5F5F5F5F5F5F5F5F5F5F5F5F5F5F5F5F5E2E2E2E2E2E2E2E2E2E2E2E2E2E2E2E2E2E2E2E2E2E2E2E2E2F5F5E2E2E2E2E2E2E2E2E2E2E2E2E2E2E2E2E2E2F5E2E2E2E2E2E2E2E2E2E2E2E2E2E2E2E2E2E2E2E2E2E2E2E2E2E2
310
E2E2E2E2E2E2E2E2E2E2E2E2E2E2E2E2E2E2E2E2E2E2E2E2E2E2E2E2E2E2E2E2E2E2E2E2E2E2E2E2E2E2E2E2E2E2E2E2E2E2E2E2E2E2E2E2E2E2E2E2E2E2E2E2E2E2E2E2E2E2E2E2E2E2E2E2E2E2E2E2E2E2E2E2E2E2E2E2E2E2E2E2E2E2E2E2E2E2E2E2E2E2E2E2E2E2E2F5E2E2E2E2E2E2E2E2E2E2E2E2E2E2E2E2E2E2E2
310
E2E2E2E2E2E2F5F5E2E2E2E2E2E2E2E2E2E2E2E2E2E2E2E2E2E2F5E2E2E2E2E2E2E2E2E2E2E2E2E2E2E2E2E2E2E2E2E2E2E2E2E2E2E2E2E2E2E2E2E2E2E2E2E2E2E2E2E2E2E2E2E2E2E2E2E2E2E2E2E2E2E2E2E2E2E2E2E2E2E2E2E2E2E2E2E2E2E2E2E2E2E2E2E2E2E2E2E2E2E2E2E2E2E2E2E2E2E2E2E2E2E2E2E2E2E2E2
310
E2E2E2E2E2E2E2E2E2E2E2E2E2E2E2E2E2E2E2E2E2E2E2E2E2E2E2E2E2E2E2E2E2F5E2E2E2E2E2E2E2E2E2E2E2E2E2E2E2E2E2E2E2E2E2E2E2E2E2F5F5E2E2E2E2E2E2E2E2E2E2E2E2E2E2E2E2E2E2F5E2E2E2E2E2E2E2E2E2E2E2E2E2E2E2E2E2E2E2E2E2E2E2E2E2E2E2E2E2E2E2E2E2E2E2E2E2E2E2E2E2E2E2E2E2E2E2
310
E2E2E2E2E2E2E2E2E2E2E2E2E2E2E2E2E2E2E2E2E2E2E2E2E2E2E2E2E2E2E2E2E2E2E2E2E2E2E2E2E2E2E2E2E2E2E2E2E2E2E2E2E2E2E2E2E2E2E2E2E2E2E2E2E2E2E2E2E2E2E2E2E2E2E2E2E2E2E2E2E2E2E2E2E2E2F5E2E2E2E2E2E2E2E2E2E2E2E2E2E2E2E2E2E2E2E2E2E2E2E2E2F5F5E2E2E2E2E2E2E2E2E2E2E2E2E2
310
E2E2E2E2E2F5E2E2F5F5F5F5F5F5F5F5F5F5F5F5F5F5F5F5F5F5F5F5F5F5F5F5F5F5F5F5F5F5F5F5F5F5F5F5F5F5F5F5F5F5F5F5F5F5F5F5F5F5F5F5F5F5F5F5F5F5F5F5F5F5F5F5F5F5F5F5F5F5F5F5F5F5F5F5F5F5F5F5F5F5F5F5F5F5F5F5F5F5F5F5F5F5F5F5F5F5F5F5F5F5F5F5F5F5F5F5F5F5F5F5F5F5F5F5F5F5F5
310
F5F5F5F5F5F5F5F5F5F5F5F5F5E2E2E2E2E2E2E2E2E2E2E2E2E2E2E2E2E2E2E2E2E2E2E2E2E2F5F5E2E2F5E2E2E2E2E2E2E2E2E2E2E2E2E2E2E2F5E2E2F5E2E2E2E2E2E2E2E2E2E2E2E2E2E2E2E2E2E2E2E2E2E2E2E2E2E2E2E2E2E2E2E2E2E2E2E2E2E2E2E2E2E2E2E2E2E2E2E2E2E2E2E2E2E2E2E2E2E2E2E2E2E2E2E2E2
310
E2E2E2E2E2E2E2E2E2E2E2E2E2E2E2E2E2E2E2E2E2E2E2E2E2E2E2E2E2E2E2E2E2E2E2E2E2E2E2E2E2E2E2E2E2E2E2E2E2E2E2E2E2E2E2E2E2E2E2E2E2E2E2E2E2F5E2E2E2E2E2E2E2E2E2E2E2E2E2E2E2E2F5E2E2E2E2E2E2E2E2F5F5E2E2F5E2E2E2E2E2E2E2E2E2E2E2E2E2E2E2F5E2E2F5E2E2E2E2E2E2E2E2E2E2E2E2
310
E2E2E2E2E2E2E2E2E2E2E2E2E2E2E2E2E2E2E2E2E2E2E2E2E2E2E2E2E2E2E2E2E2E2E2E2E2E2E2E2E2E2E2E2E2E2E2E2E2E2E2E2E2E2E2E2E2E2E2E2E2E2E2E2E2E2E2E2E2E2E2E2E2E2E2E2E2E2E2E2E2E2E2E2E2E2E2E2E2E2E2E2E2E2E2E2E2E2E2E2E2E2E2E2E2E2E2E2E2E2E2E2E2E2E2E2E2E2F5E2E2E2E2E2E2E2E2
310
E2E2E2E2E2E2E2E2F5E2E2E2E2E2E2E2E2F5F5E2E2F5E2E2E2E2E2E2E2E2E2E2E2E2E2E2E2F5E2E2F5E2E2E2E2E2E2E2E2E2E2E2E2E2E2E2E2E2E2E2E2E2E2E2E2E2E2E2E2E2E2E2E2E2E2E2E2E2E2E2E2E2E2E2E2E2E2E2E2E2E2E2E2E2E2E2E2E2E2E2E2E2E2E2E2E2E2E2E2E2E2E2E2E2E2E2E2E2E2E2E2E2E2E2E2E2E2
310
E2E2E2E2E2E2E2E2E2E2E2E2E2E2E2E2E2E2E2E2E2E2E2E2E2E2E2E2E2E2E2E2E2E2E2E2E2E2E2E2E2E2E2E2F5E2E2E2E2E2E2E2E2E2E2E2E2E2E2E2E2F5E2E2E2E2E2E2E2E2F5F5E2E2F5E2E2E2E2E2E2E2E2E2E2E2E2E2E2E2F5E2E2F5E2E2E2E2E2E2E2E2E2E2E2E2E2E2E2E2E2E2E2E2E2E2E2E2E2E2E2E2E2E2E2E2E2
310
E2E2E2E2E2E2E2E2E2E2E2E2E2E2E2E2E2E2E2E2E2E2E2E2E2E2E2E2E2E2E2E2E2E2E2E2E2E2E2E2E2E2E2E2E2E2E2E2E2E2E2E2E2E2E2E2E2E2E2E2E2E2E2E2E2E2E2E2E2E2E2E2E2E2E2E2E2E2E2E2E2E2E2E2E2E2E2E2E2E2E2E2E2E2E2E2E2F5E2E2E2E2E2E2E2E2E2E2E2E2E2E2E2E2F5E2E2E2E2E2E2E2E2F5F5E2E2
310
F5E2E2E2E2E2E2E2E2E2E2E2E2E2E2E2F5E2E2F5E2E2E2E2E2E2E2E2E2E2E2E2E2E2E2E2E2E2E2E2E2E2E2E2E2E2E2E2E2E2E2E2E2E2E2E2E2E2E2E2E2E2E2E2E2E2E2E2E2E2E2E2E2E2E2E2E2E2E2E2E2E2E2E2E2E2E2E2E2E2E2E2E2E2E2E2E2E2E2E2E2E2E2E2E2E2E2E2E2E2E2E2E2E2E2E2E2E2E2E2E2E2E2E2E2E2E2
310
E2E2E2E2E2E2E2E2E2E2E2E2E2E2E2E2E2E2E2E2E2E2E2F5E2E2E2E2E2E2E2E2E2E2E2E2E2E2E2E2F5E2E2E2E2E2E2E2E2F5F5E2E2F5E2E2E2E2E2E2E2E2E2E2E2E2E2E2E2F5E2E2F5E2E2E2E2E2E2E2E2E2E2E2E2E2E2E2E2E2E2E2E2E2E2E2E2E2E2E2E2E2E2E2E2E2E2E2E2E2E2E2E2E2E2E2E2E2E2E2E2E2E2E2E2E2E2
310
E2E2E2E2E2E2E2E2E2E2E2E2E2E2E2E2E2E2E2E2E2E2E2E2E2E2E2E2E2E2E2E2E2E2E2E2E2E2E2E2E2E2E2E2E2E2E2E2E2E2E2E2E2E2E2E2E2E2E2E2E2E2E2E2E2E2E2E2E2E2E2E2E2E2E2E2F5E2E2E2E2E2E2E2E2E2E2E2E2E2E2E2E2F5E2E2E2E2E2E2E2E2F5F5E2E2F5E2E2E2E2E2E2E2E2E2E2E2E2E2E2E2F5E2E2F5E2
310
E2E2E2E2E2E2E2E2E2E2E2E2E2E2E2E2E2E2E2E2E2E2E2E2E2E2E2E2E2E2E2E2E2E2E2E2E2E2E2E2E2E2E2E2E2E2E2E2E2E2E2E2E2E2E2E2E2E2E2E2E2E2E2E2E2E2E2E2E2E2E2E2E2E2E2E2E2E2E2E2E2E2E2E2E2E2E2E2E2E2E2E2E2E2E2E2E2E2E2E2E2E2E2E2E2E2E2E2E2E2E2E2E2E2E2E2E2E2E2E2E2E2E2E2E2E2E2
310
E2E2F5E2E2E2E2E2E2E2E2E2E2E2E2E2E2E2E2F5E2E2E2E2E2E2E2E2F5F5E2E2F5E2E2E2E2E2E2E2E2E2E2E2E2E2E2E2F5E2E2F5E2E2E2E2E2E2E2E2E2E2E2E2E2E2E2E2E2E2E2E2E2E2E2E2E2E2E2E2E2E2E2E2E2E2E2E2E2E2E2E2E2E2E2E2E2E2E2E2E2E2E2E2E2E2E2E2E2E2E2E2E2E2E2E2E2E2E2E2E2E2E2E2E2E2E2
310
E2E2E2E2E2E2E2E2E2E2E2E2E2E2E2E2E2E2E2E2E2E2E2E2E2E2E2E2E2E2E2E2E2E2E2E2E2E2E2E2E2E2E2E2E2E2E2E2E2E2E2E2E2E2E2F5E2E2E2E2E2E2E2E2E2E2E2E2E2E2E2E2F5E2E2E2E2E2E2E2E2F5F5E2E2F5E2E2E2E2E2E2E2E2E2E2E2E2E2E2E2F5E2E2F5E2E2E2E2E2E2E2E2E2E2E2E2E2E2E2E2E2E2E2E2E2E2
310
E2E2E2E2E2E2E2E2E2E2E2E2E2E2E2E2E2E2E2E2E2E2E2E2E2E2E2E2E2E2E2E2E2E2E2E2E2E2E2E2E2E2E2E2E2E2E2E2E2E2E2E2E2E2E2E2E2E2E2E2E2E2E2E2E2E2E2E2E2E2E2E2E2E2E2E2E2E2E2E2E2E2E2E2E2E2E2E2E2E2E2E2E2E2E2E2E2E2E2E2E2E2E2E2E2E2E2E2F5E2E2E2E2E2E2E2E2E2E2E2E2E2E2E2E2F5E2
310
E2E2E2E2E2E2E2F5F5E2E2F5E2E2E2E2E2E2E2E2E2E2E2E2E2E2E2F5E2E2F5E2E2E2E2E2E2E2E2E2E2E2E2E2E2E2E2E2E2E2E2E2E2E2E2E2E2E2E2E2E2E2E2E2E2E2E2E2E2E2E2E2E2E2E2E2E2E2E2E2E2E2E2E2E2E2E2E2E2E2E2E2E2E2E2E2E2E2E2E2E2E2E2E2E2E2E2E2E2E2E2E2E2E2E2E2E2E2E2E2E2E2E2E2E2E2E2
310
E2E2E2E2E2E2E2E2E2E2E2E2E2E2E2E2E2E2E2E2E2E2E2E2E2E2E2E2E2E2E2E2E2E2F5E2E2E2E2E2E2E2E2E2E2E2E2E2E2E2E2F5E2E2E2E2E2E2E2E2F5F5E2E2F5E2E2E2E2E2E2E2E2E2E2E2E2E2E2E2F5E2E2F5E2E2E2E2E2E2E2E2E2E2E2E2E2E2E2E2E2E2E2E2E2E2E2E2E2E2E2E2E2E2E2E2E2E2E2E2E2E2E2E2E2E2E2
310
E2E2E2E2E2E2E2E2E2E2E2E2E2E2E2E2E2E2E2E2E2E2E2E2E2E2E2E2E2E2E2E2E2E2E2E2E2E2E2E2E2E2E2E2E2E2E2E2E2E2E2E2E2E2E2E2E2E2E2E2E2E2E2E2E2E2E2E2E2E2E2E2E2E2E2E2E2E2E2E2E2E2E2E2E2E2E2F5E2E2E2E2E2E2E2E2E2E2E2E2E2E2E2E2F5E2E2E2E2E2E2E2E2F5F5E2E2F5E2E2E2E2E2E2E2E2E2
310
E2E2E2E2E2E2F5E2E2F5E2E2E2E2E2E2E2E2E2E2E2E2E2E2E2E2E2E2E2E2E2E2E2E2E2E2E2E2E2E2E2E2E2E2E2E2E2E2E2E2E2E2E2E2E2E2E2E2E2E2E2E2E2E2E2E2E2E2E2E2E2E2E2E2E2E2E2E2E2E2E2E2E2E2E2E2E2E2E2E2E2E2E2E2E2E2E2E2E2E2E2E2E2E2E2E2E2E2E2E2E2E2E2E2E2E2E2E2E2E2E2E2E2E2E2E2E2
310
E2E2E2E2E2E2E2E2E2E2E2E2E2F5E2E2E2E2E2E2E2E2E2E2E2E2E2E2E2E2F5E2E2E2E2E2E2E2E2F5F5E2E2F5E2E2E2E2E2E2E2E2E2E2E2E2E2E2E2F5E2E2F5E2E2E2E2E2E2E2E2E2E2E2E2E2E2E2E2E2E2E2E2E2E2E2E2E2E2E2E2E2E2E2E2E2E2E2E2E2E2E2E2E2E2E2E2E2E2E2E2E2E2E2E2E2E2E2E2E2E2E2E2E2E2E2E2
310
E2E2E2E2E2E2E2E2E2E2E2E2E2E2E2E2E2E2E2E2E2E2E2E2E2E2E2E2E2E2E2E2E2E2E2E2E2E2E2E2E2E2E2E2E2E2E2E2E2E2E2E2E2E2E2E2E2E2E2E2E2E2E2E2E2E2F5E2E2E2E2E2E2E2E2E2E2E2E2E2E2E2E2F5E2E2E2E2E2E2E2E2F5F5E2E2F5E2E2E2E2E2E2E2E2E2E2E2E2E2E2E2F5E2E2F5E2E2E2E2E2E2E2E2E2E2E2
310
E2E2E2E2E2E2E2E2E2E2E2E2E2E2E2E2E2E2E2E2E2E2E2E2E2E2E2E2E2E2E2E2E2E2E2E2E2E2E2E2E2E2E2E2E2E2E2E2E2E2E2E2E2E2E2E2E2E2E2E2E2E2E2E2E2E2E2E2E2E2E2E2E2E2E2E2E2E2E2E2E2E2E2E2E2E2E2E2E2E2E2E2E2E2E2E2E2E2E2E2E2E2E2E2E2E2E2E2E2E2E2E2E2E2E2E2E2E2E2F5E2E2E2E2E2E2E2
310
E2E2E2E2E2E2E2E2E2F5E2E2E2E2E2E2E2E2F5F5E2E2F5E2E2E2E2E2E2E2E2E2E2E2E2E2E2E2F5E2E2F5E2E2E2E2E2E2E2E2E2E2E2E2E2E2E2E2E2E2E2E2E2E2E2E2E2E2E2E2E2E2E2E2E2E2E2E2E2E2E2E2E2E2E2E2E2E2E2E2E2E2E2E2E2E2E2E2E2E2E2E2E2E2E2E2E2E2E2E2E2E2E2E2E2E2E2E2E2E2E2E2E2E2E2E2E2
310
E2E2E2E2E2E2E2E2E2E2E2E2E2E2E2E2E2E2E2E2E2E2E2E2E2E2E2E2E2E2E2E2E2E2E2E2E2E2E2E2E2E2E2E2E2F5E2E2E2E2E2E2E2E2E2E2E2E2E2E2E2E2F5E2E2E2E2E2E2E2E2F5F5E2E2E2E2E2E2E2E2E2E2E2E2E2E2E2E2E2E2F5E2E2F5E2E2E2E2E2E2E2E2E2E2E2E2E2E2E2E2E2E2E2E2E2E2E2E2E2E2E2E2E2E2E2E2
310
E2E2E2E2E2E2E2E2E2E2E2E2E2E2E2E2E2E2E2E2E2E2E2E2E2E2E2E2E2E2E2E2E2E2E2E2E2E2E2E2E2E2E2E2E2E2E2E2E2E2E2E2E2E2E2E2E2E2E2E2E2E2E2E2E2E2E2E2E2E2E2E2E2E2E2E2E2E2E2E2E2E2E2E2E2E2E2E2E2E2E2E2E2E2E2E2E2E2F5E2E2E2E2E2E2E2E2E2E2E2E2E2E2E2E2E2E2E2E2E2E2E2E2E2F5F5E2
310
E2E2E2E2E2E2E2E2E2E2E2E2E2E2E2E2E2F5E2E2F5E2E2E2E2E2E2E2E2E2E2E2E2E2E2E2E2E2E2E2E2E2E2E2E2E2E2E2E2E2E2E2E2E2E2E2E2E2E2E2E2E2E2E2E2E2E2E2E2E2E2E2E2E2E2E2E2E2E2E2E2E2E2E2E2E2E2E2E2E2E2E2E2E2E2E2E2E2E2E2E2E2E2E2E2E2E2E2E2E2E2E2E2E2E2E2E2E2E2E2E2E2E2E2E2E2E2
310
E2E2E2E2E2E2E2E2E2E2E2E2E2E2E2E2E2E2E2E2E2E2E2E2F5E2E2E2E2E2E2E2E2E2E2E2E2E2E2E2E2E2E2E2E2E2E2E2E2E2F5F5E2E2E2E2E2E2E2E2E2E2E2E2E2E2E2E2E2E2F5E2E2F5E2E2E2E2E2E2E2E2E2E2E2E2E2E2E2E2E2E2E2E2E2E2E2E2E2E2E2E2E2E2E2E2E2E2E2E2E2E2E2E2E2E2E2E2E2E2E2E2E2E2E2E2E2
310
E2E2E2E2E2E2E2E2E2E2E2E2E2E2E2E2E2E2E2E2E2E2E2E2E2E2E2E2E2E2E2E2E2E2E2E2E2E2E2E2E2E2E2E2E2E2E2E2E2E2E2E2E2E2E2E2E2E2E2E2E2E2E2E2E2E2E2E2E2E2E2E2E2E2E2E2E2F5E2E2E2E2E2E2E2E2E2E2E2E2E2E2E2E2E2E2E2E2E2E2E2E2E2F5F5E2E2E2E2E2E2E2E2E2E2E2E2E2E2E2E2E2E2F5E2E2F5
310
E2E2E2E2E2E2E2E2E2E2E2E2E2E2E2E2E2E2E2E2E2E2E2E2E2E2E2E2E2E2E2E2E2E2E2E2E2E2E2E2E2E2E2E2E2E2E2E2E2E2E2E2E2E2E2E2E2E2E2E2E2E2E2E2E2E2E2E2E2E2E2E2E2E2E2E2E2E2E2E2E2E2E2E2E2E2E2E2E2E2E2E2E2E2E2E2E2E2E2E2E2E2E2E2E2E2E2E2E2E2E2E2E2E2E2E2E2E2E2E2E2E2E2E2E2E2E2
310
E2E2E2F5E2E2E2E2E2E2E2E2E2E2E2E2E2E2E2E2E2E2E2E2E2E2E2E2E2F5F5E2E2E2E2E2E2E2E2E2E2E2E2E2E2E2E2E2E2F5E2E2F5E2E2E2E2E2E2E2E2E2E2E2E2E2E2E2E2E2E2E2E2E2E2E2E2E2E2E2E2E2E2E2E2E2E2E2E2E2E2E2E2E2E2E2E2E2E2E2E2E2E2E2E2E2E2E2E2E2E2E2E2E2E2E2E2E2E2E2E2E2E2E2E2E2E2
310
E2E2E2E2E2E2E2E2E2E2E2E2E2E2E2E2E2E2E2E2E2E2E2E2E2E2E2E2E2E2E2E2E2E2E2E2E2E2E2E2E2E2E2E2E2E2E2E2E2E2E2E2E2E2E2E2F5E2E2E2E2E2E2E2E2E2E2E2E2E2E2E2E2E2E2E2E2E2E2E2E2E2F5F5E2E2E2E2E2E2E2E2E2E2E2E2E2E2E2E2E2E2F5E2E2F5E2E2E2E2E2E2E2E2E2E2E2E2E2E2E2E2E2E2E2E2E2
310
E2E2E2E2E2E2E2E2E2E2E2E2E2E2E2E2E2E2E2E2E2E2E2E2E2E2E2E2E2E2E2E2E2E2E2E2E2E2E2E2E2E2E2E2E2E2E2E2E2E2E2E2E2E2E2E2E2E2E2E2E2E2E2E2E2E2E2E2E2E2E2E2E2E2E2E2E2E2E2E2E2E2E2E2E2E2E2E2E2E2E2E2E2E2E2E2E2E2E2E2E2E2E2E2E2E2E2E2E2F5E2E2E2E2E2E2E2E2E2E2E2E2E2E2E2E2E2
310
E2E2E2E2E2E2E2E2F5F5E2E2E2E2E2E2E2E2E2E2E2E2E2E2E2E2E2E2F5E2E2F5E2E2E2E2E2E2E2E2E2E2E2E2E2E2E2E2E2E2E2E2E2E2E2E2E2E2E2E2E2E2E2E2E2E2E2E2E2E2E2E2E2E2E2E2E2E2E2E2E2E2E2E2E2E2E2E2E2E2E2E2E2E2E2E2E2E2E2E2E2E2E2E2E2E2E2E2E2E2E2E2E2E2E2E2E2E2E2E2E2E2E2E2E2E2E2
310
E2E2E2E2E2E2E2E2E2E2E2E2E2E2E2E2E2E2E2E2E2E2E2E2E2E2E2E2E2E2E2E2E2E2E2F5E2E2E2E2E2E2E2E2E2E2E2E2E2E2E2E2E2E2E2E2E2E2E2E2E2F5F5E2E2E2E2E2E2E2E2E2E2E2E2E2E2E2E2E2E2F5E2E2F5E2E2E2E2E2E2E2E2E2E2E2E2E2E2E2E2E2E2E2E2E2E2E2E2E2E2E2E2E2E2E2E2E2E2E2E2E2E2E2E2E2E2
310
E2E2E2E2E2E2E2E2E2E2E2E2E2E2E2E2E2E2E2E2E2E2E2E2E2E2E2E2E2E2E2E2E2E2E2E2E2E2E2E2E2E2E2E2E2E2E2E2E2E2E2E2E2E2E2E2E2E2E2E2E2E2E2E2E2E2E2E2E2E2E2E2E2E2E2E2E2E2E2E2E2E2E2E2E2E2E2E2F5E2E2E2E2E2E2E2E2E2E2E2E2E2E2E2E2E2E2E2E2E2E2E2E2E2F5F5E2E2E2E2E2E2E2E2E2E2E2
310
E2E2E2E2E2E2E2F5E2E2F5E2E2E2E2E2E2E2E2E2E2E2E2E2E2E2E2E2E2E2E2E2E2E2E2E2E2E2E2E2E2E2E2E2E2E2E2E2E2E2E2E2E2E2E2E2E2E2E2E2E2E2E2E2E2E2E2E2E2E2E2E2E2E2E2E2E2E2E2E2E2E2E2E2E2E2E2E2E2E2E2E2E2E2E2E2E2E2F5F5E2E2E2E2E2E2F5F5E2E2E2E2E2E2F5F5F5E2E2E2E2E2E2E2E2E2E2
310
E2E2E2E2E2E2E2E2E2E2E2E2E2E2F5E2E2E2E2E2E2E2E2E2E2E2E2E2E2E2E2E2E2E2E2E2E2E2E2E2F5F5E2E2F5E2E2E2E2E2E2E2E2E2E2E2E2E2E2E2F5E2E2F5E2E2E2E2E2E2E2E2E2E2E2E2E2E2E2E2E2E2E2E2E2E2E2E2E2E2E2E2E2E2E2E2E2E2E2E2E2E2E2E2E2E2E2E2E2E2E2E2E2E2E2E2E2E2E2E2E2E2E2E2E2E2E2
310
E2E2E2E2E2E2E2E2E2E2E2E2E2E2E2E2E2E2E2E2E2E2E2E2E2E2F5F5E2E2F5F5E2E2E2E2E2E2E2E2E2E2F5E2E2E2E2E2F5E2E2E2E2E2E2E2E2E2E2F5E2E2F5F5F5E2E2F5E2E2E2E2E2E2E2E2E2E2E2E2E2E2E2E2F5E2E2E2E2E2E2E2E2F5F5E2E2F5E2E2E2E2E2E2E2E2E2E2E2E2E2E2E2F5E2E2F5E2E2E2E2E2E2E2E2E2E2
310
E2E2E2E2E2E2E2E2E2E2E2E2E2E2E2E2E2E2E2E2E2E2E2E2E2E2E2E2E2E2E2E2E2E2E2E2E2E2E2E2E2E2E2E2E2E2E2E2E2E2E2E2E2E2E2E2E2E2E2E2E2E2E2E2E2E2F5E2E2E2F5F5E2E2F5E2E2E2E2E2E2F5E2F5E2E2E2E2E2E2E2E2E2E2E2F5E2E2E2E2F5E2F5E2E2F5F5F5E2E2E2E2F5F5E2F5E2E2F5F5F5E2E2E2E2E2E2
310
E2E2E2E2E2E2E2E2E2E2F5E2E2E2E2E2E2E2E2F5F5E2E2F5E2E2E2E2E2E2E2E2E2E2E2E2E2E2E2F5E2E2F5E2E2E2E2E2E2E2E2E2E2E2E2E2E2E2E2E2E2E2E2E2E2E2E2E2E2E2E2E2E2E2E2E2E2E2E2E2E2E2E2E2E2E2E2E2E2E2E2E2E2E2E2E2E2E2E2E2E2E2E2E2E2E2E2E2E2E2E2E2E2E2E2E2E2E2E2E2F5E2E2F5E2E2F5
310
E2E2E2F5F5F5F5F5F5F5F5F5F5E2E2E2E2E2F5E2E2F5E2E2E2E2F5E2F5E2F5E2E2E2E2E2E2E2F5F5E2F5F5F5F5E2F5E2E2E2E2E2E2E2E2E2E2E2E2E2E2E2E2F5E2E2E2E2E2E2E2E2F5F5E2E2F5E2E2E2E2E2E2E2E2E2E2E2E2E2E2E2F5E2E2F5E2E2E2E2E2E2E2E2E2E2E2E2E2E2E2E2E2E2E2E2E2E2E2E2E2E2E2E2E2E2E2
310
E2E2E2E2E2E2E2E2E2E2E2E2E2E2E2E2E2E2E2E2E2E2E2E2E2E2E2E2E2E2E2E2E2E2E2E2E2E2E2E2E2E2E2E2E2E2E2F5E2E2E2F5E2E2E2E2E2E2E2E2E2F5E2E2E2E2E2E2E2E2F5E2E2E2F5E2E2E2E2F5E2E2E2F5E2E2E2E2E2E2E2F5E2E2E2E2F5E2E2F5E2E2E2E2E2E2E2E2E2E2E2E2E2E2E2E2F5E2E2E2E2E2E2E2E2F5F5
310
E2E2F5E2E2E2E2E2E2E2E2E2E2E2E2E2E2E2F5E2E2F5E2E2E2E2E2E2E2E2E2E2E2E2E2E2E2E2E2E2E2E2E2E2E2E2E2E2E2E2E2E2E2E2E2E2E2E2E2E2E2E2E2E2E2E2E2E2E2E2E2E2E2E2E2E2E2E2E2E2E2E2E2E2E2E2E2E2E2E2E2E2E2E2E2E2E2E2F5F5F5F5F5F5E2F5F5E2E2E2E2F5F5F5F5F5F5E2E2E2E2E2F5E2E2E2E2
310
F5E2E2E2E2F5E2E2E2E2E2E2E2E2E2E2E2F5E2E2E2E2F5E2E2F5E2E2E2E2E2E2E2E2E2E2E2E2E2E2E2E2F5E2E2E2E2E2E2E2E2F5F5E2E2F5E2E2E2E2E2E2E2E2E2E2E2E2E2E2E2F5E2E2F5E2E2E2E2E2E2E2E2E2E2E2E2E2E2E2E2E2E2E2E2E2E2E2E2E2E2E2E2E2E2E2E2E2E2E2E2E2E2E2E2E2E2E2E2E2E2E2E2E2E2E2E2
310
E2E2E2E2E2E2E2E2E2E2E2E2E2E2E2E2E2E2E2E2E2E2E2E2E2F5E2F5F5F5E2F5E2E2E2E2E2E2E2E2F5E2E2E2E2E2E2E2E2E2E2E2E2F5E2E2E2E2F5E2E2E2E2E2E2E2E2E2E2E2F5E2E2E2E2F5E2E2F5E2E2E2E2E2E2E2E2E2E2E2E2E2E2E2E2F5E2E2E2E2E2E2E2E2F5F5E2E2F5E2E2E2E2E2E2E2E2E2E2E2E2E2E2E2F5E2E2
310
F5E2E2E2E2E2E2E2E2E2E2E2E2E2E2E2E2E2E2E2E2E2E2E2E2E2E2E2E2E2E2E2E2E2E2E2E2E2E2E2E2E2E2E2E2E2E2E2E2E2E2E2E2E2E2E2E2E2E2E2E2E2E2E2E2E2E2E2E2E2E2E2E2E2E2E2E2E2E2F5E2E2E2F5E2E2E2E2F5F5F5F5F5F5F5F5F5F5E2F5F5F5F5F5F5F5F5F5F5E2E2E2F5E2E2F5E2F5E2E2E2E2E2F5E2F5F5
310
F5F5F5F5F5E2E2E2E2E2E2E2E2E2E2E2E2E2E2E2E2F5E2E2E2E2E2E2E2E2F5F5E2E2F5E2E2E2E2E2E2E2E2E2E2E2E2E2E2E2F5E2E2F5E2E2E2E2E2E2E2E2E2E2E2E2E2E2E2E2E2E2E2E2E2E2E2E2E2E2E2E2E2E2E2E2E2E2E2E2E2E2E2E2E2E2E2E2E2E2E2E2E2E2E2E2E2E2E2E2E2E2E2E2E2E2E2E2E2E2E2E2E2E2E2E2E2
310
E2E2E2E2F5E2E2F5F5E2F5E2E2E2F5F5F5F5F5F5F5F5F5F5E2E2E2E2E2E2E2E2F5E2E2E2E2F5F5E2E2F5F5F5F5E2E2E2E2F5E2E2E2E2F5E2F5F5E2E2E2E2E2E2E2E2E2E2E2E2E2E2E2E2F5E2E2E2E2E2E2E2E2F5F5E2E2F5E2E2E2E2E2E2E2E2E2E2E2E2E2E2E2F5E2E2F5E2E2E2E2E2E2E2E2E2E2E2E2E2E2E2E2E2E2E2E2
310
E2E2E2E2E2E2E2E2E2E2E2E2E2E2E2E2E2E2E2E2E2E2E2E2E2E2E2E2E2E2E2E2E2E2E2E2E2E2E2E2E2E2E2E2E2E2E2E2E2E2E2E2E2E2E2E2F5E2E2E2F5E2E2E2F5E2E2E2E2E2E2E2F5E2E2E2E2E2E2E2E2E2E2E2E2F5E2E2E2E2E2E2E2E2E2E2E2E2E2E2E2E2E2E2E2E2E2F5E2E2F5E2E2E2E2E2E2E2E2E2E2E2E2E2E2E2E2
310
F5E2E2E2E2E2E2E2E2F5F5E2E2F5E2E2E2E2E2E2E2E2E2E2E2E2E2E2E2F5E2E2F5E2E2E2E2E2E2E2E2E2E2E2E2E2E2E2E2E2E2E2E2E2E2E2E2E2E2E2E2E2E2E2E2E2E2E2E2E2E2E2E2E2E2E2E2E2E2E2E2E2E2E2E2E2E2E2E2E2E2E2E2E2E2E2E2E2E2E2E2E2E2E2E2E2E2E2E2E2E2E2E2E2E2E2E2E2E2E2E2E2E2E2E2F5E2
310
E2E2E2E2E2E2E2E2E2E2E2F5E2E2E2E2E2E2E2E2E2E2E2E2E2E2E2E2E2E2E2E2E2E2E2E2F5E2E2E2E2E2E2E2E2E2E2E2E2E2E2E2E2F5E2E2E2E2E2E2E2E2F5F5E2E2F5E2E2E2E2E2E2E2E2E2E2E2E2E2E2E2F5E2E2F5E2E2E2E2E2E2E2E2E2E2E2E2E2E2E2E2E2E2E2E2E2E2E2E2E2E2E2E2E2E2E2E2E2E2E2E2E2E2E2E2E2
310
E2E2E2E2E2E2E2E2E2E2E2E2E2E2E2E2E2E2E2E2E2E2E2E2E2E2E2E2E2E2E2E2E2E2E2E2E2E2E2E2E2E2E2E2E2E2E2E2E2E2E2E2E2E2E2E2E2E2E2E2E2E2E2E2E2E2E2E2E2E2E2E2E2E2E2E2E2E2E2E2E2E2E2E2E2E2E2E2E2F5E2E2E2E2E2E2E2E2E2E2E2E2E2E2E2E2F5E2E2E2E2E2E2E2E2F5F5E2E2F5E2E2E2E2E2E2E2
310
E2E2E2E2E2E2E2E2F5E2E2F5E2E2E2E2E2E2E2E2E2E2E2E2E2E2E2E2E2E2E2E2E2E2E2E2E2E2E2E2E2E2E2E2E2E2E2E2E2E2E2E2E2E2E2E2E2E2E2E2E2E2E2E2E2E2E2E2E2E2E2E2E2E2E2E2E2E2E2E2E2E2E2E2E2E2E2E2E2E2E2E2E2E2E2E2E2E2E2E2E2E2E2E2E2E2E2E2E2E2E2E2E2E2E2E2E2E2E2E2E2E2E2E2E2E2E2
310
E2E2E2E2E2E2E2E2E2E2E2E2E2E2E2F5E2E2E2E2E2E2E2E2E2E2E2E2E2E2E2E2F5E2E2E2E2E2E2E2E2F5F5E2E2F5E2E2E2E2E2E2E2E2E2E2E2E2E2E2E2F5E2E2F5E2E2E2E2E2E2E2E2E2E2E2E2E2E2E2E2E2E2E2E2E2E2E2E2E2E2E2E2E2E2E2E2E2E2E2E2E2E2E2E2E2E2E2E2E2E2E2E2E2E2E2E2E2E2E2E2E2E2E2E2E2E2
310
E2E2E2E2E2E2E2E2E2E2E2E2E2E2E2E2E2E2E2E2E2E2E2E2E2E2E2E2E2E2E2E2E2E2E2E2E2E2E2E2E2E2E2E2E2E2E2E2E2E2E2E2E2E2E2E2E2E2E2E2E2E2E2E2E2E2E2E2F5E2E2E2E2E2E2E2E2E2E2E2E2E2E2E2E2F5E2E2E2E2E2E2E2E2F5F5E2E2F5E2E2E2E2E2E2E2E2E2E2E2E2E2E2E2F5E2E2F5E2E2E2E2E2E2E2E2E2
310
E2E2E2E2E2E2E2E2E2E2E2E2E2E2E2E2E2E2E2E2E2E2E2E2E2E2E2E2E2E2E2E2E2E2E2E2E2E2E2E2E2E2E2E2E2E2E2E2E2E2E2E2E2E2E2E2E2E2E2E2E2E2E2E2E2E2E2E2E2E2E2E2E2E2E2E2E2E2E2E2E2E2E2E2E2E2E2E2E2E2E2E2E2E2E2E2E2E2E2E2E2E2E2E2E2E2E2E2E2E2E2E2E2E2E2E2E2E2E2E2E2F5E2E2E2E2E2
310
E2E2E2E2E2E2E2E2E2E2E2F5E2E2E2E2E2E2E2E2F5F5E2E2F5E2E2E2E2E2E2E2E2E2E2E2E2E2E2E2F5E2E2F5E2E2E2E2E2E2E2E2E2E2E2E2E2E2E2E2E2E2E2E2E2E2E2E2E2E2E2E2E2E2E2E2E2E2E2E2E2E2E2E2E2E2E2E2E2E2E2E2E2E2E2E2E2E2E2E2E2E2E2E2E2E2E2E2E2E2E2E2E2E2E2E2E2E2E2E2E2E2E2E2E2E2E2
310
E2E2E2E2E2E2E2E2E2E2E2E2E2E2E2E2E2E2E2E2E2E2E2E2E2E2E2E2E2E2E2E2E2E2E2E2E2E2E2E2E2E2E2E2E2E2E2F5E2E2E2E2E2E2E2E2E2E2E2E2E2E2E2E2F5E2E2E2E2E2E2E2E2F5F5E2E2F5E2E2E2E2E2E2E2E2E2E2E2E2E2E2E2F5E2E2F5E2E2E2E2E2E2E2E2E2E2E2E2E2E2E2E2E2E2E2E2E2E2E2E2E2E2E2E2E2E2
310
E2E2E2E2E2E2E2E2E2E2E2E2E2E2E2E2E2E2E2E2E2E2E2E2E2E2E2E2E2E2E2E2E2E2E2E2E2E2E2E2E2E2E2E2E2E2E2E2E2E2E2E2E2E2E2E2E2E2E2E2E2E2E2E2E2E2E2E2E2E2E2E2E2E2E2E2E2E2E2E2E2E2E2E2E2E2E2E2E2E2E2E2E2E2E2E2E2E2E2E2F5E2E2E2E2E2E2E2E2E2E2E2E2E2E2E2E2F5E2E2E2E2E2E2E2E2F5
310
F5E2E2E2E2E2E2E2E2E2E2E2E2E2E2E2E2E2E2F5E2E2F5E2E2E2E2E2E2E2E2E2E2E2E2E2E2E2E2E2E2E2E2E2E2E2E2E2E2E2E2E2E2E2E2E2E2E2E2E2E2E2E2E2E2E2E2E2E2E2E2E2E2E2E2E2E2E2E2E2E2E2E2E2E2E2E2E2E2E2E2E2E2E2E2E2E2E2E2E2E2E2E2E2E2E2E2E2E2E2E2E2E2E2E2E2E2E2E2E2E2E2E2E2E2E2E2
310
E2E2E2E2E2E2E2E2E2E2E2E2E2E2E2E2E2E2E2E2E2E2E2E2E2E2F5E2E2E2E2E2E2E2E2E2E2E2E2E2E2E2E2E2E2E2E2E2E2E2E2E2F5F5E2E2E2E2E2E2E2E2E2E2E2E2E2E2E2E2E2E2F5E2E2F5E2E2E2E2E2E2E2E2E2E2E2E2E2E2E2E2E2E2E2E2E2E2E2E2E2E2E2E2E2E2E2E2E2E2E2E2E2E2E2E2E2E2E2E2E2E2E2E2E2E2E2
310
E2E2E2E2E2E2E2E2E2E2E2E2E2E2E2E2E2E2E2E2E2E2E2E2E2E2E2E2E2E2E2E2E2E2E2E2E2E2E2E2E2E2E2E2E2E2E2E2E2E2E2E2E2E2E2E2E2E2E2E2E2E2E2E2E2E2E2E2E2E2E2E2E2E2E2E2E2E2E2F5E2E2E2E2E2E2E2E2E2E2E2E2E2E2E2E2E2E2E2E2E2E2E2E2E2F5F5E2E2E2E2E2E2E2E2E2E2E2E2E2E2E2E2E2E2F5E2
310
E2F5E2E2E2E2E2E2E2E2E2E2E2E2E2E2E2E2E2E2E2E2E2E2E2E2E2E2E2E2E2E2E2E2E2E2E2E2E2E2E2E2E2E2E2E2E2E2E2E2E2E2E2E2E2E2E2E2E2E2E2E2E2E2E2E2E2E2E2E2E2E2E2E2E2E2E2E2E2E2E2E2E2E2E2E2E2E2E2E2E2E2E2E2E2E2E2E2E2E2E2E2E2E2E2E2E2E2E2E2E2E2E2E2E2E2E2E2E2E2E2E2E2E2E2E2E2
310
E2E2E2E2E2F5E2E2E2E2E2E2E2E2E2E2E2E2E2E2E2E2E2E2E2E2E2E2E2E2E2F5F5E2E2E2E2E2E2E2E2E2E2E2E2E2E2E2E2E2E2F5E2E2F5E2E2E2E2E2E2E2E2E2E2E2E2E2E2E2E2E2E2E2E2E2E2E2E2E2E2E2E2E2E2E2E2E2E2E2E2E2E2E2E2E2E2E2E2E2E2E2E2E2E2E2E2E2E2E2E2E2E2E2E2E2E2E2E2E2E2E2E2E2E2E2E2
310
E2E2E2E2E2E2E2E2E2E2E2E2E2E2E2E2E2E2E2E2E2E2E2E2E2E2E2E2E2E2E2E2E2E2E2E2E2E2E2E2E2E2E2E2E2E2E2E2E2E2E2E2E2E2E2E2E2E2F5E2E2E2E2E2E2E2E2E2E2E2E2E2E2E2E2E2E2E2E2E2E2E2E2E2F5F5E2E2E2E2E2E2E2E2E2E2E2E2E2E2E2E2E2E2F5E2E2F5E2E2E2E2E2E2E2E2E2E2E2E2E2E2E2E2E2E2E2
310
E2E2E2E2E2E2E2E2E2E2E2E2E2E2E2E2E2E2E2E2E2E2E2E2E2E2E2E2E2E2E2E2E2E2E2E2E2E2E2E2E2E2E2E2E2E2E2E2E2E2E2E2E2E2E2E2E2E2E2E2E2E2E2E2E2E2E2E2E2E2E2E2E2E2E2E2E2E2E2E2E2E2E2E2E2E2E2E2E2E2E2E2E2E2E2E2E2E2E2E2E2E2E2E2E2E2E2E2E2E2E2F5E2E2E2E2E2E2E2E2E2E2E2E2E2E2E2
310
E2E2E2E2E2E2E2E2E2E2F5F5E2E2E2E2E2E2E2E2E2E2E2E2E2E2E2E2E2E2F5E2E2F5E2E2E2E2E2E2E2E2E2E2E2E2E2E2E2E2E2E2E2E2E2E2E2E2E2E2E2E2E2E2E2E2E2E2E2E2E2E2E2E2E2E2E2E2E2E2E2E2E2E2E2E2E2E2E2E2E2E2E2E2E2E2E2E2E2E2E2E2E2E2E2E2E2E2E2E2E2E2E2E2E2E2E2E2E2E2E2E2E2E2E2E2E2
310
E2E2E2E2E2E2E2E2E2E2E2E2E2E2E2E2E2E2E2E2E2E2E2E2E2E2E2E2E2E2E2E2E2E2E2E2E2F5E2E2E2E2E2E2E2E2E2E2E2E2E2E2E2E2E2E2E2E2E2E2E2E2E2F5F5E2E2E2E2E2E2E2E2E2E2E2E2E2E2E2E2E2E2F5E2E2F5E2E2E2E2E2E2E2E2E2E2E2E2E2E2E2E2E2E2E2E2E2E2E2E2E2E2E2E2E2E2E2E2E2E2E2E2E2E2E2E2
310
E2E2E2E2E2E2E2E2E2E2E2E2E2E2E2E2E2E2E2E2E2E2E2E2E2E2E2E2E2E2E2E2E2E2E2E2E2E2E2E2E2E2E2E2E2E2E2E2E2E2E2E2E2E2E2E2E2E2E2E2E2E2E2E2E2E2E2E2E2E2E2E2E2E2E2E2E2E2E2E2E2E2E2E2E2E2E2E2E2E2F5E2E2E2E2E2E2E2E2E2E2E2E2E2E2E2E2E2E2E2E2E2E2E2E2E2F5F5E2E2E2E2E2E2E2E2E2
310
E2E2E2E2E2E2E2E2E2F5E2E2F5E2E2E2E2E2E2E2E2E2E2E2E2E2E2E2E2E2E2E2E2E2E2E2E2E2E2E2E2E2E2E2E2E2E2E2E2E2E2E2E2E2E2E2E2E2E2E2E2E2E2E2E2E2E2E2E2E2E2E2E2E2E2E2E2E2E2E2E2E2E2E2E2E2E2E2E2E2E2E2E2E2E2E2E2E2E2E2E2E2E2E2E2E2E2E2E2E2E2E2E2E2E2E2E2E2E2E2E2E2E2E2E2E2E2
310
E2E2E2E2E2E2E2E2E2E2E2E2E2E2E2E2F5E2E2E2E2E2E2E2E2E2E2E2E2E2E2E2E2E2E2E2E2E2E2E2E2E2F5F5E2E2F5E2E2E2E2E2E2E2E2E2E2E2E2E2E2E2F5E2E2F5E2E2E2E2E2E2E2E2E2E2E2E2E2E2E2E2E2E2E2E2E2E2E2E2E2E2E2E2E2E2E2E2E2E2E2E2E2E2E2E2E2E2E2E2E2E2E2E2E2E2E2E2E2E2E2E2E2E2E2E2E2
310
E2E2E2E2E2E2E2E2E2E2E2E2E2E2E2E2E2E2E2E2E2E2E2E2E2E2E2E2E2E2E2E2E2E2E2E2E2E2E2E2E2E2E2E2E2E2E2E2E2E2E2E2E2E2E2E2E2E2E2E2E2E2E2E2E2E2E2E2E2F5E2E2E2E2E2E2E2E2E2E2E2E2E2E2E2E2F5E2E2E2E2E2E2E2E2F5F5E2E2F5E2E2E2E2E2E2E2E2E2E2E2E2E2E2E2F5E2E2F5E2E2E2E2E2E2E2E2
310
E2E2E2E2E2E2E2E2E2E2E2E2E2E2E2E2E2E2E2E2E2E2E2E2E2E2E2E2E2E2E2E2E2E2E2E2E2E2E2E2E2E2E2E2E2E2E2E2E2E2E2E2E2E2E2E2E2E2E2E2E2E2E2E2E2E2E2E2E2E2E2E2E2E2E2E2E2E2E2E2E2E2E2E2E2E2E2E2E2E2E2E2E2E2E2E2E2E2E2E2E2E2E2E2E2E2E2E2E2E2E2E2E2E2E2E2E2E2E2E2E2E2F5E2E2E2E2
310
E2E2E2E2E2E2E2E2E2E2E2E2F5E2E2E2E2E2E2E2E2F5F5E2E2F5E2E2E2E2E2E2E2E2E2E2E2E2E2E2E2F5E2E2F5E2E2E2E2E2E2E2E2E2E2E2E2E2E2E2E2E2E2E2E2E2E2E2E2E2E2E2E2E2E2E2E2E2E2E2E2E2E2E2E2E2E2E2E2E2E2E2E2E2E2E2E2E2E2E2E2E2E2E2E2E2E2E2E2E2E2E2E2E2E2E2E2E2E2E2E2E2E2E2E2E2E2
310
E2E2E2E2E2E2E2E2E2E2E2E2E2E2E2E2E2E2E2E2E2E2E2E2E2E2E2E2E2E2E2E2E2E2E2E2E2E2E2E2E2E2E2E2E2E2E2E2F5E2E2E2E2E2E2E2E2E2E2E2E2E2E2E2E2F5E2E2E2E2E2E2E2E2F5F5E2E2F5E2E2E2E2E2E2E2E2E2E2E2E2E2E2E2F5E2E2F5E2E2E2E2E2E2E2E2E2E2E2E2E2E2E2E2E2E2E2E2E2E2E2E2E2E2E2E2E2
310
E2E2E2E2E2E2E2E2E2E2E2E2E2E2E2E2E2E2E2E2E2E2E2E2E2E2E2E2E2E2E2E2E2E2E2E2E2E2E2E2E2E2E2E2E2E2E2E2E2E2E2E2E2E2E2E2E2E2E2E2E2E2E2E2E2E2E2E2E2E2E2E2E2E2E2E2E2E2E2E2E2E2E2E2E2E2E2E2E2E2E2E2E2E2E2E2E2E2E2E2E2F5E2E2E2E2E2E2E2E2E2E2E2E2E2E2E2E2F5E2E2E2E2E2E2E2E2
310
F5F5E2E2F5E2E2E2E2E2E2E2E2E2E2E2E2E2E2E2F5E2E2F5E2E2E2E2E2E2E2E2E2E2E2E2E2E2E2E2E2E2E2E2E2E2E2E2E2E2E2E2E2E2E2E2E2E2E2E2E2E2E2E2E2E2E2E2E2E2E2E2E2E2E2E2E2E2E2E2E2E2E2E2E2E2E2E2E2E2E2E2E2E2E2E2E2E2E2E2E2E2E2E2E2E2E2E2E2E2E2E2E2E2E2E2E2E2E2E2E2E2E2E2E2E2E2
310
E2E2E2E2E2E2E2E2E2E2E2E2E2E2E2E2E2E2E2E2E2E2E2E2E2E2E2F5E2E2E2E2E2E2E2E2E2E2E2E2E2E2E2E2F5E2E2E2E2E2E2E2E2F5F5E2E2F5E2E2E2E2E2E2E2E2E2E2E2E2E2E2E2F5E2E2F5E2E2E2E2E2E2E2E2E2E2E2E2E2E2E2E2E2E2E2E2E2E2E2E2E2E2E2E2E2E2E2E2E2E2E2E2E2E2E2E2E2E2E2E2E2E2E2E2E2E2
310
E2E2E2E2E2E2E2E2E2E2E2E2E2E2E2E2E2E2E2E2E2E2E2E2E2E2E2E2E2E2E2E2E2E2E2E2E2E2E2E2E2E2E2E2E2E2E2E2E2E2E2E2E2E2E2E2E2E2E2E2E2E2E2E2E2E2E2E2E2E2E2E2E2E2E2E2E2E2E2E2F5E2E2E2E2E2E2E2E2E2E2E2E2E2E2E2E2F5E2E2E2E2E2E2E2E2F5F5E2E2F5E2E2E2E2E2E2E2E2E2E2E2E2E2E2E2F5
310
E2E2F5E2E2E2E2E2E2E2E2E2E2E2E2E2E2E2E2E2E2E2E2E2E2E2E2E2E2E2E2E2E2E2E2E2E2E2E2E2E2E2E2E2E2E2E2E2E2E2E2E2E2E2E2E2E2E2E2E2E2E2E2E2E2E2E2E2E2E2E2E2E2E2E2E2E2E2E2E2E2E2E2E2E2E2E2E2E2E2E2E2E2E2E2E2E2E2E2E2E2E2E2E2E2E2E2E2E2E2E2E2E2E2E2E2E2E2E2E2E2E2E2E2E2E2E2
310
E2E2E2E2E2E2F5E2E2E2E2E2E2E2E2E2E2E2E2E2E2E2E2F5E2E2E2E2E2E2E2E2F5F5E2E2F5E2E2E2E2E2E2E2E2E2E2E2E2E2E2E2F5E2E2F5E2E2E2E2E2E2E2E2E2E2E2E2E2E2E2E2E2E2E2E2E2E2E2E2E2E2E2E2E2E2E2E2E2E2E2E2E2E2E2E2E2E2E2E2E2E2E2E2E2E2E2E2E2E2E2E2E2E2E2E2E2E2E2E2E2E2E2E2E2E2E2
310
E2E2E2E2E2E2E2E2E2E2E2E2E2E2E2E2E2E2E2E2E2E2E2E2E2E2E2E2E2E2E2E2E2E2E2E2E2E2E2E2E2E2E2E2E2E2E2E2E2E2E2E2E2E2E2E2E2E2E2F5E2E2E2E2E2E2E2E2E2E2E2E2E2E2E2E2F5E2E2E2E2E2E2E2E2F5F5E2E2F5E2E2E2E2E2E2E2E2E2E2E2E2E2E2E2F5E2E2F5E2E2E2E2E2E2E2E2E2E2E2E2E2E2E2E2E2E2
310
E2E2E2E2E2E2E2E2E2E2E2E2E2E2E2E2E2E2E2E2E2E2E2E2E2E2E2E2E2E2E2E2E2E2E2E2E2E2E2E2E2E2E2E2E2E2E2E2E2E2E2E2E2E2E2E2E2E2E2E2E2E2E2E2E2E2E2E2E2E2E2E2E2E2E2E2E2E2E2E2E2E2E2E2E2E2E2E2E2E2E2E2E2E2E2E2E2E2E2E2E2E2E2E2E2E2E2E2E2E2E2E2F5E2E2E2E2E2E2E2E2E2E2E2E2E2E2
310
E2E2F5E2E2E2E2E2E2E2E2F5F5E2E2F5E2E2E2E2E2E2E2E2E2E2E2E2E2E2E2F5E2E2F5E2E2E2E2E2E2E2E2E2E2E2E2E2E2E2E2E2E2E2E2E2E2E2E2E2E2E2E2E2E2E2E2E2E2E2E2E2E2E2E2E2E2E2E2E2E2E2E2E2E2E2E2E2E2E2E2E2E2E2E2E2E2E2E2E2E2E2E2E2E2E2E2E2E2E2E2E2E2E2E2E2E2E2E2E2E2E2E2E2E2E2E2
310
E2E2E2E2E2E2E2E2E2E2E2E2E2E2E2E2E2E2E2E2E2E2E2E2E2E2E2E2E2E2E2E2E2E2E2E2E2E2F5E2E2E2E2E2E2E2E2E2E2E2E2E2E2E2E2F5E2E2E2E2E2E2E2E2F5F5E2E2F5E2E2E2E2E2E2E2E2E2E2E2E2E2E2E2F5E2E2F5E2E2E2E2E2E2E2E2E2E2E2E2E2E2E2E2E2E2E2E2E2E2E2E2E2E2E2E2E2E2E2E2E2E2E2E2E2E2E2
310
E2E2E2E2E2E2E2E2E2E2E2E2E2E2E2E2E2E2E2E2E2E2E2E2E2E2E2E2E2E2E2E2E2E2E2E2E2E2E2E2E2E2E2E2E2E2E2E2E2E2E2E2E2E2E2E2E2E2E2E2E2E2E2E2E2E2E2E2E2E2E2E2E2E2E2E2E2E2E2E2E2E2E2E2E2E2E2E2E2E2E2F5E2E2E2E2E2E2E2E2E2E2E2E2E2E2E2E2F5E2E2E2E2E2E2E2E2F5F5E2E2F5E2E2E2E2E2
310
E2E2E2E2E2E2E2E2E2E2F5E2E2F5E2E2E2E2E2E2E2E2E2E2E2E2E2E2E2E2E2E2E2E2E2E2E2E2E2E2E2E2E2E2E2E2E2E2E2E2E2E2E2E2E2E2E2E2E2E2E2E2E2E2E2E2E2E2E2E2E2E2E2E2E2E2E2E2E2E2E2E2E2E2E2E2E2E2E2E2E2E2E2E2E2E2E2E2E2E2E2E2E2E2E2E2E2E2E2E2E2E2E2E2E2E2E2E2E2E2E2E2E2E2E2E2E2
310
E2E2E2E2E2E2E2E2E2E2E2E2E2E2E2E2E2F5E2E2E2E2E2E2E2E2E2E2E2E2E2E2E2E2F5E2E2E2E2E2E2E2E2F5F5E2E2F5E2E2E2E2E2E2E2E2E2E2E2E2E2E2E2F5E2E2F5E2E2E2E2E2E2E2E2E2E2E2E2E2E2E2E2E2E2E2E2E2E2E2E2E2E2E2E2E2E2E2E2E2E2E2E2E2E2E2E2E2E2E2E2E2E2E2E2E2E2E2E2E2E2E2E2E2E2E2E2
310
E2E2E2E2E2E2E2E2E2E2E2E2E2E2E2E2E2E2E2E2E2E2E2E2E2E2E2E2E2E2E2E2E2E2E2E2E2E2E2E2E2E2E2E2E2E2E2E2E2E2E2E2E2E2E2E2E2E2E2E2E2E2E2E2E2E2E2E2E2E2F5E2E2E2E2E2E2E2E2E2E2E2E2E2E2E2E2F5E2E2E2E2E2E2E2E2F5F5E2E2F5E2E2E2E2E2E2E2E2E2E2E2E2E2E2E2F5E2E2F5E2E2E2E2E2E2E2
310
E2E2E2E2E2E2E2E2E2E2E2E2E2E2E2E2E2E2E2E2E2E2E2E2E2E2E2E2E2E2E2E2E2E2E2E2E2E2E2E2E2E2E2E2E2E2E2E2E2E2E2E2E2E2E2E2E2E2E2E2E2E2E2E2E2E2E2E2E2E2E2E2E2E2E2E2E2E2E2E2E2E2E2E2E2E2E2E2E2E2E2E2E2E2E2E2E2E2E2E2E2E2E2E2E2E2E2E2E2E2E2E2E2E2E2E2E2E2E2E2E2E2E2F5E2E2E2
310
E2E2E2E2E2E2E2E2E2E2E2E2E2F5E2E2E2E2E2E2E2E2F5F5E2E2F5E2E2E2E2E2E2E2E2E2E2E2E2E2E2E2F5E2E2F5E2E2E2E2E2E2E2E2E2E2E2E2E2E2E2E2E2E2E2E2E2E2E2E2E2E2E2E2E2E2E2E2E2E2E2E2E2E2E2E2E2E2E2E2E2E2E2E2E2E2E2E2E2E2E2E2E2E2E2E2E2E2E2E2E2E2E2E2E2E2E2E2E2E2E2E2E2E2E2E2E2
310
E2E2E2E2E2E2E2E2E2E2E2E2E2E2E2E2E2E2E2E2E2E2E2E2E2E2E2E2E2E2E2E2E2E2E2E2E2E2E2E2E2E2E2E2E2E2E2E2E2F5E2E2E2E2E2E2E2E2E2E2E2E2E2E2E2E2F5E2E2E2E2E2E2E2E2F5F5E2E2F5E2E2E2E2E2E2E2E2E2E2E2E2E2E2E2F5E2E2F5E2E2E2E2E2E2E2E2E2E2E2E2E2E2E2E2E2E2E2E2E2E2E2E2E2E2E2E2
310
E2E2E2E2E2E2E2E2E2E2E2E2E2E2E2E2E2E2E2E2E2E2E2E2E2E2E2E2E2E2E2E2E2E2E2E2E2E2E2E2E2E2E2E2E2E2E2E2E2E2E2E2E2E2E2E2E2E2E2E2E2E2E2E2E2E2E2E2E2E2E2E2E2E2E2E2E2E2E2E2E2E2E2E2E2E2E2E2E2E2E2E2E2E2E2E2E2E2E2E2E2E2F5E2E2E2E2E2E2E2E2E2E2E2E2E2E2E2E2F5E2E2E2E2E2E2E2
310
E2F5F5E2E2E2E2E2E2E2E2E2E2E2E2E2E2E2E2E2E2F5E2E2F5E2E2E2E2E2E2E2E2E2E2E2E2E2E2E2E2E2E2E2E2E2E2E2E2E2E2E2E2E2E2E2E2E2E2E2E2E2E2E2E2E2E2E2E2E2E2E2E2E2E2E2E2E2E2E2E2E2E2E2E2E2E2E2E2E2E2E2E2E2E2E2E2E2E2E2E2E2E2E2E2E2E2E2E2E2E2E2E2E2E2E2E2E2E2E2E2E2E2E2E2E2E2
310
E2E2E2E2E2E2E2E2E2E2E2E2E2E2E2E2E2E2E2E2E2E2E2E2E2E2E2E2F5E2E2E2E2E2E2E2E2E2E2E2E2E2E2E2E2E2E2E2E2E2E2E2E2E2F5F5E2E2E2E2E2E2E2E2E2E2E2E2E2E2E2E2E2E2F5E2E2F5E2E2E2E2E2E2E2E2E2E2E2E2E2E2E2E2E2E2E2E2E2E2E2E2E2E2E2E2E2E2E2E2E2E2E2E2E2E2E2E2E2E2E2E2E2E2E2E2E2
310
E2E2E2E2E2E2E2E2E2E2E2E2E2E2E2E2E2E2E2E2E2E2E2E2E2E2E2E2E2E2E2E2E2E2E2E2E2E2E2E2E2E2E2E2E2E2E2E2E2E2E2E2E2E2E2E2E2E2E2E2E2E2E2E2E2E2E2E2E2E2E2E2E2E2E2E2E2E2E2E2E2F5E2E2E2E2E2E2E2E2E2E2E2E2E2E2E2E2E2E2E2E2E2E2E2E2E2F5F5E2E2E2E2E2E2E2E2E2E2E2E2E2E2E2E2E2E2
310
F5E2E2F5E2E2E2E2E2E2E2E2E2E2E2E2E2E2E2E2E2E2E2E2E2E2E2E2E2E2E2E2E2E2E2E2E2E2E2E2E2E2E2E2E2E2E2E2E2E2E2E2E2E2E2E2E2E2E2E2E2E2E2E2E2E2E2E2E2E2E2E2E2E2E2E2E2E2E2E2E2E2E2E2E2E2E2E2E2E2E2E2E2E2E2E2E2E2E2E2E2E2E2E2E2E2E2E2E2E2E2E2E2E2E2E2E2E2E2E2E2E2E2E2E2E2E2
310
E2E2E2E2E2E2E2F5E2E2E2E2E2E2E2E2E2E2E2E2E2E2E2E2E2E2E2E2E2E2E2E2E2F5F5E2E2E2E2E2E2E2E2E2E2E2E2E2E2E2E2E2E2F5E2E2F5E2E2E2E2E2E2E2E2E2E2E2E2E2E2E2E2E2E2E2E2E2E2E2E2E2E2E2E2E2E2E2E2E2E2E2E2E2E2E2E2E2E2E2E2E2E2E2E2E2E2E2E2E2E2E2E2E2E2E2E2E2E2E2E2E2E2E2E2E2E2
310
E2E2E2E2E2E2E2E2E2E2E2E2E2E2E2E2E2E2E2E2E2E2E2E2E2E2E2E2E2E2E2E2E2E2E2E2E2E2E2E2E2E2E2E2E2E2E2E2E2E2E2E2E2E2E2E2E2E2E2E2F5E2E2E2E2E2E2E2E2E2E2E2E2E2E2E2E2E2E2E2E2E2E2E2E2E2F5F5E2E2E2E2E2E2E2E2E2E2E2E2E2E2E2E2E2E2F5E2E2F5E2E2E2E2E2E2E2E2E2E2E2E2E2E2E2E2E2
310
E2E2E2E2E2E2E2E2E2E2E2E2E2E2E2E2E2E2E2E2E2E2E2E2E2E2E2E2E2E2E2E2E2E2E2E2E2E2E2E2E2E2E2E2E2E2E2E2E2E2E2E2E2E2E2E2E2E2E2E2E2E2E2E2E2E2E2E2E2E2E2E2E2E2E2E2E2E2E2E2E2E2E2E2E2E2E2E2E2E2E2E2E2E2E2E2E2E2E2E2E2E2E2E2E2E2E2E2E2E2E2E2E2F5E2E2E2E2E2E2E2E2E2E2E2E2E2
310
E2E2E2E2E2E2E2E2E2E2E2E2F5F5E2E2E2E2E2E2E2E2E2E2E2E2E2E2E2E2E2E2F5E2E2F5E2E2E2E2E2E2E2E2E2E2E2E2E2E2E2E2E2E2E2E2E2E2E2E2E2E2E2E2E2E2E2E2E2E2E2E2E2E2E2E2E2E2E2E2E2E2E2E2E2E2E2E2E2E2E2E2E2E2E2E2E2E2E2E2E2E2E2E2E2E2E2E2E2E2E2E2E2E2E2E2E2E2E2E2E2E2E2E2E2E2E2
310
E2E2E2E2E2E2E2E2E2E2E2E2E2E2E2E2E2E2E2E2E2E2E2E2E2E2E2E2E2E2E2E2E2E2E2E2E2E2E2F5E2E2E2E2E2E2E2E2E2E2E2E2E2E2E2E2E2E2E2E2E2E2E2E2E2F5F5E2E2E2E2E2E2E2E2E2E2E2E2E2E2E2E2E2E2F5E2E2F5E2E2E2E2E2E2E2E2E2E2E2E2E2E2E2E2E2E2E2E2E2E2E2E2E2E2E2E2E2E2E2E2E2E2E2E2E2E2
310
E2E2E2E2E2E2E2E2E2E2E2E2E2E2E2E2E2E2E2E2E2E2E2E2E2E2E2E2E2E2E2E2E2E2E2E2E2E2E2E2E2E2E2E2E2E2E2E2E2E2E2E2E2E2E2E2E2E2E2E2E2E2E2E2E2E2E2E2E2E2E2E2E2E2E2E2E2E2E2E2E2E2E2E2E2E2E2E2E2E2E2E2F5E2E2E2E2E2E2E2E2E2E2E2E2E2E2E2E2E2E2E2E2E2E2E2E2E2F5F5E2E2E2E2E2E2E2
310
E2E2E2E2E2E2E2E2E2E2E2F5E2E2F5E2E2E2E2E2E2E2E2E2E2E2E2E2E2E2E2E2E2E2E2E2E2E2E2E2E2E2E2E2E2E2E2E2E2E2E2E2E2E2E2E2E2E2E2E2E2E2E2E2E2E2E2E2E2E2E2E2E2E2E2E2E2E2E2E2E2E2E2E2E2E2E2E2E2E2E2E2E2E2E2E2E2E2E2E2E2E2E2E2E2E2E2E2E2E2E2E2E2E2E2E2E2E2E2E2E2E2E2E2E2E2E2
310
E2E2E2E2E2E2E2E2E2E2E2E2E2E2E2E2E2E2F5E2E2E2E2E2E2E2E2E2E2E2E2E2E2E2E2E2E2E2E2E2E2E2E2E2F5F5E2E2E2E2E2E2E2E2E2E2E2E2E2E2E2E2E2E2F5E2E2F5E2E2E2E2E2E2E2E2E2E2E2E2E2E2E2E2E2E2E2E2E2E2E2E2E2E2E2E2E2E2E2E2E2E2E2E2E2E2E2E2E2E2E2E2E2E2E2E2E2E2E2E2E2E2E2E2E2E2E2
310
E2E2E2E2E2E2E2E2E2E2E2E2E2E2E2E2E2E2E2E2E2E2E2E2E2E2E2E2E2E2E2E2E2E2E2E2E2E2E2E2E2E2E2E2E2E2E2E2E2E2E2E2E2E2E2E2E2E2E2E2E2E2E2E2E2E2E2E2E2E2E2F5E2E2E2E2E2E2E2E2E2E2E2E2E2E2E2E2E2E2E2E2E2E2E2E2E2F5F5E2E2F5E2E2E2E2E2E2E2E2E2E2E2E2E2E2E2F5E2E2F5E2E2E2E2E2E2
310
E2E2E2E2E2E2E2E2E2E2E2E2E2E2E2E2E2E2E2E2E2E2E2E2E2E2E2E2E2E2E2E2E2E2E2E2E2E2E2E2E2E2E2E2E2E2E2E2E2E2E2E2E2E2E2E2E2E2E2E2E2E2E2E2E2E2E2E2E2E2E2E2E2E2E2E2E2E2E2E2E2E2E2E2E2E2E2E2E2E2E2E2E2E2E2E2E2E2E2E2E2E2E2E2E2E2E2E2E2E2E2E2E2E2E2E2E2E2E2E2E2E2E2E2F5E2E2
310
E2E2E2E2E2E2E2E2E2E2E2E2E2E2F5E2E2E2E2E2E2E2E2F5F5E2E2F5E2E2E2E2E2E2E2E2E2E2E2E2E2E2E2F5E2E2F5E2E2E2E2E2E2E2E2E2E2E2E2E2E2E2E2E2E2E2E2E2E2E2E2E2E2E2E2E2E2E2E2E2E2E2E2E2E2E2E2E2E2E2E2E2E2E2E2E2E2E2E2E2E2E2E2E2E2E2E2E2E2E2E2E2E2E2E2E2E2E2E2E2E2E2E2E2E2E2E2
310
E2E2E2E2E2E2E2E2E2E2E2E2E2E2E2E2E2E2E2E2E2E2E2E2E2E2E2E2E2E2E2E2E2E2E2E2E2E2E2E2E2E2E2E2E2E2E2E2E2E2F5E2E2E2E2E2E2E2E2E2E2E2E2E2E2E2E2F5E2E2E2E2E2E2E2E2F5F5E2E2F5E2E2E2E2E2E2E2E2E2E2E2E2E2E2E2F5E2E2F5E2E2E2E2E2E2E2E2E2E2E2E2E2E2E2E2E2E2E2E2E2E2E2E2E2E2E2
310
E2E2E2E2E2E2E2E2E2E2E2E2E2E2E2E2E2E2E2E2E2E2E2E2E2E2E2E2E2E2E2E2E2E2E2E2E2E2E2E2E2E2E2E2E2E2E2E2E2E2E2E2E2E2E2E2E2E2E2E2E2E2E2E2E2E2E2E2E2E2E2E2E2E2E2E2E2E2E2E2E2E2E2E2E2E2E2E2E2E2E2E2E2E2E2E2E2E2E2E2E2E2E2F5E2E2E2E2E2E2E2E2E2E2E2E2E2E2E2E2F5E2E2E2E2E2E2
310
E2E2F5F5E2E2F5E2E2E2E2E2E2E2E2E2E2E2E2E2E2E2F5E2E2F5E2E2E2E2E2E2E2E2E2E2E2E2E2E2E2E2E2E2E2E2E2E2E2E2E2E2E2E2E2E2E2E2E2E2E2E2E2E2E2E2E2E2E2E2E2E2E2E2E2E2E2E2E2E2E2E2E2E2E2E2E2E2E2E2E2E2E2E2E2E2E2E2E2E2E2E2E2E2E2E2E2E2E2E2E2E2E2E2E2E2E2E2E2E2E2E2E2E2E2E2E2
310
E2E2E2E2E2E2E2E2E2E2E2E2E2E2E2E2E2E2E2E2E2E2E2E2E2E2E2E2E2F5E2E2E2E2E2E2E2E2E2E2E2E2E2E2E2E2F5E2E2E2E2E2E2E2E2F5F5E2E2F5E2E2E2E2E2E2E2E2E2E2E2E2E2E2E2F5E2E2F5E2E2E2E2E2E2E2E2E2E2E2E2E2E2E2E2E2E2E2E2E2E2E2E2E2E2E2E2E2E2E2E2E2E2E2E2E2E2E2E2E2E2E2E2E2E2E2E2
310
E2E2E2E2E2E2E2E2E2E2E2E2E2E2E2E2E2E2E2E2E2E2E2E2E2E2E2E2E2E2E2E2E2E2E2E2E2E2E2E2E2E2E2E2E2E2E2E2E2E2E2E2E2E2E2E2E2E2E2E2E2E2E2E2E2E2E2E2E2E2E2E2E2E2E2E2E2E2E2E2E2E2F5E2E2E2E2E2E2E2E2E2E2E2E2E2E2E2E2F5E2E2E2E2E2E2E2E2F5F5E2E2F5E2E2E2E2E2E2E2E2E2E2E2E2E2E2
310
E2F5E2E2F5E2E2E2E2E2E2E2E2E2E2E2E2E2E2E2E2E2E2E2E2E2E2E2E2E2E2E2E2E2E2E2E2E2E2E2E2E2E2E2E2E2E2E2E2E2E2E2E2E2E2E2E2E2E2E2E2E2E2E2E2E2E2E2E2E2E2E2E2E2E2E2E2E2E2E2E2E2E2E2E2E2E2E2E2E2E2E2E2E2E2E2E2E2E2E2E2E2E2E2E2E2E2E2E2E2E2E2E2E2E2E2E2E2E2E2E2E2E2E2E2E2E2
310
E2E2E2E2E2E2E2E2F5E2E2E2E2E2E2E2E2E2E2E2E2E2E2E2E2F5E2E2E2E2E2E2E2E2F5F5E2E2F5E2E2E2E2E2E2E2E2E2E2E2E2E2E2E2F5E2E2F5E2E2E2E2E2E2E2E2E2E2E2E2E2E2E2E2E2E2E2E2E2E2E2E2E2E2E2E2E2E2E2E2E2E2E2E2E2E2E2E2E2E2E2E2E2E2E2E2E2E2E2E2E2E2E2E2E2E2E2E2E2E2E2E2E2E2E2E2E2
310
E2E2E2E2E2E2E2E2E2E2E2E2E2E2E2E2E2E2E2E2E2E2E2E2E2E2E2E2E2E2E2E2E2E2E2E2E2E2E2E2E2E2E2E2E2E2E2E2E2E2E2E2E2E2E2E2E2E2E2E2E2F5E2E2E2E2E2E2E2E2E2E2E2E2E2E2E2E2F5E2E2E2E2E2E2E2E2F5F5E2E2F5E2E2E2E2E2E2E2E2E2E2E2E2E2E2E2F5E2E2F5E2E2E2E2E2E2E2E2E2E2E2E2E2E2E2E2
310
E2E2E2E2E2E2E2E2E2E2E2E2E2E2E2E2E2E2E2E2E2E2E2E2E2E2E2E2E2E2E2E2E2E2E2E2E2E2E2E2E2E2E2E2E2E2E2E2E2E2E2E2E2E2E2E2E2E2E2E2E2E2E2E2E2E2E2E2E2E2E2E2E2E2E2E2E2E2E2E2E2E2E2E2E2E2E2E2E2E2E2E2E2E2E2E2E2E2E2E2E2E2E2E2E2E2E2E2E2E2E2E2E2E2F5E2E2E2E2E2E2E2E2E2E2E2E2
310
E2E2E2E2F5E2E2E2E2E2E2E2E2F5F5E2E2F5E2E2E2E2E2E2E2E2E2E2E2E2E2E2E2F5E2E2F5E2E2E2E2E2E2E2E2E2E2E2E2E2E2E2E2E2E2E2E2E2E2E2E2E2E2E2E2E2E2E2E2E2E2E2E2E2E2E2E2E2E2E2E2E2E2E2E2E2E2E2E2E2E2E2E2E2E2E2E2E2E2E2E2E2E2E2E2E2E2E2E2E2E2E2E2E2E2E2E2E2E2E2E2E2E2E2E2E2E2
310
E2E2E2E2E2E2E2E2E2E2E2E2E2E2E2E2E2E2E2E2E2E2E2E2E2E2E2E2E2E2E2E2E2E2E2E2E2E2E2E2F5E2E2E2E2E2E2E2E2E2E2E2E2E2E2E2E2F5E2E2E2E2E2E2E2E2F5F5E2E2F5E2E2E2E2E2E2E2E2E2E2E2E2E2E2E2F5E2E2F5E2E2E2E2E2E2E2E2E2E2E2E2E2E2E2E2E2E2E2E2E2E2E2E2E2E2E2E2E2E2E2E2E2E2E2E2E2
310
E2E2E2E2E2E2E2E2E2E2E2E2E2E2E2E2E2E2E2E2E2E2E2E2E2E2E2E2E2E2E2E2E2E2E2E2E2E2E2E2E2E2E2E2E2E2E2E2E2E2E2E2E2E2E2E2E2E2E2E2E2E2E2E2E2E2E2E2E2E2E2E2E2E2E2E2E2E2E2E2E2E2E2E2E2E2E2E2E2E2E2E2E2F5E2E2E2E2E2E2E2E2E2E2E2E2E2E2E2E2F5E2E2E2E2E2E2E2E2F5F5E2E2F5E2E2E2
310
E2E2E2E2E2E2E2E2E2E2E2E2F5E2E2F5E2E2E2E2E2E2E2E2E2E2E2E2E2E2E2E2E2E2E2E2E2E2E2E2E2E2E2E2E2E2E2E2E2E2E2E2E2E2E2E2E2E2E2E2E2E2E2E2E2E2E2E2E2E2E2E2E2E2E2E2E2E2E2E2E2E2E2E2E2E2E2E2E2E2E2E2E2E2E2E2E2E2E2E2E2E2E2E2E2E2E2E2E2E2E2E2E2E2E2E2E2E2E2E2E2E2E2E2E2E2E2
310
E2E2E2E2E2E2E2E2E2E2E2E2E2E2E2E2E2E2E2F5E2E2E2E2E2E2E2E2E2E2E2E2E2E2E2E2F5E2E2E2E2E2E2E2E2F5F5E2E2F5E2E2E2E2E2E2E2E2E2E2E2E2E2E2E2F5E2E2F5E2E2E2E2E2E2E2E2E2E2E2E2E2E2E2E2E2E2E2E2E2E2E2E2E2E2E2E2E2E2E2E2E2E2E2E2E2E2E2E2E2E2E2E2E2E2E2E2E2E2E2E2E2E2E2E2E2E2
310
E2E2E2E2E2E2E2E2E2E2E2E2E2E2E2E2E2E2E2E2E2E2E2E2E2E2E2E2E2E2E2E2E2E2E2E2E2E2E2E2E2E2E2E2E2E2E2E2E2E2E2E2E2E2E2E2E2E2E2E2E2E2E2E2E2E2E2E2E2E2E2E2F5E2E2E2E2E2E2E2E2E2E2E2E2E2E2E2E2F5E2E2E2E2E2E2E2E2F5F5E2E2F5E2E2E2E2E2E2E2E2E2E2E2E2E2E2E2F5E2E2F5E2E2E2E2E2
310
E2E2E2E2E2E2E2E2E2E2E2E2E2E2E2E2E2E2E2E2E2E2E2E2E2E2E2E2E2E2E2E2E2E2E2E2E2E2E2E2E2E2E2E2E2E2E2E2E2E2E2E2E2E2E2E2E2E2E2E2E2E2E2E2E2E2E2E2E2E2E2E2E2E2E2E2E2E2E2E2E2E2E2E2E2E2E2E2E2E2E2E2E2E2E2E2E2E2E2E2E2E2E2E2E2E2E2E2E2E2E2E2E2E2E2E2E2E2E2E2E2E2E2E2E2F5E2
310
E2E2E2E2E2E2E2E2E2E2E2E2E2E2E2F5E2E2E2E2E2E2E2E2F5F5E2E2F5E2E2E2E2E2E2E2E2E2E2E2E2E2E2E2F5E2E2F5E2E2E2E2E2E2E2E2E2E2E2E2E2E2E2E2E2E2E2E2E2E2E2E2E2E2E2E2E2E2E2E2E2E2E2E2E2E2E2E2E2E2E2E2E2E2E2E2E2E2E2E2E2E2E2E2E2E2E2E2E2E2E2E2E2E2E2E2E2E2E2E2E2E2E2E2E2E2E2
310
E2E2E2E2E2E2E2E2E2E2E2E2E2E2E2E2E2E2E2E2E2E2E2E2E2E2E2E2E2E2E2E2E2E2E2E2E2E2E2E2E2E2E2E2E2E2E2E2E2E2E2F5E2E2E2E2E2E2E2E2E2E2E2E2E2E2E2E2F5E2E2E2E2E2E2E2E2F5F5E2E2F5E2E2E2E2E2E2E2E2E2E2E2E2E2E2E2F5E2E2F5E2E2E2E2E2E2E2E2E2E2E2E2E2E2E2E2E2E2E2E2E2E2E2E2E2E2
310
E2E2E2E2E2E2E2E2E2E2E2E2E2E2E2E2E2E2E2E2E2E2E2E2E2E2E2E2E2E2E2E2E2E2E2E2E2E2E2E2E2E2E2E2E2E2E2E2E2E2E2E2E2E2E2E2E2E2E2E2E2E2E2E2E2E2E2E2E2E2E2E2E2E2E2E2E2E2E2E2E2E2E2E2E2E2E2E2E2E2E2E2E2E2E2E2E2E2E2E2E2E2E2E2F5E2E2E2E2E2E2E2E2E2E2E2E2E2E2E2E2F5E2E2E2E2E2
310
E2E2E2F5F5E2E2E2E2E2E2E2E2E2E2E2E2E2E2E2E2E2E2F5E2E2F5E2E2E2E2E2E2E2E2E2E2E2E2E2E2E2E2E2E2E2E2E2E2E2E2E2E2E2E2E2E2E2E2E2E2E2E2E2E2E2E2E2E2E2E2E2E2E2E2E2E2E2E2E2E2E2E2E2E2E2E2E2E2E2E2E2E2E2E2E2E2E2E2E2E2E2E2E2E2E2E2E2E2E2E2E2E2E2E2E2E2E2E2E2E2E2E2E2E2E2E2
310
E2E2E2E2E2E2E2E2E2E2E2E2E2E2E2E2E2E2E2E2E2E2E2E2E2E2E2E2E2E2F5E2E2E2E2E2E2E2E2E2E2E2E2E2E2E2E2E2E2E2E2E2E2E2E2E2F5F5E2E2E2E2E2E2E2E2E2E2E2E2E2E2E2E2E2E2F5E2E2F5E2E2E2E2E2E2E2E2E2E2E2E2E2E2E2E2E2E2E2E2E2E2E2E2E2E2E2E2E2E2E2E2E2E2E2E2E2E2E2E2E2E2E2E2E2E2E2
310
E2E2E2E2E2E2E2E2E2E2E2E2E2E2E2E2E2E2E2E2E2E2E2E2E2E2E2E2E2E2E2E2E2E2E2E2E2E2E2E2E2E2E2E2E2E2E2E2E2E2E2E2E2E2E2E2E2E2E2E2E2E2E2E2E2E2E2E2E2E2E2E2E2E2E2E2E2E2E2E2E2E2E2F5E2E2E2E2E2E2E2E2E2E2E2E2E2E2E2E2E2E2E2E2E2E2E2E2E2F5F5E2E2E2E2E2E2E2E2E2E2E2E2E2E2E2E2
310
E2E2F5E2E2F5E2E2E2E2E2E2E2E2E2E2E2E2E2E2E2E2E2E2E2E2E2E2E2E2E2E2E2E2E2E2E2E2E2E2E2E2E2E2E2E2E2E2E2E2E2E2E2E2E2E2E2E2E2E2E2E2E2E2E2E2E2E2E2E2E2E2E2E2E2E2E2E2E2E2E2E2E2E2E2E2E2E2E2E2E2E2E2E2E2E2E2E2E2E2E2E2E2E2E2E2E2E2E2E2E2E2E2E2E2E2E2E2E2E2E2E2E2E2E2E2E2
310
E2E2E2E2E2E2E2E2E2F5E2E2E2E2E2E2E2E2E2E2E2E2E2E2E2E2E2E2E2E2E2E2E2E2E2F5F5E2E2E2E2E2E2E2E2E2E2E2E2E2E2E2E2E2E2F5E2E2F5E2E2E2E2E2E2E2E2E2E2E2E2E2E2E2E2E2E2E2E2E2E2E2E2E2E2E2E2E2E2E2E2E2E2E2E2E2E2E2E2E2E2E2E2E2E2E2E2E2E2E2E2E2E2E2E2E2E2E2E2E2E2E2E2E2E2E2E2
310
E2E2E2E2E2E2E2E2E2E2E2E2E2E2E2E2E2E2E2E2E2E2E2E2E2E2E2E2E2E2E2E2E2E2E2E2E2E2E2E2E2E2E2E2E2E2E2E2E2E2E2E2E2E2E2E2E2E2E2E2E2E2F5E2E2E2E2E2E2E2E2E2E2E2E2E2E2E2E2E2E2E2E2E2E2E2E2E2F5F5E2E2E2E2E2E2E2E2E2E2E2E2E2E2E2E2E2E2F5F5F5F5F5F5F5F5F5F5F5F5F5F5F5F5F5F5F5
310
F5F5F5F5F5F5F5F5F5F5F5F5F5F5F5F5F5F5F5F5F5F5F5F5F5F5F5F5F5F5F5F5F5F5F5F5F5F5F5F5F5F5F5F5F5F5F5F5F5F5F5F5F5F5F5F5F5F5F5F5F5F5F5F5F5F5F5F5F5F5F5F5F5F5F5F5F5F5F5F5F5F5F5F5F5F5F5F5F5F5F5F5F5F5F5F5F5F5F5F5F5F5F5F5F5F5F5F5F5F5F5F5F5F5F5F5E2E2E2E2E2E2E2E2E2E2E2
310
E2E2E2E2E2E2E2E2E2E2E2E2E2E2F5F5E2E2E2E2E2E2E2E2E2E2E2E2E2E2E2E2E2E2E2E2E2E2E2E2E2E2E2E2E2E2E2E2E2E2E2E2E2E2E2E2E2E2E2E2E2E2E2E2E2E2E2E2E2E2E2E2E2E2E2E2E2E2E2E2E2E2E2E2E2E2E2E2E2E2E2E2E2E2E2E2E2E2E2E2E2E2E2E2E2E2E2E2E2E2E2E2E2E2E2E2E2E2E2E2E2E2E2E2E2E2E2
310
E2E2E2E2E2E2E2E2E2E2E2E2E2E2E2E2E2E2E2E2E2E2E2E2E2E2E2E2E2E2E2E2E2E2E2E2E2E2E2E2E2E2E2E2E2E2E2E2E2E2E2E2E2E2E2E2E2E2E2E2E2E2E2E2E2E2E2F5F5E2E2E2E2E2E2E2E2E2E2E2E2E2E2E2E2E2E2E2E2E2E2E2E2E2E2E2E2E2E2E2E2E2E2E2E2E2E2E2E2E2E2E2E2E2E2E2E2E2E2E2E2E2E2E2E2E2E2
310
E2E2E2E2E2E2E2E2E2E2E2E2E2E2E2E2E2E2E2E2E2E2E2E2E2E2E2E2E2E2E2E2E2E2E2E2E2E2E2E2E2E2E2E2E2E2E2E2E2E2E2E2E2E2E2E2E2E2E2E2E2E2E2E2E2E2E2E2E2E2E2E2E2E2E2E2E2E2E2E2E2E2E2E2E2E2E2E2E2E2E2E2E2E2E2E2E2E2E2E2E2E2E2E2E2E2E2E2E2E2E2E2E2E2E2E2E2E2E2E2F5F5E2E2E2E2E2
310
E2E2E2E2E2E2E2E2E2E2E2E2E2E2E2E2E2E2E2E2E2E2E2E2E2E2E2E2E2E2E2E2E2E2E2E2E2E2E2E2E2E2E2E2E2E2E2E2E2E2E2E2E2E2E2E2E2E2E2E2E2E2E2E2E2E2E2E2E2E2E2E2E2E2E2E2E2E2E2E2E2E2E2E2E2E2E2E2E2E2E2E2E2E2E2E2E2E2E2E2E2E2E2E2E2E2E2E2E2E2E2E2E2E2E2E2E2E2E2E2E2E2E2E2E2E2E2
310
E2E2E2E2E2E2E2E2E2E2E2E2E2E2E2E2E2E2E2E2E2E2E2E2E2E2E2E2E2E2E2E2E2E2E2E2E2E2E2E2E2E2E2E2E2E2F5F5E2E2E2E2E2E2E2E2E2E2E2E2E2E2E2E2E2E2E2E2E2E2E2E2E2E2E2E2E2E2E2E2E2E2E2E2E2E2E2E2E2E2E2E2E2E2E2E2E2E2E2E2E2E2E2E2E2E2E2E2E2E2E2E2E2E2E2E2E2E2E2E2E2E2E2E2E2E2E2
310
E2E2E2E2E2E2E2E2E2E2E2E2E2E2E2E2E2E2E2E2E2E2E2E2E2E2E2E2E2E2E2E2E2E2E2E2E2E2E2E2E2E2E2E2E2E2E2E2E2E2E2E2E2E2E2E2E2E2E2E2E2E2E2E2E2E2E2E2E2E2E2E2E2E2E2E2E2E2E2E2E2E2E2E2E2E2E2E2E2E2E2E2E2E2E2E2E2E2E2F5F5E2E2F5E2E2E2E2E2E2E2E2E2E2E2E2E2E2E2E2E2E2E2E2E2E2E2
310
E2E2E2E2E2E2E2E2E2E2E2E2E2E2E2E2E2E2E2E2E2E2E2E2E2E2E2E2E2E2E2E2E2E2E2E2E2E2E2E2E2E2E2E2E2E2E2E2E2E2E2E2E2E2E2E2E2E2E2E2E2E2E2E2E2E2E2E2E2E2E2E2E2E2E2E2E2E2E2E2E2E2E2E2E2E2E2E2E2E2E2E2E2E2E2E2E2E2E2E2E2E2E2E2E2E2E2E2E2E2E2E2E2E2E2E2E2E2E2E2E2E2E2E2E2E2E2
310
E2E2E2E2E2E2E2E2E2E2E2E2E2E2E2E2F5E2E2E2E2E2E2E2E2F5F5E2E2F5E2E2E2E2E2E2E2E2E2E2E2E2E2E2E2E2E2E2E2E2E2E2E2E2E2E2E2E2E2E2E2E2E2E2E2E2E2E2E2E2E2E2E2E2E2E2E2E2E2E2E2E2E2E2E2E2E2E2E2E2E2E2E2E2E2E2E2E2E2E2E2E2E2E2E2E2E2E2E2E2E2E2E2E2E2E2E2E2E2E2E2E2E2E2E2E2E2
310
E2E2E2E2E2E2E2E2E2E2E2E2E2E2E2E2E2E2E2E2E2E2E2E2E2E2E2E2E2E2E2E2E2E2E2E2E2E2E2E2E2E2E2E2E2E2E2E2E2E2E2E2E2E2E2E2E2E2E2E2E2E2E2E2E2E2E2E2E2F5E2E2E2E2E2E2E2E2F5F5E2E2F5E2E2E2E2E2E2E2E2E2E2E2E2E2E2E2E2E2E2E2E2E2E2E2E2E2E2E2E2E2E2E2E2E2E2E2E2E2E2E2E2E2E2E2E2
310
E2E2E2E2E2E2E2E2E2E2E2E2E2E2E2E2E2E2E2E2E2E2E2E2E2E2E2E2E2E2E2E2E2E2E2E2E2E2E2E2E2E2E2E2E2E2E2E2E2E2E2E2E2E2E2E2E2E2E2E2E2E2E2E2E2E2E2E2E2E2E2E2E2E2E2E2E2E2E2E2E2E2E2E2E2E2E2E2E2E2E2E2E2E2E2E2E2E2E2E2E2E2E2E2E2E2E2E2E2E2E2E2E2E2E2E2E2E2E2E2E2E2F5E2E2E2E2
310
E2E2E2E2F5F5E2E2F5E2E2E2E2E2E2E2E2E2E2E2E2E2E2E2E2E2E2E2E2E2E2E2E2E2E2E2E2E2E2E2E2E2E2E2E2E2E2E2E2E2E2E2E2E2E2E2E2E2E2E2E2E2E2E2E2E2E2E2E2E2E2E2E2E2E2E2E2E2E2E2E2E2E2E2E2E2E2E2E2E2E2E2E2E2E2E2E2E2E2E2E2E2E2E2E2E2E2E2E2E2E2E2E2E2E2E2E2E2E2E2E2E2E2E2E2E2E2
310
E2E2E2E2E2E2E2E2E2E2E2E2E2E2E2E2E2E2E2E2E2E2E2E2E2E2E2E2E2E2E2E2E2E2E2E2E2E2E2E2E2E2E2E2E2E2E2E2F5E2E2E2E2E2E2E2E2F5F5E2E2F5E2E2E2E2E2E2E2E2E2E2E2E2E2E2E2E2E2E2E2E2E2E2E2E2E2E2E2E2E2E2E2E2E2E2E2E2E2E2E2E2E2E2E2E2E2E2E2E2E2E2E2E2E2E2E2E2E2E2E2E2E2E2E2E2E2
310
E2E2E2E2E2E2E2E2E2E2E2E2E2E2E2E2E2E2E2E2E2E2E2E2E2E2E2E2E2E2E2E2E2E2E2E2E2E2E2E2E2E2E2E2E2E2E2E2E2E2E2E2E2E2E2E2E2E2E2E2E2E2E2E2E2E2E2E2E2E2E2E2E2E2E2E2E2E2E2E2E2E2E2E2E2E2E2E2E2E2E2E2E2E2E2E2E2E2E2E2E2F5E2E2E2E2E2E2E2E2F5F5E2E2F5E2E2E2E2E2E2E2E2E2E2E2E2
310
E2E2E2E2E2E2E2E2E2E2E2E2E2E2E2E2E2E2E2E2E2E2E2E2E2E2E2E2E2E2E2E2E2E2E2E2E2E2E2E2E2E2E2E2E2E2E2E2E2E2E2E2E2E2E2E2E2E2E2E2E2E2E2E2E2E2E2E2E2E2E2E2E2E2E2E2E2E2E2E2E2E2E2E2E2E2E2E2E2E2E2E2E2E2E2E2E2E2E2E2E2E2E2E2E2E2E2E2E2E2E2E2E2E2E2E2E2E2E2E2E2E2E2E2E2E2E2
310
E2E2E2E2E2E2E2E2E2E2E2E2E2E2E2E2E2E2E2E2E2E2E2E2E2E2E2F5E2E2E2E2E2E2E2E2F5F5E2E2F5E2E2E2E2E2E2E2E2E2E2E2E2E2E2E2E2E2E2E2E2E2E2E2E2E2E2E2E2E2E2E2E2E2E2E2E2E2E2E2E2E2E2E2E2E2E2E2E2E2E2E2E2E2E2E2E2E2E2E2E2E2E2E2E2E2E2E2E2E2E2E2E2E2E2E2E2E2E2E2E2E2E2E2E2E2E2
310
E2E2E2E2E2E2E2E2E2E2E2E2E2E2E2E2E2E2E2E2E2E2E2E2E2E2E2E2E2E2E2E2E2E2E2E2E2E2E2E2E2E2E2E2E2E2E2E2E2E2E2E2E2E2E2E2E2E2E2E2E2E2E2E2E2E2E2E2E2E2E2E2E2E2E2E2E2E2E2E2F5E2E2E2E2E2E2E2E2F5F5E2E2F5F5F5F5F5F5F5F5E2E2E2E2E2E2E2E2E2F5F5F5F5F5F5F5F5F5F5F5F5F5F5F5E2E2
310
E2E2E2E2E2E2E2F5F5F5F5F5F5F5F5F5F5F5F5F5F5F5E2E2E2E2E2E2E2E2F5F5F5F5F5F5F5F5F5F5F5F5F5F5F5F5E2E2E2E2E2E2E2E2F5F5F5F5F5F5F5F5F5F5F5F5F5F5F5F5E2E2E2E2E2E2E2E2F5F5F5F5F5F5F5F5F5F5F5F5F5F5F5E2E2E2E2E2E2E2E2E2F5F5F5F5F5F5F5F5F5F5F5F5F5F5F5E2E2E2E2E2E2E2E2E2F5
310
F5F5F5F5F5F5F5E2E2E2E2E2E2E2E2F5F5E2E2E2E2E2E2E2E2E2E2E2E2E2E2E2E2E2E2E2E2E2E2E2E2E2E2E2E2E2E2E2E2E2E2E2E2E2E2E2E2E2E2E2E2E2E2E2E2E2E2E2E2E2E2E2E2E2E2E2E2E2E2E2E2E2E2E2E2E2E2E2E2E2E2E2E2E2E2E2E2E2E2E2E2E2E2E2E2E2E2E2E2E2E2E2E2E2E2E2E2E2E2E2E2E2E2E2E2E2E2
310
E2E2E2E2E2E2E2E2E2E2E2E2E2E2E2E2E2E2E2E2E2E2E2E2E2E2E2E2E2E2E2E2E2E2E2E2E2E2E2E2E2E2E2E2E2E2E2E2E2E2E2E2E2E2E2E2E2E2E2E2E2E2E2E2E2E2E2E2F5F5F5F5F5F5F5F5F5F5F5F5F5F5F5F5F5F5F5F5F5F5F5F5F5F5F5F5F5F5F5F5F5F5F5F5F5F5F5F5F5F5F5F5F5F5F5F5F5F5F5F5F5F5F5F5F5F5F5
310
F5F5F5F5F5F5F5F5F5F5F5F5F5F5F5F5F5F5F5F5F5F5F5F5F5F5F5F5F5F5F5F5F5F5F5F5F5F5F5F5F5F5F5F5F5F5F5F5F5F5F5F5F5F5F5F5F5F5F5F5F5F5F5F5F5F5F5F5F5F5F5F5F5F5F5F5F5F5F5F5F5F5F5F5F5F5F5F5F5F5F5F5F5F5F5F5F5F5F5F5F5F5F5F5F5F5F5F5F5F5F5F5F5F5F5F5F5F5F5F5F5F5EFEFEFEFEF
310
EFEFEFEFEFEFEFEFEFEFEFEFEFEFEFEFEFEFEFEFEFEFEFEFEFEFEFEFEFEFEFEFEFEFEFEFEFEFEFEFEFEFEFEFEFEFEFEFEFEFEFEFEFEFEFEFEFEFEFEFEFEFEFEFEFEFEFEFEFEFEFEFEFEFEFEFEFEFEFEFEFEFEFEFEFEFEFEFEFEFEFEFEFEFEFEFEFEFEFEFEFEFEFEFEFEFEFEFEFEFEFEFEFEFEFEFEFEFEFEFEFEFEFEFEFEFEF
310
EFEFEFEFEFEFEFEFEFEFEFEFEFEFEFEFEFEFEFEFEFEFEFEFEFEFEFEFEFEFEFEFEFEFEFEFEFEFEFEFEFEFEFEFEFEFEFEF
  0
XRECORD
  5
268F
102
{ACAD_REACTORS
330
268E
102
}
330
268E
100
AcDbXrecord
280
     1
102
SHADEPLOT
 70
     0
102
SHADEPLOTRESLEVEL
 70
     2
102
SHADEPLOTCUSTOMDPI
 70
   300
  0
ENDSEC
  0
EOF
