  0
SECTION
  2
HEADER
  9
$ACADVER
  1
AC1015
  9
$ACADMAINTVER
 70
    20
  9
$DWGCODEPAGE
  3
ANSI_932
  9
$INSBASE
 10
0.0
 20
0.0
 30
0.0
  9
$EXTMIN
 10
119.0
 20
4.0
 30
0.0
  9
$EXTMAX
 10
2784.0
 20
2024.0
 30
0.0
  9
$LIMMIN
 10
0.0
 20
0.0
  9
$LIMMAX
 10
29700.0
 20
21000.0
  9
$ORTHOMODE
 70
     1
  9
$REGENMODE
 70
     1
  9
$FILLMODE
 70
     1
  9
$QTEXTMODE
 70
     0
  9
$MIRRTEXT
 70
     1
  9
$LTSCALE
 40
4.0
  9
$ATTMODE
 70
     1
  9
$TEXTSIZE
 40
25.0
  9
$TRACEWID
 40
1.0
  9
$TEXTSTYLE
  7
Standard
  9
$CLAYER
  8
実形
  9
$CELTYPE
  6
ByLayer
  9
$CECOLOR
 62
   256
  9
$CELTSCALE
 40
1.0
  9
$DISPSILH
 70
     0
  9
$DIMSCALE
 40
1.0
  9
$DIMASZ
 40
35.0
  9
$DIMEXO
 40
65.0
  9
$DIMDLI
 40
3.75
  9
$DIMRND
 40
0.0
  9
$DIMDLE
 40
0.0
  9
$DIMEXE
 40
0.0
  9
$DIMTP
 40
0.0
  9
$DIMTM
 40
0.0
  9
$DIMTXT
 40
25.0
  9
$DIMCEN
 40
2.5
  9
$DIMTSZ
 40
0.0
  9
$DIMTOL
 70
     0
  9
$DIMLIM
 70
     0
  9
$DIMTIH
 70
     0
  9
$DIMTOH
 70
     0
  9
$DIMSE1
 70
     0
  9
$DIMSE2
 70
     0
  9
$DIMTAD
 70
     1
  9
$DIMZIN
 70
     8
  9
$DIMBLK
  1
DotSmall
  9
$DIMASO
 70
     1
  9
$DIMSHO
 70
     1
  9
$DIMPOST
  1

  9
$DIMAPOST
  1

  9
$DIMALT
 70
     0
  9
$DIMALTD
 70
     3
  9
$DIMALTF
 40
0.03937007874016
  9
$DIMLFAC
 40
1.0
  9
$DIMTOFL
 70
     1
  9
$DIMTVP
 40
0.0
  9
$DIMTIX
 70
     0
  9
$DIMSOXD
 70
     0
  9
$DIMSAH
 70
     0
  9
$DIMBLK1
  1

  9
$DIMBLK2
  1

  9
$DIMSTYLE
  2
ISO-25
  9
$DIMCLRD
 70
     0
  9
$DIMCLRE
 70
     0
  9
$DIMCLRT
 70
     0
  9
$DIMTFAC
 40
1.0
  9
$DIMGAP
 40
6.25
  9
$DIMJUST
 70
     0
  9
$DIMSD1
 70
     0
  9
$DIMSD2
 70
     0
  9
$DIMTOLJ
 70
     0
  9
$DIMTZIN
 70
     8
  9
$DIMALTZ
 70
     0
  9
$DIMALTTZ
 70
     0
  9
$DIMUPT
 70
     0
  9
$DIMDEC
 70
     2
  9
$DIMTDEC
 70
     2
  9
$DIMALTU
 70
     2
  9
$DIMALTTD
 70
     3
  9
$DIMTXSTY
  7
Standard
  9
$DIMAUNIT
 70
     0
  9
$DIMADEC
 70
     0
  9
$DIMALTRND
 40
0.0
  9
$DIMAZIN
 70
     0
  9
$DIMDSEP
 70
    46
  9
$DIMATFIT
 70
     3
  9
$DIMFRAC
 70
     0
  9
$DIMLDRBLK
  1
Open30
  9
$DIMLUNIT
 70
     2
  9
$DIMLWD
 70
    18
  9
$DIMLWE
 70
    18
  9
$DIMTMOVE
 70
     0
  9
$LUNITS
 70
     2
  9
$LUPREC
 70
     2
  9
$SKETCHINC
 40
1.0
  9
$FILLETRAD
 40
0.0
  9
$AUNITS
 70
     0
  9
$AUPREC
 70
     0
  9
$MENU
  1
.
  9
$ELEVATION
 40
0.0
  9
$PELEVATION
 40
0.0
  9
$THICKNESS
 40
0.0
  9
$LIMCHECK
 70
     1
  9
$CHAMFERA
 40
10.0
  9
$CHAMFERB
 40
10.0
  9
$CHAMFERC
 40
20.0
  9
$CHAMFERD
 40
0.0
  9
$SKPOLY
 70
     0
  9
$TDCREATE
 40
2451673.575802199
  9
$TDUCREATE
 40
2451673.200802199
  9
$TDUPDATE
 40
2458813.764587882
  9
$TDUUPDATE
 40
2458813.389587882
  9
$TDINDWG
 40
2.6454961921
  9
$TDUSRTIMER
 40
2.6454954977
  9
$USRTIMER
 70
     1
  9
$ANGBASE
 50
0.0
  9
$ANGDIR
 70
     0
  9
$PDMODE
 70
     3
  9
$PDSIZE
 40
0.0
  9
$PLINEWID
 40
0.0
  9
$SPLFRAME
 70
     0
  9
$SPLINETYPE
 70
     6
  9
$SPLINESEGS
 70
     8
  9
$HANDSEED
  5
247B
  9
$SURFTAB1
 70
     6
  9
$SURFTAB2
 70
     6
  9
$SURFTYPE
 70
     6
  9
$SURFU
 70
     6
  9
$SURFV
 70
     6
  9
$UCSBASE
  2

  9
$UCSNAME
  2

  9
$UCSORG
 10
0.0
 20
0.0
 30
0.0
  9
$UCSXDIR
 10
1.0
 20
0.0
 30
0.0
  9
$UCSYDIR
 10
0.0
 20
1.0
 30
0.0
  9
$UCSORTHOREF
  2

  9
$UCSORTHOVIEW
 70
     0
  9
$UCSORGTOP
 10
0.0
 20
0.0
 30
0.0
  9
$UCSORGBOTTOM
 10
0.0
 20
0.0
 30
0.0
  9
$UCSORGLEFT
 10
0.0
 20
0.0
 30
0.0
  9
$UCSORGRIGHT
 10
0.0
 20
0.0
 30
0.0
  9
$UCSORGFRONT
 10
0.0
 20
0.0
 30
0.0
  9
$UCSORGBACK
 10
0.0
 20
0.0
 30
0.0
  9
$PUCSBASE
  2

  9
$PUCSNAME
  2

  9
$PUCSORG
 10
0.0
 20
0.0
 30
0.0
  9
$PUCSXDIR
 10
1.0
 20
0.0
 30
0.0
  9
$PUCSYDIR
 10
0.0
 20
1.0
 30
0.0
  9
$PUCSORTHOREF
  2

  9
$PUCSORTHOVIEW
 70
     0
  9
$PUCSORGTOP
 10
0.0
 20
0.0
 30
0.0
  9
$PUCSORGBOTTOM
 10
0.0
 20
0.0
 30
0.0
  9
$PUCSORGLEFT
 10
0.0
 20
0.0
 30
0.0
  9
$PUCSORGRIGHT
 10
0.0
 20
0.0
 30
0.0
  9
$PUCSORGFRONT
 10
0.0
 20
0.0
 30
0.0
  9
$PUCSORGBACK
 10
0.0
 20
0.0
 30
0.0
  9
$USERI1
 70
     0
  9
$USERI2
 70
     0
  9
$USERI3
 70
     0
  9
$USERI4
 70
     0
  9
$USERI5
 70
     0
  9
$USERR1
 40
0.0
  9
$USERR2
 40
0.0
  9
$USERR3
 40
0.0
  9
$USERR4
 40
0.0
  9
$USERR5
 40
0.0
  9
$WORLDVIEW
 70
     1
  9
$SHADEDGE
 70
     3
  9
$SHADEDIF
 70
    70
  9
$TILEMODE
 70
     1
  9
$MAXACTVP
 70
    64
  9
$PINSBASE
 10
0.0
 20
0.0
 30
0.0
  9
$PLIMCHECK
 70
     0
  9
$PEXTMIN
 10
27.8447512626648
 20
20.24591643810271
 30
0.0
  9
$PEXTMAX
 10
250.6027613639831
 20
182.2132479429245
 30
0.0
  9
$PLIMMIN
 10
-3.757080078125
 20
-3.757083177566528
  9
$PLIMMAX
 10
293.2112426757813
 20
206.2162444591522
  9
$UNITMODE
 70
     0
  9
$VISRETAIN
 70
     1
  9
$PLINEGEN
 70
     0
  9
$PSLTSCALE
 70
     1
  9
$TREEDEPTH
 70
  3020
  9
$CMLSTYLE
  2
Standard
  9
$CMLJUST
 70
     0
  9
$CMLSCALE
 40
20.0
  9
$PROXYGRAPHICS
 70
     1
  9
$MEASUREMENT
 70
     1
  9
$CELWEIGHT
370
    -1
  9
$ENDCAPS
280
     0
  9
$JOINSTYLE
280
     0
  9
$LWDISPLAY
290
     0
  9
$INSUNITS
 70
     4
  9
$HYPERLINKBASE
  1

  9
$STYLESHEET
  1

  9
$XEDIT
290
     1
  9
$CEPSNTYPE
380
     0
  9
$PSTYLEMODE
290
     1
  9
$FINGERPRINTGUID
  2
{C8EA1F16-24C9-11D4-9416-CE0A3B32152F}
  9
$VERSIONGUID
  2
{8493E3F1-BB87-4098-8CB1-89AA5995E063}
  9
$EXTNAMES
290
     1
  9
$PSVPSCALE
 40
0.0
  9
$OLESTARTUP
290
     0
  0
ENDSEC
  0
SECTION
  2
CLASSES
  0
CLASS
  1
ACDBDICTIONARYWDFLT
  2
AcDbDictionaryWithDefault
  3
ObjectDBX Classes
 90
        0
280
     0
281
     0
  0
CLASS
  1
ACDBPLACEHOLDER
  2
AcDbPlaceHolder
  3
ObjectDBX Classes
 90
        0
280
     0
281
     0
  0
CLASS
  1
LAYOUT
  2
AcDbLayout
  3
ObjectDBX Classes
 90
        0
280
     0
281
     0
  0
CLASS
  1
TABLESTYLE
  2
AcDbTableStyle
  3
ObjectDBX Classes
 90
     2047
280
     0
281
     0
  0
CLASS
  1
SORTENTSTABLE
  2
AcDbSortentsTable
  3
ObjectDBX Classes
 90
        0
280
     0
281
     0
  0
CLASS
  1
DICTIONARYVAR
  2
AcDbDictionaryVar
  3
ObjectDBX Classes
 90
        0
280
     0
281
     0
  0
ENDSEC
  0
SECTION
  2
TABLES
  0
TABLE
  2
VPORT
  5
8
330
0
100
AcDbSymbolTable
 70
     2
  0
VPORT
  5
246F
330
8
100
AcDbSymbolTableRecord
100
AcDbViewportTableRecord
  2
*Active
 70
     0
 10
0.0
 20
0.0
 11
1.0
 21
1.0
 12
1440.647421632635
 22
1020.196457297492
 13
0.0
 23
0.0
 14
10.0
 24
10.0
 15
10.0
 25
10.0
 16
0.0
 26
0.0
 36
1.0
 17
0.0
 27
0.0
 37
0.0
 40
2327.027793362162
 41
1.29038112522686
 42
50.0
 43
0.0
 44
0.0
 50
0.0
 51
0.0
 71
     0
 72
   100
 73
     1
 74
     3
 75
     0
 76
     0
 77
     0
 78
     0
281
     0
 65
     1
110
0.0
120
0.0
130
0.0
111
1.0
121
0.0
131
0.0
112
0.0
122
1.0
132
0.0
 79
     0
146
0.0
  0
ENDTAB
  0
TABLE
  2
LTYPE
  5
5
330
0
100
AcDbSymbolTable
 70
    46
  0
LTYPE
  5
14
330
5
100
AcDbSymbolTableRecord
100
AcDbLinetypeTableRecord
  2
ByBlock
 70
     0
  3

 72
    65
 73
     0
 40
0.0
  0
LTYPE
  5
15
330
5
100
AcDbSymbolTableRecord
100
AcDbLinetypeTableRecord
  2
ByLayer
 70
     0
  3

 72
    65
 73
     0
 40
0.0
  0
LTYPE
  5
16
330
5
100
AcDbSymbolTableRecord
100
AcDbLinetypeTableRecord
  2
Continuous
 70
     0
  3
Solid line
 72
    65
 73
     0
 40
0.0
  0
LTYPE
  5
34
330
5
100
AcDbSymbolTableRecord
100
AcDbLinetypeTableRecord
  2
ACAD_ISO02W100
 70
     0
  3
ISO dash __ __ __ __ __ __ __ __ __ __ __ __ __
 72
    65
 73
     2
 40
15.0
 49
12.0
 74
     0
 49
-3.0
 74
     0
  0
LTYPE
  5
35
330
5
100
AcDbSymbolTableRecord
100
AcDbLinetypeTableRecord
  2
ACAD_ISO03W100
 70
     0
  3
ISO dash space __    __    __    __    __    __
 72
    65
 73
     2
 40
30.0
 49
12.0
 74
     0
 49
-18.0
 74
     0
  0
LTYPE
  5
36
330
5
100
AcDbSymbolTableRecord
100
AcDbLinetypeTableRecord
  2
ACAD_ISO04W100
 70
     0
  3
ISO long-dash dot ____ . ____ . ____ . ____ . _
 72
    65
 73
     4
 40
30.0
 49
24.0
 74
     0
 49
-3.0
 74
     0
 49
0.0
 74
     0
 49
-3.0
 74
     0
  0
LTYPE
  5
37
330
5
100
AcDbSymbolTableRecord
100
AcDbLinetypeTableRecord
  2
ACAD_ISO05W100
 70
     0
  3
ISO long-dash double-dot ____ .. ____ .. ____ .
 72
    65
 73
     6
 40
34.0
 49
24.0
 74
     0
 49
-3.0
 74
     0
 49
0.5
 74
     0
 49
-3.0
 74
     0
 49
0.5
 74
     0
 49
-3.0
 74
     0
  0
LTYPE
  5
38
330
5
100
AcDbSymbolTableRecord
100
AcDbLinetypeTableRecord
  2
ACAD_ISO06W100
 70
     0
  3
ISO long-dash triple-dot ____ ... ____ ... ____
 72
    65
 73
     8
 40
37.5
 49
24.0
 74
     0
 49
-3.0
 74
     0
 49
0.5
 74
     0
 49
-3.0
 74
     0
 49
0.5
 74
     0
 49
-3.0
 74
     0
 49
0.5
 74
     0
 49
-3.0
 74
     0
  0
LTYPE
  5
39
330
5
100
AcDbSymbolTableRecord
100
AcDbLinetypeTableRecord
  2
ACAD_ISO07W100
 70
     0
  3
ISO dot . . . . . . . . . . . . . . . . . . . .
 72
    65
 73
     2
 40
3.0
 49
0.0
 74
     0
 49
-3.0
 74
     0
  0
LTYPE
  5
3A
330
5
100
AcDbSymbolTableRecord
100
AcDbLinetypeTableRecord
  2
ACAD_ISO08W100
 70
     0
  3
ISO long-dash short-dash ____ __ ____ __ ____ _
 72
    65
 73
     4
 40
36.0
 49
24.0
 74
     0
 49
-3.0
 74
     0
 49
6.0
 74
     0
 49
-3.0
 74
     0
  0
LTYPE
  5
3B
330
5
100
AcDbSymbolTableRecord
100
AcDbLinetypeTableRecord
  2
ACAD_ISO09W100
 70
     0
  3
ISO long-dash double-short-dash ____ __ __ ____
 72
    65
 73
     6
 40
45.0
 49
24.0
 74
     0
 49
-3.0
 74
     0
 49
6.0
 74
     0
 49
-3.0
 74
     0
 49
6.0
 74
     0
 49
-3.0
 74
     0
  0
LTYPE
  5
3C
330
5
100
AcDbSymbolTableRecord
100
AcDbLinetypeTableRecord
  2
ACAD_ISO10W100
 70
     0
  3
ISO dash dot __ . __ . __ . __ . __ . __ . __ .
 72
    65
 73
     4
 40
18.0
 49
12.0
 74
     0
 49
-3.0
 74
     0
 49
0.0
 74
     0
 49
-3.0
 74
     0
  0
LTYPE
  5
3D
330
5
100
AcDbSymbolTableRecord
100
AcDbLinetypeTableRecord
  2
ACAD_ISO11W100
 70
     0
  3
ISO double-dash dot __ __ . __ __ . __ __ . __ 
 72
    65
 73
     6
 40
33.0
 49
12.0
 74
     0
 49
-3.0
 74
     0
 49
12.0
 74
     0
 49
-3.0
 74
     0
 49
0.0
 74
     0
 49
-3.0
 74
     0
  0
LTYPE
  5
3E
330
5
100
AcDbSymbolTableRecord
100
AcDbLinetypeTableRecord
  2
ACAD_ISO12W100
 70
     0
  3
ISO dash double-dot __ . . __ . . __ . . __ . .
 72
    65
 73
     6
 40
21.0
 49
12.0
 74
     0
 49
-3.0
 74
     0
 49
0.0
 74
     0
 49
-3.0
 74
     0
 49
0.0
 74
     0
 49
-3.0
 74
     0
  0
LTYPE
  5
3F
330
5
100
AcDbSymbolTableRecord
100
AcDbLinetypeTableRecord
  2
ACAD_ISO13W100
 70
     0
  3
ISO double-dash double-dot __ __ . . __ __ . . 
 72
    65
 73
     8
 40
36.0
 49
12.0
 74
     0
 49
-3.0
 74
     0
 49
12.0
 74
     0
 49
-3.0
 74
     0
 49
0.0
 74
     0
 49
-3.0
 74
     0
 49
0.0
 74
     0
 49
-3.0
 74
     0
  0
LTYPE
  5
40
330
5
100
AcDbSymbolTableRecord
100
AcDbLinetypeTableRecord
  2
ACAD_ISO14W100
 70
     0
  3
ISO dash triple-dot __ . . . __ . . . __ . . . 
 72
    65
 73
     8
 40
24.0
 49
12.0
 74
     0
 49
-3.0
 74
     0
 49
0.0
 74
     0
 49
-3.0
 74
     0
 49
0.0
 74
     0
 49
-3.0
 74
     0
 49
0.0
 74
     0
 49
-3.0
 74
     0
  0
LTYPE
  5
41
330
5
100
AcDbSymbolTableRecord
100
AcDbLinetypeTableRecord
  2
ACAD_ISO15W100
 70
     0
  3
ISO double-dash triple-dot __ __ . . . __ __ . 
 72
    65
 73
    10
 40
39.0
 49
12.0
 74
     0
 49
-3.0
 74
     0
 49
12.0
 74
     0
 49
-3.0
 74
     0
 49
0.0
 74
     0
 49
-3.0
 74
     0
 49
0.0
 74
     0
 49
-3.0
 74
     0
 49
0.0
 74
     0
 49
-3.0
 74
     0
  0
LTYPE
  5
42
330
5
100
AcDbSymbolTableRecord
100
AcDbLinetypeTableRecord
  2
BATTING
 70
     0
  3
Batting SSSSSSSSSSSSSSSSSSSSSSSSSSSSSSSSSSSSSSS
 72
    65
 73
     4
 40
10.16254
 49
0.00254
 74
     0
 49
-2.54
 74
     4
 75
   134
340
33
 46
2.54
 50
0.0
 44
-2.54
 45
0.0
 49
-5.08
 74
     4
 75
   134
340
33
 46
2.54
 50
180.0
 44
2.54
 45
0.0
 49
-2.54
 74
     0
  0
LTYPE
  5
43
330
5
100
AcDbSymbolTableRecord
100
AcDbLinetypeTableRecord
  2
BORDER
 70
     0
  3
Border __ __ . __ __ . __ __ . __ __ . __ __ .
 72
    65
 73
     6
 40
44.45
 49
12.7
 74
     0
 49
-6.349999999999999
 74
     0
 49
12.7
 74
     0
 49
-6.349999999999999
 74
     0
 49
0.0
 74
     0
 49
-6.349999999999999
 74
     0
  0
LTYPE
  5
44
330
5
100
AcDbSymbolTableRecord
100
AcDbLinetypeTableRecord
  2
BORDER2
 70
     0
  3
Border (.5x) __.__.__.__.__.__.__.__.__.__.__.
 72
    65
 73
     6
 40
22.225
 49
6.349999999999999
 74
     0
 49
-3.174999999999999
 74
     0
 49
6.349999999999999
 74
     0
 49
-3.174999999999999
 74
     0
 49
0.0
 74
     0
 49
-3.174999999999999
 74
     0
  0
LTYPE
  5
45
330
5
100
AcDbSymbolTableRecord
100
AcDbLinetypeTableRecord
  2
BORDERX2
 70
     0
  3
Border (2x) ____  ____  .  ____  ____  .  ___
 72
    65
 73
     6
 40
88.9
 49
25.4
 74
     0
 49
-12.7
 74
     0
 49
25.4
 74
     0
 49
-12.7
 74
     0
 49
0.0
 74
     0
 49
-12.7
 74
     0
  0
LTYPE
  5
46
330
5
100
AcDbSymbolTableRecord
100
AcDbLinetypeTableRecord
  2
CENTER
 70
     0
  3
Center ____ _ ____ _ ____ _ ____ _ ____ _ ____
 72
    65
 73
     4
 40
50.8
 49
31.75
 74
     0
 49
-6.349999999999999
 74
     0
 49
6.349999999999999
 74
     0
 49
-6.349999999999999
 74
     0
  0
LTYPE
  5
47
330
5
100
AcDbSymbolTableRecord
100
AcDbLinetypeTableRecord
  2
CENTER2
 70
     0
  3
Center (.5x) ___ _ ___ _ ___ _ ___ _ ___ _ ___
 72
    65
 73
     4
 40
28.575
 49
19.05
 74
     0
 49
-3.174999999999999
 74
     0
 49
3.174999999999999
 74
     0
 49
-3.174999999999999
 74
     0
  0
LTYPE
  5
48
330
5
100
AcDbSymbolTableRecord
100
AcDbLinetypeTableRecord
  2
CENTERX2
 70
     0
  3
Center (2x) ________  __  ________  __  _____
 72
    65
 73
     4
 40
101.6
 49
63.5
 74
     0
 49
-12.7
 74
     0
 49
12.7
 74
     0
 49
-12.7
 74
     0
  0
LTYPE
  5
49
330
5
100
AcDbSymbolTableRecord
100
AcDbLinetypeTableRecord
  2
DASHDOT
 70
     0
  3
Dash dot __ . __ . __ . __ . __ . __ . __ . __
 72
    65
 73
     4
 40
25.4
 49
12.7
 74
     0
 49
-6.349999999999999
 74
     0
 49
0.0
 74
     0
 49
-6.349999999999999
 74
     0
  0
LTYPE
  5
4A
330
5
100
AcDbSymbolTableRecord
100
AcDbLinetypeTableRecord
  2
DASHDOT2
 70
     0
  3
Dash dot (.5x) _._._._._._._._._._._._._._._.
 72
    65
 73
     4
 40
12.7
 49
6.349999999999999
 74
     0
 49
-3.174999999999999
 74
     0
 49
0.0
 74
     0
 49
-3.174999999999999
 74
     0
  0
LTYPE
  5
4B
330
5
100
AcDbSymbolTableRecord
100
AcDbLinetypeTableRecord
  2
DASHDOTX2
 70
     0
  3
Dash dot (2x) ____  .  ____  .  ____  .  ___
 72
    65
 73
     4
 40
50.8
 49
25.4
 74
     0
 49
-12.7
 74
     0
 49
0.0
 74
     0
 49
-12.7
 74
     0
  0
LTYPE
  5
4C
330
5
100
AcDbSymbolTableRecord
100
AcDbLinetypeTableRecord
  2
DASHED
 70
     0
  3
Dashed __ __ __ __ __ __ __ __ __ __ __ __ __ _
 72
    65
 73
     2
 40
19.05
 49
12.7
 74
     0
 49
-6.349999999999999
 74
     0
  0
LTYPE
  5
4D
330
5
100
AcDbSymbolTableRecord
100
AcDbLinetypeTableRecord
  2
DASHED2
 70
     0
  3
Dashed (.5x) _ _ _ _ _ _ _ _ _ _ _ _ _ _ _ _ _
 72
    65
 73
     2
 40
9.524999999999998
 49
6.349999999999999
 74
     0
 49
-3.174999999999999
 74
     0
  0
LTYPE
  5
4E
330
5
100
AcDbSymbolTableRecord
100
AcDbLinetypeTableRecord
  2
DASHEDX2
 70
     0
  3
Dashed (2x) ____  ____  ____  ____  ____  ___
 72
    65
 73
     2
 40
38.1
 49
25.4
 74
     0
 49
-12.7
 74
     0
  0
LTYPE
  5
4F
330
5
100
AcDbSymbolTableRecord
100
AcDbLinetypeTableRecord
  2
DIVIDE
 70
     0
  3
Divide ____ . . ____ . . ____ . . ____ . . ____
 72
    65
 73
     6
 40
31.75
 49
12.7
 74
     0
 49
-6.349999999999999
 74
     0
 49
0.0
 74
     0
 49
-6.349999999999999
 74
     0
 49
0.0
 74
     0
 49
-6.349999999999999
 74
     0
  0
LTYPE
  5
50
330
5
100
AcDbSymbolTableRecord
100
AcDbLinetypeTableRecord
  2
DIVIDE2
 70
     0
  3
Divide (.5x) __..__..__..__..__..__..__..__.._
 72
    65
 73
     6
 40
15.875
 49
6.349999999999999
 74
     0
 49
-3.174999999999999
 74
     0
 49
0.0
 74
     0
 49
-3.174999999999999
 74
     0
 49
0.0
 74
     0
 49
-3.174999999999999
 74
     0
  0
LTYPE
  5
51
330
5
100
AcDbSymbolTableRecord
100
AcDbLinetypeTableRecord
  2
DIVIDEX2
 70
     0
  3
Divide (2x) ________  .  .  ________  .  .  _
 72
    65
 73
     6
 40
63.49999999999999
 49
25.4
 74
     0
 49
-12.7
 74
     0
 49
0.0
 74
     0
 49
-12.7
 74
     0
 49
0.0
 74
     0
 49
-12.7
 74
     0
  0
LTYPE
  5
52
330
5
100
AcDbSymbolTableRecord
100
AcDbLinetypeTableRecord
  2
DOT
 70
     0
  3
Dot . . . . . . . . . . . . . . . . . . . . . .
 72
    65
 73
     2
 40
6.349999999999999
 49
0.0
 74
     0
 49
-6.349999999999999
 74
     0
  0
LTYPE
  5
53
330
5
100
AcDbSymbolTableRecord
100
AcDbLinetypeTableRecord
  2
DOT2
 70
     0
  3
Dot (.5x) .....................................
 72
    65
 73
     2
 40
3.174999999999999
 49
0.0
 74
     0
 49
-3.174999999999999
 74
     0
  0
LTYPE
  5
54
330
5
100
AcDbSymbolTableRecord
100
AcDbLinetypeTableRecord
  2
DOTX2
 70
     0
  3
Dot (2x) .  .  .  .  .  .  .  .  .  .  .  .  . 
 72
    65
 73
     2
 40
12.7
 49
0.0
 74
     0
 49
-12.7
 74
     0
  0
LTYPE
  5
55
330
5
100
AcDbSymbolTableRecord
100
AcDbLinetypeTableRecord
  2
FENCELINE1
 70
     0
  3
Fenceline circle ----0-----0----0-----0----0---
 72
    65
 73
     4
 40
36.83
 49
6.349999999999999
 74
     0
 49
-2.54
 74
     4
 75
   133
340
33
 46
2.54
 50
0.0
 44
-2.54
 45
0.0
 49
-2.54
 74
     0
 49
25.4
 74
     0
  0
LTYPE
  5
56
330
5
100
AcDbSymbolTableRecord
100
AcDbLinetypeTableRecord
  2
FENCELINE2
 70
     0
  3
Fenceline square ----[]-----[]----[]-----[]----
 72
    65
 73
     4
 40
36.83
 49
6.349999999999999
 74
     0
 49
-2.54
 74
     4
 75
   132
340
33
 46
2.54
 50
0.0
 44
-2.54
 45
0.0
 49
-2.54
 74
     0
 49
25.4
 74
     0
  0
LTYPE
  5
57
330
5
100
AcDbSymbolTableRecord
100
AcDbLinetypeTableRecord
  2
GAS_LINE
 70
     0
  3
Gas line ----GAS----GAS----GAS----GAS----GAS---
 72
    65
 73
     3
 40
24.13
 49
12.7
 74
     0
 49
-5.08
 74
     2
 75
     0
340
11
 46
2.54
 50
0.0
 44
-2.54
 45
-1.27
  9
GAS
 49
-6.349999999999999
 74
     0
  0
LTYPE
  5
58
330
5
100
AcDbSymbolTableRecord
100
AcDbLinetypeTableRecord
  2
HIDDEN
 70
     0
  3
Hidden __ __ __ __ __ __ __ __ __ __ __ __ __ _
 72
    65
 73
     2
 40
9.524999999999998
 49
6.349999999999999
 74
     0
 49
-3.174999999999999
 74
     0
  0
LTYPE
  5
59
330
5
100
AcDbSymbolTableRecord
100
AcDbLinetypeTableRecord
  2
HIDDEN2
 70
     0
  3
Hidden (.5x) _ _ _ _ _ _ _ _ _ _ _ _ _ _ _ _ _
 72
    65
 73
     2
 40
4.762499999999999
 49
3.174999999999999
 74
     0
 49
-1.587499999999999
 74
     0
  0
LTYPE
  5
5A
330
5
100
AcDbSymbolTableRecord
100
AcDbLinetypeTableRecord
  2
HIDDENX2
 70
     0
  3
Hidden (2x) ____ ____ ____ ____ ____ ____ ____
 72
    65
 73
     2
 40
19.05
 49
12.7
 74
     0
 49
-6.349999999999999
 74
     0
  0
LTYPE
  5
5B
330
5
100
AcDbSymbolTableRecord
100
AcDbLinetypeTableRecord
  2
HOT_WATER_SUPPLY
 70
     0
  3
Hot water supply ---- HW ---- HW ---- HW ----
 72
    65
 73
     3
 40
22.86
 49
12.7
 74
     0
 49
-5.08
 74
     2
 75
     0
340
11
 46
2.54
 50
0.0
 44
-2.54
 45
-1.27
  9
HW
 49
-5.08
 74
     0
  0
LTYPE
  5
5C
330
5
100
AcDbSymbolTableRecord
100
AcDbLinetypeTableRecord
  2
PHANTOM
 70
     0
  3
Phantom ______  __  __  ______  __  __  ______
 72
    65
 73
     6
 40
63.5
 49
31.75
 74
     0
 49
-6.349999999999999
 74
     0
 49
6.349999999999999
 74
     0
 49
-6.349999999999999
 74
     0
 49
6.349999999999999
 74
     0
 49
-6.349999999999999
 74
     0
  0
LTYPE
  5
5D
330
5
100
AcDbSymbolTableRecord
100
AcDbLinetypeTableRecord
  2
PHANTOM2
 70
     0
  3
Phantom (.5x) ___ _ _ ___ _ _ ___ _ _ ___ _ _
 72
    65
 73
     6
 40
31.75
 49
15.875
 74
     0
 49
-3.174999999999999
 74
     0
 49
3.174999999999999
 74
     0
 49
-3.174999999999999
 74
     0
 49
3.174999999999999
 74
     0
 49
-3.174999999999999
 74
     0
  0
LTYPE
  5
5E
330
5
100
AcDbSymbolTableRecord
100
AcDbLinetypeTableRecord
  2
PHANTOMX2
 70
     0
  3
Phantom (2x) ____________    ____    ____   _
 72
    65
 73
     6
 40
127.0
 49
63.5
 74
     0
 49
-12.7
 74
     0
 49
12.7
 74
     0
 49
-12.7
 74
     0
 49
12.7
 74
     0
 49
-12.7
 74
     0
  0
LTYPE
  5
5F
330
5
100
AcDbSymbolTableRecord
100
AcDbLinetypeTableRecord
  2
TRACKS
 70
     0
  3
Tracks -|-|-|-|-|-|-|-|-|-|-|-|-|-|-|-|-|-|-|-|
 72
    65
 73
     2
 40
7.62
 49
3.81
 74
     4
 75
   130
340
33
 46
6.349999999999999
 50
0.0
 44
0.0
 45
0.0
 49
3.81
 74
     0
  0
LTYPE
  5
60
330
5
100
AcDbSymbolTableRecord
100
AcDbLinetypeTableRecord
  2
ZIGZAG
 70
     0
  3
Zig zag /\/\/\/\/\/\/\/\/\/\/\/\/\/\/\/\/\/\/\/
 72
    65
 73
     4
 40
20.32254
 49
0.00254
 74
     0
 49
-5.08
 74
     4
 75
   131
340
33
 46
5.08
 50
0.0
 44
-5.08
 45
0.0
 49
-10.16
 74
     4
 75
   131
340
33
 46
5.08
 50
180.0
 44
5.08
 45
0.0
 49
-5.08
 74
     0
  0
ENDTAB
  0
TABLE
  2
LAYER
  5
2
102
{ACAD_XDICTIONARY
360
11D6
102
}
330
0
100
AcDbSymbolTable
 70
     9
  0
LAYER
  5
10
330
2
100
AcDbSymbolTableRecord
100
AcDbLayerTableRecord
  2
0
 70
     0
 62
     7
  6
Continuous
290
     0
370
    -3
390
F
  0
LAYER
  5
C3
330
2
100
AcDbSymbolTableRecord
100
AcDbLayerTableRecord
  2
Defpoints
 70
     0
 62
     7
  6
Continuous
290
     0
370
    -3
390
F
  0
LAYER
  5
256
330
2
100
AcDbSymbolTableRecord
100
AcDbLayerTableRecord
  2
センター
 70
     0
 62
     7
  6
CENTER2
370
    18
390
F
  0
LAYER
  5
268
330
2
100
AcDbSymbolTableRecord
100
AcDbLayerTableRecord
  2
実形
 70
     0
 62
     7
  6
Continuous
370
    -3
390
F
  0
LAYER
  5
269
330
2
100
AcDbSymbolTableRecord
100
AcDbLayerTableRecord
  2
補助
 70
     0
 62
     7
  6
Continuous
370
    -3
390
F
  0
LAYER
  5
26A
330
2
100
AcDbSymbolTableRecord
100
AcDbLayerTableRecord
  2
寸法
 70
     0
 62
     7
  6
Continuous
370
    18
390
F
  0
LAYER
  5
26B
330
2
100
AcDbSymbolTableRecord
100
AcDbLayerTableRecord
  2
ハッチング
 70
     0
 62
     7
  6
Continuous
370
    18
390
F
  0
LAYER
  5
26D
330
2
100
AcDbSymbolTableRecord
100
AcDbLayerTableRecord
  2
文字
 70
     0
 62
     7
  6
Continuous
370
    -3
390
F
  0
LAYER
  5
10F0
330
2
100
AcDbSymbolTableRecord
100
AcDbLayerTableRecord
  2
Cen
 70
     0
 62
     7
  6
CENTER2
370
    15
390
F
  0
ENDTAB
  0
TABLE
  2
STYLE
  5
3
330
0
100
AcDbSymbolTable
 70
     3
  0
STYLE
  5
11
330
3
100
AcDbSymbolTableRecord
100
AcDbTextStyleTableRecord
  2
Standard
 70
     0
 40
0.0
 41
1.0
 50
0.0
 71
     0
 42
25.0
  3
txt.shx
  4
bigfont.shx
  0
STYLE
  5
33
330
3
100
AcDbSymbolTableRecord
100
AcDbTextStyleTableRecord
  2

 70
     1
 40
0.0
 41
1.0
 50
0.0
 71
     0
 42
2.5
  3
ltypeshp.shx
  4

  0
STYLE
  5
12F9
330
3
100
AcDbSymbolTableRecord
100
AcDbTextStyleTableRecord
  2
明朝
 70
     0
 40
0.0
 41
1.0
 50
0.0
 71
     0
 42
25.0
  3
MS Mincho.ttf
  4

1001
ACAD
1000
MS Mincho
1071
    32785
  0
ENDTAB
  0
TABLE
  2
VIEW
  5
6
330
0
100
AcDbSymbolTable
 70
     0
  0
ENDTAB
  0
TABLE
  2
UCS
  5
7
330
0
100
AcDbSymbolTable
 70
     0
  0
ENDTAB
  0
TABLE
  2
APPID
  5
9
330
0
100
AcDbSymbolTable
 70
     2
  0
APPID
  5
12
330
9
100
AcDbSymbolTableRecord
100
AcDbRegAppTableRecord
  2
ACAD
 70
     0
  0
APPID
  5
11D5
330
9
100
AcDbSymbolTableRecord
100
AcDbRegAppTableRecord
  2
ACAD_PSEXT
 70
     0
  0
ENDTAB
  0
TABLE
  2
DIMSTYLE
  5
A
330
0
100
AcDbSymbolTable
 70
     1
100
AcDbDimStyleTable
 71
     1
340
27
  0
DIMSTYLE
105
27
102
{ACAD_REACTORS
330
569
330
57F
330
35B
330
4F8
330
505
330
1511
330
1512
330
1514
330
1515
330
151A
330
151D
330
151E
330
1521
330
1529
330
152A
330
1815
330
1900
330
1917
330
193B
330
19E7
330
1A32
330
1B08
330
1B39
330
1EB4
330
2317
330
1519
102
}
330
A
100
AcDbSymbolTableRecord
100
AcDbDimStyleTableRecord
  2
ISO-25
 70
     0
 41
35.0
 42
65.0
 43
3.75
 44
0.0
 73
     0
 74
     0
 77
     1
 78
     8
140
25.0
141
2.5
143
0.03937007874016
147
6.25
171
     3
172
     1
271
     2
272
     2
274
     3
283
     0
284
     8
340
11
341
DA
342
D0
371
    15
372
    15
  0
ENDTAB
  0
TABLE
  2
BLOCK_RECORD
  5
1
330
0
100
AcDbSymbolTable
 70
    41
  0
BLOCK_RECORD
  5
1F
102
{ACAD_XDICTIONARY
360
1318
102
}
330
1
100
AcDbSymbolTableRecord
100
AcDbBlockTableRecord
  2
*Model_Space
340
22
  0
BLOCK_RECORD
  5
1B
330
1
100
AcDbSymbolTableRecord
100
AcDbBlockTableRecord
  2
*Paper_Space
340
1E
  0
BLOCK_RECORD
  5
23
330
1
100
AcDbSymbolTableRecord
100
AcDbBlockTableRecord
  2
*Paper_Space0
340
26
  0
BLOCK_RECORD
  5
D0
330
1
100
AcDbSymbolTableRecord
100
AcDbBlockTableRecord
  2
_DotSmall
340
0
102
{BLKREFS
331
1D66
331
1D67
331
1D78
331
1D79
331
1D81
331
1D82
331
1D8A
331
1D8B
331
1D93
331
1D94
331
1D9C
331
1D9D
331
1DC0
331
1DC1
331
1DC9
331
1DCA
331
1DE4
331
1DE5
331
1DED
331
1DEE
331
1E08
331
1E09
331
1E11
331
1E12
331
1E1A
331
1E1B
331
1E23
331
1E24
331
1E8E
331
1E8F
331
1EE1
331
1EE2
331
1F63
331
1F64
331
1FB6
331
1FB7
331
1FC2
331
1FC3
331
1FCE
331
1FCF
331
1FDA
331
1FDB
331
1FED
331
1FEE
331
1F86
331
1F87
331
1F92
331
1F93
331
1F9E
331
1F9F
331
1FAA
331
1FAB
331
23A2
331
23A3
331
23AB
331
23AC
331
23BD
331
23BE
331
23C6
331
23C7
331
23CF
331
23D0
331
23E1
331
23E2
331
23EA
331
23EB
331
23FC
331
23FD
102
}
  0
BLOCK_RECORD
  5
D4
330
1
100
AcDbSymbolTableRecord
100
AcDbBlockTableRecord
  2
_Origin2
340
0
  0
BLOCK_RECORD
  5
DA
330
1
100
AcDbSymbolTableRecord
100
AcDbBlockTableRecord
  2
_Open30
340
0
  0
BLOCK_RECORD
  5
35C
330
1
100
AcDbSymbolTableRecord
100
AcDbBlockTableRecord
  2
*D4
340
0
  0
BLOCK_RECORD
  5
4F9
330
1
100
AcDbSymbolTableRecord
100
AcDbBlockTableRecord
  2
*D5
340
0
  0
BLOCK_RECORD
  5
506
330
1
100
AcDbSymbolTableRecord
100
AcDbBlockTableRecord
  2
*D6
340
0
  0
BLOCK_RECORD
  5
56A
330
1
100
AcDbSymbolTableRecord
100
AcDbBlockTableRecord
  2
*D7
340
0
  0
BLOCK_RECORD
  5
580
330
1
100
AcDbSymbolTableRecord
100
AcDbBlockTableRecord
  2
*D8
340
0
  0
BLOCK_RECORD
  5
153C
330
1
100
AcDbSymbolTableRecord
100
AcDbBlockTableRecord
  2
*D9
340
0
  0
BLOCK_RECORD
  5
1548
330
1
100
AcDbSymbolTableRecord
100
AcDbBlockTableRecord
  2
*D10
340
0
  0
BLOCK_RECORD
  5
1554
330
1
100
AcDbSymbolTableRecord
100
AcDbBlockTableRecord
  2
*D11
340
0
  0
BLOCK_RECORD
  5
1560
330
1
100
AcDbSymbolTableRecord
100
AcDbBlockTableRecord
  2
*D12
340
0
  0
BLOCK_RECORD
  5
156C
330
1
100
AcDbSymbolTableRecord
100
AcDbBlockTableRecord
  2
*D13
340
0
  0
BLOCK_RECORD
  5
1578
330
1
100
AcDbSymbolTableRecord
100
AcDbBlockTableRecord
  2
*D14
340
0
  0
BLOCK_RECORD
  5
1584
330
1
100
AcDbSymbolTableRecord
100
AcDbBlockTableRecord
  2
*D15
340
0
  0
BLOCK_RECORD
  5
1590
330
1
100
AcDbSymbolTableRecord
100
AcDbBlockTableRecord
  2
*D16
340
0
  0
BLOCK_RECORD
  5
159C
330
1
100
AcDbSymbolTableRecord
100
AcDbBlockTableRecord
  2
*D17
340
0
  0
BLOCK_RECORD
  5
15A8
330
1
100
AcDbSymbolTableRecord
100
AcDbBlockTableRecord
  2
*D18
340
0
  0
BLOCK_RECORD
  5
15B4
330
1
100
AcDbSymbolTableRecord
100
AcDbBlockTableRecord
  2
*D19
340
0
  0
BLOCK_RECORD
  5
1816
330
1
100
AcDbSymbolTableRecord
100
AcDbBlockTableRecord
  2
*D20
340
0
  0
BLOCK_RECORD
  5
1901
330
1
100
AcDbSymbolTableRecord
100
AcDbBlockTableRecord
  2
*D21
340
0
  0
BLOCK_RECORD
  5
1918
330
1
100
AcDbSymbolTableRecord
100
AcDbBlockTableRecord
  2
*D22
340
0
  0
BLOCK_RECORD
  5
193C
330
1
100
AcDbSymbolTableRecord
100
AcDbBlockTableRecord
  2
*D23
340
0
  0
BLOCK_RECORD
  5
19E8
330
1
100
AcDbSymbolTableRecord
100
AcDbBlockTableRecord
  2
*D24
340
0
  0
BLOCK_RECORD
  5
1A33
330
1
100
AcDbSymbolTableRecord
100
AcDbBlockTableRecord
  2
*D25
340
0
  0
BLOCK_RECORD
  5
1B09
330
1
100
AcDbSymbolTableRecord
100
AcDbBlockTableRecord
  2
*D26
340
0
  0
BLOCK_RECORD
  5
1B3A
330
1
100
AcDbSymbolTableRecord
100
AcDbBlockTableRecord
  2
*D27
340
0
  0
BLOCK_RECORD
  5
1EB5
330
1
100
AcDbSymbolTableRecord
100
AcDbBlockTableRecord
  2
*D28
340
0
  0
BLOCK_RECORD
  5
1F81
330
1
100
AcDbSymbolTableRecord
100
AcDbBlockTableRecord
  2
*D29
340
0
  0
BLOCK_RECORD
  5
1F8D
330
1
100
AcDbSymbolTableRecord
100
AcDbBlockTableRecord
  2
*D30
340
0
  0
BLOCK_RECORD
  5
1F99
330
1
100
AcDbSymbolTableRecord
100
AcDbBlockTableRecord
  2
*D31
340
0
  0
BLOCK_RECORD
  5
1FA5
330
1
100
AcDbSymbolTableRecord
100
AcDbBlockTableRecord
  2
*D32
340
0
  0
BLOCK_RECORD
  5
1FB1
330
1
100
AcDbSymbolTableRecord
100
AcDbBlockTableRecord
  2
*D33
340
0
  0
BLOCK_RECORD
  5
1FBD
330
1
100
AcDbSymbolTableRecord
100
AcDbBlockTableRecord
  2
*D34
340
0
  0
BLOCK_RECORD
  5
1FC9
330
1
100
AcDbSymbolTableRecord
100
AcDbBlockTableRecord
  2
*D35
340
0
  0
BLOCK_RECORD
  5
1FD5
330
1
100
AcDbSymbolTableRecord
100
AcDbBlockTableRecord
  2
*D36
340
0
  0
BLOCK_RECORD
  5
1FE1
330
1
100
AcDbSymbolTableRecord
100
AcDbBlockTableRecord
  2
*D37
340
0
  0
BLOCK_RECORD
  5
1FE8
330
1
100
AcDbSymbolTableRecord
100
AcDbBlockTableRecord
  2
*D38
340
0
  0
BLOCK_RECORD
  5
1FF4
102
{ACAD_XDICTIONARY
360
2049
102
}
330
1
100
AcDbSymbolTableRecord
100
AcDbBlockTableRecord
  2
A$C68372845
340
0
  0
BLOCK_RECORD
  5
2318
330
1
100
AcDbSymbolTableRecord
100
AcDbBlockTableRecord
  2
*D40
340
0
  0
ENDTAB
  0
ENDSEC
  0
SECTION
  2
BLOCKS
  0
BLOCK
  5
20
330
1F
100
AcDbEntity
  8
0
100
AcDbBlockBegin
  2
*Model_Space
 70
     0
 10
0.0
 20
0.0
 30
0.0
  3
*Model_Space
  1

  0
ENDBLK
  5
21
330
1F
100
AcDbEntity
  8
0
100
AcDbBlockEnd
  0
BLOCK
  5
1C
330
1B
100
AcDbEntity
 67
     1
  8
0
100
AcDbBlockBegin
  2
*Paper_Space
 70
     0
 10
0.0
 20
0.0
 30
0.0
  3
*Paper_Space
  1

  0
ENDBLK
  5
1D
330
1B
100
AcDbEntity
 67
     1
  8
0
100
AcDbBlockEnd
  0
BLOCK
  5
24
330
23
100
AcDbEntity
  8
0
100
AcDbBlockBegin
  2
*Paper_Space0
 70
     0
 10
0.0
 20
0.0
 30
0.0
  3
*Paper_Space0
  1

  0
ENDBLK
  5
25
330
23
100
AcDbEntity
  8
0
100
AcDbBlockEnd
  0
BLOCK
  5
D2
330
D0
100
AcDbEntity
  8
0
100
AcDbBlockBegin
  2
_DotSmall
 70
     0
 10
0.0
 20
0.0
 30
0.0
  3
_DotSmall
  1

  0
LWPOLYLINE
  5
D1
330
D0
100
AcDbEntity
  8
0
 62
     0
100
AcDbPolyline
 90
        2
 70
     1
 43
0.5
 10
-0.0625
 20
0.0
 42
1.0
 10
0.0625
 20
0.0
 42
1.0
  0
ENDBLK
  5
D3
330
D0
100
AcDbEntity
  8
0
100
AcDbBlockEnd
  0
BLOCK
  5
D8
330
D4
100
AcDbEntity
  8
0
100
AcDbBlockBegin
  2
_Origin2
 70
     0
 10
0.0
 20
0.0
 30
0.0
  3
_Origin2
  1

  0
CIRCLE
  5
D5
330
D4
100
AcDbEntity
  8
0
 62
     0
370
    -2
100
AcDbCircle
 10
0.0
 20
0.0
 30
0.0
 40
0.5
  0
CIRCLE
  5
D6
330
D4
100
AcDbEntity
  8
0
 62
     0
370
    -2
100
AcDbCircle
 10
0.0
 20
0.0
 30
0.0
 40
0.25
  0
LINE
  5
D7
330
D4
100
AcDbEntity
  8
0
 62
     0
370
    -2
100
AcDbLine
 10
-0.5
 20
0.0
 30
0.0
 11
-1.0
 21
0.0
 31
0.0
  0
ENDBLK
  5
D9
330
D4
100
AcDbEntity
  8
0
100
AcDbBlockEnd
  0
BLOCK
  5
DE
330
DA
100
AcDbEntity
  8
0
100
AcDbBlockBegin
  2
_Open30
 70
     0
 10
0.0
 20
0.0
 30
0.0
  3
_Open30
  1

  0
LINE
  5
DB
330
DA
100
AcDbEntity
  8
0
 62
     0
370
    -2
100
AcDbLine
 10
-1.0
 20
0.26794919
 30
0.0
 11
0.0
 21
0.0
 31
0.0
  0
LINE
  5
DC
330
DA
100
AcDbEntity
  8
0
 62
     0
370
    -2
100
AcDbLine
 10
0.0
 20
0.0
 30
0.0
 11
-1.0
 21
-0.26794919
 31
0.0
  0
LINE
  5
DD
330
DA
100
AcDbEntity
  8
0
 62
     0
370
    -2
100
AcDbLine
 10
0.0
 20
0.0
 30
0.0
 11
-1.0
 21
0.0
 31
0.0
  0
ENDBLK
  5
DF
330
DA
100
AcDbEntity
  8
0
100
AcDbBlockEnd
  0
BLOCK
  5
366
330
35C
100
AcDbEntity
  8
0
100
AcDbBlockBegin
  2
*D4
 70
     1
 10
0.0
 20
0.0
 30
0.0
  3
*D4
  1

  0
LINE
  5
1E8B
330
35C
100
AcDbEntity
  8
実形
 62
     0
370
    15
100
AcDbLine
 10
930.6185629794965
 20
1660.154135942405
 30
0.0
 11
930.6185629794965
 21
1803.442634824548
 31
0.0
  0
LINE
  5
1E8C
330
35C
100
AcDbEntity
  8
実形
 62
     0
370
    15
100
AcDbLine
 10
785.6185715581291
 20
1643.043702352522
 30
0.0
 11
785.6185715581291
 21
1803.442634824548
 31
0.0
  0
LINE
  5
1E8D
330
35C
100
AcDbEntity
  8
実形
 62
     0
370
    18
100
AcDbLine
 10
930.6185629794965
 20
1803.442634824548
 30
0.0
 11
785.6185715581291
 21
1803.442634824548
 31
0.0
  0
INSERT
  5
1E8E
330
35C
100
AcDbEntity
  8
実形
 62
     0
370
    18
100
AcDbBlockReference
  2
_DotSmall
 10
930.6185629794965
 20
1803.442634824548
 30
0.0
 41
25.0
 42
25.0
 43
25.0
  0
INSERT
  5
1E8F
330
35C
100
AcDbEntity
  8
実形
 62
     0
370
    18
100
AcDbBlockReference
  2
_DotSmall
 10
785.6185715581291
 20
1803.442634824548
 30
0.0
 41
25.0
 42
25.0
 43
25.0
 50
180.0
  0
MTEXT
  5
1E90
330
35C
100
AcDbEntity
  8
実形
 62
     0
100
AcDbMText
 10
858.1185672688128
 20
1822.192634824548
 30
0.0
 40
25.0
 41
0.0
 71
     5
 72
     1
  1
145
 73
     1
 44
1.0
1001
ACAD
1000
MTEXTBEGIN
1070
    73
1070
     1
1070
    44
1040
1.0
1070
    74
1070
     0
1000
MTEXTEND
  0
POINT
  5
1E91
330
35C
100
AcDbEntity
  8
Defpoints
 62
     0
100
AcDbPoint
 10
930.6185629794965
 20
1595.154135942404
 30
0.0
  0
POINT
  5
1E92
330
35C
100
AcDbEntity
  8
Defpoints
 62
     0
100
AcDbPoint
 10
785.6185715581291
 20
1578.043702352522
 30
0.0
  0
POINT
  5
1E93
330
35C
100
AcDbEntity
  8
Defpoints
 62
     0
100
AcDbPoint
 10
785.6185715581291
 20
1803.442634824548
 30
0.0
  0
ENDBLK
  5
367
330
35C
100
AcDbEntity
  8
0
100
AcDbBlockEnd
  0
BLOCK
  5
503
330
4F9
100
AcDbEntity
  8
0
100
AcDbBlockBegin
  2
*D5
 70
     1
 10
0.0
 20
0.0
 30
0.0
  3
*D5
  1

  0
LINE
  5
1E20
330
4F9
100
AcDbEntity
  8
実形
 62
     0
370
    15
100
AcDbLine
 10
845.0371731036057
 20
574.5995166611394
 30
0.0
 11
845.0371731036057
 21
523.1721093600665
 31
0.0
  0
LINE
  5
1E21
330
4F9
100
AcDbEntity
  8
実形
 62
     0
370
    15
100
AcDbLine
 10
1005.037173103605
 20
574.5995166611394
 30
0.0
 11
1005.037173103605
 21
523.1721093600665
 31
0.0
  0
LINE
  5
1E22
330
4F9
100
AcDbEntity
  8
実形
 62
     0
370
    18
100
AcDbLine
 10
845.0371731036057
 20
523.1721093600665
 30
0.0
 11
1005.037173103605
 21
523.1721093600665
 31
0.0
  0
INSERT
  5
1E23
330
4F9
100
AcDbEntity
  8
実形
 62
     0
370
    18
100
AcDbBlockReference
  2
_DotSmall
 10
845.0371731036057
 20
523.1721093600665
 30
0.0
 41
25.0
 42
25.0
 43
25.0
 50
180.0
  0
INSERT
  5
1E24
330
4F9
100
AcDbEntity
  8
実形
 62
     0
370
    18
100
AcDbBlockReference
  2
_DotSmall
 10
1005.037173103605
 20
523.1721093600665
 30
0.0
 41
25.0
 42
25.0
 43
25.0
  0
MTEXT
  5
1E25
330
4F9
100
AcDbEntity
  8
実形
 62
     0
100
AcDbMText
 10
925.0371731036057
 20
541.9221093600665
 30
0.0
 40
25.0
 41
0.0
 71
     5
 72
     1
  1
158
 73
     1
 44
1.0
1001
ACAD
1000
MTEXTBEGIN
1070
    73
1070
     1
1070
    44
1040
1.0
1070
    74
1070
     0
1000
MTEXTEND
  0
POINT
  5
1E26
330
4F9
100
AcDbEntity
  8
Defpoints
 62
     0
100
AcDbPoint
 10
845.0371731036057
 20
639.5995166611394
 30
0.0
  0
POINT
  5
1E27
330
4F9
100
AcDbEntity
  8
Defpoints
 62
     0
100
AcDbPoint
 10
1005.037173103605
 20
639.5995166611394
 30
0.0
  0
POINT
  5
1E28
330
4F9
100
AcDbEntity
  8
Defpoints
 62
     0
100
AcDbPoint
 10
1005.037173103605
 20
523.1721093600665
 30
0.0
  0
ENDBLK
  5
504
330
4F9
100
AcDbEntity
  8
0
100
AcDbBlockEnd
  0
BLOCK
  5
510
330
506
100
AcDbEntity
  8
0
100
AcDbBlockBegin
  2
*D6
 70
     1
 10
0.0
 20
0.0
 30
0.0
  3
*D6
  1

  0
LINE
  5
1E17
330
506
100
AcDbEntity
  8
実形
 62
     0
370
    15
100
AcDbLine
 10
834.5371731036056
 20
574.5995166611395
 30
0.0
 11
834.5371731036056
 21
463.2127107911376
 31
0.0
  0
LINE
  5
1E18
330
506
100
AcDbEntity
  8
実形
 62
     0
370
    15
100
AcDbLine
 10
1015.537173103606
 20
574.5995166611394
 30
0.0
 11
1015.537173103606
 21
463.2127107911376
 31
0.0
  0
LINE
  5
1E19
330
506
100
AcDbEntity
  8
実形
 62
     0
370
    18
100
AcDbLine
 10
834.5371731036056
 20
463.2127107911376
 30
0.0
 11
1015.537173103606
 21
463.2127107911376
 31
0.0
  0
INSERT
  5
1E1A
330
506
100
AcDbEntity
  8
実形
 62
     0
370
    18
100
AcDbBlockReference
  2
_DotSmall
 10
834.5371731036056
 20
463.2127107911376
 30
0.0
 41
25.0
 42
25.0
 43
25.0
 50
180.0
  0
INSERT
  5
1E1B
330
506
100
AcDbEntity
  8
実形
 62
     0
370
    18
100
AcDbBlockReference
  2
_DotSmall
 10
1015.537173103606
 20
463.2127107911376
 30
0.0
 41
25.0
 42
25.0
 43
25.0
  0
MTEXT
  5
1E1C
330
506
100
AcDbEntity
  8
実形
 62
     0
100
AcDbMText
 10
925.0371731036057
 20
481.9627107911376
 30
0.0
 40
25.0
 41
0.0
 71
     5
 72
     1
  1
181
 73
     1
 44
1.0
1001
ACAD
1000
MTEXTBEGIN
1070
    73
1070
     1
1070
    44
1040
1.0
1070
    74
1070
     0
1000
MTEXTEND
  0
POINT
  5
1E1D
330
506
100
AcDbEntity
  8
Defpoints
 62
     0
100
AcDbPoint
 10
834.5371731036056
 20
639.5995166611395
 30
0.0
  0
POINT
  5
1E1E
330
506
100
AcDbEntity
  8
Defpoints
 62
     0
100
AcDbPoint
 10
1015.537173103606
 20
639.5995166611394
 30
0.0
  0
POINT
  5
1E1F
330
506
100
AcDbEntity
  8
Defpoints
 62
     0
100
AcDbPoint
 10
1015.537173103606
 20
463.2127107911376
 30
0.0
  0
ENDBLK
  5
511
330
506
100
AcDbEntity
  8
0
100
AcDbBlockEnd
  0
BLOCK
  5
574
330
56A
100
AcDbEntity
  8
0
100
AcDbBlockBegin
  2
*D7
 70
     1
 10
0.0
 20
0.0
 30
0.0
  3
*D7
  1

  0
LINE
  5
1E0E
330
56A
100
AcDbEntity
  8
実形
 62
     0
370
    15
100
AcDbLine
 10
2107.665770637529
 20
1584.599516661139
 30
0.0
 11
2152.971914729449
 21
1584.599516661139
 31
0.0
  0
LINE
  5
1E0F
330
56A
100
AcDbEntity
  8
実形
 62
     0
370
    15
100
AcDbLine
 10
2107.66577063753
 20
1424.599516661139
 30
0.0
 11
2152.971914729449
 21
1424.599516661139
 31
0.0
  0
LINE
  5
1E10
330
56A
100
AcDbEntity
  8
実形
 62
     0
370
    18
100
AcDbLine
 10
2152.971914729449
 20
1584.599516661139
 30
0.0
 11
2152.971914729449
 21
1424.599516661139
 31
0.0
  0
INSERT
  5
1E11
330
56A
100
AcDbEntity
  8
実形
 62
     0
370
    18
100
AcDbBlockReference
  2
_DotSmall
 10
2152.971914729449
 20
1584.599516661139
 30
0.0
 41
25.0
 42
25.0
 43
25.0
 50
90.0
  0
INSERT
  5
1E12
330
56A
100
AcDbEntity
  8
実形
 62
     0
370
    18
100
AcDbBlockReference
  2
_DotSmall
 10
2152.971914729449
 20
1424.599516661139
 30
0.0
 41
25.0
 42
25.0
 43
25.0
 50
270.0
  0
MTEXT
  5
1E13
330
56A
100
AcDbEntity
  8
実形
 62
     0
100
AcDbMText
 10
2134.221914729449
 20
1504.599516661139
 30
0.0
 40
25.0
 41
0.0
 71
     5
 72
     1
  1
158
 11
0.0000000000000001
 21
1.0
 31
0.0
 73
     1
 44
1.0
1001
ACAD
1000
MTEXTBEGIN
1070
    73
1070
     1
1070
    44
1040
1.0
1070
    74
1070
     0
1000
MTEXTEND
  0
POINT
  5
1E14
330
56A
100
AcDbEntity
  8
Defpoints
 62
     0
100
AcDbPoint
 10
2042.665770637529
 20
1584.599516661139
 30
0.0
  0
POINT
  5
1E15
330
56A
100
AcDbEntity
  8
Defpoints
 62
     0
100
AcDbPoint
 10
2042.665770637529
 20
1424.599516661139
 30
0.0
  0
POINT
  5
1E16
330
56A
100
AcDbEntity
  8
Defpoints
 62
     0
100
AcDbPoint
 10
2152.971914729449
 20
1424.599516661139
 30
0.0
  0
ENDBLK
  5
575
330
56A
100
AcDbEntity
  8
0
100
AcDbBlockEnd
  0
BLOCK
  5
58A
330
580
100
AcDbEntity
  8
0
100
AcDbBlockBegin
  2
*D8
 70
     1
 10
0.0
 20
0.0
 30
0.0
  3
*D8
  1

  0
LINE
  5
1E05
330
580
100
AcDbEntity
  8
実形
 62
     0
370
    15
100
AcDbLine
 10
2107.665770637529
 20
1595.099516661139
 30
0.0
 11
2217.893502694291
 21
1595.099516661139
 31
0.0
  0
LINE
  5
1E06
330
580
100
AcDbEntity
  8
実形
 62
     0
370
    15
100
AcDbLine
 10
2107.66577063753
 20
1414.099516661139
 30
0.0
 11
2217.893502694291
 21
1414.099516661139
 31
0.0
  0
LINE
  5
1E07
330
580
100
AcDbEntity
  8
実形
 62
     0
370
    18
100
AcDbLine
 10
2217.893502694291
 20
1595.099516661139
 30
0.0
 11
2217.893502694291
 21
1414.099516661139
 31
0.0
  0
INSERT
  5
1E08
330
580
100
AcDbEntity
  8
実形
 62
     0
370
    18
100
AcDbBlockReference
  2
_DotSmall
 10
2217.893502694291
 20
1595.099516661139
 30
0.0
 41
25.0
 42
25.0
 43
25.0
 50
90.0
  0
INSERT
  5
1E09
330
580
100
AcDbEntity
  8
実形
 62
     0
370
    18
100
AcDbBlockReference
  2
_DotSmall
 10
2217.893502694291
 20
1414.099516661139
 30
0.0
 41
25.0
 42
25.0
 43
25.0
 50
270.0
  0
MTEXT
  5
1E0A
330
580
100
AcDbEntity
  8
実形
 62
     0
100
AcDbMText
 10
2199.14350269429
 20
1504.599516661139
 30
0.0
 40
25.0
 41
0.0
 71
     5
 72
     1
  1
181
 11
0.0000000000000001
 21
1.0
 31
0.0
 73
     1
 44
1.0
1001
ACAD
1000
MTEXTBEGIN
1070
    73
1070
     1
1070
    44
1040
1.0
1070
    74
1070
     0
1000
MTEXTEND
  0
POINT
  5
1E0B
330
580
100
AcDbEntity
  8
Defpoints
 62
     0
100
AcDbPoint
 10
2042.665770637529
 20
1595.099516661139
 30
0.0
  0
POINT
  5
1E0C
330
580
100
AcDbEntity
  8
Defpoints
 62
     0
100
AcDbPoint
 10
2042.665770637529
 20
1414.099516661139
 30
0.0
  0
POINT
  5
1E0D
330
580
100
AcDbEntity
  8
Defpoints
 62
     0
100
AcDbPoint
 10
2217.893502694291
 20
1414.099516661139
 30
0.0
  0
ENDBLK
  5
58B
330
580
100
AcDbEntity
  8
0
100
AcDbBlockEnd
  0
BLOCK
  5
1546
330
153C
100
AcDbEntity
  8
0
100
AcDbBlockBegin
  2
*D9
 70
     1
 10
0.0
 20
0.0
 30
0.0
  3
*D9
  1

  0
LINE
  5
23C3
330
153C
100
AcDbEntity
  8
実形
 62
     0
370
    18
100
AcDbLine
 10
1817.899627132798
 20
591.2145273062869
 30
0.0
 11
1817.899627132798
 21
560.7316764226998
 31
0.0
  0
LINE
  5
23C4
330
153C
100
AcDbEntity
  8
実形
 62
     0
370
    18
100
AcDbLine
 10
1867.899627132798
 20
591.2145273062869
 30
0.0
 11
1867.899627132798
 21
560.7316764226998
 31
0.0
  0
LINE
  5
23C5
330
153C
100
AcDbEntity
  8
実形
 62
     0
370
    18
100
AcDbLine
 10
1817.899627132798
 20
560.7316764226998
 30
0.0
 11
1867.899627132798
 21
560.7316764226998
 31
0.0
  0
INSERT
  5
23C6
330
153C
100
AcDbEntity
  8
実形
 62
     0
370
    18
100
AcDbBlockReference
  2
_DotSmall
 10
1817.899627132798
 20
560.7316764226998
 30
0.0
 41
35.0
 42
35.0
 43
35.0
 50
180.0
  0
INSERT
  5
23C7
330
153C
100
AcDbEntity
  8
実形
 62
     0
370
    18
100
AcDbBlockReference
  2
_DotSmall
 10
1867.899627132798
 20
560.7316764226998
 30
0.0
 41
35.0
 42
35.0
 43
35.0
  0
MTEXT
  5
23C8
330
153C
100
AcDbEntity
  8
実形
 62
     0
100
AcDbMText
 10
1844.014601998565
 20
579.4816764226998
 30
0.0
 40
25.0
 41
0.0
 71
     5
 72
     1
  1
5
 73
     1
 44
1.0
1001
ACAD
1000
MTEXTBEGIN
1070
    73
1070
     1
1070
    44
1040
1.0
1070
    74
1070
     0
1000
MTEXTEND
  0
POINT
  5
23C9
330
153C
100
AcDbEntity
  8
Defpoints
 62
     0
100
AcDbPoint
 10
1817.899627132798
 20
656.214527306287
 30
0.0
  0
POINT
  5
23CA
330
153C
100
AcDbEntity
  8
Defpoints
 62
     0
100
AcDbPoint
 10
1867.899627132798
 20
656.214527306287
 30
0.0
  0
POINT
  5
23CB
330
153C
100
AcDbEntity
  8
Defpoints
 62
     0
100
AcDbPoint
 10
1867.899627132798
 20
560.7316764226998
 30
0.0
  0
ENDBLK
  5
1547
330
153C
100
AcDbEntity
  8
0
100
AcDbBlockEnd
  0
BLOCK
  5
1552
330
1548
100
AcDbEntity
  8
0
100
AcDbBlockBegin
  2
*D10
 70
     1
 10
0.0
 20
0.0
 30
0.0
  3
*D10
  1

  0
LINE
  5
23BA
330
1548
100
AcDbEntity
  8
実形
 62
     0
370
    18
100
AcDbLine
 10
1791.050329074197
 20
741.7745986296069
 30
0.0
 11
1753.525428541637
 21
741.7745986296069
 31
0.0
  0
LINE
  5
23BB
330
1548
100
AcDbEntity
  8
実形
 62
     0
370
    18
100
AcDbLine
 10
1785.70111206964
 20
621.774598629607
 30
0.0
 11
1753.525428541637
 21
621.774598629607
 31
0.0
  0
LINE
  5
23BC
330
1548
100
AcDbEntity
  8
実形
 62
     0
370
    18
100
AcDbLine
 10
1753.525428541637
 20
741.7745986296069
 30
0.0
 11
1753.525428541637
 21
621.774598629607
 31
0.0
  0
INSERT
  5
23BD
330
1548
100
AcDbEntity
  8
実形
 62
     0
370
    18
100
AcDbBlockReference
  2
_DotSmall
 10
1753.525428541637
 20
741.7745986296069
 30
0.0
 41
35.0
 42
35.0
 43
35.0
 50
90.0
  0
INSERT
  5
23BE
330
1548
100
AcDbEntity
  8
実形
 62
     0
370
    18
100
AcDbBlockReference
  2
_DotSmall
 10
1753.525428541637
 20
621.774598629607
 30
0.0
 41
35.0
 42
35.0
 43
35.0
 50
270.0
  0
MTEXT
  5
23BF
330
1548
100
AcDbEntity
  8
実形
 62
     0
100
AcDbMText
 10
1734.775428541636
 20
681.7745986296072
 30
0.0
 40
25.0
 41
0.0
 71
     5
 72
     1
  1
12
 11
0.0000000000000001
 21
1.0
 31
0.0
 73
     1
 44
1.0
1001
ACAD
1000
MTEXTBEGIN
1070
    73
1070
     1
1070
    44
1040
1.0
1070
    74
1070
     0
1000
MTEXTEND
  0
POINT
  5
23C0
330
1548
100
AcDbEntity
  8
Defpoints
 62
     0
100
AcDbPoint
 10
1856.050329074197
 20
741.7745986296068
 30
0.0
  0
POINT
  5
23C1
330
1548
100
AcDbEntity
  8
Defpoints
 62
     0
100
AcDbPoint
 10
1850.701112069639
 20
621.7745986296068
 30
0.0
  0
POINT
  5
23C2
330
1548
100
AcDbEntity
  8
Defpoints
 62
     0
100
AcDbPoint
 10
1753.525428541637
 20
621.774598629607
 30
0.0
  0
ENDBLK
  5
1553
330
1548
100
AcDbEntity
  8
0
100
AcDbBlockEnd
  0
BLOCK
  5
155E
330
1554
100
AcDbEntity
  8
0
100
AcDbBlockBegin
  2
*D11
 70
     1
 10
0.0
 20
0.0
 30
0.0
  3
*D11
  1

  0
LINE
  5
1DEA
330
1554
100
AcDbEntity
  8
実形
 62
     0
370
    18
100
AcDbLine
 10
2217.899627132799
 20
589.3938049223925
 30
0.0
 11
2217.899627132799
 21
566.132923262845
 31
0.0
  0
LINE
  5
1DEB
330
1554
100
AcDbEntity
  8
実形
 62
     0
370
    18
100
AcDbLine
 10
2317.899627132798
 20
589.3938049223925
 30
0.0
 11
2317.899627132798
 21
566.132923262845
 31
0.0
  0
LINE
  5
1DEC
330
1554
100
AcDbEntity
  8
実形
 62
     0
370
    18
100
AcDbLine
 10
2217.899627132799
 20
566.132923262845
 30
0.0
 11
2317.899627132798
 21
566.132923262845
 31
0.0
  0
INSERT
  5
1DED
330
1554
100
AcDbEntity
  8
実形
 62
     0
370
    18
100
AcDbBlockReference
  2
_DotSmall
 10
2217.899627132799
 20
566.132923262845
 30
0.0
 41
35.0
 42
35.0
 43
35.0
 50
180.0
  0
INSERT
  5
1DEE
330
1554
100
AcDbEntity
  8
実形
 62
     0
370
    18
100
AcDbBlockReference
  2
_DotSmall
 10
2317.899627132798
 20
566.132923262845
 30
0.0
 41
35.0
 42
35.0
 43
35.0
  0
MTEXT
  5
1DEF
330
1554
100
AcDbEntity
  8
実形
 62
     0
100
AcDbMText
 10
2267.899627132799
 20
584.882923262845
 30
0.0
 40
25.0
 41
0.0
 71
     5
 72
     1
  1
10
 73
     1
 44
1.0
1001
ACAD
1000
MTEXTBEGIN
1070
    73
1070
     1
1070
    44
1040
1.0
1070
    74
1070
     0
1000
MTEXTEND
  0
POINT
  5
1DF0
330
1554
100
AcDbEntity
  8
Defpoints
 62
     0
100
AcDbPoint
 10
2217.899627132799
 20
654.3938049223925
 30
0.0
  0
POINT
  5
1DF1
330
1554
100
AcDbEntity
  8
Defpoints
 62
     0
100
AcDbPoint
 10
2317.899627132798
 20
654.3938049223925
 30
0.0
  0
POINT
  5
1DF2
330
1554
100
AcDbEntity
  8
Defpoints
 62
     0
100
AcDbPoint
 10
2317.899627132798
 20
566.132923262845
 30
0.0
  0
ENDBLK
  5
155F
330
1554
100
AcDbEntity
  8
0
100
AcDbBlockEnd
  0
BLOCK
  5
156A
330
1560
100
AcDbEntity
  8
0
100
AcDbBlockBegin
  2
*D12
 70
     1
 10
0.0
 20
0.0
 30
0.0
  3
*D12
  1

  0
LINE
  5
1DE1
330
1560
100
AcDbEntity
  8
実形
 62
     0
370
    18
100
AcDbLine
 10
2167.899627132798
 20
589.3938049223925
 30
0.0
 11
2167.899627132798
 21
566.132923262845
 31
0.0
  0
LINE
  5
1DE2
330
1560
100
AcDbEntity
  8
実形
 62
     0
370
    18
100
AcDbLine
 10
2217.750478700636
 20
589.3938049223925
 30
0.0
 11
2217.750478700636
 21
566.132923262845
 31
0.0
  0
LINE
  5
1DE3
330
1560
100
AcDbEntity
  8
実形
 62
     0
370
    18
100
AcDbLine
 10
2167.899627132798
 20
566.132923262845
 30
0.0
 11
2217.750478700636
 21
566.132923262845
 31
0.0
  0
INSERT
  5
1DE4
330
1560
100
AcDbEntity
  8
実形
 62
     0
370
    18
100
AcDbBlockReference
  2
_DotSmall
 10
2167.899627132798
 20
566.132923262845
 30
0.0
 41
35.0
 42
35.0
 43
35.0
 50
180.0
  0
INSERT
  5
1DE5
330
1560
100
AcDbEntity
  8
実形
 62
     0
370
    18
100
AcDbBlockReference
  2
_DotSmall
 10
2217.750478700636
 20
566.132923262845
 30
0.0
 41
35.0
 42
35.0
 43
35.0
  0
MTEXT
  5
1DE6
330
1560
100
AcDbEntity
  8
実形
 62
     0
100
AcDbMText
 10
2192.825052916717
 20
584.882923262845
 30
0.0
 40
25.0
 41
0.0
 71
     5
 72
     1
  1
5
 73
     1
 44
1.0
1001
ACAD
1000
MTEXTBEGIN
1070
    73
1070
     1
1070
    44
1040
1.0
1070
    74
1070
     0
1000
MTEXTEND
  0
POINT
  5
1DE7
330
1560
100
AcDbEntity
  8
Defpoints
 62
     0
100
AcDbPoint
 10
2167.899627132798
 20
654.3938049223925
 30
0.0
  0
POINT
  5
1DE8
330
1560
100
AcDbEntity
  8
Defpoints
 62
     0
100
AcDbPoint
 10
2217.750478700636
 20
654.3938049223925
 30
0.0
  0
POINT
  5
1DE9
330
1560
100
AcDbEntity
  8
Defpoints
 62
     0
100
AcDbPoint
 10
2217.750478700636
 20
566.132923262845
 30
0.0
  0
ENDBLK
  5
156B
330
1560
100
AcDbEntity
  8
0
100
AcDbBlockEnd
  0
BLOCK
  5
1576
330
156C
100
AcDbEntity
  8
0
100
AcDbBlockBegin
  2
*D13
 70
     1
 10
0.0
 20
0.0
 30
0.0
  3
*D13
  1

  0
LINE
  5
23CC
330
156C
100
AcDbEntity
  8
実形
 62
     0
370
    18
100
AcDbLine
 10
1867.899627132799
 20
771.2498690356978
 30
0.0
 11
1867.899627132799
 21
804.2436145081255
 31
0.0
  0
LINE
  5
23CD
330
156C
100
AcDbEntity
  8
実形
 62
     0
370
    18
100
AcDbLine
 10
2047.899627132799
 20
771.2498690356978
 30
0.0
 11
2047.899627132799
 21
804.2436145081255
 31
0.0
  0
LINE
  5
23CE
330
156C
100
AcDbEntity
  8
実形
 62
     0
370
    18
100
AcDbLine
 10
1867.899627132799
 20
804.2436145081255
 30
0.0
 11
2047.899627132799
 21
804.2436145081255
 31
0.0
  0
INSERT
  5
23CF
330
156C
100
AcDbEntity
  8
実形
 62
     0
370
    18
100
AcDbBlockReference
  2
_DotSmall
 10
1867.899627132799
 20
804.2436145081255
 30
0.0
 41
35.0
 42
35.0
 43
35.0
 50
180.0
  0
INSERT
  5
23D0
330
156C
100
AcDbEntity
  8
実形
 62
     0
370
    18
100
AcDbBlockReference
  2
_DotSmall
 10
2047.899627132799
 20
804.2436145081255
 30
0.0
 41
35.0
 42
35.0
 43
35.0
  0
MTEXT
  5
23D1
330
156C
100
AcDbEntity
  8
実形
 62
     0
100
AcDbMText
 10
1957.899627132799
 20
822.9936145081255
 30
0.0
 40
25.0
 41
0.0
 71
     5
 72
     1
  1
18
 73
     1
 44
1.0
1001
ACAD
1000
MTEXTBEGIN
1070
    73
1070
     1
1070
    44
1040
1.0
1070
    74
1070
     0
1000
MTEXTEND
  0
POINT
  5
23D2
330
156C
100
AcDbEntity
  8
Defpoints
 62
     0
100
AcDbPoint
 10
1867.899627132799
 20
706.2498690356979
 30
0.0
  0
POINT
  5
23D3
330
156C
100
AcDbEntity
  8
Defpoints
 62
     0
100
AcDbPoint
 10
2047.899627132799
 20
706.2498690356979
 30
0.0
  0
POINT
  5
23D4
330
156C
100
AcDbEntity
  8
Defpoints
 62
     0
100
AcDbPoint
 10
2047.899627132799
 20
804.2436145081255
 30
0.0
  0
ENDBLK
  5
1577
330
156C
100
AcDbEntity
  8
0
100
AcDbBlockEnd
  0
BLOCK
  5
1582
330
1578
100
AcDbEntity
  8
0
100
AcDbBlockBegin
  2
*D14
 70
     1
 10
0.0
 20
0.0
 30
0.0
  3
*D14
  1

  0
LINE
  5
23A8
330
1578
100
AcDbEntity
  8
実形
 62
     0
370
    18
100
AcDbLine
 10
1817.899627132799
 20
776.1883187961321
 30
0.0
 11
1817.899627132799
 21
865.148744994477
 31
0.0
  0
LINE
  5
23A9
330
1578
100
AcDbEntity
  8
実形
 62
     0
370
    18
100
AcDbLine
 10
2317.899627132799
 20
770.188318796132
 30
0.0
 11
2317.899627132799
 21
865.148744994477
 31
0.0
  0
LINE
  5
23AA
330
1578
100
AcDbEntity
  8
実形
 62
     0
370
    18
100
AcDbLine
 10
1817.899627132799
 20
865.148744994477
 30
0.0
 11
2317.899627132799
 21
865.148744994477
 31
0.0
  0
INSERT
  5
23AB
330
1578
100
AcDbEntity
  8
実形
 62
     0
370
    18
100
AcDbBlockReference
  2
_DotSmall
 10
1817.899627132799
 20
865.148744994477
 30
0.0
 41
35.0
 42
35.0
 43
35.0
 50
180.0
  0
INSERT
  5
23AC
330
1578
100
AcDbEntity
  8
実形
 62
     0
370
    18
100
AcDbBlockReference
  2
_DotSmall
 10
2317.899627132799
 20
865.148744994477
 30
0.0
 41
35.0
 42
35.0
 43
35.0
  0
MTEXT
  5
23AD
330
1578
100
AcDbEntity
  8
実形
 62
     0
100
AcDbMText
 10
2067.899627132799
 20
883.898744994477
 30
0.0
 40
25.0
 41
0.0
 71
     5
 72
     1
  1
50
 73
     1
 44
1.0
1001
ACAD
1000
MTEXTBEGIN
1070
    73
1070
     1
1070
    44
1040
1.0
1070
    74
1070
     0
1000
MTEXTEND
  0
POINT
  5
23AE
330
1578
100
AcDbEntity
  8
Defpoints
 62
     0
100
AcDbPoint
 10
1817.899627132799
 20
711.188318796132
 30
0.0
  0
POINT
  5
23AF
330
1578
100
AcDbEntity
  8
Defpoints
 62
     0
100
AcDbPoint
 10
2317.899627132799
 20
705.1883187961321
 30
0.0
  0
POINT
  5
23B0
330
1578
100
AcDbEntity
  8
Defpoints
 62
     0
100
AcDbPoint
 10
2317.899627132799
 20
865.148744994477
 30
0.0
  0
ENDBLK
  5
1583
330
1578
100
AcDbEntity
  8
0
100
AcDbBlockEnd
  0
BLOCK
  5
158E
330
1584
100
AcDbEntity
  8
0
100
AcDbBlockBegin
  2
*D15
 70
     1
 10
0.0
 20
0.0
 30
0.0
  3
*D15
  1

  0
LINE
  5
1DC6
330
1584
100
AcDbEntity
  8
実形
 62
     0
370
    18
100
AcDbLine
 10
2346.301992771529
 20
741.7745986296067
 30
0.0
 11
2389.409955385397
 21
741.7745986296067
 31
0.0
  0
LINE
  5
1DC7
330
1584
100
AcDbEntity
  8
実形
 62
     0
370
    18
100
AcDbLine
 10
2346.301992771529
 20
691.7745986296067
 30
0.0
 11
2389.409955385397
 21
691.7745986296067
 31
0.0
  0
LINE
  5
1DC8
330
1584
100
AcDbEntity
  8
実形
 62
     0
370
    18
100
AcDbLine
 10
2389.409955385397
 20
741.7745986296067
 30
0.0
 11
2389.409955385397
 21
691.7745986296067
 31
0.0
  0
INSERT
  5
1DC9
330
1584
100
AcDbEntity
  8
実形
 62
     0
370
    18
100
AcDbBlockReference
  2
_DotSmall
 10
2389.409955385397
 20
741.7745986296067
 30
0.0
 41
35.0
 42
35.0
 43
35.0
 50
90.0
  0
INSERT
  5
1DCA
330
1584
100
AcDbEntity
  8
実形
 62
     0
370
    18
100
AcDbBlockReference
  2
_DotSmall
 10
2389.409955385397
 20
691.7745986296067
 30
0.0
 41
35.0
 42
35.0
 43
35.0
 50
270.0
  0
MTEXT
  5
1DCB
330
1584
100
AcDbEntity
  8
実形
 62
     0
100
AcDbMText
 10
2370.659955385397
 20
716.7745986296071
 30
0.0
 40
25.0
 41
0.0
 71
     5
 72
     1
  1
5
 11
0.0000000000000001
 21
1.0
 31
0.0
 73
     1
 44
1.0
1001
ACAD
1000
MTEXTBEGIN
1070
    73
1070
     1
1070
    44
1040
1.0
1070
    74
1070
     0
1000
MTEXTEND
  0
POINT
  5
1DCC
330
1584
100
AcDbEntity
  8
Defpoints
 62
     0
100
AcDbPoint
 10
2281.301992771529
 20
741.7745986296067
 30
0.0
  0
POINT
  5
1DCD
330
1584
100
AcDbEntity
  8
Defpoints
 62
     0
100
AcDbPoint
 10
2281.301992771529
 20
691.7745986296067
 30
0.0
  0
POINT
  5
1DCE
330
1584
100
AcDbEntity
  8
Defpoints
 62
     0
100
AcDbPoint
 10
2389.409955385397
 20
691.7745986296067
 30
0.0
  0
ENDBLK
  5
158F
330
1584
100
AcDbEntity
  8
0
100
AcDbBlockEnd
  0
BLOCK
  5
159A
330
1590
100
AcDbEntity
  8
0
100
AcDbBlockBegin
  2
*D16
 70
     1
 10
0.0
 20
0.0
 30
0.0
  3
*D16
  1

  0
LINE
  5
1DBD
330
1590
100
AcDbEntity
  8
実形
 62
     0
370
    18
100
AcDbLine
 10
2267.899627132799
 20
770.188318796132
 30
0.0
 11
2267.899627132799
 21
817.6685318953046
 31
0.0
  0
LINE
  5
1DBE
330
1590
100
AcDbEntity
  8
実形
 62
     0
370
    18
100
AcDbLine
 10
2317.899627132799
 20
770.188318796132
 30
0.0
 11
2317.899627132799
 21
817.6685318953046
 31
0.0
  0
LINE
  5
1DBF
330
1590
100
AcDbEntity
  8
実形
 62
     0
370
    18
100
AcDbLine
 10
2267.899627132799
 20
817.6685318953046
 30
0.0
 11
2317.899627132799
 21
817.6685318953046
 31
0.0
  0
INSERT
  5
1DC0
330
1590
100
AcDbEntity
  8
実形
 62
     0
370
    18
100
AcDbBlockReference
  2
_DotSmall
 10
2267.899627132799
 20
817.6685318953046
 30
0.0
 41
35.0
 42
35.0
 43
35.0
 50
180.0
  0
INSERT
  5
1DC1
330
1590
100
AcDbEntity
  8
実形
 62
     0
370
    18
100
AcDbBlockReference
  2
_DotSmall
 10
2317.899627132799
 20
817.6685318953046
 30
0.0
 41
35.0
 42
35.0
 43
35.0
  0
MTEXT
  5
1DC2
330
1590
100
AcDbEntity
  8
実形
 62
     0
100
AcDbMText
 10
2292.899627132799
 20
836.4185318953046
 30
0.0
 40
25.0
 41
0.0
 71
     5
 72
     1
  1
5
 73
     1
 44
1.0
1001
ACAD
1000
MTEXTBEGIN
1070
    73
1070
     1
1070
    44
1040
1.0
1070
    74
1070
     0
1000
MTEXTEND
  0
POINT
  5
1DC3
330
1590
100
AcDbEntity
  8
Defpoints
 62
     0
100
AcDbPoint
 10
2267.899627132799
 20
705.1883187961321
 30
0.0
  0
POINT
  5
1DC4
330
1590
100
AcDbEntity
  8
Defpoints
 62
     0
100
AcDbPoint
 10
2317.899627132799
 20
705.1883187961321
 30
0.0
  0
POINT
  5
1DC5
330
1590
100
AcDbEntity
  8
Defpoints
 62
     0
100
AcDbPoint
 10
2317.899627132799
 20
817.6685318953046
 30
0.0
  0
ENDBLK
  5
159B
330
1590
100
AcDbEntity
  8
0
100
AcDbBlockEnd
  0
BLOCK
  5
15A6
330
159C
100
AcDbEntity
  8
0
100
AcDbBlockBegin
  2
*D17
 70
     1
 10
0.0
 20
0.0
 30
0.0
  3
*D17
  1

  0
LINE
  5
23F9
330
159C
100
AcDbEntity
  8
実形
 62
     0
370
    18
100
AcDbLine
 10
2061.610652705695
 20
671.7745986296067
 30
0.0
 11
2091.1279909282
 21
671.7745986296067
 31
0.0
  0
LINE
  5
23FA
330
159C
100
AcDbEntity
  8
実形
 62
     0
370
    18
100
AcDbLine
 10
2061.610652705695
 20
621.7745986296067
 30
0.0
 11
2091.1279909282
 21
621.7745986296067
 31
0.0
  0
LINE
  5
23FB
330
159C
100
AcDbEntity
  8
実形
 62
     0
370
    18
100
AcDbLine
 10
2091.1279909282
 20
671.7745986296067
 30
0.0
 11
2091.1279909282
 21
621.7745986296067
 31
0.0
  0
INSERT
  5
23FC
330
159C
100
AcDbEntity
  8
実形
 62
     0
370
    18
100
AcDbBlockReference
  2
_DotSmall
 10
2091.1279909282
 20
671.7745986296067
 30
0.0
 41
35.0
 42
35.0
 43
35.0
 50
90.0
  0
INSERT
  5
23FD
330
159C
100
AcDbEntity
  8
実形
 62
     0
370
    18
100
AcDbBlockReference
  2
_DotSmall
 10
2091.1279909282
 20
621.7745986296067
 30
0.0
 41
35.0
 42
35.0
 43
35.0
 50
270.0
  0
MTEXT
  5
23FE
330
159C
100
AcDbEntity
  8
実形
 62
     0
100
AcDbMText
 10
2072.377990928199
 20
646.7745986296071
 30
0.0
 40
25.0
 41
0.0
 71
     5
 72
     1
  1
5
 11
0.0000000000000001
 21
1.0
 31
0.0
 73
     1
 44
1.0
1001
ACAD
1000
MTEXTBEGIN
1070
    73
1070
     1
1070
    44
1040
1.0
1070
    74
1070
     0
1000
MTEXTEND
  0
POINT
  5
23FF
330
159C
100
AcDbEntity
  8
Defpoints
 62
     0
100
AcDbPoint
 10
1996.610652705695
 20
671.7745986296067
 30
0.0
  0
POINT
  5
2400
330
159C
100
AcDbEntity
  8
Defpoints
 62
     0
100
AcDbPoint
 10
1996.610652705695
 20
621.7745986296067
 30
0.0
  0
POINT
  5
2401
330
159C
100
AcDbEntity
  8
Defpoints
 62
     0
100
AcDbPoint
 10
2091.1279909282
 20
621.7745986296067
 30
0.0
  0
ENDBLK
  5
15A7
330
159C
100
AcDbEntity
  8
0
100
AcDbBlockEnd
  0
BLOCK
  5
15B2
330
15A8
100
AcDbEntity
  8
0
100
AcDbBlockBegin
  2
*D18
 70
     1
 10
0.0
 20
0.0
 30
0.0
  3
*D18
  1

  0
LINE
  5
23DE
330
15A8
100
AcDbEntity
  8
実形
 62
     0
370
    18
100
AcDbLine
 10
1897.899627132798
 20
512.5399579777349
 30
0.0
 11
1897.899627132798
 21
489.0759292349884
 31
0.0
  0
LINE
  5
23DF
330
15A8
100
AcDbEntity
  8
実形
 62
     0
370
    18
100
AcDbLine
 10
2077.899627132798
 20
512.5399579777349
 30
0.0
 11
2077.899627132798
 21
489.0759292349884
 31
0.0
  0
LINE
  5
23E0
330
15A8
100
AcDbEntity
  8
実形
 62
     0
370
    18
100
AcDbLine
 10
1897.899627132798
 20
489.0759292349884
 30
0.0
 11
2077.899627132798
 21
489.0759292349884
 31
0.0
  0
INSERT
  5
23E1
330
15A8
100
AcDbEntity
  8
実形
 62
     0
370
    18
100
AcDbBlockReference
  2
_DotSmall
 10
1897.899627132798
 20
489.0759292349884
 30
0.0
 41
35.0
 42
35.0
 43
35.0
 50
180.0
  0
INSERT
  5
23E2
330
15A8
100
AcDbEntity
  8
実形
 62
     0
370
    18
100
AcDbBlockReference
  2
_DotSmall
 10
2077.899627132798
 20
489.0759292349884
 30
0.0
 41
35.0
 42
35.0
 43
35.0
  0
MTEXT
  5
23E3
330
15A8
100
AcDbEntity
  8
実形
 62
     0
100
AcDbMText
 10
1987.899627132798
 20
507.8259292349884
 30
0.0
 40
25.0
 41
0.0
 71
     5
 72
     1
  1
18
 73
     1
 44
1.0
1001
ACAD
1000
MTEXTBEGIN
1070
    73
1070
     1
1070
    44
1040
1.0
1070
    74
1070
     0
1000
MTEXTEND
  0
POINT
  5
23E4
330
15A8
100
AcDbEntity
  8
Defpoints
 62
     0
100
AcDbPoint
 10
1897.899627132798
 20
577.5399579777349
 30
0.0
  0
POINT
  5
23E5
330
15A8
100
AcDbEntity
  8
Defpoints
 62
     0
100
AcDbPoint
 10
2077.899627132798
 20
577.5399579777349
 30
0.0
  0
POINT
  5
23E6
330
15A8
100
AcDbEntity
  8
Defpoints
 62
     0
100
AcDbPoint
 10
2077.899627132798
 20
489.0759292349884
 30
0.0
  0
ENDBLK
  5
15B3
330
15A8
100
AcDbEntity
  8
0
100
AcDbBlockEnd
  0
BLOCK
  5
15BE
330
15B4
100
AcDbEntity
  8
0
100
AcDbBlockBegin
  2
*D19
 70
     1
 10
0.0
 20
0.0
 30
0.0
  3
*D19
  1

  0
LINE
  5
23E7
330
15B4
100
AcDbEntity
  8
実形
 62
     0
370
    18
100
AcDbLine
 10
2107.667552183736
 20
613.3475735696975
 30
0.0
 11
2125.611732425682
 21
613.3475735696975
 31
0.0
  0
LINE
  5
23E8
330
15B4
100
AcDbEntity
  8
実形
 62
     0
370
    18
100
AcDbLine
 10
2107.667552183736
 20
543.3475735696974
 30
0.0
 11
2125.611732425682
 21
543.3475735696974
 31
0.0
  0
LINE
  5
23E9
330
15B4
100
AcDbEntity
  8
実形
 62
     0
370
    18
100
AcDbLine
 10
2125.611732425682
 20
613.3475735696975
 30
0.0
 11
2125.611732425682
 21
543.3475735696974
 31
0.0
  0
INSERT
  5
23EA
330
15B4
100
AcDbEntity
  8
実形
 62
     0
370
    18
100
AcDbBlockReference
  2
_DotSmall
 10
2125.611732425682
 20
613.3475735696975
 30
0.0
 41
35.0
 42
35.0
 43
35.0
 50
90.0
  0
INSERT
  5
23EB
330
15B4
100
AcDbEntity
  8
実形
 62
     0
370
    18
100
AcDbBlockReference
  2
_DotSmall
 10
2125.611732425682
 20
543.3475735696974
 30
0.0
 41
35.0
 42
35.0
 43
35.0
 50
270.0
  0
MTEXT
  5
23EC
330
15B4
100
AcDbEntity
  8
実形
 62
     0
100
AcDbMText
 10
2106.861732425683
 20
578.3475735696978
 30
0.0
 40
25.0
 41
0.0
 71
     5
 72
     1
  1
7
 11
0.0000000000000001
 21
1.0
 31
0.0
 73
     1
 44
1.0
1001
ACAD
1000
MTEXTBEGIN
1070
    73
1070
     1
1070
    44
1040
1.0
1070
    74
1070
     0
1000
MTEXTEND
  0
POINT
  5
23ED
330
15B4
100
AcDbEntity
  8
Defpoints
 62
     0
100
AcDbPoint
 10
2042.667552183736
 20
613.3475735696975
 30
0.0
  0
POINT
  5
23EE
330
15B4
100
AcDbEntity
  8
Defpoints
 62
     0
100
AcDbPoint
 10
2042.667552183736
 20
543.3475735696974
 30
0.0
  0
POINT
  5
23EF
330
15B4
100
AcDbEntity
  8
Defpoints
 62
     0
100
AcDbPoint
 10
2125.611732425682
 20
543.3475735696974
 30
0.0
  0
ENDBLK
  5
15BF
330
15B4
100
AcDbEntity
  8
0
100
AcDbBlockEnd
  0
BLOCK
  5
1821
330
1816
100
AcDbEntity
  8
0
100
AcDbBlockBegin
  2
*D20
 70
     1
 10
0.0
 20
0.0
 30
0.0
  3
*D20
  1

  0
LINE
  5
1D99
330
1816
100
AcDbEntity
  8
実形
 62
     0
370
    18
100
AcDbLine
 10
780.0559941215563
 20
1207.943619133327
 30
0.0
 11
780.0559941215563
 21
1157.983619133327
 31
0.0
  0
LINE
  5
1D9A
330
1816
100
AcDbEntity
  8
実形
 62
     0
370
    18
100
AcDbLine
 10
730.0559941215563
 20
1207.943619133327
 30
0.0
 11
730.0559941215563
 21
1157.983619133327
 31
0.0
  0
LINE
  5
1D9B
330
1816
100
AcDbEntity
  8
実形
 62
     0
370
    18
100
AcDbLine
 10
780.0559941215563
 20
1157.983619133327
 30
0.0
 11
730.0559941215563
 21
1157.983619133327
 31
0.0
  0
INSERT
  5
1D9C
330
1816
100
AcDbEntity
  8
実形
 62
     0
370
    18
100
AcDbBlockReference
  2
_DotSmall
 10
780.0559941215563
 20
1157.983619133327
 30
0.0
 41
35.0
 42
35.0
 43
35.0
  0
INSERT
  5
1D9D
330
1816
100
AcDbEntity
  8
実形
 62
     0
370
    18
100
AcDbBlockReference
  2
_DotSmall
 10
730.0559941215563
 20
1157.983619133327
 30
0.0
 41
35.0
 42
35.0
 43
35.0
 50
180.0
  0
MTEXT
  5
1D9E
330
1816
100
AcDbEntity
  8
実形
 62
     0
100
AcDbMText
 10
755.0559941215563
 20
1175.733619133327
 30
0.0
 40
23.0
 41
0.0
 71
     5
 72
     1
  1
50
 73
     1
 44
1.0
1001
ACAD
1000
MTEXTBEGIN
1070
    73
1070
     1
1070
    44
1040
1.0
1070
    74
1070
     0
1000
MTEXTEND
  0
POINT
  5
1D9F
330
1816
100
AcDbEntity
  8
Defpoints
 62
     0
100
AcDbPoint
 10
780.0559941215563
 20
1272.943619133327
 30
0.0
  0
POINT
  5
1DA0
330
1816
100
AcDbEntity
  8
Defpoints
 62
     0
100
AcDbPoint
 10
730.0559941215563
 20
1272.943619133327
 30
0.0
  0
POINT
  5
1DA1
330
1816
100
AcDbEntity
  8
Defpoints
 62
     0
100
AcDbPoint
 10
730.0559941215563
 20
1157.983619133327
 30
0.0
  0
ENDBLK
  5
1822
330
1816
100
AcDbEntity
  8
0
100
AcDbBlockEnd
  0
BLOCK
  5
190C
330
1901
100
AcDbEntity
  8
0
100
AcDbBlockBegin
  2
*D21
 70
     1
 10
0.0
 20
0.0
 30
0.0
  3
*D21
  1

  0
LINE
  5
1D90
330
1901
100
AcDbEntity
  8
実形
 62
     0
370
    18
100
AcDbLine
 10
686.7795019535289
 20
1704.555133750541
 30
0.0
 11
620.3692614683852
 21
1704.555133750541
 31
0.0
  0
LINE
  5
1D91
330
1901
100
AcDbEntity
  8
実形
 62
     0
370
    18
100
AcDbLine
 10
686.7795019535289
 20
1754.555133750541
 30
0.0
 11
620.3692614683852
 21
1754.555133750541
 31
0.0
  0
LINE
  5
1D92
330
1901
100
AcDbEntity
  8
実形
 62
     0
370
    18
100
AcDbLine
 10
620.3692614683852
 20
1704.555133750541
 30
0.0
 11
620.3692614683852
 21
1754.555133750541
 31
0.0
  0
INSERT
  5
1D93
330
1901
100
AcDbEntity
  8
実形
 62
     0
370
    18
100
AcDbBlockReference
  2
_DotSmall
 10
620.3692614683852
 20
1704.555133750541
 30
0.0
 41
35.0
 42
35.0
 43
35.0
 50
270.0
  0
INSERT
  5
1D94
330
1901
100
AcDbEntity
  8
実形
 62
     0
370
    18
100
AcDbBlockReference
  2
_DotSmall
 10
620.3692614683852
 20
1754.555133750541
 30
0.0
 41
35.0
 42
35.0
 43
35.0
 50
90.0
  0
MTEXT
  5
1D95
330
1901
100
AcDbEntity
  8
実形
 62
     0
100
AcDbMText
 10
602.619261468385
 20
1729.555133750541
 30
0.0
 40
23.0
 41
0.0
 71
     5
 72
     1
  1
50
 11
0.0000000000000001
 21
1.0
 31
0.0
 73
     1
 44
1.0
1001
ACAD
1000
MTEXTBEGIN
1070
    73
1070
     1
1070
    44
1040
1.0
1070
    74
1070
     0
1000
MTEXTEND
  0
POINT
  5
1D96
330
1901
100
AcDbEntity
  8
Defpoints
 62
     0
100
AcDbPoint
 10
751.7795019535289
 20
1704.555133750541
 30
0.0
  0
POINT
  5
1D97
330
1901
100
AcDbEntity
  8
Defpoints
 62
     0
100
AcDbPoint
 10
751.7795019535289
 20
1754.555133750541
 30
0.0
  0
POINT
  5
1D98
330
1901
100
AcDbEntity
  8
Defpoints
 62
     0
100
AcDbPoint
 10
620.3692614683852
 20
1754.555133750541
 30
0.0
  0
ENDBLK
  5
190D
330
1901
100
AcDbEntity
  8
0
100
AcDbBlockEnd
  0
BLOCK
  5
1923
330
1918
100
AcDbEntity
  8
0
100
AcDbBlockBegin
  2
*D22
 70
     1
 10
0.0
 20
0.0
 30
0.0
  3
*D22
  1

  0
LINE
  5
1D87
330
1918
100
AcDbEntity
  8
実形
 62
     0
370
    18
100
AcDbLine
 10
686.7795019535281
 20
1304.559516885519
 30
0.0
 11
620.3692614683852
 21
1304.559516885519
 31
0.0
  0
LINE
  5
1D88
330
1918
100
AcDbEntity
  8
実形
 62
     0
370
    18
100
AcDbLine
 10
686.7795019535281
 20
1254.559516885519
 30
0.0
 11
620.3692614683851
 21
1254.559516885519
 31
0.0
  0
LINE
  5
1D89
330
1918
100
AcDbEntity
  8
実形
 62
     0
370
    18
100
AcDbLine
 10
620.3692614683852
 20
1304.559516885519
 30
0.0
 11
620.3692614683851
 21
1254.559516885519
 31
0.0
  0
INSERT
  5
1D8A
330
1918
100
AcDbEntity
  8
実形
 62
     0
370
    18
100
AcDbBlockReference
  2
_DotSmall
 10
620.3692614683852
 20
1304.559516885519
 30
0.0
 41
35.0
 42
35.0
 43
35.0
 50
90.0
  0
INSERT
  5
1D8B
330
1918
100
AcDbEntity
  8
実形
 62
     0
370
    18
100
AcDbBlockReference
  2
_DotSmall
 10
620.3692614683851
 20
1254.559516885519
 30
0.0
 41
35.0
 42
35.0
 43
35.0
 50
270.0
  0
MTEXT
  5
1D8C
330
1918
100
AcDbEntity
  8
実形
 62
     0
100
AcDbMText
 10
602.619261468385
 20
1279.559516885519
 30
0.0
 40
23.0
 41
0.0
 71
     5
 72
     1
  1
50
 11
0.0000000000000001
 21
1.0
 31
0.0
 73
     1
 44
1.0
1001
ACAD
1000
MTEXTBEGIN
1070
    73
1070
     1
1070
    44
1040
1.0
1070
    74
1070
     0
1000
MTEXTEND
  0
POINT
  5
1D8D
330
1918
100
AcDbEntity
  8
Defpoints
 62
     0
100
AcDbPoint
 10
751.7795019535281
 20
1304.559516885519
 30
0.0
  0
POINT
  5
1D8E
330
1918
100
AcDbEntity
  8
Defpoints
 62
     0
100
AcDbPoint
 10
751.7795019535282
 20
1254.559516885519
 30
0.0
  0
POINT
  5
1D8F
330
1918
100
AcDbEntity
  8
Defpoints
 62
     0
100
AcDbPoint
 10
620.3692614683851
 20
1254.559516885519
 30
0.0
  0
ENDBLK
  5
1924
330
1918
100
AcDbEntity
  8
0
100
AcDbBlockEnd
  0
BLOCK
  5
1946
330
193C
100
AcDbEntity
  8
0
100
AcDbBlockBegin
  2
*D23
 70
     1
 10
0.0
 20
0.0
 30
0.0
  3
*D23
  1

  0
LINE
  5
1D7E
330
193C
100
AcDbEntity
  8
実形
 62
     0
370
    18
100
AcDbLine
 10
636.7795019535284
 20
1754.555133750541
 30
0.0
 11
555.5440761092324
 21
1754.555133750541
 31
0.0
  0
LINE
  5
1D7F
330
193C
100
AcDbEntity
  8
実形
 62
     0
370
    18
100
AcDbLine
 10
636.7795019535281
 20
1254.559516885519
 30
0.0
 11
555.5440761092322
 21
1254.559516885519
 31
0.0
  0
LINE
  5
1D80
330
193C
100
AcDbEntity
  8
実形
 62
     0
370
    18
100
AcDbLine
 10
555.5440761092324
 20
1754.555133750541
 30
0.0
 11
555.5440761092322
 21
1254.559516885519
 31
0.0
  0
INSERT
  5
1D81
330
193C
100
AcDbEntity
  8
実形
 62
     0
370
    18
100
AcDbBlockReference
  2
_DotSmall
 10
555.5440761092324
 20
1754.555133750541
 30
0.0
 41
35.0
 42
35.0
 43
35.0
 50
90.0
  0
INSERT
  5
1D82
330
193C
100
AcDbEntity
  8
実形
 62
     0
370
    18
100
AcDbBlockReference
  2
_DotSmall
 10
555.5440761092322
 20
1254.559516885519
 30
0.0
 41
35.0
 42
35.0
 43
35.0
 50
270.0
  0
MTEXT
  5
1D83
330
193C
100
AcDbEntity
  8
実形
 62
     0
100
AcDbMText
 10
536.7940761092321
 20
1504.55732531803
 30
0.0
 40
25.0
 41
0.0
 71
     5
 72
     1
  1
500
 11
0.0000000000000001
 21
1.0
 31
0.0
 73
     1
 44
1.0
1001
ACAD
1000
MTEXTBEGIN
1070
    73
1070
     1
1070
    44
1040
1.0
1070
    74
1070
     0
1000
MTEXTEND
  0
POINT
  5
1D84
330
193C
100
AcDbEntity
  8
Defpoints
 62
     0
100
AcDbPoint
 10
701.7795019535284
 20
1754.555133750541
 30
0.0
  0
POINT
  5
1D85
330
193C
100
AcDbEntity
  8
Defpoints
 62
     0
100
AcDbPoint
 10
701.7795019535282
 20
1254.559516885519
 30
0.0
  0
POINT
  5
1D86
330
193C
100
AcDbEntity
  8
Defpoints
 62
     0
100
AcDbPoint
 10
555.5440761092322
 20
1254.559516885519
 30
0.0
  0
ENDBLK
  5
1947
330
193C
100
AcDbEntity
  8
0
100
AcDbBlockEnd
  0
BLOCK
  5
19F2
330
19E8
100
AcDbEntity
  8
0
100
AcDbBlockBegin
  2
*D24
 70
     1
 10
0.0
 20
0.0
 30
0.0
  3
*D24
  1

  0
LINE
  5
1D75
330
19E8
100
AcDbEntity
  8
実形
 62
     0
370
    18
100
AcDbLine
 10
730.0559941215563
 20
1189.559516885519
 30
0.0
 11
730.0559941215563
 21
1100.111482513781
 31
0.0
  0
LINE
  5
1D76
330
19E8
100
AcDbEntity
  8
実形
 62
     0
370
    18
100
AcDbLine
 10
1350.060502629543
 20
1189.559516885519
 30
0.0
 11
1350.060502629543
 21
1100.111482513781
 31
0.0
  0
LINE
  5
1D77
330
19E8
100
AcDbEntity
  8
実形
 62
     0
370
    18
100
AcDbLine
 10
730.0559941215563
 20
1100.111482513781
 30
0.0
 11
1350.060502629543
 21
1100.111482513781
 31
0.0
  0
INSERT
  5
1D78
330
19E8
100
AcDbEntity
  8
実形
 62
     0
370
    18
100
AcDbBlockReference
  2
_DotSmall
 10
730.0559941215563
 20
1100.111482513781
 30
0.0
 41
35.0
 42
35.0
 43
35.0
 50
180.0
  0
INSERT
  5
1D79
330
19E8
100
AcDbEntity
  8
実形
 62
     0
370
    18
100
AcDbBlockReference
  2
_DotSmall
 10
1350.060502629543
 20
1100.111482513781
 30
0.0
 41
35.0
 42
35.0
 43
35.0
  0
MTEXT
  5
1D7A
330
19E8
100
AcDbEntity
  8
実形
 62
     0
100
AcDbMText
 10
1040.058248375549
 20
1118.861482513781
 30
0.0
 40
25.0
 41
0.0
 71
     5
 72
     1
  1
620
 73
     1
 44
1.0
1001
ACAD
1000
MTEXTBEGIN
1070
    73
1070
     1
1070
    44
1040
1.0
1070
    74
1070
     0
1000
MTEXTEND
  0
POINT
  5
1D7B
330
19E8
100
AcDbEntity
  8
Defpoints
 62
     0
100
AcDbPoint
 10
730.0559941215563
 20
1254.559516885519
 30
0.0
  0
POINT
  5
1D7C
330
19E8
100
AcDbEntity
  8
Defpoints
 62
     0
100
AcDbPoint
 10
1350.060502629543
 20
1254.559516885519
 30
0.0
  0
POINT
  5
1D7D
330
19E8
100
AcDbEntity
  8
Defpoints
 62
     0
100
AcDbPoint
 10
1350.060502629543
 20
1100.111482513781
 30
0.0
  0
ENDBLK
  5
19F3
330
19E8
100
AcDbEntity
  8
0
100
AcDbBlockEnd
  0
BLOCK
  5
1A3E
330
1A33
100
AcDbEntity
  8
0
100
AcDbBlockBegin
  2
*D25
 70
     1
 10
0.0
 20
0.0
 30
0.0
  3
*D25
  1

  0
LINE
  5
1F60
330
1A33
100
AcDbEntity
  8
実形
 62
     0
370
    18
100
AcDbLine
 10
1300.060502629543
 20
1208.384674342051
 30
0.0
 11
1300.060502629543
 21
1157.983619133327
 31
0.0
  0
LINE
  5
1F61
330
1A33
100
AcDbEntity
  8
実形
 62
     0
370
    18
100
AcDbLine
 10
1350.060502629543
 20
1208.384674342051
 30
0.0
 11
1350.060502629543
 21
1157.983619133327
 31
0.0
  0
LINE
  5
1F62
330
1A33
100
AcDbEntity
  8
実形
 62
     0
370
    18
100
AcDbLine
 10
1300.060502629543
 20
1157.983619133327
 30
0.0
 11
1350.060502629543
 21
1157.983619133327
 31
0.0
  0
INSERT
  5
1F63
330
1A33
100
AcDbEntity
  8
実形
 62
     0
370
    18
100
AcDbBlockReference
  2
_DotSmall
 10
1300.060502629543
 20
1157.983619133327
 30
0.0
 41
35.0
 42
35.0
 43
35.0
 50
180.0
  0
INSERT
  5
1F64
330
1A33
100
AcDbEntity
  8
実形
 62
     0
370
    18
100
AcDbBlockReference
  2
_DotSmall
 10
1350.060502629543
 20
1157.983619133327
 30
0.0
 41
35.0
 42
35.0
 43
35.0
  0
MTEXT
  5
1F65
330
1A33
100
AcDbEntity
  8
実形
 62
     0
100
AcDbMText
 10
1325.060502629543
 20
1175.733619133327
 30
0.0
 40
23.0
 41
0.0
 71
     5
 72
     1
  1
50
 73
     1
 44
1.0
1001
ACAD
1000
MTEXTBEGIN
1070
    73
1070
     1
1070
    44
1040
1.0
1070
    74
1070
     0
1000
MTEXTEND
  0
POINT
  5
1F66
330
1A33
100
AcDbEntity
  8
Defpoints
 62
     0
100
AcDbPoint
 10
1300.060502629543
 20
1273.384674342051
 30
0.0
  0
POINT
  5
1F67
330
1A33
100
AcDbEntity
  8
Defpoints
 62
     0
100
AcDbPoint
 10
1350.060502629543
 20
1273.384674342051
 30
0.0
  0
POINT
  5
1F68
330
1A33
100
AcDbEntity
  8
Defpoints
 62
     0
100
AcDbPoint
 10
1350.060502629543
 20
1157.983619133327
 30
0.0
  0
ENDBLK
  5
1A3F
330
1A33
100
AcDbEntity
  8
0
100
AcDbBlockEnd
  0
BLOCK
  5
1B13
330
1B09
100
AcDbEntity
  8
0
100
AcDbBlockBegin
  2
*D26
 70
     1
 10
0.0
 20
0.0
 30
0.0
  3
*D26
  1

  0
LINE
  5
1D63
330
1B09
100
AcDbEntity
  8
実形
 62
     0
370
    18
100
AcDbLine
 10
621.7795019535288
 20
1704.555133750541
 30
0.0
 11
620.3692614683852
 21
1704.555133750541
 31
0.0
  0
LINE
  5
1D64
330
1B09
100
AcDbEntity
  8
実形
 62
     0
370
    18
100
AcDbLine
 10
621.7795019535288
 20
1304.559516885519
 30
0.0
 11
620.3692614683852
 21
1304.559516885519
 31
0.0
  0
LINE
  5
1D65
330
1B09
100
AcDbEntity
  8
実形
 62
     0
370
    18
100
AcDbLine
 10
620.3692614683852
 20
1704.555133750541
 30
0.0
 11
620.3692614683852
 21
1304.559516885519
 31
0.0
  0
INSERT
  5
1D66
330
1B09
100
AcDbEntity
  8
実形
 62
     0
370
    18
100
AcDbBlockReference
  2
_DotSmall
 10
620.3692614683852
 20
1704.555133750541
 30
0.0
 41
35.0
 42
35.0
 43
35.0
 50
90.0
  0
INSERT
  5
1D67
330
1B09
100
AcDbEntity
  8
実形
 62
     0
370
    18
100
AcDbBlockReference
  2
_DotSmall
 10
620.3692614683852
 20
1304.559516885519
 30
0.0
 41
35.0
 42
35.0
 43
35.0
 50
270.0
  0
MTEXT
  5
1D68
330
1B09
100
AcDbEntity
  8
実形
 62
     0
100
AcDbMText
 10
601.619261468385
 20
1504.55732531803
 30
0.0
 40
25.0
 41
0.0
 71
     5
 72
     1
  1
400
 11
0.0000000000000001
 21
1.0
 31
0.0
 73
     1
 44
1.0
1001
ACAD
1000
MTEXTBEGIN
1070
    73
1070
     1
1070
    44
1040
1.0
1070
    74
1070
     0
1000
MTEXTEND
  0
POINT
  5
1D69
330
1B09
100
AcDbEntity
  8
Defpoints
 62
     0
100
AcDbPoint
 10
686.7795019535289
 20
1704.555133750541
 30
0.0
  0
POINT
  5
1D6A
330
1B09
100
AcDbEntity
  8
Defpoints
 62
     0
100
AcDbPoint
 10
686.7795019535289
 20
1304.559516885519
 30
0.0
  0
POINT
  5
1D6B
330
1B09
100
AcDbEntity
  8
Defpoints
 62
     0
100
AcDbPoint
 10
620.3692614683852
 20
1304.559516885519
 30
0.0
  0
ENDBLK
  5
1B14
330
1B09
100
AcDbEntity
  8
0
100
AcDbBlockEnd
  0
BLOCK
  5
1B44
330
1B3A
100
AcDbEntity
  8
0
100
AcDbBlockBegin
  2
*D27
 70
     1
 10
0.0
 20
0.0
 30
0.0
  3
*D27
  1

  0
MTEXT
  5
1D5F
330
1B3A
100
AcDbEntity
  8
実形
 62
     0
100
AcDbMText
 10
1040.05824837555
 20
1176.733619133327
 30
0.0
 40
25.0
 41
0.0
 71
     5
 72
     1
  1
520
 73
     1
 44
1.0
1001
ACAD
1000
MTEXTBEGIN
1070
    73
1070
     1
1070
    44
1040
1.0
1070
    74
1070
     0
1000
MTEXTEND
  0
POINT
  5
1D60
330
1B3A
100
AcDbEntity
  8
Defpoints
 62
     0
100
AcDbPoint
 10
780.0559941215563
 20
1207.943619133327
 30
0.0
  0
POINT
  5
1D61
330
1B3A
100
AcDbEntity
  8
Defpoints
 62
     0
100
AcDbPoint
 10
1300.060502629543
 20
1207.943619133327
 30
0.0
  0
POINT
  5
1D62
330
1B3A
100
AcDbEntity
  8
Defpoints
 62
     0
100
AcDbPoint
 10
1300.060502629543
 20
1157.983619133327
 30
0.0
  0
ENDBLK
  5
1B45
330
1B3A
100
AcDbEntity
  8
0
100
AcDbBlockEnd
  0
BLOCK
  5
1EBF
330
1EB5
100
AcDbEntity
  8
0
100
AcDbBlockBegin
  2
*D28
 70
     1
 10
0.0
 20
0.0
 30
0.0
  3
*D28
  1

  0
LINE
  5
1EDE
330
1EB5
100
AcDbEntity
  8
実形
 62
     0
370
    18
100
AcDbLine
 10
1025.92315307619
 20
1704.576324186728
 30
0.0
 11
1040.086924886862
 21
1704.576324186728
 31
0.0
  0
LINE
  5
1EDF
330
1EB5
100
AcDbEntity
  8
実形
 62
     0
370
    18
100
AcDbLine
 10
1009.123262482557
 20
1504.555133750541
 30
0.0
 11
1040.086924886862
 21
1504.555133750541
 31
0.0
  0
LINE
  5
1EE0
330
1EB5
100
AcDbEntity
  8
実形
 62
     0
370
    18
100
AcDbLine
 10
1040.086924886862
 20
1704.576324186728
 30
0.0
 11
1040.086924886862
 21
1504.555133750541
 31
0.0
  0
INSERT
  5
1EE1
330
1EB5
100
AcDbEntity
  8
実形
 62
     0
370
    18
100
AcDbBlockReference
  2
_DotSmall
 10
1040.086924886862
 20
1704.576324186728
 30
0.0
 41
35.0
 42
35.0
 43
35.0
 50
90.0
  0
INSERT
  5
1EE2
330
1EB5
100
AcDbEntity
  8
実形
 62
     0
370
    18
100
AcDbBlockReference
  2
_DotSmall
 10
1040.086924886862
 20
1504.555133750541
 30
0.0
 41
35.0
 42
35.0
 43
35.0
 50
270.0
  0
MTEXT
  5
1EE3
330
1EB5
100
AcDbEntity
  8
実形
 62
     0
100
AcDbMText
 10
1021.336924886862
 20
1604.565728968635
 30
0.0
 40
25.0
 41
0.0
 71
     5
 72
     1
  1
200
 11
0.0000000000000001
 21
1.0
 31
0.0
 73
     1
 44
1.0
1001
ACAD
1000
MTEXTBEGIN
1070
    73
1070
     1
1070
    44
1040
1.0
1070
    74
1070
     0
1000
MTEXTEND
  0
POINT
  5
1EE4
330
1EB5
100
AcDbEntity
  8
Defpoints
 62
     0
100
AcDbPoint
 10
960.9231530761899
 20
1704.576324186728
 30
0.0
  0
POINT
  5
1EE5
330
1EB5
100
AcDbEntity
  8
Defpoints
 62
     0
100
AcDbPoint
 10
944.123262482557
 20
1504.555133750541
 30
0.0
  0
POINT
  5
1EE6
330
1EB5
100
AcDbEntity
  8
Defpoints
 62
     0
100
AcDbPoint
 10
1040.086924886862
 20
1504.555133750541
 30
0.0
  0
ENDBLK
  5
1EC0
330
1EB5
100
AcDbEntity
  8
0
100
AcDbBlockEnd
  0
BLOCK
  5
1F82
330
1F81
100
AcDbEntity
  8
0
100
AcDbBlockBegin
  2
*D29
 70
     1
 10
0.0
 20
0.0
 30
0.0
  3
*D29
  1

  0
LINE
  5
1F83
330
1F81
100
AcDbEntity
  8
実形
 62
     0
370
    15
100
AcDbLine
 10
930.6185629794965
 20
1660.154135942405
 30
0.0
 11
930.6185629794965
 21
1803.442634824548
 31
0.0
  0
LINE
  5
1F84
330
1F81
100
AcDbEntity
  8
実形
 62
     0
370
    15
100
AcDbLine
 10
785.6185715581291
 20
1643.043702352522
 30
0.0
 11
785.6185715581291
 21
1803.442634824548
 31
0.0
  0
LINE
  5
1F85
330
1F81
100
AcDbEntity
  8
実形
 62
     0
370
    18
100
AcDbLine
 10
930.6185629794965
 20
1803.442634824548
 30
0.0
 11
785.6185715581291
 21
1803.442634824548
 31
0.0
  0
INSERT
  5
1F86
330
1F81
100
AcDbEntity
  8
実形
 62
     0
370
    18
100
AcDbBlockReference
  2
_DotSmall
 10
930.6185629794965
 20
1803.442634824548
 30
0.0
 41
25.0
 42
25.0
 43
25.0
  0
INSERT
  5
1F87
330
1F81
100
AcDbEntity
  8
実形
 62
     0
370
    18
100
AcDbBlockReference
  2
_DotSmall
 10
785.6185715581291
 20
1803.442634824548
 30
0.0
 41
25.0
 42
25.0
 43
25.0
 50
180.0
  0
MTEXT
  5
1F88
330
1F81
100
AcDbEntity
  8
実形
 62
     0
100
AcDbMText
 10
858.1185672688128
 20
1822.192634824548
 30
0.0
 40
25.0
 41
0.0
 71
     5
 72
     1
  1
145
 73
     1
 44
1.0
1001
ACAD
1000
MTEXTBEGIN
1070
    73
1070
     1
1070
    44
1040
1.0
1070
    74
1070
     0
1000
MTEXTEND
  0
POINT
  5
1F89
330
1F81
100
AcDbEntity
  8
Defpoints
 62
     0
100
AcDbPoint
 10
930.6185629794965
 20
1595.154135942404
 30
0.0
  0
POINT
  5
1F8A
330
1F81
100
AcDbEntity
  8
Defpoints
 62
     0
100
AcDbPoint
 10
785.6185715581291
 20
1578.043702352522
 30
0.0
  0
POINT
  5
1F8B
330
1F81
100
AcDbEntity
  8
Defpoints
 62
     0
100
AcDbPoint
 10
785.6185715581291
 20
1803.442634824548
 30
0.0
  0
ENDBLK
  5
1F8C
330
1F81
100
AcDbEntity
  8
0
100
AcDbBlockEnd
  0
BLOCK
  5
1F8E
330
1F8D
100
AcDbEntity
  8
0
100
AcDbBlockBegin
  2
*D30
 70
     1
 10
0.0
 20
0.0
 30
0.0
  3
*D30
  1

  0
LINE
  5
1F8F
330
1F8D
100
AcDbEntity
  8
実形
 62
     0
370
    18
100
AcDbLine
 10
780.0559941215563
 20
1207.943619133327
 30
0.0
 11
780.0559941215563
 21
1157.983619133327
 31
0.0
  0
LINE
  5
1F90
330
1F8D
100
AcDbEntity
  8
実形
 62
     0
370
    18
100
AcDbLine
 10
730.0559941215563
 20
1207.943619133327
 30
0.0
 11
730.0559941215563
 21
1157.983619133327
 31
0.0
  0
LINE
  5
1F91
330
1F8D
100
AcDbEntity
  8
実形
 62
     0
370
    18
100
AcDbLine
 10
780.0559941215563
 20
1157.983619133327
 30
0.0
 11
730.0559941215563
 21
1157.983619133327
 31
0.0
  0
INSERT
  5
1F92
330
1F8D
100
AcDbEntity
  8
実形
 62
     0
370
    18
100
AcDbBlockReference
  2
_DotSmall
 10
780.0559941215563
 20
1157.983619133327
 30
0.0
 41
35.0
 42
35.0
 43
35.0
  0
INSERT
  5
1F93
330
1F8D
100
AcDbEntity
  8
実形
 62
     0
370
    18
100
AcDbBlockReference
  2
_DotSmall
 10
730.0559941215563
 20
1157.983619133327
 30
0.0
 41
35.0
 42
35.0
 43
35.0
 50
180.0
  0
MTEXT
  5
1F94
330
1F8D
100
AcDbEntity
  8
実形
 62
     0
100
AcDbMText
 10
755.0559941215563
 20
1175.733619133327
 30
0.0
 40
23.0
 41
0.0
 71
     5
 72
     1
  1
50
 73
     1
 44
1.0
1001
ACAD
1000
MTEXTBEGIN
1070
    73
1070
     1
1070
    44
1040
1.0
1070
    74
1070
     0
1000
MTEXTEND
  0
POINT
  5
1F95
330
1F8D
100
AcDbEntity
  8
Defpoints
 62
     0
100
AcDbPoint
 10
780.0559941215563
 20
1272.943619133327
 30
0.0
  0
POINT
  5
1F96
330
1F8D
100
AcDbEntity
  8
Defpoints
 62
     0
100
AcDbPoint
 10
730.0559941215563
 20
1272.943619133327
 30
0.0
  0
POINT
  5
1F97
330
1F8D
100
AcDbEntity
  8
Defpoints
 62
     0
100
AcDbPoint
 10
730.0559941215563
 20
1157.983619133327
 30
0.0
  0
ENDBLK
  5
1F98
330
1F8D
100
AcDbEntity
  8
0
100
AcDbBlockEnd
  0
BLOCK
  5
1F9A
330
1F99
100
AcDbEntity
  8
0
100
AcDbBlockBegin
  2
*D31
 70
     1
 10
0.0
 20
0.0
 30
0.0
  3
*D31
  1

  0
LINE
  5
1F9B
330
1F99
100
AcDbEntity
  8
実形
 62
     0
370
    18
100
AcDbLine
 10
686.7795019535289
 20
1704.555133750541
 30
0.0
 11
620.3692614683852
 21
1704.555133750541
 31
0.0
  0
LINE
  5
1F9C
330
1F99
100
AcDbEntity
  8
実形
 62
     0
370
    18
100
AcDbLine
 10
686.7795019535289
 20
1754.555133750541
 30
0.0
 11
620.3692614683852
 21
1754.555133750541
 31
0.0
  0
LINE
  5
1F9D
330
1F99
100
AcDbEntity
  8
実形
 62
     0
370
    18
100
AcDbLine
 10
620.3692614683852
 20
1704.555133750541
 30
0.0
 11
620.3692614683852
 21
1754.555133750541
 31
0.0
  0
INSERT
  5
1F9E
330
1F99
100
AcDbEntity
  8
実形
 62
     0
370
    18
100
AcDbBlockReference
  2
_DotSmall
 10
620.3692614683852
 20
1704.555133750541
 30
0.0
 41
35.0
 42
35.0
 43
35.0
 50
270.0
  0
INSERT
  5
1F9F
330
1F99
100
AcDbEntity
  8
実形
 62
     0
370
    18
100
AcDbBlockReference
  2
_DotSmall
 10
620.3692614683852
 20
1754.555133750541
 30
0.0
 41
35.0
 42
35.0
 43
35.0
 50
90.0
  0
MTEXT
  5
1FA0
330
1F99
100
AcDbEntity
  8
実形
 62
     0
100
AcDbMText
 10
602.619261468385
 20
1729.555133750541
 30
0.0
 40
23.0
 41
0.0
 71
     5
 72
     1
  1
50
 11
0.0000000000000001
 21
1.0
 31
0.0
 73
     1
 44
1.0
1001
ACAD
1000
MTEXTBEGIN
1070
    73
1070
     1
1070
    44
1040
1.0
1070
    74
1070
     0
1000
MTEXTEND
  0
POINT
  5
1FA1
330
1F99
100
AcDbEntity
  8
Defpoints
 62
     0
100
AcDbPoint
 10
751.7795019535289
 20
1704.555133750541
 30
0.0
  0
POINT
  5
1FA2
330
1F99
100
AcDbEntity
  8
Defpoints
 62
     0
100
AcDbPoint
 10
751.7795019535289
 20
1754.555133750541
 30
0.0
  0
POINT
  5
1FA3
330
1F99
100
AcDbEntity
  8
Defpoints
 62
     0
100
AcDbPoint
 10
620.3692614683852
 20
1754.555133750541
 30
0.0
  0
ENDBLK
  5
1FA4
330
1F99
100
AcDbEntity
  8
0
100
AcDbBlockEnd
  0
BLOCK
  5
1FA6
330
1FA5
100
AcDbEntity
  8
0
100
AcDbBlockBegin
  2
*D32
 70
     1
 10
0.0
 20
0.0
 30
0.0
  3
*D32
  1

  0
LINE
  5
1FA7
330
1FA5
100
AcDbEntity
  8
実形
 62
     0
370
    18
100
AcDbLine
 10
686.7795019535281
 20
1304.559516885519
 30
0.0
 11
620.3692614683852
 21
1304.559516885519
 31
0.0
  0
LINE
  5
1FA8
330
1FA5
100
AcDbEntity
  8
実形
 62
     0
370
    18
100
AcDbLine
 10
686.7795019535281
 20
1254.559516885519
 30
0.0
 11
620.3692614683851
 21
1254.559516885519
 31
0.0
  0
LINE
  5
1FA9
330
1FA5
100
AcDbEntity
  8
実形
 62
     0
370
    18
100
AcDbLine
 10
620.3692614683852
 20
1304.559516885519
 30
0.0
 11
620.3692614683851
 21
1254.559516885519
 31
0.0
  0
INSERT
  5
1FAA
330
1FA5
100
AcDbEntity
  8
実形
 62
     0
370
    18
100
AcDbBlockReference
  2
_DotSmall
 10
620.3692614683852
 20
1304.559516885519
 30
0.0
 41
35.0
 42
35.0
 43
35.0
 50
90.0
  0
INSERT
  5
1FAB
330
1FA5
100
AcDbEntity
  8
実形
 62
     0
370
    18
100
AcDbBlockReference
  2
_DotSmall
 10
620.3692614683851
 20
1254.559516885519
 30
0.0
 41
35.0
 42
35.0
 43
35.0
 50
270.0
  0
MTEXT
  5
1FAC
330
1FA5
100
AcDbEntity
  8
実形
 62
     0
100
AcDbMText
 10
602.619261468385
 20
1279.559516885519
 30
0.0
 40
23.0
 41
0.0
 71
     5
 72
     1
  1
50
 11
0.0000000000000001
 21
1.0
 31
0.0
 73
     1
 44
1.0
1001
ACAD
1000
MTEXTBEGIN
1070
    73
1070
     1
1070
    44
1040
1.0
1070
    74
1070
     0
1000
MTEXTEND
  0
POINT
  5
1FAD
330
1FA5
100
AcDbEntity
  8
Defpoints
 62
     0
100
AcDbPoint
 10
751.7795019535281
 20
1304.559516885519
 30
0.0
  0
POINT
  5
1FAE
330
1FA5
100
AcDbEntity
  8
Defpoints
 62
     0
100
AcDbPoint
 10
751.7795019535282
 20
1254.559516885519
 30
0.0
  0
POINT
  5
1FAF
330
1FA5
100
AcDbEntity
  8
Defpoints
 62
     0
100
AcDbPoint
 10
620.3692614683851
 20
1254.559516885519
 30
0.0
  0
ENDBLK
  5
1FB0
330
1FA5
100
AcDbEntity
  8
0
100
AcDbBlockEnd
  0
BLOCK
  5
1FB2
330
1FB1
100
AcDbEntity
  8
0
100
AcDbBlockBegin
  2
*D33
 70
     1
 10
0.0
 20
0.0
 30
0.0
  3
*D33
  1

  0
LINE
  5
1FB3
330
1FB1
100
AcDbEntity
  8
実形
 62
     0
370
    18
100
AcDbLine
 10
636.7795019535284
 20
1754.555133750541
 30
0.0
 11
555.5440761092324
 21
1754.555133750541
 31
0.0
  0
LINE
  5
1FB4
330
1FB1
100
AcDbEntity
  8
実形
 62
     0
370
    18
100
AcDbLine
 10
636.7795019535281
 20
1254.559516885519
 30
0.0
 11
555.5440761092322
 21
1254.559516885519
 31
0.0
  0
LINE
  5
1FB5
330
1FB1
100
AcDbEntity
  8
実形
 62
     0
370
    18
100
AcDbLine
 10
555.5440761092324
 20
1754.555133750541
 30
0.0
 11
555.5440761092322
 21
1254.559516885519
 31
0.0
  0
INSERT
  5
1FB6
330
1FB1
100
AcDbEntity
  8
実形
 62
     0
370
    18
100
AcDbBlockReference
  2
_DotSmall
 10
555.5440761092324
 20
1754.555133750541
 30
0.0
 41
35.0
 42
35.0
 43
35.0
 50
90.0
  0
INSERT
  5
1FB7
330
1FB1
100
AcDbEntity
  8
実形
 62
     0
370
    18
100
AcDbBlockReference
  2
_DotSmall
 10
555.5440761092322
 20
1254.559516885519
 30
0.0
 41
35.0
 42
35.0
 43
35.0
 50
270.0
  0
MTEXT
  5
1FB8
330
1FB1
100
AcDbEntity
  8
実形
 62
     0
100
AcDbMText
 10
536.7940761092321
 20
1504.55732531803
 30
0.0
 40
25.0
 41
0.0
 71
     5
 72
     1
  1
500
 11
0.0000000000000001
 21
1.0
 31
0.0
 73
     1
 44
1.0
1001
ACAD
1000
MTEXTBEGIN
1070
    73
1070
     1
1070
    44
1040
1.0
1070
    74
1070
     0
1000
MTEXTEND
  0
POINT
  5
1FB9
330
1FB1
100
AcDbEntity
  8
Defpoints
 62
     0
100
AcDbPoint
 10
701.7795019535284
 20
1754.555133750541
 30
0.0
  0
POINT
  5
1FBA
330
1FB1
100
AcDbEntity
  8
Defpoints
 62
     0
100
AcDbPoint
 10
701.7795019535282
 20
1254.559516885519
 30
0.0
  0
POINT
  5
1FBB
330
1FB1
100
AcDbEntity
  8
Defpoints
 62
     0
100
AcDbPoint
 10
555.5440761092322
 20
1254.559516885519
 30
0.0
  0
ENDBLK
  5
1FBC
330
1FB1
100
AcDbEntity
  8
0
100
AcDbBlockEnd
  0
BLOCK
  5
1FBE
330
1FBD
100
AcDbEntity
  8
0
100
AcDbBlockBegin
  2
*D34
 70
     1
 10
0.0
 20
0.0
 30
0.0
  3
*D34
  1

  0
LINE
  5
1FBF
330
1FBD
100
AcDbEntity
  8
実形
 62
     0
370
    18
100
AcDbLine
 10
730.0559941215563
 20
1189.559516885519
 30
0.0
 11
730.0559941215563
 21
1100.111482513781
 31
0.0
  0
LINE
  5
1FC0
330
1FBD
100
AcDbEntity
  8
実形
 62
     0
370
    18
100
AcDbLine
 10
1350.060502629543
 20
1189.559516885519
 30
0.0
 11
1350.060502629543
 21
1100.111482513781
 31
0.0
  0
LINE
  5
1FC1
330
1FBD
100
AcDbEntity
  8
実形
 62
     0
370
    18
100
AcDbLine
 10
730.0559941215563
 20
1100.111482513781
 30
0.0
 11
1350.060502629543
 21
1100.111482513781
 31
0.0
  0
INSERT
  5
1FC2
330
1FBD
100
AcDbEntity
  8
実形
 62
     0
370
    18
100
AcDbBlockReference
  2
_DotSmall
 10
730.0559941215563
 20
1100.111482513781
 30
0.0
 41
35.0
 42
35.0
 43
35.0
 50
180.0
  0
INSERT
  5
1FC3
330
1FBD
100
AcDbEntity
  8
実形
 62
     0
370
    18
100
AcDbBlockReference
  2
_DotSmall
 10
1350.060502629543
 20
1100.111482513781
 30
0.0
 41
35.0
 42
35.0
 43
35.0
  0
MTEXT
  5
1FC4
330
1FBD
100
AcDbEntity
  8
実形
 62
     0
100
AcDbMText
 10
1040.058248375549
 20
1118.861482513781
 30
0.0
 40
25.0
 41
0.0
 71
     5
 72
     1
  1
620
 73
     1
 44
1.0
1001
ACAD
1000
MTEXTBEGIN
1070
    73
1070
     1
1070
    44
1040
1.0
1070
    74
1070
     0
1000
MTEXTEND
  0
POINT
  5
1FC5
330
1FBD
100
AcDbEntity
  8
Defpoints
 62
     0
100
AcDbPoint
 10
730.0559941215563
 20
1254.559516885519
 30
0.0
  0
POINT
  5
1FC6
330
1FBD
100
AcDbEntity
  8
Defpoints
 62
     0
100
AcDbPoint
 10
1350.060502629543
 20
1254.559516885519
 30
0.0
  0
POINT
  5
1FC7
330
1FBD
100
AcDbEntity
  8
Defpoints
 62
     0
100
AcDbPoint
 10
1350.060502629543
 20
1100.111482513781
 30
0.0
  0
ENDBLK
  5
1FC8
330
1FBD
100
AcDbEntity
  8
0
100
AcDbBlockEnd
  0
BLOCK
  5
1FCA
330
1FC9
100
AcDbEntity
  8
0
100
AcDbBlockBegin
  2
*D35
 70
     1
 10
0.0
 20
0.0
 30
0.0
  3
*D35
  1

  0
LINE
  5
1FCB
330
1FC9
100
AcDbEntity
  8
実形
 62
     0
370
    18
100
AcDbLine
 10
1300.060502629543
 20
1208.384674342051
 30
0.0
 11
1300.060502629543
 21
1157.983619133327
 31
0.0
  0
LINE
  5
1FCC
330
1FC9
100
AcDbEntity
  8
実形
 62
     0
370
    18
100
AcDbLine
 10
1350.060502629543
 20
1208.384674342051
 30
0.0
 11
1350.060502629543
 21
1157.983619133327
 31
0.0
  0
LINE
  5
1FCD
330
1FC9
100
AcDbEntity
  8
実形
 62
     0
370
    18
100
AcDbLine
 10
1300.060502629543
 20
1157.983619133327
 30
0.0
 11
1350.060502629543
 21
1157.983619133327
 31
0.0
  0
INSERT
  5
1FCE
330
1FC9
100
AcDbEntity
  8
実形
 62
     0
370
    18
100
AcDbBlockReference
  2
_DotSmall
 10
1300.060502629543
 20
1157.983619133327
 30
0.0
 41
35.0
 42
35.0
 43
35.0
 50
180.0
  0
INSERT
  5
1FCF
330
1FC9
100
AcDbEntity
  8
実形
 62
     0
370
    18
100
AcDbBlockReference
  2
_DotSmall
 10
1350.060502629543
 20
1157.983619133327
 30
0.0
 41
35.0
 42
35.0
 43
35.0
  0
MTEXT
  5
1FD0
330
1FC9
100
AcDbEntity
  8
実形
 62
     0
100
AcDbMText
 10
1325.060502629543
 20
1175.733619133327
 30
0.0
 40
23.0
 41
0.0
 71
     5
 72
     1
  1
50
 73
     1
 44
1.0
1001
ACAD
1000
MTEXTBEGIN
1070
    73
1070
     1
1070
    44
1040
1.0
1070
    74
1070
     0
1000
MTEXTEND
  0
POINT
  5
1FD1
330
1FC9
100
AcDbEntity
  8
Defpoints
 62
     0
100
AcDbPoint
 10
1300.060502629543
 20
1273.384674342051
 30
0.0
  0
POINT
  5
1FD2
330
1FC9
100
AcDbEntity
  8
Defpoints
 62
     0
100
AcDbPoint
 10
1350.060502629543
 20
1273.384674342051
 30
0.0
  0
POINT
  5
1FD3
330
1FC9
100
AcDbEntity
  8
Defpoints
 62
     0
100
AcDbPoint
 10
1350.060502629543
 20
1157.983619133327
 30
0.0
  0
ENDBLK
  5
1FD4
330
1FC9
100
AcDbEntity
  8
0
100
AcDbBlockEnd
  0
BLOCK
  5
1FD6
330
1FD5
100
AcDbEntity
  8
0
100
AcDbBlockBegin
  2
*D36
 70
     1
 10
0.0
 20
0.0
 30
0.0
  3
*D36
  1

  0
LINE
  5
1FD7
330
1FD5
100
AcDbEntity
  8
実形
 62
     0
370
    18
100
AcDbLine
 10
621.7795019535288
 20
1704.555133750541
 30
0.0
 11
620.3692614683852
 21
1704.555133750541
 31
0.0
  0
LINE
  5
1FD8
330
1FD5
100
AcDbEntity
  8
実形
 62
     0
370
    18
100
AcDbLine
 10
621.7795019535288
 20
1304.559516885519
 30
0.0
 11
620.3692614683852
 21
1304.559516885519
 31
0.0
  0
LINE
  5
1FD9
330
1FD5
100
AcDbEntity
  8
実形
 62
     0
370
    18
100
AcDbLine
 10
620.3692614683852
 20
1704.555133750541
 30
0.0
 11
620.3692614683852
 21
1304.559516885519
 31
0.0
  0
INSERT
  5
1FDA
330
1FD5
100
AcDbEntity
  8
実形
 62
     0
370
    18
100
AcDbBlockReference
  2
_DotSmall
 10
620.3692614683852
 20
1704.555133750541
 30
0.0
 41
35.0
 42
35.0
 43
35.0
 50
90.0
  0
INSERT
  5
1FDB
330
1FD5
100
AcDbEntity
  8
実形
 62
     0
370
    18
100
AcDbBlockReference
  2
_DotSmall
 10
620.3692614683852
 20
1304.559516885519
 30
0.0
 41
35.0
 42
35.0
 43
35.0
 50
270.0
  0
MTEXT
  5
1FDC
330
1FD5
100
AcDbEntity
  8
実形
 62
     0
100
AcDbMText
 10
601.619261468385
 20
1504.55732531803
 30
0.0
 40
25.0
 41
0.0
 71
     5
 72
     1
  1
400
 11
0.0000000000000001
 21
1.0
 31
0.0
 73
     1
 44
1.0
1001
ACAD
1000
MTEXTBEGIN
1070
    73
1070
     1
1070
    44
1040
1.0
1070
    74
1070
     0
1000
MTEXTEND
  0
POINT
  5
1FDD
330
1FD5
100
AcDbEntity
  8
Defpoints
 62
     0
100
AcDbPoint
 10
686.7795019535289
 20
1704.555133750541
 30
0.0
  0
POINT
  5
1FDE
330
1FD5
100
AcDbEntity
  8
Defpoints
 62
     0
100
AcDbPoint
 10
686.7795019535289
 20
1304.559516885519
 30
0.0
  0
POINT
  5
1FDF
330
1FD5
100
AcDbEntity
  8
Defpoints
 62
     0
100
AcDbPoint
 10
620.3692614683852
 20
1304.559516885519
 30
0.0
  0
ENDBLK
  5
1FE0
330
1FD5
100
AcDbEntity
  8
0
100
AcDbBlockEnd
  0
BLOCK
  5
1FE2
330
1FE1
100
AcDbEntity
  8
0
100
AcDbBlockBegin
  2
*D37
 70
     1
 10
0.0
 20
0.0
 30
0.0
  3
*D37
  1

  0
MTEXT
  5
1FE3
330
1FE1
100
AcDbEntity
  8
実形
 62
     0
100
AcDbMText
 10
1040.05824837555
 20
1176.733619133327
 30
0.0
 40
25.0
 41
0.0
 71
     5
 72
     1
  1
520
 73
     1
 44
1.0
1001
ACAD
1000
MTEXTBEGIN
1070
    73
1070
     1
1070
    44
1040
1.0
1070
    74
1070
     0
1000
MTEXTEND
  0
POINT
  5
1FE4
330
1FE1
100
AcDbEntity
  8
Defpoints
 62
     0
100
AcDbPoint
 10
780.0559941215563
 20
1207.943619133327
 30
0.0
  0
POINT
  5
1FE5
330
1FE1
100
AcDbEntity
  8
Defpoints
 62
     0
100
AcDbPoint
 10
1300.060502629543
 20
1207.943619133327
 30
0.0
  0
POINT
  5
1FE6
330
1FE1
100
AcDbEntity
  8
Defpoints
 62
     0
100
AcDbPoint
 10
1300.060502629543
 20
1157.983619133327
 30
0.0
  0
ENDBLK
  5
1FE7
330
1FE1
100
AcDbEntity
  8
0
100
AcDbBlockEnd
  0
BLOCK
  5
1FE9
330
1FE8
100
AcDbEntity
  8
0
100
AcDbBlockBegin
  2
*D38
 70
     1
 10
0.0
 20
0.0
 30
0.0
  3
*D38
  1

  0
LINE
  5
1FEA
330
1FE8
100
AcDbEntity
  8
実形
 62
     0
370
    18
100
AcDbLine
 10
1025.92315307619
 20
1704.576324186728
 30
0.0
 11
1040.086924886862
 21
1704.576324186728
 31
0.0
  0
LINE
  5
1FEB
330
1FE8
100
AcDbEntity
  8
実形
 62
     0
370
    18
100
AcDbLine
 10
1009.123262482557
 20
1504.555133750541
 30
0.0
 11
1040.086924886862
 21
1504.555133750541
 31
0.0
  0
LINE
  5
1FEC
330
1FE8
100
AcDbEntity
  8
実形
 62
     0
370
    18
100
AcDbLine
 10
1040.086924886862
 20
1704.576324186728
 30
0.0
 11
1040.086924886862
 21
1504.555133750541
 31
0.0
  0
INSERT
  5
1FED
330
1FE8
100
AcDbEntity
  8
実形
 62
     0
370
    18
100
AcDbBlockReference
  2
_DotSmall
 10
1040.086924886862
 20
1704.576324186728
 30
0.0
 41
35.0
 42
35.0
 43
35.0
 50
90.0
  0
INSERT
  5
1FEE
330
1FE8
100
AcDbEntity
  8
実形
 62
     0
370
    18
100
AcDbBlockReference
  2
_DotSmall
 10
1040.086924886862
 20
1504.555133750541
 30
0.0
 41
35.0
 42
35.0
 43
35.0
 50
270.0
  0
MTEXT
  5
1FEF
330
1FE8
100
AcDbEntity
  8
実形
 62
     0
100
AcDbMText
 10
1021.336924886862
 20
1604.565728968635
 30
0.0
 40
25.0
 41
0.0
 71
     5
 72
     1
  1
200
 11
0.0000000000000001
 21
1.0
 31
0.0
 73
     1
 44
1.0
1001
ACAD
1000
MTEXTBEGIN
1070
    73
1070
     1
1070
    44
1040
1.0
1070
    74
1070
     0
1000
MTEXTEND
  0
POINT
  5
1FF0
330
1FE8
100
AcDbEntity
  8
Defpoints
 62
     0
100
AcDbPoint
 10
960.9231530761899
 20
1704.576324186728
 30
0.0
  0
POINT
  5
1FF1
330
1FE8
100
AcDbEntity
  8
Defpoints
 62
     0
100
AcDbPoint
 10
944.123262482557
 20
1504.555133750541
 30
0.0
  0
POINT
  5
1FF2
330
1FE8
100
AcDbEntity
  8
Defpoints
 62
     0
100
AcDbPoint
 10
1040.086924886862
 20
1504.555133750541
 30
0.0
  0
ENDBLK
  5
1FF3
330
1FE8
100
AcDbEntity
  8
0
100
AcDbBlockEnd
  0
BLOCK
  5
204B
330
1FF4
100
AcDbEntity
  8
0
100
AcDbBlockBegin
  2
A$C68372845
 70
     0
 10
0.0
 20
0.0
 30
0.0
  3
A$C68372845
  1

  0
DIMENSION
  5
1FF5
330
1FF4
100
AcDbEntity
  8
実形
100
AcDbDimension
  2
*D29
 10
261.3244972247135
 20
707.7061507388577
 30
0.0
 11
333.8244929353972
 21
726.4561507388577
 31
0.0
 12
-524.2940743334156
 22
-1095.73648408569
 32
0.0
 71
     5
 42
144.9999914213674
  3
ISO-25
100
AcDbAlignedDimension
 13
406.3244886460808
 23
499.4176518567146
 33
0.0
 14
261.3244972247135
 24
482.307218266832
 34
0.0
100
AcDbRotatedDimension
1001
ACAD
1000
DSTYLE
1002
{
1070
    41
1040
25.0
1070
   371
1070
    18
1002
}
  0
TEXT
  5
1FF6
330
1FF4
100
AcDbEntity
  8
実形
370
    18
100
AcDbText
 10
472.2973806251625
 20
277.6702750679062
 30
0.0
 40
25.0
  1
2395R
100
AcDbText
  0
TEXT
  5
1FF7
330
1FF4
100
AcDbEntity
  8
実形
370
    18
100
AcDbText
 10
600.7967774034873
 20
464.5531391425431
 30
0.0
 40
25.0
  1
1495R
100
AcDbText
  0
TEXT
  5
1FF8
330
1FF4
100
AcDbEntity
  8
実形
370
    18
100
AcDbText
 10
580.8596409404644
 20
348.3641184043236
 30
0.0
 40
25.0
  1
4角  75R
100
AcDbText
  0
LEADER
  5
1FF9
330
1FF4
100
AcDbEntity
  8
実形
100
AcDbLeader
  3
ISO-25
 40
25.0
 41
16.66666666666666
 76
     2
 10
457.7898624500298
 20
218.8851270528651
 30
0.0
 10
470.9446602296625
 20
267.4397678020034
 30
0.0
213
0.0
223
-12.5
233
0.0
1001
ACAD
1000
DSTYLE
1002
{
1070
    41
1040
25.0
1070
   147
1040
6.25
1070
    77
1070
     0
1070
    73
1070
     1
1070
    74
1070
     1
1070
   279
1070
     1
1070
   342
1005
DA
1002
}
  0
LEADER
  5
1FFA
330
1FF4
100
AcDbEntity
  8
実形
100
AcDbLeader
  3
ISO-25
 40
25.0
 41
16.66666666666666
 76
     2
 10
747.9091103491387
 20
246.3181897207016
 30
0.0
 10
705.7142525970075
 20
333.2349207586485
 30
0.0
213
0.0
223
-12.5
233
0.0
1001
ACAD
1000
DSTYLE
1002
{
1070
    41
1040
25.0
1070
   147
1040
6.25
1070
    77
1070
     0
1070
    73
1070
     1
1070
    74
1070
     1
1070
   279
1070
     1
1070
   342
1005
DA
1002
}
  0
LINE
  5
1FFB
330
1FF4
100
AcDbEntity
  8
実形
100
AcDbLine
 10
235.7776216548599
 20
158.823032799829
 30
0.0
 11
780.7664282961275
 21
158.823032799829
 31
0.0
  0
LINE
  5
1FFC
330
1FF4
100
AcDbEntity
  8
実形
100
AcDbLine
 10
210.7619197881406
 20
158.823032799829
 30
0.0
 11
820.7664282961271
 21
158.823032799829
 31
0.0
  0
LINE
  5
1FFD
330
1FF4
100
AcDbEntity
  8
実形
 62
     1
100
AcDbLine
 10
210.7619197881406
 20
178.823032799829
 30
0.0
 11
820.7664282961271
 21
178.823032799829
 31
0.0
  0
LINE
  5
1FFE
330
1FF4
100
AcDbEntity
  8
実形
100
AcDbLine
 10
825.7664282961275
 20
653.8186496648521
 30
0.0
 11
825.766428296127
 21
163.8230327998287
 31
0.0
  0
LINE
  5
1FFF
330
1FF4
100
AcDbEntity
  8
実形
 62
     1
100
AcDbLine
 10
805.7664282961274
 20
653.8186496648521
 30
0.0
 11
805.7664282961271
 21
163.8230327998287
 31
0.0
  0
LINE
  5
2000
330
1FF4
100
AcDbEntity
  8
実形
100
AcDbLine
 10
210.7619197881411
 20
658.8186496648511
 30
0.0
 11
820.766428296128
 21
658.8186496648516
 31
0.0
  0
LINE
  5
2001
330
1FF4
100
AcDbEntity
  8
実形
 62
     1
100
AcDbLine
 10
210.7619197881411
 20
638.8186496648511
 30
0.0
 11
820.766428296128
 21
638.8186496648516
 31
0.0
  0
LINE
  5
2002
330
1FF4
100
AcDbEntity
  8
実形
100
AcDbLine
 10
205.7619197881411
 20
653.8186496648511
 30
0.0
 11
205.7619197881406
 21
163.8230327998287
 31
0.0
  0
LINE
  5
2003
330
1FF4
100
AcDbEntity
  8
実形
 62
     1
100
AcDbLine
 10
225.7619197881411
 20
653.8186496648511
 30
0.0
 11
225.7619197881406
 21
163.8230327998287
 31
0.0
  0
TEXT
  5
2004
330
1FF4
100
AcDbEntity
  8
実形
370
    18
100
AcDbText
 10
702.7150493893628
 20
395.1193292367143
 30
0.0
 40
40.0
  1
A     A
100
AcDbText
  0
DIMENSION
  5
2005
330
1FF4
100
AcDbEntity
  8
実形
100
AcDbDimension
  2
*D30
 10
205.7619197881408
 20
62.24713504763712
 30
0.0
 11
230.7619197881406
 21
79.99713504763713
 31
0.0
 12
-524.2940743334156
 22
-1095.73648408569
 32
0.0
 71
     5
 42
49.99999999999989
  3
ISO-25
100
AcDbAlignedDimension
 13
255.7619197881406
 23
177.2071350476371
 33
0.0
 14
205.7619197881408
 24
177.2071350476371
 34
0.0
100
AcDbRotatedDimension
1001
ACAD
1000
DSTYLE
1002
{
1070
   140
1040
23.0
1070
   371
1070
    18
1070
   372
1070
    18
1002
}
  0
DIMENSION
  5
2006
330
1FF4
100
AcDbEntity
  8
実形
100
AcDbDimension
  2
*D31
 10
96.07518713496961
 20
658.8186496648509
 30
0.0
 11
78.32518713496938
 21
633.8186496648513
 31
0.0
 12
-524.2940743334156
 22
-1095.73648408569
 32
0.0
 71
     5
 42
49.99999999999977
  3
ISO-25
100
AcDbAlignedDimension
 13
227.4854276201132
 23
608.8186496648511
 33
0.0
 14
227.4854276201132
 24
658.8186496648509
 34
0.0
 50
90.0
100
AcDbRotatedDimension
1001
ACAD
1000
DSTYLE
1002
{
1070
   140
1040
23.0
1070
   371
1070
    18
1070
   372
1070
    18
1002
}
  0
DIMENSION
  5
2007
330
1FF4
100
AcDbEntity
  8
実形
100
AcDbDimension
  2
*D32
 10
96.07518713496951
 20
158.823032799829
 30
0.0
 11
78.32518713496938
 21
183.8230327998292
 31
0.0
 12
-524.2940743334156
 22
-1095.73648408569
 32
0.0
 71
     5
 42
50.0
  3
ISO-25
100
AcDbAlignedDimension
 13
227.4854276201125
 23
208.823032799829
 33
0.0
 14
227.4854276201125
 24
158.823032799829
 34
0.0
 50
90.0
100
AcDbRotatedDimension
1001
ACAD
1000
DSTYLE
1002
{
1070
   140
1040
23.0
1070
   371
1070
    18
1070
   372
1070
    18
1002
}
  0
DIMENSION
  5
2008
330
1FF4
100
AcDbEntity
  8
実形
100
AcDbDimension
  2
*D33
 10
31.2500017758166
 20
158.823032799829
 30
0.0
 11
12.50000177581648
 21
408.8208412323401
 31
0.0
 12
-524.2940743334156
 22
-1095.73648408569
 32
0.0
 71
     5
 42
499.9956168650219
  3
ISO-25
100
AcDbAlignedDimension
 13
177.4854276201127
 23
658.8186496648509
 33
0.0
 14
177.4854276201125
 24
158.823032799829
 34
0.0
 50
90.0
100
AcDbRotatedDimension
1001
ACAD
1000
DSTYLE
1002
{
1070
   371
1070
    18
1070
   372
1070
    18
1002
}
  0
CIRCLE
  5
2009
330
1FF4
100
AcDbEntity
  8
実形
100
AcDbCircle
 10
406.3244886460808
 20
408.9176518567146
 30
0.0
 40
79.0
  0
CIRCLE
  5
200A
330
1FF4
100
AcDbEntity
  8
実形
100
AcDbCircle
 10
406.3244886460808
 20
408.9176518567146
 30
0.0
 40
90.5
  0
LINE
  5
200B
330
1FF4
100
AcDbEntity
  8
実形
  6
ACAD_ISO08W100
370
    15
100
AcDbLine
 10
406.3244886460808
 20
548.9190861414772
 30
0.0
 11
406.3244886460808
 21
256.2300077438767
 31
0.0
  0
LEADER
  5
200C
330
1FF4
100
AcDbEntity
  8
実形
100
AcDbLeader
  3
ISO-25
 40
25.0
 41
16.66666666666666
 76
     2
 10
771.4422889050158
 20
473.5192387765391
 30
0.0
 10
710.6118823684803
 20
474.0293652043874
 30
0.0
213
0.0
223
-12.5
233
0.0
1001
ACAD
1000
DSTYLE
1002
{
1070
    41
1040
25.0
1070
   147
1040
6.25
1070
    77
1070
     0
1070
    73
1070
     1
1070
    74
1070
     1
1070
   279
1070
     1
1070
   342
1005
DA
1002
}
  0
ARC
  5
200D
330
1FF4
100
AcDbEntity
  8
0
 62
     4
100
AcDbCircle
 10
515.7664282961279
 20
2603.917651856715
 30
0.0
 40
2400.0
100
AcDbArc
 50
265.5479684034483
 51
274.4520315965517
  0
ARC
  5
200E
330
1FF4
100
AcDbEntity
  8
実形
100
AcDbCircle
 10
515.7664282961279
 20
2603.917651856715
 30
0.0
 40
2395.0
100
AcDbArc
 50
265.5479684034483
 51
274.4520315965517
  0
ARC
  5
200F
330
1FF4
100
AcDbEntity
  8
0
 62
     4
100
AcDbCircle
 10
516.4109594566182
 20
-1786.160065695592
 30
0.0
 40
2400.0
100
AcDbArc
 50
85.56387661480664
 51
94.46826354911962
  0
ARC
  5
2010
330
1FF4
100
AcDbEntity
  8
実形
100
AcDbCircle
 10
516.4109594566182
 20
-1786.160065695592
 30
0.0
 40
2395.0
100
AcDbArc
 50
85.56387661480664
 51
94.46826354911962
  0
ARC
  5
2011
330
1FF4
100
AcDbEntity
  8
0
 62
     4
100
AcDbCircle
 10
1750.766428296128
 20
408.9176518567146
 30
0.0
 40
1500.0
100
AcDbArc
 50
175.2385291145079
 51
184.7666870738535
  0
ARC
  5
2012
330
1FF4
100
AcDbEntity
  8
実形
100
AcDbCircle
 10
1750.766428296128
 20
408.9176518567146
 30
0.0
 40
1495.0
100
AcDbArc
 50
175.2385291145079
 51
184.7666870738535
  0
ARC
  5
2013
330
1FF4
100
AcDbEntity
  8
0
 62
     4
100
AcDbCircle
 10
-719.233571703872
 20
408.9176518567146
 30
0.0
 40
1500.0
100
AcDbArc
 50
355.2333129261465
 51
4.765561274859076
  0
ARC
  5
2014
330
1FF4
100
AcDbEntity
  8
実形
100
AcDbCircle
 10
-719.233571703872
 20
408.9176518567146
 30
0.0
 40
1495.0
100
AcDbArc
 50
355.2333129261465
 51
4.765561274859076
  0
ARC
  5
2015
330
1FF4
100
AcDbEntity
  8
0
 62
     4
100
AcDbCircle
 10
695.8574533749315
 20
526.8896431996632
 30
0.0
 40
80.0
100
AcDbArc
 50
4.765561274859076
 51
85.56387661480664
  0
ARC
  5
2016
330
1FF4
100
AcDbEntity
  8
実形
100
AcDbCircle
 10
695.8574533749315
 20
526.8896431996632
 30
0.0
 40
75.0
100
AcDbArc
 50
4.765561274859076
 51
85.56387661480664
  0
ARC
  5
2017
330
1FF4
100
AcDbEntity
  8
0
 62
     4
100
AcDbCircle
 10
695.8551350820089
 20
290.9178555557748
 30
0.0
 40
80.0
100
AcDbArc
 50
274.4520315965517
 51
355.2333129261465
  0
ARC
  5
2018
330
1FF4
100
AcDbEntity
  8
実形
100
AcDbCircle
 10
695.8551350820089
 20
290.9178555557748
 30
0.0
 40
75.0
100
AcDbArc
 50
274.4520315965517
 51
355.2333129261465
  0
ARC
  5
2019
330
1FF4
100
AcDbEntity
  8
0
 62
     4
100
AcDbCircle
 10
335.677721510247
 20
290.9178555557748
 30
0.0
 40
80.0
100
AcDbArc
 50
184.7666870738535
 51
265.5479684034483
  0
ARC
  5
201A
330
1FF4
100
AcDbEntity
  8
実形
100
AcDbCircle
 10
335.677721510247
 20
290.9178555557748
 30
0.0
 40
75.0
100
AcDbArc
 50
184.7666870738535
 51
265.5479684034483
  0
ARC
  5
201B
330
1FF4
100
AcDbEntity
  8
0
 62
     4
100
AcDbCircle
 10
335.6669847130588
 20
526.7886184722818
 30
0.0
 40
80.0
100
AcDbArc
 50
94.46826354911962
 51
175.2385291145079
  0
ARC
  5
201C
330
1FF4
100
AcDbEntity
  8
実形
100
AcDbCircle
 10
335.6669847130588
 20
526.7886184722818
 30
0.0
 40
75.0
100
AcDbArc
 50
94.46826354911962
 51
175.2385291145079
  0
ARC
  5
201D
330
1FF4
100
AcDbEntity
  8
0
 62
     4
100
AcDbCircle
 10
516.4109594566182
 20
-1786.160065695592
 30
0.0
 40
2415.0
100
AcDbArc
 50
85.56387661480664
 51
94.46826354911962
  0
ARC
  5
201E
330
1FF4
100
AcDbEntity
  8
0
 62
     4
100
AcDbCircle
 10
695.8574533749315
 20
526.8896431996632
 30
0.0
 40
95.0
100
AcDbArc
 50
4.765561274859076
 51
85.56387661480664
  0
ARC
  5
201F
330
1FF4
100
AcDbEntity
  8
0
 62
     4
100
AcDbCircle
 10
-719.233571703872
 20
408.9176518567146
 30
0.0
 40
1515.0
100
AcDbArc
 50
355.2333129261465
 51
4.765561274859076
  0
ARC
  5
2020
330
1FF4
100
AcDbEntity
  8
0
 62
     4
100
AcDbCircle
 10
695.8551350820089
 20
290.9178555557748
 30
0.0
 40
95.0
100
AcDbArc
 50
274.4520315965517
 51
355.2333129261465
  0
ARC
  5
2021
330
1FF4
100
AcDbEntity
  8
0
 62
     4
100
AcDbCircle
 10
515.7664282961279
 20
2603.917651856715
 30
0.0
 40
2415.0
100
AcDbArc
 50
265.5479684034483
 51
274.4520315965517
  0
ARC
  5
2022
330
1FF4
100
AcDbEntity
  8
0
 62
     4
100
AcDbCircle
 10
335.677721510247
 20
290.9178555557748
 30
0.0
 40
95.0
100
AcDbArc
 50
184.7666870738535
 51
265.5479684034483
  0
ARC
  5
2023
330
1FF4
100
AcDbEntity
  8
0
 62
     4
100
AcDbCircle
 10
1750.766428296128
 20
408.9176518567146
 30
0.0
 40
1515.0
100
AcDbArc
 50
175.2385291145079
 51
184.7666870738535
  0
ARC
  5
2024
330
1FF4
100
AcDbEntity
  8
0
 62
     4
100
AcDbCircle
 10
335.6669847130588
 20
526.7886184722818
 30
0.0
 40
95.0
100
AcDbArc
 50
94.46826354911962
 51
175.2385291145079
  0
DIMENSION
  5
2025
330
1FF4
100
AcDbEntity
  8
実形
100
AcDbDimension
  2
*D34
 10
825.766428296127
 20
4.374998428091203
 30
0.0
 11
515.7641740421338
 21
23.12499842809121
 31
0.0
 12
-524.2940743334156
 22
-1095.73648408569
 32
0.0
 71
     5
 42
620.0045085079863
  3
ISO-25
100
AcDbAlignedDimension
 13
205.7619197881408
 23
158.823032799829
 33
0.0
 14
825.766428296127
 24
158.823032799829
 34
0.0
100
AcDbRotatedDimension
1001
ACAD
1000
DSTYLE
1002
{
1070
   371
1070
    18
1070
   372
1070
    18
1002
}
  0
DIMENSION
  5
2026
330
1FF4
100
AcDbEntity
  8
実形
100
AcDbDimension
  2
*D35
 10
825.766428296127
 20
62.24713504763712
 30
0.0
 11
800.7664282961272
 21
79.99713504763713
 31
0.0
 12
-524.2940743334156
 22
-1095.73648408569
 32
0.0
 71
     5
 42
49.99999999999954
  3
ISO-25
100
AcDbAlignedDimension
 13
775.7664282961274
 23
177.648190256361
 33
0.0
 14
825.766428296127
 24
177.648190256361
 34
0.0
100
AcDbRotatedDimension
1001
ACAD
1000
DSTYLE
1002
{
1070
   140
1040
23.0
1070
   371
1070
    18
1070
   372
1070
    18
1002
}
  0
LINE
  5
2027
330
1FF4
100
AcDbEntity
  8
実形
100
AcDbLine
 10
842.8769453229442
 20
658.818649664852
 30
0.0
 11
893.6237350824274
 21
658.818649664852
 31
0.0
  0
HATCH
  5
2028
330
1FF4
100
AcDbEntity
  8
実形
100
AcDbHatch
 10
0.0
 20
0.0
 30
0.0
210
0.0
220
0.0
230
1.0
  2
SOLID
 70
     1
 71
     0
 91
        2
 92
        7
 72
     1
 73
     1
 93
        5
 10
895.9521656345994
 20
652.290793429674
 42
0.4215773900128738
 10
892.876945322944
 20
655.2898502655335
 42
0.0
 10
892.876945322944
 20
652.3909725782134
 42
0.0
 10
889.9538387447826
 20
652.3909725782134
 42
0.008350008729447
 10
889.9521656345994
 20
652.290793429674
 42
1.0
 97
        0
 92
       23
 72
     1
 73
     1
 93
        3
 10
892.8769453229445
 20
655.2898502655335
 42
0.3971884163904237
 10
889.9538387447826
 20
652.3909725782132
 42
0.0
 10
892.8769453229442
 20
652.3909725782132
 42
0.0
 97
        0
 75
     0
 76
     1
 47
0.0692370396617612
 98
        2
 10
893.6516966376137
 20
651.7226068158211
 10
891.712462123888
 20
653.7304738569105
  0
LINE
  5
2029
330
1FF4
100
AcDbEntity
  8
実形
100
AcDbLine
 10
842.8769453229442
 20
652.3909725782132
 30
0.0
 11
892.876945322944
 21
652.3909725782132
 31
0.0
  0
LINE
  5
202A
330
1FF4
100
AcDbEntity
  8
実形
100
AcDbLine
 10
825.7664282961277
 20
674.1891482957303
 30
0.0
 11
825.7664282961277
 21
724.1891482957303
 31
0.0
  0
LINE
  5
202B
330
1FF4
100
AcDbEntity
  8
実形
100
AcDbLine
 10
819.3364282961274
 20
674.1891482957303
 30
0.0
 11
819.3364282961276
 21
724.1891482957303
 31
0.0
  0
LINE
  5
202C
330
1FF4
100
AcDbEntity
  8
実形
100
AcDbLine
 10
892.876945322944
 20
652.3909725782132
 30
0.0
 11
892.8769453229442
 21
658.8186496648522
 31
0.0
  0
LINE
  5
202D
330
1FF4
100
AcDbEntity
  8
実形
100
AcDbLine
 10
819.336428296128
 20
724.18914829573
 30
0.0
 11
825.7664282961279
 21
724.1891482957303
 31
0.0
  0
TEXT
  5
202E
330
1FF4
100
AcDbEntity
  8
実形
370
    18
100
AcDbText
 10
815.59317528323
 20
737.2582776048343
 30
0.0
 40
25.0
  1
5
100
AcDbText
  0
TEXT
  5
202F
330
1FF4
100
AcDbEntity
  8
実形
370
    18
100
AcDbText
 10
883.0875377447071
 20
732.5834343512211
 30
0.0
 40
25.0
  1
5C
100
AcDbText
  0
LEADER
  5
2030
330
1FF4
100
AcDbEntity
  8
実形
100
AcDbLeader
  3
ISO-25
 40
25.0
 41
16.66666666666666
 76
     2
 10
836.7135594437847
 20
664.222675687793
 30
0.0
 10
893.305540040829
 20
721.5828550237361
 30
0.0
213
0.0
223
-12.5
233
0.0
1001
ACAD
1000
DSTYLE
1002
{
1070
    41
1040
25.0
1070
   147
1040
6.25
1070
    77
1070
     0
1070
    73
1070
     1
1070
    74
1070
     1
1070
   279
1070
     1
1070
   342
1005
DA
1002
}
  0
TEXT
  5
2031
330
1FF4
100
AcDbEntity
  8
実形
370
    18
100
AcDbText
 10
935.6371419033301
 20
647.8221430196133
 30
0.0
 40
25.0
  1
5
 50
90.0
100
AcDbText
  0
CIRCLE
  5
2032
330
1FF4
100
AcDbEntity
  8
実形
100
AcDbCircle
 10
892.9521656345993
 20
652.290793429674
 30
0.0
 40
3.0
  0
HATCH
  5
2033
330
1FF4
100
AcDbEntity
  8
実形
100
AcDbHatch
 10
0.0
 20
0.0
 30
0.0
210
0.0
220
0.0
230
1.0
  2
SOLID
 70
     1
 71
     0
 91
        2
 92
        7
 72
     1
 73
     1
 93
        5
 10
896.0502473137774
 20
658.9460657728754
 42
0.4215773900128738
 10
892.9750270021219
 20
661.9451226087349
 42
0.0
 10
892.9750270021219
 20
659.0462449214149
 42
0.0
 10
890.0519204239605
 20
659.0462449214149
 42
0.008350008729447
 10
890.0502473137773
 20
658.9460657728754
 42
1.0
 97
        0
 92
       23
 72
     1
 73
     1
 93
        3
 10
892.9750270021225
 20
661.9451226087349
 42
0.3971884163904237
 10
890.0519204239605
 20
659.0462449214146
 42
0.0
 10
892.9750270021223
 20
659.0462449214146
 42
0.0
 97
        0
 75
     0
 76
     1
 47
0.0692370396617612
 98
        2
 10
893.7497783167916
 20
658.3778791590225
 10
891.8105438030659
 20
660.3857462001119
  0
CIRCLE
  5
2034
330
1FF4
100
AcDbEntity
  8
実形
100
AcDbCircle
 10
893.0502473137774
 20
658.9460657728754
 30
0.0
 40
3.0
  0
HATCH
  5
2035
330
1FF4
100
AcDbEntity
  8
実形
100
AcDbHatch
 10
0.0
 20
0.0
 30
0.0
210
0.0
220
0.0
230
1.0
  2
SOLID
 70
     1
 71
     0
 91
        2
 92
        7
 72
     1
 73
     1
 93
        5
 10
822.2310108949612
 20
724.2509057977763
 42
0.4215773900128738
 10
819.1557905833057
 20
727.2499626336357
 42
0.0
 10
819.1557905833057
 20
724.3510849463157
 42
0.0
 10
816.2326840051443
 20
724.3510849463157
 42
0.008350008729447
 10
816.2310108949611
 20
724.2509057977763
 42
1.0
 97
        0
 92
       23
 72
     1
 73
     1
 93
        3
 10
819.1557905833063
 20
727.2499626336357
 42
0.3971884163904237
 10
816.2326840051443
 20
724.3510849463155
 42
0.0
 10
819.1557905833061
 20
724.3510849463155
 42
0.0
 97
        0
 75
     0
 76
     1
 47
0.0692370396617612
 98
        2
 10
819.9305418979754
 20
723.6827191839234
 10
817.9913073842497
 20
725.6905862250127
  0
CIRCLE
  5
2036
330
1FF4
100
AcDbEntity
  8
実形
100
AcDbCircle
 10
819.2310108949611
 20
724.2509057977763
 30
0.0
 40
3.0
  0
HATCH
  5
2037
330
1FF4
100
AcDbEntity
  8
実形
100
AcDbHatch
 10
0.0
 20
0.0
 30
0.0
210
0.0
220
0.0
230
1.0
  2
SOLID
 70
     1
 71
     0
 91
        2
 92
        7
 72
     1
 73
     1
 93
        5
 10
828.6064542569063
 20
724.2509057977763
 42
0.4215773900128738
 10
825.531233945251
 20
727.2499626336357
 42
0.0
 10
825.531233945251
 20
724.3510849463157
 42
0.0
 10
822.6081273670896
 20
724.3510849463157
 42
0.008350008729447
 10
822.6064542569062
 20
724.2509057977763
 42
1.0
 97
        0
 92
       23
 72
     1
 73
     1
 93
        3
 10
825.5312339452514
 20
727.2499626336357
 42
0.3971884163904237
 10
822.6081273670896
 20
724.3510849463155
 42
0.0
 10
825.5312339452512
 20
724.3510849463155
 42
0.0
 97
        0
 75
     0
 76
     1
 47
0.0692370396617612
 98
        2
 10
826.3059852599205
 20
723.6827191839234
 10
824.3667507461948
 20
725.6905862250127
  0
CIRCLE
  5
2038
330
1FF4
100
AcDbEntity
  8
実形
100
AcDbCircle
 10
825.6064542569063
 20
724.2509057977763
 30
0.0
 40
3.0
  0
LINE
  5
2039
330
1FF4
100
AcDbEntity
  8
実形
100
AcDbLine
 10
820.7664282961275
 20
658.8186496648518
 30
0.0
 11
825.7664282961275
 21
653.8186496648518
 31
0.0
  0
LINE
  5
203A
330
1FF4
100
AcDbEntity
  8
実形
100
AcDbLine
 10
205.761919788141
 20
653.8186496648509
 30
0.0
 11
210.761919788141
 21
658.8186496648509
 31
0.0
  0
LINE
  5
203B
330
1FF4
100
AcDbEntity
  8
実形
100
AcDbLine
 10
205.7619197881408
 20
163.823032799829
 30
0.0
 11
210.7619197881407
 21
158.823032799829
 31
0.0
  0
LINE
  5
203C
330
1FF4
100
AcDbEntity
  8
実形
100
AcDbLine
 10
820.7664282961271
 20
158.823032799829
 30
0.0
 11
825.766428296127
 21
163.823032799829
 31
0.0
  0
LINE
  5
203D
330
1FF4
100
AcDbEntity
  8
実形
  6
ACAD_ISO08W100
 48
0.5
370
    15
100
AcDbLine
 10
756.4725632923128
 20
409.6548879892327
 30
0.0
 11
852.2004189275275
 21
409.6548879892327
 31
0.0
  0
LINE
  5
203E
330
1FF4
100
AcDbEntity
  8
実形
  6
ACAD_ISO08W100
 48
0.7
370
    15
100
AcDbLine
 10
293.8287481897742
 20
408.8186496648509
 30
0.0
 11
527.4411311024642
 21
408.8186496648509
 31
0.0
  0
LINE
  5
203F
330
1FF4
100
AcDbEntity
  8
実形
100
AcDbLine
 10
891.8584398216053
 20
429.0548222768848
 30
0.0
 11
901.8349406067873
 21
440.6904687173128
 31
0.0
  0
DIMENSION
  5
2040
330
1FF4
100
AcDbEntity
  8
実形
100
AcDbDimension
  2
*D36
 10
96.07518713496961
 20
208.823032799829
 30
0.0
 11
77.32518713496938
 21
408.8208412323401
 31
0.0
 12
-524.2940743334156
 22
-1095.73648408569
 32
0.0
 71
     5
 42
399.9956168650222
  3
ISO-25
100
AcDbAlignedDimension
 13
162.4854276201132
 23
608.8186496648511
 33
0.0
 14
162.4854276201132
 24
208.823032799829
 34
0.0
 50
90.0
100
AcDbRotatedDimension
1001
ACAD
1000
DSTYLE
1002
{
1070
   371
1070
    18
1070
   372
1070
    18
1002
}
  0
DIMENSION
  5
2041
330
1FF4
100
AcDbEntity
  8
実形
100
AcDbDimension
  2
*D37
 10
775.7664282961274
 20
62.24713504763712
 30
0.0
 11
515.7641740421341
 21
80.99713504763712
 31
0.0
 12
-524.2940743334156
 22
-1095.73648408569
 32
0.0
 71
     5
 42
520.0045085079868
  3
ISO-25
100
AcDbAlignedDimension
 13
255.7619197881406
 23
112.2071350476371
 33
0.0
 14
775.7664282961274
 24
112.2071350476371
 34
0.0
100
AcDbRotatedDimension
1001
ACAD
1000
DSTYLE
1002
{
1070
    76
1070
     1
1070
    75
1070
     1
1070
   282
1070
     1
1070
   281
1070
     1
1070
   371
1070
    18
1070
   372
1070
    18
1002
}
  0
LINE
  5
2042
330
1FF4
100
AcDbEntity
  8
実形
100
AcDbLine
 10
255.7619197881406
 20
112.2071350476371
 30
0.0
 11
255.7619197881406
 21
62.24713504763712
 31
0.0
  0
LINE
  5
2043
330
1FF4
100
AcDbEntity
  8
実形
100
AcDbLine
 10
255.7619197881406
 20
62.24713504763712
 30
0.0
 11
775.7664282961274
 21
62.24713504763712
 31
0.0
  0
LINE
  5
2044
330
1FF4
100
AcDbEntity
  8
実形
100
AcDbLine
 10
775.7664282961274
 20
62.24713504763712
 30
0.0
 11
775.7664282961274
 21
112.6481902563609
 31
0.0
  0
LINE
  5
2045
330
1FF4
100
AcDbEntity
  8
実形
100
AcDbLine
 10
527.4411311024642
 20
408.8186496648509
 30
0.0
 11
527.4411311024642
 21
408.8186496648509
 31
0.0
  0
DIMENSION
  5
2046
330
1FF4
100
AcDbEntity
  8
実形
100
AcDbDimension
  2
*D38
 10
515.7928505534464
 20
408.8186496648511
 30
0.0
 11
497.0428505534463
 21
508.829244882945
 31
0.0
 12
-524.2940743334156
 22
-1095.73648408569
 32
0.0
  1
200
 71
     5
 42
200.0211904361872
  3
ISO-25
100
AcDbAlignedDimension
 13
436.6290787427742
 23
608.8398401010383
 33
0.0
 14
419.8291881491413
 24
408.8186496648511
 34
0.0
 50
90.0
100
AcDbRotatedDimension
1001
ACAD
1000
DSTYLE
1002
{
1070
   371
1070
    18
1070
   372
1070
    18
1002
}
  0
TEXT
  5
2047
330
1FF4
100
AcDbEntity
  8
実形
 62
     1
370
    18
100
AcDbText
 10
556.3123847792176
 20
822.8287357672369
 30
0.0
 40
70.0
  1
赤線は削除する
100
AcDbText
  0
LEADER
  5
2048
330
1FF4
100
AcDbEntity
  8
実形
 62
     1
100
AcDbLeader
  3
ISO-25
 76
     2
 10
515.7641740421345
 20
638.8186496648513
 30
0.0
 10
614.3170581652785
 20
799.9392559953321
 30
0.0
1001
ACAD
1000
DSTYLE
1002
{
1070
   147
1040
6.25
1070
    77
1070
     0
1070
   371
1070
    18
1070
   372
1070
    18
1002
}
  0
ENDBLK
  5
204C
330
1FF4
100
AcDbEntity
  8
0
100
AcDbBlockEnd
  0
BLOCK
  5
2322
330
2318
100
AcDbEntity
  8
0
100
AcDbBlockBegin
  2
*D40
 70
     1
 10
0.0
 20
0.0
 30
0.0
  3
*D40
  1

  0
LINE
  5
239F
330
2318
100
AcDbEntity
  8
実形
 62
     0
370
    18
100
AcDbLine
 10
2047.899627132798
 20
776.6596186260776
 30
0.0
 11
2047.899627132798
 21
804.2436145081255
 31
0.0
  0
LINE
  5
23A0
330
2318
100
AcDbEntity
  8
実形
 62
     0
370
    18
100
AcDbLine
 10
2167.899627132798
 20
773.1041422751441
 30
0.0
 11
2167.899627132798
 21
804.2436145081255
 31
0.0
  0
LINE
  5
23A1
330
2318
100
AcDbEntity
  8
実形
 62
     0
370
    18
100
AcDbLine
 10
2047.899627132798
 20
804.2436145081255
 30
0.0
 11
2167.899627132798
 21
804.2436145081255
 31
0.0
  0
INSERT
  5
23A2
330
2318
100
AcDbEntity
  8
実形
 62
     0
370
    18
100
AcDbBlockReference
  2
_DotSmall
 10
2047.899627132798
 20
804.2436145081255
 30
0.0
 41
35.0
 42
35.0
 43
35.0
 50
180.0
  0
INSERT
  5
23A3
330
2318
100
AcDbEntity
  8
実形
 62
     0
370
    18
100
AcDbBlockReference
  2
_DotSmall
 10
2167.899627132798
 20
804.2436145081255
 30
0.0
 41
35.0
 42
35.0
 43
35.0
  0
MTEXT
  5
23A4
330
2318
100
AcDbEntity
  8
実形
 62
     0
100
AcDbMText
 10
2107.899627132798
 20
822.9936145081255
 30
0.0
 40
25.0
 41
0.0
 71
     5
 72
     1
  1
12
 73
     1
 44
1.0
1001
ACAD
1000
MTEXTBEGIN
1070
    73
1070
     1
1070
    44
1040
1.0
1070
    74
1070
     0
1000
MTEXTEND
  0
POINT
  5
23A5
330
2318
100
AcDbEntity
  8
Defpoints
 62
     0
100
AcDbPoint
 10
2047.899627132798
 20
711.6596186260776
 30
0.0
  0
POINT
  5
23A6
330
2318
100
AcDbEntity
  8
Defpoints
 62
     0
100
AcDbPoint
 10
2167.899627132798
 20
708.104142275144
 30
0.0
  0
POINT
  5
23A7
330
2318
100
AcDbEntity
  8
Defpoints
 62
     0
100
AcDbPoint
 10
2167.899627132798
 20
804.2436145081255
 30
0.0
  0
ENDBLK
  5
2323
330
2318
100
AcDbEntity
  8
0
100
AcDbBlockEnd
  0
ENDSEC
  0
SECTION
  2
ENTITIES
  0
LINE
  5
9C
330
1F
100
AcDbEntity
  8
実形
100
AcDbLine
 10
119.0
 20
4.0
 30
0.0
 11
2784.0
 21
4.0
 31
0.0
  0
LINE
  5
A0
330
1F
100
AcDbEntity
  8
実形
100
AcDbLine
 10
2784.0
 20
2024.0
 30
0.0
 11
119.0
 21
2024.0
 31
0.0
  0
LINE
  5
A5
330
1F
100
AcDbEntity
  8
実形
100
AcDbLine
 10
2784.0
 20
4.0
 30
0.0
 11
2784.0
 21
2024.0
 31
0.0
  0
LINE
  5
2E6
330
1F
100
AcDbEntity
  8
実形
100
AcDbLine
 10
760.0371731036057
 20
839.5995166611394
 30
0.0
 11
1320.037173103606
 21
839.5995166611394
 31
0.0
  0
LINE
  5
2F7
330
1F
100
AcDbEntity
  8
実形
100
AcDbLine
 10
775.0371731036056
 20
839.5995166611394
 30
0.0
 11
775.0371731036056
 21
687.9751299202637
 31
0.0
  0
LINE
  5
2F9
330
1F
100
AcDbEntity
  8
実形
100
AcDbLine
 10
834.5371731036056
 20
649.5995166611394
 30
0.0
 11
1005.037173103605
 21
649.5995166611394
 31
0.0
  0
LINE
  5
2FA
330
1F
100
AcDbEntity
  8
実形
100
AcDbLine
 10
1005.037173103605
 20
649.5995166611394
 30
0.0
 11
1015.537173103606
 21
649.5995166611394
 31
0.0
  0
LINE
  5
2FB
330
1F
100
AcDbEntity
  8
実形
100
AcDbLine
 10
1015.537173103606
 20
649.5995166611394
 30
0.0
 11
1015.537173103606
 21
649.5995166611394
 31
0.0
  0
LINE
  5
2FE
330
1F
100
AcDbEntity
  8
実形
100
AcDbLine
 10
1842.665770637529
 20
1724.599516661139
 30
0.0
 11
1842.665770637529
 21
1284.599516661139
 31
0.0
  0
LINE
  5
2FF
330
1F
100
AcDbEntity
  8
実形
100
AcDbLine
 10
1842.665770637529
 20
1299.599516661139
 30
0.0
 11
1991.33956462448
 21
1299.599516661139
 31
0.0
  0
LINE
  5
300
330
1F
100
AcDbEntity
  8
実形
100
AcDbLine
 10
2021.085399339433
 20
1325.702682419006
 30
0.0
 11
2032.665770637529
 21
1414.099516661139
 31
0.0
  0
LINE
  5
301
330
1F
100
AcDbEntity
  8
実形
100
AcDbLine
 10
2032.665770637529
 20
1414.099516661139
 30
0.0
 11
2032.665770637529
 21
1595.099516661139
 31
0.0
  0
LINE
  5
302
330
1F
100
AcDbEntity
  8
実形
100
AcDbLine
 10
2032.665770637529
 20
1595.099516661139
 30
0.0
 11
2021.085399339433
 21
1683.496350903273
 31
0.0
  0
LINE
  5
303
330
1F
100
AcDbEntity
  8
実形
100
AcDbLine
 10
1991.339564624479
 20
1709.599516661139
 30
0.0
 11
1842.665770637529
 21
1709.599516661139
 31
0.0
  0
LINE
  5
306
330
1F
100
AcDbEntity
  8
実形
100
AcDbLine
 10
834.5371731036056
 20
649.5995166611394
 30
0.0
 11
834.5371731036056
 21
639.5995166611394
 31
0.0
  0
LINE
  5
307
330
1F
100
AcDbEntity
  8
実形
100
AcDbLine
 10
834.5371731036056
 20
639.5995166611394
 30
0.0
 11
1015.537173103606
 21
639.5995166611394
 31
0.0
  0
LINE
  5
308
330
1F
100
AcDbEntity
  8
実形
100
AcDbLine
 10
1015.537173103606
 20
639.5995166611394
 30
0.0
 11
1015.537173103606
 21
649.5995166611394
 31
0.0
  0
LINE
  5
309
330
1F
100
AcDbEntity
  8
実形
100
AcDbLine
 10
2032.665770637529
 20
1595.099516661139
 30
0.0
 11
2042.665770637529
 21
1595.099516661139
 31
0.0
  0
LINE
  5
30A
330
1F
100
AcDbEntity
  8
実形
100
AcDbLine
 10
2042.665770637529
 20
1595.099516661139
 30
0.0
 11
2042.665770637529
 21
1414.099516661139
 31
0.0
  0
LINE
  5
30B
330
1F
100
AcDbEntity
  8
実形
100
AcDbLine
 10
2042.665770637529
 20
1414.099516661139
 30
0.0
 11
2032.665770637529
 21
1414.099516661139
 31
0.0
  0
ARC
  5
30F
330
1F
100
AcDbEntity
  8
実形
100
AcDbCircle
 10
1991.33956462448
 20
1329.599516661139
 30
0.0
 40
30.0
100
AcDbArc
 50
270.0
 51
352.5365055400147
  0
ARC
  5
310
330
1F
100
AcDbEntity
  8
実形
100
AcDbCircle
 10
1991.339564624479
 20
1679.599516661139
 30
0.0
 40
30.0
100
AcDbArc
 50
7.463494459985321
 51
90.0
  0
LINE
  5
33C
330
1F
100
AcDbEntity
  8
実形
 48
0.5
370
    15
100
AcDbLine
 10
925.0371731036057
 20
727.8161405365529
 30
0.0
 11
925.0371731036057
 21
571.4003202292526
 31
0.0
  0
LINE
  5
33D
330
1F
100
AcDbEntity
  8
実形
  6
ACAD_ISO08W100
 48
0.7
370
    15
100
AcDbLine
 10
1923.389842259195
 20
1504.599516661139
 30
0.0
 11
2085.485219485178
 21
1504.599516661139
 31
0.0
  0
LINE
  5
356
330
1F
100
AcDbEntity
  8
実形
100
AcDbLine
 10
797.7036003438238
 20
658.8852913064627
 30
0.0
 11
834.5371731036056
 21
649.5995166611394
 31
0.0
  0
ARC
  5
358
330
1F
100
AcDbEntity
  8
実形
100
AcDbCircle
 10
805.0371731036056
 20
687.9751299202637
 30
0.0
 40
30.0
100
AcDbArc
 50
180.0
 51
255.8505239136548
  0
DIMENSION
  5
35B
330
1F
100
AcDbEntity
  8
実形
100
AcDbDimension
  2
*D4
 10
785.6185715581291
 20
1803.442634824548
 30
0.0
 11
858.1185672688128
 21
1822.192634824548
 31
0.0
 70
    32
 71
     5
 42
144.9999914213674
  3
ISO-25
100
AcDbAlignedDimension
 13
930.6185629794965
 23
1595.154135942404
 33
0.0
 14
785.6185715581291
 24
1578.043702352522
 34
0.0
100
AcDbRotatedDimension
1001
ACAD
1000
DSTYLE
1002
{
1070
    41
1040
25.0
1070
   371
1070
    18
1002
}
  0
TEXT
  5
395
330
1F
100
AcDbEntity
  8
実形
370
    18
100
AcDbText
 10
996.5914549585782
 20
1373.406759153596
 30
0.0
 40
25.0
  1
2395R
100
AcDbText
  0
TEXT
  5
397
330
1F
100
AcDbEntity
  8
実形
370
    18
100
AcDbText
 10
1125.090851736903
 20
1560.289623228233
 30
0.0
 40
25.0
  1
1495R
100
AcDbText
  0
TEXT
  5
398
330
1F
100
AcDbEntity
  8
実形
370
    18
100
AcDbText
 10
1105.15371527388
 20
1444.100602490013
 30
0.0
 40
25.0
  1
4角  75R
100
AcDbText
  0
TEXT
  5
3AF
330
1F
100
AcDbEntity
  8
実形
100
AcDbText
 10
1167.235379068306
 20
708.8742956221993
 30
0.0
 40
25.0
  1
30R
100
AcDbText
  0
TEXT
  5
3B1
330
1F
100
AcDbEntity
  8
実形
370
    18
100
AcDbText
 10
1895.202355298394
 20
1358.083144719585
 30
0.0
 40
25.0
  1
30R
100
AcDbText
  0
DIMENSION
  5
4F8
330
1F
100
AcDbEntity
  8
実形
100
AcDbDimension
  2
*D5
 10
1005.037173103605
 20
523.1721093600665
 30
0.0
 11
925.0371731036057
 21
541.9221093600665
 31
0.0
 70
    32
  1
158
 71
     5
 42
160.0
  3
ISO-25
100
AcDbAlignedDimension
 13
845.0371731036057
 23
639.5995166611394
 33
0.0
 14
1005.037173103605
 24
639.5995166611394
 34
0.0
100
AcDbRotatedDimension
1001
ACAD
1000
DSTYLE
1002
{
1070
    41
1040
25.0
1070
   371
1070
    18
1002
}
  0
DIMENSION
  5
505
330
1F
100
AcDbEntity
  8
実形
100
AcDbDimension
  2
*D6
 10
1015.537173103606
 20
463.2127107911376
 30
0.0
 11
925.0371731036057
 21
481.9627107911376
 31
0.0
 70
    32
 71
     5
 42
181.0
  3
ISO-25
100
AcDbAlignedDimension
 13
834.5371731036056
 23
639.5995166611395
 33
0.0
 14
1015.537173103606
 24
639.5995166611394
 34
0.0
100
AcDbRotatedDimension
1001
ACAD
1000
DSTYLE
1002
{
1070
    41
1040
25.0
1070
   371
1070
    18
1002
}
  0
DIMENSION
  5
569
330
1F
100
AcDbEntity
  8
実形
100
AcDbDimension
  2
*D7
 10
2152.971914729449
 20
1424.599516661139
 30
0.0
 11
2134.221914729449
 21
1504.599516661139
 31
0.0
 70
    32
  1
158
 71
     5
 42
160.0
  3
ISO-25
100
AcDbAlignedDimension
 13
2042.665770637529
 23
1584.599516661139
 33
0.0
 14
2042.665770637529
 24
1424.599516661139
 34
0.0
 50
90.0
100
AcDbRotatedDimension
1001
ACAD
1000
DSTYLE
1002
{
1070
    41
1040
25.0
1070
   371
1070
    18
1002
}
  0
DIMENSION
  5
57F
330
1F
100
AcDbEntity
  8
実形
100
AcDbDimension
  2
*D8
 10
2217.893502694291
 20
1414.099516661139
 30
0.0
 11
2199.14350269429
 21
1504.599516661139
 31
0.0
 70
    32
 71
     5
 42
181.0
  3
ISO-25
100
AcDbAlignedDimension
 13
2042.665770637529
 23
1595.099516661139
 33
0.0
 14
2042.665770637529
 24
1414.099516661139
 34
0.0
 50
90.0
100
AcDbRotatedDimension
1001
ACAD
1000
DSTYLE
1002
{
1070
    41
1040
25.0
1070
   371
1070
    18
1002
}
  0
LEADER
  5
7CF
330
1F
100
AcDbEntity
  8
実形
100
AcDbLeader
  3
ISO-25
 40
25.0
 41
16.66666666666666
 76
     2
 10
982.0839367834455
 20
1314.621611138555
 30
0.0
 10
995.2387345630782
 20
1363.176251887693
 30
0.0
213
0.0
223
-12.5
233
0.0
1001
ACAD
1000
DSTYLE
1002
{
1070
    41
1040
25.0
1070
   147
1040
6.25
1070
    77
1070
     0
1070
    73
1070
     1
1070
    74
1070
     1
1070
   279
1070
     1
1070
   342
1005
DA
1002
}
  0
LEADER
  5
7D1
330
1F
100
AcDbEntity
  8
実形
100
AcDbLeader
  3
ISO-25
 40
25.0
 41
16.66666666666666
 76
     2
 10
1272.203184682554
 20
1342.054673806391
 30
0.0
 10
1230.008326930423
 20
1428.971404844338
 30
0.0
213
0.0
223
-12.5
233
0.0
1001
ACAD
1000
DSTYLE
1002
{
1070
    41
1040
25.0
1070
   147
1040
6.25
1070
    77
1070
     0
1070
    73
1070
     1
1070
    74
1070
     1
1070
   279
1070
     1
1070
   342
1005
DA
1002
}
  0
LEADER
  5
7D2
330
1F
100
AcDbEntity
  8
実形
100
AcDbLeader
  3
ISO-25
 40
25.0
 41
16.66666666666666
 76
     2
 10
1288.679523218137
 20
679.3488268771727
 30
0.0
 10
1240.741024923087
 20
709.8310486416278
 30
0.0
213
0.0
223
-12.5
233
0.0
1001
ACAD
1000
DSTYLE
1002
{
1070
    41
1040
25.0
1070
   147
1040
6.25
1070
    77
1070
     0
1070
    73
1070
     1
1070
    74
1070
     1
1070
   279
1070
     1
1070
   342
1005
DA
1002
}
  0
LEADER
  5
7D3
330
1F
100
AcDbEntity
  8
実形
100
AcDbLeader
  3
ISO-25
 40
25.0
 41
16.66666666666666
 76
     2
 10
2010.014918681944
 20
1317.298200534393
 30
0.0
 10
1972.971540005217
 20
1354.312324272545
 30
0.0
213
0.0
223
-12.5
233
0.0
1001
ACAD
1000
DSTYLE
1002
{
1070
    41
1040
25.0
1070
   147
1040
6.25
1070
    77
1070
     0
1070
    73
1070
     1
1070
    74
1070
     1
1070
   279
1070
     1
1070
   342
1005
DA
1002
}
  0
LINE
  5
EDE
330
1F
100
AcDbEntity
  8
実形
100
AcDbLine
 10
1305.037173103605
 20
839.5995166611394
 30
0.0
 11
1305.037173103605
 21
693.0853550624565
 31
0.0
  0
LINE
  5
EDF
330
1F
100
AcDbEntity
  8
実形
100
AcDbLine
 10
1276.589494935905
 20
663.1255436990823
 30
0.0
 11
1015.537173103606
 21
649.5995166611394
 31
0.0
  0
ARC
  5
EE0
330
1F
100
AcDbEntity
  8
実形
100
AcDbCircle
 10
1275.037173103606
 20
693.0853550624565
 30
0.0
 40
30.0
100
AcDbArc
 50
272.9660408899871
 51
0.0
  0
TEXT
  5
1127
330
1F
100
AcDbEntity
  8
実形
100
AcDbText
 10
2086.666666666667
 20
84.0
 30
0.0
 40
35.0
  1
尺度
 72
     4
 11
2124.0
 21
101.5
 31
0.0
100
AcDbText
  0
TEXT
  5
1128
330
1F
100
AcDbEntity
  8
実形
100
AcDbText
 10
2086.666666666667
 20
149.0
 30
0.0
 40
35.0
  1
品番
 72
     4
 11
2124.0
 21
166.5
 31
0.0
100
AcDbText
  0
LINE
  5
1129
330
1F
100
AcDbEntity
  8
実形
100
AcDbLine
 10
2064.0
 20
69.0
 30
0.0
 11
2784.0
 21
69.0
 31
0.0
  0
LINE
  5
112A
330
1F
100
AcDbEntity
  8
実形
100
AcDbLine
 10
2064.0
 20
199.0
 30
0.0
 11
2784.0
 21
199.0
 31
0.0
  0
LINE
  5
112B
330
1F
100
AcDbEntity
  8
実形
100
AcDbLine
 10
2064.0
 20
134.0
 30
0.0
 11
2784.0
 21
134.0
 31
0.0
  0
LINE
  5
112C
330
1F
100
AcDbEntity
  8
実形
100
AcDbLine
 10
2064.0
 20
4.0
 30
0.0
 11
2064.0
 21
199.0
 31
0.0
  0
TEXT
  5
112E
330
1F
100
AcDbEntity
  8
実形
100
AcDbText
 10
2300.255774665348
 20
16.49999999999999
 30
0.0
 40
40.0
  1
中外交易株式会社
 72
     4
 11
2488.255774665347
 21
36.5
 31
0.0
100
AcDbText
  0
LINE
  5
112F
330
1F
100
AcDbEntity
  8
実形
100
AcDbLine
 10
2184.0
 20
69.0
 30
0.0
 11
2784.0
 21
69.0
 31
0.0
  0
HATCH
  5
1130
330
1F
100
AcDbEntity
  8
実形
100
AcDbHatch
 10
0.0
 20
0.0
 30
0.0
210
0.0
220
0.0
230
1.0
  2
SOLID
 70
     1
 71
     1
 91
        3
 92
        1
 93
        4
 72
     2
 10
2257.166198313996
 20
36.5
 40
20.0
 50
11.64772366707381
 51
342.6561058784905
 73
     1
 72
     1
 10
2276.256852341323
 20
30.53787547858514
 11
2252.166198313995
 21
30.53787547858519
 72
     1
 10
2252.166198313995
 20
30.53787547858519
 11
2252.166198313995
 21
40.53787547858519
 72
     1
 10
2252.166198313995
 20
40.53787547858519
 11
2276.75434681301
 21
40.53787547858519
 97
        4
330
113D
330
113B
330
113A
330
1139
 92
        1
 93
        4
 72
     2
 10
2188.255774665348
 20
36.5
 40
20.0
 50
11.64772366707381
 51
342.6561058784905
 73
     1
 72
     1
 10
2207.346428692676
 20
30.53787547858514
 11
2183.255774665347
 21
30.53787547858519
 72
     1
 10
2183.255774665347
 20
30.53787547858519
 11
2183.255774665347
 21
40.53787547858519
 72
     1
 10
2183.255774665347
 20
40.53787547858519
 11
2207.843923164362
 21
40.53787547858519
 97
        4
330
113C
330
1133
330
1132
330
1131
 92
        1
 93
        5
 72
     1
 10
2245.64189404294
 20
56.5
 11
2210.641894042939
 21
56.5
 72
     1
 10
2210.641894042939
 20
56.5
 11
2210.641894042939
 21
16.5
 72
     1
 10
2210.641894042939
 20
16.5
 11
2245.64189404294
 21
16.5
 72
     1
 10
2245.64189404294
 20
16.5
 11
2210.641894042939
 21
36.5
 72
     1
 10
2210.641894042939
 20
36.5
 11
2245.64189404294
 21
56.5
 97
        5
330
1138
330
1134
330
1135
330
1136
330
1137
 75
     0
 76
     1
 98
        1
 10
-60.0
 20
0.0
  0
LINE
  5
1131
102
{ACAD_REACTORS
330
1130
102
}
330
1F
100
AcDbEntity
  8
実形
370
     5
100
AcDbLine
 10
2207.843923164362
 20
40.53787547858519
 30
0.0
 11
2183.255774665347
 21
40.53787547858519
 31
0.0
  0
LINE
  5
1132
102
{ACAD_REACTORS
330
1130
102
}
330
1F
100
AcDbEntity
  8
実形
370
     5
100
AcDbLine
 10
2183.255774665347
 20
40.53787547858519
 30
0.0
 11
2183.255774665347
 21
30.53787547858519
 31
0.0
  0
LINE
  5
1133
102
{ACAD_REACTORS
330
1130
102
}
330
1F
100
AcDbEntity
  8
実形
370
     5
100
AcDbLine
 10
2183.255774665347
 20
30.53787547858519
 30
0.0
 11
2207.346428692676
 21
30.53787547858514
 31
0.0
  0
LINE
  5
1134
102
{ACAD_REACTORS
330
1130
102
}
330
1F
100
AcDbEntity
  8
実形
370
     5
100
AcDbLine
 10
2210.641894042939
 20
56.5
 30
0.0
 11
2210.641894042939
 21
16.5
 31
0.0
  0
LINE
  5
1135
102
{ACAD_REACTORS
330
1130
102
}
330
1F
100
AcDbEntity
  8
実形
370
     5
100
AcDbLine
 10
2210.641894042939
 20
16.5
 30
0.0
 11
2245.64189404294
 21
16.5
 31
0.0
  0
LINE
  5
1136
102
{ACAD_REACTORS
330
1130
102
}
330
1F
100
AcDbEntity
  8
実形
370
     5
100
AcDbLine
 10
2245.64189404294
 20
16.5
 30
0.0
 11
2210.641894042939
 21
36.5
 31
0.0
  0
LINE
  5
1137
102
{ACAD_REACTORS
330
1130
102
}
330
1F
100
AcDbEntity
  8
実形
370
     5
100
AcDbLine
 10
2210.641894042939
 20
36.5
 30
0.0
 11
2245.64189404294
 21
56.5
 31
0.0
  0
LINE
  5
1138
102
{ACAD_REACTORS
330
1130
102
}
330
1F
100
AcDbEntity
  8
実形
370
     5
100
AcDbLine
 10
2245.64189404294
 20
56.5
 30
0.0
 11
2210.641894042939
 21
56.5
 31
0.0
  0
LINE
  5
1139
102
{ACAD_REACTORS
330
1130
102
}
330
1F
100
AcDbEntity
  8
実形
370
     5
100
AcDbLine
 10
2276.75434681301
 20
40.53787547858519
 30
0.0
 11
2252.166198313995
 21
40.53787547858519
 31
0.0
  0
LINE
  5
113A
102
{ACAD_REACTORS
330
1130
102
}
330
1F
100
AcDbEntity
  8
実形
370
     5
100
AcDbLine
 10
2252.166198313995
 20
40.53787547858519
 30
0.0
 11
2252.166198313995
 21
30.53787547858519
 31
0.0
  0
LINE
  5
113B
102
{ACAD_REACTORS
330
1130
102
}
330
1F
100
AcDbEntity
  8
実形
370
     5
100
AcDbLine
 10
2252.166198313995
 20
30.53787547858519
 30
0.0
 11
2276.256852341323
 21
30.53787547858514
 31
0.0
  0
ARC
  5
113C
102
{ACAD_REACTORS
330
1130
102
}
330
1F
100
AcDbEntity
  8
実形
370
     5
100
AcDbCircle
 10
2188.255774665348
 20
36.5
 30
0.0
 40
20.0
100
AcDbArc
 50
11.64772366707381
 51
342.6561058784905
  0
ARC
  5
113D
102
{ACAD_REACTORS
330
1130
102
}
330
1F
100
AcDbEntity
  8
実形
370
     5
100
AcDbCircle
 10
2257.166198313996
 20
36.5
 30
0.0
 40
20.0
100
AcDbArc
 50
11.64772366707381
 51
342.6561058784905
  0
LINE
  5
113E
330
1F
100
AcDbEntity
  8
実形
100
AcDbLine
 10
2184.0
 20
69.0
 30
0.0
 11
2184.0
 21
199.0
 31
0.0
  0
TEXT
  5
113F
330
1F
100
AcDbEntity
  8
実形
100
AcDbText
 10
2430.916666666667
 20
84.0
 30
0.0
 40
35.0
  1
1：10
 72
     4
 11
2484.0
 21
101.5
 31
0.0
100
AcDbText
  0
LINE
  5
1140
330
1F
100
AcDbEntity
  8
実形
100
AcDbLine
 10
2784.0
 20
69.0
 30
0.0
 11
2784.0
 21
134.0
 31
0.0
  0
LINE
  5
1141
330
1F
100
AcDbEntity
  8
実形
100
AcDbLine
 10
2784.0
 20
4.0
 30
0.0
 11
2784.0
 21
69.0
 31
0.0
  0
LINE
  5
1142
330
1F
100
AcDbEntity
  8
実形
100
AcDbLine
 10
2784.0
 20
134.0
 30
0.0
 11
2784.0
 21
199.0
 31
0.0
  0
LINE
  5
1187
330
1F
100
AcDbEntity
  8
実形
100
AcDbLine
 10
685.1733023331178
 20
858.5995166611393
 30
0.0
 11
564.9690714619501
 21
858.5995166611395
 31
0.0
  0
LINE
  5
1188
330
1F
100
AcDbEntity
  8
実形
100
AcDbLine
 10
685.1733023331178
 20
649.5995166611394
 30
0.0
 11
564.9690714619501
 21
649.5995166611395
 31
0.0
  0
LINE
  5
1189
330
1F
100
AcDbEntity
  8
実形
100
AcDbLine
 10
685.1733023331179
 20
639.5995166611394
 30
0.0
 11
631.96907146195
 21
639.5995166611394
 31
0.0
  0
TEXT
  5
118A
330
1F
100
AcDbEntity
  8
実形
 62
     0
370
    18
100
AcDbText
 10
551.6777439347715
 20
722.0820761375387
 30
0.0
 40
25.0
  1
197
 50
90.0
100
AcDbText
  0
LINE
  5
118B
330
1F
100
AcDbEntity
  8
実形
100
AcDbLine
 10
564.9690714619501
 20
858.5995166611395
 30
0.0
 11
564.9690714619501
 21
649.5995166611394
 31
0.0
  0
TEXT
  5
118C
330
1F
100
AcDbEntity
  8
実形
 62
     0
370
    18
100
AcDbText
 10
563.5145430320442
 20
856.9994260508485
 30
0.0
 40
3.0
  1
●
100
AcDbText
  0
TEXT
  5
118D
330
1F
100
AcDbEntity
  8
実形
 62
     0
370
    18
100
AcDbText
 10
563.5844998526406
 20
648.0698601329643
 30
0.0
 40
3.0
  1
●
100
AcDbText
  0
TEXT
  5
118E
330
1F
100
AcDbEntity
  8
実形
 62
     0
370
    18
100
AcDbText
 10
612.5074304207475
 20
653.8667477709179
 30
0.0
 40
25.0
  1
15
 50
90.0
100
AcDbText
  0
LINE
  5
118F
330
1F
100
AcDbEntity
  8
実形
 62
     0
100
AcDbLine
 10
685.1733023331178
 20
664.5995166611393
 30
0.0
 11
631.96907146195
 21
664.5995166611392
 31
0.0
  0
LINE
  5
1190
330
1F
100
AcDbEntity
  8
実形
 62
     0
100
AcDbLine
 10
631.96907146195
 20
664.5995166611391
 30
0.0
 11
631.96907146195
 21
649.5995166611394
 31
0.0
  0
TEXT
  5
1191
330
1F
100
AcDbEntity
  8
実形
 62
     0
370
    18
100
AcDbText
 10
630.1776073912852
 20
647.6521279522176
 30
0.0
 40
4.0
  1
●
100
AcDbText
  0
TEXT
  5
1192
330
1F
100
AcDbEntity
  8
実形
 62
     0
370
    18
100
AcDbText
 10
630.071160347571
 20
662.3978873564801
 30
0.0
 40
4.0
  1
●
100
AcDbText
  0
LINE
  5
1193
330
1F
100
AcDbEntity
  8
実形
100
AcDbLine
 10
631.96907146195
 20
649.5995166611394
 30
0.0
 11
631.96907146195
 21
639.5995166611394
 31
0.0
  0
TEXT
  5
1194
330
1F
100
AcDbEntity
  8
実形
 62
     0
370
    18
100
AcDbText
 10
630.1433724122134
 20
637.8582591167187
 30
0.0
 40
4.0
  1
●
100
AcDbText
  0
TEXT
  5
1195
330
1F
100
AcDbEntity
  8
実形
 62
     0
370
    18
100
AcDbText
 10
612.0887056167532
 20
618.2501413441407
 30
0.0
 40
25.0
  1
7
 50
90.0
100
AcDbText
  0
TEXT
  5
11A9
330
1F
100
AcDbEntity
  8
実形
370
    18
100
AcDbText
 10
1977.120016208191
 20
1158.819786372792
 30
0.0
 40
25.0
  1
15
100
AcDbText
  0
LINE
  5
11AA
330
1F
100
AcDbEntity
  8
実形
100
AcDbLine
 10
1823.574347118393
 20
1219.599516661139
 30
0.0
 11
1823.574347118393
 21
1099.599516661139
 31
0.0
  0
LINE
  5
11AB
330
1F
100
AcDbEntity
  8
実形
100
AcDbLine
 10
2032.665770637529
 20
1219.599516661139
 30
0.0
 11
2032.665770637529
 21
1099.599516661139
 31
0.0
  0
LINE
  5
11AC
330
1F
100
AcDbEntity
  8
実形
100
AcDbLine
 10
2042.665770637529
 20
1219.599516661139
 30
0.0
 11
2042.665770637529
 21
1153.405760142698
 31
0.0
  0
LINE
  5
11AD
330
1F
100
AcDbEntity
  8
実形
100
AcDbLine
 10
2017.665770637529
 20
1219.599516661139
 30
0.0
 11
2017.665770637529
 21
1153.405760142698
 31
0.0
  0
LINE
  5
11AE
330
1F
100
AcDbEntity
  8
実形
100
AcDbLine
 10
1823.665770637529
 20
1099.599516661139
 30
0.0
 11
2032.665770637529
 21
1099.599516661139
 31
0.0
  0
LINE
  5
11AF
330
1F
100
AcDbEntity
  8
実形
100
AcDbLine
 10
2017.665770637529
 20
1153.405760142699
 30
0.0
 11
2042.665770637529
 21
1153.405760142698
 31
0.0
  0
TEXT
  5
11B0
330
1F
100
AcDbEntity
  8
実形
370
    18
100
AcDbText
 10
1911.899477416818
 20
1107.281705068181
 30
0.0
 40
25.0
  1
197
100
AcDbText
  0
TEXT
  5
11B1
330
1F
100
AcDbEntity
  8
実形
370
    18
100
AcDbText
 10
2050.449104048352
 20
1157.330833755123
 30
0.0
 40
25.0
  1
7
100
AcDbText
  0
TEXT
  5
11B2
330
1F
100
AcDbEntity
  8
実形
370
    18
100
AcDbText
 10
1821.760843463555
 20
1097.606958882896
 30
0.0
 40
4.0
  1
●
100
AcDbText
  0
TEXT
  5
11B3
330
1F
100
AcDbEntity
  8
実形
370
    18
100
AcDbText
 10
2030.765795950618
 20
1097.691808410514
 30
0.0
 40
4.0
  1
●
100
AcDbText
  0
TEXT
  5
11B4
330
1F
100
AcDbEntity
  8
実形
370
    18
100
AcDbText
 10
2040.798493799858
 20
1151.44906031414
 30
0.0
 40
4.0
  1
●
100
AcDbText
  0
TEXT
  5
11B5
330
1F
100
AcDbEntity
  8
実形
370
    18
100
AcDbText
 10
2015.814483014687
 20
1151.372189331154
 30
0.0
 40
4.0
  1
●
100
AcDbText
  0
TEXT
  5
11DD
330
1F
100
AcDbEntity
  8
実形
370
    18
100
AcDbText
 10
2030.609426768828
 20
1151.263937677597
 30
0.0
 40
4.0
  1
●
100
AcDbText
  0
LINE
  5
130C
330
1F
100
AcDbEntity
  8
実形
100
AcDbLine
 10
2784.0
 20
1959.0
 30
0.0
 11
2019.387286519283
 21
1959.000000000001
 31
0.0
  0
LINE
  5
130D
330
1F
100
AcDbEntity
  8
実形
100
AcDbLine
 10
2784.0
 20
1894.0
 30
0.0
 11
2019.387286519283
 21
1894.0
 31
0.0
  0
LINE
  5
130E
330
1F
100
AcDbEntity
  8
実形
100
AcDbLine
 10
2202.547653420927
 20
1829.0
 30
0.0
 11
2202.547653420927
 21
2024.0
 31
0.0
  0
LINE
  5
130F
330
1F
100
AcDbEntity
  8
実形
100
AcDbLine
 10
2019.387286519283
 20
1829.0
 30
0.0
 11
2019.387286519283
 21
2024.0
 31
0.0
  0
TEXT
  5
1310
330
1F
100
AcDbEntity
  8
実形
100
AcDbText
 10
2050.295698850121
 20
1976.328571428572
 30
0.0
 40
30.0
  1
部品名
  7
明朝
 72
     4
 11
2116.124270278692
 21
1991.5
 31
0.0
100
AcDbText
  0
TEXT
  5
1311
330
1F
100
AcDbEntity
  8
実形
100
AcDbText
 10
2627.614285714286
 20
1976.071428571429
 30
0.0
 40
30.0
  1
厚さ
  7
明朝
 72
     4
 11
2671.5
 21
1991.5
 31
0.0
100
AcDbText
  0
LINE
  5
1312
330
1F
100
AcDbEntity
  8
実形
100
AcDbLine
 10
2559.0
 20
1829.0
 30
0.0
 11
2559.0
 21
2024.0
 31
0.0
  0
TEXT
  5
1313
330
1F
100
AcDbEntity
  8
実形
100
AcDbText
 10
2338.490869919937
 20
1975.947979478155
 30
0.0
 40
30.0
  1
材質
  7
明朝
 72
     4
 11
2382.376584205651
 21
1991.119408049583
 31
0.0
100
AcDbText
  0
TEXT
  5
1314
330
1F
100
AcDbEntity
  8
実形
100
AcDbText
 10
2048.227810657788
 20
1910.557142857143
 30
0.0
 40
30.0
  1
ボウル
  7
明朝
 72
     4
 11
2114.056382086359
 21
1926.5
 31
0.0
100
AcDbText
  0
TEXT
  5
1315
330
1F
100
AcDbEntity
  8
実形
100
AcDbText
 10
2594.700000000001
 20
1911.842857142857
 30
0.0
 40
30.0
  1
0.6ｍｍ
  7
明朝
 72
     4
 11
2671.500000000001
 21
1926.5
 31
0.0
100
AcDbText
  0
TEXT
  5
1316
330
1F
100
AcDbEntity
  8
実形
100
AcDbText
 10
2261.016869107866
 20
1910.728571428572
 30
0.0
 40
30.0
  1
SUS304（BA）
  7
明朝
 72
     4
 11
2392.674011965008
 21
1926.5
 31
0.0
100
AcDbText
  0
LINE
  5
1317
330
1F
100
AcDbEntity
  8
実形
100
AcDbLine
 10
119.0
 20
2024.0
 30
0.0
 11
119.0
 21
4.0
 31
0.0
  0
LINE
  5
133B
330
1F
100
AcDbEntity
  8
実形
100
AcDbLine
 10
1305.037173103605
 20
839.5995166611394
 30
0.0
 11
1305.037173103605
 21
821.5995166611394
 31
0.0
  0
LINE
  5
133C
330
1F
100
AcDbEntity
  8
実形
100
AcDbLine
 10
1305.037173103605
 20
839.5995166611394
 30
0.0
 11
1323.037173103606
 21
839.5995166611394
 31
0.0
  0
LINE
  5
133D
330
1F
100
AcDbEntity
  8
実形
100
AcDbLine
 10
1323.037173103606
 20
839.5995166611394
 30
0.0
 11
1323.037173103606
 21
846.5995166611394
 31
0.0
  0
LINE
  5
1340
330
1F
100
AcDbEntity
  8
実形
100
AcDbLine
 10
1323.037173103606
 20
846.5995166611394
 30
0.0
 11
1350.037173103606
 21
846.5995166611394
 31
0.0
  0
LINE
  5
1341
330
1F
100
AcDbEntity
  8
実形
100
AcDbLine
 10
1350.037173103606
 20
846.5995166611394
 30
0.0
 11
1350.037173103606
 21
853.5995166611396
 31
0.0
  0
LINE
  5
1342
330
1F
100
AcDbEntity
  8
実形
100
AcDbLine
 10
1345.037173103606
 20
858.5995166611395
 30
0.0
 11
843.8223905584418
 21
858.5995166611395
 31
0.0
  0
LINE
  5
1345
330
1F
100
AcDbEntity
  8
実形
100
AcDbLine
 10
1345.037173103605
 20
858.5995166611395
 30
0.0
 11
1350.037173103606
 21
853.5995166611394
 31
0.0
  0
LINE
  5
1347
330
1F
100
AcDbEntity
  8
実形
100
AcDbLine
 10
1320.037173103605
 20
839.5995166611394
 30
0.0
 11
760.0371731036048
 21
839.5995166611394
 31
0.0
  0
LINE
  5
1348
330
1F
100
AcDbEntity
  8
実形
100
AcDbLine
 10
775.0371731036048
 20
839.5995166611394
 30
0.0
 11
757.0371731036048
 21
839.5995166611394
 31
0.0
  0
LINE
  5
1349
330
1F
100
AcDbEntity
  8
実形
100
AcDbLine
 10
757.0371731036048
 20
839.5995166611394
 30
0.0
 11
757.0371731036048
 21
846.5995166611394
 31
0.0
  0
LINE
  5
134A
330
1F
100
AcDbEntity
  8
実形
100
AcDbLine
 10
757.0371731036048
 20
846.5995166611394
 30
0.0
 11
730.0371731036047
 21
846.5995166611394
 31
0.0
  0
LINE
  5
134B
330
1F
100
AcDbEntity
  8
実形
100
AcDbLine
 10
730.0371731036047
 20
846.5995166611394
 30
0.0
 11
730.0371731036047
 21
853.5995166611396
 31
0.0
  0
LINE
  5
134C
330
1F
100
AcDbEntity
  8
実形
100
AcDbLine
 10
735.0371731036045
 20
858.5995166611395
 30
0.0
 11
1236.251955648768
 21
858.5995166611395
 31
0.0
  0
LINE
  5
134D
330
1F
100
AcDbEntity
  8
実形
100
AcDbLine
 10
735.0371731036048
 20
858.5995166611395
 30
0.0
 11
730.0371731036047
 21
853.5995166611394
 31
0.0
  0
LINE
  5
134E
330
1F
100
AcDbEntity
  8
実形
100
AcDbLine
 10
757.0371731036048
 20
846.5995166611394
 30
0.0
 11
1323.037173103606
 21
846.5995166611394
 31
0.0
  0
TEXT
  5
1358
330
1F
100
AcDbEntity
  8
実形
100
AcDbText
 10
666.3277694424177
 20
921.9094953275561
 30
0.0
 40
25.0
  1
5C
100
AcDbText
  0
LEADER
  5
1359
330
1F
100
AcDbEntity
  8
実形
100
AcDbLeader
  3
ISO-25
 40
25.0
 41
16.66666666666666
 76
     2
 10
728.9977284200867
 20
859.8248714623732
 30
0.0
 10
692.5587878613696
 20
912.0759319034805
 30
0.0
213
0.0
223
-12.5
233
0.0
1001
ACAD
1000
DSTYLE
1002
{
1070
    41
1040
25.0
1070
   147
1040
6.25
1070
    77
1070
     0
1070
    73
1070
     1
1070
    74
1070
     1
1070
   279
1070
     1
1070
   342
1005
DA
1002
}
  0
LEADER
  5
135B
330
1F
100
AcDbEntity
  8
実形
100
AcDbLeader
  3
ISO-25
 40
25.0
 41
16.66666666666666
 76
     2
 10
1351.076617787124
 20
859.8248714623732
 30
0.0
 10
1387.515558345841
 20
912.0759319034805
 30
0.0
211
-1.0
221
0.0
231
0.0
213
0.0
223
-12.5
233
0.0
1001
ACAD
1000
DSTYLE
1002
{
1070
    41
1040
25.0
1070
   147
1040
6.25
1070
    77
1070
     0
1070
    73
1070
     1
1070
    74
1070
     1
1070
   279
1070
     1
1070
   342
1005
DA
1002
}
  0
TEXT
  5
1364
330
1F
100
AcDbEntity
  8
実形
100
AcDbText
 10
1384.489552162013
 20
927.4793855468525
 30
0.0
 40
25.0
  1
5C
100
AcDbText
  0
LINE
  5
13E0
330
1F
100
AcDbEntity
  8
実形
100
AcDbLine
 10
1842.665770637529
 20
1327.798194991446
 30
0.0
 11
1842.665770637529
 21
1724.599516661139
 31
0.0
  0
LINE
  5
13E1
330
1F
100
AcDbEntity
  8
実形
100
AcDbLine
 10
1842.665770637529
 20
1709.599516661139
 30
0.0
 11
1842.665770637529
 21
1727.599516661139
 31
0.0
  0
LINE
  5
13E2
330
1F
100
AcDbEntity
  8
実形
100
AcDbLine
 10
1842.665770637529
 20
1727.599516661139
 30
0.0
 11
1835.665770637529
 21
1727.599516661139
 31
0.0
  0
LINE
  5
13E3
330
1F
100
AcDbEntity
  8
実形
100
AcDbLine
 10
1835.665770637529
 20
1727.599516661139
 30
0.0
 11
1835.665770637529
 21
1754.599516661139
 31
0.0
  0
LINE
  5
13E4
330
1F
100
AcDbEntity
  8
実形
100
AcDbLine
 10
1835.665770637529
 20
1754.599516661139
 30
0.0
 11
1828.665770637529
 21
1754.599516661139
 31
0.0
  0
LINE
  5
13E5
330
1F
100
AcDbEntity
  8
実形
100
AcDbLine
 10
1823.665770637529
 20
1749.599516661139
 30
0.0
 11
1823.665770637529
 21
1348.024358692903
 31
0.0
  0
LINE
  5
13E6
330
1F
100
AcDbEntity
  8
実形
100
AcDbLine
 10
1823.665770637529
 20
1749.599516661139
 30
0.0
 11
1828.665770637529
 21
1754.599516661139
 31
0.0
  0
LINE
  5
13E7
330
1F
100
AcDbEntity
  8
実形
100
AcDbLine
 10
1842.665770637529
 20
1724.599516661139
 30
0.0
 11
1842.665770637529
 21
1327.798194991446
 31
0.0
  0
LINE
  5
13E8
330
1F
100
AcDbEntity
  8
実形
100
AcDbLine
 10
1823.665770637529
 20
1364.205297331031
 30
0.0
 11
1823.665770637529
 21
1640.814299206302
 31
0.0
  0
LINE
  5
13E9
330
1F
100
AcDbEntity
  8
実形
100
AcDbLine
 10
1835.665770637529
 20
1340.945195639666
 30
0.0
 11
1835.665770637529
 21
1727.599516661139
 31
0.0
  0
LINE
  5
13EA
330
1F
100
AcDbEntity
  8
実形
100
AcDbLine
 10
1842.665770637529
 20
1709.599516661139
 30
0.0
 11
1842.665770637529
 21
1727.599516661139
 31
0.0
  0
LINE
  5
13FA
330
1F
100
AcDbEntity
  8
実形
100
AcDbLine
 10
2784.0
 20
1829.0
 30
0.0
 11
2019.387286519283
 21
1829.0
 31
0.0
  0
TEXT
  5
1403
330
1F
100
AcDbEntity
  8
実形
100
AcDbText
 10
2070.035283471818
 20
1846.908881478474
 30
0.0
 40
30.0
  1
天板
  7
明朝
 72
     4
 11
2113.920997757532
 21
1862.166024335617
 31
0.0
100
AcDbText
  0
TEXT
  5
140C
330
1F
100
AcDbEntity
  8
実形
100
AcDbText
 10
2234.861046521259
 20
1847.890381562374
 30
0.0
 40
30.0
  1
ｱｸﾘﾙ人工大理石
  7
明朝
 72
     4
 11
2388.461046521259
 21
1863.747524419517
 31
0.0
100
AcDbText
  0
TEXT
  5
1415
330
1F
100
AcDbEntity
  8
実形
100
AcDbText
 10
2607.993307313416
 20
1845.017877900232
 30
0.0
 40
30.0
  1
12ｍｍ
  7
明朝
 72
     4
 11
2673.821878741988
 21
1859.675020757375
 31
0.0
100
AcDbText
  0
ARC
  5
14EF
330
1F
100
AcDbEntity
  8
実形
100
AcDbCircle
 10
1867.899627132798
 20
691.7745986296067
 30
0.0
 40
50.0
100
AcDbArc
 50
90.0
 51
180.0
  0
LINE
  5
14F0
330
1F
100
AcDbEntity
  8
実形
100
AcDbLine
 10
2317.899627132798
 20
621.7745986296067
 30
0.0
 11
2217.899627132798
 21
621.7745986296067
 31
0.0
  0
LINE
  5
14F1
330
1F
100
AcDbEntity
  8
実形
100
AcDbLine
 10
2167.899627132798
 20
621.7745986296067
 30
0.0
 11
2047.899627132798
 21
621.7745986296067
 31
0.0
  0
LINE
  5
14F2
330
1F
100
AcDbEntity
  8
実形
100
AcDbLine
 10
1867.899627132798
 20
621.7745986296067
 30
0.0
 11
1817.899627132798
 21
621.7745986296067
 31
0.0
  0
LINE
  5
14F3
330
1F
100
AcDbEntity
  8
実形
100
AcDbLine
 10
2024.708766078408
 20
661.7745986296068
 30
0.0
 11
1874.978098369962
 21
661.7745986296068
 31
0.0
  0
LINE
  5
14F4
330
1F
100
AcDbEntity
  8
実形
100
AcDbLine
 10
2024.708766078408
 20
651.7745986296067
 30
0.0
 11
1884.978098369962
 21
651.7745986296067
 31
0.0
  0
LINE
  5
14F5
330
1F
100
AcDbEntity
  8
実形
100
AcDbLine
 10
2047.899627132798
 20
671.7745986296067
 30
0.0
 11
2037.899627132798
 21
671.7745986296067
 31
0.0
  0
LINE
  5
14F6
330
1F
100
AcDbEntity
  8
実形
100
AcDbLine
 10
1997.899627132798
 20
671.7745986296067
 30
0.0
 11
1867.899627132798
 21
671.7745986296067
 31
0.0
  0
LINE
  5
14F7
330
1F
100
AcDbEntity
  8
実形
100
AcDbLine
 10
1817.899627132798
 20
621.7745986296067
 30
0.0
 11
1817.899627132798
 21
691.7745986296067
 31
0.0
  0
LINE
  5
14F8
330
1F
100
AcDbEntity
  8
実形
100
AcDbLine
 10
1867.899627132798
 20
621.7745986296067
 30
0.0
 11
1867.899627132798
 21
671.7745986296067
 31
0.0
  0
LINE
  5
14F9
330
1F
100
AcDbEntity
  8
実形
100
AcDbLine
 10
1897.899627132798
 20
621.7745986296067
 30
0.0
 11
1897.899627132798
 21
643.3475735696974
 31
0.0
  0
LINE
  5
14FA
330
1F
100
AcDbEntity
  8
実形
100
AcDbLine
 10
1987.899627132798
 20
621.7745986296067
 30
0.0
 11
1987.899627132798
 21
643.3475735696974
 31
0.0
  0
LINE
  5
14FB
330
1F
100
AcDbEntity
  8
実形
100
AcDbLine
 10
2047.899627132798
 20
621.7745986296067
 30
0.0
 11
2047.899627132798
 21
671.7745986296067
 31
0.0
  0
TEXT
  5
14FC
330
1F
100
AcDbEntity
  8
実形
100
AcDbText
 10
2410.595219089757
 20
538.751962988057
 30
0.0
 40
30.0
  1
糸面
 11
2410.595219089757
 21
534.7519629880571
 31
0.0
100
AcDbText
 73
     1
  0
TEXT
  5
14FD
330
1F
100
AcDbEntity
  8
実形
100
AcDbText
 10
2458.548718828048
 20
823.8525740430549
 30
0.0
 40
30.0
  1
5C
 11
2458.548718828048
 21
819.852574043055
 31
0.0
100
AcDbText
 73
     1
  0
ARC
  5
14FE
330
1F
100
AcDbEntity
  8
実形
100
AcDbCircle
 10
2192.899627132798
 20
621.7745986296067
 30
0.0
 40
25.0
100
AcDbArc
 50
0.0
 51
180.0
  0
TEXT
  5
14FF
330
1F
100
AcDbEntity
  8
実形
100
AcDbText
 10
1645.151229950476
 20
830.9405545710633
 30
0.0
 40
30.0
  1
5R
 11
1645.151229950476
 21
826.9405545710633
 31
0.0
100
AcDbText
 73
     1
  0
TEXT
  5
1500
330
1F
100
AcDbEntity
  8
実形
100
AcDbText
 10
1580.549634237201
 20
510.2514344061565
 30
0.0
 40
30.0
  1
糸面
 11
1580.549634237201
 21
506.2514344061565
 31
0.0
100
AcDbText
 73
     1
  0
ARC
  5
1501
330
1F
100
AcDbEntity
  8
実形
100
AcDbCircle
 10
2017.899627132798
 20
671.7745986296067
 30
0.0
 40
20.0
100
AcDbArc
 50
0.0
 51
180.0
  0
LINE
  5
1502
330
1F
100
AcDbEntity
  8
実形
100
AcDbLine
 10
1966.804648729118
 20
691.7745986296067
 30
0.0
 11
1966.804648729118
 21
671.7745986296067
 31
0.0
  0
TEXT
  5
1503
330
1F
100
AcDbEntity
  8
実形
  6
HIDDEN2
100
AcDbText
 10
1972.525610607851
 20
684.4380022953536
 30
0.0
 40
13.0
  1
● 
 71
     2
100
AcDbText
  0
TEXT
  5
1504
330
1F
100
AcDbEntity
  8
実形
  6
HIDDEN2
100
AcDbText
 10
1972.903799752736
 20
665.5344066124853
 30
0.0
 40
13.0
  1
● 
 71
     2
100
AcDbText
  0
LINE
  5
1505
330
1F
100
AcDbEntity
  8
実形
100
AcDbLine
 10
1897.899627132798
 20
643.3475735696974
 30
0.0
 11
1897.899627132798
 21
543.3475735696974
 31
0.0
  0
LINE
  5
1506
330
1F
100
AcDbEntity
  8
実形
100
AcDbLine
 10
1897.899627132798
 20
543.3475735696974
 30
0.0
 11
2077.899627132798
 21
543.3475735696974
 31
0.0
  0
LINE
  5
1507
330
1F
100
AcDbEntity
  8
実形
100
AcDbLine
 10
2077.899627132798
 20
543.3475735696974
 30
0.0
 11
2077.899627132798
 21
613.3475735696975
 31
0.0
  0
LINE
  5
1508
330
1F
100
AcDbEntity
  8
実形
100
AcDbLine
 10
2077.899627132798
 20
613.3475735696975
 30
0.0
 11
1987.899627132798
 21
613.3475735696975
 31
0.0
  0
LINE
  5
1509
330
1F
100
AcDbEntity
  8
実形
100
AcDbLine
 10
1987.899627132798
 20
613.3475735696975
 30
0.0
 11
1987.899627132798
 21
643.3475735696974
 31
0.0
  0
LINE
  5
150A
330
1F
100
AcDbEntity
  8
実形
100
AcDbLine
 10
1987.899627132798
 20
643.3475735696974
 30
0.0
 11
1897.899627132798
 21
643.3475735696974
 31
0.0
  0
LINE
  5
150B
330
1F
100
AcDbEntity
  8
実形
100
AcDbLine
 10
1874.978098369962
 20
661.7745986296068
 30
0.0
 11
1874.978098369962
 21
352.1897662457859
 31
0.0
  0
LINE
  5
150C
330
1F
100
AcDbEntity
  8
実形
100
AcDbLine
 10
1884.978098369962
 20
651.7745986296067
 30
0.0
 11
1884.978098369962
 21
352.1897662457859
 31
0.0
  0
LINE
  5
150D
330
1F
100
AcDbEntity
  8
実形
100
AcDbLine
 10
2024.708766078408
 20
661.7745986296068
 30
0.0
 11
2024.708766078408
 21
651.7745986296067
 31
0.0
  0
TEXT
  5
150E
330
1F
100
AcDbEntity
  8
実形
100
AcDbText
 10
2158.050347882611
 20
428.9223745382956
 30
0.0
 40
30.0
  1
ホルダーリング
 11
2158.050347882611
 21
424.9223745382956
 31
0.0
100
AcDbText
 73
     1
  0
LEADER
  5
150F
330
1F
100
AcDbEntity
  8
実形
100
AcDbLeader
  3
ISO-25
 76
     2
 10
1999.209784504814
 20
569.1972909868063
 30
0.0
 10
2192.253344445128
 20
482.2281316862581
 30
0.0
1001
ACAD
1000
DSTYLE
1002
{
1070
    77
1070
     0
1070
    41
1040
25.0
1070
    42
1040
6.0
1070
   140
1040
3.0
1070
   147
1040
1.199999999999999
1070
   279
1070
     2
1070
   289
1070
     2
1070
   371
1070
    13
1070
   372
1070
    13
1002
}
  0
TEXT
  5
1510
330
1F
100
AcDbEntity
  8
実形
100
AcDbText
 10
1570.896337947303
 20
258.1047734019167
 30
0.0
 40
30.0
  1
シンク厚0.6ｍｍ
 11
1570.896337947303
 21
254.1047734019167
 31
0.0
100
AcDbText
 73
     1
  0
DIMENSION
  5
1511
330
1F
100
AcDbEntity
  8
実形
100
AcDbDimension
  2
*D9
 10
1867.899627132798
 20
560.7316764226998
 30
0.0
 11
1844.014601998565
 21
560.7316764226998
 31
0.0
 70
   160
  1
5
 71
     5
 42
50.0
  3
ISO-25
100
AcDbAlignedDimension
 13
1817.899627132798
 23
656.214527306287
 33
0.0
 14
1867.899627132798
 24
656.214527306287
 34
0.0
100
AcDbRotatedDimension
1001
ACAD
1000
DSTYLE
1002
{
1070
   371
1070
    18
1070
   372
1070
    18
1002
}
  0
DIMENSION
  5
1512
330
1F
100
AcDbEntity
  8
実形
100
AcDbDimension
  2
*D10
 10
1753.525428541637
 20
621.774598629607
 30
0.0
 11
1734.775428541636
 21
681.7745986296072
 31
0.0
 70
    32
  1
12
 71
     5
 42
120.0
  3
ISO-25
100
AcDbAlignedDimension
 13
1856.050329074197
 23
741.7745986296068
 33
0.0
 14
1850.701112069639
 24
621.7745986296068
 34
0.0
 50
90.0
100
AcDbRotatedDimension
1001
ACAD
1000
DSTYLE
1002
{
1070
   371
1070
    18
1070
   372
1070
    18
1002
}
  0
LEADER
  5
1513
330
1F
100
AcDbEntity
  8
実形
100
AcDbLeader
  3
ISO-25
 76
     2
 10
1815.090214893423
 20
744.4335239879401
 30
0.0
 10
1719.434196900952
 20
819.5685138390418
 30
0.0
1001
ACAD
1000
DSTYLE
1002
{
1070
   147
1040
6.25
1070
    77
1070
     0
1070
   371
1070
    18
1070
   372
1070
    18
1002
}
  0
DIMENSION
  5
1514
330
1F
100
AcDbEntity
  8
実形
100
AcDbDimension
  2
*D11
 10
2317.899627132798
 20
566.132923262845
 30
0.0
 11
2267.899627132799
 21
584.882923262845
 31
0.0
 70
    32
  1
10
 71
     5
 42
99.99999999999955
  3
ISO-25
100
AcDbAlignedDimension
 13
2217.899627132799
 23
654.3938049223925
 33
0.0
 14
2317.899627132798
 24
654.3938049223925
 34
0.0
100
AcDbRotatedDimension
1001
ACAD
1000
DSTYLE
1002
{
1070
   371
1070
    18
1070
   372
1070
    18
1002
}
  0
DIMENSION
  5
1515
330
1F
100
AcDbEntity
  8
実形
100
AcDbDimension
  2
*D12
 10
2217.750478700636
 20
566.132923262845
 30
0.0
 11
2192.825052916717
 21
566.132923262845
 31
0.0
 70
   160
  1
5
 71
     5
 42
49.85085156783725
  3
ISO-25
100
AcDbAlignedDimension
 13
2167.899627132798
 23
654.3938049223925
 33
0.0
 14
2217.750478700636
 24
654.3938049223925
 34
0.0
100
AcDbRotatedDimension
1001
ACAD
1000
DSTYLE
1002
{
1070
   371
1070
    18
1070
   372
1070
    18
1002
}
  0
LINE
  5
1516
330
1F
100
AcDbEntity
  8
実形
100
AcDbLine
 10
1867.899627132799
 20
741.7745986296067
 30
0.0
 11
2267.899627132799
 21
741.7745986296067
 31
0.0
  0
LINE
  5
1517
330
1F
100
AcDbEntity
  8
実形
100
AcDbLine
 10
2139.062681594319
 20
622.0870986296067
 30
0.0
 11
2139.062681594319
 21
646.4620986296067
 31
0.0
  0
LINE
  5
1518
330
1F
100
AcDbEntity
  8
実形
100
AcDbLine
 10
2139.062681594319
 20
646.4620986296067
 30
0.0
 11
2171.647406177582
 21
646.4620986296067
 31
0.0
  0
DIMENSION
  5
1519
330
1F
100
AcDbEntity
  8
実形
100
AcDbDimension
  2
*D13
 10
2047.899627132799
 20
804.2436145081255
 30
0.0
 11
1957.899627132799
 21
822.9936145081255
 31
0.0
 70
    32
  1
18
 71
     5
 42
180.0
  3
ISO-25
100
AcDbAlignedDimension
 13
1867.899627132799
 23
706.2498690356979
 33
0.0
 14
2047.899627132799
 24
706.2498690356979
 34
0.0
100
AcDbRotatedDimension
1001
ACAD
1000
DSTYLE
1002
{
1070
   371
1070
    18
1070
   372
1070
    18
1002
}
  0
DIMENSION
  5
151A
330
1F
100
AcDbEntity
  8
実形
100
AcDbDimension
  2
*D14
 10
2317.899627132799
 20
865.148744994477
 30
0.0
 11
2067.899627132799
 21
883.898744994477
 31
0.0
 70
    32
  1
50
 71
     5
 42
500.0
  3
ISO-25
100
AcDbAlignedDimension
 13
1817.899627132799
 23
711.188318796132
 33
0.0
 14
2317.899627132799
 24
705.1883187961321
 34
0.0
100
AcDbRotatedDimension
1001
ACAD
1000
DSTYLE
1002
{
1070
   371
1070
    18
1070
   372
1070
    18
1002
}
  0
LINE
  5
151B
330
1F
100
AcDbEntity
  8
実形
100
AcDbLine
 10
2317.899627132799
 20
691.7745986296069
 30
0.0
 11
2317.899627132799
 21
621.7745986296068
 31
0.0
  0
LINE
  5
151C
330
1F
100
AcDbEntity
  8
実形
100
AcDbLine
 10
2267.899627132799
 20
741.7745986296067
 30
0.0
 11
2317.899627132799
 21
691.7745986296067
 31
0.0
  0
DIMENSION
  5
151D
330
1F
100
AcDbEntity
  8
実形
100
AcDbDimension
  2
*D15
 10
2389.409955385397
 20
691.7745986296067
 30
0.0
 11
2370.659955385397
 21
716.7745986296071
 31
0.0
 70
    32
  1
5
 71
     5
 42
50.0
  3
ISO-25
100
AcDbAlignedDimension
 13
2281.301992771529
 23
741.7745986296067
 33
0.0
 14
2281.301992771529
 24
691.7745986296067
 34
0.0
 50
90.0
100
AcDbRotatedDimension
1001
ACAD
1000
DSTYLE
1002
{
1070
   371
1070
    18
1070
   372
1070
    18
1002
}
  0
DIMENSION
  5
151E
330
1F
100
AcDbEntity
  8
実形
100
AcDbDimension
  2
*D16
 10
2317.899627132799
 20
817.6685318953046
 30
0.0
 11
2292.899627132799
 21
836.4185318953046
 31
0.0
 70
    32
  1
5
 71
     5
 42
50.0
  3
ISO-25
100
AcDbAlignedDimension
 13
2267.899627132799
 23
705.1883187961321
 33
0.0
 14
2317.899627132799
 24
705.1883187961321
 34
0.0
100
AcDbRotatedDimension
1001
ACAD
1000
DSTYLE
1002
{
1070
   371
1070
    18
1070
   372
1070
    18
1002
}
  0
TEXT
  5
151F
330
1F
100
AcDbEntity
  8
実形
  6
HIDDEN2
100
AcDbText
 10
2144.945147181634
 20
638.6576570747565
 30
0.0
 40
13.0
  1
● 
 71
     2
100
AcDbText
  0
TEXT
  5
1520
330
1F
100
AcDbEntity
  8
実形
  6
HIDDEN2
100
AcDbText
 10
2144.467519080574
 20
616.2156961895816
 30
0.0
 40
13.0
  1
● 
 71
     2
100
AcDbText
  0
DIMENSION
  5
1521
330
1F
100
AcDbEntity
  8
実形
100
AcDbDimension
  2
*D17
 10
2091.1279909282
 20
621.7745986296067
 30
0.0
 11
2072.377990928199
 21
646.7745986296071
 31
0.0
 70
    32
  1
5
 71
     5
 42
50.0
  3
ISO-25
100
AcDbAlignedDimension
 13
1996.610652705695
 23
671.7745986296067
 33
0.0
 14
1996.610652705695
 24
621.7745986296067
 34
0.0
 50
90.0
100
AcDbRotatedDimension
1001
ACAD
1000
DSTYLE
1002
{
1070
   371
1070
    18
1070
   372
1070
    18
1002
}
  0
LEADER
  5
1522
330
1F
100
AcDbEntity
  8
実形
100
AcDbLeader
  3
ISO-25
 76
     2
 10
1808.619821546484
 20
612.1978858294769
 30
0.0
 10
1701.016748162185
 20
544.5826408523116
 30
0.0
1001
ACAD
1000
DSTYLE
1002
{
1070
   147
1040
6.25
1070
    77
1070
     0
1070
   371
1070
    18
1070
   372
1070
    18
1002
}
  0
TEXT
  5
1523
330
1F
100
AcDbEntity
  8
実形
100
AcDbText
 10
2130.219165043888
 20
627.9919864037419
 30
0.0
 40
25.0
  1
3
 50
90.0
 11
2133.552498377222
 21
627.9919864037419
 31
0.0
100
AcDbText
 73
     1
  0
LEADER
  5
1524
330
1F
100
AcDbEntity
  8
実形
100
AcDbLeader
  3
ISO-25
 76
     2
 10
2322.80379030641
 20
616.8598495531641
 30
0.0
 10
2398.553954792958
 20
569.2926377726962
 30
0.0
1001
ACAD
1000
DSTYLE
1002
{
1070
   147
1040
6.25
1070
    77
1070
     0
1070
   371
1070
    18
1070
   372
1070
    18
1002
}
  0
LEADER
  5
1525
330
1F
100
AcDbEntity
  8
実形
100
AcDbLeader
  3
ISO-25
 76
     2
 10
2303.255273845019
 20
734.3053176605372
 30
0.0
 10
2432.518009127802
 20
815.3861860887101
 30
0.0
1001
ACAD
1000
DSTYLE
1002
{
1070
   147
1040
6.25
1070
    77
1070
     0
1070
   371
1070
    18
1070
   372
1070
    18
1002
}
  0
LEADER
  5
1526
330
1F
100
AcDbEntity
  8
実形
100
AcDbLeader
  3
ISO-25
 76
     2
 10
1868.132181531267
 20
457.1562668605093
 30
0.0
 10
1696.752901796543
 20
317.3384005179905
 30
0.0
1001
ACAD
1000
DSTYLE
1002
{
1070
   147
1040
6.25
1070
    77
1070
     0
1070
   371
1070
    18
1070
   372
1070
    18
1002
}
  0
TEXT
  5
1527
330
1F
100
AcDbEntity
  8
実形
100
AcDbText
 10
1950.122021996694
 20
679.8525598878168
 30
0.0
 40
25.0
  1
2
 50
90.0
 11
1953.455355330027
 21
679.8525598878168
 31
0.0
100
AcDbText
 73
     1
  0
LINE
  5
1528
330
1F
100
AcDbEntity
  8
実形
100
AcDbLine
 10
1966.866492664204
 20
690.6858617352754
 30
0.0
 11
1991.031584471474
 21
690.6858617352754
 31
0.0
  0
DIMENSION
  5
1529
330
1F
100
AcDbEntity
  8
実形
100
AcDbDimension
  2
*D18
 10
2077.899627132798
 20
489.0759292349884
 30
0.0
 11
1987.899627132798
 21
507.8259292349884
 31
0.0
 70
    32
  1
18
 71
     5
 42
180.0
  3
ISO-25
100
AcDbAlignedDimension
 13
1897.899627132798
 23
577.5399579777349
 33
0.0
 14
2077.899627132798
 24
577.5399579777349
 34
0.0
100
AcDbRotatedDimension
1001
ACAD
1000
DSTYLE
1002
{
1070
   371
1070
    18
1070
   372
1070
    18
1002
}
  0
DIMENSION
  5
152A
330
1F
100
AcDbEntity
  8
実形
100
AcDbDimension
  2
*D19
 10
2125.611732425682
 20
543.3475735696974
 30
0.0
 11
2106.861732425683
 21
578.3475735696978
 31
0.0
 70
    32
  1
7
 71
     5
 42
70.0
  3
ISO-25
100
AcDbAlignedDimension
 13
2042.667552183736
 23
613.3475735696975
 33
0.0
 14
2042.667552183736
 24
543.3475735696974
 34
0.0
 50
90.0
100
AcDbRotatedDimension
1001
ACAD
1000
DSTYLE
1002
{
1070
   371
1070
    18
1070
   372
1070
    18
1002
}
  0
TEXT
  5
152B
330
1F
100
AcDbEntity
  8
実形
370
    18
100
AcDbText
 10
1647.952023221997
 20
935.6785898056941
 30
0.0
 40
40.0
  1
A-A´断面詳細図
100
AcDbText
  0
LINE
  5
152C
330
1F
100
AcDbEntity
  8
実形
100
AcDbLine
 10
1979.735758068987
 20
613.3475735696975
 30
0.0
 11
1962.760059772732
 21
613.3475735696975
 31
0.0
  0
LINE
  5
152D
330
1F
100
AcDbEntity
  8
実形
100
AcDbLine
 10
1962.760059772732
 20
613.3475735696975
 30
0.0
 11
1962.760059772733
 21
643.3475735696974
 31
0.0
  0
TEXT
  5
152E
330
1F
100
AcDbEntity
  8
実形
  6
HIDDEN2
100
AcDbText
 10
1968.625968949773
 20
607.4759836678931
 30
0.0
 40
13.0
  1
● 
 71
     2
100
AcDbText
  0
TEXT
  5
152F
330
1F
100
AcDbEntity
  8
実形
  6
HIDDEN2
100
AcDbText
 10
1968.426390955703
 20
636.006153542412
 30
0.0
 40
13.0
  1
● 
 71
     2
100
AcDbText
  0
TEXT
  5
1530
330
1F
100
AcDbEntity
  8
実形
100
AcDbText
 10
1943.306793804806
 20
614.1722475894339
 30
0.0
 40
25.0
  1
3
 50
90.0
 11
1946.640127138139
 21
614.1722475894339
 31
0.0
100
AcDbText
 73
     1
  0
LINE
  5
1531
330
1F
100
AcDbEntity
  8
実形
100
AcDbLine
 10
1997.388073958595
 20
689.3203850017734
 30
0.0
 11
1997.388073958595
 21
701.887567216354
 31
0.0
  0
LINE
  5
1532
330
1F
100
AcDbEntity
  8
実形
100
AcDbLine
 10
1997.388073958595
 20
701.887567216354
 30
0.0
 11
2047.388073958595
 21
701.887567216354
 31
0.0
  0
LINE
  5
1533
330
1F
100
AcDbEntity
  8
実形
100
AcDbLine
 10
2047.388073958595
 20
701.887567216354
 30
0.0
 11
2047.388073958595
 21
689.3203850017734
 31
0.0
  0
LINE
  5
1534
330
1F
100
AcDbEntity
  8
実形
100
AcDbLine
 10
2037.388073958595
 20
701.887567216354
 30
0.0
 11
2037.388073958595
 21
689.3203850017734
 31
0.0
  0
TEXT
  5
1535
330
1F
100
AcDbEntity
  8
実形
370
    18
100
AcDbText
 10
1994.600818876664
 20
713.3745043081298
 30
0.0
 40
21.0
  1
4
100
AcDbText
  0
TEXT
  5
1536
330
1F
100
AcDbEntity
  8
実形
  6
HIDDEN2
100
AcDbText
 10
2003.3181555003
 20
695.656007764187
 30
0.0
 40
11.0
  1
● 
 71
     2
100
AcDbText
  0
TEXT
  5
1537
330
1F
100
AcDbEntity
  8
実形
  6
HIDDEN2
100
AcDbText
 10
2042.763207470307
 20
695.4612187641778
 30
0.0
 40
11.0
  1
● 
 71
     2
100
AcDbText
  0
TEXT
  5
1538
330
1F
100
AcDbEntity
  8
実形
  6
HIDDEN2
100
AcDbText
 10
2052.625333600898
 20
695.6827726649517
 30
0.0
 40
11.0
  1
● 
 71
     2
100
AcDbText
  0
TEXT
  5
1539
330
1F
100
AcDbEntity
  8
実形
370
    18
100
AcDbText
 10
2037.911668312217
 20
712.525535607403
 30
0.0
 40
21.0
  1
1
100
AcDbText
  0
LINE
  5
1623
330
1F
100
AcDbEntity
  8
実形
100
AcDbLine
 10
1842.665770637529
 20
1284.599516661139
 30
0.0
 11
1842.665770637529
 21
1724.599516661139
 31
0.0
  0
LINE
  5
1624
330
1F
100
AcDbEntity
  8
実形
100
AcDbLine
 10
1842.665770637529
 20
1681.400838330832
 30
0.0
 11
1842.665770637529
 21
1284.599516661139
 31
0.0
  0
LINE
  5
1625
330
1F
100
AcDbEntity
  8
実形
100
AcDbLine
 10
1842.665770637529
 20
1299.599516661139
 30
0.0
 11
1842.665770637529
 21
1281.599516661139
 31
0.0
  0
LINE
  5
1626
330
1F
100
AcDbEntity
  8
実形
100
AcDbLine
 10
1842.665770637529
 20
1281.599516661139
 30
0.0
 11
1835.665770637529
 21
1281.599516661139
 31
0.0
  0
LINE
  5
1627
330
1F
100
AcDbEntity
  8
実形
100
AcDbLine
 10
1835.665770637529
 20
1281.599516661139
 30
0.0
 11
1835.665770637529
 21
1254.599516661139
 31
0.0
  0
LINE
  5
1628
330
1F
100
AcDbEntity
  8
実形
100
AcDbLine
 10
1823.665770637529
 20
1259.599516661139
 30
0.0
 11
1823.665770637529
 21
1661.174674629376
 31
0.0
  0
LINE
  5
1629
330
1F
100
AcDbEntity
  8
実形
100
AcDbLine
 10
1823.665770637529
 20
1259.599516661139
 30
0.0
 11
1828.665770637529
 21
1254.599516661139
 31
0.0
  0
LINE
  5
162A
330
1F
100
AcDbEntity
  8
実形
100
AcDbLine
 10
1842.665770637529
 20
1284.59951666114
 30
0.0
 11
1842.665770637529
 21
1681.400838330832
 31
0.0
  0
LINE
  5
162B
330
1F
100
AcDbEntity
  8
実形
100
AcDbLine
 10
1835.665770637529
 20
1668.253837682613
 30
0.0
 11
1835.665770637529
 21
1281.599516661139
 31
0.0
  0
LINE
  5
162C
330
1F
100
AcDbEntity
  8
実形
100
AcDbLine
 10
1842.665770637529
 20
1299.599516661139
 30
0.0
 11
1842.665770637529
 21
1281.599516661139
 31
0.0
  0
LINE
  5
162D
330
1F
100
AcDbEntity
  8
実形
100
AcDbLine
 10
1828.665770637529
 20
1254.599516661139
 30
0.0
 11
1835.665770637529
 21
1254.599516661139
 31
0.0
  0
LEADER
  5
1637
330
1F
100
AcDbEntity
  8
実形
100
AcDbLeader
  3
ISO-25
 40
25.0
 41
16.66666666666666
 76
     2
 10
1820.447342384119
 20
1758.649344940881
 30
0.0
 10
1779.863452149908
 20
1792.73322385093
 30
0.0
211
-1.0
221
0.0
231
0.0
213
0.0
223
-12.5
233
0.0
1001
ACAD
1000
DSTYLE
1002
{
1070
    41
1040
25.0
1070
   147
1040
6.25
1070
    77
1070
     0
1070
    73
1070
     1
1070
    74
1070
     1
1070
   279
1070
     1
1070
   342
1005
DA
1002
}
  0
TEXT
  5
1638
330
1F
100
AcDbEntity
  8
実形
100
AcDbText
 10
1747.416567918874
 20
1803.324830346788
 30
0.0
 40
25.0
  1
5C
100
AcDbText
  0
LEADER
  5
1639
330
1F
100
AcDbEntity
  8
実形
100
AcDbLeader
  3
ISO-25
 40
25.0
 41
16.66666666666666
 76
     2
 10
1820.447342384119
 20
1250.549688381398
 30
0.0
 10
1779.863452149908
 20
1216.465809471349
 30
0.0
211
-1.0
221
0.0
231
0.0
213
0.0
223
12.5
233
0.0
1001
ACAD
1000
DSTYLE
1002
{
1070
    41
1040
25.0
1070
   147
1040
6.25
1070
    77
1070
     0
1070
    73
1070
     1
1070
    74
1070
     1
1070
   279
1070
     1
1070
   342
1005
DA
1002
}
  0
TEXT
  5
1642
330
1F
100
AcDbEntity
  8
実形
100
AcDbText
 10
1743.178260247933
 20
1180.700125957141
 30
0.0
 40
25.0
  1
5C
100
AcDbText
  0
LINE
  5
1658
330
1F
100
AcDbEntity
  8
実形
100
AcDbLine
 10
735.0559941215562
 20
1254.559516885519
 30
0.0
 11
1345.060502629543
 21
1254.559516885519
 31
0.0
  0
LINE
  5
1660
330
1F
100
AcDbEntity
  8
実形
100
AcDbLine
 10
730.0559941215567
 20
1749.555133750541
 30
0.0
 11
730.0559941215563
 21
1259.559516885518
 31
0.0
  0
LINE
  5
1661
330
1F
100
AcDbEntity
  8
実形
100
AcDbLine
 10
760.0716959882755
 20
1254.559516885519
 30
0.0
 11
1305.060502629543
 21
1254.559516885519
 31
0.0
  0
TEXT
  5
166A
330
1F
100
AcDbEntity
  8
実形
370
    18
100
AcDbText
 10
1227.009123722778
 20
1490.855813322404
 30
0.0
 40
40.0
  1
A     A
100
AcDbText
  0
LINE
  5
167E
330
1F
100
AcDbEntity
  8
実形
100
AcDbLine
 10
735.0559941215567
 20
1754.555133750541
 30
0.0
 11
1345.060502629543
 21
1754.555133750541
 31
0.0
  0
DIMENSION
  5
1815
330
1F
100
AcDbEntity
  8
実形
100
AcDbDimension
  2
*D20
 10
730.0559941215563
 20
1157.983619133327
 30
0.0
 11
755.0559941215563
 21
1175.733619133327
 31
0.0
 70
    32
 71
     5
 42
49.99999999999989
  3
ISO-25
100
AcDbAlignedDimension
 13
780.0559941215563
 23
1272.943619133327
 33
0.0
 14
730.0559941215563
 24
1272.943619133327
 34
0.0
100
AcDbRotatedDimension
1001
ACAD
1000
DSTYLE
1002
{
1070
   140
1040
23.0
1070
   371
1070
    18
1070
   372
1070
    18
1002
}
  0
DIMENSION
  5
1900
330
1F
100
AcDbEntity
  8
実形
100
AcDbDimension
  2
*D21
 10
620.3692614683852
 20
1754.555133750541
 30
0.0
 11
602.619261468385
 21
1729.555133750541
 31
0.0
 70
    32
 71
     5
 42
49.99999999999977
  3
ISO-25
100
AcDbAlignedDimension
 13
751.7795019535289
 23
1704.555133750541
 33
0.0
 14
751.7795019535289
 24
1754.555133750541
 34
0.0
 50
90.0
100
AcDbRotatedDimension
1001
ACAD
1000
DSTYLE
1002
{
1070
   140
1040
23.0
1070
   371
1070
    18
1070
   372
1070
    18
1002
}
  0
DIMENSION
  5
1917
330
1F
100
AcDbEntity
  8
実形
100
AcDbDimension
  2
*D22
 10
620.3692614683851
 20
1254.559516885519
 30
0.0
 11
602.619261468385
 21
1279.559516885519
 31
0.0
 70
    32
 71
     5
 42
50.0
  3
ISO-25
100
AcDbAlignedDimension
 13
751.7795019535281
 23
1304.559516885519
 33
0.0
 14
751.7795019535282
 24
1254.559516885519
 34
0.0
 50
90.0
100
AcDbRotatedDimension
1001
ACAD
1000
DSTYLE
1002
{
1070
   140
1040
23.0
1070
   371
1070
    18
1070
   372
1070
    18
1002
}
  0
DIMENSION
  5
193B
330
1F
100
AcDbEntity
  8
実形
100
AcDbDimension
  2
*D23
 10
555.5440761092322
 20
1254.559516885519
 30
0.0
 11
536.7940761092321
 21
1504.55732531803
 31
0.0
 70
    32
 71
     5
 42
499.9956168650219
  3
ISO-25
100
AcDbAlignedDimension
 13
701.7795019535284
 23
1754.555133750541
 33
0.0
 14
701.7795019535282
 24
1254.559516885519
 34
0.0
 50
90.0
100
AcDbRotatedDimension
1001
ACAD
1000
DSTYLE
1002
{
1070
   371
1070
    18
1070
   372
1070
    18
1002
}
  0
CIRCLE
  5
19B4
330
1F
100
AcDbEntity
  8
実形
100
AcDbCircle
 10
930.6185629794965
 20
1504.654135942404
 30
0.0
 40
79.0
  0
CIRCLE
  5
19B5
330
1F
100
AcDbEntity
  8
実形
100
AcDbCircle
 10
930.6185629794965
 20
1504.654135942404
 30
0.0
 40
90.5
  0
LINE
  5
19B6
330
1F
100
AcDbEntity
  8
実形
  6
ACAD_ISO08W100
370
    15
100
AcDbLine
 10
930.6185629794965
 20
1644.655570227167
 30
0.0
 11
930.6185629794965
 21
1351.966491829566
 31
0.0
  0
LEADER
  5
19BB
330
1F
100
AcDbEntity
  8
実形
100
AcDbLeader
  3
ISO-25
 40
25.0
 41
16.66666666666666
 76
     2
 10
1295.736363238431
 20
1569.255722862229
 30
0.0
 10
1234.905956701896
 20
1569.765849290077
 30
0.0
213
0.0
223
-12.5
233
0.0
1001
ACAD
1000
DSTYLE
1002
{
1070
    41
1040
25.0
1070
   147
1040
6.25
1070
    77
1070
     0
1070
    73
1070
     1
1070
    74
1070
     1
1070
   279
1070
     1
1070
   342
1005
DA
1002
}
  0
ARC
  5
19CD
330
1F
100
AcDbEntity
  8
実形
100
AcDbCircle
 10
1220.149209415424
 20
1386.654339641465
 30
0.0
 40
75.0
100
AcDbArc
 50
274.4520315965517
 51
355.2333129261465
  0
ARC
  5
19CE
330
1F
100
AcDbEntity
  8
実形
100
AcDbCircle
 10
1040.060502629543
 20
3699.654135942405
 30
0.0
 40
2395.0
100
AcDbArc
 50
265.5479684034483
 51
274.4520315965517
  0
ARC
  5
19CF
330
1F
100
AcDbEntity
  8
実形
100
AcDbCircle
 10
859.9717958436626
 20
1386.654339641465
 30
0.0
 40
75.0
100
AcDbArc
 50
184.7666870738535
 51
265.5479684034483
  0
ARC
  5
19D0
330
1F
100
AcDbEntity
  8
実形
100
AcDbCircle
 10
2275.060502629544
 20
1504.654135942404
 30
0.0
 40
1495.0
100
AcDbArc
 50
175.2385291145085
 51
184.7666870738535
  0
ARC
  5
19D1
330
1F
100
AcDbEntity
  8
実形
100
AcDbCircle
 10
859.9610590464745
 20
1622.525102557971
 30
0.0
 40
75.0
100
AcDbArc
 50
94.46826354911962
 51
175.2385291145085
  0
ARC
  5
19D2
330
1F
100
AcDbEntity
  8
実形
100
AcDbCircle
 10
1040.705033790034
 20
-690.4235816099019
 30
0.0
 40
2395.0
100
AcDbArc
 50
85.56387661480664
 51
94.46826354911962
  0
ARC
  5
19D3
330
1F
100
AcDbEntity
  8
実形
100
AcDbCircle
 10
1220.151527708347
 20
1622.626127285353
 30
0.0
 40
75.0
100
AcDbArc
 50
4.765561274858534
 51
85.56387661480664
  0
ARC
  5
19D4
330
1F
100
AcDbEntity
  8
実形
100
AcDbCircle
 10
-194.9394973704563
 20
1504.654135942404
 30
0.0
 40
1495.0
100
AcDbArc
 50
355.2333129261465
 51
4.765561274858534
  0
DIMENSION
  5
19E7
330
1F
100
AcDbEntity
  8
実形
100
AcDbDimension
  2
*D24
 10
1350.060502629543
 20
1100.111482513781
 30
0.0
 11
1040.058248375549
 21
1118.861482513781
 31
0.0
 70
    32
 71
     5
 42
620.0045085079863
  3
ISO-25
100
AcDbAlignedDimension
 13
730.0559941215563
 23
1254.559516885519
 33
0.0
 14
1350.060502629543
 24
1254.559516885519
 34
0.0
100
AcDbRotatedDimension
1001
ACAD
1000
DSTYLE
1002
{
1070
   371
1070
    18
1070
   372
1070
    18
1002
}
  0
LINE
  5
1A11
330
1F
100
AcDbEntity
  8
実形
100
AcDbLine
 10
1350.060502629543
 20
1749.555133750542
 30
0.0
 11
1350.060502629543
 21
1259.559516885518
 31
0.0
  0
DIMENSION
  5
1A32
330
1F
100
AcDbEntity
  8
実形
100
AcDbDimension
  2
*D25
 10
1350.060502629543
 20
1157.983619133327
 30
0.0
 11
1325.060502629543
 21
1175.733619133327
 31
0.0
 70
    32
 71
     5
 42
49.99999999999954
  3
ISO-25
100
AcDbAlignedDimension
 13
1300.060502629543
 23
1273.384674342051
 33
0.0
 14
1350.060502629543
 24
1273.384674342051
 34
0.0
100
AcDbRotatedDimension
1001
ACAD
1000
DSTYLE
1002
{
1070
   140
1040
23.0
1070
   371
1070
    18
1070
   372
1070
    18
1002
}
  0
LINE
  5
1ABE
330
1F
100
AcDbEntity
  8
実形
100
AcDbLine
 10
1367.17101965636
 20
1754.555133750542
 30
0.0
 11
1417.917809415843
 21
1754.555133750542
 31
0.0
  0
HATCH
  5
1ABF
330
1F
100
AcDbEntity
  8
実形
100
AcDbHatch
 10
0.0
 20
0.0
 30
0.0
210
0.0
220
0.0
230
1.0
  2
SOLID
 70
     1
 71
     0
 91
        2
 92
        7
 72
     1
 73
     1
 93
        5
 10
1420.246239968015
 20
1748.027277515364
 42
0.4215773900128738
 10
1417.17101965636
 20
1751.026334351223
 42
0.0
 10
1417.17101965636
 20
1748.127456663903
 42
0.0
 10
1414.247913078198
 20
1748.127456663903
 42
0.008350008729447
 10
1414.246239968015
 20
1748.027277515364
 42
1.0
 97
        0
 92
       23
 72
     1
 73
     1
 93
        3
 10
1417.17101965636
 20
1751.026334351223
 42
0.3971884163904237
 10
1414.247913078198
 20
1748.127456663903
 42
0.0
 10
1417.17101965636
 20
1748.127456663903
 42
0.0
 97
        0
 75
     0
 76
     1
 47
0.0692370396617612
 98
        2
 10
1417.945770971029
 20
1747.459090901511
 10
1416.006536457303
 20
1749.4669579426
  0
LINE
  5
1AC0
330
1F
100
AcDbEntity
  8
実形
100
AcDbLine
 10
1367.17101965636
 20
1748.127456663903
 30
0.0
 11
1417.17101965636
 21
1748.127456663903
 31
0.0
  0
LINE
  5
1AC1
330
1F
100
AcDbEntity
  8
実形
100
AcDbLine
 10
1350.060502629543
 20
1769.92563238142
 30
0.0
 11
1350.060502629543
 21
1819.92563238142
 31
0.0
  0
LINE
  5
1AC2
330
1F
100
AcDbEntity
  8
実形
100
AcDbLine
 10
1343.630502629543
 20
1769.92563238142
 30
0.0
 11
1343.630502629543
 21
1819.92563238142
 31
0.0
  0
LINE
  5
1AC3
330
1F
100
AcDbEntity
  8
実形
100
AcDbLine
 10
1417.17101965636
 20
1748.127456663903
 30
0.0
 11
1417.17101965636
 21
1754.555133750542
 31
0.0
  0
LINE
  5
1AC4
330
1F
100
AcDbEntity
  8
実形
100
AcDbLine
 10
1343.630502629543
 20
1819.92563238142
 30
0.0
 11
1350.060502629544
 21
1819.92563238142
 31
0.0
  0
TEXT
  5
1AC5
330
1F
100
AcDbEntity
  8
実形
370
    18
100
AcDbText
 10
1339.887249616646
 20
1832.994761690524
 30
0.0
 40
25.0
  1
5
100
AcDbText
  0
TEXT
  5
1AC6
330
1F
100
AcDbEntity
  8
実形
370
    18
100
AcDbText
 10
1407.381612078123
 20
1828.319918436911
 30
0.0
 40
25.0
  1
5C
100
AcDbText
  0
LEADER
  5
1AC7
330
1F
100
AcDbEntity
  8
実形
100
AcDbLeader
  3
ISO-25
 40
25.0
 41
16.66666666666666
 76
     2
 10
1361.0076337772
 20
1759.959159773483
 30
0.0
 10
1417.599614374245
 20
1817.319339109426
 30
0.0
213
0.0
223
-12.5
233
0.0
1001
ACAD
1000
DSTYLE
1002
{
1070
    41
1040
25.0
1070
   147
1040
6.25
1070
    77
1070
     0
1070
    73
1070
     1
1070
    74
1070
     1
1070
   279
1070
     1
1070
   342
1005
DA
1002
}
  0
TEXT
  5
1AC8
330
1F
100
AcDbEntity
  8
実形
370
    18
100
AcDbText
 10
1459.931216236746
 20
1743.558627105303
 30
0.0
 40
25.0
  1
5
 50
90.0
100
AcDbText
  0
CIRCLE
  5
1AC9
330
1F
100
AcDbEntity
  8
実形
100
AcDbCircle
 10
1417.246239968015
 20
1748.027277515364
 30
0.0
 40
3.0
  0
HATCH
  5
1ACA
330
1F
100
AcDbEntity
  8
実形
100
AcDbHatch
 10
0.0
 20
0.0
 30
0.0
210
0.0
220
0.0
230
1.0
  2
SOLID
 70
     1
 71
     0
 91
        2
 92
        7
 72
     1
 73
     1
 93
        5
 10
1420.344321647193
 20
1754.682549858565
 42
0.4215773900128738
 10
1417.269101335538
 20
1757.681606694425
 42
0.0
 10
1417.269101335538
 20
1754.782729007105
 42
0.0
 10
1414.345994757376
 20
1754.782729007105
 42
0.008350008729447
 10
1414.344321647193
 20
1754.682549858565
 42
1.0
 97
        0
 92
       23
 72
     1
 73
     1
 93
        3
 10
1417.269101335538
 20
1757.681606694425
 42
0.3971884163904237
 10
1414.345994757376
 20
1754.782729007104
 42
0.0
 10
1417.269101335538
 20
1754.782729007104
 42
0.0
 97
        0
 75
     0
 76
     1
 47
0.0692370396617612
 98
        2
 10
1418.043852650207
 20
1754.114363244712
 10
1416.104618136481
 20
1756.122230285802
  0
CIRCLE
  5
1ACB
330
1F
100
AcDbEntity
  8
実形
100
AcDbCircle
 10
1417.344321647193
 20
1754.682549858565
 30
0.0
 40
3.0
  0
HATCH
  5
1ACC
330
1F
100
AcDbEntity
  8
実形
100
AcDbHatch
 10
0.0
 20
0.0
 30
0.0
210
0.0
220
0.0
230
1.0
  2
SOLID
 70
     1
 71
     0
 91
        2
 92
        7
 72
     1
 73
     1
 93
        5
 10
1346.525085228377
 20
1819.987389883466
 42
0.4215773900128738
 10
1343.449864916721
 20
1822.986446719325
 42
0.0
 10
1343.449864916721
 20
1820.087569032006
 42
0.0
 10
1340.52675833856
 20
1820.087569032006
 42
0.008350008729447
 10
1340.525085228377
 20
1819.987389883466
 42
1.0
 97
        0
 92
       23
 72
     1
 73
     1
 93
        3
 10
1343.449864916722
 20
1822.986446719325
 42
0.3971884163904237
 10
1340.52675833856
 20
1820.087569032005
 42
0.0
 10
1343.449864916722
 20
1820.087569032005
 42
0.0
 97
        0
 75
     0
 76
     1
 47
0.0692370396617612
 98
        2
 10
1344.224616231391
 20
1819.419203269613
 10
1342.285381717665
 20
1821.427070310702
  0
CIRCLE
  5
1ACD
330
1F
100
AcDbEntity
  8
実形
100
AcDbCircle
 10
1343.525085228377
 20
1819.987389883466
 30
0.0
 40
3.0
  0
HATCH
  5
1ACE
330
1F
100
AcDbEntity
  8
実形
100
AcDbHatch
 10
0.0
 20
0.0
 30
0.0
210
0.0
220
0.0
230
1.0
  2
SOLID
 70
     1
 71
     0
 91
        2
 92
        7
 72
     1
 73
     1
 93
        5
 10
1352.900528590322
 20
1819.987389883466
 42
0.4215773900128738
 10
1349.825308278666
 20
1822.986446719325
 42
0.0
 10
1349.825308278666
 20
1820.087569032006
 42
0.0
 10
1346.902201700505
 20
1820.087569032006
 42
0.008350008729447
 10
1346.900528590322
 20
1819.987389883466
 42
1.0
 97
        0
 92
       23
 72
     1
 73
     1
 93
        3
 10
1349.825308278667
 20
1822.986446719325
 42
0.3971884163904237
 10
1346.902201700505
 20
1820.087569032005
 42
0.0
 10
1349.825308278667
 20
1820.087569032005
 42
0.0
 97
        0
 75
     0
 76
     1
 47
0.0692370396617612
 98
        2
 10
1350.600059593336
 20
1819.419203269613
 10
1348.66082507961
 20
1821.427070310702
  0
CIRCLE
  5
1ACF
330
1F
100
AcDbEntity
  8
実形
100
AcDbCircle
 10
1349.900528590322
 20
1819.987389883466
 30
0.0
 40
3.0
  0
LINE
  5
1AD0
330
1F
100
AcDbEntity
  8
実形
100
AcDbLine
 10
1345.060502629543
 20
1754.555133750542
 30
0.0
 11
1350.060502629543
 21
1749.555133750542
 31
0.0
  0
LINE
  5
1ADC
330
1F
100
AcDbEntity
  8
実形
100
AcDbLine
 10
730.0559941215566
 20
1749.555133750541
 30
0.0
 11
735.0559941215566
 21
1754.555133750541
 31
0.0
  0
LINE
  5
1ADD
330
1F
100
AcDbEntity
  8
実形
100
AcDbLine
 10
730.0559941215563
 20
1259.559516885519
 30
0.0
 11
735.0559941215564
 21
1254.559516885519
 31
0.0
  0
LINE
  5
1ADE
330
1F
100
AcDbEntity
  8
実形
100
AcDbLine
 10
1345.060502629543
 20
1254.559516885519
 30
0.0
 11
1350.060502629543
 21
1259.559516885519
 31
0.0
  0
LINE
  5
1AE7
330
1F
100
AcDbEntity
  8
実形
  6
ACAD_ISO08W100
 48
0.5
370
    15
100
AcDbLine
 10
1280.766637625728
 20
1505.391372074923
 30
0.0
 11
1376.494493260943
 21
1505.391372074923
 31
0.0
  0
LINE
  5
1AF1
330
1F
100
AcDbEntity
  8
実形
  6
ACAD_ISO08W100
 48
0.7
370
    15
100
AcDbLine
 10
818.1228225231897
 20
1504.555133750541
 30
0.0
 11
1051.73520543588
 21
1504.555133750541
 31
0.0
  0
LINE
  5
1AF2
330
1F
100
AcDbEntity
  8
実形
100
AcDbLine
 10
1416.152514155021
 20
1524.791306362575
 30
0.0
 11
1426.129014940203
 21
1536.426952803003
 31
0.0
  0
DIMENSION
  5
1B08
330
1F
100
AcDbEntity
  8
実形
100
AcDbDimension
  2
*D26
 10
620.3692614683852
 20
1304.559516885519
 30
0.0
 11
601.619261468385
 21
1504.55732531803
 31
0.0
 70
    32
 71
     5
 42
399.9956168650222
  3
ISO-25
100
AcDbAlignedDimension
 13
686.7795019535289
 23
1704.555133750541
 33
0.0
 14
686.7795019535289
 24
1304.559516885519
 34
0.0
 50
90.0
100
AcDbRotatedDimension
1001
ACAD
1000
DSTYLE
1002
{
1070
   371
1070
    18
1070
   372
1070
    18
1002
}
  0
DIMENSION
  5
1B39
330
1F
100
AcDbEntity
  8
実形
100
AcDbDimension
  2
*D27
 10
1300.060502629543
 20
1157.983619133327
 30
0.0
 11
1040.05824837555
 21
1176.733619133327
 31
0.0
 70
    32
 71
     5
 42
520.0045085079868
  3
ISO-25
100
AcDbAlignedDimension
 13
780.0559941215563
 23
1207.943619133327
 33
0.0
 14
1300.060502629543
 24
1207.943619133327
 34
0.0
100
AcDbRotatedDimension
1001
ACAD
1000
DSTYLE
1002
{
1070
    76
1070
     1
1070
    75
1070
     1
1070
   282
1070
     1
1070
   281
1070
     1
1070
   371
1070
    18
1070
   372
1070
    18
1002
}
  0
LINE
  5
1B4F
330
1F
100
AcDbEntity
  8
実形
100
AcDbLine
 10
780.0559941215563
 20
1207.943619133327
 30
0.0
 11
780.0559941215563
 21
1157.983619133327
 31
0.0
  0
LINE
  5
1B50
330
1F
100
AcDbEntity
  8
実形
100
AcDbLine
 10
780.0559941215563
 20
1157.983619133327
 30
0.0
 11
1300.060502629543
 21
1157.983619133327
 31
0.0
  0
LINE
  5
1B51
330
1F
100
AcDbEntity
  8
実形
100
AcDbLine
 10
1300.060502629543
 20
1157.983619133327
 30
0.0
 11
1300.060502629543
 21
1208.384674342051
 31
0.0
  0
TEXT
  5
1E4A
330
1F
100
AcDbEntity
  8
実形
100
AcDbText
 10
2286.667433317402
 20
146.871873564718
 30
0.0
 40
35.0
  1
Jstn620ｰ500S
 72
     4
 11
2475.084099984069
 21
164.371873564718
 31
0.0
100
AcDbText
  0
LINE
  5
1EB3
330
1F
100
AcDbEntity
  8
実形
100
AcDbLine
 10
1051.73520543588
 20
1504.555133750541
 30
0.0
 11
1051.73520543588
 21
1504.555133750541
 31
0.0
  0
DIMENSION
  5
1EB4
330
1F
100
AcDbEntity
  8
実形
100
AcDbDimension
  2
*D28
 10
1040.086924886862
 20
1504.555133750541
 30
0.0
 11
1021.336924886862
 21
1604.565728968635
 31
0.0
 70
    32
  1
200
 71
     5
 42
200.0211904361872
  3
ISO-25
100
AcDbAlignedDimension
 13
960.9231530761899
 23
1704.576324186728
 33
0.0
 14
944.123262482557
 24
1504.555133750541
 34
0.0
 50
90.0
100
AcDbRotatedDimension
1001
ACAD
1000
DSTYLE
1002
{
1070
   371
1070
    18
1070
   372
1070
    18
1002
}
  0
DIMENSION
  5
2317
330
1F
100
AcDbEntity
  8
実形
100
AcDbDimension
  2
*D40
 10
2167.899627132798
 20
804.2436145081255
 30
0.0
 11
2107.899627132798
 21
822.9936145081255
 31
0.0
 70
    32
  1
12
 71
     5
 42
120.0
  3
ISO-25
100
AcDbAlignedDimension
 13
2047.899627132798
 23
711.6596186260776
 33
0.0
 14
2167.899627132798
 24
708.104142275144
 34
0.0
100
AcDbRotatedDimension
1001
ACAD
1000
DSTYLE
1002
{
1070
   371
1070
    18
1070
   372
1070
    18
1002
}
  0
TEXT
  5
2455
330
1F
100
AcDbEntity
  8
実形
100
AcDbText
 10
161.9866661664982
 20
58.14426619328606
 30
0.0
 40
30.0
  1
※実寸には製造上の誤差(+5/-1mm)が生ずる場合があります｡シンクの穴あけ加工は現物合わせにてお願いします。
100
AcDbText
  0
VIEWPORT
  5
2E
102
{ACAD_XDICTIONARY
360
2477
102
}
330
1B
100
AcDbEntity
 67
     1
  8
0
100
AcDbViewport
 10
144.7270812988281
 20
101.2295806407928
 30
0.0
 40
411.6736216682419
 41
222.1517806396485
 68
     1
 69
     1
 12
144.7270812988281
 22
101.2295806407928
 13
0.0
 23
0.0
 14
10.0
 24
10.0
 15
10.0
 25
10.0
 16
0.0
 26
0.0
 36
1.0
 17
0.0
 27
0.0
 37
0.0
 42
50.0
 43
0.0
 44
0.0
 45
222.1517806396485
 50
0.0
 51
0.0
 72
   100
 90
    32800
  1

281
     0
 71
     1
 74
     0
110
0.0
120
0.0
130
0.0
111
1.0
121
0.0
131
0.0
112
0.0
122
1.0
132
0.0
 79
     0
146
0.0
  0
VIEWPORT
  5
30
102
{ACAD_XDICTIONARY
360
2479
102
}
330
1B
100
AcDbEntity
 67
     1
  8
0
100
AcDbViewport
 10
139.2237563133239
 20
101.2295821905136
 30
0.0
 40
222.7580101013184
 41
161.9673315048218
 68
     2
 69
     2
 12
210.0
 22
148.5
 13
0.0
 23
0.0
 14
10.0
 24
10.0
 15
10.0
 25
10.0
 16
0.0
 26
0.0
 36
1.0
 17
0.0
 27
0.0
 37
0.0
 42
50.0
 43
0.0
 44
0.0
 45
309.0686705647124
 50
0.0
 51
0.0
 72
   100
 90
    32864
  1

281
     0
 71
     1
 74
     0
110
0.0
120
0.0
130
0.0
111
1.0
121
0.0
131
0.0
112
0.0
122
1.0
132
0.0
 79
     0
146
0.0
  0
ENDSEC
  0
SECTION
  2
OBJECTS
  0
DICTIONARY
  5
C
330
0
100
AcDbDictionary
281
     1
  3
ACAD_COLOR
350
1159
  3
ACAD_GROUP
350
D
  3
ACAD_LAYOUT
350
1A
  3
ACAD_MATERIAL
350
1158
  3
ACAD_MLINESTYLE
350
17
  3
ACAD_PLOTSETTINGS
350
19
  3
ACAD_PLOTSTYLENAME
350
E
  3
ACAD_TABLESTYLE
350
115A
  3
AcadDim
350
124
  3
ACDBHEADERROUNDTRIPXREC
350
2470
  3
AcDbVariableDictionary
350
11C7
  0
DICTIONARY
  5
11D6
330
2
100
AcDbDictionary
280
     1
281
     1
  3
ACAD_LAYERFILTERS
360
1B07
  3
ACAD_LAYERSTATES
360
11D7
  3
ACLYDICTIONARY
360
1B06
  0
DICTIONARY
  5
1318
330
1F
100
AcDbDictionary
280
     1
281
     1
  3
ACAD_SORTENTS
360
1319
  0
DICTIONARY
  5
2049
330
1FF4
100
AcDbDictionary
280
     1
281
     1
  3
ACAD_SORTENTS
360
204A
  0
DICTIONARY
  5
2477
330
2E
100
AcDbDictionary
280
     1
281
     1
  3
ACAD_XREC_ROUNDTRIP
360
2478
  0
DICTIONARY
  5
2479
330
30
100
AcDbDictionary
280
     1
281
     1
  3
ACAD_XREC_ROUNDTRIP
360
247A
  0
DICTIONARY
  5
1159
102
{ACAD_REACTORS
330
C
102
}
330
C
100
AcDbDictionary
281
     1
  0
DICTIONARY
  5
D
102
{ACAD_REACTORS
330
C
102
}
330
C
100
AcDbDictionary
281
     1
  0
DICTIONARY
  5
1A
102
{ACAD_REACTORS
330
C
102
}
330
C
100
AcDbDictionary
281
     1
  3
Model
350
22
  3
ﾚｲｱｳﾄ1
350
1E
  3
ﾚｲｱｳﾄ2
350
26
  0
DICTIONARY
  5
1158
102
{ACAD_REACTORS
330
C
102
}
330
C
100
AcDbDictionary
281
     1
  0
DICTIONARY
  5
17
102
{ACAD_REACTORS
330
C
102
}
330
C
100
AcDbDictionary
281
     1
  3
Standard
350
18
  0
DICTIONARY
  5
19
102
{ACAD_REACTORS
330
C
102
}
330
C
100
AcDbDictionary
281
     1
  0
ACDBDICTIONARYWDFLT
  5
E
102
{ACAD_REACTORS
330
C
102
}
330
C
100
AcDbDictionary
281
     1
  3
Normal
350
F
100
AcDbDictionaryWithDefault
340
F
  0
DICTIONARY
  5
115A
102
{ACAD_REACTORS
330
C
102
}
330
C
100
AcDbDictionary
281
     1
  3
Standard
350
115B
  0
XRECORD
  5
124
102
{ACAD_REACTORS
330
C
102
}
330
C
100
AcDbXrecord
280
     1
 90
   990106
  3

 60
     0
 61
     0
 62
     1
 63
     3
 64
     0
 65
     0
 66
     0
 67
     3
 68
     1
 69
     0
 70
     0
 71
     0
 72
     0
 40
30.0
170
     0
  0
DICTIONARY
  5
2470
102
{ACAD_REACTORS
330
C
102
}
330
C
100
AcDbDictionary
281
     1
  0
DICTIONARY
  5
11C7
102
{ACAD_REACTORS
330
C
102
}
330
C
100
AcDbDictionary
281
     1
  3
CTABLESTYLE
350
11C8
  3
DIMASSOC
350
246D
  3
PROJECTNAME
350
246E
  0
DICTIONARY
  5
1B07
102
{ACAD_REACTORS
330
11D6
102
}
330
11D6
100
AcDbDictionary
281
     1
  0
DICTIONARY
  5
11D7
102
{ACAD_REACTORS
330
11D6
102
}
330
11D6
100
AcDbDictionary
281
     1
  0
DICTIONARY
  5
1B06
102
{ACAD_REACTORS
330
11D6
102
}
330
11D6
100
AcDbDictionary
281
     1
1001
ACAD
1000
<All
  0
SORTENTSTABLE
  5
1319
102
{ACAD_REACTORS
330
1318
102
}
330
1318
100
AcDbSortentsTable
330
1F
331
1128
  5
1130
331
130E
  5
133B
331
1130
  5
1138
331
11AF
  5
130C
331
13E5
  5
140C
331
14F4
  5
14FB
331
1533
  5
153A
331
1658
  5
167F
331
1316
  5
1348
331
1138
  5
1140
331
35B
  5
368
331
7D1
  5
7D2
331
14FC
  5
1503
331
19CE
  5
19CD
331
1917
  5
19C6
331
1660
  5
19C0
331
1140
  5
118C
331
1504
  5
150B
331
1AC5
  5
1ACA
331
150C
  5
1513
331
1514
  5
151B
331
1629
  5
1639
331
1188
  5
1190
331
134E
  5
13E4
331
151C
  5
1523
331
1190
  5
11AB
331
1415
  5
14F4
331
1524
  5
152B
331
1900
  5
19C5
331
1639
  5
165B
331
152C
  5
1533
331
1ACD
  5
1ADD
331
1ADD
  5
1B08
331
33C
  5
33D
331
1129
  5
1131
331
130F
  5
133C
331
1131
  5
1139
331
11B0
  5
130D
331
13E6
  5
1415
331
14F5
  5
14FC
331
1534
  5
153B
331
1317
  5
A0
331
1139
  5
1141
331
7D2
  5
7D3
331
14FD
  5
1504
331
1ABE
  5
1AC3
331
19CF
  5
19E6
331
1661
  5
167E
331
1141
  5
118D
331
1505
  5
150C
331
1AC6
  5
1ACB
331
150D
  5
1514
331
19E7
  5
1AC1
331
1347
  5
1359
331
1515
  5
151C
331
162A
  5
1642
331
1189
  5
1191
331
151D
  5
1524
331
1191
  5
11AC
331
1525
  5
152C
331
152D
  5
1534
331
1ACE
  5
1ADE
331
1ADE
  5
1B39
331
33D
  5
356
331
112A
  5
1132
331
11A9
  5
11B1
331
1642
  5
165C
331
13E7
  5
14EE
331
1310
  5
133D
331
1132
  5
113A
331
11B1
  5
130E
331
14F6
  5
14FD
331
1535
  5
1623
331
113A
  5
1142
331
2E6
  5
2EB
331
7D3
  5
8C9
331
14FE
  5
1505
331
1ABF
  5
1AC4
331
19D0
  5
19D1
331
1142
  5
118E
331
1506
  5
150D
331
1AC7
  5
1ACC
331
166A
  5
19C3
331
150E
  5
1515
331
1E4A
  5
1F49
331
2FE
  5
2FF
331
1340
  5
134C
331
1623
  5
162A
331
1348
  5
135B
331
395
  5
397
331
306
  5
307
331
1516
  5
151D
331
162B
  5
1655
331
1358
  5
13E5
331
118A
  5
1192
331
151E
  5
1525
331
1192
  5
11AD
331
1526
  5
152D
331
1ACF
  5
1AE7
331
14EF
  5
14F6
331
152E
  5
1535
331
1AE7
  5
1B50
331
13E0
  5
13E9
331
112B
  5
1133
331
11AA
  5
11B2
331
13E8
  5
14EF
331
11B2
  5
130F
331
356
  5
358
331
1133
  5
113B
331
1311
  5
1340
331
14F7
  5
14FE
331
1536
  5
1624
331
505
  5
569
331
113B
  5
1187
331
14FF
  5
1506
331
9C
  5
9C
331
1AC0
  5
1AC5
331
19D1
  5
1A11
331
2F7
  5
2F9
331
1507
  5
150E
331
150F
  5
1516
331
1EB3
  5
1F4A
331
1341
  5
134D
331
2FF
  5
300
331
1349
  5
1364
331
307
  5
308
331
1517
  5
151E
331
1624
  5
162B
331
162C
  5
1656
331
118B
  5
1193
331
30F
  5
310
331
1359
  5
13E6
331
151F
  5
1526
331
1AC8
  5
1ACD
331
1A11
  5
1900
331
1193
  5
11AE
331
1527
  5
152E
331
1AD0
  5
1AF1
331
152F
  5
1536
331
1B4F
  5
1F46
331
112C
  5
1134
331
11AB
  5
11B3
331
13E1
  5
13EA
331
14F0
  5
14F7
331
1312
  5
1341
331
1134
  5
113C
331
11B3
  5
1310
331
13E9
  5
14F0
331
14F8
  5
14FF
331
1537
  5
1625
331
113C
  5
1188
331
1500
  5
1507
331
1AC1
  5
1AC6
331
19D2
  5
19CF
331
1508
  5
150F
331
A5
  5
2E6
331
1B08
  5
1EB3
331
1EB4
  5
1F4B
331
300
  5
301
331
1342
  5
134E
331
1510
  5
1517
331
1625
  5
162C
331
397
  5
398
331
308
  5
309
331
134A
  5
13E0
331
1518
  5
151F
331
193B
  5
19C7
331
162D
  5
1657
331
310
  5
33A
331
118C
  5
1194
331
1520
  5
1527
331
1AC9
  5
1ACE
331
3AF
  5
3B1
331
1194
  5
11AF
331
1528
  5
152F
331
1A32
  5
1AC2
331
1B50
  5
1F47
331
11AC
  5
11B4
331
13E2
  5
13F9
331
14F1
  5
14F8
331
1530
  5
1537
331
19BB
  5
19CB
331
1313
  5
1343
331
358
  5
35B
331
1135
  5
113D
331
11B4
  5
1311
331
13EA
  5
14F1
331
14F9
  5
1500
331
1538
  5
1626
331
113D
  5
1189
331
13FA
  5
1317
331
1501
  5
1508
331
1AF1
  5
1B51
331
1AC2
  5
1AC7
331
19D3
  5
19D5
331
133B
  5
1349
331
1509
  5
1510
331
2F9
  5
2FA
331
301
  5
302
331
EDE
  5
EE6
331
1511
  5
1518
331
1626
  5
162D
331
309
  5
30A
331
398
  5
3AF
331
134B
  5
13E1
331
1519
  5
1520
331
1815
  5
19C4
331
57F
  5
7CF
331
118D
  5
1195
331
135B
  5
13E7
331
1521
  5
1528
331
1B39
  5
1EB4
331
1ACA
  5
1ACF
331
1195
  5
11B0
331
1529
  5
1530
331
19B4
  5
19C8
331
1B51
  5
1F48
331
130C
  5
1314
331
4F8
  5
505
331
112E
  5
1136
331
11AD
  5
11B5
331
13E3
  5
13FA
331
14F2
  5
14F9
331
1531
  5
1538
331
1314
  5
1345
331
1136
  5
113E
331
7CF
  5
7D0
331
11B5
  5
1312
331
14FA
  5
1501
331
1539
  5
1627
331
113E
  5
118A
331
1502
  5
1509
331
1AF2
  5
1E4A
331
1AC3
  5
1AC8
331
19D4
  5
19D3
331
133C
  5
134A
331
150A
  5
1511
331
2FA
  5
2FB
331
1512
  5
1519
331
302
  5
303
331
EDF
  5
EE7
331
1403
  5
14F2
331
167E
  5
19B6
331
1627
  5
1637
331
30A
  5
30B
331
134C
  5
13E2
331
151A
  5
1521
331
11DD
  5
1313
331
118E
  5
11A9
331
1522
  5
1529
331
1ACB
  5
1AD0
331
1637
  5
1658
331
1127
  5
112F
331
1364
  5
13E8
331
152A
  5
1531
331
19B5
  5
19C9
331
3B1
  5
3CE
331
130D
  5
1316
331
112F
  5
1137
331
11AE
  5
11DD
331
13E4
  5
1403
331
14F3
  5
14FA
331
1532
  5
1539
331
1315
  5
1347
331
1137
  5
113F
331
14FB
  5
1502
331
19CD
  5
19E4
331
113F
  5
118B
331
1503
  5
150A
331
1AC4
  5
1AC9
331
133D
  5
134B
331
150B
  5
1512
331
A0
  5
A5
331
2FB
  5
2FE
331
569
  5
57F
331
1345
  5
1358
331
303
  5
306
331
EE0
  5
EE8
331
1513
  5
151A
331
1628
  5
1638
331
30B
  5
30F
331
1187
  5
118F
331
134D
  5
13E3
331
140C
  5
14F3
331
151B
  5
1522
331
118F
  5
11AA
331
1523
  5
152A
331
1ACC
  5
1ADC
331
1638
  5
165A
331
152B
  5
1532
331
19B6
  5
19CA
331
1ADC
  5
1AF2
  0
SORTENTSTABLE
  5
204A
102
{ACAD_REACTORS
330
2049
102
}
330
2049
100
AcDbSortentsTable
330
1FF4
  0
XRECORD
  5
2478
102
{ACAD_REACTORS
330
2477
102
}
330
2477
100
AcDbXrecord
280
     1
102
SHADEPLOT
 70
     0
  0
XRECORD
  5
247A
102
{ACAD_REACTORS
330
2479
102
}
330
2479
100
AcDbXrecord
280
     1
102
SHADEPLOT
 70
     0
  0
LAYOUT
  5
22
102
{ACAD_XDICTIONARY
360
2473
102
}
102
{ACAD_REACTORS
330
1A
102
}
330
1A
100
AcDbPlotSettings
  1

  2
EPSON PM-800C
  4
A4
  6

 40
3.757083177566528
 41
14.7637300491333
 42
3.757080078125
 43
3.757080078125
 44
209.9733276367187
 45
296.9683227539062
 46
0.0
 47
0.0
 48
0.0
 49
0.0
140
0.0
141
0.0
142
1.0
143
10.0
 70
 11952
 72
     1
 73
     1
 74
     2
  7

 75
    20
147
0.1
148
0.0
149
0.0
100
AcDbLayout
  1
Model
 70
     1
 71
     0
 10
0.0
 20
0.0
 11
12.0
 21
9.0
 12
0.0
 22
0.0
 32
0.0
 14
0.0
 24
0.0
 34
0.0
 15
0.0
 25
0.0
 35
0.0
146
0.0
 13
0.0
 23
0.0
 33
0.0
 16
1.0
 26
0.0
 36
0.0
 17
0.0
 27
1.0
 37
0.0
 76
     0
330
1F
  0
LAYOUT
  5
1E
102
{ACAD_XDICTIONARY
360
2471
102
}
102
{ACAD_REACTORS
330
1A
102
}
330
1A
100
AcDbPlotSettings
  1

  2
EPSON PM-800C
  4
A4
  6

 40
3.757083177566528
 41
14.7637300491333
 42
3.757080078125
 43
3.757080078125
 44
209.9733276367187
 45
296.9683227539062
 46
0.0
 47
0.0
 48
0.0
 49
0.0
140
0.0
141
0.0
142
1.0
143
1.0
 70
   688
 72
     1
 73
     1
 74
     5
  7

 75
    16
147
1.0
148
0.0
149
0.0
100
AcDbLayout
  1
ﾚｲｱｳﾄ1
 70
     1
 71
     1
 10
-3.757080078125
 20
-3.757083177566528
 11
293.2112426757813
 21
206.2162444591522
 12
0.0
 22
0.0
 32
0.0
 14
27.8447512626648
 24
20.24591643810271
 34
0.0
 15
250.6027613639831
 25
182.2132479429245
 35
0.0
146
0.0
 13
0.0
 23
0.0
 33
0.0
 16
1.0
 26
0.0
 36
0.0
 17
0.0
 27
1.0
 37
0.0
 76
     0
330
1B
331
2E
  0
LAYOUT
  5
26
102
{ACAD_XDICTIONARY
360
2475
102
}
102
{ACAD_REACTORS
330
1A
102
}
330
1A
100
AcDbPlotSettings
  1

  2
EPSON PM-800C
  4

  6

 40
0.0
 41
0.0
 42
0.0
 43
0.0
 44
0.0
 45
0.0
 46
0.0
 47
0.0
 48
0.0
 49
0.0
140
0.0
141
0.0
142
1.0
143
1.0
 70
   688
 72
     0
 73
     0
 74
     5
  7

 75
    16
147
1.0
148
0.0
149
0.0
100
AcDbLayout
  1
ﾚｲｱｳﾄ2
 70
     1
 71
     2
 10
0.0
 20
0.0
 11
12.0
 21
9.0
 12
0.0
 22
0.0
 32
0.0
 14
0.0
 24
0.0
 34
0.0
 15
0.0
 25
0.0
 35
0.0
146
0.0
 13
0.0
 23
0.0
 33
0.0
 16
1.0
 26
0.0
 36
0.0
 17
0.0
 27
1.0
 37
0.0
 76
     0
330
23
  0
MLINESTYLE
  5
18
102
{ACAD_REACTORS
330
17
102
}
330
17
100
AcDbMlineStyle
  2
STANDARD
 70
     0
  3

 62
   256
 51
90.0
 52
90.0
 71
     2
 49
0.5
 62
   256
  6
BYLAYER
 49
-0.5
 62
   256
  6
BYLAYER
  0
ACDBPLACEHOLDER
  5
F
102
{ACAD_REACTORS
330
E
102
}
330
E
  0
TABLESTYLE
  5
115B
102
{ACAD_REACTORS
330
115A
102
}
330
115A
100
AcDbTableStyle
  3
Standard
 70
     0
 71
     0
 40
1.5
 41
1.5
280
     0
281
     0
  7
Standard
140
4.5
170
     2
 62
     0
 63
     7
283
     0
274
    -2
284
     1
 64
     0
275
    -2
285
     1
 65
     0
276
    -2
286
     1
 66
     0
277
    -2
287
     1
 67
     0
278
    -2
288
     1
 68
     0
279
    -2
289
     1
 69
     0
  7
Standard
140
6.0
170
     5
 62
     0
 63
     7
283
     0
274
    -2
284
     1
 64
     0
275
    -2
285
     1
 65
     0
276
    -2
286
     1
 66
     0
277
    -2
287
     1
 67
     0
278
    -2
288
     1
 68
     0
279
    -2
289
     1
 69
     0
  7
Standard
140
4.5
170
     5
 62
     0
 63
     7
283
     0
274
    -2
284
     1
 64
     0
275
    -2
285
     1
 65
     0
276
    -2
286
     1
 66
     0
277
    -2
287
     1
 67
     0
278
    -2
288
     1
 68
     0
279
    -2
289
     1
 69
     0
  0
DICTIONARYVAR
  5
11C8
102
{ACAD_REACTORS
330
11C7
102
}
330
11C7
100
DictionaryVariables
280
     0
  1
STANDARD
  0
DICTIONARYVAR
  5
246D
102
{ACAD_REACTORS
330
11C7
102
}
330
11C7
100
DictionaryVariables
280
     0
  1
1
  0
DICTIONARYVAR
  5
246E
102
{ACAD_REACTORS
330
11C7
102
}
330
11C7
100
DictionaryVariables
280
     0
  1

  0
DICTIONARY
  5
2473
330
22
100
AcDbDictionary
280
     1
281
     1
  3
ACAD_XREC_ROUNDTRIP
360
2474
  0
DICTIONARY
  5
2471
330
1E
100
AcDbDictionary
280
     1
281
     1
  3
ACAD_XREC_ROUNDTRIP
360
2472
  0
DICTIONARY
  5
2475
330
26
100
AcDbDictionary
280
     1
281
     1
  3
ACAD_XREC_ROUNDTRIP
360
2476
  0
XRECORD
  5
2474
102
{ACAD_REACTORS
330
2473
102
}
330
2473
100
AcDbXrecord
280
     1
102
SHADEPLOT
 70
     0
102
SHADEPLOTRESLEVEL
 70
     2
102
SHADEPLOTCUSTOMDPI
 70
   300
  0
XRECORD
  5
2472
102
{ACAD_REACTORS
330
2471
102
}
330
2471
100
AcDbXrecord
280
     1
102
SHADEPLOT
 70
     0
102
SHADEPLOTRESLEVEL
 70
     2
102
SHADEPLOTCUSTOMDPI
 70
   300
  0
XRECORD
  5
2476
102
{ACAD_REACTORS
330
2475
102
}
330
2475
100
AcDbXrecord
280
     1
102
SHADEPLOT
 70
     0
102
SHADEPLOTRESLEVEL
 70
     2
102
SHADEPLOTCUSTOMDPI
 70
   300
  0
ENDSEC
  0
EOF
