  0
SECTION
  2
HEADER
  9
$ACADVER
  1
AC1015
  9
$ACADMAINTVER
 70
    20
  9
$DWGCODEPAGE
  3
ANSI_932
  9
$INSBASE
 10
0.0
 20
0.0
 30
0.0
  9
$EXTMIN
 10
119.0
 20
4.0
 30
0.0
  9
$EXTMAX
 10
2784.0
 20
2024.0
 30
0.0
  9
$LIMMIN
 10
0.0
 20
0.0
  9
$LIMMAX
 10
29700.0
 20
21000.0
  9
$ORTHOMODE
 70
     1
  9
$REGENMODE
 70
     1
  9
$FILLMODE
 70
     1
  9
$QTEXTMODE
 70
     0
  9
$MIRRTEXT
 70
     1
  9
$LTSCALE
 40
4.0
  9
$ATTMODE
 70
     1
  9
$TEXTSIZE
 40
25.0
  9
$TRACEWID
 40
1.0
  9
$TEXTSTYLE
  7
Standard
  9
$CLAYER
  8
実形
  9
$CELTYPE
  6
ByLayer
  9
$CECOLOR
 62
   256
  9
$CELTSCALE
 40
1.0
  9
$DISPSILH
 70
     0
  9
$DIMSCALE
 40
1.0
  9
$DIMASZ
 40
25.0
  9
$DIMEXO
 40
65.0
  9
$DIMDLI
 40
3.75
  9
$DIMRND
 40
0.0
  9
$DIMDLE
 40
0.0
  9
$DIMEXE
 40
0.0
  9
$DIMTP
 40
0.0
  9
$DIMTM
 40
0.0
  9
$DIMTXT
 40
25.0
  9
$DIMCEN
 40
2.5
  9
$DIMTSZ
 40
0.0
  9
$DIMTOL
 70
     0
  9
$DIMLIM
 70
     0
  9
$DIMTIH
 70
     0
  9
$DIMTOH
 70
     0
  9
$DIMSE1
 70
     0
  9
$DIMSE2
 70
     0
  9
$DIMTAD
 70
     1
  9
$DIMZIN
 70
     8
  9
$DIMBLK
  1
DotSmall
  9
$DIMASO
 70
     1
  9
$DIMSHO
 70
     1
  9
$DIMPOST
  1

  9
$DIMAPOST
  1

  9
$DIMALT
 70
     0
  9
$DIMALTD
 70
     3
  9
$DIMALTF
 40
0.03937007874016
  9
$DIMLFAC
 40
1.0
  9
$DIMTOFL
 70
     1
  9
$DIMTVP
 40
0.0
  9
$DIMTIX
 70
     0
  9
$DIMSOXD
 70
     0
  9
$DIMSAH
 70
     0
  9
$DIMBLK1
  1

  9
$DIMBLK2
  1

  9
$DIMSTYLE
  2
ISO-25
  9
$DIMCLRD
 70
     0
  9
$DIMCLRE
 70
     0
  9
$DIMCLRT
 70
     0
  9
$DIMTFAC
 40
1.0
  9
$DIMGAP
 40
6.25
  9
$DIMJUST
 70
     0
  9
$DIMSD1
 70
     0
  9
$DIMSD2
 70
     0
  9
$DIMTOLJ
 70
     0
  9
$DIMTZIN
 70
     8
  9
$DIMALTZ
 70
     0
  9
$DIMALTTZ
 70
     0
  9
$DIMUPT
 70
     0
  9
$DIMDEC
 70
     2
  9
$DIMTDEC
 70
     2
  9
$DIMALTU
 70
     2
  9
$DIMALTTD
 70
     3
  9
$DIMTXSTY
  7
Standard
  9
$DIMAUNIT
 70
     0
  9
$DIMADEC
 70
     0
  9
$DIMALTRND
 40
0.0
  9
$DIMAZIN
 70
     0
  9
$DIMDSEP
 70
    46
  9
$DIMATFIT
 70
     3
  9
$DIMFRAC
 70
     0
  9
$DIMLDRBLK
  1
Open30
  9
$DIMLUNIT
 70
     2
  9
$DIMLWD
 70
    18
  9
$DIMLWE
 70
    18
  9
$DIMTMOVE
 70
     2
  9
$LUNITS
 70
     2
  9
$LUPREC
 70
     2
  9
$SKETCHINC
 40
1.0
  9
$FILLETRAD
 40
0.0
  9
$AUNITS
 70
     0
  9
$AUPREC
 70
     0
  9
$MENU
  1
.
  9
$ELEVATION
 40
0.0
  9
$PELEVATION
 40
0.0
  9
$THICKNESS
 40
0.0
  9
$LIMCHECK
 70
     1
  9
$CHAMFERA
 40
10.0
  9
$CHAMFERB
 40
10.0
  9
$CHAMFERC
 40
20.0
  9
$CHAMFERD
 40
0.0
  9
$SKPOLY
 70
     0
  9
$TDCREATE
 40
2451673.575802199
  9
$TDUCREATE
 40
2451673.200802199
  9
$TDUPDATE
 40
2458813.765589792
  9
$TDUUPDATE
 40
2458813.390589792
  9
$TDINDWG
 40
2.1188079861
  9
$TDUSRTIMER
 40
2.1188072917
  9
$USRTIMER
 70
     1
  9
$ANGBASE
 50
0.0
  9
$ANGDIR
 70
     0
  9
$PDMODE
 70
     3
  9
$PDSIZE
 40
0.0
  9
$PLINEWID
 40
0.0
  9
$SPLFRAME
 70
     0
  9
$SPLINETYPE
 70
     6
  9
$SPLINESEGS
 70
     8
  9
$HANDSEED
  5
2AD8
  9
$SURFTAB1
 70
     6
  9
$SURFTAB2
 70
     6
  9
$SURFTYPE
 70
     6
  9
$SURFU
 70
     6
  9
$SURFV
 70
     6
  9
$UCSBASE
  2

  9
$UCSNAME
  2

  9
$UCSORG
 10
0.0
 20
0.0
 30
0.0
  9
$UCSXDIR
 10
1.0
 20
0.0
 30
0.0
  9
$UCSYDIR
 10
0.0
 20
1.0
 30
0.0
  9
$UCSORTHOREF
  2

  9
$UCSORTHOVIEW
 70
     0
  9
$UCSORGTOP
 10
0.0
 20
0.0
 30
0.0
  9
$UCSORGBOTTOM
 10
0.0
 20
0.0
 30
0.0
  9
$UCSORGLEFT
 10
0.0
 20
0.0
 30
0.0
  9
$UCSORGRIGHT
 10
0.0
 20
0.0
 30
0.0
  9
$UCSORGFRONT
 10
0.0
 20
0.0
 30
0.0
  9
$UCSORGBACK
 10
0.0
 20
0.0
 30
0.0
  9
$PUCSBASE
  2

  9
$PUCSNAME
  2

  9
$PUCSORG
 10
0.0
 20
0.0
 30
0.0
  9
$PUCSXDIR
 10
1.0
 20
0.0
 30
0.0
  9
$PUCSYDIR
 10
0.0
 20
1.0
 30
0.0
  9
$PUCSORTHOREF
  2

  9
$PUCSORTHOVIEW
 70
     0
  9
$PUCSORGTOP
 10
0.0
 20
0.0
 30
0.0
  9
$PUCSORGBOTTOM
 10
0.0
 20
0.0
 30
0.0
  9
$PUCSORGLEFT
 10
0.0
 20
0.0
 30
0.0
  9
$PUCSORGRIGHT
 10
0.0
 20
0.0
 30
0.0
  9
$PUCSORGFRONT
 10
0.0
 20
0.0
 30
0.0
  9
$PUCSORGBACK
 10
0.0
 20
0.0
 30
0.0
  9
$USERI1
 70
     0
  9
$USERI2
 70
     0
  9
$USERI3
 70
     0
  9
$USERI4
 70
     0
  9
$USERI5
 70
     0
  9
$USERR1
 40
0.0
  9
$USERR2
 40
0.0
  9
$USERR3
 40
0.0
  9
$USERR4
 40
0.0
  9
$USERR5
 40
0.0
  9
$WORLDVIEW
 70
     1
  9
$SHADEDGE
 70
     3
  9
$SHADEDIF
 70
    70
  9
$TILEMODE
 70
     1
  9
$MAXACTVP
 70
    64
  9
$PINSBASE
 10
0.0
 20
0.0
 30
0.0
  9
$PLIMCHECK
 70
     0
  9
$PEXTMIN
 10
27.8447512626648
 20
20.24591643810271
 30
0.0
  9
$PEXTMAX
 10
250.6027613639831
 20
182.2132479429245
 30
0.0
  9
$PLIMMIN
 10
-3.757080078125
 20
-3.757083177566528
  9
$PLIMMAX
 10
293.2112426757813
 20
206.2162444591522
  9
$UNITMODE
 70
     0
  9
$VISRETAIN
 70
     1
  9
$PLINEGEN
 70
     0
  9
$PSLTSCALE
 70
     1
  9
$TREEDEPTH
 70
  3020
  9
$CMLSTYLE
  2
Standard
  9
$CMLJUST
 70
     0
  9
$CMLSCALE
 40
20.0
  9
$PROXYGRAPHICS
 70
     1
  9
$MEASUREMENT
 70
     1
  9
$CELWEIGHT
370
    -1
  9
$ENDCAPS
280
     0
  9
$JOINSTYLE
280
     0
  9
$LWDISPLAY
290
     0
  9
$INSUNITS
 70
     4
  9
$HYPERLINKBASE
  1

  9
$STYLESHEET
  1

  9
$XEDIT
290
     1
  9
$CEPSNTYPE
380
     0
  9
$PSTYLEMODE
290
     1
  9
$FINGERPRINTGUID
  2
{C8EA1F16-24C9-11D4-9416-CE0A3B32152F}
  9
$VERSIONGUID
  2
{374E99E2-E307-49FF-8042-AD8D72E22C65}
  9
$EXTNAMES
290
     1
  9
$PSVPSCALE
 40
0.0
  9
$OLESTARTUP
290
     0
  0
ENDSEC
  0
SECTION
  2
CLASSES
  0
CLASS
  1
ACDBDICTIONARYWDFLT
  2
AcDbDictionaryWithDefault
  3
ObjectDBX Classes
 90
        0
280
     0
281
     0
  0
CLASS
  1
ACDBPLACEHOLDER
  2
AcDbPlaceHolder
  3
ObjectDBX Classes
 90
        0
280
     0
281
     0
  0
CLASS
  1
LAYOUT
  2
AcDbLayout
  3
ObjectDBX Classes
 90
        0
280
     0
281
     0
  0
CLASS
  1
TABLESTYLE
  2
AcDbTableStyle
  3
ObjectDBX Classes
 90
     2047
280
     0
281
     0
  0
CLASS
  1
SORTENTSTABLE
  2
AcDbSortentsTable
  3
ObjectDBX Classes
 90
        0
280
     0
281
     0
  0
CLASS
  1
DICTIONARYVAR
  2
AcDbDictionaryVar
  3
ObjectDBX Classes
 90
        0
280
     0
281
     0
  0
ENDSEC
  0
SECTION
  2
TABLES
  0
TABLE
  2
VPORT
  5
8
330
0
100
AcDbSymbolTable
 70
     2
  0
VPORT
  5
2ACC
330
8
100
AcDbSymbolTableRecord
100
AcDbViewportTableRecord
  2
*Active
 70
     0
 10
0.0
 20
0.0
 11
1.0
 21
1.0
 12
1382.672007775102
 22
934.4253937010712
 13
0.0
 23
0.0
 14
10.0
 24
10.0
 15
10.0
 25
10.0
 16
0.0
 26
0.0
 36
1.0
 17
0.0
 27
0.0
 37
0.0
 40
2371.715772793931
 41
1.29038112522686
 42
50.0
 43
0.0
 44
0.0
 50
0.0
 51
0.0
 71
     0
 72
   100
 73
     1
 74
     3
 75
     0
 76
     0
 77
     0
 78
     0
281
     0
 65
     1
110
0.0
120
0.0
130
0.0
111
1.0
121
0.0
131
0.0
112
0.0
122
1.0
132
0.0
 79
     0
146
0.0
  0
ENDTAB
  0
TABLE
  2
LTYPE
  5
5
330
0
100
AcDbSymbolTable
 70
    46
  0
LTYPE
  5
14
330
5
100
AcDbSymbolTableRecord
100
AcDbLinetypeTableRecord
  2
ByBlock
 70
     0
  3

 72
    65
 73
     0
 40
0.0
  0
LTYPE
  5
15
330
5
100
AcDbSymbolTableRecord
100
AcDbLinetypeTableRecord
  2
ByLayer
 70
     0
  3

 72
    65
 73
     0
 40
0.0
  0
LTYPE
  5
16
330
5
100
AcDbSymbolTableRecord
100
AcDbLinetypeTableRecord
  2
Continuous
 70
     0
  3
Solid line
 72
    65
 73
     0
 40
0.0
  0
LTYPE
  5
34
330
5
100
AcDbSymbolTableRecord
100
AcDbLinetypeTableRecord
  2
ACAD_ISO02W100
 70
     0
  3
ISO dash __ __ __ __ __ __ __ __ __ __ __ __ __
 72
    65
 73
     2
 40
15.0
 49
12.0
 74
     0
 49
-3.0
 74
     0
  0
LTYPE
  5
35
330
5
100
AcDbSymbolTableRecord
100
AcDbLinetypeTableRecord
  2
ACAD_ISO03W100
 70
     0
  3
ISO dash space __    __    __    __    __    __
 72
    65
 73
     2
 40
30.0
 49
12.0
 74
     0
 49
-18.0
 74
     0
  0
LTYPE
  5
36
330
5
100
AcDbSymbolTableRecord
100
AcDbLinetypeTableRecord
  2
ACAD_ISO04W100
 70
     0
  3
ISO long-dash dot ____ . ____ . ____ . ____ . _
 72
    65
 73
     4
 40
30.0
 49
24.0
 74
     0
 49
-3.0
 74
     0
 49
0.0
 74
     0
 49
-3.0
 74
     0
  0
LTYPE
  5
37
330
5
100
AcDbSymbolTableRecord
100
AcDbLinetypeTableRecord
  2
ACAD_ISO05W100
 70
     0
  3
ISO long-dash double-dot ____ .. ____ .. ____ .
 72
    65
 73
     6
 40
34.0
 49
24.0
 74
     0
 49
-3.0
 74
     0
 49
0.5
 74
     0
 49
-3.0
 74
     0
 49
0.5
 74
     0
 49
-3.0
 74
     0
  0
LTYPE
  5
38
330
5
100
AcDbSymbolTableRecord
100
AcDbLinetypeTableRecord
  2
ACAD_ISO06W100
 70
     0
  3
ISO long-dash triple-dot ____ ... ____ ... ____
 72
    65
 73
     8
 40
37.5
 49
24.0
 74
     0
 49
-3.0
 74
     0
 49
0.5
 74
     0
 49
-3.0
 74
     0
 49
0.5
 74
     0
 49
-3.0
 74
     0
 49
0.5
 74
     0
 49
-3.0
 74
     0
  0
LTYPE
  5
39
330
5
100
AcDbSymbolTableRecord
100
AcDbLinetypeTableRecord
  2
ACAD_ISO07W100
 70
     0
  3
ISO dot . . . . . . . . . . . . . . . . . . . .
 72
    65
 73
     2
 40
3.0
 49
0.0
 74
     0
 49
-3.0
 74
     0
  0
LTYPE
  5
3A
330
5
100
AcDbSymbolTableRecord
100
AcDbLinetypeTableRecord
  2
ACAD_ISO08W100
 70
     0
  3
ISO long-dash short-dash ____ __ ____ __ ____ _
 72
    65
 73
     4
 40
36.0
 49
24.0
 74
     0
 49
-3.0
 74
     0
 49
6.0
 74
     0
 49
-3.0
 74
     0
  0
LTYPE
  5
3B
330
5
100
AcDbSymbolTableRecord
100
AcDbLinetypeTableRecord
  2
ACAD_ISO09W100
 70
     0
  3
ISO long-dash double-short-dash ____ __ __ ____
 72
    65
 73
     6
 40
45.0
 49
24.0
 74
     0
 49
-3.0
 74
     0
 49
6.0
 74
     0
 49
-3.0
 74
     0
 49
6.0
 74
     0
 49
-3.0
 74
     0
  0
LTYPE
  5
3C
330
5
100
AcDbSymbolTableRecord
100
AcDbLinetypeTableRecord
  2
ACAD_ISO10W100
 70
     0
  3
ISO dash dot __ . __ . __ . __ . __ . __ . __ .
 72
    65
 73
     4
 40
18.0
 49
12.0
 74
     0
 49
-3.0
 74
     0
 49
0.0
 74
     0
 49
-3.0
 74
     0
  0
LTYPE
  5
3D
330
5
100
AcDbSymbolTableRecord
100
AcDbLinetypeTableRecord
  2
ACAD_ISO11W100
 70
     0
  3
ISO double-dash dot __ __ . __ __ . __ __ . __ 
 72
    65
 73
     6
 40
33.0
 49
12.0
 74
     0
 49
-3.0
 74
     0
 49
12.0
 74
     0
 49
-3.0
 74
     0
 49
0.0
 74
     0
 49
-3.0
 74
     0
  0
LTYPE
  5
3E
330
5
100
AcDbSymbolTableRecord
100
AcDbLinetypeTableRecord
  2
ACAD_ISO12W100
 70
     0
  3
ISO dash double-dot __ . . __ . . __ . . __ . .
 72
    65
 73
     6
 40
21.0
 49
12.0
 74
     0
 49
-3.0
 74
     0
 49
0.0
 74
     0
 49
-3.0
 74
     0
 49
0.0
 74
     0
 49
-3.0
 74
     0
  0
LTYPE
  5
3F
330
5
100
AcDbSymbolTableRecord
100
AcDbLinetypeTableRecord
  2
ACAD_ISO13W100
 70
     0
  3
ISO double-dash double-dot __ __ . . __ __ . . 
 72
    65
 73
     8
 40
36.0
 49
12.0
 74
     0
 49
-3.0
 74
     0
 49
12.0
 74
     0
 49
-3.0
 74
     0
 49
0.0
 74
     0
 49
-3.0
 74
     0
 49
0.0
 74
     0
 49
-3.0
 74
     0
  0
LTYPE
  5
40
330
5
100
AcDbSymbolTableRecord
100
AcDbLinetypeTableRecord
  2
ACAD_ISO14W100
 70
     0
  3
ISO dash triple-dot __ . . . __ . . . __ . . . 
 72
    65
 73
     8
 40
24.0
 49
12.0
 74
     0
 49
-3.0
 74
     0
 49
0.0
 74
     0
 49
-3.0
 74
     0
 49
0.0
 74
     0
 49
-3.0
 74
     0
 49
0.0
 74
     0
 49
-3.0
 74
     0
  0
LTYPE
  5
41
330
5
100
AcDbSymbolTableRecord
100
AcDbLinetypeTableRecord
  2
ACAD_ISO15W100
 70
     0
  3
ISO double-dash triple-dot __ __ . . . __ __ . 
 72
    65
 73
    10
 40
39.0
 49
12.0
 74
     0
 49
-3.0
 74
     0
 49
12.0
 74
     0
 49
-3.0
 74
     0
 49
0.0
 74
     0
 49
-3.0
 74
     0
 49
0.0
 74
     0
 49
-3.0
 74
     0
 49
0.0
 74
     0
 49
-3.0
 74
     0
  0
LTYPE
  5
42
330
5
100
AcDbSymbolTableRecord
100
AcDbLinetypeTableRecord
  2
BATTING
 70
     0
  3
Batting SSSSSSSSSSSSSSSSSSSSSSSSSSSSSSSSSSSSSSS
 72
    65
 73
     4
 40
10.16254
 49
0.00254
 74
     0
 49
-2.54
 74
     4
 75
   134
340
33
 46
2.54
 50
0.0
 44
-2.54
 45
0.0
 49
-5.08
 74
     4
 75
   134
340
33
 46
2.54
 50
180.0
 44
2.54
 45
0.0
 49
-2.54
 74
     0
  0
LTYPE
  5
43
330
5
100
AcDbSymbolTableRecord
100
AcDbLinetypeTableRecord
  2
BORDER
 70
     0
  3
Border __ __ . __ __ . __ __ . __ __ . __ __ .
 72
    65
 73
     6
 40
44.45
 49
12.7
 74
     0
 49
-6.349999999999999
 74
     0
 49
12.7
 74
     0
 49
-6.349999999999999
 74
     0
 49
0.0
 74
     0
 49
-6.349999999999999
 74
     0
  0
LTYPE
  5
44
330
5
100
AcDbSymbolTableRecord
100
AcDbLinetypeTableRecord
  2
BORDER2
 70
     0
  3
Border (.5x) __.__.__.__.__.__.__.__.__.__.__.
 72
    65
 73
     6
 40
22.225
 49
6.349999999999999
 74
     0
 49
-3.174999999999999
 74
     0
 49
6.349999999999999
 74
     0
 49
-3.174999999999999
 74
     0
 49
0.0
 74
     0
 49
-3.174999999999999
 74
     0
  0
LTYPE
  5
45
330
5
100
AcDbSymbolTableRecord
100
AcDbLinetypeTableRecord
  2
BORDERX2
 70
     0
  3
Border (2x) ____  ____  .  ____  ____  .  ___
 72
    65
 73
     6
 40
88.9
 49
25.4
 74
     0
 49
-12.7
 74
     0
 49
25.4
 74
     0
 49
-12.7
 74
     0
 49
0.0
 74
     0
 49
-12.7
 74
     0
  0
LTYPE
  5
46
330
5
100
AcDbSymbolTableRecord
100
AcDbLinetypeTableRecord
  2
CENTER
 70
     0
  3
Center ____ _ ____ _ ____ _ ____ _ ____ _ ____
 72
    65
 73
     4
 40
50.8
 49
31.75
 74
     0
 49
-6.349999999999999
 74
     0
 49
6.349999999999999
 74
     0
 49
-6.349999999999999
 74
     0
  0
LTYPE
  5
47
330
5
100
AcDbSymbolTableRecord
100
AcDbLinetypeTableRecord
  2
CENTER2
 70
     0
  3
Center (.5x) ___ _ ___ _ ___ _ ___ _ ___ _ ___
 72
    65
 73
     4
 40
28.575
 49
19.05
 74
     0
 49
-3.174999999999999
 74
     0
 49
3.174999999999999
 74
     0
 49
-3.174999999999999
 74
     0
  0
LTYPE
  5
48
330
5
100
AcDbSymbolTableRecord
100
AcDbLinetypeTableRecord
  2
CENTERX2
 70
     0
  3
Center (2x) ________  __  ________  __  _____
 72
    65
 73
     4
 40
101.6
 49
63.5
 74
     0
 49
-12.7
 74
     0
 49
12.7
 74
     0
 49
-12.7
 74
     0
  0
LTYPE
  5
49
330
5
100
AcDbSymbolTableRecord
100
AcDbLinetypeTableRecord
  2
DASHDOT
 70
     0
  3
Dash dot __ . __ . __ . __ . __ . __ . __ . __
 72
    65
 73
     4
 40
25.4
 49
12.7
 74
     0
 49
-6.349999999999999
 74
     0
 49
0.0
 74
     0
 49
-6.349999999999999
 74
     0
  0
LTYPE
  5
4A
330
5
100
AcDbSymbolTableRecord
100
AcDbLinetypeTableRecord
  2
DASHDOT2
 70
     0
  3
Dash dot (.5x) _._._._._._._._._._._._._._._.
 72
    65
 73
     4
 40
12.7
 49
6.349999999999999
 74
     0
 49
-3.174999999999999
 74
     0
 49
0.0
 74
     0
 49
-3.174999999999999
 74
     0
  0
LTYPE
  5
4B
330
5
100
AcDbSymbolTableRecord
100
AcDbLinetypeTableRecord
  2
DASHDOTX2
 70
     0
  3
Dash dot (2x) ____  .  ____  .  ____  .  ___
 72
    65
 73
     4
 40
50.8
 49
25.4
 74
     0
 49
-12.7
 74
     0
 49
0.0
 74
     0
 49
-12.7
 74
     0
  0
LTYPE
  5
4C
330
5
100
AcDbSymbolTableRecord
100
AcDbLinetypeTableRecord
  2
DASHED
 70
     0
  3
Dashed __ __ __ __ __ __ __ __ __ __ __ __ __ _
 72
    65
 73
     2
 40
19.05
 49
12.7
 74
     0
 49
-6.349999999999999
 74
     0
  0
LTYPE
  5
4D
330
5
100
AcDbSymbolTableRecord
100
AcDbLinetypeTableRecord
  2
DASHED2
 70
     0
  3
Dashed (.5x) _ _ _ _ _ _ _ _ _ _ _ _ _ _ _ _ _
 72
    65
 73
     2
 40
9.524999999999998
 49
6.349999999999999
 74
     0
 49
-3.174999999999999
 74
     0
  0
LTYPE
  5
4E
330
5
100
AcDbSymbolTableRecord
100
AcDbLinetypeTableRecord
  2
DASHEDX2
 70
     0
  3
Dashed (2x) ____  ____  ____  ____  ____  ___
 72
    65
 73
     2
 40
38.1
 49
25.4
 74
     0
 49
-12.7
 74
     0
  0
LTYPE
  5
4F
330
5
100
AcDbSymbolTableRecord
100
AcDbLinetypeTableRecord
  2
DIVIDE
 70
     0
  3
Divide ____ . . ____ . . ____ . . ____ . . ____
 72
    65
 73
     6
 40
31.75
 49
12.7
 74
     0
 49
-6.349999999999999
 74
     0
 49
0.0
 74
     0
 49
-6.349999999999999
 74
     0
 49
0.0
 74
     0
 49
-6.349999999999999
 74
     0
  0
LTYPE
  5
50
330
5
100
AcDbSymbolTableRecord
100
AcDbLinetypeTableRecord
  2
DIVIDE2
 70
     0
  3
Divide (.5x) __..__..__..__..__..__..__..__.._
 72
    65
 73
     6
 40
15.875
 49
6.349999999999999
 74
     0
 49
-3.174999999999999
 74
     0
 49
0.0
 74
     0
 49
-3.174999999999999
 74
     0
 49
0.0
 74
     0
 49
-3.174999999999999
 74
     0
  0
LTYPE
  5
51
330
5
100
AcDbSymbolTableRecord
100
AcDbLinetypeTableRecord
  2
DIVIDEX2
 70
     0
  3
Divide (2x) ________  .  .  ________  .  .  _
 72
    65
 73
     6
 40
63.49999999999999
 49
25.4
 74
     0
 49
-12.7
 74
     0
 49
0.0
 74
     0
 49
-12.7
 74
     0
 49
0.0
 74
     0
 49
-12.7
 74
     0
  0
LTYPE
  5
52
330
5
100
AcDbSymbolTableRecord
100
AcDbLinetypeTableRecord
  2
DOT
 70
     0
  3
Dot . . . . . . . . . . . . . . . . . . . . . .
 72
    65
 73
     2
 40
6.349999999999999
 49
0.0
 74
     0
 49
-6.349999999999999
 74
     0
  0
LTYPE
  5
53
330
5
100
AcDbSymbolTableRecord
100
AcDbLinetypeTableRecord
  2
DOT2
 70
     0
  3
Dot (.5x) .....................................
 72
    65
 73
     2
 40
3.174999999999999
 49
0.0
 74
     0
 49
-3.174999999999999
 74
     0
  0
LTYPE
  5
54
330
5
100
AcDbSymbolTableRecord
100
AcDbLinetypeTableRecord
  2
DOTX2
 70
     0
  3
Dot (2x) .  .  .  .  .  .  .  .  .  .  .  .  . 
 72
    65
 73
     2
 40
12.7
 49
0.0
 74
     0
 49
-12.7
 74
     0
  0
LTYPE
  5
55
330
5
100
AcDbSymbolTableRecord
100
AcDbLinetypeTableRecord
  2
FENCELINE1
 70
     0
  3
Fenceline circle ----0-----0----0-----0----0---
 72
    65
 73
     4
 40
36.83
 49
6.349999999999999
 74
     0
 49
-2.54
 74
     4
 75
   133
340
33
 46
2.54
 50
0.0
 44
-2.54
 45
0.0
 49
-2.54
 74
     0
 49
25.4
 74
     0
  0
LTYPE
  5
56
330
5
100
AcDbSymbolTableRecord
100
AcDbLinetypeTableRecord
  2
FENCELINE2
 70
     0
  3
Fenceline square ----[]-----[]----[]-----[]----
 72
    65
 73
     4
 40
36.83
 49
6.349999999999999
 74
     0
 49
-2.54
 74
     4
 75
   132
340
33
 46
2.54
 50
0.0
 44
-2.54
 45
0.0
 49
-2.54
 74
     0
 49
25.4
 74
     0
  0
LTYPE
  5
57
330
5
100
AcDbSymbolTableRecord
100
AcDbLinetypeTableRecord
  2
GAS_LINE
 70
     0
  3
Gas line ----GAS----GAS----GAS----GAS----GAS---
 72
    65
 73
     3
 40
24.13
 49
12.7
 74
     0
 49
-5.08
 74
     2
 75
     0
340
11
 46
2.54
 50
0.0
 44
-2.54
 45
-1.27
  9
GAS
 49
-6.349999999999999
 74
     0
  0
LTYPE
  5
58
330
5
100
AcDbSymbolTableRecord
100
AcDbLinetypeTableRecord
  2
HIDDEN
 70
     0
  3
Hidden __ __ __ __ __ __ __ __ __ __ __ __ __ _
 72
    65
 73
     2
 40
9.524999999999998
 49
6.349999999999999
 74
     0
 49
-3.174999999999999
 74
     0
  0
LTYPE
  5
59
330
5
100
AcDbSymbolTableRecord
100
AcDbLinetypeTableRecord
  2
HIDDEN2
 70
     0
  3
Hidden (.5x) _ _ _ _ _ _ _ _ _ _ _ _ _ _ _ _ _
 72
    65
 73
     2
 40
4.762499999999999
 49
3.174999999999999
 74
     0
 49
-1.587499999999999
 74
     0
  0
LTYPE
  5
5A
330
5
100
AcDbSymbolTableRecord
100
AcDbLinetypeTableRecord
  2
HIDDENX2
 70
     0
  3
Hidden (2x) ____ ____ ____ ____ ____ ____ ____
 72
    65
 73
     2
 40
19.05
 49
12.7
 74
     0
 49
-6.349999999999999
 74
     0
  0
LTYPE
  5
5B
330
5
100
AcDbSymbolTableRecord
100
AcDbLinetypeTableRecord
  2
HOT_WATER_SUPPLY
 70
     0
  3
Hot water supply ---- HW ---- HW ---- HW ----
 72
    65
 73
     3
 40
22.86
 49
12.7
 74
     0
 49
-5.08
 74
     2
 75
     0
340
11
 46
2.54
 50
0.0
 44
-2.54
 45
-1.27
  9
HW
 49
-5.08
 74
     0
  0
LTYPE
  5
5C
330
5
100
AcDbSymbolTableRecord
100
AcDbLinetypeTableRecord
  2
PHANTOM
 70
     0
  3
Phantom ______  __  __  ______  __  __  ______
 72
    65
 73
     6
 40
63.5
 49
31.75
 74
     0
 49
-6.349999999999999
 74
     0
 49
6.349999999999999
 74
     0
 49
-6.349999999999999
 74
     0
 49
6.349999999999999
 74
     0
 49
-6.349999999999999
 74
     0
  0
LTYPE
  5
5D
330
5
100
AcDbSymbolTableRecord
100
AcDbLinetypeTableRecord
  2
PHANTOM2
 70
     0
  3
Phantom (.5x) ___ _ _ ___ _ _ ___ _ _ ___ _ _
 72
    65
 73
     6
 40
31.75
 49
15.875
 74
     0
 49
-3.174999999999999
 74
     0
 49
3.174999999999999
 74
     0
 49
-3.174999999999999
 74
     0
 49
3.174999999999999
 74
     0
 49
-3.174999999999999
 74
     0
  0
LTYPE
  5
5E
330
5
100
AcDbSymbolTableRecord
100
AcDbLinetypeTableRecord
  2
PHANTOMX2
 70
     0
  3
Phantom (2x) ____________    ____    ____   _
 72
    65
 73
     6
 40
127.0
 49
63.5
 74
     0
 49
-12.7
 74
     0
 49
12.7
 74
     0
 49
-12.7
 74
     0
 49
12.7
 74
     0
 49
-12.7
 74
     0
  0
LTYPE
  5
5F
330
5
100
AcDbSymbolTableRecord
100
AcDbLinetypeTableRecord
  2
TRACKS
 70
     0
  3
Tracks -|-|-|-|-|-|-|-|-|-|-|-|-|-|-|-|-|-|-|-|
 72
    65
 73
     2
 40
7.62
 49
3.81
 74
     4
 75
   130
340
33
 46
6.349999999999999
 50
0.0
 44
0.0
 45
0.0
 49
3.81
 74
     0
  0
LTYPE
  5
60
330
5
100
AcDbSymbolTableRecord
100
AcDbLinetypeTableRecord
  2
ZIGZAG
 70
     0
  3
Zig zag /\/\/\/\/\/\/\/\/\/\/\/\/\/\/\/\/\/\/\/
 72
    65
 73
     4
 40
20.32254
 49
0.00254
 74
     0
 49
-5.08
 74
     4
 75
   131
340
33
 46
5.08
 50
0.0
 44
-5.08
 45
0.0
 49
-10.16
 74
     4
 75
   131
340
33
 46
5.08
 50
180.0
 44
5.08
 45
0.0
 49
-5.08
 74
     0
  0
ENDTAB
  0
TABLE
  2
LAYER
  5
2
102
{ACAD_XDICTIONARY
360
11D6
102
}
330
0
100
AcDbSymbolTable
 70
     9
  0
LAYER
  5
10
330
2
100
AcDbSymbolTableRecord
100
AcDbLayerTableRecord
  2
0
 70
     0
 62
     7
  6
Continuous
290
     0
370
    -3
390
F
  0
LAYER
  5
C3
330
2
100
AcDbSymbolTableRecord
100
AcDbLayerTableRecord
  2
Defpoints
 70
     0
 62
     7
  6
Continuous
290
     0
370
    -3
390
F
  0
LAYER
  5
256
330
2
100
AcDbSymbolTableRecord
100
AcDbLayerTableRecord
  2
センター
 70
     0
 62
     7
  6
CENTER2
370
    18
390
F
  0
LAYER
  5
268
330
2
100
AcDbSymbolTableRecord
100
AcDbLayerTableRecord
  2
実形
 70
     0
 62
     7
  6
Continuous
370
    -3
390
F
  0
LAYER
  5
269
330
2
100
AcDbSymbolTableRecord
100
AcDbLayerTableRecord
  2
補助
 70
     0
 62
     7
  6
Continuous
370
    -3
390
F
  0
LAYER
  5
26A
330
2
100
AcDbSymbolTableRecord
100
AcDbLayerTableRecord
  2
寸法
 70
     0
 62
     7
  6
Continuous
370
    18
390
F
  0
LAYER
  5
26B
330
2
100
AcDbSymbolTableRecord
100
AcDbLayerTableRecord
  2
ハッチング
 70
     0
 62
     7
  6
Continuous
370
    18
390
F
  0
LAYER
  5
26D
330
2
100
AcDbSymbolTableRecord
100
AcDbLayerTableRecord
  2
文字
 70
     0
 62
     7
  6
Continuous
370
    -3
390
F
  0
LAYER
  5
10F0
330
2
100
AcDbSymbolTableRecord
100
AcDbLayerTableRecord
  2
Cen
 70
     0
 62
     7
  6
CENTER2
370
    15
390
F
  0
ENDTAB
  0
TABLE
  2
STYLE
  5
3
330
0
100
AcDbSymbolTable
 70
     4
  0
STYLE
  5
11
330
3
100
AcDbSymbolTableRecord
100
AcDbTextStyleTableRecord
  2
Standard
 70
     0
 40
0.0
 41
1.0
 50
0.0
 71
     0
 42
25.0
  3
txt.shx
  4
bigfont.shx
  0
STYLE
  5
33
330
3
100
AcDbSymbolTableRecord
100
AcDbTextStyleTableRecord
  2

 70
     1
 40
0.0
 41
1.0
 50
0.0
 71
     0
 42
2.5
  3
ltypeshp.shx
  4

  0
STYLE
  5
12F9
330
3
100
AcDbSymbolTableRecord
100
AcDbTextStyleTableRecord
  2
明朝
 70
     0
 40
0.0
 41
1.0
 50
0.0
 71
     0
 42
25.0
  3
MS Mincho.ttf
  4

1001
ACAD
1000
MS Mincho
1071
    32785
  0
STYLE
  5
2559
330
3
100
AcDbSymbolTableRecord
100
AcDbTextStyleTableRecord
  2
MSｺﾞｼｯｸ
 70
     0
 40
0.0
 41
1.0
 50
0.0
 71
     0
 42
3.0
  3
@MS Gothic.ttf
  4

1001
ACAD
1000
@MS Gothic
1071
    32817
  0
ENDTAB
  0
TABLE
  2
VIEW
  5
6
330
0
100
AcDbSymbolTable
 70
     0
  0
ENDTAB
  0
TABLE
  2
UCS
  5
7
330
0
100
AcDbSymbolTable
 70
     0
  0
ENDTAB
  0
TABLE
  2
APPID
  5
9
330
0
100
AcDbSymbolTable
 70
     3
  0
APPID
  5
12
330
9
100
AcDbSymbolTableRecord
100
AcDbRegAppTableRecord
  2
ACAD
 70
     0
  0
APPID
  5
11D5
330
9
100
AcDbSymbolTableRecord
100
AcDbRegAppTableRecord
  2
ACAD_PSEXT
 70
     0
  0
APPID
  5
2280
330
9
100
AcDbSymbolTableRecord
100
AcDbRegAppTableRecord
  2
ACAD_DSTYLE_DIMTEXT_FILL
 70
     0
  0
ENDTAB
  0
TABLE
  2
DIMSTYLE
  5
A
330
0
100
AcDbSymbolTable
 70
     1
100
AcDbDimStyleTable
 71
     1
340
27
  0
DIMSTYLE
105
27
102
{ACAD_REACTORS
330
1511
330
1512
330
1514
330
1515
330
1519
330
151A
330
151D
330
151E
330
1521
330
1529
330
152A
330
20E3
330
20E4
330
20E5
330
20E6
330
2103
330
2110
330
2111
330
247B
330
248A
330
2497
330
24C7
330
24D4
330
24EA
330
2500
330
2592
330
25E9
330
26AE
102
}
330
A
100
AcDbSymbolTableRecord
100
AcDbDimStyleTableRecord
  2
ISO-25
 70
     0
 41
35.0
 42
65.0
 43
3.75
 44
0.0
 73
     0
 74
     0
 77
     1
 78
     8
140
25.0
141
2.5
143
0.03937007874016
147
6.25
171
     3
172
     1
271
     2
272
     2
274
     3
283
     0
284
     8
340
11
341
DA
342
D0
371
    15
372
    15
  0
ENDTAB
  0
TABLE
  2
BLOCK_RECORD
  5
1
330
0
100
AcDbSymbolTable
 70
    32
  0
BLOCK_RECORD
  5
1F
102
{ACAD_XDICTIONARY
360
1318
102
}
330
1
100
AcDbSymbolTableRecord
100
AcDbBlockTableRecord
  2
*Model_Space
340
22
  0
BLOCK_RECORD
  5
1B
330
1
100
AcDbSymbolTableRecord
100
AcDbBlockTableRecord
  2
*Paper_Space
340
1E
  0
BLOCK_RECORD
  5
23
330
1
100
AcDbSymbolTableRecord
100
AcDbBlockTableRecord
  2
*Paper_Space0
340
26
  0
BLOCK_RECORD
  5
D0
330
1
100
AcDbSymbolTableRecord
100
AcDbBlockTableRecord
  2
_DotSmall
340
0
102
{BLKREFS
331
1DC0
331
1DC1
331
1DC9
331
1DCA
331
1DE4
331
1DE5
331
1DED
331
1DEE
331
21F8
331
21F9
331
2201
331
2202
331
220A
331
220B
331
2213
331
2214
331
2644
331
2645
331
264D
331
264E
331
2656
331
2657
331
265F
331
2660
331
2669
331
266A
331
2671
331
2672
331
267B
331
267C
331
2683
331
2684
331
2695
331
2696
331
29D8
331
29D9
331
2A0E
331
2A0F
331
2A17
331
2A18
331
2A20
331
2A21
331
2A29
331
2A2A
331
2A33
331
2A34
331
2A4E
331
2A4F
331
2A57
331
2A58
331
2A9B
331
2A9C
102
}
  0
BLOCK_RECORD
  5
D4
330
1
100
AcDbSymbolTableRecord
100
AcDbBlockTableRecord
  2
_Origin2
340
0
  0
BLOCK_RECORD
  5
DA
330
1
100
AcDbSymbolTableRecord
100
AcDbBlockTableRecord
  2
_Open30
340
0
  0
BLOCK_RECORD
  5
153C
330
1
100
AcDbSymbolTableRecord
100
AcDbBlockTableRecord
  2
*D4
340
0
  0
BLOCK_RECORD
  5
1548
330
1
100
AcDbSymbolTableRecord
100
AcDbBlockTableRecord
  2
*D5
340
0
  0
BLOCK_RECORD
  5
1554
330
1
100
AcDbSymbolTableRecord
100
AcDbBlockTableRecord
  2
*D6
340
0
  0
BLOCK_RECORD
  5
1560
330
1
100
AcDbSymbolTableRecord
100
AcDbBlockTableRecord
  2
*D7
340
0
  0
BLOCK_RECORD
  5
156C
330
1
100
AcDbSymbolTableRecord
100
AcDbBlockTableRecord
  2
*D8
340
0
  0
BLOCK_RECORD
  5
1578
330
1
100
AcDbSymbolTableRecord
100
AcDbBlockTableRecord
  2
*D9
340
0
  0
BLOCK_RECORD
  5
1584
330
1
100
AcDbSymbolTableRecord
100
AcDbBlockTableRecord
  2
*D10
340
0
  0
BLOCK_RECORD
  5
1590
330
1
100
AcDbSymbolTableRecord
100
AcDbBlockTableRecord
  2
*D11
340
0
  0
BLOCK_RECORD
  5
159C
330
1
100
AcDbSymbolTableRecord
100
AcDbBlockTableRecord
  2
*D12
340
0
  0
BLOCK_RECORD
  5
15A8
330
1
100
AcDbSymbolTableRecord
100
AcDbBlockTableRecord
  2
*D13
340
0
  0
BLOCK_RECORD
  5
15B4
330
1
100
AcDbSymbolTableRecord
100
AcDbBlockTableRecord
  2
*D14
340
0
  0
BLOCK_RECORD
  5
214E
330
1
100
AcDbSymbolTableRecord
100
AcDbBlockTableRecord
  2
*D15
340
0
  0
BLOCK_RECORD
  5
215A
330
1
100
AcDbSymbolTableRecord
100
AcDbBlockTableRecord
  2
*D16
340
0
  0
BLOCK_RECORD
  5
2166
330
1
100
AcDbSymbolTableRecord
100
AcDbBlockTableRecord
  2
*D17
340
0
  0
BLOCK_RECORD
  5
2172
330
1
100
AcDbSymbolTableRecord
100
AcDbBlockTableRecord
  2
*D18
340
0
  0
BLOCK_RECORD
  5
2189
330
1
100
AcDbSymbolTableRecord
100
AcDbBlockTableRecord
  2
*D19
340
0
  0
BLOCK_RECORD
  5
21D0
330
1
100
AcDbSymbolTableRecord
100
AcDbBlockTableRecord
  2
*D20
340
0
  0
BLOCK_RECORD
  5
21DC
330
1
100
AcDbSymbolTableRecord
100
AcDbBlockTableRecord
  2
*D21
340
0
  0
BLOCK_RECORD
  5
247C
330
1
100
AcDbSymbolTableRecord
100
AcDbBlockTableRecord
  2
*D22
340
0
  0
BLOCK_RECORD
  5
248B
330
1
100
AcDbSymbolTableRecord
100
AcDbBlockTableRecord
  2
*D23
340
0
  0
BLOCK_RECORD
  5
2498
330
1
100
AcDbSymbolTableRecord
100
AcDbBlockTableRecord
  2
*D24
340
0
  0
BLOCK_RECORD
  5
24C8
330
1
100
AcDbSymbolTableRecord
100
AcDbBlockTableRecord
  2
*D25
340
0
  0
BLOCK_RECORD
  5
24D5
330
1
100
AcDbSymbolTableRecord
100
AcDbBlockTableRecord
  2
*D26
340
0
  0
BLOCK_RECORD
  5
24EB
330
1
100
AcDbSymbolTableRecord
100
AcDbBlockTableRecord
  2
*D27
340
0
  0
BLOCK_RECORD
  5
2501
330
1
100
AcDbSymbolTableRecord
100
AcDbBlockTableRecord
  2
*D28
340
0
  0
BLOCK_RECORD
  5
2593
330
1
100
AcDbSymbolTableRecord
100
AcDbBlockTableRecord
  2
*D29
340
0
  0
BLOCK_RECORD
  5
25EA
330
1
100
AcDbSymbolTableRecord
100
AcDbBlockTableRecord
  2
*D30
340
0
  0
BLOCK_RECORD
  5
26AF
330
1
100
AcDbSymbolTableRecord
100
AcDbBlockTableRecord
  2
*D31
340
0
  0
ENDTAB
  0
ENDSEC
  0
SECTION
  2
BLOCKS
  0
BLOCK
  5
20
330
1F
100
AcDbEntity
  8
0
100
AcDbBlockBegin
  2
*Model_Space
 70
     0
 10
0.0
 20
0.0
 30
0.0
  3
*Model_Space
  1

  0
ENDBLK
  5
21
330
1F
100
AcDbEntity
  8
0
100
AcDbBlockEnd
  0
BLOCK
  5
1C
330
1B
100
AcDbEntity
 67
     1
  8
0
100
AcDbBlockBegin
  2
*Paper_Space
 70
     0
 10
0.0
 20
0.0
 30
0.0
  3
*Paper_Space
  1

  0
ENDBLK
  5
1D
330
1B
100
AcDbEntity
 67
     1
  8
0
100
AcDbBlockEnd
  0
BLOCK
  5
24
330
23
100
AcDbEntity
  8
0
100
AcDbBlockBegin
  2
*Paper_Space0
 70
     0
 10
0.0
 20
0.0
 30
0.0
  3
*Paper_Space0
  1

  0
ENDBLK
  5
25
330
23
100
AcDbEntity
  8
0
100
AcDbBlockEnd
  0
BLOCK
  5
D2
330
D0
100
AcDbEntity
  8
0
100
AcDbBlockBegin
  2
_DotSmall
 70
     0
 10
0.0
 20
0.0
 30
0.0
  3
_DotSmall
  1

  0
LWPOLYLINE
  5
D1
330
D0
100
AcDbEntity
  8
0
 62
     0
100
AcDbPolyline
 90
        2
 70
     1
 43
0.5
 10
-0.0625
 20
0.0
 42
1.0
 10
0.0625
 20
0.0
 42
1.0
  0
ENDBLK
  5
D3
330
D0
100
AcDbEntity
  8
0
100
AcDbBlockEnd
  0
BLOCK
  5
D8
330
D4
100
AcDbEntity
  8
0
100
AcDbBlockBegin
  2
_Origin2
 70
     0
 10
0.0
 20
0.0
 30
0.0
  3
_Origin2
  1

  0
CIRCLE
  5
D5
330
D4
100
AcDbEntity
  8
0
 62
     0
370
    -2
100
AcDbCircle
 10
0.0
 20
0.0
 30
0.0
 40
0.5
  0
CIRCLE
  5
D6
330
D4
100
AcDbEntity
  8
0
 62
     0
370
    -2
100
AcDbCircle
 10
0.0
 20
0.0
 30
0.0
 40
0.25
  0
LINE
  5
D7
330
D4
100
AcDbEntity
  8
0
 62
     0
370
    -2
100
AcDbLine
 10
-0.5
 20
0.0
 30
0.0
 11
-1.0
 21
0.0
 31
0.0
  0
ENDBLK
  5
D9
330
D4
100
AcDbEntity
  8
0
100
AcDbBlockEnd
  0
BLOCK
  5
DE
330
DA
100
AcDbEntity
  8
0
100
AcDbBlockBegin
  2
_Open30
 70
     0
 10
0.0
 20
0.0
 30
0.0
  3
_Open30
  1

  0
LINE
  5
DB
330
DA
100
AcDbEntity
  8
0
 62
     0
370
    -2
100
AcDbLine
 10
-1.0
 20
0.26794919
 30
0.0
 11
0.0
 21
0.0
 31
0.0
  0
LINE
  5
DC
330
DA
100
AcDbEntity
  8
0
 62
     0
370
    -2
100
AcDbLine
 10
0.0
 20
0.0
 30
0.0
 11
-1.0
 21
-0.26794919
 31
0.0
  0
LINE
  5
DD
330
DA
100
AcDbEntity
  8
0
 62
     0
370
    -2
100
AcDbLine
 10
0.0
 20
0.0
 30
0.0
 11
-1.0
 21
0.0
 31
0.0
  0
ENDBLK
  5
DF
330
DA
100
AcDbEntity
  8
0
100
AcDbBlockEnd
  0
BLOCK
  5
1546
330
153C
100
AcDbEntity
  8
0
100
AcDbBlockBegin
  2
*D4
 70
     1
 10
0.0
 20
0.0
 30
0.0
  3
*D4
  1

  0
LINE
  5
2A26
330
153C
100
AcDbEntity
  8
実形
 62
     0
370
    18
100
AcDbLine
 10
1817.899627132798
 20
591.2145273062869
 30
0.0
 11
1817.899627132798
 21
560.7316764226998
 31
0.0
  0
LINE
  5
2A27
330
153C
100
AcDbEntity
  8
実形
 62
     0
370
    18
100
AcDbLine
 10
1867.899627132798
 20
591.2145273062869
 30
0.0
 11
1867.899627132798
 21
560.7316764226998
 31
0.0
  0
LINE
  5
2A28
330
153C
100
AcDbEntity
  8
実形
 62
     0
370
    18
100
AcDbLine
 10
1817.899627132798
 20
560.7316764226998
 30
0.0
 11
1867.899627132798
 21
560.7316764226998
 31
0.0
  0
INSERT
  5
2A29
330
153C
100
AcDbEntity
  8
実形
 62
     0
370
    18
100
AcDbBlockReference
  2
_DotSmall
 10
1817.899627132798
 20
560.7316764226998
 30
0.0
 41
35.0
 42
35.0
 43
35.0
 50
180.0
  0
INSERT
  5
2A2A
330
153C
100
AcDbEntity
  8
実形
 62
     0
370
    18
100
AcDbBlockReference
  2
_DotSmall
 10
1867.899627132798
 20
560.7316764226998
 30
0.0
 41
35.0
 42
35.0
 43
35.0
  0
MTEXT
  5
2A2B
330
153C
100
AcDbEntity
  8
実形
 62
     0
100
AcDbMText
 10
1824.014601998565
 20
579.4816764226998
 30
0.0
 40
25.0
 41
0.0
 71
     5
 72
     1
  1
5
 73
     1
 44
1.0
1001
ACAD
1000
MTEXTBEGIN
1070
    73
1070
     1
1070
    44
1040
1.0
1070
    74
1070
     0
1000
MTEXTEND
  0
POINT
  5
2A2C
330
153C
100
AcDbEntity
  8
Defpoints
 62
     0
100
AcDbPoint
 10
1817.899627132798
 20
656.214527306287
 30
0.0
  0
POINT
  5
2A2D
330
153C
100
AcDbEntity
  8
Defpoints
 62
     0
100
AcDbPoint
 10
1867.899627132798
 20
656.214527306287
 30
0.0
  0
POINT
  5
2A2E
330
153C
100
AcDbEntity
  8
Defpoints
 62
     0
100
AcDbPoint
 10
1867.899627132798
 20
560.7316764226998
 30
0.0
  0
ENDBLK
  5
1547
330
153C
100
AcDbEntity
  8
0
100
AcDbBlockEnd
  0
BLOCK
  5
1552
330
1548
100
AcDbEntity
  8
0
100
AcDbBlockBegin
  2
*D5
 70
     1
 10
0.0
 20
0.0
 30
0.0
  3
*D5
  1

  0
LINE
  5
2A1D
330
1548
100
AcDbEntity
  8
実形
 62
     0
370
    18
100
AcDbLine
 10
1791.050329074197
 20
741.7745986296069
 30
0.0
 11
1753.525428541637
 21
741.7745986296069
 31
0.0
  0
LINE
  5
2A1E
330
1548
100
AcDbEntity
  8
実形
 62
     0
370
    18
100
AcDbLine
 10
1785.70111206964
 20
621.774598629607
 30
0.0
 11
1753.525428541637
 21
621.774598629607
 31
0.0
  0
LINE
  5
2A1F
330
1548
100
AcDbEntity
  8
実形
 62
     0
370
    18
100
AcDbLine
 10
1753.525428541637
 20
741.7745986296069
 30
0.0
 11
1753.525428541637
 21
621.774598629607
 31
0.0
  0
INSERT
  5
2A20
330
1548
100
AcDbEntity
  8
実形
 62
     0
370
    18
100
AcDbBlockReference
  2
_DotSmall
 10
1753.525428541637
 20
741.7745986296069
 30
0.0
 41
35.0
 42
35.0
 43
35.0
 50
90.0
  0
INSERT
  5
2A21
330
1548
100
AcDbEntity
  8
実形
 62
     0
370
    18
100
AcDbBlockReference
  2
_DotSmall
 10
1753.525428541637
 20
621.774598629607
 30
0.0
 41
35.0
 42
35.0
 43
35.0
 50
270.0
  0
MTEXT
  5
2A22
330
1548
100
AcDbEntity
  8
実形
 62
     0
100
AcDbMText
 10
1734.775428541636
 20
681.7745986296072
 30
0.0
 40
25.0
 41
0.0
 71
     5
 72
     1
  1
12
 11
0.0000000000000001
 21
1.0
 31
0.0
 73
     1
 44
1.0
1001
ACAD
1000
MTEXTBEGIN
1070
    73
1070
     1
1070
    44
1040
1.0
1070
    74
1070
     0
1000
MTEXTEND
  0
POINT
  5
2A23
330
1548
100
AcDbEntity
  8
Defpoints
 62
     0
100
AcDbPoint
 10
1856.050329074197
 20
741.7745986296068
 30
0.0
  0
POINT
  5
2A24
330
1548
100
AcDbEntity
  8
Defpoints
 62
     0
100
AcDbPoint
 10
1850.701112069639
 20
621.7745986296068
 30
0.0
  0
POINT
  5
2A25
330
1548
100
AcDbEntity
  8
Defpoints
 62
     0
100
AcDbPoint
 10
1753.525428541637
 20
621.774598629607
 30
0.0
  0
ENDBLK
  5
1553
330
1548
100
AcDbEntity
  8
0
100
AcDbBlockEnd
  0
BLOCK
  5
155E
330
1554
100
AcDbEntity
  8
0
100
AcDbBlockBegin
  2
*D6
 70
     1
 10
0.0
 20
0.0
 30
0.0
  3
*D6
  1

  0
LINE
  5
1DEA
330
1554
100
AcDbEntity
  8
実形
 62
     0
370
    18
100
AcDbLine
 10
2217.899627132799
 20
589.3938049223925
 30
0.0
 11
2217.899627132799
 21
566.132923262845
 31
0.0
  0
LINE
  5
1DEB
330
1554
100
AcDbEntity
  8
実形
 62
     0
370
    18
100
AcDbLine
 10
2317.899627132798
 20
589.3938049223925
 30
0.0
 11
2317.899627132798
 21
566.132923262845
 31
0.0
  0
LINE
  5
1DEC
330
1554
100
AcDbEntity
  8
実形
 62
     0
370
    18
100
AcDbLine
 10
2217.899627132799
 20
566.132923262845
 30
0.0
 11
2317.899627132798
 21
566.132923262845
 31
0.0
  0
INSERT
  5
1DED
330
1554
100
AcDbEntity
  8
実形
 62
     0
370
    18
100
AcDbBlockReference
  2
_DotSmall
 10
2217.899627132799
 20
566.132923262845
 30
0.0
 41
35.0
 42
35.0
 43
35.0
 50
180.0
  0
INSERT
  5
1DEE
330
1554
100
AcDbEntity
  8
実形
 62
     0
370
    18
100
AcDbBlockReference
  2
_DotSmall
 10
2317.899627132798
 20
566.132923262845
 30
0.0
 41
35.0
 42
35.0
 43
35.0
  0
MTEXT
  5
1DEF
330
1554
100
AcDbEntity
  8
実形
 62
     0
100
AcDbMText
 10
2267.899627132799
 20
584.882923262845
 30
0.0
 40
25.0
 41
0.0
 71
     5
 72
     1
  1
10
 73
     1
 44
1.0
1001
ACAD
1000
MTEXTBEGIN
1070
    73
1070
     1
1070
    44
1040
1.0
1070
    74
1070
     0
1000
MTEXTEND
  0
POINT
  5
1DF0
330
1554
100
AcDbEntity
  8
Defpoints
 62
     0
100
AcDbPoint
 10
2217.899627132799
 20
654.3938049223925
 30
0.0
  0
POINT
  5
1DF1
330
1554
100
AcDbEntity
  8
Defpoints
 62
     0
100
AcDbPoint
 10
2317.899627132798
 20
654.3938049223925
 30
0.0
  0
POINT
  5
1DF2
330
1554
100
AcDbEntity
  8
Defpoints
 62
     0
100
AcDbPoint
 10
2317.899627132798
 20
566.132923262845
 30
0.0
  0
ENDBLK
  5
155F
330
1554
100
AcDbEntity
  8
0
100
AcDbBlockEnd
  0
BLOCK
  5
156A
330
1560
100
AcDbEntity
  8
0
100
AcDbBlockBegin
  2
*D7
 70
     1
 10
0.0
 20
0.0
 30
0.0
  3
*D7
  1

  0
LINE
  5
1DE1
330
1560
100
AcDbEntity
  8
実形
 62
     0
370
    18
100
AcDbLine
 10
2167.899627132798
 20
589.3938049223925
 30
0.0
 11
2167.899627132798
 21
566.132923262845
 31
0.0
  0
LINE
  5
1DE2
330
1560
100
AcDbEntity
  8
実形
 62
     0
370
    18
100
AcDbLine
 10
2217.750478700636
 20
589.3938049223925
 30
0.0
 11
2217.750478700636
 21
566.132923262845
 31
0.0
  0
LINE
  5
1DE3
330
1560
100
AcDbEntity
  8
実形
 62
     0
370
    18
100
AcDbLine
 10
2167.899627132798
 20
566.132923262845
 30
0.0
 11
2217.750478700636
 21
566.132923262845
 31
0.0
  0
INSERT
  5
1DE4
330
1560
100
AcDbEntity
  8
実形
 62
     0
370
    18
100
AcDbBlockReference
  2
_DotSmall
 10
2167.899627132798
 20
566.132923262845
 30
0.0
 41
35.0
 42
35.0
 43
35.0
 50
180.0
  0
INSERT
  5
1DE5
330
1560
100
AcDbEntity
  8
実形
 62
     0
370
    18
100
AcDbBlockReference
  2
_DotSmall
 10
2217.750478700636
 20
566.132923262845
 30
0.0
 41
35.0
 42
35.0
 43
35.0
  0
MTEXT
  5
1DE6
330
1560
100
AcDbEntity
  8
実形
 62
     0
100
AcDbMText
 10
2192.825052916717
 20
584.882923262845
 30
0.0
 40
25.0
 41
0.0
 71
     5
 72
     1
  1
5
 73
     1
 44
1.0
1001
ACAD
1000
MTEXTBEGIN
1070
    73
1070
     1
1070
    44
1040
1.0
1070
    74
1070
     0
1000
MTEXTEND
  0
POINT
  5
1DE7
330
1560
100
AcDbEntity
  8
Defpoints
 62
     0
100
AcDbPoint
 10
2167.899627132798
 20
654.3938049223925
 30
0.0
  0
POINT
  5
1DE8
330
1560
100
AcDbEntity
  8
Defpoints
 62
     0
100
AcDbPoint
 10
2217.750478700636
 20
654.3938049223925
 30
0.0
  0
POINT
  5
1DE9
330
1560
100
AcDbEntity
  8
Defpoints
 62
     0
100
AcDbPoint
 10
2217.750478700636
 20
566.132923262845
 30
0.0
  0
ENDBLK
  5
156B
330
1560
100
AcDbEntity
  8
0
100
AcDbBlockEnd
  0
BLOCK
  5
1576
330
156C
100
AcDbEntity
  8
0
100
AcDbBlockBegin
  2
*D8
 70
     1
 10
0.0
 20
0.0
 30
0.0
  3
*D8
  1

  0
LINE
  5
2A14
330
156C
100
AcDbEntity
  8
実形
 62
     0
370
    18
100
AcDbLine
 10
1867.899627132799
 20
771.2498690356978
 30
0.0
 11
1867.899627132799
 21
804.2436145081255
 31
0.0
  0
LINE
  5
2A15
330
156C
100
AcDbEntity
  8
実形
 62
     0
370
    18
100
AcDbLine
 10
2047.899627132799
 20
771.2498690356978
 30
0.0
 11
2047.899627132799
 21
804.2436145081255
 31
0.0
  0
LINE
  5
2A16
330
156C
100
AcDbEntity
  8
実形
 62
     0
370
    18
100
AcDbLine
 10
1867.899627132799
 20
804.2436145081255
 30
0.0
 11
2047.899627132799
 21
804.2436145081255
 31
0.0
  0
INSERT
  5
2A17
330
156C
100
AcDbEntity
  8
実形
 62
     0
370
    18
100
AcDbBlockReference
  2
_DotSmall
 10
1867.899627132799
 20
804.2436145081255
 30
0.0
 41
35.0
 42
35.0
 43
35.0
 50
180.0
  0
INSERT
  5
2A18
330
156C
100
AcDbEntity
  8
実形
 62
     0
370
    18
100
AcDbBlockReference
  2
_DotSmall
 10
2047.899627132799
 20
804.2436145081255
 30
0.0
 41
35.0
 42
35.0
 43
35.0
  0
MTEXT
  5
2A19
330
156C
100
AcDbEntity
  8
実形
 62
     0
100
AcDbMText
 10
1957.899627132799
 20
822.9936145081255
 30
0.0
 40
25.0
 41
0.0
 71
     5
 72
     1
  1
18
 73
     1
 44
1.0
1001
ACAD
1000
MTEXTBEGIN
1070
    73
1070
     1
1070
    44
1040
1.0
1070
    74
1070
     0
1000
MTEXTEND
  0
POINT
  5
2A1A
330
156C
100
AcDbEntity
  8
Defpoints
 62
     0
100
AcDbPoint
 10
1867.899627132799
 20
706.2498690356979
 30
0.0
  0
POINT
  5
2A1B
330
156C
100
AcDbEntity
  8
Defpoints
 62
     0
100
AcDbPoint
 10
2047.899627132799
 20
706.2498690356979
 30
0.0
  0
POINT
  5
2A1C
330
156C
100
AcDbEntity
  8
Defpoints
 62
     0
100
AcDbPoint
 10
2047.899627132799
 20
804.2436145081255
 30
0.0
  0
ENDBLK
  5
1577
330
156C
100
AcDbEntity
  8
0
100
AcDbBlockEnd
  0
BLOCK
  5
1582
330
1578
100
AcDbEntity
  8
0
100
AcDbBlockBegin
  2
*D9
 70
     1
 10
0.0
 20
0.0
 30
0.0
  3
*D9
  1

  0
LINE
  5
2A0B
330
1578
100
AcDbEntity
  8
実形
 62
     0
370
    18
100
AcDbLine
 10
1817.899627132799
 20
776.1883187961321
 30
0.0
 11
1817.899627132799
 21
865.148744994477
 31
0.0
  0
LINE
  5
2A0C
330
1578
100
AcDbEntity
  8
実形
 62
     0
370
    18
100
AcDbLine
 10
2317.899627132799
 20
770.188318796132
 30
0.0
 11
2317.899627132799
 21
865.148744994477
 31
0.0
  0
LINE
  5
2A0D
330
1578
100
AcDbEntity
  8
実形
 62
     0
370
    18
100
AcDbLine
 10
1817.899627132799
 20
865.148744994477
 30
0.0
 11
2317.899627132799
 21
865.148744994477
 31
0.0
  0
INSERT
  5
2A0E
330
1578
100
AcDbEntity
  8
実形
 62
     0
370
    18
100
AcDbBlockReference
  2
_DotSmall
 10
1817.899627132799
 20
865.148744994477
 30
0.0
 41
35.0
 42
35.0
 43
35.0
 50
180.0
  0
INSERT
  5
2A0F
330
1578
100
AcDbEntity
  8
実形
 62
     0
370
    18
100
AcDbBlockReference
  2
_DotSmall
 10
2317.899627132799
 20
865.148744994477
 30
0.0
 41
35.0
 42
35.0
 43
35.0
  0
MTEXT
  5
2A10
330
1578
100
AcDbEntity
  8
実形
 62
     0
100
AcDbMText
 10
2067.899627132799
 20
883.898744994477
 30
0.0
 40
25.0
 41
0.0
 71
     5
 72
     1
  1
50
 73
     1
 44
1.0
1001
ACAD
1000
MTEXTBEGIN
1070
    73
1070
     1
1070
    44
1040
1.0
1070
    74
1070
     0
1000
MTEXTEND
  0
POINT
  5
2A11
330
1578
100
AcDbEntity
  8
Defpoints
 62
     0
100
AcDbPoint
 10
1817.899627132799
 20
711.188318796132
 30
0.0
  0
POINT
  5
2A12
330
1578
100
AcDbEntity
  8
Defpoints
 62
     0
100
AcDbPoint
 10
2317.899627132799
 20
705.1883187961321
 30
0.0
  0
POINT
  5
2A13
330
1578
100
AcDbEntity
  8
Defpoints
 62
     0
100
AcDbPoint
 10
2317.899627132799
 20
865.148744994477
 30
0.0
  0
ENDBLK
  5
1583
330
1578
100
AcDbEntity
  8
0
100
AcDbBlockEnd
  0
BLOCK
  5
158E
330
1584
100
AcDbEntity
  8
0
100
AcDbBlockBegin
  2
*D10
 70
     1
 10
0.0
 20
0.0
 30
0.0
  3
*D10
  1

  0
LINE
  5
1DC6
330
1584
100
AcDbEntity
  8
実形
 62
     0
370
    18
100
AcDbLine
 10
2346.301992771529
 20
741.7745986296067
 30
0.0
 11
2389.409955385397
 21
741.7745986296067
 31
0.0
  0
LINE
  5
1DC7
330
1584
100
AcDbEntity
  8
実形
 62
     0
370
    18
100
AcDbLine
 10
2346.301992771529
 20
691.7745986296067
 30
0.0
 11
2389.409955385397
 21
691.7745986296067
 31
0.0
  0
LINE
  5
1DC8
330
1584
100
AcDbEntity
  8
実形
 62
     0
370
    18
100
AcDbLine
 10
2389.409955385397
 20
741.7745986296067
 30
0.0
 11
2389.409955385397
 21
691.7745986296067
 31
0.0
  0
INSERT
  5
1DC9
330
1584
100
AcDbEntity
  8
実形
 62
     0
370
    18
100
AcDbBlockReference
  2
_DotSmall
 10
2389.409955385397
 20
741.7745986296067
 30
0.0
 41
35.0
 42
35.0
 43
35.0
 50
90.0
  0
INSERT
  5
1DCA
330
1584
100
AcDbEntity
  8
実形
 62
     0
370
    18
100
AcDbBlockReference
  2
_DotSmall
 10
2389.409955385397
 20
691.7745986296067
 30
0.0
 41
35.0
 42
35.0
 43
35.0
 50
270.0
  0
MTEXT
  5
1DCB
330
1584
100
AcDbEntity
  8
実形
 62
     0
100
AcDbMText
 10
2370.659955385397
 20
716.7745986296071
 30
0.0
 40
25.0
 41
0.0
 71
     5
 72
     1
  1
5
 11
0.0000000000000001
 21
1.0
 31
0.0
 73
     1
 44
1.0
1001
ACAD
1000
MTEXTBEGIN
1070
    73
1070
     1
1070
    44
1040
1.0
1070
    74
1070
     0
1000
MTEXTEND
  0
POINT
  5
1DCC
330
1584
100
AcDbEntity
  8
Defpoints
 62
     0
100
AcDbPoint
 10
2281.301992771529
 20
741.7745986296067
 30
0.0
  0
POINT
  5
1DCD
330
1584
100
AcDbEntity
  8
Defpoints
 62
     0
100
AcDbPoint
 10
2281.301992771529
 20
691.7745986296067
 30
0.0
  0
POINT
  5
1DCE
330
1584
100
AcDbEntity
  8
Defpoints
 62
     0
100
AcDbPoint
 10
2389.409955385397
 20
691.7745986296067
 30
0.0
  0
ENDBLK
  5
158F
330
1584
100
AcDbEntity
  8
0
100
AcDbBlockEnd
  0
BLOCK
  5
159A
330
1590
100
AcDbEntity
  8
0
100
AcDbBlockBegin
  2
*D11
 70
     1
 10
0.0
 20
0.0
 30
0.0
  3
*D11
  1

  0
LINE
  5
1DBD
330
1590
100
AcDbEntity
  8
実形
 62
     0
370
    18
100
AcDbLine
 10
2267.899627132799
 20
770.188318796132
 30
0.0
 11
2267.899627132799
 21
817.6685318953046
 31
0.0
  0
LINE
  5
1DBE
330
1590
100
AcDbEntity
  8
実形
 62
     0
370
    18
100
AcDbLine
 10
2317.899627132799
 20
770.188318796132
 30
0.0
 11
2317.899627132799
 21
817.6685318953046
 31
0.0
  0
LINE
  5
1DBF
330
1590
100
AcDbEntity
  8
実形
 62
     0
370
    18
100
AcDbLine
 10
2267.899627132799
 20
817.6685318953046
 30
0.0
 11
2317.899627132799
 21
817.6685318953046
 31
0.0
  0
INSERT
  5
1DC0
330
1590
100
AcDbEntity
  8
実形
 62
     0
370
    18
100
AcDbBlockReference
  2
_DotSmall
 10
2267.899627132799
 20
817.6685318953046
 30
0.0
 41
35.0
 42
35.0
 43
35.0
 50
180.0
  0
INSERT
  5
1DC1
330
1590
100
AcDbEntity
  8
実形
 62
     0
370
    18
100
AcDbBlockReference
  2
_DotSmall
 10
2317.899627132799
 20
817.6685318953046
 30
0.0
 41
35.0
 42
35.0
 43
35.0
  0
MTEXT
  5
1DC2
330
1590
100
AcDbEntity
  8
実形
 62
     0
100
AcDbMText
 10
2292.899627132799
 20
836.4185318953046
 30
0.0
 40
25.0
 41
0.0
 71
     5
 72
     1
  1
5
 73
     1
 44
1.0
1001
ACAD
1000
MTEXTBEGIN
1070
    73
1070
     1
1070
    44
1040
1.0
1070
    74
1070
     0
1000
MTEXTEND
  0
POINT
  5
1DC3
330
1590
100
AcDbEntity
  8
Defpoints
 62
     0
100
AcDbPoint
 10
2267.899627132799
 20
705.1883187961321
 30
0.0
  0
POINT
  5
1DC4
330
1590
100
AcDbEntity
  8
Defpoints
 62
     0
100
AcDbPoint
 10
2317.899627132799
 20
705.1883187961321
 30
0.0
  0
POINT
  5
1DC5
330
1590
100
AcDbEntity
  8
Defpoints
 62
     0
100
AcDbPoint
 10
2317.899627132799
 20
817.6685318953046
 30
0.0
  0
ENDBLK
  5
159B
330
1590
100
AcDbEntity
  8
0
100
AcDbBlockEnd
  0
BLOCK
  5
15A6
330
159C
100
AcDbEntity
  8
0
100
AcDbBlockBegin
  2
*D12
 70
     1
 10
0.0
 20
0.0
 30
0.0
  3
*D12
  1

  0
LINE
  5
2A30
330
159C
100
AcDbEntity
  8
実形
 62
     0
370
    18
100
AcDbLine
 10
2077.8411846723
 20
671.7745986296067
 30
0.0
 11
2087.358522894804
 21
671.7745986296067
 31
0.0
  0
LINE
  5
2A31
330
159C
100
AcDbEntity
  8
実形
 62
     0
370
    18
100
AcDbLine
 10
2077.8411846723
 20
621.7745986296067
 30
0.0
 11
2087.358522894804
 21
621.7745986296067
 31
0.0
  0
LINE
  5
2A32
330
159C
100
AcDbEntity
  8
実形
 62
     0
370
    18
100
AcDbLine
 10
2087.358522894804
 20
671.7745986296067
 30
0.0
 11
2087.358522894804
 21
621.7745986296067
 31
0.0
  0
INSERT
  5
2A33
330
159C
100
AcDbEntity
  8
実形
 62
     0
370
    18
100
AcDbBlockReference
  2
_DotSmall
 10
2087.358522894804
 20
671.7745986296067
 30
0.0
 41
35.0
 42
35.0
 43
35.0
 50
90.0
  0
INSERT
  5
2A34
330
159C
100
AcDbEntity
  8
実形
 62
     0
370
    18
100
AcDbBlockReference
  2
_DotSmall
 10
2087.358522894804
 20
621.7745986296067
 30
0.0
 41
35.0
 42
35.0
 43
35.0
 50
270.0
  0
MTEXT
  5
2A35
330
159C
100
AcDbEntity
  8
実形
 62
     0
100
AcDbMText
 10
2068.608522894804
 20
646.7745986296071
 30
0.0
 40
25.0
 41
0.0
 71
     5
 72
     1
  1
5
 11
0.0000000000000001
 21
1.0
 31
0.0
 73
     1
 44
1.0
1001
ACAD
1000
MTEXTBEGIN
1070
    73
1070
     1
1070
    44
1040
1.0
1070
    74
1070
     0
1000
MTEXTEND
  0
POINT
  5
2A36
330
159C
100
AcDbEntity
  8
Defpoints
 62
     0
100
AcDbPoint
 10
2012.8411846723
 20
671.7745986296067
 30
0.0
  0
POINT
  5
2A37
330
159C
100
AcDbEntity
  8
Defpoints
 62
     0
100
AcDbPoint
 10
2012.8411846723
 20
621.7745986296067
 30
0.0
  0
POINT
  5
2A38
330
159C
100
AcDbEntity
  8
Defpoints
 62
     0
100
AcDbPoint
 10
2087.358522894804
 20
621.7745986296067
 30
0.0
  0
ENDBLK
  5
15A7
330
159C
100
AcDbEntity
  8
0
100
AcDbBlockEnd
  0
BLOCK
  5
15B2
330
15A8
100
AcDbEntity
  8
0
100
AcDbBlockBegin
  2
*D13
 70
     1
 10
0.0
 20
0.0
 30
0.0
  3
*D13
  1

  0
LINE
  5
2A4B
330
15A8
100
AcDbEntity
  8
実形
 62
     0
370
    18
100
AcDbLine
 10
1897.899627132798
 20
512.5399579777349
 30
0.0
 11
1897.899627132798
 21
489.0759292349884
 31
0.0
  0
LINE
  5
2A4C
330
15A8
100
AcDbEntity
  8
実形
 62
     0
370
    18
100
AcDbLine
 10
2077.899627132798
 20
512.5399579777349
 30
0.0
 11
2077.899627132798
 21
489.0759292349884
 31
0.0
  0
LINE
  5
2A4D
330
15A8
100
AcDbEntity
  8
実形
 62
     0
370
    18
100
AcDbLine
 10
1897.899627132798
 20
489.0759292349884
 30
0.0
 11
2077.899627132798
 21
489.0759292349884
 31
0.0
  0
INSERT
  5
2A4E
330
15A8
100
AcDbEntity
  8
実形
 62
     0
370
    18
100
AcDbBlockReference
  2
_DotSmall
 10
1897.899627132798
 20
489.0759292349884
 30
0.0
 41
35.0
 42
35.0
 43
35.0
 50
180.0
  0
INSERT
  5
2A4F
330
15A8
100
AcDbEntity
  8
実形
 62
     0
370
    18
100
AcDbBlockReference
  2
_DotSmall
 10
2077.899627132798
 20
489.0759292349884
 30
0.0
 41
35.0
 42
35.0
 43
35.0
  0
MTEXT
  5
2A50
330
15A8
100
AcDbEntity
  8
実形
 62
     0
100
AcDbMText
 10
1987.899627132798
 20
507.8259292349884
 30
0.0
 40
25.0
 41
0.0
 71
     5
 72
     1
  1
18
 73
     1
 44
1.0
1001
ACAD
1000
MTEXTBEGIN
1070
    73
1070
     1
1070
    44
1040
1.0
1070
    74
1070
     0
1000
MTEXTEND
  0
POINT
  5
2A51
330
15A8
100
AcDbEntity
  8
Defpoints
 62
     0
100
AcDbPoint
 10
1897.899627132798
 20
577.5399579777349
 30
0.0
  0
POINT
  5
2A52
330
15A8
100
AcDbEntity
  8
Defpoints
 62
     0
100
AcDbPoint
 10
2077.899627132798
 20
577.5399579777349
 30
0.0
  0
POINT
  5
2A53
330
15A8
100
AcDbEntity
  8
Defpoints
 62
     0
100
AcDbPoint
 10
2077.899627132798
 20
489.0759292349884
 30
0.0
  0
ENDBLK
  5
15B3
330
15A8
100
AcDbEntity
  8
0
100
AcDbBlockEnd
  0
BLOCK
  5
15BE
330
15B4
100
AcDbEntity
  8
0
100
AcDbBlockBegin
  2
*D14
 70
     1
 10
0.0
 20
0.0
 30
0.0
  3
*D14
  1

  0
LINE
  5
2A54
330
15B4
100
AcDbEntity
  8
実形
 62
     0
370
    18
100
AcDbLine
 10
2107.667552183736
 20
613.3475735696975
 30
0.0
 11
2125.611732425682
 21
613.3475735696975
 31
0.0
  0
LINE
  5
2A55
330
15B4
100
AcDbEntity
  8
実形
 62
     0
370
    18
100
AcDbLine
 10
2107.667552183736
 20
543.3475735696974
 30
0.0
 11
2125.611732425682
 21
543.3475735696974
 31
0.0
  0
LINE
  5
2A56
330
15B4
100
AcDbEntity
  8
実形
 62
     0
370
    18
100
AcDbLine
 10
2125.611732425682
 20
613.3475735696975
 30
0.0
 11
2125.611732425682
 21
543.3475735696974
 31
0.0
  0
INSERT
  5
2A57
330
15B4
100
AcDbEntity
  8
実形
 62
     0
370
    18
100
AcDbBlockReference
  2
_DotSmall
 10
2125.611732425682
 20
613.3475735696975
 30
0.0
 41
35.0
 42
35.0
 43
35.0
 50
90.0
  0
INSERT
  5
2A58
330
15B4
100
AcDbEntity
  8
実形
 62
     0
370
    18
100
AcDbBlockReference
  2
_DotSmall
 10
2125.611732425682
 20
543.3475735696974
 30
0.0
 41
35.0
 42
35.0
 43
35.0
 50
270.0
  0
MTEXT
  5
2A59
330
15B4
100
AcDbEntity
  8
実形
 62
     0
100
AcDbMText
 10
2106.861732425683
 20
578.3475735696978
 30
0.0
 40
25.0
 41
0.0
 71
     5
 72
     1
  1
7
 11
0.0000000000000001
 21
1.0
 31
0.0
 73
     1
 44
1.0
1001
ACAD
1000
MTEXTBEGIN
1070
    73
1070
     1
1070
    44
1040
1.0
1070
    74
1070
     0
1000
MTEXTEND
  0
POINT
  5
2A5A
330
15B4
100
AcDbEntity
  8
Defpoints
 62
     0
100
AcDbPoint
 10
2042.667552183736
 20
613.3475735696975
 30
0.0
  0
POINT
  5
2A5B
330
15B4
100
AcDbEntity
  8
Defpoints
 62
     0
100
AcDbPoint
 10
2042.667552183736
 20
543.3475735696974
 30
0.0
  0
POINT
  5
2A5C
330
15B4
100
AcDbEntity
  8
Defpoints
 62
     0
100
AcDbPoint
 10
2125.611732425682
 20
543.3475735696974
 30
0.0
  0
ENDBLK
  5
15BF
330
15B4
100
AcDbEntity
  8
0
100
AcDbBlockEnd
  0
BLOCK
  5
2158
330
214E
100
AcDbEntity
  8
0
100
AcDbBlockBegin
  2
*D15
 70
     1
 10
0.0
 20
0.0
 30
0.0
  3
*D15
  1

  0
LINE
  5
21F5
330
214E
100
AcDbEntity
  8
寸法
 62
     0
370
    15
100
AcDbLine
 10
628.6981081818339
 20
582.1015195529453
 30
0.0
 11
628.6981081818339
 21
530.6741122518724
 31
0.0
  0
LINE
  5
21F6
330
214E
100
AcDbEntity
  8
寸法
 62
     0
370
    15
100
AcDbLine
 10
788.698108181834
 20
582.1015195529453
 30
0.0
 11
788.698108181834
 21
530.6741122518724
 31
0.0
  0
LINE
  5
21F7
330
214E
100
AcDbEntity
  8
寸法
 62
     0
370
    18
100
AcDbLine
 10
628.6981081818339
 20
530.6741122518724
 30
0.0
 11
788.698108181834
 21
530.6741122518724
 31
0.0
  0
INSERT
  5
21F8
330
214E
100
AcDbEntity
  8
寸法
 62
     0
370
    18
100
AcDbBlockReference
  2
_DotSmall
 10
628.6981081818339
 20
530.6741122518724
 30
0.0
 41
25.0
 42
25.0
 43
25.0
 50
180.0
  0
INSERT
  5
21F9
330
214E
100
AcDbEntity
  8
寸法
 62
     0
370
    18
100
AcDbBlockReference
  2
_DotSmall
 10
788.698108181834
 20
530.6741122518724
 30
0.0
 41
25.0
 42
25.0
 43
25.0
  0
MTEXT
  5
21FA
330
214E
100
AcDbEntity
  8
寸法
 62
     0
100
AcDbMText
 10
708.6981081818339
 20
549.4241122518724
 30
0.0
 40
25.0
 41
0.0
 71
     5
 72
     1
  1
158
 73
     1
 44
1.0
1001
ACAD
1000
MTEXTBEGIN
1070
    73
1070
     1
1070
    44
1040
1.0
1070
    74
1070
     0
1000
MTEXTEND
  0
POINT
  5
21FB
330
214E
100
AcDbEntity
  8
Defpoints
 62
     0
100
AcDbPoint
 10
628.6981081818339
 20
647.1015195529453
 30
0.0
  0
POINT
  5
21FC
330
214E
100
AcDbEntity
  8
Defpoints
 62
     0
100
AcDbPoint
 10
788.698108181834
 20
647.1015195529453
 30
0.0
  0
POINT
  5
21FD
330
214E
100
AcDbEntity
  8
Defpoints
 62
     0
100
AcDbPoint
 10
788.698108181834
 20
530.6741122518724
 30
0.0
  0
ENDBLK
  5
2159
330
214E
100
AcDbEntity
  8
0
100
AcDbBlockEnd
  0
BLOCK
  5
2164
330
215A
100
AcDbEntity
  8
0
100
AcDbBlockBegin
  2
*D16
 70
     1
 10
0.0
 20
0.0
 30
0.0
  3
*D16
  1

  0
LINE
  5
21FE
330
215A
100
AcDbEntity
  8
寸法
 62
     0
370
    15
100
AcDbLine
 10
618.198108181834
 20
582.1015195529455
 30
0.0
 11
618.198108181834
 21
470.7147136829434
 31
0.0
  0
LINE
  5
21FF
330
215A
100
AcDbEntity
  8
寸法
 62
     0
370
    15
100
AcDbLine
 10
799.1981081818339
 20
582.1015195529453
 30
0.0
 11
799.1981081818339
 21
470.7147136829434
 31
0.0
  0
LINE
  5
2200
330
215A
100
AcDbEntity
  8
寸法
 62
     0
370
    18
100
AcDbLine
 10
618.198108181834
 20
470.7147136829434
 30
0.0
 11
799.1981081818339
 21
470.7147136829434
 31
0.0
  0
INSERT
  5
2201
330
215A
100
AcDbEntity
  8
寸法
 62
     0
370
    18
100
AcDbBlockReference
  2
_DotSmall
 10
618.198108181834
 20
470.7147136829434
 30
0.0
 41
25.0
 42
25.0
 43
25.0
 50
180.0
  0
INSERT
  5
2202
330
215A
100
AcDbEntity
  8
寸法
 62
     0
370
    18
100
AcDbBlockReference
  2
_DotSmall
 10
799.1981081818339
 20
470.7147136829434
 30
0.0
 41
25.0
 42
25.0
 43
25.0
  0
MTEXT
  5
2203
330
215A
100
AcDbEntity
  8
寸法
 62
     0
100
AcDbMText
 10
708.6981081818339
 20
489.4647136829434
 30
0.0
 40
25.0
 41
0.0
 71
     5
 72
     1
  1
181
 73
     1
 44
1.0
1001
ACAD
1000
MTEXTBEGIN
1070
    73
1070
     1
1070
    44
1040
1.0
1070
    74
1070
     0
1000
MTEXTEND
  0
POINT
  5
2204
330
215A
100
AcDbEntity
  8
Defpoints
 62
     0
100
AcDbPoint
 10
618.198108181834
 20
647.1015195529455
 30
0.0
  0
POINT
  5
2205
330
215A
100
AcDbEntity
  8
Defpoints
 62
     0
100
AcDbPoint
 10
799.1981081818339
 20
647.1015195529453
 30
0.0
  0
POINT
  5
2206
330
215A
100
AcDbEntity
  8
Defpoints
 62
     0
100
AcDbPoint
 10
799.1981081818339
 20
470.7147136829434
 30
0.0
  0
ENDBLK
  5
2165
330
215A
100
AcDbEntity
  8
0
100
AcDbBlockEnd
  0
BLOCK
  5
2170
330
2166
100
AcDbEntity
  8
0
100
AcDbBlockBegin
  2
*D17
 70
     1
 10
0.0
 20
0.0
 30
0.0
  3
*D17
  1

  0
LINE
  5
2207
330
2166
100
AcDbEntity
  8
寸法
 62
     0
370
    15
100
AcDbLine
 10
2040.037173103605
 20
1584.599516661139
 30
0.0
 11
2085.343317195526
 21
1584.599516661139
 31
0.0
  0
LINE
  5
2208
330
2166
100
AcDbEntity
  8
寸法
 62
     0
370
    15
100
AcDbLine
 10
2040.037173103605
 20
1424.599516661139
 30
0.0
 11
2085.343317195526
 21
1424.599516661139
 31
0.0
  0
LINE
  5
2209
330
2166
100
AcDbEntity
  8
寸法
 62
     0
370
    18
100
AcDbLine
 10
2085.343317195526
 20
1584.599516661139
 30
0.0
 11
2085.343317195526
 21
1424.599516661139
 31
0.0
  0
INSERT
  5
220A
330
2166
100
AcDbEntity
  8
寸法
 62
     0
370
    18
100
AcDbBlockReference
  2
_DotSmall
 10
2085.343317195526
 20
1584.599516661139
 30
0.0
 41
25.0
 42
25.0
 43
25.0
 50
90.0
  0
INSERT
  5
220B
330
2166
100
AcDbEntity
  8
寸法
 62
     0
370
    18
100
AcDbBlockReference
  2
_DotSmall
 10
2085.343317195526
 20
1424.599516661139
 30
0.0
 41
25.0
 42
25.0
 43
25.0
 50
270.0
  0
MTEXT
  5
220C
330
2166
100
AcDbEntity
  8
寸法
 62
     0
100
AcDbMText
 10
2066.593317195525
 20
1504.599516661139
 30
0.0
 40
25.0
 41
0.0
 71
     5
 72
     1
  1
158
 11
0.0000000000000001
 21
1.0
 31
0.0
 73
     1
 44
1.0
1001
ACAD
1000
MTEXTBEGIN
1070
    73
1070
     1
1070
    44
1040
1.0
1070
    74
1070
     0
1000
MTEXTEND
  0
POINT
  5
220D
330
2166
100
AcDbEntity
  8
Defpoints
 62
     0
100
AcDbPoint
 10
1975.037173103606
 20
1584.599516661139
 30
0.0
  0
POINT
  5
220E
330
2166
100
AcDbEntity
  8
Defpoints
 62
     0
100
AcDbPoint
 10
1975.037173103606
 20
1424.599516661139
 30
0.0
  0
POINT
  5
220F
330
2166
100
AcDbEntity
  8
Defpoints
 62
     0
100
AcDbPoint
 10
2085.343317195526
 20
1424.599516661139
 30
0.0
  0
ENDBLK
  5
2171
330
2166
100
AcDbEntity
  8
0
100
AcDbBlockEnd
  0
BLOCK
  5
217C
330
2172
100
AcDbEntity
  8
0
100
AcDbBlockBegin
  2
*D18
 70
     1
 10
0.0
 20
0.0
 30
0.0
  3
*D18
  1

  0
LINE
  5
2210
330
2172
100
AcDbEntity
  8
寸法
 62
     0
370
    15
100
AcDbLine
 10
2040.037173103605
 20
1595.099516661139
 30
0.0
 11
2150.264905160367
 21
1595.099516661139
 31
0.0
  0
LINE
  5
2211
330
2172
100
AcDbEntity
  8
寸法
 62
     0
370
    15
100
AcDbLine
 10
2040.037173103605
 20
1414.099516661139
 30
0.0
 11
2150.264905160367
 21
1414.099516661139
 31
0.0
  0
LINE
  5
2212
330
2172
100
AcDbEntity
  8
寸法
 62
     0
370
    18
100
AcDbLine
 10
2150.264905160367
 20
1595.099516661139
 30
0.0
 11
2150.264905160367
 21
1414.099516661139
 31
0.0
  0
INSERT
  5
2213
330
2172
100
AcDbEntity
  8
寸法
 62
     0
370
    18
100
AcDbBlockReference
  2
_DotSmall
 10
2150.264905160367
 20
1595.099516661139
 30
0.0
 41
25.0
 42
25.0
 43
25.0
 50
90.0
  0
INSERT
  5
2214
330
2172
100
AcDbEntity
  8
寸法
 62
     0
370
    18
100
AcDbBlockReference
  2
_DotSmall
 10
2150.264905160367
 20
1414.099516661139
 30
0.0
 41
25.0
 42
25.0
 43
25.0
 50
270.0
  0
MTEXT
  5
2215
330
2172
100
AcDbEntity
  8
寸法
 62
     0
100
AcDbMText
 10
2131.514905160367
 20
1504.599516661139
 30
0.0
 40
25.0
 41
0.0
 71
     5
 72
     1
  1
181
 11
0.0000000000000001
 21
1.0
 31
0.0
 73
     1
 44
1.0
1001
ACAD
1000
MTEXTBEGIN
1070
    73
1070
     1
1070
    44
1040
1.0
1070
    74
1070
     0
1000
MTEXTEND
  0
POINT
  5
2216
330
2172
100
AcDbEntity
  8
Defpoints
 62
     0
100
AcDbPoint
 10
1975.037173103606
 20
1595.099516661139
 30
0.0
  0
POINT
  5
2217
330
2172
100
AcDbEntity
  8
Defpoints
 62
     0
100
AcDbPoint
 10
1975.037173103606
 20
1414.099516661139
 30
0.0
  0
POINT
  5
2218
330
2172
100
AcDbEntity
  8
Defpoints
 62
     0
100
AcDbPoint
 10
2150.264905160367
 20
1414.099516661139
 30
0.0
  0
ENDBLK
  5
217D
330
2172
100
AcDbEntity
  8
0
100
AcDbBlockEnd
  0
BLOCK
  5
2193
330
2189
100
AcDbEntity
  8
0
100
AcDbBlockBegin
  2
*D19
 70
     1
 10
0.0
 20
0.0
 30
0.0
  3
*D19
  1

  0
LINE
  5
2692
330
2189
100
AcDbEntity
  8
寸法
 62
     0
370
    15
100
AcDbLine
 10
478.6981064687306
 20
1704.667796407059
 30
0.0
 11
400.5227917448575
 21
1704.667796407059
 31
0.0
  0
LINE
  5
2693
330
2189
100
AcDbEntity
  8
寸法
 62
     0
370
    15
100
AcDbLine
 10
478.6981064687306
 20
1304.667796407058
 30
0.0
 11
400.5227917448573
 21
1304.667796407058
 31
0.0
  0
LINE
  5
2694
330
2189
100
AcDbEntity
  8
寸法
 62
     0
370
    18
100
AcDbLine
 10
400.5227917448575
 20
1704.667796407059
 30
0.0
 11
400.5227917448573
 21
1304.667796407058
 31
0.0
  0
INSERT
  5
2695
330
2189
100
AcDbEntity
  8
寸法
 62
     0
370
    18
100
AcDbBlockReference
  2
_DotSmall
 10
400.5227917448575
 20
1704.667796407059
 30
0.0
 41
25.0
 42
25.0
 43
25.0
 50
90.0
  0
INSERT
  5
2696
330
2189
100
AcDbEntity
  8
寸法
 62
     0
370
    18
100
AcDbBlockReference
  2
_DotSmall
 10
400.5227917448573
 20
1304.667796407058
 30
0.0
 41
25.0
 42
25.0
 43
25.0
 50
270.0
  0
MTEXT
  5
2697
330
2189
100
AcDbEntity
  8
寸法
 62
     0
100
AcDbMText
 10
381.7727917448572
 20
1504.667796407058
 30
0.0
 40
25.0
 41
0.0
 71
     5
 72
     1
  1
400
 11
0.0000000000000001
 21
1.0
 31
0.0
 73
     1
 44
1.0
1001
ACAD
1000
MTEXTBEGIN
1070
    73
1070
     1
1070
    44
1040
1.0
1070
    74
1070
     0
1000
MTEXTEND
  0
POINT
  5
2698
330
2189
100
AcDbEntity
  8
Defpoints
 62
     0
100
AcDbPoint
 10
543.6981064687306
 20
1704.667796407058
 30
0.0
  0
POINT
  5
2699
330
2189
100
AcDbEntity
  8
Defpoints
 62
     0
100
AcDbPoint
 10
543.6981064687306
 20
1304.667796407058
 30
0.0
  0
POINT
  5
269A
330
2189
100
AcDbEntity
  8
Defpoints
 62
     0
100
AcDbPoint
 10
400.5227917448573
 20
1304.667796407058
 30
0.0
  0
ENDBLK
  5
2194
330
2189
100
AcDbEntity
  8
0
100
AcDbBlockEnd
  0
BLOCK
  5
21DA
330
21D0
100
AcDbEntity
  8
0
100
AcDbBlockBegin
  2
*D20
 70
     1
 10
0.0
 20
0.0
 30
0.0
  3
*D20
  1

  0
LINE
  5
2A98
330
21D0
100
AcDbEntity
  8
寸法
 62
     0
370
    15
100
AcDbLine
 10
708.6981081818342
 20
1660.167796407058
 30
0.0
 11
708.6981081818342
 21
1803.470914570467
 31
0.0
  0
LINE
  5
2A99
330
21D0
100
AcDbEntity
  8
寸法
 62
     0
370
    15
100
AcDbLine
 10
563.6981034251548
 20
1569.66802167053
 30
0.0
 11
563.6981034251548
 21
1803.470914570467
 31
0.0
  0
LINE
  5
2A9A
330
21D0
100
AcDbEntity
  8
寸法
 62
     0
370
    18
100
AcDbLine
 10
708.6981081818342
 20
1803.470914570467
 30
0.0
 11
563.6981034251548
 21
1803.470914570467
 31
0.0
  0
INSERT
  5
2A9B
330
21D0
100
AcDbEntity
  8
寸法
 62
     0
370
    18
100
AcDbBlockReference
  2
_DotSmall
 10
708.6981081818342
 20
1803.470914570467
 30
0.0
 41
25.0
 42
25.0
 43
25.0
  0
INSERT
  5
2A9C
330
21D0
100
AcDbEntity
  8
寸法
 62
     0
370
    18
100
AcDbBlockReference
  2
_DotSmall
 10
563.6981034251548
 20
1803.470914570467
 30
0.0
 41
25.0
 42
25.0
 43
25.0
 50
180.0
  0
MTEXT
  5
2A9D
330
21D0
100
AcDbEntity
  8
寸法
 62
     0
100
AcDbMText
 10
636.1981058034944
 20
1822.220914570467
 30
0.0
 40
25.0
 41
0.0
 71
     5
 72
     1
  1
145
 73
     1
 44
1.0
1001
ACAD
1000
MTEXTBEGIN
1070
    73
1070
     1
1070
    44
1040
1.0
1070
    74
1070
     0
1000
MTEXTEND
  0
POINT
  5
2A9E
330
21D0
100
AcDbEntity
  8
Defpoints
 62
     0
100
AcDbPoint
 10
708.6981081818342
 20
1595.167796407058
 30
0.0
  0
POINT
  5
2A9F
330
21D0
100
AcDbEntity
  8
Defpoints
 62
     0
100
AcDbPoint
 10
563.6981034251548
 20
1504.66802167053
 30
0.0
  0
POINT
  5
2AA0
330
21D0
100
AcDbEntity
  8
Defpoints
 62
     0
100
AcDbPoint
 10
563.6981034251548
 20
1803.470914570467
 30
0.0
  0
ENDBLK
  5
21DB
330
21D0
100
AcDbEntity
  8
0
100
AcDbBlockEnd
  0
BLOCK
  5
21E6
330
21DC
100
AcDbEntity
  8
0
100
AcDbBlockBegin
  2
*D21
 70
     1
 10
0.0
 20
0.0
 30
0.0
  3
*D21
  1

  0
LINE
  5
2680
330
21DC
100
AcDbEntity
  8
寸法
 62
     0
370
    15
100
AcDbLine
 10
864.1981097358756
 20
1504.667796407058
 30
0.0
 11
868.678290323991
 21
1504.667796407058
 31
0.0
  0
LINE
  5
2681
330
21DC
100
AcDbEntity
  8
寸法
 62
     0
370
    15
100
AcDbLine
 10
864.2111795941289
 20
1704.667796407058
 30
0.0
 11
868.678290323991
 21
1704.667796407058
 31
0.0
  0
LINE
  5
2682
330
21DC
100
AcDbEntity
  8
寸法
 62
     0
370
    18
100
AcDbLine
 10
868.678290323991
 20
1504.667796407058
 30
0.0
 11
868.678290323991
 21
1704.667796407058
 31
0.0
  0
INSERT
  5
2683
330
21DC
100
AcDbEntity
  8
寸法
 62
     0
370
    18
100
AcDbBlockReference
  2
_DotSmall
 10
868.678290323991
 20
1504.667796407058
 30
0.0
 41
25.0
 42
25.0
 43
25.0
 50
270.0
  0
INSERT
  5
2684
330
21DC
100
AcDbEntity
  8
寸法
 62
     0
370
    18
100
AcDbBlockReference
  2
_DotSmall
 10
868.678290323991
 20
1704.667796407058
 30
0.0
 41
25.0
 42
25.0
 43
25.0
 50
90.0
  0
MTEXT
  5
2685
330
21DC
100
AcDbEntity
  8
寸法
 62
     0
100
AcDbMText
 10
849.9282903239908
 20
1604.667796407058
 30
0.0
 40
25.0
 41
0.0
 71
     5
 72
     1
  1
200
 11
0.0000000000000001
 21
1.0
 31
0.0
 73
     1
 44
1.0
1001
ACAD
1000
MTEXTBEGIN
1070
    73
1070
     1
1070
    44
1040
1.0
1070
    74
1070
     0
1000
MTEXTEND
  0
POINT
  5
2686
330
21DC
100
AcDbEntity
  8
Defpoints
 62
     0
100
AcDbPoint
 10
844.1981097358755
 20
1504.667796407058
 30
0.0
  0
POINT
  5
2687
330
21DC
100
AcDbEntity
  8
Defpoints
 62
     0
100
AcDbPoint
 10
844.2111795941288
 20
1704.667796407058
 30
0.0
  0
POINT
  5
2688
330
21DC
100
AcDbEntity
  8
Defpoints
 62
     0
100
AcDbPoint
 10
868.678290323991
 20
1704.667796407058
 30
0.0
  0
ENDBLK
  5
21E7
330
21DC
100
AcDbEntity
  8
0
100
AcDbBlockEnd
  0
BLOCK
  5
2486
330
247C
100
AcDbEntity
  8
0
100
AcDbBlockBegin
  2
*D22
 70
     1
 10
0.0
 20
0.0
 30
0.0
  3
*D22
  1

  0
LINE
  5
2677
330
247C
100
AcDbEntity
  8
実形
 62
     0
370
    18
100
AcDbLine
 10
478.8697211467333
 20
1304.667796407058
 30
0.0
 11
400.5227917448573
 21
1304.667796407058
 31
0.0
  0
LINE
  5
2678
330
247C
100
AcDbEntity
  8
実形
 62
     0
370
    18
100
AcDbLine
 10
478.8697211467334
 20
1254.667796407058
 30
0.0
 11
400.5227917448573
 21
1254.667796407058
 31
0.0
  0
LINE
  5
2679
330
247C
100
AcDbEntity
  8
実形
 62
     0
370
    18
100
AcDbLine
 10
400.5227917448573
 20
1304.667796407058
 30
0.0
 11
400.5227917448573
 21
1254.667796407058
 31
0.0
  0
MTEXT
  5
267A
330
247C
100
AcDbEntity
  8
実形
 62
     0
100
AcDbMText
 10
375.5227917448572
 20
1279.667796407058
 30
0.0
 40
25.0
 41
0.0
 71
     5
 72
     1
  1
50
 11
0.0000000000000001
 21
1.0
 31
0.0
 73
     1
 44
1.0
1001
ACAD
1000
MTEXTBEGIN
1070
    73
1070
     1
1070
    44
1040
1.0
1070
    74
1070
     0
1000
MTEXTEND
  0
INSERT
  5
267B
330
247C
100
AcDbEntity
  8
実形
 62
     0
370
    18
100
AcDbBlockReference
  2
_DotSmall
 10
400.5227917448573
 20
1304.667796407058
 30
0.0
 41
25.0
 42
25.0
 43
25.0
 50
90.0
  0
INSERT
  5
267C
330
247C
100
AcDbEntity
  8
実形
 62
     0
370
    18
100
AcDbBlockReference
  2
_DotSmall
 10
400.5227917448573
 20
1254.667796407058
 30
0.0
 41
25.0
 42
25.0
 43
25.0
 50
270.0
  0
POINT
  5
267D
330
247C
100
AcDbEntity
  8
Defpoints
 62
     0
100
AcDbPoint
 10
543.8697211467333
 20
1304.667796407058
 30
0.0
  0
POINT
  5
267E
330
247C
100
AcDbEntity
  8
Defpoints
 62
     0
100
AcDbPoint
 10
543.8697211467333
 20
1254.667796407058
 30
0.0
  0
POINT
  5
267F
330
247C
100
AcDbEntity
  8
Defpoints
 62
     0
100
AcDbPoint
 10
400.5227917448573
 20
1254.667796407058
 30
0.0
  0
ENDBLK
  5
2487
330
247C
100
AcDbEntity
  8
0
100
AcDbBlockEnd
  0
BLOCK
  5
2495
330
248B
100
AcDbEntity
  8
0
100
AcDbBlockBegin
  2
*D23
 70
     1
 10
0.0
 20
0.0
 30
0.0
  3
*D23
  1

  0
LINE
  5
266E
330
248B
100
AcDbEntity
  8
実形
 62
     0
370
    18
100
AcDbLine
 10
478.8697211467334
 20
1254.667796407058
 30
0.0
 11
343.5250660779474
 21
1254.667796407058
 31
0.0
  0
LINE
  5
266F
330
248B
100
AcDbEntity
  8
実形
 62
     0
370
    18
100
AcDbLine
 10
478.8697211467334
 20
1754.667796407058
 30
0.0
 11
343.5250660779475
 21
1754.667796407058
 31
0.0
  0
LINE
  5
2670
330
248B
100
AcDbEntity
  8
実形
 62
     0
370
    18
100
AcDbLine
 10
343.5250660779474
 20
1254.667796407058
 30
0.0
 11
343.5250660779475
 21
1754.667796407058
 31
0.0
  0
INSERT
  5
2671
330
248B
100
AcDbEntity
  8
実形
 62
     0
370
    18
100
AcDbBlockReference
  2
_DotSmall
 10
343.5250660779474
 20
1254.667796407058
 30
0.0
 41
25.0
 42
25.0
 43
25.0
 50
270.0
  0
INSERT
  5
2672
330
248B
100
AcDbEntity
  8
実形
 62
     0
370
    18
100
AcDbBlockReference
  2
_DotSmall
 10
343.5250660779475
 20
1754.667796407058
 30
0.0
 41
25.0
 42
25.0
 43
25.0
 50
90.0
  0
MTEXT
  5
2673
330
248B
100
AcDbEntity
  8
実形
 62
     0
100
AcDbMText
 10
324.7750660779472
 20
1504.667796407058
 30
0.0
 40
25.0
 41
0.0
 71
     5
 72
     1
  1
500
 11
0.0000000000000001
 21
1.0
 31
0.0
 73
     1
 44
1.0
1001
ACAD
1000
MTEXTBEGIN
1070
    73
1070
     1
1070
    44
1040
1.0
1070
    74
1070
     0
1000
MTEXTEND
  0
POINT
  5
2674
330
248B
100
AcDbEntity
  8
Defpoints
 62
     0
100
AcDbPoint
 10
543.8697211467333
 20
1254.667796407058
 30
0.0
  0
POINT
  5
2675
330
248B
100
AcDbEntity
  8
Defpoints
 62
     0
100
AcDbPoint
 10
543.8697211467333
 20
1754.667796407058
 30
0.0
  0
POINT
  5
2676
330
248B
100
AcDbEntity
  8
Defpoints
 62
     0
100
AcDbPoint
 10
343.5250660779475
 20
1754.667796407058
 30
0.0
  0
ENDBLK
  5
2496
330
248B
100
AcDbEntity
  8
0
100
AcDbBlockEnd
  0
BLOCK
  5
24A2
330
2498
100
AcDbEntity
  8
0
100
AcDbBlockBegin
  2
*D24
 70
     1
 10
0.0
 20
0.0
 30
0.0
  3
*D24
  1

  0
LINE
  5
2665
330
2498
100
AcDbEntity
  8
実形
 62
     0
370
    18
100
AcDbLine
 10
478.8697211467334
 20
1754.667796407058
 30
0.0
 11
400.5227917448573
 21
1754.667796407058
 31
0.0
  0
LINE
  5
2666
330
2498
100
AcDbEntity
  8
実形
 62
     0
370
    18
100
AcDbLine
 10
478.8697211467334
 20
1704.667796407059
 30
0.0
 11
400.5227917448573
 21
1704.667796407059
 31
0.0
  0
LINE
  5
2667
330
2498
100
AcDbEntity
  8
実形
 62
     0
370
    18
100
AcDbLine
 10
400.5227917448573
 20
1754.667796407058
 30
0.0
 11
400.5227917448573
 21
1704.667796407059
 31
0.0
  0
MTEXT
  5
2668
330
2498
100
AcDbEntity
  8
実形
 62
     0
100
AcDbMText
 10
375.5227917448571
 20
1729.667796407058
 30
0.0
 40
25.0
 41
0.0
 71
     5
 72
     1
  1
50
 11
0.0000000000000001
 21
1.0
 31
0.0
 73
     1
 44
1.0
1001
ACAD
1000
MTEXTBEGIN
1070
    73
1070
     1
1070
    44
1040
1.0
1070
    74
1070
     0
1000
MTEXTEND
  0
INSERT
  5
2669
330
2498
100
AcDbEntity
  8
実形
 62
     0
370
    18
100
AcDbBlockReference
  2
_DotSmall
 10
400.5227917448573
 20
1754.667796407058
 30
0.0
 41
25.0
 42
25.0
 43
25.0
 50
90.0
  0
INSERT
  5
266A
330
2498
100
AcDbEntity
  8
実形
 62
     0
370
    18
100
AcDbBlockReference
  2
_DotSmall
 10
400.5227917448573
 20
1704.667796407059
 30
0.0
 41
25.0
 42
25.0
 43
25.0
 50
270.0
  0
POINT
  5
266B
330
2498
100
AcDbEntity
  8
Defpoints
 62
     0
100
AcDbPoint
 10
543.8697211467333
 20
1754.667796407058
 30
0.0
  0
POINT
  5
266C
330
2498
100
AcDbEntity
  8
Defpoints
 62
     0
100
AcDbPoint
 10
543.8697211467333
 20
1704.667796407058
 30
0.0
  0
POINT
  5
266D
330
2498
100
AcDbEntity
  8
Defpoints
 62
     0
100
AcDbPoint
 10
400.5227917448573
 20
1704.667796407059
 30
0.0
  0
ENDBLK
  5
24A3
330
2498
100
AcDbEntity
  8
0
100
AcDbBlockEnd
  0
BLOCK
  5
24D2
330
24C8
100
AcDbEntity
  8
0
100
AcDbBlockBegin
  2
*D25
 70
     1
 10
0.0
 20
0.0
 30
0.0
  3
*D25
  1

  0
LINE
  5
265C
330
24C8
100
AcDbEntity
  8
実形
 62
     0
370
    18
100
AcDbLine
 10
563.6981081023032
 20
1189.667796407058
 30
0.0
 11
563.6981081023032
 21
1133.570875731338
 31
0.0
  0
LINE
  5
265D
330
24C8
100
AcDbEntity
  8
実形
 62
     0
370
    18
100
AcDbLine
 10
1173.698108102303
 20
1189.667796407058
 30
0.0
 11
1173.698108102303
 21
1133.570875731338
 31
0.0
  0
LINE
  5
265E
330
24C8
100
AcDbEntity
  8
実形
 62
     0
370
    18
100
AcDbLine
 10
563.6981081023032
 20
1133.570875731338
 30
0.0
 11
1173.698108102303
 21
1133.570875731338
 31
0.0
  0
INSERT
  5
265F
330
24C8
100
AcDbEntity
  8
実形
 62
     0
370
    18
100
AcDbBlockReference
  2
_DotSmall
 10
563.6981081023032
 20
1133.570875731338
 30
0.0
 41
25.0
 42
25.0
 43
25.0
 50
180.0
  0
INSERT
  5
2660
330
24C8
100
AcDbEntity
  8
実形
 62
     0
370
    18
100
AcDbBlockReference
  2
_DotSmall
 10
1173.698108102303
 20
1133.570875731338
 30
0.0
 41
25.0
 42
25.0
 43
25.0
  0
MTEXT
  5
2661
330
24C8
100
AcDbEntity
  8
実形
 62
     0
100
AcDbMText
 10
868.6981081023031
 20
1152.320875731338
 30
0.0
 40
25.0
 41
0.0
 71
     5
 72
     1
  1
610
 73
     1
 44
1.0
1001
ACAD
1000
MTEXTBEGIN
1070
    73
1070
     1
1070
    44
1040
1.0
1070
    74
1070
     0
1000
MTEXTEND
  0
POINT
  5
2662
330
24C8
100
AcDbEntity
  8
Defpoints
 62
     0
100
AcDbPoint
 10
563.6981081023032
 20
1254.667796407058
 30
0.0
  0
POINT
  5
2663
330
24C8
100
AcDbEntity
  8
Defpoints
 62
     0
100
AcDbPoint
 10
1173.698108102303
 20
1254.667796407058
 30
0.0
  0
POINT
  5
2664
330
24C8
100
AcDbEntity
  8
Defpoints
 62
     0
100
AcDbPoint
 10
1173.698108102303
 20
1133.570875731338
 30
0.0
  0
ENDBLK
  5
24D3
330
24C8
100
AcDbEntity
  8
0
100
AcDbBlockEnd
  0
BLOCK
  5
24DF
330
24D5
100
AcDbEntity
  8
0
100
AcDbBlockBegin
  2
*D26
 70
     1
 10
0.0
 20
0.0
 30
0.0
  3
*D26
  1

  0
LINE
  5
2653
330
24D5
100
AcDbEntity
  8
実形
 62
     0
370
    18
100
AcDbLine
 10
1173.698108102303
 20
1189.667796407058
 30
0.0
 11
1173.698108102303
 21
1133.570875731338
 31
0.0
  0
LINE
  5
2654
330
24D5
100
AcDbEntity
  8
実形
 62
     0
370
    18
100
AcDbLine
 10
1223.698108102303
 20
1189.667796407058
 30
0.0
 11
1223.698108102303
 21
1133.570875731338
 31
0.0
  0
LINE
  5
2655
330
24D5
100
AcDbEntity
  8
実形
 62
     0
370
    18
100
AcDbLine
 10
1173.698108102303
 20
1133.570875731338
 30
0.0
 11
1223.698108102303
 21
1133.570875731338
 31
0.0
  0
INSERT
  5
2656
330
24D5
100
AcDbEntity
  8
実形
 62
     0
370
    18
100
AcDbBlockReference
  2
_DotSmall
 10
1173.698108102303
 20
1133.570875731338
 30
0.0
 41
25.0
 42
25.0
 43
25.0
 50
180.0
  0
INSERT
  5
2657
330
24D5
100
AcDbEntity
  8
実形
 62
     0
370
    18
100
AcDbBlockReference
  2
_DotSmall
 10
1223.698108102303
 20
1133.570875731338
 30
0.0
 41
25.0
 42
25.0
 43
25.0
  0
MTEXT
  5
2658
330
24D5
100
AcDbEntity
  8
実形
 62
     0
100
AcDbMText
 10
1198.698108102303
 20
1151.320875731338
 30
0.0
 40
23.0
 41
0.0
 71
     5
 72
     1
  1
50
 73
     1
 44
1.0
1001
ACAD
1000
MTEXTBEGIN
1070
    73
1070
     1
1070
    44
1040
1.0
1070
    74
1070
     0
1000
MTEXTEND
  0
POINT
  5
2659
330
24D5
100
AcDbEntity
  8
Defpoints
 62
     0
100
AcDbPoint
 10
1173.698108102303
 20
1254.667796407058
 30
0.0
  0
POINT
  5
265A
330
24D5
100
AcDbEntity
  8
Defpoints
 62
     0
100
AcDbPoint
 10
1223.698108102303
 20
1254.667796407058
 30
0.0
  0
POINT
  5
265B
330
24D5
100
AcDbEntity
  8
Defpoints
 62
     0
100
AcDbPoint
 10
1223.698108102303
 20
1133.570875731338
 30
0.0
  0
ENDBLK
  5
24E0
330
24D5
100
AcDbEntity
  8
0
100
AcDbBlockEnd
  0
BLOCK
  5
24F5
330
24EB
100
AcDbEntity
  8
0
100
AcDbBlockBegin
  2
*D27
 70
     1
 10
0.0
 20
0.0
 30
0.0
  3
*D27
  1

  0
LINE
  5
264A
330
24EB
100
AcDbEntity
  8
実形
 62
     0
370
    18
100
AcDbLine
 10
513.6981081023032
 20
1189.667796407058
 30
0.0
 11
513.6981081023032
 21
1133.570875731338
 31
0.0
  0
LINE
  5
264B
330
24EB
100
AcDbEntity
  8
実形
 62
     0
370
    18
100
AcDbLine
 10
563.6981081023032
 20
1189.667796407058
 30
0.0
 11
563.6981081023032
 21
1133.570875731338
 31
0.0
  0
LINE
  5
264C
330
24EB
100
AcDbEntity
  8
実形
 62
     0
370
    18
100
AcDbLine
 10
513.6981081023032
 20
1133.570875731338
 30
0.0
 11
563.6981081023032
 21
1133.570875731338
 31
0.0
  0
INSERT
  5
264D
330
24EB
100
AcDbEntity
  8
実形
 62
     0
370
    18
100
AcDbBlockReference
  2
_DotSmall
 10
513.6981081023032
 20
1133.570875731338
 30
0.0
 41
25.0
 42
25.0
 43
25.0
 50
180.0
  0
INSERT
  5
264E
330
24EB
100
AcDbEntity
  8
実形
 62
     0
370
    18
100
AcDbBlockReference
  2
_DotSmall
 10
563.6981081023032
 20
1133.570875731338
 30
0.0
 41
25.0
 42
25.0
 43
25.0
  0
MTEXT
  5
264F
330
24EB
100
AcDbEntity
  8
実形
 62
     0
100
AcDbMText
 10
538.6981081023032
 20
1151.320875731338
 30
0.0
 40
23.0
 41
0.0
 71
     5
 72
     1
  1
50
 73
     1
 44
1.0
1001
ACAD
1000
MTEXTBEGIN
1070
    73
1070
     1
1070
    44
1040
1.0
1070
    74
1070
     0
1000
MTEXTEND
  0
POINT
  5
2650
330
24EB
100
AcDbEntity
  8
Defpoints
 62
     0
100
AcDbPoint
 10
513.6981081023032
 20
1254.667796407058
 30
0.0
  0
POINT
  5
2651
330
24EB
100
AcDbEntity
  8
Defpoints
 62
     0
100
AcDbPoint
 10
563.6981081023032
 20
1254.667796407058
 30
0.0
  0
POINT
  5
2652
330
24EB
100
AcDbEntity
  8
Defpoints
 62
     0
100
AcDbPoint
 10
563.6981081023032
 20
1133.570875731338
 30
0.0
  0
ENDBLK
  5
24F6
330
24EB
100
AcDbEntity
  8
0
100
AcDbBlockEnd
  0
BLOCK
  5
250B
330
2501
100
AcDbEntity
  8
0
100
AcDbBlockBegin
  2
*D28
 70
     1
 10
0.0
 20
0.0
 30
0.0
  3
*D28
  1

  0
LINE
  5
2641
330
2501
100
AcDbEntity
  8
実形
 62
     0
370
    18
100
AcDbLine
 10
513.6981081023032
 20
1189.667796407058
 30
0.0
 11
513.6981081023032
 21
1070.63950107583
 31
0.0
  0
LINE
  5
2642
330
2501
100
AcDbEntity
  8
実形
 62
     0
370
    18
100
AcDbLine
 10
1223.698108102303
 20
1189.667796407058
 30
0.0
 11
1223.698108102303
 21
1070.63950107583
 31
0.0
  0
LINE
  5
2643
330
2501
100
AcDbEntity
  8
実形
 62
     0
370
    18
100
AcDbLine
 10
513.6981081023032
 20
1070.63950107583
 30
0.0
 11
1223.698108102303
 21
1070.63950107583
 31
0.0
  0
INSERT
  5
2644
330
2501
100
AcDbEntity
  8
実形
 62
     0
370
    18
100
AcDbBlockReference
  2
_DotSmall
 10
513.6981081023032
 20
1070.63950107583
 30
0.0
 41
25.0
 42
25.0
 43
25.0
 50
180.0
  0
INSERT
  5
2645
330
2501
100
AcDbEntity
  8
実形
 62
     0
370
    18
100
AcDbBlockReference
  2
_DotSmall
 10
1223.698108102303
 20
1070.63950107583
 30
0.0
 41
25.0
 42
25.0
 43
25.0
  0
MTEXT
  5
2646
330
2501
100
AcDbEntity
  8
実形
 62
     0
100
AcDbMText
 10
868.6981081023031
 20
1089.38950107583
 30
0.0
 40
25.0
 41
0.0
 71
     5
 72
     1
  1
710
 73
     1
 44
1.0
1001
ACAD
1000
MTEXTBEGIN
1070
    73
1070
     1
1070
    44
1040
1.0
1070
    74
1070
     0
1000
MTEXTEND
  0
POINT
  5
2647
330
2501
100
AcDbEntity
  8
Defpoints
 62
     0
100
AcDbPoint
 10
513.6981081023032
 20
1254.667796407058
 30
0.0
  0
POINT
  5
2648
330
2501
100
AcDbEntity
  8
Defpoints
 62
     0
100
AcDbPoint
 10
1223.698108102303
 20
1254.667796407058
 30
0.0
  0
POINT
  5
2649
330
2501
100
AcDbEntity
  8
Defpoints
 62
     0
100
AcDbPoint
 10
1223.698108102303
 20
1070.63950107583
 30
0.0
  0
ENDBLK
  5
250C
330
2501
100
AcDbEntity
  8
0
100
AcDbBlockEnd
  0
BLOCK
  5
259F
330
2593
100
AcDbEntity
  8
0
100
AcDbBlockBegin
  2
*D29
 70
     1
 10
0.0
 20
0.0
 30
0.0
  3
*D29
  1

  0
MTEXT
  5
263D
330
2593
100
AcDbEntity
  8
実形
 62
     0
100
AcDbMText
 10
1221.198108102303
 20
1820.96951540317
 30
0.0
 40
25.0
 41
0.0
 71
     5
 72
     1
  1
5
 73
     1
 44
1.0
1001
ACAD
1000
MTEXTBEGIN
1070
    73
1070
     1
1070
    44
1040
1.0
1070
    74
1070
     0
1000
MTEXTEND
  0
POINT
  5
263E
330
2593
100
AcDbEntity
  8
Defpoints
 62
     0
100
AcDbPoint
 10
1218.698108102303
 20
1703.102441528037
 30
0.0
  0
POINT
  5
263F
330
2593
100
AcDbEntity
  8
Defpoints
 62
     0
100
AcDbPoint
 10
1223.698108102303
 20
1703.102441528037
 30
0.0
  0
POINT
  5
2640
330
2593
100
AcDbEntity
  8
Defpoints
 62
     0
100
AcDbPoint
 10
1223.698108102303
 20
1795.969515403171
 30
0.0
  0
ENDBLK
  5
25A0
330
2593
100
AcDbEntity
  8
0
100
AcDbBlockEnd
  0
BLOCK
  5
25F6
330
25EA
100
AcDbEntity
  8
0
100
AcDbBlockBegin
  2
*D30
 70
     1
 10
0.0
 20
0.0
 30
0.0
  3
*D30
  1

  0
LINE
  5
2637
330
25EA
100
AcDbEntity
  8
実形
 62
     0
370
    18
100
AcDbLine
 10
1244.522763025499
 20
1754.667796407058
 30
0.0
 11
1276.425218750042
 21
1754.667796407058
 31
0.0
  0
LINE
  5
2638
330
25EA
100
AcDbEntity
  8
実形
 62
     0
370
    18
100
AcDbLine
 10
1244.522763025499
 20
1749.667796407058
 30
0.0
 11
1276.425218750042
 21
1749.667796407058
 31
0.0
  0
MTEXT
  5
2639
330
25EA
100
AcDbEntity
  8
実形
 62
     0
100
AcDbMText
 10
1304.884603568419
 20
1752.167796407058
 30
0.0
 40
25.0
 41
0.0
 71
     5
 72
     1
  1
5
 11
0.0000000000000001
 21
1.0
 31
0.0
 73
     1
 44
1.0
1001
ACAD
1000
MTEXTBEGIN
1070
    73
1070
     1
1070
    44
1040
1.0
1070
    74
1070
     0
1000
MTEXTEND
  0
POINT
  5
263A
330
25EA
100
AcDbEntity
  8
Defpoints
 62
     0
100
AcDbPoint
 10
1179.522763025499
 20
1754.667796407058
 30
0.0
  0
POINT
  5
263B
330
25EA
100
AcDbEntity
  8
Defpoints
 62
     0
100
AcDbPoint
 10
1179.522763025499
 20
1749.667796407058
 30
0.0
  0
POINT
  5
263C
330
25EA
100
AcDbEntity
  8
Defpoints
 62
     0
100
AcDbPoint
 10
1276.425218750042
 20
1749.667796407058
 30
0.0
  0
ENDBLK
  5
25F7
330
25EA
100
AcDbEntity
  8
0
100
AcDbBlockEnd
  0
BLOCK
  5
26B9
330
26AF
100
AcDbEntity
  8
0
100
AcDbBlockBegin
  2
*D31
 70
     1
 10
0.0
 20
0.0
 30
0.0
  3
*D31
  1

  0
LINE
  5
29D5
330
26AF
100
AcDbEntity
  8
実形
 62
     0
370
    18
100
AcDbLine
 10
2047.899627132799
 20
776.6596186260776
 30
0.0
 11
2047.899627132799
 21
804.2436145081255
 31
0.0
  0
LINE
  5
29D6
330
26AF
100
AcDbEntity
  8
実形
 62
     0
370
    18
100
AcDbLine
 10
2167.899627132799
 20
773.1041422751441
 30
0.0
 11
2167.899627132799
 21
804.2436145081255
 31
0.0
  0
LINE
  5
29D7
330
26AF
100
AcDbEntity
  8
実形
 62
     0
370
    18
100
AcDbLine
 10
2047.899627132799
 20
804.2436145081255
 30
0.0
 11
2167.899627132799
 21
804.2436145081255
 31
0.0
  0
INSERT
  5
29D8
330
26AF
100
AcDbEntity
  8
実形
 62
     0
370
    18
100
AcDbBlockReference
  2
_DotSmall
 10
2047.899627132799
 20
804.2436145081255
 30
0.0
 41
35.0
 42
35.0
 43
35.0
 50
180.0
  0
INSERT
  5
29D9
330
26AF
100
AcDbEntity
  8
実形
 62
     0
370
    18
100
AcDbBlockReference
  2
_DotSmall
 10
2167.899627132799
 20
804.2436145081255
 30
0.0
 41
35.0
 42
35.0
 43
35.0
  0
MTEXT
  5
29DA
330
26AF
100
AcDbEntity
  8
実形
 62
     0
100
AcDbMText
 10
2107.899627132799
 20
822.9936145081255
 30
0.0
 40
25.0
 41
0.0
 71
     5
 72
     1
  1
12
 73
     1
 44
1.0
1001
ACAD
1000
MTEXTBEGIN
1070
    73
1070
     1
1070
    44
1040
1.0
1070
    74
1070
     0
1000
MTEXTEND
  0
POINT
  5
29DB
330
26AF
100
AcDbEntity
  8
Defpoints
 62
     0
100
AcDbPoint
 10
2047.899627132799
 20
711.6596186260776
 30
0.0
  0
POINT
  5
29DC
330
26AF
100
AcDbEntity
  8
Defpoints
 62
     0
100
AcDbPoint
 10
2167.899627132799
 20
708.104142275144
 30
0.0
  0
POINT
  5
29DD
330
26AF
100
AcDbEntity
  8
Defpoints
 62
     0
100
AcDbPoint
 10
2167.899627132799
 20
804.2436145081255
 30
0.0
  0
ENDBLK
  5
26BA
330
26AF
100
AcDbEntity
  8
0
100
AcDbBlockEnd
  0
ENDSEC
  0
SECTION
  2
ENTITIES
  0
LINE
  5
9C
330
1F
100
AcDbEntity
  8
実形
100
AcDbLine
 10
119.0
 20
4.0
 30
0.0
 11
2784.0
 21
4.0
 31
0.0
  0
LINE
  5
A0
330
1F
100
AcDbEntity
  8
実形
100
AcDbLine
 10
2784.0
 20
2024.0
 30
0.0
 11
119.0
 21
2024.0
 31
0.0
  0
LINE
  5
A5
330
1F
100
AcDbEntity
  8
実形
100
AcDbLine
 10
2784.0
 20
4.0
 30
0.0
 11
2784.0
 21
2024.0
 31
0.0
  0
TEXT
  5
1127
330
1F
100
AcDbEntity
  8
実形
100
AcDbText
 10
2086.666666666667
 20
84.0
 30
0.0
 40
35.0
  1
尺度
 72
     4
 11
2124.0
 21
101.5
 31
0.0
100
AcDbText
  0
TEXT
  5
1128
330
1F
100
AcDbEntity
  8
実形
100
AcDbText
 10
2086.666666666667
 20
149.0
 30
0.0
 40
35.0
  1
品番
 72
     4
 11
2124.0
 21
166.5
 31
0.0
100
AcDbText
  0
LINE
  5
1129
330
1F
100
AcDbEntity
  8
実形
100
AcDbLine
 10
2064.0
 20
69.0
 30
0.0
 11
2784.0
 21
69.0
 31
0.0
  0
LINE
  5
112A
330
1F
100
AcDbEntity
  8
実形
100
AcDbLine
 10
2064.0
 20
199.0
 30
0.0
 11
2784.0
 21
199.0
 31
0.0
  0
LINE
  5
112B
330
1F
100
AcDbEntity
  8
実形
100
AcDbLine
 10
2064.0
 20
134.0
 30
0.0
 11
2784.0
 21
134.0
 31
0.0
  0
LINE
  5
112C
330
1F
100
AcDbEntity
  8
実形
100
AcDbLine
 10
2064.0
 20
4.0
 30
0.0
 11
2064.0
 21
199.0
 31
0.0
  0
TEXT
  5
112E
330
1F
100
AcDbEntity
  8
実形
100
AcDbText
 10
2300.255774665348
 20
16.49999999999999
 30
0.0
 40
40.0
  1
中外交易株式会社
 72
     4
 11
2488.255774665347
 21
36.5
 31
0.0
100
AcDbText
  0
LINE
  5
112F
330
1F
100
AcDbEntity
  8
実形
100
AcDbLine
 10
2184.0
 20
69.0
 30
0.0
 11
2784.0
 21
69.0
 31
0.0
  0
HATCH
  5
1130
330
1F
100
AcDbEntity
  8
実形
100
AcDbHatch
 10
0.0
 20
0.0
 30
0.0
210
0.0
220
0.0
230
1.0
  2
SOLID
 70
     1
 71
     1
 91
        3
 92
        1
 93
        4
 72
     2
 10
2257.166198313996
 20
36.5
 40
20.0
 50
11.64772366707381
 51
342.6561058784905
 73
     1
 72
     1
 10
2276.256852341323
 20
30.53787547858514
 11
2252.166198313995
 21
30.53787547858519
 72
     1
 10
2252.166198313995
 20
30.53787547858519
 11
2252.166198313995
 21
40.53787547858519
 72
     1
 10
2252.166198313995
 20
40.53787547858519
 11
2276.75434681301
 21
40.53787547858519
 97
        4
330
113D
330
113B
330
113A
330
1139
 92
        1
 93
        4
 72
     2
 10
2188.255774665348
 20
36.5
 40
20.0
 50
11.64772366707381
 51
342.6561058784905
 73
     1
 72
     1
 10
2207.346428692676
 20
30.53787547858514
 11
2183.255774665347
 21
30.53787547858519
 72
     1
 10
2183.255774665347
 20
30.53787547858519
 11
2183.255774665347
 21
40.53787547858519
 72
     1
 10
2183.255774665347
 20
40.53787547858519
 11
2207.843923164362
 21
40.53787547858519
 97
        4
330
113C
330
1133
330
1132
330
1131
 92
        1
 93
        5
 72
     1
 10
2245.64189404294
 20
56.5
 11
2210.641894042939
 21
56.5
 72
     1
 10
2210.641894042939
 20
56.5
 11
2210.641894042939
 21
16.5
 72
     1
 10
2210.641894042939
 20
16.5
 11
2245.64189404294
 21
16.5
 72
     1
 10
2245.64189404294
 20
16.5
 11
2210.641894042939
 21
36.5
 72
     1
 10
2210.641894042939
 20
36.5
 11
2245.64189404294
 21
56.5
 97
        5
330
1138
330
1134
330
1135
330
1136
330
1137
 75
     0
 76
     1
 98
        1
 10
-60.0
 20
0.0
  0
LINE
  5
1131
102
{ACAD_REACTORS
330
1130
102
}
330
1F
100
AcDbEntity
  8
実形
370
     5
100
AcDbLine
 10
2207.843923164362
 20
40.53787547858519
 30
0.0
 11
2183.255774665347
 21
40.53787547858519
 31
0.0
  0
LINE
  5
1132
102
{ACAD_REACTORS
330
1130
102
}
330
1F
100
AcDbEntity
  8
実形
370
     5
100
AcDbLine
 10
2183.255774665347
 20
40.53787547858519
 30
0.0
 11
2183.255774665347
 21
30.53787547858519
 31
0.0
  0
LINE
  5
1133
102
{ACAD_REACTORS
330
1130
102
}
330
1F
100
AcDbEntity
  8
実形
370
     5
100
AcDbLine
 10
2183.255774665347
 20
30.53787547858519
 30
0.0
 11
2207.346428692676
 21
30.53787547858514
 31
0.0
  0
LINE
  5
1134
102
{ACAD_REACTORS
330
1130
102
}
330
1F
100
AcDbEntity
  8
実形
370
     5
100
AcDbLine
 10
2210.641894042939
 20
56.5
 30
0.0
 11
2210.641894042939
 21
16.5
 31
0.0
  0
LINE
  5
1135
102
{ACAD_REACTORS
330
1130
102
}
330
1F
100
AcDbEntity
  8
実形
370
     5
100
AcDbLine
 10
2210.641894042939
 20
16.5
 30
0.0
 11
2245.64189404294
 21
16.5
 31
0.0
  0
LINE
  5
1136
102
{ACAD_REACTORS
330
1130
102
}
330
1F
100
AcDbEntity
  8
実形
370
     5
100
AcDbLine
 10
2245.64189404294
 20
16.5
 30
0.0
 11
2210.641894042939
 21
36.5
 31
0.0
  0
LINE
  5
1137
102
{ACAD_REACTORS
330
1130
102
}
330
1F
100
AcDbEntity
  8
実形
370
     5
100
AcDbLine
 10
2210.641894042939
 20
36.5
 30
0.0
 11
2245.64189404294
 21
56.5
 31
0.0
  0
LINE
  5
1138
102
{ACAD_REACTORS
330
1130
102
}
330
1F
100
AcDbEntity
  8
実形
370
     5
100
AcDbLine
 10
2245.64189404294
 20
56.5
 30
0.0
 11
2210.641894042939
 21
56.5
 31
0.0
  0
LINE
  5
1139
102
{ACAD_REACTORS
330
1130
102
}
330
1F
100
AcDbEntity
  8
実形
370
     5
100
AcDbLine
 10
2276.75434681301
 20
40.53787547858519
 30
0.0
 11
2252.166198313995
 21
40.53787547858519
 31
0.0
  0
LINE
  5
113A
102
{ACAD_REACTORS
330
1130
102
}
330
1F
100
AcDbEntity
  8
実形
370
     5
100
AcDbLine
 10
2252.166198313995
 20
40.53787547858519
 30
0.0
 11
2252.166198313995
 21
30.53787547858519
 31
0.0
  0
LINE
  5
113B
102
{ACAD_REACTORS
330
1130
102
}
330
1F
100
AcDbEntity
  8
実形
370
     5
100
AcDbLine
 10
2252.166198313995
 20
30.53787547858519
 30
0.0
 11
2276.256852341323
 21
30.53787547858514
 31
0.0
  0
ARC
  5
113C
102
{ACAD_REACTORS
330
1130
102
}
330
1F
100
AcDbEntity
  8
実形
370
     5
100
AcDbCircle
 10
2188.255774665348
 20
36.5
 30
0.0
 40
20.0
100
AcDbArc
 50
11.64772366707381
 51
342.6561058784905
  0
ARC
  5
113D
102
{ACAD_REACTORS
330
1130
102
}
330
1F
100
AcDbEntity
  8
実形
370
     5
100
AcDbCircle
 10
2257.166198313996
 20
36.5
 30
0.0
 40
20.0
100
AcDbArc
 50
11.64772366707381
 51
342.6561058784905
  0
LINE
  5
113E
330
1F
100
AcDbEntity
  8
実形
100
AcDbLine
 10
2184.0
 20
69.0
 30
0.0
 11
2184.0
 21
199.0
 31
0.0
  0
TEXT
  5
113F
330
1F
100
AcDbEntity
  8
実形
100
AcDbText
 10
2430.916666666667
 20
84.0
 30
0.0
 40
35.0
  1
1：10
 72
     4
 11
2484.0
 21
101.5
 31
0.0
100
AcDbText
  0
LINE
  5
1140
330
1F
100
AcDbEntity
  8
実形
100
AcDbLine
 10
2784.0
 20
69.0
 30
0.0
 11
2784.0
 21
134.0
 31
0.0
  0
LINE
  5
1141
330
1F
100
AcDbEntity
  8
実形
100
AcDbLine
 10
2784.0
 20
4.0
 30
0.0
 11
2784.0
 21
69.0
 31
0.0
  0
LINE
  5
1142
330
1F
100
AcDbEntity
  8
実形
100
AcDbLine
 10
2784.0
 20
134.0
 30
0.0
 11
2784.0
 21
199.0
 31
0.0
  0
LINE
  5
130C
330
1F
100
AcDbEntity
  8
実形
100
AcDbLine
 10
2784.0
 20
1959.0
 30
0.0
 11
2019.387286519283
 21
1959.000000000001
 31
0.0
  0
LINE
  5
130D
330
1F
100
AcDbEntity
  8
実形
100
AcDbLine
 10
2784.0
 20
1894.0
 30
0.0
 11
2019.387286519283
 21
1894.0
 31
0.0
  0
LINE
  5
130E
330
1F
100
AcDbEntity
  8
実形
100
AcDbLine
 10
2202.547653420927
 20
1829.0
 30
0.0
 11
2202.547653420927
 21
2024.0
 31
0.0
  0
LINE
  5
130F
330
1F
100
AcDbEntity
  8
実形
100
AcDbLine
 10
2019.387286519283
 20
1829.0
 30
0.0
 11
2019.387286519283
 21
2024.0
 31
0.0
  0
TEXT
  5
1310
330
1F
100
AcDbEntity
  8
実形
100
AcDbText
 10
2050.295698850121
 20
1976.328571428572
 30
0.0
 40
30.0
  1
部品名
  7
明朝
 72
     4
 11
2116.124270278692
 21
1991.5
 31
0.0
100
AcDbText
  0
TEXT
  5
1311
330
1F
100
AcDbEntity
  8
実形
100
AcDbText
 10
2627.614285714286
 20
1976.071428571429
 30
0.0
 40
30.0
  1
厚さ
  7
明朝
 72
     4
 11
2671.5
 21
1991.5
 31
0.0
100
AcDbText
  0
LINE
  5
1312
330
1F
100
AcDbEntity
  8
実形
100
AcDbLine
 10
2559.0
 20
1829.0
 30
0.0
 11
2559.0
 21
2024.0
 31
0.0
  0
TEXT
  5
1313
330
1F
100
AcDbEntity
  8
実形
100
AcDbText
 10
2338.490869919937
 20
1975.947979478155
 30
0.0
 40
30.0
  1
材質
  7
明朝
 72
     4
 11
2382.376584205651
 21
1991.119408049583
 31
0.0
100
AcDbText
  0
TEXT
  5
1314
330
1F
100
AcDbEntity
  8
実形
100
AcDbText
 10
2048.227810657788
 20
1910.557142857143
 30
0.0
 40
30.0
  1
ボウル
  7
明朝
 72
     4
 11
2114.056382086359
 21
1926.5
 31
0.0
100
AcDbText
  0
TEXT
  5
1315
330
1F
100
AcDbEntity
  8
実形
100
AcDbText
 10
2594.700000000001
 20
1911.842857142857
 30
0.0
 40
30.0
  1
0.7ｍｍ
  7
明朝
 72
     4
 11
2671.500000000001
 21
1926.5
 31
0.0
100
AcDbText
  0
TEXT
  5
1316
330
1F
100
AcDbEntity
  8
実形
100
AcDbText
 10
2261.016869107866
 20
1910.728571428572
 30
0.0
 40
30.0
  1
SUS304（BA）
  7
明朝
 72
     4
 11
2392.674011965008
 21
1926.5
 31
0.0
100
AcDbText
  0
LINE
  5
1317
330
1F
100
AcDbEntity
  8
実形
100
AcDbLine
 10
119.0
 20
2024.0
 30
0.0
 11
119.0
 21
4.0
 31
0.0
  0
LINE
  5
13FA
330
1F
100
AcDbEntity
  8
実形
100
AcDbLine
 10
2784.0
 20
1829.0
 30
0.0
 11
2019.387286519283
 21
1829.0
 31
0.0
  0
TEXT
  5
1403
330
1F
100
AcDbEntity
  8
実形
100
AcDbText
 10
2070.035283471818
 20
1846.908881478474
 30
0.0
 40
30.0
  1
天板
  7
明朝
 72
     4
 11
2113.920997757532
 21
1862.166024335617
 31
0.0
100
AcDbText
  0
TEXT
  5
140C
330
1F
100
AcDbEntity
  8
実形
100
AcDbText
 10
2234.861046521259
 20
1847.890381562374
 30
0.0
 40
30.0
  1
ｱｸﾘﾙ人工大理石
  7
明朝
 72
     4
 11
2388.461046521259
 21
1863.747524419517
 31
0.0
100
AcDbText
  0
TEXT
  5
1415
330
1F
100
AcDbEntity
  8
実形
100
AcDbText
 10
2607.993307313416
 20
1845.017877900232
 30
0.0
 40
30.0
  1
12ｍｍ
  7
明朝
 72
     4
 11
2673.821878741988
 21
1859.675020757375
 31
0.0
100
AcDbText
  0
ARC
  5
14EF
330
1F
100
AcDbEntity
  8
実形
100
AcDbCircle
 10
1867.899627132798
 20
691.7745986296067
 30
0.0
 40
50.0
100
AcDbArc
 50
90.0
 51
180.0
  0
LINE
  5
14F0
330
1F
100
AcDbEntity
  8
実形
100
AcDbLine
 10
2317.899627132798
 20
621.7745986296067
 30
0.0
 11
2217.899627132798
 21
621.7745986296067
 31
0.0
  0
LINE
  5
14F1
330
1F
100
AcDbEntity
  8
実形
100
AcDbLine
 10
2167.899627132798
 20
621.7745986296067
 30
0.0
 11
2047.899627132798
 21
621.7745986296067
 31
0.0
  0
LINE
  5
14F2
330
1F
100
AcDbEntity
  8
実形
100
AcDbLine
 10
1867.899627132798
 20
621.7745986296067
 30
0.0
 11
1817.899627132798
 21
621.7745986296067
 31
0.0
  0
LINE
  5
14F3
330
1F
100
AcDbEntity
  8
実形
100
AcDbLine
 10
2024.708766078408
 20
661.7745986296068
 30
0.0
 11
1874.978098369962
 21
661.7745986296068
 31
0.0
  0
LINE
  5
14F4
330
1F
100
AcDbEntity
  8
実形
100
AcDbLine
 10
2024.708766078408
 20
651.7745986296067
 30
0.0
 11
1884.978098369962
 21
651.7745986296067
 31
0.0
  0
LINE
  5
14F5
330
1F
100
AcDbEntity
  8
実形
100
AcDbLine
 10
2047.899627132798
 20
671.7745986296067
 30
0.0
 11
2037.899627132798
 21
671.7745986296067
 31
0.0
  0
LINE
  5
14F6
330
1F
100
AcDbEntity
  8
実形
100
AcDbLine
 10
1997.899627132798
 20
671.7745986296067
 30
0.0
 11
1867.899627132798
 21
671.7745986296067
 31
0.0
  0
LINE
  5
14F7
330
1F
100
AcDbEntity
  8
実形
100
AcDbLine
 10
1817.899627132798
 20
621.7745986296067
 30
0.0
 11
1817.899627132798
 21
691.7745986296067
 31
0.0
  0
LINE
  5
14F8
330
1F
100
AcDbEntity
  8
実形
100
AcDbLine
 10
1867.899627132798
 20
621.7745986296067
 30
0.0
 11
1867.899627132798
 21
671.7745986296067
 31
0.0
  0
LINE
  5
14FB
330
1F
100
AcDbEntity
  8
実形
100
AcDbLine
 10
2047.899627132798
 20
621.7745986296067
 30
0.0
 11
2047.899627132798
 21
671.7745986296067
 31
0.0
  0
TEXT
  5
14FC
330
1F
100
AcDbEntity
  8
実形
100
AcDbText
 10
2410.595219089757
 20
538.751962988057
 30
0.0
 40
30.0
  1
糸面
 11
2410.595219089757
 21
534.7519629880571
 31
0.0
100
AcDbText
 73
     1
  0
TEXT
  5
14FD
330
1F
100
AcDbEntity
  8
実形
100
AcDbText
 10
2458.548718828048
 20
823.8525740430549
 30
0.0
 40
30.0
  1
5C
 11
2458.548718828048
 21
819.852574043055
 31
0.0
100
AcDbText
 73
     1
  0
ARC
  5
14FE
330
1F
100
AcDbEntity
  8
実形
100
AcDbCircle
 10
2192.899627132798
 20
621.7745986296067
 30
0.0
 40
25.0
100
AcDbArc
 50
0.0
 51
180.0
  0
TEXT
  5
14FF
330
1F
100
AcDbEntity
  8
実形
100
AcDbText
 10
1645.151229950476
 20
830.9405545710633
 30
0.0
 40
30.0
  1
5R
 11
1645.151229950476
 21
826.9405545710633
 31
0.0
100
AcDbText
 73
     1
  0
TEXT
  5
1500
330
1F
100
AcDbEntity
  8
実形
100
AcDbText
 10
1600.549634237201
 20
510.2514344061565
 30
0.0
 40
30.0
  1
糸面
 11
1600.549634237201
 21
506.2514344061565
 31
0.0
100
AcDbText
 73
     1
  0
ARC
  5
1501
330
1F
100
AcDbEntity
  8
実形
100
AcDbCircle
 10
2017.899627132798
 20
671.7745986296067
 30
0.0
 40
20.0
100
AcDbArc
 50
0.0
 51
180.0
  0
LINE
  5
1502
330
1F
100
AcDbEntity
  8
実形
100
AcDbLine
 10
1966.804648729118
 20
691.7745986296067
 30
0.0
 11
1966.804648729118
 21
671.7745986296067
 31
0.0
  0
TEXT
  5
1503
330
1F
100
AcDbEntity
  8
実形
  6
HIDDEN2
100
AcDbText
 10
1972.525610607851
 20
684.4380022953536
 30
0.0
 40
13.0
  1
● 
 71
     2
100
AcDbText
  0
TEXT
  5
1504
330
1F
100
AcDbEntity
  8
実形
  6
HIDDEN2
100
AcDbText
 10
1972.903799752736
 20
665.5344066124853
 30
0.0
 40
13.0
  1
● 
 71
     2
100
AcDbText
  0
LINE
  5
1505
330
1F
100
AcDbEntity
  8
実形
100
AcDbLine
 10
1897.899627132798
 20
643.3475735696974
 30
0.0
 11
1897.899627132798
 21
543.3475735696974
 31
0.0
  0
LINE
  5
1506
330
1F
100
AcDbEntity
  8
実形
100
AcDbLine
 10
1897.899627132798
 20
543.3475735696974
 30
0.0
 11
2077.899627132798
 21
543.3475735696974
 31
0.0
  0
LINE
  5
1507
330
1F
100
AcDbEntity
  8
実形
100
AcDbLine
 10
2077.899627132798
 20
543.3475735696974
 30
0.0
 11
2077.899627132798
 21
613.3475735696975
 31
0.0
  0
LINE
  5
1508
330
1F
100
AcDbEntity
  8
実形
100
AcDbLine
 10
2077.899627132798
 20
613.3475735696975
 30
0.0
 11
1987.899627132798
 21
613.3475735696975
 31
0.0
  0
LINE
  5
1509
330
1F
100
AcDbEntity
  8
実形
100
AcDbLine
 10
1987.899627132798
 20
613.3475735696975
 30
0.0
 11
1987.899627132798
 21
643.3475735696974
 31
0.0
  0
LINE
  5
150A
330
1F
100
AcDbEntity
  8
実形
100
AcDbLine
 10
1987.899627132798
 20
643.3475735696974
 30
0.0
 11
1897.899627132798
 21
643.3475735696974
 31
0.0
  0
LINE
  5
150B
330
1F
100
AcDbEntity
  8
実形
100
AcDbLine
 10
1874.978098369962
 20
661.7745986296068
 30
0.0
 11
1874.978098369962
 21
352.1897662457859
 31
0.0
  0
LINE
  5
150C
330
1F
100
AcDbEntity
  8
実形
100
AcDbLine
 10
1884.978098369962
 20
651.7745986296067
 30
0.0
 11
1884.978098369962
 21
352.1897662457859
 31
0.0
  0
LINE
  5
150D
330
1F
100
AcDbEntity
  8
実形
100
AcDbLine
 10
2024.708766078408
 20
661.7745986296068
 30
0.0
 11
2024.708766078408
 21
651.7745986296067
 31
0.0
  0
TEXT
  5
150E
330
1F
100
AcDbEntity
  8
実形
100
AcDbText
 10
2201.863287800888
 20
467.1205266387505
 30
0.0
 40
30.0
  1
ホルダーリング
 11
2201.863287800888
 21
463.1205266387505
 31
0.0
100
AcDbText
 73
     1
  0
LEADER
  5
150F
330
1F
100
AcDbEntity
  8
実形
100
AcDbLeader
  3
ISO-25
 76
     2
 10
1999.209784504814
 20
569.1972909868063
 30
0.0
 10
2192.253344445128
 20
482.2281316862581
 30
0.0
1001
ACAD
1000
DSTYLE
1002
{
1070
    77
1070
     0
1070
    41
1040
25.0
1070
    42
1040
6.0
1070
   140
1040
3.0
1070
   147
1040
1.199999999999999
1070
   279
1070
     2
1070
   289
1070
     2
1070
   371
1070
    13
1070
   372
1070
    13
1002
}
  0
TEXT
  5
1510
330
1F
100
AcDbEntity
  8
実形
100
AcDbText
 10
1539.319353690884
 20
268.3943835687069
 30
0.0
 40
30.0
  1
シンク厚0.7ｍｍ
 11
1539.319353690884
 21
264.3943835687069
 31
0.0
100
AcDbText
 73
     1
  0
DIMENSION
  5
1511
330
1F
100
AcDbEntity
  8
実形
100
AcDbDimension
  2
*D4
 10
1867.899627132798
 20
560.7316764226998
 30
0.0
 11
1824.014601998565
 21
560.7316764226998
 31
0.0
 70
   160
  1
5
 71
     5
 42
50.0
  3
ISO-25
100
AcDbAlignedDimension
 13
1817.899627132798
 23
656.214527306287
 33
0.0
 14
1867.899627132798
 24
656.214527306287
 34
0.0
100
AcDbRotatedDimension
1001
ACAD
1000
DSTYLE
1002
{
1070
   371
1070
    18
1070
   372
1070
    18
1002
}
  0
DIMENSION
  5
1512
330
1F
100
AcDbEntity
  8
実形
100
AcDbDimension
  2
*D5
 10
1753.525428541637
 20
621.774598629607
 30
0.0
 11
1734.775428541636
 21
681.7745986296072
 31
0.0
 70
    32
  1
12
 71
     5
 42
120.0
  3
ISO-25
100
AcDbAlignedDimension
 13
1856.050329074197
 23
741.7745986296068
 33
0.0
 14
1850.701112069639
 24
621.7745986296068
 34
0.0
 50
90.0
100
AcDbRotatedDimension
1001
ACAD
1000
DSTYLE
1002
{
1070
   371
1070
    18
1070
   372
1070
    18
1002
}
  0
LEADER
  5
1513
330
1F
100
AcDbEntity
  8
実形
100
AcDbLeader
  3
ISO-25
 76
     2
 10
1815.090214893423
 20
744.4335239879401
 30
0.0
 10
1719.434196900952
 20
819.5685138390418
 30
0.0
1001
ACAD
1000
DSTYLE
1002
{
1070
   147
1040
6.25
1070
    77
1070
     0
1070
   371
1070
    18
1070
   372
1070
    18
1002
}
  0
DIMENSION
  5
1514
330
1F
100
AcDbEntity
  8
実形
100
AcDbDimension
  2
*D6
 10
2317.899627132798
 20
566.132923262845
 30
0.0
 11
2267.899627132799
 21
584.882923262845
 31
0.0
 70
    32
  1
10
 71
     5
 42
99.99999999999955
  3
ISO-25
100
AcDbAlignedDimension
 13
2217.899627132799
 23
654.3938049223925
 33
0.0
 14
2317.899627132798
 24
654.3938049223925
 34
0.0
100
AcDbRotatedDimension
1001
ACAD
1000
DSTYLE
1002
{
1070
   371
1070
    18
1070
   372
1070
    18
1002
}
  0
DIMENSION
  5
1515
330
1F
100
AcDbEntity
  8
実形
100
AcDbDimension
  2
*D7
 10
2217.750478700636
 20
566.132923262845
 30
0.0
 11
2192.825052916717
 21
566.132923262845
 31
0.0
 70
   160
  1
5
 71
     5
 42
49.85085156783725
  3
ISO-25
100
AcDbAlignedDimension
 13
2167.899627132798
 23
654.3938049223925
 33
0.0
 14
2217.750478700636
 24
654.3938049223925
 34
0.0
100
AcDbRotatedDimension
1001
ACAD
1000
DSTYLE
1002
{
1070
   371
1070
    18
1070
   372
1070
    18
1002
}
  0
LINE
  5
1516
330
1F
100
AcDbEntity
  8
実形
100
AcDbLine
 10
1867.899627132799
 20
741.7745986296067
 30
0.0
 11
2267.899627132799
 21
741.7745986296067
 31
0.0
  0
LINE
  5
1517
330
1F
100
AcDbEntity
  8
実形
100
AcDbLine
 10
2132.142264273031
 20
622.0870986296067
 30
0.0
 11
2132.142264273031
 21
646.4620986296067
 31
0.0
  0
LINE
  5
1518
330
1F
100
AcDbEntity
  8
実形
100
AcDbLine
 10
2132.142264273031
 20
646.4620986296067
 30
0.0
 11
2164.726988856294
 21
646.4620986296067
 31
0.0
  0
DIMENSION
  5
1519
330
1F
100
AcDbEntity
  8
実形
100
AcDbDimension
  2
*D8
 10
2047.899627132799
 20
804.2436145081255
 30
0.0
 11
1957.899627132799
 21
822.9936145081255
 31
0.0
 70
    32
  1
18
 71
     5
 42
180.0
  3
ISO-25
100
AcDbAlignedDimension
 13
1867.899627132799
 23
706.2498690356979
 33
0.0
 14
2047.899627132799
 24
706.2498690356979
 34
0.0
100
AcDbRotatedDimension
1001
ACAD
1000
DSTYLE
1002
{
1070
   371
1070
    18
1070
   372
1070
    18
1002
}
  0
DIMENSION
  5
151A
330
1F
100
AcDbEntity
  8
実形
100
AcDbDimension
  2
*D9
 10
2317.899627132799
 20
865.148744994477
 30
0.0
 11
2067.899627132799
 21
883.898744994477
 31
0.0
 70
    32
  1
50
 71
     5
 42
500.0
  3
ISO-25
100
AcDbAlignedDimension
 13
1817.899627132799
 23
711.188318796132
 33
0.0
 14
2317.899627132799
 24
705.1883187961321
 34
0.0
100
AcDbRotatedDimension
1001
ACAD
1000
DSTYLE
1002
{
1070
   371
1070
    18
1070
   372
1070
    18
1002
}
  0
LINE
  5
151B
330
1F
100
AcDbEntity
  8
実形
100
AcDbLine
 10
2317.899627132799
 20
691.7745986296069
 30
0.0
 11
2317.899627132799
 21
621.7745986296068
 31
0.0
  0
LINE
  5
151C
330
1F
100
AcDbEntity
  8
実形
100
AcDbLine
 10
2267.899627132799
 20
741.7745986296067
 30
0.0
 11
2317.899627132799
 21
691.7745986296067
 31
0.0
  0
DIMENSION
  5
151D
330
1F
100
AcDbEntity
  8
実形
100
AcDbDimension
  2
*D10
 10
2389.409955385397
 20
691.7745986296067
 30
0.0
 11
2370.659955385397
 21
716.7745986296071
 31
0.0
 70
    32
  1
5
 71
     5
 42
50.0
  3
ISO-25
100
AcDbAlignedDimension
 13
2281.301992771529
 23
741.7745986296067
 33
0.0
 14
2281.301992771529
 24
691.7745986296067
 34
0.0
 50
90.0
100
AcDbRotatedDimension
1001
ACAD
1000
DSTYLE
1002
{
1070
   371
1070
    18
1070
   372
1070
    18
1002
}
  0
DIMENSION
  5
151E
330
1F
100
AcDbEntity
  8
実形
100
AcDbDimension
  2
*D11
 10
2317.899627132799
 20
817.6685318953046
 30
0.0
 11
2292.899627132799
 21
836.4185318953046
 31
0.0
 70
    32
  1
5
 71
     5
 42
50.0
  3
ISO-25
100
AcDbAlignedDimension
 13
2267.899627132799
 23
705.1883187961321
 33
0.0
 14
2317.899627132799
 24
705.1883187961321
 34
0.0
100
AcDbRotatedDimension
1001
ACAD
1000
DSTYLE
1002
{
1070
   371
1070
    18
1070
   372
1070
    18
1002
}
  0
TEXT
  5
151F
330
1F
100
AcDbEntity
  8
実形
  6
HIDDEN2
100
AcDbText
 10
2138.024729860347
 20
638.6576570747565
 30
0.0
 40
13.0
  1
● 
 71
     2
100
AcDbText
  0
TEXT
  5
1520
330
1F
100
AcDbEntity
  8
実形
  6
HIDDEN2
100
AcDbText
 10
2137.547101759287
 20
616.2156961895816
 30
0.0
 40
13.0
  1
● 
 71
     2
100
AcDbText
  0
DIMENSION
  5
1521
330
1F
100
AcDbEntity
  8
実形
100
AcDbDimension
  2
*D12
 10
2087.358522894804
 20
621.7745986296067
 30
0.0
 11
2068.608522894804
 21
646.7745986296071
 31
0.0
 70
    32
  1
5
 71
     5
 42
50.0
  3
ISO-25
100
AcDbAlignedDimension
 13
2012.8411846723
 23
671.7745986296067
 33
0.0
 14
2012.8411846723
 24
621.7745986296067
 34
0.0
 50
90.0
100
AcDbRotatedDimension
1001
ACAD
1000
DSTYLE
1002
{
1070
   371
1070
    18
1070
   372
1070
    18
1002
}
  0
LEADER
  5
1522
330
1F
100
AcDbEntity
  8
実形
100
AcDbLeader
  3
ISO-25
 76
     2
 10
1808.619821546484
 20
612.1978858294769
 30
0.0
 10
1681.016748162186
 20
544.5826408523116
 30
0.0
1001
ACAD
1000
DSTYLE
1002
{
1070
   147
1040
6.25
1070
    77
1070
     0
1070
   371
1070
    18
1070
   372
1070
    18
1002
}
  0
TEXT
  5
1523
330
1F
100
AcDbEntity
  8
実形
100
AcDbText
 10
2125.568082059839
 20
627.9919864037419
 30
0.0
 40
25.0
  1
3
 50
90.0
 11
2128.901415393172
 21
627.9919864037419
 31
0.0
100
AcDbText
 73
     1
  0
LEADER
  5
1524
330
1F
100
AcDbEntity
  8
実形
100
AcDbLeader
  3
ISO-25
 76
     2
 10
2322.80379030641
 20
616.8598495531641
 30
0.0
 10
2398.553954792958
 20
569.2926377726962
 30
0.0
1001
ACAD
1000
DSTYLE
1002
{
1070
   147
1040
6.25
1070
    77
1070
     0
1070
   371
1070
    18
1070
   372
1070
    18
1002
}
  0
LEADER
  5
1525
330
1F
100
AcDbEntity
  8
実形
100
AcDbLeader
  3
ISO-25
 76
     2
 10
2303.255273845019
 20
734.3053176605372
 30
0.0
 10
2432.518009127802
 20
815.3861860887101
 30
0.0
1001
ACAD
1000
DSTYLE
1002
{
1070
   147
1040
6.25
1070
    77
1070
     0
1070
   371
1070
    18
1070
   372
1070
    18
1002
}
  0
LEADER
  5
1526
330
1F
100
AcDbEntity
  8
実形
100
AcDbLeader
  3
ISO-25
 76
     2
 10
1868.132181531267
 20
457.1562668605093
 30
0.0
 10
1696.752901796543
 20
317.3384005179905
 30
0.0
1001
ACAD
1000
DSTYLE
1002
{
1070
   147
1040
6.25
1070
    77
1070
     0
1070
   371
1070
    18
1070
   372
1070
    18
1002
}
  0
TEXT
  5
1527
330
1F
100
AcDbEntity
  8
実形
100
AcDbText
 10
1950.122021996694
 20
679.8525598878168
 30
0.0
 40
25.0
  1
2
 50
90.0
 11
1953.455355330027
 21
679.8525598878168
 31
0.0
100
AcDbText
 73
     1
  0
LINE
  5
1528
330
1F
100
AcDbEntity
  8
実形
100
AcDbLine
 10
1966.866492664204
 20
690.6858617352754
 30
0.0
 11
1991.031584471474
 21
690.6858617352754
 31
0.0
  0
DIMENSION
  5
1529
330
1F
100
AcDbEntity
  8
実形
100
AcDbDimension
  2
*D13
 10
2077.899627132798
 20
489.0759292349884
 30
0.0
 11
1987.899627132798
 21
507.8259292349884
 31
0.0
 70
    32
  1
18
 71
     5
 42
180.0
  3
ISO-25
100
AcDbAlignedDimension
 13
1897.899627132798
 23
577.5399579777349
 33
0.0
 14
2077.899627132798
 24
577.5399579777349
 34
0.0
100
AcDbRotatedDimension
1001
ACAD
1000
DSTYLE
1002
{
1070
   371
1070
    18
1070
   372
1070
    18
1002
}
  0
DIMENSION
  5
152A
330
1F
100
AcDbEntity
  8
実形
100
AcDbDimension
  2
*D14
 10
2125.611732425682
 20
543.3475735696974
 30
0.0
 11
2106.861732425683
 21
578.3475735696978
 31
0.0
 70
    32
  1
7
 71
     5
 42
70.0
  3
ISO-25
100
AcDbAlignedDimension
 13
2042.667552183736
 23
613.3475735696975
 33
0.0
 14
2042.667552183736
 24
543.3475735696974
 34
0.0
 50
90.0
100
AcDbRotatedDimension
1001
ACAD
1000
DSTYLE
1002
{
1070
   371
1070
    18
1070
   372
1070
    18
1002
}
  0
TEXT
  5
152B
330
1F
100
AcDbEntity
  8
実形
370
    18
100
AcDbText
 10
1647.952023221997
 20
935.6785898056941
 30
0.0
 40
40.0
  1
A-A´断面詳細図
100
AcDbText
  0
LINE
  5
152C
330
1F
100
AcDbEntity
  8
実形
100
AcDbLine
 10
1979.735758068987
 20
613.3475735696975
 30
0.0
 11
1962.760059772732
 21
613.3475735696975
 31
0.0
  0
LINE
  5
152D
330
1F
100
AcDbEntity
  8
実形
100
AcDbLine
 10
1962.760059772732
 20
613.3475735696975
 30
0.0
 11
1962.760059772733
 21
643.3475735696974
 31
0.0
  0
TEXT
  5
152E
330
1F
100
AcDbEntity
  8
実形
  6
HIDDEN2
100
AcDbText
 10
1968.625968949773
 20
607.4759836678931
 30
0.0
 40
13.0
  1
● 
 71
     2
100
AcDbText
  0
TEXT
  5
152F
330
1F
100
AcDbEntity
  8
実形
  6
HIDDEN2
100
AcDbText
 10
1968.426390955703
 20
636.006153542412
 30
0.0
 40
13.0
  1
● 
 71
     2
100
AcDbText
  0
TEXT
  5
1530
330
1F
100
AcDbEntity
  8
実形
100
AcDbText
 10
1943.306793804806
 20
614.1722475894339
 30
0.0
 40
25.0
  1
3
 50
90.0
 11
1946.640127138139
 21
614.1722475894339
 31
0.0
100
AcDbText
 73
     1
  0
LINE
  5
1531
330
1F
100
AcDbEntity
  8
実形
100
AcDbLine
 10
1997.388073958595
 20
689.3203850017734
 30
0.0
 11
1997.388073958595
 21
701.887567216354
 31
0.0
  0
LINE
  5
1532
330
1F
100
AcDbEntity
  8
実形
100
AcDbLine
 10
1997.388073958595
 20
701.887567216354
 30
0.0
 11
2047.388073958595
 21
701.887567216354
 31
0.0
  0
LINE
  5
1533
330
1F
100
AcDbEntity
  8
実形
100
AcDbLine
 10
2047.388073958595
 20
701.887567216354
 30
0.0
 11
2047.388073958595
 21
689.3203850017734
 31
0.0
  0
LINE
  5
1534
330
1F
100
AcDbEntity
  8
実形
100
AcDbLine
 10
2037.388073958595
 20
701.887567216354
 30
0.0
 11
2037.388073958595
 21
689.3203850017734
 31
0.0
  0
TEXT
  5
1535
330
1F
100
AcDbEntity
  8
実形
370
    18
100
AcDbText
 10
1994.600818876664
 20
713.3745043081298
 30
0.0
 40
21.0
  1
4
100
AcDbText
  0
TEXT
  5
1536
330
1F
100
AcDbEntity
  8
実形
  6
HIDDEN2
100
AcDbText
 10
2003.3181555003
 20
695.656007764187
 30
0.0
 40
11.0
  1
● 
 71
     2
100
AcDbText
  0
TEXT
  5
1537
330
1F
100
AcDbEntity
  8
実形
  6
HIDDEN2
100
AcDbText
 10
2042.763207470307
 20
695.4612187641778
 30
0.0
 40
11.0
  1
● 
 71
     2
100
AcDbText
  0
TEXT
  5
1538
330
1F
100
AcDbEntity
  8
実形
  6
HIDDEN2
100
AcDbText
 10
2052.625333600898
 20
695.6827726649517
 30
0.0
 40
11.0
  1
● 
 71
     2
100
AcDbText
  0
TEXT
  5
1539
330
1F
100
AcDbEntity
  8
実形
370
    18
100
AcDbText
 10
2037.911668312217
 20
712.525535607403
 30
0.0
 40
21.0
  1
1
100
AcDbText
  0
TEXT
  5
1E4A
330
1F
100
AcDbEntity
  8
実形
100
AcDbText
 10
2292.500766650736
 20
146.871873564718
 30
0.0
 40
35.0
  1
Jstn710ｰ500S
 72
     4
 11
2475.084099984069
 21
164.371873564718
 31
0.0
100
AcDbText
  0
LINE
  5
20D0
330
1F
100
AcDbEntity
  8
実形
100
AcDbLine
 10
543.6981081818339
 20
842.1015195529452
 30
0.0
 11
1192.503903745053
 21
842.1015195529452
 31
0.0
  0
LINE
  5
20D1
330
1F
100
AcDbEntity
  8
実形
100
AcDbLine
 10
558.6981081818339
 20
842.1015195529452
 30
0.0
 11
558.6981081818342
 21
688.1100593627361
 31
0.0
  0
ARC
  5
20D2
330
1F
100
AcDbEntity
  8
実形
100
AcDbCircle
 10
588.6981081818341
 20
688.1100593627361
 30
0.0
 40
30.0
100
AcDbArc
 50
180.0
 51
268.0748162916772
  0
LINE
  5
20D3
330
1F
100
AcDbEntity
  8
実形
100
AcDbLine
 10
618.198108181834
 20
657.1015195529453
 30
0.0
 11
788.698108181834
 21
657.1015195529453
 31
0.0
  0
LINE
  5
20D4
330
1F
100
AcDbEntity
  8
実形
100
AcDbLine
 10
788.698108181834
 20
657.1015195529453
 30
0.0
 11
799.1981081818339
 21
657.1015195529453
 31
0.0
  0
LINE
  5
20D5
330
1F
100
AcDbEntity
  8
実形
100
AcDbLine
 10
799.1981081818339
 20
657.1015195529453
 30
0.0
 11
799.1981081818339
 21
657.1015195529453
 31
0.0
  0
LINE
  5
20D6
330
1F
100
AcDbEntity
  8
実形
100
AcDbLine
 10
1780.037173103606
 20
1724.599516661139
 30
0.0
 11
1780.037173103606
 21
1284.599516661139
 31
0.0
  0
LINE
  5
20D7
330
1F
100
AcDbEntity
  8
実形
100
AcDbLine
 10
1780.037173103606
 20
1299.599516661139
 30
0.0
 11
1931.318626821276
 21
1299.599516661139
 31
0.0
  0
LINE
  5
20D8
330
1F
100
AcDbEntity
  8
実形
100
AcDbLine
 10
1965.037173103605
 20
1414.099516661139
 30
0.0
 11
1965.037173103605
 21
1595.099516661139
 31
0.0
  0
LINE
  5
20D9
330
1F
100
AcDbEntity
  8
実形
100
AcDbLine
 10
618.198108181834
 20
657.1015195529453
 30
0.0
 11
618.198108181834
 21
647.1015195529453
 31
0.0
  0
LINE
  5
20DA
330
1F
100
AcDbEntity
  8
実形
100
AcDbLine
 10
618.198108181834
 20
647.1015195529453
 30
0.0
 11
799.1981081818339
 21
647.1015195529453
 31
0.0
  0
LINE
  5
20DB
330
1F
100
AcDbEntity
  8
実形
100
AcDbLine
 10
799.1981081818339
 20
647.1015195529453
 30
0.0
 11
799.1981081818339
 21
657.1015195529453
 31
0.0
  0
LINE
  5
20DC
330
1F
100
AcDbEntity
  8
実形
100
AcDbLine
 10
1965.037173103605
 20
1595.099516661139
 30
0.0
 11
1975.037173103606
 21
1595.099516661139
 31
0.0
  0
LINE
  5
20DD
330
1F
100
AcDbEntity
  8
実形
100
AcDbLine
 10
1975.037173103606
 20
1595.099516661139
 30
0.0
 11
1975.037173103606
 21
1414.099516661139
 31
0.0
  0
LINE
  5
20DE
330
1F
100
AcDbEntity
  8
実形
100
AcDbLine
 10
1975.037173103606
 20
1414.099516661139
 30
0.0
 11
1965.037173103605
 21
1414.099516661139
 31
0.0
  0
LINE
  5
20DF
330
1F
100
AcDbEntity
  8
センター
 48
0.5
370
    15
100
AcDbLine
 10
708.6981081818339
 20
735.3181434283587
 30
0.0
 11
708.6981081818339
 21
578.9023231210585
 31
0.0
  0
LINE
  5
20E0
330
1F
100
AcDbEntity
  8
センター
 48
0.7
370
    15
100
AcDbLine
 10
1920.193459811402
 20
1504.599516661139
 30
0.0
 11
2017.856621951255
 21
1504.599516661139
 31
0.0
  0
TEXT
  5
20E1
330
1F
100
AcDbEntity
  8
寸法
100
AcDbText
 10
1058.545841246901
 20
732.0146107370637
 30
0.0
 40
25.0
  1
30R
100
AcDbText
  0
TEXT
  5
20E2
330
1F
100
AcDbEntity
  8
寸法
370
    18
100
AcDbText
 10
1837.57375776447
 20
1358.083144719585
 30
0.0
 40
25.0
  1
30R
100
AcDbText
  0
DIMENSION
  5
20E3
330
1F
100
AcDbEntity
  8
寸法
100
AcDbDimension
  2
*D15
 10
788.698108181834
 20
530.6741122518724
 30
0.0
 11
708.6981081818339
 21
549.4241122518724
 31
0.0
 70
    32
  1
158
 71
     5
 42
160.0
  3
ISO-25
100
AcDbAlignedDimension
 13
628.6981081818339
 23
647.1015195529453
 33
0.0
 14
788.698108181834
 24
647.1015195529453
 34
0.0
100
AcDbRotatedDimension
1001
ACAD
1000
DSTYLE
1002
{
1070
    41
1040
25.0
1070
   371
1070
    18
1002
}
  0
DIMENSION
  5
20E4
330
1F
100
AcDbEntity
  8
寸法
100
AcDbDimension
  2
*D16
 10
799.1981081818339
 20
470.7147136829434
 30
0.0
 11
708.6981081818339
 21
489.4647136829434
 31
0.0
 70
    32
 71
     5
 42
181.0
  3
ISO-25
100
AcDbAlignedDimension
 13
618.198108181834
 23
647.1015195529455
 33
0.0
 14
799.1981081818339
 24
647.1015195529453
 34
0.0
100
AcDbRotatedDimension
1001
ACAD
1000
DSTYLE
1002
{
1070
    41
1040
25.0
1070
   371
1070
    18
1002
}
  0
DIMENSION
  5
20E5
330
1F
100
AcDbEntity
  8
寸法
100
AcDbDimension
  2
*D17
 10
2085.343317195526
 20
1424.599516661139
 30
0.0
 11
2066.593317195525
 21
1504.599516661139
 31
0.0
 70
    32
  1
158
 71
     5
 42
160.0
  3
ISO-25
100
AcDbAlignedDimension
 13
1975.037173103606
 23
1584.599516661139
 33
0.0
 14
1975.037173103606
 24
1424.599516661139
 34
0.0
 50
90.0
100
AcDbRotatedDimension
1001
ACAD
1000
DSTYLE
1002
{
1070
    41
1040
25.0
1070
   371
1070
    18
1002
}
  0
DIMENSION
  5
20E6
330
1F
100
AcDbEntity
  8
寸法
100
AcDbDimension
  2
*D18
 10
2150.264905160367
 20
1414.099516661139
 30
0.0
 11
2131.514905160367
 21
1504.599516661139
 31
0.0
 70
    32
 71
     5
 42
181.0
  3
ISO-25
100
AcDbAlignedDimension
 13
1975.037173103606
 23
1595.099516661139
 33
0.0
 14
1975.037173103606
 24
1414.099516661139
 34
0.0
 50
90.0
100
AcDbRotatedDimension
1001
ACAD
1000
DSTYLE
1002
{
1070
    41
1040
25.0
1070
   371
1070
    18
1002
}
  0
LEADER
  5
20E7
330
1F
100
AcDbEntity
  8
実形
100
AcDbLeader
  3
ISO-25
 40
25.0
 41
16.66666666666666
 76
     2
 10
1161.146253859585
 20
686.8508297689786
 30
0.0
 10
1090.255110453567
 20
727.6525826344477
 30
0.0
213
0.0
223
-12.5
233
0.0
1001
ACAD
1000
DSTYLE
1002
{
1070
    41
1040
25.0
1070
   147
1040
6.25
1070
    77
1070
     0
1070
    73
1070
     1
1070
    74
1070
     1
1070
   279
1070
     1
1070
   342
1005
DA
1002
}
  0
LEADER
  5
20E8
330
1F
100
AcDbEntity
  8
実形
100
AcDbLeader
  3
ISO-25
 40
25.0
 41
16.66666666666666
 76
     2
 10
1942.38632114802
 20
1317.298200534393
 30
0.0
 10
1880.942129453591
 20
1354.312324272545
 30
0.0
213
0.0
223
-12.5
233
0.0
1001
ACAD
1000
DSTYLE
1002
{
1070
    41
1040
25.0
1070
   147
1040
6.25
1070
    77
1070
     0
1070
    73
1070
     1
1070
    74
1070
     1
1070
   279
1070
     1
1070
   342
1005
DA
1002
}
  0
LINE
  5
20E9
330
1F
100
AcDbEntity
  8
実形
100
AcDbLine
 10
1177.503903745053
 20
842.1015195529452
 30
0.0
 11
1177.503903745053
 21
700.5873579542626
 31
0.0
  0
LINE
  5
20EA
330
1F
100
AcDbEntity
  8
実形
100
AcDbLine
 10
1149.056225577352
 20
670.6275465908884
 30
0.0
 11
799.1981081818339
 21
657.1015195529453
 31
0.0
  0
ARC
  5
20EB
330
1F
100
AcDbEntity
  8
実形
100
AcDbCircle
 10
1147.503903745053
 20
700.5873579542626
 30
0.0
 40
30.0
100
AcDbArc
 50
272.966040889987
 51
0.0
  0
LINE
  5
20EC
330
1F
100
AcDbEntity
  8
実形
100
AcDbLine
 10
1780.037173103606
 20
1219.599516661139
 30
0.0
 11
1780.037173103606
 21
1099.599516661139
 31
0.0
  0
LINE
  5
20ED
330
1F
100
AcDbEntity
  8
実形
100
AcDbLine
 10
1965.037173103605
 20
1219.599516661139
 30
0.0
 11
1965.037173103605
 21
1099.599516661139
 31
0.0
  0
LINE
  5
20EE
330
1F
100
AcDbEntity
  8
実形
100
AcDbLine
 10
1975.037173103606
 20
1219.599516661139
 30
0.0
 11
1975.037173103605
 21
1153.405760142698
 31
0.0
  0
LINE
  5
20EF
330
1F
100
AcDbEntity
  8
実形
100
AcDbLine
 10
1780.037173103606
 20
1099.599516661139
 30
0.0
 11
1965.037173103605
 21
1099.599516661139
 31
0.0
  0
TEXT
  5
20F0
330
1F
100
AcDbEntity
  8
寸法
370
    18
100
AcDbText
 10
1849.270879882895
 20
1107.281705068181
 30
0.0
 40
25.0
  1
185
100
AcDbText
  0
TEXT
  5
20F1
330
1F
100
AcDbEntity
  8
寸法
370
    18
100
AcDbText
 10
1982.820506514428
 20
1157.330833755123
 30
0.0
 40
25.0
  1
7
100
AcDbText
  0
TEXT
  5
20F2
330
1F
100
AcDbEntity
  8
寸法
370
    18
100
AcDbText
 10
1778.223669448767
 20
1097.606958882896
 30
0.0
 40
4.0
  1
●
100
AcDbText
  0
TEXT
  5
20F3
330
1F
100
AcDbEntity
  8
寸法
370
    18
100
AcDbText
 10
1963.137198416694
 20
1097.691808410514
 30
0.0
 40
4.0
  1
●
100
AcDbText
  0
TEXT
  5
20F4
330
1F
100
AcDbEntity
  8
寸法
370
    18
100
AcDbText
 10
1973.169896265934
 20
1151.44906031414
 30
0.0
 40
4.0
  1
●
100
AcDbText
  0
TEXT
  5
20F5
330
1F
100
AcDbEntity
  8
寸法
 62
     0
370
    18
100
AcDbText
 10
1372.333478270062
 20
729.5840790293445
 30
0.0
 40
25.0
  1
185
 50
90.0
100
AcDbText
  0
TEXT
  5
20F6
330
1F
100
AcDbEntity
  8
寸法
 62
     0
370
    18
100
AcDbText
 10
1304.522416570213
 20
682.3843232607469
 30
0.0
 40
25.0
  1
15
 50
90.0
100
AcDbText
  0
TEXT
  5
20F7
330
1F
100
AcDbEntity
  8
寸法
 62
     0
370
    18
100
AcDbText
 10
1301.974163580678
 20
618.6199039003041
 30
0.0
 40
25.0
  1
7
 50
90.0
100
AcDbText
  0
TEXT
  5
20F8
330
1F
100
AcDbEntity
  8
寸法
370
    18
100
AcDbText
 10
1963.002584993473
 20
1151.256562525625
 30
0.0
 40
4.0
  1
●
100
AcDbText
  0
ARC
  5
20FA
330
1F
100
AcDbEntity
  8
実形
100
AcDbCircle
 10
868.6981097358772
 20
11299.59951666114
 30
0.0
 40
9995.0
100
AcDbArc
 50
270.0
 51
271.3098801070746
  0
ARC
  5
20FD
330
1F
100
AcDbEntity
  8
実形
100
AcDbCircle
 10
1095.466623885605
 20
1382.19178878233
 30
0.0
 40
75.0
100
AcDbArc
 50
271.3098801070704
 51
356.9755584900068
  0
ARC
  5
2100
330
1F
100
AcDbEntity
  8
実形
100
AcDbCircle
 10
-1221.301890264124
 20
1504.599516661139
 30
0.0
 40
2395.0
100
AcDbArc
 50
356.9755584900068
 51
0.0
  0
DIMENSION
  5
2103
330
1F
100
AcDbEntity
  8
寸法
100
AcDbDimension
  2
*D19
 10
400.5227917448573
 20
1304.667796407058
 30
0.0
 11
381.7727917448572
 21
1504.667796407058
 31
0.0
 70
    32
 71
     5
 42
400.0000000000002
  3
ISO-25
100
AcDbAlignedDimension
 13
543.6981064687306
 23
1704.667796407058
 33
0.0
 14
543.6981064687306
 24
1304.667796407058
 34
0.0
 50
90.0
100
AcDbRotatedDimension
1001
ACAD
1000
DSTYLE
1002
{
1070
    41
1040
25.0
1070
   371
1070
    18
1070
   279
1070
     1
1002
}
  0
CIRCLE
  5
210C
330
1F
100
AcDbEntity
  8
実形
100
AcDbCircle
 10
708.6981081818342
 20
1504.667796407058
 30
0.0
 40
79.0
  0
CIRCLE
  5
210D
330
1F
100
AcDbEntity
  8
実形
100
AcDbCircle
 10
708.6981081818342
 20
1504.667796407058
 30
0.0
 40
90.5
  0
LINE
  5
210E
330
1F
100
AcDbEntity
  8
センター
370
    15
100
AcDbLine
 10
581.3889982814434
 20
1504.667796407058
 30
0.0
 11
864.1981097358756
 21
1504.667796407058
 31
0.0
  0
LINE
  5
210F
330
1F
100
AcDbEntity
  8
センター
370
    15
100
AcDbLine
 10
708.6981081818342
 20
1679.971348487054
 30
0.0
 11
708.6981081818342
 21
1329.364244327062
 31
0.0
  0
DIMENSION
  5
2110
330
1F
100
AcDbEntity
  8
寸法
100
AcDbDimension
  2
*D20
 10
563.6981034251548
 20
1803.470914570467
 30
0.0
 11
636.1981058034944
 21
1822.220914570467
 31
0.0
 70
    32
 71
     5
 42
145.0000047566793
  3
ISO-25
100
AcDbAlignedDimension
 13
708.6981081818342
 23
1595.167796407058
 33
0.0
 14
563.6981034251548
 24
1504.66802167053
 34
0.0
100
AcDbRotatedDimension
1001
ACAD
1000
DSTYLE
1002
{
1070
    41
1040
25.0
1070
   371
1070
    18
1002
}
  0
DIMENSION
  5
2111
330
1F
100
AcDbEntity
  8
寸法
100
AcDbDimension
  2
*D21
 10
868.678290323991
 20
1704.667796407058
 30
0.0
 11
849.9282903239908
 21
1604.667796407058
 31
0.0
 70
    32
 71
     5
 42
199.9999999999998
  3
ISO-25
100
AcDbAlignedDimension
 13
844.1981097358755
 23
1504.667796407058
 33
0.0
 14
844.2111795941288
 24
1704.667796407058
 34
0.0
 50
90.0
100
AcDbRotatedDimension
1001
ACAD
1000
DSTYLE
1002
{
1070
    41
1040
25.0
1070
    42
1040
20.0
1070
   371
1070
    18
1002
}
  0
TEXT
  5
2112
330
1F
100
AcDbEntity
  8
寸法
370
    18
100
AcDbText
 10
823.0073220725133
 20
1365.897075178417
 30
0.0
 40
25.0
  1
9995R
100
AcDbText
  0
TEXT
  5
2113
330
1F
100
AcDbEntity
  8
寸法
370
    18
100
AcDbText
 10
985.6132672315627
 20
1534.854365641561
 30
0.0
 40
25.0
  1
2395R
100
AcDbText
  0
TEXT
  5
2114
330
1F
100
AcDbEntity
  8
寸法
370
    18
100
AcDbText
 10
1001.599102865079
 20
1384.080374526579
 30
0.0
 40
25.0
  1
4角 75R
100
AcDbText
  0
LEADER
  5
2115
330
1F
100
AcDbEntity
  8
実形
100
AcDbLeader
  3
ISO-25
 40
25.0
 41
16.66666666666666
 76
     2
 10
1161.425449207153
 20
1543.805845994292
 30
0.0
 10
1100.595042670618
 20
1544.31597242214
 30
0.0
213
0.0
223
-12.5
233
0.0
1001
ACAD
1000
DSTYLE
1002
{
1070
    41
1040
25.0
1070
   147
1040
6.25
1070
    77
1070
     0
1070
    73
1070
     1
1070
    74
1070
     1
1070
   279
1070
     1
1070
   342
1005
DA
1002
}
  0
LEADER
  5
2116
330
1F
100
AcDbEntity
  8
実形
100
AcDbLeader
  3
ISO-25
 40
25.0
 41
16.66666666666666
 76
     2
 10
1144.002766891502
 20
1328.937967381902
 30
0.0
 10
1101.204271847419
 20
1374.618762985241
 30
0.0
213
0.0
223
-12.5
233
0.0
1001
ACAD
1000
DSTYLE
1002
{
1070
    41
1040
25.0
1070
   147
1040
6.25
1070
    77
1070
     0
1070
    73
1070
     1
1070
    74
1070
     1
1070
   279
1070
     1
1070
   342
1005
DA
1002
}
  0
ARC
  5
2118
330
1F
100
AcDbEntity
  8
実形
100
AcDbCircle
 10
868.6981097353411
 20
11299.59951666114
 30
0.0
 40
9995.0
100
AcDbArc
 50
268.6901198929287
 51
270.0000000000033
  0
ARC
  5
211B
330
1F
100
AcDbEntity
  8
実形
100
AcDbCircle
 10
641.9295955861523
 20
1382.191788782318
 30
0.0
 40
75.0
100
AcDbArc
 50
183.0244415099932
 51
268.690119892932
  0
ARC
  5
211E
330
1F
100
AcDbEntity
  8
実形
100
AcDbCircle
 10
2958.698109735876
 20
1504.599516661253
 30
0.0
 40
2395.0
100
AcDbArc
 50
180.0
 51
183.0244415099932
  0
ARC
  5
2121
330
1F
100
AcDbEntity
  8
実形
100
AcDbCircle
 10
869.6688415133721
 20
-8290.431157685004
 30
0.0
 40
9995.0
100
AcDbArc
 50
88.69579817232882
 51
90.00567827940356
  0
ARC
  5
2124
330
1F
100
AcDbEntity
  8
実形
100
AcDbCircle
 10
1095.454493116711
 20
1626.998995309775
 30
0.0
 40
75.0
100
AcDbArc
 50
3.030119789396522
 51
88.69579817233288
  0
ARC
  5
2127
330
1F
100
AcDbEntity
  8
実形
100
AcDbCircle
 10
-1221.301878478041
 20
1504.361665450083
 30
0.0
 40
2395.0
100
AcDbArc
 50
0.0056782794068347
 51
3.030119789396522
  0
ARC
  5
212A
330
1F
100
AcDbEntity
  8
実形
100
AcDbCircle
 10
869.668841512836
 20
-8290.431157685004
 30
0.0
 40
9995.0
100
AcDbArc
 50
90.00567827940031
 51
91.31555838647484
  0
ARC
  5
212D
330
1F
100
AcDbEntity
  8
実形
100
AcDbCircle
 10
641.9174670445189
 20
1626.954047671688
 30
0.0
 40
75.0
100
AcDbArc
 50
91.31555838647077
 51
176.9812367694083
  0
ARC
  5
2130
330
1F
100
AcDbEntity
  8
実形
100
AcDbCircle
 10
2958.698100994531
 20
1504.775922975893
 30
0.0
 40
2395.0
100
AcDbArc
 50
176.9812367694083
 51
180.0056782793938
  0
LEADER
  5
2132
330
1F
100
AcDbEntity
  8
実形
100
AcDbLeader
  3
ISO-25
 40
25.0
 41
16.66666666666666
 76
     2
 10
958.1568682025565
 20
1313.544795398713
 30
0.0
 10
915.3583731584742
 20
1359.225591002052
 30
0.0
213
0.0
223
-12.5
233
0.0
1001
ACAD
1000
DSTYLE
1002
{
1070
    41
1040
25.0
1070
   147
1040
6.25
1070
    77
1070
     0
1070
    73
1070
     1
1070
    74
1070
     1
1070
   279
1070
     1
1070
   342
1005
DA
1002
}
  0
LINE
  5
2133
330
1F
100
AcDbEntity
  8
実形
100
AcDbLine
 10
1965.037173103605
 20
1414.099516661139
 30
0.0
 11
1961.290064091059
 21
1328.290720273812
 31
0.0
  0
ARC
  5
2134
330
1F
100
AcDbEntity
  8
実形
100
AcDbCircle
 10
1931.318626821276
 20
1329.599516661139
 30
0.0
 40
30.0
100
AcDbArc
 50
270.0
 51
357.4995894356222
  0
LINE
  5
2135
330
1F
100
AcDbEntity
  8
実形
100
AcDbLine
 10
1780.037173103606
 20
1709.599516661139
 30
0.0
 11
1931.318626821276
 21
1709.59951666114
 31
0.0
  0
LINE
  5
2136
330
1F
100
AcDbEntity
  8
実形
100
AcDbLine
 10
1965.037173103605
 20
1595.099516661139
 30
0.0
 11
1961.290064091059
 21
1680.908313048466
 31
0.0
  0
ARC
  5
2137
330
1F
100
AcDbEntity
  8
実形
100
AcDbCircle
 10
1931.318626821276
 20
1679.59951666114
 30
0.0
 40
30.0
100
AcDbArc
 50
2.500410564377779
 51
90.0
  0
LINE
  5
2138
330
1F
100
AcDbEntity
  8
実形
100
AcDbLine
 10
1965.132264399781
 20
1153.293688739642
 30
0.0
 11
1974.972045443843
 21
1153.293688739642
 31
0.0
  0
LINE
  5
2139
330
1F
100
AcDbEntity
  8
実形
100
AcDbLine
 10
1267.367774515541
 20
842.1015195529452
 30
0.0
 11
1387.572005386709
 21
842.1015195529452
 31
0.0
  0
LINE
  5
213A
330
1F
100
AcDbEntity
  8
実形
100
AcDbLine
 10
1267.367774515541
 20
657.1015195529453
 30
0.0
 11
1387.572005386709
 21
657.1015195529455
 31
0.0
  0
LINE
  5
213B
330
1F
100
AcDbEntity
  8
実形
100
AcDbLine
 10
1267.367774515541
 20
647.1015195529453
 30
0.0
 11
1320.572005386709
 21
647.1015195529453
 31
0.0
  0
LINE
  5
213C
330
1F
100
AcDbEntity
  8
実形
100
AcDbLine
 10
1387.572005386709
 20
842.1015195529452
 30
0.0
 11
1387.572005386709
 21
657.1015195529453
 31
0.0
  0
TEXT
  5
213D
330
1F
100
AcDbEntity
  8
寸法
 62
     0
370
    18
100
AcDbText
 10
1389.026533816614
 20
840.5014289426544
 30
0.0
 40
3.0
  1
●
 71
     2
100
AcDbText
  0
TEXT
  5
213E
330
1F
100
AcDbEntity
  8
寸法
 62
     0
370
    18
100
AcDbText
 10
1388.956576996018
 20
655.5718630247702
 30
0.0
 40
3.0
  1
●
 71
     2
100
AcDbText
  0
LINE
  5
213F
330
1F
100
AcDbEntity
  8
実形
 62
     0
100
AcDbLine
 10
1267.367774515541
 20
672.1015195529453
 30
0.0
 11
1320.572005386709
 21
672.1015195529453
 31
0.0
  0
LINE
  5
2140
330
1F
100
AcDbEntity
  8
実形
 62
     0
100
AcDbLine
 10
1320.572005386709
 20
672.101519552945
 30
0.0
 11
1320.572005386709
 21
657.1015195529453
 31
0.0
  0
TEXT
  5
2141
330
1F
100
AcDbEntity
  8
寸法
 62
     0
370
    18
100
AcDbText
 10
1322.363469457373
 20
655.1541308440237
 30
0.0
 40
4.0
  1
●
 71
     2
100
AcDbText
  0
TEXT
  5
2142
330
1F
100
AcDbEntity
  8
寸法
 62
     0
370
    18
100
AcDbText
 10
1322.469916501088
 20
669.8998902482863
 30
0.0
 40
4.0
  1
●
 71
     2
100
AcDbText
  0
LINE
  5
2143
330
1F
100
AcDbEntity
  8
実形
100
AcDbLine
 10
1320.572005386709
 20
657.1015195529453
 30
0.0
 11
1320.572005386709
 21
647.1015195529453
 31
0.0
  0
TEXT
  5
2144
330
1F
100
AcDbEntity
  8
寸法
 62
     0
370
    18
100
AcDbText
 10
1322.397704436445
 20
645.3602620085248
 30
0.0
 40
4.0
  1
●
 71
     2
100
AcDbText
  0
LINE
  5
2145
330
1F
100
AcDbEntity
  8
実形
100
AcDbLine
 10
618.198108181834
 20
657.1015195529453
 30
0.0
 11
587.6902740173805
 21
658.1269929702379
 31
0.0
  0
TEXT
  5
2146
330
1F
100
AcDbEntity
  8
寸法
100
AcDbText
 10
613.8652385890491
 20
725.7116378140089
 30
0.0
 40
25.0
  1
30R
100
AcDbText
  0
LEADER
  5
2147
330
1F
100
AcDbEntity
  8
実形
100
AcDbLeader
  3
ISO-25
 40
25.0
 41
16.66666666666666
 76
     2
 10
587.3984918577153
 20
678.6579753692167
 30
0.0
 10
635.9268368062402
 20
723.3605995760553
 30
0.0
213
0.0
223
-12.5
233
0.0
1001
ACAD
1000
DSTYLE
1002
{
1070
    41
1040
25.0
1070
   147
1040
6.25
1070
    77
1070
     0
1070
    73
1070
     1
1070
    74
1070
     1
1070
   279
1070
     1
1070
   342
1005
DA
1002
}
  0
LINE
  5
214B
330
1F
100
AcDbEntity
  8
実形
100
AcDbLine
 10
1218.698108102303
 20
1254.667796407058
 30
0.0
 11
518.6981081023031
 21
1254.667796407058
 31
0.0
  0
DIMENSION
  5
247B
330
1F
100
AcDbEntity
  8
実形
100
AcDbDimension
  2
*D22
 10
400.5227917448573
 20
1254.667796407058
 30
0.0
 11
375.5227917448572
 21
1279.667796407058
 31
0.0
 70
    32
 71
     5
 42
50.0
  3
ISO-25
100
AcDbAlignedDimension
 13
543.8697211467333
 23
1304.667796407058
 33
0.0
 14
543.8697211467333
 24
1254.667796407058
 34
0.0
 50
90.0
100
AcDbRotatedDimension
1001
ACAD
1000
DSTYLE
1002
{
1070
    41
1040
25.0
1070
   279
1070
     2
1070
   371
1070
    18
1070
   372
1070
    18
1002
}
  0
LINE
  5
2488
330
1F
100
AcDbEntity
  8
実形
100
AcDbLine
 10
1218.698108102302
 20
1754.667796407058
 30
0.0
 11
518.6981081023032
 21
1754.667796407058
 31
0.0
  0
DIMENSION
  5
248A
330
1F
100
AcDbEntity
  8
実形
100
AcDbDimension
  2
*D23
 10
343.5250660779475
 20
1754.667796407058
 30
0.0
 11
324.7750660779472
 21
1504.667796407058
 31
0.0
 70
    32
 71
     5
 42
500.0
  3
ISO-25
100
AcDbAlignedDimension
 13
543.8697211467333
 23
1254.667796407058
 33
0.0
 14
543.8697211467333
 24
1754.667796407058
 34
0.0
 50
90.0
100
AcDbRotatedDimension
1001
ACAD
1000
DSTYLE
1002
{
1070
    41
1040
25.0
1070
   279
1070
     2
1070
   371
1070
    18
1070
   372
1070
    18
1002
}
  0
DIMENSION
  5
2497
330
1F
100
AcDbEntity
  8
実形
100
AcDbDimension
  2
*D24
 10
400.5227917448573
 20
1704.667796407059
 30
0.0
 11
375.5227917448571
 21
1729.667796407058
 31
0.0
 70
    32
 71
     5
 42
49.99999999999977
  3
ISO-25
100
AcDbAlignedDimension
 13
543.8697211467333
 23
1754.667796407058
 33
0.0
 14
543.8697211467333
 24
1704.667796407058
 34
0.0
 50
90.0
100
AcDbRotatedDimension
1001
ACAD
1000
DSTYLE
1002
{
1070
    41
1040
25.0
1070
   279
1070
     2
1070
   371
1070
    18
1070
   372
1070
    18
1002
}
  0
LINE
  5
24B7
330
1F
100
AcDbEntity
  8
実形
100
AcDbLine
 10
1223.698108102303
 20
1259.667796407058
 30
0.0
 11
1223.698108102303
 21
1749.667796407058
 31
0.0
  0
LINE
  5
24B8
330
1F
100
AcDbEntity
  8
実形
100
AcDbLine
 10
513.6981081023032
 20
1259.667796407058
 30
0.0
 11
513.698108102303
 21
1749.667796407058
 31
0.0
  0
DIMENSION
  5
24C7
330
1F
100
AcDbEntity
  8
実形
100
AcDbDimension
  2
*D25
 10
1173.698108102303
 20
1133.570875731338
 30
0.0
 11
868.6981081023031
 21
1152.320875731338
 31
0.0
 70
    32
 71
     5
 42
609.9999999999997
  3
ISO-25
100
AcDbAlignedDimension
 13
563.6981081023032
 23
1254.667796407058
 33
0.0
 14
1173.698108102303
 24
1254.667796407058
 34
0.0
100
AcDbRotatedDimension
1001
ACAD
1000
DSTYLE
1002
{
1070
    41
1040
25.0
1070
   279
1070
     2
1070
   371
1070
    18
1070
   372
1070
    18
1002
}
  0
DIMENSION
  5
24D4
330
1F
100
AcDbEntity
  8
実形
100
AcDbDimension
  2
*D26
 10
1223.698108102303
 20
1133.570875731338
 30
0.0
 11
1198.698108102303
 21
1151.320875731338
 31
0.0
 70
    32
 71
     5
 42
50.0
  3
ISO-25
100
AcDbAlignedDimension
 13
1173.698108102303
 23
1254.667796407058
 33
0.0
 14
1223.698108102303
 24
1254.667796407058
 34
0.0
100
AcDbRotatedDimension
1001
ACAD
1000
DSTYLE
1002
{
1070
   140
1040
23.0
1070
    41
1040
25.0
1070
   279
1070
     2
1070
   371
1070
    18
1070
   372
1070
    18
1002
}
  0
DIMENSION
  5
24EA
330
1F
100
AcDbEntity
  8
実形
100
AcDbDimension
  2
*D27
 10
563.6981081023032
 20
1133.570875731338
 30
0.0
 11
538.6981081023032
 21
1151.320875731338
 31
0.0
 70
    32
 71
     5
 42
50.0
  3
ISO-25
100
AcDbAlignedDimension
 13
513.6981081023032
 23
1254.667796407058
 33
0.0
 14
563.6981081023032
 24
1254.667796407058
 34
0.0
100
AcDbRotatedDimension
1001
ACAD
1000
DSTYLE
1002
{
1070
   140
1040
23.0
1070
    41
1040
25.0
1070
   279
1070
     2
1070
   371
1070
    18
1070
   372
1070
    18
1002
}
  0
DIMENSION
  5
2500
330
1F
100
AcDbEntity
  8
実形
100
AcDbDimension
  2
*D28
 10
1223.698108102303
 20
1070.63950107583
 30
0.0
 11
868.6981081023031
 21
1089.38950107583
 31
0.0
 70
    32
 71
     5
 42
709.9999999999997
  3
ISO-25
100
AcDbAlignedDimension
 13
513.6981081023032
 23
1254.667796407058
 33
0.0
 14
1223.698108102303
 24
1254.667796407058
 34
0.0
100
AcDbRotatedDimension
1001
ACAD
1000
DSTYLE
1002
{
1070
    41
1040
25.0
1070
   279
1070
     2
1070
   371
1070
    18
1070
   372
1070
    18
1002
}
  0
LINE
  5
251F
330
1F
100
AcDbEntity
  8
実形
100
AcDbLine
 10
632.8251823197079
 20
842.1015195529454
 30
0.0
 11
1192.825182319708
 21
842.1015195529454
 31
0.0
  0
LINE
  5
2520
330
1F
100
AcDbEntity
  8
実形
100
AcDbLine
 10
1177.825182319708
 20
842.1015195529454
 30
0.0
 11
1195.825182319708
 21
842.1015195529454
 31
0.0
  0
LINE
  5
2521
330
1F
100
AcDbEntity
  8
実形
100
AcDbLine
 10
1195.825182319708
 20
842.1015195529454
 30
0.0
 11
1195.825182319708
 21
849.1015195529454
 31
0.0
  0
LINE
  5
2522
330
1F
100
AcDbEntity
  8
実形
100
AcDbLine
 10
1195.825182319708
 20
849.1015195529454
 30
0.0
 11
1222.825182319708
 21
849.1015195529454
 31
0.0
  0
LINE
  5
2523
330
1F
100
AcDbEntity
  8
実形
100
AcDbLine
 10
1222.825182319708
 20
849.1015195529454
 30
0.0
 11
1222.825182319708
 21
856.1015195529456
 31
0.0
  0
LINE
  5
2524
330
1F
100
AcDbEntity
  8
実形
100
AcDbLine
 10
1217.825182319708
 20
861.1015195529454
 30
0.0
 11
716.610399774544
 21
861.1015195529454
 31
0.0
  0
LINE
  5
2525
330
1F
100
AcDbEntity
  8
実形
100
AcDbLine
 10
1217.825182319708
 20
861.1015195529454
 30
0.0
 11
1222.825182319708
 21
856.1015195529455
 31
0.0
  0
LINE
  5
2526
330
1F
100
AcDbEntity
  8
実形
100
AcDbLine
 10
1192.825182319707
 20
842.1015195529454
 30
0.0
 11
632.825182319707
 21
842.1015195529454
 31
0.0
  0
LINE
  5
2527
330
1F
100
AcDbEntity
  8
実形
100
AcDbLine
 10
629.825182319707
 20
849.1015195529454
 30
0.0
 11
1195.825182319708
 21
849.1015195529454
 31
0.0
  0
LEADER
  5
2528
330
1F
100
AcDbEntity
  8
実形
100
AcDbLeader
  3
ISO-25
 40
25.0
 41
16.66666666666666
 76
     2
 10
1223.864627003226
 20
862.3268743541792
 30
0.0
 10
1260.303567561943
 20
914.5779347952865
 30
0.0
211
-1.0
221
0.0
231
0.0
213
0.0
223
-12.5
233
0.0
1001
ACAD
1000
DSTYLE
1002
{
1070
    41
1040
25.0
1070
   147
1040
6.25
1070
    77
1070
     0
1070
    73
1070
     1
1070
    74
1070
     1
1070
   279
1070
     1
1070
   342
1005
DA
1002
}
  0
TEXT
  5
2529
330
1F
100
AcDbEntity
  8
実形
100
AcDbText
 10
1257.277561378115
 20
929.9813884386583
 30
0.0
 40
25.0
  1
5C
100
AcDbText
  0
LINE
  5
253B
330
1F
100
AcDbEntity
  8
実形
100
AcDbLine
 10
543.6981081818339
 20
842.1015195529445
 30
0.0
 11
1103.698108181834
 21
842.1015195529445
 31
0.0
  0
LINE
  5
253C
330
1F
100
AcDbEntity
  8
実形
100
AcDbLine
 10
1103.698108181833
 20
842.1015195529445
 30
0.0
 11
543.698108181833
 21
842.1015195529445
 31
0.0
  0
LINE
  5
253D
330
1F
100
AcDbEntity
  8
実形
100
AcDbLine
 10
558.698108181833
 20
842.1015195529445
 30
0.0
 11
540.698108181833
 21
842.1015195529445
 31
0.0
  0
LINE
  5
253E
330
1F
100
AcDbEntity
  8
実形
100
AcDbLine
 10
540.698108181833
 20
842.1015195529445
 30
0.0
 11
540.698108181833
 21
849.1015195529445
 31
0.0
  0
LINE
  5
253F
330
1F
100
AcDbEntity
  8
実形
100
AcDbLine
 10
540.698108181833
 20
849.1015195529445
 30
0.0
 11
513.698108181833
 21
849.1015195529445
 31
0.0
  0
LINE
  5
2540
330
1F
100
AcDbEntity
  8
実形
100
AcDbLine
 10
513.698108181833
 20
849.1015195529445
 30
0.0
 11
513.698108181833
 21
856.1015195529448
 31
0.0
  0
LINE
  5
2541
330
1F
100
AcDbEntity
  8
実形
100
AcDbLine
 10
518.6981081818328
 20
861.1015195529445
 30
0.0
 11
1019.912890726997
 21
861.1015195529445
 31
0.0
  0
LINE
  5
2542
330
1F
100
AcDbEntity
  8
実形
100
AcDbLine
 10
518.698108181833
 20
861.1015195529445
 30
0.0
 11
513.698108181833
 21
856.1015195529446
 31
0.0
  0
LINE
  5
2543
330
1F
100
AcDbEntity
  8
実形
100
AcDbLine
 10
540.698108181833
 20
849.1015195529445
 30
0.0
 11
1106.698108181834
 21
849.1015195529445
 31
0.0
  0
TEXT
  5
2544
330
1F
100
AcDbEntity
  8
実形
100
AcDbText
 10
449.988704520646
 20
924.4114982193613
 30
0.0
 40
25.0
  1
5C
100
AcDbText
  0
LEADER
  5
2545
330
1F
100
AcDbEntity
  8
実形
100
AcDbLeader
  3
ISO-25
 40
25.0
 41
16.66666666666666
 76
     2
 10
512.658663498315
 20
862.3268743541784
 30
0.0
 10
476.2197229395979
 20
914.5779347952856
 30
0.0
213
0.0
223
-12.5
233
0.0
1001
ACAD
1000
DSTYLE
1002
{
1070
    41
1040
25.0
1070
   147
1040
6.25
1070
    77
1070
     0
1070
    73
1070
     1
1070
    74
1070
     1
1070
   279
1070
     1
1070
   342
1005
DA
1002
}
  0
LINE
  5
2591
330
1F
100
AcDbEntity
  8
実形
100
AcDbLine
 10
1218.698108102303
 20
1754.667796407058
 30
0.0
 11
1223.698108102303
 21
1749.667796407058
 31
0.0
  0
DIMENSION
  5
2592
330
1F
100
AcDbEntity
  8
実形
100
AcDbDimension
  2
*D29
 10
1223.698108102303
 20
1795.969515403171
 30
0.0
 11
1221.198108102303
 21
1820.96951540317
 31
0.0
 70
    32
 71
     5
 42
5.0
  3
ISO-25
100
AcDbAlignedDimension
 13
1218.698108102303
 23
1703.102441528037
 33
0.0
 14
1223.698108102303
 24
1703.102441528037
 34
0.0
100
AcDbRotatedDimension
1001
ACAD
1000
DSTYLE
1002
{
1070
   282
1070
     1
1070
   281
1070
     1
1070
    76
1070
     1
1070
    75
1070
     1
1070
    41
1040
25.0
1070
   279
1070
     2
1070
   371
1070
    18
1070
   372
1070
    18
1002
}
  0
LINE
  5
25AC
330
1F
100
AcDbEntity
  8
実形
100
AcDbLine
 10
1218.698108102303
 20
1768.102441528037
 30
0.0
 11
1218.698108102303
 21
1795.969515403171
 31
0.0
  0
LINE
  5
25AD
330
1F
100
AcDbEntity
  8
実形
100
AcDbLine
 10
1218.698108102303
 20
1795.969515403171
 30
0.0
 11
1223.698108102303
 21
1795.969515403171
 31
0.0
  0
LINE
  5
25AE
330
1F
100
AcDbEntity
  8
実形
100
AcDbLine
 10
1223.698108102303
 20
1795.969515403171
 30
0.0
 11
1223.698108102303
 21
1768.102441528037
 31
0.0
  0
TEXT
  5
25D5
330
1F
100
AcDbEntity
  8
実形
  6
HIDDEN2
100
AcDbText
 10
1229.894845304042
 20
1791.55871957296
 30
0.0
 40
11.0
  1
● 
 71
     2
100
AcDbText
  0
TEXT
  5
25DD
330
1F
100
AcDbEntity
  8
実形
  6
HIDDEN2
100
AcDbText
 10
1224.41917446447
 20
1791.55871957296
 30
0.0
 40
11.0
  1
● 
 71
     2
100
AcDbText
  0
TEXT
  5
25E7
330
1F
100
AcDbEntity
  8
実形
100
AcDbText
 10
1275.386563554302
 20
1811.084062449727
 30
0.0
 40
25.0
  1
5C
 11
1275.386563554302
 21
1807.750729116393
 31
0.0
100
AcDbText
 73
     1
  0
LEADER
  5
25E8
330
1F
100
AcDbEntity
  8
実形
100
AcDbLeader
  3
ISO-25
 76
     2
 10
1228.997347513596
 20
1757.059478564723
 30
0.0
 10
1288.348216470857
 20
1805.650280351819
 30
0.0
1001
ACAD
1000
DSTYLE
1002
{
1070
    41
1040
25.0
1070
   147
1040
6.25
1070
    77
1070
     0
1070
   371
1070
    18
1070
   372
1070
    18
1002
}
  0
DIMENSION
  5
25E9
330
1F
100
AcDbEntity
  8
実形
100
AcDbDimension
  2
*D30
 10
1276.425218750042
 20
1749.667796407058
 30
0.0
 11
1304.884603568419
 21
1752.167796407058
 31
0.0
 70
   160
 71
     5
 42
5.0
  3
ISO-25
100
AcDbAlignedDimension
 13
1179.522763025499
 23
1754.667796407058
 33
0.0
 14
1179.522763025499
 24
1749.667796407058
 34
0.0
 50
90.0
100
AcDbRotatedDimension
1001
ACAD
1000
DSTYLE
1002
{
1070
   282
1070
     1
1070
   281
1070
     1
1070
    41
1040
25.0
1070
   279
1070
     2
1070
   371
1070
    18
1070
   372
1070
    18
1002
}
  0
LINE
  5
2606
330
1F
100
AcDbEntity
  8
実形
100
AcDbLine
 10
1244.522763025499
 20
1749.667796407058
 30
0.0
 11
1276.425218750042
 21
1749.667796407058
 31
0.0
  0
LINE
  5
2607
330
1F
100
AcDbEntity
  8
実形
100
AcDbLine
 10
1276.425218750042
 20
1749.667796407058
 30
0.0
 11
1276.425218750042
 21
1754.667796407058
 31
0.0
  0
LINE
  5
2608
330
1F
100
AcDbEntity
  8
実形
100
AcDbLine
 10
1276.425218750042
 20
1754.667796407058
 30
0.0
 11
1244.522763025499
 21
1754.667796407058
 31
0.0
  0
TEXT
  5
2626
330
1F
100
AcDbEntity
  8
実形
  6
HIDDEN2
100
AcDbText
 10
1282.281489586831
 20
1750.517675013088
 30
0.0
 40
11.0
  1
● 
 71
     2
100
AcDbText
  0
TEXT
  5
262E
330
1F
100
AcDbEntity
  8
実形
  6
HIDDEN2
100
AcDbText
 10
1282.428336438782
 20
1744.79250358535
 30
0.0
 40
11.0
  1
● 
 71
     2
100
AcDbText
  0
LINE
  5
2633
330
1F
100
AcDbEntity
  8
実形
100
AcDbLine
 10
1218.698108102303
 20
1254.667796407058
 30
0.0
 11
1223.698108102303
 21
1259.667796407058
 31
0.0
  0
LINE
  5
2634
330
1F
100
AcDbEntity
  8
実形
100
AcDbLine
 10
513.6981081023032
 20
1259.667796407058
 30
0.0
 11
518.6981081023032
 21
1254.667796407058
 31
0.0
  0
LINE
  5
2635
330
1F
100
AcDbEntity
  8
実形
100
AcDbLine
 10
513.698108102303
 20
1749.667796407058
 30
0.0
 11
518.6981081023031
 21
1754.667796407058
 31
0.0
  0
DIMENSION
  5
26AE
330
1F
100
AcDbEntity
  8
実形
100
AcDbDimension
  2
*D31
 10
2167.899627132799
 20
804.2436145081255
 30
0.0
 11
2107.899627132799
 21
822.9936145081255
 31
0.0
 70
    32
  1
12
 71
     5
 42
120.0
  3
ISO-25
100
AcDbAlignedDimension
 13
2047.899627132799
 23
711.6596186260776
 33
0.0
 14
2167.899627132799
 24
708.104142275144
 34
0.0
100
AcDbRotatedDimension
1001
ACAD
1000
DSTYLE
1002
{
1070
   371
1070
    18
1070
   372
1070
    18
1002
}
  0
LINE
  5
26D8
330
1F
100
AcDbEntity
  8
実形
100
AcDbLine
 10
1780.037173103606
 20
1724.599516661139
 30
0.0
 11
1780.037173103606
 21
1284.599516661139
 31
0.0
  0
LINE
  5
26D9
330
1F
100
AcDbEntity
  8
実形
100
AcDbLine
 10
1780.037173103606
 20
1327.798194991446
 30
0.0
 11
1780.037173103606
 21
1724.599516661139
 31
0.0
  0
LINE
  5
26DA
330
1F
100
AcDbEntity
  8
実形
100
AcDbLine
 10
1780.037173103606
 20
1709.599516661139
 30
0.0
 11
1780.037173103606
 21
1727.599516661139
 31
0.0
  0
LINE
  5
26DB
330
1F
100
AcDbEntity
  8
実形
100
AcDbLine
 10
1780.037173103606
 20
1727.599516661139
 30
0.0
 11
1773.037173103606
 21
1727.599516661139
 31
0.0
  0
LINE
  5
26DC
330
1F
100
AcDbEntity
  8
実形
100
AcDbLine
 10
1773.037173103606
 20
1727.599516661139
 30
0.0
 11
1773.037173103606
 21
1754.599516661139
 31
0.0
  0
LINE
  5
26DD
330
1F
100
AcDbEntity
  8
実形
100
AcDbLine
 10
1773.037173103606
 20
1754.599516661139
 30
0.0
 11
1766.037173103605
 21
1754.599516661139
 31
0.0
  0
LINE
  5
26DE
330
1F
100
AcDbEntity
  8
実形
100
AcDbLine
 10
1761.037173103606
 20
1749.599516661139
 30
0.0
 11
1761.037173103606
 21
1348.024358692903
 31
0.0
  0
LINE
  5
26DF
330
1F
100
AcDbEntity
  8
実形
100
AcDbLine
 10
1761.037173103606
 20
1749.599516661139
 30
0.0
 11
1766.037173103606
 21
1754.599516661139
 31
0.0
  0
LINE
  5
26E0
330
1F
100
AcDbEntity
  8
実形
100
AcDbLine
 10
1780.037173103606
 20
1724.599516661139
 30
0.0
 11
1780.037173103606
 21
1327.798194991446
 31
0.0
  0
LINE
  5
26E1
330
1F
100
AcDbEntity
  8
実形
100
AcDbLine
 10
1773.037173103605
 20
1340.945195639666
 30
0.0
 11
1773.037173103606
 21
1727.599516661139
 31
0.0
  0
LINE
  5
26E2
330
1F
100
AcDbEntity
  8
実形
100
AcDbLine
 10
1780.037173103606
 20
1709.599516661139
 30
0.0
 11
1780.037173103606
 21
1727.599516661139
 31
0.0
  0
LINE
  5
26E3
330
1F
100
AcDbEntity
  8
実形
100
AcDbLine
 10
1780.037173103606
 20
1284.599516661139
 30
0.0
 11
1780.037173103606
 21
1724.599516661139
 31
0.0
  0
LEADER
  5
26E4
330
1F
100
AcDbEntity
  8
実形
100
AcDbLeader
  3
ISO-25
 40
25.0
 41
16.66666666666666
 76
     2
 10
1757.818744850196
 20
1758.649344940881
 30
0.0
 10
1717.234854615984
 20
1792.73322385093
 30
0.0
211
-1.0
221
0.0
231
0.0
213
0.0
223
-12.5
233
0.0
1001
ACAD
1000
DSTYLE
1002
{
1070
    41
1040
25.0
1070
   147
1040
6.25
1070
    77
1070
     0
1070
    73
1070
     1
1070
    74
1070
     1
1070
   279
1070
     1
1070
   342
1005
DA
1002
}
  0
TEXT
  5
26E5
330
1F
100
AcDbEntity
  8
実形
100
AcDbText
 10
1684.78797038495
 20
1803.324830346788
 30
0.0
 40
25.0
  1
5C
100
AcDbText
  0
LINE
  5
26FA
330
1F
100
AcDbEntity
  8
実形
100
AcDbLine
 10
1780.037173103606
 20
1724.599516661139
 30
0.0
 11
1780.037173103606
 21
1284.599516661139
 31
0.0
  0
LINE
  5
26FB
330
1F
100
AcDbEntity
  8
実形
100
AcDbLine
 10
1780.037173103606
 20
1284.599516661139
 30
0.0
 11
1780.037173103606
 21
1724.599516661139
 31
0.0
  0
LINE
  5
26FC
330
1F
100
AcDbEntity
  8
実形
100
AcDbLine
 10
1780.037173103606
 20
1681.400838330832
 30
0.0
 11
1780.037173103606
 21
1284.599516661139
 31
0.0
  0
LINE
  5
26FD
330
1F
100
AcDbEntity
  8
実形
100
AcDbLine
 10
1780.037173103606
 20
1299.599516661139
 30
0.0
 11
1780.037173103606
 21
1281.599516661139
 31
0.0
  0
LINE
  5
26FE
330
1F
100
AcDbEntity
  8
実形
100
AcDbLine
 10
1780.037173103606
 20
1281.599516661139
 30
0.0
 11
1773.037173103606
 21
1281.599516661139
 31
0.0
  0
LINE
  5
26FF
330
1F
100
AcDbEntity
  8
実形
100
AcDbLine
 10
1773.037173103606
 20
1281.599516661139
 30
0.0
 11
1773.037173103606
 21
1254.599516661139
 31
0.0
  0
LINE
  5
2700
330
1F
100
AcDbEntity
  8
実形
100
AcDbLine
 10
1761.037173103606
 20
1259.599516661139
 30
0.0
 11
1761.037173103606
 21
1661.174674629376
 31
0.0
  0
LINE
  5
2701
330
1F
100
AcDbEntity
  8
実形
100
AcDbLine
 10
1761.037173103606
 20
1259.599516661139
 30
0.0
 11
1766.037173103606
 21
1254.599516661139
 31
0.0
  0
LINE
  5
2702
330
1F
100
AcDbEntity
  8
実形
100
AcDbLine
 10
1780.037173103606
 20
1284.59951666114
 30
0.0
 11
1780.037173103606
 21
1681.400838330832
 31
0.0
  0
LINE
  5
2703
330
1F
100
AcDbEntity
  8
実形
100
AcDbLine
 10
1773.037173103605
 20
1668.253837682613
 30
0.0
 11
1773.037173103606
 21
1281.599516661139
 31
0.0
  0
LINE
  5
2704
330
1F
100
AcDbEntity
  8
実形
100
AcDbLine
 10
1780.037173103606
 20
1299.599516661139
 30
0.0
 11
1780.037173103606
 21
1281.599516661139
 31
0.0
  0
LINE
  5
2705
330
1F
100
AcDbEntity
  8
実形
100
AcDbLine
 10
1766.037173103606
 20
1254.599516661139
 30
0.0
 11
1773.037173103605
 21
1254.599516661139
 31
0.0
  0
LEADER
  5
2706
330
1F
100
AcDbEntity
  8
実形
100
AcDbLeader
  3
ISO-25
 40
25.0
 41
16.66666666666666
 76
     2
 10
1757.818744850196
 20
1250.549688381398
 30
0.0
 10
1717.234854615984
 20
1216.465809471349
 30
0.0
211
-1.0
221
0.0
231
0.0
213
0.0
223
12.5
233
0.0
1001
ACAD
1000
DSTYLE
1002
{
1070
    41
1040
25.0
1070
   147
1040
6.25
1070
    77
1070
     0
1070
    73
1070
     1
1070
    74
1070
     1
1070
   279
1070
     1
1070
   342
1005
DA
1002
}
  0
TEXT
  5
2707
330
1F
100
AcDbEntity
  8
実形
100
AcDbText
 10
1680.549662714009
 20
1180.700125957141
 30
0.0
 40
25.0
  1
5C
100
AcDbText
  0
TEXT
  5
2711
330
1F
100
AcDbEntity
  8
実形
370
    18
100
AcDbText
 10
1103.991539669222
 20
1489.917503100652
 30
0.0
 40
40.0
  1
A     A
100
AcDbText
  0
LINE
  5
2712
330
1F
100
AcDbEntity
  8
実形
  6
ACAD_ISO08W100
 48
0.5
370
    15
100
AcDbLine
 10
1157.749053572173
 20
1504.453061853171
 30
0.0
 11
1253.476909207387
 21
1504.453061853171
 31
0.0
  0
LINE
  5
2713
330
1F
100
AcDbEntity
  8
実形
100
AcDbLine
 10
1293.134930101465
 20
1525.471245295292
 30
0.0
 11
1303.111430886647
 21
1537.10689173572
 31
0.0
  0
TEXT
  5
2ABD
330
1F
100
AcDbEntity
  8
実形
100
AcDbText
 10
161.9866661664982
 20
58.14426619328606
 30
0.0
 40
30.0
  1
※実寸には製造上の誤差(+5/-1mm)が生ずる場合があります｡シンクの穴あけ加工は現物合わせにてお願いします。
100
AcDbText
  0
VIEWPORT
  5
2E
102
{ACAD_XDICTIONARY
360
2AD4
102
}
330
1B
100
AcDbEntity
 67
     1
  8
0
100
AcDbViewport
 10
144.7270812988281
 20
101.2295806407928
 30
0.0
 40
411.6736216682419
 41
222.1517806396485
 68
     1
 69
     1
 12
144.7270812988281
 22
101.2295806407928
 13
0.0
 23
0.0
 14
10.0
 24
10.0
 15
10.0
 25
10.0
 16
0.0
 26
0.0
 36
1.0
 17
0.0
 27
0.0
 37
0.0
 42
50.0
 43
0.0
 44
0.0
 45
222.1517806396485
 50
0.0
 51
0.0
 72
   100
 90
    32800
  1

281
     0
 71
     1
 74
     0
110
0.0
120
0.0
130
0.0
111
1.0
121
0.0
131
0.0
112
0.0
122
1.0
132
0.0
 79
     0
146
0.0
  0
VIEWPORT
  5
30
102
{ACAD_XDICTIONARY
360
2AD6
102
}
330
1B
100
AcDbEntity
 67
     1
  8
0
100
AcDbViewport
 10
139.2237563133239
 20
101.2295821905136
 30
0.0
 40
222.7580101013184
 41
161.9673315048218
 68
     2
 69
     2
 12
210.0
 22
148.5
 13
0.0
 23
0.0
 14
10.0
 24
10.0
 15
10.0
 25
10.0
 16
0.0
 26
0.0
 36
1.0
 17
0.0
 27
0.0
 37
0.0
 42
50.0
 43
0.0
 44
0.0
 45
309.0686705647124
 50
0.0
 51
0.0
 72
   100
 90
    32864
  1

281
     0
 71
     1
 74
     0
110
0.0
120
0.0
130
0.0
111
1.0
121
0.0
131
0.0
112
0.0
122
1.0
132
0.0
 79
     0
146
0.0
  0
ENDSEC
  0
SECTION
  2
OBJECTS
  0
DICTIONARY
  5
C
330
0
100
AcDbDictionary
281
     1
  3
ACAD_COLOR
350
1159
  3
ACAD_GROUP
350
D
  3
ACAD_LAYOUT
350
1A
  3
ACAD_MATERIAL
350
1158
  3
ACAD_MLINESTYLE
350
17
  3
ACAD_PLOTSETTINGS
350
19
  3
ACAD_PLOTSTYLENAME
350
E
  3
ACAD_TABLESTYLE
350
115A
  3
AcadDim
350
124
  3
ACDBHEADERROUNDTRIPXREC
350
2ACD
  3
AcDbVariableDictionary
350
11C7
  0
DICTIONARY
  5
11D6
330
2
100
AcDbDictionary
280
     1
281
     1
  3
ACAD_LAYERFILTERS
360
1B07
  3
ACAD_LAYERSTATES
360
11D7
  3
ACLYDICTIONARY
360
1B06
  0
DICTIONARY
  5
1318
330
1F
100
AcDbDictionary
280
     1
281
     1
  3
ACAD_SORTENTS
360
1319
  0
DICTIONARY
  5
2AD4
330
2E
100
AcDbDictionary
280
     1
281
     1
  3
ACAD_XREC_ROUNDTRIP
360
2AD5
  0
DICTIONARY
  5
2AD6
330
30
100
AcDbDictionary
280
     1
281
     1
  3
ACAD_XREC_ROUNDTRIP
360
2AD7
  0
DICTIONARY
  5
1159
102
{ACAD_REACTORS
330
C
102
}
330
C
100
AcDbDictionary
281
     1
  0
DICTIONARY
  5
D
102
{ACAD_REACTORS
330
C
102
}
330
C
100
AcDbDictionary
281
     1
  0
DICTIONARY
  5
1A
102
{ACAD_REACTORS
330
C
102
}
330
C
100
AcDbDictionary
281
     1
  3
Model
350
22
  3
ﾚｲｱｳﾄ1
350
1E
  3
ﾚｲｱｳﾄ2
350
26
  0
DICTIONARY
  5
1158
102
{ACAD_REACTORS
330
C
102
}
330
C
100
AcDbDictionary
281
     1
  0
DICTIONARY
  5
17
102
{ACAD_REACTORS
330
C
102
}
330
C
100
AcDbDictionary
281
     1
  3
Standard
350
18
  0
DICTIONARY
  5
19
102
{ACAD_REACTORS
330
C
102
}
330
C
100
AcDbDictionary
281
     1
  0
ACDBDICTIONARYWDFLT
  5
E
102
{ACAD_REACTORS
330
C
102
}
330
C
100
AcDbDictionary
281
     1
  3
Normal
350
F
100
AcDbDictionaryWithDefault
340
F
  0
DICTIONARY
  5
115A
102
{ACAD_REACTORS
330
C
102
}
330
C
100
AcDbDictionary
281
     1
  3
Standard
350
115B
  0
XRECORD
  5
124
102
{ACAD_REACTORS
330
C
102
}
330
C
100
AcDbXrecord
280
     1
 90
   990106
  3

 60
     0
 61
     0
 62
     1
 63
     3
 64
     0
 65
     0
 66
     0
 67
     3
 68
     1
 69
     0
 70
     0
 71
     0
 72
     0
 40
30.0
170
     0
  0
DICTIONARY
  5
2ACD
102
{ACAD_REACTORS
330
C
102
}
330
C
100
AcDbDictionary
281
     1
  0
DICTIONARY
  5
11C7
102
{ACAD_REACTORS
330
C
102
}
330
C
100
AcDbDictionary
281
     1
  3
CTABLESTYLE
350
11C8
  3
DIMASSOC
350
2ACA
  3
PROJECTNAME
350
2ACB
  0
DICTIONARY
  5
1B07
102
{ACAD_REACTORS
330
11D6
102
}
330
11D6
100
AcDbDictionary
281
     1
  0
DICTIONARY
  5
11D7
102
{ACAD_REACTORS
330
11D6
102
}
330
11D6
100
AcDbDictionary
281
     1
  0
DICTIONARY
  5
1B06
102
{ACAD_REACTORS
330
11D6
102
}
330
11D6
100
AcDbDictionary
281
     1
1001
ACAD
1000
<All
  0
SORTENTSTABLE
  5
1319
102
{ACAD_REACTORS
330
1318
102
}
330
1318
100
AcDbSortentsTable
330
1F
331
2139
  5
2139
331
20FA
  5
20FA
331
2141
  5
2141
331
2524
  5
253B
331
253C
  5
2542
331
2112
  5
2112
331
2544
  5
25AC
331
A5
  5
2E6
331
1503
  5
150A
331
150B
  5
1512
331
1513
  5
151A
331
20D7
  5
20D7
331
140C
  5
14F3
331
2626
  5
2631
331
262E
  5
2632
331
20DB
  5
20DB
331
20E3
  5
20E3
331
212A
  5
212A
331
20EB
  5
20EB
331
2132
  5
2132
331
20F3
  5
20F3
331
151B
  5
1522
331
112E
  5
1136
331
1523
  5
152A
331
1136
  5
113E
331
152B
  5
1532
331
130D
  5
1316
331
113E
  5
118A
331
14F4
  5
14FB
331
25E7
  5
2607
331
1533
  5
153A
331
1315
  5
1347
331
14FC
  5
1503
331
2607
  5
262F
331
213A
  5
213A
331
2142
  5
2142
331
2103
  5
2103
331
2497
  5
24C7
331
2525
  5
253C
331
25AC
  5
25DD
331
253D
  5
2543
331
2113
  5
2113
331
2545
  5
25AD
331
24B7
  5
251F
331
1504
  5
150B
331
150C
  5
1513
331
20D0
  5
20D0
331
1514
  5
151B
331
1127
  5
112F
331
20DC
  5
20DC
331
211B
  5
211B
331
20E4
  5
20E4
331
24C7
  5
2521
331
20EC
  5
20EC
331
2133
  5
2133
331
20F4
  5
20F4
331
2488
  5
248A
331
151C
  5
1523
331
1415
  5
14F4
331
112F
  5
1137
331
1524
  5
152B
331
1137
  5
113F
331
152C
  5
1533
331
130E
  5
133B
331
113F
  5
118B
331
14F5
  5
14FC
331
25E8
  5
2608
331
1534
  5
153B
331
1316
  5
1348
331
14FD
  5
1504
331
213B
  5
213B
331
2143
  5
2143
331
2526
  5
253D
331
25AD
  5
25E7
331
214B
  5
214B
331
210C
  5
210C
331
25D5
  5
25E9
331
2114
  5
2114
331
253E
  5
2544
331
25DD
  5
2606
331
1505
  5
150C
331
150D
  5
1514
331
2608
  5
2630
331
20D1
  5
20D1
331
1515
  5
151C
331
20DD
  5
20DD
331
24B8
  5
24EA
331
2124
  5
2124
331
20E5
  5
20E5
331
20ED
  5
20ED
331
2134
  5
2134
331
20F5
  5
20F5
331
251F
  5
2525
331
1128
  5
1130
331
151D
  5
1524
331
1130
  5
1138
331
1525
  5
152C
331
1138
  5
1140
331
152D
  5
1534
331
130F
  5
133C
331
1140
  5
118C
331
14F6
  5
14FD
331
25E9
  5
2626
331
1535
  5
1623
331
1317
  5
A0
331
14FE
  5
1505
331
213C
  5
213C
331
20FD
  5
20FD
331
2144
  5
2144
331
2527
  5
253E
331
25AE
  5
25E8
331
210D
  5
210D
331
2115
  5
2115
331
253F
  5
2545
331
A0
  5
A5
331
1506
  5
150D
331
1E4A
  5
1F49
331
150E
  5
1515
331
20D2
  5
20D2
331
1516
  5
151D
331
20DE
  5
20DE
331
20E6
  5
20E6
331
2500
  5
2524
331
212D
  5
212D
331
20EE
  5
20EE
331
2135
  5
2135
331
20F6
  5
20F6
331
248A
  5
24AA
331
1129
  5
1131
331
151E
  5
1525
331
1131
  5
1139
331
1526
  5
152D
331
14EF
  5
14F6
331
1139
  5
1141
331
152E
  5
1535
331
1310
  5
133D
331
1141
  5
118D
331
14F7
  5
14FE
331
1536
  5
1624
331
14FF
  5
1506
331
213D
  5
213D
331
2520
  5
2526
331
2145
  5
2145
331
2528
  5
253F
331
210E
  5
210E
331
2116
  5
2116
331
2540
  5
258F
331
1507
  5
150E
331
150F
  5
1516
331
1517
  5
151E
331
20D3
  5
20D3
331
20DF
  5
20DF
331
211E
  5
211E
331
20E7
  5
20E7
331
247B
  5
24A8
331
20EF
  5
20EF
331
2136
  5
2136
331
20F7
  5
20F7
331
112A
  5
1132
331
151F
  5
1526
331
1132
  5
113A
331
1527
  5
152E
331
113A
  5
1142
331
14F0
  5
14F7
331
152F
  5
1536
331
1311
  5
1340
331
1142
  5
118E
331
14F8
  5
14FF
331
1537
  5
1625
331
213E
  5
213E
331
2521
  5
2527
331
2146
  5
2146
331
2529
  5
2540
331
24EA
  5
2523
331
210F
  5
210F
331
2541
  5
2590
331
1500
  5
1507
331
1508
  5
150F
331
1510
  5
1517
331
20D4
  5
20D4
331
20D8
  5
20D8
331
20E0
  5
20E0
331
2127
  5
2127
331
20E8
  5
20E8
331
2591
  5
25AE
331
20F0
  5
20F0
331
2137
  5
2137
331
1518
  5
151F
331
112B
  5
1133
331
1520
  5
1527
331
1133
  5
113B
331
1528
  5
152F
331
113B
  5
1187
331
14F1
  5
14F8
331
1312
  5
1341
331
1530
  5
1537
331
20F8
  5
20F8
331
213F
  5
213F
331
2100
  5
2100
331
2522
  5
2528
331
2147
  5
2147
331
2110
  5
2110
331
2542
  5
2591
331
1538
  5
1626
331
1501
  5
1508
331
13FA
  5
1317
331
1509
  5
1510
331
1511
  5
1518
331
20D5
  5
20D5
331
20D9
  5
20D9
331
2118
  5
2118
331
20E1
  5
20E1
331
20E9
  5
20E9
331
2592
  5
25D5
331
2130
  5
2130
331
20F1
  5
20F1
331
24D4
  5
2522
331
1519
  5
1520
331
112C
  5
1134
331
1521
  5
1528
331
1134
  5
113C
331
14F2
  5
14F9
331
113C
  5
1188
331
1529
  5
1530
331
1531
  5
1538
331
1313
  5
1343
331
2138
  5
2138
331
2140
  5
2140
331
2523
  5
2529
331
253B
  5
2541
331
2111
  5
2111
331
9C
  5
9C
331
2543
  5
2592
331
1539
  5
1627
331
1502
  5
1509
331
150A
  5
1511
331
1512
  5
1519
331
1403
  5
14F2
331
20D6
  5
20D6
331
20DA
  5
20DA
331
2121
  5
2121
331
20E2
  5
20E2
331
20EA
  5
20EA
331
20F2
  5
20F2
331
151A
  5
1521
331
1522
  5
1529
331
1135
  5
113D
331
152A
  5
1531
331
130C
  5
1314
331
113D
  5
1189
331
14F3
  5
14FA
331
1532
  5
1539
331
1314
  5
1345
331
14FB
  5
1502
331
2606
  5
262E
  0
XRECORD
  5
2AD5
102
{ACAD_REACTORS
330
2AD4
102
}
330
2AD4
100
AcDbXrecord
280
     1
102
SHADEPLOT
 70
     0
  0
XRECORD
  5
2AD7
102
{ACAD_REACTORS
330
2AD6
102
}
330
2AD6
100
AcDbXrecord
280
     1
102
SHADEPLOT
 70
     0
  0
LAYOUT
  5
22
102
{ACAD_XDICTIONARY
360
2AD0
102
}
102
{ACAD_REACTORS
330
1A
102
}
330
1A
100
AcDbPlotSettings
  1

  2
EPSON PM-800C
  4
A4
  6

 40
3.757083177566528
 41
14.7637300491333
 42
3.757080078125
 43
3.757080078125
 44
209.9733276367187
 45
296.9683227539062
 46
0.0
 47
0.0
 48
0.0
 49
0.0
140
0.0
141
0.0
142
1.0
143
10.0
 70
 11952
 72
     1
 73
     1
 74
     2
  7

 75
    20
147
0.1
148
0.0
149
0.0
100
AcDbLayout
  1
Model
 70
     1
 71
     0
 10
0.0
 20
0.0
 11
12.0
 21
9.0
 12
0.0
 22
0.0
 32
0.0
 14
0.0
 24
0.0
 34
0.0
 15
0.0
 25
0.0
 35
0.0
146
0.0
 13
0.0
 23
0.0
 33
0.0
 16
1.0
 26
0.0
 36
0.0
 17
0.0
 27
1.0
 37
0.0
 76
     0
330
1F
  0
LAYOUT
  5
1E
102
{ACAD_XDICTIONARY
360
2ACE
102
}
102
{ACAD_REACTORS
330
1A
102
}
330
1A
100
AcDbPlotSettings
  1

  2
EPSON PM-800C
  4
A4
  6

 40
3.757083177566528
 41
14.7637300491333
 42
3.757080078125
 43
3.757080078125
 44
209.9733276367187
 45
296.9683227539062
 46
0.0
 47
0.0
 48
0.0
 49
0.0
140
0.0
141
0.0
142
1.0
143
1.0
 70
   688
 72
     1
 73
     1
 74
     5
  7

 75
    16
147
1.0
148
0.0
149
0.0
100
AcDbLayout
  1
ﾚｲｱｳﾄ1
 70
     1
 71
     1
 10
-3.757080078125
 20
-3.757083177566528
 11
293.2112426757813
 21
206.2162444591522
 12
0.0
 22
0.0
 32
0.0
 14
27.8447512626648
 24
20.24591643810271
 34
0.0
 15
250.6027613639831
 25
182.2132479429245
 35
0.0
146
0.0
 13
0.0
 23
0.0
 33
0.0
 16
1.0
 26
0.0
 36
0.0
 17
0.0
 27
1.0
 37
0.0
 76
     0
330
1B
331
2E
  0
LAYOUT
  5
26
102
{ACAD_XDICTIONARY
360
2AD2
102
}
102
{ACAD_REACTORS
330
1A
102
}
330
1A
100
AcDbPlotSettings
  1

  2
EPSON PM-800C
  4

  6

 40
0.0
 41
0.0
 42
0.0
 43
0.0
 44
0.0
 45
0.0
 46
0.0
 47
0.0
 48
0.0
 49
0.0
140
0.0
141
0.0
142
1.0
143
1.0
 70
   688
 72
     0
 73
     0
 74
     5
  7

 75
    16
147
1.0
148
0.0
149
0.0
100
AcDbLayout
  1
ﾚｲｱｳﾄ2
 70
     1
 71
     2
 10
0.0
 20
0.0
 11
12.0
 21
9.0
 12
0.0
 22
0.0
 32
0.0
 14
0.0
 24
0.0
 34
0.0
 15
0.0
 25
0.0
 35
0.0
146
0.0
 13
0.0
 23
0.0
 33
0.0
 16
1.0
 26
0.0
 36
0.0
 17
0.0
 27
1.0
 37
0.0
 76
     0
330
23
  0
MLINESTYLE
  5
18
102
{ACAD_REACTORS
330
17
102
}
330
17
100
AcDbMlineStyle
  2
STANDARD
 70
     0
  3

 62
   256
 51
90.0
 52
90.0
 71
     2
 49
0.5
 62
   256
  6
BYLAYER
 49
-0.5
 62
   256
  6
BYLAYER
  0
ACDBPLACEHOLDER
  5
F
102
{ACAD_REACTORS
330
E
102
}
330
E
  0
TABLESTYLE
  5
115B
102
{ACAD_REACTORS
330
115A
102
}
330
115A
100
AcDbTableStyle
  3
Standard
 70
     0
 71
     0
 40
1.5
 41
1.5
280
     0
281
     0
  7
Standard
140
4.5
170
     2
 62
     0
 63
     7
283
     0
274
    -2
284
     1
 64
     0
275
    -2
285
     1
 65
     0
276
    -2
286
     1
 66
     0
277
    -2
287
     1
 67
     0
278
    -2
288
     1
 68
     0
279
    -2
289
     1
 69
     0
  7
Standard
140
6.0
170
     5
 62
     0
 63
     7
283
     0
274
    -2
284
     1
 64
     0
275
    -2
285
     1
 65
     0
276
    -2
286
     1
 66
     0
277
    -2
287
     1
 67
     0
278
    -2
288
     1
 68
     0
279
    -2
289
     1
 69
     0
  7
Standard
140
4.5
170
     5
 62
     0
 63
     7
283
     0
274
    -2
284
     1
 64
     0
275
    -2
285
     1
 65
     0
276
    -2
286
     1
 66
     0
277
    -2
287
     1
 67
     0
278
    -2
288
     1
 68
     0
279
    -2
289
     1
 69
     0
  0
DICTIONARYVAR
  5
11C8
102
{ACAD_REACTORS
330
11C7
102
}
330
11C7
100
DictionaryVariables
280
     0
  1
STANDARD
  0
DICTIONARYVAR
  5
2ACA
102
{ACAD_REACTORS
330
11C7
102
}
330
11C7
100
DictionaryVariables
280
     0
  1
1
  0
DICTIONARYVAR
  5
2ACB
102
{ACAD_REACTORS
330
11C7
102
}
330
11C7
100
DictionaryVariables
280
     0
  1

  0
DICTIONARY
  5
2AD0
330
22
100
AcDbDictionary
280
     1
281
     1
  3
ACAD_XREC_ROUNDTRIP
360
2AD1
  0
DICTIONARY
  5
2ACE
330
1E
100
AcDbDictionary
280
     1
281
     1
  3
ACAD_XREC_ROUNDTRIP
360
2ACF
  0
DICTIONARY
  5
2AD2
330
26
100
AcDbDictionary
280
     1
281
     1
  3
ACAD_XREC_ROUNDTRIP
360
2AD3
  0
XRECORD
  5
2AD1
102
{ACAD_REACTORS
330
2AD0
102
}
330
2AD0
100
AcDbXrecord
280
     1
102
SHADEPLOT
 70
     0
102
SHADEPLOTRESLEVEL
 70
     2
102
SHADEPLOTCUSTOMDPI
 70
   300
  0
XRECORD
  5
2ACF
102
{ACAD_REACTORS
330
2ACE
102
}
330
2ACE
100
AcDbXrecord
280
     1
102
SHADEPLOT
 70
     0
102
SHADEPLOTRESLEVEL
 70
     2
102
SHADEPLOTCUSTOMDPI
 70
   300
  0
XRECORD
  5
2AD3
102
{ACAD_REACTORS
330
2AD2
102
}
330
2AD2
100
AcDbXrecord
280
     1
102
SHADEPLOT
 70
     0
102
SHADEPLOTRESLEVEL
 70
     2
102
SHADEPLOTCUSTOMDPI
 70
   300
  0
ENDSEC
  0
EOF
