  0
SECTION
  2
HEADER
  9
$ACADVER
  1
AC1015
  9
$ACADMAINTVER
 70
    20
  9
$DWGCODEPAGE
  3
ANSI_932
  9
$INSBASE
 10
0.0
 20
0.0
 30
0.0
  9
$EXTMIN
 10
104.0
 20
4.0
 30
0.0
  9
$EXTMAX
 10
2784.0
 20
2024.0
 30
0.0
  9
$LIMMIN
 10
0.0
 20
0.0
  9
$LIMMAX
 10
29700.0
 20
21000.0
  9
$ORTHOMODE
 70
     1
  9
$REGENMODE
 70
     1
  9
$FILLMODE
 70
     1
  9
$QTEXTMODE
 70
     0
  9
$MIRRTEXT
 70
     1
  9
$LTSCALE
 40
4.0
  9
$ATTMODE
 70
     1
  9
$TEXTSIZE
 40
35.0
  9
$TRACEWID
 40
1.0
  9
$TEXTSTYLE
  7
Standard
  9
$CLAYER
  8
実形
  9
$CELTYPE
  6
ByLayer
  9
$CECOLOR
 62
   256
  9
$CELTSCALE
 40
1.0
  9
$DISPSILH
 70
     0
  9
$DIMSCALE
 40
1.0
  9
$DIMASZ
 40
30.0
  9
$DIMEXO
 40
65.0
  9
$DIMDLI
 40
3.75
  9
$DIMRND
 40
0.0
  9
$DIMDLE
 40
0.0
  9
$DIMEXE
 40
0.0
  9
$DIMTP
 40
0.0
  9
$DIMTM
 40
0.0
  9
$DIMTXT
 40
25.0
  9
$DIMCEN
 40
2.5
  9
$DIMTSZ
 40
0.0
  9
$DIMTOL
 70
     0
  9
$DIMLIM
 70
     0
  9
$DIMTIH
 70
     0
  9
$DIMTOH
 70
     0
  9
$DIMSE1
 70
     0
  9
$DIMSE2
 70
     0
  9
$DIMTAD
 70
     1
  9
$DIMZIN
 70
     8
  9
$DIMBLK
  1
DotSmall
  9
$DIMASO
 70
     1
  9
$DIMSHO
 70
     1
  9
$DIMPOST
  1

  9
$DIMAPOST
  1

  9
$DIMALT
 70
     0
  9
$DIMALTD
 70
     3
  9
$DIMALTF
 40
0.03937007874016
  9
$DIMLFAC
 40
1.0
  9
$DIMTOFL
 70
     1
  9
$DIMTVP
 40
0.0
  9
$DIMTIX
 70
     0
  9
$DIMSOXD
 70
     0
  9
$DIMSAH
 70
     0
  9
$DIMBLK1
  1

  9
$DIMBLK2
  1

  9
$DIMSTYLE
  2
ISO-25
  9
$DIMCLRD
 70
     0
  9
$DIMCLRE
 70
     0
  9
$DIMCLRT
 70
     0
  9
$DIMTFAC
 40
1.0
  9
$DIMGAP
 40
6.25
  9
$DIMJUST
 70
     0
  9
$DIMSD1
 70
     0
  9
$DIMSD2
 70
     0
  9
$DIMTOLJ
 70
     0
  9
$DIMTZIN
 70
     8
  9
$DIMALTZ
 70
     0
  9
$DIMALTTZ
 70
     0
  9
$DIMUPT
 70
     0
  9
$DIMDEC
 70
     2
  9
$DIMTDEC
 70
     2
  9
$DIMALTU
 70
     2
  9
$DIMALTTD
 70
     3
  9
$DIMTXSTY
  7
Standard
  9
$DIMAUNIT
 70
     0
  9
$DIMADEC
 70
     0
  9
$DIMALTRND
 40
0.0
  9
$DIMAZIN
 70
     0
  9
$DIMDSEP
 70
    46
  9
$DIMATFIT
 70
     3
  9
$DIMFRAC
 70
     0
  9
$DIMLDRBLK
  1
Open30
  9
$DIMLUNIT
 70
     2
  9
$DIMLWD
 70
    15
  9
$DIMLWE
 70
    15
  9
$DIMTMOVE
 70
     1
  9
$LUNITS
 70
     2
  9
$LUPREC
 70
     2
  9
$SKETCHINC
 40
1.0
  9
$FILLETRAD
 40
5.0
  9
$AUNITS
 70
     0
  9
$AUPREC
 70
     0
  9
$MENU
  1
.
  9
$ELEVATION
 40
0.0
  9
$PELEVATION
 40
0.0
  9
$THICKNESS
 40
0.0
  9
$LIMCHECK
 70
     1
  9
$CHAMFERA
 40
10.0
  9
$CHAMFERB
 40
10.0
  9
$CHAMFERC
 40
20.0
  9
$CHAMFERD
 40
0.0
  9
$SKPOLY
 70
     0
  9
$TDCREATE
 40
2451673.575802199
  9
$TDUCREATE
 40
2451673.200802199
  9
$TDUPDATE
 40
2458810.739067743
  9
$TDUUPDATE
 40
2458810.364067743
  9
$TDINDWG
 40
1.1108143866
  9
$TDUSRTIMER
 40
1.1108136921
  9
$USRTIMER
 70
     1
  9
$ANGBASE
 50
0.0
  9
$ANGDIR
 70
     0
  9
$PDMODE
 70
     0
  9
$PDSIZE
 40
0.0
  9
$PLINEWID
 40
0.0
  9
$SPLFRAME
 70
     0
  9
$SPLINETYPE
 70
     6
  9
$SPLINESEGS
 70
     8
  9
$HANDSEED
  5
23D3
  9
$SURFTAB1
 70
     6
  9
$SURFTAB2
 70
     6
  9
$SURFTYPE
 70
     6
  9
$SURFU
 70
     6
  9
$SURFV
 70
     6
  9
$UCSBASE
  2

  9
$UCSNAME
  2

  9
$UCSORG
 10
0.0
 20
0.0
 30
0.0
  9
$UCSXDIR
 10
1.0
 20
0.0
 30
0.0
  9
$UCSYDIR
 10
0.0
 20
1.0
 30
0.0
  9
$UCSORTHOREF
  2

  9
$UCSORTHOVIEW
 70
     0
  9
$UCSORGTOP
 10
0.0
 20
0.0
 30
0.0
  9
$UCSORGBOTTOM
 10
0.0
 20
0.0
 30
0.0
  9
$UCSORGLEFT
 10
0.0
 20
0.0
 30
0.0
  9
$UCSORGRIGHT
 10
0.0
 20
0.0
 30
0.0
  9
$UCSORGFRONT
 10
0.0
 20
0.0
 30
0.0
  9
$UCSORGBACK
 10
0.0
 20
0.0
 30
0.0
  9
$PUCSBASE
  2

  9
$PUCSNAME
  2

  9
$PUCSORG
 10
0.0
 20
0.0
 30
0.0
  9
$PUCSXDIR
 10
1.0
 20
0.0
 30
0.0
  9
$PUCSYDIR
 10
0.0
 20
1.0
 30
0.0
  9
$PUCSORTHOREF
  2

  9
$PUCSORTHOVIEW
 70
     0
  9
$PUCSORGTOP
 10
0.0
 20
0.0
 30
0.0
  9
$PUCSORGBOTTOM
 10
0.0
 20
0.0
 30
0.0
  9
$PUCSORGLEFT
 10
0.0
 20
0.0
 30
0.0
  9
$PUCSORGRIGHT
 10
0.0
 20
0.0
 30
0.0
  9
$PUCSORGFRONT
 10
0.0
 20
0.0
 30
0.0
  9
$PUCSORGBACK
 10
0.0
 20
0.0
 30
0.0
  9
$USERI1
 70
     0
  9
$USERI2
 70
     0
  9
$USERI3
 70
     0
  9
$USERI4
 70
     0
  9
$USERI5
 70
     0
  9
$USERR1
 40
0.0
  9
$USERR2
 40
0.0
  9
$USERR3
 40
0.0
  9
$USERR4
 40
0.0
  9
$USERR5
 40
0.0
  9
$WORLDVIEW
 70
     1
  9
$SHADEDGE
 70
     3
  9
$SHADEDIF
 70
    70
  9
$TILEMODE
 70
     1
  9
$MAXACTVP
 70
    64
  9
$PINSBASE
 10
0.0
 20
0.0
 30
0.0
  9
$PLIMCHECK
 70
     0
  9
$PEXTMIN
 10
27.8447512626648
 20
20.24591643810271
 30
0.0
  9
$PEXTMAX
 10
250.6027613639831
 20
182.2132479429245
 30
0.0
  9
$PLIMMIN
 10
-3.757080078125
 20
-3.757083177566528
  9
$PLIMMAX
 10
293.2112426757813
 20
206.2162444591522
  9
$UNITMODE
 70
     0
  9
$VISRETAIN
 70
     1
  9
$PLINEGEN
 70
     0
  9
$PSLTSCALE
 70
     1
  9
$TREEDEPTH
 70
  3020
  9
$CMLSTYLE
  2
Standard
  9
$CMLJUST
 70
     0
  9
$CMLSCALE
 40
20.0
  9
$PROXYGRAPHICS
 70
     1
  9
$MEASUREMENT
 70
     1
  9
$CELWEIGHT
370
    -1
  9
$ENDCAPS
280
     0
  9
$JOINSTYLE
280
     0
  9
$LWDISPLAY
290
     0
  9
$INSUNITS
 70
     4
  9
$HYPERLINKBASE
  1

  9
$STYLESHEET
  1

  9
$XEDIT
290
     1
  9
$CEPSNTYPE
380
     0
  9
$PSTYLEMODE
290
     1
  9
$FINGERPRINTGUID
  2
{C8EA1F16-24C9-11D4-9416-CE0A3B32152F}
  9
$VERSIONGUID
  2
{1CDFEF16-A0A8-4ED3-AED0-691B9BA40699}
  9
$EXTNAMES
290
     1
  9
$PSVPSCALE
 40
0.0
  9
$OLESTARTUP
290
     0
  0
ENDSEC
  0
SECTION
  2
CLASSES
  0
CLASS
  1
ACDBDICTIONARYWDFLT
  2
AcDbDictionaryWithDefault
  3
ObjectDBX Classes
 90
        0
280
     0
281
     0
  0
CLASS
  1
ACDBPLACEHOLDER
  2
AcDbPlaceHolder
  3
ObjectDBX Classes
 90
        0
280
     0
281
     0
  0
CLASS
  1
LAYOUT
  2
AcDbLayout
  3
ObjectDBX Classes
 90
        0
280
     0
281
     0
  0
CLASS
  1
DICTIONARYVAR
  2
AcDbDictionaryVar
  3
ObjectDBX Classes
 90
        0
280
     0
281
     0
  0
CLASS
  1
TABLESTYLE
  2
AcDbTableStyle
  3
ObjectDBX Classes
 90
     2047
280
     0
281
     0
  0
CLASS
  1
SORTENTSTABLE
  2
AcDbSortentsTable
  3
ObjectDBX Classes
 90
        0
280
     0
281
     0
  0
ENDSEC
  0
SECTION
  2
TABLES
  0
TABLE
  2
VPORT
  5
8
330
0
100
AcDbSymbolTable
 70
     2
  0
VPORT
  5
23C6
330
8
100
AcDbSymbolTableRecord
100
AcDbViewportTableRecord
  2
*Active
 70
     0
 10
0.0
 20
0.0
 11
1.0
 21
1.0
 12
1419.278171131246
 22
1027.618721265356
 13
0.0
 23
0.0
 14
10.0
 24
10.0
 15
10.0
 25
10.0
 16
0.0
 26
0.0
 36
1.0
 17
0.0
 27
0.0
 37
0.0
 40
2380.223025716232
 41
1.29038112522686
 42
50.0
 43
0.0
 44
0.0
 50
0.0
 51
0.0
 71
     0
 72
   100
 73
     1
 74
     3
 75
     0
 76
     0
 77
     0
 78
     0
281
     0
 65
     1
110
0.0
120
0.0
130
0.0
111
1.0
121
0.0
131
0.0
112
0.0
122
1.0
132
0.0
 79
     0
146
0.0
  0
ENDTAB
  0
TABLE
  2
LTYPE
  5
5
330
0
100
AcDbSymbolTable
 70
    46
  0
LTYPE
  5
14
330
5
100
AcDbSymbolTableRecord
100
AcDbLinetypeTableRecord
  2
ByBlock
 70
     0
  3

 72
    65
 73
     0
 40
0.0
  0
LTYPE
  5
15
330
5
100
AcDbSymbolTableRecord
100
AcDbLinetypeTableRecord
  2
ByLayer
 70
     0
  3

 72
    65
 73
     0
 40
0.0
  0
LTYPE
  5
16
330
5
100
AcDbSymbolTableRecord
100
AcDbLinetypeTableRecord
  2
Continuous
 70
     0
  3
Solid line
 72
    65
 73
     0
 40
0.0
  0
LTYPE
  5
34
330
5
100
AcDbSymbolTableRecord
100
AcDbLinetypeTableRecord
  2
ACAD_ISO02W100
 70
     0
  3
ISO dash __ __ __ __ __ __ __ __ __ __ __ __ __
 72
    65
 73
     2
 40
15.0
 49
12.0
 74
     0
 49
-3.0
 74
     0
  0
LTYPE
  5
35
330
5
100
AcDbSymbolTableRecord
100
AcDbLinetypeTableRecord
  2
ACAD_ISO03W100
 70
     0
  3
ISO dash space __    __    __    __    __    __
 72
    65
 73
     2
 40
30.0
 49
12.0
 74
     0
 49
-18.0
 74
     0
  0
LTYPE
  5
36
330
5
100
AcDbSymbolTableRecord
100
AcDbLinetypeTableRecord
  2
ACAD_ISO04W100
 70
     0
  3
ISO long-dash dot ____ . ____ . ____ . ____ . _
 72
    65
 73
     4
 40
30.0
 49
24.0
 74
     0
 49
-3.0
 74
     0
 49
0.0
 74
     0
 49
-3.0
 74
     0
  0
LTYPE
  5
37
330
5
100
AcDbSymbolTableRecord
100
AcDbLinetypeTableRecord
  2
ACAD_ISO05W100
 70
     0
  3
ISO long-dash double-dot ____ .. ____ .. ____ .
 72
    65
 73
     6
 40
34.0
 49
24.0
 74
     0
 49
-3.0
 74
     0
 49
0.5
 74
     0
 49
-3.0
 74
     0
 49
0.5
 74
     0
 49
-3.0
 74
     0
  0
LTYPE
  5
38
330
5
100
AcDbSymbolTableRecord
100
AcDbLinetypeTableRecord
  2
ACAD_ISO06W100
 70
     0
  3
ISO long-dash triple-dot ____ ... ____ ... ____
 72
    65
 73
     8
 40
37.5
 49
24.0
 74
     0
 49
-3.0
 74
     0
 49
0.5
 74
     0
 49
-3.0
 74
     0
 49
0.5
 74
     0
 49
-3.0
 74
     0
 49
0.5
 74
     0
 49
-3.0
 74
     0
  0
LTYPE
  5
39
330
5
100
AcDbSymbolTableRecord
100
AcDbLinetypeTableRecord
  2
ACAD_ISO07W100
 70
     0
  3
ISO dot . . . . . . . . . . . . . . . . . . . .
 72
    65
 73
     2
 40
3.0
 49
0.0
 74
     0
 49
-3.0
 74
     0
  0
LTYPE
  5
3A
330
5
100
AcDbSymbolTableRecord
100
AcDbLinetypeTableRecord
  2
ACAD_ISO08W100
 70
     0
  3
ISO long-dash short-dash ____ __ ____ __ ____ _
 72
    65
 73
     4
 40
36.0
 49
24.0
 74
     0
 49
-3.0
 74
     0
 49
6.0
 74
     0
 49
-3.0
 74
     0
  0
LTYPE
  5
3B
330
5
100
AcDbSymbolTableRecord
100
AcDbLinetypeTableRecord
  2
ACAD_ISO09W100
 70
     0
  3
ISO long-dash double-short-dash ____ __ __ ____
 72
    65
 73
     6
 40
45.0
 49
24.0
 74
     0
 49
-3.0
 74
     0
 49
6.0
 74
     0
 49
-3.0
 74
     0
 49
6.0
 74
     0
 49
-3.0
 74
     0
  0
LTYPE
  5
3C
330
5
100
AcDbSymbolTableRecord
100
AcDbLinetypeTableRecord
  2
ACAD_ISO10W100
 70
     0
  3
ISO dash dot __ . __ . __ . __ . __ . __ . __ .
 72
    65
 73
     4
 40
18.0
 49
12.0
 74
     0
 49
-3.0
 74
     0
 49
0.0
 74
     0
 49
-3.0
 74
     0
  0
LTYPE
  5
3D
330
5
100
AcDbSymbolTableRecord
100
AcDbLinetypeTableRecord
  2
ACAD_ISO11W100
 70
     0
  3
ISO double-dash dot __ __ . __ __ . __ __ . __ 
 72
    65
 73
     6
 40
33.0
 49
12.0
 74
     0
 49
-3.0
 74
     0
 49
12.0
 74
     0
 49
-3.0
 74
     0
 49
0.0
 74
     0
 49
-3.0
 74
     0
  0
LTYPE
  5
3E
330
5
100
AcDbSymbolTableRecord
100
AcDbLinetypeTableRecord
  2
ACAD_ISO12W100
 70
     0
  3
ISO dash double-dot __ . . __ . . __ . . __ . .
 72
    65
 73
     6
 40
21.0
 49
12.0
 74
     0
 49
-3.0
 74
     0
 49
0.0
 74
     0
 49
-3.0
 74
     0
 49
0.0
 74
     0
 49
-3.0
 74
     0
  0
LTYPE
  5
3F
330
5
100
AcDbSymbolTableRecord
100
AcDbLinetypeTableRecord
  2
ACAD_ISO13W100
 70
     0
  3
ISO double-dash double-dot __ __ . . __ __ . . 
 72
    65
 73
     8
 40
36.0
 49
12.0
 74
     0
 49
-3.0
 74
     0
 49
12.0
 74
     0
 49
-3.0
 74
     0
 49
0.0
 74
     0
 49
-3.0
 74
     0
 49
0.0
 74
     0
 49
-3.0
 74
     0
  0
LTYPE
  5
40
330
5
100
AcDbSymbolTableRecord
100
AcDbLinetypeTableRecord
  2
ACAD_ISO14W100
 70
     0
  3
ISO dash triple-dot __ . . . __ . . . __ . . . 
 72
    65
 73
     8
 40
24.0
 49
12.0
 74
     0
 49
-3.0
 74
     0
 49
0.0
 74
     0
 49
-3.0
 74
     0
 49
0.0
 74
     0
 49
-3.0
 74
     0
 49
0.0
 74
     0
 49
-3.0
 74
     0
  0
LTYPE
  5
41
330
5
100
AcDbSymbolTableRecord
100
AcDbLinetypeTableRecord
  2
ACAD_ISO15W100
 70
     0
  3
ISO double-dash triple-dot __ __ . . . __ __ . 
 72
    65
 73
    10
 40
39.0
 49
12.0
 74
     0
 49
-3.0
 74
     0
 49
12.0
 74
     0
 49
-3.0
 74
     0
 49
0.0
 74
     0
 49
-3.0
 74
     0
 49
0.0
 74
     0
 49
-3.0
 74
     0
 49
0.0
 74
     0
 49
-3.0
 74
     0
  0
LTYPE
  5
42
330
5
100
AcDbSymbolTableRecord
100
AcDbLinetypeTableRecord
  2
BATTING
 70
     0
  3
Batting SSSSSSSSSSSSSSSSSSSSSSSSSSSSSSSSSSSSSSS
 72
    65
 73
     4
 40
10.16254
 49
0.00254
 74
     0
 49
-2.54
 74
     4
 75
   134
340
33
 46
2.54
 50
0.0
 44
-2.54
 45
0.0
 49
-5.08
 74
     4
 75
   134
340
33
 46
2.54
 50
180.0
 44
2.54
 45
0.0
 49
-2.54
 74
     0
  0
LTYPE
  5
43
330
5
100
AcDbSymbolTableRecord
100
AcDbLinetypeTableRecord
  2
BORDER
 70
     0
  3
Border __ __ . __ __ . __ __ . __ __ . __ __ .
 72
    65
 73
     6
 40
44.45
 49
12.7
 74
     0
 49
-6.349999999999999
 74
     0
 49
12.7
 74
     0
 49
-6.349999999999999
 74
     0
 49
0.0
 74
     0
 49
-6.349999999999999
 74
     0
  0
LTYPE
  5
44
330
5
100
AcDbSymbolTableRecord
100
AcDbLinetypeTableRecord
  2
BORDER2
 70
     0
  3
Border (.5x) __.__.__.__.__.__.__.__.__.__.__.
 72
    65
 73
     6
 40
22.225
 49
6.349999999999999
 74
     0
 49
-3.174999999999999
 74
     0
 49
6.349999999999999
 74
     0
 49
-3.174999999999999
 74
     0
 49
0.0
 74
     0
 49
-3.174999999999999
 74
     0
  0
LTYPE
  5
45
330
5
100
AcDbSymbolTableRecord
100
AcDbLinetypeTableRecord
  2
BORDERX2
 70
     0
  3
Border (2x) ____  ____  .  ____  ____  .  ___
 72
    65
 73
     6
 40
88.9
 49
25.4
 74
     0
 49
-12.7
 74
     0
 49
25.4
 74
     0
 49
-12.7
 74
     0
 49
0.0
 74
     0
 49
-12.7
 74
     0
  0
LTYPE
  5
46
330
5
100
AcDbSymbolTableRecord
100
AcDbLinetypeTableRecord
  2
CENTER
 70
     0
  3
Center ____ _ ____ _ ____ _ ____ _ ____ _ ____
 72
    65
 73
     4
 40
50.8
 49
31.75
 74
     0
 49
-6.349999999999999
 74
     0
 49
6.349999999999999
 74
     0
 49
-6.349999999999999
 74
     0
  0
LTYPE
  5
47
330
5
100
AcDbSymbolTableRecord
100
AcDbLinetypeTableRecord
  2
CENTER2
 70
     0
  3
Center (.5x) ___ _ ___ _ ___ _ ___ _ ___ _ ___
 72
    65
 73
     4
 40
28.575
 49
19.05
 74
     0
 49
-3.174999999999999
 74
     0
 49
3.174999999999999
 74
     0
 49
-3.174999999999999
 74
     0
  0
LTYPE
  5
48
330
5
100
AcDbSymbolTableRecord
100
AcDbLinetypeTableRecord
  2
CENTERX2
 70
     0
  3
Center (2x) ________  __  ________  __  _____
 72
    65
 73
     4
 40
101.6
 49
63.5
 74
     0
 49
-12.7
 74
     0
 49
12.7
 74
     0
 49
-12.7
 74
     0
  0
LTYPE
  5
49
330
5
100
AcDbSymbolTableRecord
100
AcDbLinetypeTableRecord
  2
DASHDOT
 70
     0
  3
Dash dot __ . __ . __ . __ . __ . __ . __ . __
 72
    65
 73
     4
 40
25.4
 49
12.7
 74
     0
 49
-6.349999999999999
 74
     0
 49
0.0
 74
     0
 49
-6.349999999999999
 74
     0
  0
LTYPE
  5
4A
330
5
100
AcDbSymbolTableRecord
100
AcDbLinetypeTableRecord
  2
DASHDOT2
 70
     0
  3
Dash dot (.5x) _._._._._._._._._._._._._._._.
 72
    65
 73
     4
 40
12.7
 49
6.349999999999999
 74
     0
 49
-3.174999999999999
 74
     0
 49
0.0
 74
     0
 49
-3.174999999999999
 74
     0
  0
LTYPE
  5
4B
330
5
100
AcDbSymbolTableRecord
100
AcDbLinetypeTableRecord
  2
DASHDOTX2
 70
     0
  3
Dash dot (2x) ____  .  ____  .  ____  .  ___
 72
    65
 73
     4
 40
50.8
 49
25.4
 74
     0
 49
-12.7
 74
     0
 49
0.0
 74
     0
 49
-12.7
 74
     0
  0
LTYPE
  5
4C
330
5
100
AcDbSymbolTableRecord
100
AcDbLinetypeTableRecord
  2
DASHED
 70
     0
  3
Dashed __ __ __ __ __ __ __ __ __ __ __ __ __ _
 72
    65
 73
     2
 40
19.05
 49
12.7
 74
     0
 49
-6.349999999999999
 74
     0
  0
LTYPE
  5
4D
330
5
100
AcDbSymbolTableRecord
100
AcDbLinetypeTableRecord
  2
DASHED2
 70
     0
  3
Dashed (.5x) _ _ _ _ _ _ _ _ _ _ _ _ _ _ _ _ _
 72
    65
 73
     2
 40
9.524999999999998
 49
6.349999999999999
 74
     0
 49
-3.174999999999999
 74
     0
  0
LTYPE
  5
4E
330
5
100
AcDbSymbolTableRecord
100
AcDbLinetypeTableRecord
  2
DASHEDX2
 70
     0
  3
Dashed (2x) ____  ____  ____  ____  ____  ___
 72
    65
 73
     2
 40
38.1
 49
25.4
 74
     0
 49
-12.7
 74
     0
  0
LTYPE
  5
4F
330
5
100
AcDbSymbolTableRecord
100
AcDbLinetypeTableRecord
  2
DIVIDE
 70
     0
  3
Divide ____ . . ____ . . ____ . . ____ . . ____
 72
    65
 73
     6
 40
31.75
 49
12.7
 74
     0
 49
-6.349999999999999
 74
     0
 49
0.0
 74
     0
 49
-6.349999999999999
 74
     0
 49
0.0
 74
     0
 49
-6.349999999999999
 74
     0
  0
LTYPE
  5
50
330
5
100
AcDbSymbolTableRecord
100
AcDbLinetypeTableRecord
  2
DIVIDE2
 70
     0
  3
Divide (.5x) __..__..__..__..__..__..__..__.._
 72
    65
 73
     6
 40
15.875
 49
6.349999999999999
 74
     0
 49
-3.174999999999999
 74
     0
 49
0.0
 74
     0
 49
-3.174999999999999
 74
     0
 49
0.0
 74
     0
 49
-3.174999999999999
 74
     0
  0
LTYPE
  5
51
330
5
100
AcDbSymbolTableRecord
100
AcDbLinetypeTableRecord
  2
DIVIDEX2
 70
     0
  3
Divide (2x) ________  .  .  ________  .  .  _
 72
    65
 73
     6
 40
63.49999999999999
 49
25.4
 74
     0
 49
-12.7
 74
     0
 49
0.0
 74
     0
 49
-12.7
 74
     0
 49
0.0
 74
     0
 49
-12.7
 74
     0
  0
LTYPE
  5
52
330
5
100
AcDbSymbolTableRecord
100
AcDbLinetypeTableRecord
  2
DOT
 70
     0
  3
Dot . . . . . . . . . . . . . . . . . . . . . .
 72
    65
 73
     2
 40
6.349999999999999
 49
0.0
 74
     0
 49
-6.349999999999999
 74
     0
  0
LTYPE
  5
53
330
5
100
AcDbSymbolTableRecord
100
AcDbLinetypeTableRecord
  2
DOT2
 70
     0
  3
Dot (.5x) .....................................
 72
    65
 73
     2
 40
3.174999999999999
 49
0.0
 74
     0
 49
-3.174999999999999
 74
     0
  0
LTYPE
  5
54
330
5
100
AcDbSymbolTableRecord
100
AcDbLinetypeTableRecord
  2
DOTX2
 70
     0
  3
Dot (2x) .  .  .  .  .  .  .  .  .  .  .  .  . 
 72
    65
 73
     2
 40
12.7
 49
0.0
 74
     0
 49
-12.7
 74
     0
  0
LTYPE
  5
55
330
5
100
AcDbSymbolTableRecord
100
AcDbLinetypeTableRecord
  2
FENCELINE1
 70
     0
  3
Fenceline circle ----0-----0----0-----0----0---
 72
    65
 73
     4
 40
36.83
 49
6.349999999999999
 74
     0
 49
-2.54
 74
     4
 75
   133
340
33
 46
2.54
 50
0.0
 44
-2.54
 45
0.0
 49
-2.54
 74
     0
 49
25.4
 74
     0
  0
LTYPE
  5
56
330
5
100
AcDbSymbolTableRecord
100
AcDbLinetypeTableRecord
  2
FENCELINE2
 70
     0
  3
Fenceline square ----[]-----[]----[]-----[]----
 72
    65
 73
     4
 40
36.83
 49
6.349999999999999
 74
     0
 49
-2.54
 74
     4
 75
   132
340
33
 46
2.54
 50
0.0
 44
-2.54
 45
0.0
 49
-2.54
 74
     0
 49
25.4
 74
     0
  0
LTYPE
  5
57
330
5
100
AcDbSymbolTableRecord
100
AcDbLinetypeTableRecord
  2
GAS_LINE
 70
     0
  3
Gas line ----GAS----GAS----GAS----GAS----GAS---
 72
    65
 73
     3
 40
24.13
 49
12.7
 74
     0
 49
-5.08
 74
     2
 75
     0
340
11
 46
2.54
 50
0.0
 44
-2.54
 45
-1.27
  9
GAS
 49
-6.349999999999999
 74
     0
  0
LTYPE
  5
58
330
5
100
AcDbSymbolTableRecord
100
AcDbLinetypeTableRecord
  2
HIDDEN
 70
     0
  3
Hidden __ __ __ __ __ __ __ __ __ __ __ __ __ _
 72
    65
 73
     2
 40
9.524999999999998
 49
6.349999999999999
 74
     0
 49
-3.174999999999999
 74
     0
  0
LTYPE
  5
59
330
5
100
AcDbSymbolTableRecord
100
AcDbLinetypeTableRecord
  2
HIDDEN2
 70
     0
  3
Hidden (.5x) _ _ _ _ _ _ _ _ _ _ _ _ _ _ _ _ _
 72
    65
 73
     2
 40
4.762499999999999
 49
3.174999999999999
 74
     0
 49
-1.587499999999999
 74
     0
  0
LTYPE
  5
5A
330
5
100
AcDbSymbolTableRecord
100
AcDbLinetypeTableRecord
  2
HIDDENX2
 70
     0
  3
Hidden (2x) ____ ____ ____ ____ ____ ____ ____
 72
    65
 73
     2
 40
19.05
 49
12.7
 74
     0
 49
-6.349999999999999
 74
     0
  0
LTYPE
  5
5B
330
5
100
AcDbSymbolTableRecord
100
AcDbLinetypeTableRecord
  2
HOT_WATER_SUPPLY
 70
     0
  3
Hot water supply ---- HW ---- HW ---- HW ----
 72
    65
 73
     3
 40
22.86
 49
12.7
 74
     0
 49
-5.08
 74
     2
 75
     0
340
11
 46
2.54
 50
0.0
 44
-2.54
 45
-1.27
  9
HW
 49
-5.08
 74
     0
  0
LTYPE
  5
5C
330
5
100
AcDbSymbolTableRecord
100
AcDbLinetypeTableRecord
  2
PHANTOM
 70
     0
  3
Phantom ______  __  __  ______  __  __  ______
 72
    65
 73
     6
 40
63.5
 49
31.75
 74
     0
 49
-6.349999999999999
 74
     0
 49
6.349999999999999
 74
     0
 49
-6.349999999999999
 74
     0
 49
6.349999999999999
 74
     0
 49
-6.349999999999999
 74
     0
  0
LTYPE
  5
5D
330
5
100
AcDbSymbolTableRecord
100
AcDbLinetypeTableRecord
  2
PHANTOM2
 70
     0
  3
Phantom (.5x) ___ _ _ ___ _ _ ___ _ _ ___ _ _
 72
    65
 73
     6
 40
31.75
 49
15.875
 74
     0
 49
-3.174999999999999
 74
     0
 49
3.174999999999999
 74
     0
 49
-3.174999999999999
 74
     0
 49
3.174999999999999
 74
     0
 49
-3.174999999999999
 74
     0
  0
LTYPE
  5
5E
330
5
100
AcDbSymbolTableRecord
100
AcDbLinetypeTableRecord
  2
PHANTOMX2
 70
     0
  3
Phantom (2x) ____________    ____    ____   _
 72
    65
 73
     6
 40
127.0
 49
63.5
 74
     0
 49
-12.7
 74
     0
 49
12.7
 74
     0
 49
-12.7
 74
     0
 49
12.7
 74
     0
 49
-12.7
 74
     0
  0
LTYPE
  5
5F
330
5
100
AcDbSymbolTableRecord
100
AcDbLinetypeTableRecord
  2
TRACKS
 70
     0
  3
Tracks -|-|-|-|-|-|-|-|-|-|-|-|-|-|-|-|-|-|-|-|
 72
    65
 73
     2
 40
7.62
 49
3.81
 74
     4
 75
   130
340
33
 46
6.349999999999999
 50
0.0
 44
0.0
 45
0.0
 49
3.81
 74
     0
  0
LTYPE
  5
60
330
5
100
AcDbSymbolTableRecord
100
AcDbLinetypeTableRecord
  2
ZIGZAG
 70
     0
  3
Zig zag /\/\/\/\/\/\/\/\/\/\/\/\/\/\/\/\/\/\/\/
 72
    65
 73
     4
 40
20.32254
 49
0.00254
 74
     0
 49
-5.08
 74
     4
 75
   131
340
33
 46
5.08
 50
0.0
 44
-5.08
 45
0.0
 49
-10.16
 74
     4
 75
   131
340
33
 46
5.08
 50
180.0
 44
5.08
 45
0.0
 49
-5.08
 74
     0
  0
ENDTAB
  0
TABLE
  2
LAYER
  5
2
102
{ACAD_XDICTIONARY
360
15E1
102
}
330
0
100
AcDbSymbolTable
 70
     7
  0
LAYER
  5
10
330
2
100
AcDbSymbolTableRecord
100
AcDbLayerTableRecord
  2
0
 70
     0
 62
     7
  6
Continuous
370
    -3
390
F
  0
LAYER
  5
C3
330
2
100
AcDbSymbolTableRecord
100
AcDbLayerTableRecord
  2
Defpoints
 70
     0
 62
     7
  6
Continuous
290
     0
370
    -3
390
F
  0
LAYER
  5
256
330
2
100
AcDbSymbolTableRecord
100
AcDbLayerTableRecord
  2
Cen
 70
     0
 62
     7
  6
CENTER2
370
    15
390
F
  0
LAYER
  5
5DF
330
2
100
AcDbSymbolTableRecord
100
AcDbLayerTableRecord
  2
実形
 70
     0
 62
     7
  6
Continuous
370
    -3
390
F
  0
LAYER
  5
60C
330
2
100
AcDbSymbolTableRecord
100
AcDbLayerTableRecord
  2
補助
 70
     0
 62
     7
  6
Continuous
370
    -3
390
F
  0
LAYER
  5
619
330
2
100
AcDbSymbolTableRecord
100
AcDbLayerTableRecord
  2
センター
 70
     0
 62
     7
  6
CENTER2
370
    18
390
F
  0
LAYER
  5
61A
330
2
100
AcDbSymbolTableRecord
100
AcDbLayerTableRecord
  2
寸法
 70
     0
 62
     7
  6
Continuous
370
    18
390
F
  0
ENDTAB
  0
TABLE
  2
STYLE
  5
3
330
0
100
AcDbSymbolTable
 70
     4
  0
STYLE
  5
11
330
3
100
AcDbSymbolTableRecord
100
AcDbTextStyleTableRecord
  2
Standard
 70
     0
 40
0.0
 41
1.0
 50
0.0
 71
     0
 42
35.0
  3
txt.shx
  4
bigfont.shx
  0
STYLE
  5
33
330
3
100
AcDbSymbolTableRecord
100
AcDbTextStyleTableRecord
  2

 70
     1
 40
0.0
 41
1.0
 50
0.0
 71
     0
 42
2.5
  3
ltypeshp.shx
  4

  0
STYLE
  5
15E0
330
3
100
AcDbSymbolTableRecord
100
AcDbTextStyleTableRecord
  2
ms明朝
 70
     0
 40
0.0
 41
1.0
 50
0.0
 71
     0
 42
25.0
  3
MS Mincho.ttf
  4

1001
ACAD
1000
MS Mincho
1071
    32785
  0
STYLE
  5
1CD0
330
3
100
AcDbSymbolTableRecord
100
AcDbTextStyleTableRecord
  2
明朝
 70
     0
 40
0.0
 41
1.0
 50
0.0
 71
     0
 42
25.0
  3
MS Mincho.ttf
  4

1001
ACAD
1000
MS Mincho
1071
    32785
  0
ENDTAB
  0
TABLE
  2
VIEW
  5
6
330
0
100
AcDbSymbolTable
 70
     0
  0
ENDTAB
  0
TABLE
  2
UCS
  5
7
330
0
100
AcDbSymbolTable
 70
     0
  0
ENDTAB
  0
TABLE
  2
APPID
  5
9
330
0
100
AcDbSymbolTable
 70
     1
  0
APPID
  5
12
330
9
100
AcDbSymbolTableRecord
100
AcDbRegAppTableRecord
  2
ACAD
 70
     0
  0
ENDTAB
  0
TABLE
  2
DIMSTYLE
  5
A
330
0
100
AcDbSymbolTable
 70
     1
100
AcDbDimStyleTable
 71
     1
340
27
  0
DIMSTYLE
105
27
102
{ACAD_REACTORS
330
473
330
480
330
586
330
304
330
376
330
2E9
330
384
330
31C
330
2F7
330
E81
330
E8E
330
13DD
330
13E1
330
13DF
330
13E2
330
13DC
330
13DE
330
13E0
330
13E3
330
196F
330
1970
330
1A8C
330
1A8D
330
1A8E
330
1A8F
330
1A8A
330
1A8B
330
1E3B
330
1E44
330
1E46
330
1E47
330
1E4A
330
1E4B
330
1E4C
330
1E4D
330
1E4F
330
1E50
330
1E51
330
1E52
330
1E53
330
1E54
330
1E5A
330
1E5B
330
1E5C
330
1E64
330
1E65
330
1E66
330
205D
330
205E
330
205F
330
2060
330
2061
330
2298
330
2299
330
229A
330
229B
330
229C
102
}
330
A
100
AcDbSymbolTableRecord
100
AcDbDimStyleTableRecord
  2
ISO-25
 70
     0
 41
30.0
 42
65.0
 43
3.75
 44
0.0
 73
     0
 74
     0
 77
     1
 78
     8
140
25.0
141
2.5
143
0.03937007874016
147
6.25
171
     3
172
     1
271
     2
272
     2
274
     3
283
     0
284
     8
340
11
341
DA
342
D0
371
    15
372
    15
  0
ENDTAB
  0
TABLE
  2
BLOCK_RECORD
  5
1
330
0
100
AcDbSymbolTable
 70
    61
  0
BLOCK_RECORD
  5
1F
102
{ACAD_XDICTIONARY
360
1649
102
}
330
1
100
AcDbSymbolTableRecord
100
AcDbBlockTableRecord
  2
*Model_Space
340
22
  0
BLOCK_RECORD
  5
1B
330
1
100
AcDbSymbolTableRecord
100
AcDbBlockTableRecord
  2
*Paper_Space
340
1E
  0
BLOCK_RECORD
  5
23
330
1
100
AcDbSymbolTableRecord
100
AcDbBlockTableRecord
  2
*Paper_Space0
340
26
  0
BLOCK_RECORD
  5
D0
330
1
100
AcDbSymbolTableRecord
100
AcDbBlockTableRecord
  2
_DotSmall
340
0
102
{BLKREFS
331
1B52
331
1B53
331
1B5B
331
1B5C
331
1B65
331
1B66
331
1B6D
331
1B6E
331
1B76
331
1B77
331
1B7F
331
1B80
331
1B88
331
1B89
331
1B9B
331
1B9C
331
1BB5
331
1BB6
331
1BBF
331
1BC0
331
1BC7
331
1BC8
331
1BD1
331
1BD2
331
1BD9
331
1BDA
331
1BE2
331
1BE3
331
1BEC
331
1BED
331
1BF5
331
1BF6
331
1C2B
331
1C2C
331
1C34
331
1C35
331
1C3D
331
1C3E
331
1C47
331
1C48
331
1C50
331
1C51
331
1C58
331
1C59
331
1C62
331
1C63
331
1C6B
331
1C6C
331
1F60
331
1F61
331
1F6A
331
1F6B
331
1F72
331
1F73
331
1F7C
331
1F7D
331
1F84
331
1F85
331
1F8D
331
1F8E
331
1F96
331
1F97
331
1FA0
331
1FA1
331
1FA8
331
1FA9
331
1FB1
331
1FB2
331
1FBA
331
1FBB
331
1FC3
331
1FC4
331
1FCC
331
1FCD
331
1FD5
331
1FD6
331
1FDE
331
1FDF
331
1FE7
331
1FE8
331
1FF0
331
1FF1
331
1FF9
331
1FFA
331
2002
331
2003
331
20D8
331
20D9
331
20F1
331
20F2
331
20FA
331
20FB
331
2103
331
2104
331
2112
331
2113
331
211B
331
211C
331
2126
331
2127
331
212F
331
2130
331
231F
331
2320
331
2328
331
2329
331
2337
331
2338
331
2342
331
2343
331
234D
331
234E
102
}
  0
BLOCK_RECORD
  5
D4
330
1
100
AcDbSymbolTableRecord
100
AcDbBlockTableRecord
  2
_Origin2
340
0
  0
BLOCK_RECORD
  5
DA
330
1
100
AcDbSymbolTableRecord
100
AcDbBlockTableRecord
  2
_Open30
340
0
  0
BLOCK_RECORD
  5
2EA
330
1
100
AcDbSymbolTableRecord
100
AcDbBlockTableRecord
  2
*D4
340
0
  0
BLOCK_RECORD
  5
2F8
330
1
100
AcDbSymbolTableRecord
100
AcDbBlockTableRecord
  2
*D5
340
0
  0
BLOCK_RECORD
  5
305
330
1
100
AcDbSymbolTableRecord
100
AcDbBlockTableRecord
  2
*D6
340
0
  0
BLOCK_RECORD
  5
31D
330
1
100
AcDbSymbolTableRecord
100
AcDbBlockTableRecord
  2
*D7
340
0
  0
BLOCK_RECORD
  5
377
330
1
100
AcDbSymbolTableRecord
100
AcDbBlockTableRecord
  2
*D8
340
0
  0
BLOCK_RECORD
  5
385
330
1
100
AcDbSymbolTableRecord
100
AcDbBlockTableRecord
  2
*D9
340
0
  0
BLOCK_RECORD
  5
474
330
1
100
AcDbSymbolTableRecord
100
AcDbBlockTableRecord
  2
*D10
340
0
  0
BLOCK_RECORD
  5
481
330
1
100
AcDbSymbolTableRecord
100
AcDbBlockTableRecord
  2
*D11
340
0
  0
BLOCK_RECORD
  5
587
330
1
100
AcDbSymbolTableRecord
100
AcDbBlockTableRecord
  2
*D12
340
0
  0
BLOCK_RECORD
  5
E82
330
1
100
AcDbSymbolTableRecord
100
AcDbBlockTableRecord
  2
*D13
340
0
  0
BLOCK_RECORD
  5
E8F
330
1
100
AcDbSymbolTableRecord
100
AcDbBlockTableRecord
  2
*D14
340
0
  0
BLOCK_RECORD
  5
13EA
330
1
100
AcDbSymbolTableRecord
100
AcDbBlockTableRecord
  2
*D15
340
0
  0
BLOCK_RECORD
  5
13F6
330
1
100
AcDbSymbolTableRecord
100
AcDbBlockTableRecord
  2
*D16
340
0
  0
BLOCK_RECORD
  5
1402
330
1
100
AcDbSymbolTableRecord
100
AcDbBlockTableRecord
  2
*D17
340
0
  0
BLOCK_RECORD
  5
140E
330
1
100
AcDbSymbolTableRecord
100
AcDbBlockTableRecord
  2
*D18
340
0
  0
BLOCK_RECORD
  5
141A
330
1
100
AcDbSymbolTableRecord
100
AcDbBlockTableRecord
  2
*D19
340
0
  0
BLOCK_RECORD
  5
1426
330
1
100
AcDbSymbolTableRecord
100
AcDbBlockTableRecord
  2
*D20
340
0
  0
BLOCK_RECORD
  5
1432
330
1
100
AcDbSymbolTableRecord
100
AcDbBlockTableRecord
  2
*D21
340
0
  0
BLOCK_RECORD
  5
143F
330
1
100
AcDbSymbolTableRecord
100
AcDbBlockTableRecord
  2
*D22
340
0
  0
BLOCK_RECORD
  5
1971
330
1
100
AcDbSymbolTableRecord
100
AcDbBlockTableRecord
  2
*D23
340
0
  0
BLOCK_RECORD
  5
197D
330
1
100
AcDbSymbolTableRecord
100
AcDbBlockTableRecord
  2
*D24
340
0
  0
BLOCK_RECORD
  5
1A94
330
1
100
AcDbSymbolTableRecord
100
AcDbBlockTableRecord
  2
*D25
340
0
  0
BLOCK_RECORD
  5
1AA0
330
1
100
AcDbSymbolTableRecord
100
AcDbBlockTableRecord
  2
*D26
340
0
  0
BLOCK_RECORD
  5
1AAC
330
1
100
AcDbSymbolTableRecord
100
AcDbBlockTableRecord
  2
*D27
340
0
  0
BLOCK_RECORD
  5
1AB8
330
1
100
AcDbSymbolTableRecord
100
AcDbBlockTableRecord
  2
*D28
340
0
  0
BLOCK_RECORD
  5
1AC4
330
1
100
AcDbSymbolTableRecord
100
AcDbBlockTableRecord
  2
*D29
340
0
  0
BLOCK_RECORD
  5
1AD0
330
1
100
AcDbSymbolTableRecord
100
AcDbBlockTableRecord
  2
*D30
340
0
  0
BLOCK_RECORD
  5
1E6A
330
1
100
AcDbSymbolTableRecord
100
AcDbBlockTableRecord
  2
*D31
340
0
  0
BLOCK_RECORD
  5
1E73
330
1
100
AcDbSymbolTableRecord
100
AcDbBlockTableRecord
  2
*D32
340
0
  0
BLOCK_RECORD
  5
1E7F
330
1
100
AcDbSymbolTableRecord
100
AcDbBlockTableRecord
  2
*D33
340
0
  0
BLOCK_RECORD
  5
1E8B
330
1
100
AcDbSymbolTableRecord
100
AcDbBlockTableRecord
  2
*D34
340
0
  0
BLOCK_RECORD
  5
1E97
330
1
100
AcDbSymbolTableRecord
100
AcDbBlockTableRecord
  2
*D35
340
0
  0
BLOCK_RECORD
  5
1EA3
330
1
100
AcDbSymbolTableRecord
100
AcDbBlockTableRecord
  2
*D36
340
0
  0
BLOCK_RECORD
  5
1EAF
330
1
100
AcDbSymbolTableRecord
100
AcDbBlockTableRecord
  2
*D37
340
0
  0
BLOCK_RECORD
  5
1EBB
330
1
100
AcDbSymbolTableRecord
100
AcDbBlockTableRecord
  2
*D38
340
0
  0
BLOCK_RECORD
  5
1EC7
330
1
100
AcDbSymbolTableRecord
100
AcDbBlockTableRecord
  2
*D39
340
0
  0
BLOCK_RECORD
  5
1ED3
330
1
100
AcDbSymbolTableRecord
100
AcDbBlockTableRecord
  2
*D40
340
0
  0
BLOCK_RECORD
  5
1EDF
330
1
100
AcDbSymbolTableRecord
100
AcDbBlockTableRecord
  2
*D41
340
0
  0
BLOCK_RECORD
  5
1EEB
330
1
100
AcDbSymbolTableRecord
100
AcDbBlockTableRecord
  2
*D42
340
0
  0
BLOCK_RECORD
  5
1EF7
330
1
100
AcDbSymbolTableRecord
100
AcDbBlockTableRecord
  2
*D43
340
0
  0
BLOCK_RECORD
  5
1F03
330
1
100
AcDbSymbolTableRecord
100
AcDbBlockTableRecord
  2
*D44
340
0
  0
BLOCK_RECORD
  5
1F0F
330
1
100
AcDbSymbolTableRecord
100
AcDbBlockTableRecord
  2
*D45
340
0
  0
BLOCK_RECORD
  5
1F1B
330
1
100
AcDbSymbolTableRecord
100
AcDbBlockTableRecord
  2
*D46
340
0
  0
BLOCK_RECORD
  5
1F27
330
1
100
AcDbSymbolTableRecord
100
AcDbBlockTableRecord
  2
*D47
340
0
  0
BLOCK_RECORD
  5
1F33
330
1
100
AcDbSymbolTableRecord
100
AcDbBlockTableRecord
  2
*D48
340
0
  0
BLOCK_RECORD
  5
1F3F
330
1
100
AcDbSymbolTableRecord
100
AcDbBlockTableRecord
  2
*D49
340
0
  0
BLOCK_RECORD
  5
1F4B
330
1
100
AcDbSymbolTableRecord
100
AcDbBlockTableRecord
  2
*D50
340
0
  0
BLOCK_RECORD
  5
2062
330
1
100
AcDbSymbolTableRecord
100
AcDbBlockTableRecord
  2
*D51
340
0
  0
BLOCK_RECORD
  5
2070
330
1
100
AcDbSymbolTableRecord
100
AcDbBlockTableRecord
  2
*D52
340
0
  0
BLOCK_RECORD
  5
2081
330
1
100
AcDbSymbolTableRecord
100
AcDbBlockTableRecord
  2
*D53
340
0
  0
BLOCK_RECORD
  5
208D
330
1
100
AcDbSymbolTableRecord
100
AcDbBlockTableRecord
  2
*D54
340
0
  0
BLOCK_RECORD
  5
2099
330
1
100
AcDbSymbolTableRecord
100
AcDbBlockTableRecord
  2
*D55
340
0
  0
BLOCK_RECORD
  5
229D
330
1
100
AcDbSymbolTableRecord
100
AcDbBlockTableRecord
  2
*D56
340
0
  0
BLOCK_RECORD
  5
22AB
330
1
100
AcDbSymbolTableRecord
100
AcDbBlockTableRecord
  2
*D57
340
0
  0
BLOCK_RECORD
  5
22BC
330
1
100
AcDbSymbolTableRecord
100
AcDbBlockTableRecord
  2
*D58
340
0
  0
BLOCK_RECORD
  5
22C8
330
1
100
AcDbSymbolTableRecord
100
AcDbBlockTableRecord
  2
*D59
340
0
  0
BLOCK_RECORD
  5
22D4
330
1
100
AcDbSymbolTableRecord
100
AcDbBlockTableRecord
  2
*D60
340
0
  0
ENDTAB
  0
ENDSEC
  0
SECTION
  2
BLOCKS
  0
BLOCK
  5
20
330
1F
100
AcDbEntity
  8
0
100
AcDbBlockBegin
  2
*Model_Space
 70
     0
 10
0.0
 20
0.0
 30
0.0
  3
*Model_Space
  1

  0
ENDBLK
  5
21
330
1F
100
AcDbEntity
  8
0
100
AcDbBlockEnd
  0
BLOCK
  5
1C
330
1B
100
AcDbEntity
 67
     1
  8
0
100
AcDbBlockBegin
  2
*Paper_Space
 70
     0
 10
0.0
 20
0.0
 30
0.0
  3
*Paper_Space
  1

  0
ENDBLK
  5
1D
330
1B
100
AcDbEntity
 67
     1
  8
0
100
AcDbBlockEnd
  0
BLOCK
  5
24
330
23
100
AcDbEntity
  8
0
100
AcDbBlockBegin
  2
*Paper_Space0
 70
     0
 10
0.0
 20
0.0
 30
0.0
  3
*Paper_Space0
  1

  0
ENDBLK
  5
25
330
23
100
AcDbEntity
  8
0
100
AcDbBlockEnd
  0
BLOCK
  5
D2
330
D0
100
AcDbEntity
  8
0
100
AcDbBlockBegin
  2
_DotSmall
 70
     0
 10
0.0
 20
0.0
 30
0.0
  3
_DotSmall
  1

  0
LWPOLYLINE
  5
D1
330
D0
100
AcDbEntity
  8
0
 62
     0
100
AcDbPolyline
 90
        2
 70
     1
 43
0.5
 10
-0.0625
 20
0.0
 42
1.0
 10
0.0625
 20
0.0
 42
1.0
  0
ENDBLK
  5
D3
330
D0
100
AcDbEntity
  8
0
100
AcDbBlockEnd
  0
BLOCK
  5
D8
330
D4
100
AcDbEntity
  8
0
100
AcDbBlockBegin
  2
_Origin2
 70
     0
 10
0.0
 20
0.0
 30
0.0
  3
_Origin2
  1

  0
CIRCLE
  5
D5
330
D4
100
AcDbEntity
  8
0
 62
     0
370
    -2
100
AcDbCircle
 10
0.0
 20
0.0
 30
0.0
 40
0.5
  0
CIRCLE
  5
D6
330
D4
100
AcDbEntity
  8
0
 62
     0
370
    -2
100
AcDbCircle
 10
0.0
 20
0.0
 30
0.0
 40
0.25
  0
LINE
  5
D7
330
D4
100
AcDbEntity
  8
0
 62
     0
370
    -2
100
AcDbLine
 10
-0.5
 20
0.0
 30
0.0
 11
-1.0
 21
0.0
 31
0.0
  0
ENDBLK
  5
D9
330
D4
100
AcDbEntity
  8
0
100
AcDbBlockEnd
  0
BLOCK
  5
DE
330
DA
100
AcDbEntity
  8
0
100
AcDbBlockBegin
  2
_Open30
 70
     0
 10
0.0
 20
0.0
 30
0.0
  3
_Open30
  1

  0
LINE
  5
DB
330
DA
100
AcDbEntity
  8
0
 62
     0
370
    -2
100
AcDbLine
 10
-1.0
 20
0.26794919
 30
0.0
 11
0.0
 21
0.0
 31
0.0
  0
LINE
  5
DC
330
DA
100
AcDbEntity
  8
0
 62
     0
370
    -2
100
AcDbLine
 10
0.0
 20
0.0
 30
0.0
 11
-1.0
 21
-0.26794919
 31
0.0
  0
LINE
  5
DD
330
DA
100
AcDbEntity
  8
0
 62
     0
370
    -2
100
AcDbLine
 10
0.0
 20
0.0
 30
0.0
 11
-1.0
 21
0.0
 31
0.0
  0
ENDBLK
  5
DF
330
DA
100
AcDbEntity
  8
0
100
AcDbBlockEnd
  0
BLOCK
  5
2F5
330
2EA
100
AcDbEntity
  8
0
100
AcDbBlockBegin
  2
*D4
 70
     1
 10
0.0
 20
0.0
 30
0.0
  3
*D4
  1

  0
LINE
  5
1B4E
330
2EA
100
AcDbEntity
  8
0
 62
     0
370
    15
100
AcDbLine
 10
1163.200257468314
 20
1067.548709174261
 30
0.0
 11
1163.200257468314
 21
1015.640937379544
 31
0.0
  0
LINE
  5
1B4F
330
2EA
100
AcDbEntity
  8
0
 62
     0
370
    15
100
AcDbLine
 10
1146.200257468314
 20
1067.548709174261
 30
0.0
 11
1146.200257468314
 21
1015.640937379544
 31
0.0
  0
LINE
  5
1B50
330
2EA
100
AcDbEntity
  8
0
 62
     0
370
    15
100
AcDbLine
 10
1163.200257468314
 20
1015.640937379544
 30
0.0
 11
1146.200257468314
 21
1015.640937379544
 31
0.0
  0
LINE
  5
1B51
330
2EA
100
AcDbEntity
  8
0
 62
     0
370
    15
100
AcDbLine
 10
1146.200257468314
 20
1015.640937379544
 30
0.0
 11
1070.36692413498
 21
1015.640937379544
 31
0.0
  0
INSERT
  5
1B52
330
2EA
100
AcDbEntity
  8
0
 62
     0
370
    15
100
AcDbBlockReference
  2
_DotSmall
 10
1163.200257468314
 20
1015.640937379544
 30
0.0
 41
30.0
 42
30.0
 43
30.0
  0
INSERT
  5
1B53
330
2EA
100
AcDbEntity
  8
0
 62
     0
370
    15
100
AcDbBlockReference
  2
_DotSmall
 10
1146.200257468314
 20
1015.640937379544
 30
0.0
 41
30.0
 42
30.0
 43
30.0
 50
180.0
  0
MTEXT
  5
1B54
330
2EA
100
AcDbEntity
  8
0
 62
     0
100
AcDbMText
 10
1093.283590801647
 20
1034.390937379544
 30
0.0
 40
25.0
 41
0.0
 71
     5
 72
     1
  1
17
 73
     1
 44
1.0
1001
ACAD
1000
MTEXTBEGIN
1070
    73
1070
     1
1070
    44
1040
1.0
1070
    74
1070
     0
1000
MTEXTEND
  0
POINT
  5
1B55
330
2EA
100
AcDbEntity
  8
Defpoints
 62
     0
100
AcDbPoint
 10
1163.200257468314
 20
1132.54870917426
 30
0.0
  0
POINT
  5
1B56
330
2EA
100
AcDbEntity
  8
Defpoints
 62
     0
100
AcDbPoint
 10
1146.200257468314
 20
1132.54870917426
 30
0.0
  0
POINT
  5
1B57
330
2EA
100
AcDbEntity
  8
Defpoints
 62
     0
100
AcDbPoint
 10
1146.200257468314
 20
1015.640937379544
 30
0.0
  0
ENDBLK
  5
2F6
330
2EA
100
AcDbEntity
  8
0
100
AcDbBlockEnd
  0
BLOCK
  5
302
330
2F8
100
AcDbEntity
  8
0
100
AcDbBlockBegin
  2
*D5
 70
     1
 10
0.0
 20
0.0
 30
0.0
  3
*D5
  1

  0
LINE
  5
1B58
330
2F8
100
AcDbEntity
  8
0
 62
     0
370
    15
100
AcDbLine
 10
1146.200257468314
 20
1067.548709174261
 30
0.0
 11
1146.200257468314
 21
1015.640937379544
 31
0.0
  0
LINE
  5
1B59
330
2F8
100
AcDbEntity
  8
0
 62
     0
370
    15
100
AcDbLine
 10
496.2002574683138
 20
1067.548709174261
 30
0.0
 11
496.2002574683138
 21
1015.640937379544
 31
0.0
  0
LINE
  5
1B5A
330
2F8
100
AcDbEntity
  8
0
 62
     0
370
    15
100
AcDbLine
 10
1146.200257468314
 20
1015.640937379544
 30
0.0
 11
496.2002574683138
 21
1015.640937379544
 31
0.0
  0
INSERT
  5
1B5B
330
2F8
100
AcDbEntity
  8
0
 62
     0
370
    15
100
AcDbBlockReference
  2
_DotSmall
 10
1146.200257468314
 20
1015.640937379544
 30
0.0
 41
30.0
 42
30.0
 43
30.0
  0
INSERT
  5
1B5C
330
2F8
100
AcDbEntity
  8
0
 62
     0
370
    15
100
AcDbBlockReference
  2
_DotSmall
 10
496.2002574683138
 20
1015.640937379544
 30
0.0
 41
30.0
 42
30.0
 43
30.0
 50
180.0
  0
MTEXT
  5
1B5D
330
2F8
100
AcDbEntity
  8
0
 62
     0
100
AcDbMText
 10
821.2002574683138
 20
1034.390937379544
 30
0.0
 40
25.0
 41
0.0
 71
     5
 72
     1
  1
650
 73
     1
 44
1.0
1001
ACAD
1000
MTEXTBEGIN
1070
    73
1070
     1
1070
    44
1040
1.0
1070
    74
1070
     0
1000
MTEXTEND
  0
POINT
  5
1B5E
330
2F8
100
AcDbEntity
  8
Defpoints
 62
     0
100
AcDbPoint
 10
1146.200257468314
 20
1132.54870917426
 30
0.0
  0
POINT
  5
1B5F
330
2F8
100
AcDbEntity
  8
Defpoints
 62
     0
100
AcDbPoint
 10
496.2002574683138
 20
1132.54870917426
 30
0.0
  0
POINT
  5
1B60
330
2F8
100
AcDbEntity
  8
Defpoints
 62
     0
100
AcDbPoint
 10
496.2002574683138
 20
1015.640937379544
 30
0.0
  0
ENDBLK
  5
303
330
2F8
100
AcDbEntity
  8
0
100
AcDbBlockEnd
  0
BLOCK
  5
311
330
305
100
AcDbEntity
  8
0
100
AcDbBlockBegin
  2
*D6
 70
     1
 10
0.0
 20
0.0
 30
0.0
  3
*D6
  1

  0
LINE
  5
1B61
330
305
100
AcDbEntity
  8
0
 62
     0
370
    15
100
AcDbLine
 10
496.2002574683138
 20
1067.548709174261
 30
0.0
 11
496.2002574683138
 21
1015.640937379544
 31
0.0
  0
LINE
  5
1B62
330
305
100
AcDbEntity
  8
0
 62
     0
370
    15
100
AcDbLine
 10
479.2002574683137
 20
1067.548709174261
 30
0.0
 11
479.2002574683137
 21
1015.640937379544
 31
0.0
  0
LINE
  5
1B63
330
305
100
AcDbEntity
  8
0
 62
     0
370
    15
100
AcDbLine
 10
496.2002574683138
 20
1015.640937379544
 30
0.0
 11
479.2002574683137
 21
1015.640937379544
 31
0.0
  0
MTEXT
  5
1B64
330
305
100
AcDbEntity
  8
0
 62
     0
100
AcDbMText
 10
539.6584730527702
 20
1034.390937379544
 30
0.0
 40
25.0
 41
0.0
 71
     5
 72
     1
  1
17
 73
     1
 44
1.0
1001
ACAD
1000
MTEXTBEGIN
1070
    73
1070
     1
1070
    44
1040
1.0
1070
    74
1070
     0
1000
MTEXTEND
  0
INSERT
  5
1B65
330
305
100
AcDbEntity
  8
0
 62
     0
370
    15
100
AcDbBlockReference
  2
_DotSmall
 10
496.2002574683138
 20
1015.640937379544
 30
0.0
 41
30.0
 42
30.0
 43
30.0
  0
INSERT
  5
1B66
330
305
100
AcDbEntity
  8
0
 62
     0
370
    15
100
AcDbBlockReference
  2
_DotSmall
 10
479.2002574683137
 20
1015.640937379544
 30
0.0
 41
30.0
 42
30.0
 43
30.0
 50
180.0
  0
POINT
  5
1B67
330
305
100
AcDbEntity
  8
Defpoints
 62
     0
100
AcDbPoint
 10
496.2002574683138
 20
1132.54870917426
 30
0.0
  0
POINT
  5
1B68
330
305
100
AcDbEntity
  8
Defpoints
 62
     0
100
AcDbPoint
 10
479.2002574683137
 20
1132.54870917426
 30
0.0
  0
POINT
  5
1B69
330
305
100
AcDbEntity
  8
Defpoints
 62
     0
100
AcDbPoint
 10
479.2002574683137
 20
1015.640937379544
 30
0.0
  0
ENDBLK
  5
312
330
305
100
AcDbEntity
  8
0
100
AcDbBlockEnd
  0
BLOCK
  5
327
330
31D
100
AcDbEntity
  8
0
100
AcDbBlockBegin
  2
*D7
 70
     1
 10
0.0
 20
0.0
 30
0.0
  3
*D7
  1

  0
LINE
  5
1B6A
330
31D
100
AcDbEntity
  8
0
 62
     0
370
    15
100
AcDbLine
 10
1163.200257468314
 20
1067.548709174261
 30
0.0
 11
1163.200257468314
 21
945.282165424337
 31
0.0
  0
LINE
  5
1B6B
330
31D
100
AcDbEntity
  8
0
 62
     0
370
    15
100
AcDbLine
 10
479.2002574683137
 20
1067.548709174261
 30
0.0
 11
479.2002574683137
 21
945.282165424337
 31
0.0
  0
LINE
  5
1B6C
330
31D
100
AcDbEntity
  8
0
 62
     0
370
    15
100
AcDbLine
 10
1163.200257468314
 20
945.282165424337
 30
0.0
 11
479.2002574683137
 21
945.282165424337
 31
0.0
  0
INSERT
  5
1B6D
330
31D
100
AcDbEntity
  8
0
 62
     0
370
    15
100
AcDbBlockReference
  2
_DotSmall
 10
1163.200257468314
 20
945.282165424337
 30
0.0
 41
30.0
 42
30.0
 43
30.0
  0
INSERT
  5
1B6E
330
31D
100
AcDbEntity
  8
0
 62
     0
370
    15
100
AcDbBlockReference
  2
_DotSmall
 10
479.2002574683137
 20
945.282165424337
 30
0.0
 41
30.0
 42
30.0
 43
30.0
 50
180.0
  0
MTEXT
  5
1B6F
330
31D
100
AcDbEntity
  8
0
 62
     0
100
AcDbMText
 10
821.2002574683138
 20
964.032165424337
 30
0.0
 40
25.0
 41
0.0
 71
     5
 72
     1
  1
684
 73
     1
 44
1.0
1001
ACAD
1000
MTEXTBEGIN
1070
    73
1070
     1
1070
    44
1040
1.0
1070
    74
1070
     0
1000
MTEXTEND
  0
POINT
  5
1B70
330
31D
100
AcDbEntity
  8
Defpoints
 62
     0
100
AcDbPoint
 10
1163.200257468314
 20
1132.54870917426
 30
0.0
  0
POINT
  5
1B71
330
31D
100
AcDbEntity
  8
Defpoints
 62
     0
100
AcDbPoint
 10
479.2002574683137
 20
1132.54870917426
 30
0.0
  0
POINT
  5
1B72
330
31D
100
AcDbEntity
  8
Defpoints
 62
     0
100
AcDbPoint
 10
479.2002574683137
 20
945.282165424337
 30
0.0
  0
ENDBLK
  5
328
330
31D
100
AcDbEntity
  8
0
100
AcDbBlockEnd
  0
BLOCK
  5
381
330
377
100
AcDbEntity
  8
0
100
AcDbBlockBegin
  2
*D8
 70
     1
 10
0.0
 20
0.0
 30
0.0
  3
*D8
  1

  0
LINE
  5
1B73
330
377
100
AcDbEntity
  8
0
 62
     0
370
    15
100
AcDbLine
 10
896.2002574683138
 20
1396.291620983482
 30
0.0
 11
896.2002574683138
 21
1302.011631232046
 31
0.0
  0
LINE
  5
1B74
330
377
100
AcDbEntity
  8
0
 62
     0
370
    15
100
AcDbLine
 10
1146.200257468314
 20
1414.548709174261
 30
0.0
 11
1146.200257468314
 21
1302.011631232046
 31
0.0
  0
LINE
  5
1B75
330
377
100
AcDbEntity
  8
0
 62
     0
370
    15
100
AcDbLine
 10
896.2002574683138
 20
1302.011631232046
 30
0.0
 11
1146.200257468314
 21
1302.011631232046
 31
0.0
  0
INSERT
  5
1B76
330
377
100
AcDbEntity
  8
0
 62
     0
370
    15
100
AcDbBlockReference
  2
_DotSmall
 10
896.2002574683138
 20
1302.011631232046
 30
0.0
 41
30.0
 42
30.0
 43
30.0
 50
180.0
  0
INSERT
  5
1B77
330
377
100
AcDbEntity
  8
0
 62
     0
370
    15
100
AcDbBlockReference
  2
_DotSmall
 10
1146.200257468314
 20
1302.011631232046
 30
0.0
 41
30.0
 42
30.0
 43
30.0
  0
MTEXT
  5
1B78
330
377
100
AcDbEntity
  8
0
 62
     0
100
AcDbMText
 10
1021.200257468314
 20
1320.761631232046
 30
0.0
 40
25.0
 41
0.0
 71
     5
 72
     1
  1
250
 73
     1
 44
1.0
1001
ACAD
1000
MTEXTBEGIN
1070
    73
1070
     1
1070
    44
1040
1.0
1070
    74
1070
     0
1000
MTEXTEND
  0
POINT
  5
1B79
330
377
100
AcDbEntity
  8
Defpoints
 62
     0
100
AcDbPoint
 10
896.2002574683138
 20
1461.291620983482
 30
0.0
  0
POINT
  5
1B7A
330
377
100
AcDbEntity
  8
Defpoints
 62
     0
100
AcDbPoint
 10
1146.200257468314
 20
1479.548709174261
 30
0.0
  0
POINT
  5
1B7B
330
377
100
AcDbEntity
  8
Defpoints
 62
     0
100
AcDbPoint
 10
1146.200257468314
 20
1302.011631232046
 30
0.0
  0
ENDBLK
  5
382
330
377
100
AcDbEntity
  8
0
100
AcDbBlockEnd
  0
BLOCK
  5
38F
330
385
100
AcDbEntity
  8
0
100
AcDbBlockBegin
  2
*D9
 70
     1
 10
0.0
 20
0.0
 30
0.0
  3
*D9
  1

  0
LINE
  5
1B7C
330
385
100
AcDbEntity
  8
0
 62
     0
370
    15
100
AcDbLine
 10
769.6399737126284
 20
1499.54870917426
 30
0.0
 11
735.7927551938753
 21
1499.54870917426
 31
0.0
  0
LINE
  5
1B7D
330
385
100
AcDbEntity
  8
0
 62
     0
370
    15
100
AcDbLine
 10
1021.200257468313
 20
1669.548709174261
 30
0.0
 11
735.7927551938753
 21
1669.548709174261
 31
0.0
  0
LINE
  5
1B7E
330
385
100
AcDbEntity
  8
0
 62
     0
370
    15
100
AcDbLine
 10
735.7927551938753
 20
1499.54870917426
 30
0.0
 11
735.7927551938753
 21
1669.548709174261
 31
0.0
  0
INSERT
  5
1B7F
330
385
100
AcDbEntity
  8
0
 62
     0
370
    15
100
AcDbBlockReference
  2
_DotSmall
 10
735.7927551938753
 20
1499.54870917426
 30
0.0
 41
30.0
 42
30.0
 43
30.0
 50
270.0
  0
INSERT
  5
1B80
330
385
100
AcDbEntity
  8
0
 62
     0
370
    15
100
AcDbBlockReference
  2
_DotSmall
 10
735.7927551938753
 20
1669.548709174261
 30
0.0
 41
30.0
 42
30.0
 43
30.0
 50
90.0
  0
MTEXT
  5
1B81
330
385
100
AcDbEntity
  8
0
 62
     0
100
AcDbMText
 10
717.042755193875
 20
1553.099103425388
 30
0.0
 40
25.0
 41
0.0
 71
     5
 72
     1
  1
170
 11
0.0000000000000001
 21
1.0
 31
0.0
 73
     1
 44
1.0
1001
ACAD
1000
MTEXTBEGIN
1070
    73
1070
     1
1070
    44
1040
1.0
1070
    74
1070
     0
1000
MTEXTEND
  0
POINT
  5
1B82
330
385
100
AcDbEntity
  8
Defpoints
 62
     0
100
AcDbPoint
 10
834.6399737126285
 20
1499.54870917426
 30
0.0
  0
POINT
  5
1B83
330
385
100
AcDbEntity
  8
Defpoints
 62
     0
100
AcDbPoint
 10
1086.200257468314
 20
1669.548709174261
 30
0.0
  0
POINT
  5
1B84
330
385
100
AcDbEntity
  8
Defpoints
 62
     0
100
AcDbPoint
 10
735.7927551938753
 20
1669.548709174261
 30
0.0
  0
ENDBLK
  5
390
330
385
100
AcDbEntity
  8
0
100
AcDbBlockEnd
  0
BLOCK
  5
47E
330
474
100
AcDbEntity
  8
0
100
AcDbBlockBegin
  2
*D10
 70
     1
 10
0.0
 20
0.0
 30
0.0
  3
*D10
  1

  0
LINE
  5
1B85
330
474
100
AcDbEntity
  8
0
 62
     0
370
    15
100
AcDbLine
 10
816.7002574683138
 20
520.0949995587961
 30
0.0
 11
816.7002574683138
 21
463.7005248607811
 31
0.0
  0
LINE
  5
1B86
330
474
100
AcDbEntity
  8
0
 62
     0
370
    15
100
AcDbLine
 10
975.700257468314
 20
520.0949995587964
 30
0.0
 11
975.700257468314
 21
463.7005248607811
 31
0.0
  0
LINE
  5
1B87
330
474
100
AcDbEntity
  8
0
 62
     0
370
    15
100
AcDbLine
 10
816.7002574683138
 20
463.7005248607811
 30
0.0
 11
975.700257468314
 21
463.7005248607811
 31
0.0
  0
INSERT
  5
1B88
330
474
100
AcDbEntity
  8
0
 62
     0
370
    15
100
AcDbBlockReference
  2
_DotSmall
 10
816.7002574683138
 20
463.7005248607811
 30
0.0
 41
30.0
 42
30.0
 43
30.0
 50
180.0
  0
INSERT
  5
1B89
330
474
100
AcDbEntity
  8
0
 62
     0
370
    15
100
AcDbBlockReference
  2
_DotSmall
 10
975.700257468314
 20
463.7005248607811
 30
0.0
 41
30.0
 42
30.0
 43
30.0
  0
MTEXT
  5
1B8A
330
474
100
AcDbEntity
  8
0
 62
     0
100
AcDbMText
 10
896.2002574683138
 20
482.4505248607811
 30
0.0
 40
25.0
 41
0.0
 71
     5
 72
     1
  1
158
 73
     1
 44
1.0
1001
ACAD
1000
MTEXTBEGIN
1070
    73
1070
     1
1070
    44
1040
1.0
1070
    74
1070
     0
1000
MTEXTEND
  0
POINT
  5
1B8B
330
474
100
AcDbEntity
  8
Defpoints
 62
     0
100
AcDbPoint
 10
816.7002574683138
 20
585.0949995587962
 30
0.0
  0
POINT
  5
1B8C
330
474
100
AcDbEntity
  8
Defpoints
 62
     0
100
AcDbPoint
 10
975.700257468314
 20
585.0949995587964
 30
0.0
  0
POINT
  5
1B8D
330
474
100
AcDbEntity
  8
Defpoints
 62
     0
100
AcDbPoint
 10
975.700257468314
 20
463.7005248607811
 30
0.0
  0
ENDBLK
  5
47F
330
474
100
AcDbEntity
  8
0
100
AcDbBlockEnd
  0
BLOCK
  5
48B
330
481
100
AcDbEntity
  8
0
100
AcDbBlockBegin
  2
*D11
 70
     1
 10
0.0
 20
0.0
 30
0.0
  3
*D11
  1

  0
LINE
  5
20EE
330
481
100
AcDbEntity
  8
0
 62
     0
370
    15
100
AcDbLine
 10
805.7002574683137
 20
616.9815140432119
 30
0.0
 11
805.7002574683137
 21
654.1345385811837
 31
0.0
  0
LINE
  5
20EF
330
481
100
AcDbEntity
  8
0
 62
     0
370
    15
100
AcDbLine
 10
986.7002574683137
 20
616.981514043212
 30
0.0
 11
986.7002574683137
 21
654.1345385811837
 31
0.0
  0
LINE
  5
20F0
330
481
100
AcDbEntity
  8
0
 62
     0
370
    15
100
AcDbLine
 10
805.7002574683137
 20
654.1345385811837
 30
0.0
 11
986.7002574683137
 21
654.1345385811837
 31
0.0
  0
INSERT
  5
20F1
330
481
100
AcDbEntity
  8
0
 62
     0
370
    15
100
AcDbBlockReference
  2
_DotSmall
 10
805.7002574683137
 20
654.1345385811837
 30
0.0
 41
30.0
 42
30.0
 43
30.0
 50
180.0
  0
INSERT
  5
20F2
330
481
100
AcDbEntity
  8
0
 62
     0
370
    15
100
AcDbBlockReference
  2
_DotSmall
 10
986.7002574683137
 20
654.1345385811837
 30
0.0
 41
30.0
 42
30.0
 43
30.0
  0
MTEXT
  5
20F3
330
481
100
AcDbEntity
  8
0
 62
     0
100
AcDbMText
 10
896.2002574683138
 20
672.8845385811837
 30
0.0
 40
25.0
 41
0.0
 71
     5
 72
     1
  1
181
 73
     1
 44
1.0
1001
ACAD
1000
MTEXTBEGIN
1070
    73
1070
     1
1070
    44
1040
1.0
1070
    74
1070
     0
1000
MTEXTEND
  0
POINT
  5
20F4
330
481
100
AcDbEntity
  8
Defpoints
 62
     0
100
AcDbPoint
 10
805.7002574683137
 20
551.9815140432119
 30
0.0
  0
POINT
  5
20F5
330
481
100
AcDbEntity
  8
Defpoints
 62
     0
100
AcDbPoint
 10
986.7002574683137
 20
551.9815140432121
 30
0.0
  0
POINT
  5
20F6
330
481
100
AcDbEntity
  8
Defpoints
 62
     0
100
AcDbPoint
 10
986.7002574683137
 20
654.1345385811837
 30
0.0
  0
ENDBLK
  5
48C
330
481
100
AcDbEntity
  8
0
100
AcDbBlockEnd
  0
BLOCK
  5
593
330
587
100
AcDbEntity
  8
0
100
AcDbBlockBegin
  2
*D12
 70
     1
 10
0.0
 20
0.0
 30
0.0
  3
*D12
  1

  0
LINE
  5
1B97
330
587
100
AcDbEntity
  8
0
 62
     0
370
    15
100
AcDbLine
 10
1042.945321444412
 20
1654.54870917426
 30
0.0
 11
1053.972818039954
 21
1654.54870917426
 31
0.0
  0
LINE
  5
1B98
330
587
100
AcDbEntity
  8
0
 62
     0
370
    15
100
AcDbLine
 10
1026.200257468314
 20
1669.548709174261
 30
0.0
 11
1053.972818039954
 21
1669.548709174261
 31
0.0
  0
LINE
  5
1B99
330
587
100
AcDbEntity
  8
0
 62
     0
370
    15
100
AcDbLine
 10
1053.972818039954
 20
1654.54870917426
 30
0.0
 11
1053.972818039954
 21
1669.548709174261
 31
0.0
  0
MTEXT
  5
1B9A
330
587
100
AcDbEntity
  8
0
 62
     0
100
AcDbMText
 10
1056.215904464663
 20
1710.006567658332
 30
0.0
 40
25.0
 41
0.0
 71
     5
 72
     1
  1
15
 11
0.0000000000000001
 21
1.0
 31
0.0
 73
     1
 44
1.0
1001
ACAD
1000
MTEXTBEGIN
1070
    73
1070
     1
1070
    44
1040
1.0
1070
    74
1070
     0
1000
MTEXTEND
  0
INSERT
  5
1B9B
330
587
100
AcDbEntity
  8
0
 62
     0
370
    15
100
AcDbBlockReference
  2
_DotSmall
 10
1053.972818039954
 20
1654.54870917426
 30
0.0
 41
30.0
 42
30.0
 43
30.0
 50
270.0
  0
INSERT
  5
1B9C
330
587
100
AcDbEntity
  8
0
 62
     0
370
    15
100
AcDbBlockReference
  2
_DotSmall
 10
1053.972818039954
 20
1669.548709174261
 30
0.0
 41
30.0
 42
30.0
 43
30.0
 50
90.0
  0
POINT
  5
1B9D
330
587
100
AcDbEntity
  8
Defpoints
 62
     0
100
AcDbPoint
 10
977.9453214444119
 20
1654.54870917426
 30
0.0
  0
POINT
  5
1B9E
330
587
100
AcDbEntity
  8
Defpoints
 62
     0
100
AcDbPoint
 10
961.2002574683138
 20
1669.548709174261
 30
0.0
  0
POINT
  5
1B9F
330
587
100
AcDbEntity
  8
Defpoints
 62
     0
100
AcDbPoint
 10
1053.972818039954
 20
1669.548709174261
 30
0.0
  0
ENDBLK
  5
594
330
587
100
AcDbEntity
  8
0
100
AcDbBlockEnd
  0
BLOCK
  5
E8C
330
E82
100
AcDbEntity
  8
0
100
AcDbBlockBegin
  2
*D13
 70
     1
 10
0.0
 20
0.0
 30
0.0
  3
*D13
  1

  0
LINE
  5
2117
330
E82
100
AcDbEntity
  8
実形
 62
     0
370
    15
100
AcDbLine
 10
805.7002574683137
 20
616.9815140432119
 30
0.0
 11
805.7002574683137
 21
654.1345385811837
 31
0.0
  0
LINE
  5
2118
330
E82
100
AcDbEntity
  8
実形
 62
     0
370
    15
100
AcDbLine
 10
785.7002574683138
 20
616.9815140432121
 30
0.0
 11
785.7002574683138
 21
654.1345385811837
 31
0.0
  0
LINE
  5
2119
330
E82
100
AcDbEntity
  8
実形
 62
     0
370
    15
100
AcDbLine
 10
805.7002574683137
 20
654.1345385811837
 30
0.0
 11
785.7002574683138
 21
654.1345385811837
 31
0.0
  0
MTEXT
  5
211A
330
E82
100
AcDbEntity
  8
実形
 62
     0
100
AcDbMText
 10
796.1498830888231
 20
677.3942275513641
 30
0.0
 40
25.0
 41
0.0
 71
     5
 72
     1
  1
20
 73
     1
 44
1.0
1001
ACAD
1000
MTEXTBEGIN
1070
    73
1070
     1
1070
    44
1040
1.0
1070
    74
1070
     0
1000
MTEXTEND
  0
INSERT
  5
211B
330
E82
100
AcDbEntity
  8
実形
 62
     0
370
    15
100
AcDbBlockReference
  2
_DotSmall
 10
805.7002574683137
 20
654.1345385811837
 30
0.0
 41
30.0
 42
30.0
 43
30.0
  0
INSERT
  5
211C
330
E82
100
AcDbEntity
  8
実形
 62
     0
370
    15
100
AcDbBlockReference
  2
_DotSmall
 10
785.7002574683138
 20
654.1345385811837
 30
0.0
 41
30.0
 42
30.0
 43
30.0
 50
180.0
  0
POINT
  5
211D
330
E82
100
AcDbEntity
  8
Defpoints
 62
     0
100
AcDbPoint
 10
805.7002574683137
 20
551.9815140432119
 30
0.0
  0
POINT
  5
211E
330
E82
100
AcDbEntity
  8
Defpoints
 62
     0
100
AcDbPoint
 10
785.7002574683138
 20
551.9815140432122
 30
0.0
  0
POINT
  5
211F
330
E82
100
AcDbEntity
  8
Defpoints
 62
     0
100
AcDbPoint
 10
785.7002574683138
 20
654.1345385811837
 30
0.0
  0
ENDBLK
  5
E8D
330
E82
100
AcDbEntity
  8
0
100
AcDbBlockEnd
  0
BLOCK
  5
E99
330
E8F
100
AcDbEntity
  8
0
100
AcDbBlockBegin
  2
*D14
 70
     1
 10
0.0
 20
0.0
 30
0.0
  3
*D14
  1

  0
LINE
  5
212B
330
E8F
100
AcDbEntity
  8
実形
 62
     0
370
    15
100
AcDbLine
 10
986.7002574683137
 20
616.981514043212
 30
0.0
 11
986.7002574683137
 21
654.1345385811837
 31
0.0
  0
LINE
  5
212C
330
E8F
100
AcDbEntity
  8
実形
 62
     0
370
    15
100
AcDbLine
 10
1006.700257468314
 20
616.9815140432121
 30
0.0
 11
1006.700257468314
 21
654.1345385811837
 31
0.0
  0
LINE
  5
212D
330
E8F
100
AcDbEntity
  8
実形
 62
     0
370
    15
100
AcDbLine
 10
986.7002574683137
 20
654.1345385811837
 30
0.0
 11
1006.700257468314
 21
654.1345385811837
 31
0.0
  0
MTEXT
  5
212E
330
E8F
100
AcDbEntity
  8
実形
 62
     0
100
AcDbMText
 10
997.5399771234815
 20
678.0455472960361
 30
0.0
 40
25.0
 41
0.0
 71
     5
 72
     1
  1
20
 73
     1
 44
1.0
1001
ACAD
1000
MTEXTBEGIN
1070
    73
1070
     1
1070
    44
1040
1.0
1070
    74
1070
     0
1000
MTEXTEND
  0
INSERT
  5
212F
330
E8F
100
AcDbEntity
  8
実形
 62
     0
370
    15
100
AcDbBlockReference
  2
_DotSmall
 10
986.7002574683137
 20
654.1345385811837
 30
0.0
 41
30.0
 42
30.0
 43
30.0
 50
180.0
  0
INSERT
  5
2130
330
E8F
100
AcDbEntity
  8
実形
 62
     0
370
    15
100
AcDbBlockReference
  2
_DotSmall
 10
1006.700257468314
 20
654.1345385811837
 30
0.0
 41
30.0
 42
30.0
 43
30.0
  0
POINT
  5
2131
330
E8F
100
AcDbEntity
  8
Defpoints
 62
     0
100
AcDbPoint
 10
986.7002574683137
 20
551.9815140432121
 30
0.0
  0
POINT
  5
2132
330
E8F
100
AcDbEntity
  8
Defpoints
 62
     0
100
AcDbPoint
 10
1006.700257468314
 20
551.9815140432122
 30
0.0
  0
POINT
  5
2133
330
E8F
100
AcDbEntity
  8
Defpoints
 62
     0
100
AcDbPoint
 10
1006.700257468314
 20
654.1345385811837
 30
0.0
  0
ENDBLK
  5
E9A
330
E8F
100
AcDbEntity
  8
0
100
AcDbBlockEnd
  0
BLOCK
  5
13F4
330
13EA
100
AcDbEntity
  8
0
100
AcDbBlockBegin
  2
*D15
 70
     1
 10
0.0
 20
0.0
 30
0.0
  3
*D15
  1

  0
LINE
  5
1BB2
330
13EA
100
AcDbEntity
  8
0
 62
     0
370
    15
100
AcDbLine
 10
414.2002574683139
 20
1132.54870917426
 30
0.0
 11
149.8806830789711
 21
1132.54870917426
 31
0.0
  0
LINE
  5
1BB3
330
13EA
100
AcDbEntity
  8
0
 62
     0
370
    15
100
AcDbLine
 10
414.2002574683139
 20
1686.54870917426
 30
0.0
 11
149.8806830789711
 21
1686.54870917426
 31
0.0
  0
LINE
  5
1BB4
330
13EA
100
AcDbEntity
  8
0
 62
     0
370
    15
100
AcDbLine
 10
149.880683078971
 20
1132.54870917426
 30
0.0
 11
149.8806830789711
 21
1686.54870917426
 31
0.0
  0
INSERT
  5
1BB5
330
13EA
100
AcDbEntity
  8
0
 62
     0
370
    15
100
AcDbBlockReference
  2
_DotSmall
 10
149.880683078971
 20
1132.54870917426
 30
0.0
 41
30.0
 42
30.0
 43
30.0
 50
270.0
  0
INSERT
  5
1BB6
330
13EA
100
AcDbEntity
  8
0
 62
     0
370
    15
100
AcDbBlockReference
  2
_DotSmall
 10
149.8806830789711
 20
1686.54870917426
 30
0.0
 41
30.0
 42
30.0
 43
30.0
 50
90.0
  0
MTEXT
  5
1BB7
330
13EA
100
AcDbEntity
  8
0
 62
     0
100
AcDbMText
 10
131.1306830789709
 20
1409.54870917426
 30
0.0
 40
25.0
 41
0.0
 71
     5
 72
     1
  1
554
 11
0.0000000000000001
 21
1.0
 31
0.0
 73
     1
 44
1.0
1001
ACAD
1000
MTEXTBEGIN
1070
    73
1070
     1
1070
    44
1040
1.0
1070
    74
1070
     0
1000
MTEXTEND
  0
POINT
  5
1BB8
330
13EA
100
AcDbEntity
  8
Defpoints
 62
     0
100
AcDbPoint
 10
479.200257468314
 20
1132.54870917426
 30
0.0
  0
POINT
  5
1BB9
330
13EA
100
AcDbEntity
  8
Defpoints
 62
     0
100
AcDbPoint
 10
479.200257468314
 20
1686.54870917426
 30
0.0
  0
POINT
  5
1BBA
330
13EA
100
AcDbEntity
  8
Defpoints
 62
     0
100
AcDbPoint
 10
149.8806830789711
 20
1686.54870917426
 30
0.0
  0
ENDBLK
  5
13F5
330
13EA
100
AcDbEntity
  8
0
100
AcDbBlockEnd
  0
BLOCK
  5
1400
330
13F6
100
AcDbEntity
  8
0
100
AcDbBlockBegin
  2
*D16
 70
     1
 10
0.0
 20
0.0
 30
0.0
  3
*D16
  1

  0
LINE
  5
1BBB
330
13F6
100
AcDbEntity
  8
0
 62
     0
370
    15
100
AcDbLine
 10
414.2002574683141
 20
1669.54870917426
 30
0.0
 11
219.3506830789712
 21
1669.54870917426
 31
0.0
  0
LINE
  5
1BBC
330
13F6
100
AcDbEntity
  8
0
 62
     0
370
    15
100
AcDbLine
 10
414.2002574683139
 20
1686.54870917426
 30
0.0
 11
219.3506830789712
 21
1686.54870917426
 31
0.0
  0
LINE
  5
1BBD
330
13F6
100
AcDbEntity
  8
0
 62
     0
370
    15
100
AcDbLine
 10
219.3506830789711
 20
1669.54870917426
 30
0.0
 11
219.3506830789711
 21
1686.54870917426
 31
0.0
  0
MTEXT
  5
1BBE
330
13F6
100
AcDbEntity
  8
0
 62
     0
100
AcDbMText
 10
189.1206228772482
 20
1660.205731221666
 30
0.0
 40
25.0
 41
0.0
 71
     5
 72
     1
  1
17
 11
0.0000000000000001
 21
1.0
 31
0.0
 73
     1
 44
1.0
1001
ACAD
1000
MTEXTBEGIN
1070
    73
1070
     1
1070
    44
1040
1.0
1070
    74
1070
     0
1000
MTEXTEND
  0
INSERT
  5
1BBF
330
13F6
100
AcDbEntity
  8
0
 62
     0
370
    15
100
AcDbBlockReference
  2
_DotSmall
 10
219.3506830789711
 20
1669.54870917426
 30
0.0
 41
30.0
 42
30.0
 43
30.0
 50
270.0
  0
INSERT
  5
1BC0
330
13F6
100
AcDbEntity
  8
0
 62
     0
370
    15
100
AcDbBlockReference
  2
_DotSmall
 10
219.3506830789711
 20
1686.54870917426
 30
0.0
 41
30.0
 42
30.0
 43
30.0
 50
90.0
  0
POINT
  5
1BC1
330
13F6
100
AcDbEntity
  8
Defpoints
 62
     0
100
AcDbPoint
 10
479.2002574683141
 20
1669.54870917426
 30
0.0
  0
POINT
  5
1BC2
330
13F6
100
AcDbEntity
  8
Defpoints
 62
     0
100
AcDbPoint
 10
479.200257468314
 20
1686.54870917426
 30
0.0
  0
POINT
  5
1BC3
330
13F6
100
AcDbEntity
  8
Defpoints
 62
     0
100
AcDbPoint
 10
219.3506830789711
 20
1686.54870917426
 30
0.0
  0
ENDBLK
  5
1401
330
13F6
100
AcDbEntity
  8
0
100
AcDbBlockEnd
  0
BLOCK
  5
140C
330
1402
100
AcDbEntity
  8
0
100
AcDbBlockBegin
  2
*D17
 70
     1
 10
0.0
 20
0.0
 30
0.0
  3
*D17
  1

  0
LINE
  5
1BC4
330
1402
100
AcDbEntity
  8
0
 62
     0
370
    15
100
AcDbLine
 10
414.2002574683139
 20
1149.54870917426
 30
0.0
 11
219.350683078971
 21
1149.54870917426
 31
0.0
  0
LINE
  5
1BC5
330
1402
100
AcDbEntity
  8
0
 62
     0
370
    15
100
AcDbLine
 10
414.2002574683141
 20
1669.54870917426
 30
0.0
 11
219.3506830789712
 21
1669.54870917426
 31
0.0
  0
LINE
  5
1BC6
330
1402
100
AcDbEntity
  8
0
 62
     0
370
    15
100
AcDbLine
 10
219.350683078971
 20
1149.54870917426
 30
0.0
 11
219.3506830789711
 21
1669.54870917426
 31
0.0
  0
INSERT
  5
1BC7
330
1402
100
AcDbEntity
  8
0
 62
     0
370
    15
100
AcDbBlockReference
  2
_DotSmall
 10
219.350683078971
 20
1149.54870917426
 30
0.0
 41
30.0
 42
30.0
 43
30.0
 50
270.0
  0
INSERT
  5
1BC8
330
1402
100
AcDbEntity
  8
0
 62
     0
370
    15
100
AcDbBlockReference
  2
_DotSmall
 10
219.3506830789711
 20
1669.54870917426
 30
0.0
 41
30.0
 42
30.0
 43
30.0
 50
90.0
  0
MTEXT
  5
1BC9
330
1402
100
AcDbEntity
  8
0
 62
     0
100
AcDbMText
 10
200.6006830789709
 20
1409.54870917426
 30
0.0
 40
25.0
 41
0.0
 71
     5
 72
     1
  1
520
 11
0.0000000000000001
 21
1.0
 31
0.0
 73
     1
 44
1.0
1001
ACAD
1000
MTEXTBEGIN
1070
    73
1070
     1
1070
    44
1040
1.0
1070
    74
1070
     0
1000
MTEXTEND
  0
POINT
  5
1BCA
330
1402
100
AcDbEntity
  8
Defpoints
 62
     0
100
AcDbPoint
 10
479.200257468314
 20
1149.54870917426
 30
0.0
  0
POINT
  5
1BCB
330
1402
100
AcDbEntity
  8
Defpoints
 62
     0
100
AcDbPoint
 10
479.2002574683141
 20
1669.54870917426
 30
0.0
  0
POINT
  5
1BCC
330
1402
100
AcDbEntity
  8
Defpoints
 62
     0
100
AcDbPoint
 10
219.3506830789711
 20
1669.54870917426
 30
0.0
  0
ENDBLK
  5
140D
330
1402
100
AcDbEntity
  8
0
100
AcDbBlockEnd
  0
BLOCK
  5
1418
330
140E
100
AcDbEntity
  8
0
100
AcDbBlockBegin
  2
*D18
 70
     1
 10
0.0
 20
0.0
 30
0.0
  3
*D18
  1

  0
LINE
  5
1BCD
330
140E
100
AcDbEntity
  8
0
 62
     0
370
    15
100
AcDbLine
 10
414.2002574683139
 20
1132.54870917426
 30
0.0
 11
219.3506830789712
 21
1132.54870917426
 31
0.0
  0
LINE
  5
1BCE
330
140E
100
AcDbEntity
  8
0
 62
     0
370
    15
100
AcDbLine
 10
414.2002574683139
 20
1149.54870917426
 30
0.0
 11
219.3506830789712
 21
1149.54870917426
 31
0.0
  0
LINE
  5
1BCF
330
140E
100
AcDbEntity
  8
0
 62
     0
370
    15
100
AcDbLine
 10
219.3506830789712
 20
1132.54870917426
 30
0.0
 11
219.3506830789712
 21
1149.54870917426
 31
0.0
  0
MTEXT
  5
1BD0
330
140E
100
AcDbEntity
  8
0
 62
     0
100
AcDbMText
 10
192.6916018218628
 20
1158.111996254988
 30
0.0
 40
25.0
 41
0.0
 71
     5
 72
     1
  1
17
 11
0.0000000000000001
 21
1.0
 31
0.0
 73
     1
 44
1.0
1001
ACAD
1000
MTEXTBEGIN
1070
    73
1070
     1
1070
    44
1040
1.0
1070
    74
1070
     0
1000
MTEXTEND
  0
INSERT
  5
1BD1
330
140E
100
AcDbEntity
  8
0
 62
     0
370
    15
100
AcDbBlockReference
  2
_DotSmall
 10
219.3506830789712
 20
1132.54870917426
 30
0.0
 41
30.0
 42
30.0
 43
30.0
 50
270.0
  0
INSERT
  5
1BD2
330
140E
100
AcDbEntity
  8
0
 62
     0
370
    15
100
AcDbBlockReference
  2
_DotSmall
 10
219.3506830789712
 20
1149.54870917426
 30
0.0
 41
30.0
 42
30.0
 43
30.0
 50
90.0
  0
POINT
  5
1BD3
330
140E
100
AcDbEntity
  8
Defpoints
 62
     0
100
AcDbPoint
 10
479.200257468314
 20
1132.54870917426
 30
0.0
  0
POINT
  5
1BD4
330
140E
100
AcDbEntity
  8
Defpoints
 62
     0
100
AcDbPoint
 10
479.200257468314
 20
1149.54870917426
 30
0.0
  0
POINT
  5
1BD5
330
140E
100
AcDbEntity
  8
Defpoints
 62
     0
100
AcDbPoint
 10
219.3506830789712
 20
1149.54870917426
 30
0.0
  0
ENDBLK
  5
1419
330
140E
100
AcDbEntity
  8
0
100
AcDbBlockEnd
  0
BLOCK
  5
1424
330
141A
100
AcDbEntity
  8
0
100
AcDbBlockBegin
  2
*D19
 70
     1
 10
0.0
 20
0.0
 30
0.0
  3
*D19
  1

  0
LINE
  5
1BD6
330
141A
100
AcDbEntity
  8
0
 62
     0
370
    15
100
AcDbLine
 10
414.2002574683139
 20
1164.548709174261
 30
0.0
 11
288.8206830789711
 21
1164.548709174261
 31
0.0
  0
LINE
  5
1BD7
330
141A
100
AcDbEntity
  8
0
 62
     0
370
    15
100
AcDbLine
 10
414.2002574683141
 20
1594.548709174261
 30
0.0
 11
288.8206830789711
 21
1594.548709174261
 31
0.0
  0
LINE
  5
1BD8
330
141A
100
AcDbEntity
  8
0
 62
     0
370
    15
100
AcDbLine
 10
288.8206830789711
 20
1164.548709174261
 30
0.0
 11
288.8206830789711
 21
1594.548709174261
 31
0.0
  0
INSERT
  5
1BD9
330
141A
100
AcDbEntity
  8
0
 62
     0
370
    15
100
AcDbBlockReference
  2
_DotSmall
 10
288.8206830789711
 20
1164.548709174261
 30
0.0
 41
30.0
 42
30.0
 43
30.0
 50
270.0
  0
INSERT
  5
1BDA
330
141A
100
AcDbEntity
  8
0
 62
     0
370
    15
100
AcDbBlockReference
  2
_DotSmall
 10
288.8206830789711
 20
1594.548709174261
 30
0.0
 41
30.0
 42
30.0
 43
30.0
 50
90.0
  0
MTEXT
  5
1BDB
330
141A
100
AcDbEntity
  8
0
 62
     0
100
AcDbMText
 10
270.0706830789708
 20
1379.548709174261
 30
0.0
 40
25.0
 41
0.0
 71
     5
 72
     1
  1
430
 11
0.0000000000000001
 21
1.0
 31
0.0
 73
     1
 44
1.0
1001
ACAD
1000
MTEXTBEGIN
1070
    73
1070
     1
1070
    44
1040
1.0
1070
    74
1070
     0
1000
MTEXTEND
  0
POINT
  5
1BDC
330
141A
100
AcDbEntity
  8
Defpoints
 62
     0
100
AcDbPoint
 10
479.200257468314
 20
1164.548709174261
 30
0.0
  0
POINT
  5
1BDD
330
141A
100
AcDbEntity
  8
Defpoints
 62
     0
100
AcDbPoint
 10
479.2002574683141
 20
1594.548709174261
 30
0.0
  0
POINT
  5
1BDE
330
141A
100
AcDbEntity
  8
Defpoints
 62
     0
100
AcDbPoint
 10
288.8206830789711
 20
1594.548709174261
 30
0.0
  0
ENDBLK
  5
1425
330
141A
100
AcDbEntity
  8
0
100
AcDbBlockEnd
  0
BLOCK
  5
1430
330
1426
100
AcDbEntity
  8
0
100
AcDbBlockBegin
  2
*D20
 70
     1
 10
0.0
 20
0.0
 30
0.0
  3
*D20
  1

  0
LINE
  5
1BDF
330
1426
100
AcDbEntity
  8
0
 62
     0
370
    15
100
AcDbLine
 10
414.2002574683141
 20
1594.548709174261
 30
0.0
 11
288.8206830789711
 21
1594.548709174261
 31
0.0
  0
LINE
  5
1BE0
330
1426
100
AcDbEntity
  8
0
 62
     0
370
    15
100
AcDbLine
 10
414.2002574683141
 20
1669.54870917426
 30
0.0
 11
288.8206830789711
 21
1669.54870917426
 31
0.0
  0
LINE
  5
1BE1
330
1426
100
AcDbEntity
  8
0
 62
     0
370
    15
100
AcDbLine
 10
288.8206830789711
 20
1594.548709174261
 30
0.0
 11
288.8206830789711
 21
1669.54870917426
 31
0.0
  0
INSERT
  5
1BE2
330
1426
100
AcDbEntity
  8
0
 62
     0
370
    15
100
AcDbBlockReference
  2
_DotSmall
 10
288.8206830789711
 20
1594.548709174261
 30
0.0
 41
30.0
 42
30.0
 43
30.0
 50
270.0
  0
INSERT
  5
1BE3
330
1426
100
AcDbEntity
  8
0
 62
     0
370
    15
100
AcDbBlockReference
  2
_DotSmall
 10
288.8206830789711
 20
1669.54870917426
 30
0.0
 41
30.0
 42
30.0
 43
30.0
 50
90.0
  0
MTEXT
  5
1BE4
330
1426
100
AcDbEntity
  8
0
 62
     0
100
AcDbMText
 10
270.0706830789708
 20
1632.04870917426
 30
0.0
 40
25.0
 41
0.0
 71
     5
 72
     1
  1
75
 11
0.0000000000000001
 21
1.0
 31
0.0
 73
     1
 44
1.0
1001
ACAD
1000
MTEXTBEGIN
1070
    73
1070
     1
1070
    44
1040
1.0
1070
    74
1070
     0
1000
MTEXTEND
  0
POINT
  5
1BE5
330
1426
100
AcDbEntity
  8
Defpoints
 62
     0
100
AcDbPoint
 10
479.2002574683141
 20
1594.548709174261
 30
0.0
  0
POINT
  5
1BE6
330
1426
100
AcDbEntity
  8
Defpoints
 62
     0
100
AcDbPoint
 10
479.2002574683141
 20
1669.54870917426
 30
0.0
  0
POINT
  5
1BE7
330
1426
100
AcDbEntity
  8
Defpoints
 62
     0
100
AcDbPoint
 10
288.8206830789711
 20
1669.54870917426
 30
0.0
  0
ENDBLK
  5
1431
330
1426
100
AcDbEntity
  8
0
100
AcDbBlockEnd
  0
BLOCK
  5
143D
330
1432
100
AcDbEntity
  8
0
100
AcDbBlockBegin
  2
*D21
 70
     1
 10
0.0
 20
0.0
 30
0.0
  3
*D21
  1

  0
LINE
  5
1BE8
330
1432
100
AcDbEntity
  8
0
 62
     0
370
    15
100
AcDbLine
 10
414.2002574683139
 20
1149.54870917426
 30
0.0
 11
288.8206830789711
 21
1149.54870917426
 31
0.0
  0
LINE
  5
1BE9
330
1432
100
AcDbEntity
  8
0
 62
     0
370
    15
100
AcDbLine
 10
414.2002574683139
 20
1164.548709174261
 30
0.0
 11
288.8206830789711
 21
1164.548709174261
 31
0.0
  0
LINE
  5
1BEA
330
1432
100
AcDbEntity
  8
0
 62
     0
370
    15
100
AcDbLine
 10
288.8206830789711
 20
1149.54870917426
 30
0.0
 11
288.8206830789711
 21
1164.548709174261
 31
0.0
  0
LINE
  5
1BEB
330
1432
100
AcDbEntity
  8
0
 62
     0
370
    15
100
AcDbLine
 10
288.8206830789711
 20
1164.548709174261
 30
0.0
 11
288.8206830789711
 21
1240.382042507594
 31
0.0
  0
INSERT
  5
1BEC
330
1432
100
AcDbEntity
  8
0
 62
     0
370
    15
100
AcDbBlockReference
  2
_DotSmall
 10
288.8206830789711
 20
1149.54870917426
 30
0.0
 41
30.0
 42
30.0
 43
30.0
 50
270.0
  0
INSERT
  5
1BED
330
1432
100
AcDbEntity
  8
0
 62
     0
370
    15
100
AcDbBlockReference
  2
_DotSmall
 10
288.8206830789711
 20
1164.548709174261
 30
0.0
 41
30.0
 42
30.0
 43
30.0
 50
90.0
  0
MTEXT
  5
1BEE
330
1432
100
AcDbEntity
  8
0
 62
     0
100
AcDbMText
 10
270.0706830789709
 20
1217.465375840927
 30
0.0
 40
25.0
 41
0.0
 71
     5
 72
     1
  1
15
 11
0.0000000000000001
 21
1.0
 31
0.0
 73
     1
 44
1.0
1001
ACAD
1000
MTEXTBEGIN
1070
    73
1070
     1
1070
    44
1040
1.0
1070
    74
1070
     0
1000
MTEXTEND
  0
POINT
  5
1BEF
330
1432
100
AcDbEntity
  8
Defpoints
 62
     0
100
AcDbPoint
 10
479.200257468314
 20
1149.54870917426
 30
0.0
  0
POINT
  5
1BF0
330
1432
100
AcDbEntity
  8
Defpoints
 62
     0
100
AcDbPoint
 10
479.200257468314
 20
1164.548709174261
 30
0.0
  0
POINT
  5
1BF1
330
1432
100
AcDbEntity
  8
Defpoints
 62
     0
100
AcDbPoint
 10
288.8206830789711
 20
1164.548709174261
 30
0.0
  0
ENDBLK
  5
143E
330
1432
100
AcDbEntity
  8
0
100
AcDbBlockEnd
  0
BLOCK
  5
1449
330
143F
100
AcDbEntity
  8
0
100
AcDbBlockBegin
  2
*D22
 70
     1
 10
0.0
 20
0.0
 30
0.0
  3
*D22
  1

  0
LINE
  5
1BF2
330
143F
100
AcDbEntity
  8
実形
 62
     0
370
    15
100
AcDbLine
 10
414.2002574683139
 20
1594.548709174261
 30
0.0
 11
358.2906830789712
 21
1594.548709174261
 31
0.0
  0
LINE
  5
1BF3
330
143F
100
AcDbEntity
  8
実形
 62
     0
370
    15
100
AcDbLine
 10
414.2002574683139
 20
1379.548709174261
 30
0.0
 11
358.2906830789712
 21
1379.548709174261
 31
0.0
  0
LINE
  5
1BF4
330
143F
100
AcDbEntity
  8
実形
 62
     0
370
    15
100
AcDbLine
 10
358.2906830789712
 20
1594.548709174261
 30
0.0
 11
358.2906830789712
 21
1379.548709174261
 31
0.0
  0
INSERT
  5
1BF5
330
143F
100
AcDbEntity
  8
実形
 62
     0
370
    15
100
AcDbBlockReference
  2
_DotSmall
 10
358.2906830789712
 20
1594.548709174261
 30
0.0
 41
30.0
 42
30.0
 43
30.0
 50
90.0
  0
INSERT
  5
1BF6
330
143F
100
AcDbEntity
  8
実形
 62
     0
370
    15
100
AcDbBlockReference
  2
_DotSmall
 10
358.2906830789712
 20
1379.548709174261
 30
0.0
 41
30.0
 42
30.0
 43
30.0
 50
270.0
  0
MTEXT
  5
1BF7
330
143F
100
AcDbEntity
  8
実形
 62
     0
100
AcDbMText
 10
339.540683078971
 20
1487.048709174261
 30
0.0
 40
25.0
 41
0.0
 71
     5
 72
     1
  1
215
 11
0.0000000000000001
 21
1.0
 31
0.0
 73
     1
 44
1.0
1001
ACAD
1000
MTEXTBEGIN
1070
    73
1070
     1
1070
    44
1040
1.0
1070
    74
1070
     0
1000
MTEXTEND
  0
POINT
  5
1BF8
330
143F
100
AcDbEntity
  8
Defpoints
 62
     0
100
AcDbPoint
 10
479.2002574683139
 20
1594.548709174261
 30
0.0
  0
POINT
  5
1BF9
330
143F
100
AcDbEntity
  8
Defpoints
 62
     0
100
AcDbPoint
 10
479.200257468314
 20
1379.548709174261
 30
0.0
  0
POINT
  5
1BFA
330
143F
100
AcDbEntity
  8
Defpoints
 62
     0
100
AcDbPoint
 10
358.2906830789712
 20
1379.548709174261
 30
0.0
  0
ENDBLK
  5
144A
330
143F
100
AcDbEntity
  8
0
100
AcDbBlockEnd
  0
BLOCK
  5
197B
330
1971
100
AcDbEntity
  8
0
100
AcDbBlockBegin
  2
*D23
 70
     1
 10
0.0
 20
0.0
 30
0.0
  3
*D23
  1

  0
LINE
  5
1C28
330
1971
100
AcDbEntity
  8
0
 62
     0
370
    15
100
AcDbLine
 10
831.2002574683138
 20
1751.548709174261
 30
0.0
 11
831.2002574683138
 21
1745.741157753822
 31
0.0
  0
LINE
  5
1C29
330
1971
100
AcDbEntity
  8
0
 62
     0
370
    15
100
AcDbLine
 10
961.2002574683138
 20
1751.548709174261
 30
0.0
 11
961.2002574683138
 21
1745.741157753822
 31
0.0
  0
LINE
  5
1C2A
330
1971
100
AcDbEntity
  8
0
 62
     0
370
    15
100
AcDbLine
 10
831.2002574683138
 20
1745.741157753822
 30
0.0
 11
961.2002574683138
 21
1745.741157753822
 31
0.0
  0
INSERT
  5
1C2B
330
1971
100
AcDbEntity
  8
0
 62
     0
370
    15
100
AcDbBlockReference
  2
_DotSmall
 10
831.2002574683138
 20
1745.741157753822
 30
0.0
 41
30.0
 42
30.0
 43
30.0
 50
180.0
  0
INSERT
  5
1C2C
330
1971
100
AcDbEntity
  8
0
 62
     0
370
    15
100
AcDbBlockReference
  2
_DotSmall
 10
961.2002574683138
 20
1745.741157753822
 30
0.0
 41
30.0
 42
30.0
 43
30.0
  0
MTEXT
  5
1C2D
330
1971
100
AcDbEntity
  8
0
 62
     0
100
AcDbMText
 10
896.2002574683138
 20
1764.491157753822
 30
0.0
 40
25.0
 41
0.0
 71
     5
 72
     1
  1
130
 73
     1
 44
1.0
1001
ACAD
1000
MTEXTBEGIN
1070
    73
1070
     1
1070
    44
1040
1.0
1070
    74
1070
     0
1000
MTEXTEND
  0
POINT
  5
1C2E
330
1971
100
AcDbEntity
  8
Defpoints
 62
     0
100
AcDbPoint
 10
831.2002574683138
 20
1686.54870917426
 30
0.0
  0
POINT
  5
1C2F
330
1971
100
AcDbEntity
  8
Defpoints
 62
     0
100
AcDbPoint
 10
961.2002574683138
 20
1686.54870917426
 30
0.0
  0
POINT
  5
1C30
330
1971
100
AcDbEntity
  8
Defpoints
 62
     0
100
AcDbPoint
 10
961.2002574683138
 20
1745.741157753822
 30
0.0
  0
ENDBLK
  5
197C
330
1971
100
AcDbEntity
  8
0
100
AcDbBlockEnd
  0
BLOCK
  5
1987
330
197D
100
AcDbEntity
  8
0
100
AcDbBlockBegin
  2
*D24
 70
     1
 10
0.0
 20
0.0
 30
0.0
  3
*D24
  1

  0
LINE
  5
1C31
330
197D
100
AcDbEntity
  8
0
 62
     0
370
    15
100
AcDbLine
 10
766.2002574683137
 20
1816.548709174261
 30
0.0
 11
766.2002574683137
 21
1814.729568565745
 31
0.0
  0
LINE
  5
1C32
330
197D
100
AcDbEntity
  8
0
 62
     0
370
    15
100
AcDbLine
 10
1026.200257468314
 20
1816.548709174261
 30
0.0
 11
1026.200257468314
 21
1814.729568565745
 31
0.0
  0
LINE
  5
1C33
330
197D
100
AcDbEntity
  8
0
 62
     0
370
    15
100
AcDbLine
 10
766.2002574683137
 20
1814.729568565745
 30
0.0
 11
1026.200257468314
 21
1814.729568565745
 31
0.0
  0
INSERT
  5
1C34
330
197D
100
AcDbEntity
  8
0
 62
     0
370
    15
100
AcDbBlockReference
  2
_DotSmall
 10
766.2002574683137
 20
1814.729568565745
 30
0.0
 41
30.0
 42
30.0
 43
30.0
 50
180.0
  0
INSERT
  5
1C35
330
197D
100
AcDbEntity
  8
0
 62
     0
370
    15
100
AcDbBlockReference
  2
_DotSmall
 10
1026.200257468314
 20
1814.729568565745
 30
0.0
 41
30.0
 42
30.0
 43
30.0
  0
MTEXT
  5
1C36
330
197D
100
AcDbEntity
  8
0
 62
     0
100
AcDbMText
 10
896.2002574683138
 20
1833.479568565745
 30
0.0
 40
25.0
 41
0.0
 71
     5
 72
     1
  1
260
 73
     1
 44
1.0
1001
ACAD
1000
MTEXTBEGIN
1070
    73
1070
     1
1070
    44
1040
1.0
1070
    74
1070
     0
1000
MTEXTEND
  0
POINT
  5
1C37
330
197D
100
AcDbEntity
  8
Defpoints
 62
     0
100
AcDbPoint
 10
766.2002574683137
 20
1751.548709174261
 30
0.0
  0
POINT
  5
1C38
330
197D
100
AcDbEntity
  8
Defpoints
 62
     0
100
AcDbPoint
 10
1026.200257468314
 20
1751.548709174261
 30
0.0
  0
POINT
  5
1C39
330
197D
100
AcDbEntity
  8
Defpoints
 62
     0
100
AcDbPoint
 10
1026.200257468314
 20
1814.729568565745
 30
0.0
  0
ENDBLK
  5
1988
330
197D
100
AcDbEntity
  8
0
100
AcDbBlockEnd
  0
BLOCK
  5
1A9E
330
1A94
100
AcDbEntity
  8
0
100
AcDbBlockBegin
  2
*D25
 70
     1
 10
0.0
 20
0.0
 30
0.0
  3
*D25
  1

  0
LINE
  5
1C4C
330
1A94
100
AcDbEntity
  8
実形
 62
     0
370
    15
100
AcDbLine
 10
1146.200257468314
 20
1766.601700810726
 30
0.0
 11
1146.200257468314
 21
1799.067023013358
 31
0.0
  0
LINE
  5
1C4D
330
1A94
100
AcDbEntity
  8
実形
 62
     0
370
    15
100
AcDbLine
 10
1180.200257468314
 20
1766.601700810727
 30
0.0
 11
1180.200257468314
 21
1799.067023013358
 31
0.0
  0
LINE
  5
1C4E
330
1A94
100
AcDbEntity
  8
実形
 62
     0
370
    15
100
AcDbLine
 10
1146.200257468314
 20
1799.067023013358
 30
0.0
 11
1180.200257468314
 21
1799.067023013358
 31
0.0
  0
MTEXT
  5
1C4F
330
1A94
100
AcDbEntity
  8
実形
 62
     0
100
AcDbMText
 10
1139.289018784183
 20
1832.593821575738
 30
0.0
 40
25.0
 41
0.0
 71
     5
 72
     1
  1
35
 73
     1
 44
1.0
1001
ACAD
1000
MTEXTBEGIN
1070
    73
1070
     1
1070
    44
1040
1.0
1070
    74
1070
     0
1000
MTEXTEND
  0
INSERT
  5
1C50
330
1A94
100
AcDbEntity
  8
実形
 62
     0
370
    15
100
AcDbBlockReference
  2
_DotSmall
 10
1146.200257468314
 20
1799.067023013358
 30
0.0
 41
30.0
 42
30.0
 43
30.0
 50
180.0
  0
INSERT
  5
1C51
330
1A94
100
AcDbEntity
  8
実形
 62
     0
370
    15
100
AcDbBlockReference
  2
_DotSmall
 10
1180.200257468314
 20
1799.067023013358
 30
0.0
 41
30.0
 42
30.0
 43
30.0
  0
POINT
  5
1C52
330
1A94
100
AcDbEntity
  8
Defpoints
 62
     0
100
AcDbPoint
 10
1146.200257468314
 20
1701.601700810726
 30
0.0
  0
POINT
  5
1C53
330
1A94
100
AcDbEntity
  8
Defpoints
 62
     0
100
AcDbPoint
 10
1180.200257468314
 20
1701.601700810726
 30
0.0
  0
POINT
  5
1C54
330
1A94
100
AcDbEntity
  8
Defpoints
 62
     0
100
AcDbPoint
 10
1180.200257468314
 20
1799.067023013358
 30
0.0
  0
ENDBLK
  5
1A9F
330
1A94
100
AcDbEntity
  8
0
100
AcDbBlockEnd
  0
BLOCK
  5
1AAA
330
1AA0
100
AcDbEntity
  8
0
100
AcDbBlockBegin
  2
*D26
 70
     1
 10
0.0
 20
0.0
 30
0.0
  3
*D26
  1

  0
LINE
  5
1C55
330
1AA0
100
AcDbEntity
  8
実形
 62
     0
370
    15
100
AcDbLine
 10
1215.496273222691
 20
1703.54870917426
 30
0.0
 11
1298.402699544101
 21
1703.54870917426
 31
0.0
  0
LINE
  5
1C56
330
1AA0
100
AcDbEntity
  8
実形
 62
     0
370
    15
100
AcDbLine
 10
1215.496273222691
 20
1115.54870917426
 30
0.0
 11
1298.402699544101
 21
1115.54870917426
 31
0.0
  0
LINE
  5
1C57
330
1AA0
100
AcDbEntity
  8
実形
 62
     0
370
    15
100
AcDbLine
 10
1298.402699544101
 20
1703.54870917426
 30
0.0
 11
1298.402699544101
 21
1115.54870917426
 31
0.0
  0
INSERT
  5
1C58
330
1AA0
100
AcDbEntity
  8
実形
 62
     0
370
    15
100
AcDbBlockReference
  2
_DotSmall
 10
1298.402699544101
 20
1703.54870917426
 30
0.0
 41
30.0
 42
30.0
 43
30.0
 50
90.0
  0
INSERT
  5
1C59
330
1AA0
100
AcDbEntity
  8
実形
 62
     0
370
    15
100
AcDbBlockReference
  2
_DotSmall
 10
1298.402699544101
 20
1115.54870917426
 30
0.0
 41
30.0
 42
30.0
 43
30.0
 50
270.0
  0
MTEXT
  5
1C5A
330
1AA0
100
AcDbEntity
  8
実形
 62
     0
100
AcDbMText
 10
1279.6526995441
 20
1409.54870917426
 30
0.0
 40
25.0
 41
0.0
 71
     5
 72
     1
  1
588
 11
0.0000000000000001
 21
1.0
 31
0.0
 73
     1
 44
1.0
1001
ACAD
1000
MTEXTBEGIN
1070
    73
1070
     1
1070
    44
1040
1.0
1070
    74
1070
     0
1000
MTEXTEND
  0
POINT
  5
1C5B
330
1AA0
100
AcDbEntity
  8
Defpoints
 62
     0
100
AcDbPoint
 10
1150.496273222691
 20
1703.54870917426
 30
0.0
  0
POINT
  5
1C5C
330
1AA0
100
AcDbEntity
  8
Defpoints
 62
     0
100
AcDbPoint
 10
1150.496273222691
 20
1115.54870917426
 30
0.0
  0
POINT
  5
1C5D
330
1AA0
100
AcDbEntity
  8
Defpoints
 62
     0
100
AcDbPoint
 10
1298.402699544101
 20
1115.54870917426
 30
0.0
  0
ENDBLK
  5
1AAB
330
1AA0
100
AcDbEntity
  8
0
100
AcDbBlockEnd
  0
BLOCK
  5
1AB6
330
1AAC
100
AcDbEntity
  8
0
100
AcDbBlockBegin
  2
*D27
 70
     1
 10
0.0
 20
0.0
 30
0.0
  3
*D27
  1

  0
LINE
  5
1C5E
330
1AAC
100
AcDbEntity
  8
実形
 62
     0
370
    15
100
AcDbLine
 10
1215.496273222691
 20
1703.548709174261
 30
0.0
 11
1270.500895121905
 21
1703.548709174261
 31
0.0
  0
LINE
  5
1C5F
330
1AAC
100
AcDbEntity
  8
実形
 62
     0
370
    15
100
AcDbLine
 10
1215.496273222691
 20
1669.548709174261
 30
0.0
 11
1270.500895121905
 21
1669.548709174261
 31
0.0
  0
LINE
  5
1C60
330
1AAC
100
AcDbEntity
  8
実形
 62
     0
370
    15
100
AcDbLine
 10
1270.500895121905
 20
1703.548709174261
 30
0.0
 11
1270.500895121905
 21
1669.548709174261
 31
0.0
  0
MTEXT
  5
1C61
330
1AAC
100
AcDbEntity
  8
実形
 62
     0
100
AcDbMText
 10
1249.712411952786
 20
1629.048649973654
 30
0.0
 40
25.0
 41
0.0
 71
     5
 72
     1
  1
35
 11
0.0000000000000001
 21
1.0
 31
0.0
 73
     1
 44
1.0
1001
ACAD
1000
MTEXTBEGIN
1070
    73
1070
     1
1070
    44
1040
1.0
1070
    74
1070
     0
1000
MTEXTEND
  0
INSERT
  5
1C62
330
1AAC
100
AcDbEntity
  8
実形
 62
     0
370
    15
100
AcDbBlockReference
  2
_DotSmall
 10
1270.500895121905
 20
1703.548709174261
 30
0.0
 41
30.0
 42
30.0
 43
30.0
 50
90.0
  0
INSERT
  5
1C63
330
1AAC
100
AcDbEntity
  8
実形
 62
     0
370
    15
100
AcDbBlockReference
  2
_DotSmall
 10
1270.500895121905
 20
1669.548709174261
 30
0.0
 41
30.0
 42
30.0
 43
30.0
 50
270.0
  0
POINT
  5
1C64
330
1AAC
100
AcDbEntity
  8
Defpoints
 62
     0
100
AcDbPoint
 10
1150.496273222691
 20
1703.548709174261
 30
0.0
  0
POINT
  5
1C65
330
1AAC
100
AcDbEntity
  8
Defpoints
 62
     0
100
AcDbPoint
 10
1150.496273222691
 20
1669.548709174261
 30
0.0
  0
POINT
  5
1C66
330
1AAC
100
AcDbEntity
  8
Defpoints
 62
     0
100
AcDbPoint
 10
1270.500895121905
 20
1669.548709174261
 30
0.0
  0
ENDBLK
  5
1AB7
330
1AAC
100
AcDbEntity
  8
0
100
AcDbBlockEnd
  0
BLOCK
  5
1AC2
330
1AB8
100
AcDbEntity
  8
0
100
AcDbBlockBegin
  2
*D28
 70
     1
 10
0.0
 20
0.0
 30
0.0
  3
*D28
  1

  0
LINE
  5
1C67
330
1AB8
100
AcDbEntity
  8
実形
 62
     0
370
    15
100
AcDbLine
 10
1215.496273222691
 20
1149.54870917426
 30
0.0
 11
1270.500895121905
 21
1149.54870917426
 31
0.0
  0
LINE
  5
1C68
330
1AB8
100
AcDbEntity
  8
実形
 62
     0
370
    15
100
AcDbLine
 10
1215.496273222691
 20
1115.54870917426
 30
0.0
 11
1270.500895121905
 21
1115.54870917426
 31
0.0
  0
LINE
  5
1C69
330
1AB8
100
AcDbEntity
  8
実形
 62
     0
370
    15
100
AcDbLine
 10
1270.500895121905
 20
1149.54870917426
 30
0.0
 11
1270.500895121905
 21
1115.54870917426
 31
0.0
  0
MTEXT
  5
1C6A
330
1AB8
100
AcDbEntity
  8
実形
 62
     0
100
AcDbMText
 10
1239.406927281662
 20
1183.23998766897
 30
0.0
 40
25.0
 41
0.0
 71
     5
 72
     1
  1
35
 11
0.0000000000000001
 21
1.0
 31
0.0
 73
     1
 44
1.0
1001
ACAD
1000
MTEXTBEGIN
1070
    73
1070
     1
1070
    44
1040
1.0
1070
    74
1070
     0
1000
MTEXTEND
  0
INSERT
  5
1C6B
330
1AB8
100
AcDbEntity
  8
実形
 62
     0
370
    15
100
AcDbBlockReference
  2
_DotSmall
 10
1270.500895121905
 20
1149.54870917426
 30
0.0
 41
30.0
 42
30.0
 43
30.0
 50
90.0
  0
INSERT
  5
1C6C
330
1AB8
100
AcDbEntity
  8
実形
 62
     0
370
    15
100
AcDbBlockReference
  2
_DotSmall
 10
1270.500895121905
 20
1115.54870917426
 30
0.0
 41
30.0
 42
30.0
 43
30.0
 50
270.0
  0
POINT
  5
1C6D
330
1AB8
100
AcDbEntity
  8
Defpoints
 62
     0
100
AcDbPoint
 10
1150.496273222691
 20
1149.54870917426
 30
0.0
  0
POINT
  5
1C6E
330
1AB8
100
AcDbEntity
  8
Defpoints
 62
     0
100
AcDbPoint
 10
1150.496273222691
 20
1115.54870917426
 30
0.0
  0
POINT
  5
1C6F
330
1AB8
100
AcDbEntity
  8
Defpoints
 62
     0
100
AcDbPoint
 10
1270.500895121905
 20
1115.54870917426
 30
0.0
  0
ENDBLK
  5
1AC3
330
1AB8
100
AcDbEntity
  8
0
100
AcDbBlockEnd
  0
BLOCK
  5
1ACE
330
1AC4
100
AcDbEntity
  8
0
100
AcDbBlockBegin
  2
*D29
 70
     1
 10
0.0
 20
0.0
 30
0.0
  3
*D29
  1

  0
LINE
  5
1C3A
330
1AC4
100
AcDbEntity
  8
実形
 62
     0
370
    15
100
AcDbLine
 10
462.2002574683137
 20
1766.601700810726
 30
0.0
 11
462.2002574683137
 21
1872.531873115033
 31
0.0
  0
LINE
  5
1C3B
330
1AC4
100
AcDbEntity
  8
実形
 62
     0
370
    15
100
AcDbLine
 10
1180.200257468314
 20
1766.601700810728
 30
0.0
 11
1180.200257468314
 21
1872.531873115033
 31
0.0
  0
LINE
  5
1C3C
330
1AC4
100
AcDbEntity
  8
実形
 62
     0
370
    15
100
AcDbLine
 10
462.2002574683137
 20
1872.531873115033
 30
0.0
 11
1180.200257468314
 21
1872.531873115033
 31
0.0
  0
INSERT
  5
1C3D
330
1AC4
100
AcDbEntity
  8
実形
 62
     0
370
    15
100
AcDbBlockReference
  2
_DotSmall
 10
462.2002574683137
 20
1872.531873115033
 30
0.0
 41
30.0
 42
30.0
 43
30.0
 50
180.0
  0
INSERT
  5
1C3E
330
1AC4
100
AcDbEntity
  8
実形
 62
     0
370
    15
100
AcDbBlockReference
  2
_DotSmall
 10
1180.200257468314
 20
1872.531873115033
 30
0.0
 41
30.0
 42
30.0
 43
30.0
  0
MTEXT
  5
1C3F
330
1AC4
100
AcDbEntity
  8
実形
 62
     0
100
AcDbMText
 10
821.2002574683138
 20
1891.281873115033
 30
0.0
 40
25.0
 41
0.0
 71
     5
 72
     1
  1
718
 73
     1
 44
1.0
1001
ACAD
1000
MTEXTBEGIN
1070
    73
1070
     1
1070
    44
1040
1.0
1070
    74
1070
     0
1000
MTEXTEND
  0
POINT
  5
1C40
330
1AC4
100
AcDbEntity
  8
Defpoints
 62
     0
100
AcDbPoint
 10
462.2002574683137
 20
1701.601700810726
 30
0.0
  0
POINT
  5
1C41
330
1AC4
100
AcDbEntity
  8
Defpoints
 62
     0
100
AcDbPoint
 10
1180.200257468314
 20
1701.601700810728
 30
0.0
  0
POINT
  5
1C42
330
1AC4
100
AcDbEntity
  8
Defpoints
 62
     0
100
AcDbPoint
 10
1180.200257468314
 20
1872.531873115033
 30
0.0
  0
ENDBLK
  5
1ACF
330
1AC4
100
AcDbEntity
  8
0
100
AcDbBlockEnd
  0
BLOCK
  5
1ADA
330
1AD0
100
AcDbEntity
  8
0
100
AcDbBlockBegin
  2
*D30
 70
     1
 10
0.0
 20
0.0
 30
0.0
  3
*D30
  1

  0
LINE
  5
1C43
330
1AD0
100
AcDbEntity
  8
実形
 62
     0
370
    15
100
AcDbLine
 10
462.2002574683137
 20
1766.601700810726
 30
0.0
 11
462.2002574683137
 21
1799.067023013358
 31
0.0
  0
LINE
  5
1C44
330
1AD0
100
AcDbEntity
  8
実形
 62
     0
370
    15
100
AcDbLine
 10
496.2002574683138
 20
1766.601700810727
 30
0.0
 11
496.2002574683138
 21
1799.067023013358
 31
0.0
  0
LINE
  5
1C45
330
1AD0
100
AcDbEntity
  8
実形
 62
     0
370
    15
100
AcDbLine
 10
462.2002574683137
 20
1799.067023013358
 30
0.0
 11
496.2002574683138
 21
1799.067023013358
 31
0.0
  0
MTEXT
  5
1C46
330
1AD0
100
AcDbEntity
  8
実形
 62
     0
100
AcDbMText
 10
498.0192026169161
 20
1833.52968543411
 30
0.0
 40
25.0
 41
0.0
 71
     5
 72
     1
  1
35
 73
     1
 44
1.0
1001
ACAD
1000
MTEXTBEGIN
1070
    73
1070
     1
1070
    44
1040
1.0
1070
    74
1070
     0
1000
MTEXTEND
  0
INSERT
  5
1C47
330
1AD0
100
AcDbEntity
  8
実形
 62
     0
370
    15
100
AcDbBlockReference
  2
_DotSmall
 10
462.2002574683137
 20
1799.067023013358
 30
0.0
 41
30.0
 42
30.0
 43
30.0
 50
180.0
  0
INSERT
  5
1C48
330
1AD0
100
AcDbEntity
  8
実形
 62
     0
370
    15
100
AcDbBlockReference
  2
_DotSmall
 10
496.2002574683138
 20
1799.067023013358
 30
0.0
 41
30.0
 42
30.0
 43
30.0
  0
POINT
  5
1C49
330
1AD0
100
AcDbEntity
  8
Defpoints
 62
     0
100
AcDbPoint
 10
462.2002574683137
 20
1701.601700810726
 30
0.0
  0
POINT
  5
1C4A
330
1AD0
100
AcDbEntity
  8
Defpoints
 62
     0
100
AcDbPoint
 10
496.2002574683138
 20
1701.601700810726
 30
0.0
  0
POINT
  5
1C4B
330
1AD0
100
AcDbEntity
  8
Defpoints
 62
     0
100
AcDbPoint
 10
496.2002574683138
 20
1799.067023013358
 30
0.0
  0
ENDBLK
  5
1ADB
330
1AD0
100
AcDbEntity
  8
0
100
AcDbBlockEnd
  0
BLOCK
  5
1E71
330
1E6A
100
AcDbEntity
  8
0
100
AcDbBlockBegin
  2
*D31
 70
     1
 10
0.0
 20
0.0
 30
0.0
  3
*D31
  1

  0
LINE
  5
1F57
330
1E6A
100
AcDbEntity
  8
実形
 62
     0
370
    13
100
AcDbLine
 10
2090.833877365067
 20
553.2947101512847
 30
0.0
 11
2090.833877365067
 21
467.1003685502147
 31
0.0
  0
LINE
  5
1F58
330
1E6A
100
AcDbEntity
  8
実形
 62
     0
370
    13
100
AcDbLine
 10
2075.233877365067
 20
527.502986728412
 30
0.0
 11
2075.233877365067
 21
467.1003685502147
 31
0.0
  0
MTEXT
  5
1F59
330
1E6A
100
AcDbEntity
  8
実形
 62
     0
100
AcDbMText
 10
2054.88545157578
 20
491.5915116428197
 30
0.0
 40
25.0
 41
0.0
 71
     5
 72
     1
  1
1
 73
     1
 44
1.0
1001
ACAD
1000
MTEXTBEGIN
1070
    73
1070
     1
1070
    44
1040
1.0
1070
    74
1070
     0
1000
MTEXTEND
  0
POINT
  5
1F5A
330
1E6A
100
AcDbEntity
  8
Defpoints
 62
     0
100
AcDbPoint
 10
2090.833877365067
 20
559.2947101512846
 30
0.0
  0
POINT
  5
1F5B
330
1E6A
100
AcDbEntity
  8
Defpoints
 62
     0
100
AcDbPoint
 10
2075.233877365067
 20
533.5029867284119
 30
0.0
  0
POINT
  5
1F5C
330
1E6A
100
AcDbEntity
  8
Defpoints
 62
     0
100
AcDbPoint
 10
2075.233877365067
 20
467.1003685502147
 30
0.0
  0
ENDBLK
  5
1E72
330
1E6A
100
AcDbEntity
  8
0
100
AcDbBlockEnd
  0
BLOCK
  5
1E7D
330
1E73
100
AcDbEntity
  8
0
100
AcDbBlockBegin
  2
*D32
 70
     1
 10
0.0
 20
0.0
 30
0.0
  3
*D32
  1

  0
LINE
  5
1F5D
330
1E73
100
AcDbEntity
  8
実形
 62
     0
370
    18
100
AcDbLine
 10
2090.833877365066
 20
591.9073852958003
 30
0.0
 11
2090.833877365066
 21
617.1548568615962
 31
0.0
  0
LINE
  5
1F5E
330
1E73
100
AcDbEntity
  8
実形
 62
     0
370
    18
100
AcDbLine
 10
2356.033877365065
 20
591.9073852958005
 30
0.0
 11
2356.033877365065
 21
617.1548568615962
 31
0.0
  0
LINE
  5
1F5F
330
1E73
100
AcDbEntity
  8
実形
 62
     0
370
    18
100
AcDbLine
 10
2090.833877365066
 20
617.1548568615962
 30
0.0
 11
2356.033877365065
 21
617.1548568615962
 31
0.0
  0
INSERT
  5
1F60
330
1E73
100
AcDbEntity
  8
実形
 62
     0
370
    18
100
AcDbBlockReference
  2
_DotSmall
 10
2090.833877365066
 20
617.1548568615962
 30
0.0
 41
30.0
 42
30.0
 43
30.0
 50
180.0
  0
INSERT
  5
1F61
330
1E73
100
AcDbEntity
  8
実形
 62
     0
370
    18
100
AcDbBlockReference
  2
_DotSmall
 10
2356.033877365065
 20
617.1548568615962
 30
0.0
 41
30.0
 42
30.0
 43
30.0
  0
MTEXT
  5
1F62
330
1E73
100
AcDbEntity
  8
実形
 62
     0
100
AcDbMText
 10
2223.433877365065
 20
635.9048568615962
 30
0.0
 40
25.0
 41
0.0
 71
     5
 72
     1
  1
17
 73
     1
 44
1.0
1001
ACAD
1000
MTEXTBEGIN
1070
    73
1070
     1
1070
    44
1040
1.0
1070
    74
1070
     0
1000
MTEXTEND
  0
POINT
  5
1F63
330
1E73
100
AcDbEntity
  8
Defpoints
 62
     0
100
AcDbPoint
 10
2090.833877365066
 20
526.9073852958004
 30
0.0
  0
POINT
  5
1F64
330
1E73
100
AcDbEntity
  8
Defpoints
 62
     0
100
AcDbPoint
 10
2356.033877365065
 20
526.9073852958005
 30
0.0
  0
POINT
  5
1F65
330
1E73
100
AcDbEntity
  8
Defpoints
 62
     0
100
AcDbPoint
 10
2356.033877365065
 20
617.1548568615962
 30
0.0
  0
ENDBLK
  5
1E7E
330
1E73
100
AcDbEntity
  8
0
100
AcDbBlockEnd
  0
BLOCK
  5
1E89
330
1E7F
100
AcDbEntity
  8
0
100
AcDbBlockBegin
  2
*D33
 70
     1
 10
0.0
 20
0.0
 30
0.0
  3
*D33
  1

  0
LINE
  5
1F66
330
1E7F
100
AcDbEntity
  8
実形
 62
     0
370
    18
100
AcDbLine
 10
2292.614562018892
 20
504.6947101512855
 30
0.0
 11
2228.767481940162
 21
504.6947101512855
 31
0.0
  0
LINE
  5
1F67
330
1E7F
100
AcDbEntity
  8
実形
 62
     0
370
    18
100
AcDbLine
 10
2216.267191428404
 20
543.6947101512855
 30
0.0
 11
2228.767481940162
 21
543.6947101512855
 31
0.0
  0
LINE
  5
1F68
330
1E7F
100
AcDbEntity
  8
実形
 62
     0
370
    18
100
AcDbLine
 10
2228.767481940162
 20
504.6947101512855
 30
0.0
 11
2228.767481940162
 21
543.6947101512855
 31
0.0
  0
MTEXT
  5
1F69
330
1E7F
100
AcDbEntity
  8
実形
 62
     0
100
AcDbMText
 10
2197.294896545438
 20
515.0052225685112
 30
0.0
 40
23.0
 41
0.0
 71
     5
 72
     1
  1
2.5
 11
0.0000000000000001
 21
1.0
 31
0.0
 73
     1
 44
1.0
1001
ACAD
1000
MTEXTBEGIN
1070
    73
1070
     1
1070
    44
1040
1.0
1070
    74
1070
     0
1000
MTEXTEND
  0
INSERT
  5
1F6A
330
1E7F
100
AcDbEntity
  8
実形
 62
     0
370
    18
100
AcDbBlockReference
  2
_DotSmall
 10
2228.767481940162
 20
504.6947101512855
 30
0.0
 41
30.0
 42
30.0
 43
30.0
 50
270.0
  0
INSERT
  5
1F6B
330
1E7F
100
AcDbEntity
  8
実形
 62
     0
370
    18
100
AcDbBlockReference
  2
_DotSmall
 10
2228.767481940162
 20
543.6947101512855
 30
0.0
 41
30.0
 42
30.0
 43
30.0
 50
90.0
  0
POINT
  5
1F6C
330
1E7F
100
AcDbEntity
  8
Defpoints
 62
     0
100
AcDbPoint
 10
2357.614562018891
 20
504.6947101512855
 30
0.0
  0
POINT
  5
1F6D
330
1E7F
100
AcDbEntity
  8
Defpoints
 62
     0
100
AcDbPoint
 10
2281.267191428404
 20
543.6947101512855
 30
0.0
  0
POINT
  5
1F6E
330
1E7F
100
AcDbEntity
  8
Defpoints
 62
     0
100
AcDbPoint
 10
2228.767481940162
 20
543.6947101512855
 30
0.0
  0
ENDBLK
  5
1E8A
330
1E7F
100
AcDbEntity
  8
0
100
AcDbBlockEnd
  0
BLOCK
  5
1E95
330
1E8B
100
AcDbEntity
  8
0
100
AcDbBlockBegin
  2
*D34
 70
     1
 10
0.0
 20
0.0
 30
0.0
  3
*D34
  1

  0
LINE
  5
1F6F
330
1E8B
100
AcDbEntity
  8
実形
 62
     0
370
    18
100
AcDbLine
 10
2278.033877365066
 20
448.0145559292668
 30
0.0
 11
2278.033877365066
 21
452.0882219802177
 31
0.0
  0
LINE
  5
1F70
330
1E8B
100
AcDbEntity
  8
実形
 62
     0
370
    18
100
AcDbLine
 10
2356.033877365066
 20
448.0145559292668
 30
0.0
 11
2356.033877365066
 21
452.0882219802177
 31
0.0
  0
LINE
  5
1F71
330
1E8B
100
AcDbEntity
  8
実形
 62
     0
370
    18
100
AcDbLine
 10
2278.033877365066
 20
452.0882219802177
 30
0.0
 11
2356.033877365066
 21
452.0882219802177
 31
0.0
  0
INSERT
  5
1F72
330
1E8B
100
AcDbEntity
  8
実形
 62
     0
370
    18
100
AcDbBlockReference
  2
_DotSmall
 10
2278.033877365066
 20
452.0882219802177
 30
0.0
 41
30.0
 42
30.0
 43
30.0
 50
180.0
  0
INSERT
  5
1F73
330
1E8B
100
AcDbEntity
  8
実形
 62
     0
370
    18
100
AcDbBlockReference
  2
_DotSmall
 10
2356.033877365066
 20
452.0882219802177
 30
0.0
 41
30.0
 42
30.0
 43
30.0
  0
MTEXT
  5
1F74
330
1E8B
100
AcDbEntity
  8
実形
 62
     0
100
AcDbMText
 10
2317.033877365066
 20
470.8382219802177
 30
0.0
 40
25.0
 41
0.0
 71
     5
 72
     1
  1
5
 73
     1
 44
1.0
1001
ACAD
1000
MTEXTBEGIN
1070
    73
1070
     1
1070
    44
1040
1.0
1070
    74
1070
     0
1000
MTEXTEND
  0
POINT
  5
1F75
330
1E8B
100
AcDbEntity
  8
Defpoints
 62
     0
100
AcDbPoint
 10
2278.033877365066
 20
513.0145559292668
 30
0.0
  0
POINT
  5
1F76
330
1E8B
100
AcDbEntity
  8
Defpoints
 62
     0
100
AcDbPoint
 10
2356.033877365066
 20
513.0145559292668
 30
0.0
  0
POINT
  5
1F77
330
1E8B
100
AcDbEntity
  8
Defpoints
 62
     0
100
AcDbPoint
 10
2356.033877365066
 20
452.0882219802177
 30
0.0
  0
ENDBLK
  5
1E96
330
1E8B
100
AcDbEntity
  8
0
100
AcDbBlockEnd
  0
BLOCK
  5
1EA1
330
1E97
100
AcDbEntity
  8
0
100
AcDbBlockBegin
  2
*D35
 70
     1
 10
0.0
 20
0.0
 30
0.0
  3
*D35
  1

  0
LINE
  5
1F78
330
1E97
100
AcDbEntity
  8
実形
 62
     0
370
    18
100
AcDbLine
 10
2266.326187506493
 20
442.2947101512853
 30
0.0
 11
2230.705930897853
 21
442.2947101512853
 31
0.0
  0
LINE
  5
1F79
330
1E97
100
AcDbEntity
  8
実形
 62
     0
370
    18
100
AcDbLine
 10
2309.752828579123
 20
403.2947101512855
 30
0.0
 11
2230.705930897853
 21
403.2947101512855
 31
0.0
  0
LINE
  5
1F7A
330
1E97
100
AcDbEntity
  8
実形
 62
     0
370
    18
100
AcDbLine
 10
2230.705930897853
 20
442.2947101512853
 30
0.0
 11
2230.705930897853
 21
403.2947101512855
 31
0.0
  0
MTEXT
  5
1F7B
330
1E97
100
AcDbEntity
  8
実形
 62
     0
100
AcDbMText
 10
2198.086469593912
 20
431.6583152348946
 30
0.0
 40
23.0
 41
0.0
 71
     5
 72
     1
  1
2.5
 11
0.0000000000000001
 21
1.0
 31
0.0
 73
     1
 44
1.0
1001
ACAD
1000
MTEXTBEGIN
1070
    73
1070
     1
1070
    44
1040
1.0
1070
    74
1070
     0
1000
MTEXTEND
  0
INSERT
  5
1F7C
330
1E97
100
AcDbEntity
  8
実形
 62
     0
370
    18
100
AcDbBlockReference
  2
_DotSmall
 10
2230.705930897853
 20
442.2947101512853
 30
0.0
 41
30.0
 42
30.0
 43
30.0
 50
90.0
  0
INSERT
  5
1F7D
330
1E97
100
AcDbEntity
  8
実形
 62
     0
370
    18
100
AcDbBlockReference
  2
_DotSmall
 10
2230.705930897853
 20
403.2947101512855
 30
0.0
 41
30.0
 42
30.0
 43
30.0
 50
270.0
  0
POINT
  5
1F7E
330
1E97
100
AcDbEntity
  8
Defpoints
 62
     0
100
AcDbPoint
 10
2331.326187506493
 20
442.2947101512853
 30
0.0
  0
POINT
  5
1F7F
330
1E97
100
AcDbEntity
  8
Defpoints
 62
     0
100
AcDbPoint
 10
2374.752828579123
 20
403.2947101512855
 30
0.0
  0
POINT
  5
1F80
330
1E97
100
AcDbEntity
  8
Defpoints
 62
     0
100
AcDbPoint
 10
2230.705930897853
 20
403.2947101512855
 30
0.0
  0
ENDBLK
  5
1EA2
330
1E97
100
AcDbEntity
  8
0
100
AcDbBlockEnd
  0
BLOCK
  5
1EAD
330
1EA3
100
AcDbEntity
  8
0
100
AcDbBlockBegin
  2
*D36
 70
     1
 10
0.0
 20
0.0
 30
0.0
  3
*D36
  1

  0
LINE
  5
1F81
330
1EA3
100
AcDbEntity
  8
実形
 62
     0
370
    18
100
AcDbLine
 10
2075.233877365066
 20
696.1956311673393
 30
0.0
 11
2075.233877365066
 21
733.9587029177619
 31
0.0
  0
LINE
  5
1F82
330
1EA3
100
AcDbEntity
  8
実形
 62
     0
370
    18
100
AcDbLine
 10
2387.233877365066
 20
696.1956311673393
 30
0.0
 11
2387.233877365066
 21
733.9587029177619
 31
0.0
  0
LINE
  5
1F83
330
1EA3
100
AcDbEntity
  8
実形
 62
     0
370
    18
100
AcDbLine
 10
2075.233877365066
 20
733.9587029177619
 30
0.0
 11
2387.233877365066
 21
733.9587029177619
 31
0.0
  0
INSERT
  5
1F84
330
1EA3
100
AcDbEntity
  8
実形
 62
     0
370
    18
100
AcDbBlockReference
  2
_DotSmall
 10
2075.233877365066
 20
733.9587029177619
 30
0.0
 41
30.0
 42
30.0
 43
30.0
 50
180.0
  0
INSERT
  5
1F85
330
1EA3
100
AcDbEntity
  8
実形
 62
     0
370
    18
100
AcDbBlockReference
  2
_DotSmall
 10
2387.233877365066
 20
733.9587029177619
 30
0.0
 41
30.0
 42
30.0
 43
30.0
  0
MTEXT
  5
1F86
330
1EA3
100
AcDbEntity
  8
実形
 62
     0
100
AcDbMText
 10
2231.233877365066
 20
752.7087029177619
 30
0.0
 40
25.0
 41
0.0
 71
     5
 72
     1
  1
20
 73
     1
 44
1.0
1001
ACAD
1000
MTEXTBEGIN
1070
    73
1070
     1
1070
    44
1040
1.0
1070
    74
1070
     0
1000
MTEXTEND
  0
POINT
  5
1F87
330
1EA3
100
AcDbEntity
  8
Defpoints
 62
     0
100
AcDbPoint
 10
2075.233877365066
 20
631.1956311673393
 30
0.0
  0
POINT
  5
1F88
330
1EA3
100
AcDbEntity
  8
Defpoints
 62
     0
100
AcDbPoint
 10
2387.233877365066
 20
631.1956311673393
 30
0.0
  0
POINT
  5
1F89
330
1EA3
100
AcDbEntity
  8
Defpoints
 62
     0
100
AcDbPoint
 10
2387.233877365066
 20
733.9587029177619
 30
0.0
  0
ENDBLK
  5
1EAE
330
1EA3
100
AcDbEntity
  8
0
100
AcDbBlockEnd
  0
BLOCK
  5
1EB9
330
1EAF
100
AcDbEntity
  8
0
100
AcDbBlockBegin
  2
*D37
 70
     1
 10
0.0
 20
0.0
 30
0.0
  3
*D37
  1

  0
LINE
  5
1F8A
330
1EAF
100
AcDbEntity
  8
実形
 62
     0
370
    18
100
AcDbLine
 10
2387.233877365066
 20
695.0056853622645
 30
0.0
 11
2387.233877365066
 21
733.9587029177619
 31
0.0
  0
LINE
  5
1F8B
330
1EAF
100
AcDbEntity
  8
実形
 62
     0
370
    18
100
AcDbLine
 10
2621.233877365066
 20
696.1956311673382
 30
0.0
 11
2621.233877365066
 21
733.9587029177619
 31
0.0
  0
LINE
  5
1F8C
330
1EAF
100
AcDbEntity
  8
実形
 62
     0
370
    18
100
AcDbLine
 10
2387.233877365066
 20
733.9587029177619
 30
0.0
 11
2621.233877365066
 21
733.9587029177619
 31
0.0
  0
INSERT
  5
1F8D
330
1EAF
100
AcDbEntity
  8
実形
 62
     0
370
    18
100
AcDbBlockReference
  2
_DotSmall
 10
2387.233877365066
 20
733.9587029177619
 30
0.0
 41
30.0
 42
30.0
 43
30.0
 50
180.0
  0
INSERT
  5
1F8E
330
1EAF
100
AcDbEntity
  8
実形
 62
     0
370
    18
100
AcDbBlockReference
  2
_DotSmall
 10
2621.233877365066
 20
733.9587029177619
 30
0.0
 41
30.0
 42
30.0
 43
30.0
  0
MTEXT
  5
1F8F
330
1EAF
100
AcDbEntity
  8
実形
 62
     0
100
AcDbMText
 10
2504.233877365066
 20
752.7087029177619
 30
0.0
 40
25.0
 41
0.0
 71
     5
 72
     1
  1
15
 73
     1
 44
1.0
1001
ACAD
1000
MTEXTBEGIN
1070
    73
1070
     1
1070
    44
1040
1.0
1070
    74
1070
     0
1000
MTEXTEND
  0
POINT
  5
1F90
330
1EAF
100
AcDbEntity
  8
Defpoints
 62
     0
100
AcDbPoint
 10
2387.233877365066
 20
630.0056853622646
 30
0.0
  0
POINT
  5
1F91
330
1EAF
100
AcDbEntity
  8
Defpoints
 62
     0
100
AcDbPoint
 10
2621.233877365066
 20
631.1956311673382
 30
0.0
  0
POINT
  5
1F92
330
1EAF
100
AcDbEntity
  8
Defpoints
 62
     0
100
AcDbPoint
 10
2621.233877365066
 20
733.9587029177619
 30
0.0
  0
ENDBLK
  5
1EBA
330
1EAF
100
AcDbEntity
  8
0
100
AcDbBlockEnd
  0
BLOCK
  5
1EC5
330
1EBB
100
AcDbEntity
  8
0
100
AcDbBlockBegin
  2
*D38
 70
     1
 10
0.0
 20
0.0
 30
0.0
  3
*D38
  1

  0
LINE
  5
1F93
330
1EBB
100
AcDbEntity
  8
実形
 62
     0
370
    18
100
AcDbLine
 10
2075.233877365066
 20
696.1956311673382
 30
0.0
 11
2075.233877365066
 21
777.4666415156134
 31
0.0
  0
LINE
  5
1F94
330
1EBB
100
AcDbEntity
  8
実形
 62
     0
370
    18
100
AcDbLine
 10
2621.233877365066
 20
696.1956311673382
 30
0.0
 11
2621.233877365066
 21
777.4666415156134
 31
0.0
  0
LINE
  5
1F95
330
1EBB
100
AcDbEntity
  8
実形
 62
     0
370
    18
100
AcDbLine
 10
2075.233877365066
 20
777.4666415156134
 30
0.0
 11
2621.233877365066
 21
777.4666415156134
 31
0.0
  0
INSERT
  5
1F96
330
1EBB
100
AcDbEntity
  8
実形
 62
     0
370
    18
100
AcDbBlockReference
  2
_DotSmall
 10
2075.233877365066
 20
777.4666415156134
 30
0.0
 41
30.0
 42
30.0
 43
30.0
 50
180.0
  0
INSERT
  5
1F97
330
1EBB
100
AcDbEntity
  8
実形
 62
     0
370
    18
100
AcDbBlockReference
  2
_DotSmall
 10
2621.233877365066
 20
777.4666415156134
 30
0.0
 41
30.0
 42
30.0
 43
30.0
  0
MTEXT
  5
1F98
330
1EBB
100
AcDbEntity
  8
実形
 62
     0
100
AcDbMText
 10
2348.233877365066
 20
796.2166415156134
 30
0.0
 40
25.0
 41
0.0
 71
     5
 72
     1
  1
35
 73
     1
 44
1.0
1001
ACAD
1000
MTEXTBEGIN
1070
    73
1070
     1
1070
    44
1040
1.0
1070
    74
1070
     0
1000
MTEXTEND
  0
POINT
  5
1F99
330
1EBB
100
AcDbEntity
  8
Defpoints
 62
     0
100
AcDbPoint
 10
2075.233877365066
 20
631.1956311673382
 30
0.0
  0
POINT
  5
1F9A
330
1EBB
100
AcDbEntity
  8
Defpoints
 62
     0
100
AcDbPoint
 10
2621.233877365066
 20
631.1956311673382
 30
0.0
  0
POINT
  5
1F9B
330
1EBB
100
AcDbEntity
  8
Defpoints
 62
     0
100
AcDbPoint
 10
2621.233877365066
 20
777.4666415156134
 30
0.0
  0
ENDBLK
  5
1EC6
330
1EBB
100
AcDbEntity
  8
0
100
AcDbBlockEnd
  0
BLOCK
  5
1ED1
330
1EC7
100
AcDbEntity
  8
0
100
AcDbBlockBegin
  2
*D39
 70
     1
 10
0.0
 20
0.0
 30
0.0
  3
*D39
  1

  0
LINE
  5
1F9C
330
1EC7
100
AcDbEntity
  8
実形
 62
     0
370
    18
100
AcDbLine
 10
2106.433877365066
 20
346.5474686202858
 30
0.0
 11
2106.433877365066
 21
297.5085770831867
 31
0.0
  0
LINE
  5
1F9D
330
1EC7
100
AcDbEntity
  8
実形
 62
     0
370
    18
100
AcDbLine
 10
2153.233877365066
 20
346.5474686202858
 30
0.0
 11
2153.233877365066
 21
297.5085770831867
 31
0.0
  0
LINE
  5
1F9E
330
1EC7
100
AcDbEntity
  8
実形
 62
     0
370
    18
100
AcDbLine
 10
2106.433877365066
 20
297.5085770831867
 30
0.0
 11
2153.233877365066
 21
297.5085770831867
 31
0.0
  0
MTEXT
  5
1F9F
330
1EC7
100
AcDbEntity
  8
実形
 62
     0
100
AcDbMText
 10
2053.203290699754
 20
332.9138518235977
 30
0.0
 40
25.0
 41
0.0
 71
     5
 72
     1
  1
3.3
 73
     1
 44
1.0
1001
ACAD
1000
MTEXTBEGIN
1070
    73
1070
     1
1070
    44
1040
1.0
1070
    74
1070
     0
1000
MTEXTEND
  0
INSERT
  5
1FA0
330
1EC7
100
AcDbEntity
  8
実形
 62
     0
370
    18
100
AcDbBlockReference
  2
_DotSmall
 10
2106.433877365066
 20
297.5085770831867
 30
0.0
 41
30.0
 42
30.0
 43
30.0
 50
180.0
  0
INSERT
  5
1FA1
330
1EC7
100
AcDbEntity
  8
実形
 62
     0
370
    18
100
AcDbBlockReference
  2
_DotSmall
 10
2153.233877365066
 20
297.5085770831867
 30
0.0
 41
30.0
 42
30.0
 43
30.0
  0
POINT
  5
1FA2
330
1EC7
100
AcDbEntity
  8
Defpoints
 62
     0
100
AcDbPoint
 10
2106.433877365066
 20
411.5474686202857
 30
0.0
  0
POINT
  5
1FA3
330
1EC7
100
AcDbEntity
  8
Defpoints
 62
     0
100
AcDbPoint
 10
2153.233877365066
 20
411.5474686202857
 30
0.0
  0
POINT
  5
1FA4
330
1EC7
100
AcDbEntity
  8
Defpoints
 62
     0
100
AcDbPoint
 10
2153.233877365066
 20
297.5085770831867
 30
0.0
  0
ENDBLK
  5
1ED2
330
1EC7
100
AcDbEntity
  8
0
100
AcDbBlockEnd
  0
BLOCK
  5
1EDD
330
1ED3
100
AcDbEntity
  8
0
100
AcDbBlockBegin
  2
*D40
 70
     1
 10
0.0
 20
0.0
 30
0.0
  3
*D40
  1

  0
LINE
  5
1FA5
330
1ED3
100
AcDbEntity
  8
実形
 62
     0
370
    18
100
AcDbLine
 10
2153.233877365066
 20
346.5474686202858
 30
0.0
 11
2153.233877365066
 21
297.5085770831867
 31
0.0
  0
LINE
  5
1FA6
330
1ED3
100
AcDbEntity
  8
実形
 62
     0
370
    18
100
AcDbLine
 10
2309.233877365066
 20
346.5474686202858
 30
0.0
 11
2309.233877365066
 21
297.5085770831867
 31
0.0
  0
LINE
  5
1FA7
330
1ED3
100
AcDbEntity
  8
実形
 62
     0
370
    18
100
AcDbLine
 10
2153.233877365066
 20
297.5085770831867
 30
0.0
 11
2309.233877365066
 21
297.5085770831867
 31
0.0
  0
INSERT
  5
1FA8
330
1ED3
100
AcDbEntity
  8
実形
 62
     0
370
    18
100
AcDbBlockReference
  2
_DotSmall
 10
2153.233877365066
 20
297.5085770831867
 30
0.0
 41
30.0
 42
30.0
 43
30.0
 50
180.0
  0
INSERT
  5
1FA9
330
1ED3
100
AcDbEntity
  8
実形
 62
     0
370
    18
100
AcDbBlockReference
  2
_DotSmall
 10
2309.233877365066
 20
297.5085770831867
 30
0.0
 41
30.0
 42
30.0
 43
30.0
  0
MTEXT
  5
1FAA
330
1ED3
100
AcDbEntity
  8
実形
 62
     0
100
AcDbMText
 10
2231.233877365066
 20
316.2585770831867
 30
0.0
 40
25.0
 41
0.0
 71
     5
 72
     1
  1
10
 73
     1
 44
1.0
1001
ACAD
1000
MTEXTBEGIN
1070
    73
1070
     1
1070
    44
1040
1.0
1070
    74
1070
     0
1000
MTEXTEND
  0
POINT
  5
1FAB
330
1ED3
100
AcDbEntity
  8
Defpoints
 62
     0
100
AcDbPoint
 10
2153.233877365066
 20
411.5474686202857
 30
0.0
  0
POINT
  5
1FAC
330
1ED3
100
AcDbEntity
  8
Defpoints
 62
     0
100
AcDbPoint
 10
2309.233877365066
 20
411.5474686202857
 30
0.0
  0
POINT
  5
1FAD
330
1ED3
100
AcDbEntity
  8
Defpoints
 62
     0
100
AcDbPoint
 10
2309.233877365066
 20
297.5085770831867
 30
0.0
  0
ENDBLK
  5
1EDE
330
1ED3
100
AcDbEntity
  8
0
100
AcDbBlockEnd
  0
BLOCK
  5
1EE9
330
1EDF
100
AcDbEntity
  8
0
100
AcDbBlockBegin
  2
*D41
 70
     1
 10
0.0
 20
0.0
 30
0.0
  3
*D41
  1

  0
LINE
  5
1FAE
330
1EDF
100
AcDbEntity
  8
実形
 62
     0
370
    18
100
AcDbLine
 10
2309.233877365066
 20
346.5474686202858
 30
0.0
 11
2309.233877365066
 21
297.5085770831867
 31
0.0
  0
LINE
  5
1FAF
330
1EDF
100
AcDbEntity
  8
実形
 62
     0
370
    18
100
AcDbLine
 10
2387.233877365066
 20
346.5474686202858
 30
0.0
 11
2387.233877365066
 21
297.5085770831867
 31
0.0
  0
LINE
  5
1FB0
330
1EDF
100
AcDbEntity
  8
実形
 62
     0
370
    18
100
AcDbLine
 10
2309.233877365066
 20
297.5085770831867
 30
0.0
 11
2387.233877365066
 21
297.5085770831867
 31
0.0
  0
INSERT
  5
1FB1
330
1EDF
100
AcDbEntity
  8
実形
 62
     0
370
    18
100
AcDbBlockReference
  2
_DotSmall
 10
2309.233877365066
 20
297.5085770831867
 30
0.0
 41
30.0
 42
30.0
 43
30.0
 50
180.0
  0
INSERT
  5
1FB2
330
1EDF
100
AcDbEntity
  8
実形
 62
     0
370
    18
100
AcDbBlockReference
  2
_DotSmall
 10
2387.233877365066
 20
297.5085770831867
 30
0.0
 41
30.0
 42
30.0
 43
30.0
  0
MTEXT
  5
1FB3
330
1EDF
100
AcDbEntity
  8
実形
 62
     0
100
AcDbMText
 10
2348.233877365066
 20
316.2585770831867
 30
0.0
 40
25.0
 41
0.0
 71
     5
 72
     1
  1
5
 73
     1
 44
1.0
1001
ACAD
1000
MTEXTBEGIN
1070
    73
1070
     1
1070
    44
1040
1.0
1070
    74
1070
     0
1000
MTEXTEND
  0
POINT
  5
1FB4
330
1EDF
100
AcDbEntity
  8
Defpoints
 62
     0
100
AcDbPoint
 10
2309.233877365066
 20
411.5474686202857
 30
0.0
  0
POINT
  5
1FB5
330
1EDF
100
AcDbEntity
  8
Defpoints
 62
     0
100
AcDbPoint
 10
2387.233877365066
 20
411.5474686202857
 30
0.0
  0
POINT
  5
1FB6
330
1EDF
100
AcDbEntity
  8
Defpoints
 62
     0
100
AcDbPoint
 10
2387.233877365066
 20
297.5085770831867
 30
0.0
  0
ENDBLK
  5
1EEA
330
1EDF
100
AcDbEntity
  8
0
100
AcDbBlockEnd
  0
BLOCK
  5
1EF5
330
1EEB
100
AcDbEntity
  8
0
100
AcDbBlockBegin
  2
*D42
 70
     1
 10
0.0
 20
0.0
 30
0.0
  3
*D42
  1

  0
LINE
  5
1FB7
330
1EEB
100
AcDbEntity
  8
実形
 62
     0
370
    18
100
AcDbLine
 10
2387.233877365066
 20
346.5474686202859
 30
0.0
 11
2387.233877365066
 21
297.5085770831867
 31
0.0
  0
LINE
  5
1FB8
330
1EEB
100
AcDbEntity
  8
実形
 62
     0
370
    18
100
AcDbLine
 10
2621.233877365066
 20
346.5474686202858
 30
0.0
 11
2621.233877365066
 21
297.5085770831867
 31
0.0
  0
LINE
  5
1FB9
330
1EEB
100
AcDbEntity
  8
実形
 62
     0
370
    18
100
AcDbLine
 10
2387.233877365066
 20
297.5085770831867
 30
0.0
 11
2621.233877365066
 21
297.5085770831867
 31
0.0
  0
INSERT
  5
1FBA
330
1EEB
100
AcDbEntity
  8
実形
 62
     0
370
    18
100
AcDbBlockReference
  2
_DotSmall
 10
2387.233877365066
 20
297.5085770831867
 30
0.0
 41
30.0
 42
30.0
 43
30.0
 50
180.0
  0
INSERT
  5
1FBB
330
1EEB
100
AcDbEntity
  8
実形
 62
     0
370
    18
100
AcDbBlockReference
  2
_DotSmall
 10
2621.233877365066
 20
297.5085770831867
 30
0.0
 41
30.0
 42
30.0
 43
30.0
  0
MTEXT
  5
1FBC
330
1EEB
100
AcDbEntity
  8
実形
 62
     0
100
AcDbMText
 10
2504.233877365066
 20
316.2585770831867
 30
0.0
 40
25.0
 41
0.0
 71
     5
 72
     1
  1
15
 73
     1
 44
1.0
1001
ACAD
1000
MTEXTBEGIN
1070
    73
1070
     1
1070
    44
1040
1.0
1070
    74
1070
     0
1000
MTEXTEND
  0
POINT
  5
1FBD
330
1EEB
100
AcDbEntity
  8
Defpoints
 62
     0
100
AcDbPoint
 10
2387.233877365066
 20
411.5474686202858
 30
0.0
  0
POINT
  5
1FBE
330
1EEB
100
AcDbEntity
  8
Defpoints
 62
     0
100
AcDbPoint
 10
2621.233877365066
 20
411.5474686202857
 30
0.0
  0
POINT
  5
1FBF
330
1EEB
100
AcDbEntity
  8
Defpoints
 62
     0
100
AcDbPoint
 10
2621.233877365066
 20
297.5085770831867
 30
0.0
  0
ENDBLK
  5
1EF6
330
1EEB
100
AcDbEntity
  8
0
100
AcDbBlockEnd
  0
BLOCK
  5
1F01
330
1EF7
100
AcDbEntity
  8
0
100
AcDbBlockBegin
  2
*D43
 70
     1
 10
0.0
 20
0.0
 30
0.0
  3
*D43
  1

  0
LINE
  5
1FC0
330
1EF7
100
AcDbEntity
  8
実形
 62
     0
370
    18
100
AcDbLine
 10
2077.023276234157
 20
297.8281686160613
 30
0.0
 11
2077.023276234157
 21
247.5388396829094
 31
0.0
  0
LINE
  5
1FC1
330
1EF7
100
AcDbEntity
  8
実形
 62
     0
370
    18
100
AcDbLine
 10
2155.023276234156
 20
297.8281686160613
 30
0.0
 11
2155.023276234156
 21
247.5388396829094
 31
0.0
  0
LINE
  5
1FC2
330
1EF7
100
AcDbEntity
  8
実形
 62
     0
370
    18
100
AcDbLine
 10
2077.023276234157
 20
247.5388396829094
 30
0.0
 11
2155.023276234156
 21
247.5388396829094
 31
0.0
  0
INSERT
  5
1FC3
330
1EF7
100
AcDbEntity
  8
実形
 62
     0
370
    18
100
AcDbBlockReference
  2
_DotSmall
 10
2077.023276234157
 20
247.5388396829094
 30
0.0
 41
30.0
 42
30.0
 43
30.0
 50
180.0
  0
INSERT
  5
1FC4
330
1EF7
100
AcDbEntity
  8
実形
 62
     0
370
    18
100
AcDbBlockReference
  2
_DotSmall
 10
2155.023276234156
 20
247.5388396829094
 30
0.0
 41
30.0
 42
30.0
 43
30.0
  0
MTEXT
  5
1FC5
330
1EF7
100
AcDbEntity
  8
実形
 62
     0
100
AcDbMText
 10
2116.023276234157
 20
266.2888396829094
 30
0.0
 40
25.0
 41
0.0
 71
     5
 72
     1
  1
5
 73
     1
 44
1.0
1001
ACAD
1000
MTEXTBEGIN
1070
    73
1070
     1
1070
    44
1040
1.0
1070
    74
1070
     0
1000
MTEXTEND
  0
POINT
  5
1FC6
330
1EF7
100
AcDbEntity
  8
Defpoints
 62
     0
100
AcDbPoint
 10
2077.023276234157
 20
362.8281686160613
 30
0.0
  0
POINT
  5
1FC7
330
1EF7
100
AcDbEntity
  8
Defpoints
 62
     0
100
AcDbPoint
 10
2155.023276234156
 20
362.8281686160613
 30
0.0
  0
POINT
  5
1FC8
330
1EF7
100
AcDbEntity
  8
Defpoints
 62
     0
100
AcDbPoint
 10
2155.023276234156
 20
247.5388396829094
 30
0.0
  0
ENDBLK
  5
1F02
330
1EF7
100
AcDbEntity
  8
0
100
AcDbBlockEnd
  0
BLOCK
  5
1F0D
330
1F03
100
AcDbEntity
  8
0
100
AcDbBlockBegin
  2
*D44
 70
     1
 10
0.0
 20
0.0
 30
0.0
  3
*D44
  1

  0
LINE
  5
1FC9
330
1F03
100
AcDbEntity
  8
実形
 62
     0
370
    18
100
AcDbLine
 10
2155.023276234156
 20
297.8281686160613
 30
0.0
 11
2155.023276234156
 21
247.5388396829094
 31
0.0
  0
LINE
  5
1FCA
330
1F03
100
AcDbEntity
  8
実形
 62
     0
370
    18
100
AcDbLine
 10
2623.023276234156
 20
297.8281686160613
 30
0.0
 11
2623.023276234156
 21
247.5388396829094
 31
0.0
  0
LINE
  5
1FCB
330
1F03
100
AcDbEntity
  8
実形
 62
     0
370
    18
100
AcDbLine
 10
2155.023276234156
 20
247.5388396829094
 30
0.0
 11
2623.023276234156
 21
247.5388396829094
 31
0.0
  0
INSERT
  5
1FCC
330
1F03
100
AcDbEntity
  8
実形
 62
     0
370
    18
100
AcDbBlockReference
  2
_DotSmall
 10
2155.023276234156
 20
247.5388396829094
 30
0.0
 41
30.0
 42
30.0
 43
30.0
 50
180.0
  0
INSERT
  5
1FCD
330
1F03
100
AcDbEntity
  8
実形
 62
     0
370
    18
100
AcDbBlockReference
  2
_DotSmall
 10
2623.023276234156
 20
247.5388396829094
 30
0.0
 41
30.0
 42
30.0
 43
30.0
  0
MTEXT
  5
1FCE
330
1F03
100
AcDbEntity
  8
実形
 62
     0
100
AcDbMText
 10
2389.023276234156
 20
266.2888396829094
 30
0.0
 40
25.0
 41
0.0
 71
     5
 72
     1
  1
30
 73
     1
 44
1.0
1001
ACAD
1000
MTEXTBEGIN
1070
    73
1070
     1
1070
    44
1040
1.0
1070
    74
1070
     0
1000
MTEXTEND
  0
POINT
  5
1FCF
330
1F03
100
AcDbEntity
  8
Defpoints
 62
     0
100
AcDbPoint
 10
2155.023276234156
 20
362.8281686160613
 30
0.0
  0
POINT
  5
1FD0
330
1F03
100
AcDbEntity
  8
Defpoints
 62
     0
100
AcDbPoint
 10
2623.023276234156
 20
362.8281686160613
 30
0.0
  0
POINT
  5
1FD1
330
1F03
100
AcDbEntity
  8
Defpoints
 62
     0
100
AcDbPoint
 10
2623.023276234156
 20
247.5388396829094
 30
0.0
  0
ENDBLK
  5
1F0E
330
1F03
100
AcDbEntity
  8
0
100
AcDbBlockEnd
  0
BLOCK
  5
1F19
330
1F0F
100
AcDbEntity
  8
0
100
AcDbBlockBegin
  2
*D45
 70
     1
 10
0.0
 20
0.0
 30
0.0
  3
*D45
  1

  0
LINE
  5
1FD2
330
1F0F
100
AcDbEntity
  8
実形
 62
     0
370
    18
100
AcDbLine
 10
2032.328912889143
 20
684.0947101512855
 30
0.0
 11
1970.032114275532
 21
684.0947101512855
 31
0.0
  0
LINE
  5
1FD3
330
1F0F
100
AcDbEntity
  8
実形
 62
     0
370
    18
100
AcDbLine
 10
2032.328912889143
 20
585.2947101512854
 30
0.0
 11
1970.032114275532
 21
585.2947101512854
 31
0.0
  0
LINE
  5
1FD4
330
1F0F
100
AcDbEntity
  8
実形
 62
     0
370
    18
100
AcDbLine
 10
1970.032114275532
 20
684.0947101512855
 30
0.0
 11
1970.032114275532
 21
585.2947101512854
 31
0.0
  0
INSERT
  5
1FD5
330
1F0F
100
AcDbEntity
  8
実形
 62
     0
370
    18
100
AcDbBlockReference
  2
_DotSmall
 10
1970.032114275532
 20
684.0947101512855
 30
0.0
 41
30.0
 42
30.0
 43
30.0
 50
90.0
  0
INSERT
  5
1FD6
330
1F0F
100
AcDbEntity
  8
実形
 62
     0
370
    18
100
AcDbBlockReference
  2
_DotSmall
 10
1970.032114275532
 20
585.2947101512854
 30
0.0
 41
30.0
 42
30.0
 43
30.0
 50
270.0
  0
MTEXT
  5
1FD7
330
1F0F
100
AcDbEntity
  8
実形
 62
     0
100
AcDbMText
 10
1951.282114275532
 20
634.6947101512859
 30
0.0
 40
25.0
 41
0.0
 71
     5
 72
     1
  1
6.5
 11
0.0000000000000001
 21
1.0
 31
0.0
 73
     1
 44
1.0
1001
ACAD
1000
MTEXTBEGIN
1070
    73
1070
     1
1070
    44
1040
1.0
1070
    74
1070
     0
1000
MTEXTEND
  0
POINT
  5
1FD8
330
1F0F
100
AcDbEntity
  8
Defpoints
 62
     0
100
AcDbPoint
 10
2097.328912889143
 20
684.0947101512855
 30
0.0
  0
POINT
  5
1FD9
330
1F0F
100
AcDbEntity
  8
Defpoints
 62
     0
100
AcDbPoint
 10
2097.328912889143
 20
585.2947101512854
 30
0.0
  0
POINT
  5
1FDA
330
1F0F
100
AcDbEntity
  8
Defpoints
 62
     0
100
AcDbPoint
 10
1970.032114275532
 20
585.2947101512854
 30
0.0
  0
ENDBLK
  5
1F1A
330
1F0F
100
AcDbEntity
  8
0
100
AcDbBlockEnd
  0
BLOCK
  5
1F25
330
1F1B
100
AcDbEntity
  8
0
100
AcDbBlockBegin
  2
*D46
 70
     1
 10
0.0
 20
0.0
 30
0.0
  3
*D46
  1

  0
LINE
  5
1FDB
330
1F1B
100
AcDbEntity
  8
実形
 62
     0
370
    18
100
AcDbLine
 10
2032.328912889143
 20
684.0947101512855
 30
0.0
 11
1916.035186721017
 21
684.0947101512855
 31
0.0
  0
LINE
  5
1FDC
330
1F1B
100
AcDbEntity
  8
実形
 62
     0
370
    18
100
AcDbLine
 10
2032.328912889143
 20
559.2947101512846
 30
0.0
 11
1916.035186721017
 21
559.2947101512846
 31
0.0
  0
LINE
  5
1FDD
330
1F1B
100
AcDbEntity
  8
実形
 62
     0
370
    18
100
AcDbLine
 10
1916.035186721017
 20
684.0947101512855
 30
0.0
 11
1916.035186721017
 21
559.2947101512846
 31
0.0
  0
INSERT
  5
1FDE
330
1F1B
100
AcDbEntity
  8
実形
 62
     0
370
    18
100
AcDbBlockReference
  2
_DotSmall
 10
1916.035186721017
 20
684.0947101512855
 30
0.0
 41
30.0
 42
30.0
 43
30.0
 50
90.0
  0
INSERT
  5
1FDF
330
1F1B
100
AcDbEntity
  8
実形
 62
     0
370
    18
100
AcDbBlockReference
  2
_DotSmall
 10
1916.035186721017
 20
559.2947101512846
 30
0.0
 41
30.0
 42
30.0
 43
30.0
 50
270.0
  0
MTEXT
  5
1FE0
330
1F1B
100
AcDbEntity
  8
実形
 62
     0
100
AcDbMText
 10
1897.285186721017
 20
621.6947101512854
 30
0.0
 40
25.0
 41
0.0
 71
     5
 72
     1
  1
8.3
 11
0.0000000000000001
 21
1.0
 31
0.0
 73
     1
 44
1.0
1001
ACAD
1000
MTEXTBEGIN
1070
    73
1070
     1
1070
    44
1040
1.0
1070
    74
1070
     0
1000
MTEXTEND
  0
POINT
  5
1FE1
330
1F1B
100
AcDbEntity
  8
Defpoints
 62
     0
100
AcDbPoint
 10
2097.328912889143
 20
684.0947101512855
 30
0.0
  0
POINT
  5
1FE2
330
1F1B
100
AcDbEntity
  8
Defpoints
 62
     0
100
AcDbPoint
 10
2097.328912889143
 20
559.2947101512846
 30
0.0
  0
POINT
  5
1FE3
330
1F1B
100
AcDbEntity
  8
Defpoints
 62
     0
100
AcDbPoint
 10
1916.035186721017
 20
559.2947101512846
 30
0.0
  0
ENDBLK
  5
1F26
330
1F1B
100
AcDbEntity
  8
0
100
AcDbBlockEnd
  0
BLOCK
  5
1F31
330
1F27
100
AcDbEntity
  8
0
100
AcDbBlockBegin
  2
*D47
 70
     1
 10
0.0
 20
0.0
 30
0.0
  3
*D47
  1

  0
LINE
  5
1FE4
330
1F27
100
AcDbEntity
  8
実形
 62
     0
370
    18
100
AcDbLine
 10
2032.328912889143
 20
543.6947101512854
 30
0.0
 11
1864.389549972262
 21
543.6947101512854
 31
0.0
  0
LINE
  5
1FE5
330
1F27
100
AcDbEntity
  8
実形
 62
     0
370
    18
100
AcDbLine
 10
2032.328912889143
 20
684.0947101512855
 30
0.0
 11
1864.389549972262
 21
684.0947101512855
 31
0.0
  0
LINE
  5
1FE6
330
1F27
100
AcDbEntity
  8
実形
 62
     0
370
    18
100
AcDbLine
 10
1864.389549972262
 20
543.6947101512854
 30
0.0
 11
1864.389549972262
 21
684.0947101512855
 31
0.0
  0
INSERT
  5
1FE7
330
1F27
100
AcDbEntity
  8
実形
 62
     0
370
    18
100
AcDbBlockReference
  2
_DotSmall
 10
1864.389549972262
 20
543.6947101512854
 30
0.0
 41
30.0
 42
30.0
 43
30.0
 50
270.0
  0
INSERT
  5
1FE8
330
1F27
100
AcDbEntity
  8
実形
 62
     0
370
    18
100
AcDbBlockReference
  2
_DotSmall
 10
1864.389549972262
 20
684.0947101512855
 30
0.0
 41
30.0
 42
30.0
 43
30.0
 50
90.0
  0
MTEXT
  5
1FE9
330
1F27
100
AcDbEntity
  8
実形
 62
     0
100
AcDbMText
 10
1845.639549972261
 20
613.8947101512858
 30
0.0
 40
25.0
 41
0.0
 71
     5
 72
     1
  1
9
 11
0.0000000000000001
 21
1.0
 31
0.0
 73
     1
 44
1.0
1001
ACAD
1000
MTEXTBEGIN
1070
    73
1070
     1
1070
    44
1040
1.0
1070
    74
1070
     0
1000
MTEXTEND
  0
POINT
  5
1FEA
330
1F27
100
AcDbEntity
  8
Defpoints
 62
     0
100
AcDbPoint
 10
2097.328912889143
 20
543.6947101512854
 30
0.0
  0
POINT
  5
1FEB
330
1F27
100
AcDbEntity
  8
Defpoints
 62
     0
100
AcDbPoint
 10
2097.328912889143
 20
684.0947101512855
 30
0.0
  0
POINT
  5
1FEC
330
1F27
100
AcDbEntity
  8
Defpoints
 62
     0
100
AcDbPoint
 10
1864.389549972262
 20
684.0947101512855
 30
0.0
  0
ENDBLK
  5
1F32
330
1F27
100
AcDbEntity
  8
0
100
AcDbBlockEnd
  0
BLOCK
  5
1F3D
330
1F33
100
AcDbEntity
  8
0
100
AcDbBlockBegin
  2
*D48
 70
     1
 10
0.0
 20
0.0
 30
0.0
  3
*D48
  1

  0
LINE
  5
1FED
330
1F33
100
AcDbEntity
  8
実形
 62
     0
370
    18
100
AcDbLine
 10
2647.25404811461
 20
543.6947101512855
 30
0.0
 11
2673.699912636183
 21
543.6947101512855
 31
0.0
  0
LINE
  5
1FEE
330
1F33
100
AcDbEntity
  8
実形
 62
     0
370
    18
100
AcDbLine
 10
2647.25404811461
 20
403.2947101512855
 30
0.0
 11
2673.699912636183
 21
403.2947101512855
 31
0.0
  0
LINE
  5
1FEF
330
1F33
100
AcDbEntity
  8
実形
 62
     0
370
    18
100
AcDbLine
 10
2673.699912636183
 20
543.6947101512855
 30
0.0
 11
2673.699912636183
 21
403.2947101512855
 31
0.0
  0
INSERT
  5
1FF0
330
1F33
100
AcDbEntity
  8
実形
 62
     0
370
    18
100
AcDbBlockReference
  2
_DotSmall
 10
2673.699912636183
 20
543.6947101512855
 30
0.0
 41
30.0
 42
30.0
 43
30.0
 50
90.0
  0
INSERT
  5
1FF1
330
1F33
100
AcDbEntity
  8
実形
 62
     0
370
    18
100
AcDbBlockReference
  2
_DotSmall
 10
2673.699912636183
 20
403.2947101512855
 30
0.0
 41
30.0
 42
30.0
 43
30.0
 50
270.0
  0
MTEXT
  5
1FF2
330
1F33
100
AcDbEntity
  8
実形
 62
     0
100
AcDbMText
 10
2654.949912636183
 20
473.4947101512859
 30
0.0
 40
25.0
 41
0.0
 71
     5
 72
     1
  1
9
 11
0.0000000000000001
 21
1.0
 31
0.0
 73
     1
 44
1.0
1001
ACAD
1000
MTEXTBEGIN
1070
    73
1070
     1
1070
    44
1040
1.0
1070
    74
1070
     0
1000
MTEXTEND
  0
POINT
  5
1FF3
330
1F33
100
AcDbEntity
  8
Defpoints
 62
     0
100
AcDbPoint
 10
2582.25404811461
 20
543.6947101512855
 30
0.0
  0
POINT
  5
1FF4
330
1F33
100
AcDbEntity
  8
Defpoints
 62
     0
100
AcDbPoint
 10
2582.25404811461
 20
403.2947101512855
 30
0.0
  0
POINT
  5
1FF5
330
1F33
100
AcDbEntity
  8
Defpoints
 62
     0
100
AcDbPoint
 10
2673.699912636183
 20
403.2947101512855
 30
0.0
  0
ENDBLK
  5
1F3E
330
1F33
100
AcDbEntity
  8
0
100
AcDbBlockEnd
  0
BLOCK
  5
1F49
330
1F3F
100
AcDbEntity
  8
0
100
AcDbBlockBegin
  2
*D49
 70
     1
 10
0.0
 20
0.0
 30
0.0
  3
*D49
  1

  0
LINE
  5
1FF6
330
1F3F
100
AcDbEntity
  8
実形
 62
     0
370
    18
100
AcDbLine
 10
2647.25404811461
 20
684.0947101512855
 30
0.0
 11
2673.699912636183
 21
684.0947101512855
 31
0.0
  0
LINE
  5
1FF7
330
1F3F
100
AcDbEntity
  8
実形
 62
     0
370
    18
100
AcDbLine
 10
2647.25404811461
 20
543.6947101512855
 30
0.0
 11
2673.699912636183
 21
543.6947101512855
 31
0.0
  0
LINE
  5
1FF8
330
1F3F
100
AcDbEntity
  8
実形
 62
     0
370
    18
100
AcDbLine
 10
2673.699912636183
 20
684.0947101512855
 30
0.0
 11
2673.699912636183
 21
543.6947101512855
 31
0.0
  0
INSERT
  5
1FF9
330
1F3F
100
AcDbEntity
  8
実形
 62
     0
370
    18
100
AcDbBlockReference
  2
_DotSmall
 10
2673.699912636183
 20
684.0947101512855
 30
0.0
 41
30.0
 42
30.0
 43
30.0
 50
90.0
  0
INSERT
  5
1FFA
330
1F3F
100
AcDbEntity
  8
実形
 62
     0
370
    18
100
AcDbBlockReference
  2
_DotSmall
 10
2673.699912636183
 20
543.6947101512855
 30
0.0
 41
30.0
 42
30.0
 43
30.0
 50
270.0
  0
MTEXT
  5
1FFB
330
1F3F
100
AcDbEntity
  8
実形
 62
     0
100
AcDbMText
 10
2654.949912636183
 20
613.8947101512859
 30
0.0
 40
25.0
 41
0.0
 71
     5
 72
     1
  1
9
 11
0.0000000000000001
 21
1.0
 31
0.0
 73
     1
 44
1.0
1001
ACAD
1000
MTEXTBEGIN
1070
    73
1070
     1
1070
    44
1040
1.0
1070
    74
1070
     0
1000
MTEXTEND
  0
POINT
  5
1FFC
330
1F3F
100
AcDbEntity
  8
Defpoints
 62
     0
100
AcDbPoint
 10
2582.25404811461
 20
684.0947101512855
 30
0.0
  0
POINT
  5
1FFD
330
1F3F
100
AcDbEntity
  8
Defpoints
 62
     0
100
AcDbPoint
 10
2582.25404811461
 20
543.6947101512855
 30
0.0
  0
POINT
  5
1FFE
330
1F3F
100
AcDbEntity
  8
Defpoints
 62
     0
100
AcDbPoint
 10
2673.699912636183
 20
543.6947101512855
 30
0.0
  0
ENDBLK
  5
1F4A
330
1F3F
100
AcDbEntity
  8
0
100
AcDbBlockEnd
  0
BLOCK
  5
1F55
330
1F4B
100
AcDbEntity
  8
0
100
AcDbBlockBegin
  2
*D50
 70
     1
 10
0.0
 20
0.0
 30
0.0
  3
*D50
  1

  0
LINE
  5
1FFF
330
1F4B
100
AcDbEntity
  8
実形
 62
     0
370
    18
100
AcDbLine
 10
2647.25404811461
 20
684.0947101512855
 30
0.0
 11
2715.480008308167
 21
684.0947101512855
 31
0.0
  0
LINE
  5
2000
330
1F4B
100
AcDbEntity
  8
実形
 62
     0
370
    18
100
AcDbLine
 10
2647.25404811461
 20
403.2947101512855
 30
0.0
 11
2715.480008308167
 21
403.2947101512855
 31
0.0
  0
LINE
  5
2001
330
1F4B
100
AcDbEntity
  8
実形
 62
     0
370
    18
100
AcDbLine
 10
2715.480008308167
 20
684.0947101512855
 30
0.0
 11
2715.480008308167
 21
403.2947101512855
 31
0.0
  0
INSERT
  5
2002
330
1F4B
100
AcDbEntity
  8
実形
 62
     0
370
    18
100
AcDbBlockReference
  2
_DotSmall
 10
2715.480008308167
 20
684.0947101512855
 30
0.0
 41
30.0
 42
30.0
 43
30.0
 50
90.0
  0
INSERT
  5
2003
330
1F4B
100
AcDbEntity
  8
実形
 62
     0
370
    18
100
AcDbBlockReference
  2
_DotSmall
 10
2715.480008308167
 20
403.2947101512855
 30
0.0
 41
30.0
 42
30.0
 43
30.0
 50
270.0
  0
MTEXT
  5
2004
330
1F4B
100
AcDbEntity
  8
実形
 62
     0
100
AcDbMText
 10
2696.730008308167
 20
543.694710151286
 30
0.0
 40
25.0
 41
0.0
 71
     5
 72
     1
  1
18
 11
0.0000000000000001
 21
1.0
 31
0.0
 73
     1
 44
1.0
1001
ACAD
1000
MTEXTBEGIN
1070
    73
1070
     1
1070
    44
1040
1.0
1070
    74
1070
     0
1000
MTEXTEND
  0
POINT
  5
2005
330
1F4B
100
AcDbEntity
  8
Defpoints
 62
     0
100
AcDbPoint
 10
2582.25404811461
 20
684.0947101512855
 30
0.0
  0
POINT
  5
2006
330
1F4B
100
AcDbEntity
  8
Defpoints
 62
     0
100
AcDbPoint
 10
2582.25404811461
 20
403.2947101512855
 30
0.0
  0
POINT
  5
2007
330
1F4B
100
AcDbEntity
  8
Defpoints
 62
     0
100
AcDbPoint
 10
2715.480008308167
 20
403.2947101512855
 30
0.0
  0
ENDBLK
  5
1F56
330
1F4B
100
AcDbEntity
  8
0
100
AcDbBlockEnd
  0
BLOCK
  5
206E
330
2062
100
AcDbEntity
  8
0
100
AcDbBlockBegin
  2
*D51
 70
     1
 10
0.0
 20
0.0
 30
0.0
  3
*D51
  1

  0
LINE
  5
2120
330
2062
100
AcDbEntity
  8
実形
 62
     0
370
    15
100
AcDbLine
 10
425.6375682076686
 20
750.2815140432121
 30
0.0
 11
344.5593937786942
 21
750.2815140432121
 31
0.0
  0
LINE
  5
2121
330
2062
100
AcDbEntity
  8
実形
 62
     0
370
    15
100
AcDbLine
 10
425.6375682076686
 20
732.2815140432121
 30
0.0
 11
344.5593937786942
 21
732.2815140432121
 31
0.0
  0
LINE
  5
2122
330
2062
100
AcDbEntity
  8
実形
 62
     0
370
    15
100
AcDbLine
 10
344.5593937786942
 20
750.2815140432121
 30
0.0
 11
344.5593937786942
 21
732.2815140432121
 31
0.0
  0
LINE
  5
2123
330
2062
100
AcDbEntity
  8
実形
 62
     0
370
    15
100
AcDbLine
 10
344.5593937786942
 20
741.2815140432122
 30
0.0
 11
286.5745698623213
 21
775.8490125346917
 31
0.0
  0
LINE
  5
2124
330
2062
100
AcDbEntity
  8
実形
 62
     0
370
    15
100
AcDbLine
 10
286.5745698623213
 20
775.8490125346917
 30
0.0
 11
286.5745698623213
 21
821.682345868025
 31
0.0
  0
MTEXT
  5
2125
330
2062
100
AcDbEntity
  8
実形
 62
     0
100
AcDbMText
 10
267.8245698623211
 20
798.7656792013584
 30
0.0
 40
25.0
 41
0.0
 71
     5
 72
     1
  1
18
 11
0.0000000000000001
 21
1.0
 31
0.0
 73
     1
 44
1.0
1001
ACAD
1000
MTEXTBEGIN
1070
    73
1070
     1
1070
    44
1040
1.0
1070
    74
1070
     0
1000
MTEXTEND
  0
INSERT
  5
2126
330
2062
100
AcDbEntity
  8
実形
 62
     0
370
    15
100
AcDbBlockReference
  2
_DotSmall
 10
344.5593937786942
 20
750.2815140432121
 30
0.0
 41
30.0
 42
30.0
 43
30.0
 50
90.0
  0
INSERT
  5
2127
330
2062
100
AcDbEntity
  8
実形
 62
     0
370
    15
100
AcDbBlockReference
  2
_DotSmall
 10
344.5593937786942
 20
732.2815140432121
 30
0.0
 41
30.0
 42
30.0
 43
30.0
 50
270.0
  0
POINT
  5
2128
330
2062
100
AcDbEntity
  8
Defpoints
 62
     0
100
AcDbPoint
 10
490.6375682076686
 20
750.2815140432121
 30
0.0
  0
POINT
  5
2129
330
2062
100
AcDbEntity
  8
Defpoints
 62
     0
100
AcDbPoint
 10
490.6375682076686
 20
732.2815140432121
 30
0.0
  0
POINT
  5
212A
330
2062
100
AcDbEntity
  8
Defpoints
 62
     0
100
AcDbPoint
 10
344.5593937786942
 20
732.2815140432121
 30
0.0
  0
ENDBLK
  5
206F
330
2062
100
AcDbEntity
  8
0
100
AcDbBlockEnd
  0
BLOCK
  5
207F
330
2070
100
AcDbEntity
  8
0
100
AcDbBlockBegin
  2
*D52
 70
     1
 10
0.0
 20
0.0
 30
0.0
  3
*D52
  1

  0
LINE
  5
2109
330
2070
100
AcDbEntity
  8
実形
 62
     0
370
    15
100
AcDbLine
 10
426.6163458488445
 20
732.2815140432121
 30
0.0
 11
344.5593937786942
 21
732.2815140432121
 31
0.0
  0
LINE
  5
210A
330
2070
100
AcDbEntity
  8
実形
 62
     0
370
    15
100
AcDbLine
 10
426.6163458488445
 20
726.9815140432123
 30
0.0
 11
344.5593937786942
 21
726.9815140432123
 31
0.0
  0
LINE
  5
210B
330
2070
100
AcDbEntity
  8
実形
 62
     0
370
    15
100
AcDbLine
 10
344.5593937786942
 20
732.2815140432121
 30
0.0
 11
344.5593937786942
 21
762.2815140432122
 31
0.0
  0
LINE
  5
210C
330
2070
100
AcDbEntity
  8
実形
 62
     0
370
    15
100
AcDbLine
 10
344.5593937786942
 20
726.9815140432123
 30
0.0
 11
344.5593937786942
 21
696.9815140432123
 31
0.0
  0
LINE
  5
210D
330
2070
100
AcDbEntity
  8
実形
 62
     0
370
    15
100
AcDbLine
 10
344.5593937786942
 20
729.6315140432121
 30
0.0
 11
287.492569232454
 21
705.3042754579684
 31
0.0
  0
LINE
  5
210E
330
2070
100
AcDbEntity
  8
実形
 62
     0
370
    15
100
AcDbLine
 10
287.492569232454
 20
705.3042754579684
 30
0.0
 11
287.492569232454
 21
642.8042754579684
 31
0.0
  0
MTEXT
  5
210F
330
2070
100
AcDbEntity
  8
実形
 62
     0
100
AcDbMText
 10
268.7425692324539
 20
674.0542754579685
 30
0.0
 40
25.0
 41
0.0
 71
     5
 72
     1
  1
5.3
 11
0.0000000000000001
 21
1.0
 31
0.0
 73
     1
 44
1.0
1001
ACAD
1000
MTEXTBEGIN
1070
    73
1070
     1
1070
    44
1040
1.0
1070
    74
1070
     0
1000
MTEXTEND
  0
LINE
  5
2110
330
2070
100
AcDbEntity
  8
実形
 62
     0
370
    15
100
AcDbLine
 10
344.5593937786942
 20
732.2815140432121
 30
0.0
 11
344.5593937786942
 21
726.9815140432123
 31
0.0
  0
LINE
  5
2111
330
2070
100
AcDbEntity
  8
実形
 62
     0
370
    15
100
AcDbLine
 10
344.5593937786942
 20
732.2815140432121
 30
0.0
 11
344.5593937786942
 21
726.9815140432123
 31
0.0
  0
INSERT
  5
2112
330
2070
100
AcDbEntity
  8
実形
 62
     0
370
    15
100
AcDbBlockReference
  2
_DotSmall
 10
344.5593937786942
 20
732.2815140432121
 30
0.0
 41
30.0
 42
30.0
 43
30.0
 50
270.0
  0
INSERT
  5
2113
330
2070
100
AcDbEntity
  8
実形
 62
     0
370
    15
100
AcDbBlockReference
  2
_DotSmall
 10
344.5593937786942
 20
726.9815140432123
 30
0.0
 41
30.0
 42
30.0
 43
30.0
 50
90.0
  0
POINT
  5
2114
330
2070
100
AcDbEntity
  8
Defpoints
 62
     0
100
AcDbPoint
 10
491.6163458488445
 20
732.2815140432121
 30
0.0
  0
POINT
  5
2115
330
2070
100
AcDbEntity
  8
Defpoints
 62
     0
100
AcDbPoint
 10
491.6163458488445
 20
726.9815140432123
 30
0.0
  0
POINT
  5
2116
330
2070
100
AcDbEntity
  8
Defpoints
 62
     0
100
AcDbPoint
 10
344.5593937786942
 20
726.9815140432123
 30
0.0
  0
ENDBLK
  5
2080
330
2070
100
AcDbEntity
  8
0
100
AcDbBlockEnd
  0
BLOCK
  5
208B
330
2081
100
AcDbEntity
  8
0
100
AcDbBlockBegin
  2
*D53
 70
     1
 10
0.0
 20
0.0
 30
0.0
  3
*D53
  1

  0
LINE
  5
2100
330
2081
100
AcDbEntity
  8
実形
 62
     0
370
    15
100
AcDbLine
 10
425.6974320267033
 20
726.9815140432123
 30
0.0
 11
344.5593937786942
 21
726.9815140432123
 31
0.0
  0
LINE
  5
2101
330
2081
100
AcDbEntity
  8
実形
 62
     0
370
    15
100
AcDbLine
 10
425.6375682076686
 20
551.9815140432122
 30
0.0
 11
344.5593937786942
 21
551.9815140432122
 31
0.0
  0
LINE
  5
2102
330
2081
100
AcDbEntity
  8
実形
 62
     0
370
    15
100
AcDbLine
 10
344.5593937786942
 20
726.9815140432123
 30
0.0
 11
344.5593937786942
 21
551.9815140432122
 31
0.0
  0
INSERT
  5
2103
330
2081
100
AcDbEntity
  8
実形
 62
     0
370
    15
100
AcDbBlockReference
  2
_DotSmall
 10
344.5593937786942
 20
726.9815140432123
 30
0.0
 41
30.0
 42
30.0
 43
30.0
 50
90.0
  0
INSERT
  5
2104
330
2081
100
AcDbEntity
  8
実形
 62
     0
370
    15
100
AcDbBlockReference
  2
_DotSmall
 10
344.5593937786942
 20
551.9815140432122
 30
0.0
 41
30.0
 42
30.0
 43
30.0
 50
270.0
  0
MTEXT
  5
2105
330
2081
100
AcDbEntity
  8
実形
 62
     0
100
AcDbMText
 10
325.8093937786941
 20
639.4815140432124
 30
0.0
 40
25.0
 41
0.0
 71
     5
 72
     1
  1
175
 11
0.0000000000000001
 21
1.0
 31
0.0
 73
     1
 44
1.0
1001
ACAD
1000
MTEXTBEGIN
1070
    73
1070
     1
1070
    44
1040
1.0
1070
    74
1070
     0
1000
MTEXTEND
  0
POINT
  5
2106
330
2081
100
AcDbEntity
  8
Defpoints
 62
     0
100
AcDbPoint
 10
490.6974320267034
 20
726.9815140432123
 30
0.0
  0
POINT
  5
2107
330
2081
100
AcDbEntity
  8
Defpoints
 62
     0
100
AcDbPoint
 10
490.6375682076686
 20
551.9815140432122
 30
0.0
  0
POINT
  5
2108
330
2081
100
AcDbEntity
  8
Defpoints
 62
     0
100
AcDbPoint
 10
344.5593937786942
 20
551.9815140432122
 30
0.0
  0
ENDBLK
  5
208C
330
2081
100
AcDbEntity
  8
0
100
AcDbBlockEnd
  0
BLOCK
  5
2097
330
208D
100
AcDbEntity
  8
0
100
AcDbBlockBegin
  2
*D54
 70
     1
 10
0.0
 20
0.0
 30
0.0
  3
*D54
  1

  0
LINE
  5
20F7
330
208D
100
AcDbEntity
  8
実形
 62
     0
370
    15
100
AcDbLine
 10
360.6375682076687
 20
750.2815140432122
 30
0.0
 11
216.5400121081273
 21
750.2815140432123
 31
0.0
  0
LINE
  5
20F8
330
208D
100
AcDbEntity
  8
実形
 62
     0
370
    15
100
AcDbLine
 10
360.6375682076687
 20
551.9815140432122
 30
0.0
 11
216.5400121081272
 21
551.9815140432123
 31
0.0
  0
LINE
  5
20F9
330
208D
100
AcDbEntity
  8
実形
 62
     0
370
    15
100
AcDbLine
 10
216.5400121081273
 20
750.2815140432123
 30
0.0
 11
216.5400121081272
 21
551.9815140432123
 31
0.0
  0
INSERT
  5
20FA
330
208D
100
AcDbEntity
  8
実形
 62
     0
370
    15
100
AcDbBlockReference
  2
_DotSmall
 10
216.5400121081273
 20
750.2815140432123
 30
0.0
 41
30.0
 42
30.0
 43
30.0
 50
90.0
  0
INSERT
  5
20FB
330
208D
100
AcDbEntity
  8
実形
 62
     0
370
    15
100
AcDbBlockReference
  2
_DotSmall
 10
216.5400121081272
 20
551.9815140432123
 30
0.0
 41
30.0
 42
30.0
 43
30.0
 50
270.0
  0
MTEXT
  5
20FC
330
208D
100
AcDbEntity
  8
実形
 62
     0
100
AcDbMText
 10
197.7900121081271
 20
651.1315140432123
 30
0.0
 40
25.0
 41
0.0
 71
     5
 72
     1
  1
198.3
 11
0.0000000000000001
 21
1.0
 31
0.0
 73
     1
 44
1.0
1001
ACAD
1000
MTEXTBEGIN
1070
    73
1070
     1
1070
    44
1040
1.0
1070
    74
1070
     0
1000
MTEXTEND
  0
POINT
  5
20FD
330
208D
100
AcDbEntity
  8
Defpoints
 62
     0
100
AcDbPoint
 10
425.6375682076686
 20
750.2815140432122
 30
0.0
  0
POINT
  5
20FE
330
208D
100
AcDbEntity
  8
Defpoints
 62
     0
100
AcDbPoint
 10
425.6375682076686
 20
551.9815140432122
 30
0.0
  0
POINT
  5
20FF
330
208D
100
AcDbEntity
  8
Defpoints
 62
     0
100
AcDbPoint
 10
216.5400121081272
 20
551.9815140432123
 30
0.0
  0
ENDBLK
  5
2098
330
208D
100
AcDbEntity
  8
0
100
AcDbBlockEnd
  0
BLOCK
  5
20A5
330
2099
100
AcDbEntity
  8
0
100
AcDbBlockBegin
  2
*D55
 70
     1
 10
0.0
 20
0.0
 30
0.0
  3
*D55
  1

  0
LINE
  5
20D2
330
2099
100
AcDbEntity
  8
実形
 62
     0
370
    15
100
AcDbLine
 10
425.6375682076685
 20
551.9815140432122
 30
0.0
 11
344.5593937786942
 21
551.9815140432122
 31
0.0
  0
LINE
  5
20D3
330
2099
100
AcDbEntity
  8
実形
 62
     0
370
    15
100
AcDbLine
 10
425.6375682076685
 20
541.9815140432121
 30
0.0
 11
344.5593937786942
 21
541.9815140432121
 31
0.0
  0
LINE
  5
20D4
330
2099
100
AcDbEntity
  8
実形
 62
     0
370
    15
100
AcDbLine
 10
344.5593937786942
 20
551.9815140432122
 30
0.0
 11
344.5593937786942
 21
581.9815140432122
 31
0.0
  0
LINE
  5
20D5
330
2099
100
AcDbEntity
  8
実形
 62
     0
370
    15
100
AcDbLine
 10
344.5593937786942
 20
541.9815140432121
 30
0.0
 11
344.5593937786942
 21
511.9815140432122
 31
0.0
  0
MTEXT
  5
20D6
330
2099
100
AcDbEntity
  8
実形
 62
     0
100
AcDbMText
 10
319.735749256746
 20
531.1854935505646
 30
0.0
 40
25.0
 41
0.0
 71
     5
 72
     1
  1
7
 11
0.0000000000000001
 21
1.0
 31
0.0
 73
     1
 44
1.0
1001
ACAD
1000
MTEXTBEGIN
1070
    73
1070
     1
1070
    44
1040
1.0
1070
    74
1070
     0
1000
MTEXTEND
  0
LINE
  5
20D7
330
2099
100
AcDbEntity
  8
実形
 62
     0
370
    15
100
AcDbLine
 10
344.5593937786942
 20
551.9815140432122
 30
0.0
 11
344.5593937786942
 21
541.9815140432121
 31
0.0
  0
INSERT
  5
20D8
330
2099
100
AcDbEntity
  8
実形
 62
     0
370
    15
100
AcDbBlockReference
  2
_DotSmall
 10
344.5593937786942
 20
551.9815140432122
 30
0.0
 41
30.0
 42
30.0
 43
30.0
 50
270.0
  0
INSERT
  5
20D9
330
2099
100
AcDbEntity
  8
実形
 62
     0
370
    15
100
AcDbBlockReference
  2
_DotSmall
 10
344.5593937786942
 20
541.9815140432121
 30
0.0
 41
30.0
 42
30.0
 43
30.0
 50
90.0
  0
POINT
  5
20DA
330
2099
100
AcDbEntity
  8
Defpoints
 62
     0
100
AcDbPoint
 10
490.6375682076685
 20
551.9815140432122
 30
0.0
  0
POINT
  5
20DB
330
2099
100
AcDbEntity
  8
Defpoints
 62
     0
100
AcDbPoint
 10
490.6375682076685
 20
541.9815140432121
 30
0.0
  0
POINT
  5
20DC
330
2099
100
AcDbEntity
  8
Defpoints
 62
     0
100
AcDbPoint
 10
344.5593937786942
 20
541.9815140432121
 30
0.0
  0
ENDBLK
  5
20A6
330
2099
100
AcDbEntity
  8
0
100
AcDbBlockEnd
  0
BLOCK
  5
22A9
330
229D
100
AcDbEntity
  8
0
100
AcDbBlockBegin
  2
*D56
 70
     1
 10
0.0
 20
0.0
 30
0.0
  3
*D56
  1

  0
LINE
  5
233C
330
229D
100
AcDbEntity
  8
実形
 62
     0
370
    15
100
AcDbLine
 10
1482.357403429265
 20
1089.918395860199
 30
0.0
 11
1482.357403429265
 21
1008.840221431225
 31
0.0
  0
LINE
  5
233D
330
229D
100
AcDbEntity
  8
実形
 62
     0
370
    15
100
AcDbLine
 10
1500.357403429265
 20
1089.918395860199
 30
0.0
 11
1500.357403429265
 21
1008.840221431225
 31
0.0
  0
LINE
  5
233E
330
229D
100
AcDbEntity
  8
実形
 62
     0
370
    15
100
AcDbLine
 10
1482.357403429265
 20
1008.840221431225
 30
0.0
 11
1500.357403429265
 21
1008.840221431225
 31
0.0
  0
LINE
  5
233F
330
229D
100
AcDbEntity
  8
実形
 62
     0
370
    15
100
AcDbLine
 10
1491.357403429265
 20
1008.840221431225
 30
0.0
 11
1456.789904937785
 21
950.8553975148522
 31
0.0
  0
LINE
  5
2340
330
229D
100
AcDbEntity
  8
実形
 62
     0
370
    15
100
AcDbLine
 10
1456.789904937785
 20
950.8553975148522
 30
0.0
 11
1410.956571604452
 21
950.8553975148522
 31
0.0
  0
MTEXT
  5
2341
330
229D
100
AcDbEntity
  8
実形
 62
     0
100
AcDbMText
 10
1433.873238271118
 20
969.6053975148522
 30
0.0
 40
25.0
 41
0.0
 71
     5
 72
     1
  1
18
 73
     1
 44
1.0
1001
ACAD
1000
MTEXTBEGIN
1070
    73
1070
     1
1070
    44
1040
1.0
1070
    74
1070
     0
1000
MTEXTEND
  0
INSERT
  5
2342
330
229D
100
AcDbEntity
  8
実形
 62
     0
370
    15
100
AcDbBlockReference
  2
_DotSmall
 10
1482.357403429265
 20
1008.840221431225
 30
0.0
 41
30.0
 42
30.0
 43
30.0
 50
180.0
  0
INSERT
  5
2343
330
229D
100
AcDbEntity
  8
実形
 62
     0
370
    15
100
AcDbBlockReference
  2
_DotSmall
 10
1500.357403429265
 20
1008.840221431225
 30
0.0
 41
30.0
 42
30.0
 43
30.0
  0
POINT
  5
2344
330
229D
100
AcDbEntity
  8
Defpoints
 62
     0
100
AcDbPoint
 10
1482.357403429265
 20
1154.918395860199
 30
0.0
  0
POINT
  5
2345
330
229D
100
AcDbEntity
  8
Defpoints
 62
     0
100
AcDbPoint
 10
1500.357403429265
 20
1154.918395860199
 30
0.0
  0
POINT
  5
2346
330
229D
100
AcDbEntity
  8
Defpoints
 62
     0
100
AcDbPoint
 10
1500.357403429265
 20
1008.840221431225
 30
0.0
  0
ENDBLK
  5
22AA
330
229D
100
AcDbEntity
  8
0
100
AcDbBlockEnd
  0
BLOCK
  5
22BA
330
22AB
100
AcDbEntity
  8
0
100
AcDbBlockBegin
  2
*D57
 70
     1
 10
0.0
 20
0.0
 30
0.0
  3
*D57
  1

  0
LINE
  5
232E
330
22AB
100
AcDbEntity
  8
実形
 62
     0
370
    15
100
AcDbLine
 10
1500.357403429265
 20
1090.897173501375
 30
0.0
 11
1500.357403429265
 21
1008.840221431225
 31
0.0
  0
LINE
  5
232F
330
22AB
100
AcDbEntity
  8
実形
 62
     0
370
    15
100
AcDbLine
 10
1505.657403429265
 20
1090.897173501375
 30
0.0
 11
1505.657403429265
 21
1008.840221431225
 31
0.0
  0
LINE
  5
2330
330
22AB
100
AcDbEntity
  8
実形
 62
     0
370
    15
100
AcDbLine
 10
1500.357403429265
 20
1008.840221431225
 30
0.0
 11
1470.357403429265
 21
1008.840221431225
 31
0.0
  0
LINE
  5
2331
330
22AB
100
AcDbEntity
  8
実形
 62
     0
370
    15
100
AcDbLine
 10
1505.657403429265
 20
1008.840221431225
 30
0.0
 11
1535.657403429265
 21
1008.840221431225
 31
0.0
  0
LINE
  5
2332
330
22AB
100
AcDbEntity
  8
実形
 62
     0
370
    15
100
AcDbLine
 10
1503.007403429265
 20
1008.840221431225
 30
0.0
 11
1527.334642014508
 21
951.7733968849849
 31
0.0
  0
LINE
  5
2333
330
22AB
100
AcDbEntity
  8
実形
 62
     0
370
    15
100
AcDbLine
 10
1527.334642014508
 20
951.7733968849849
 30
0.0
 11
1589.834642014508
 21
951.7733968849849
 31
0.0
  0
MTEXT
  5
2334
330
22AB
100
AcDbEntity
  8
実形
 62
     0
100
AcDbMText
 10
1558.584642014508
 20
970.5233968849849
 30
0.0
 40
25.0
 41
0.0
 71
     5
 72
     1
  1
5.3
 73
     1
 44
1.0
1001
ACAD
1000
MTEXTBEGIN
1070
    73
1070
     1
1070
    44
1040
1.0
1070
    74
1070
     0
1000
MTEXTEND
  0
LINE
  5
2335
330
22AB
100
AcDbEntity
  8
実形
 62
     0
370
    15
100
AcDbLine
 10
1500.357403429265
 20
1008.840221431225
 30
0.0
 11
1505.657403429265
 21
1008.840221431225
 31
0.0
  0
LINE
  5
2336
330
22AB
100
AcDbEntity
  8
実形
 62
     0
370
    15
100
AcDbLine
 10
1500.357403429265
 20
1008.840221431225
 30
0.0
 11
1505.657403429265
 21
1008.840221431225
 31
0.0
  0
INSERT
  5
2337
330
22AB
100
AcDbEntity
  8
実形
 62
     0
370
    15
100
AcDbBlockReference
  2
_DotSmall
 10
1500.357403429265
 20
1008.840221431225
 30
0.0
 41
30.0
 42
30.0
 43
30.0
  0
INSERT
  5
2338
330
22AB
100
AcDbEntity
  8
実形
 62
     0
370
    15
100
AcDbBlockReference
  2
_DotSmall
 10
1505.657403429265
 20
1008.840221431225
 30
0.0
 41
30.0
 42
30.0
 43
30.0
 50
180.0
  0
POINT
  5
2339
330
22AB
100
AcDbEntity
  8
Defpoints
 62
     0
100
AcDbPoint
 10
1500.357403429265
 20
1155.897173501375
 30
0.0
  0
POINT
  5
233A
330
22AB
100
AcDbEntity
  8
Defpoints
 62
     0
100
AcDbPoint
 10
1505.657403429265
 20
1155.897173501375
 30
0.0
  0
POINT
  5
233B
330
22AB
100
AcDbEntity
  8
Defpoints
 62
     0
100
AcDbPoint
 10
1505.657403429265
 20
1008.840221431225
 30
0.0
  0
ENDBLK
  5
22BB
330
22AB
100
AcDbEntity
  8
0
100
AcDbBlockEnd
  0
BLOCK
  5
22C6
330
22BC
100
AcDbEntity
  8
0
100
AcDbBlockBegin
  2
*D58
 70
     1
 10
0.0
 20
0.0
 30
0.0
  3
*D58
  1

  0
LINE
  5
2325
330
22BC
100
AcDbEntity
  8
実形
 62
     0
370
    15
100
AcDbLine
 10
1505.657403429265
 20
1089.978259679234
 30
0.0
 11
1505.657403429265
 21
1008.840221431225
 31
0.0
  0
LINE
  5
2326
330
22BC
100
AcDbEntity
  8
実形
 62
     0
370
    15
100
AcDbLine
 10
1680.657403429265
 20
1089.918395860199
 30
0.0
 11
1680.657403429265
 21
1008.840221431225
 31
0.0
  0
LINE
  5
2327
330
22BC
100
AcDbEntity
  8
実形
 62
     0
370
    15
100
AcDbLine
 10
1505.657403429265
 20
1008.840221431225
 30
0.0
 11
1680.657403429265
 21
1008.840221431225
 31
0.0
  0
INSERT
  5
2328
330
22BC
100
AcDbEntity
  8
実形
 62
     0
370
    15
100
AcDbBlockReference
  2
_DotSmall
 10
1505.657403429265
 20
1008.840221431225
 30
0.0
 41
30.0
 42
30.0
 43
30.0
 50
180.0
  0
INSERT
  5
2329
330
22BC
100
AcDbEntity
  8
実形
 62
     0
370
    15
100
AcDbBlockReference
  2
_DotSmall
 10
1680.657403429265
 20
1008.840221431225
 30
0.0
 41
30.0
 42
30.0
 43
30.0
  0
MTEXT
  5
232A
330
22BC
100
AcDbEntity
  8
実形
 62
     0
100
AcDbMText
 10
1593.157403429264
 20
1027.590221431225
 30
0.0
 40
25.0
 41
0.0
 71
     5
 72
     1
  1
175
 73
     1
 44
1.0
1001
ACAD
1000
MTEXTBEGIN
1070
    73
1070
     1
1070
    44
1040
1.0
1070
    74
1070
     0
1000
MTEXTEND
  0
POINT
  5
232B
330
22BC
100
AcDbEntity
  8
Defpoints
 62
     0
100
AcDbPoint
 10
1505.657403429265
 20
1154.978259679234
 30
0.0
  0
POINT
  5
232C
330
22BC
100
AcDbEntity
  8
Defpoints
 62
     0
100
AcDbPoint
 10
1680.657403429265
 20
1154.918395860199
 30
0.0
  0
POINT
  5
232D
330
22BC
100
AcDbEntity
  8
Defpoints
 62
     0
100
AcDbPoint
 10
1680.657403429265
 20
1008.840221431225
 30
0.0
  0
ENDBLK
  5
22C7
330
22BC
100
AcDbEntity
  8
0
100
AcDbBlockEnd
  0
BLOCK
  5
22D2
330
22C8
100
AcDbEntity
  8
0
100
AcDbBlockBegin
  2
*D59
 70
     1
 10
0.0
 20
0.0
 30
0.0
  3
*D59
  1

  0
LINE
  5
231C
330
22C8
100
AcDbEntity
  8
実形
 62
     0
370
    15
100
AcDbLine
 10
1482.357403429265
 20
1024.918395860199
 30
0.0
 11
1482.357403429265
 21
880.8208397606584
 31
0.0
  0
LINE
  5
231D
330
22C8
100
AcDbEntity
  8
実形
 62
     0
370
    15
100
AcDbLine
 10
1680.657403429265
 20
1024.918395860199
 30
0.0
 11
1680.657403429265
 21
880.8208397606584
 31
0.0
  0
LINE
  5
231E
330
22C8
100
AcDbEntity
  8
実形
 62
     0
370
    15
100
AcDbLine
 10
1482.357403429265
 20
880.8208397606584
 30
0.0
 11
1680.657403429265
 21
880.8208397606584
 31
0.0
  0
INSERT
  5
231F
330
22C8
100
AcDbEntity
  8
実形
 62
     0
370
    15
100
AcDbBlockReference
  2
_DotSmall
 10
1482.357403429265
 20
880.8208397606584
 30
0.0
 41
30.0
 42
30.0
 43
30.0
 50
180.0
  0
INSERT
  5
2320
330
22C8
100
AcDbEntity
  8
実形
 62
     0
370
    15
100
AcDbBlockReference
  2
_DotSmall
 10
1680.657403429265
 20
880.8208397606584
 30
0.0
 41
30.0
 42
30.0
 43
30.0
  0
MTEXT
  5
2321
330
22C8
100
AcDbEntity
  8
実形
 62
     0
100
AcDbMText
 10
1581.507403429265
 20
899.5708397606584
 30
0.0
 40
25.0
 41
0.0
 71
     5
 72
     1
  1
198.3
 73
     1
 44
1.0
1001
ACAD
1000
MTEXTBEGIN
1070
    73
1070
     1
1070
    44
1040
1.0
1070
    74
1070
     0
1000
MTEXTEND
  0
POINT
  5
2322
330
22C8
100
AcDbEntity
  8
Defpoints
 62
     0
100
AcDbPoint
 10
1482.357403429265
 20
1089.918395860199
 30
0.0
  0
POINT
  5
2323
330
22C8
100
AcDbEntity
  8
Defpoints
 62
     0
100
AcDbPoint
 10
1680.657403429265
 20
1089.918395860199
 30
0.0
  0
POINT
  5
2324
330
22C8
100
AcDbEntity
  8
Defpoints
 62
     0
100
AcDbPoint
 10
1680.657403429265
 20
880.8208397606584
 30
0.0
  0
ENDBLK
  5
22D3
330
22C8
100
AcDbEntity
  8
0
100
AcDbBlockEnd
  0
BLOCK
  5
22E0
330
22D4
100
AcDbEntity
  8
0
100
AcDbBlockBegin
  2
*D60
 70
     1
 10
0.0
 20
0.0
 30
0.0
  3
*D60
  1

  0
LINE
  5
2347
330
22D4
100
AcDbEntity
  8
実形
 62
     0
370
    15
100
AcDbLine
 10
1680.657403429265
 20
1089.918395860199
 30
0.0
 11
1680.657403429265
 21
1008.840221431225
 31
0.0
  0
LINE
  5
2348
330
22D4
100
AcDbEntity
  8
実形
 62
     0
370
    15
100
AcDbLine
 10
1690.657403429265
 20
1089.918395860199
 30
0.0
 11
1690.657403429265
 21
1008.840221431225
 31
0.0
  0
LINE
  5
2349
330
22D4
100
AcDbEntity
  8
実形
 62
     0
370
    15
100
AcDbLine
 10
1680.657403429265
 20
1008.840221431225
 30
0.0
 11
1650.657403429265
 21
1008.840221431225
 31
0.0
  0
LINE
  5
234A
330
22D4
100
AcDbEntity
  8
実形
 62
     0
370
    15
100
AcDbLine
 10
1690.657403429265
 20
1008.840221431225
 30
0.0
 11
1720.657403429265
 21
1008.840221431225
 31
0.0
  0
MTEXT
  5
234B
330
22D4
100
AcDbEntity
  8
実形
 62
     0
100
AcDbMText
 10
1708.600141501029
 20
1030.118704505218
 30
0.0
 40
25.0
 41
0.0
 71
     5
 72
     1
  1
7
 73
     1
 44
1.0
1001
ACAD
1000
MTEXTBEGIN
1070
    73
1070
     1
1070
    44
1040
1.0
1070
    74
1070
     0
1000
MTEXTEND
  0
LINE
  5
234C
330
22D4
100
AcDbEntity
  8
実形
 62
     0
370
    15
100
AcDbLine
 10
1680.657403429265
 20
1008.840221431225
 30
0.0
 11
1690.657403429265
 21
1008.840221431225
 31
0.0
  0
INSERT
  5
234D
330
22D4
100
AcDbEntity
  8
実形
 62
     0
370
    15
100
AcDbBlockReference
  2
_DotSmall
 10
1680.657403429265
 20
1008.840221431225
 30
0.0
 41
30.0
 42
30.0
 43
30.0
  0
INSERT
  5
234E
330
22D4
100
AcDbEntity
  8
実形
 62
     0
370
    15
100
AcDbBlockReference
  2
_DotSmall
 10
1690.657403429265
 20
1008.840221431225
 30
0.0
 41
30.0
 42
30.0
 43
30.0
 50
180.0
  0
POINT
  5
234F
330
22D4
100
AcDbEntity
  8
Defpoints
 62
     0
100
AcDbPoint
 10
1680.657403429265
 20
1154.918395860199
 30
0.0
  0
POINT
  5
2350
330
22D4
100
AcDbEntity
  8
Defpoints
 62
     0
100
AcDbPoint
 10
1690.657403429265
 20
1154.918395860199
 30
0.0
  0
POINT
  5
2351
330
22D4
100
AcDbEntity
  8
Defpoints
 62
     0
100
AcDbPoint
 10
1690.657403429265
 20
1008.840221431225
 30
0.0
  0
ENDBLK
  5
22E1
330
22D4
100
AcDbEntity
  8
0
100
AcDbBlockEnd
  0
ENDSEC
  0
SECTION
  2
ENTITIES
  0
LINE
  5
9C
330
1F
100
AcDbEntity
  8
補助
100
AcDbLine
 10
104.0
 20
4.0
 30
0.0
 11
2784.0
 21
4.0
 31
0.0
  0
LINE
  5
A0
330
1F
100
AcDbEntity
  8
補助
100
AcDbLine
 10
2784.0
 20
2024.0
 30
0.0
 11
104.0
 21
2024.0
 31
0.0
  0
LINE
  5
A5
330
1F
100
AcDbEntity
  8
補助
100
AcDbLine
 10
2784.0
 20
4.0
 30
0.0
 11
2784.0
 21
2024.0
 31
0.0
  0
LINE
  5
A8
330
1F
100
AcDbEntity
  8
補助
100
AcDbLine
 10
2184.0
 20
69.0
 30
0.0
 11
2184.0
 21
199.0
 31
0.0
  0
LINE
  5
A9
330
1F
100
AcDbEntity
  8
補助
100
AcDbLine
 10
2184.0
 20
69.0
 30
0.0
 11
2784.0
 21
69.0
 31
0.0
  0
LINE
  5
AA
330
1F
100
AcDbEntity
  8
補助
100
AcDbLine
 10
2064.0
 20
134.0
 30
0.0
 11
2784.0
 21
134.0
 31
0.0
  0
LINE
  5
AB
330
1F
100
AcDbEntity
  8
補助
100
AcDbLine
 10
2064.0
 20
199.0
 30
0.0
 11
2784.0
 21
199.0
 31
0.0
  0
LINE
  5
AD
330
1F
100
AcDbEntity
  8
補助
100
AcDbLine
 10
2784.0
 20
4.0
 30
0.0
 11
2784.0
 21
69.0
 31
0.0
  0
LINE
  5
25F
330
1F
100
AcDbEntity
  8
0
100
AcDbLine
 10
1031.200257468314
 20
1149.54870917426
 30
0.0
 11
611.2002574683137
 21
1149.54870917426
 31
0.0
  0
LINE
  5
260
330
1F
100
AcDbEntity
  8
0
100
AcDbLine
 10
496.2002574683138
 20
1279.548709174261
 30
0.0
 11
496.2002574683135
 21
1609.548709174261
 31
0.0
  0
LINE
  5
261
330
1F
100
AcDbEntity
  8
0
100
AcDbLine
 10
556.2002574683135
 20
1669.548709174261
 30
0.0
 11
1086.200257468314
 21
1669.548709174261
 31
0.0
  0
LINE
  5
262
330
1F
100
AcDbEntity
  8
0
100
AcDbLine
 10
1146.200257468314
 20
1609.548709174261
 30
0.0
 11
1146.200257468314
 21
1279.548709174261
 31
0.0
  0
LINE
  5
267
330
1F
100
AcDbEntity
  8
0
100
AcDbLine
 10
611.2002574683136
 20
1594.548709174261
 30
0.0
 11
706.2002574683138
 21
1594.548709174261
 31
0.0
  0
LINE
  5
26B
330
1F
100
AcDbEntity
  8
0
100
AcDbLine
 10
1031.200257468314
 20
1164.548709174261
 30
0.0
 11
611.2002574683137
 21
1164.548709174261
 31
0.0
  0
DIMENSION
  5
2E9
330
1F
100
AcDbEntity
  8
0
100
AcDbDimension
  2
*D4
 10
1146.200257468314
 20
1015.640937379544
 30
0.0
 11
1093.283590801647
 21
1034.390937379544
 31
0.0
 70
    32
 71
     5
 42
17.0
  3
ISO-25
100
AcDbAlignedDimension
 13
1163.200257468314
 23
1132.54870917426
 33
0.0
 14
1146.200257468314
 24
1132.54870917426
 34
0.0
 50
180.0
100
AcDbRotatedDimension
  0
DIMENSION
  5
2F7
330
1F
100
AcDbEntity
  8
0
100
AcDbDimension
  2
*D5
 10
496.2002574683138
 20
1015.640937379544
 30
0.0
 11
821.2002574683138
 21
1034.390937379544
 31
0.0
 70
    32
 71
     5
 42
650.0
  3
ISO-25
100
AcDbAlignedDimension
 13
1146.200257468314
 23
1132.54870917426
 33
0.0
 14
496.2002574683138
 24
1132.54870917426
 34
0.0
 50
180.0
100
AcDbRotatedDimension
1001
ACAD
1000
DSTYLE
1002
{
1070
   279
1070
     1
1002
}
  0
DIMENSION
  5
304
330
1F
100
AcDbEntity
  8
0
100
AcDbDimension
  2
*D6
 10
479.2002574683137
 20
1015.640937379544
 30
0.0
 11
539.6584730527702
 21
1015.640937379544
 31
0.0
 70
   160
 71
     5
 42
17.0
  3
ISO-25
100
AcDbAlignedDimension
 13
496.2002574683138
 23
1132.54870917426
 33
0.0
 14
479.2002574683137
 24
1132.54870917426
 34
0.0
 50
180.0
100
AcDbRotatedDimension
1001
ACAD
1000
DSTYLE
1002
{
1070
   279
1070
     1
1002
}
  0
DIMENSION
  5
31C
330
1F
100
AcDbEntity
  8
0
100
AcDbDimension
  2
*D7
 10
479.2002574683137
 20
945.282165424337
 30
0.0
 11
821.2002574683138
 21
964.032165424337
 31
0.0
 70
    32
 71
     5
 42
684.0
  3
ISO-25
100
AcDbAlignedDimension
 13
1163.200257468314
 23
1132.54870917426
 33
0.0
 14
479.2002574683137
 24
1132.54870917426
 34
0.0
 50
180.0
100
AcDbRotatedDimension
  0
ARC
  5
32A
330
1F
100
AcDbEntity
  8
0
100
AcDbCircle
 10
1031.200257468314
 20
1279.548709174261
 30
0.0
 40
115.0
100
AcDbArc
 50
270.0
 51
0.000000000000007
  0
ARC
  5
32B
330
1F
100
AcDbEntity
  8
0
100
AcDbCircle
 10
611.2002574683137
 20
1279.548709174261
 30
0.0
 40
115.0
100
AcDbArc
 50
180.0
 51
270.0
  0
LINE
  5
32C
330
1F
100
AcDbEntity
  8
0
100
AcDbLine
 10
1146.200257468314
 20
1479.548709174261
 30
0.0
 11
1146.200257468314
 21
1264.548709174261
 31
0.0
  0
LINE
  5
32D
330
1F
100
AcDbEntity
  8
0
100
AcDbLine
 10
496.2002574683138
 20
1264.54870917426
 30
0.0
 11
496.2002574683135
 21
1479.548709174261
 31
0.0
  0
ARC
  5
32E
330
1F
100
AcDbEntity
  8
0
100
AcDbCircle
 10
1031.200257468314
 20
1264.548709174261
 30
0.0
 40
115.0
100
AcDbArc
 50
270.0
 51
0.000000000000007
  0
ARC
  5
32F
330
1F
100
AcDbEntity
  8
0
100
AcDbCircle
 10
611.2002574683137
 20
1264.54870917426
 30
0.0
 40
115.0
100
AcDbArc
 50
180.0
 51
270.0
  0
CIRCLE
  5
334
330
1F
100
AcDbEntity
  8
0
100
AcDbCircle
 10
896.2002574683138
 20
1499.54870917426
 30
0.0
 40
79.5
  0
CIRCLE
  5
335
330
1F
100
AcDbEntity
  8
0
100
AcDbCircle
 10
896.2002574683138
 20
1499.54870917426
 30
0.0
 40
90.5
  0
ARC
  5
339
330
1F
100
AcDbEntity
  8
0
100
AcDbCircle
 10
611.2002574683136
 20
1479.548709174261
 30
0.0
 40
115.0
100
AcDbArc
 50
90.0
 51
180.0
  0
ARC
  5
33C
330
1F
100
AcDbEntity
  8
0
100
AcDbCircle
 10
706.2002574683138
 20
1694.548709174261
 30
0.0
 40
100.0
100
AcDbArc
 50
270.0
 51
327.1335352609136
  0
ARC
  5
340
330
1F
100
AcDbEntity
  8
0
100
AcDbCircle
 10
843.9500306078727
 20
1605.54870917426
 30
0.0
 40
64.0
100
AcDbArc
 50
90.0
 51
147.1335352609138
  0
ARC
  5
370
330
1F
100
AcDbEntity
  8
0
100
AcDbCircle
 10
1086.200257468314
 20
1609.548709174261
 30
0.0
 40
60.0
100
AcDbArc
 50
0.000000000000007
 51
90.0
  0
ARC
  5
371
330
1F
100
AcDbEntity
  8
0
100
AcDbCircle
 10
556.2002574683135
 20
1609.548709174261
 30
0.0
 40
60.0
100
AcDbArc
 50
90.00000000000003
 51
180.0
  0
DIMENSION
  5
376
330
1F
100
AcDbEntity
  8
0
100
AcDbDimension
  2
*D8
 10
1146.200257468314
 20
1302.011631232046
 30
0.0
 11
1021.200257468314
 21
1320.761631232046
 31
0.0
 70
    32
 71
     5
 42
250.0
  3
ISO-25
100
AcDbAlignedDimension
 13
896.2002574683138
 23
1461.291620983482
 33
0.0
 14
1146.200257468314
 24
1479.548709174261
 34
0.0
 50
180.0
100
AcDbRotatedDimension
  0
DIMENSION
  5
384
330
1F
100
AcDbEntity
  8
0
100
AcDbDimension
  2
*D9
 10
735.7927551938753
 20
1669.548709174261
 30
0.0
 11
735.792755193875
 21
1553.099103425388
 31
0.0
 70
   160
 71
     5
 42
170.0000000000002
  3
ISO-25
100
AcDbAlignedDimension
 13
834.6399737126285
 23
1499.54870917426
 33
0.0
 14
1086.200257468314
 24
1669.548709174261
 34
0.0
 50
90.0
100
AcDbRotatedDimension
  0
LINE
  5
39A
330
1F
100
AcDbEntity
  8
Cen
 48
0.8
100
AcDbLine
 10
762.0926957892351
 20
1499.54870917426
 30
0.0
 11
1030.307819147392
 21
1499.54870917426
 31
0.0
  0
LINE
  5
39B
330
1F
100
AcDbEntity
  8
Cen
 48
0.8
100
AcDbLine
 10
896.2002574683138
 20
1386.071308263767
 30
0.0
 11
896.2002574683138
 21
1613.026110084754
 31
0.0
  0
CIRCLE
  5
3DF
330
1F
100
AcDbEntity
  8
Cen
100
AcDbCircle
 10
766.2002574683137
 20
1654.54870917426
 30
0.0
 40
6.0
  0
CIRCLE
  5
3E0
330
1F
100
AcDbEntity
  8
Cen
100
AcDbCircle
 10
1026.200257468314
 20
1654.54870917426
 30
0.0
 40
6.0
  0
LINE
  5
40A
330
1F
100
AcDbEntity
  8
0
100
AcDbLine
 10
1146.200257468314
 20
732.2815140432121
 30
0.0
 11
1146.200257468314
 21
591.0278638410659
 31
0.0
  0
LINE
  5
40B
330
1F
100
AcDbEntity
  8
0
100
AcDbLine
 10
496.2002574683139
 20
732.281514043212
 30
0.0
 11
496.200257468314
 21
600.1741612673685
 31
0.0
  0
LINE
  5
413
330
1F
100
AcDbEntity
  8
0
100
AcDbLine
 10
986.7002574683139
 20
544.9815140432122
 30
0.0
 11
976.7002574683139
 21
544.9815140432122
 31
0.0
  0
LINE
  5
414
330
1F
100
AcDbEntity
  8
0
100
AcDbLine
 10
986.7002574683137
 20
551.9815140432121
 30
0.0
 11
986.7002574683137
 21
544.981514043212
 31
0.0
  0
LINE
  5
415
330
1F
100
AcDbEntity
  8
0
100
AcDbLine
 10
805.7002574683137
 20
551.9815140432119
 30
0.0
 11
805.7002574683137
 21
544.981514043212
 31
0.0
  0
LINE
  5
419
330
1F
100
AcDbEntity
  8
0
100
AcDbLine
 10
1117.16905724331
 20
561.0435108049244
 30
0.0
 11
1006.700257468314
 21
553.9815140432121
 31
0.0
  0
LINE
  5
41A
330
1F
100
AcDbEntity
  8
0
100
AcDbLine
 10
524.3385675538609
 20
570.231981809914
 30
0.0
 11
643.1947007074348
 21
562.8419631682409
 31
0.0
  0
LINE
  5
41E
330
1F
100
AcDbEntity
  8
0
100
AcDbLine
 10
986.7002574683137
 20
551.9815140432121
 30
0.0
 11
805.7002574683137
 21
551.9815140432119
 31
0.0
  0
ARC
  5
471
330
1F
100
AcDbEntity
  8
0
100
AcDbCircle
 10
1116.200257468314
 20
591.0278638410659
 30
0.0
 40
30.0
100
AcDbArc
 50
271.8505930230076
 51
360.0
  0
DIMENSION
  5
473
330
1F
100
AcDbEntity
  8
0
100
AcDbDimension
  2
*D10
 10
975.700257468314
 20
463.7005248607811
 30
0.0
 11
896.2002574683138
 21
482.4505248607811
 31
0.0
 70
    32
  1
158
 71
     5
 42
159.0000000000002
  3
ISO-25
100
AcDbAlignedDimension
 13
816.7002574683138
 23
585.0949995587962
 33
0.0
 14
975.700257468314
 24
585.0949995587964
 34
0.0
 50
180.0
100
AcDbRotatedDimension
  0
DIMENSION
  5
480
330
1F
100
AcDbEntity
  8
0
100
AcDbDimension
  2
*D11
 10
986.7002574683137
 20
654.1345385811837
 30
0.0
 11
896.2002574683138
 21
672.8845385811837
 31
0.0
 70
    32
 71
     5
 42
181.0
  3
ISO-25
100
AcDbAlignedDimension
 13
805.7002574683137
 23
551.9815140432119
 33
0.0
 14
986.7002574683137
 24
551.9815140432121
 34
0.0
 50
180.0
100
AcDbRotatedDimension
  0
LINE
  5
48E
330
1F
100
AcDbEntity
  8
Cen
100
AcDbLine
 10
896.2002574683138
 20
635.2871059984472
 30
0.0
 11
896.2002574683138
 21
520.7269720980876
 31
0.0
  0
LEADER
  5
50F
330
1F
100
AcDbEntity
  8
0
100
AcDbLeader
  3
ISO-25
 40
25.0
 41
41.66666666666666
 76
     2
 10
758.6889096886562
 20
1660.49494991493
 30
0.0
 10
734.3558810463009
 20
1745.904724295562
 30
0.0
213
0.0
223
12.5
233
0.0
1001
ACAD
1000
DSTYLE
1002
{
1070
    41
1040
25.0
1070
   147
1040
6.25
1070
    77
1070
     0
1070
    73
1070
     1
1070
    74
1070
     1
1070
   342
1005
DA
1002
}
  0
TEXT
  5
511
330
1F
100
AcDbEntity
  8
0
100
AcDbText
 10
683.8360318378605
 20
1758.513650551347
 30
0.0
 40
25.0
  1
12%%C
 72
     2
 11
742.1693651711939
 21
1755.180317218014
 31
0.0
100
AcDbText
 73
     1
  0
MTEXT
  5
532
330
1F
100
AcDbEntity
  8
0
100
AcDbMText
 10
1469.226616777811
 20
1181.110374981098
 30
0.0
 40
25.0
 41
0.0
 71
     9
 72
     1
  1

 73
     1
 44
1.0
1001
ACAD
1000
MTEXTBEGIN
1070
    73
1070
     1
1070
    44
1040
1.0
1070
    74
1070
     0
1000
MTEXTEND
  0
LEADER
  5
533
330
1F
100
AcDbEntity
  8
0
100
AcDbLeader
  3
ISO-25
 40
25.0
 41
16.66666666666666
 76
     2
 10
530.331279658737
 20
1184.552066832516
 30
0.0
 10
620.7786133982999
 20
1240.608001458674
 30
0.0
211
-1.0
221
0.0
231
0.0
210
0.0
220
0.0
230
-1.0
213
97.31675022588753
223
44.53196128345098
233
0.0
1001
ACAD
1000
DSTYLE
1002
{
1070
    41
1040
25.0
1070
   147
1040
6.25
1070
    77
1070
     0
1070
    73
1070
     1
1070
    74
1070
     1
1070
   279
1070
     1
1070
   342
1005
DA
1002
}
  0
TEXT
  5
537
330
1F
100
AcDbEntity
  8
0
100
AcDbText
 10
630.3494004020385
 20
1235.933346851264
 30
0.0
 40
25.0
  1
114R
 72
     2
 11
705.3494004020385
 21
1232.600013517931
 31
0.0
100
AcDbText
 73
     1
  0
LEADER
  5
53D
330
1F
100
AcDbEntity
  8
0
100
AcDbLeader
  3
ISO-25
 40
25.0
 41
16.66666666666666
 76
     2
 10
907.6769867544671
 20
1174.006731038388
 30
0.0
 10
881.9009566575477
 20
1220.841297991826
 30
0.0
211
-1.0
221
0.0
231
0.0
210
0.0
220
0.0
230
-1.0
213
0.0
223
-12.5
233
0.0
1001
ACAD
1000
DSTYLE
1002
{
1070
    41
1040
25.0
1070
   147
1040
6.25
1070
    77
1070
     0
1070
    73
1070
     1
1070
    74
1070
     1
1070
   279
1070
     1
1070
   342
1005
DA
1002
}
  0
TEXT
  5
53F
330
1F
100
AcDbEntity
  8
0
100
AcDbText
 10
787.5089220236814
 20
1235.466648901808
 30
0.0
 40
25.0
  1
10000R
 11
787.5089220236814
 21
1232.133315568475
 31
0.0
100
AcDbText
 73
     1
  0
LEADER
  5
540
330
1F
100
AcDbEntity
  8
0
100
AcDbLeader
  3
ISO-25
 76
     2
 10
497.1290999748316
 20
1376.125935677413
 30
0.0
 10
593.3009474529999
 20
1376.125935677413
 30
0.0
211
-1.0
221
0.0
231
0.0
210
0.0
220
0.0
230
-1.0
1001
ACAD
1000
DSTYLE
1002
{
1070
    41
1040
25.0
1070
   147
1040
6.25
1070
    77
1070
     0
1070
    73
1070
     1
1070
    74
1070
     1
1070
   279
1070
     1
1070
   342
1005
DA
1002
}
  0
TEXT
  5
54B
330
1F
100
AcDbEntity
  8
0
100
AcDbText
 10
609.1724490752103
 20
1363.625935677413
 30
0.0
 40
25.0
  1
1500R
 72
     2
 11
709.1724490752103
 21
1376.125935677413
 31
0.0
100
AcDbText
 73
     2
  0
LEADER
  5
54C
330
1F
100
AcDbEntity
  8
0
100
AcDbLeader
  3
ISO-25
 40
25.0
 41
16.66666666666666
 76
     2
 10
508.5781274520404
 20
1642.151536180077
 30
0.0
 10
539.0710302701181
 20
1532.203462225289
 30
0.0
211
-1.0
221
0.0
231
0.0
210
0.0
220
0.0
230
-1.0
213
0.0
223
12.5
233
0.0
1001
ACAD
1000
DSTYLE
1002
{
1070
    41
1040
25.0
1070
   147
1040
6.25
1070
    77
1070
     0
1070
    73
1070
     1
1070
    74
1070
     1
1070
   279
1070
     1
1070
   342
1005
DA
1002
}
  0
TEXT
  5
54E
330
1F
100
AcDbEntity
  8
0
100
AcDbText
 10
510.3881344331624
 20
1499.50793018314
 30
0.0
 40
25.0
  1
59R
 72
     2
 11
577.054801099829
 21
1496.174596849807
 31
0.0
100
AcDbText
 73
     1
  0
LEADER
  5
558
330
1F
100
AcDbEntity
  8
0
100
AcDbLeader
  3
ISO-25
 40
25.0
 41
16.66666666666666
 76
     2
 10
979.1098393072607
 20
1654.88263359695
 30
0.0
 10
924.1778998879826
 20
1631.8555489647
 30
0.0
211
-1.0
221
0.0
231
0.0
210
0.0
220
0.0
230
-1.0
213
0.0
223
-12.5
233
0.0
1001
ACAD
1000
DSTYLE
1002
{
1070
    41
1040
25.0
1070
   147
1040
6.25
1070
    77
1070
     0
1070
    73
1070
     1
1070
    74
1070
     1
1070
   279
1070
     1
1070
   342
1005
DA
1002
}
  0
TEXT
  5
55A
330
1F
100
AcDbEntity
  8
0
100
AcDbText
 10
844.3622329403506
 20
1624.337063569122
 30
0.0
 40
25.0
  1
64R
 11
844.3622329403506
 21
1621.003730235788
 31
0.0
100
AcDbText
 73
     1
  0
MTEXT
  5
55C
330
1F
100
AcDbEntity
  8
0
100
AcDbMText
 10
1010.02660136874
 20
1423.470120422065
 30
0.0
 40
25.0
 41
0.0
 71
     1
 72
     1
  1

 73
     1
 44
1.0
1001
ACAD
1000
MTEXTBEGIN
1070
    73
1070
     1
1070
    44
1040
1.0
1070
    74
1070
     0
1000
MTEXTEND
  0
LEADER
  5
55D
330
1F
100
AcDbEntity
  8
0
100
AcDbLeader
  3
ISO-25
 40
25.0
 41
16.66666666666666
 76
     2
 10
665.1479575056409
 20
1588.492624590101
 30
0.0
 10
633.5137359664122
 20
1472.577077729633
 30
0.0
211
-1.0
221
0.0
231
0.0
210
0.0
220
0.0
230
-1.0
213
0.0
223
-12.5
233
0.0
1001
ACAD
1000
DSTYLE
1002
{
1070
    41
1040
25.0
1070
   147
1040
6.25
1070
    77
1070
     0
1070
    73
1070
     1
1070
    74
1070
     1
1070
   279
1070
     1
1070
   342
1005
DA
1002
}
  0
TEXT
  5
55F
330
1F
100
AcDbEntity
  8
0
100
AcDbText
 10
571.0612554224635
 20
1433.280831666226
 30
0.0
 40
25.0
  1
10000R
 11
571.0612554224635
 21
1458.280831666226
 31
0.0
100
AcDbText
 73
     3
  0
LEADER
  5
560
330
1F
100
AcDbEntity
  8
0
100
AcDbLeader
  3
ISO-25
 40
25.0
 41
16.66666666666666
 76
     2
 10
1100.260129767346
 20
1574.491961462351
 30
0.0
 10
1061.492034982732
 20
1542.529406204782
 30
0.0
211
-1.0
221
0.0
231
0.0
210
0.0
220
0.0
230
-1.0
213
0.0
223
-12.5
233
0.0
1001
ACAD
1000
DSTYLE
1002
{
1070
    41
1040
25.0
1070
   147
1040
6.25
1070
    77
1070
     0
1070
    73
1070
     1
1070
    74
1070
     1
1070
   279
1070
     1
1070
   342
1005
DA
1002
}
  0
TEXT
  5
562
330
1F
100
AcDbEntity
  8
0
100
AcDbText
 10
1012.728991513789
 20
1507.722489890919
 30
0.0
 40
25.0
  1
100R
 11
1012.728991513789
 21
1532.722489890919
 31
0.0
100
AcDbText
 73
     3
  0
LEADER
  5
566
330
1F
100
AcDbEntity
  8
0
100
AcDbLeader
  3
ISO-25
 40
25.0
 41
16.66666666666666
 76
     2
 10
1031.446761907446
 20
1602.580268310392
 30
0.0
 10
1032.415960066385
 20
1541.560847629784
 30
0.0
211
-1.0
221
0.0
231
0.0
210
0.0
220
0.0
230
-1.0
213
0.0
223
12.5
233
0.0
1001
ACAD
1000
DSTYLE
1002
{
1070
    41
1040
25.0
1070
   147
1040
6.25
1070
    77
1070
     0
1070
    73
1070
     1
1070
    74
1070
     1
1070
   279
1070
     1
1070
   342
1005
DA
1002
}
  0
LINE
  5
56A
330
1F
100
AcDbEntity
  8
補助
100
AcDbLine
 10
2784.0
 20
134.0
 30
0.0
 11
2784.0
 21
199.0
 31
0.0
  0
DIMENSION
  5
586
330
1F
100
AcDbEntity
  8
0
100
AcDbDimension
  2
*D12
 10
1053.972818039954
 20
1669.548709174261
 30
0.0
 11
1056.215904464663
 21
1710.006567658332
 31
0.0
 70
   160
 71
     5
 42
15.00000000000023
  3
ISO-25
100
AcDbAlignedDimension
 13
977.9453214444119
 23
1654.54870917426
 33
0.0
 14
961.2002574683138
 24
1669.548709174261
 34
0.0
 50
90.0
100
AcDbRotatedDimension
1001
ACAD
1000
DSTYLE
1002
{
1070
   279
1070
     2
1002
}
  0
LINE
  5
59F
330
1F
100
AcDbEntity
  8
Cen
100
AcDbLine
 10
1045.208407852213
 20
1654.548709174261
 30
0.0
 11
1010.68768633798
 21
1654.54870917426
 31
0.0
  0
LINE
  5
5A0
330
1F
100
AcDbEntity
  8
Cen
100
AcDbLine
 10
781.9879198502585
 20
1654.54870917426
 30
0.0
 11
749.0853598918656
 21
1654.54870917426
 31
0.0
  0
LINE
  5
5A1
330
1F
100
AcDbEntity
  8
Cen
100
AcDbLine
 10
782.5273070355397
 20
1654.54870917426
 30
0.0
 11
745.8508818826713
 21
1654.005448383684
 31
0.0
  0
MTEXT
  5
5A9
330
1F
100
AcDbEntity
  8
Cen
100
AcDbMText
 10
1527.939315450184
 20
552.4831097022406
 30
0.0
 40
25.0
 41
0.0
 71
     9
 72
     1
  1

 73
     1
 44
1.0
1001
ACAD
1000
MTEXTBEGIN
1070
    73
1070
     1
1070
    44
1040
1.0
1070
    74
1070
     0
1000
MTEXTEND
  0
LEADER
  5
5AA
330
1F
100
AcDbEntity
  8
Cen
100
AcDbLeader
  3
ISO-25
 40
25.0
 41
16.66666666666666
 76
     2
 10
504.7359661620794
 20
588.3188993555936
 30
0.0
 10
533.6123784641077
 20
638.1633974030542
 30
0.0
211
-1.0
221
0.0
231
0.0
210
0.0
220
0.0
230
-1.0
213
0.0
223
12.5
233
0.0
1001
ACAD
1000
DSTYLE
1002
{
1070
    41
1040
25.0
1070
   147
1040
6.25
1070
    77
1070
     0
1070
   279
1070
     1
1002
}
  0
TEXT
  5
5AD
330
1F
100
AcDbEntity
  8
0
100
AcDbText
 10
531.8482801962345
 20
646.0335842757135
 30
0.0
 40
25.0
  1
30R
100
AcDbText
  0
LINE
  5
5D0
330
1F
100
AcDbEntity
  8
補助
100
AcDbLine
 10
2784.0
 20
69.0
 30
0.0
 11
2784.0
 21
134.0
 31
0.0
  0
TEXT
  5
5D2
330
1F
100
AcDbEntity
  8
0
100
AcDbText
 10
2430.916666666667
 20
84.0
 30
0.0
 40
35.0
  1
1：10
 72
     4
 11
2484.0
 21
101.5
 31
0.0
100
AcDbText
  0
TEXT
  5
5D8
330
1F
100
AcDbEntity
  8
0
100
AcDbText
 10
231.1659029702105
 20
53.51169987015055
 30
0.0
 40
30.0
  1
※実寸には製造上の誤差が多少生ずる場合があります。シンクの穴あけ加工は現物合わせにてお願いします。
100
AcDbText
  0
TEXT
  5
5F4
330
1F
100
AcDbEntity
  8
補助
100
AcDbText
 10
2300.255774665348
 20
16.49999999999999
 30
0.0
 40
40.0
  1
中外交易株式会社
 72
     4
 11
2488.255774665347
 21
36.5
 31
0.0
100
AcDbText
  0
LINE
  5
5F5
330
1F
100
AcDbEntity
  8
補助
100
AcDbLine
 10
2064.0
 20
69.0
 30
0.0
 11
2784.0
 21
69.0
 31
0.0
  0
HATCH
  5
5F6
330
1F
100
AcDbEntity
  8
補助
100
AcDbHatch
 10
0.0
 20
0.0
 30
0.0
210
0.0
220
0.0
230
1.0
  2
SOLID
 70
     1
 71
     1
 91
        3
 92
        1
 93
        4
 72
     2
 10
2257.166198313996
 20
36.5
 40
20.0
 50
11.6477236670766
 51
342.6561058784691
 73
     1
 72
     1
 10
2276.256852341323
 20
30.53787547858514
 11
2252.166198313995
 21
30.53787547858519
 72
     1
 10
2252.166198313995
 20
30.53787547858519
 11
2252.166198313995
 21
40.53787547858519
 72
     1
 10
2252.166198313995
 20
40.53787547858519
 11
2276.75434681301
 21
40.53787547858519
 97
        4
330
5F7
330
5F9
330
5FA
330
5FB
 92
        1
 93
        4
 72
     2
 10
2188.255774665348
 20
36.5
 40
20.0
 50
11.6477236670766
 51
342.6561058784691
 73
     1
 72
     1
 10
2207.346428692676
 20
30.53787547858514
 11
2183.255774665347
 21
30.53787547858519
 72
     1
 10
2183.255774665347
 20
30.53787547858519
 11
2183.255774665347
 21
40.53787547858519
 72
     1
 10
2183.255774665347
 20
40.53787547858519
 11
2207.843923164362
 21
40.53787547858519
 97
        4
330
5F8
330
601
330
602
330
603
 92
        1
 93
        5
 72
     1
 10
2245.64189404294
 20
56.5
 11
2210.641894042939
 21
56.5
 72
     1
 10
2210.641894042939
 20
56.5
 11
2210.641894042939
 21
16.5
 72
     1
 10
2210.641894042939
 20
16.5
 11
2245.64189404294
 21
16.5
 72
     1
 10
2245.64189404294
 20
16.5
 11
2210.641894042939
 21
36.5
 72
     1
 10
2210.641894042939
 20
36.5
 11
2245.64189404294
 21
56.5
 97
        5
330
5FC
330
600
330
5FF
330
5FE
330
5FD
 75
     0
 76
     1
 98
        1
 10
-60.0
 20
0.0
  0
ARC
  5
5F7
102
{ACAD_REACTORS
330
5F6
102
}
330
1F
100
AcDbEntity
  8
補助
370
     5
100
AcDbCircle
 10
2257.166198313996
 20
36.5
 30
0.0
 40
20.0
100
AcDbArc
 50
11.6477236670766
 51
342.6561058784691
  0
ARC
  5
5F8
102
{ACAD_REACTORS
330
5F6
102
}
330
1F
100
AcDbEntity
  8
補助
370
     5
100
AcDbCircle
 10
2188.255774665348
 20
36.5
 30
0.0
 40
20.0
100
AcDbArc
 50
11.6477236670766
 51
342.6561058784691
  0
LINE
  5
5F9
102
{ACAD_REACTORS
330
5F6
102
}
330
1F
100
AcDbEntity
  8
補助
370
     5
100
AcDbLine
 10
2252.166198313995
 20
30.53787547858519
 30
0.0
 11
2276.256852341323
 21
30.53787547858514
 31
0.0
  0
LINE
  5
5FA
102
{ACAD_REACTORS
330
5F6
102
}
330
1F
100
AcDbEntity
  8
補助
370
     5
100
AcDbLine
 10
2252.166198313995
 20
40.53787547858519
 30
0.0
 11
2252.166198313995
 21
30.53787547858519
 31
0.0
  0
LINE
  5
5FB
102
{ACAD_REACTORS
330
5F6
102
}
330
1F
100
AcDbEntity
  8
補助
370
     5
100
AcDbLine
 10
2276.75434681301
 20
40.53787547858519
 30
0.0
 11
2252.166198313995
 21
40.53787547858519
 31
0.0
  0
LINE
  5
5FC
102
{ACAD_REACTORS
330
5F6
102
}
330
1F
100
AcDbEntity
  8
補助
370
     5
100
AcDbLine
 10
2245.64189404294
 20
56.5
 30
0.0
 11
2210.641894042939
 21
56.5
 31
0.0
  0
LINE
  5
5FD
102
{ACAD_REACTORS
330
5F6
102
}
330
1F
100
AcDbEntity
  8
補助
370
     5
100
AcDbLine
 10
2210.641894042939
 20
36.5
 30
0.0
 11
2245.64189404294
 21
56.5
 31
0.0
  0
LINE
  5
5FE
102
{ACAD_REACTORS
330
5F6
102
}
330
1F
100
AcDbEntity
  8
補助
370
     5
100
AcDbLine
 10
2245.64189404294
 20
16.5
 30
0.0
 11
2210.641894042939
 21
36.5
 31
0.0
  0
LINE
  5
5FF
102
{ACAD_REACTORS
330
5F6
102
}
330
1F
100
AcDbEntity
  8
補助
370
     5
100
AcDbLine
 10
2210.641894042939
 20
16.5
 30
0.0
 11
2245.64189404294
 21
16.5
 31
0.0
  0
LINE
  5
600
102
{ACAD_REACTORS
330
5F6
102
}
330
1F
100
AcDbEntity
  8
補助
370
     5
100
AcDbLine
 10
2210.641894042939
 20
56.5
 30
0.0
 11
2210.641894042939
 21
16.5
 31
0.0
  0
LINE
  5
601
102
{ACAD_REACTORS
330
5F6
102
}
330
1F
100
AcDbEntity
  8
補助
370
     5
100
AcDbLine
 10
2183.255774665347
 20
30.53787547858519
 30
0.0
 11
2207.346428692676
 21
30.53787547858514
 31
0.0
  0
LINE
  5
602
102
{ACAD_REACTORS
330
5F6
102
}
330
1F
100
AcDbEntity
  8
補助
370
     5
100
AcDbLine
 10
2183.255774665347
 20
40.53787547858519
 30
0.0
 11
2183.255774665347
 21
30.53787547858519
 31
0.0
  0
LINE
  5
603
102
{ACAD_REACTORS
330
5F6
102
}
330
1F
100
AcDbEntity
  8
補助
370
     5
100
AcDbLine
 10
2207.843923164362
 20
40.53787547858519
 30
0.0
 11
2183.255774665347
 21
40.53787547858519
 31
0.0
  0
LINE
  5
A29
330
1F
100
AcDbEntity
  8
補助
100
AcDbLine
 10
2064.0
 20
4.0
 30
0.0
 11
2064.0
 21
199.0
 31
0.0
  0
TEXT
  5
A2C
330
1F
100
AcDbEntity
  8
補助
100
AcDbText
 10
2086.666666666667
 20
149.0
 30
0.0
 40
35.0
  1
品番
 72
     4
 11
2124.0
 21
166.5
 31
0.0
100
AcDbText
  0
TEXT
  5
A2D
330
1F
100
AcDbEntity
  8
補助
100
AcDbText
 10
2086.666666666667
 20
84.0
 30
0.0
 40
35.0
  1
尺度
 72
     4
 11
2124.0
 21
101.5
 31
0.0
100
AcDbText
  0
CIRCLE
  5
C9F
330
1F
100
AcDbEntity
  8
0
370
    13
100
AcDbCircle
 10
896.2002574683138
 20
1499.54870917426
 30
0.0
 40
110.5
  0
LINE
  5
CB5
330
1F
100
AcDbEntity
  8
実形
370
    13
100
AcDbLine
 10
813.3038673384797
 20
1401.653900078494
 30
0.0
 11
565.6360670244321
 21
1544.644971259412
 31
0.0
  0
ARC
  5
DCC
330
1F
100
AcDbEntity
  8
0
100
AcDbCircle
 10
948.4504843287547
 20
1605.54870917426
 30
0.0
 40
64.0
100
AcDbArc
 50
32.86646473908621
 51
90.0
  0
ARC
  5
DCD
330
1F
100
AcDbEntity
  8
0
100
AcDbCircle
 10
1086.200257468314
 20
1694.548709174261
 30
0.0
 40
100.0
100
AcDbArc
 50
212.8664647390864
 51
258.4630409671845
  0
ARC
  5
DCF
330
1F
100
AcDbEntity
  8
0
100
AcDbCircle
 10
1046.200257468314
 20
1498.589529751607
 30
0.0
 40
100.0
100
AcDbArc
 50
0.000000000000007
 51
78.46304096718451
  0
LINE
  5
DD0
330
1F
100
AcDbEntity
  8
実形
370
    13
100
AcDbLine
 10
1122.764245965395
 20
1485.058742201666
 30
0.0
 11
978.3028218108022
 21
1401.653900078494
 31
0.0
  0
ARC
  5
DD1
330
1F
100
AcDbEntity
  8
実形
370
    13
100
AcDbCircle
 10
895.8033445746409
 20
1544.547186249397
 30
0.0
 40
164.9989544723223
100
AcDbArc
 50
239.9999999999999
 51
300.0
  0
ARC
  5
DE6
330
1F
100
AcDbEntity
  8
実形
370
    13
100
AcDbCircle
 10
895.8033445746409
 20
1544.547186249397
 30
0.0
 40
160.2489544723223
100
AcDbArc
 50
239.9999999999999
 51
300.0
  0
LINE
  5
DE7
330
1F
100
AcDbEntity
  8
実形
370
    13
100
AcDbLine
 10
815.6788673384797
 20
1405.76752074647
 30
0.0
 11
565.6360670244321
 21
1544.644971259412
 31
0.0
  0
LINE
  5
DE8
330
1F
100
AcDbEntity
  8
実形
370
    13
100
AcDbLine
 10
1122.764245965395
 20
1485.058742201666
 30
0.0
 11
975.9278218108022
 21
1405.76752074647
 31
0.0
  0
LINE
  5
E7F
330
1F
100
AcDbEntity
  8
実形
100
AcDbLine
 10
805.7002574683137
 20
551.9815140432119
 30
0.0
 11
785.7002574683138
 21
553.9815140432121
 31
0.0
  0
LINE
  5
E80
330
1F
100
AcDbEntity
  8
実形
100
AcDbLine
 10
1006.700257468314
 20
553.9815140432121
 30
0.0
 11
986.7002574683137
 21
551.9815140432119
 31
0.0
  0
DIMENSION
  5
E81
330
1F
100
AcDbEntity
  8
実形
100
AcDbDimension
  2
*D13
 10
785.7002574683138
 20
654.1345385811837
 30
0.0
 11
796.1498830888231
 21
658.6442275513641
 31
0.0
 70
   160
 71
     5
 42
20.0
  3
ISO-25
100
AcDbAlignedDimension
 13
805.7002574683137
 23
551.9815140432119
 33
0.0
 14
785.7002574683138
 24
551.9815140432122
 34
0.0
 50
180.0
100
AcDbRotatedDimension
1001
ACAD
1000
DSTYLE
1002
{
1070
   279
1070
     1
1002
}
  0
DIMENSION
  5
E8E
330
1F
100
AcDbEntity
  8
実形
100
AcDbDimension
  2
*D14
 10
1006.700257468314
 20
654.1345385811837
 30
0.0
 11
997.5399771234815
 21
659.2955472960361
 31
0.0
 70
   160
 71
     5
 42
20.0
  3
ISO-25
100
AcDbAlignedDimension
 13
986.7002574683137
 23
551.9815140432121
 33
0.0
 14
1006.700257468314
 24
551.9815140432122
 34
0.0
 50
180.0
100
AcDbRotatedDimension
1001
ACAD
1000
DSTYLE
1002
{
1070
   279
1070
     1
1002
}
  0
LEADER
  5
EAD
330
1F
100
AcDbEntity
  8
Cen
100
AcDbLeader
  3
ISO-25
 40
25.0
 41
16.66666666666666
 76
     2
 10
1067.463815160037
 20
562.913934851384
 30
0.0
 10
1090.147516877071
 20
622.1849232490257
 30
0.0
211
-1.0
221
0.0
231
0.0
210
0.0
220
0.0
230
-1.0
213
0.0
223
12.5
233
0.0
1001
ACAD
1000
DSTYLE
1002
{
1070
    41
1040
25.0
1070
   147
1040
6.25
1070
    77
1070
     0
1070
   279
1070
     1
1002
}
  0
TEXT
  5
EAE
330
1F
100
AcDbEntity
  8
0
100
AcDbText
 10
1024.676804024221
 20
631.4743005323825
 30
0.0
 40
25.0
  1
4500R
100
AcDbText
  0
LINE
  5
EB1
330
1F
100
AcDbEntity
  8
実形
100
AcDbLine
 10
785.7002574683122
 20
553.9815140432124
 30
0.0
 11
646.0484952503984
 21
558.9302421448508
 31
0.0
  0
LINE
  5
EB2
330
1F
100
AcDbEntity
  8
実形
100
AcDbLine
 10
644.601616211712
 20
560.4293012375717
 30
0.0
 11
644.601616211712
 21
561.3448541953682
 31
0.0
  0
ARC
  5
EB6
330
1F
100
AcDbEntity
  8
実形
100
AcDbCircle
 10
643.1016162117121
 20
561.3448541953682
 30
0.0
 40
1.5
100
AcDbArc
 50
0.000000000000007
 51
86.44214813388188
  0
ARC
  5
EB7
330
1F
100
AcDbEntity
  8
実形
100
AcDbCircle
 10
646.1016162117121
 20
560.4293012375717
 30
0.0
 40
1.5
100
AcDbArc
 50
180.0
 51
267.9705043760164
  0
ARC
  5
EB8
330
1F
100
AcDbEntity
  8
0
100
AcDbCircle
 10
526.200257468314
 20
600.1741612673685
 30
0.0
 40
30.0
100
AcDbArc
 50
180.0000000000001
 51
266.4421481338818
  0
TEXT
  5
EB9
330
1F
100
AcDbEntity
  8
0
100
AcDbText
 10
621.5600933690384
 20
638.1633974030542
 30
0.0
 40
25.0
  1
4500R
100
AcDbText
  0
LEADER
  5
EBA
330
1F
100
AcDbEntity
  8
Cen
100
AcDbLeader
  3
ISO-25
 40
25.0
 41
16.66666666666666
 76
     2
 10
699.9458438868623
 20
560.2905392271646
 30
0.0
 10
688.4949556265546
 20
625.0464239851339
 30
0.0
211
-1.0
221
0.0
231
0.0
210
0.0
220
0.0
230
-1.0
213
0.0
223
12.5
233
0.0
1001
ACAD
1000
DSTYLE
1002
{
1070
    41
1040
25.0
1070
   147
1040
6.25
1070
    77
1070
     0
1070
   279
1070
     1
1002
}
  0
LEADER
  5
EBB
330
1F
100
AcDbEntity
  8
Cen
100
AcDbLeader
  3
ISO-25
 40
25.0
 41
16.66666666666666
 76
     2
 10
596.2532700027459
 20
570.7841170208644
 30
0.0
 10
647.8054603447617
 20
623.7347261730242
 30
0.0
211
-1.0
221
0.0
231
0.0
210
0.0
220
0.0
230
-1.0
213
0.0
223
12.5
233
0.0
1001
ACAD
1000
DSTYLE
1002
{
1070
    41
1040
25.0
1070
   147
1040
6.25
1070
    77
1070
     0
1070
   279
1070
     1
1002
}
  0
LINE
  5
EFC
330
1F
100
AcDbEntity
  8
0
100
AcDbLine
 10
974.700257468314
 20
544.9815140432122
 30
0.0
 11
817.7002574683136
 21
544.981514043212
 31
0.0
  0
LINE
  5
F02
330
1F
100
AcDbEntity
  8
0
100
AcDbLine
 10
815.7002574683138
 20
544.981514043212
 30
0.0
 11
805.7002574683137
 21
544.981514043212
 31
0.0
  0
DIMENSION
  5
13DC
330
1F
100
AcDbEntity
  8
0
100
AcDbDimension
  2
*D15
 10
149.8806830789711
 20
1686.54870917426
 30
0.0
 11
131.1306830789709
 21
1409.54870917426
 31
0.0
 70
    32
 71
     5
 42
554.0
  3
ISO-25
100
AcDbAlignedDimension
 13
479.200257468314
 23
1132.54870917426
 33
0.0
 14
479.200257468314
 24
1686.54870917426
 34
0.0
 50
90.0
100
AcDbRotatedDimension
  0
DIMENSION
  5
13DD
330
1F
100
AcDbEntity
  8
0
100
AcDbDimension
  2
*D16
 10
219.3506830789711
 20
1686.54870917426
 30
0.0
 11
207.8706228772483
 21
1660.205731221666
 31
0.0
 70
   160
 71
     5
 42
17.0
  3
ISO-25
100
AcDbAlignedDimension
 13
479.2002574683141
 23
1669.54870917426
 33
0.0
 14
479.200257468314
 24
1686.54870917426
 34
0.0
 50
90.0
100
AcDbRotatedDimension
1001
ACAD
1000
DSTYLE
1002
{
1070
   279
1070
     1
1002
}
  0
DIMENSION
  5
13DE
330
1F
100
AcDbEntity
  8
0
100
AcDbDimension
  2
*D17
 10
219.3506830789711
 20
1669.54870917426
 30
0.0
 11
200.6006830789709
 21
1409.54870917426
 31
0.0
 70
    32
 71
     5
 42
520.0
  3
ISO-25
100
AcDbAlignedDimension
 13
479.200257468314
 23
1149.54870917426
 33
0.0
 14
479.2002574683141
 24
1669.54870917426
 34
0.0
 50
90.0
100
AcDbRotatedDimension
1001
ACAD
1000
DSTYLE
1002
{
1070
   279
1070
     1
1002
}
  0
DIMENSION
  5
13DF
330
1F
100
AcDbEntity
  8
0
100
AcDbDimension
  2
*D18
 10
219.3506830789712
 20
1149.54870917426
 30
0.0
 11
192.6916018218628
 21
1158.111996254988
 31
0.0
 70
   160
 71
     5
 42
17.0
  3
ISO-25
100
AcDbAlignedDimension
 13
479.200257468314
 23
1132.54870917426
 33
0.0
 14
479.200257468314
 24
1149.54870917426
 34
0.0
 50
90.0
100
AcDbRotatedDimension
1001
ACAD
1000
DSTYLE
1002
{
1070
   279
1070
     2
1002
}
  0
DIMENSION
  5
13E0
330
1F
100
AcDbEntity
  8
0
100
AcDbDimension
  2
*D19
 10
288.8206830789711
 20
1594.548709174261
 30
0.0
 11
270.0706830789708
 21
1379.548709174261
 31
0.0
 70
    32
 71
     5
 42
430.0
  3
ISO-25
100
AcDbAlignedDimension
 13
479.200257468314
 23
1164.548709174261
 33
0.0
 14
479.2002574683141
 24
1594.548709174261
 34
0.0
 50
90.0
100
AcDbRotatedDimension
1001
ACAD
1000
DSTYLE
1002
{
1070
   279
1070
     1
1002
}
  0
DIMENSION
  5
13E1
330
1F
100
AcDbEntity
  8
0
100
AcDbDimension
  2
*D20
 10
288.8206830789711
 20
1669.54870917426
 30
0.0
 11
270.0706830789708
 21
1632.04870917426
 31
0.0
 70
    32
 71
     5
 42
75.0
  3
ISO-25
100
AcDbAlignedDimension
 13
479.2002574683141
 23
1594.548709174261
 33
0.0
 14
479.2002574683141
 24
1669.54870917426
 34
0.0
 50
90.0
100
AcDbRotatedDimension
1001
ACAD
1000
DSTYLE
1002
{
1070
   279
1070
     1
1002
}
  0
DIMENSION
  5
13E2
330
1F
100
AcDbEntity
  8
0
100
AcDbDimension
  2
*D21
 10
288.8206830789711
 20
1164.548709174261
 30
0.0
 11
270.0706830789709
 21
1217.465375840927
 31
0.0
 70
    32
 71
     5
 42
15.0
  3
ISO-25
100
AcDbAlignedDimension
 13
479.200257468314
 23
1149.54870917426
 33
0.0
 14
479.200257468314
 24
1164.548709174261
 34
0.0
 50
90.0
100
AcDbRotatedDimension
  0
DIMENSION
  5
13E3
330
1F
100
AcDbEntity
  8
実形
100
AcDbDimension
  2
*D22
 10
358.2906830789712
 20
1379.548709174261
 30
0.0
 11
339.540683078971
 21
1487.048709174261
 31
0.0
 70
    32
 71
     5
 42
215.0
  3
ISO-25
100
AcDbAlignedDimension
 13
479.2002574683139
 23
1594.548709174261
 33
0.0
 14
479.200257468314
 24
1379.548709174261
 34
0.0
 50
90.0
100
AcDbRotatedDimension
1001
ACAD
1000
DSTYLE
1002
{
1070
   279
1070
     1
1002
}
  0
DIMENSION
  5
196F
330
1F
100
AcDbEntity
  8
0
100
AcDbDimension
  2
*D23
 10
961.2002574683138
 20
1745.741157753822
 30
0.0
 11
896.2002574683138
 21
1764.491157753822
 31
0.0
 70
    32
 71
     5
 42
130.0
  3
ISO-25
100
AcDbAlignedDimension
 13
831.2002574683138
 23
1686.54870917426
 33
0.0
 14
961.2002574683138
 24
1686.54870917426
 34
0.0
100
AcDbRotatedDimension
  0
DIMENSION
  5
1970
330
1F
100
AcDbEntity
  8
0
100
AcDbDimension
  2
*D24
 10
1026.200257468314
 20
1814.729568565745
 30
0.0
 11
896.2002574683138
 21
1833.479568565745
 31
0.0
 70
    32
 71
     5
 42
260.0
  3
ISO-25
100
AcDbAlignedDimension
 13
766.2002574683137
 23
1751.548709174261
 33
0.0
 14
1026.200257468314
 24
1751.548709174261
 34
0.0
100
AcDbRotatedDimension
  0
LINE
  5
19A5
330
1F
100
AcDbEntity
  8
Cen
100
AcDbLine
 10
1026.200257468314
 20
1816.548709174261
 30
0.0
 11
1026.200257468314
 21
1622.548709174261
 31
0.0
  0
LINE
  5
19A6
330
1F
100
AcDbEntity
  8
Cen
100
AcDbLine
 10
766.2002574683137
 20
1816.548709174261
 30
0.0
 11
766.2002574683137
 21
1622.548709174261
 31
0.0
  0
LINE
  5
19A7
330
1F
100
AcDbEntity
  8
Cen
100
AcDbLine
 10
831.2002574683139
 20
1739.146761095515
 30
0.0
 11
831.2002574683138
 21
1654.54870917426
 31
0.0
  0
LINE
  5
19A8
330
1F
100
AcDbEntity
  8
Cen
100
AcDbLine
 10
961.200257468314
 20
1739.146761095515
 30
0.0
 11
961.2002574683138
 21
1654.54870917426
 31
0.0
  0
LINE
  5
1A7D
330
1F
100
AcDbEntity
  8
0
100
AcDbLine
 10
611.2002574683137
 20
1115.548709174261
 30
0.0
 11
1031.200257468314
 21
1115.54870917426
 31
0.0
  0
LINE
  5
1A7E
330
1F
100
AcDbEntity
  8
0
100
AcDbLine
 10
1180.200257468314
 20
1279.548709174261
 30
0.0
 11
1180.200257468314
 21
1609.548709174261
 31
0.0
  0
LINE
  5
1A7F
330
1F
100
AcDbEntity
  8
0
100
AcDbLine
 10
1086.200257468314
 20
1703.548709174261
 30
0.0
 11
556.2002574683138
 21
1703.548709174261
 31
0.0
  0
LINE
  5
1A80
330
1F
100
AcDbEntity
  8
0
100
AcDbLine
 10
462.2002574683137
 20
1609.548709174261
 30
0.0
 11
462.2002574683137
 21
1279.548709174261
 31
0.0
  0
LINE
  5
1A81
330
1F
100
AcDbEntity
  8
0
100
AcDbLine
 10
1180.200257468314
 20
1264.54870917426
 30
0.0
 11
1180.200257468314
 21
1479.548709174261
 31
0.0
  0
ARC
  5
1A82
330
1F
100
AcDbEntity
  8
0
100
AcDbCircle
 10
611.2002574683137
 20
1264.548709174261
 30
0.0
 40
149.0
100
AcDbArc
 50
180.0
 51
270.0
  0
ARC
  5
1A83
330
1F
100
AcDbEntity
  8
0
100
AcDbCircle
 10
1031.200257468314
 20
1264.54870917426
 30
0.0
 40
149.0
100
AcDbArc
 50
270.0
 51
0.0
  0
ARC
  5
1A84
330
1F
100
AcDbEntity
  8
0
100
AcDbCircle
 10
556.2002574683138
 20
1609.548709174261
 30
0.0
 40
94.0
100
AcDbArc
 50
90.0
 51
180.0
  0
ARC
  5
1A85
330
1F
100
AcDbEntity
  8
0
100
AcDbCircle
 10
1086.200257468314
 20
1609.548709174261
 30
0.0
 40
94.0
100
AcDbArc
 50
0.0
 51
90.0
  0
TEXT
  5
1A86
330
1F
100
AcDbEntity
  8
0
 62
     0
100
AcDbText
 10
346.8315961476104
 20
1743.504385195953
 30
0.0
 40
25.0
  1
94R
 72
     2
 11
413.498262814277
 21
1740.171051862619
 31
0.0
100
AcDbText
 73
     1
  0
LEADER
  5
1A87
330
1F
100
AcDbEntity
  8
実形
100
AcDbLeader
  3
ISO-25
 76
     2
 10
482.4388039512978
 20
1670.733747350068
 30
0.0
 10
409.3828450623469
 20
1734.44006821225
 30
0.0
1001
ACAD
1000
DSTYLE
1002
{
1070
   147
1040
6.25
1070
    77
1070
     0
1070
   279
1070
     1
1002
}
  0
TEXT
  5
1A88
330
1F
100
AcDbEntity
  8
0
 62
     0
100
AcDbText
 10
353.5678984429562
 20
1043.716632421934
 30
0.0
 40
25.0
  1
149R
 72
     2
 11
436.9012317762894
 21
1040.383299088601
 31
0.0
100
AcDbText
 73
     1
  0
LEADER
  5
1A89
330
1F
100
AcDbEntity
  8
実形
100
AcDbLeader
  3
ISO-25
 76
     2
 10
500.5791576016773
 20
1152.636851650146
 30
0.0
 10
431.5413780760846
 20
1084.25169336248
 30
0.0
1001
ACAD
1000
DSTYLE
1002
{
1070
   147
1040
6.25
1070
    77
1070
     0
1070
   279
1070
     1
1002
}
  0
DIMENSION
  5
1A8A
330
1F
100
AcDbEntity
  8
実形
100
AcDbDimension
  2
*D29
 10
1180.200257468314
 20
1872.531873115033
 30
0.0
 11
821.2002574683138
 21
1891.281873115033
 31
0.0
 70
    32
 71
     5
 42
718.0
  3
ISO-25
100
AcDbAlignedDimension
 13
462.2002574683137
 23
1701.601700810726
 33
0.0
 14
1180.200257468314
 24
1701.601700810728
 34
0.0
100
AcDbRotatedDimension
1001
ACAD
1000
DSTYLE
1002
{
1070
   279
1070
     1
1002
}
  0
DIMENSION
  5
1A8B
330
1F
100
AcDbEntity
  8
実形
100
AcDbDimension
  2
*D30
 10
496.2002574683138
 20
1799.067023013358
 30
0.0
 11
498.0192026169161
 21
1814.77968543411
 31
0.0
 70
   160
  1
35
 71
     5
 42
34.0
  3
ISO-25
100
AcDbAlignedDimension
 13
462.2002574683137
 23
1701.601700810726
 33
0.0
 14
496.2002574683138
 24
1701.601700810726
 34
0.0
100
AcDbRotatedDimension
1001
ACAD
1000
DSTYLE
1002
{
1070
   279
1070
     1
1002
}
  0
DIMENSION
  5
1A8C
330
1F
100
AcDbEntity
  8
実形
100
AcDbDimension
  2
*D25
 10
1180.200257468314
 20
1799.067023013358
 30
0.0
 11
1139.289018784183
 21
1813.843821575738
 31
0.0
 70
   160
  1
35
 71
     5
 42
33.99999999999977
  3
ISO-25
100
AcDbAlignedDimension
 13
1146.200257468314
 23
1701.601700810726
 33
0.0
 14
1180.200257468314
 24
1701.601700810726
 34
0.0
100
AcDbRotatedDimension
1001
ACAD
1000
DSTYLE
1002
{
1070
   279
1070
     1
1002
}
  0
DIMENSION
  5
1A8D
330
1F
100
AcDbEntity
  8
実形
100
AcDbDimension
  2
*D26
 10
1298.402699544101
 20
1115.54870917426
 30
0.0
 11
1279.6526995441
 21
1409.54870917426
 31
0.0
 70
    32
 71
     5
 42
588.0000000000002
  3
ISO-25
100
AcDbAlignedDimension
 13
1150.496273222691
 23
1703.54870917426
 33
0.0
 14
1150.496273222691
 24
1115.54870917426
 34
0.0
 50
90.0
100
AcDbRotatedDimension
1001
ACAD
1000
DSTYLE
1002
{
1070
   279
1070
     1
1002
}
  0
DIMENSION
  5
1A8E
330
1F
100
AcDbEntity
  8
実形
100
AcDbDimension
  2
*D27
 10
1270.500895121905
 20
1669.548709174261
 30
0.0
 11
1268.462411952786
 21
1629.048649973654
 31
0.0
 70
   160
  1
35
 71
     5
 42
34.0
  3
ISO-25
100
AcDbAlignedDimension
 13
1150.496273222691
 23
1703.548709174261
 33
0.0
 14
1150.496273222691
 24
1669.548709174261
 34
0.0
 50
90.0
100
AcDbRotatedDimension
1001
ACAD
1000
DSTYLE
1002
{
1070
   279
1070
     1
1002
}
  0
DIMENSION
  5
1A8F
330
1F
100
AcDbEntity
  8
実形
100
AcDbDimension
  2
*D28
 10
1270.500895121905
 20
1115.54870917426
 30
0.0
 11
1258.156927281662
 21
1183.23998766897
 31
0.0
 70
   160
  1
35
 71
     5
 42
33.99999999999977
  3
ISO-25
100
AcDbAlignedDimension
 13
1150.496273222691
 23
1149.54870917426
 33
0.0
 14
1150.496273222691
 24
1115.54870917426
 34
0.0
 50
90.0
100
AcDbRotatedDimension
1001
ACAD
1000
DSTYLE
1002
{
1070
   279
1070
     1
1002
}
  0
TEXT
  5
1A90
330
1F
100
AcDbEntity
  8
0
 62
     0
100
AcDbText
 10
1241.342893578727
 20
1762.882594748867
 30
0.0
 40
25.0
  1
94R
 72
     2
 11
1308.009560245394
 21
1759.549261415534
 31
0.0
100
AcDbText
 73
     1
  0
LEADER
  5
1A91
330
1F
100
AcDbEntity
  8
実形
100
AcDbLeader
  3
ISO-25
 76
     2
 10
1143.507908904918
 20
1694.900200012546
 30
0.0
 10
1231.909337800745
 20
1753.818277765164
 30
0.0
1001
ACAD
1000
DSTYLE
1002
{
1070
   147
1040
6.25
1070
    77
1070
     0
1070
   279
1070
     1
1002
}
  0
TEXT
  5
1A92
330
1F
100
AcDbEntity
  8
0
 62
     0
100
AcDbText
 10
1196.992872185115
 20
1029.546775405768
 30
0.0
 40
25.0
  1
149R
 72
     2
 11
1280.326205518448
 21
1026.213442072435
 31
0.0
100
AcDbText
 73
     1
  0
LEADER
  5
1A93
330
1F
100
AcDbEntity
  8
実形
100
AcDbLeader
  3
ISO-25
 76
     2
 10
1130.346739419276
 20
1141.026973645885
 30
0.0
 10
1196.237154426651
 20
1064.300332419699
 30
0.0
1001
ACAD
1000
DSTYLE
1002
{
1070
   147
1040
6.25
1070
    77
1070
     0
1070
   279
1070
     1
1002
}
  0
LINE
  5
1B12
330
1F
100
AcDbEntity
  8
実形
100
AcDbLine
 10
462.2002574683137
 20
1264.548709174261
 30
0.0
 11
462.2002574683137
 21
1279.548709174261
 31
0.0
  0
TEXT
  5
1B2C
330
1F
100
AcDbEntity
  8
0
100
AcDbText
 10
2240.8
 20
151.8
 30
0.0
 40
35.0
  1
Jstn        S-GRM-R
  7
ms明朝
 72
     4
 11
2484.0
 21
166.5
 31
0.0
100
AcDbText
  0
TEXT
  5
1B2D
330
1F
100
AcDbEntity
  8
0
100
AcDbText
 10
2355.622524759386
 20
150.2375358068406
 30
0.0
 40
35.0
  1
718-588
  7
ms明朝
 72
     4
 11
2445.222524759387
 21
167.3375358068406
 31
0.0
100
AcDbText
  0
LINE
  5
1B4D
330
1F
100
AcDbEntity
  8
補助
100
AcDbLine
 10
104.0
 20
2024.0
 30
0.0
 11
104.0
 21
4.0
 31
0.0
  0
LEADER
  5
1C90
330
1F
100
AcDbEntity
  8
0
100
AcDbLeader
  3
ISO-25
 40
25.0
 41
16.66666666666666
 76
     2
 10
1132.770339017716
 20
1637.679666273295
 30
0.0
 10
1100.11613304837
 20
1451.957017198688
 30
0.0
211
-1.0
221
0.0
231
0.0
210
0.0
220
0.0
230
-1.0
213
0.0
223
12.5
233
0.0
1001
ACAD
1000
DSTYLE
1002
{
1070
    41
1040
25.0
1070
   147
1040
6.25
1070
    77
1070
     0
1070
    73
1070
     1
1070
    74
1070
     1
1070
   279
1070
     1
1070
   342
1005
DA
1002
}
  0
TEXT
  5
1C91
330
1F
100
AcDbEntity
  8
0
100
AcDbText
 10
1071.433237211414
 20
1419.261485156539
 30
0.0
 40
25.0
  1
59R
 72
     2
 11
1138.099903878081
 21
1415.928151823205
 31
0.0
100
AcDbText
 73
     1
  0
LEADER
  5
1C9B
330
1F
100
AcDbEntity
  8
0
100
AcDbLeader
  3
ISO-25
 40
25.0
 41
16.66666666666666
 76
     2
 10
1084.881683769333
 20
1169.423819086683
 30
0.0
 10
1013.385189527123
 20
1225.980962722808
 30
0.0
211
-1.0
221
0.0
231
0.0
210
0.0
220
0.0
230
-1.0
213
97.31675022588753
223
44.53196128345098
233
0.0
1001
ACAD
1000
DSTYLE
1002
{
1070
    41
1040
25.0
1070
   147
1040
6.25
1070
    77
1070
     0
1070
    73
1070
     1
1070
    74
1070
     1
1070
   279
1070
     1
1070
   342
1005
DA
1002
}
  0
TEXT
  5
1C9C
330
1F
100
AcDbEntity
  8
0
100
AcDbText
 10
964.0605377338042
 20
1231.798721446044
 30
0.0
 40
25.0
  1
114R
 72
     2
 11
1039.060537733804
 21
1228.46538811271
 31
0.0
100
AcDbText
 73
     1
  0
LINE
  5
1CE6
330
1F
100
AcDbEntity
  8
補助
100
AcDbLine
 10
2784.0
 20
1959.0
 30
0.0
 11
2019.387286519283
 21
1959.000000000001
 31
0.0
  0
LINE
  5
1CE7
330
1F
100
AcDbEntity
  8
補助
100
AcDbLine
 10
2784.0
 20
1894.0
 30
0.0
 11
2019.387286519283
 21
1894.0
 31
0.0
  0
LINE
  5
1CE8
330
1F
100
AcDbEntity
  8
補助
100
AcDbLine
 10
2784.0
 20
1829.0
 30
0.0
 11
2019.387286519283
 21
1829.0
 31
0.0
  0
LINE
  5
1CE9
330
1F
100
AcDbEntity
  8
補助
100
AcDbLine
 10
2202.547653420927
 20
1829.0
 30
0.0
 11
2202.547653420927
 21
2024.0
 31
0.0
  0
LINE
  5
1CEA
330
1F
100
AcDbEntity
  8
補助
100
AcDbLine
 10
2019.387286519283
 20
1829.0
 30
0.0
 11
2019.387286519283
 21
2024.0
 31
0.0
  0
TEXT
  5
1CEB
330
1F
100
AcDbEntity
  8
補助
100
AcDbText
 10
2050.295698850121
 20
1976.328571428572
 30
0.0
 40
30.0
  1
部品名
  7
明朝
 72
     4
 11
2116.124270278692
 21
1991.5
 31
0.0
100
AcDbText
  0
TEXT
  5
1CEC
330
1F
100
AcDbEntity
  8
補助
100
AcDbText
 10
2627.614285714286
 20
1976.071428571429
 30
0.0
 40
30.0
  1
厚さ
  7
明朝
 72
     4
 11
2671.5
 21
1991.5
 31
0.0
100
AcDbText
  0
LINE
  5
1CED
330
1F
100
AcDbEntity
  8
補助
100
AcDbLine
 10
2559.0
 20
1829.0
 30
0.0
 11
2559.0
 21
2024.0
 31
0.0
  0
TEXT
  5
1CEE
330
1F
100
AcDbEntity
  8
補助
100
AcDbText
 10
2338.490869919937
 20
1975.947979478155
 30
0.0
 40
30.0
  1
材質
  7
明朝
 72
     4
 11
2382.376584205651
 21
1991.119408049583
 31
0.0
100
AcDbText
  0
TEXT
  5
1CEF
330
1F
100
AcDbEntity
  8
実形
100
AcDbText
 10
2048.227810657788
 20
1910.557142857143
 30
0.0
 40
30.0
  1
ボウル
  7
明朝
 72
     4
 11
2114.056382086359
 21
1926.5
 31
0.0
100
AcDbText
  0
TEXT
  5
1CF0
330
1F
100
AcDbEntity
  8
実形
100
AcDbText
 10
2594.700000000001
 20
1911.842857142857
 30
0.0
 40
30.0
  1
0.7ｍｍ
  7
明朝
 72
     4
 11
2671.500000000001
 21
1926.5
 31
0.0
100
AcDbText
  0
TEXT
  5
1CF1
330
1F
100
AcDbEntity
  8
実形
100
AcDbText
 10
2271.988297679294
 20
1910.728571428572
 30
0.0
 40
30.0
  1
SUS304（BA)
  7
明朝
 72
     4
 11
2392.674011965008
 21
1926.5
 31
0.0
100
AcDbText
  0
TEXT
  5
1CF2
330
1F
100
AcDbEntity
  8
実形
100
AcDbText
 10
2070.170667800645
 20
1846.242857142857
 30
0.0
 40
30.0
  1
天板
  7
明朝
 72
     4
 11
2114.056382086359
 21
1861.5
 31
0.0
100
AcDbText
  0
TEXT
  5
1CF3
330
1F
100
AcDbEntity
  8
実形
100
AcDbText
 10
2219.734774251222
 20
1848.285714285714
 30
0.0
 40
25.0
  1
アクリル人工大理石
  7
明朝
 72
     4
 11
2384.306202822651
 21
1861.5
 31
0.0
100
AcDbText
  0
TEXT
  5
1CF4
330
1F
100
AcDbEntity
  8
実形
100
AcDbText
 10
2605.67142857143
 20
1846.842857142857
 30
0.0
 40
30.0
  1
18ｍｍ
  7
明朝
 72
     4
 11
2671.500000000001
 21
1861.5
 31
0.0
100
AcDbText
  0
LINE
  5
1E29
330
1F
100
AcDbEntity
  8
実形
 62
     0
100
AcDbLine
 10
2543.233877365066
 20
684.0947101512854
 30
0.0
 11
2153.233877365066
 21
684.0947101512854
 31
0.0
  0
LINE
  5
1E2A
330
1F
100
AcDbEntity
  8
実形
 62
     0
100
AcDbLine
 10
2387.233877365066
 20
585.2947101512853
 30
0.0
 11
2075.233877365066
 21
585.2947101512854
 31
0.0
  0
ARC
  5
1E2B
330
1F
100
AcDbEntity
  8
実形
 62
     0
100
AcDbCircle
 10
2153.233877365066
 20
606.0947101512854
 30
0.0
 40
78.0
100
AcDbArc
 50
90.0
 51
180.0
  0
ARC
  5
1E2C
330
1F
100
AcDbEntity
  8
実形
 62
     0
100
AcDbCircle
 10
2543.233877365066
 20
606.0947101512854
 30
0.0
 40
78.0
100
AcDbArc
 50
0.0
 51
90.0
  0
LINE
  5
1E2D
330
1F
100
AcDbEntity
  8
実形
 62
     0
100
AcDbLine
 10
2621.233877365066
 20
543.6947101512854
 30
0.0
 11
2387.233877365066
 21
543.6947101512854
 31
0.0
  0
LINE
  5
1E2E
330
1F
100
AcDbEntity
  8
実形
 62
     0
100
AcDbLine
 10
2278.033877365066
 20
543.6947101512854
 30
0.0
 11
2153.233877365066
 21
543.6947101512854
 31
0.0
  0
LINE
  5
1E2F
330
1F
100
AcDbEntity
  8
実形
 62
     0
100
AcDbLine
 10
2356.033877365065
 20
543.6947101512854
 30
0.0
 11
2106.433877365066
 21
543.6947101512854
 31
0.0
  0
LINE
  5
1E30
330
1F
100
AcDbEntity
  8
実形
 62
     0
100
AcDbLine
 10
2621.233877365066
 20
403.2947101512855
 30
0.0
 11
2386.105494977745
 21
403.2947101512855
 31
0.0
  0
LINE
  5
1E31
330
1F
100
AcDbEntity
  8
実形
 62
     0
100
AcDbLine
 10
2278.033877365066
 20
403.2947101512855
 30
0.0
 11
2153.233877365066
 21
403.2947101512855
 31
0.0
  0
LINE
  5
1E32
330
1F
100
AcDbEntity
  8
実形
 62
     0
100
AcDbLine
 10
2075.233877365066
 20
606.0947101512854
 30
0.0
 11
2075.233877365066
 21
585.2947101512854
 31
0.0
  0
LINE
  5
1E33
330
1F
100
AcDbEntity
  8
実形
 62
     0
100
AcDbLine
 10
2090.833877365066
 20
559.2947101512845
 30
0.0
 11
2356.033877365065
 21
559.2947101512846
 31
0.0
  0
LINE
  5
1E34
330
1F
100
AcDbEntity
  8
実形
 62
     0
100
AcDbLine
 10
2278.033877365066
 20
543.6947101512854
 30
0.0
 11
2153.233877365066
 21
543.6947101512854
 31
0.0
  0
LINE
  5
1E35
330
1F
100
AcDbEntity
  8
実形
 62
     0
100
AcDbLine
 10
2621.233877365066
 20
606.0947101512854
 30
0.0
 11
2621.233877365066
 21
403.2947101512855
 31
0.0
  0
LINE
  5
1E36
330
1F
100
AcDbEntity
  8
実形
 62
     0
100
AcDbLine
 10
2153.233877365066
 20
543.6947101512854
 30
0.0
 11
2153.233877365066
 21
403.2947101512863
 31
0.0
  0
LINE
  5
1E37
330
1F
100
AcDbEntity
  8
実形
 62
     0
100
AcDbLine
 10
2090.833877365066
 20
559.2947101512845
 30
0.0
 11
2090.833877365066
 21
356.5086976533553
 31
0.0
  0
LINE
  5
1E38
330
1F
100
AcDbEntity
  8
実形
 62
     0
100
AcDbLine
 10
2106.433877365066
 20
543.6947101512854
 30
0.0
 11
2106.433877365066
 21
356.5086976533554
 31
0.0
  0
ARC
  5
1E39
330
1F
100
AcDbEntity
  8
実形
 62
     0
100
AcDbCircle
 10
2348.233877365066
 20
543.6947101512854
 30
0.0
 40
39.0
100
AcDbArc
 50
180.0
 51
0.0
  0
TEXT
  5
1E3A
330
1F
100
AcDbEntity
  8
実形
 62
     0
100
AcDbText
 10
1844.08269694555
 20
410.9876312842443
 30
0.0
 40
35.0
  1
シンク厚　
 11
1844.08269694555
 21
406.3209646175776
 31
0.0
100
AcDbText
 73
     1
  0
DIMENSION
  5
1E3B
330
1F
100
AcDbEntity
  8
実形
 62
     0
100
AcDbDimension
  2
*D31
 10
2075.233877365067
 20
467.1003685502147
 30
0.0
 11
2054.88545157578
 21
491.5915116428197
 31
0.0
 70
   160
  1
1
 71
     5
 42
15.59999999999991
  3
ISO-25
100
AcDbAlignedDimension
 13
2090.833877365067
 23
559.2947101512846
 33
0.0
 14
2075.233877365067
 24
533.5029867284119
 34
0.0
 50
180.0
100
AcDbRotatedDimension
1001
ACAD
1000
DSTYLE
1002
{
1070
   282
1070
     1
1070
   281
1070
     1
1070
    41
1040
5.0
1070
    42
1040
6.0
1070
   140
1040
25.0
1070
   147
1040
1.199999999999999
1070
   279
1070
     2
1070
   289
1070
     2
1070
   371
1070
    13
1070
   372
1070
    13
1002
}
  0
TEXT
  5
1E3C
330
1F
100
AcDbEntity
  8
実形
  6
HIDDEN2
 62
     0
100
AcDbText
 10
2095.797198899368
 20
462.9308652071995
 30
0.0
 40
10.14
  1
● 
 71
     2
100
AcDbText
  0
TEXT
  5
1E3D
330
1F
100
AcDbEntity
  8
実形
  6
HIDDEN2
 62
     0
100
AcDbText
 10
2079.566838424828
 20
462.4970760796131
 30
0.0
 40
10.14
  1
● 
 71
     2
100
AcDbText
  0
LINE
  5
1E3E
330
1F
100
AcDbEntity
  8
実形
 62
     0
100
AcDbLine
 10
2091.245173341136
 20
467.4229398449074
 30
0.0
 11
2075.560266305432
 21
467.4229398449074
 31
0.0
  0
ARC
  5
1E3F
330
1F
100
AcDbEntity
  8
実形
 62
     0
100
AcDbCircle
 10
2347.105494977745
 20
403.2947101512855
 30
0.0
 40
39.0
100
AcDbArc
 50
0.0
 51
180.0
  0
LINE
  5
1E40
330
1F
100
AcDbEntity
  8
実形
 62
     0
100
AcDbLine
 10
2278.033877365066
 20
457.3521962228079
 30
0.0
 11
2278.033877365066
 21
439.4500692892673
 31
0.0
  0
LINE
  5
1E41
330
1F
100
AcDbEntity
  8
実形
 62
     0
100
AcDbLine
 10
2356.033877365065
 20
457.3521962228079
 30
0.0
 11
2356.033877365065
 21
439.4977027967055
 31
0.0
  0
TEXT
  5
1E42
330
1F
100
AcDbEntity
  8
実形
 62
     0
100
AcDbText
 10
1859.409434822997
 20
359.2737114633438
 30
0.0
 40
28.0
  1
0.7mm
 11
1859.409434822997
 21
355.5403781300104
 31
0.0
100
AcDbText
 73
     1
  0
TEXT
  5
1E43
330
1F
100
AcDbEntity
  8
実形
 62
     0
100
AcDbText
 10
1969.171950854548
 20
724.7069313792997
 30
0.0
 40
28.0
  1
5R
 11
1969.171950854548
 21
720.9735980459663
 31
0.0
100
AcDbText
 73
     1
  0
DIMENSION
  5
1E44
330
1F
100
AcDbEntity
  8
実形
 62
     0
100
AcDbDimension
  2
*D32
 10
2356.033877365065
 20
617.1548568615962
 30
0.0
 11
2223.433877365065
 21
635.9048568615962
 31
0.0
 70
    32
  1
17
 71
     5
 42
265.1999999999998
  3
ISO-25
100
AcDbAlignedDimension
 13
2090.833877365066
 23
526.9073852958004
 33
0.0
 14
2356.033877365065
 24
526.9073852958005
 34
0.0
100
AcDbRotatedDimension
1001
ACAD
1000
DSTYLE
1002
{
1070
   279
1070
     2
1070
   371
1070
    18
1070
   372
1070
    18
1002
}
  0
LEADER
  5
1E45
330
1F
100
AcDbEntity
  8
実形
 62
     0
100
AcDbLeader
  3
ISO-25
 76
     2
 10
2080.730586898456
 20
658.778126851076
 30
0.0
 10
2006.358162869183
 20
712.4806979619262
 30
0.0
1001
ACAD
1000
DSTYLE
1002
{
1070
   147
1040
6.25
1070
    77
1070
     0
1070
   279
1070
     2
1070
   371
1070
    18
1070
   372
1070
    18
1002
}
  0
DIMENSION
  5
1E46
330
1F
100
AcDbEntity
  8
実形
 62
     0
100
AcDbDimension
  2
*D33
 10
2228.767481940162
 20
543.6947101512855
 30
0.0
 11
2197.294896545438
 21
515.0052225685112
 31
0.0
 70
   160
  1
2.5
 71
     5
 42
38.99999999999995
  3
ISO-25
100
AcDbAlignedDimension
 13
2357.614562018891
 23
504.6947101512855
 33
0.0
 14
2281.267191428404
 24
543.6947101512855
 34
0.0
 50
90.0
100
AcDbRotatedDimension
1001
ACAD
1000
DSTYLE
1002
{
1070
   140
1040
23.0
1070
   279
1070
     2
1070
   371
1070
    18
1070
   372
1070
    18
1002
}
  0
DIMENSION
  5
1E47
330
1F
100
AcDbEntity
  8
実形
 62
     0
100
AcDbDimension
  2
*D34
 10
2356.033877365066
 20
452.0882219802177
 30
0.0
 11
2317.033877365066
 21
470.8382219802177
 31
0.0
 70
    32
  1
5
 71
     5
 42
78.0
  3
ISO-25
100
AcDbAlignedDimension
 13
2278.033877365066
 23
513.0145559292668
 33
0.0
 14
2356.033877365066
 24
513.0145559292668
 34
0.0
100
AcDbRotatedDimension
1001
ACAD
1000
DSTYLE
1002
{
1070
   279
1070
     2
1070
   371
1070
    18
1070
   372
1070
    18
1002
}
  0
LINE
  5
1E48
330
1F
100
AcDbEntity
  8
実形
 62
     0
100
AcDbLine
 10
2278.033877365066
 20
452.0882219802177
 30
0.0
 11
2278.033877365066
 21
494.7079487038194
 31
0.0
  0
LINE
  5
1E49
330
1F
100
AcDbEntity
  8
実形
 62
     0
100
AcDbLine
 10
2356.033877365065
 20
452.0882219802177
 30
0.0
 11
2356.033877365065
 21
493.5103420910408
 31
0.0
  0
DIMENSION
  5
1E4A
330
1F
100
AcDbEntity
  8
実形
 62
     0
100
AcDbDimension
  2
*D35
 10
2230.705930897853
 20
403.2947101512855
 30
0.0
 11
2198.086469593912
 21
431.6583152348946
 31
0.0
 70
   160
  1
2.5
 71
     5
 42
38.99999999999995
  3
ISO-25
100
AcDbAlignedDimension
 13
2331.326187506493
 23
442.2947101512853
 33
0.0
 14
2374.752828579123
 24
403.2947101512855
 34
0.0
 50
90.0
100
AcDbRotatedDimension
1001
ACAD
1000
DSTYLE
1002
{
1070
   140
1040
23.0
1070
   279
1070
     2
1070
   371
1070
    18
1070
   372
1070
    18
1002
}
  0
DIMENSION
  5
1E4B
330
1F
100
AcDbEntity
  8
実形
 62
     0
100
AcDbDimension
  2
*D36
 10
2387.233877365066
 20
733.9587029177619
 30
0.0
 11
2231.233877365066
 21
752.7087029177619
 31
0.0
 70
    32
  1
20
 71
     5
 42
311.9999999999996
  3
ISO-25
100
AcDbAlignedDimension
 13
2075.233877365066
 23
631.1956311673393
 33
0.0
 14
2387.233877365066
 24
631.1956311673393
 34
0.0
100
AcDbRotatedDimension
1001
ACAD
1000
DSTYLE
1002
{
1070
   279
1070
     2
1070
   371
1070
    18
1070
   372
1070
    18
1002
}
  0
DIMENSION
  5
1E4C
330
1F
100
AcDbEntity
  8
実形
 62
     0
100
AcDbDimension
  2
*D37
 10
2621.233877365066
 20
733.9587029177619
 30
0.0
 11
2504.233877365066
 21
752.7087029177619
 31
0.0
 70
    32
  1
15
 71
     5
 42
234.0
  3
ISO-25
100
AcDbAlignedDimension
 13
2387.233877365066
 23
630.0056853622646
 33
0.0
 14
2621.233877365066
 24
631.1956311673382
 34
0.0
100
AcDbRotatedDimension
1001
ACAD
1000
DSTYLE
1002
{
1070
   279
1070
     2
1070
   371
1070
    18
1070
   372
1070
    18
1002
}
  0
DIMENSION
  5
1E4D
330
1F
100
AcDbEntity
  8
実形
 62
     0
100
AcDbDimension
  2
*D38
 10
2621.233877365066
 20
777.4666415156134
 30
0.0
 11
2348.233877365066
 21
796.2166415156134
 31
0.0
 70
    32
  1
35
 71
     5
 42
545.9999999999995
  3
ISO-25
100
AcDbAlignedDimension
 13
2075.233877365066
 23
631.1956311673382
 33
0.0
 14
2621.233877365066
 24
631.1956311673382
 34
0.0
100
AcDbRotatedDimension
1001
ACAD
1000
DSTYLE
1002
{
1070
   279
1070
     2
1070
   371
1070
    18
1070
   372
1070
    18
1002
}
  0
TEXT
  5
1E4E
330
1F
100
AcDbEntity
  8
実形
 62
     0
100
AcDbText
 10
2661.234589240095
 20
713.6502811430476
 30
0.0
 40
28.0
  1
5R
 11
2661.234589240095
 21
709.9169478097143
 31
0.0
100
AcDbText
 73
     1
  0
DIMENSION
  5
1E4F
330
1F
100
AcDbEntity
  8
実形
 62
     0
100
AcDbDimension
  2
*D39
 10
2153.233877365066
 20
297.5085770831867
 30
0.0
 11
2053.203290699754
 21
332.9138518235977
 31
0.0
 70
   160
  1
3.3
 71
     5
 42
46.80000000000018
  3
ISO-25
100
AcDbAlignedDimension
 13
2106.433877365066
 23
411.5474686202857
 33
0.0
 14
2153.233877365066
 24
411.5474686202857
 34
0.0
100
AcDbRotatedDimension
1001
ACAD
1000
DSTYLE
1002
{
1070
   140
1040
25.0
1070
   279
1070
     2
1070
   371
1070
    18
1070
   372
1070
    18
1002
}
  0
DIMENSION
  5
1E50
330
1F
100
AcDbEntity
  8
実形
 62
     0
100
AcDbDimension
  2
*D40
 10
2309.233877365066
 20
297.5085770831867
 30
0.0
 11
2231.233877365066
 21
316.2585770831867
 31
0.0
 70
    32
  1
10
 71
     5
 42
156.0
  3
ISO-25
100
AcDbAlignedDimension
 13
2153.233877365066
 23
411.5474686202857
 33
0.0
 14
2309.233877365066
 24
411.5474686202857
 34
0.0
100
AcDbRotatedDimension
1001
ACAD
1000
DSTYLE
1002
{
1070
   279
1070
     2
1070
   371
1070
    18
1070
   372
1070
    18
1002
}
  0
DIMENSION
  5
1E51
330
1F
100
AcDbEntity
  8
実形
 62
     0
100
AcDbDimension
  2
*D41
 10
2387.233877365066
 20
297.5085770831867
 30
0.0
 11
2348.233877365066
 21
316.2585770831867
 31
0.0
 70
    32
  1
5
 71
     5
 42
78.0
  3
ISO-25
100
AcDbAlignedDimension
 13
2309.233877365066
 23
411.5474686202857
 33
0.0
 14
2387.233877365066
 24
411.5474686202857
 34
0.0
100
AcDbRotatedDimension
1001
ACAD
1000
DSTYLE
1002
{
1070
   279
1070
     2
1070
   371
1070
    18
1070
   372
1070
    18
1002
}
  0
DIMENSION
  5
1E52
330
1F
100
AcDbEntity
  8
実形
 62
     0
100
AcDbDimension
  2
*D42
 10
2621.233877365066
 20
297.5085770831867
 30
0.0
 11
2504.233877365066
 21
316.2585770831867
 31
0.0
 70
    32
  1
15
 71
     5
 42
234.0
  3
ISO-25
100
AcDbAlignedDimension
 13
2387.233877365066
 23
411.5474686202858
 33
0.0
 14
2621.233877365066
 24
411.5474686202857
 34
0.0
100
AcDbRotatedDimension
1001
ACAD
1000
DSTYLE
1002
{
1070
   279
1070
     2
1070
   371
1070
    18
1070
   372
1070
    18
1002
}
  0
DIMENSION
  5
1E53
330
1F
100
AcDbEntity
  8
実形
 62
     0
100
AcDbDimension
  2
*D43
 10
2155.023276234156
 20
247.5388396829094
 30
0.0
 11
2116.023276234157
 21
266.2888396829094
 31
0.0
 70
    32
  1
5
 71
     5
 42
77.99999999999954
  3
ISO-25
100
AcDbAlignedDimension
 13
2077.023276234157
 23
362.8281686160613
 33
0.0
 14
2155.023276234156
 24
362.8281686160613
 34
0.0
100
AcDbRotatedDimension
1001
ACAD
1000
DSTYLE
1002
{
1070
   279
1070
     2
1070
   371
1070
    18
1070
   372
1070
    18
1002
}
  0
DIMENSION
  5
1E54
330
1F
100
AcDbEntity
  8
実形
 62
     0
100
AcDbDimension
  2
*D44
 10
2623.023276234156
 20
247.5388396829094
 30
0.0
 11
2389.023276234156
 21
266.2888396829094
 31
0.0
 70
    32
  1
30
 71
     5
 42
468.0
  3
ISO-25
100
AcDbAlignedDimension
 13
2155.023276234156
 23
362.8281686160613
 33
0.0
 14
2623.023276234156
 24
362.8281686160613
 34
0.0
100
AcDbRotatedDimension
1001
ACAD
1000
DSTYLE
1002
{
1070
   279
1070
     2
1070
   371
1070
    18
1070
   372
1070
    18
1002
}
  0
LINE
  5
1E55
330
1F
100
AcDbEntity
  8
実形
 62
     0
100
AcDbLine
 10
2089.14414202772
 20
414.8786635805636
 30
0.0
 11
2005.196656620899
 21
408.9889439325022
 31
0.0
  0
LINE
  5
1E56
330
1F
100
AcDbEntity
  8
実形
 62
     0
100
AcDbLine
 10
2088.820600113063
 20
414.7274049971472
 30
0.0
 11
2056.485883910302
 21
400.9756935648645
 31
0.0
  0
LINE
  5
1E57
330
1F
100
AcDbEntity
  8
実形
 62
     0
100
AcDbLine
 10
2088.472360117057
 20
415.6242072570588
 30
0.0
 11
2056.198770657017
 21
421.9662971197472
 31
0.0
  0
TEXT
  5
1E58
330
1F
100
AcDbEntity
  8
実形
 62
     0
370
    -2
100
AcDbText
 10
1943.905583280765
 20
836.850626796042
 30
0.0
 40
38.0
  1
A-A　断面詳細図
100
AcDbText
  0
TEXT
  5
1E59
330
1F
100
AcDbEntity
  8
実形
 62
     0
370
    -2
100
AcDbText
 10
2039.041635208127
 20
838.8009194430942
 30
0.0
 40
35.0
  1
´
100
AcDbText
  0
DIMENSION
  5
1E5A
330
1F
100
AcDbEntity
  8
実形
 62
     0
100
AcDbDimension
  2
*D45
 10
1970.032114275532
 20
585.2947101512854
 30
0.0
 11
1951.282114275532
 21
634.6947101512859
 31
0.0
 70
    32
  1
6.5
 71
     5
 42
98.80000000000007
  3
ISO-25
100
AcDbAlignedDimension
 13
2097.328912889143
 23
684.0947101512855
 33
0.0
 14
2097.328912889143
 24
585.2947101512854
 34
0.0
 50
90.0
100
AcDbRotatedDimension
1001
ACAD
1000
DSTYLE
1002
{
1070
   279
1070
     2
1070
   371
1070
    18
1070
   372
1070
    18
1002
}
  0
DIMENSION
  5
1E5B
330
1F
100
AcDbEntity
  8
実形
 62
     0
100
AcDbDimension
  2
*D46
 10
1916.035186721017
 20
559.2947101512846
 30
0.0
 11
1897.285186721017
 21
621.6947101512854
 31
0.0
 70
    32
  1
8.3
 71
     5
 42
124.8000000000008
  3
ISO-25
100
AcDbAlignedDimension
 13
2097.328912889143
 23
684.0947101512855
 33
0.0
 14
2097.328912889143
 24
559.2947101512846
 34
0.0
 50
90.0
100
AcDbRotatedDimension
1001
ACAD
1000
DSTYLE
1002
{
1070
   279
1070
     2
1070
   371
1070
    18
1070
   372
1070
    18
1002
}
  0
DIMENSION
  5
1E5C
330
1F
100
AcDbEntity
  8
実形
 62
     0
100
AcDbDimension
  2
*D47
 10
1864.389549972262
 20
684.0947101512855
 30
0.0
 11
1845.639549972261
 21
613.8947101512858
 31
0.0
 70
    32
  1
9
 71
     5
 42
140.4000000000001
  3
ISO-25
100
AcDbAlignedDimension
 13
2097.328912889143
 23
543.6947101512854
 33
0.0
 14
2097.328912889143
 24
684.0947101512855
 34
0.0
 50
90.0
100
AcDbRotatedDimension
1001
ACAD
1000
DSTYLE
1002
{
1070
   279
1070
     2
1070
   371
1070
    18
1070
   372
1070
    18
1002
}
  0
LINE
  5
1E5D
330
1F
100
AcDbEntity
  8
実形
 62
     0
100
AcDbLine
 10
1970.032114275532
 20
559.4808025581515
 30
0.0
 11
1970.032114275532
 21
543.6947101512854
 31
0.0
  0
TEXT
  5
1E5E
330
1F
100
AcDbEntity
  8
実形
  6
HIDDEN2
 62
     0
100
AcDbText
 10
1974.759963930668
 20
554.1584046865482
 30
0.0
 40
10.14
  1
● 
 71
     2
100
AcDbText
  0
TEXT
  5
1E5F
330
1F
100
AcDbEntity
  8
実形
  6
HIDDEN2
 62
     0
100
AcDbText
 10
1974.759963930668
 20
539.0050600708654
 30
0.0
 40
10.14
  1
● 
 71
     2
100
AcDbText
  0
TEXT
  5
1E60
330
1F
100
AcDbEntity
  8
実形
 62
     0
100
AcDbText
 10
1965.904597556985
 20
483.7785695213888
 30
0.0
 40
29.25
  1
0.7
 50
90.0
 11
1969.804597556985
 21
483.7785695213888
 31
0.0
100
AcDbText
 73
     1
  0
ARC
  5
1E61
330
1F
100
AcDbEntity
  8
実形
 62
     0
100
AcDbCircle
 10
2095.749391898479
 20
294.0352561825519
 30
0.0
 40
37.21807911390647
100
AcDbArc
 50
10.8838049813102
 51
99.73672806232286
  0
ARC
  5
1E62
330
1F
100
AcDbEntity
  8
実形
 62
     0
100
AcDbCircle
 10
2101.132326064329
 20
286.3222816243725
 30
0.0
 40
34.71092069179851
100
AcDbArc
 50
27.82370983300087
 51
64.29661093933541
  0
ARC
  5
1E63
330
1F
100
AcDbEntity
  8
実形
 62
     0
100
AcDbCircle
 10
2095.736654257051
 20
304.1012932169378
 30
0.0
 40
36.96117099445193
100
AcDbArc
 50
355.5051092068189
 51
31.89192001425599
  0
DIMENSION
  5
1E64
330
1F
100
AcDbEntity
  8
実形
 62
     0
100
AcDbDimension
  2
*D48
 10
2673.699912636183
 20
403.2947101512855
 30
0.0
 11
2654.949912636183
 21
473.4947101512859
 31
0.0
 70
    32
  1
9
 71
     5
 42
140.4
  3
ISO-25
100
AcDbAlignedDimension
 13
2582.25404811461
 23
543.6947101512855
 33
0.0
 14
2582.25404811461
 24
403.2947101512855
 34
0.0
 50
90.0
100
AcDbRotatedDimension
1001
ACAD
1000
DSTYLE
1002
{
1070
   279
1070
     2
1070
   371
1070
    18
1070
   372
1070
    18
1002
}
  0
DIMENSION
  5
1E65
330
1F
100
AcDbEntity
  8
実形
 62
     0
100
AcDbDimension
  2
*D49
 10
2673.699912636183
 20
543.6947101512855
 30
0.0
 11
2654.949912636183
 21
613.8947101512859
 31
0.0
 70
    32
  1
9
 71
     5
 42
140.3999999999999
  3
ISO-25
100
AcDbAlignedDimension
 13
2582.25404811461
 23
684.0947101512855
 33
0.0
 14
2582.25404811461
 24
543.6947101512855
 34
0.0
 50
90.0
100
AcDbRotatedDimension
1001
ACAD
1000
DSTYLE
1002
{
1070
   279
1070
     2
1070
   371
1070
    18
1070
   372
1070
    18
1002
}
  0
DIMENSION
  5
1E66
330
1F
100
AcDbEntity
  8
実形
 62
     0
100
AcDbDimension
  2
*D50
 10
2715.480008308167
 20
403.2947101512855
 30
0.0
 11
2696.730008308167
 21
543.694710151286
 31
0.0
 70
    32
  1
18
 71
     5
 42
280.8
  3
ISO-25
100
AcDbAlignedDimension
 13
2582.25404811461
 23
684.0947101512855
 33
0.0
 14
2582.25404811461
 24
403.2947101512855
 34
0.0
 50
90.0
100
AcDbRotatedDimension
1001
ACAD
1000
DSTYLE
1002
{
1070
   279
1070
     2
1070
   371
1070
    18
1070
   372
1070
    18
1002
}
  0
LEADER
  5
1E67
330
1F
100
AcDbEntity
  8
実形
 62
     0
100
AcDbLeader
  3
ISO-25
 76
     2
 10
2598.968887029636
 20
666.6445109732322
 30
0.0
 10
2665.822583513264
 20
707.9203906258708
 30
0.0
1001
ACAD
1000
DSTYLE
1002
{
1070
   147
1040
6.25
1070
    77
1070
     0
1070
   279
1070
     2
1070
   371
1070
    18
1070
   372
1070
    18
1002
}
  0
LINE
  5
1E68
330
1F
100
AcDbEntity
  8
実形
 62
     0
100
AcDbLine
 10
2356.033877365065
 20
559.2947101512846
 30
0.0
 11
2356.033877365065
 21
543.6947101512854
 31
0.0
  0
LINE
  5
1E69
330
1F
100
AcDbEntity
  8
実形
100
AcDbLine
 10
2387.233877365066
 20
585.2947101512853
 30
0.0
 11
2387.233877365066
 21
543.6947101512854
 31
0.0
  0
LINE
  5
2009
330
1F
100
AcDbEntity
  8
実形
100
AcDbLine
 10
462.2002574683138
 20
745.281514043212
 30
0.0
 11
462.2002574683138
 21
732.2815140432123
 31
0.0
  0
LINE
  5
200A
330
1F
100
AcDbEntity
  8
実形
100
AcDbLine
 10
1180.200257468314
 20
745.2815140432119
 30
0.0
 11
1180.200257468314
 21
732.2815140432121
 31
0.0
  0
LINE
  5
200B
330
1F
100
AcDbEntity
  8
0
100
AcDbLine
 10
1175.200257468314
 20
750.2815140432119
 30
0.0
 11
467.2002574683138
 21
750.281514043212
 31
0.0
  0
LINE
  5
200C
330
1F
100
AcDbEntity
  8
0
100
AcDbLine
 10
1180.200257468313
 20
732.281514043212
 30
0.0
 11
462.2002574683137
 21
732.2815140432121
 31
0.0
  0
DIMENSION
  5
205D
330
1F
100
AcDbEntity
  8
実形
100
AcDbDimension
  2
*D51
 10
344.5593937786942
 20
732.2815140432121
 30
0.0
 11
286.5745698623211
 21
782.0990125346918
 31
0.0
 70
   160
 71
     5
 42
18.0
  3
ISO-25
100
AcDbAlignedDimension
 13
490.6375682076686
 23
750.2815140432121
 33
0.0
 14
490.6375682076686
 24
732.2815140432121
 34
0.0
 50
90.0
100
AcDbRotatedDimension
1001
ACAD
1000
DSTYLE
1002
{
1070
   279
1070
     1
1002
}
  0
DIMENSION
  5
205E
330
1F
100
AcDbEntity
  8
実形
100
AcDbDimension
  2
*D52
 10
344.5593937786942
 20
726.9815140432123
 30
0.0
 11
287.4925692324539
 21
699.0542754579685
 31
0.0
 70
   160
 71
     5
 42
5.29999999999984
  3
ISO-25
100
AcDbAlignedDimension
 13
491.6163458488445
 23
732.2815140432121
 33
0.0
 14
491.6163458488445
 24
726.9815140432123
 34
0.0
 50
90.0
100
AcDbRotatedDimension
1001
ACAD
1000
DSTYLE
1002
{
1070
   279
1070
     1
1002
}
  0
DIMENSION
  5
205F
330
1F
100
AcDbEntity
  8
実形
100
AcDbDimension
  2
*D53
 10
344.5593937786942
 20
551.9815140432122
 30
0.0
 11
325.8093937786941
 21
639.4815140432124
 31
0.0
 70
    32
 71
     5
 42
175.0000000000001
  3
ISO-25
100
AcDbAlignedDimension
 13
490.6974320267034
 23
726.9815140432123
 33
0.0
 14
490.6375682076686
 24
551.9815140432122
 34
0.0
 50
90.0
100
AcDbRotatedDimension
1001
ACAD
1000
DSTYLE
1002
{
1070
   279
1070
     1
1002
}
  0
DIMENSION
  5
2060
330
1F
100
AcDbEntity
  8
実形
100
AcDbDimension
  2
*D54
 10
216.5400121081272
 20
551.9815140432123
 30
0.0
 11
197.7900121081271
 21
651.1315140432123
 31
0.0
 70
    32
 71
     5
 42
198.3
  3
ISO-25
100
AcDbAlignedDimension
 13
425.6375682076686
 23
750.2815140432122
 33
0.0
 14
425.6375682076686
 24
551.9815140432122
 34
0.0
 50
90.0
100
AcDbRotatedDimension
1001
ACAD
1000
DSTYLE
1002
{
1070
   279
1070
     1
1002
}
  0
DIMENSION
  5
2061
330
1F
100
AcDbEntity
  8
実形
100
AcDbDimension
  2
*D55
 10
344.5593937786942
 20
541.9815140432121
 30
0.0
 11
338.485749256746
 21
531.1854935505646
 31
0.0
 70
   160
  1
7
 71
     5
 42
10.0
  3
ISO-25
100
AcDbAlignedDimension
 13
490.6375682076685
 23
551.9815140432122
 33
0.0
 14
490.6375682076685
 24
541.9815140432121
 34
0.0
 50
90.0
100
AcDbRotatedDimension
1001
ACAD
1000
DSTYLE
1002
{
1070
   279
1070
     1
1002
}
  0
LEADER
  5
20E7
330
1F
100
AcDbEntity
  8
実形
100
AcDbLeader
  3
ISO-25
 40
25.0
 41
16.66666666666666
 76
     2
 10
456.7402937038307
 20
755.9510578752933
 30
0.0
 10
415.8672016983858
 20
799.6587061569824
 30
0.0
213
0.0
223
12.5
233
0.0
1001
ACAD
1000
DSTYLE
1002
{
1070
   147
1040
6.25
1070
    77
1070
     0
1070
    41
1040
20.0
1070
   342
1005
DA
1002
}
  0
TEXT
  5
20E8
330
1F
100
AcDbEntity
  8
実形
100
AcDbText
 10
390.9922636601292
 20
812.0855531827155
 30
0.0
 40
25.0
  1
5R
 72
     2
 11
432.6589303267958
 21
837.0855531827155
 31
0.0
100
AcDbText
 73
     3
  0
LEADER
  5
20E9
330
1F
100
AcDbEntity
  8
実形
100
AcDbLeader
  3
ISO-25
 40
25.0
 41
16.66666666666666
 76
     2
 10
1186.207955566542
 20
755.9510578752933
 30
0.0
 10
1227.081047571987
 20
799.6587061569824
 30
0.0
211
-1.0
221
0.0
231
0.0
213
0.0
223
12.5
233
0.0
1001
ACAD
1000
DSTYLE
1002
{
1070
   147
1040
6.25
1070
    77
1070
     0
1070
    41
1040
20.0
1070
   342
1005
DA
1002
}
  0
TEXT
  5
20EA
330
1F
100
AcDbEntity
  8
実形
100
AcDbText
 10
1209.896196636086
 20
812.0855531827155
 30
0.0
 40
25.0
  1
5R
 72
     2
 11
1251.562863302752
 21
837.0855531827155
 31
0.0
100
AcDbText
 73
     3
  0
ARC
  5
20EC
330
1F
100
AcDbEntity
  8
実形
100
AcDbCircle
 10
467.2002574683138
 20
745.281514043212
 30
0.0
 40
5.0
100
AcDbArc
 50
90.0
 51
180.0
  0
ARC
  5
20ED
330
1F
100
AcDbEntity
  8
実形
100
AcDbCircle
 10
1175.200257468314
 20
745.2815140432119
 30
0.0
 40
5.0
100
AcDbArc
 50
0.0
 51
90.0
  0
LINE
  5
2158
330
1F
100
AcDbEntity
  8
0
100
AcDbLine
 10
1500.357403429265
 20
1669.54870917426
 30
0.0
 11
1644.19458737449
 21
1669.548709174261
 31
0.0
  0
ARC
  5
2159
330
1F
100
AcDbEntity
  8
実形
100
AcDbCircle
 10
1644.19458737449
 20
1639.548709174261
 30
0.0
 40
30.0
100
AcDbArc
 50
7.169362918619547
 51
90.0
  0
LINE
  5
215A
330
1F
100
AcDbEntity
  8
0
100
AcDbLine
 10
1508.657403429265
 20
1594.548709174261
 30
0.0
 11
1650.657403429265
 21
1594.548709174261
 31
0.0
  0
LINE
  5
215B
330
1F
100
AcDbEntity
  8
0
100
AcDbLine
 10
1500.357403429265
 20
1149.54870917426
 30
0.0
 11
1502.657403429265
 21
1149.54870917426
 31
0.0
  0
LINE
  5
215C
330
1F
100
AcDbEntity
  8
0
100
AcDbLine
 10
1508.657403429265
 20
1164.54870917426
 30
0.0
 11
1641.859315879838
 21
1164.54870917426
 31
0.0
  0
LINE
  5
215D
330
1F
100
AcDbEntity
  8
0
100
AcDbLine
 10
1505.657403429265
 20
1161.54870917426
 30
0.0
 11
1505.657403429265
 21
1152.54870917426
 31
0.0
  0
ARC
  5
215E
330
1F
100
AcDbEntity
  8
0
100
AcDbCircle
 10
1502.657403429265
 20
1152.54870917426
 30
0.0
 40
3.0
100
AcDbArc
 50
270.0
 51
0.0
  0
ARC
  5
215F
330
1F
100
AcDbEntity
  8
0
100
AcDbCircle
 10
1508.657403429265
 20
1161.54870917426
 30
0.0
 40
3.0
100
AcDbArc
 50
90.0
 51
180.0
  0
LINE
  5
2160
330
1F
100
AcDbEntity
  8
0
100
AcDbLine
 10
1505.657403429265
 20
1669.54870917426
 30
0.0
 11
1505.657403429265
 21
1597.548709174261
 31
0.0
  0
ARC
  5
2161
330
1F
100
AcDbEntity
  8
0
100
AcDbCircle
 10
1508.657403429265
 20
1597.548709174261
 30
0.0
 40
3.0
100
AcDbArc
 50
180.0
 51
270.0
  0
LINE
  5
2162
330
1F
100
AcDbEntity
  8
0
100
AcDbLine
 10
1505.657403429265
 20
1597.548709174261
 30
0.0
 11
1505.657403429265
 21
1152.54870917426
 31
0.0
  0
LINE
  5
2163
330
1F
100
AcDbEntity
  8
0
100
AcDbLine
 10
1680.657403429266
 20
1564.548709174261
 30
0.0
 11
1680.657403429265
 21
1409.048709174265
 31
0.0
  0
LINE
  5
2164
330
1F
100
AcDbEntity
  8
0
100
AcDbLine
 10
1688.657403429265
 20
1590.04870917426
 30
0.0
 11
1688.657403429265
 21
1409.048709174261
 31
0.0
  0
LINE
  5
2165
330
1F
100
AcDbEntity
  8
0
100
AcDbLine
 10
1680.657403429265
 20
1409.048709174261
 30
0.0
 11
1671.834255417109
 21
1193.322740277031
 31
0.0
  0
ARC
  5
2166
330
1F
100
AcDbEntity
  8
0
100
AcDbCircle
 10
1641.859315879838
 20
1194.54870917426
 30
0.0
 40
30.0
100
AcDbArc
 50
270.0
 51
357.657919691536
  0
ARC
  5
2167
330
1F
100
AcDbEntity
  8
0
100
AcDbCircle
 10
1650.657403429265
 20
1564.548709174261
 30
0.0
 40
30.0
100
AcDbArc
 50
0.0
 51
90.0
  0
LINE
  5
2168
330
1F
100
AcDbEntity
  8
0
100
AcDbLine
 10
1680.657403429266
 20
1590.04870917426
 30
0.0
 11
1680.657403429266
 21
1564.548709174261
 31
0.0
  0
LINE
  5
2169
330
1F
100
AcDbEntity
  8
Cen
100
AcDbLine
 10
1586.063573649058
 20
1497.67370917426
 30
0.0
 11
1716.71798588438
 21
1497.67370917426
 31
0.0
  0
LEADER
  5
216A
330
1F
100
AcDbEntity
  8
Cen
100
AcDbLeader
  3
ISO-25
 40
25.0
 41
16.66666666666666
 76
     2
 10
1507.137850428302
 20
1594.962020426602
 30
0.0
 10
1451.964921656534
 20
1558.9277468233
 30
0.0
213
0.0
223
12.5
233
0.0
1001
ACAD
1000
DSTYLE
1002
{
1070
    41
1040
25.0
1070
   147
1040
6.25
1070
    77
1070
     0
1070
   279
1070
     1
1002
}
  0
LEADER
  5
216B
330
1F
100
AcDbEntity
  8
Cen
100
AcDbLeader
  3
ISO-25
 76
     2
 10
1506.747928290946
 20
1163.862559795225
 30
0.0
 10
1562.544527339843
 20
1119.990642290039
 30
0.0
1001
ACAD
1000
DSTYLE
1002
{
1070
    41
1040
25.0
1070
   147
1040
6.25
1070
    77
1070
     0
1070
   279
1070
     1
1002
}
  0
TEXT
  5
216C
330
1F
100
AcDbEntity
  8
0
100
AcDbText
 10
1566.463918962567
 20
1091.424727921701
 30
0.0
 40
25.0
  1
3R
100
AcDbText
  0
LEADER
  5
216D
330
1F
100
AcDbEntity
  8
Cen
100
AcDbLeader
  3
ISO-25
 76
     2
 10
1504.702543405762
 20
1150.353850983731
 30
0.0
 10
1453.723816308084
 20
1186.33728349513
 30
0.0
1001
ACAD
1000
DSTYLE
1002
{
1070
    41
1040
25.0
1070
   147
1040
6.25
1070
    77
1070
     0
1070
   279
1070
     1
1002
}
  0
TEXT
  5
216E
330
1F
100
AcDbEntity
  8
0
100
AcDbText
 10
1406.691125169318
 20
1176.431359734604
 30
0.0
 40
25.0
  1
3R
100
AcDbText
  0
TEXT
  5
216F
330
1F
100
AcDbEntity
  8
0
100
AcDbText
 10
1403.998867024262
 20
1526.148290641324
 30
0.0
 40
25.0
  1
3R
100
AcDbText
  0
LINE
  5
2170
330
1F
100
AcDbEntity
  8
実形
100
AcDbLine
 10
1680.657403429266
 20
1590.04870917426
 30
0.0
 11
1688.657403429265
 21
1590.04870917426
 31
0.0
  0
LINE
  5
2171
330
1F
100
AcDbEntity
  8
実形
100
AcDbLine
 10
1680.657403429265
 20
1409.048709174261
 30
0.0
 11
1688.657403429265
 21
1409.048709174261
 31
0.0
  0
LINE
  5
2172
330
1F
100
AcDbEntity
  8
実形
100
AcDbLine
 10
1673.960034696666
 20
1643.292790598434
 30
0.0
 11
1680.657403429266
 21
1590.04870917426
 31
0.0
  0
LINE
  5
2173
330
1F
100
AcDbEntity
  8
0
100
AcDbLine
 10
1482.357403429265
 20
1698.54870917426
 30
0.0
 11
1482.357403429265
 21
1120.54870917426
 31
0.0
  0
LINE
  5
2174
330
1F
100
AcDbEntity
  8
0
100
AcDbLine
 10
1500.357403429265
 20
1703.548709174261
 30
0.0
 11
1500.357403429265
 21
1115.54870917426
 31
0.0
  0
LINE
  5
2175
330
1F
100
AcDbEntity
  8
実形
100
AcDbLine
 10
1487.357403429265
 20
1703.54870917426
 30
0.0
 11
1500.357403429266
 21
1703.548709174261
 31
0.0
  0
LINE
  5
2176
330
1F
100
AcDbEntity
  8
実形
100
AcDbLine
 10
1487.357403429265
 20
1115.548709174261
 30
0.0
 11
1500.357403429265
 21
1115.548709174261
 31
0.0
  0
DIMENSION
  5
2298
330
1F
100
AcDbEntity
  8
実形
100
AcDbDimension
  2
*D56
 10
1500.357403429265
 20
1008.840221431225
 30
0.0
 11
1450.539904937785
 21
950.8553975148522
 31
0.0
 70
   160
 71
     5
 42
18.0
  3
ISO-25
100
AcDbAlignedDimension
 13
1482.357403429265
 23
1154.918395860199
 33
0.0
 14
1500.357403429265
 24
1154.918395860199
 34
0.0
 50
180.0
100
AcDbRotatedDimension
1001
ACAD
1000
DSTYLE
1002
{
1070
   279
1070
     1
1002
}
  0
DIMENSION
  5
2299
330
1F
100
AcDbEntity
  8
実形
100
AcDbDimension
  2
*D57
 10
1505.657403429265
 20
1008.840221431225
 30
0.0
 11
1533.584642014508
 21
951.7733968849849
 31
0.0
 70
   160
 71
     5
 42
5.299999999999727
  3
ISO-25
100
AcDbAlignedDimension
 13
1500.357403429265
 23
1155.897173501375
 33
0.0
 14
1505.657403429265
 24
1155.897173501375
 34
0.0
 50
180.0
100
AcDbRotatedDimension
1001
ACAD
1000
DSTYLE
1002
{
1070
   279
1070
     1
1002
}
  0
DIMENSION
  5
229A
330
1F
100
AcDbEntity
  8
実形
100
AcDbDimension
  2
*D58
 10
1680.657403429265
 20
1008.840221431225
 30
0.0
 11
1593.157403429264
 21
1027.590221431225
 31
0.0
 70
    32
 71
     5
 42
175.0
  3
ISO-25
100
AcDbAlignedDimension
 13
1505.657403429265
 23
1154.978259679234
 33
0.0
 14
1680.657403429265
 24
1154.918395860199
 34
0.0
 50
180.0
100
AcDbRotatedDimension
1001
ACAD
1000
DSTYLE
1002
{
1070
   279
1070
     1
1002
}
  0
DIMENSION
  5
229B
330
1F
100
AcDbEntity
  8
実形
100
AcDbDimension
  2
*D59
 10
1680.657403429265
 20
880.8208397606584
 30
0.0
 11
1581.507403429265
 21
899.5708397606584
 31
0.0
 70
    32
 71
     5
 42
198.3000000000002
  3
ISO-25
100
AcDbAlignedDimension
 13
1482.357403429265
 23
1089.918395860199
 33
0.0
 14
1680.657403429265
 24
1089.918395860199
 34
0.0
 50
180.0
100
AcDbRotatedDimension
1001
ACAD
1000
DSTYLE
1002
{
1070
   279
1070
     1
1002
}
  0
DIMENSION
  5
229C
330
1F
100
AcDbEntity
  8
実形
100
AcDbDimension
  2
*D60
 10
1690.657403429265
 20
1008.840221431225
 30
0.0
 11
1708.600141501029
 21
1011.368704505218
 31
0.0
 70
   160
  1
7
 71
     5
 42
10.0
  3
ISO-25
100
AcDbAlignedDimension
 13
1680.657403429265
 23
1154.918395860199
 33
0.0
 14
1690.657403429265
 24
1154.918395860199
 34
0.0
 50
180.0
100
AcDbRotatedDimension
1001
ACAD
1000
DSTYLE
1002
{
1070
   279
1070
     1
1002
}
  0
ARC
  5
231A
330
1F
100
AcDbEntity
  8
実形
100
AcDbCircle
 10
1487.357403429265
 20
1120.54870917426
 30
0.0
 40
5.0
100
AcDbArc
 50
179.9999999999999
 51
270.0
  0
ARC
  5
231B
330
1F
100
AcDbEntity
  8
実形
100
AcDbCircle
 10
1487.357403429265
 20
1698.54870917426
 30
0.0
 40
5.0
100
AcDbArc
 50
90.0
 51
179.9999999999999
  0
LEADER
  5
235C
330
1F
100
AcDbEntity
  8
実形
100
AcDbLeader
  3
ISO-25
 40
25.0
 41
16.66666666666666
 76
     2
 10
1473.942881126563
 20
1112.527185004924
 30
0.0
 10
1414.466179944133
 20
1072.891525206076
 30
0.0
213
0.0
223
12.5
233
0.0
1001
ACAD
1000
DSTYLE
1002
{
1070
   147
1040
6.25
1070
    77
1070
     0
1070
    41
1040
20.0
1070
   342
1005
DA
1002
}
  0
TEXT
  5
235D
330
1F
100
AcDbEntity
  8
実形
100
AcDbText
 10
1383.075702841634
 20
1040.203557281855
 30
0.0
 40
25.0
  1
5R
 72
     2
 11
1424.7423695083
 21
1065.203557281855
 31
0.0
100
AcDbText
 73
     3
  0
LEADER
  5
235E
330
1F
100
AcDbEntity
  8
実形
100
AcDbLeader
  3
ISO-25
 40
25.0
 41
16.66666666666666
 76
     2
 10
1474.619063337445
 20
1708.985050815839
 30
0.0
 10
1428.114395460164
 20
1751.339440637423
 30
0.0
213
0.0
223
12.5
233
0.0
1001
ACAD
1000
DSTYLE
1002
{
1070
   147
1040
6.25
1070
    77
1070
     0
1070
    41
1040
20.0
1070
   342
1005
DA
1002
}
  0
TEXT
  5
235F
330
1F
100
AcDbEntity
  8
実形
100
AcDbText
 10
1401.693392848233
 20
1758.871386829477
 30
0.0
 40
25.0
  1
5R
 72
     2
 11
1443.360059514899
 21
1783.871386829477
 31
0.0
100
AcDbText
 73
     3
  0
LINE
  5
237D
330
1F
100
AcDbEntity
  8
0
100
AcDbLine
 10
1146.200257468313
 20
726.9815140432121
 30
0.0
 11
961.200257468314
 21
726.9815140432119
 31
0.0
  0
LINE
  5
237E
330
1F
100
AcDbEntity
  8
0
100
AcDbLine
 10
831.2002574683139
 20
726.9815140432119
 30
0.0
 11
496.2002574683144
 21
726.9815140432119
 31
0.0
  0
LINE
  5
23AD
330
1F
100
AcDbEntity
  8
センター
 48
0.5
370
    15
100
AcDbLine
 10
1118.297889345072
 20
1348.21336950048
 30
0.0
 11
1205.702663000744
 21
1348.21336950048
 31
0.0
  0
TEXT
  5
23AE
330
1F
100
AcDbEntity
  8
実形
370
    -2
100
AcDbText
 10
1091.890140988968
 20
1337.843049684392
 30
0.0
 40
25.0
  1
A
100
AcDbText
  0
TEXT
  5
23AF
330
1F
100
AcDbEntity
  8
実形
370
    -2
100
AcDbText
 10
1212.750060625672
 20
1337.843049684392
 30
0.0
 40
25.0
  1
A
100
AcDbText
  0
TEXT
  5
23B0
330
1F
100
AcDbEntity
  8
実形
370
    -2
100
AcDbText
 10
1222.354835385437
 20
1336.24258832222
 30
0.0
 40
25.0
  1
´
100
AcDbText
  0
VIEWPORT
  5
2E
102
{ACAD_XDICTIONARY
360
23CF
102
}
330
1B
100
AcDbEntity
 67
     1
  8
0
100
AcDbViewport
 10
144.7270812988281
 20
101.2295806407928
 30
0.0
 40
411.6736216682419
 41
222.1517806396485
 68
     1
 69
     1
 12
144.7270812988281
 22
101.2295806407928
 13
0.0
 23
0.0
 14
10.0
 24
10.0
 15
10.0
 25
10.0
 16
0.0
 26
0.0
 36
1.0
 17
0.0
 27
0.0
 37
0.0
 42
50.0
 43
0.0
 44
0.0
 45
222.1517806396485
 50
0.0
 51
0.0
 72
   100
 90
    32800
  1

281
     0
 71
     1
 74
     0
110
0.0
120
0.0
130
0.0
111
1.0
121
0.0
131
0.0
112
0.0
122
1.0
132
0.0
 79
     0
146
0.0
  0
VIEWPORT
  5
30
102
{ACAD_XDICTIONARY
360
23D1
102
}
330
1B
100
AcDbEntity
 67
     1
  8
0
100
AcDbViewport
 10
139.2237563133239
 20
101.2295821905136
 30
0.0
 40
222.7580101013184
 41
161.9673315048218
 68
     2
 69
     2
 12
210.0
 22
148.5
 13
0.0
 23
0.0
 14
10.0
 24
10.0
 15
10.0
 25
10.0
 16
0.0
 26
0.0
 36
1.0
 17
0.0
 27
0.0
 37
0.0
 42
50.0
 43
0.0
 44
0.0
 45
309.0686705647124
 50
0.0
 51
0.0
 72
   100
 90
    32864
  1

281
     0
 71
     1
 74
     0
110
0.0
120
0.0
130
0.0
111
1.0
121
0.0
131
0.0
112
0.0
122
1.0
132
0.0
 79
     0
146
0.0
  0
ENDSEC
  0
SECTION
  2
OBJECTS
  0
DICTIONARY
  5
C
330
0
100
AcDbDictionary
281
     1
  3
ACAD_COLOR
350
158B
  3
ACAD_GROUP
350
D
  3
ACAD_LAYOUT
350
1A
  3
ACAD_MATERIAL
350
158A
  3
ACAD_MLINESTYLE
350
17
  3
ACAD_PLOTSETTINGS
350
19
  3
ACAD_PLOTSTYLENAME
350
E
  3
ACAD_TABLESTYLE
350
158C
  3
AcadDim
350
5B1
  3
ACDBHEADERROUNDTRIPXREC
350
23C8
  3
AcDbVariableDictionary
350
96D
  3
DWGPROPS
350
23C7
  0
DICTIONARY
  5
15E1
330
2
100
AcDbDictionary
280
     1
281
     1
  3
ACAD_LAYERFILTERS
360
1B4C
  3
ACAD_LAYERSTATES
360
15E2
  3
ACLYDICTIONARY
360
1B4B
  0
DICTIONARY
  5
1649
330
1F
100
AcDbDictionary
280
     1
281
     1
  3
ACAD_SORTENTS
360
164A
  0
DICTIONARY
  5
23CF
330
2E
100
AcDbDictionary
280
     1
281
     1
  3
ACAD_XREC_ROUNDTRIP
360
23D0
  0
DICTIONARY
  5
23D1
330
30
100
AcDbDictionary
280
     1
281
     1
  3
ACAD_XREC_ROUNDTRIP
360
23D2
  0
DICTIONARY
  5
158B
102
{ACAD_REACTORS
330
C
102
}
330
C
100
AcDbDictionary
281
     1
  0
DICTIONARY
  5
D
102
{ACAD_REACTORS
330
C
102
}
330
C
100
AcDbDictionary
281
     1
  0
DICTIONARY
  5
1A
102
{ACAD_REACTORS
330
C
102
}
330
C
100
AcDbDictionary
281
     1
  3
Model
350
22
  3
ﾚｲｱｳﾄ1
350
1E
  3
ﾚｲｱｳﾄ2
350
26
  0
DICTIONARY
  5
158A
102
{ACAD_REACTORS
330
C
102
}
330
C
100
AcDbDictionary
281
     1
  0
DICTIONARY
  5
17
102
{ACAD_REACTORS
330
C
102
}
330
C
100
AcDbDictionary
281
     1
  3
Standard
350
18
  0
DICTIONARY
  5
19
102
{ACAD_REACTORS
330
C
102
}
330
C
100
AcDbDictionary
281
     1
  0
ACDBDICTIONARYWDFLT
  5
E
102
{ACAD_REACTORS
330
C
102
}
330
C
100
AcDbDictionary
281
     1
  3
Normal
350
F
100
AcDbDictionaryWithDefault
340
F
  0
DICTIONARY
  5
158C
102
{ACAD_REACTORS
330
C
102
}
330
C
100
AcDbDictionary
281
     1
  3
Standard
350
158D
  0
XRECORD
  5
5B1
102
{ACAD_REACTORS
330
C
102
}
330
C
100
AcDbXrecord
280
     1
 90
   990106
  3

 60
     0
 61
     0
 62
     1
 63
     3
 64
     0
 65
     0
 66
     0
 67
     3
 68
     1
 69
     0
 70
     0
 71
     0
 72
     0
 40
5.637859010809637
170
     0
340
0
  0
DICTIONARY
  5
23C8
102
{ACAD_REACTORS
330
C
102
}
330
C
100
AcDbDictionary
281
     1
  0
DICTIONARY
  5
96D
102
{ACAD_REACTORS
330
C
102
}
330
C
100
AcDbDictionary
281
     1
  3
CTABLESTYLE
350
1593
  3
DIMASSOC
350
23C4
  3
PROJECTNAME
350
23C5
  3
SORTENTS
350
96E
  0
XRECORD
  5
23C7
102
{ACAD_REACTORS
330
C
102
}
330
C
100
AcDbXrecord
280
     1
  1
DWGPROPS COOKIE
  2

  3

  4

  6

  7

  8

  9

300
=
301
=
302
=
303
=
304
=
305
=
306
=
307
=
308
=
309
=
 40
1.110813923611111
 41
2451673.575802199
 42
2458810.739067743
  1

 90
        0
  0
DICTIONARY
  5
1B4C
102
{ACAD_REACTORS
330
15E1
102
}
330
15E1
100
AcDbDictionary
281
     1
  0
DICTIONARY
  5
15E2
102
{ACAD_REACTORS
330
15E1
102
}
330
15E1
100
AcDbDictionary
281
     1
  0
DICTIONARY
  5
1B4B
102
{ACAD_REACTORS
330
15E1
102
}
330
15E1
100
AcDbDictionary
281
     1
1001
ACAD
1000
<All
  0
SORTENTSTABLE
  5
164A
102
{ACAD_REACTORS
330
1649
102
}
330
1649
100
AcDbSortentsTable
330
1F
331
13E3
  5
19A7
331
1A80
  5
1A85
331
1A88
  5
1A8D
331
2169
  5
216C
331
1E39
  5
1E3D
331
1A90
  5
1B2C
331
370
  5
371
331
2171
  5
2174
331
1E41
  5
1E45
331
2299
  5
229B
331
1E49
  5
1E4D
331
262
  5
267
331
5F4
  5
5FA
331
5FC
  5
602
331
EFC
  5
13E0
331
1E51
  5
1E55
331
AB
  5
AD
331
1CEA
  5
1CEE
331
54E
  5
560
331
1E59
  5
1E5D
331
1CF2
  5
1E2A
331
3E0
  5
407
331
339
  5
33C
331
5AD
  5
5F6
331
1E61
  5
1E65
331
215A
  5
215D
331
205D
  5
205F
331
1E2A
  5
1E2E
331
566
  5
5A9
331
1E69
  5
200C
331
2162
  5
2165
331
1E32
  5
1E36
331
A2C
  5
DCF
331
50F
  5
53C
331
13DC
  5
13E2
331
1A81
  5
1A86
331
1A89
  5
1A8E
331
371
  5
376
331
216A
  5
216D
331
1E3A
  5
1E3E
331
1A91
  5
1B2D
331
EAD
  5
EB8
331
586
  5
5AD
331
2172
  5
2175
331
1E42
  5
1E46
331
1C9B
  5
1CE8
331
5F5
  5
5FB
331
537
  5
54E
331
229A
  5
229C
331
1E4A
  5
1E4E
331
DCC
  5
DE7
331
5FD
  5
603
331
26B
  5
2E9
331
53F
  5
55A
331
DE6
  5
E81
331
32A
  5
32B
331
1E52
  5
1E56
331
20EC
  5
414
331
1CEB
  5
1CEF
331
480
  5
537
331
1E5A
  5
1E5E
331
1CF3
  5
1E2B
331
55F
  5
59F
331
1E62
  5
1E66
331
215B
  5
215E
331
205E
  5
2060
331
1E2B
  5
1E2F
331
2163
  5
2166
331
1E33
  5
1E37
331
A2D
  5
DD0
331
13DD
  5
13E3
331
1A82
  5
1A87
331
E8E
  5
EB7
331
1A8A
  5
1A8F
331
216B
  5
216E
331
1E3B
  5
1E3F
331
1A92
  5
1B4D
331
EAE
  5
EB9
331
419
  5
480
331
2173
  5
2158
331
1E43
  5
1E47
331
1C9C
  5
1CE9
331
CB5
  5
DE6
331
5F6
  5
5FC
331
471
  5
52C
331
231A
  5
2159
331
229B
  5
231A
331
1E4B
  5
1E4F
331
DCD
  5
DE8
331
5FE
  5
A29
331
540
  5
55C
331
59F
  5
5AE
331
EB6
  5
ED9
331
DE7
  5
E8E
331
32B
  5
32C
331
39A
  5
39B
331
1E53
  5
1E57
331
AD
  5
25F
331
20ED
  5
40D
331
1CEC
  5
1CF0
331
E7F
  5
EB1
331
558
  5
562
331
1E5B
  5
1E5F
331
1CF4
  5
1E2C
331
560
  5
5A0
331
1E63
  5
1E67
331
215C
  5
215F
331
205F
  5
2061
331
1E2C
  5
1E30
331
304
  5
31C
331
40A
  5
419
331
2164
  5
2167
331
1E34
  5
1E38
331
9C
  5
9C
331
13DE
  5
15EE
331
1A83
  5
1A88
331
1A8B
  5
1A90
331
511
  5
540
331
216C
  5
216F
331
1E3C
  5
1E40
331
1A93
  5
1C90
331
31C
  5
32A
331
41A
  5
48E
331
2174
  5
215A
331
1E44
  5
1E48
331
5F7
  5
5FD
331
231B
  5
2298
331
229C
  5
231B
331
1E4C
  5
1E50
331
5FF
  5
A2C
331
DD0
  5
E7F
331
EB7
  5
F02
331
DE8
  5
EAD
331
1B12
  5
1C91
331
32C
  5
32D
331
39B
  5
3DF
331
5A0
  5
5D2
331
1E54
  5
1E58
331
1CED
  5
1CF1
331
334
  5
335
331
1E5C
  5
1E60
331
33C
  5
340
331
1E64
  5
1E68
331
215D
  5
2160
331
2060
  5
20E7
331
1E2D
  5
1E31
331
40B
  5
41A
331
5D0
  5
5F7
331
2165
  5
2168
331
1E35
  5
1E39
331
A5
  5
A8
331
E80
  5
EB2
331
13DF
  5
1748
331
1A84
  5
1A89
331
1A8C
  5
1A91
331
413
  5
41E
331
5D8
  5
5F9
331
216D
  5
2170
331
1E3D
  5
1E41
331
384
  5
39A
331
532
  5
54B
331
C9F
  5
DD1
331
2175
  5
2176
331
1E45
  5
1E49
331
5F8
  5
5FE
331
473
  5
533
331
20E7
  5
20E9
331
1E4D
  5
1E51
331
600
  5
A2D
331
DCF
  5
E77
331
1CE6
  5
1CEA
331
DD1
  5
E80
331
EB8
  5
13DC
331
19A5
  5
1A7E
331
1E55
  5
1E59
331
2009
  5
205D
331
1CEE
  5
1CF2
331
32D
  5
32E
331
5A1
  5
5D8
331
5A9
  5
5F4
331
1E5D
  5
1E61
331
335
  5
339
331
55A
  5
563
331
1E65
  5
1E69
331
215E
  5
2161
331
2061
  5
20E8
331
1E2E
  5
1E32
331
562
  5
5A1
331
2166
  5
2169
331
1E36
  5
1E3A
331
56A
  5
5AA
331
E81
  5
EB6
331
1A7D
  5
1A82
331
13E0
  5
1970
331
1A85
  5
1A8A
331
1A8D
  5
1A92
331
216E
  5
2171
331
1E3E
  5
1E42
331
414
  5
471
331
2176
  5
2299
331
1E46
  5
1E4A
331
25F
  5
260
331
533
  5
54C
331
1E4E
  5
1E52
331
267
  5
26B
331
5F9
  5
5FF
331
1CE7
  5
1CEB
331
601
  5
A2E
331
EB1
  5
EBA
331
EB9
  5
13DD
331
20E8
  5
20EA
331
19A6
  5
1A7F
331
A8
  5
A9
331
1E56
  5
1E5A
331
200A
  5
205E
331
1CEF
  5
1CF3
331
1B2C
  5
1C9B
331
32E
  5
32F
331
54B
  5
55D
331
1E5E
  5
1E62
331
2F7
  5
304
331
5AA
  5
5F5
331
1E66
  5
2009
331
215F
  5
2162
331
1E2F
  5
1E33
331
A29
  5
DCD
331
2167
  5
216A
331
1E37
  5
1E3B
331
5D2
  5
5F8
331
196F
  5
19A8
331
13E1
  5
19A5
331
1A7E
  5
1A83
331
1A86
  5
1A8B
331
1C90
  5
1CE6
331
1A8E
  5
1A93
331
216F
  5
2172
331
1E3F
  5
1E43
331
376
  5
384
331
415
  5
473
331
1E47
  5
1E4B
331
260
  5
261
331
1E4F
  5
1E53
331
5FA
  5
600
331
602
  5
A2F
331
EB2
  5
EBB
331
EBA
  5
13DE
331
1CE8
  5
1CEC
331
20E9
  5
20EC
331
19A7
  5
1A80
331
F02
  5
13E1
331
A9
  5
AA
331
1E57
  5
1E5B
331
200B
  5
40B
331
1CF0
  5
1CF4
331
1B2D
  5
1C9C
331
32F
  5
334
331
54C
  5
55F
331
2158
  5
215B
331
1E5F
  5
1E63
331
55C
  5
56A
331
1E67
  5
200A
331
2160
  5
2163
331
1E30
  5
1E34
331
A0
  5
A5
331
13E2
  5
19A6
331
1970
  5
1A7D
331
1A7F
  5
1A84
331
1B4D
  5
A0
331
1A87
  5
1A8C
331
2168
  5
216B
331
1E38
  5
1E3C
331
1C91
  5
1CE7
331
1A8F
  5
1B12
331
2170
  5
2173
331
1E40
  5
1E44
331
2298
  5
229A
331
1E48
  5
1E4C
331
261
  5
262
331
41E
  5
4B0
331
5FB
  5
601
331
53D
  5
558
331
603
  5
DCC
331
EBB
  5
13DF
331
1E50
  5
1E54
331
1CE9
  5
1CED
331
20EA
  5
20ED
331
19A8
  5
1A81
331
AA
  5
AB
331
2E9
  5
2F7
331
1E58
  5
1E5C
331
200C
  5
415
331
1CF1
  5
1E29
331
1E60
  5
1E64
331
2159
  5
215C
331
1E29
  5
1E2D
331
3DF
  5
3E0
331
55D
  5
56C
331
1E68
  5
200B
331
2161
  5
2164
331
1E31
  5
1E35
331
340
  5
370
331
48E
  5
53A
  0
XRECORD
  5
23D0
102
{ACAD_REACTORS
330
23CF
102
}
330
23CF
100
AcDbXrecord
280
     1
102
SHADEPLOT
 70
     0
  0
XRECORD
  5
23D2
102
{ACAD_REACTORS
330
23D1
102
}
330
23D1
100
AcDbXrecord
280
     1
102
SHADEPLOT
 70
     0
  0
LAYOUT
  5
22
102
{ACAD_XDICTIONARY
360
23CB
102
}
102
{ACAD_REACTORS
330
1A
102
}
330
1A
100
AcDbPlotSettings
  1

  2
EPSON PM-800C
  4
A4
  6

 40
3.757083177566528
 41
14.7637300491333
 42
3.757080078125
 43
3.757080078125
 44
209.9733276367187
 45
296.9683227539062
 46
0.0
 47
0.0
 48
0.0
 49
0.0
140
0.0
141
0.0
142
1.0
143
10.0
 70
 11952
 72
     1
 73
     1
 74
     2
  7

 75
    20
147
0.1
148
0.0
149
0.0
100
AcDbLayout
  1
Model
 70
     1
 71
     0
 10
0.0
 20
0.0
 11
12.0
 21
9.0
 12
0.0
 22
0.0
 32
0.0
 14
0.0
 24
0.0
 34
0.0
 15
0.0
 25
0.0
 35
0.0
146
0.0
 13
0.0
 23
0.0
 33
0.0
 16
1.0
 26
0.0
 36
0.0
 17
0.0
 27
1.0
 37
0.0
 76
     0
330
1F
  0
LAYOUT
  5
1E
102
{ACAD_XDICTIONARY
360
23C9
102
}
102
{ACAD_REACTORS
330
1A
102
}
330
1A
100
AcDbPlotSettings
  1

  2
EPSON PM-800C
  4
A4
  6

 40
3.757083177566528
 41
14.7637300491333
 42
3.757080078125
 43
3.757080078125
 44
209.9733276367187
 45
296.9683227539062
 46
0.0
 47
0.0
 48
0.0
 49
0.0
140
0.0
141
0.0
142
1.0
143
1.0
 70
   688
 72
     1
 73
     1
 74
     5
  7

 75
    16
147
1.0
148
0.0
149
0.0
100
AcDbLayout
  1
ﾚｲｱｳﾄ1
 70
     1
 71
     1
 10
-3.757080078125
 20
-3.757083177566528
 11
293.2112426757813
 21
206.2162444591522
 12
0.0
 22
0.0
 32
0.0
 14
27.8447512626648
 24
20.24591643810271
 34
0.0
 15
250.6027613639831
 25
182.2132479429245
 35
0.0
146
0.0
 13
0.0
 23
0.0
 33
0.0
 16
1.0
 26
0.0
 36
0.0
 17
0.0
 27
1.0
 37
0.0
 76
     0
330
1B
331
2E
  0
LAYOUT
  5
26
102
{ACAD_XDICTIONARY
360
23CD
102
}
102
{ACAD_REACTORS
330
1A
102
}
330
1A
100
AcDbPlotSettings
  1

  2
EPSON PM-800C
  4

  6

 40
0.0
 41
0.0
 42
0.0
 43
0.0
 44
0.0
 45
0.0
 46
0.0
 47
0.0
 48
0.0
 49
0.0
140
0.0
141
0.0
142
1.0
143
1.0
 70
   688
 72
     0
 73
     0
 74
     5
  7

 75
    16
147
1.0
148
0.0
149
0.0
100
AcDbLayout
  1
ﾚｲｱｳﾄ2
 70
     1
 71
     2
 10
0.0
 20
0.0
 11
12.0
 21
9.0
 12
0.0
 22
0.0
 32
0.0
 14
0.0
 24
0.0
 34
0.0
 15
0.0
 25
0.0
 35
0.0
146
0.0
 13
0.0
 23
0.0
 33
0.0
 16
1.0
 26
0.0
 36
0.0
 17
0.0
 27
1.0
 37
0.0
 76
     0
330
23
  0
MLINESTYLE
  5
18
102
{ACAD_REACTORS
330
17
102
}
330
17
100
AcDbMlineStyle
  2
STANDARD
 70
     0
  3

 62
   256
 51
90.0
 52
90.0
 71
     2
 49
0.5
 62
   256
  6
BYLAYER
 49
-0.5
 62
   256
  6
BYLAYER
  0
ACDBPLACEHOLDER
  5
F
102
{ACAD_REACTORS
330
E
102
}
330
E
  0
TABLESTYLE
  5
158D
102
{ACAD_REACTORS
330
158C
102
}
330
158C
100
AcDbTableStyle
  3
Standard
 70
     0
 71
     0
 40
1.5
 41
1.5
280
     0
281
     0
  7
Standard
140
4.5
170
     2
 62
     0
 63
     7
283
     0
274
    -2
284
     1
 64
     0
275
    -2
285
     1
 65
     0
276
    -2
286
     1
 66
     0
277
    -2
287
     1
 67
     0
278
    -2
288
     1
 68
     0
279
    -2
289
     1
 69
     0
  7
Standard
140
6.0
170
     5
 62
     0
 63
     7
283
     0
274
    -2
284
     1
 64
     0
275
    -2
285
     1
 65
     0
276
    -2
286
     1
 66
     0
277
    -2
287
     1
 67
     0
278
    -2
288
     1
 68
     0
279
    -2
289
     1
 69
     0
  7
Standard
140
4.5
170
     5
 62
     0
 63
     7
283
     0
274
    -2
284
     1
 64
     0
275
    -2
285
     1
 65
     0
276
    -2
286
     1
 66
     0
277
    -2
287
     1
 67
     0
278
    -2
288
     1
 68
     0
279
    -2
289
     1
 69
     0
  0
DICTIONARYVAR
  5
1593
102
{ACAD_REACTORS
330
96D
102
}
330
96D
100
DictionaryVariables
280
     0
  1
STANDARD
  0
DICTIONARYVAR
  5
23C4
102
{ACAD_REACTORS
330
96D
102
}
330
96D
100
DictionaryVariables
280
     0
  1
1
  0
DICTIONARYVAR
  5
23C5
102
{ACAD_REACTORS
330
96D
102
}
330
96D
100
DictionaryVariables
280
     0
  1

  0
DICTIONARYVAR
  5
96E
102
{ACAD_REACTORS
330
96D
102
}
330
96D
100
DictionaryVariables
280
     0
  1
96
  0
DICTIONARY
  5
23CB
330
22
100
AcDbDictionary
280
     1
281
     1
  3
ACAD_XREC_ROUNDTRIP
360
23CC
  0
DICTIONARY
  5
23C9
330
1E
100
AcDbDictionary
280
     1
281
     1
  3
ACAD_XREC_ROUNDTRIP
360
23CA
  0
DICTIONARY
  5
23CD
330
26
100
AcDbDictionary
280
     1
281
     1
  3
ACAD_XREC_ROUNDTRIP
360
23CE
  0
XRECORD
  5
23CC
102
{ACAD_REACTORS
330
23CB
102
}
330
23CB
100
AcDbXrecord
280
     1
102
SHADEPLOT
 70
     0
102
SHADEPLOTRESLEVEL
 70
     2
102
SHADEPLOTCUSTOMDPI
 70
   300
  0
XRECORD
  5
23CA
102
{ACAD_REACTORS
330
23C9
102
}
330
23C9
100
AcDbXrecord
280
     1
102
SHADEPLOT
 70
     0
102
SHADEPLOTRESLEVEL
 70
     2
102
SHADEPLOTCUSTOMDPI
 70
   300
  0
XRECORD
  5
23CE
102
{ACAD_REACTORS
330
23CD
102
}
330
23CD
100
AcDbXrecord
280
     1
102
SHADEPLOT
 70
     0
102
SHADEPLOTRESLEVEL
 70
     2
102
SHADEPLOTCUSTOMDPI
 70
   300
  0
ENDSEC
  0
EOF
