  0
SECTION
  2
HEADER
  9
$ACADVER
  1
AC1015
  9
$ACADMAINTVER
 70
    20
  9
$DWGCODEPAGE
  3
ANSI_932
  9
$INSBASE
 10
0.0
 20
0.0
 30
0.0
  9
$EXTMIN
 10
109.0
 20
4.0
 30
0.0
  9
$EXTMAX
 10
2784.0
 20
2024.0
 30
0.0
  9
$LIMMIN
 10
0.0
 20
0.0
  9
$LIMMAX
 10
29700.0
 20
21000.0
  9
$ORTHOMODE
 70
     1
  9
$REGENMODE
 70
     1
  9
$FILLMODE
 70
     1
  9
$QTEXTMODE
 70
     0
  9
$MIRRTEXT
 70
     1
  9
$LTSCALE
 40
4.0
  9
$ATTMODE
 70
     1
  9
$TEXTSIZE
 40
25.0
  9
$TRACEWID
 40
1.0
  9
$TEXTSTYLE
  7
Standard
  9
$CLAYER
  8
実形
  9
$CELTYPE
  6
ByLayer
  9
$CECOLOR
 62
     3
  9
$CELTSCALE
 40
1.0
  9
$DISPSILH
 70
     0
  9
$DIMSCALE
 40
1.0
  9
$DIMASZ
 40
35.0
  9
$DIMEXO
 40
65.0
  9
$DIMDLI
 40
3.75
  9
$DIMRND
 40
0.0
  9
$DIMDLE
 40
0.0
  9
$DIMEXE
 40
0.0
  9
$DIMTP
 40
0.0
  9
$DIMTM
 40
0.0
  9
$DIMTXT
 40
25.0
  9
$DIMCEN
 40
2.5
  9
$DIMTSZ
 40
0.0
  9
$DIMTOL
 70
     0
  9
$DIMLIM
 70
     0
  9
$DIMTIH
 70
     0
  9
$DIMTOH
 70
     0
  9
$DIMSE1
 70
     0
  9
$DIMSE2
 70
     0
  9
$DIMTAD
 70
     1
  9
$DIMZIN
 70
     8
  9
$DIMBLK
  1
DotSmall
  9
$DIMASO
 70
     1
  9
$DIMSHO
 70
     1
  9
$DIMPOST
  1

  9
$DIMAPOST
  1

  9
$DIMALT
 70
     0
  9
$DIMALTD
 70
     3
  9
$DIMALTF
 40
0.03937007874016
  9
$DIMLFAC
 40
1.0
  9
$DIMTOFL
 70
     1
  9
$DIMTVP
 40
0.0
  9
$DIMTIX
 70
     0
  9
$DIMSOXD
 70
     0
  9
$DIMSAH
 70
     0
  9
$DIMBLK1
  1

  9
$DIMBLK2
  1

  9
$DIMSTYLE
  2
ISO-25
  9
$DIMCLRD
 70
     0
  9
$DIMCLRE
 70
     0
  9
$DIMCLRT
 70
     0
  9
$DIMTFAC
 40
1.0
  9
$DIMGAP
 40
6.25
  9
$DIMJUST
 70
     0
  9
$DIMSD1
 70
     0
  9
$DIMSD2
 70
     0
  9
$DIMTOLJ
 70
     0
  9
$DIMTZIN
 70
     8
  9
$DIMALTZ
 70
     0
  9
$DIMALTTZ
 70
     0
  9
$DIMUPT
 70
     0
  9
$DIMDEC
 70
     2
  9
$DIMTDEC
 70
     2
  9
$DIMALTU
 70
     2
  9
$DIMALTTD
 70
     3
  9
$DIMTXSTY
  7
Standard
  9
$DIMAUNIT
 70
     0
  9
$DIMADEC
 70
     0
  9
$DIMALTRND
 40
0.0
  9
$DIMAZIN
 70
     0
  9
$DIMDSEP
 70
    46
  9
$DIMATFIT
 70
     3
  9
$DIMFRAC
 70
     0
  9
$DIMLDRBLK
  1
Open30
  9
$DIMLUNIT
 70
     2
  9
$DIMLWD
 70
    18
  9
$DIMLWE
 70
    18
  9
$DIMTMOVE
 70
     2
  9
$LUNITS
 70
     2
  9
$LUPREC
 70
     2
  9
$SKETCHINC
 40
1.0
  9
$FILLETRAD
 40
5.0
  9
$AUNITS
 70
     0
  9
$AUPREC
 70
     0
  9
$MENU
  1
.
  9
$ELEVATION
 40
0.0
  9
$PELEVATION
 40
0.0
  9
$THICKNESS
 40
0.0
  9
$LIMCHECK
 70
     1
  9
$CHAMFERA
 40
10.0
  9
$CHAMFERB
 40
10.0
  9
$CHAMFERC
 40
20.0
  9
$CHAMFERD
 40
0.0
  9
$SKPOLY
 70
     0
  9
$TDCREATE
 40
2451673.575802199
  9
$TDUCREATE
 40
2451673.200802199
  9
$TDUPDATE
 40
2458813.755955336
  9
$TDUUPDATE
 40
2458813.380955336
  9
$TDINDWG
 40
1.2201275463
  9
$TDUSRTIMER
 40
1.2201268519
  9
$USRTIMER
 70
     1
  9
$ANGBASE
 50
0.0
  9
$ANGDIR
 70
     0
  9
$PDMODE
 70
     3
  9
$PDSIZE
 40
0.0
  9
$PLINEWID
 40
0.0
  9
$SPLFRAME
 70
     0
  9
$SPLINETYPE
 70
     6
  9
$SPLINESEGS
 70
     8
  9
$HANDSEED
  5
21E6
  9
$SURFTAB1
 70
     6
  9
$SURFTAB2
 70
     6
  9
$SURFTYPE
 70
     6
  9
$SURFU
 70
     6
  9
$SURFV
 70
     6
  9
$UCSBASE
  2

  9
$UCSNAME
  2

  9
$UCSORG
 10
0.0
 20
0.0
 30
0.0
  9
$UCSXDIR
 10
1.0
 20
0.0
 30
0.0
  9
$UCSYDIR
 10
0.0
 20
1.0
 30
0.0
  9
$UCSORTHOREF
  2

  9
$UCSORTHOVIEW
 70
     0
  9
$UCSORGTOP
 10
0.0
 20
0.0
 30
0.0
  9
$UCSORGBOTTOM
 10
0.0
 20
0.0
 30
0.0
  9
$UCSORGLEFT
 10
0.0
 20
0.0
 30
0.0
  9
$UCSORGRIGHT
 10
0.0
 20
0.0
 30
0.0
  9
$UCSORGFRONT
 10
0.0
 20
0.0
 30
0.0
  9
$UCSORGBACK
 10
0.0
 20
0.0
 30
0.0
  9
$PUCSBASE
  2

  9
$PUCSNAME
  2

  9
$PUCSORG
 10
0.0
 20
0.0
 30
0.0
  9
$PUCSXDIR
 10
1.0
 20
0.0
 30
0.0
  9
$PUCSYDIR
 10
0.0
 20
1.0
 30
0.0
  9
$PUCSORTHOREF
  2

  9
$PUCSORTHOVIEW
 70
     0
  9
$PUCSORGTOP
 10
0.0
 20
0.0
 30
0.0
  9
$PUCSORGBOTTOM
 10
0.0
 20
0.0
 30
0.0
  9
$PUCSORGLEFT
 10
0.0
 20
0.0
 30
0.0
  9
$PUCSORGRIGHT
 10
0.0
 20
0.0
 30
0.0
  9
$PUCSORGFRONT
 10
0.0
 20
0.0
 30
0.0
  9
$PUCSORGBACK
 10
0.0
 20
0.0
 30
0.0
  9
$USERI1
 70
     0
  9
$USERI2
 70
     0
  9
$USERI3
 70
     0
  9
$USERI4
 70
     0
  9
$USERI5
 70
     0
  9
$USERR1
 40
0.0
  9
$USERR2
 40
0.0
  9
$USERR3
 40
0.0
  9
$USERR4
 40
0.0
  9
$USERR5
 40
0.0
  9
$WORLDVIEW
 70
     1
  9
$SHADEDGE
 70
     3
  9
$SHADEDIF
 70
    70
  9
$TILEMODE
 70
     1
  9
$MAXACTVP
 70
    64
  9
$PINSBASE
 10
0.0
 20
0.0
 30
0.0
  9
$PLIMCHECK
 70
     0
  9
$PEXTMIN
 10
27.8447512626648
 20
20.24591643810271
 30
0.0
  9
$PEXTMAX
 10
250.6027613639831
 20
182.2132479429245
 30
0.0
  9
$PLIMMIN
 10
-3.757080078125
 20
-3.757083177566528
  9
$PLIMMAX
 10
293.2112426757813
 20
206.2162444591522
  9
$UNITMODE
 70
     0
  9
$VISRETAIN
 70
     1
  9
$PLINEGEN
 70
     0
  9
$PSLTSCALE
 70
     1
  9
$TREEDEPTH
 70
  3020
  9
$CMLSTYLE
  2
Standard
  9
$CMLJUST
 70
     0
  9
$CMLSCALE
 40
20.0
  9
$PROXYGRAPHICS
 70
     1
  9
$MEASUREMENT
 70
     1
  9
$CELWEIGHT
370
    -1
  9
$ENDCAPS
280
     0
  9
$JOINSTYLE
280
     0
  9
$LWDISPLAY
290
     0
  9
$INSUNITS
 70
     4
  9
$HYPERLINKBASE
  1

  9
$STYLESHEET
  1

  9
$XEDIT
290
     1
  9
$CEPSNTYPE
380
     0
  9
$PSTYLEMODE
290
     1
  9
$FINGERPRINTGUID
  2
{C8EA1F16-24C9-11D4-9416-CE0A3B32152F}
  9
$VERSIONGUID
  2
{A82BF004-3CDD-431C-AA7E-2D4C2DEA40CF}
  9
$EXTNAMES
290
     1
  9
$PSVPSCALE
 40
0.0
  9
$OLESTARTUP
290
     0
  0
ENDSEC
  0
SECTION
  2
CLASSES
  0
CLASS
  1
ACDBDICTIONARYWDFLT
  2
AcDbDictionaryWithDefault
  3
ObjectDBX Classes
 90
        0
280
     0
281
     0
  0
CLASS
  1
ACDBPLACEHOLDER
  2
AcDbPlaceHolder
  3
ObjectDBX Classes
 90
        0
280
     0
281
     0
  0
CLASS
  1
LAYOUT
  2
AcDbLayout
  3
ObjectDBX Classes
 90
        0
280
     0
281
     0
  0
CLASS
  1
TABLESTYLE
  2
AcDbTableStyle
  3
ObjectDBX Classes
 90
     2047
280
     0
281
     0
  0
CLASS
  1
DICTIONARYVAR
  2
AcDbDictionaryVar
  3
ObjectDBX Classes
 90
        0
280
     0
281
     0
  0
CLASS
  1
SORTENTSTABLE
  2
AcDbSortentsTable
  3
ObjectDBX Classes
 90
        0
280
     0
281
     0
  0
ENDSEC
  0
SECTION
  2
TABLES
  0
TABLE
  2
VPORT
  5
8
330
0
100
AcDbSymbolTable
 70
     2
  0
VPORT
  5
21DA
330
8
100
AcDbSymbolTableRecord
100
AcDbViewportTableRecord
  2
*Active
 70
     0
 10
0.0
 20
0.0
 11
1.0
 21
1.0
 12
1418.775780748169
 22
1057.291775385519
 13
0.0
 23
0.0
 14
10.0
 24
10.0
 15
10.0
 25
10.0
 16
0.0
 26
0.0
 36
1.0
 17
0.0
 27
0.0
 37
0.0
 40
2307.74470801143
 41
1.29038112522686
 42
50.0
 43
0.0
 44
0.0
 50
0.0
 51
0.0
 71
     0
 72
   100
 73
     1
 74
     3
 75
     0
 76
     0
 77
     0
 78
     0
281
     0
 65
     1
110
0.0
120
0.0
130
0.0
111
1.0
121
0.0
131
0.0
112
0.0
122
1.0
132
0.0
 79
     0
146
0.0
  0
ENDTAB
  0
TABLE
  2
LTYPE
  5
5
330
0
100
AcDbSymbolTable
 70
    46
  0
LTYPE
  5
14
330
5
100
AcDbSymbolTableRecord
100
AcDbLinetypeTableRecord
  2
ByBlock
 70
     0
  3

 72
    65
 73
     0
 40
0.0
  0
LTYPE
  5
15
330
5
100
AcDbSymbolTableRecord
100
AcDbLinetypeTableRecord
  2
ByLayer
 70
     0
  3

 72
    65
 73
     0
 40
0.0
  0
LTYPE
  5
16
330
5
100
AcDbSymbolTableRecord
100
AcDbLinetypeTableRecord
  2
Continuous
 70
     0
  3
Solid line
 72
    65
 73
     0
 40
0.0
  0
LTYPE
  5
34
330
5
100
AcDbSymbolTableRecord
100
AcDbLinetypeTableRecord
  2
ACAD_ISO02W100
 70
     0
  3
ISO dash __ __ __ __ __ __ __ __ __ __ __ __ __
 72
    65
 73
     2
 40
15.0
 49
12.0
 74
     0
 49
-3.0
 74
     0
  0
LTYPE
  5
35
330
5
100
AcDbSymbolTableRecord
100
AcDbLinetypeTableRecord
  2
ACAD_ISO03W100
 70
     0
  3
ISO dash space __    __    __    __    __    __
 72
    65
 73
     2
 40
30.0
 49
12.0
 74
     0
 49
-18.0
 74
     0
  0
LTYPE
  5
36
330
5
100
AcDbSymbolTableRecord
100
AcDbLinetypeTableRecord
  2
ACAD_ISO04W100
 70
     0
  3
ISO long-dash dot ____ . ____ . ____ . ____ . _
 72
    65
 73
     4
 40
30.0
 49
24.0
 74
     0
 49
-3.0
 74
     0
 49
0.0
 74
     0
 49
-3.0
 74
     0
  0
LTYPE
  5
37
330
5
100
AcDbSymbolTableRecord
100
AcDbLinetypeTableRecord
  2
ACAD_ISO05W100
 70
     0
  3
ISO long-dash double-dot ____ .. ____ .. ____ .
 72
    65
 73
     6
 40
34.0
 49
24.0
 74
     0
 49
-3.0
 74
     0
 49
0.5
 74
     0
 49
-3.0
 74
     0
 49
0.5
 74
     0
 49
-3.0
 74
     0
  0
LTYPE
  5
38
330
5
100
AcDbSymbolTableRecord
100
AcDbLinetypeTableRecord
  2
ACAD_ISO06W100
 70
     0
  3
ISO long-dash triple-dot ____ ... ____ ... ____
 72
    65
 73
     8
 40
37.5
 49
24.0
 74
     0
 49
-3.0
 74
     0
 49
0.5
 74
     0
 49
-3.0
 74
     0
 49
0.5
 74
     0
 49
-3.0
 74
     0
 49
0.5
 74
     0
 49
-3.0
 74
     0
  0
LTYPE
  5
39
330
5
100
AcDbSymbolTableRecord
100
AcDbLinetypeTableRecord
  2
ACAD_ISO07W100
 70
     0
  3
ISO dot . . . . . . . . . . . . . . . . . . . .
 72
    65
 73
     2
 40
3.0
 49
0.0
 74
     0
 49
-3.0
 74
     0
  0
LTYPE
  5
3A
330
5
100
AcDbSymbolTableRecord
100
AcDbLinetypeTableRecord
  2
ACAD_ISO08W100
 70
     0
  3
ISO long-dash short-dash ____ __ ____ __ ____ _
 72
    65
 73
     4
 40
36.0
 49
24.0
 74
     0
 49
-3.0
 74
     0
 49
6.0
 74
     0
 49
-3.0
 74
     0
  0
LTYPE
  5
3B
330
5
100
AcDbSymbolTableRecord
100
AcDbLinetypeTableRecord
  2
ACAD_ISO09W100
 70
     0
  3
ISO long-dash double-short-dash ____ __ __ ____
 72
    65
 73
     6
 40
45.0
 49
24.0
 74
     0
 49
-3.0
 74
     0
 49
6.0
 74
     0
 49
-3.0
 74
     0
 49
6.0
 74
     0
 49
-3.0
 74
     0
  0
LTYPE
  5
3C
330
5
100
AcDbSymbolTableRecord
100
AcDbLinetypeTableRecord
  2
ACAD_ISO10W100
 70
     0
  3
ISO dash dot __ . __ . __ . __ . __ . __ . __ .
 72
    65
 73
     4
 40
18.0
 49
12.0
 74
     0
 49
-3.0
 74
     0
 49
0.0
 74
     0
 49
-3.0
 74
     0
  0
LTYPE
  5
3D
330
5
100
AcDbSymbolTableRecord
100
AcDbLinetypeTableRecord
  2
ACAD_ISO11W100
 70
     0
  3
ISO double-dash dot __ __ . __ __ . __ __ . __ 
 72
    65
 73
     6
 40
33.0
 49
12.0
 74
     0
 49
-3.0
 74
     0
 49
12.0
 74
     0
 49
-3.0
 74
     0
 49
0.0
 74
     0
 49
-3.0
 74
     0
  0
LTYPE
  5
3E
330
5
100
AcDbSymbolTableRecord
100
AcDbLinetypeTableRecord
  2
ACAD_ISO12W100
 70
     0
  3
ISO dash double-dot __ . . __ . . __ . . __ . .
 72
    65
 73
     6
 40
21.0
 49
12.0
 74
     0
 49
-3.0
 74
     0
 49
0.0
 74
     0
 49
-3.0
 74
     0
 49
0.0
 74
     0
 49
-3.0
 74
     0
  0
LTYPE
  5
3F
330
5
100
AcDbSymbolTableRecord
100
AcDbLinetypeTableRecord
  2
ACAD_ISO13W100
 70
     0
  3
ISO double-dash double-dot __ __ . . __ __ . . 
 72
    65
 73
     8
 40
36.0
 49
12.0
 74
     0
 49
-3.0
 74
     0
 49
12.0
 74
     0
 49
-3.0
 74
     0
 49
0.0
 74
     0
 49
-3.0
 74
     0
 49
0.0
 74
     0
 49
-3.0
 74
     0
  0
LTYPE
  5
40
330
5
100
AcDbSymbolTableRecord
100
AcDbLinetypeTableRecord
  2
ACAD_ISO14W100
 70
     0
  3
ISO dash triple-dot __ . . . __ . . . __ . . . 
 72
    65
 73
     8
 40
24.0
 49
12.0
 74
     0
 49
-3.0
 74
     0
 49
0.0
 74
     0
 49
-3.0
 74
     0
 49
0.0
 74
     0
 49
-3.0
 74
     0
 49
0.0
 74
     0
 49
-3.0
 74
     0
  0
LTYPE
  5
41
330
5
100
AcDbSymbolTableRecord
100
AcDbLinetypeTableRecord
  2
ACAD_ISO15W100
 70
     0
  3
ISO double-dash triple-dot __ __ . . . __ __ . 
 72
    65
 73
    10
 40
39.0
 49
12.0
 74
     0
 49
-3.0
 74
     0
 49
12.0
 74
     0
 49
-3.0
 74
     0
 49
0.0
 74
     0
 49
-3.0
 74
     0
 49
0.0
 74
     0
 49
-3.0
 74
     0
 49
0.0
 74
     0
 49
-3.0
 74
     0
  0
LTYPE
  5
42
330
5
100
AcDbSymbolTableRecord
100
AcDbLinetypeTableRecord
  2
BATTING
 70
     0
  3
Batting SSSSSSSSSSSSSSSSSSSSSSSSSSSSSSSSSSSSSSS
 72
    65
 73
     4
 40
10.16254
 49
0.00254
 74
     0
 49
-2.54
 74
     4
 75
   134
340
33
 46
2.54
 50
0.0
 44
-2.54
 45
0.0
 49
-5.08
 74
     4
 75
   134
340
33
 46
2.54
 50
180.0
 44
2.54
 45
0.0
 49
-2.54
 74
     0
  0
LTYPE
  5
43
330
5
100
AcDbSymbolTableRecord
100
AcDbLinetypeTableRecord
  2
BORDER
 70
     0
  3
Border __ __ . __ __ . __ __ . __ __ . __ __ .
 72
    65
 73
     6
 40
44.45
 49
12.7
 74
     0
 49
-6.349999999999999
 74
     0
 49
12.7
 74
     0
 49
-6.349999999999999
 74
     0
 49
0.0
 74
     0
 49
-6.349999999999999
 74
     0
  0
LTYPE
  5
44
330
5
100
AcDbSymbolTableRecord
100
AcDbLinetypeTableRecord
  2
BORDER2
 70
     0
  3
Border (.5x) __.__.__.__.__.__.__.__.__.__.__.
 72
    65
 73
     6
 40
22.225
 49
6.349999999999999
 74
     0
 49
-3.174999999999999
 74
     0
 49
6.349999999999999
 74
     0
 49
-3.174999999999999
 74
     0
 49
0.0
 74
     0
 49
-3.174999999999999
 74
     0
  0
LTYPE
  5
45
330
5
100
AcDbSymbolTableRecord
100
AcDbLinetypeTableRecord
  2
BORDERX2
 70
     0
  3
Border (2x) ____  ____  .  ____  ____  .  ___
 72
    65
 73
     6
 40
88.9
 49
25.4
 74
     0
 49
-12.7
 74
     0
 49
25.4
 74
     0
 49
-12.7
 74
     0
 49
0.0
 74
     0
 49
-12.7
 74
     0
  0
LTYPE
  5
46
330
5
100
AcDbSymbolTableRecord
100
AcDbLinetypeTableRecord
  2
CENTER
 70
     0
  3
Center ____ _ ____ _ ____ _ ____ _ ____ _ ____
 72
    65
 73
     4
 40
50.8
 49
31.75
 74
     0
 49
-6.349999999999999
 74
     0
 49
6.349999999999999
 74
     0
 49
-6.349999999999999
 74
     0
  0
LTYPE
  5
47
330
5
100
AcDbSymbolTableRecord
100
AcDbLinetypeTableRecord
  2
CENTER2
 70
     0
  3
Center (.5x) ___ _ ___ _ ___ _ ___ _ ___ _ ___
 72
    65
 73
     4
 40
28.575
 49
19.05
 74
     0
 49
-3.174999999999999
 74
     0
 49
3.174999999999999
 74
     0
 49
-3.174999999999999
 74
     0
  0
LTYPE
  5
48
330
5
100
AcDbSymbolTableRecord
100
AcDbLinetypeTableRecord
  2
CENTERX2
 70
     0
  3
Center (2x) ________  __  ________  __  _____
 72
    65
 73
     4
 40
101.6
 49
63.5
 74
     0
 49
-12.7
 74
     0
 49
12.7
 74
     0
 49
-12.7
 74
     0
  0
LTYPE
  5
49
330
5
100
AcDbSymbolTableRecord
100
AcDbLinetypeTableRecord
  2
DASHDOT
 70
     0
  3
Dash dot __ . __ . __ . __ . __ . __ . __ . __
 72
    65
 73
     4
 40
25.4
 49
12.7
 74
     0
 49
-6.349999999999999
 74
     0
 49
0.0
 74
     0
 49
-6.349999999999999
 74
     0
  0
LTYPE
  5
4A
330
5
100
AcDbSymbolTableRecord
100
AcDbLinetypeTableRecord
  2
DASHDOT2
 70
     0
  3
Dash dot (.5x) _._._._._._._._._._._._._._._.
 72
    65
 73
     4
 40
12.7
 49
6.349999999999999
 74
     0
 49
-3.174999999999999
 74
     0
 49
0.0
 74
     0
 49
-3.174999999999999
 74
     0
  0
LTYPE
  5
4B
330
5
100
AcDbSymbolTableRecord
100
AcDbLinetypeTableRecord
  2
DASHDOTX2
 70
     0
  3
Dash dot (2x) ____  .  ____  .  ____  .  ___
 72
    65
 73
     4
 40
50.8
 49
25.4
 74
     0
 49
-12.7
 74
     0
 49
0.0
 74
     0
 49
-12.7
 74
     0
  0
LTYPE
  5
4C
330
5
100
AcDbSymbolTableRecord
100
AcDbLinetypeTableRecord
  2
DASHED
 70
     0
  3
Dashed __ __ __ __ __ __ __ __ __ __ __ __ __ _
 72
    65
 73
     2
 40
19.05
 49
12.7
 74
     0
 49
-6.349999999999999
 74
     0
  0
LTYPE
  5
4D
330
5
100
AcDbSymbolTableRecord
100
AcDbLinetypeTableRecord
  2
DASHED2
 70
     0
  3
Dashed (.5x) _ _ _ _ _ _ _ _ _ _ _ _ _ _ _ _ _
 72
    65
 73
     2
 40
9.524999999999998
 49
6.349999999999999
 74
     0
 49
-3.174999999999999
 74
     0
  0
LTYPE
  5
4E
330
5
100
AcDbSymbolTableRecord
100
AcDbLinetypeTableRecord
  2
DASHEDX2
 70
     0
  3
Dashed (2x) ____  ____  ____  ____  ____  ___
 72
    65
 73
     2
 40
38.1
 49
25.4
 74
     0
 49
-12.7
 74
     0
  0
LTYPE
  5
4F
330
5
100
AcDbSymbolTableRecord
100
AcDbLinetypeTableRecord
  2
DIVIDE
 70
     0
  3
Divide ____ . . ____ . . ____ . . ____ . . ____
 72
    65
 73
     6
 40
31.75
 49
12.7
 74
     0
 49
-6.349999999999999
 74
     0
 49
0.0
 74
     0
 49
-6.349999999999999
 74
     0
 49
0.0
 74
     0
 49
-6.349999999999999
 74
     0
  0
LTYPE
  5
50
330
5
100
AcDbSymbolTableRecord
100
AcDbLinetypeTableRecord
  2
DIVIDE2
 70
     0
  3
Divide (.5x) __..__..__..__..__..__..__..__.._
 72
    65
 73
     6
 40
15.875
 49
6.349999999999999
 74
     0
 49
-3.174999999999999
 74
     0
 49
0.0
 74
     0
 49
-3.174999999999999
 74
     0
 49
0.0
 74
     0
 49
-3.174999999999999
 74
     0
  0
LTYPE
  5
51
330
5
100
AcDbSymbolTableRecord
100
AcDbLinetypeTableRecord
  2
DIVIDEX2
 70
     0
  3
Divide (2x) ________  .  .  ________  .  .  _
 72
    65
 73
     6
 40
63.49999999999999
 49
25.4
 74
     0
 49
-12.7
 74
     0
 49
0.0
 74
     0
 49
-12.7
 74
     0
 49
0.0
 74
     0
 49
-12.7
 74
     0
  0
LTYPE
  5
52
330
5
100
AcDbSymbolTableRecord
100
AcDbLinetypeTableRecord
  2
DOT
 70
     0
  3
Dot . . . . . . . . . . . . . . . . . . . . . .
 72
    65
 73
     2
 40
6.349999999999999
 49
0.0
 74
     0
 49
-6.349999999999999
 74
     0
  0
LTYPE
  5
53
330
5
100
AcDbSymbolTableRecord
100
AcDbLinetypeTableRecord
  2
DOT2
 70
     0
  3
Dot (.5x) .....................................
 72
    65
 73
     2
 40
3.174999999999999
 49
0.0
 74
     0
 49
-3.174999999999999
 74
     0
  0
LTYPE
  5
54
330
5
100
AcDbSymbolTableRecord
100
AcDbLinetypeTableRecord
  2
DOTX2
 70
     0
  3
Dot (2x) .  .  .  .  .  .  .  .  .  .  .  .  . 
 72
    65
 73
     2
 40
12.7
 49
0.0
 74
     0
 49
-12.7
 74
     0
  0
LTYPE
  5
55
330
5
100
AcDbSymbolTableRecord
100
AcDbLinetypeTableRecord
  2
FENCELINE1
 70
     0
  3
Fenceline circle ----0-----0----0-----0----0---
 72
    65
 73
     4
 40
36.83
 49
6.349999999999999
 74
     0
 49
-2.54
 74
     4
 75
   133
340
33
 46
2.54
 50
0.0
 44
-2.54
 45
0.0
 49
-2.54
 74
     0
 49
25.4
 74
     0
  0
LTYPE
  5
56
330
5
100
AcDbSymbolTableRecord
100
AcDbLinetypeTableRecord
  2
FENCELINE2
 70
     0
  3
Fenceline square ----[]-----[]----[]-----[]----
 72
    65
 73
     4
 40
36.83
 49
6.349999999999999
 74
     0
 49
-2.54
 74
     4
 75
   132
340
33
 46
2.54
 50
0.0
 44
-2.54
 45
0.0
 49
-2.54
 74
     0
 49
25.4
 74
     0
  0
LTYPE
  5
57
330
5
100
AcDbSymbolTableRecord
100
AcDbLinetypeTableRecord
  2
GAS_LINE
 70
     0
  3
Gas line ----GAS----GAS----GAS----GAS----GAS---
 72
    65
 73
     3
 40
24.13
 49
12.7
 74
     0
 49
-5.08
 74
     2
 75
     0
340
11
 46
2.54
 50
0.0
 44
-2.54
 45
-1.27
  9
GAS
 49
-6.349999999999999
 74
     0
  0
LTYPE
  5
58
330
5
100
AcDbSymbolTableRecord
100
AcDbLinetypeTableRecord
  2
HIDDEN
 70
     0
  3
Hidden __ __ __ __ __ __ __ __ __ __ __ __ __ _
 72
    65
 73
     2
 40
9.524999999999998
 49
6.349999999999999
 74
     0
 49
-3.174999999999999
 74
     0
  0
LTYPE
  5
59
330
5
100
AcDbSymbolTableRecord
100
AcDbLinetypeTableRecord
  2
HIDDEN2
 70
     0
  3
Hidden (.5x) _ _ _ _ _ _ _ _ _ _ _ _ _ _ _ _ _
 72
    65
 73
     2
 40
4.762499999999999
 49
3.174999999999999
 74
     0
 49
-1.587499999999999
 74
     0
  0
LTYPE
  5
5A
330
5
100
AcDbSymbolTableRecord
100
AcDbLinetypeTableRecord
  2
HIDDENX2
 70
     0
  3
Hidden (2x) ____ ____ ____ ____ ____ ____ ____
 72
    65
 73
     2
 40
19.05
 49
12.7
 74
     0
 49
-6.349999999999999
 74
     0
  0
LTYPE
  5
5B
330
5
100
AcDbSymbolTableRecord
100
AcDbLinetypeTableRecord
  2
HOT_WATER_SUPPLY
 70
     0
  3
Hot water supply ---- HW ---- HW ---- HW ----
 72
    65
 73
     3
 40
22.86
 49
12.7
 74
     0
 49
-5.08
 74
     2
 75
     0
340
11
 46
2.54
 50
0.0
 44
-2.54
 45
-1.27
  9
HW
 49
-5.08
 74
     0
  0
LTYPE
  5
5C
330
5
100
AcDbSymbolTableRecord
100
AcDbLinetypeTableRecord
  2
PHANTOM
 70
     0
  3
Phantom ______  __  __  ______  __  __  ______
 72
    65
 73
     6
 40
63.5
 49
31.75
 74
     0
 49
-6.349999999999999
 74
     0
 49
6.349999999999999
 74
     0
 49
-6.349999999999999
 74
     0
 49
6.349999999999999
 74
     0
 49
-6.349999999999999
 74
     0
  0
LTYPE
  5
5D
330
5
100
AcDbSymbolTableRecord
100
AcDbLinetypeTableRecord
  2
PHANTOM2
 70
     0
  3
Phantom (.5x) ___ _ _ ___ _ _ ___ _ _ ___ _ _
 72
    65
 73
     6
 40
31.75
 49
15.875
 74
     0
 49
-3.174999999999999
 74
     0
 49
3.174999999999999
 74
     0
 49
-3.174999999999999
 74
     0
 49
3.174999999999999
 74
     0
 49
-3.174999999999999
 74
     0
  0
LTYPE
  5
5E
330
5
100
AcDbSymbolTableRecord
100
AcDbLinetypeTableRecord
  2
PHANTOMX2
 70
     0
  3
Phantom (2x) ____________    ____    ____   _
 72
    65
 73
     6
 40
127.0
 49
63.5
 74
     0
 49
-12.7
 74
     0
 49
12.7
 74
     0
 49
-12.7
 74
     0
 49
12.7
 74
     0
 49
-12.7
 74
     0
  0
LTYPE
  5
5F
330
5
100
AcDbSymbolTableRecord
100
AcDbLinetypeTableRecord
  2
TRACKS
 70
     0
  3
Tracks -|-|-|-|-|-|-|-|-|-|-|-|-|-|-|-|-|-|-|-|
 72
    65
 73
     2
 40
7.62
 49
3.81
 74
     4
 75
   130
340
33
 46
6.349999999999999
 50
0.0
 44
0.0
 45
0.0
 49
3.81
 74
     0
  0
LTYPE
  5
60
330
5
100
AcDbSymbolTableRecord
100
AcDbLinetypeTableRecord
  2
ZIGZAG
 70
     0
  3
Zig zag /\/\/\/\/\/\/\/\/\/\/\/\/\/\/\/\/\/\/\/
 72
    65
 73
     4
 40
20.32254
 49
0.00254
 74
     0
 49
-5.08
 74
     4
 75
   131
340
33
 46
5.08
 50
0.0
 44
-5.08
 45
0.0
 49
-10.16
 74
     4
 75
   131
340
33
 46
5.08
 50
180.0
 44
5.08
 45
0.0
 49
-5.08
 74
     0
  0
ENDTAB
  0
TABLE
  2
LAYER
  5
2
102
{ACAD_XDICTIONARY
360
172B
102
}
330
0
100
AcDbSymbolTable
 70
     9
  0
LAYER
  5
10
330
2
100
AcDbSymbolTableRecord
100
AcDbLayerTableRecord
  2
0
 70
     0
 62
     7
  6
Continuous
370
    -3
390
F
  0
LAYER
  5
C3
330
2
100
AcDbSymbolTableRecord
100
AcDbLayerTableRecord
  2
Defpoints
 70
     0
 62
     7
  6
Continuous
290
     0
370
    -3
390
F
  0
LAYER
  5
256
330
2
100
AcDbSymbolTableRecord
100
AcDbLayerTableRecord
  2
センター
 70
     0
 62
     7
  6
CENTER2
370
    18
390
F
  0
LAYER
  5
268
330
2
100
AcDbSymbolTableRecord
100
AcDbLayerTableRecord
  2
実形
 70
     0
 62
     7
  6
Continuous
370
    -3
390
F
  0
LAYER
  5
269
330
2
100
AcDbSymbolTableRecord
100
AcDbLayerTableRecord
  2
補助
 70
     0
 62
     7
  6
Continuous
370
    -3
390
F
  0
LAYER
  5
26A
330
2
100
AcDbSymbolTableRecord
100
AcDbLayerTableRecord
  2
寸法
 70
     0
 62
     7
  6
Continuous
370
    18
390
F
  0
LAYER
  5
26B
330
2
100
AcDbSymbolTableRecord
100
AcDbLayerTableRecord
  2
ハッチング
 70
     0
 62
     7
  6
Continuous
370
    18
390
F
  0
LAYER
  5
26D
330
2
100
AcDbSymbolTableRecord
100
AcDbLayerTableRecord
  2
文字
 70
     0
 62
     7
  6
Continuous
370
    -3
390
F
  0
LAYER
  5
FE8
330
2
100
AcDbSymbolTableRecord
100
AcDbLayerTableRecord
  2
Cen
 70
     0
 62
     7
  6
CENTER2
370
    15
390
F
  0
ENDTAB
  0
TABLE
  2
STYLE
  5
3
330
0
100
AcDbSymbolTable
 70
     4
  0
STYLE
  5
11
330
3
100
AcDbSymbolTableRecord
100
AcDbTextStyleTableRecord
  2
Standard
 70
     0
 40
0.0
 41
1.0
 50
0.0
 71
     0
 42
25.0
  3
txt.shx
  4
bigfont.shx
  0
STYLE
  5
33
330
3
100
AcDbSymbolTableRecord
100
AcDbTextStyleTableRecord
  2

 70
     1
 40
0.0
 41
1.0
 50
0.0
 71
     0
 42
2.5
  3
ltypeshp.shx
  4

  0
STYLE
  5
191A
330
3
100
AcDbSymbolTableRecord
100
AcDbTextStyleTableRecord
  2
MS明朝
 70
     0
 40
0.0
 41
1.0
 50
0.0
 71
     0
 42
35.0
  3
MS Mincho.ttf
  4

1001
ACAD
1000
MS Mincho
1071
    32785
  0
STYLE
  5
213D
330
3
100
AcDbSymbolTableRecord
100
AcDbTextStyleTableRecord
  2
明朝
 70
     0
 40
0.0
 41
1.0
 50
0.0
 71
     0
 42
25.0
  3
MS Mincho.ttf
  4

1001
ACAD
1000
MS Mincho
1071
    32785
  0
ENDTAB
  0
TABLE
  2
VIEW
  5
6
330
0
100
AcDbSymbolTable
 70
     0
  0
ENDTAB
  0
TABLE
  2
UCS
  5
7
330
0
100
AcDbSymbolTable
 70
     0
  0
ENDTAB
  0
TABLE
  2
APPID
  5
9
330
0
100
AcDbSymbolTable
 70
     3
  0
APPID
  5
12
330
9
100
AcDbSymbolTableRecord
100
AcDbRegAppTableRecord
  2
ACAD
 70
     0
  0
APPID
  5
1894
330
9
100
AcDbSymbolTableRecord
100
AcDbRegAppTableRecord
  2
ACAD_PSEXT
 70
     0
  0
APPID
  5
1A74
330
9
100
AcDbSymbolTableRecord
100
AcDbRegAppTableRecord
  2
ACAD_DSTYLE_DIMTEXT_FILL
 70
     0
  0
ENDTAB
  0
TABLE
  2
DIMSTYLE
  5
A
330
0
100
AcDbSymbolTable
 70
     1
100
AcDbDimStyleTable
 71
     1
340
27
  0
DIMSTYLE
105
27
102
{ACAD_REACTORS
330
368
330
44B
330
458
330
4A3
330
35B
330
3CE
330
43D
330
3E9
330
3DC
330
3F6
330
4F8
330
505
330
104A
330
1058
330
1065
330
19FF
330
1A00
330
1A01
330
1AAD
330
1ACC
330
1AEB
330
1BA1
330
1BA2
330
1BA3
330
1BA4
330
1BA5
330
1CD3
330
1CD4
330
1D8F
330
1D90
330
1D91
330
1D92
330
1F6F
330
1F79
330
1F7C
330
1F7D
330
1F80
330
1F81
330
1F82
330
1F83
330
1F85
330
1F86
330
1F87
330
1F88
330
1F89
330
1F8A
330
1F90
330
1F91
330
1F92
330
1F9A
330
1F9B
330
1F9C
102
}
330
A
100
AcDbSymbolTableRecord
100
AcDbDimStyleTableRecord
  2
ISO-25
 70
     0
 41
35.0
 42
65.0
 43
3.75
 44
0.0
 73
     0
 74
     0
 77
     1
 78
     8
140
25.0
141
2.5
143
0.03937007874016
147
6.25
171
     3
172
     1
271
     2
272
     2
274
     3
283
     0
284
     8
340
11
341
DA
342
D0
371
    15
372
    15
  0
ENDTAB
  0
TABLE
  2
BLOCK_RECORD
  5
1
330
0
100
AcDbSymbolTable
 70
    57
  0
BLOCK_RECORD
  5
1F
102
{ACAD_XDICTIONARY
360
18DE
102
}
330
1
100
AcDbSymbolTableRecord
100
AcDbBlockTableRecord
  2
*Model_Space
340
22
  0
BLOCK_RECORD
  5
1B
330
1
100
AcDbSymbolTableRecord
100
AcDbBlockTableRecord
  2
*Paper_Space
340
1E
  0
BLOCK_RECORD
  5
23
330
1
100
AcDbSymbolTableRecord
100
AcDbBlockTableRecord
  2
*Paper_Space0
340
26
  0
BLOCK_RECORD
  5
D0
330
1
100
AcDbSymbolTableRecord
100
AcDbBlockTableRecord
  2
_DotSmall
340
0
102
{BLKREFS
331
1929
331
192A
331
1932
331
1933
331
193B
331
193C
331
1943
331
1944
331
194D
331
194E
331
1955
331
1956
331
195F
331
1960
331
1967
331
1968
331
1970
331
1971
331
1978
331
1979
331
1994
331
1995
331
199C
331
199D
331
19A6
331
19A7
331
1B0E
331
1B0F
331
1B17
331
1B18
331
1B1F
331
1B20
331
1C32
331
1C33
331
1C3A
331
1C3B
331
1C44
331
1C45
331
1C4F
331
1C50
331
1C58
331
1C59
331
1C60
331
1C61
331
1C69
331
1C6A
331
1DF2
331
1DF3
331
1DFE
331
1DFF
331
1E06
331
1E07
331
1E10
331
1E11
331
1E18
331
1E19
331
1E21
331
1E22
331
2094
331
2095
331
209E
331
209F
331
20A6
331
20A7
331
20B0
331
20B1
331
20B8
331
20B9
331
20C1
331
20C2
331
20CA
331
20CB
331
20D4
331
20D5
331
20DC
331
20DD
331
20E5
331
20E6
331
20EE
331
20EF
331
20F7
331
20F8
331
2100
331
2101
331
2109
331
210A
331
2112
331
2113
331
211B
331
211C
331
2124
331
2125
331
212D
331
212E
331
2136
331
2137
102
}
  0
BLOCK_RECORD
  5
D4
330
1
100
AcDbSymbolTableRecord
100
AcDbBlockTableRecord
  2
_Origin2
340
0
  0
BLOCK_RECORD
  5
DA
330
1
100
AcDbSymbolTableRecord
100
AcDbBlockTableRecord
  2
_Open30
340
0
  0
BLOCK_RECORD
  5
35C
330
1
100
AcDbSymbolTableRecord
100
AcDbBlockTableRecord
  2
*D4
340
0
  0
BLOCK_RECORD
  5
369
330
1
100
AcDbSymbolTableRecord
100
AcDbBlockTableRecord
  2
*D5
340
0
  0
BLOCK_RECORD
  5
3CF
330
1
100
AcDbSymbolTableRecord
100
AcDbBlockTableRecord
  2
*D6
340
0
  0
BLOCK_RECORD
  5
3DD
330
1
100
AcDbSymbolTableRecord
100
AcDbBlockTableRecord
  2
*D7
340
0
  0
BLOCK_RECORD
  5
3EA
330
1
100
AcDbSymbolTableRecord
100
AcDbBlockTableRecord
  2
*D8
340
0
  0
BLOCK_RECORD
  5
3F7
330
1
100
AcDbSymbolTableRecord
100
AcDbBlockTableRecord
  2
*D9
340
0
  0
BLOCK_RECORD
  5
43E
330
1
100
AcDbSymbolTableRecord
100
AcDbBlockTableRecord
  2
*D10
340
0
  0
BLOCK_RECORD
  5
44C
330
1
100
AcDbSymbolTableRecord
100
AcDbBlockTableRecord
  2
*D11
340
0
  0
BLOCK_RECORD
  5
459
330
1
100
AcDbSymbolTableRecord
100
AcDbBlockTableRecord
  2
*D12
340
0
  0
BLOCK_RECORD
  5
4A4
330
1
100
AcDbSymbolTableRecord
100
AcDbBlockTableRecord
  2
*D13
340
0
  0
BLOCK_RECORD
  5
4F9
330
1
100
AcDbSymbolTableRecord
100
AcDbBlockTableRecord
  2
*D14
340
0
  0
BLOCK_RECORD
  5
506
330
1
100
AcDbSymbolTableRecord
100
AcDbBlockTableRecord
  2
*D15
340
0
  0
BLOCK_RECORD
  5
104B
330
1
100
AcDbSymbolTableRecord
100
AcDbBlockTableRecord
  2
*D16
340
0
  0
BLOCK_RECORD
  5
1059
330
1
100
AcDbSymbolTableRecord
100
AcDbBlockTableRecord
  2
*D17
340
0
  0
BLOCK_RECORD
  5
1066
330
1
100
AcDbSymbolTableRecord
100
AcDbBlockTableRecord
  2
*D18
340
0
  0
BLOCK_RECORD
  5
1915
330
1
100
AcDbSymbolTableRecord
100
AcDbBlockTableRecord
  2
_Dot
340
0
102
{BLKREFS
331
1A2B
331
1A2C
331
1A35
331
1A36
331
1A3E
331
1A3F
102
}
  0
BLOCK_RECORD
  5
1A04
330
1
100
AcDbSymbolTableRecord
100
AcDbBlockTableRecord
  2
*D20
340
0
  0
BLOCK_RECORD
  5
1A10
330
1
100
AcDbSymbolTableRecord
100
AcDbBlockTableRecord
  2
*D21
340
0
  0
BLOCK_RECORD
  5
1A1C
330
1
100
AcDbSymbolTableRecord
100
AcDbBlockTableRecord
  2
*D22
340
0
  0
BLOCK_RECORD
  5
1AAE
330
1
100
AcDbSymbolTableRecord
100
AcDbBlockTableRecord
  2
*D23
340
0
  0
BLOCK_RECORD
  5
1ACD
330
1
100
AcDbSymbolTableRecord
100
AcDbBlockTableRecord
  2
*D24
340
0
  0
BLOCK_RECORD
  5
1AEC
330
1
100
AcDbSymbolTableRecord
100
AcDbBlockTableRecord
  2
*D25
340
0
  0
BLOCK_RECORD
  5
1BAE
330
1
100
AcDbSymbolTableRecord
100
AcDbBlockTableRecord
  2
*D26
340
0
  0
BLOCK_RECORD
  5
1BBA
330
1
100
AcDbSymbolTableRecord
100
AcDbBlockTableRecord
  2
*D27
340
0
  0
BLOCK_RECORD
  5
1BC8
330
1
100
AcDbSymbolTableRecord
100
AcDbBlockTableRecord
  2
*D28
340
0
  0
BLOCK_RECORD
  5
1BD4
330
1
100
AcDbSymbolTableRecord
100
AcDbBlockTableRecord
  2
*D29
340
0
  0
BLOCK_RECORD
  5
1BE0
330
1
100
AcDbSymbolTableRecord
100
AcDbBlockTableRecord
  2
*D30
340
0
  0
BLOCK_RECORD
  5
1CF2
330
1
100
AcDbSymbolTableRecord
100
AcDbBlockTableRecord
  2
*D31
340
0
  0
BLOCK_RECORD
  5
1CFE
330
1
100
AcDbSymbolTableRecord
100
AcDbBlockTableRecord
  2
*D32
340
0
  0
BLOCK_RECORD
  5
1D97
330
1
100
AcDbSymbolTableRecord
100
AcDbBlockTableRecord
  2
*D33
340
0
  0
BLOCK_RECORD
  5
1DA3
330
1
100
AcDbSymbolTableRecord
100
AcDbBlockTableRecord
  2
*D34
340
0
  0
BLOCK_RECORD
  5
1DAF
330
1
100
AcDbSymbolTableRecord
100
AcDbBlockTableRecord
  2
*D35
340
0
  0
BLOCK_RECORD
  5
1DBD
330
1
100
AcDbSymbolTableRecord
100
AcDbBlockTableRecord
  2
*D36
340
0
  0
BLOCK_RECORD
  5
1F9E
330
1
100
AcDbSymbolTableRecord
100
AcDbBlockTableRecord
  2
*D37
340
0
  0
BLOCK_RECORD
  5
1FA7
330
1
100
AcDbSymbolTableRecord
100
AcDbBlockTableRecord
  2
*D38
340
0
  0
BLOCK_RECORD
  5
1FB3
330
1
100
AcDbSymbolTableRecord
100
AcDbBlockTableRecord
  2
*D39
340
0
  0
BLOCK_RECORD
  5
1FBF
330
1
100
AcDbSymbolTableRecord
100
AcDbBlockTableRecord
  2
*D40
340
0
  0
BLOCK_RECORD
  5
1FCB
330
1
100
AcDbSymbolTableRecord
100
AcDbBlockTableRecord
  2
*D41
340
0
  0
BLOCK_RECORD
  5
1FD7
330
1
100
AcDbSymbolTableRecord
100
AcDbBlockTableRecord
  2
*D42
340
0
  0
BLOCK_RECORD
  5
1FE3
330
1
100
AcDbSymbolTableRecord
100
AcDbBlockTableRecord
  2
*D43
340
0
  0
BLOCK_RECORD
  5
1FEF
330
1
100
AcDbSymbolTableRecord
100
AcDbBlockTableRecord
  2
*D44
340
0
  0
BLOCK_RECORD
  5
1FFB
330
1
100
AcDbSymbolTableRecord
100
AcDbBlockTableRecord
  2
*D45
340
0
  0
BLOCK_RECORD
  5
2007
330
1
100
AcDbSymbolTableRecord
100
AcDbBlockTableRecord
  2
*D46
340
0
  0
BLOCK_RECORD
  5
2013
330
1
100
AcDbSymbolTableRecord
100
AcDbBlockTableRecord
  2
*D47
340
0
  0
BLOCK_RECORD
  5
201F
330
1
100
AcDbSymbolTableRecord
100
AcDbBlockTableRecord
  2
*D48
340
0
  0
BLOCK_RECORD
  5
202B
330
1
100
AcDbSymbolTableRecord
100
AcDbBlockTableRecord
  2
*D49
340
0
  0
BLOCK_RECORD
  5
2037
330
1
100
AcDbSymbolTableRecord
100
AcDbBlockTableRecord
  2
*D50
340
0
  0
BLOCK_RECORD
  5
2043
330
1
100
AcDbSymbolTableRecord
100
AcDbBlockTableRecord
  2
*D51
340
0
  0
BLOCK_RECORD
  5
204F
330
1
100
AcDbSymbolTableRecord
100
AcDbBlockTableRecord
  2
*D52
340
0
  0
BLOCK_RECORD
  5
205B
330
1
100
AcDbSymbolTableRecord
100
AcDbBlockTableRecord
  2
*D53
340
0
  0
BLOCK_RECORD
  5
2067
330
1
100
AcDbSymbolTableRecord
100
AcDbBlockTableRecord
  2
*D54
340
0
  0
BLOCK_RECORD
  5
2073
330
1
100
AcDbSymbolTableRecord
100
AcDbBlockTableRecord
  2
*D55
340
0
  0
BLOCK_RECORD
  5
207F
330
1
100
AcDbSymbolTableRecord
100
AcDbBlockTableRecord
  2
*D56
340
0
  0
ENDTAB
  0
ENDSEC
  0
SECTION
  2
BLOCKS
  0
BLOCK
  5
20
330
1F
100
AcDbEntity
  8
0
100
AcDbBlockBegin
  2
*Model_Space
 70
     0
 10
0.0
 20
0.0
 30
0.0
  3
*Model_Space
  1

  0
ENDBLK
  5
21
330
1F
100
AcDbEntity
  8
0
100
AcDbBlockEnd
  0
BLOCK
  5
1C
330
1B
100
AcDbEntity
 67
     1
  8
0
100
AcDbBlockBegin
  2
*Paper_Space
 70
     0
 10
0.0
 20
0.0
 30
0.0
  3
*Paper_Space
  1

  0
ENDBLK
  5
1D
330
1B
100
AcDbEntity
 67
     1
  8
0
100
AcDbBlockEnd
  0
BLOCK
  5
24
330
23
100
AcDbEntity
  8
0
100
AcDbBlockBegin
  2
*Paper_Space0
 70
     0
 10
0.0
 20
0.0
 30
0.0
  3
*Paper_Space0
  1

  0
ENDBLK
  5
25
330
23
100
AcDbEntity
  8
0
100
AcDbBlockEnd
  0
BLOCK
  5
D2
330
D0
100
AcDbEntity
  8
0
100
AcDbBlockBegin
  2
_DotSmall
 70
     0
 10
0.0
 20
0.0
 30
0.0
  3
_DotSmall
  1

  0
LWPOLYLINE
  5
D1
330
D0
100
AcDbEntity
  8
0
 62
     0
100
AcDbPolyline
 90
        2
 70
     1
 43
0.5
 10
-0.0625
 20
0.0
 42
1.0
 10
0.0625
 20
0.0
 42
1.0
  0
ENDBLK
  5
D3
330
D0
100
AcDbEntity
  8
0
100
AcDbBlockEnd
  0
BLOCK
  5
D8
330
D4
100
AcDbEntity
  8
0
100
AcDbBlockBegin
  2
_Origin2
 70
     0
 10
0.0
 20
0.0
 30
0.0
  3
_Origin2
  1

  0
CIRCLE
  5
D5
330
D4
100
AcDbEntity
  8
0
 62
     0
370
    -2
100
AcDbCircle
 10
0.0
 20
0.0
 30
0.0
 40
0.5
  0
CIRCLE
  5
D6
330
D4
100
AcDbEntity
  8
0
 62
     0
370
    -2
100
AcDbCircle
 10
0.0
 20
0.0
 30
0.0
 40
0.25
  0
LINE
  5
D7
330
D4
100
AcDbEntity
  8
0
 62
     0
370
    -2
100
AcDbLine
 10
-0.5
 20
0.0
 30
0.0
 11
-1.0
 21
0.0
 31
0.0
  0
ENDBLK
  5
D9
330
D4
100
AcDbEntity
  8
0
100
AcDbBlockEnd
  0
BLOCK
  5
DE
330
DA
100
AcDbEntity
  8
0
100
AcDbBlockBegin
  2
_Open30
 70
     0
 10
0.0
 20
0.0
 30
0.0
  3
_Open30
  1

  0
LINE
  5
DB
330
DA
100
AcDbEntity
  8
0
 62
     0
370
    -2
100
AcDbLine
 10
-1.0
 20
0.26794919
 30
0.0
 11
0.0
 21
0.0
 31
0.0
  0
LINE
  5
DC
330
DA
100
AcDbEntity
  8
0
 62
     0
370
    -2
100
AcDbLine
 10
0.0
 20
0.0
 30
0.0
 11
-1.0
 21
-0.26794919
 31
0.0
  0
LINE
  5
DD
330
DA
100
AcDbEntity
  8
0
 62
     0
370
    -2
100
AcDbLine
 10
0.0
 20
0.0
 30
0.0
 11
-1.0
 21
0.0
 31
0.0
  0
ENDBLK
  5
DF
330
DA
100
AcDbEntity
  8
0
100
AcDbBlockEnd
  0
BLOCK
  5
366
330
35C
100
AcDbEntity
  8
0
100
AcDbBlockBegin
  2
*D4
 70
     1
 10
0.0
 20
0.0
 30
0.0
  3
*D4
  1

  0
LINE
  5
1926
330
35C
100
AcDbEntity
  8
実形
 62
     0
370
    15
100
AcDbLine
 10
854.4005519276524
 20
1413.443721274662
 30
0.0
 11
854.4005519276524
 21
1375.800692149654
 31
0.0
  0
LINE
  5
1927
330
35C
100
AcDbEntity
  8
実形
 62
     0
370
    15
100
AcDbLine
 10
529.4005519276525
 20
1365.631023659046
 30
0.0
 11
529.4005519276525
 21
1375.800692149654
 31
0.0
  0
LINE
  5
1928
330
35C
100
AcDbEntity
  8
実形
 62
     0
370
    18
100
AcDbLine
 10
854.4005519276524
 20
1375.800692149654
 30
0.0
 11
529.4005519276525
 21
1375.800692149654
 31
0.0
  0
INSERT
  5
1929
330
35C
100
AcDbEntity
  8
実形
 62
     0
370
    18
100
AcDbBlockReference
  2
_DotSmall
 10
854.4005519276524
 20
1375.800692149654
 30
0.0
 41
35.0
 42
35.0
 43
35.0
  0
INSERT
  5
192A
330
35C
100
AcDbEntity
  8
実形
 62
     0
370
    18
100
AcDbBlockReference
  2
_DotSmall
 10
529.4005519276525
 20
1375.800692149654
 30
0.0
 41
35.0
 42
35.0
 43
35.0
 50
180.0
  0
MTEXT
  5
192B
330
35C
100
AcDbEntity
  8
実形
 62
     0
370
    -2
100
AcDbMText
 10
691.9005519276525
 20
1394.550692149654
 30
0.0
 40
25.0
 41
0.0
 71
     5
 72
     1
  1
325
 73
     1
 44
1.0
1001
ACAD
1000
MTEXTBEGIN
1070
    73
1070
     1
1070
    44
1040
1.0
1070
    74
1070
     0
1000
MTEXTEND
  0
POINT
  5
192C
330
35C
100
AcDbEntity
  8
Defpoints
 62
     0
100
AcDbPoint
 10
854.4005519276524
 20
1478.443721274661
 30
0.0
  0
POINT
  5
192D
330
35C
100
AcDbEntity
  8
Defpoints
 62
     0
100
AcDbPoint
 10
529.4005519276525
 20
1430.631023659046
 30
0.0
  0
POINT
  5
192E
330
35C
100
AcDbEntity
  8
Defpoints
 62
     0
100
AcDbPoint
 10
529.4005519276525
 20
1375.800692149654
 30
0.0
  0
ENDBLK
  5
367
330
35C
100
AcDbEntity
  8
0
100
AcDbBlockEnd
  0
BLOCK
  5
373
330
369
100
AcDbEntity
  8
0
100
AcDbBlockBegin
  2
*D5
 70
     1
 10
0.0
 20
0.0
 30
0.0
  3
*D5
  1

  0
LINE
  5
192F
330
369
100
AcDbEntity
  8
実形
 62
     0
370
    15
100
AcDbLine
 10
969.0574682796977
 20
1485.631023659046
 30
0.0
 11
1064.237508436516
 21
1485.631023659046
 31
0.0
  0
LINE
  5
1930
330
369
100
AcDbEntity
  8
実形
 62
     0
370
    15
100
AcDbLine
 10
919.4005519276524
 20
1635.631023659046
 30
0.0
 11
1064.237508436516
 21
1635.631023659046
 31
0.0
  0
LINE
  5
1931
330
369
100
AcDbEntity
  8
実形
 62
     0
370
    18
100
AcDbLine
 10
1064.237508436516
 20
1485.631023659046
 30
0.0
 11
1064.237508436516
 21
1635.631023659046
 31
0.0
  0
INSERT
  5
1932
330
369
100
AcDbEntity
  8
実形
 62
     0
370
    18
100
AcDbBlockReference
  2
_DotSmall
 10
1064.237508436516
 20
1485.631023659046
 30
0.0
 41
35.0
 42
35.0
 43
35.0
 50
270.0
  0
INSERT
  5
1933
330
369
100
AcDbEntity
  8
実形
 62
     0
370
    18
100
AcDbBlockReference
  2
_DotSmall
 10
1064.237508436516
 20
1635.631023659046
 30
0.0
 41
35.0
 42
35.0
 43
35.0
 50
90.0
  0
MTEXT
  5
1934
330
369
100
AcDbEntity
  8
実形
 62
     0
370
    -2
100
AcDbMText
 10
1045.487508436516
 20
1560.210212844422
 30
0.0
 40
25.0
 41
0.0
 71
     5
 72
     1
  1
150
 11
0.0000000000000001
 21
1.0
 31
0.0
 73
     1
 44
1.0
1001
ACAD
1000
MTEXTBEGIN
1070
    73
1070
     1
1070
    44
1040
1.0
1070
    74
1070
     0
1000
MTEXTEND
  0
POINT
  5
1935
330
369
100
AcDbEntity
  8
Defpoints
 62
     0
100
AcDbPoint
 10
904.0574682796977
 20
1485.631023659046
 30
0.0
  0
POINT
  5
1936
330
369
100
AcDbEntity
  8
Defpoints
 62
     0
100
AcDbPoint
 10
854.4005519276524
 20
1635.631023659046
 30
0.0
  0
POINT
  5
1937
330
369
100
AcDbEntity
  8
Defpoints
 62
     0
100
AcDbPoint
 10
1064.237508436516
 20
1635.631023659046
 30
0.0
  0
ENDBLK
  5
374
330
369
100
AcDbEntity
  8
0
100
AcDbBlockEnd
  0
BLOCK
  5
3DA
330
3CF
100
AcDbEntity
  8
0
100
AcDbBlockBegin
  2
*D6
 70
     1
 10
0.0
 20
0.0
 30
0.0
  3
*D6
  1

  0
LINE
  5
1938
330
3CF
100
AcDbEntity
  8
実形
 62
     0
370
    15
100
AcDbLine
 10
449.4005519276525
 20
1665.631023659046
 30
0.0
 11
356.2252372037793
 21
1665.631023659046
 31
0.0
  0
LINE
  5
1939
330
3CF
100
AcDbEntity
  8
実形
 62
     0
370
    15
100
AcDbLine
 10
449.4005519276525
 20
1650.631023659046
 30
0.0
 11
356.2252372037792
 21
1650.631023659046
 31
0.0
  0
LINE
  5
193A
330
3CF
100
AcDbEntity
  8
実形
 62
     0
370
    18
100
AcDbLine
 10
356.2252372037793
 20
1665.631023659046
 30
0.0
 11
356.2252372037792
 21
1650.631023659046
 31
0.0
  0
INSERT
  5
193B
330
3CF
100
AcDbEntity
  8
実形
 62
     0
370
    18
100
AcDbBlockReference
  2
_DotSmall
 10
356.2252372037793
 20
1665.631023659046
 30
0.0
 41
35.0
 42
35.0
 43
35.0
 50
90.0
  0
INSERT
  5
193C
330
3CF
100
AcDbEntity
  8
実形
 62
     0
370
    18
100
AcDbBlockReference
  2
_DotSmall
 10
356.2252372037792
 20
1650.631023659046
 30
0.0
 41
35.0
 42
35.0
 43
35.0
 50
270.0
  0
POINT
  5
193D
330
3CF
100
AcDbEntity
  8
Defpoints
 62
     0
100
AcDbPoint
 10
514.4005519276524
 20
1665.631023659046
 30
0.0
  0
POINT
  5
193E
330
3CF
100
AcDbEntity
  8
Defpoints
 62
     0
100
AcDbPoint
 10
514.4005519276524
 20
1650.631023659046
 30
0.0
  0
POINT
  5
193F
330
3CF
100
AcDbEntity
  8
Defpoints
 62
     0
100
AcDbPoint
 10
356.2252372037792
 20
1650.631023659046
 30
0.0
  0
ENDBLK
  5
3DB
330
3CF
100
AcDbEntity
  8
0
100
AcDbBlockEnd
  0
BLOCK
  5
3E7
330
3DD
100
AcDbEntity
  8
0
100
AcDbBlockBegin
  2
*D7
 70
     1
 10
0.0
 20
0.0
 30
0.0
  3
*D7
  1

  0
LINE
  5
1940
330
3DD
100
AcDbEntity
  8
実形
 62
     0
370
    15
100
AcDbLine
 10
449.4005519276525
 20
1650.631023659046
 30
0.0
 11
356.2252372037793
 21
1650.631023659046
 31
0.0
  0
LINE
  5
1941
330
3DD
100
AcDbEntity
  8
実形
 62
     0
370
    15
100
AcDbLine
 10
449.4005519276525
 20
1210.631023659046
 30
0.0
 11
356.2252372037792
 21
1210.631023659046
 31
0.0
  0
LINE
  5
1942
330
3DD
100
AcDbEntity
  8
実形
 62
     0
370
    18
100
AcDbLine
 10
356.2252372037793
 20
1650.631023659046
 30
0.0
 11
356.2252372037792
 21
1210.631023659046
 31
0.0
  0
INSERT
  5
1943
330
3DD
100
AcDbEntity
  8
実形
 62
     0
370
    18
100
AcDbBlockReference
  2
_DotSmall
 10
356.2252372037793
 20
1650.631023659046
 30
0.0
 41
35.0
 42
35.0
 43
35.0
 50
90.0
  0
INSERT
  5
1944
330
3DD
100
AcDbEntity
  8
実形
 62
     0
370
    18
100
AcDbBlockReference
  2
_DotSmall
 10
356.2252372037792
 20
1210.631023659046
 30
0.0
 41
35.0
 42
35.0
 43
35.0
 50
270.0
  0
MTEXT
  5
1945
330
3DD
100
AcDbEntity
  8
実形
 62
     0
100
AcDbMText
 10
337.475237203779
 20
1430.631023659046
 30
0.0
 40
25.0
 41
0.0
 71
     5
 72
     1
  1
440
 11
0.0000000000000001
 21
1.0
 31
0.0
 73
     1
 44
1.0
1001
ACAD
1000
MTEXTBEGIN
1070
    73
1070
     1
1070
    44
1040
1.0
1070
    74
1070
     0
1000
MTEXTEND
  0
POINT
  5
1946
330
3DD
100
AcDbEntity
  8
Defpoints
 62
     0
100
AcDbPoint
 10
514.4005519276524
 20
1650.631023659046
 30
0.0
  0
POINT
  5
1947
330
3DD
100
AcDbEntity
  8
Defpoints
 62
     0
100
AcDbPoint
 10
514.4005519276524
 20
1210.631023659046
 30
0.0
  0
POINT
  5
1948
330
3DD
100
AcDbEntity
  8
Defpoints
 62
     0
100
AcDbPoint
 10
356.2252372037792
 20
1210.631023659046
 30
0.0
  0
ENDBLK
  5
3E8
330
3DD
100
AcDbEntity
  8
0
100
AcDbBlockEnd
  0
BLOCK
  5
3F4
330
3EA
100
AcDbEntity
  8
0
100
AcDbBlockBegin
  2
*D8
 70
     1
 10
0.0
 20
0.0
 30
0.0
  3
*D8
  1

  0
LINE
  5
1949
330
3EA
100
AcDbEntity
  8
実形
 62
     0
370
    15
100
AcDbLine
 10
449.4005519276525
 20
1210.631023659046
 30
0.0
 11
356.2252372037792
 21
1210.631023659046
 31
0.0
  0
LINE
  5
194A
330
3EA
100
AcDbEntity
  8
実形
 62
     0
370
    15
100
AcDbLine
 10
449.4005519276525
 20
1195.631023659046
 30
0.0
 11
356.2252372037792
 21
1195.631023659046
 31
0.0
  0
LINE
  5
194B
330
3EA
100
AcDbEntity
  8
実形
 62
     0
370
    18
100
AcDbLine
 10
356.2252372037792
 20
1210.631023659046
 30
0.0
 11
356.2252372037792
 21
1195.631023659046
 31
0.0
  0
MTEXT
  5
194C
330
3EA
100
AcDbEntity
  8
実形
 62
     0
370
    -2
100
AcDbMText
 10
331.9076999941517
 20
1218.887342626453
 30
0.0
 40
25.0
 41
0.0
 71
     5
 72
     1
  1
15
 11
0.0000000000000001
 21
1.0
 31
0.0
 73
     1
 44
1.0
1001
ACAD
1000
MTEXTBEGIN
1070
    73
1070
     1
1070
    44
1040
1.0
1070
    74
1070
     0
1000
MTEXTEND
  0
INSERT
  5
194D
330
3EA
100
AcDbEntity
  8
実形
 62
     0
370
    18
100
AcDbBlockReference
  2
_DotSmall
 10
356.2252372037792
 20
1210.631023659046
 30
0.0
 41
35.0
 42
35.0
 43
35.0
 50
90.0
  0
INSERT
  5
194E
330
3EA
100
AcDbEntity
  8
実形
 62
     0
370
    18
100
AcDbBlockReference
  2
_DotSmall
 10
356.2252372037792
 20
1195.631023659046
 30
0.0
 41
35.0
 42
35.0
 43
35.0
 50
270.0
  0
POINT
  5
194F
330
3EA
100
AcDbEntity
  8
Defpoints
 62
     0
100
AcDbPoint
 10
514.4005519276524
 20
1210.631023659046
 30
0.0
  0
POINT
  5
1950
330
3EA
100
AcDbEntity
  8
Defpoints
 62
     0
100
AcDbPoint
 10
514.4005519276524
 20
1195.631023659046
 30
0.0
  0
POINT
  5
1951
330
3EA
100
AcDbEntity
  8
Defpoints
 62
     0
100
AcDbPoint
 10
356.2252372037792
 20
1195.631023659046
 30
0.0
  0
ENDBLK
  5
3F5
330
3EA
100
AcDbEntity
  8
0
100
AcDbBlockEnd
  0
BLOCK
  5
401
330
3F7
100
AcDbEntity
  8
0
100
AcDbBlockBegin
  2
*D9
 70
     1
 10
0.0
 20
0.0
 30
0.0
  3
*D9
  1

  0
LINE
  5
1952
330
3F7
100
AcDbEntity
  8
実形
 62
     0
370
    15
100
AcDbLine
 10
449.4005519276525
 20
1665.631023659046
 30
0.0
 11
302.385338879095
 21
1665.631023659046
 31
0.0
  0
LINE
  5
1953
330
3F7
100
AcDbEntity
  8
実形
 62
     0
370
    15
100
AcDbLine
 10
449.4005519276525
 20
1195.631023659046
 30
0.0
 11
302.3853388790949
 21
1195.631023659046
 31
0.0
  0
LINE
  5
1954
330
3F7
100
AcDbEntity
  8
実形
 62
     0
370
    18
100
AcDbLine
 10
302.385338879095
 20
1665.631023659046
 30
0.0
 11
302.3853388790949
 21
1195.631023659046
 31
0.0
  0
INSERT
  5
1955
330
3F7
100
AcDbEntity
  8
実形
 62
     0
370
    18
100
AcDbBlockReference
  2
_DotSmall
 10
302.385338879095
 20
1665.631023659046
 30
0.0
 41
35.0
 42
35.0
 43
35.0
 50
90.0
  0
INSERT
  5
1956
330
3F7
100
AcDbEntity
  8
実形
 62
     0
370
    18
100
AcDbBlockReference
  2
_DotSmall
 10
302.3853388790949
 20
1195.631023659046
 30
0.0
 41
35.0
 42
35.0
 43
35.0
 50
270.0
  0
MTEXT
  5
1957
330
3F7
100
AcDbEntity
  8
実形
 62
     0
100
AcDbMText
 10
283.6353388790947
 20
1430.631023659046
 30
0.0
 40
25.0
 41
0.0
 71
     5
 72
     1
  1
470
 11
0.0000000000000001
 21
1.0
 31
0.0
 73
     1
 44
1.0
1001
ACAD
1000
MTEXTBEGIN
1070
    73
1070
     1
1070
    44
1040
1.0
1070
    74
1070
     0
1000
MTEXTEND
  0
POINT
  5
1958
330
3F7
100
AcDbEntity
  8
Defpoints
 62
     0
100
AcDbPoint
 10
514.4005519276524
 20
1665.631023659046
 30
0.0
  0
POINT
  5
1959
330
3F7
100
AcDbEntity
  8
Defpoints
 62
     0
100
AcDbPoint
 10
514.4005519276524
 20
1195.631023659046
 30
0.0
  0
POINT
  5
195A
330
3F7
100
AcDbEntity
  8
Defpoints
 62
     0
100
AcDbPoint
 10
302.3853388790949
 20
1195.631023659046
 30
0.0
  0
ENDBLK
  5
402
330
3F7
100
AcDbEntity
  8
0
100
AcDbBlockEnd
  0
BLOCK
  5
449
330
43E
100
AcDbEntity
  8
0
100
AcDbBlockBegin
  2
*D10
 70
     1
 10
0.0
 20
0.0
 30
0.0
  3
*D10
  1

  0
LINE
  5
195B
330
43E
100
AcDbEntity
  8
実形
 62
     0
370
    15
100
AcDbLine
 10
514.4005519276524
 20
1130.631023659046
 30
0.0
 11
514.4005519276524
 21
1047.698905888991
 31
0.0
  0
LINE
  5
195C
330
43E
100
AcDbEntity
  8
実形
 62
     0
370
    15
100
AcDbLine
 10
529.4005519276525
 20
1130.631023659046
 30
0.0
 11
529.4005519276525
 21
1047.698905888991
 31
0.0
  0
LINE
  5
195D
330
43E
100
AcDbEntity
  8
実形
 62
     0
370
    18
100
AcDbLine
 10
514.4005519276524
 20
1047.698905888991
 30
0.0
 11
529.4005519276525
 21
1047.698905888991
 31
0.0
  0
LINE
  5
195E
330
43E
100
AcDbEntity
  8
実形
 62
     0
370
    18
100
AcDbLine
 10
529.4005519276525
 20
1047.698905888991
 30
0.0
 11
595.1505519276524
 21
1047.698905888991
 31
0.0
  0
INSERT
  5
195F
330
43E
100
AcDbEntity
  8
実形
 62
     0
370
    18
100
AcDbBlockReference
  2
_DotSmall
 10
514.4005519276524
 20
1047.698905888991
 30
0.0
 41
35.0
 42
35.0
 43
35.0
 50
180.0
  0
INSERT
  5
1960
330
43E
100
AcDbEntity
  8
実形
 62
     0
370
    18
100
AcDbBlockReference
  2
_DotSmall
 10
529.4005519276525
 20
1047.698905888991
 30
0.0
 41
35.0
 42
35.0
 43
35.0
  0
POINT
  5
1961
330
43E
100
AcDbEntity
  8
Defpoints
 62
     0
100
AcDbPoint
 10
514.4005519276524
 20
1195.631023659046
 30
0.0
  0
POINT
  5
1962
330
43E
100
AcDbEntity
  8
Defpoints
 62
     0
100
AcDbPoint
 10
529.4005519276525
 20
1195.631023659046
 30
0.0
  0
POINT
  5
1963
330
43E
100
AcDbEntity
  8
Defpoints
 62
     0
100
AcDbPoint
 10
529.4005519276525
 20
1047.698905888991
 30
0.0
  0
ENDBLK
  5
44A
330
43E
100
AcDbEntity
  8
0
100
AcDbBlockEnd
  0
BLOCK
  5
456
330
44C
100
AcDbEntity
  8
0
100
AcDbBlockBegin
  2
*D11
 70
     1
 10
0.0
 20
0.0
 30
0.0
  3
*D11
  1

  0
LINE
  5
1964
330
44C
100
AcDbEntity
  8
実形
 62
     0
370
    15
100
AcDbLine
 10
529.4005519276525
 20
1130.631023659046
 30
0.0
 11
529.4005519276525
 21
1047.698905888991
 31
0.0
  0
LINE
  5
1965
330
44C
100
AcDbEntity
  8
実形
 62
     0
370
    15
100
AcDbLine
 10
1179.400551927652
 20
1130.631023659046
 30
0.0
 11
1179.400551927652
 21
1047.698905888991
 31
0.0
  0
LINE
  5
1966
330
44C
100
AcDbEntity
  8
実形
 62
     0
370
    18
100
AcDbLine
 10
529.4005519276525
 20
1047.698905888991
 30
0.0
 11
1179.400551927652
 21
1047.698905888991
 31
0.0
  0
INSERT
  5
1967
330
44C
100
AcDbEntity
  8
実形
 62
     0
370
    18
100
AcDbBlockReference
  2
_DotSmall
 10
529.4005519276525
 20
1047.698905888991
 30
0.0
 41
35.0
 42
35.0
 43
35.0
 50
180.0
  0
INSERT
  5
1968
330
44C
100
AcDbEntity
  8
実形
 62
     0
370
    18
100
AcDbBlockReference
  2
_DotSmall
 10
1179.400551927652
 20
1047.698905888991
 30
0.0
 41
35.0
 42
35.0
 43
35.0
  0
MTEXT
  5
1969
330
44C
100
AcDbEntity
  8
実形
 62
     0
100
AcDbMText
 10
854.4005519276524
 20
1066.448905888991
 30
0.0
 40
25.0
 41
0.0
 71
     5
 72
     1
  1
650
 73
     1
 44
1.0
1001
ACAD
1000
MTEXTBEGIN
1070
    73
1070
     1
1070
    44
1040
1.0
1070
    74
1070
     0
1000
MTEXTEND
  0
POINT
  5
196A
330
44C
100
AcDbEntity
  8
Defpoints
 62
     0
100
AcDbPoint
 10
529.4005519276525
 20
1195.631023659046
 30
0.0
  0
POINT
  5
196B
330
44C
100
AcDbEntity
  8
Defpoints
 62
     0
100
AcDbPoint
 10
1179.400551927652
 20
1195.631023659046
 30
0.0
  0
POINT
  5
196C
330
44C
100
AcDbEntity
  8
Defpoints
 62
     0
100
AcDbPoint
 10
1179.400551927652
 20
1047.698905888991
 30
0.0
  0
ENDBLK
  5
457
330
44C
100
AcDbEntity
  8
0
100
AcDbBlockEnd
  0
BLOCK
  5
465
330
459
100
AcDbEntity
  8
0
100
AcDbBlockBegin
  2
*D12
 70
     1
 10
0.0
 20
0.0
 30
0.0
  3
*D12
  1

  0
LINE
  5
196D
330
459
100
AcDbEntity
  8
実形
 62
     0
370
    15
100
AcDbLine
 10
1179.400551927652
 20
1130.631023659046
 30
0.0
 11
1179.400551927652
 21
1047.698905888991
 31
0.0
  0
LINE
  5
196E
330
459
100
AcDbEntity
  8
実形
 62
     0
370
    15
100
AcDbLine
 10
1194.400551927652
 20
1130.631023659046
 30
0.0
 11
1194.400551927652
 21
1047.698905888991
 31
0.0
  0
LINE
  5
196F
330
459
100
AcDbEntity
  8
実形
 62
     0
370
    18
100
AcDbLine
 10
1179.400551927652
 20
1047.698905888991
 30
0.0
 11
1194.400551927652
 21
1047.698905888991
 31
0.0
  0
INSERT
  5
1970
330
459
100
AcDbEntity
  8
実形
 62
     0
370
    18
100
AcDbBlockReference
  2
_DotSmall
 10
1179.400551927652
 20
1047.698905888991
 30
0.0
 41
35.0
 42
35.0
 43
35.0
 50
180.0
  0
INSERT
  5
1971
330
459
100
AcDbEntity
  8
実形
 62
     0
370
    18
100
AcDbBlockReference
  2
_DotSmall
 10
1194.400551927652
 20
1047.698905888991
 30
0.0
 41
35.0
 42
35.0
 43
35.0
  0
POINT
  5
1972
330
459
100
AcDbEntity
  8
Defpoints
 62
     0
100
AcDbPoint
 10
1179.400551927652
 20
1195.631023659046
 30
0.0
  0
POINT
  5
1973
330
459
100
AcDbEntity
  8
Defpoints
 62
     0
100
AcDbPoint
 10
1194.400551927652
 20
1195.631023659046
 30
0.0
  0
POINT
  5
1974
330
459
100
AcDbEntity
  8
Defpoints
 62
     0
100
AcDbPoint
 10
1194.400551927652
 20
1047.698905888991
 30
0.0
  0
ENDBLK
  5
466
330
459
100
AcDbEntity
  8
0
100
AcDbBlockEnd
  0
BLOCK
  5
4AE
330
4A4
100
AcDbEntity
  8
0
100
AcDbBlockBegin
  2
*D13
 70
     1
 10
0.0
 20
0.0
 30
0.0
  3
*D13
  1

  0
LINE
  5
1975
330
4A4
100
AcDbEntity
  8
実形
 62
     0
370
    15
100
AcDbLine
 10
514.4005519276524
 20
1130.631023659046
 30
0.0
 11
514.4005519276524
 21
993.6855785437128
 31
0.0
  0
LINE
  5
1976
330
4A4
100
AcDbEntity
  8
実形
 62
     0
370
    15
100
AcDbLine
 10
1194.400551927652
 20
1130.631023659046
 30
0.0
 11
1194.400551927652
 21
993.6855785437128
 31
0.0
  0
LINE
  5
1977
330
4A4
100
AcDbEntity
  8
実形
 62
     0
370
    18
100
AcDbLine
 10
514.4005519276524
 20
993.6855785437128
 30
0.0
 11
1194.400551927652
 21
993.6855785437128
 31
0.0
  0
INSERT
  5
1978
330
4A4
100
AcDbEntity
  8
実形
 62
     0
370
    18
100
AcDbBlockReference
  2
_DotSmall
 10
514.4005519276524
 20
993.6855785437128
 30
0.0
 41
35.0
 42
35.0
 43
35.0
 50
180.0
  0
INSERT
  5
1979
330
4A4
100
AcDbEntity
  8
実形
 62
     0
370
    18
100
AcDbBlockReference
  2
_DotSmall
 10
1194.400551927652
 20
993.6855785437128
 30
0.0
 41
35.0
 42
35.0
 43
35.0
  0
MTEXT
  5
197A
330
4A4
100
AcDbEntity
  8
実形
 62
     0
100
AcDbMText
 10
854.4005519276524
 20
1012.435578543713
 30
0.0
 40
25.0
 41
0.0
 71
     5
 72
     1
  1
680
 73
     1
 44
1.0
1001
ACAD
1000
MTEXTBEGIN
1070
    73
1070
     1
1070
    44
1040
1.0
1070
    74
1070
     0
1000
MTEXTEND
  0
POINT
  5
197B
330
4A4
100
AcDbEntity
  8
Defpoints
 62
     0
100
AcDbPoint
 10
514.4005519276524
 20
1195.631023659046
 30
0.0
  0
POINT
  5
197C
330
4A4
100
AcDbEntity
  8
Defpoints
 62
     0
100
AcDbPoint
 10
1194.400551927652
 20
1195.631023659046
 30
0.0
  0
POINT
  5
197D
330
4A4
100
AcDbEntity
  8
Defpoints
 62
     0
100
AcDbPoint
 10
1194.400551927652
 20
993.6855785437128
 30
0.0
  0
ENDBLK
  5
4AF
330
4A4
100
AcDbEntity
  8
0
100
AcDbBlockEnd
  0
BLOCK
  5
503
330
4F9
100
AcDbEntity
  8
0
100
AcDbBlockBegin
  2
*D14
 70
     1
 10
0.0
 20
0.0
 30
0.0
  3
*D14
  1

  0
LINE
  5
1C66
330
4F9
100
AcDbEntity
  8
実形
 62
     0
370
    15
100
AcDbLine
 10
774.4005519276525
 20
485.6310236590461
 30
0.0
 11
774.4005519276525
 21
434.2036163579733
 31
0.0
  0
LINE
  5
1C67
330
4F9
100
AcDbEntity
  8
実形
 62
     0
370
    15
100
AcDbLine
 10
934.4005519276525
 20
485.6310236590461
 30
0.0
 11
934.4005519276525
 21
434.2036163579733
 31
0.0
  0
LINE
  5
1C68
330
4F9
100
AcDbEntity
  8
実形
 62
     0
370
    18
100
AcDbLine
 10
774.4005519276525
 20
434.2036163579733
 30
0.0
 11
934.4005519276525
 21
434.2036163579733
 31
0.0
  0
INSERT
  5
1C69
330
4F9
100
AcDbEntity
  8
実形
 62
     0
370
    18
100
AcDbBlockReference
  2
_DotSmall
 10
774.4005519276525
 20
434.2036163579733
 30
0.0
 41
35.0
 42
35.0
 43
35.0
 50
180.0
  0
INSERT
  5
1C6A
330
4F9
100
AcDbEntity
  8
実形
 62
     0
370
    18
100
AcDbBlockReference
  2
_DotSmall
 10
934.4005519276525
 20
434.2036163579733
 30
0.0
 41
35.0
 42
35.0
 43
35.0
  0
MTEXT
  5
1C6B
330
4F9
100
AcDbEntity
  8
実形
 62
     0
100
AcDbMText
 10
854.4005519276524
 20
452.9536163579733
 30
0.0
 40
25.0
 41
0.0
 71
     5
 72
     1
  1
158
 73
     1
 44
1.0
1001
ACAD
1000
MTEXTBEGIN
1070
    73
1070
     1
1070
    44
1040
1.0
1070
    74
1070
     0
1000
MTEXTEND
  0
POINT
  5
1C6C
330
4F9
100
AcDbEntity
  8
Defpoints
 62
     0
100
AcDbPoint
 10
774.4005519276525
 20
550.6310236590461
 30
0.0
  0
POINT
  5
1C6D
330
4F9
100
AcDbEntity
  8
Defpoints
 62
     0
100
AcDbPoint
 10
934.4005519276525
 20
550.6310236590461
 30
0.0
  0
POINT
  5
1C6E
330
4F9
100
AcDbEntity
  8
Defpoints
 62
     0
100
AcDbPoint
 10
934.4005519276525
 20
434.2036163579733
 30
0.0
  0
ENDBLK
  5
504
330
4F9
100
AcDbEntity
  8
0
100
AcDbBlockEnd
  0
BLOCK
  5
510
330
506
100
AcDbEntity
  8
0
100
AcDbBlockBegin
  2
*D15
 70
     1
 10
0.0
 20
0.0
 30
0.0
  3
*D15
  1

  0
LINE
  5
1C5D
330
506
100
AcDbEntity
  8
実形
 62
     0
370
    15
100
AcDbLine
 10
763.9005519276524
 20
485.6310236590462
 30
0.0
 11
763.9005519276524
 21
388.6331589873798
 31
0.0
  0
LINE
  5
1C5E
330
506
100
AcDbEntity
  8
実形
 62
     0
370
    15
100
AcDbLine
 10
944.9005519276525
 20
485.6310236590461
 30
0.0
 11
944.9005519276525
 21
388.6331589873798
 31
0.0
  0
LINE
  5
1C5F
330
506
100
AcDbEntity
  8
実形
 62
     0
370
    18
100
AcDbLine
 10
763.9005519276524
 20
388.6331589873798
 30
0.0
 11
944.9005519276525
 21
388.6331589873798
 31
0.0
  0
INSERT
  5
1C60
330
506
100
AcDbEntity
  8
実形
 62
     0
370
    18
100
AcDbBlockReference
  2
_DotSmall
 10
763.9005519276524
 20
388.6331589873798
 30
0.0
 41
35.0
 42
35.0
 43
35.0
 50
180.0
  0
INSERT
  5
1C61
330
506
100
AcDbEntity
  8
実形
 62
     0
370
    18
100
AcDbBlockReference
  2
_DotSmall
 10
944.9005519276525
 20
388.6331589873798
 30
0.0
 41
35.0
 42
35.0
 43
35.0
  0
MTEXT
  5
1C62
330
506
100
AcDbEntity
  8
実形
 62
     0
100
AcDbMText
 10
854.4005519276524
 20
407.3831589873798
 30
0.0
 40
25.0
 41
0.0
 71
     5
 72
     1
  1
181
 73
     1
 44
1.0
1001
ACAD
1000
MTEXTBEGIN
1070
    73
1070
     1
1070
    44
1040
1.0
1070
    74
1070
     0
1000
MTEXTEND
  0
POINT
  5
1C63
330
506
100
AcDbEntity
  8
Defpoints
 62
     0
100
AcDbPoint
 10
763.9005519276524
 20
550.6310236590462
 30
0.0
  0
POINT
  5
1C64
330
506
100
AcDbEntity
  8
Defpoints
 62
     0
100
AcDbPoint
 10
944.9005519276525
 20
550.6310236590461
 30
0.0
  0
POINT
  5
1C65
330
506
100
AcDbEntity
  8
Defpoints
 62
     0
100
AcDbPoint
 10
944.9005519276525
 20
388.6331589873798
 30
0.0
  0
ENDBLK
  5
511
330
506
100
AcDbEntity
  8
0
100
AcDbBlockEnd
  0
BLOCK
  5
1056
330
104B
100
AcDbEntity
  8
0
100
AcDbBlockBegin
  2
*D16
 70
     1
 10
0.0
 20
0.0
 30
0.0
  3
*D16
  1

  0
LINE
  5
1990
330
104B
100
AcDbEntity
  8
実形
 62
     0
370
    18
100
AcDbLine
 10
449.4005519276525
 20
1650.631023659046
 30
0.0
 11
409.0913961091391
 21
1650.631023659046
 31
0.0
  0
LINE
  5
1991
330
104B
100
AcDbEntity
  8
実形
 62
     0
370
    18
100
AcDbLine
 10
449.4005519276525
 20
1635.631023659046
 30
0.0
 11
409.0913961091391
 21
1635.631023659046
 31
0.0
  0
LINE
  5
1992
330
104B
100
AcDbEntity
  8
実形
 62
     0
370
    18
100
AcDbLine
 10
409.0913961091391
 20
1650.631023659046
 30
0.0
 11
409.0913961091391
 21
1635.631023659046
 31
0.0
  0
MTEXT
  5
1993
330
104B
100
AcDbEntity
  8
実形
 62
     0
100
AcDbMText
 10
385.190415526271
 20
1629.383082689753
 30
0.0
 40
25.0
 41
0.0
 71
     5
 72
     1
  1
15
 11
0.0000000000000001
 21
1.0
 31
0.0
 73
     1
 44
1.0
1001
ACAD
1000
MTEXTBEGIN
1070
    73
1070
     1
1070
    44
1040
1.0
1070
    74
1070
     0
1000
MTEXTEND
  0
INSERT
  5
1994
330
104B
100
AcDbEntity
  8
実形
 62
     0
370
    18
100
AcDbBlockReference
  2
_DotSmall
 10
409.0913961091391
 20
1650.631023659046
 30
0.0
 41
35.0
 42
35.0
 43
35.0
 50
90.0
  0
INSERT
  5
1995
330
104B
100
AcDbEntity
  8
実形
 62
     0
370
    18
100
AcDbBlockReference
  2
_DotSmall
 10
409.0913961091391
 20
1635.631023659046
 30
0.0
 41
35.0
 42
35.0
 43
35.0
 50
270.0
  0
POINT
  5
1996
330
104B
100
AcDbEntity
  8
Defpoints
 62
     0
100
AcDbPoint
 10
514.4005519276524
 20
1650.631023659046
 30
0.0
  0
POINT
  5
1997
330
104B
100
AcDbEntity
  8
Defpoints
 62
     0
100
AcDbPoint
 10
514.4005519276524
 20
1635.631023659046
 30
0.0
  0
POINT
  5
1998
330
104B
100
AcDbEntity
  8
Defpoints
 62
     0
100
AcDbPoint
 10
409.0913961091391
 20
1635.631023659046
 30
0.0
  0
ENDBLK
  5
1057
330
104B
100
AcDbEntity
  8
0
100
AcDbBlockEnd
  0
BLOCK
  5
1063
330
1059
100
AcDbEntity
  8
0
100
AcDbBlockBegin
  2
*D17
 70
     1
 10
0.0
 20
0.0
 30
0.0
  3
*D17
  1

  0
LINE
  5
1999
330
1059
100
AcDbEntity
  8
実形
 62
     0
370
    18
100
AcDbLine
 10
449.4005519276525
 20
1635.631023659046
 30
0.0
 11
409.0913961091392
 21
1635.631023659046
 31
0.0
  0
LINE
  5
199A
330
1059
100
AcDbEntity
  8
実形
 62
     0
370
    18
100
AcDbLine
 10
449.4005519276525
 20
1225.631023659046
 30
0.0
 11
409.0913961091391
 21
1225.631023659046
 31
0.0
  0
LINE
  5
199B
330
1059
100
AcDbEntity
  8
実形
 62
     0
370
    18
100
AcDbLine
 10
409.0913961091392
 20
1635.631023659046
 30
0.0
 11
409.0913961091391
 21
1225.631023659046
 31
0.0
  0
INSERT
  5
199C
330
1059
100
AcDbEntity
  8
実形
 62
     0
370
    18
100
AcDbBlockReference
  2
_DotSmall
 10
409.0913961091392
 20
1635.631023659046
 30
0.0
 41
35.0
 42
35.0
 43
35.0
 50
90.0
  0
INSERT
  5
199D
330
1059
100
AcDbEntity
  8
実形
 62
     0
370
    18
100
AcDbBlockReference
  2
_DotSmall
 10
409.0913961091391
 20
1225.631023659046
 30
0.0
 41
35.0
 42
35.0
 43
35.0
 50
270.0
  0
MTEXT
  5
199E
330
1059
100
AcDbEntity
  8
実形
 62
     0
100
AcDbMText
 10
390.341396109139
 20
1430.631023659046
 30
0.0
 40
25.0
 41
0.0
 71
     5
 72
     1
  1
410
 11
0.0000000000000001
 21
1.0
 31
0.0
 73
     1
 44
1.0
1001
ACAD
1000
MTEXTBEGIN
1070
    73
1070
     1
1070
    44
1040
1.0
1070
    74
1070
     0
1000
MTEXTEND
  0
POINT
  5
199F
330
1059
100
AcDbEntity
  8
Defpoints
 62
     0
100
AcDbPoint
 10
514.4005519276524
 20
1635.631023659046
 30
0.0
  0
POINT
  5
19A0
330
1059
100
AcDbEntity
  8
Defpoints
 62
     0
100
AcDbPoint
 10
514.4005519276524
 20
1225.631023659046
 30
0.0
  0
POINT
  5
19A1
330
1059
100
AcDbEntity
  8
Defpoints
 62
     0
100
AcDbPoint
 10
409.0913961091391
 20
1225.631023659046
 30
0.0
  0
ENDBLK
  5
1064
330
1059
100
AcDbEntity
  8
0
100
AcDbBlockEnd
  0
BLOCK
  5
1070
330
1066
100
AcDbEntity
  8
0
100
AcDbBlockBegin
  2
*D18
 70
     1
 10
0.0
 20
0.0
 30
0.0
  3
*D18
  1

  0
LINE
  5
19A2
330
1066
100
AcDbEntity
  8
実形
 62
     0
370
    18
100
AcDbLine
 10
449.4005519276525
 20
1225.631023659046
 30
0.0
 11
409.091396109139
 21
1225.631023659046
 31
0.0
  0
LINE
  5
19A3
330
1066
100
AcDbEntity
  8
実形
 62
     0
370
    18
100
AcDbLine
 10
449.4005519276525
 20
1210.631023659046
 30
0.0
 11
409.091396109139
 21
1210.631023659046
 31
0.0
  0
LINE
  5
19A4
330
1066
100
AcDbEntity
  8
実形
 62
     0
370
    18
100
AcDbLine
 10
409.091396109139
 20
1225.631023659046
 30
0.0
 11
409.091396109139
 21
1210.631023659046
 31
0.0
  0
MTEXT
  5
19A5
330
1066
100
AcDbEntity
  8
実形
 62
     0
100
AcDbMText
 10
387.8745107898467
 20
1234.355297274815
 30
0.0
 40
25.0
 41
0.0
 71
     5
 72
     1
  1
15
 11
0.0000000000000001
 21
1.0
 31
0.0
 73
     1
 44
1.0
1001
ACAD
1000
MTEXTBEGIN
1070
    73
1070
     1
1070
    44
1040
1.0
1070
    74
1070
     0
1000
MTEXTEND
  0
INSERT
  5
19A6
330
1066
100
AcDbEntity
  8
実形
 62
     0
370
    18
100
AcDbBlockReference
  2
_DotSmall
 10
409.091396109139
 20
1225.631023659046
 30
0.0
 41
35.0
 42
35.0
 43
35.0
 50
90.0
  0
INSERT
  5
19A7
330
1066
100
AcDbEntity
  8
実形
 62
     0
370
    18
100
AcDbBlockReference
  2
_DotSmall
 10
409.091396109139
 20
1210.631023659046
 30
0.0
 41
35.0
 42
35.0
 43
35.0
 50
270.0
  0
POINT
  5
19A8
330
1066
100
AcDbEntity
  8
Defpoints
 62
     0
100
AcDbPoint
 10
514.4005519276524
 20
1225.631023659046
 30
0.0
  0
POINT
  5
19A9
330
1066
100
AcDbEntity
  8
Defpoints
 62
     0
100
AcDbPoint
 10
514.4005519276524
 20
1210.631023659046
 30
0.0
  0
POINT
  5
19AA
330
1066
100
AcDbEntity
  8
Defpoints
 62
     0
100
AcDbPoint
 10
409.091396109139
 20
1210.631023659046
 30
0.0
  0
ENDBLK
  5
1071
330
1066
100
AcDbEntity
  8
0
100
AcDbBlockEnd
  0
BLOCK
  5
1916
330
1915
100
AcDbEntity
  8
0
100
AcDbBlockBegin
  2
_Dot
 70
     0
 10
0.0
 20
0.0
 30
0.0
  3
_Dot
  1

  0
LWPOLYLINE
  5
1917
330
1915
100
AcDbEntity
  8
0
  6
ByBlock
 62
     0
100
AcDbPolyline
 90
        2
 70
     1
 43
0.5
 10
-0.25
 20
0.0
 42
1.0
 10
0.25
 20
0.0
 42
1.0
  0
LINE
  5
1918
330
1915
100
AcDbEntity
  8
0
  6
ByBlock
 62
     0
370
    -2
100
AcDbLine
 10
-0.5
 20
0.0
 30
0.0
 11
-1.0
 21
0.0
 31
0.0
  0
ENDBLK
  5
1919
330
1915
100
AcDbEntity
  8
0
100
AcDbBlockEnd
  0
BLOCK
  5
1A0E
330
1A04
100
AcDbEntity
  8
0
100
AcDbBlockBegin
  2
*D20
 70
     1
 10
0.0
 20
0.0
 30
0.0
  3
*D20
  1

  0
LINE
  5
1A28
330
1A04
100
AcDbEntity
  8
実形
 62
     0
370
    15
100
AcDbLine
 10
494.9846320093493
 20
1712.892849943897
 30
0.0
 11
494.9846320093493
 21
1812.040583407497
 31
0.0
  0
LINE
  5
1A29
330
1A04
100
AcDbEntity
  8
実形
 62
     0
370
    15
100
AcDbLine
 10
1212.984632009349
 20
1712.892849943897
 30
0.0
 11
1212.984632009349
 21
1812.040583407497
 31
0.0
  0
LINE
  5
1A2A
330
1A04
100
AcDbEntity
  8
実形
 62
     0
370
    15
100
AcDbLine
 10
504.9846320093492
 20
1812.040583407497
 30
0.0
 11
1202.984632009349
 21
1812.040583407497
 31
0.0
  0
INSERT
  5
1A2B
330
1A04
100
AcDbEntity
  8
実形
 62
     0
370
    15
100
AcDbBlockReference
  2
_Dot
 10
494.9846320093493
 20
1812.040583407497
 30
0.0
 41
10.0
 42
10.0
 43
10.0
 50
180.0
  0
INSERT
  5
1A2C
330
1A04
100
AcDbEntity
  8
実形
 62
     0
370
    15
100
AcDbBlockReference
  2
_Dot
 10
1212.984632009349
 20
1812.040583407497
 30
0.0
 41
10.0
 42
10.0
 43
10.0
  0
MTEXT
  5
1A2D
330
1A04
100
AcDbEntity
  8
実形
 62
     0
100
AcDbMText
 10
853.984632009349
 20
1830.790583407497
 30
0.0
 40
25.0
 41
0.0
 71
     5
 72
     1
  1
718
 73
     1
 44
1.0
1001
ACAD
1000
MTEXTBEGIN
1070
    73
1070
     1
1070
    44
1040
1.0
1070
    74
1070
     0
1000
MTEXTEND
  0
POINT
  5
1A2E
330
1A04
100
AcDbEntity
  8
Defpoints
 62
     0
100
AcDbPoint
 10
494.9846320093493
 20
1647.892849943897
 30
0.0
  0
POINT
  5
1A2F
330
1A04
100
AcDbEntity
  8
Defpoints
 62
     0
100
AcDbPoint
 10
1212.984632009349
 20
1647.892849943897
 30
0.0
  0
POINT
  5
1A30
330
1A04
100
AcDbEntity
  8
Defpoints
 62
     0
100
AcDbPoint
 10
1212.984632009349
 20
1812.040583407497
 30
0.0
  0
ENDBLK
  5
1A0F
330
1A04
100
AcDbEntity
  8
0
100
AcDbBlockEnd
  0
BLOCK
  5
1A1A
330
1A10
100
AcDbEntity
  8
0
100
AcDbBlockBegin
  2
*D21
 70
     1
 10
0.0
 20
0.0
 30
0.0
  3
*D21
  1

  0
LINE
  5
1A31
330
1A10
100
AcDbEntity
  8
実形
 62
     0
370
    15
100
AcDbLine
 10
494.9846320093493
 20
1712.892849943897
 30
0.0
 11
494.9846320093493
 21
1744.797667677727
 31
0.0
  0
LINE
  5
1A32
330
1A10
100
AcDbEntity
  8
実形
 62
     0
370
    15
100
AcDbLine
 10
528.9846320093492
 20
1712.892849943897
 30
0.0
 11
528.9846320093492
 21
1744.797667677727
 31
0.0
  0
LINE
  5
1A33
330
1A10
100
AcDbEntity
  8
実形
 62
     0
370
    15
100
AcDbLine
 10
504.9846320093492
 20
1744.797667677727
 30
0.0
 11
518.9846320093493
 21
1744.797667677727
 31
0.0
  0
MTEXT
  5
1A34
330
1A10
100
AcDbEntity
  8
実形
 62
     0
100
AcDbMText
 10
531.4001943846476
 20
1773.776181946925
 30
0.0
 40
25.0
 41
0.0
 71
     5
 72
     1
  1
35
 73
     1
 44
1.0
1001
ACAD
1000
MTEXTBEGIN
1070
    73
1070
     1
1070
    44
1040
1.0
1070
    74
1070
     0
1000
MTEXTEND
  0
INSERT
  5
1A35
330
1A10
100
AcDbEntity
  8
実形
 62
     0
370
    15
100
AcDbBlockReference
  2
_Dot
 10
494.9846320093493
 20
1744.797667677727
 30
0.0
 41
10.0
 42
10.0
 43
10.0
 50
180.0
  0
INSERT
  5
1A36
330
1A10
100
AcDbEntity
  8
実形
 62
     0
370
    15
100
AcDbBlockReference
  2
_Dot
 10
528.9846320093492
 20
1744.797667677727
 30
0.0
 41
10.0
 42
10.0
 43
10.0
  0
POINT
  5
1A37
330
1A10
100
AcDbEntity
  8
Defpoints
 62
     0
100
AcDbPoint
 10
494.9846320093493
 20
1647.892849943897
 30
0.0
  0
POINT
  5
1A38
330
1A10
100
AcDbEntity
  8
Defpoints
 62
     0
100
AcDbPoint
 10
528.9846320093492
 20
1647.892849943897
 30
0.0
  0
POINT
  5
1A39
330
1A10
100
AcDbEntity
  8
Defpoints
 62
     0
100
AcDbPoint
 10
528.9846320093492
 20
1744.797667677727
 30
0.0
  0
ENDBLK
  5
1A1B
330
1A10
100
AcDbEntity
  8
0
100
AcDbBlockEnd
  0
BLOCK
  5
1A26
330
1A1C
100
AcDbEntity
  8
0
100
AcDbBlockBegin
  2
*D22
 70
     1
 10
0.0
 20
0.0
 30
0.0
  3
*D22
  1

  0
LINE
  5
1A3A
330
1A1C
100
AcDbEntity
  8
実形
 62
     0
370
    15
100
AcDbLine
 10
1178.984632009349
 20
1712.892849943897
 30
0.0
 11
1178.984632009349
 21
1744.797667677727
 31
0.0
  0
LINE
  5
1A3B
330
1A1C
100
AcDbEntity
  8
実形
 62
     0
370
    15
100
AcDbLine
 10
1212.984632009349
 20
1712.892849943897
 30
0.0
 11
1212.984632009349
 21
1744.797667677727
 31
0.0
  0
LINE
  5
1A3C
330
1A1C
100
AcDbEntity
  8
実形
 62
     0
370
    15
100
AcDbLine
 10
1188.984632009349
 20
1744.797667677727
 30
0.0
 11
1202.984632009349
 21
1744.797667677727
 31
0.0
  0
MTEXT
  5
1A3D
330
1A1C
100
AcDbEntity
  8
実形
 62
     0
100
AcDbMText
 10
1182.599101099515
 20
1769.853454531587
 30
0.0
 40
25.0
 41
0.0
 71
     5
 72
     1
  1
35
 73
     1
 44
1.0
1001
ACAD
1000
MTEXTBEGIN
1070
    73
1070
     1
1070
    44
1040
1.0
1070
    74
1070
     0
1000
MTEXTEND
  0
INSERT
  5
1A3E
330
1A1C
100
AcDbEntity
  8
実形
 62
     0
370
    15
100
AcDbBlockReference
  2
_Dot
 10
1178.984632009349
 20
1744.797667677727
 30
0.0
 41
10.0
 42
10.0
 43
10.0
 50
180.0
  0
INSERT
  5
1A3F
330
1A1C
100
AcDbEntity
  8
実形
 62
     0
370
    15
100
AcDbBlockReference
  2
_Dot
 10
1212.984632009349
 20
1744.797667677727
 30
0.0
 41
10.0
 42
10.0
 43
10.0
  0
POINT
  5
1A40
330
1A1C
100
AcDbEntity
  8
Defpoints
 62
     0
100
AcDbPoint
 10
1178.984632009349
 20
1647.892849943897
 30
0.0
  0
POINT
  5
1A41
330
1A1C
100
AcDbEntity
  8
Defpoints
 62
     0
100
AcDbPoint
 10
1212.984632009349
 20
1647.892849943897
 30
0.0
  0
POINT
  5
1A42
330
1A1C
100
AcDbEntity
  8
Defpoints
 62
     0
100
AcDbPoint
 10
1212.984632009349
 20
1744.797667677727
 30
0.0
  0
ENDBLK
  5
1A27
330
1A1C
100
AcDbEntity
  8
0
100
AcDbBlockEnd
  0
BLOCK
  5
1AB8
330
1AAE
100
AcDbEntity
  8
0
100
AcDbBlockBegin
  2
*D23
 70
     1
 10
0.0
 20
0.0
 30
0.0
  3
*D23
  1

  0
LINE
  5
1B0A
330
1AAE
100
AcDbEntity
  8
実形
 62
     0
370
    18
100
AcDbLine
 10
1272.520061659293
 20
1684.631023659046
 30
0.0
 11
1310.681053457332
 21
1684.631023659046
 31
0.0
  0
LINE
  5
1B0B
330
1AAE
100
AcDbEntity
  8
実形
 62
     0
370
    18
100
AcDbLine
 10
1272.520061659293
 20
1650.631023659046
 30
0.0
 11
1310.681053457332
 21
1650.631023659046
 31
0.0
  0
LINE
  5
1B0C
330
1AAE
100
AcDbEntity
  8
実形
 62
     0
370
    18
100
AcDbLine
 10
1310.681053457332
 20
1684.631023659046
 30
0.0
 11
1310.681053457332
 21
1650.631023659046
 31
0.0
  0
MTEXT
  5
1B0D
330
1AAE
100
AcDbEntity
  8
実形
 62
     0
100
AcDbMText
 10
1288.458033390992
 20
1618.735268904449
 30
0.0
 40
25.0
 41
0.0
 71
     5
 72
     1
  1
35
 11
0.0000000000000001
 21
1.0
 31
0.0
 73
     1
 44
1.0
1001
ACAD
1000
MTEXTBEGIN
1070
    73
1070
     1
1070
    44
1040
1.0
1070
    74
1070
     0
1000
MTEXTEND
  0
INSERT
  5
1B0E
330
1AAE
100
AcDbEntity
  8
実形
 62
     0
370
    18
100
AcDbBlockReference
  2
_DotSmall
 10
1310.681053457332
 20
1684.631023659046
 30
0.0
 41
35.0
 42
35.0
 43
35.0
 50
90.0
  0
INSERT
  5
1B0F
330
1AAE
100
AcDbEntity
  8
実形
 62
     0
370
    18
100
AcDbBlockReference
  2
_DotSmall
 10
1310.681053457332
 20
1650.631023659046
 30
0.0
 41
35.0
 42
35.0
 43
35.0
 50
270.0
  0
POINT
  5
1B10
330
1AAE
100
AcDbEntity
  8
Defpoints
 62
     0
100
AcDbPoint
 10
1207.520061659294
 20
1684.631023659046
 30
0.0
  0
POINT
  5
1B11
330
1AAE
100
AcDbEntity
  8
Defpoints
 62
     0
100
AcDbPoint
 10
1207.520061659294
 20
1650.631023659046
 30
0.0
  0
POINT
  5
1B12
330
1AAE
100
AcDbEntity
  8
Defpoints
 62
     0
100
AcDbPoint
 10
1310.681053457332
 20
1650.631023659046
 30
0.0
  0
ENDBLK
  5
1AB9
330
1AAE
100
AcDbEntity
  8
0
100
AcDbBlockEnd
  0
BLOCK
  5
1AD7
330
1ACD
100
AcDbEntity
  8
0
100
AcDbBlockBegin
  2
*D24
 70
     1
 10
0.0
 20
0.0
 30
0.0
  3
*D24
  1

  0
LINE
  5
1B13
330
1ACD
100
AcDbEntity
  8
実形
 62
     0
370
    18
100
AcDbLine
 10
1272.520061659293
 20
1210.631023659046
 30
0.0
 11
1310.681053457332
 21
1210.631023659046
 31
0.0
  0
LINE
  5
1B14
330
1ACD
100
AcDbEntity
  8
実形
 62
     0
370
    18
100
AcDbLine
 10
1272.520061659293
 20
1176.631023659046
 30
0.0
 11
1310.681053457332
 21
1176.631023659046
 31
0.0
  0
LINE
  5
1B15
330
1ACD
100
AcDbEntity
  8
実形
 62
     0
370
    18
100
AcDbLine
 10
1310.681053457332
 20
1210.631023659046
 30
0.0
 11
1310.681053457332
 21
1176.631023659046
 31
0.0
  0
MTEXT
  5
1B16
330
1ACD
100
AcDbEntity
  8
実形
 62
     0
100
AcDbMText
 10
1293.157454220176
 20
1252.3192577264
 30
0.0
 40
25.0
 41
0.0
 71
     5
 72
     1
  1
35
 11
0.0000000000000001
 21
1.0
 31
0.0
 73
     1
 44
1.0
1001
ACAD
1000
MTEXTBEGIN
1070
    73
1070
     1
1070
    44
1040
1.0
1070
    74
1070
     0
1000
MTEXTEND
  0
INSERT
  5
1B17
330
1ACD
100
AcDbEntity
  8
実形
 62
     0
370
    18
100
AcDbBlockReference
  2
_DotSmall
 10
1310.681053457332
 20
1210.631023659046
 30
0.0
 41
35.0
 42
35.0
 43
35.0
 50
90.0
  0
INSERT
  5
1B18
330
1ACD
100
AcDbEntity
  8
実形
 62
     0
370
    18
100
AcDbBlockReference
  2
_DotSmall
 10
1310.681053457332
 20
1176.631023659046
 30
0.0
 41
35.0
 42
35.0
 43
35.0
 50
270.0
  0
POINT
  5
1B19
330
1ACD
100
AcDbEntity
  8
Defpoints
 62
     0
100
AcDbPoint
 10
1207.520061659294
 20
1210.631023659046
 30
0.0
  0
POINT
  5
1B1A
330
1ACD
100
AcDbEntity
  8
Defpoints
 62
     0
100
AcDbPoint
 10
1207.520061659294
 20
1176.631023659046
 30
0.0
  0
POINT
  5
1B1B
330
1ACD
100
AcDbEntity
  8
Defpoints
 62
     0
100
AcDbPoint
 10
1310.681053457332
 20
1176.631023659046
 30
0.0
  0
ENDBLK
  5
1AD8
330
1ACD
100
AcDbEntity
  8
0
100
AcDbBlockEnd
  0
BLOCK
  5
1AF6
330
1AEC
100
AcDbEntity
  8
0
100
AcDbBlockBegin
  2
*D25
 70
     1
 10
0.0
 20
0.0
 30
0.0
  3
*D25
  1

  0
LINE
  5
1B1C
330
1AEC
100
AcDbEntity
  8
実形
 62
     0
370
    18
100
AcDbLine
 10
1309.612644192571
 20
1684.631023659046
 30
0.0
 11
1359.078004300847
 21
1684.631023659046
 31
0.0
  0
LINE
  5
1B1D
330
1AEC
100
AcDbEntity
  8
実形
 62
     0
370
    18
100
AcDbLine
 10
1309.612644192571
 20
1176.631023659046
 30
0.0
 11
1359.078004300847
 21
1176.631023659046
 31
0.0
  0
LINE
  5
1B1E
330
1AEC
100
AcDbEntity
  8
実形
 62
     0
370
    18
100
AcDbLine
 10
1359.078004300847
 20
1684.631023659046
 30
0.0
 11
1359.078004300847
 21
1176.631023659046
 31
0.0
  0
INSERT
  5
1B1F
330
1AEC
100
AcDbEntity
  8
実形
 62
     0
370
    18
100
AcDbBlockReference
  2
_DotSmall
 10
1359.078004300847
 20
1684.631023659046
 30
0.0
 41
35.0
 42
35.0
 43
35.0
 50
90.0
  0
INSERT
  5
1B20
330
1AEC
100
AcDbEntity
  8
実形
 62
     0
370
    18
100
AcDbBlockReference
  2
_DotSmall
 10
1359.078004300847
 20
1176.631023659046
 30
0.0
 41
35.0
 42
35.0
 43
35.0
 50
270.0
  0
MTEXT
  5
1B21
330
1AEC
100
AcDbEntity
  8
実形
 62
     0
100
AcDbMText
 10
1340.328004300847
 20
1430.631023659046
 30
0.0
 40
25.0
 41
0.0
 71
     5
 72
     1
  1
508
 11
0.0000000000000001
 21
1.0
 31
0.0
 73
     1
 44
1.0
1001
ACAD
1000
MTEXTBEGIN
1070
    73
1070
     1
1070
    44
1040
1.0
1070
    74
1070
     0
1000
MTEXTEND
  0
POINT
  5
1B22
330
1AEC
100
AcDbEntity
  8
Defpoints
 62
     0
100
AcDbPoint
 10
1244.612644192572
 20
1684.631023659046
 30
0.0
  0
POINT
  5
1B23
330
1AEC
100
AcDbEntity
  8
Defpoints
 62
     0
100
AcDbPoint
 10
1244.612644192572
 20
1176.631023659046
 30
0.0
  0
POINT
  5
1B24
330
1AEC
100
AcDbEntity
  8
Defpoints
 62
     0
100
AcDbPoint
 10
1359.078004300847
 20
1176.631023659046
 30
0.0
  0
ENDBLK
  5
1AF7
330
1AEC
100
AcDbEntity
  8
0
100
AcDbBlockEnd
  0
BLOCK
  5
1BB8
330
1BAE
100
AcDbEntity
  8
0
 62
     3
100
AcDbBlockBegin
  2
*D26
 70
     1
 10
0.0
 20
0.0
 30
0.0
  3
*D26
  1

  0
LINE
  5
1C54
330
1BAE
100
AcDbEntity
  8
実形
 62
     0
370
    18
100
AcDbLine
 10
457.2625820597689
 20
758.8310236590463
 30
0.0
 11
379.2628039510538
 21
758.8310236590463
 31
0.0
  0
LINE
  5
1C55
330
1BAE
100
AcDbEntity
  8
実形
 62
     0
370
    18
100
AcDbLine
 10
458.2413597009447
 20
740.8310236590462
 30
0.0
 11
379.2628039510538
 21
740.8310236590462
 31
0.0
  0
LINE
  5
1C56
330
1BAE
100
AcDbEntity
  8
実形
 62
     0
370
    18
100
AcDbLine
 10
379.2628039510538
 20
758.8310236590463
 30
0.0
 11
379.2628039510538
 21
740.8310236590462
 31
0.0
  0
MTEXT
  5
1C57
330
1BAE
100
AcDbEntity
  8
実形
 62
     0
100
AcDbMText
 10
299.0607232837003
 20
810.3775030041052
 30
0.0
 40
25.0
 41
0.0
 71
     5
 72
     1
  1
18
 11
0.0000000000000001
 21
1.0
 31
0.0
 73
     1
 44
1.0
1001
ACAD
1000
MTEXTBEGIN
1070
    73
1070
     1
1070
    44
1040
1.0
1070
    74
1070
     0
1000
MTEXTEND
  0
INSERT
  5
1C58
330
1BAE
100
AcDbEntity
  8
実形
 62
     0
370
    18
100
AcDbBlockReference
  2
_DotSmall
 10
379.2628039510538
 20
758.8310236590463
 30
0.0
 41
35.0
 42
35.0
 43
35.0
 50
90.0
  0
INSERT
  5
1C59
330
1BAE
100
AcDbEntity
  8
実形
 62
     0
370
    18
100
AcDbBlockReference
  2
_DotSmall
 10
379.2628039510538
 20
740.8310236590462
 30
0.0
 41
35.0
 42
35.0
 43
35.0
 50
270.0
  0
POINT
  5
1C5A
330
1BAE
100
AcDbEntity
  8
Defpoints
 62
     0
100
AcDbPoint
 10
522.2625820597689
 20
758.8310236590463
 30
0.0
  0
POINT
  5
1C5B
330
1BAE
100
AcDbEntity
  8
Defpoints
 62
     0
100
AcDbPoint
 10
523.2413597009447
 20
740.8310236590462
 30
0.0
  0
POINT
  5
1C5C
330
1BAE
100
AcDbEntity
  8
Defpoints
 62
     0
100
AcDbPoint
 10
379.2628039510538
 20
740.8310236590462
 30
0.0
  0
ENDBLK
  5
1BB9
330
1BAE
100
AcDbEntity
  8
0
 62
     3
100
AcDbBlockEnd
  0
BLOCK
  5
1BC6
330
1BBA
100
AcDbEntity
  8
0
 62
     3
100
AcDbBlockBegin
  2
*D27
 70
     1
 10
0.0
 20
0.0
 30
0.0
  3
*D27
  1

  0
LINE
  5
1C49
330
1BBA
100
AcDbEntity
  8
実形
 62
     0
370
    18
100
AcDbLine
 10
458.2413597009447
 20
740.8310236590462
 30
0.0
 11
379.2628039510538
 21
740.8310236590462
 31
0.0
  0
LINE
  5
1C4A
330
1BBA
100
AcDbEntity
  8
実形
 62
     0
370
    18
100
AcDbLine
 10
458.2413597009447
 20
735.6310236590464
 30
0.0
 11
379.2628039510538
 21
735.6310236590464
 31
0.0
  0
LINE
  5
1C4B
330
1BBA
100
AcDbEntity
  8
実形
 62
     0
370
    18
100
AcDbLine
 10
379.2628039510538
 20
740.8310236590462
 30
0.0
 11
379.2628039510538
 21
775.8310236590463
 31
0.0
  0
LINE
  5
1C4C
330
1BBA
100
AcDbEntity
  8
実形
 62
     0
370
    18
100
AcDbLine
 10
379.2628039510538
 20
735.6310236590464
 30
0.0
 11
379.2628039510538
 21
700.6310236590463
 31
0.0
  0
MTEXT
  5
1C4D
330
1BBA
100
AcDbEntity
  8
実形
 62
     0
100
AcDbMText
 10
301.8355737050799
 20
712.5707412031044
 30
0.0
 40
25.0
 41
0.0
 71
     5
 72
     1
  1
5.2
 11
0.0000000000000001
 21
1.0
 31
0.0
 73
     1
 44
1.0
1001
ACAD
1000
MTEXTBEGIN
1070
    73
1070
     1
1070
    44
1040
1.0
1070
    74
1070
     0
1000
MTEXTEND
  0
LINE
  5
1C4E
330
1BBA
100
AcDbEntity
  8
実形
 62
     0
370
    18
100
AcDbLine
 10
379.2628039510538
 20
740.8310236590462
 30
0.0
 11
379.2628039510538
 21
735.6310236590464
 31
0.0
  0
INSERT
  5
1C4F
330
1BBA
100
AcDbEntity
  8
実形
 62
     0
370
    18
100
AcDbBlockReference
  2
_DotSmall
 10
379.2628039510538
 20
740.8310236590462
 30
0.0
 41
35.0
 42
35.0
 43
35.0
 50
270.0
  0
INSERT
  5
1C50
330
1BBA
100
AcDbEntity
  8
実形
 62
     0
370
    18
100
AcDbBlockReference
  2
_DotSmall
 10
379.2628039510538
 20
735.6310236590464
 30
0.0
 41
35.0
 42
35.0
 43
35.0
 50
90.0
  0
POINT
  5
1C51
330
1BBA
100
AcDbEntity
  8
Defpoints
 62
     0
100
AcDbPoint
 10
523.2413597009447
 20
740.8310236590462
 30
0.0
  0
POINT
  5
1C52
330
1BBA
100
AcDbEntity
  8
Defpoints
 62
     0
100
AcDbPoint
 10
523.2413597009447
 20
735.6310236590464
 30
0.0
  0
POINT
  5
1C53
330
1BBA
100
AcDbEntity
  8
Defpoints
 62
     0
100
AcDbPoint
 10
379.2628039510538
 20
735.6310236590464
 30
0.0
  0
ENDBLK
  5
1BC7
330
1BBA
100
AcDbEntity
  8
0
 62
     3
100
AcDbBlockEnd
  0
BLOCK
  5
1BD2
330
1BC8
100
AcDbEntity
  8
0
 62
     3
100
AcDbBlockBegin
  2
*D28
 70
     1
 10
0.0
 20
0.0
 30
0.0
  3
*D28
  1

  0
LINE
  5
1C40
330
1BC8
100
AcDbEntity
  8
実形
 62
     0
370
    18
100
AcDbLine
 10
458.2413597009447
 20
735.6310236590464
 30
0.0
 11
379.2628039510538
 21
735.6310236590464
 31
0.0
  0
LINE
  5
1C41
330
1BC8
100
AcDbEntity
  8
実形
 62
     0
370
    18
100
AcDbLine
 10
403.1748519261975
 20
560.6310236590462
 30
0.0
 11
379.2628039510538
 21
560.6310236590462
 31
0.0
  0
LINE
  5
1C42
330
1BC8
100
AcDbEntity
  8
実形
 62
     0
370
    18
100
AcDbLine
 10
379.2628039510538
 20
735.6310236590464
 30
0.0
 11
379.2628039510538
 21
560.6310236590462
 31
0.0
  0
MTEXT
  5
1C43
330
1BC8
100
AcDbEntity
  8
実形
 62
     0
100
AcDbMText
 10
353.3889776065236
 20
631.3937755432981
 30
0.0
 40
25.0
 41
0.0
 71
     5
 72
     1
  1
175
 11
0.0000000000000001
 21
1.0
 31
0.0
 73
     1
 44
1.0
1001
ACAD
1000
MTEXTBEGIN
1070
    73
1070
     1
1070
    44
1040
1.0
1070
    74
1070
     0
1000
MTEXTEND
  0
INSERT
  5
1C44
330
1BC8
100
AcDbEntity
  8
実形
 62
     0
370
    18
100
AcDbBlockReference
  2
_DotSmall
 10
379.2628039510538
 20
735.6310236590464
 30
0.0
 41
35.0
 42
35.0
 43
35.0
 50
90.0
  0
INSERT
  5
1C45
330
1BC8
100
AcDbEntity
  8
実形
 62
     0
370
    18
100
AcDbBlockReference
  2
_DotSmall
 10
379.2628039510538
 20
560.6310236590462
 30
0.0
 41
35.0
 42
35.0
 43
35.0
 50
270.0
  0
POINT
  5
1C46
330
1BC8
100
AcDbEntity
  8
Defpoints
 62
     0
100
AcDbPoint
 10
523.2413597009447
 20
735.6310236590464
 30
0.0
  0
POINT
  5
1C47
330
1BC8
100
AcDbEntity
  8
Defpoints
 62
     0
100
AcDbPoint
 10
468.1748519261975
 20
560.6310236590462
 30
0.0
  0
POINT
  5
1C48
330
1BC8
100
AcDbEntity
  8
Defpoints
 62
     0
100
AcDbPoint
 10
379.2628039510538
 20
560.6310236590462
 30
0.0
  0
ENDBLK
  5
1BD3
330
1BC8
100
AcDbEntity
  8
0
 62
     3
100
AcDbBlockEnd
  0
BLOCK
  5
1BDE
330
1BD4
100
AcDbEntity
  8
0
 62
     3
100
AcDbBlockBegin
  2
*D29
 70
     1
 10
0.0
 20
0.0
 30
0.0
  3
*D29
  1

  0
LINE
  5
1C37
330
1BD4
100
AcDbEntity
  8
実形
 62
     0
370
    18
100
AcDbLine
 10
457.2625820597689
 20
758.8310236590463
 30
0.0
 11
268.6409055004126
 21
758.8310236590463
 31
0.0
  0
LINE
  5
1C38
330
1BD4
100
AcDbEntity
  8
実形
 62
     0
370
    18
100
AcDbLine
 10
403.1748519261975
 20
560.6310236590462
 30
0.0
 11
268.6409055004125
 21
560.6310236590462
 31
0.0
  0
LINE
  5
1C39
330
1BD4
100
AcDbEntity
  8
実形
 62
     0
370
    18
100
AcDbLine
 10
268.6409055004126
 20
758.8310236590463
 30
0.0
 11
268.6409055004125
 21
560.6310236590462
 31
0.0
  0
INSERT
  5
1C3A
330
1BD4
100
AcDbEntity
  8
実形
 62
     0
370
    18
100
AcDbBlockReference
  2
_DotSmall
 10
268.6409055004126
 20
758.8310236590463
 30
0.0
 41
35.0
 42
35.0
 43
35.0
 50
90.0
  0
INSERT
  5
1C3B
330
1BD4
100
AcDbEntity
  8
実形
 62
     0
370
    18
100
AcDbBlockReference
  2
_DotSmall
 10
268.6409055004125
 20
560.6310236590462
 30
0.0
 41
35.0
 42
35.0
 43
35.0
 50
270.0
  0
MTEXT
  5
1C3C
330
1BD4
100
AcDbEntity
  8
実形
 62
     0
100
AcDbMText
 10
249.8909055004125
 20
659.7310236590463
 30
0.0
 40
25.0
 41
0.0
 71
     5
 72
     1
  1
198.2
 11
0.0000000000000001
 21
1.0
 31
0.0
 73
     1
 44
1.0
1001
ACAD
1000
MTEXTBEGIN
1070
    73
1070
     1
1070
    44
1040
1.0
1070
    74
1070
     0
1000
MTEXTEND
  0
POINT
  5
1C3D
330
1BD4
100
AcDbEntity
  8
Defpoints
 62
     0
100
AcDbPoint
 10
522.2625820597689
 20
758.8310236590463
 30
0.0
  0
POINT
  5
1C3E
330
1BD4
100
AcDbEntity
  8
Defpoints
 62
     0
100
AcDbPoint
 10
468.1748519261975
 20
560.6310236590462
 30
0.0
  0
POINT
  5
1C3F
330
1BD4
100
AcDbEntity
  8
Defpoints
 62
     0
100
AcDbPoint
 10
268.6409055004125
 20
560.6310236590462
 30
0.0
  0
ENDBLK
  5
1BDF
330
1BD4
100
AcDbEntity
  8
0
 62
     3
100
AcDbBlockEnd
  0
BLOCK
  5
1BEC
330
1BE0
100
AcDbEntity
  8
0
 62
     3
100
AcDbBlockBegin
  2
*D30
 70
     1
 10
0.0
 20
0.0
 30
0.0
  3
*D30
  1

  0
LINE
  5
1C2C
330
1BE0
100
AcDbEntity
  8
実形
 62
     0
370
    18
100
AcDbLine
 10
459.3347575101772
 20
560.6310236590462
 30
0.0
 11
379.2628039510538
 21
560.6310236590462
 31
0.0
  0
LINE
  5
1C2D
330
1BE0
100
AcDbEntity
  8
実形
 62
     0
370
    18
100
AcDbLine
 10
459.3347575101772
 20
550.6310236590462
 30
0.0
 11
379.2628039510538
 21
550.6310236590462
 31
0.0
  0
LINE
  5
1C2E
330
1BE0
100
AcDbEntity
  8
実形
 62
     0
370
    18
100
AcDbLine
 10
379.2628039510538
 20
560.6310236590462
 30
0.0
 11
379.2628039510538
 21
595.6310236590462
 31
0.0
  0
LINE
  5
1C2F
330
1BE0
100
AcDbEntity
  8
実形
 62
     0
370
    18
100
AcDbLine
 10
379.2628039510538
 20
550.6310236590462
 30
0.0
 11
379.2628039510538
 21
515.6310236590463
 31
0.0
  0
MTEXT
  5
1C30
330
1BE0
100
AcDbEntity
  8
実形
 62
     0
100
AcDbMText
 10
344.2628039510537
 20
544.2932399948095
 30
0.0
 40
25.0
 41
0.0
 71
     5
 72
     1
  1
7
 11
0.0000000000000001
 21
1.0
 31
0.0
 73
     1
 44
1.0
1001
ACAD
1000
MTEXTBEGIN
1070
    73
1070
     1
1070
    44
1040
1.0
1070
    74
1070
     0
1000
MTEXTEND
  0
LINE
  5
1C31
330
1BE0
100
AcDbEntity
  8
実形
 62
     0
370
    18
100
AcDbLine
 10
379.2628039510538
 20
560.6310236590462
 30
0.0
 11
379.2628039510538
 21
550.6310236590462
 31
0.0
  0
INSERT
  5
1C32
330
1BE0
100
AcDbEntity
  8
実形
 62
     0
370
    18
100
AcDbBlockReference
  2
_DotSmall
 10
379.2628039510538
 20
560.6310236590462
 30
0.0
 41
35.0
 42
35.0
 43
35.0
 50
270.0
  0
INSERT
  5
1C33
330
1BE0
100
AcDbEntity
  8
実形
 62
     0
370
    18
100
AcDbBlockReference
  2
_DotSmall
 10
379.2628039510538
 20
550.6310236590462
 30
0.0
 41
35.0
 42
35.0
 43
35.0
 50
90.0
  0
POINT
  5
1C34
330
1BE0
100
AcDbEntity
  8
Defpoints
 62
     0
100
AcDbPoint
 10
524.3347575101772
 20
560.6310236590462
 30
0.0
  0
POINT
  5
1C35
330
1BE0
100
AcDbEntity
  8
Defpoints
 62
     0
100
AcDbPoint
 10
524.3347575101772
 20
550.6310236590462
 30
0.0
  0
POINT
  5
1C36
330
1BE0
100
AcDbEntity
  8
Defpoints
 62
     0
100
AcDbPoint
 10
379.2628039510538
 20
550.6310236590462
 30
0.0
  0
ENDBLK
  5
1BED
330
1BE0
100
AcDbEntity
  8
0
 62
     3
100
AcDbBlockEnd
  0
BLOCK
  5
1CFC
330
1CF2
100
AcDbEntity
  8
0
 62
     3
100
AcDbBlockBegin
  2
*D31
 70
     1
 10
0.0
 20
0.0
 30
0.0
  3
*D31
  1

  0
LINE
  5
1E1E
330
1CF2
100
AcDbEntity
  8
実形
 62
     0
370
    15
100
AcDbLine
 10
1741.083063190024
 20
1565.631023659046
 30
0.0
 11
1786.389207281944
 21
1565.631023659046
 31
0.0
  0
LINE
  5
1E1F
330
1CF2
100
AcDbEntity
  8
実形
 62
     0
370
    15
100
AcDbLine
 10
1741.083063190024
 20
1405.631023659046
 30
0.0
 11
1786.389207281944
 21
1405.631023659046
 31
0.0
  0
LINE
  5
1E20
330
1CF2
100
AcDbEntity
  8
実形
 62
     0
370
    18
100
AcDbLine
 10
1786.389207281944
 20
1565.631023659046
 30
0.0
 11
1786.389207281944
 21
1405.631023659046
 31
0.0
  0
INSERT
  5
1E21
330
1CF2
100
AcDbEntity
  8
実形
 62
     0
370
    18
100
AcDbBlockReference
  2
_DotSmall
 10
1786.389207281944
 20
1565.631023659046
 30
0.0
 41
35.0
 42
35.0
 43
35.0
 50
90.0
  0
INSERT
  5
1E22
330
1CF2
100
AcDbEntity
  8
実形
 62
     0
370
    18
100
AcDbBlockReference
  2
_DotSmall
 10
1786.389207281944
 20
1405.631023659046
 30
0.0
 41
35.0
 42
35.0
 43
35.0
 50
270.0
  0
MTEXT
  5
1E23
330
1CF2
100
AcDbEntity
  8
実形
 62
     0
100
AcDbMText
 10
1767.639207281944
 20
1485.631023659047
 30
0.0
 40
25.0
 41
0.0
 71
     5
 72
     1
  1
158
 11
0.0000000000000001
 21
1.0
 31
0.0
 73
     1
 44
1.0
1001
ACAD
1000
MTEXTBEGIN
1070
    73
1070
     1
1070
    44
1040
1.0
1070
    74
1070
     0
1000
MTEXTEND
  0
POINT
  5
1E24
330
1CF2
100
AcDbEntity
  8
Defpoints
 62
     0
100
AcDbPoint
 10
1676.083063190024
 20
1565.631023659046
 30
0.0
  0
POINT
  5
1E25
330
1CF2
100
AcDbEntity
  8
Defpoints
 62
     0
100
AcDbPoint
 10
1676.083063190024
 20
1405.631023659046
 30
0.0
  0
POINT
  5
1E26
330
1CF2
100
AcDbEntity
  8
Defpoints
 62
     0
100
AcDbPoint
 10
1786.389207281944
 20
1405.631023659046
 30
0.0
  0
ENDBLK
  5
1CFD
330
1CF2
100
AcDbEntity
  8
0
 62
     3
100
AcDbBlockEnd
  0
BLOCK
  5
1D08
330
1CFE
100
AcDbEntity
  8
0
 62
     3
100
AcDbBlockBegin
  2
*D32
 70
     1
 10
0.0
 20
0.0
 30
0.0
  3
*D32
  1

  0
LINE
  5
1E15
330
1CFE
100
AcDbEntity
  8
実形
 62
     0
370
    15
100
AcDbLine
 10
1741.083063190024
 20
1576.131023659046
 30
0.0
 11
1836.035478038925
 21
1576.131023659046
 31
0.0
  0
LINE
  5
1E16
330
1CFE
100
AcDbEntity
  8
実形
 62
     0
370
    15
100
AcDbLine
 10
1741.083063190024
 20
1395.131023659046
 30
0.0
 11
1836.035478038925
 21
1395.131023659046
 31
0.0
  0
LINE
  5
1E17
330
1CFE
100
AcDbEntity
  8
実形
 62
     0
370
    18
100
AcDbLine
 10
1836.035478038925
 20
1576.131023659046
 30
0.0
 11
1836.035478038925
 21
1395.131023659046
 31
0.0
  0
INSERT
  5
1E18
330
1CFE
100
AcDbEntity
  8
実形
 62
     0
370
    18
100
AcDbBlockReference
  2
_DotSmall
 10
1836.035478038925
 20
1576.131023659046
 30
0.0
 41
35.0
 42
35.0
 43
35.0
 50
90.0
  0
INSERT
  5
1E19
330
1CFE
100
AcDbEntity
  8
実形
 62
     0
370
    18
100
AcDbBlockReference
  2
_DotSmall
 10
1836.035478038925
 20
1395.131023659046
 30
0.0
 41
35.0
 42
35.0
 43
35.0
 50
270.0
  0
MTEXT
  5
1E1A
330
1CFE
100
AcDbEntity
  8
実形
 62
     0
100
AcDbMText
 10
1817.285478038925
 20
1485.631023659047
 30
0.0
 40
25.0
 41
0.0
 71
     5
 72
     1
  1
181
 11
0.0000000000000001
 21
1.0
 31
0.0
 73
     1
 44
1.0
1001
ACAD
1000
MTEXTBEGIN
1070
    73
1070
     1
1070
    44
1040
1.0
1070
    74
1070
     0
1000
MTEXTEND
  0
POINT
  5
1E1B
330
1CFE
100
AcDbEntity
  8
Defpoints
 62
     0
100
AcDbPoint
 10
1676.083063190024
 20
1576.131023659046
 30
0.0
  0
POINT
  5
1E1C
330
1CFE
100
AcDbEntity
  8
Defpoints
 62
     0
100
AcDbPoint
 10
1676.083063190024
 20
1395.131023659046
 30
0.0
  0
POINT
  5
1E1D
330
1CFE
100
AcDbEntity
  8
Defpoints
 62
     0
100
AcDbPoint
 10
1836.035478038925
 20
1395.131023659046
 30
0.0
  0
ENDBLK
  5
1D09
330
1CFE
100
AcDbEntity
  8
0
 62
     3
100
AcDbBlockEnd
  0
BLOCK
  5
1DA1
330
1D97
100
AcDbEntity
  8
0
 62
     3
100
AcDbBlockBegin
  2
*D33
 70
     1
 10
0.0
 20
0.0
 30
0.0
  3
*D33
  1

  0
LINE
  5
1E0C
330
1D97
100
AcDbEntity
  8
実形
 62
     0
370
    18
100
AcDbLine
 10
1458.283063190024
 20
1145.784882509066
 30
0.0
 11
1458.283063190024
 21
1049.977895364868
 31
0.0
  0
LINE
  5
1E0D
330
1D97
100
AcDbEntity
  8
実形
 62
     0
370
    18
100
AcDbLine
 10
1476.283063190024
 20
1145.784882509066
 30
0.0
 11
1476.283063190024
 21
1049.977895364868
 31
0.0
  0
LINE
  5
1E0E
330
1D97
100
AcDbEntity
  8
実形
 62
     0
370
    18
100
AcDbLine
 10
1458.283063190024
 20
1049.977895364868
 30
0.0
 11
1476.283063190024
 21
1049.977895364868
 31
0.0
  0
MTEXT
  5
1E0F
330
1D97
100
AcDbEntity
  8
実形
 62
     0
100
AcDbMText
 10
1427.15118028888
 20
1078.594182066272
 30
0.0
 40
25.0
 41
0.0
 71
     5
 72
     1
  1
18
 73
     1
 44
1.0
1001
ACAD
1000
MTEXTBEGIN
1070
    73
1070
     1
1070
    44
1040
1.0
1070
    74
1070
     0
1000
MTEXTEND
  0
INSERT
  5
1E10
330
1D97
100
AcDbEntity
  8
実形
 62
     0
370
    18
100
AcDbBlockReference
  2
_DotSmall
 10
1458.283063190024
 20
1049.977895364868
 30
0.0
 41
35.0
 42
35.0
 43
35.0
 50
180.0
  0
INSERT
  5
1E11
330
1D97
100
AcDbEntity
  8
実形
 62
     0
370
    18
100
AcDbBlockReference
  2
_DotSmall
 10
1476.283063190024
 20
1049.977895364868
 30
0.0
 41
35.0
 42
35.0
 43
35.0
  0
POINT
  5
1E12
330
1D97
100
AcDbEntity
  8
Defpoints
 62
     0
100
AcDbPoint
 10
1458.283063190024
 20
1210.784882509066
 30
0.0
  0
POINT
  5
1E13
330
1D97
100
AcDbEntity
  8
Defpoints
 62
     0
100
AcDbPoint
 10
1476.283063190024
 20
1210.784882509066
 30
0.0
  0
POINT
  5
1E14
330
1D97
100
AcDbEntity
  8
Defpoints
 62
     0
100
AcDbPoint
 10
1476.283063190024
 20
1049.977895364868
 30
0.0
  0
ENDBLK
  5
1DA2
330
1D97
100
AcDbEntity
  8
0
 62
     3
100
AcDbBlockEnd
  0
BLOCK
  5
1DAD
330
1DA3
100
AcDbEntity
  8
0
 62
     3
100
AcDbBlockBegin
  2
*D34
 70
     1
 10
0.0
 20
0.0
 30
0.0
  3
*D34
  1

  0
LINE
  5
1E03
330
1DA3
100
AcDbEntity
  8
実形
 62
     0
370
    18
100
AcDbLine
 10
1476.283063190024
 20
1145.784882509066
 30
0.0
 11
1476.283063190024
 21
1049.977895364868
 31
0.0
  0
LINE
  5
1E04
330
1DA3
100
AcDbEntity
  8
実形
 62
     0
370
    18
100
AcDbLine
 10
1656.483063190024
 20
1145.784882509066
 30
0.0
 11
1656.483063190024
 21
1049.977895364868
 31
0.0
  0
LINE
  5
1E05
330
1DA3
100
AcDbEntity
  8
実形
 62
     0
370
    18
100
AcDbLine
 10
1476.283063190024
 20
1049.977895364868
 30
0.0
 11
1656.483063190024
 21
1049.977895364868
 31
0.0
  0
INSERT
  5
1E06
330
1DA3
100
AcDbEntity
  8
実形
 62
     0
370
    18
100
AcDbBlockReference
  2
_DotSmall
 10
1476.283063190024
 20
1049.977895364868
 30
0.0
 41
35.0
 42
35.0
 43
35.0
 50
180.0
  0
INSERT
  5
1E07
330
1DA3
100
AcDbEntity
  8
実形
 62
     0
370
    18
100
AcDbBlockReference
  2
_DotSmall
 10
1656.483063190024
 20
1049.977895364868
 30
0.0
 41
35.0
 42
35.0
 43
35.0
  0
MTEXT
  5
1E08
330
1DA3
100
AcDbEntity
  8
実形
 62
     0
100
AcDbMText
 10
1566.383063190024
 20
1068.727895364868
 30
0.0
 40
25.0
 41
0.0
 71
     5
 72
     1
  1
180.2
 73
     1
 44
1.0
1001
ACAD
1000
MTEXTBEGIN
1070
    73
1070
     1
1070
    44
1040
1.0
1070
    74
1070
     0
1000
MTEXTEND
  0
POINT
  5
1E09
330
1DA3
100
AcDbEntity
  8
Defpoints
 62
     0
100
AcDbPoint
 10
1476.283063190024
 20
1210.784882509066
 30
0.0
  0
POINT
  5
1E0A
330
1DA3
100
AcDbEntity
  8
Defpoints
 62
     0
100
AcDbPoint
 10
1656.483063190024
 20
1210.784882509066
 30
0.0
  0
POINT
  5
1E0B
330
1DA3
100
AcDbEntity
  8
Defpoints
 62
     0
100
AcDbPoint
 10
1656.483063190024
 20
1049.977895364868
 30
0.0
  0
ENDBLK
  5
1DAE
330
1DA3
100
AcDbEntity
  8
0
 62
     3
100
AcDbBlockEnd
  0
BLOCK
  5
1DBB
330
1DAF
100
AcDbEntity
  8
0
 62
     3
100
AcDbBlockBegin
  2
*D35
 70
     1
 10
0.0
 20
0.0
 30
0.0
  3
*D35
  1

  0
LINE
  5
1DF8
330
1DAF
100
AcDbEntity
  8
実形
 62
     0
370
    18
100
AcDbLine
 10
1656.483063190024
 20
1145.784882509066
 30
0.0
 11
1656.483063190024
 21
1093.686476392865
 31
0.0
  0
LINE
  5
1DF9
330
1DAF
100
AcDbEntity
  8
実形
 62
     0
370
    18
100
AcDbLine
 10
1666.483063190024
 20
1145.784882509066
 30
0.0
 11
1666.483063190024
 21
1093.686476392865
 31
0.0
  0
LINE
  5
1DFA
330
1DAF
100
AcDbEntity
  8
実形
 62
     0
370
    18
100
AcDbLine
 10
1656.483063190024
 20
1093.686476392865
 30
0.0
 11
1621.483063190024
 21
1093.686476392865
 31
0.0
  0
LINE
  5
1DFB
330
1DAF
100
AcDbEntity
  8
実形
 62
     0
370
    18
100
AcDbLine
 10
1666.483063190024
 20
1093.686476392865
 30
0.0
 11
1701.483063190024
 21
1093.686476392865
 31
0.0
  0
MTEXT
  5
1DFC
330
1DAF
100
AcDbEntity
  8
実形
 62
     0
100
AcDbMText
 10
1698.944024356717
 20
1116.871880571415
 30
0.0
 40
25.0
 41
0.0
 71
     5
 72
     1
  1
7
 73
     1
 44
1.0
1001
ACAD
1000
MTEXTBEGIN
1070
    73
1070
     1
1070
    44
1040
1.0
1070
    74
1070
     0
1000
MTEXTEND
  0
LINE
  5
1DFD
330
1DAF
100
AcDbEntity
  8
実形
 62
     0
370
    18
100
AcDbLine
 10
1656.483063190024
 20
1093.686476392865
 30
0.0
 11
1666.483063190024
 21
1093.686476392865
 31
0.0
  0
INSERT
  5
1DFE
330
1DAF
100
AcDbEntity
  8
実形
 62
     0
370
    18
100
AcDbBlockReference
  2
_DotSmall
 10
1656.483063190024
 20
1093.686476392865
 30
0.0
 41
35.0
 42
35.0
 43
35.0
  0
INSERT
  5
1DFF
330
1DAF
100
AcDbEntity
  8
実形
 62
     0
370
    18
100
AcDbBlockReference
  2
_DotSmall
 10
1666.483063190024
 20
1093.686476392865
 30
0.0
 41
35.0
 42
35.0
 43
35.0
 50
180.0
  0
POINT
  5
1E00
330
1DAF
100
AcDbEntity
  8
Defpoints
 62
     0
100
AcDbPoint
 10
1656.483063190024
 20
1210.784882509066
 30
0.0
  0
POINT
  5
1E01
330
1DAF
100
AcDbEntity
  8
Defpoints
 62
     0
100
AcDbPoint
 10
1666.483063190024
 20
1210.784882509066
 30
0.0
  0
POINT
  5
1E02
330
1DAF
100
AcDbEntity
  8
Defpoints
 62
     0
100
AcDbPoint
 10
1666.483063190024
 20
1093.686476392865
 30
0.0
  0
ENDBLK
  5
1DBC
330
1DAF
100
AcDbEntity
  8
0
 62
     3
100
AcDbBlockEnd
  0
BLOCK
  5
1DC7
330
1DBD
100
AcDbEntity
  8
0
 62
     3
100
AcDbBlockBegin
  2
*D36
 70
     1
 10
0.0
 20
0.0
 30
0.0
  3
*D36
  1

  0
LINE
  5
1DEF
330
1DBD
100
AcDbEntity
  8
実形
 62
     0
370
    18
100
AcDbLine
 10
1458.283063190024
 20
1145.784882509066
 30
0.0
 11
1458.283063190024
 21
991.1998074146763
 31
0.0
  0
LINE
  5
1DF0
330
1DBD
100
AcDbEntity
  8
実形
 62
     0
370
    18
100
AcDbLine
 10
1656.483063190024
 20
1145.784882509066
 30
0.0
 11
1656.483063190024
 21
991.1998074146763
 31
0.0
  0
LINE
  5
1DF1
330
1DBD
100
AcDbEntity
  8
実形
 62
     0
370
    18
100
AcDbLine
 10
1458.283063190024
 20
991.1998074146763
 30
0.0
 11
1656.483063190024
 21
991.1998074146763
 31
0.0
  0
INSERT
  5
1DF2
330
1DBD
100
AcDbEntity
  8
実形
 62
     0
370
    18
100
AcDbBlockReference
  2
_DotSmall
 10
1458.283063190024
 20
991.1998074146763
 30
0.0
 41
35.0
 42
35.0
 43
35.0
 50
180.0
  0
INSERT
  5
1DF3
330
1DBD
100
AcDbEntity
  8
実形
 62
     0
370
    18
100
AcDbBlockReference
  2
_DotSmall
 10
1656.483063190024
 20
991.1998074146763
 30
0.0
 41
35.0
 42
35.0
 43
35.0
  0
MTEXT
  5
1DF4
330
1DBD
100
AcDbEntity
  8
実形
 62
     0
100
AcDbMText
 10
1557.383063190024
 20
1009.949807414676
 30
0.0
 40
25.0
 41
0.0
 71
     5
 72
     1
  1
198.2
 73
     1
 44
1.0
1001
ACAD
1000
MTEXTBEGIN
1070
    73
1070
     1
1070
    44
1040
1.0
1070
    74
1070
     0
1000
MTEXTEND
  0
POINT
  5
1DF5
330
1DBD
100
AcDbEntity
  8
Defpoints
 62
     0
100
AcDbPoint
 10
1458.283063190024
 20
1210.784882509066
 30
0.0
  0
POINT
  5
1DF6
330
1DBD
100
AcDbEntity
  8
Defpoints
 62
     0
100
AcDbPoint
 10
1656.483063190024
 20
1210.784882509066
 30
0.0
  0
POINT
  5
1DF7
330
1DBD
100
AcDbEntity
  8
Defpoints
 62
     0
100
AcDbPoint
 10
1656.483063190024
 20
991.1998074146763
 30
0.0
  0
ENDBLK
  5
1DC8
330
1DBD
100
AcDbEntity
  8
0
 62
     3
100
AcDbBlockEnd
  0
BLOCK
  5
1FA5
330
1F9E
100
AcDbEntity
  8
0
 62
     3
100
AcDbBlockBegin
  2
*D37
 70
     1
 10
0.0
 20
0.0
 30
0.0
  3
*D37
  1

  0
LINE
  5
208B
330
1F9E
100
AcDbEntity
  8
実形
 62
     0
370
    13
100
AcDbLine
 10
1963.10327858681
 20
562.6388787035095
 30
0.0
 11
1963.10327858681
 21
476.4445371024394
 31
0.0
  0
LINE
  5
208C
330
1F9E
100
AcDbEntity
  8
実形
 62
     0
370
    13
100
AcDbLine
 10
1947.50327858681
 20
536.8471552806368
 30
0.0
 11
1947.50327858681
 21
476.4445371024394
 31
0.0
  0
MTEXT
  5
208D
330
1F9E
100
AcDbEntity
  8
実形
 62
     0
100
AcDbMText
 10
1927.154852797523
 20
500.9356801950445
 30
0.0
 40
25.0
 41
0.0
 71
     5
 72
     1
  1
1
 73
     1
 44
1.0
1001
ACAD
1000
MTEXTBEGIN
1070
    73
1070
     1
1070
    44
1040
1.0
1070
    74
1070
     0
1000
MTEXTEND
  0
POINT
  5
208E
330
1F9E
100
AcDbEntity
  8
Defpoints
 62
     0
100
AcDbPoint
 10
1963.10327858681
 20
568.6388787035094
 30
0.0
  0
POINT
  5
208F
330
1F9E
100
AcDbEntity
  8
Defpoints
 62
     0
100
AcDbPoint
 10
1947.50327858681
 20
542.8471552806367
 30
0.0
  0
POINT
  5
2090
330
1F9E
100
AcDbEntity
  8
Defpoints
 62
     0
100
AcDbPoint
 10
1947.50327858681
 20
476.4445371024394
 30
0.0
  0
ENDBLK
  5
1FA6
330
1F9E
100
AcDbEntity
  8
0
 62
     3
100
AcDbBlockEnd
  0
BLOCK
  5
1FB1
330
1FA7
100
AcDbEntity
  8
0
 62
     3
100
AcDbBlockBegin
  2
*D38
 70
     1
 10
0.0
 20
0.0
 30
0.0
  3
*D38
  1

  0
LINE
  5
2091
330
1FA7
100
AcDbEntity
  8
実形
 62
     0
370
    18
100
AcDbLine
 10
1963.103278586809
 20
601.2515538480251
 30
0.0
 11
1963.103278586809
 21
626.499025413821
 31
0.0
  0
LINE
  5
2092
330
1FA7
100
AcDbEntity
  8
実形
 62
     0
370
    18
100
AcDbLine
 10
2197.103278586809
 20
601.2515538480251
 30
0.0
 11
2197.103278586809
 21
626.499025413821
 31
0.0
  0
LINE
  5
2093
330
1FA7
100
AcDbEntity
  8
実形
 62
     0
370
    18
100
AcDbLine
 10
1963.103278586809
 20
626.499025413821
 30
0.0
 11
2197.103278586809
 21
626.499025413821
 31
0.0
  0
INSERT
  5
2094
330
1FA7
100
AcDbEntity
  8
実形
 62
     0
370
    18
100
AcDbBlockReference
  2
_DotSmall
 10
1963.103278586809
 20
626.499025413821
 30
0.0
 41
35.0
 42
35.0
 43
35.0
 50
180.0
  0
INSERT
  5
2095
330
1FA7
100
AcDbEntity
  8
実形
 62
     0
370
    18
100
AcDbBlockReference
  2
_DotSmall
 10
2197.103278586809
 20
626.499025413821
 30
0.0
 41
35.0
 42
35.0
 43
35.0
  0
MTEXT
  5
2096
330
1FA7
100
AcDbEntity
  8
実形
 62
     0
100
AcDbMText
 10
2080.103278586809
 20
645.249025413821
 30
0.0
 40
25.0
 41
0.0
 71
     5
 72
     1
  1
15
 73
     1
 44
1.0
1001
ACAD
1000
MTEXTBEGIN
1070
    73
1070
     1
1070
    44
1040
1.0
1070
    74
1070
     0
1000
MTEXTEND
  0
POINT
  5
2097
330
1FA7
100
AcDbEntity
  8
Defpoints
 62
     0
100
AcDbPoint
 10
1963.103278586809
 20
536.2515538480251
 30
0.0
  0
POINT
  5
2098
330
1FA7
100
AcDbEntity
  8
Defpoints
 62
     0
100
AcDbPoint
 10
2197.103278586809
 20
536.2515538480251
 30
0.0
  0
POINT
  5
2099
330
1FA7
100
AcDbEntity
  8
Defpoints
 62
     0
100
AcDbPoint
 10
2197.103278586809
 20
626.499025413821
 30
0.0
  0
ENDBLK
  5
1FB2
330
1FA7
100
AcDbEntity
  8
0
 62
     3
100
AcDbBlockEnd
  0
BLOCK
  5
1FBD
330
1FB3
100
AcDbEntity
  8
0
 62
     3
100
AcDbBlockBegin
  2
*D39
 70
     1
 10
0.0
 20
0.0
 30
0.0
  3
*D39
  1

  0
LINE
  5
209A
330
1FB3
100
AcDbEntity
  8
実形
 62
     0
370
    18
100
AcDbLine
 10
2164.883963240635
 20
514.0388787035103
 30
0.0
 11
2101.036883161905
 21
514.0388787035103
 31
0.0
  0
LINE
  5
209B
330
1FB3
100
AcDbEntity
  8
実形
 62
     0
370
    18
100
AcDbLine
 10
2088.536592650147
 20
553.0388787035104
 30
0.0
 11
2101.036883161905
 21
553.0388787035104
 31
0.0
  0
LINE
  5
209C
330
1FB3
100
AcDbEntity
  8
実形
 62
     0
370
    18
100
AcDbLine
 10
2101.036883161905
 20
514.0388787035103
 30
0.0
 11
2101.036883161905
 21
553.0388787035104
 31
0.0
  0
MTEXT
  5
209D
330
1FB3
100
AcDbEntity
  8
実形
 62
     0
100
AcDbMText
 10
2069.564297767181
 20
524.3493911207361
 30
0.0
 40
23.0
 41
0.0
 71
     5
 72
     1
  1
2.5
 11
0.0000000000000001
 21
1.0
 31
0.0
 73
     1
 44
1.0
1001
ACAD
1000
MTEXTBEGIN
1070
    73
1070
     1
1070
    44
1040
1.0
1070
    74
1070
     0
1000
MTEXTEND
  0
INSERT
  5
209E
330
1FB3
100
AcDbEntity
  8
実形
 62
     0
370
    18
100
AcDbBlockReference
  2
_DotSmall
 10
2101.036883161905
 20
514.0388787035103
 30
0.0
 41
35.0
 42
35.0
 43
35.0
 50
270.0
  0
INSERT
  5
209F
330
1FB3
100
AcDbEntity
  8
実形
 62
     0
370
    18
100
AcDbBlockReference
  2
_DotSmall
 10
2101.036883161905
 20
553.0388787035104
 30
0.0
 41
35.0
 42
35.0
 43
35.0
 50
90.0
  0
POINT
  5
20A0
330
1FB3
100
AcDbEntity
  8
Defpoints
 62
     0
100
AcDbPoint
 10
2229.883963240635
 20
514.0388787035103
 30
0.0
  0
POINT
  5
20A1
330
1FB3
100
AcDbEntity
  8
Defpoints
 62
     0
100
AcDbPoint
 10
2153.536592650147
 20
553.0388787035104
 30
0.0
  0
POINT
  5
20A2
330
1FB3
100
AcDbEntity
  8
Defpoints
 62
     0
100
AcDbPoint
 10
2101.036883161905
 20
553.0388787035104
 30
0.0
  0
ENDBLK
  5
1FBE
330
1FB3
100
AcDbEntity
  8
0
 62
     3
100
AcDbBlockEnd
  0
BLOCK
  5
1FC9
330
1FBF
100
AcDbEntity
  8
0
 62
     3
100
AcDbBlockBegin
  2
*D40
 70
     1
 10
0.0
 20
0.0
 30
0.0
  3
*D40
  1

  0
LINE
  5
20A3
330
1FBF
100
AcDbEntity
  8
実形
 62
     0
370
    18
100
AcDbLine
 10
2150.30327858681
 20
457.3587244814916
 30
0.0
 11
2150.30327858681
 21
461.4323905324424
 31
0.0
  0
LINE
  5
20A4
330
1FBF
100
AcDbEntity
  8
実形
 62
     0
370
    18
100
AcDbLine
 10
2228.303278586809
 20
457.3587244814916
 30
0.0
 11
2228.303278586809
 21
461.4323905324424
 31
0.0
  0
LINE
  5
20A5
330
1FBF
100
AcDbEntity
  8
実形
 62
     0
370
    18
100
AcDbLine
 10
2150.30327858681
 20
461.4323905324424
 30
0.0
 11
2228.303278586809
 21
461.4323905324424
 31
0.0
  0
INSERT
  5
20A6
330
1FBF
100
AcDbEntity
  8
実形
 62
     0
370
    18
100
AcDbBlockReference
  2
_DotSmall
 10
2150.30327858681
 20
461.4323905324424
 30
0.0
 41
35.0
 42
35.0
 43
35.0
 50
180.0
  0
INSERT
  5
20A7
330
1FBF
100
AcDbEntity
  8
実形
 62
     0
370
    18
100
AcDbBlockReference
  2
_DotSmall
 10
2228.303278586809
 20
461.4323905324424
 30
0.0
 41
35.0
 42
35.0
 43
35.0
  0
MTEXT
  5
20A8
330
1FBF
100
AcDbEntity
  8
実形
 62
     0
100
AcDbMText
 10
2189.303278586809
 20
480.1823905324424
 30
0.0
 40
25.0
 41
0.0
 71
     5
 72
     1
  1
5
 73
     1
 44
1.0
1001
ACAD
1000
MTEXTBEGIN
1070
    73
1070
     1
1070
    44
1040
1.0
1070
    74
1070
     0
1000
MTEXTEND
  0
POINT
  5
20A9
330
1FBF
100
AcDbEntity
  8
Defpoints
 62
     0
100
AcDbPoint
 10
2150.30327858681
 20
522.3587244814916
 30
0.0
  0
POINT
  5
20AA
330
1FBF
100
AcDbEntity
  8
Defpoints
 62
     0
100
AcDbPoint
 10
2228.303278586809
 20
522.3587244814916
 30
0.0
  0
POINT
  5
20AB
330
1FBF
100
AcDbEntity
  8
Defpoints
 62
     0
100
AcDbPoint
 10
2228.303278586809
 20
461.4323905324424
 30
0.0
  0
ENDBLK
  5
1FCA
330
1FBF
100
AcDbEntity
  8
0
 62
     3
100
AcDbBlockEnd
  0
BLOCK
  5
1FD5
330
1FCB
100
AcDbEntity
  8
0
 62
     3
100
AcDbBlockBegin
  2
*D41
 70
     1
 10
0.0
 20
0.0
 30
0.0
  3
*D41
  1

  0
LINE
  5
20AC
330
1FCB
100
AcDbEntity
  8
実形
 62
     0
370
    18
100
AcDbLine
 10
2138.595588728236
 20
451.6388787035102
 30
0.0
 11
2102.975332119596
 21
451.6388787035102
 31
0.0
  0
LINE
  5
20AD
330
1FCB
100
AcDbEntity
  8
実形
 62
     0
370
    18
100
AcDbLine
 10
2150.882092629512
 20
412.6388787035103
 30
0.0
 11
2102.975332119596
 21
412.6388787035103
 31
0.0
  0
LINE
  5
20AE
330
1FCB
100
AcDbEntity
  8
実形
 62
     0
370
    18
100
AcDbLine
 10
2102.975332119596
 20
451.6388787035102
 30
0.0
 11
2102.975332119596
 21
412.6388787035103
 31
0.0
  0
MTEXT
  5
20AF
330
1FCB
100
AcDbEntity
  8
実形
 62
     0
100
AcDbMText
 10
2070.355870815655
 20
441.0024837871193
 30
0.0
 40
23.0
 41
0.0
 71
     5
 72
     1
  1
2.5
 11
0.0000000000000001
 21
1.0
 31
0.0
 73
     1
 44
1.0
1001
ACAD
1000
MTEXTBEGIN
1070
    73
1070
     1
1070
    44
1040
1.0
1070
    74
1070
     0
1000
MTEXTEND
  0
INSERT
  5
20B0
330
1FCB
100
AcDbEntity
  8
実形
 62
     0
370
    18
100
AcDbBlockReference
  2
_DotSmall
 10
2102.975332119596
 20
451.6388787035102
 30
0.0
 41
35.0
 42
35.0
 43
35.0
 50
90.0
  0
INSERT
  5
20B1
330
1FCB
100
AcDbEntity
  8
実形
 62
     0
370
    18
100
AcDbBlockReference
  2
_DotSmall
 10
2102.975332119596
 20
412.6388787035103
 30
0.0
 41
35.0
 42
35.0
 43
35.0
 50
270.0
  0
POINT
  5
20B2
330
1FCB
100
AcDbEntity
  8
Defpoints
 62
     0
100
AcDbPoint
 10
2203.595588728236
 20
451.6388787035102
 30
0.0
  0
POINT
  5
20B3
330
1FCB
100
AcDbEntity
  8
Defpoints
 62
     0
100
AcDbPoint
 10
2215.882092629512
 20
412.6388787035102
 30
0.0
  0
POINT
  5
20B4
330
1FCB
100
AcDbEntity
  8
Defpoints
 62
     0
100
AcDbPoint
 10
2102.975332119596
 20
412.6388787035103
 30
0.0
  0
ENDBLK
  5
1FD6
330
1FCB
100
AcDbEntity
  8
0
 62
     3
100
AcDbBlockEnd
  0
BLOCK
  5
1FE1
330
1FD7
100
AcDbEntity
  8
0
 62
     3
100
AcDbBlockBegin
  2
*D42
 70
     1
 10
0.0
 20
0.0
 30
0.0
  3
*D42
  1

  0
LINE
  5
20B5
330
1FD7
100
AcDbEntity
  8
実形
 62
     0
370
    18
100
AcDbLine
 10
1947.50327858681
 20
705.5397997195641
 30
0.0
 11
1947.50327858681
 21
743.3028714699867
 31
0.0
  0
LINE
  5
20B6
330
1FD7
100
AcDbEntity
  8
実形
 62
     0
370
    18
100
AcDbLine
 10
2228.303278586809
 20
705.5397997195641
 30
0.0
 11
2228.303278586809
 21
743.3028714699867
 31
0.0
  0
LINE
  5
20B7
330
1FD7
100
AcDbEntity
  8
実形
 62
     0
370
    18
100
AcDbLine
 10
1947.50327858681
 20
743.3028714699867
 30
0.0
 11
2228.303278586809
 21
743.3028714699867
 31
0.0
  0
INSERT
  5
20B8
330
1FD7
100
AcDbEntity
  8
実形
 62
     0
370
    18
100
AcDbBlockReference
  2
_DotSmall
 10
1947.50327858681
 20
743.3028714699867
 30
0.0
 41
35.0
 42
35.0
 43
35.0
 50
180.0
  0
INSERT
  5
20B9
330
1FD7
100
AcDbEntity
  8
実形
 62
     0
370
    18
100
AcDbBlockReference
  2
_DotSmall
 10
2228.303278586809
 20
743.3028714699867
 30
0.0
 41
35.0
 42
35.0
 43
35.0
  0
MTEXT
  5
20BA
330
1FD7
100
AcDbEntity
  8
実形
 62
     0
100
AcDbMText
 10
2087.903278586809
 20
762.0528714699867
 30
0.0
 40
25.0
 41
0.0
 71
     5
 72
     1
  1
18
 73
     1
 44
1.0
1001
ACAD
1000
MTEXTBEGIN
1070
    73
1070
     1
1070
    44
1040
1.0
1070
    74
1070
     0
1000
MTEXTEND
  0
POINT
  5
20BB
330
1FD7
100
AcDbEntity
  8
Defpoints
 62
     0
100
AcDbPoint
 10
1947.50327858681
 20
640.5397997195641
 30
0.0
  0
POINT
  5
20BC
330
1FD7
100
AcDbEntity
  8
Defpoints
 62
     0
100
AcDbPoint
 10
2228.303278586809
 20
640.5397997195641
 30
0.0
  0
POINT
  5
20BD
330
1FD7
100
AcDbEntity
  8
Defpoints
 62
     0
100
AcDbPoint
 10
2228.303278586809
 20
743.3028714699867
 30
0.0
  0
ENDBLK
  5
1FE2
330
1FD7
100
AcDbEntity
  8
0
 62
     3
100
AcDbBlockEnd
  0
BLOCK
  5
1FED
330
1FE3
100
AcDbEntity
  8
0
 62
     3
100
AcDbBlockBegin
  2
*D43
 70
     1
 10
0.0
 20
0.0
 30
0.0
  3
*D43
  1

  0
LINE
  5
20BE
330
1FE3
100
AcDbEntity
  8
実形
 62
     0
370
    18
100
AcDbLine
 10
2228.303278586809
 20
705.539799719563
 30
0.0
 11
2228.303278586809
 21
743.3028714699867
 31
0.0
  0
LINE
  5
20BF
330
1FE3
100
AcDbEntity
  8
実形
 62
     0
370
    18
100
AcDbLine
 10
2493.503278586809
 20
705.539799719563
 30
0.0
 11
2493.503278586809
 21
743.3028714699867
 31
0.0
  0
LINE
  5
20C0
330
1FE3
100
AcDbEntity
  8
実形
 62
     0
370
    18
100
AcDbLine
 10
2228.303278586809
 20
743.3028714699867
 30
0.0
 11
2493.503278586809
 21
743.3028714699867
 31
0.0
  0
INSERT
  5
20C1
330
1FE3
100
AcDbEntity
  8
実形
 62
     0
370
    18
100
AcDbBlockReference
  2
_DotSmall
 10
2228.303278586809
 20
743.3028714699867
 30
0.0
 41
35.0
 42
35.0
 43
35.0
 50
180.0
  0
INSERT
  5
20C2
330
1FE3
100
AcDbEntity
  8
実形
 62
     0
370
    18
100
AcDbBlockReference
  2
_DotSmall
 10
2493.503278586809
 20
743.3028714699867
 30
0.0
 41
35.0
 42
35.0
 43
35.0
  0
MTEXT
  5
20C3
330
1FE3
100
AcDbEntity
  8
実形
 62
     0
100
AcDbMText
 10
2360.90327858681
 20
762.0528714699867
 30
0.0
 40
25.0
 41
0.0
 71
     5
 72
     1
  1
17
 73
     1
 44
1.0
1001
ACAD
1000
MTEXTBEGIN
1070
    73
1070
     1
1070
    44
1040
1.0
1070
    74
1070
     0
1000
MTEXTEND
  0
POINT
  5
20C4
330
1FE3
100
AcDbEntity
  8
Defpoints
 62
     0
100
AcDbPoint
 10
2228.303278586809
 20
640.5397997195629
 30
0.0
  0
POINT
  5
20C5
330
1FE3
100
AcDbEntity
  8
Defpoints
 62
     0
100
AcDbPoint
 10
2493.503278586809
 20
640.5397997195629
 30
0.0
  0
POINT
  5
20C6
330
1FE3
100
AcDbEntity
  8
Defpoints
 62
     0
100
AcDbPoint
 10
2493.503278586809
 20
743.3028714699867
 30
0.0
  0
ENDBLK
  5
1FEE
330
1FE3
100
AcDbEntity
  8
0
 62
     3
100
AcDbBlockEnd
  0
BLOCK
  5
1FF9
330
1FEF
100
AcDbEntity
  8
0
 62
     3
100
AcDbBlockBegin
  2
*D44
 70
     1
 10
0.0
 20
0.0
 30
0.0
  3
*D44
  1

  0
LINE
  5
20C7
330
1FEF
100
AcDbEntity
  8
実形
 62
     0
370
    18
100
AcDbLine
 10
1947.50327858681
 20
705.539799719563
 30
0.0
 11
1947.50327858681
 21
786.8108100678382
 31
0.0
  0
LINE
  5
20C8
330
1FEF
100
AcDbEntity
  8
実形
 62
     0
370
    18
100
AcDbLine
 10
2493.503278586809
 20
705.539799719563
 30
0.0
 11
2493.503278586809
 21
786.8108100678382
 31
0.0
  0
LINE
  5
20C9
330
1FEF
100
AcDbEntity
  8
実形
 62
     0
370
    18
100
AcDbLine
 10
1947.50327858681
 20
786.8108100678382
 30
0.0
 11
2493.503278586809
 21
786.8108100678382
 31
0.0
  0
INSERT
  5
20CA
330
1FEF
100
AcDbEntity
  8
実形
 62
     0
370
    18
100
AcDbBlockReference
  2
_DotSmall
 10
1947.50327858681
 20
786.8108100678382
 30
0.0
 41
35.0
 42
35.0
 43
35.0
 50
180.0
  0
INSERT
  5
20CB
330
1FEF
100
AcDbEntity
  8
実形
 62
     0
370
    18
100
AcDbBlockReference
  2
_DotSmall
 10
2493.503278586809
 20
786.8108100678382
 30
0.0
 41
35.0
 42
35.0
 43
35.0
  0
MTEXT
  5
20CC
330
1FEF
100
AcDbEntity
  8
実形
 62
     0
100
AcDbMText
 10
2220.50327858681
 20
805.5608100678382
 30
0.0
 40
25.0
 41
0.0
 71
     5
 72
     1
  1
35
 73
     1
 44
1.0
1001
ACAD
1000
MTEXTBEGIN
1070
    73
1070
     1
1070
    44
1040
1.0
1070
    74
1070
     0
1000
MTEXTEND
  0
POINT
  5
20CD
330
1FEF
100
AcDbEntity
  8
Defpoints
 62
     0
100
AcDbPoint
 10
1947.50327858681
 20
640.5397997195629
 30
0.0
  0
POINT
  5
20CE
330
1FEF
100
AcDbEntity
  8
Defpoints
 62
     0
100
AcDbPoint
 10
2493.503278586809
 20
640.5397997195629
 30
0.0
  0
POINT
  5
20CF
330
1FEF
100
AcDbEntity
  8
Defpoints
 62
     0
100
AcDbPoint
 10
2493.503278586809
 20
786.8108100678382
 30
0.0
  0
ENDBLK
  5
1FFA
330
1FEF
100
AcDbEntity
  8
0
 62
     3
100
AcDbBlockEnd
  0
BLOCK
  5
2005
330
1FFB
100
AcDbEntity
  8
0
 62
     3
100
AcDbBlockBegin
  2
*D45
 70
     1
 10
0.0
 20
0.0
 30
0.0
  3
*D45
  1

  0
LINE
  5
20D0
330
1FFB
100
AcDbEntity
  8
実形
 62
     0
370
    18
100
AcDbLine
 10
1978.703278586809
 20
355.8916371725106
 30
0.0
 11
1978.703278586809
 21
306.8527456354114
 31
0.0
  0
LINE
  5
20D1
330
1FFB
100
AcDbEntity
  8
実形
 62
     0
370
    18
100
AcDbLine
 10
2025.503278586809
 20
355.8916371725106
 30
0.0
 11
2025.503278586809
 21
306.8527456354114
 31
0.0
  0
LINE
  5
20D2
330
1FFB
100
AcDbEntity
  8
実形
 62
     0
370
    18
100
AcDbLine
 10
1978.703278586809
 20
306.8527456354114
 30
0.0
 11
2025.503278586809
 21
306.8527456354114
 31
0.0
  0
MTEXT
  5
20D3
330
1FFB
100
AcDbEntity
  8
実形
 62
     0
100
AcDbMText
 10
1925.472691921497
 20
342.2580203758225
 30
0.0
 40
25.0
 41
0.0
 71
     5
 72
     1
  1
3.2
 73
     1
 44
1.0
1001
ACAD
1000
MTEXTBEGIN
1070
    73
1070
     1
1070
    44
1040
1.0
1070
    74
1070
     0
1000
MTEXTEND
  0
INSERT
  5
20D4
330
1FFB
100
AcDbEntity
  8
実形
 62
     0
370
    18
100
AcDbBlockReference
  2
_DotSmall
 10
1978.703278586809
 20
306.8527456354114
 30
0.0
 41
35.0
 42
35.0
 43
35.0
 50
180.0
  0
INSERT
  5
20D5
330
1FFB
100
AcDbEntity
  8
実形
 62
     0
370
    18
100
AcDbBlockReference
  2
_DotSmall
 10
2025.503278586809
 20
306.8527456354114
 30
0.0
 41
35.0
 42
35.0
 43
35.0
  0
POINT
  5
20D6
330
1FFB
100
AcDbEntity
  8
Defpoints
 62
     0
100
AcDbPoint
 10
1978.703278586809
 20
420.8916371725106
 30
0.0
  0
POINT
  5
20D7
330
1FFB
100
AcDbEntity
  8
Defpoints
 62
     0
100
AcDbPoint
 10
2025.503278586809
 20
420.8916371725106
 30
0.0
  0
POINT
  5
20D8
330
1FFB
100
AcDbEntity
  8
Defpoints
 62
     0
100
AcDbPoint
 10
2025.503278586809
 20
306.8527456354114
 30
0.0
  0
ENDBLK
  5
2006
330
1FFB
100
AcDbEntity
  8
0
 62
     3
100
AcDbBlockEnd
  0
BLOCK
  5
2011
330
2007
100
AcDbEntity
  8
0
 62
     3
100
AcDbBlockBegin
  2
*D46
 70
     1
 10
0.0
 20
0.0
 30
0.0
  3
*D46
  1

  0
LINE
  5
20D9
330
2007
100
AcDbEntity
  8
実形
 62
     0
370
    18
100
AcDbLine
 10
2025.503278586809
 20
355.8916371725106
 30
0.0
 11
2025.503278586809
 21
306.8527456354114
 31
0.0
  0
LINE
  5
20DA
330
2007
100
AcDbEntity
  8
実形
 62
     0
370
    18
100
AcDbLine
 10
2150.30327858681
 20
355.8916371725106
 30
0.0
 11
2150.30327858681
 21
306.8527456354114
 31
0.0
  0
LINE
  5
20DB
330
2007
100
AcDbEntity
  8
実形
 62
     0
370
    18
100
AcDbLine
 10
2025.503278586809
 20
306.8527456354114
 30
0.0
 11
2150.30327858681
 21
306.8527456354114
 31
0.0
  0
INSERT
  5
20DC
330
2007
100
AcDbEntity
  8
実形
 62
     0
370
    18
100
AcDbBlockReference
  2
_DotSmall
 10
2025.503278586809
 20
306.8527456354114
 30
0.0
 41
35.0
 42
35.0
 43
35.0
 50
180.0
  0
INSERT
  5
20DD
330
2007
100
AcDbEntity
  8
実形
 62
     0
370
    18
100
AcDbBlockReference
  2
_DotSmall
 10
2150.30327858681
 20
306.8527456354114
 30
0.0
 41
35.0
 42
35.0
 43
35.0
  0
MTEXT
  5
20DE
330
2007
100
AcDbEntity
  8
実形
 62
     0
100
AcDbMText
 10
2087.903278586809
 20
325.6027456354114
 30
0.0
 40
25.0
 41
0.0
 71
     5
 72
     1
  1
8
 73
     1
 44
1.0
1001
ACAD
1000
MTEXTBEGIN
1070
    73
1070
     1
1070
    44
1040
1.0
1070
    74
1070
     0
1000
MTEXTEND
  0
POINT
  5
20DF
330
2007
100
AcDbEntity
  8
Defpoints
 62
     0
100
AcDbPoint
 10
2025.503278586809
 20
420.8916371725106
 30
0.0
  0
POINT
  5
20E0
330
2007
100
AcDbEntity
  8
Defpoints
 62
     0
100
AcDbPoint
 10
2150.30327858681
 20
420.8916371725106
 30
0.0
  0
POINT
  5
20E1
330
2007
100
AcDbEntity
  8
Defpoints
 62
     0
100
AcDbPoint
 10
2150.30327858681
 20
306.8527456354114
 30
0.0
  0
ENDBLK
  5
2012
330
2007
100
AcDbEntity
  8
0
 62
     3
100
AcDbBlockEnd
  0
BLOCK
  5
201D
330
2013
100
AcDbEntity
  8
0
 62
     3
100
AcDbBlockBegin
  2
*D47
 70
     1
 10
0.0
 20
0.0
 30
0.0
  3
*D47
  1

  0
LINE
  5
20E2
330
2013
100
AcDbEntity
  8
実形
 62
     0
370
    18
100
AcDbLine
 10
2150.30327858681
 20
355.8916371725106
 30
0.0
 11
2150.30327858681
 21
306.8527456354114
 31
0.0
  0
LINE
  5
20E3
330
2013
100
AcDbEntity
  8
実形
 62
     0
370
    18
100
AcDbLine
 10
2228.303278586809
 20
355.8916371725106
 30
0.0
 11
2228.303278586809
 21
306.8527456354114
 31
0.0
  0
LINE
  5
20E4
330
2013
100
AcDbEntity
  8
実形
 62
     0
370
    18
100
AcDbLine
 10
2150.30327858681
 20
306.8527456354114
 30
0.0
 11
2228.303278586809
 21
306.8527456354114
 31
0.0
  0
INSERT
  5
20E5
330
2013
100
AcDbEntity
  8
実形
 62
     0
370
    18
100
AcDbBlockReference
  2
_DotSmall
 10
2150.30327858681
 20
306.8527456354114
 30
0.0
 41
35.0
 42
35.0
 43
35.0
 50
180.0
  0
INSERT
  5
20E6
330
2013
100
AcDbEntity
  8
実形
 62
     0
370
    18
100
AcDbBlockReference
  2
_DotSmall
 10
2228.303278586809
 20
306.8527456354114
 30
0.0
 41
35.0
 42
35.0
 43
35.0
  0
MTEXT
  5
20E7
330
2013
100
AcDbEntity
  8
実形
 62
     0
100
AcDbMText
 10
2189.303278586809
 20
325.6027456354114
 30
0.0
 40
25.0
 41
0.0
 71
     5
 72
     1
  1
5
 73
     1
 44
1.0
1001
ACAD
1000
MTEXTBEGIN
1070
    73
1070
     1
1070
    44
1040
1.0
1070
    74
1070
     0
1000
MTEXTEND
  0
POINT
  5
20E8
330
2013
100
AcDbEntity
  8
Defpoints
 62
     0
100
AcDbPoint
 10
2150.30327858681
 20
420.8916371725106
 30
0.0
  0
POINT
  5
20E9
330
2013
100
AcDbEntity
  8
Defpoints
 62
     0
100
AcDbPoint
 10
2228.303278586809
 20
420.8916371725106
 30
0.0
  0
POINT
  5
20EA
330
2013
100
AcDbEntity
  8
Defpoints
 62
     0
100
AcDbPoint
 10
2228.303278586809
 20
306.8527456354114
 30
0.0
  0
ENDBLK
  5
201E
330
2013
100
AcDbEntity
  8
0
 62
     3
100
AcDbBlockEnd
  0
BLOCK
  5
2029
330
201F
100
AcDbEntity
  8
0
 62
     3
100
AcDbBlockBegin
  2
*D48
 70
     1
 10
0.0
 20
0.0
 30
0.0
  3
*D48
  1

  0
LINE
  5
20EB
330
201F
100
AcDbEntity
  8
実形
 62
     0
370
    18
100
AcDbLine
 10
2228.303278586809
 20
355.8916371725106
 30
0.0
 11
2228.303278586809
 21
306.8527456354114
 31
0.0
  0
LINE
  5
20EC
330
201F
100
AcDbEntity
  8
実形
 62
     0
370
    18
100
AcDbLine
 10
2493.503278586809
 20
355.8916371725106
 30
0.0
 11
2493.503278586809
 21
306.8527456354114
 31
0.0
  0
LINE
  5
20ED
330
201F
100
AcDbEntity
  8
実形
 62
     0
370
    18
100
AcDbLine
 10
2228.303278586809
 20
306.8527456354114
 30
0.0
 11
2493.503278586809
 21
306.8527456354114
 31
0.0
  0
INSERT
  5
20EE
330
201F
100
AcDbEntity
  8
実形
 62
     0
370
    18
100
AcDbBlockReference
  2
_DotSmall
 10
2228.303278586809
 20
306.8527456354114
 30
0.0
 41
35.0
 42
35.0
 43
35.0
 50
180.0
  0
INSERT
  5
20EF
330
201F
100
AcDbEntity
  8
実形
 62
     0
370
    18
100
AcDbBlockReference
  2
_DotSmall
 10
2493.503278586809
 20
306.8527456354114
 30
0.0
 41
35.0
 42
35.0
 43
35.0
  0
MTEXT
  5
20F0
330
201F
100
AcDbEntity
  8
実形
 62
     0
100
AcDbMText
 10
2360.90327858681
 20
325.6027456354114
 30
0.0
 40
25.0
 41
0.0
 71
     5
 72
     1
  1
17
 73
     1
 44
1.0
1001
ACAD
1000
MTEXTBEGIN
1070
    73
1070
     1
1070
    44
1040
1.0
1070
    74
1070
     0
1000
MTEXTEND
  0
POINT
  5
20F1
330
201F
100
AcDbEntity
  8
Defpoints
 62
     0
100
AcDbPoint
 10
2228.303278586809
 20
420.8916371725106
 30
0.0
  0
POINT
  5
20F2
330
201F
100
AcDbEntity
  8
Defpoints
 62
     0
100
AcDbPoint
 10
2493.503278586809
 20
420.8916371725106
 30
0.0
  0
POINT
  5
20F3
330
201F
100
AcDbEntity
  8
Defpoints
 62
     0
100
AcDbPoint
 10
2493.503278586809
 20
306.8527456354114
 30
0.0
  0
ENDBLK
  5
202A
330
201F
100
AcDbEntity
  8
0
 62
     3
100
AcDbBlockEnd
  0
BLOCK
  5
2035
330
202B
100
AcDbEntity
  8
0
 62
     3
100
AcDbBlockBegin
  2
*D49
 70
     1
 10
0.0
 20
0.0
 30
0.0
  3
*D49
  1

  0
LINE
  5
20F4
330
202B
100
AcDbEntity
  8
実形
 62
     0
370
    18
100
AcDbLine
 10
1949.2926774559
 20
307.172337168286
 30
0.0
 11
1949.2926774559
 21
256.8830082351342
 31
0.0
  0
LINE
  5
20F5
330
202B
100
AcDbEntity
  8
実形
 62
     0
370
    18
100
AcDbLine
 10
2027.2926774559
 20
307.172337168286
 30
0.0
 11
2027.2926774559
 21
256.8830082351342
 31
0.0
  0
LINE
  5
20F6
330
202B
100
AcDbEntity
  8
実形
 62
     0
370
    18
100
AcDbLine
 10
1949.2926774559
 20
256.8830082351342
 30
0.0
 11
2027.2926774559
 21
256.8830082351342
 31
0.0
  0
INSERT
  5
20F7
330
202B
100
AcDbEntity
  8
実形
 62
     0
370
    18
100
AcDbBlockReference
  2
_DotSmall
 10
1949.2926774559
 20
256.8830082351342
 30
0.0
 41
35.0
 42
35.0
 43
35.0
 50
180.0
  0
INSERT
  5
20F8
330
202B
100
AcDbEntity
  8
実形
 62
     0
370
    18
100
AcDbBlockReference
  2
_DotSmall
 10
2027.2926774559
 20
256.8830082351342
 30
0.0
 41
35.0
 42
35.0
 43
35.0
  0
MTEXT
  5
20F9
330
202B
100
AcDbEntity
  8
実形
 62
     0
100
AcDbMText
 10
1988.2926774559
 20
275.6330082351342
 30
0.0
 40
25.0
 41
0.0
 71
     5
 72
     1
  1
5
 73
     1
 44
1.0
1001
ACAD
1000
MTEXTBEGIN
1070
    73
1070
     1
1070
    44
1040
1.0
1070
    74
1070
     0
1000
MTEXTEND
  0
POINT
  5
20FA
330
202B
100
AcDbEntity
  8
Defpoints
 62
     0
100
AcDbPoint
 10
1949.2926774559
 20
372.172337168286
 30
0.0
  0
POINT
  5
20FB
330
202B
100
AcDbEntity
  8
Defpoints
 62
     0
100
AcDbPoint
 10
2027.2926774559
 20
372.172337168286
 30
0.0
  0
POINT
  5
20FC
330
202B
100
AcDbEntity
  8
Defpoints
 62
     0
100
AcDbPoint
 10
2027.2926774559
 20
256.8830082351342
 30
0.0
  0
ENDBLK
  5
2036
330
202B
100
AcDbEntity
  8
0
 62
     3
100
AcDbBlockEnd
  0
BLOCK
  5
2041
330
2037
100
AcDbEntity
  8
0
 62
     3
100
AcDbBlockBegin
  2
*D50
 70
     1
 10
0.0
 20
0.0
 30
0.0
  3
*D50
  1

  0
LINE
  5
20FD
330
2037
100
AcDbEntity
  8
実形
 62
     0
370
    18
100
AcDbLine
 10
2027.2926774559
 20
307.172337168286
 30
0.0
 11
2027.2926774559
 21
256.8830082351342
 31
0.0
  0
LINE
  5
20FE
330
2037
100
AcDbEntity
  8
実形
 62
     0
370
    18
100
AcDbLine
 10
2495.2926774559
 20
307.172337168286
 30
0.0
 11
2495.2926774559
 21
256.8830082351342
 31
0.0
  0
LINE
  5
20FF
330
2037
100
AcDbEntity
  8
実形
 62
     0
370
    18
100
AcDbLine
 10
2027.2926774559
 20
256.8830082351342
 30
0.0
 11
2495.2926774559
 21
256.8830082351342
 31
0.0
  0
INSERT
  5
2100
330
2037
100
AcDbEntity
  8
実形
 62
     0
370
    18
100
AcDbBlockReference
  2
_DotSmall
 10
2027.2926774559
 20
256.8830082351342
 30
0.0
 41
35.0
 42
35.0
 43
35.0
 50
180.0
  0
INSERT
  5
2101
330
2037
100
AcDbEntity
  8
実形
 62
     0
370
    18
100
AcDbBlockReference
  2
_DotSmall
 10
2495.2926774559
 20
256.8830082351342
 30
0.0
 41
35.0
 42
35.0
 43
35.0
  0
MTEXT
  5
2102
330
2037
100
AcDbEntity
  8
実形
 62
     0
100
AcDbMText
 10
2261.2926774559
 20
275.6330082351342
 30
0.0
 40
25.0
 41
0.0
 71
     5
 72
     1
  1
30
 73
     1
 44
1.0
1001
ACAD
1000
MTEXTBEGIN
1070
    73
1070
     1
1070
    44
1040
1.0
1070
    74
1070
     0
1000
MTEXTEND
  0
POINT
  5
2103
330
2037
100
AcDbEntity
  8
Defpoints
 62
     0
100
AcDbPoint
 10
2027.2926774559
 20
372.172337168286
 30
0.0
  0
POINT
  5
2104
330
2037
100
AcDbEntity
  8
Defpoints
 62
     0
100
AcDbPoint
 10
2495.2926774559
 20
372.172337168286
 30
0.0
  0
POINT
  5
2105
330
2037
100
AcDbEntity
  8
Defpoints
 62
     0
100
AcDbPoint
 10
2495.2926774559
 20
256.8830082351342
 30
0.0
  0
ENDBLK
  5
2042
330
2037
100
AcDbEntity
  8
0
 62
     3
100
AcDbBlockEnd
  0
BLOCK
  5
204D
330
2043
100
AcDbEntity
  8
0
 62
     3
100
AcDbBlockBegin
  2
*D51
 70
     1
 10
0.0
 20
0.0
 30
0.0
  3
*D51
  1

  0
LINE
  5
2106
330
2043
100
AcDbEntity
  8
実形
 62
     0
370
    18
100
AcDbLine
 10
1904.598314110886
 20
693.4388787035103
 30
0.0
 11
1842.301515497275
 21
693.4388787035103
 31
0.0
  0
LINE
  5
2107
330
2043
100
AcDbEntity
  8
実形
 62
     0
370
    18
100
AcDbLine
 10
1904.598314110886
 20
594.6388787035102
 30
0.0
 11
1842.301515497275
 21
594.6388787035102
 31
0.0
  0
LINE
  5
2108
330
2043
100
AcDbEntity
  8
実形
 62
     0
370
    18
100
AcDbLine
 10
1842.301515497275
 20
693.4388787035103
 30
0.0
 11
1842.301515497275
 21
594.6388787035102
 31
0.0
  0
INSERT
  5
2109
330
2043
100
AcDbEntity
  8
実形
 62
     0
370
    18
100
AcDbBlockReference
  2
_DotSmall
 10
1842.301515497275
 20
693.4388787035103
 30
0.0
 41
35.0
 42
35.0
 43
35.0
 50
90.0
  0
INSERT
  5
210A
330
2043
100
AcDbEntity
  8
実形
 62
     0
370
    18
100
AcDbBlockReference
  2
_DotSmall
 10
1842.301515497275
 20
594.6388787035102
 30
0.0
 41
35.0
 42
35.0
 43
35.0
 50
270.0
  0
MTEXT
  5
210B
330
2043
100
AcDbEntity
  8
実形
 62
     0
100
AcDbMText
 10
1823.551515497275
 20
644.0388787035106
 30
0.0
 40
25.0
 41
0.0
 71
     5
 72
     1
  1
6.5
 11
0.0000000000000001
 21
1.0
 31
0.0
 73
     1
 44
1.0
1001
ACAD
1000
MTEXTBEGIN
1070
    73
1070
     1
1070
    44
1040
1.0
1070
    74
1070
     0
1000
MTEXTEND
  0
POINT
  5
210C
330
2043
100
AcDbEntity
  8
Defpoints
 62
     0
100
AcDbPoint
 10
1969.598314110886
 20
693.4388787035103
 30
0.0
  0
POINT
  5
210D
330
2043
100
AcDbEntity
  8
Defpoints
 62
     0
100
AcDbPoint
 10
1969.598314110886
 20
594.6388787035102
 30
0.0
  0
POINT
  5
210E
330
2043
100
AcDbEntity
  8
Defpoints
 62
     0
100
AcDbPoint
 10
1842.301515497275
 20
594.6388787035102
 30
0.0
  0
ENDBLK
  5
204E
330
2043
100
AcDbEntity
  8
0
 62
     3
100
AcDbBlockEnd
  0
BLOCK
  5
2059
330
204F
100
AcDbEntity
  8
0
 62
     3
100
AcDbBlockBegin
  2
*D52
 70
     1
 10
0.0
 20
0.0
 30
0.0
  3
*D52
  1

  0
LINE
  5
210F
330
204F
100
AcDbEntity
  8
実形
 62
     0
370
    18
100
AcDbLine
 10
1904.598314110886
 20
693.4388787035103
 30
0.0
 11
1788.304587942761
 21
693.4388787035104
 31
0.0
  0
LINE
  5
2110
330
204F
100
AcDbEntity
  8
実形
 62
     0
370
    18
100
AcDbLine
 10
1904.598314110886
 20
568.6388787035094
 30
0.0
 11
1788.304587942761
 21
568.6388787035095
 31
0.0
  0
LINE
  5
2111
330
204F
100
AcDbEntity
  8
実形
 62
     0
370
    18
100
AcDbLine
 10
1788.304587942761
 20
693.4388787035104
 30
0.0
 11
1788.304587942761
 21
568.6388787035095
 31
0.0
  0
INSERT
  5
2112
330
204F
100
AcDbEntity
  8
実形
 62
     0
370
    18
100
AcDbBlockReference
  2
_DotSmall
 10
1788.304587942761
 20
693.4388787035104
 30
0.0
 41
35.0
 42
35.0
 43
35.0
 50
90.0
  0
INSERT
  5
2113
330
204F
100
AcDbEntity
  8
実形
 62
     0
370
    18
100
AcDbBlockReference
  2
_DotSmall
 10
1788.304587942761
 20
568.6388787035095
 30
0.0
 41
35.0
 42
35.0
 43
35.0
 50
270.0
  0
MTEXT
  5
2114
330
204F
100
AcDbEntity
  8
実形
 62
     0
100
AcDbMText
 10
1769.554587942761
 20
631.0388787035102
 30
0.0
 40
25.0
 41
0.0
 71
     5
 72
     1
  1
8.2
 11
0.0000000000000001
 21
1.0
 31
0.0
 73
     1
 44
1.0
1001
ACAD
1000
MTEXTBEGIN
1070
    73
1070
     1
1070
    44
1040
1.0
1070
    74
1070
     0
1000
MTEXTEND
  0
POINT
  5
2115
330
204F
100
AcDbEntity
  8
Defpoints
 62
     0
100
AcDbPoint
 10
1969.598314110886
 20
693.4388787035103
 30
0.0
  0
POINT
  5
2116
330
204F
100
AcDbEntity
  8
Defpoints
 62
     0
100
AcDbPoint
 10
1969.598314110886
 20
568.6388787035094
 30
0.0
  0
POINT
  5
2117
330
204F
100
AcDbEntity
  8
Defpoints
 62
     0
100
AcDbPoint
 10
1788.304587942761
 20
568.6388787035095
 30
0.0
  0
ENDBLK
  5
205A
330
204F
100
AcDbEntity
  8
0
 62
     3
100
AcDbBlockEnd
  0
BLOCK
  5
2065
330
205B
100
AcDbEntity
  8
0
 62
     3
100
AcDbBlockBegin
  2
*D53
 70
     1
 10
0.0
 20
0.0
 30
0.0
  3
*D53
  1

  0
LINE
  5
2118
330
205B
100
AcDbEntity
  8
実形
 62
     0
370
    18
100
AcDbLine
 10
1904.598314110886
 20
553.0388787035102
 30
0.0
 11
1736.658951194005
 21
553.0388787035104
 31
0.0
  0
LINE
  5
2119
330
205B
100
AcDbEntity
  8
実形
 62
     0
370
    18
100
AcDbLine
 10
1904.598314110886
 20
693.4388787035103
 30
0.0
 11
1736.658951194005
 21
693.4388787035104
 31
0.0
  0
LINE
  5
211A
330
205B
100
AcDbEntity
  8
実形
 62
     0
370
    18
100
AcDbLine
 10
1736.658951194005
 20
553.0388787035104
 30
0.0
 11
1736.658951194005
 21
693.4388787035104
 31
0.0
  0
INSERT
  5
211B
330
205B
100
AcDbEntity
  8
実形
 62
     0
370
    18
100
AcDbBlockReference
  2
_DotSmall
 10
1736.658951194005
 20
553.0388787035104
 30
0.0
 41
35.0
 42
35.0
 43
35.0
 50
270.0
  0
INSERT
  5
211C
330
205B
100
AcDbEntity
  8
実形
 62
     0
370
    18
100
AcDbBlockReference
  2
_DotSmall
 10
1736.658951194005
 20
693.4388787035104
 30
0.0
 41
35.0
 42
35.0
 43
35.0
 50
90.0
  0
MTEXT
  5
211D
330
205B
100
AcDbEntity
  8
実形
 62
     0
100
AcDbMText
 10
1717.908951194005
 20
623.2388787035106
 30
0.0
 40
25.0
 41
0.0
 71
     5
 72
     1
  1
9
 11
0.0000000000000001
 21
1.0
 31
0.0
 73
     1
 44
1.0
1001
ACAD
1000
MTEXTBEGIN
1070
    73
1070
     1
1070
    44
1040
1.0
1070
    74
1070
     0
1000
MTEXTEND
  0
POINT
  5
211E
330
205B
100
AcDbEntity
  8
Defpoints
 62
     0
100
AcDbPoint
 10
1969.598314110886
 20
553.0388787035102
 30
0.0
  0
POINT
  5
211F
330
205B
100
AcDbEntity
  8
Defpoints
 62
     0
100
AcDbPoint
 10
1969.598314110886
 20
693.4388787035103
 30
0.0
  0
POINT
  5
2120
330
205B
100
AcDbEntity
  8
Defpoints
 62
     0
100
AcDbPoint
 10
1736.658951194005
 20
693.4388787035104
 30
0.0
  0
ENDBLK
  5
2066
330
205B
100
AcDbEntity
  8
0
 62
     3
100
AcDbBlockEnd
  0
BLOCK
  5
2071
330
2067
100
AcDbEntity
  8
0
 62
     3
100
AcDbBlockBegin
  2
*D54
 70
     1
 10
0.0
 20
0.0
 30
0.0
  3
*D54
  1

  0
LINE
  5
2121
330
2067
100
AcDbEntity
  8
実形
 62
     0
370
    18
100
AcDbLine
 10
2519.523449336353
 20
553.0388787035104
 30
0.0
 11
2545.969313857927
 21
553.0388787035104
 31
0.0
  0
LINE
  5
2122
330
2067
100
AcDbEntity
  8
実形
 62
     0
370
    18
100
AcDbLine
 10
2519.523449336353
 20
412.6388787035103
 30
0.0
 11
2545.969313857927
 21
412.6388787035103
 31
0.0
  0
LINE
  5
2123
330
2067
100
AcDbEntity
  8
実形
 62
     0
370
    18
100
AcDbLine
 10
2545.969313857927
 20
553.0388787035104
 30
0.0
 11
2545.969313857927
 21
412.6388787035103
 31
0.0
  0
INSERT
  5
2124
330
2067
100
AcDbEntity
  8
実形
 62
     0
370
    18
100
AcDbBlockReference
  2
_DotSmall
 10
2545.969313857927
 20
553.0388787035104
 30
0.0
 41
35.0
 42
35.0
 43
35.0
 50
90.0
  0
INSERT
  5
2125
330
2067
100
AcDbEntity
  8
実形
 62
     0
370
    18
100
AcDbBlockReference
  2
_DotSmall
 10
2545.969313857927
 20
412.6388787035103
 30
0.0
 41
35.0
 42
35.0
 43
35.0
 50
270.0
  0
MTEXT
  5
2126
330
2067
100
AcDbEntity
  8
実形
 62
     0
100
AcDbMText
 10
2527.219313857927
 20
482.8388787035107
 30
0.0
 40
25.0
 41
0.0
 71
     5
 72
     1
  1
9
 11
0.0000000000000001
 21
1.0
 31
0.0
 73
     1
 44
1.0
1001
ACAD
1000
MTEXTBEGIN
1070
    73
1070
     1
1070
    44
1040
1.0
1070
    74
1070
     0
1000
MTEXTEND
  0
POINT
  5
2127
330
2067
100
AcDbEntity
  8
Defpoints
 62
     0
100
AcDbPoint
 10
2454.523449336353
 20
553.0388787035104
 30
0.0
  0
POINT
  5
2128
330
2067
100
AcDbEntity
  8
Defpoints
 62
     0
100
AcDbPoint
 10
2454.523449336353
 20
412.6388787035103
 30
0.0
  0
POINT
  5
2129
330
2067
100
AcDbEntity
  8
Defpoints
 62
     0
100
AcDbPoint
 10
2545.969313857927
 20
412.6388787035103
 30
0.0
  0
ENDBLK
  5
2072
330
2067
100
AcDbEntity
  8
0
 62
     3
100
AcDbBlockEnd
  0
BLOCK
  5
207D
330
2073
100
AcDbEntity
  8
0
 62
     3
100
AcDbBlockBegin
  2
*D55
 70
     1
 10
0.0
 20
0.0
 30
0.0
  3
*D55
  1

  0
LINE
  5
212A
330
2073
100
AcDbEntity
  8
実形
 62
     0
370
    18
100
AcDbLine
 10
2519.523449336353
 20
693.4388787035103
 30
0.0
 11
2545.969313857927
 21
693.4388787035103
 31
0.0
  0
LINE
  5
212B
330
2073
100
AcDbEntity
  8
実形
 62
     0
370
    18
100
AcDbLine
 10
2519.523449336353
 20
553.0388787035104
 30
0.0
 11
2545.969313857927
 21
553.0388787035104
 31
0.0
  0
LINE
  5
212C
330
2073
100
AcDbEntity
  8
実形
 62
     0
370
    18
100
AcDbLine
 10
2545.969313857927
 20
693.4388787035103
 30
0.0
 11
2545.969313857927
 21
553.0388787035104
 31
0.0
  0
INSERT
  5
212D
330
2073
100
AcDbEntity
  8
実形
 62
     0
370
    18
100
AcDbBlockReference
  2
_DotSmall
 10
2545.969313857927
 20
693.4388787035103
 30
0.0
 41
35.0
 42
35.0
 43
35.0
 50
90.0
  0
INSERT
  5
212E
330
2073
100
AcDbEntity
  8
実形
 62
     0
370
    18
100
AcDbBlockReference
  2
_DotSmall
 10
2545.969313857927
 20
553.0388787035104
 30
0.0
 41
35.0
 42
35.0
 43
35.0
 50
270.0
  0
MTEXT
  5
212F
330
2073
100
AcDbEntity
  8
実形
 62
     0
100
AcDbMText
 10
2527.219313857927
 20
623.2388787035107
 30
0.0
 40
25.0
 41
0.0
 71
     5
 72
     1
  1
9
 11
0.0000000000000001
 21
1.0
 31
0.0
 73
     1
 44
1.0
1001
ACAD
1000
MTEXTBEGIN
1070
    73
1070
     1
1070
    44
1040
1.0
1070
    74
1070
     0
1000
MTEXTEND
  0
POINT
  5
2130
330
2073
100
AcDbEntity
  8
Defpoints
 62
     0
100
AcDbPoint
 10
2454.523449336353
 20
693.4388787035103
 30
0.0
  0
POINT
  5
2131
330
2073
100
AcDbEntity
  8
Defpoints
 62
     0
100
AcDbPoint
 10
2454.523449336353
 20
553.0388787035104
 30
0.0
  0
POINT
  5
2132
330
2073
100
AcDbEntity
  8
Defpoints
 62
     0
100
AcDbPoint
 10
2545.969313857927
 20
553.0388787035104
 30
0.0
  0
ENDBLK
  5
207E
330
2073
100
AcDbEntity
  8
0
 62
     3
100
AcDbBlockEnd
  0
BLOCK
  5
2089
330
207F
100
AcDbEntity
  8
0
 62
     3
100
AcDbBlockBegin
  2
*D56
 70
     1
 10
0.0
 20
0.0
 30
0.0
  3
*D56
  1

  0
LINE
  5
2133
330
207F
100
AcDbEntity
  8
実形
 62
     0
370
    18
100
AcDbLine
 10
2519.523449336353
 20
693.4388787035103
 30
0.0
 11
2587.74940952991
 21
693.4388787035103
 31
0.0
  0
LINE
  5
2134
330
207F
100
AcDbEntity
  8
実形
 62
     0
370
    18
100
AcDbLine
 10
2519.523449336353
 20
412.6388787035103
 30
0.0
 11
2587.74940952991
 21
412.6388787035103
 31
0.0
  0
LINE
  5
2135
330
207F
100
AcDbEntity
  8
実形
 62
     0
370
    18
100
AcDbLine
 10
2587.74940952991
 20
693.4388787035103
 30
0.0
 11
2587.74940952991
 21
412.6388787035103
 31
0.0
  0
INSERT
  5
2136
330
207F
100
AcDbEntity
  8
実形
 62
     0
370
    18
100
AcDbBlockReference
  2
_DotSmall
 10
2587.74940952991
 20
693.4388787035103
 30
0.0
 41
35.0
 42
35.0
 43
35.0
 50
90.0
  0
INSERT
  5
2137
330
207F
100
AcDbEntity
  8
実形
 62
     0
370
    18
100
AcDbBlockReference
  2
_DotSmall
 10
2587.74940952991
 20
412.6388787035103
 30
0.0
 41
35.0
 42
35.0
 43
35.0
 50
270.0
  0
MTEXT
  5
2138
330
207F
100
AcDbEntity
  8
実形
 62
     0
100
AcDbMText
 10
2568.99940952991
 20
553.0388787035108
 30
0.0
 40
25.0
 41
0.0
 71
     5
 72
     1
  1
18
 11
0.0000000000000001
 21
1.0
 31
0.0
 73
     1
 44
1.0
1001
ACAD
1000
MTEXTBEGIN
1070
    73
1070
     1
1070
    44
1040
1.0
1070
    74
1070
     0
1000
MTEXTEND
  0
POINT
  5
2139
330
207F
100
AcDbEntity
  8
Defpoints
 62
     0
100
AcDbPoint
 10
2454.523449336353
 20
693.4388787035103
 30
0.0
  0
POINT
  5
213A
330
207F
100
AcDbEntity
  8
Defpoints
 62
     0
100
AcDbPoint
 10
2454.523449336353
 20
412.6388787035103
 30
0.0
  0
POINT
  5
213B
330
207F
100
AcDbEntity
  8
Defpoints
 62
     0
100
AcDbPoint
 10
2587.74940952991
 20
412.6388787035103
 30
0.0
  0
ENDBLK
  5
208A
330
207F
100
AcDbEntity
  8
0
 62
     3
100
AcDbBlockEnd
  0
ENDSEC
  0
SECTION
  2
ENTITIES
  0
LINE
  5
9C
330
1F
100
AcDbEntity
  8
実形
100
AcDbLine
 10
109.0
 20
4.0
 30
0.0
 11
2784.0
 21
4.0
 31
0.0
  0
LINE
  5
A0
330
1F
100
AcDbEntity
  8
実形
100
AcDbLine
 10
2784.0
 20
2024.0
 30
0.0
 11
109.0
 21
2024.0
 31
0.0
  0
LINE
  5
A5
330
1F
100
AcDbEntity
  8
実形
100
AcDbLine
 10
2784.0
 20
4.0
 30
0.0
 11
2784.0
 21
2024.0
 31
0.0
  0
CIRCLE
  5
2EB
330
1F
100
AcDbEntity
  8
実形
100
AcDbCircle
 10
854.4005519276524
 20
1485.631023659046
 30
0.0
 40
80.0
  0
CIRCLE
  5
2EE
330
1F
100
AcDbEntity
  8
実形
100
AcDbCircle
 10
854.4005519276524
 20
1485.631023659046
 30
0.0
 40
90.5
  0
LINE
  5
2F9
330
1F
100
AcDbEntity
  8
実形
100
AcDbLine
 10
763.9005519276524
 20
560.6310236590461
 30
0.0
 11
934.4005519276525
 21
560.6310236590461
 31
0.0
  0
LINE
  5
2FA
330
1F
100
AcDbEntity
  8
実形
100
AcDbLine
 10
934.4005519276525
 20
560.6310236590461
 30
0.0
 11
944.9005519276525
 21
560.6310236590461
 31
0.0
  0
LINE
  5
306
330
1F
100
AcDbEntity
  8
実形
100
AcDbLine
 10
763.9005519276524
 20
560.6310236590461
 30
0.0
 11
763.9005519276524
 21
550.6310236590461
 31
0.0
  0
LINE
  5
307
330
1F
100
AcDbEntity
  8
実形
100
AcDbLine
 10
763.9005519276524
 20
550.6310236590461
 30
0.0
 11
944.9005519276525
 21
550.6310236590461
 31
0.0
  0
LINE
  5
308
330
1F
100
AcDbEntity
  8
実形
100
AcDbLine
 10
944.9005519276525
 20
550.6310236590461
 30
0.0
 11
944.9005519276525
 21
560.6310236590461
 31
0.0
  0
LINE
  5
33A
330
1F
100
AcDbEntity
  8
実形
  6
ACAD_ISO08W100
 48
0.5
370
    15
100
AcDbLine
 10
722.4108691329156
 20
1485.631023659046
 30
0.0
 11
986.3902347223893
 21
1485.631023659046
 31
0.0
  0
LINE
  5
33B
330
1F
100
AcDbEntity
  8
実形
  6
ACAD_ISO08W100
 48
0.5
370
    15
100
AcDbLine
 10
854.4005519276524
 20
1593.721635187481
 30
0.0
 11
854.4005519276524
 21
1377.540412130611
 31
0.0
  0
LINE
  5
33C
330
1F
100
AcDbEntity
  8
実形
  6
ACAD_ISO08W100
 48
0.5
370
    15
100
AcDbLine
 10
854.4005519276524
 20
638.8476475344596
 30
0.0
 11
854.4005519276524
 21
482.4318272271593
 31
0.0
  0
DIMENSION
  5
35B
330
1F
100
AcDbEntity
  8
実形
370
    -2
100
AcDbDimension
  2
*D4
 10
529.4005519276525
 20
1375.800692149654
 30
0.0
 11
691.9005519276525
 21
1394.550692149654
 31
0.0
 70
    32
 71
     5
 42
325.0
  3
ISO-25
100
AcDbAlignedDimension
 13
854.4005519276524
 23
1478.443721274661
 33
0.0
 14
529.4005519276525
 24
1430.631023659046
 34
0.0
100
AcDbRotatedDimension
1001
ACAD
1000
DSTYLE
1002
{
1070
   371
1070
    18
1002
}
  0
DIMENSION
  5
368
330
1F
100
AcDbEntity
  8
実形
370
    -2
100
AcDbDimension
  2
*D5
 10
1064.237508436516
 20
1635.631023659046
 30
0.0
 11
1064.237508436516
 21
1560.210212844422
 31
0.0
 70
   160
 71
     5
 42
150.0
  3
ISO-25
100
AcDbAlignedDimension
 13
904.0574682796977
 23
1485.631023659046
 33
0.0
 14
854.4005519276524
 24
1635.631023659046
 34
0.0
 50
90.0
100
AcDbRotatedDimension
1001
ACAD
1000
DSTYLE
1002
{
1070
   371
1070
    18
1002
}
  0
TEXT
  5
395
330
1F
100
AcDbEntity
  8
実形
370
    -2
100
AcDbText
 10
927.4767116247385
 20
1270.684662521271
 30
0.0
 40
25.0
  1
3750R
100
AcDbText
  0
TEXT
  5
397
330
1F
100
AcDbEntity
  8
実形
370
    -2
100
AcDbText
 10
978.5533918779911
 20
1404.829471376144
 30
0.0
 40
25.0
  1
2000R
100
AcDbText
  0
TEXT
  5
398
330
1F
100
AcDbEntity
  8
実形
370
    -2
100
AcDbText
 10
634.3532589444675
 20
1285.205165051593
 30
0.0
 40
25.0
  1
100R
100
AcDbText
  0
TEXT
  5
3AF
330
1F
100
AcDbEntity
  8
実形
100
AcDbText
 10
1041.598757892353
 20
619.9058026201059
 30
0.0
 40
25.0
  1
30R
100
AcDbText
  0
DIMENSION
  5
3CE
330
1F
100
AcDbEntity
  8
実形
100
AcDbDimension
  2
*D6
 10
356.2252372037792
 20
1650.631023659046
 30
0.0
 11
356.225237203779
 21
1658.131023659046
 31
0.0
 70
    32
  1
 
 71
     5
 42
15.0
  3
ISO-25
100
AcDbAlignedDimension
 13
514.4005519276524
 23
1665.631023659046
 33
0.0
 14
514.4005519276524
 24
1650.631023659046
 34
0.0
 50
90.0
100
AcDbRotatedDimension
1001
ACAD
1000
DSTYLE
1002
{
1070
   371
1070
    18
1002
}
  0
DIMENSION
  5
3DC
330
1F
100
AcDbEntity
  8
実形
100
AcDbDimension
  2
*D7
 10
356.2252372037792
 20
1210.631023659046
 30
0.0
 11
337.475237203779
 21
1430.631023659046
 31
0.0
 70
    32
 71
     5
 42
440.0
  3
ISO-25
100
AcDbAlignedDimension
 13
514.4005519276524
 23
1650.631023659046
 33
0.0
 14
514.4005519276524
 24
1210.631023659046
 34
0.0
 50
90.0
100
AcDbRotatedDimension
1001
ACAD
1000
DSTYLE
1002
{
1070
   371
1070
    18
1070
   279
1070
     1
1002
}
  0
DIMENSION
  5
3E9
330
1F
100
AcDbEntity
  8
実形
370
    -2
100
AcDbDimension
  2
*D8
 10
356.2252372037792
 20
1195.631023659046
 30
0.0
 11
350.6576999941517
 21
1218.887342626453
 31
0.0
 70
   160
 71
     5
 42
15.0
  3
ISO-25
100
AcDbAlignedDimension
 13
514.4005519276524
 23
1210.631023659046
 33
0.0
 14
514.4005519276524
 24
1195.631023659046
 34
0.0
 50
90.0
100
AcDbRotatedDimension
1001
ACAD
1000
DSTYLE
1002
{
1070
   371
1070
    18
1070
   279
1070
     1
1002
}
  0
DIMENSION
  5
3F6
330
1F
100
AcDbEntity
  8
実形
100
AcDbDimension
  2
*D9
 10
302.3853388790949
 20
1195.631023659046
 30
0.0
 11
283.6353388790947
 21
1430.631023659046
 31
0.0
 70
    32
 71
     5
 42
470.0
  3
ISO-25
100
AcDbAlignedDimension
 13
514.4005519276524
 23
1665.631023659046
 33
0.0
 14
514.4005519276524
 24
1195.631023659046
 34
0.0
 50
90.0
100
AcDbRotatedDimension
1001
ACAD
1000
DSTYLE
1002
{
1070
   371
1070
    18
1002
}
  0
TEXT
  5
43C
330
1F
100
AcDbEntity
  8
実形
370
    -2
100
AcDbText
 10
347.0853522827165
 20
1624.623712028719
 30
0.0
 40
25.0
  1
15
 50
90.0
100
AcDbText
  0
DIMENSION
  5
43D
330
1F
100
AcDbEntity
  8
実形
100
AcDbDimension
  2
*D10
 10
529.4005519276525
 20
1047.698905888991
 30
0.0
 11
588.9005519276524
 21
1047.698905888991
 31
0.0
 70
   160
  1
 
 71
     5
 42
15.0
  3
ISO-25
100
AcDbAlignedDimension
 13
514.4005519276524
 23
1195.631023659046
 33
0.0
 14
529.4005519276525
 24
1195.631023659046
 34
0.0
100
AcDbRotatedDimension
1001
ACAD
1000
DSTYLE
1002
{
1070
   371
1070
    18
1002
}
  0
DIMENSION
  5
44B
330
1F
100
AcDbEntity
  8
実形
100
AcDbDimension
  2
*D11
 10
1179.400551927652
 20
1047.698905888991
 30
0.0
 11
854.4005519276524
 21
1066.448905888991
 31
0.0
 70
    32
 71
     5
 42
650.0
  3
ISO-25
100
AcDbAlignedDimension
 13
529.4005519276525
 23
1195.631023659046
 33
0.0
 14
1179.400551927652
 24
1195.631023659046
 34
0.0
100
AcDbRotatedDimension
1001
ACAD
1000
DSTYLE
1002
{
1070
   371
1070
    18
1070
   279
1070
     1
1002
}
  0
DIMENSION
  5
458
330
1F
100
AcDbEntity
  8
実形
100
AcDbDimension
  2
*D12
 10
1194.400551927652
 20
1047.698905888991
 30
0.0
 11
1186.900551927652
 21
1047.698905888991
 31
0.0
 70
    32
  1
 
 71
     5
 42
15.0
  3
ISO-25
100
AcDbAlignedDimension
 13
1179.400551927652
 23
1195.631023659046
 33
0.0
 14
1194.400551927652
 24
1195.631023659046
 34
0.0
100
AcDbRotatedDimension
1001
ACAD
1000
DSTYLE
1002
{
1070
   371
1070
    18
1070
   279
1070
     1
1002
}
  0
TEXT
  5
494
330
1F
100
AcDbEntity
  8
実形
100
AcDbText
 10
455.8023354814367
 20
1049.986903523387
 30
0.0
 40
25.0
  1
15
100
AcDbText
  0
TEXT
  5
495
330
1F
100
AcDbEntity
  8
実形
370
    -2
100
AcDbText
 10
1217.664011974246
 20
1049.986903523387
 30
0.0
 40
25.0
  1
15
100
AcDbText
  0
DIMENSION
  5
4A3
330
1F
100
AcDbEntity
  8
実形
100
AcDbDimension
  2
*D13
 10
1194.400551927652
 20
993.6855785437128
 30
0.0
 11
854.4005519276524
 21
1012.435578543713
 31
0.0
 70
    32
 71
     5
 42
680.0
  3
ISO-25
100
AcDbAlignedDimension
 13
514.4005519276524
 23
1195.631023659046
 33
0.0
 14
1194.400551927652
 24
1195.631023659046
 34
0.0
100
AcDbRotatedDimension
1001
ACAD
1000
DSTYLE
1002
{
1070
   371
1070
    18
1002
}
  0
DIMENSION
  5
4F8
330
1F
100
AcDbEntity
  8
実形
100
AcDbDimension
  2
*D14
 10
934.4005519276525
 20
434.2036163579733
 30
0.0
 11
854.4005519276524
 21
452.9536163579733
 31
0.0
 70
    32
  1
158
 71
     5
 42
160.0
  3
ISO-25
100
AcDbAlignedDimension
 13
774.4005519276525
 23
550.6310236590461
 33
0.0
 14
934.4005519276525
 24
550.6310236590461
 34
0.0
100
AcDbRotatedDimension
1001
ACAD
1000
DSTYLE
1002
{
1070
   371
1070
    18
1002
}
  0
DIMENSION
  5
505
330
1F
100
AcDbEntity
  8
実形
100
AcDbDimension
  2
*D15
 10
944.9005519276525
 20
388.6331589873798
 30
0.0
 11
854.4005519276524
 21
407.3831589873798
 31
0.0
 70
    32
 71
     5
 42
181.0
  3
ISO-25
100
AcDbAlignedDimension
 13
763.9005519276524
 23
550.6310236590462
 33
0.0
 14
944.9005519276525
 24
550.6310236590461
 34
0.0
100
AcDbRotatedDimension
1001
ACAD
1000
DSTYLE
1002
{
1070
   371
1070
    18
1002
}
  0
LEADER
  5
7CF
330
1F
100
AcDbEntity
  8
実形
100
AcDbLeader
  3
ISO-25
 40
25.0
 41
16.66666666666666
 76
     2
 10
872.6824422624513
 20
1231.798497603969
 30
0.0
 10
911.9048514570959
 20
1266.635323822688
 30
0.0
213
0.0
223
-12.5
233
0.0
1001
ACAD
1000
DSTYLE
1002
{
1070
    41
1040
25.0
1070
   147
1040
6.25
1070
    77
1070
     0
1070
    73
1070
     1
1070
    74
1070
     1
1070
   279
1070
     1
1070
   342
1005
DA
1002
}
  0
LEADER
  5
7D0
330
1F
100
AcDbEntity
  8
実形
100
AcDbLeader
  3
ISO-25
 40
25.0
 41
16.66666666666666
 76
     2
 10
1170.017917439395
 20
1415.837978712345
 30
0.0
 10
1095.931143600309
 20
1418.015280939477
 30
0.0
213
0.0
223
-12.5
233
0.0
1001
ACAD
1000
DSTYLE
1002
{
1070
    41
1040
25.0
1070
   147
1040
6.25
1070
    77
1070
     0
1070
    73
1070
     1
1070
    74
1070
     1
1070
   279
1070
     1
1070
   342
1005
DA
1002
}
  0
LEADER
  5
7D1
330
1F
100
AcDbEntity
  8
実形
100
AcDbLeader
  3
ISO-25
 40
25.0
 41
16.66666666666666
 76
     2
 10
572.1634086452295
 20
1260.86121003817
 30
0.0
 10
620.10190694028
 20
1291.343431802626
 30
0.0
211
-1.0
221
0.0
231
0.0
210
0.0
220
0.0
230
-1.0
213
0.0
223
-12.5
233
0.0
1001
ACAD
1000
DSTYLE
1002
{
1070
    41
1040
25.0
1070
   147
1040
6.25
1070
    77
1070
     0
1070
    73
1070
     1
1070
    74
1070
     1
1070
   279
1070
     1
1070
   342
1005
DA
1002
}
  0
LEADER
  5
7D2
330
1F
100
AcDbEntity
  8
実形
100
AcDbLeader
  3
ISO-25
 40
25.0
 41
16.66666666666666
 76
     2
 10
1163.042902042184
 20
590.3803338750795
 30
0.0
 10
1115.104403747134
 20
620.8625556395345
 30
0.0
213
0.0
223
-12.5
233
0.0
1001
ACAD
1000
DSTYLE
1002
{
1070
    41
1040
25.0
1070
   147
1040
6.25
1070
    77
1070
     0
1070
    73
1070
     1
1070
    74
1070
     1
1070
   279
1070
     1
1070
   342
1005
DA
1002
}
  0
TEXT
  5
8C9
330
1F
100
AcDbEntity
  8
実形
100
AcDbText
 10
249.2632881086038
 20
83.52862940911927
 30
0.0
 40
30.0
  1
※実寸には製造上の誤差が多少生ずる場合があります。シンクの穴あけ加工は現物合わせにてお願いします。
100
AcDbText
  0
TEXT
  5
1014
330
1F
100
AcDbEntity
  8
実形
100
AcDbText
 10
2086.666666666667
 20
84.0
 30
0.0
 40
35.0
  1
尺度
 72
     4
 11
2124.0
 21
101.5
 31
0.0
100
AcDbText
  0
TEXT
  5
1015
330
1F
100
AcDbEntity
  8
実形
100
AcDbText
 10
2086.666666666667
 20
149.0
 30
0.0
 40
35.0
  1
品番
 72
     4
 11
2124.0
 21
166.5
 31
0.0
100
AcDbText
  0
LINE
  5
1016
330
1F
100
AcDbEntity
  8
実形
100
AcDbLine
 10
2064.0
 20
69.0
 30
0.0
 11
2784.0
 21
69.0
 31
0.0
  0
LINE
  5
1017
330
1F
100
AcDbEntity
  8
実形
100
AcDbLine
 10
2064.0
 20
199.0
 30
0.0
 11
2784.0
 21
199.0
 31
0.0
  0
LINE
  5
1018
330
1F
100
AcDbEntity
  8
実形
100
AcDbLine
 10
2064.0
 20
134.0
 30
0.0
 11
2784.0
 21
134.0
 31
0.0
  0
LINE
  5
1019
330
1F
100
AcDbEntity
  8
実形
100
AcDbLine
 10
2064.0
 20
4.0
 30
0.0
 11
2064.0
 21
199.0
 31
0.0
  0
TEXT
  5
101A
330
1F
100
AcDbEntity
  8
実形
100
AcDbText
 10
2300.255774665348
 20
16.49999999999999
 30
0.0
 40
40.0
  1
中外交易株式会社
 72
     4
 11
2488.255774665347
 21
36.5
 31
0.0
100
AcDbText
  0
LINE
  5
101B
330
1F
100
AcDbEntity
  8
実形
100
AcDbLine
 10
2184.0
 20
69.0
 30
0.0
 11
2784.0
 21
69.0
 31
0.0
  0
LINE
  5
101D
102
{ACAD_REACTORS
330
102A
102
}
330
1F
100
AcDbEntity
  8
実形
370
     5
100
AcDbLine
 10
2207.843923164362
 20
40.53787547858519
 30
0.0
 11
2183.255774665347
 21
40.53787547858519
 31
0.0
  0
LINE
  5
101E
102
{ACAD_REACTORS
330
102A
102
}
330
1F
100
AcDbEntity
  8
実形
370
     5
100
AcDbLine
 10
2183.255774665347
 20
40.53787547858519
 30
0.0
 11
2183.255774665347
 21
30.53787547858519
 31
0.0
  0
LINE
  5
101F
102
{ACAD_REACTORS
330
102A
102
}
330
1F
100
AcDbEntity
  8
実形
370
     5
100
AcDbLine
 10
2183.255774665347
 20
30.53787547858519
 30
0.0
 11
2207.346428692676
 21
30.53787547858514
 31
0.0
  0
LINE
  5
1020
102
{ACAD_REACTORS
330
102A
102
}
330
1F
100
AcDbEntity
  8
実形
370
     5
100
AcDbLine
 10
2210.641894042939
 20
56.5
 30
0.0
 11
2210.641894042939
 21
16.5
 31
0.0
  0
LINE
  5
1021
102
{ACAD_REACTORS
330
102A
102
}
330
1F
100
AcDbEntity
  8
実形
370
     5
100
AcDbLine
 10
2210.641894042939
 20
16.5
 30
0.0
 11
2245.64189404294
 21
16.5
 31
0.0
  0
LINE
  5
1022
102
{ACAD_REACTORS
330
102A
102
}
330
1F
100
AcDbEntity
  8
実形
370
     5
100
AcDbLine
 10
2245.64189404294
 20
16.5
 30
0.0
 11
2210.641894042939
 21
36.5
 31
0.0
  0
LINE
  5
1023
102
{ACAD_REACTORS
330
102A
102
}
330
1F
100
AcDbEntity
  8
実形
370
     5
100
AcDbLine
 10
2210.641894042939
 20
36.5
 30
0.0
 11
2245.64189404294
 21
56.5
 31
0.0
  0
LINE
  5
1024
102
{ACAD_REACTORS
330
102A
102
}
330
1F
100
AcDbEntity
  8
実形
370
     5
100
AcDbLine
 10
2245.64189404294
 20
56.5
 30
0.0
 11
2210.641894042939
 21
56.5
 31
0.0
  0
LINE
  5
1025
102
{ACAD_REACTORS
330
102A
102
}
330
1F
100
AcDbEntity
  8
実形
370
     5
100
AcDbLine
 10
2276.75434681301
 20
40.53787547858519
 30
0.0
 11
2252.166198313995
 21
40.53787547858519
 31
0.0
  0
LINE
  5
1026
102
{ACAD_REACTORS
330
102A
102
}
330
1F
100
AcDbEntity
  8
実形
370
     5
100
AcDbLine
 10
2252.166198313995
 20
40.53787547858519
 30
0.0
 11
2252.166198313995
 21
30.53787547858519
 31
0.0
  0
LINE
  5
1027
102
{ACAD_REACTORS
330
102A
102
}
330
1F
100
AcDbEntity
  8
実形
370
     5
100
AcDbLine
 10
2252.166198313995
 20
30.53787547858519
 30
0.0
 11
2276.256852341323
 21
30.53787547858514
 31
0.0
  0
ARC
  5
1028
102
{ACAD_REACTORS
330
102A
102
}
330
1F
100
AcDbEntity
  8
実形
370
     5
100
AcDbCircle
 10
2188.255774665348
 20
36.5
 30
0.0
 40
20.0
100
AcDbArc
 50
11.6477236670746
 51
342.6561058784882
  0
ARC
  5
1029
102
{ACAD_REACTORS
330
102A
102
}
330
1F
100
AcDbEntity
  8
実形
370
     5
100
AcDbCircle
 10
2257.166198313996
 20
36.5
 30
0.0
 40
20.0
100
AcDbArc
 50
11.6477236670746
 51
342.6561058784882
  0
HATCH
  5
102A
330
1F
100
AcDbEntity
  8
実形
100
AcDbHatch
 10
0.0
 20
0.0
 30
0.0
210
0.0
220
0.0
230
1.0
  2
SOLID
 70
     1
 71
     1
 91
        3
 92
        1
 93
        4
 72
     2
 10
2257.166198313996
 20
36.5
 40
20.0
 50
11.6477236670746
 51
342.6561058784882
 73
     1
 72
     1
 10
2276.256852341323
 20
30.53787547858514
 11
2252.166198313995
 21
30.53787547858519
 72
     1
 10
2252.166198313995
 20
30.53787547858519
 11
2252.166198313995
 21
40.53787547858519
 72
     1
 10
2252.166198313995
 20
40.53787547858519
 11
2276.75434681301
 21
40.53787547858519
 97
        4
330
1029
330
1027
330
1026
330
1025
 92
        1
 93
        4
 72
     2
 10
2188.255774665348
 20
36.5
 40
20.0
 50
11.6477236670746
 51
342.6561058784882
 73
     1
 72
     1
 10
2207.346428692676
 20
30.53787547858514
 11
2183.255774665347
 21
30.53787547858519
 72
     1
 10
2183.255774665347
 20
30.53787547858519
 11
2183.255774665347
 21
40.53787547858519
 72
     1
 10
2183.255774665347
 20
40.53787547858519
 11
2207.843923164362
 21
40.53787547858519
 97
        4
330
1028
330
101F
330
101E
330
101D
 92
        1
 93
        5
 72
     1
 10
2245.64189404294
 20
56.5
 11
2210.641894042939
 21
56.5
 72
     1
 10
2210.641894042939
 20
56.5
 11
2210.641894042939
 21
16.5
 72
     1
 10
2210.641894042939
 20
16.5
 11
2245.64189404294
 21
16.5
 72
     1
 10
2245.64189404294
 20
16.5
 11
2210.641894042939
 21
36.5
 72
     1
 10
2210.641894042939
 20
36.5
 11
2245.64189404294
 21
56.5
 97
        5
330
1024
330
1020
330
1021
330
1022
330
1023
 75
     0
 76
     1
 98
        1
 10
-60.0
 20
0.0
  0
LINE
  5
102B
330
1F
100
AcDbEntity
  8
実形
100
AcDbLine
 10
2184.0
 20
69.0
 30
0.0
 11
2184.0
 21
199.0
 31
0.0
  0
TEXT
  5
102C
330
1F
100
AcDbEntity
  8
実形
100
AcDbText
 10
2430.916666666667
 20
84.0
 30
0.0
 40
35.0
  1
1：10
 72
     4
 11
2484.0
 21
101.5
 31
0.0
100
AcDbText
  0
LINE
  5
102D
330
1F
100
AcDbEntity
  8
実形
100
AcDbLine
 10
2784.0
 20
69.0
 30
0.0
 11
2784.0
 21
134.0
 31
0.0
  0
LINE
  5
102E
330
1F
100
AcDbEntity
  8
実形
100
AcDbLine
 10
2784.0
 20
134.0
 30
0.0
 11
2784.0
 21
199.0
 31
0.0
  0
LINE
  5
102F
330
1F
100
AcDbEntity
  8
実形
100
AcDbLine
 10
2784.0
 20
4.0
 30
0.0
 11
2784.0
 21
69.0
 31
0.0
  0
DIMENSION
  5
104A
330
1F
100
AcDbEntity
  8
実形
100
AcDbDimension
  2
*D16
 10
409.0913961091391
 20
1635.631023659046
 30
0.0
 11
385.190415526271
 21
1629.383082689753
 31
0.0
 70
   160
 71
     5
 42
15.0
  3
ISO-25
100
AcDbAlignedDimension
 13
514.4005519276524
 23
1650.631023659046
 33
0.0
 14
514.4005519276524
 24
1635.631023659046
 34
0.0
 50
90.0
100
AcDbRotatedDimension
1001
ACAD
1000
DSTYLE
1002
{
1070
   279
1070
     2
1070
   371
1070
    18
1070
   372
1070
    18
1002
}
  0
DIMENSION
  5
1058
330
1F
100
AcDbEntity
  8
実形
100
AcDbDimension
  2
*D17
 10
409.0913961091391
 20
1225.631023659046
 30
0.0
 11
390.341396109139
 21
1430.631023659046
 31
0.0
 70
    32
 71
     5
 42
410.0
  3
ISO-25
100
AcDbAlignedDimension
 13
514.4005519276524
 23
1635.631023659046
 33
0.0
 14
514.4005519276524
 24
1225.631023659046
 34
0.0
 50
90.0
100
AcDbRotatedDimension
1001
ACAD
1000
DSTYLE
1002
{
1070
   279
1070
     1
1070
   371
1070
    18
1070
   372
1070
    18
1002
}
  0
DIMENSION
  5
1065
330
1F
100
AcDbEntity
  8
実形
100
AcDbDimension
  2
*D18
 10
409.091396109139
 20
1210.631023659046
 30
0.0
 11
406.6245107898466
 21
1234.355297274815
 31
0.0
 70
   160
 71
     5
 42
15.0
  3
ISO-25
100
AcDbAlignedDimension
 13
514.4005519276524
 23
1225.631023659046
 33
0.0
 14
514.4005519276524
 24
1210.631023659046
 34
0.0
 50
90.0
100
AcDbRotatedDimension
1001
ACAD
1000
DSTYLE
1002
{
1070
   279
1070
     1
1070
   371
1070
    18
1070
   372
1070
    18
1002
}
  0
LINE
  5
10C3
330
1F
100
AcDbEntity
  8
実形
100
AcDbLine
 10
1119.562808711718
 20
1210.631023659046
 30
0.0
 11
589.2382951435756
 21
1210.631023659046
 31
0.0
  0
LINE
  5
10C5
330
1F
100
AcDbEntity
  8
実形
100
AcDbLine
 10
589.2382951435755
 20
1650.631023659046
 30
0.0
 11
1119.562808711722
 21
1650.631023659046
 31
0.0
  0
ARC
  5
10C9
330
1F
100
AcDbEntity
  8
実形
100
AcDbCircle
 10
2529.400551927653
 20
1430.631023659046
 30
0.0
 40
2000.0
100
AcDbArc
 50
177.0369562156868
 51
182.9630437843131
  0
ARC
  5
10CA
330
1F
100
AcDbEntity
  8
実形
100
AcDbCircle
 10
-820.5994480723475
 20
1430.631023659046
 30
0.0
 40
2000.0
100
AcDbArc
 50
357.0369562156869
 51
2.963043784313127
  0
ARC
  5
10E3
330
1F
100
AcDbEntity
  8
実形
100
AcDbCircle
 10
854.4005519276524
 20
4975.631023659047
 30
0.0
 40
3750.0
100
AcDbArc
 50
266.5057765878446
 51
273.4942234121555
  0
ARC
  5
10E4
330
1F
100
AcDbEntity
  8
実形
100
AcDbCircle
 10
854.4005519276524
 20
-2114.368976340954
 30
0.0
 40
3750.0
100
AcDbArc
 50
86.50577658784451
 51
93.49422341215547
  0
ARC
  5
10E5
330
1F
100
AcDbEntity
  8
実形
100
AcDbCircle
 10
1076.86041173981
 20
1528.845484924311
 30
0.0
 40
100.0
100
AcDbArc
 50
2.96304378431319
 51
86.50577658784429
  0
ARC
  5
10E6
330
1F
100
AcDbEntity
  8
実形
100
AcDbCircle
 10
1076.86041173981
 20
1332.416562393781
 30
0.0
 40
100.0
100
AcDbArc
 50
273.4942234121547
 51
357.0369562156861
  0
ARC
  5
10E7
330
1F
100
AcDbEntity
  8
実形
100
AcDbCircle
 10
631.9406921154948
 20
1332.416562393781
 30
0.0
 40
100.0
100
AcDbArc
 50
182.9630437843129
 51
266.5057765878446
  0
ARC
  5
10E8
330
1F
100
AcDbEntity
  8
実形
100
AcDbCircle
 10
631.9406921154948
 20
1528.845484924311
 30
0.0
 40
100.0
100
AcDbArc
 50
93.49422341215491
 51
177.0369562156868
  0
ARC
  5
10E9
330
1F
100
AcDbEntity
  8
実形
100
AcDbCircle
 10
-49340.9342074371
 20
1430.631023659102
 30
0.0
 40
50520.75067928305
100
AcDbArc
 50
359.8183273145977
 51
0.1816726854021959
  0
ARC
  5
10EA
330
1F
100
AcDbEntity
  8
実形
100
AcDbCircle
 10
51049.73531109463
 20
1430.631023659046
 30
0.0
 40
50520.75067908528
100
AcDbArc
 50
179.818327314597
 51
180.181672685403
  0
LINE
  5
1241
330
1F
100
AcDbEntity
  8
実形
100
AcDbLine
 10
529.4005519276525
 20
740.8310236590462
 30
0.0
 11
529.4005519276525
 21
595.9963283946709
 31
0.0
  0
LINE
  5
1244
330
1F
100
AcDbEntity
  8
実形
100
AcDbLine
 10
1179.400551927653
 20
595.9963283946709
 30
0.0
 11
1179.400551927652
 21
740.8310236590462
 31
0.0
  0
LINE
  5
1245
330
1F
100
AcDbEntity
  8
実形
100
AcDbLine
 10
1176.400551927652
 20
735.6310236590462
 30
0.0
 11
532.4005519276524
 21
735.6310236590462
 31
0.0
  0
LINE
  5
1246
330
1F
100
AcDbEntity
  8
実形
100
AcDbLine
 10
944.9005519276525
 20
560.6310236590461
 30
0.0
 11
1150.185860376889
 21
566.0066086454043
 31
0.0
  0
LINE
  5
1247
330
1F
100
AcDbEntity
  8
実形
100
AcDbLine
 10
763.9005519276524
 20
560.6310236590461
 30
0.0
 11
558.6152434784162
 21
566.0066086454043
 31
0.0
  0
ARC
  5
1248
330
1F
100
AcDbEntity
  8
実形
100
AcDbCircle
 10
559.4005519276525
 20
595.9963283946709
 30
0.0
 40
30.0
100
AcDbArc
 50
180.0
 51
268.5
  0
ARC
  5
1249
330
1F
100
AcDbEntity
  8
実形
100
AcDbCircle
 10
1149.400551927652
 20
595.9963283946709
 30
0.0
 40
30.0
100
AcDbArc
 50
271.5
 51
0.0
  0
LINE
  5
126A
330
1F
100
AcDbEntity
  8
実形
  6
ACAD_ISO08W100
100
AcDbLine
 10
763.9005519276524
 20
560.6310236590461
 30
0.0
 11
504.9142093341725
 21
560.6310236590461
 31
0.0
  0
TEXT
  5
126B
330
1F
100
AcDbEntity
  8
実形
100
AcDbText
 10
577.7317202568092
 20
524.0859540481201
 30
0.0
 40
25.0
  1
1.5°
100
AcDbText
  0
ARC
  5
1271
330
1F
100
AcDbEntity
  8
実形
100
AcDbCircle
 10
532.4005519276524
 20
738.6310236590462
 30
0.0
 40
3.0
100
AcDbArc
 50
180.0
 51
270.0
  0
ARC
  5
1272
330
1F
100
AcDbEntity
  8
実形
100
AcDbCircle
 10
1176.400551927652
 20
738.6310236590462
 30
0.0
 40
3.0
100
AcDbArc
 50
270.0
 51
0.000000000000007
  0
ARC
  5
18DD
330
1F
100
AcDbEntity
  8
実形
100
AcDbCircle
 10
589.2382951435756
 20
1590.631023659046
 30
0.0
 40
60.0
100
AcDbArc
 50
90.0000000000001
 51
179.8183273145851
  0
ARC
  5
18E4
330
1F
100
AcDbEntity
  8
実形
100
AcDbCircle
 10
1119.562808711718
 20
1270.631023659046
 30
0.0
 40
60.0
100
AcDbArc
 50
269.9999999999998
 51
359.8183273145693
  0
ARC
  5
18E5
330
1F
100
AcDbEntity
  8
実形
100
AcDbCircle
 10
589.2382951435756
 20
1270.631023659046
 30
0.0
 40
60.0
100
AcDbArc
 50
180.1816726854031
 51
270.0
  0
LINE
  5
1901
330
1F
100
AcDbEntity
  8
実形
100
AcDbLine
 10
109.0
 20
2024.0
 30
0.0
 11
109.0
 21
4.0
 31
0.0
  0
TEXT
  5
1924
330
1F
100
AcDbEntity
  8
0
100
AcDbText
 10
2266.4
 20
151.8
 30
0.0
 40
35.0
  1
Jstn        S-DAN
  7
MS明朝
 72
     4
 11
2484.0
 21
166.5
 31
0.0
100
AcDbText
  0
TEXT
  5
1925
330
1F
100
AcDbEntity
  8
0
100
AcDbText
 10
2394.07781641309
 20
150.947886404665
 30
0.0
 40
35.0
  1
718-508
  7
MS明朝
 72
     4
 11
2483.67781641309
 21
168.047886404665
 31
0.0
100
AcDbText
  0
ARC
  5
19BD
330
1F
100
AcDbEntity
  8
実形
100
AcDbCircle
 10
589.2382951435756
 20
1590.631023659046
 30
0.0
 40
94.0
100
AcDbArc
 50
90.0000000000001
 51
179.8183273145851
  0
LINE
  5
19BE
330
1F
100
AcDbEntity
  8
実形
100
AcDbLine
 10
589.2382951435755
 20
1684.631023659046
 30
0.0
 11
1079.673673293782
 21
1684.631023659046
 31
0.0
  0
ARC
  5
19C1
330
1F
100
AcDbEntity
  8
実形
100
AcDbCircle
 10
1119.562808711722
 20
1590.631023659046
 30
0.0
 40
60.0
100
AcDbArc
 50
0.1816726854022695
 51
90.0
  0
ARC
  5
19C2
330
1F
100
AcDbEntity
  8
実形
100
AcDbCircle
 10
1119.562808711722
 20
1590.631023659046
 30
0.0
 40
94.0
100
AcDbArc
 50
0.1816726854022695
 51
90.0
  0
LINE
  5
19C3
330
1F
100
AcDbEntity
  8
実形
100
AcDbLine
 10
589.2382951435755
 20
1684.631023659046
 30
0.0
 11
1119.562808711722
 21
1684.631023659046
 31
0.0
  0
ARC
  5
19C4
330
1F
100
AcDbEntity
  8
実形
100
AcDbCircle
 10
-49340.9342074371
 20
1430.631023659102
 30
0.0
 40
50554.75067928306
100
AcDbArc
 50
359.8183273145977
 51
0.1816726854021959
  0
ARC
  5
19C5
330
1F
100
AcDbEntity
  8
実形
100
AcDbCircle
 10
1119.562808711718
 20
1270.631023659046
 30
0.0
 40
94.0
100
AcDbArc
 50
269.9999999999998
 51
359.8183273145693
  0
LINE
  5
19C6
330
1F
100
AcDbEntity
  8
実形
100
AcDbLine
 10
1119.562808711718
 20
1176.631023659046
 30
0.0
 11
589.2382951435756
 21
1176.631023659046
 31
0.0
  0
ARC
  5
19C7
330
1F
100
AcDbEntity
  8
実形
100
AcDbCircle
 10
589.2382951435756
 20
1270.631023659046
 30
0.0
 40
94.0
100
AcDbArc
 50
180.1816726854031
 51
270.0
  0
ARC
  5
19C9
330
1F
100
AcDbEntity
  8
実形
100
AcDbCircle
 10
51049.73531109463
 20
1430.631023659046
 30
0.0
 40
50554.75067908528
100
AcDbArc
 50
179.818327314597
 51
180.181672685403
  0
LEADER
  5
19FD
330
1F
100
AcDbEntity
  8
実形
100
AcDbLeader
  3
ISO-25
 40
25.0
 41
16.66666666666666
 76
     2
 10
515.6519201647722
 20
1660.149061651564
 30
0.0
 10
474.0305607467861
 20
1714.995816059059
 30
0.0
213
0.0
223
12.5
233
0.0
1001
ACAD
1000
DSTYLE
1002
{
1070
   147
1040
6.25
1070
    77
1070
     0
1070
    41
1040
20.0
1070
   342
1005
DA
1002
}
  0
TEXT
  5
19FE
330
1F
100
AcDbEntity
  8
実形
100
AcDbText
 10
413.1074998751692
 20
1726.34341058627
 30
0.0
 40
25.0
  1
94R
 72
     2
 11
479.7741665418359
 21
1751.343410586271
 31
0.0
100
AcDbText
 73
     3
  0
DIMENSION
  5
19FF
330
1F
100
AcDbEntity
  8
実形
100
AcDbDimension
  2
*D20
 10
1212.984632009349
 20
1812.040583407497
 30
0.0
 11
853.984632009349
 21
1830.790583407497
 31
0.0
 70
    32
 71
     5
 42
717.9999999999995
  3
ISO-25
100
AcDbAlignedDimension
 13
494.9846320093493
 23
1647.892849943897
 33
0.0
 14
1212.984632009349
 24
1647.892849943897
 34
0.0
100
AcDbRotatedDimension
1001
ACAD
1000
DSTYLE
1002
{
1070
    41
1040
10.0
1070
   342
1005
1915
1002
}
  0
DIMENSION
  5
1A00
330
1F
100
AcDbEntity
  8
実形
100
AcDbDimension
  2
*D21
 10
528.9846320093492
 20
1744.797667677727
 30
0.0
 11
531.4001943846476
 21
1773.776181946925
 31
0.0
 70
   160
  1
35
 71
     5
 42
34.0
  3
ISO-25
100
AcDbAlignedDimension
 13
494.9846320093493
 23
1647.892849943897
 33
0.0
 14
528.9846320093492
 24
1647.892849943897
 34
0.0
100
AcDbRotatedDimension
1001
ACAD
1000
DSTYLE
1002
{
1070
    41
1040
10.0
1070
   279
1070
     2
1070
   342
1005
1915
1002
}
  0
DIMENSION
  5
1A01
330
1F
100
AcDbEntity
  8
実形
100
AcDbDimension
  2
*D22
 10
1212.984632009349
 20
1744.797667677727
 30
0.0
 11
1182.599101099515
 21
1769.853454531587
 31
0.0
 70
   160
  1
35
 71
     5
 42
34.0
  3
ISO-25
100
AcDbAlignedDimension
 13
1178.984632009349
 23
1647.892849943897
 33
0.0
 14
1212.984632009349
 24
1647.892849943897
 34
0.0
100
AcDbRotatedDimension
1001
ACAD
1000
DSTYLE
1002
{
1070
    41
1040
10.0
1070
   279
1070
     2
1070
   342
1005
1915
1002
}
  0
TEXT
  5
1A4C
330
1F
100
AcDbEntity
  8
実形
100
AcDbText
 10
637.1016503879936
 20
1586.529170563449
 30
0.0
 40
25.0
  1
4角×
  7
MS明朝
 72
     2
 11
728.5302218165651
 21
1611.529170563449
 31
0.0
100
AcDbText
 73
     3
  0
LEADER
  5
1A4D
330
1F
100
AcDbEntity
  8
実形
100
AcDbLeader
  3
ISO-25
 40
25.0
 41
16.66666666666666
 76
     2
 10
553.3220412571572
 20
1628.424835957761
 30
0.0
 10
619.6745831808875
 20
1598.829175484899
 30
0.0
213
0.0
223
12.5
233
0.0
1001
ACAD
1000
DSTYLE
1002
{
1070
   147
1040
6.25
1070
    77
1070
     0
1070
    41
1040
20.0
1070
   342
1005
DA
1002
}
  0
TEXT
  5
1A4E
330
1F
100
AcDbEntity
  8
実形
100
AcDbText
 10
734.3505045336927
 20
1586.823230760923
 30
0.0
 40
25.0
  1
59R
 72
     2
 11
801.0171712003593
 21
1611.823230760923
 31
0.0
100
AcDbText
 73
     3
  0
LEADER
  5
1A5B
330
1F
100
AcDbEntity
  8
実形
100
AcDbLeader
  3
ISO-25
 40
25.0
 41
16.66666666666666
 76
     2
 10
509.6793660427102
 20
1195.902721569781
 30
0.0
 10
452.9102204640913
 20
1137.553377453632
 30
0.0
213
0.0
223
12.5
233
0.0
1001
ACAD
1000
DSTYLE
1002
{
1070
   147
1040
6.25
1070
    77
1070
     0
1070
    41
1040
20.0
1070
   342
1005
DA
1002
}
  0
TEXT
  5
1A5C
330
1F
100
AcDbEntity
  8
実形
100
AcDbText
 10
414.2885361421325
 20
1107.036057198494
 30
0.0
 40
25.0
  1
94R
 72
     2
 11
480.9552028087991
 21
1132.036057198495
 31
0.0
100
AcDbText
 73
     3
  0
LEADER
  5
1A5D
330
1F
100
AcDbEntity
  8
実形
100
AcDbLeader
  3
ISO-25
 40
25.0
 41
16.66666666666666
 76
     2
 10
1194.785438532981
 20
1654.761194795777
 30
0.0
 10
1259.088510762976
 20
1705.510342894431
 30
0.0
213
0.0
223
12.5
233
0.0
1001
ACAD
1000
DSTYLE
1002
{
1070
   147
1040
6.25
1070
    77
1070
     0
1070
    41
1040
20.0
1070
   342
1005
DA
1002
}
  0
TEXT
  5
1A5E
330
1F
100
AcDbEntity
  8
実形
100
AcDbText
 10
1228.497603506879
 20
1712.546621180223
 30
0.0
 40
25.0
  1
94R
 72
     2
 11
1295.164270173546
 21
1737.546621180223
 31
0.0
100
AcDbText
 73
     3
  0
LEADER
  5
1A5F
330
1F
100
AcDbEntity
  8
実形
100
AcDbLeader
  3
ISO-25
 40
25.0
 41
16.66666666666666
 76
     2
 10
1190.196863734109
 20
1193.679698024758
 30
0.0
 10
1249.745896481629
 20
1148.751586124128
 30
0.0
213
0.0
223
12.5
233
0.0
1001
ACAD
1000
DSTYLE
1002
{
1070
   147
1040
6.25
1070
    77
1070
     0
1070
    41
1040
20.0
1070
   342
1005
DA
1002
}
  0
TEXT
  5
1A60
330
1F
100
AcDbEntity
  8
実形
100
AcDbText
 10
1227.848297342079
 20
1118.888096839511
 30
0.0
 40
25.0
  1
94R
 72
     2
 11
1294.514964008746
 21
1143.888096839511
 31
0.0
100
AcDbText
 73
     3
  0
DIMENSION
  5
1AAD
330
1F
100
AcDbEntity
  8
実形
100
AcDbDimension
  2
*D23
 10
1310.681053457332
 20
1650.631023659046
 30
0.0
 11
1288.458033390992
 21
1618.735268904449
 31
0.0
 70
   160
  1
35
 71
     5
 42
34.00000000000023
  3
ISO-25
100
AcDbAlignedDimension
 13
1207.520061659294
 23
1684.631023659046
 33
0.0
 14
1207.520061659294
 24
1650.631023659046
 34
0.0
 50
90.0
100
AcDbRotatedDimension
1001
ACAD
1000
DSTYLE
1002
{
1070
   279
1070
     2
1070
   371
1070
    18
1070
   372
1070
    18
1002
}
  0
DIMENSION
  5
1ACC
330
1F
100
AcDbEntity
  8
実形
100
AcDbDimension
  2
*D24
 10
1310.681053457332
 20
1176.631023659046
 30
0.0
 11
1293.157454220176
 21
1252.3192577264
 31
0.0
 70
   160
  1
35
 71
     5
 42
34.00000000000023
  3
ISO-25
100
AcDbAlignedDimension
 13
1207.520061659294
 23
1210.631023659046
 33
0.0
 14
1207.520061659294
 24
1176.631023659046
 34
0.0
 50
90.0
100
AcDbRotatedDimension
1001
ACAD
1000
DSTYLE
1002
{
1070
   279
1070
     2
1070
   371
1070
    18
1070
   372
1070
    18
1002
}
  0
DIMENSION
  5
1AEB
330
1F
100
AcDbEntity
  8
実形
100
AcDbDimension
  2
*D25
 10
1359.078004300847
 20
1176.631023659046
 30
0.0
 11
1340.328004300847
 21
1430.631023659046
 31
0.0
 70
    32
 71
     5
 42
508.0
  3
ISO-25
100
AcDbAlignedDimension
 13
1244.612644192572
 23
1684.631023659046
 33
0.0
 14
1244.612644192572
 24
1176.631023659046
 34
0.0
 50
90.0
100
AcDbRotatedDimension
1001
ACAD
1000
DSTYLE
1002
{
1070
   279
1070
     2
1070
   371
1070
    18
1070
   372
1070
    18
1002
}
  0
LINE
  5
1B4A
330
1F
100
AcDbEntity
  8
実形
100
AcDbLine
 10
494.9846320093492
 20
753.8310236590461
 30
0.0
 11
494.9846320093492
 21
740.8310236590462
 31
0.0
  0
LINE
  5
1B4B
330
1F
100
AcDbEntity
  8
実形
100
AcDbLine
 10
1213.816471845945
 20
753.8310236590461
 30
0.0
 11
1213.816471845945
 21
740.8310236590462
 31
0.0
  0
LINE
  5
1B4C
330
1F
100
AcDbEntity
  8
実形
100
AcDbLine
 10
1213.816471845945
 20
740.8310236590462
 30
0.0
 11
494.9846320093492
 21
740.8310236590462
 31
0.0
  0
LINE
  5
1B4D
330
1F
100
AcDbEntity
  8
実形
100
AcDbLine
 10
1208.816471845945
 20
758.8310236590461
 30
0.0
 11
499.9846320093491
 21
758.8310236590461
 31
0.0
  0
DIMENSION
  5
1BA1
330
1F
100
AcDbEntity
  8
実形
100
AcDbDimension
  2
*D26
 10
379.2628039510538
 20
740.8310236590462
 30
0.0
 11
299.0607232837003
 21
810.3775030041052
 31
0.0
 70
   160
 71
     5
 42
18.0
  3
ISO-25
100
AcDbAlignedDimension
 13
522.2625820597689
 23
758.8310236590463
 33
0.0
 14
523.2413597009447
 24
740.8310236590462
 34
0.0
 50
90.0
100
AcDbRotatedDimension
1001
ACAD
1000
DSTYLE
1002
{
1070
   140
1040
25.0
1070
   279
1070
     2
1070
   371
1070
    18
1070
   372
1070
    18
1002
}
  0
DIMENSION
  5
1BA2
330
1F
100
AcDbEntity
  8
実形
100
AcDbDimension
  2
*D27
 10
379.2628039510538
 20
735.6310236590464
 30
0.0
 11
301.8355737050799
 21
712.5707412031044
 31
0.0
 70
   160
 71
     5
 42
5.199999999999931
  3
ISO-25
100
AcDbAlignedDimension
 13
523.2413597009447
 23
740.8310236590462
 33
0.0
 14
523.2413597009447
 24
735.6310236590464
 34
0.0
 50
90.0
100
AcDbRotatedDimension
1001
ACAD
1000
DSTYLE
1002
{
1070
   140
1040
25.0
1070
   279
1070
     2
1070
   371
1070
    18
1070
   372
1070
    18
1002
}
  0
DIMENSION
  5
1BA3
330
1F
100
AcDbEntity
  8
実形
100
AcDbDimension
  2
*D28
 10
379.2628039510538
 20
560.6310236590462
 30
0.0
 11
353.3889776065236
 21
631.3937755432981
 31
0.0
 70
   160
 71
     5
 42
175.0000000000001
  3
ISO-25
100
AcDbAlignedDimension
 13
523.2413597009447
 23
735.6310236590464
 33
0.0
 14
468.1748519261975
 24
560.6310236590462
 34
0.0
 50
90.0
100
AcDbRotatedDimension
1001
ACAD
1000
DSTYLE
1002
{
1070
   279
1070
     2
1070
   371
1070
    18
1070
   372
1070
    18
1002
}
  0
DIMENSION
  5
1BA4
330
1F
100
AcDbEntity
  8
実形
100
AcDbDimension
  2
*D29
 10
268.6409055004125
 20
560.6310236590462
 30
0.0
 11
249.8909055004125
 21
659.7310236590463
 31
0.0
 70
    32
 71
     5
 42
198.2
  3
ISO-25
100
AcDbAlignedDimension
 13
522.2625820597689
 23
758.8310236590463
 33
0.0
 14
468.1748519261975
 24
560.6310236590462
 34
0.0
 50
90.0
100
AcDbRotatedDimension
1001
ACAD
1000
DSTYLE
1002
{
1070
   279
1070
     2
1070
   371
1070
    18
1070
   372
1070
    18
1002
}
  0
DIMENSION
  5
1BA5
330
1F
100
AcDbEntity
  8
実形
100
AcDbDimension
  2
*D30
 10
379.2628039510538
 20
550.6310236590462
 30
0.0
 11
344.2628039510537
 21
544.2932399948095
 31
0.0
 70
   160
  1
7
 71
     5
 42
10.0
  3
ISO-25
100
AcDbAlignedDimension
 13
524.3347575101772
 23
560.6310236590462
 33
0.0
 14
524.3347575101772
 24
550.6310236590462
 34
0.0
 50
90.0
100
AcDbRotatedDimension
1001
ACAD
1000
DSTYLE
1002
{
1070
   279
1070
     2
1070
   371
1070
    18
1070
   372
1070
    18
1002
}
  0
LINE
  5
1BA6
330
1F
100
AcDbEntity
  8
実形
100
AcDbLine
 10
377.0598189103741
 20
738.2491134161065
 30
0.0
 11
330.0859515042441
 21
716.2873553079808
 31
0.0
  0
LINE
  5
1BA7
330
1F
100
AcDbEntity
  8
実形
100
AcDbLine
 10
374.6942337134107
 20
737.5733758993575
 30
0.0
 11
356.4453899218835
 21
732.843141078669
 31
0.0
  0
LINE
  5
1BA8
330
1F
100
AcDbEntity
  8
実形
100
AcDbLine
 10
375.0321879021987
 20
736.897623941919
 30
0.0
 11
361.5145145045946
 21
726.7614312244806
 31
0.0
  0
ARC
  5
1BA9
330
1F
100
AcDbEntity
  8
実形
100
AcDbCircle
 10
422.1054995719422
 20
870.8343616088331
 30
0.0
 40
128.7156019851906
100
AcDbArc
 50
213.3909885014397
 51
249.3522921630743
  0
LINE
  5
1BAA
330
1F
100
AcDbEntity
  8
実形
100
AcDbLine
 10
376.7556096254095
 20
750.5418146401317
 30
0.0
 11
365.8502564286311
 21
758.2185150829192
 31
0.0
  0
LINE
  5
1BAB
330
1F
100
AcDbEntity
  8
実形
100
AcDbLine
 10
376.553215498204
 20
750.4008645215564
 30
0.0
 11
362.668568526765
 21
753.9832672582434
 31
0.0
  0
LEADER
  5
1BAC
330
1F
100
AcDbEntity
  8
実形
100
AcDbLeader
  3
ISO-25
 40
25.0
 41
16.66666666666666
 76
     2
 10
489.5246682448662
 20
764.5005674911272
 30
0.0
 10
448.6515762394212
 20
808.2082157728164
 30
0.0
213
0.0
223
12.5
233
0.0
1001
ACAD
1000
DSTYLE
1002
{
1070
   147
1040
6.25
1070
    77
1070
     0
1070
    41
1040
20.0
1070
   342
1005
DA
1002
}
  0
TEXT
  5
1BAD
330
1F
100
AcDbEntity
  8
実形
100
AcDbText
 10
423.7766382011646
 20
820.6350627985495
 30
0.0
 40
25.0
  1
5R
 72
     2
 11
465.4433048678312
 21
845.6350627985495
 31
0.0
100
AcDbText
 73
     3
  0
LEADER
  5
1C27
330
1F
100
AcDbEntity
  8
実形
100
AcDbLeader
  3
ISO-25
 40
25.0
 41
16.66666666666666
 76
     2
 10
1226.383586985204
 20
764.2391279098574
 30
0.0
 10
1263.771062308751
 20
797.9785393703959
 30
0.0
213
0.0
223
12.5
233
0.0
1001
ACAD
1000
DSTYLE
1002
{
1070
   147
1040
6.25
1070
    77
1070
     0
1070
    41
1040
20.0
1070
   342
1005
DA
1002
}
  0
TEXT
  5
1C28
330
1F
100
AcDbEntity
  8
実形
100
AcDbText
 10
1254.138004400921
 20
804.7780496619161
 30
0.0
 40
25.0
  1
5R
 72
     2
 11
1295.804671067587
 21
829.7780496619161
 31
0.0
100
AcDbText
 73
     3
  0
ARC
  5
1C2A
330
1F
100
AcDbEntity
  8
実形
100
AcDbCircle
 10
499.9846320093491
 20
753.8310236590461
 30
0.0
 40
5.0
100
AcDbArc
 50
90.0
 51
180.0
  0
ARC
  5
1C2B
330
1F
100
AcDbEntity
  8
実形
100
AcDbCircle
 10
1208.816471845945
 20
753.8310236590461
 30
0.0
 40
5.0
100
AcDbArc
 50
0.0
 51
90.0
  0
LINE
  5
1CCD
330
1F
100
AcDbEntity
  8
実形
100
AcDbLine
 10
1661.083063190024
 20
1395.131023659046
 30
0.0
 11
1661.083063190024
 21
1576.131023659046
 31
0.0
  0
LINE
  5
1CCE
330
1F
100
AcDbEntity
  8
実形
100
AcDbLine
 10
1661.083063190024
 20
1576.131023659046
 30
0.0
 11
1671.083063190024
 21
1576.131023659046
 31
0.0
  0
LINE
  5
1CCF
330
1F
100
AcDbEntity
  8
実形
100
AcDbLine
 10
1671.083063190024
 20
1576.131023659046
 30
0.0
 11
1671.083063190024
 21
1395.131023659046
 31
0.0
  0
LINE
  5
1CD0
330
1F
100
AcDbEntity
  8
実形
100
AcDbLine
 10
1671.083063190024
 20
1395.131023659046
 30
0.0
 11
1661.083063190024
 21
1395.131023659046
 31
0.0
  0
LINE
  5
1CD1
330
1F
100
AcDbEntity
  8
実形
  6
ACAD_ISO08W100
 48
0.5
370
    15
100
AcDbLine
 10
1544.547274511067
 20
1485.631023659046
 30
0.0
 11
1698.458226768129
 21
1485.631023659046
 31
0.0
  0
TEXT
  5
1CD2
330
1F
100
AcDbEntity
  8
実形
370
    -2
100
AcDbText
 10
1533.35349362157
 20
1277.628851672915
 30
0.0
 40
25.0
  1
30R
100
AcDbText
  0
DIMENSION
  5
1CD3
330
1F
100
AcDbEntity
  8
実形
100
AcDbDimension
  2
*D31
 10
1786.389207281944
 20
1405.631023659046
 30
0.0
 11
1767.639207281944
 21
1485.631023659047
 31
0.0
 70
    32
  1
158
 71
     5
 42
160.0
  3
ISO-25
100
AcDbAlignedDimension
 13
1676.083063190024
 23
1565.631023659046
 33
0.0
 14
1676.083063190024
 24
1405.631023659046
 34
0.0
 50
90.0
100
AcDbRotatedDimension
1001
ACAD
1000
DSTYLE
1002
{
1070
   371
1070
    18
1002
}
  0
DIMENSION
  5
1CD4
330
1F
100
AcDbEntity
  8
実形
100
AcDbDimension
  2
*D32
 10
1836.035478038925
 20
1395.131023659046
 30
0.0
 11
1817.285478038925
 21
1485.631023659047
 31
0.0
 70
    32
 71
     5
 42
181.0
  3
ISO-25
100
AcDbAlignedDimension
 13
1676.083063190024
 23
1576.131023659046
 33
0.0
 14
1676.083063190024
 24
1395.131023659046
 34
0.0
 50
90.0
100
AcDbRotatedDimension
1001
ACAD
1000
DSTYLE
1002
{
1070
   371
1070
    18
1002
}
  0
LEADER
  5
1CD5
330
1F
100
AcDbEntity
  8
実形
100
AcDbLeader
  3
ISO-25
 40
25.0
 41
16.66666666666666
 76
     2
 10
1648.16605700512
 20
1236.843907487723
 30
0.0
 10
1611.122678328393
 20
1273.858031225875
 30
0.0
213
0.0
223
-12.5
233
0.0
1001
ACAD
1000
DSTYLE
1002
{
1070
    41
1040
25.0
1070
   147
1040
6.25
1070
    77
1070
     0
1070
    73
1070
     1
1070
    74
1070
     1
1070
   279
1070
     1
1070
   342
1005
DA
1002
}
  0
LINE
  5
1CD6
330
1F
100
AcDbEntity
  8
実形
100
AcDbLine
 10
1476.283063190024
 20
1650.631023659046
 30
0.0
 11
1483.083063190024
 21
1650.631023659046
 31
0.0
  0
LINE
  5
1CD7
330
1F
100
AcDbEntity
  8
実形
100
AcDbLine
 10
1486.083063190024
 20
1647.631023659046
 30
0.0
 11
1486.083063190024
 21
1640.631023659046
 31
0.0
  0
LINE
  5
1CD8
330
1F
100
AcDbEntity
  8
実形
100
AcDbLine
 10
1491.083063190024
 20
1635.631023659046
 30
0.0
 11
1631.083063190024
 21
1635.631023659046
 31
0.0
  0
LINE
  5
1CD9
330
1F
100
AcDbEntity
  8
実形
100
AcDbLine
 10
1631.083063190024
 20
1225.631023659046
 30
0.0
 11
1491.083063190024
 21
1225.631023659046
 31
0.0
  0
LINE
  5
1CDA
330
1F
100
AcDbEntity
  8
実形
100
AcDbLine
 10
1486.083063190024
 20
1220.631023659046
 30
0.0
 11
1486.083063190024
 21
1213.631023659046
 31
0.0
  0
LINE
  5
1CDB
330
1F
100
AcDbEntity
  8
実形
100
AcDbLine
 10
1483.083063190024
 20
1210.631023659046
 30
0.0
 11
1476.283063190024
 21
1210.631023659046
 31
0.0
  0
ARC
  5
1CDC
330
1F
100
AcDbEntity
  8
実形
100
AcDbCircle
 10
1483.083063190024
 20
1647.631023659046
 30
0.0
 40
3.0
100
AcDbArc
 50
0.0
 51
90.0
  0
ARC
  5
1CDD
330
1F
100
AcDbEntity
  8
実形
100
AcDbCircle
 10
1483.083063190024
 20
1213.631023659046
 30
0.0
 40
3.0
100
AcDbArc
 50
270.0
 51
0.0
  0
ARC
  5
1CDE
330
1F
100
AcDbEntity
  8
実形
100
AcDbCircle
 10
1491.083063190024
 20
1640.631023659046
 30
0.0
 40
5.0
100
AcDbArc
 50
180.0
 51
270.0
  0
ARC
  5
1CDF
330
1F
100
AcDbEntity
  8
実形
100
AcDbCircle
 10
1491.083063190024
 20
1220.631023659046
 30
0.0
 40
5.0
100
AcDbArc
 50
90.0
 51
180.0
  0
LEADER
  5
1CE1
330
1F
100
AcDbEntity
  8
実形
100
AcDbLeader
  3
ISO-25
 40
25.0
 41
16.66666666666666
 76
     2
 10
1481.566376849604
 20
1646.406794031915
 30
0.0
 10
1444.491155570472
 20
1611.05457466163
 30
0.0
210
0.0
220
0.0
230
-1.0
213
0.0
223
12.5
233
0.0
1001
ACAD
1000
DSTYLE
1002
{
1070
    41
1040
25.0
1070
   147
1040
6.25
1070
    77
1070
     0
1070
    73
1070
     1
1070
    74
1070
     1
1070
   279
1070
     1
1070
   342
1005
DA
1002
}
  0
TEXT
  5
1CE2
330
1F
100
AcDbEntity
  8
実形
370
    -2
100
AcDbText
 10
1402.255623878006
 20
1579.524703343008
 30
0.0
 40
25.0
  1
3R
100
AcDbText
  0
LEADER
  5
1CE3
330
1F
100
AcDbEntity
  8
実形
100
AcDbLeader
  3
ISO-25
 40
25.0
 41
16.66666666666666
 76
     2
 10
1491.949006479756
 20
1641.446544447739
 30
0.0
 10
1531.196968442165
 20
1675.791734940023
 30
0.0
210
0.0
220
0.0
230
-1.0
213
0.0
223
12.5
233
0.0
1001
ACAD
1000
DSTYLE
1002
{
1070
    41
1040
25.0
1070
   147
1040
6.25
1070
    77
1070
     0
1070
    73
1070
     1
1070
    74
1070
     1
1070
   279
1070
     1
1070
   342
1005
DA
1002
}
  0
TEXT
  5
1CE4
330
1F
100
AcDbEntity
  8
実形
370
    -2
100
AcDbText
 10
1541.991652769167
 20
1663.80325349813
 30
0.0
 40
25.0
  1
5R
100
AcDbText
  0
LINE
  5
1CE6
330
1F
100
AcDbEntity
  8
実形
100
AcDbLine
 10
1661.083063190024
 20
1576.131023659046
 30
0.0
 11
1661.083063190024
 21
1605.631023659046
 31
0.0
  0
LINE
  5
1CE7
330
1F
100
AcDbEntity
  8
実形
100
AcDbLine
 10
1661.083063190024
 20
1395.131023659046
 30
0.0
 11
1661.083063190024
 21
1255.631023659046
 31
0.0
  0
ARC
  5
1CE8
330
1F
100
AcDbEntity
  8
実形
100
AcDbCircle
 10
1631.083063190024
 20
1605.631023659046
 30
0.0
 40
30.0
100
AcDbArc
 50
0.0
 51
90.0
  0
ARC
  5
1CE9
330
1F
100
AcDbEntity
  8
実形
100
AcDbCircle
 10
1631.083063190024
 20
1255.631023659046
 30
0.0
 40
30.0
100
AcDbArc
 50
270.0
 51
0.0
  0
LINE
  5
1D46
330
1F
100
AcDbEntity
  8
実形
100
AcDbLine
 10
1476.283063190024
 20
1684.631023659046
 30
0.0
 11
1476.283063190024
 21
1176.631023659046
 31
0.0
  0
LINE
  5
1D47
330
1F
100
AcDbEntity
  8
実形
100
AcDbLine
 10
1463.283063190024
 20
1176.631023659046
 30
0.0
 11
1476.283063190024
 21
1176.631023659046
 31
0.0
  0
LINE
  5
1D49
330
1F
100
AcDbEntity
  8
実形
100
AcDbLine
 10
1463.283063190024
 20
1684.631023659046
 30
0.0
 11
1476.283063190024
 21
1684.631023659046
 31
0.0
  0
LINE
  5
1D4A
330
1F
100
AcDbEntity
  8
実形
100
AcDbLine
 10
1458.283063190024
 20
1679.631023659046
 30
0.0
 11
1458.283063190024
 21
1181.631023659046
 31
0.0
  0
ARC
  5
1D4C
330
1F
100
AcDbEntity
  8
実形
100
AcDbCircle
 10
1463.283063190024
 20
1181.631023659046
 30
0.0
 40
5.0
100
AcDbArc
 50
180.0
 51
270.0
  0
ARC
  5
1D4D
330
1F
100
AcDbEntity
  8
実形
100
AcDbCircle
 10
1463.283063190024
 20
1679.631023659046
 30
0.0
 40
5.0
100
AcDbArc
 50
90.0
 51
180.0
  0
DIMENSION
  5
1D8F
330
1F
100
AcDbEntity
  8
実形
100
AcDbDimension
  2
*D33
 10
1476.283063190024
 20
1049.977895364868
 30
0.0
 11
1427.15118028888
 21
1078.594182066272
 31
0.0
 70
   160
 71
     5
 42
18.0
  3
ISO-25
100
AcDbAlignedDimension
 13
1458.283063190024
 23
1210.784882509066
 33
0.0
 14
1476.283063190024
 24
1210.784882509066
 34
0.0
100
AcDbRotatedDimension
1001
ACAD
1000
DSTYLE
1002
{
1070
   279
1070
     2
1070
   371
1070
    18
1070
   372
1070
    18
1002
}
  0
DIMENSION
  5
1D90
330
1F
100
AcDbEntity
  8
実形
100
AcDbDimension
  2
*D34
 10
1656.483063190024
 20
1049.977895364868
 30
0.0
 11
1566.383063190024
 21
1068.727895364868
 31
0.0
 70
    32
 71
     5
 42
180.1999999999998
  3
ISO-25
100
AcDbAlignedDimension
 13
1476.283063190024
 23
1210.784882509066
 33
0.0
 14
1656.483063190024
 24
1210.784882509066
 34
0.0
100
AcDbRotatedDimension
1001
ACAD
1000
DSTYLE
1002
{
1070
   279
1070
     2
1070
   371
1070
    18
1070
   372
1070
    18
1002
}
  0
DIMENSION
  5
1D91
330
1F
100
AcDbEntity
  8
実形
100
AcDbDimension
  2
*D35
 10
1666.483063190024
 20
1093.686476392865
 30
0.0
 11
1698.944024356717
 21
1116.871880571415
 31
0.0
 70
   160
  1
7
 71
     5
 42
10.0
  3
ISO-25
100
AcDbAlignedDimension
 13
1656.483063190024
 23
1210.784882509066
 33
0.0
 14
1666.483063190024
 24
1210.784882509066
 34
0.0
100
AcDbRotatedDimension
1001
ACAD
1000
DSTYLE
1002
{
1070
   279
1070
     2
1070
   371
1070
    18
1070
   372
1070
    18
1002
}
  0
DIMENSION
  5
1D92
330
1F
100
AcDbEntity
  8
実形
100
AcDbDimension
  2
*D36
 10
1656.483063190024
 20
991.1998074146763
 30
0.0
 11
1557.383063190024
 21
1009.949807414676
 31
0.0
 70
    32
 71
     5
 42
198.1999999999998
  3
ISO-25
100
AcDbAlignedDimension
 13
1458.283063190024
 23
1210.784882509066
 33
0.0
 14
1656.483063190024
 24
1210.784882509066
 34
0.0
100
AcDbRotatedDimension
1001
ACAD
1000
DSTYLE
1002
{
1070
   279
1070
     2
1070
   371
1070
    18
1070
   372
1070
    18
1002
}
  0
LEADER
  5
1D93
330
1F
100
AcDbEntity
  8
実形
100
AcDbLeader
  3
ISO-25
 40
25.0
 41
16.66666666666666
 76
     2
 10
1450.544723098204
 20
1685.818176890273
 30
0.0
 10
1404.040055220923
 20
1728.172566711857
 30
0.0
213
0.0
223
12.5
233
0.0
1001
ACAD
1000
DSTYLE
1002
{
1070
   147
1040
6.25
1070
    77
1070
     0
1070
    41
1040
20.0
1070
   342
1005
DA
1002
}
  0
TEXT
  5
1D94
330
1F
100
AcDbEntity
  8
実形
100
AcDbText
 10
1377.619052608991
 20
1735.704512903911
 30
0.0
 40
25.0
  1
5R
 72
     2
 11
1419.285719275658
 21
1760.704512903911
 31
0.0
100
AcDbText
 73
     3
  0
LEADER
  5
1D95
330
1F
100
AcDbEntity
  8
実形
100
AcDbLeader
  3
ISO-25
 40
25.0
 41
16.66666666666666
 76
     2
 10
1449.868540887322
 20
1173.60949948971
 30
0.0
 10
1390.391839704893
 20
1133.973839690861
 30
0.0
213
0.0
223
12.5
233
0.0
1001
ACAD
1000
DSTYLE
1002
{
1070
   147
1040
6.25
1070
    77
1070
     0
1070
    41
1040
20.0
1070
   342
1005
DA
1002
}
  0
TEXT
  5
1D96
330
1F
100
AcDbEntity
  8
実形
100
AcDbText
 10
1359.001362602393
 20
1101.285871766641
 30
0.0
 40
25.0
  1
5R
 72
     2
 11
1400.66802926906
 21
1126.285871766641
 31
0.0
100
AcDbText
 73
     3
  0
LINE
  5
1F5C
330
1F
100
AcDbEntity
  8
実形
100
AcDbLine
 10
2415.50327858681
 20
693.4388787035102
 30
0.0
 11
2025.503278586809
 21
693.4388787035102
 31
0.0
  0
LINE
  5
1F5D
330
1F
100
AcDbEntity
  8
実形
100
AcDbLine
 10
2228.303278586809
 20
594.6388787035102
 30
0.0
 11
1947.503278586809
 21
594.6388787035102
 31
0.0
  0
ARC
  5
1F5E
330
1F
100
AcDbEntity
  8
実形
100
AcDbCircle
 10
2025.503278586809
 20
615.4388787035102
 30
0.0
 40
78.0
100
AcDbArc
 50
90.0
 51
180.0
  0
ARC
  5
1F5F
330
1F
100
AcDbEntity
  8
実形
100
AcDbCircle
 10
2415.50327858681
 20
615.4388787035102
 30
0.0
 40
78.0
100
AcDbArc
 50
0.0
 51
90.0
  0
LINE
  5
1F60
330
1F
100
AcDbEntity
  8
実形
100
AcDbLine
 10
2493.503278586809
 20
553.0388787035102
 30
0.0
 11
2228.303278586809
 21
553.0388787035102
 31
0.0
  0
LINE
  5
1F61
330
1F
100
AcDbEntity
  8
実形
100
AcDbLine
 10
2150.303278586809
 20
553.0388787035102
 30
0.0
 11
2025.503278586809
 21
553.0388787035102
 31
0.0
  0
LINE
  5
1F62
330
1F
100
AcDbEntity
  8
実形
100
AcDbLine
 10
2197.103278586809
 20
553.0388787035102
 30
0.0
 11
1978.703278586809
 21
553.0388787035102
 31
0.0
  0
LINE
  5
1F63
330
1F
100
AcDbEntity
  8
実形
100
AcDbLine
 10
2493.503278586809
 20
412.6388787035102
 30
0.0
 11
2258.374896199489
 21
412.6388787035102
 31
0.0
  0
LINE
  5
1F64
330
1F
100
AcDbEntity
  8
実形
100
AcDbLine
 10
2150.303278586809
 20
412.6388787035102
 30
0.0
 11
2025.503278586809
 21
412.6388787035102
 31
0.0
  0
LINE
  5
1F65
330
1F
100
AcDbEntity
  8
実形
100
AcDbLine
 10
1947.503278586809
 20
615.4388787035102
 30
0.0
 11
1947.503278586809
 21
594.6388787035102
 31
0.0
  0
LINE
  5
1F66
330
1F
100
AcDbEntity
  8
実形
100
AcDbLine
 10
1963.103278586809
 20
568.6388787035093
 30
0.0
 11
2197.103278586809
 21
568.6388787035093
 31
0.0
  0
LINE
  5
1F67
330
1F
100
AcDbEntity
  8
実形
100
AcDbLine
 10
2228.303278586809
 20
594.6388787035102
 30
0.0
 11
2228.303278586809
 21
553.0388787035102
 31
0.0
  0
LINE
  5
1F68
330
1F
100
AcDbEntity
  8
実形
100
AcDbLine
 10
2150.303278586809
 20
553.0388787035102
 30
0.0
 11
2025.503278586809
 21
553.0388787035102
 31
0.0
  0
LINE
  5
1F69
330
1F
100
AcDbEntity
  8
実形
100
AcDbLine
 10
2493.503278586809
 20
615.4388787035102
 30
0.0
 11
2493.503278586809
 21
412.6388787035102
 31
0.0
  0
LINE
  5
1F6A
330
1F
100
AcDbEntity
  8
実形
100
AcDbLine
 10
2025.503278586809
 20
553.0388787035102
 30
0.0
 11
2025.503278586809
 21
412.6388787035112
 31
0.0
  0
LINE
  5
1F6B
330
1F
100
AcDbEntity
  8
実形
100
AcDbLine
 10
1963.103278586809
 20
568.6388787035093
 30
0.0
 11
1963.10327858681
 21
365.8528662055801
 31
0.0
  0
LINE
  5
1F6C
330
1F
100
AcDbEntity
  8
実形
100
AcDbLine
 10
1978.703278586809
 20
553.0388787035102
 30
0.0
 11
1978.703278586809
 21
365.8528662055802
 31
0.0
  0
ARC
  5
1F6D
330
1F
100
AcDbEntity
  8
実形
100
AcDbCircle
 10
2189.303278586809
 20
553.0388787035102
 30
0.0
 40
39.0
100
AcDbArc
 50
180.0
 51
0.0
  0
TEXT
  5
1F6E
330
1F
100
AcDbEntity
  8
実形
100
AcDbText
 10
1716.352098167294
 20
420.331799836469
 30
0.0
 40
35.0
  1
シンク厚　
 11
1716.352098167294
 21
415.6651331698023
 31
0.0
100
AcDbText
 73
     1
  0
DIMENSION
  5
1F6F
330
1F
100
AcDbEntity
  8
実形
100
AcDbDimension
  2
*D37
 10
1947.50327858681
 20
476.4445371024394
 30
0.0
 11
1927.154852797523
 21
500.9356801950445
 31
0.0
 70
   160
  1
1
 71
     5
 42
15.59999999999991
  3
ISO-25
100
AcDbAlignedDimension
 13
1963.10327858681
 23
568.6388787035094
 33
0.0
 14
1947.50327858681
 24
542.8471552806367
 34
0.0
 50
180.0
100
AcDbRotatedDimension
1001
ACAD
1000
DSTYLE
1002
{
1070
   282
1070
     1
1070
   281
1070
     1
1070
    41
1040
5.0
1070
    42
1040
6.0
1070
   140
1040
25.0
1070
   147
1040
1.199999999999999
1070
   279
1070
     2
1070
   289
1070
     2
1070
   371
1070
    13
1070
   372
1070
    13
1002
}
  0
TEXT
  5
1F70
330
1F
100
AcDbEntity
  8
実形
  6
HIDDEN2
100
AcDbText
 10
1968.066600121111
 20
472.2750337594243
 30
0.0
 40
10.14
  1
● 
 71
     2
100
AcDbText
  0
TEXT
  5
1F71
330
1F
100
AcDbEntity
  8
実形
  6
HIDDEN2
100
AcDbText
 10
1951.836239646571
 20
471.8412446318379
 30
0.0
 40
10.14
  1
● 
 71
     2
100
AcDbText
  0
LINE
  5
1F72
330
1F
100
AcDbEntity
  8
実形
100
AcDbLine
 10
1963.51457456288
 20
476.7671083971321
 30
0.0
 11
1947.829667527175
 21
476.7671083971321
 31
0.0
  0
LINE
  5
1F73
330
1F
100
AcDbEntity
  8
実形
100
AcDbLine
 10
2258.374896199489
 20
412.6388787035102
 30
0.0
 11
2228.303278586809
 21
412.6388787035102
 31
0.0
  0
ARC
  5
1F74
330
1F
100
AcDbEntity
  8
実形
100
AcDbCircle
 10
2189.303278586809
 20
412.6388787035102
 30
0.0
 40
39.0
100
AcDbArc
 50
0.0
 51
180.0
  0
LINE
  5
1F75
330
1F
100
AcDbEntity
  8
実形
100
AcDbLine
 10
2150.303278586809
 20
466.6963647750328
 30
0.0
 11
2150.303278586809
 21
448.7942378414921
 31
0.0
  0
LINE
  5
1F76
330
1F
100
AcDbEntity
  8
実形
100
AcDbLine
 10
2228.303278586809
 20
466.6963647750328
 30
0.0
 11
2228.303278586809
 21
448.8418713489303
 31
0.0
  0
TEXT
  5
1F77
330
1F
100
AcDbEntity
  8
実形
100
AcDbText
 10
1731.678836044741
 20
368.6178800155686
 30
0.0
 40
28.0
  1
0.8mm
 11
1731.678836044741
 21
364.8845466822352
 31
0.0
100
AcDbText
 73
     1
  0
TEXT
  5
1F78
330
1F
100
AcDbEntity
  8
実形
100
AcDbText
 10
1841.441352076292
 20
734.0510999315244
 30
0.0
 40
28.0
  1
5R
 11
1841.441352076292
 21
730.3177665981912
 31
0.0
100
AcDbText
 73
     1
  0
DIMENSION
  5
1F79
330
1F
100
AcDbEntity
  8
実形
100
AcDbDimension
  2
*D38
 10
2197.103278586809
 20
626.499025413821
 30
0.0
 11
2080.103278586809
 21
645.249025413821
 31
0.0
 70
    32
  1
15
 71
     5
 42
234.0
  3
ISO-25
100
AcDbAlignedDimension
 13
1963.103278586809
 23
536.2515538480251
 33
0.0
 14
2197.103278586809
 24
536.2515538480251
 34
0.0
100
AcDbRotatedDimension
1001
ACAD
1000
DSTYLE
1002
{
1070
   279
1070
     2
1070
   371
1070
    18
1070
   372
1070
    18
1002
}
  0
LEADER
  5
1F7A
330
1F
100
AcDbEntity
  8
実形
100
AcDbLeader
  3
ISO-25
 76
     2
 10
1952.999988120199
 20
668.1222954033009
 30
0.0
 10
1878.627564090926
 20
721.824866514151
 30
0.0
1001
ACAD
1000
DSTYLE
1002
{
1070
   147
1040
6.25
1070
    77
1070
     0
1070
   279
1070
     2
1070
   371
1070
    18
1070
   372
1070
    18
1002
}
  0
LINE
  5
1F7B
330
1F
100
AcDbEntity
  8
実形
100
AcDbLine
 10
2197.103278586809
 20
568.6388787035093
 30
0.0
 11
2197.103278586809
 21
553.0388787035102
 31
0.0
  0
DIMENSION
  5
1F7C
330
1F
100
AcDbEntity
  8
実形
100
AcDbDimension
  2
*D39
 10
2101.036883161905
 20
553.0388787035104
 30
0.0
 11
2069.564297767181
 21
524.3493911207361
 31
0.0
 70
   160
  1
2.5
 71
     5
 42
39.0
  3
ISO-25
100
AcDbAlignedDimension
 13
2229.883963240635
 23
514.0388787035103
 33
0.0
 14
2153.536592650147
 24
553.0388787035104
 34
0.0
 50
90.0
100
AcDbRotatedDimension
1001
ACAD
1000
DSTYLE
1002
{
1070
   140
1040
23.0
1070
   279
1070
     2
1070
   371
1070
    18
1070
   372
1070
    18
1002
}
  0
DIMENSION
  5
1F7D
330
1F
100
AcDbEntity
  8
実形
100
AcDbDimension
  2
*D40
 10
2228.303278586809
 20
461.4323905324424
 30
0.0
 11
2189.303278586809
 21
480.1823905324424
 31
0.0
 70
    32
  1
5
 71
     5
 42
78.0
  3
ISO-25
100
AcDbAlignedDimension
 13
2150.30327858681
 23
522.3587244814916
 33
0.0
 14
2228.303278586809
 24
522.3587244814916
 34
0.0
100
AcDbRotatedDimension
1001
ACAD
1000
DSTYLE
1002
{
1070
   279
1070
     2
1070
   371
1070
    18
1070
   372
1070
    18
1002
}
  0
LINE
  5
1F7E
330
1F
100
AcDbEntity
  8
実形
100
AcDbLine
 10
2150.303278586809
 20
461.4323905324425
 30
0.0
 11
2150.303278586809
 21
504.0521172560442
 31
0.0
  0
LINE
  5
1F7F
330
1F
100
AcDbEntity
  8
実形
100
AcDbLine
 10
2228.303278586809
 20
461.4323905324425
 30
0.0
 11
2228.303278586809
 21
502.8545106432656
 31
0.0
  0
DIMENSION
  5
1F80
330
1F
100
AcDbEntity
  8
実形
100
AcDbDimension
  2
*D41
 10
2102.975332119596
 20
412.6388787035103
 30
0.0
 11
2070.355870815655
 21
441.0024837871193
 31
0.0
 70
   160
  1
2.5
 71
     5
 42
38.99999999999995
  3
ISO-25
100
AcDbAlignedDimension
 13
2203.595588728236
 23
451.6388787035102
 33
0.0
 14
2215.882092629512
 24
412.6388787035102
 34
0.0
 50
90.0
100
AcDbRotatedDimension
1001
ACAD
1000
DSTYLE
1002
{
1070
   140
1040
23.0
1070
   279
1070
     2
1070
   371
1070
    18
1070
   372
1070
    18
1002
}
  0
DIMENSION
  5
1F81
330
1F
100
AcDbEntity
  8
実形
100
AcDbDimension
  2
*D42
 10
2228.303278586809
 20
743.3028714699867
 30
0.0
 11
2087.903278586809
 21
762.0528714699867
 31
0.0
 70
    32
  1
18
 71
     5
 42
280.7999999999997
  3
ISO-25
100
AcDbAlignedDimension
 13
1947.50327858681
 23
640.5397997195641
 33
0.0
 14
2228.303278586809
 24
640.5397997195641
 34
0.0
100
AcDbRotatedDimension
1001
ACAD
1000
DSTYLE
1002
{
1070
   279
1070
     2
1070
   371
1070
    18
1070
   372
1070
    18
1002
}
  0
DIMENSION
  5
1F82
330
1F
100
AcDbEntity
  8
実形
100
AcDbDimension
  2
*D43
 10
2493.503278586809
 20
743.3028714699867
 30
0.0
 11
2360.90327858681
 21
762.0528714699867
 31
0.0
 70
    32
  1
17
 71
     5
 42
265.1999999999998
  3
ISO-25
100
AcDbAlignedDimension
 13
2228.303278586809
 23
640.5397997195629
 33
0.0
 14
2493.503278586809
 24
640.5397997195629
 34
0.0
100
AcDbRotatedDimension
1001
ACAD
1000
DSTYLE
1002
{
1070
   279
1070
     2
1070
   371
1070
    18
1070
   372
1070
    18
1002
}
  0
DIMENSION
  5
1F83
330
1F
100
AcDbEntity
  8
実形
100
AcDbDimension
  2
*D44
 10
2493.503278586809
 20
786.8108100678382
 30
0.0
 11
2220.50327858681
 21
805.5608100678382
 31
0.0
 70
    32
  1
35
 71
     5
 42
545.9999999999995
  3
ISO-25
100
AcDbAlignedDimension
 13
1947.50327858681
 23
640.5397997195629
 33
0.0
 14
2493.503278586809
 24
640.5397997195629
 34
0.0
100
AcDbRotatedDimension
1001
ACAD
1000
DSTYLE
1002
{
1070
   279
1070
     2
1070
   371
1070
    18
1070
   372
1070
    18
1002
}
  0
TEXT
  5
1F84
330
1F
100
AcDbEntity
  8
実形
100
AcDbText
 10
2533.503990461839
 20
722.9944496952724
 30
0.0
 40
28.0
  1
5R
 11
2533.503990461839
 21
719.2611163619391
 31
0.0
100
AcDbText
 73
     1
  0
DIMENSION
  5
1F85
330
1F
100
AcDbEntity
  8
実形
100
AcDbDimension
  2
*D45
 10
2025.503278586809
 20
306.8527456354114
 30
0.0
 11
1925.472691921497
 21
342.2580203758225
 31
0.0
 70
   160
  1
3.2
 71
     5
 42
46.80000000000018
  3
ISO-25
100
AcDbAlignedDimension
 13
1978.703278586809
 23
420.8916371725106
 33
0.0
 14
2025.503278586809
 24
420.8916371725106
 34
0.0
100
AcDbRotatedDimension
1001
ACAD
1000
DSTYLE
1002
{
1070
   140
1040
25.0
1070
   279
1070
     2
1070
   371
1070
    18
1070
   372
1070
    18
1002
}
  0
DIMENSION
  5
1F86
330
1F
100
AcDbEntity
  8
実形
100
AcDbDimension
  2
*D46
 10
2150.30327858681
 20
306.8527456354114
 30
0.0
 11
2087.903278586809
 21
325.6027456354114
 31
0.0
 70
    32
  1
8
 71
     5
 42
124.8000000000001
  3
ISO-25
100
AcDbAlignedDimension
 13
2025.503278586809
 23
420.8916371725106
 33
0.0
 14
2150.30327858681
 24
420.8916371725106
 34
0.0
100
AcDbRotatedDimension
1001
ACAD
1000
DSTYLE
1002
{
1070
   279
1070
     2
1070
   371
1070
    18
1070
   372
1070
    18
1002
}
  0
DIMENSION
  5
1F87
330
1F
100
AcDbEntity
  8
実形
100
AcDbDimension
  2
*D47
 10
2228.303278586809
 20
306.8527456354114
 30
0.0
 11
2189.303278586809
 21
325.6027456354114
 31
0.0
 70
    32
  1
5
 71
     5
 42
78.0
  3
ISO-25
100
AcDbAlignedDimension
 13
2150.30327858681
 23
420.8916371725106
 33
0.0
 14
2228.303278586809
 24
420.8916371725106
 34
0.0
100
AcDbRotatedDimension
1001
ACAD
1000
DSTYLE
1002
{
1070
   279
1070
     2
1070
   371
1070
    18
1070
   372
1070
    18
1002
}
  0
DIMENSION
  5
1F88
330
1F
100
AcDbEntity
  8
実形
100
AcDbDimension
  2
*D48
 10
2493.503278586809
 20
306.8527456354114
 30
0.0
 11
2360.90327858681
 21
325.6027456354114
 31
0.0
 70
    32
  1
17
 71
     5
 42
265.1999999999998
  3
ISO-25
100
AcDbAlignedDimension
 13
2228.303278586809
 23
420.8916371725106
 33
0.0
 14
2493.503278586809
 24
420.8916371725106
 34
0.0
100
AcDbRotatedDimension
1001
ACAD
1000
DSTYLE
1002
{
1070
   279
1070
     2
1070
   371
1070
    18
1070
   372
1070
    18
1002
}
  0
DIMENSION
  5
1F89
330
1F
100
AcDbEntity
  8
実形
100
AcDbDimension
  2
*D49
 10
2027.2926774559
 20
256.8830082351342
 30
0.0
 11
1988.2926774559
 21
275.6330082351342
 31
0.0
 70
    32
  1
5
 71
     5
 42
77.99999999999954
  3
ISO-25
100
AcDbAlignedDimension
 13
1949.2926774559
 23
372.172337168286
 33
0.0
 14
2027.2926774559
 24
372.172337168286
 34
0.0
100
AcDbRotatedDimension
1001
ACAD
1000
DSTYLE
1002
{
1070
   279
1070
     2
1070
   371
1070
    18
1070
   372
1070
    18
1002
}
  0
DIMENSION
  5
1F8A
330
1F
100
AcDbEntity
  8
実形
100
AcDbDimension
  2
*D50
 10
2495.2926774559
 20
256.8830082351342
 30
0.0
 11
2261.2926774559
 21
275.6330082351342
 31
0.0
 70
    32
  1
30
 71
     5
 42
468.0
  3
ISO-25
100
AcDbAlignedDimension
 13
2027.2926774559
 23
372.172337168286
 33
0.0
 14
2495.2926774559
 24
372.172337168286
 34
0.0
100
AcDbRotatedDimension
1001
ACAD
1000
DSTYLE
1002
{
1070
   279
1070
     2
1070
   371
1070
    18
1070
   372
1070
    18
1002
}
  0
LINE
  5
1F8B
330
1F
100
AcDbEntity
  8
実形
100
AcDbLine
 10
1961.413543249463
 20
424.2228321327884
 30
0.0
 11
1877.466057842642
 21
418.333112484727
 31
0.0
  0
LINE
  5
1F8C
330
1F
100
AcDbEntity
  8
実形
100
AcDbLine
 10
1961.090001334807
 20
424.071573549372
 30
0.0
 11
1928.755285132045
 21
410.3198621170893
 31
0.0
  0
LINE
  5
1F8D
330
1F
100
AcDbEntity
  8
実形
100
AcDbLine
 10
1960.7417613388
 20
424.9683758092836
 30
0.0
 11
1928.46817187876
 21
431.310465671972
 31
0.0
  0
TEXT
  5
1F8E
330
1F
100
AcDbEntity
  8
実形
370
    -2
100
AcDbText
 10
1699.713549269298
 20
842.5655953544445
 30
0.0
 40
38.0
  1
A-A　断面詳細図
100
AcDbText
  0
TEXT
  5
1F8F
330
1F
100
AcDbEntity
  8
実形
370
    -2
100
AcDbText
 10
1794.84960119666
 20
844.5158880014968
 30
0.0
 40
35.0
  1
´
100
AcDbText
  0
DIMENSION
  5
1F90
330
1F
100
AcDbEntity
  8
実形
100
AcDbDimension
  2
*D51
 10
1842.301515497275
 20
594.6388787035102
 30
0.0
 11
1823.551515497275
 21
644.0388787035106
 31
0.0
 70
    32
  1
6.5
 71
     5
 42
98.80000000000007
  3
ISO-25
100
AcDbAlignedDimension
 13
1969.598314110886
 23
693.4388787035103
 33
0.0
 14
1969.598314110886
 24
594.6388787035102
 34
0.0
 50
90.0
100
AcDbRotatedDimension
1001
ACAD
1000
DSTYLE
1002
{
1070
   279
1070
     2
1070
   371
1070
    18
1070
   372
1070
    18
1002
}
  0
DIMENSION
  5
1F91
330
1F
100
AcDbEntity
  8
実形
100
AcDbDimension
  2
*D52
 10
1788.304587942761
 20
568.6388787035095
 30
0.0
 11
1769.554587942761
 21
631.0388787035102
 31
0.0
 70
    32
  1
8.2
 71
     5
 42
124.8000000000008
  3
ISO-25
100
AcDbAlignedDimension
 13
1969.598314110886
 23
693.4388787035103
 33
0.0
 14
1969.598314110886
 24
568.6388787035094
 34
0.0
 50
90.0
100
AcDbRotatedDimension
1001
ACAD
1000
DSTYLE
1002
{
1070
   279
1070
     2
1070
   371
1070
    18
1070
   372
1070
    18
1002
}
  0
DIMENSION
  5
1F92
330
1F
100
AcDbEntity
  8
実形
100
AcDbDimension
  2
*D53
 10
1736.658951194005
 20
693.4388787035104
 30
0.0
 11
1717.908951194005
 21
623.2388787035106
 31
0.0
 70
    32
  1
9
 71
     5
 42
140.4000000000001
  3
ISO-25
100
AcDbAlignedDimension
 13
1969.598314110886
 23
553.0388787035102
 33
0.0
 14
1969.598314110886
 24
693.4388787035103
 34
0.0
 50
90.0
100
AcDbRotatedDimension
1001
ACAD
1000
DSTYLE
1002
{
1070
   279
1070
     2
1070
   371
1070
    18
1070
   372
1070
    18
1002
}
  0
LINE
  5
1F93
330
1F
100
AcDbEntity
  8
実形
100
AcDbLine
 10
1842.301515497275
 20
568.8249711103763
 30
0.0
 11
1842.301515497275
 21
553.0388787035102
 31
0.0
  0
TEXT
  5
1F94
330
1F
100
AcDbEntity
  8
実形
  6
HIDDEN2
100
AcDbText
 10
1847.029365152411
 20
563.502573238773
 30
0.0
 40
10.14
  1
● 
 71
     2
100
AcDbText
  0
TEXT
  5
1F95
330
1F
100
AcDbEntity
  8
実形
  6
HIDDEN2
100
AcDbText
 10
1847.029365152411
 20
548.3492286230903
 30
0.0
 40
10.14
  1
● 
 71
     2
100
AcDbText
  0
TEXT
  5
1F96
330
1F
100
AcDbEntity
  8
実形
100
AcDbText
 10
1838.173998778728
 20
493.1227380736136
 30
0.0
 40
29.25
  1
0.8
 50
90.0
 11
1842.073998778728
 21
493.1227380736136
 31
0.0
100
AcDbText
 73
     1
  0
ARC
  5
1F97
330
1F
100
AcDbEntity
  8
実形
100
AcDbCircle
 10
1968.018793120222
 20
303.3794247347767
 30
0.0
 40
37.21807911390647
100
AcDbArc
 50
10.88380498132619
 51
99.73672806232286
  0
ARC
  5
1F98
330
1F
100
AcDbEntity
  8
実形
100
AcDbCircle
 10
1973.401727286072
 20
295.6664501765973
 30
0.0
 40
34.71092069179851
100
AcDbArc
 50
27.82370983298791
 51
64.29661093933541
  0
ARC
  5
1F99
330
1F
100
AcDbEntity
  8
実形
100
AcDbCircle
 10
1968.006055478794
 20
313.4454617691626
 30
0.0
 40
36.96117099445193
100
AcDbArc
 50
355.5051092068189
 51
31.89192001426014
  0
DIMENSION
  5
1F9A
330
1F
100
AcDbEntity
  8
実形
100
AcDbDimension
  2
*D54
 10
2545.969313857927
 20
412.6388787035103
 30
0.0
 11
2527.219313857927
 21
482.8388787035107
 31
0.0
 70
    32
  1
9
 71
     5
 42
140.4
  3
ISO-25
100
AcDbAlignedDimension
 13
2454.523449336353
 23
553.0388787035104
 33
0.0
 14
2454.523449336353
 24
412.6388787035103
 34
0.0
 50
90.0
100
AcDbRotatedDimension
1001
ACAD
1000
DSTYLE
1002
{
1070
   279
1070
     2
1070
   371
1070
    18
1070
   372
1070
    18
1002
}
  0
DIMENSION
  5
1F9B
330
1F
100
AcDbEntity
  8
実形
100
AcDbDimension
  2
*D55
 10
2545.969313857927
 20
553.0388787035104
 30
0.0
 11
2527.219313857927
 21
623.2388787035107
 31
0.0
 70
    32
  1
9
 71
     5
 42
140.3999999999999
  3
ISO-25
100
AcDbAlignedDimension
 13
2454.523449336353
 23
693.4388787035103
 33
0.0
 14
2454.523449336353
 24
553.0388787035104
 34
0.0
 50
90.0
100
AcDbRotatedDimension
1001
ACAD
1000
DSTYLE
1002
{
1070
   279
1070
     2
1070
   371
1070
    18
1070
   372
1070
    18
1002
}
  0
DIMENSION
  5
1F9C
330
1F
100
AcDbEntity
  8
実形
100
AcDbDimension
  2
*D56
 10
2587.74940952991
 20
412.6388787035103
 30
0.0
 11
2568.99940952991
 21
553.0388787035108
 31
0.0
 70
    32
  1
18
 71
     5
 42
280.8
  3
ISO-25
100
AcDbAlignedDimension
 13
2454.523449336353
 23
693.4388787035103
 33
0.0
 14
2454.523449336353
 24
412.6388787035103
 34
0.0
 50
90.0
100
AcDbRotatedDimension
1001
ACAD
1000
DSTYLE
1002
{
1070
   279
1070
     2
1070
   371
1070
    18
1070
   372
1070
    18
1002
}
  0
LEADER
  5
1F9D
330
1F
100
AcDbEntity
  8
実形
100
AcDbLeader
  3
ISO-25
 76
     2
 10
2471.23828825138
 20
675.9886795254569
 30
0.0
 10
2538.091984735007
 20
717.2645591780955
 30
0.0
1001
ACAD
1000
DSTYLE
1002
{
1070
   147
1040
6.25
1070
    77
1070
     0
1070
   279
1070
     2
1070
   371
1070
    18
1070
   372
1070
    18
1002
}
  0
LINE
  5
2153
330
1F
100
AcDbEntity
  8
補助
100
AcDbLine
 10
2784.0
 20
1959.0
 30
0.0
 11
2019.387286519283
 21
1959.000000000001
 31
0.0
  0
LINE
  5
2154
330
1F
100
AcDbEntity
  8
補助
100
AcDbLine
 10
2784.0
 20
1894.0
 30
0.0
 11
2019.387286519283
 21
1894.0
 31
0.0
  0
LINE
  5
2155
330
1F
100
AcDbEntity
  8
補助
100
AcDbLine
 10
2784.0
 20
1829.0
 30
0.0
 11
2019.387286519283
 21
1829.0
 31
0.0
  0
LINE
  5
2156
330
1F
100
AcDbEntity
  8
補助
100
AcDbLine
 10
2202.547653420927
 20
1829.0
 30
0.0
 11
2202.547653420927
 21
2024.0
 31
0.0
  0
LINE
  5
2157
330
1F
100
AcDbEntity
  8
補助
100
AcDbLine
 10
2019.387286519283
 20
1829.0
 30
0.0
 11
2019.387286519283
 21
2024.0
 31
0.0
  0
TEXT
  5
2158
330
1F
100
AcDbEntity
  8
補助
100
AcDbText
 10
2050.295698850121
 20
1976.328571428572
 30
0.0
 40
30.0
  1
部品名
  7
明朝
 72
     4
 11
2116.124270278692
 21
1991.5
 31
0.0
100
AcDbText
  0
TEXT
  5
2159
330
1F
100
AcDbEntity
  8
補助
100
AcDbText
 10
2627.614285714286
 20
1976.071428571429
 30
0.0
 40
30.0
  1
厚さ
  7
明朝
 72
     4
 11
2671.5
 21
1991.5
 31
0.0
100
AcDbText
  0
LINE
  5
215A
330
1F
100
AcDbEntity
  8
補助
100
AcDbLine
 10
2559.0
 20
1829.0
 30
0.0
 11
2559.0
 21
2024.0
 31
0.0
  0
TEXT
  5
215B
330
1F
100
AcDbEntity
  8
補助
100
AcDbText
 10
2338.490869919937
 20
1975.947979478155
 30
0.0
 40
30.0
  1
材質
  7
明朝
 72
     4
 11
2382.376584205651
 21
1991.119408049583
 31
0.0
100
AcDbText
  0
TEXT
  5
215C
330
1F
100
AcDbEntity
  8
実形
100
AcDbText
 10
2048.227810657788
 20
1910.557142857143
 30
0.0
 40
30.0
  1
ボウル
  7
明朝
 72
     4
 11
2114.056382086359
 21
1926.5
 31
0.0
100
AcDbText
  0
TEXT
  5
215D
330
1F
100
AcDbEntity
  8
実形
100
AcDbText
 10
2594.700000000001
 20
1911.842857142857
 30
0.0
 40
30.0
  1
0.8ｍｍ
  7
明朝
 72
     4
 11
2671.500000000001
 21
1926.5
 31
0.0
100
AcDbText
  0
TEXT
  5
215E
330
1F
100
AcDbEntity
  8
実形
100
AcDbText
 10
2239.074011965008
 20
1910.728571428572
 30
0.0
 40
30.0
  1
SUS304（No.4）
  7
明朝
 72
     4
 11
2392.674011965008
 21
1926.5
 31
0.0
100
AcDbText
  0
TEXT
  5
215F
330
1F
100
AcDbEntity
  8
実形
100
AcDbText
 10
2070.170667800645
 20
1846.242857142857
 30
0.0
 40
30.0
  1
天板
  7
明朝
 72
     4
 11
2114.056382086359
 21
1861.5
 31
0.0
100
AcDbText
  0
TEXT
  5
2160
330
1F
100
AcDbEntity
  8
実形
100
AcDbText
 10
2219.734774251222
 20
1848.285714285714
 30
0.0
 40
25.0
  1
アクリル人工大理石
  7
明朝
 72
     4
 11
2384.306202822651
 21
1861.5
 31
0.0
100
AcDbText
  0
TEXT
  5
2161
330
1F
100
AcDbEntity
  8
実形
100
AcDbText
 10
2605.67142857143
 20
1846.842857142857
 30
0.0
 40
30.0
  1
18ｍｍ
  7
明朝
 72
     4
 11
2671.500000000001
 21
1861.5
 31
0.0
100
AcDbText
  0
LINE
  5
2174
330
1F
100
AcDbEntity
  8
センター
 48
0.5
370
    15
100
AcDbLine
 10
1160.446978452595
 20
1468.431763459951
 30
0.0
 11
1237.371193524917
 21
1468.431763459951
 31
0.0
  0
TEXT
  5
2175
330
1F
100
AcDbEntity
  8
実形
370
    -2
100
AcDbText
 10
1123.558671513142
 20
1458.061443643862
 30
0.0
 40
25.0
  1
A
100
AcDbText
  0
TEXT
  5
2176
330
1F
100
AcDbEntity
  8
実形
370
    -2
100
AcDbText
 10
1244.418591149845
 20
1458.061443643862
 30
0.0
 40
25.0
  1
A
100
AcDbText
  0
TEXT
  5
2177
330
1F
100
AcDbEntity
  8
実形
370
    -2
100
AcDbText
 10
1254.023365909611
 20
1456.460982281691
 30
0.0
 40
25.0
  1
´
100
AcDbText
  0
VIEWPORT
  5
2E
102
{ACAD_XDICTIONARY
360
21E2
102
}
330
1B
100
AcDbEntity
 67
     1
  8
0
100
AcDbViewport
 10
144.7270812988281
 20
101.2295806407928
 30
0.0
 40
411.6736216682419
 41
222.1517806396485
 68
     1
 69
     1
 12
144.7270812988281
 22
101.2295806407928
 13
0.0
 23
0.0
 14
10.0
 24
10.0
 15
10.0
 25
10.0
 16
0.0
 26
0.0
 36
1.0
 17
0.0
 27
0.0
 37
0.0
 42
50.0
 43
0.0
 44
0.0
 45
222.1517806396485
 50
0.0
 51
0.0
 72
   100
 90
    32800
  1

281
     0
 71
     1
 74
     0
110
0.0
120
0.0
130
0.0
111
1.0
121
0.0
131
0.0
112
0.0
122
1.0
132
0.0
 79
     0
146
0.0
  0
VIEWPORT
  5
30
102
{ACAD_XDICTIONARY
360
21E4
102
}
330
1B
100
AcDbEntity
 67
     1
  8
0
100
AcDbViewport
 10
139.2237563133239
 20
101.2295821905136
 30
0.0
 40
222.7580101013184
 41
161.9673315048218
 68
     2
 69
     2
 12
210.0
 22
148.5
 13
0.0
 23
0.0
 14
10.0
 24
10.0
 15
10.0
 25
10.0
 16
0.0
 26
0.0
 36
1.0
 17
0.0
 27
0.0
 37
0.0
 42
50.0
 43
0.0
 44
0.0
 45
309.0686705647124
 50
0.0
 51
0.0
 72
   100
 90
    32864
  1

281
     0
 71
     1
 74
     0
110
0.0
120
0.0
130
0.0
111
1.0
121
0.0
131
0.0
112
0.0
122
1.0
132
0.0
 79
     0
146
0.0
  0
ENDSEC
  0
SECTION
  2
OBJECTS
  0
DICTIONARY
  5
C
330
0
100
AcDbDictionary
281
     1
  3
ACAD_COLOR
350
16E3
  3
ACAD_GROUP
350
D
  3
ACAD_LAYOUT
350
1A
  3
ACAD_MATERIAL
350
16E2
  3
ACAD_MLINESTYLE
350
17
  3
ACAD_PLOTSETTINGS
350
19
  3
ACAD_PLOTSTYLENAME
350
E
  3
ACAD_TABLESTYLE
350
16E4
  3
AcadDim
350
124
  3
ACDBHEADERROUNDTRIPXREC
350
21DB
  3
AcDbVariableDictionary
350
16EC
  0
DICTIONARY
  5
172B
330
2
100
AcDbDictionary
280
     1
281
     1
  3
ACAD_LAYERFILTERS
360
17CB
  3
ACAD_LAYERSTATES
360
172C
  3
ACLYDICTIONARY
360
17CA
  0
DICTIONARY
  5
18DE
330
1F
100
AcDbDictionary
280
     1
281
     1
  3
ACAD_SORTENTS
360
18DF
  0
DICTIONARY
  5
21E2
330
2E
100
AcDbDictionary
280
     1
281
     1
  3
ACAD_XREC_ROUNDTRIP
360
21E3
  0
DICTIONARY
  5
21E4
330
30
100
AcDbDictionary
280
     1
281
     1
  3
ACAD_XREC_ROUNDTRIP
360
21E5
  0
DICTIONARY
  5
16E3
102
{ACAD_REACTORS
330
C
102
}
330
C
100
AcDbDictionary
281
     1
  0
DICTIONARY
  5
D
102
{ACAD_REACTORS
330
C
102
}
330
C
100
AcDbDictionary
281
     1
  0
DICTIONARY
  5
1A
102
{ACAD_REACTORS
330
C
102
}
330
C
100
AcDbDictionary
281
     1
  3
Model
350
22
  3
ﾚｲｱｳﾄ1
350
1E
  3
ﾚｲｱｳﾄ2
350
26
  0
DICTIONARY
  5
16E2
102
{ACAD_REACTORS
330
C
102
}
330
C
100
AcDbDictionary
281
     1
  0
DICTIONARY
  5
17
102
{ACAD_REACTORS
330
C
102
}
330
C
100
AcDbDictionary
281
     1
  3
Standard
350
18
  0
DICTIONARY
  5
19
102
{ACAD_REACTORS
330
C
102
}
330
C
100
AcDbDictionary
281
     1
  0
ACDBDICTIONARYWDFLT
  5
E
102
{ACAD_REACTORS
330
C
102
}
330
C
100
AcDbDictionary
281
     1
  3
Normal
350
F
100
AcDbDictionaryWithDefault
340
F
  0
DICTIONARY
  5
16E4
102
{ACAD_REACTORS
330
C
102
}
330
C
100
AcDbDictionary
281
     1
  3
Standard
350
16E5
  0
XRECORD
  5
124
102
{ACAD_REACTORS
330
C
102
}
330
C
100
AcDbXrecord
280
     1
 90
   990106
  3

 60
     0
 61
     0
 62
     1
 63
     3
 64
     0
 65
     0
 66
     0
 67
     3
 68
     1
 69
     0
 70
     0
 71
     0
 72
     0
 40
30.0
170
     0
  0
DICTIONARY
  5
21DB
102
{ACAD_REACTORS
330
C
102
}
330
C
100
AcDbDictionary
281
     1
  0
DICTIONARY
  5
16EC
102
{ACAD_REACTORS
330
C
102
}
330
C
100
AcDbDictionary
281
     1
  3
CTABLESTYLE
350
16ED
  3
DIMASSOC
350
21D8
  3
PROJECTNAME
350
21D9
  0
DICTIONARY
  5
17CB
102
{ACAD_REACTORS
330
172B
102
}
330
172B
100
AcDbDictionary
281
     1
  0
DICTIONARY
  5
172C
102
{ACAD_REACTORS
330
172B
102
}
330
172B
100
AcDbDictionary
281
     1
  0
DICTIONARY
  5
17CA
102
{ACAD_REACTORS
330
172B
102
}
330
172B
100
AcDbDictionary
281
     1
1001
ACAD
1000
<All
  0
SORTENTSTABLE
  5
18DF
102
{ACAD_REACTORS
330
18DE
102
}
330
18DE
100
AcDbSortentsTable
330
1F
331
1D4A
  5
1CCE
331
3F6
  5
43C
331
1CDB
  5
1CDE
331
1CE3
  5
1CE6
331
1A4E
  5
1A5D
331
1B4C
  5
12B0
331
1A5E
  5
1AAD
331
1BA4
  5
1BA6
331
1BAC
  5
1C27
331
397
  5
398
331
308
  5
309
331
126A
  5
135D
331
1014
  5
1015
331
1272
  5
19C2
331
3AF
  5
3B1
331
1024
  5
1025
331
505
  5
569
331
10C3
  5
10C5
331
1CD4
  5
1CD7
331
1A00
  5
1A4D
331
368
  5
395
331
102C
  5
102D
331
10E3
  5
10E7
331
2F9
  5
2FA
331
1CDC
  5
1CDF
331
1CE4
  5
1CE7
331
1B4D
  5
12B2
331
1A5F
  5
1ACC
331
1BA5
  5
1BA7
331
1BAD
  5
1C28
331
9C
  5
9C
331
398
  5
3AF
331
126B
  5
173D
331
1015
  5
1016
331
101D
  5
101E
331
1025
  5
1026
331
19C1
  5
1247
331
19C9
  5
126D
331
1CCD
  5
1CD0
331
18E4
  5
1249
331
1CD5
  5
1CD8
331
1A01
  5
1A4E
331
102D
  5
102E
331
10E4
  5
10E8
331
2FA
  5
2FE
331
1D4C
  5
1CCF
331
1244
  5
12AB
331
1CDD
  5
1CE0
331
1924
  5
19FE
331
1BA6
  5
1BA8
331
1A60
  5
1AEB
331
A5
  5
2EB
331
1065
  5
10C3
331
33A
  5
33B
331
1016
  5
1017
331
101E
  5
101F
331
1C27
  5
1C2A
331
19C2
  5
1248
331
1026
  5
1027
331
10C5
  5
10CA
331
18DD
  5
1272
331
1CCE
  5
1CD1
331
18E5
  5
126F
331
1CD6
  5
1CD9
331
458
  5
494
331
102E
  5
102F
331
10E5
  5
10E9
331
7CF
  5
7D0
331
3E9
  5
3F6
331
2EB
  5
2EE
331
1D4D
  5
1D4D
331
1CDE
  5
1CE1
331
1245
  5
12AC
331
1CE6
  5
1CE9
331
1925
  5
19FF
331
1BA7
  5
1BA9
331
4F8
  5
505
331
33B
  5
33C
331
1017
  5
1018
331
35B
  5
368
331
101F
  5
1020
331
1C28
  5
1C2B
331
19C3
  5
10E3
331
1027
  5
1028
331
1CCF
  5
1CD2
331
1D46
  5
1CCD
331
1CD7
  5
1CDA
331
102F
  5
1030
331
10E6
  5
10EA
331
7D0
  5
7D1
331
1CDF
  5
1CE2
331
1246
  5
12C5
331
1CE7
  5
1CEA
331
1BA8
  5
1BAA
331
33C
  5
33D
331
1018
  5
1019
331
1020
  5
1021
331
19C4
  5
1246
331
1CD0
  5
1CD3
331
1D47
  5
1D49
331
1028
  5
1029
331
7D1
  5
7D2
331
10E7
  5
1241
331
8C9
  5
F27
331
1CD8
  5
1CDB
331
1247
  5
12C9
331
1CE8
  5
1CEB
331
1BA1
  5
1BA3
331
1A5B
  5
1A5E
331
1BA9
  5
1BAB
331
19BD
  5
1273
331
A0
  5
A5
331
1058
  5
1065
331
44B
  5
458
331
1019
  5
101A
331
1021
  5
1022
331
19C5
  5
126A
331
1C2A
  5
12B5
331
19FD
  5
1A00
331
1CD1
  5
1CD4
331
1029
  5
102A
331
3DC
  5
3E9
331
10E8
  5
1244
331
7D2
  5
7D3
331
2EE
  5
2F9
331
1CD9
  5
1CDC
331
1CE1
  5
1CE4
331
1A4C
  5
1A5B
331
1B4A
  5
1B4D
331
1CE9
  5
1CEC
331
1BA2
  5
1BA4
331
1AEB
  5
1B4C
331
1A5C
  5
1A5F
331
1BAA
  5
1BAC
331
19BE
  5
10E4
331
4A3
  5
4F8
331
306
  5
307
331
395
  5
397
331
1248
  5
12CA
331
43C
  5
43D
331
101A
  5
101B
331
1022
  5
1023
331
19C6
  5
10C9
331
1C2B
  5
1BA2
331
19FE
  5
1A01
331
1901
  5
A0
331
1CD2
  5
1CD5
331
1ACC
  5
1B4B
331
102A
  5
102B
331
10C9
  5
10E5
331
104A
  5
1058
331
10E9
  5
1245
331
494
  5
495
331
1D49
  5
1D4C
331
1241
  5
12AA
331
1CDA
  5
1CDD
331
1CE2
  5
1CE5
331
1A4D
  5
1A5C
331
1B4B
  5
1BA1
331
1BA3
  5
1BA5
331
1A5D
  5
1A60
331
1BAB
  5
1BAD
331
307
  5
308
331
1249
  5
135C
331
43D
  5
44B
331
1271
  5
19C1
331
101B
  5
101C
331
1023
  5
1024
331
3CE
  5
3DC
331
19C7
  5
1271
331
1AAD
  5
1B4A
331
19FF
  5
1A4C
331
1CD3
  5
1CD6
331
102B
  5
102C
331
10CA
  5
10E6
331
10EA
  5
126B
331
495
  5
4A3
  0
XRECORD
  5
21E3
102
{ACAD_REACTORS
330
21E2
102
}
330
21E2
100
AcDbXrecord
280
     1
102
SHADEPLOT
 70
     0
  0
XRECORD
  5
21E5
102
{ACAD_REACTORS
330
21E4
102
}
330
21E4
100
AcDbXrecord
280
     1
102
SHADEPLOT
 70
     0
  0
LAYOUT
  5
22
102
{ACAD_XDICTIONARY
360
21DE
102
}
102
{ACAD_REACTORS
330
1A
102
}
330
1A
100
AcDbPlotSettings
  1

  2
EPSON PM-800C
  4
A4
  6

 40
3.757083177566528
 41
14.7637300491333
 42
3.757080078125
 43
3.757080078125
 44
209.9733276367187
 45
296.9683227539062
 46
0.0
 47
0.0
 48
0.0
 49
0.0
140
0.0
141
0.0
142
1.0
143
10.0
 70
 11952
 72
     1
 73
     1
 74
     2
  7

 75
    20
147
0.1
148
0.0
149
0.0
100
AcDbLayout
  1
Model
 70
     1
 71
     0
 10
0.0
 20
0.0
 11
12.0
 21
9.0
 12
0.0
 22
0.0
 32
0.0
 14
0.0
 24
0.0
 34
0.0
 15
0.0
 25
0.0
 35
0.0
146
0.0
 13
0.0
 23
0.0
 33
0.0
 16
1.0
 26
0.0
 36
0.0
 17
0.0
 27
1.0
 37
0.0
 76
     0
330
1F
  0
LAYOUT
  5
1E
102
{ACAD_XDICTIONARY
360
21DC
102
}
102
{ACAD_REACTORS
330
1A
102
}
330
1A
100
AcDbPlotSettings
  1

  2
EPSON PM-800C
  4
A4
  6

 40
3.757083177566528
 41
14.7637300491333
 42
3.757080078125
 43
3.757080078125
 44
209.9733276367187
 45
296.9683227539062
 46
0.0
 47
0.0
 48
0.0
 49
0.0
140
0.0
141
0.0
142
1.0
143
1.0
 70
   688
 72
     1
 73
     1
 74
     5
  7

 75
    16
147
1.0
148
0.0
149
0.0
100
AcDbLayout
  1
ﾚｲｱｳﾄ1
 70
     1
 71
     1
 10
-3.757080078125
 20
-3.757083177566528
 11
293.2112426757813
 21
206.2162444591522
 12
0.0
 22
0.0
 32
0.0
 14
27.8447512626648
 24
20.24591643810271
 34
0.0
 15
250.6027613639831
 25
182.2132479429245
 35
0.0
146
0.0
 13
0.0
 23
0.0
 33
0.0
 16
1.0
 26
0.0
 36
0.0
 17
0.0
 27
1.0
 37
0.0
 76
     0
330
1B
331
2E
  0
LAYOUT
  5
26
102
{ACAD_XDICTIONARY
360
21E0
102
}
102
{ACAD_REACTORS
330
1A
102
}
330
1A
100
AcDbPlotSettings
  1

  2
EPSON PM-800C
  4

  6

 40
0.0
 41
0.0
 42
0.0
 43
0.0
 44
0.0
 45
0.0
 46
0.0
 47
0.0
 48
0.0
 49
0.0
140
0.0
141
0.0
142
1.0
143
1.0
 70
   688
 72
     0
 73
     0
 74
     5
  7

 75
    16
147
1.0
148
0.0
149
0.0
100
AcDbLayout
  1
ﾚｲｱｳﾄ2
 70
     1
 71
     2
 10
0.0
 20
0.0
 11
12.0
 21
9.0
 12
0.0
 22
0.0
 32
0.0
 14
0.0
 24
0.0
 34
0.0
 15
0.0
 25
0.0
 35
0.0
146
0.0
 13
0.0
 23
0.0
 33
0.0
 16
1.0
 26
0.0
 36
0.0
 17
0.0
 27
1.0
 37
0.0
 76
     0
330
23
  0
MLINESTYLE
  5
18
102
{ACAD_REACTORS
330
17
102
}
330
17
100
AcDbMlineStyle
  2
STANDARD
 70
     0
  3

 62
   256
 51
90.0
 52
90.0
 71
     2
 49
0.5
 62
   256
  6
BYLAYER
 49
-0.5
 62
   256
  6
BYLAYER
  0
ACDBPLACEHOLDER
  5
F
102
{ACAD_REACTORS
330
E
102
}
330
E
  0
TABLESTYLE
  5
16E5
102
{ACAD_REACTORS
330
16E4
102
}
330
16E4
100
AcDbTableStyle
  3
Standard
 70
     0
 71
     0
 40
1.5
 41
1.5
280
     0
281
     0
  7
Standard
140
4.5
170
     2
 62
     0
 63
     7
283
     0
274
    -2
284
     1
 64
     0
275
    -2
285
     1
 65
     0
276
    -2
286
     1
 66
     0
277
    -2
287
     1
 67
     0
278
    -2
288
     1
 68
     0
279
    -2
289
     1
 69
     0
  7
Standard
140
6.0
170
     5
 62
     0
 63
     7
283
     0
274
    -2
284
     1
 64
     0
275
    -2
285
     1
 65
     0
276
    -2
286
     1
 66
     0
277
    -2
287
     1
 67
     0
278
    -2
288
     1
 68
     0
279
    -2
289
     1
 69
     0
  7
Standard
140
4.5
170
     5
 62
     0
 63
     7
283
     0
274
    -2
284
     1
 64
     0
275
    -2
285
     1
 65
     0
276
    -2
286
     1
 66
     0
277
    -2
287
     1
 67
     0
278
    -2
288
     1
 68
     0
279
    -2
289
     1
 69
     0
  0
DICTIONARYVAR
  5
16ED
102
{ACAD_REACTORS
330
16EC
102
}
330
16EC
100
DictionaryVariables
280
     0
  1
STANDARD
  0
DICTIONARYVAR
  5
21D8
102
{ACAD_REACTORS
330
16EC
102
}
330
16EC
100
DictionaryVariables
280
     0
  1
1
  0
DICTIONARYVAR
  5
21D9
102
{ACAD_REACTORS
330
16EC
102
}
330
16EC
100
DictionaryVariables
280
     0
  1

  0
DICTIONARY
  5
21DE
330
22
100
AcDbDictionary
280
     1
281
     1
  3
ACAD_XREC_ROUNDTRIP
360
21DF
  0
DICTIONARY
  5
21DC
330
1E
100
AcDbDictionary
280
     1
281
     1
  3
ACAD_XREC_ROUNDTRIP
360
21DD
  0
DICTIONARY
  5
21E0
330
26
100
AcDbDictionary
280
     1
281
     1
  3
ACAD_XREC_ROUNDTRIP
360
21E1
  0
XRECORD
  5
21DF
102
{ACAD_REACTORS
330
21DE
102
}
330
21DE
100
AcDbXrecord
280
     1
102
SHADEPLOT
 70
     0
102
SHADEPLOTRESLEVEL
 70
     2
102
SHADEPLOTCUSTOMDPI
 70
   300
  0
XRECORD
  5
21DD
102
{ACAD_REACTORS
330
21DC
102
}
330
21DC
100
AcDbXrecord
280
     1
102
SHADEPLOT
 70
     0
102
SHADEPLOTRESLEVEL
 70
     2
102
SHADEPLOTCUSTOMDPI
 70
   300
  0
XRECORD
  5
21E1
102
{ACAD_REACTORS
330
21E0
102
}
330
21E0
100
AcDbXrecord
280
     1
102
SHADEPLOT
 70
     0
102
SHADEPLOTRESLEVEL
 70
     2
102
SHADEPLOTCUSTOMDPI
 70
   300
  0
ENDSEC
  0
EOF
