  0
SECTION
  2
HEADER
  9
$ACADVER
  1
AC1015
  9
$ACADMAINTVER
 70
    20
  9
$DWGCODEPAGE
  3
ANSI_932
  9
$INSBASE
 10
0.0
 20
0.0
 30
0.0
  9
$EXTMIN
 10
104.0
 20
4.0
 30
0.0
  9
$EXTMAX
 10
2784.0
 20
2024.0
 30
0.0
  9
$LIMMIN
 10
0.0
 20
0.0
  9
$LIMMAX
 10
29700.0
 20
21000.0
  9
$ORTHOMODE
 70
     1
  9
$REGENMODE
 70
     1
  9
$FILLMODE
 70
     1
  9
$QTEXTMODE
 70
     0
  9
$MIRRTEXT
 70
     1
  9
$LTSCALE
 40
4.0
  9
$ATTMODE
 70
     1
  9
$TEXTSIZE
 40
35.0
  9
$TRACEWID
 40
1.0
  9
$TEXTSTYLE
  7
Standard
  9
$CLAYER
  8
実形
  9
$CELTYPE
  6
ByLayer
  9
$CECOLOR
 62
     3
  9
$CELTSCALE
 40
1.0
  9
$DISPSILH
 70
     0
  9
$DIMSCALE
 40
1.0
  9
$DIMASZ
 40
30.0
  9
$DIMEXO
 40
65.0
  9
$DIMDLI
 40
3.75
  9
$DIMRND
 40
0.0
  9
$DIMDLE
 40
0.0
  9
$DIMEXE
 40
0.0
  9
$DIMTP
 40
0.0
  9
$DIMTM
 40
0.0
  9
$DIMTXT
 40
25.0
  9
$DIMCEN
 40
2.5
  9
$DIMTSZ
 40
0.0
  9
$DIMTOL
 70
     0
  9
$DIMLIM
 70
     0
  9
$DIMTIH
 70
     0
  9
$DIMTOH
 70
     0
  9
$DIMSE1
 70
     0
  9
$DIMSE2
 70
     0
  9
$DIMTAD
 70
     1
  9
$DIMZIN
 70
     8
  9
$DIMBLK
  1
DotSmall
  9
$DIMASO
 70
     1
  9
$DIMSHO
 70
     1
  9
$DIMPOST
  1

  9
$DIMAPOST
  1

  9
$DIMALT
 70
     0
  9
$DIMALTD
 70
     3
  9
$DIMALTF
 40
0.03937007874016
  9
$DIMLFAC
 40
1.0
  9
$DIMTOFL
 70
     1
  9
$DIMTVP
 40
0.0
  9
$DIMTIX
 70
     0
  9
$DIMSOXD
 70
     0
  9
$DIMSAH
 70
     0
  9
$DIMBLK1
  1

  9
$DIMBLK2
  1

  9
$DIMSTYLE
  2
ISO-25
  9
$DIMCLRD
 70
     0
  9
$DIMCLRE
 70
     0
  9
$DIMCLRT
 70
     0
  9
$DIMTFAC
 40
1.0
  9
$DIMGAP
 40
6.25
  9
$DIMJUST
 70
     0
  9
$DIMSD1
 70
     0
  9
$DIMSD2
 70
     0
  9
$DIMTOLJ
 70
     0
  9
$DIMTZIN
 70
     8
  9
$DIMALTZ
 70
     0
  9
$DIMALTTZ
 70
     0
  9
$DIMUPT
 70
     0
  9
$DIMDEC
 70
     2
  9
$DIMTDEC
 70
     2
  9
$DIMALTU
 70
     2
  9
$DIMALTTD
 70
     3
  9
$DIMTXSTY
  7
Standard
  9
$DIMAUNIT
 70
     0
  9
$DIMADEC
 70
     0
  9
$DIMALTRND
 40
0.0
  9
$DIMAZIN
 70
     0
  9
$DIMDSEP
 70
    46
  9
$DIMATFIT
 70
     3
  9
$DIMFRAC
 70
     0
  9
$DIMLDRBLK
  1
Open30
  9
$DIMLUNIT
 70
     2
  9
$DIMLWD
 70
    15
  9
$DIMLWE
 70
    15
  9
$DIMTMOVE
 70
     1
  9
$LUNITS
 70
     2
  9
$LUPREC
 70
     2
  9
$SKETCHINC
 40
1.0
  9
$FILLETRAD
 40
5.0
  9
$AUNITS
 70
     0
  9
$AUPREC
 70
     0
  9
$MENU
  1
.
  9
$ELEVATION
 40
0.0
  9
$PELEVATION
 40
0.0
  9
$THICKNESS
 40
0.0
  9
$LIMCHECK
 70
     1
  9
$CHAMFERA
 40
10.0
  9
$CHAMFERB
 40
10.0
  9
$CHAMFERC
 40
20.0
  9
$CHAMFERD
 40
0.0
  9
$SKPOLY
 70
     0
  9
$TDCREATE
 40
2451673.575802199
  9
$TDUCREATE
 40
2451673.200802199
  9
$TDUPDATE
 40
2458810.738242257
  9
$TDUUPDATE
 40
2458810.363242257
  9
$TDINDWG
 40
1.2671637500
  9
$TDUSRTIMER
 40
1.2671630556
  9
$USRTIMER
 70
     1
  9
$ANGBASE
 50
0.0
  9
$ANGDIR
 70
     0
  9
$PDMODE
 70
     0
  9
$PDSIZE
 40
0.0
  9
$PLINEWID
 40
0.0
  9
$SPLFRAME
 70
     0
  9
$SPLINETYPE
 70
     6
  9
$SPLINESEGS
 70
     8
  9
$HANDSEED
  5
36EE
  9
$SURFTAB1
 70
     6
  9
$SURFTAB2
 70
     6
  9
$SURFTYPE
 70
     6
  9
$SURFU
 70
     6
  9
$SURFV
 70
     6
  9
$UCSBASE
  2

  9
$UCSNAME
  2

  9
$UCSORG
 10
0.0
 20
0.0
 30
0.0
  9
$UCSXDIR
 10
1.0
 20
0.0
 30
0.0
  9
$UCSYDIR
 10
0.0
 20
1.0
 30
0.0
  9
$UCSORTHOREF
  2

  9
$UCSORTHOVIEW
 70
     0
  9
$UCSORGTOP
 10
0.0
 20
0.0
 30
0.0
  9
$UCSORGBOTTOM
 10
0.0
 20
0.0
 30
0.0
  9
$UCSORGLEFT
 10
0.0
 20
0.0
 30
0.0
  9
$UCSORGRIGHT
 10
0.0
 20
0.0
 30
0.0
  9
$UCSORGFRONT
 10
0.0
 20
0.0
 30
0.0
  9
$UCSORGBACK
 10
0.0
 20
0.0
 30
0.0
  9
$PUCSBASE
  2

  9
$PUCSNAME
  2

  9
$PUCSORG
 10
0.0
 20
0.0
 30
0.0
  9
$PUCSXDIR
 10
1.0
 20
0.0
 30
0.0
  9
$PUCSYDIR
 10
0.0
 20
1.0
 30
0.0
  9
$PUCSORTHOREF
  2

  9
$PUCSORTHOVIEW
 70
     0
  9
$PUCSORGTOP
 10
0.0
 20
0.0
 30
0.0
  9
$PUCSORGBOTTOM
 10
0.0
 20
0.0
 30
0.0
  9
$PUCSORGLEFT
 10
0.0
 20
0.0
 30
0.0
  9
$PUCSORGRIGHT
 10
0.0
 20
0.0
 30
0.0
  9
$PUCSORGFRONT
 10
0.0
 20
0.0
 30
0.0
  9
$PUCSORGBACK
 10
0.0
 20
0.0
 30
0.0
  9
$USERI1
 70
     0
  9
$USERI2
 70
     0
  9
$USERI3
 70
     0
  9
$USERI4
 70
     0
  9
$USERI5
 70
     0
  9
$USERR1
 40
0.0
  9
$USERR2
 40
0.0
  9
$USERR3
 40
0.0
  9
$USERR4
 40
0.0
  9
$USERR5
 40
0.0
  9
$WORLDVIEW
 70
     1
  9
$SHADEDGE
 70
     3
  9
$SHADEDIF
 70
    70
  9
$TILEMODE
 70
     1
  9
$MAXACTVP
 70
    64
  9
$PINSBASE
 10
0.0
 20
0.0
 30
0.0
  9
$PLIMCHECK
 70
     0
  9
$PEXTMIN
 10
27.8447512626648
 20
20.24591643810271
 30
0.0
  9
$PEXTMAX
 10
250.6027613639831
 20
182.2132479429245
 30
0.0
  9
$PLIMMIN
 10
-3.757080078125
 20
-3.757083177566528
  9
$PLIMMAX
 10
293.2112426757813
 20
206.2162444591522
  9
$UNITMODE
 70
     0
  9
$VISRETAIN
 70
     1
  9
$PLINEGEN
 70
     0
  9
$PSLTSCALE
 70
     1
  9
$TREEDEPTH
 70
  3020
  9
$CMLSTYLE
  2
Standard
  9
$CMLJUST
 70
     0
  9
$CMLSCALE
 40
20.0
  9
$PROXYGRAPHICS
 70
     1
  9
$MEASUREMENT
 70
     1
  9
$CELWEIGHT
370
    -1
  9
$ENDCAPS
280
     0
  9
$JOINSTYLE
280
     0
  9
$LWDISPLAY
290
     0
  9
$INSUNITS
 70
     4
  9
$HYPERLINKBASE
  1

  9
$STYLESHEET
  1

  9
$XEDIT
290
     1
  9
$CEPSNTYPE
380
     0
  9
$PSTYLEMODE
290
     1
  9
$FINGERPRINTGUID
  2
{C8EA1F16-24C9-11D4-9416-CE0A3B32152F}
  9
$VERSIONGUID
  2
{F09C7C70-2340-43FC-B1C1-667AC5F10DB9}
  9
$EXTNAMES
290
     1
  9
$PSVPSCALE
 40
0.0
  9
$OLESTARTUP
290
     0
  0
ENDSEC
  0
SECTION
  2
CLASSES
  0
CLASS
  1
ACDBDICTIONARYWDFLT
  2
AcDbDictionaryWithDefault
  3
ObjectDBX Classes
 90
        0
280
     0
281
     0
  0
CLASS
  1
ACDBPLACEHOLDER
  2
AcDbPlaceHolder
  3
ObjectDBX Classes
 90
        0
280
     0
281
     0
  0
CLASS
  1
LAYOUT
  2
AcDbLayout
  3
ObjectDBX Classes
 90
        0
280
     0
281
     0
  0
CLASS
  1
DICTIONARYVAR
  2
AcDbDictionaryVar
  3
ObjectDBX Classes
 90
        0
280
     0
281
     0
  0
CLASS
  1
TABLESTYLE
  2
AcDbTableStyle
  3
ObjectDBX Classes
 90
     2047
280
     0
281
     0
  0
CLASS
  1
SORTENTSTABLE
  2
AcDbSortentsTable
  3
ObjectDBX Classes
 90
        0
280
     0
281
     0
  0
ENDSEC
  0
SECTION
  2
TABLES
  0
TABLE
  2
VPORT
  5
8
330
0
100
AcDbSymbolTable
 70
     2
  0
VPORT
  5
36E2
330
8
100
AcDbSymbolTableRecord
100
AcDbViewportTableRecord
  2
*Active
 70
     0
 10
0.0
 20
0.0
 11
1.0
 21
1.0
 12
1844.578792530887
 22
972.2462951995003
 13
0.0
 23
0.0
 14
10.0
 24
10.0
 15
10.0
 25
10.0
 16
0.0
 26
0.0
 36
1.0
 17
0.0
 27
0.0
 37
0.0
 40
2916.423998459072
 41
1.29038112522686
 42
50.0
 43
0.0
 44
0.0
 50
0.0
 51
0.0
 71
     0
 72
   100
 73
     1
 74
     3
 75
     0
 76
     0
 77
     0
 78
     0
281
     0
 65
     1
110
0.0
120
0.0
130
0.0
111
1.0
121
0.0
131
0.0
112
0.0
122
1.0
132
0.0
 79
     0
146
0.0
  0
ENDTAB
  0
TABLE
  2
LTYPE
  5
5
330
0
100
AcDbSymbolTable
 70
    46
  0
LTYPE
  5
14
330
5
100
AcDbSymbolTableRecord
100
AcDbLinetypeTableRecord
  2
ByBlock
 70
     0
  3

 72
    65
 73
     0
 40
0.0
  0
LTYPE
  5
15
330
5
100
AcDbSymbolTableRecord
100
AcDbLinetypeTableRecord
  2
ByLayer
 70
     0
  3

 72
    65
 73
     0
 40
0.0
  0
LTYPE
  5
16
330
5
100
AcDbSymbolTableRecord
100
AcDbLinetypeTableRecord
  2
Continuous
 70
     0
  3
Solid line
 72
    65
 73
     0
 40
0.0
  0
LTYPE
  5
34
330
5
100
AcDbSymbolTableRecord
100
AcDbLinetypeTableRecord
  2
ACAD_ISO02W100
 70
     0
  3
ISO dash __ __ __ __ __ __ __ __ __ __ __ __ __
 72
    65
 73
     2
 40
15.0
 49
12.0
 74
     0
 49
-3.0
 74
     0
  0
LTYPE
  5
35
330
5
100
AcDbSymbolTableRecord
100
AcDbLinetypeTableRecord
  2
ACAD_ISO03W100
 70
     0
  3
ISO dash space __    __    __    __    __    __
 72
    65
 73
     2
 40
30.0
 49
12.0
 74
     0
 49
-18.0
 74
     0
  0
LTYPE
  5
36
330
5
100
AcDbSymbolTableRecord
100
AcDbLinetypeTableRecord
  2
ACAD_ISO04W100
 70
     0
  3
ISO long-dash dot ____ . ____ . ____ . ____ . _
 72
    65
 73
     4
 40
30.0
 49
24.0
 74
     0
 49
-3.0
 74
     0
 49
0.0
 74
     0
 49
-3.0
 74
     0
  0
LTYPE
  5
37
330
5
100
AcDbSymbolTableRecord
100
AcDbLinetypeTableRecord
  2
ACAD_ISO05W100
 70
     0
  3
ISO long-dash double-dot ____ .. ____ .. ____ .
 72
    65
 73
     6
 40
34.0
 49
24.0
 74
     0
 49
-3.0
 74
     0
 49
0.5
 74
     0
 49
-3.0
 74
     0
 49
0.5
 74
     0
 49
-3.0
 74
     0
  0
LTYPE
  5
38
330
5
100
AcDbSymbolTableRecord
100
AcDbLinetypeTableRecord
  2
ACAD_ISO06W100
 70
     0
  3
ISO long-dash triple-dot ____ ... ____ ... ____
 72
    65
 73
     8
 40
37.5
 49
24.0
 74
     0
 49
-3.0
 74
     0
 49
0.5
 74
     0
 49
-3.0
 74
     0
 49
0.5
 74
     0
 49
-3.0
 74
     0
 49
0.5
 74
     0
 49
-3.0
 74
     0
  0
LTYPE
  5
39
330
5
100
AcDbSymbolTableRecord
100
AcDbLinetypeTableRecord
  2
ACAD_ISO07W100
 70
     0
  3
ISO dot . . . . . . . . . . . . . . . . . . . .
 72
    65
 73
     2
 40
3.0
 49
0.0
 74
     0
 49
-3.0
 74
     0
  0
LTYPE
  5
3A
330
5
100
AcDbSymbolTableRecord
100
AcDbLinetypeTableRecord
  2
ACAD_ISO08W100
 70
     0
  3
ISO long-dash short-dash ____ __ ____ __ ____ _
 72
    65
 73
     4
 40
36.0
 49
24.0
 74
     0
 49
-3.0
 74
     0
 49
6.0
 74
     0
 49
-3.0
 74
     0
  0
LTYPE
  5
3B
330
5
100
AcDbSymbolTableRecord
100
AcDbLinetypeTableRecord
  2
ACAD_ISO09W100
 70
     0
  3
ISO long-dash double-short-dash ____ __ __ ____
 72
    65
 73
     6
 40
45.0
 49
24.0
 74
     0
 49
-3.0
 74
     0
 49
6.0
 74
     0
 49
-3.0
 74
     0
 49
6.0
 74
     0
 49
-3.0
 74
     0
  0
LTYPE
  5
3C
330
5
100
AcDbSymbolTableRecord
100
AcDbLinetypeTableRecord
  2
ACAD_ISO10W100
 70
     0
  3
ISO dash dot __ . __ . __ . __ . __ . __ . __ .
 72
    65
 73
     4
 40
18.0
 49
12.0
 74
     0
 49
-3.0
 74
     0
 49
0.0
 74
     0
 49
-3.0
 74
     0
  0
LTYPE
  5
3D
330
5
100
AcDbSymbolTableRecord
100
AcDbLinetypeTableRecord
  2
ACAD_ISO11W100
 70
     0
  3
ISO double-dash dot __ __ . __ __ . __ __ . __ 
 72
    65
 73
     6
 40
33.0
 49
12.0
 74
     0
 49
-3.0
 74
     0
 49
12.0
 74
     0
 49
-3.0
 74
     0
 49
0.0
 74
     0
 49
-3.0
 74
     0
  0
LTYPE
  5
3E
330
5
100
AcDbSymbolTableRecord
100
AcDbLinetypeTableRecord
  2
ACAD_ISO12W100
 70
     0
  3
ISO dash double-dot __ . . __ . . __ . . __ . .
 72
    65
 73
     6
 40
21.0
 49
12.0
 74
     0
 49
-3.0
 74
     0
 49
0.0
 74
     0
 49
-3.0
 74
     0
 49
0.0
 74
     0
 49
-3.0
 74
     0
  0
LTYPE
  5
3F
330
5
100
AcDbSymbolTableRecord
100
AcDbLinetypeTableRecord
  2
ACAD_ISO13W100
 70
     0
  3
ISO double-dash double-dot __ __ . . __ __ . . 
 72
    65
 73
     8
 40
36.0
 49
12.0
 74
     0
 49
-3.0
 74
     0
 49
12.0
 74
     0
 49
-3.0
 74
     0
 49
0.0
 74
     0
 49
-3.0
 74
     0
 49
0.0
 74
     0
 49
-3.0
 74
     0
  0
LTYPE
  5
40
330
5
100
AcDbSymbolTableRecord
100
AcDbLinetypeTableRecord
  2
ACAD_ISO14W100
 70
     0
  3
ISO dash triple-dot __ . . . __ . . . __ . . . 
 72
    65
 73
     8
 40
24.0
 49
12.0
 74
     0
 49
-3.0
 74
     0
 49
0.0
 74
     0
 49
-3.0
 74
     0
 49
0.0
 74
     0
 49
-3.0
 74
     0
 49
0.0
 74
     0
 49
-3.0
 74
     0
  0
LTYPE
  5
41
330
5
100
AcDbSymbolTableRecord
100
AcDbLinetypeTableRecord
  2
ACAD_ISO15W100
 70
     0
  3
ISO double-dash triple-dot __ __ . . . __ __ . 
 72
    65
 73
    10
 40
39.0
 49
12.0
 74
     0
 49
-3.0
 74
     0
 49
12.0
 74
     0
 49
-3.0
 74
     0
 49
0.0
 74
     0
 49
-3.0
 74
     0
 49
0.0
 74
     0
 49
-3.0
 74
     0
 49
0.0
 74
     0
 49
-3.0
 74
     0
  0
LTYPE
  5
42
330
5
100
AcDbSymbolTableRecord
100
AcDbLinetypeTableRecord
  2
BATTING
 70
     0
  3
Batting SSSSSSSSSSSSSSSSSSSSSSSSSSSSSSSSSSSSSSS
 72
    65
 73
     4
 40
10.16254
 49
0.00254
 74
     0
 49
-2.54
 74
     4
 75
   134
340
33
 46
2.54
 50
0.0
 44
-2.54
 45
0.0
 49
-5.08
 74
     4
 75
   134
340
33
 46
2.54
 50
180.0
 44
2.54
 45
0.0
 49
-2.54
 74
     0
  0
LTYPE
  5
43
330
5
100
AcDbSymbolTableRecord
100
AcDbLinetypeTableRecord
  2
BORDER
 70
     0
  3
Border __ __ . __ __ . __ __ . __ __ . __ __ .
 72
    65
 73
     6
 40
44.45
 49
12.7
 74
     0
 49
-6.349999999999999
 74
     0
 49
12.7
 74
     0
 49
-6.349999999999999
 74
     0
 49
0.0
 74
     0
 49
-6.349999999999999
 74
     0
  0
LTYPE
  5
44
330
5
100
AcDbSymbolTableRecord
100
AcDbLinetypeTableRecord
  2
BORDER2
 70
     0
  3
Border (.5x) __.__.__.__.__.__.__.__.__.__.__.
 72
    65
 73
     6
 40
22.225
 49
6.349999999999999
 74
     0
 49
-3.174999999999999
 74
     0
 49
6.349999999999999
 74
     0
 49
-3.174999999999999
 74
     0
 49
0.0
 74
     0
 49
-3.174999999999999
 74
     0
  0
LTYPE
  5
45
330
5
100
AcDbSymbolTableRecord
100
AcDbLinetypeTableRecord
  2
BORDERX2
 70
     0
  3
Border (2x) ____  ____  .  ____  ____  .  ___
 72
    65
 73
     6
 40
88.9
 49
25.4
 74
     0
 49
-12.7
 74
     0
 49
25.4
 74
     0
 49
-12.7
 74
     0
 49
0.0
 74
     0
 49
-12.7
 74
     0
  0
LTYPE
  5
46
330
5
100
AcDbSymbolTableRecord
100
AcDbLinetypeTableRecord
  2
CENTER
 70
     0
  3
Center ____ _ ____ _ ____ _ ____ _ ____ _ ____
 72
    65
 73
     4
 40
50.8
 49
31.75
 74
     0
 49
-6.349999999999999
 74
     0
 49
6.349999999999999
 74
     0
 49
-6.349999999999999
 74
     0
  0
LTYPE
  5
47
330
5
100
AcDbSymbolTableRecord
100
AcDbLinetypeTableRecord
  2
CENTER2
 70
     0
  3
Center (.5x) ___ _ ___ _ ___ _ ___ _ ___ _ ___
 72
    65
 73
     4
 40
28.575
 49
19.05
 74
     0
 49
-3.174999999999999
 74
     0
 49
3.174999999999999
 74
     0
 49
-3.174999999999999
 74
     0
  0
LTYPE
  5
48
330
5
100
AcDbSymbolTableRecord
100
AcDbLinetypeTableRecord
  2
CENTERX2
 70
     0
  3
Center (2x) ________  __  ________  __  _____
 72
    65
 73
     4
 40
101.6
 49
63.5
 74
     0
 49
-12.7
 74
     0
 49
12.7
 74
     0
 49
-12.7
 74
     0
  0
LTYPE
  5
49
330
5
100
AcDbSymbolTableRecord
100
AcDbLinetypeTableRecord
  2
DASHDOT
 70
     0
  3
Dash dot __ . __ . __ . __ . __ . __ . __ . __
 72
    65
 73
     4
 40
25.4
 49
12.7
 74
     0
 49
-6.349999999999999
 74
     0
 49
0.0
 74
     0
 49
-6.349999999999999
 74
     0
  0
LTYPE
  5
4A
330
5
100
AcDbSymbolTableRecord
100
AcDbLinetypeTableRecord
  2
DASHDOT2
 70
     0
  3
Dash dot (.5x) _._._._._._._._._._._._._._._.
 72
    65
 73
     4
 40
12.7
 49
6.349999999999999
 74
     0
 49
-3.174999999999999
 74
     0
 49
0.0
 74
     0
 49
-3.174999999999999
 74
     0
  0
LTYPE
  5
4B
330
5
100
AcDbSymbolTableRecord
100
AcDbLinetypeTableRecord
  2
DASHDOTX2
 70
     0
  3
Dash dot (2x) ____  .  ____  .  ____  .  ___
 72
    65
 73
     4
 40
50.8
 49
25.4
 74
     0
 49
-12.7
 74
     0
 49
0.0
 74
     0
 49
-12.7
 74
     0
  0
LTYPE
  5
4C
330
5
100
AcDbSymbolTableRecord
100
AcDbLinetypeTableRecord
  2
DASHED
 70
     0
  3
Dashed __ __ __ __ __ __ __ __ __ __ __ __ __ _
 72
    65
 73
     2
 40
19.05
 49
12.7
 74
     0
 49
-6.349999999999999
 74
     0
  0
LTYPE
  5
4D
330
5
100
AcDbSymbolTableRecord
100
AcDbLinetypeTableRecord
  2
DASHED2
 70
     0
  3
Dashed (.5x) _ _ _ _ _ _ _ _ _ _ _ _ _ _ _ _ _
 72
    65
 73
     2
 40
9.524999999999998
 49
6.349999999999999
 74
     0
 49
-3.174999999999999
 74
     0
  0
LTYPE
  5
4E
330
5
100
AcDbSymbolTableRecord
100
AcDbLinetypeTableRecord
  2
DASHEDX2
 70
     0
  3
Dashed (2x) ____  ____  ____  ____  ____  ___
 72
    65
 73
     2
 40
38.1
 49
25.4
 74
     0
 49
-12.7
 74
     0
  0
LTYPE
  5
4F
330
5
100
AcDbSymbolTableRecord
100
AcDbLinetypeTableRecord
  2
DIVIDE
 70
     0
  3
Divide ____ . . ____ . . ____ . . ____ . . ____
 72
    65
 73
     6
 40
31.75
 49
12.7
 74
     0
 49
-6.349999999999999
 74
     0
 49
0.0
 74
     0
 49
-6.349999999999999
 74
     0
 49
0.0
 74
     0
 49
-6.349999999999999
 74
     0
  0
LTYPE
  5
50
330
5
100
AcDbSymbolTableRecord
100
AcDbLinetypeTableRecord
  2
DIVIDE2
 70
     0
  3
Divide (.5x) __..__..__..__..__..__..__..__.._
 72
    65
 73
     6
 40
15.875
 49
6.349999999999999
 74
     0
 49
-3.174999999999999
 74
     0
 49
0.0
 74
     0
 49
-3.174999999999999
 74
     0
 49
0.0
 74
     0
 49
-3.174999999999999
 74
     0
  0
LTYPE
  5
51
330
5
100
AcDbSymbolTableRecord
100
AcDbLinetypeTableRecord
  2
DIVIDEX2
 70
     0
  3
Divide (2x) ________  .  .  ________  .  .  _
 72
    65
 73
     6
 40
63.49999999999999
 49
25.4
 74
     0
 49
-12.7
 74
     0
 49
0.0
 74
     0
 49
-12.7
 74
     0
 49
0.0
 74
     0
 49
-12.7
 74
     0
  0
LTYPE
  5
52
330
5
100
AcDbSymbolTableRecord
100
AcDbLinetypeTableRecord
  2
DOT
 70
     0
  3
Dot . . . . . . . . . . . . . . . . . . . . . .
 72
    65
 73
     2
 40
6.349999999999999
 49
0.0
 74
     0
 49
-6.349999999999999
 74
     0
  0
LTYPE
  5
53
330
5
100
AcDbSymbolTableRecord
100
AcDbLinetypeTableRecord
  2
DOT2
 70
     0
  3
Dot (.5x) .....................................
 72
    65
 73
     2
 40
3.174999999999999
 49
0.0
 74
     0
 49
-3.174999999999999
 74
     0
  0
LTYPE
  5
54
330
5
100
AcDbSymbolTableRecord
100
AcDbLinetypeTableRecord
  2
DOTX2
 70
     0
  3
Dot (2x) .  .  .  .  .  .  .  .  .  .  .  .  . 
 72
    65
 73
     2
 40
12.7
 49
0.0
 74
     0
 49
-12.7
 74
     0
  0
LTYPE
  5
55
330
5
100
AcDbSymbolTableRecord
100
AcDbLinetypeTableRecord
  2
FENCELINE1
 70
     0
  3
Fenceline circle ----0-----0----0-----0----0---
 72
    65
 73
     4
 40
36.83
 49
6.349999999999999
 74
     0
 49
-2.54
 74
     4
 75
   133
340
33
 46
2.54
 50
0.0
 44
-2.54
 45
0.0
 49
-2.54
 74
     0
 49
25.4
 74
     0
  0
LTYPE
  5
56
330
5
100
AcDbSymbolTableRecord
100
AcDbLinetypeTableRecord
  2
FENCELINE2
 70
     0
  3
Fenceline square ----[]-----[]----[]-----[]----
 72
    65
 73
     4
 40
36.83
 49
6.349999999999999
 74
     0
 49
-2.54
 74
     4
 75
   132
340
33
 46
2.54
 50
0.0
 44
-2.54
 45
0.0
 49
-2.54
 74
     0
 49
25.4
 74
     0
  0
LTYPE
  5
57
330
5
100
AcDbSymbolTableRecord
100
AcDbLinetypeTableRecord
  2
GAS_LINE
 70
     0
  3
Gas line ----GAS----GAS----GAS----GAS----GAS---
 72
    65
 73
     3
 40
24.13
 49
12.7
 74
     0
 49
-5.08
 74
     2
 75
     0
340
11
 46
2.54
 50
0.0
 44
-2.54
 45
-1.27
  9
GAS
 49
-6.349999999999999
 74
     0
  0
LTYPE
  5
58
330
5
100
AcDbSymbolTableRecord
100
AcDbLinetypeTableRecord
  2
HIDDEN
 70
     0
  3
Hidden __ __ __ __ __ __ __ __ __ __ __ __ __ _
 72
    65
 73
     2
 40
9.524999999999998
 49
6.349999999999999
 74
     0
 49
-3.174999999999999
 74
     0
  0
LTYPE
  5
59
330
5
100
AcDbSymbolTableRecord
100
AcDbLinetypeTableRecord
  2
HIDDEN2
 70
     0
  3
Hidden (.5x) _ _ _ _ _ _ _ _ _ _ _ _ _ _ _ _ _
 72
    65
 73
     2
 40
4.762499999999999
 49
3.174999999999999
 74
     0
 49
-1.587499999999999
 74
     0
  0
LTYPE
  5
5A
330
5
100
AcDbSymbolTableRecord
100
AcDbLinetypeTableRecord
  2
HIDDENX2
 70
     0
  3
Hidden (2x) ____ ____ ____ ____ ____ ____ ____
 72
    65
 73
     2
 40
19.05
 49
12.7
 74
     0
 49
-6.349999999999999
 74
     0
  0
LTYPE
  5
5B
330
5
100
AcDbSymbolTableRecord
100
AcDbLinetypeTableRecord
  2
HOT_WATER_SUPPLY
 70
     0
  3
Hot water supply ---- HW ---- HW ---- HW ----
 72
    65
 73
     3
 40
22.86
 49
12.7
 74
     0
 49
-5.08
 74
     2
 75
     0
340
11
 46
2.54
 50
0.0
 44
-2.54
 45
-1.27
  9
HW
 49
-5.08
 74
     0
  0
LTYPE
  5
5C
330
5
100
AcDbSymbolTableRecord
100
AcDbLinetypeTableRecord
  2
PHANTOM
 70
     0
  3
Phantom ______  __  __  ______  __  __  ______
 72
    65
 73
     6
 40
63.5
 49
31.75
 74
     0
 49
-6.349999999999999
 74
     0
 49
6.349999999999999
 74
     0
 49
-6.349999999999999
 74
     0
 49
6.349999999999999
 74
     0
 49
-6.349999999999999
 74
     0
  0
LTYPE
  5
5D
330
5
100
AcDbSymbolTableRecord
100
AcDbLinetypeTableRecord
  2
PHANTOM2
 70
     0
  3
Phantom (.5x) ___ _ _ ___ _ _ ___ _ _ ___ _ _
 72
    65
 73
     6
 40
31.75
 49
15.875
 74
     0
 49
-3.174999999999999
 74
     0
 49
3.174999999999999
 74
     0
 49
-3.174999999999999
 74
     0
 49
3.174999999999999
 74
     0
 49
-3.174999999999999
 74
     0
  0
LTYPE
  5
5E
330
5
100
AcDbSymbolTableRecord
100
AcDbLinetypeTableRecord
  2
PHANTOMX2
 70
     0
  3
Phantom (2x) ____________    ____    ____   _
 72
    65
 73
     6
 40
127.0
 49
63.5
 74
     0
 49
-12.7
 74
     0
 49
12.7
 74
     0
 49
-12.7
 74
     0
 49
12.7
 74
     0
 49
-12.7
 74
     0
  0
LTYPE
  5
5F
330
5
100
AcDbSymbolTableRecord
100
AcDbLinetypeTableRecord
  2
TRACKS
 70
     0
  3
Tracks -|-|-|-|-|-|-|-|-|-|-|-|-|-|-|-|-|-|-|-|
 72
    65
 73
     2
 40
7.62
 49
3.81
 74
     4
 75
   130
340
33
 46
6.349999999999999
 50
0.0
 44
0.0
 45
0.0
 49
3.81
 74
     0
  0
LTYPE
  5
60
330
5
100
AcDbSymbolTableRecord
100
AcDbLinetypeTableRecord
  2
ZIGZAG
 70
     0
  3
Zig zag /\/\/\/\/\/\/\/\/\/\/\/\/\/\/\/\/\/\/\/
 72
    65
 73
     4
 40
20.32254
 49
0.00254
 74
     0
 49
-5.08
 74
     4
 75
   131
340
33
 46
5.08
 50
0.0
 44
-5.08
 45
0.0
 49
-10.16
 74
     4
 75
   131
340
33
 46
5.08
 50
180.0
 44
5.08
 45
0.0
 49
-5.08
 74
     0
  0
ENDTAB
  0
TABLE
  2
LAYER
  5
2
102
{ACAD_XDICTIONARY
360
1969
102
}
330
0
100
AcDbSymbolTable
 70
     7
  0
LAYER
  5
10
330
2
100
AcDbSymbolTableRecord
100
AcDbLayerTableRecord
  2
0
 70
     0
 62
     7
  6
Continuous
370
    -3
390
F
  0
LAYER
  5
C3
330
2
100
AcDbSymbolTableRecord
100
AcDbLayerTableRecord
  2
Defpoints
 70
     0
 62
     7
  6
Continuous
290
     0
370
    -3
390
F
  0
LAYER
  5
256
330
2
100
AcDbSymbolTableRecord
100
AcDbLayerTableRecord
  2
Cen
 70
     0
 62
     7
  6
CENTER2
370
    15
390
F
  0
LAYER
  5
5DF
330
2
100
AcDbSymbolTableRecord
100
AcDbLayerTableRecord
  2
実形
 70
     0
 62
     7
  6
Continuous
370
    -3
390
F
  0
LAYER
  5
60C
330
2
100
AcDbSymbolTableRecord
100
AcDbLayerTableRecord
  2
補助
 70
     0
 62
     7
  6
Continuous
370
    -3
390
F
  0
LAYER
  5
619
330
2
100
AcDbSymbolTableRecord
100
AcDbLayerTableRecord
  2
センター
 70
     0
 62
     7
  6
CENTER2
370
    18
390
F
  0
LAYER
  5
61A
330
2
100
AcDbSymbolTableRecord
100
AcDbLayerTableRecord
  2
寸法
 70
     0
 62
     7
  6
Continuous
370
    18
390
F
  0
ENDTAB
  0
TABLE
  2
STYLE
  5
3
330
0
100
AcDbSymbolTable
 70
     4
  0
STYLE
  5
11
330
3
100
AcDbSymbolTableRecord
100
AcDbTextStyleTableRecord
  2
Standard
 70
     0
 40
0.0
 41
1.0
 50
0.0
 71
     0
 42
35.0
  3
txt.shx
  4
bigfont.shx
  0
STYLE
  5
33
330
3
100
AcDbSymbolTableRecord
100
AcDbTextStyleTableRecord
  2

 70
     1
 40
0.0
 41
1.0
 50
0.0
 71
     0
 42
2.5
  3
ltypeshp.shx
  4

  0
STYLE
  5
1968
330
3
100
AcDbSymbolTableRecord
100
AcDbTextStyleTableRecord
  2
ms明朝
 70
     0
 40
0.0
 41
1.0
 50
0.0
 71
     0
 42
25.0
  3
MS Mincho.ttf
  4

1001
ACAD
1000
MS Mincho
1071
    32785
  0
STYLE
  5
2E03
330
3
100
AcDbSymbolTableRecord
100
AcDbTextStyleTableRecord
  2
明朝
 70
     0
 40
0.0
 41
1.0
 50
0.0
 71
     0
 42
25.0
  3
MS Mincho.ttf
  4

1001
ACAD
1000
MS Mincho
1071
    32785
  0
ENDTAB
  0
TABLE
  2
VIEW
  5
6
330
0
100
AcDbSymbolTable
 70
     0
  0
ENDTAB
  0
TABLE
  2
UCS
  5
7
330
0
100
AcDbSymbolTable
 70
     0
  0
ENDTAB
  0
TABLE
  2
APPID
  5
9
330
0
100
AcDbSymbolTable
 70
     1
  0
APPID
  5
12
330
9
100
AcDbSymbolTableRecord
100
AcDbRegAppTableRecord
  2
ACAD
 70
     0
  0
ENDTAB
  0
TABLE
  2
DIMSTYLE
  5
A
330
0
100
AcDbSymbolTable
 70
     1
100
AcDbDimStyleTable
 71
     1
340
27
  0
DIMSTYLE
105
27
102
{ACAD_REACTORS
330
473
330
480
330
586
330
304
330
376
330
2E9
330
384
330
31C
330
2F7
330
3BF
330
3B2
330
E81
330
E8E
330
13DD
330
13E1
330
13DF
330
13E2
330
13DC
330
13DE
330
13E0
330
13E3
330
1671
330
1672
330
1673
330
1674
330
1D75
330
1D76
330
1D77
330
1D78
330
1D79
330
1D7A
330
2F76
330
2F7F
330
2F81
330
2F82
330
2F85
330
2F86
330
2F87
330
2F88
330
2F8A
330
2F8B
330
2F8C
330
2F8D
330
2F8E
330
2F8F
330
2F95
330
2F96
330
2F97
330
2F9F
330
2FA0
330
2FA1
330
3275
330
3276
330
3277
330
3278
330
3279
330
337A
330
3473
330
3474
330
3475
330
3476
330
3477
330
355B
330
355C
330
355D
330
355E
330
355F
102
}
330
A
100
AcDbSymbolTableRecord
100
AcDbDimStyleTableRecord
  2
ISO-25
 70
     0
 41
30.0
 42
65.0
 43
3.75
 44
0.0
 73
     0
 74
     0
 77
     1
 78
     8
140
25.0
141
2.5
143
0.03937007874016
147
6.25
171
     3
172
     1
271
     2
272
     2
274
     3
283
     0
284
     8
340
11
341
DA
342
D0
371
    15
372
    15
  0
ENDTAB
  0
TABLE
  2
BLOCK_RECORD
  5
1
330
0
100
AcDbSymbolTable
 70
    77
  0
BLOCK_RECORD
  5
1F
102
{ACAD_XDICTIONARY
360
19DA
102
}
330
1
100
AcDbSymbolTableRecord
100
AcDbBlockTableRecord
  2
*Model_Space
340
22
  0
BLOCK_RECORD
  5
1B
330
1
100
AcDbSymbolTableRecord
100
AcDbBlockTableRecord
  2
*Paper_Space
340
1E
  0
BLOCK_RECORD
  5
23
330
1
100
AcDbSymbolTableRecord
100
AcDbBlockTableRecord
  2
*Paper_Space0
340
26
  0
BLOCK_RECORD
  5
D0
330
1
100
AcDbSymbolTableRecord
100
AcDbBlockTableRecord
  2
_DotSmall
340
0
102
{BLKREFS
331
1E23
331
1E24
331
1E2C
331
1E2D
331
1E36
331
1E37
331
1E47
331
1E48
331
1E50
331
1E51
331
1E59
331
1E5A
331
1E62
331
1E63
331
1E87
331
1E88
331
1EA1
331
1EA2
331
1EAB
331
1EAC
331
1EB3
331
1EB4
331
1EBD
331
1EBE
331
1EC5
331
1EC6
331
1ECE
331
1ECF
331
1ED8
331
1ED9
331
1EE1
331
1EE2
331
1EEA
331
1EEB
331
1EF4
331
1EF5
331
1EFC
331
1EFD
331
1F06
331
1F07
331
1F32
331
1F33
331
1F3C
331
1F3D
331
1F45
331
1F46
331
1F4D
331
1F4E
331
1F57
331
1F58
331
1F60
331
1F61
331
309B
331
309C
331
30A5
331
30A6
331
30AD
331
30AE
331
30B7
331
30B8
331
30BF
331
30C0
331
30C8
331
30C9
331
30D1
331
30D2
331
30DB
331
30DC
331
30E3
331
30E4
331
30EC
331
30ED
331
30F5
331
30F6
331
30FE
331
30FF
331
3107
331
3108
331
3110
331
3111
331
3119
331
311A
331
3122
331
3123
331
312B
331
312C
331
3134
331
3135
331
313D
331
313E
331
32E6
331
32E7
331
33DB
331
33DC
331
33EC
331
33ED
331
33F7
331
33F8
331
3403
331
3404
331
3412
331
3413
331
35D9
331
35DA
331
35E8
331
35E9
331
35F3
331
35F4
331
35FE
331
35FF
331
3606
331
3607
331
360F
331
3610
331
361E
331
361F
331
3627
331
3628
331
3630
331
3631
331
3638
331
3639
331
3642
331
3643
331
364A
331
364B
331
3653
331
3654
331
365C
331
365D
331
3668
331
3669
331
3670
331
3671
331
367A
331
367B
331
3688
331
3689
331
3693
331
3694
331
369C
331
369D
102
}
  0
BLOCK_RECORD
  5
D4
330
1
100
AcDbSymbolTableRecord
100
AcDbBlockTableRecord
  2
_Origin2
340
0
  0
BLOCK_RECORD
  5
DA
330
1
100
AcDbSymbolTableRecord
100
AcDbBlockTableRecord
  2
_Open30
340
0
  0
BLOCK_RECORD
  5
2EA
330
1
100
AcDbSymbolTableRecord
100
AcDbBlockTableRecord
  2
*D4
340
0
  0
BLOCK_RECORD
  5
2F8
330
1
100
AcDbSymbolTableRecord
100
AcDbBlockTableRecord
  2
*D5
340
0
  0
BLOCK_RECORD
  5
305
330
1
100
AcDbSymbolTableRecord
100
AcDbBlockTableRecord
  2
*D6
340
0
  0
BLOCK_RECORD
  5
31D
330
1
100
AcDbSymbolTableRecord
100
AcDbBlockTableRecord
  2
*D7
340
0
  0
BLOCK_RECORD
  5
377
330
1
100
AcDbSymbolTableRecord
100
AcDbBlockTableRecord
  2
*D8
340
0
  0
BLOCK_RECORD
  5
385
330
1
100
AcDbSymbolTableRecord
100
AcDbBlockTableRecord
  2
*D9
340
0
  0
BLOCK_RECORD
  5
3B3
330
1
100
AcDbSymbolTableRecord
100
AcDbBlockTableRecord
  2
*D10
340
0
  0
BLOCK_RECORD
  5
3C0
330
1
100
AcDbSymbolTableRecord
100
AcDbBlockTableRecord
  2
*D11
340
0
  0
BLOCK_RECORD
  5
474
330
1
100
AcDbSymbolTableRecord
100
AcDbBlockTableRecord
  2
*D12
340
0
  0
BLOCK_RECORD
  5
481
330
1
100
AcDbSymbolTableRecord
100
AcDbBlockTableRecord
  2
*D13
340
0
  0
BLOCK_RECORD
  5
587
330
1
100
AcDbSymbolTableRecord
100
AcDbBlockTableRecord
  2
*D14
340
0
  0
BLOCK_RECORD
  5
E82
330
1
100
AcDbSymbolTableRecord
100
AcDbBlockTableRecord
  2
*D15
340
0
  0
BLOCK_RECORD
  5
E8F
330
1
100
AcDbSymbolTableRecord
100
AcDbBlockTableRecord
  2
*D16
340
0
  0
BLOCK_RECORD
  5
13EA
330
1
100
AcDbSymbolTableRecord
100
AcDbBlockTableRecord
  2
*D17
340
0
  0
BLOCK_RECORD
  5
13F6
330
1
100
AcDbSymbolTableRecord
100
AcDbBlockTableRecord
  2
*D18
340
0
  0
BLOCK_RECORD
  5
1402
330
1
100
AcDbSymbolTableRecord
100
AcDbBlockTableRecord
  2
*D19
340
0
  0
BLOCK_RECORD
  5
140E
330
1
100
AcDbSymbolTableRecord
100
AcDbBlockTableRecord
  2
*D20
340
0
  0
BLOCK_RECORD
  5
141A
330
1
100
AcDbSymbolTableRecord
100
AcDbBlockTableRecord
  2
*D21
340
0
  0
BLOCK_RECORD
  5
1426
330
1
100
AcDbSymbolTableRecord
100
AcDbBlockTableRecord
  2
*D22
340
0
  0
BLOCK_RECORD
  5
1432
330
1
100
AcDbSymbolTableRecord
100
AcDbBlockTableRecord
  2
*D23
340
0
  0
BLOCK_RECORD
  5
143F
330
1
100
AcDbSymbolTableRecord
100
AcDbBlockTableRecord
  2
*D24
340
0
  0
BLOCK_RECORD
  5
1675
330
1
100
AcDbSymbolTableRecord
100
AcDbBlockTableRecord
  2
*D25
340
0
  0
BLOCK_RECORD
  5
1681
330
1
100
AcDbSymbolTableRecord
100
AcDbBlockTableRecord
  2
*D26
340
0
  0
BLOCK_RECORD
  5
168D
330
1
100
AcDbSymbolTableRecord
100
AcDbBlockTableRecord
  2
*D27
340
0
  0
BLOCK_RECORD
  5
1699
330
1
100
AcDbSymbolTableRecord
100
AcDbBlockTableRecord
  2
*D28
340
0
  0
BLOCK_RECORD
  5
1D7F
330
1
100
AcDbSymbolTableRecord
100
AcDbBlockTableRecord
  2
*D29
340
0
  0
BLOCK_RECORD
  5
1D8B
330
1
100
AcDbSymbolTableRecord
100
AcDbBlockTableRecord
  2
*D30
340
0
  0
BLOCK_RECORD
  5
1D97
330
1
100
AcDbSymbolTableRecord
100
AcDbBlockTableRecord
  2
*D31
340
0
  0
BLOCK_RECORD
  5
1DA3
330
1
100
AcDbSymbolTableRecord
100
AcDbBlockTableRecord
  2
*D32
340
0
  0
BLOCK_RECORD
  5
1DAF
330
1
100
AcDbSymbolTableRecord
100
AcDbBlockTableRecord
  2
*D33
340
0
  0
BLOCK_RECORD
  5
1DBB
330
1
100
AcDbSymbolTableRecord
100
AcDbBlockTableRecord
  2
*D34
340
0
  0
BLOCK_RECORD
  5
2FA5
330
1
100
AcDbSymbolTableRecord
100
AcDbBlockTableRecord
  2
*D35
340
0
  0
BLOCK_RECORD
  5
2FAE
330
1
100
AcDbSymbolTableRecord
100
AcDbBlockTableRecord
  2
*D36
340
0
  0
BLOCK_RECORD
  5
2FBA
330
1
100
AcDbSymbolTableRecord
100
AcDbBlockTableRecord
  2
*D37
340
0
  0
BLOCK_RECORD
  5
2FC6
330
1
100
AcDbSymbolTableRecord
100
AcDbBlockTableRecord
  2
*D38
340
0
  0
BLOCK_RECORD
  5
2FD2
330
1
100
AcDbSymbolTableRecord
100
AcDbBlockTableRecord
  2
*D39
340
0
  0
BLOCK_RECORD
  5
2FDE
330
1
100
AcDbSymbolTableRecord
100
AcDbBlockTableRecord
  2
*D40
340
0
  0
BLOCK_RECORD
  5
2FEA
330
1
100
AcDbSymbolTableRecord
100
AcDbBlockTableRecord
  2
*D41
340
0
  0
BLOCK_RECORD
  5
2FF6
330
1
100
AcDbSymbolTableRecord
100
AcDbBlockTableRecord
  2
*D42
340
0
  0
BLOCK_RECORD
  5
3002
330
1
100
AcDbSymbolTableRecord
100
AcDbBlockTableRecord
  2
*D43
340
0
  0
BLOCK_RECORD
  5
300E
330
1
100
AcDbSymbolTableRecord
100
AcDbBlockTableRecord
  2
*D44
340
0
  0
BLOCK_RECORD
  5
301A
330
1
100
AcDbSymbolTableRecord
100
AcDbBlockTableRecord
  2
*D45
340
0
  0
BLOCK_RECORD
  5
3026
330
1
100
AcDbSymbolTableRecord
100
AcDbBlockTableRecord
  2
*D46
340
0
  0
BLOCK_RECORD
  5
3032
330
1
100
AcDbSymbolTableRecord
100
AcDbBlockTableRecord
  2
*D47
340
0
  0
BLOCK_RECORD
  5
303E
330
1
100
AcDbSymbolTableRecord
100
AcDbBlockTableRecord
  2
*D48
340
0
  0
BLOCK_RECORD
  5
304A
330
1
100
AcDbSymbolTableRecord
100
AcDbBlockTableRecord
  2
*D49
340
0
  0
BLOCK_RECORD
  5
3056
330
1
100
AcDbSymbolTableRecord
100
AcDbBlockTableRecord
  2
*D50
340
0
  0
BLOCK_RECORD
  5
3062
330
1
100
AcDbSymbolTableRecord
100
AcDbBlockTableRecord
  2
*D51
340
0
  0
BLOCK_RECORD
  5
306E
330
1
100
AcDbSymbolTableRecord
100
AcDbBlockTableRecord
  2
*D52
340
0
  0
BLOCK_RECORD
  5
307A
330
1
100
AcDbSymbolTableRecord
100
AcDbBlockTableRecord
  2
*D53
340
0
  0
BLOCK_RECORD
  5
3086
330
1
100
AcDbSymbolTableRecord
100
AcDbBlockTableRecord
  2
*D54
340
0
  0
BLOCK_RECORD
  5
327C
330
1
100
AcDbSymbolTableRecord
100
AcDbBlockTableRecord
  2
*D55
340
0
  0
BLOCK_RECORD
  5
328A
330
1
100
AcDbSymbolTableRecord
100
AcDbBlockTableRecord
  2
*D56
340
0
  0
BLOCK_RECORD
  5
329B
330
1
100
AcDbSymbolTableRecord
100
AcDbBlockTableRecord
  2
*D57
340
0
  0
BLOCK_RECORD
  5
32A7
330
1
100
AcDbSymbolTableRecord
100
AcDbBlockTableRecord
  2
*D58
340
0
  0
BLOCK_RECORD
  5
32B3
330
1
100
AcDbSymbolTableRecord
100
AcDbBlockTableRecord
  2
*D59
340
0
  0
BLOCK_RECORD
  5
339F
330
1
100
AcDbSymbolTableRecord
100
AcDbBlockTableRecord
  2
*D60
340
0
  0
BLOCK_RECORD
  5
33D3
330
1
100
AcDbSymbolTableRecord
100
AcDbBlockTableRecord
  2
*D61
340
0
  0
BLOCK_RECORD
  5
33E1
330
1
100
AcDbSymbolTableRecord
100
AcDbBlockTableRecord
  2
*D62
340
0
  0
BLOCK_RECORD
  5
33F2
330
1
100
AcDbSymbolTableRecord
100
AcDbBlockTableRecord
  2
*D63
340
0
  0
BLOCK_RECORD
  5
33FE
330
1
100
AcDbSymbolTableRecord
100
AcDbBlockTableRecord
  2
*D64
340
0
  0
BLOCK_RECORD
  5
340A
330
1
100
AcDbSymbolTableRecord
100
AcDbBlockTableRecord
  2
*D65
340
0
  0
BLOCK_RECORD
  5
3418
102
{ACAD_XDICTIONARY
360
341E
102
}
330
1
100
AcDbSymbolTableRecord
100
AcDbBlockTableRecord
  2
A$C1AAF7BE3
340
0
  0
BLOCK_RECORD
  5
3478
330
1
100
AcDbSymbolTableRecord
100
AcDbBlockTableRecord
  2
*D67
340
0
  0
BLOCK_RECORD
  5
3486
330
1
100
AcDbSymbolTableRecord
100
AcDbBlockTableRecord
  2
*D68
340
0
  0
BLOCK_RECORD
  5
3497
330
1
100
AcDbSymbolTableRecord
100
AcDbBlockTableRecord
  2
*D69
340
0
  0
BLOCK_RECORD
  5
34A3
330
1
100
AcDbSymbolTableRecord
100
AcDbBlockTableRecord
  2
*D70
340
0
  0
BLOCK_RECORD
  5
34AF
330
1
100
AcDbSymbolTableRecord
100
AcDbBlockTableRecord
  2
*D71
340
0
  0
BLOCK_RECORD
  5
3560
330
1
100
AcDbSymbolTableRecord
100
AcDbBlockTableRecord
  2
*D72
340
0
  0
BLOCK_RECORD
  5
356C
330
1
100
AcDbSymbolTableRecord
100
AcDbBlockTableRecord
  2
*D73
340
0
  0
BLOCK_RECORD
  5
357D
330
1
100
AcDbSymbolTableRecord
100
AcDbBlockTableRecord
  2
*D74
340
0
  0
BLOCK_RECORD
  5
3589
330
1
100
AcDbSymbolTableRecord
100
AcDbBlockTableRecord
  2
*D75
340
0
  0
BLOCK_RECORD
  5
3595
330
1
100
AcDbSymbolTableRecord
100
AcDbBlockTableRecord
  2
*D76
340
0
  0
ENDTAB
  0
ENDSEC
  0
SECTION
  2
BLOCKS
  0
BLOCK
  5
20
330
1F
100
AcDbEntity
  8
0
100
AcDbBlockBegin
  2
*Model_Space
 70
     0
 10
0.0
 20
0.0
 30
0.0
  3
*Model_Space
  1

  0
ENDBLK
  5
21
330
1F
100
AcDbEntity
  8
0
100
AcDbBlockEnd
  0
BLOCK
  5
1C
330
1B
100
AcDbEntity
 67
     1
  8
0
100
AcDbBlockBegin
  2
*Paper_Space
 70
     0
 10
0.0
 20
0.0
 30
0.0
  3
*Paper_Space
  1

  0
ENDBLK
  5
1D
330
1B
100
AcDbEntity
 67
     1
  8
0
100
AcDbBlockEnd
  0
BLOCK
  5
24
330
23
100
AcDbEntity
  8
0
100
AcDbBlockBegin
  2
*Paper_Space0
 70
     0
 10
0.0
 20
0.0
 30
0.0
  3
*Paper_Space0
  1

  0
ENDBLK
  5
25
330
23
100
AcDbEntity
  8
0
100
AcDbBlockEnd
  0
BLOCK
  5
D2
330
D0
100
AcDbEntity
  8
0
100
AcDbBlockBegin
  2
_DotSmall
 70
     0
 10
0.0
 20
0.0
 30
0.0
  3
_DotSmall
  1

  0
LWPOLYLINE
  5
D1
330
D0
100
AcDbEntity
  8
0
 62
     0
100
AcDbPolyline
 90
        2
 70
     1
 43
0.5
 10
-0.0625
 20
0.0
 42
1.0
 10
0.0625
 20
0.0
 42
1.0
  0
ENDBLK
  5
D3
330
D0
100
AcDbEntity
  8
0
100
AcDbBlockEnd
  0
BLOCK
  5
D8
330
D4
100
AcDbEntity
  8
0
100
AcDbBlockBegin
  2
_Origin2
 70
     0
 10
0.0
 20
0.0
 30
0.0
  3
_Origin2
  1

  0
CIRCLE
  5
D5
330
D4
100
AcDbEntity
  8
0
 62
     0
370
    -2
100
AcDbCircle
 10
0.0
 20
0.0
 30
0.0
 40
0.5
  0
CIRCLE
  5
D6
330
D4
100
AcDbEntity
  8
0
 62
     0
370
    -2
100
AcDbCircle
 10
0.0
 20
0.0
 30
0.0
 40
0.25
  0
LINE
  5
D7
330
D4
100
AcDbEntity
  8
0
 62
     0
370
    -2
100
AcDbLine
 10
-0.5
 20
0.0
 30
0.0
 11
-1.0
 21
0.0
 31
0.0
  0
ENDBLK
  5
D9
330
D4
100
AcDbEntity
  8
0
100
AcDbBlockEnd
  0
BLOCK
  5
DE
330
DA
100
AcDbEntity
  8
0
100
AcDbBlockBegin
  2
_Open30
 70
     0
 10
0.0
 20
0.0
 30
0.0
  3
_Open30
  1

  0
LINE
  5
DB
330
DA
100
AcDbEntity
  8
0
 62
     0
370
    -2
100
AcDbLine
 10
-1.0
 20
0.26794919
 30
0.0
 11
0.0
 21
0.0
 31
0.0
  0
LINE
  5
DC
330
DA
100
AcDbEntity
  8
0
 62
     0
370
    -2
100
AcDbLine
 10
0.0
 20
0.0
 30
0.0
 11
-1.0
 21
-0.26794919
 31
0.0
  0
LINE
  5
DD
330
DA
100
AcDbEntity
  8
0
 62
     0
370
    -2
100
AcDbLine
 10
0.0
 20
0.0
 30
0.0
 11
-1.0
 21
0.0
 31
0.0
  0
ENDBLK
  5
DF
330
DA
100
AcDbEntity
  8
0
100
AcDbBlockEnd
  0
BLOCK
  5
2F5
330
2EA
100
AcDbEntity
  8
0
100
AcDbBlockBegin
  2
*D4
 70
     1
 10
0.0
 20
0.0
 30
0.0
  3
*D4
  1

  0
LINE
  5
1E1F
330
2EA
100
AcDbEntity
  8
0
 62
     0
370
    15
100
AcDbLine
 10
1183.005716632864
 20
1052.559599470272
 30
0.0
 11
1183.005716632864
 21
1000.651827675555
 31
0.0
  0
LINE
  5
1E20
330
2EA
100
AcDbEntity
  8
0
 62
     0
370
    15
100
AcDbLine
 10
1166.005716632864
 20
1052.559599470272
 30
0.0
 11
1166.005716632864
 21
1000.651827675555
 31
0.0
  0
LINE
  5
1E21
330
2EA
100
AcDbEntity
  8
0
 62
     0
370
    15
100
AcDbLine
 10
1183.005716632864
 20
1000.651827675555
 30
0.0
 11
1166.005716632864
 21
1000.651827675555
 31
0.0
  0
LINE
  5
1E22
330
2EA
100
AcDbEntity
  8
0
 62
     0
370
    15
100
AcDbLine
 10
1166.005716632864
 20
1000.651827675555
 30
0.0
 11
1090.172383299531
 21
1000.651827675555
 31
0.0
  0
INSERT
  5
1E23
330
2EA
100
AcDbEntity
  8
0
 62
     0
370
    15
100
AcDbBlockReference
  2
_DotSmall
 10
1183.005716632864
 20
1000.651827675555
 30
0.0
 41
30.0
 42
30.0
 43
30.0
  0
INSERT
  5
1E24
330
2EA
100
AcDbEntity
  8
0
 62
     0
370
    15
100
AcDbBlockReference
  2
_DotSmall
 10
1166.005716632864
 20
1000.651827675555
 30
0.0
 41
30.0
 42
30.0
 43
30.0
 50
180.0
  0
MTEXT
  5
1E25
330
2EA
100
AcDbEntity
  8
0
 62
     0
100
AcDbMText
 10
1113.089049966197
 20
1019.401827675555
 30
0.0
 40
25.0
 41
0.0
 71
     5
 72
     1
  1
17
 73
     1
 44
1.0
1001
ACAD
1000
MTEXTBEGIN
1070
    73
1070
     1
1070
    44
1040
1.0
1070
    74
1070
     0
1000
MTEXTEND
  0
POINT
  5
1E26
330
2EA
100
AcDbEntity
  8
Defpoints
 62
     0
100
AcDbPoint
 10
1183.005716632864
 20
1117.559599470271
 30
0.0
  0
POINT
  5
1E27
330
2EA
100
AcDbEntity
  8
Defpoints
 62
     0
100
AcDbPoint
 10
1166.005716632864
 20
1117.559599470271
 30
0.0
  0
POINT
  5
1E28
330
2EA
100
AcDbEntity
  8
Defpoints
 62
     0
100
AcDbPoint
 10
1166.005716632864
 20
1000.651827675555
 30
0.0
  0
ENDBLK
  5
2F6
330
2EA
100
AcDbEntity
  8
0
100
AcDbBlockEnd
  0
BLOCK
  5
302
330
2F8
100
AcDbEntity
  8
0
100
AcDbBlockBegin
  2
*D5
 70
     1
 10
0.0
 20
0.0
 30
0.0
  3
*D5
  1

  0
LINE
  5
1E29
330
2F8
100
AcDbEntity
  8
0
 62
     0
370
    15
100
AcDbLine
 10
1166.005716632864
 20
1052.559599470272
 30
0.0
 11
1166.005716632864
 21
1000.651827675555
 31
0.0
  0
LINE
  5
1E2A
330
2F8
100
AcDbEntity
  8
0
 62
     0
370
    15
100
AcDbLine
 10
516.0057166328642
 20
1052.559599470272
 30
0.0
 11
516.0057166328642
 21
1000.651827675555
 31
0.0
  0
LINE
  5
1E2B
330
2F8
100
AcDbEntity
  8
0
 62
     0
370
    15
100
AcDbLine
 10
1166.005716632864
 20
1000.651827675555
 30
0.0
 11
516.0057166328642
 21
1000.651827675555
 31
0.0
  0
INSERT
  5
1E2C
330
2F8
100
AcDbEntity
  8
0
 62
     0
370
    15
100
AcDbBlockReference
  2
_DotSmall
 10
1166.005716632864
 20
1000.651827675555
 30
0.0
 41
30.0
 42
30.0
 43
30.0
  0
INSERT
  5
1E2D
330
2F8
100
AcDbEntity
  8
0
 62
     0
370
    15
100
AcDbBlockReference
  2
_DotSmall
 10
516.0057166328642
 20
1000.651827675555
 30
0.0
 41
30.0
 42
30.0
 43
30.0
 50
180.0
  0
MTEXT
  5
1E2E
330
2F8
100
AcDbEntity
  8
0
 62
     0
100
AcDbMText
 10
841.0057166328643
 20
1019.401827675555
 30
0.0
 40
25.0
 41
0.0
 71
     5
 72
     1
  1
650
 73
     1
 44
1.0
1001
ACAD
1000
MTEXTBEGIN
1070
    73
1070
     1
1070
    44
1040
1.0
1070
    74
1070
     0
1000
MTEXTEND
  0
POINT
  5
1E2F
330
2F8
100
AcDbEntity
  8
Defpoints
 62
     0
100
AcDbPoint
 10
1166.005716632864
 20
1117.559599470271
 30
0.0
  0
POINT
  5
1E30
330
2F8
100
AcDbEntity
  8
Defpoints
 62
     0
100
AcDbPoint
 10
516.0057166328642
 20
1117.559599470271
 30
0.0
  0
POINT
  5
1E31
330
2F8
100
AcDbEntity
  8
Defpoints
 62
     0
100
AcDbPoint
 10
516.0057166328642
 20
1000.651827675555
 30
0.0
  0
ENDBLK
  5
303
330
2F8
100
AcDbEntity
  8
0
100
AcDbBlockEnd
  0
BLOCK
  5
311
330
305
100
AcDbEntity
  8
0
100
AcDbBlockBegin
  2
*D6
 70
     1
 10
0.0
 20
0.0
 30
0.0
  3
*D6
  1

  0
LINE
  5
1E32
330
305
100
AcDbEntity
  8
0
 62
     0
370
    15
100
AcDbLine
 10
516.0057166328642
 20
1052.559599470272
 30
0.0
 11
516.0057166328642
 21
1000.651827675555
 31
0.0
  0
LINE
  5
1E33
330
305
100
AcDbEntity
  8
0
 62
     0
370
    15
100
AcDbLine
 10
499.0057166328642
 20
1052.559599470272
 30
0.0
 11
499.0057166328642
 21
1000.651827675555
 31
0.0
  0
LINE
  5
1E34
330
305
100
AcDbEntity
  8
0
 62
     0
370
    15
100
AcDbLine
 10
516.0057166328642
 20
1000.651827675555
 30
0.0
 11
499.0057166328642
 21
1000.651827675555
 31
0.0
  0
MTEXT
  5
1E35
330
305
100
AcDbEntity
  8
0
 62
     0
100
AcDbMText
 10
559.4639322173207
 20
1019.401827675555
 30
0.0
 40
25.0
 41
0.0
 71
     5
 72
     1
  1
17
 73
     1
 44
1.0
1001
ACAD
1000
MTEXTBEGIN
1070
    73
1070
     1
1070
    44
1040
1.0
1070
    74
1070
     0
1000
MTEXTEND
  0
INSERT
  5
1E36
330
305
100
AcDbEntity
  8
0
 62
     0
370
    15
100
AcDbBlockReference
  2
_DotSmall
 10
516.0057166328642
 20
1000.651827675555
 30
0.0
 41
30.0
 42
30.0
 43
30.0
  0
INSERT
  5
1E37
330
305
100
AcDbEntity
  8
0
 62
     0
370
    15
100
AcDbBlockReference
  2
_DotSmall
 10
499.0057166328642
 20
1000.651827675555
 30
0.0
 41
30.0
 42
30.0
 43
30.0
 50
180.0
  0
POINT
  5
1E38
330
305
100
AcDbEntity
  8
Defpoints
 62
     0
100
AcDbPoint
 10
516.0057166328642
 20
1117.559599470271
 30
0.0
  0
POINT
  5
1E39
330
305
100
AcDbEntity
  8
Defpoints
 62
     0
100
AcDbPoint
 10
499.0057166328642
 20
1117.559599470271
 30
0.0
  0
POINT
  5
1E3A
330
305
100
AcDbEntity
  8
Defpoints
 62
     0
100
AcDbPoint
 10
499.0057166328642
 20
1000.651827675555
 30
0.0
  0
ENDBLK
  5
312
330
305
100
AcDbEntity
  8
0
100
AcDbBlockEnd
  0
BLOCK
  5
327
330
31D
100
AcDbEntity
  8
0
100
AcDbBlockBegin
  2
*D7
 70
     1
 10
0.0
 20
0.0
 30
0.0
  3
*D7
  1

  0
LINE
  5
3659
330
31D
100
AcDbEntity
  8
0
 62
     0
370
    15
100
AcDbLine
 10
1183.005716632864
 20
1052.559599470272
 30
0.0
 11
1183.005716632864
 21
930.2930557203481
 31
0.0
  0
LINE
  5
365A
330
31D
100
AcDbEntity
  8
0
 62
     0
370
    15
100
AcDbLine
 10
499.0057166328642
 20
1052.559599470272
 30
0.0
 11
499.0057166328642
 21
930.2930557203481
 31
0.0
  0
LINE
  5
365B
330
31D
100
AcDbEntity
  8
0
 62
     0
370
    15
100
AcDbLine
 10
1183.005716632864
 20
930.2930557203481
 30
0.0
 11
499.0057166328642
 21
930.2930557203481
 31
0.0
  0
INSERT
  5
365C
330
31D
100
AcDbEntity
  8
0
 62
     0
370
    15
100
AcDbBlockReference
  2
_DotSmall
 10
1183.005716632864
 20
930.2930557203481
 30
0.0
 41
30.0
 42
30.0
 43
30.0
  0
INSERT
  5
365D
330
31D
100
AcDbEntity
  8
0
 62
     0
370
    15
100
AcDbBlockReference
  2
_DotSmall
 10
499.0057166328642
 20
930.2930557203481
 30
0.0
 41
30.0
 42
30.0
 43
30.0
 50
180.0
  0
MTEXT
  5
365E
330
31D
100
AcDbEntity
  8
0
 62
     0
100
AcDbMText
 10
841.0057166328643
 20
949.0430557203481
 30
0.0
 40
25.0
 41
0.0
 71
     5
 72
     1
  1
684
 73
     1
 44
1.0
1001
ACAD
1000
MTEXTBEGIN
1070
    73
1070
     1
1070
    44
1040
1.0
1070
    74
1070
     0
1000
MTEXTEND
  0
POINT
  5
365F
330
31D
100
AcDbEntity
  8
Defpoints
 62
     0
100
AcDbPoint
 10
1183.005716632864
 20
1117.559599470271
 30
0.0
  0
POINT
  5
3660
330
31D
100
AcDbEntity
  8
Defpoints
 62
     0
100
AcDbPoint
 10
499.0057166328642
 20
1117.559599470271
 30
0.0
  0
POINT
  5
3661
330
31D
100
AcDbEntity
  8
Defpoints
 62
     0
100
AcDbPoint
 10
499.0057166328642
 20
930.2930557203481
 30
0.0
  0
ENDBLK
  5
328
330
31D
100
AcDbEntity
  8
0
100
AcDbBlockEnd
  0
BLOCK
  5
381
330
377
100
AcDbEntity
  8
0
100
AcDbBlockBegin
  2
*D8
 70
     1
 10
0.0
 20
0.0
 30
0.0
  3
*D8
  1

  0
LINE
  5
1E44
330
377
100
AcDbEntity
  8
0
 62
     0
370
    15
100
AcDbLine
 10
916.0057166328643
 20
1381.302511279493
 30
0.0
 11
916.0057166328643
 21
1287.022521528057
 31
0.0
  0
LINE
  5
1E45
330
377
100
AcDbEntity
  8
0
 62
     0
370
    15
100
AcDbLine
 10
1166.005716632864
 20
1399.559599470272
 30
0.0
 11
1166.005716632864
 21
1287.022521528057
 31
0.0
  0
LINE
  5
1E46
330
377
100
AcDbEntity
  8
0
 62
     0
370
    15
100
AcDbLine
 10
916.0057166328643
 20
1287.022521528057
 30
0.0
 11
1166.005716632864
 21
1287.022521528057
 31
0.0
  0
INSERT
  5
1E47
330
377
100
AcDbEntity
  8
0
 62
     0
370
    15
100
AcDbBlockReference
  2
_DotSmall
 10
916.0057166328643
 20
1287.022521528057
 30
0.0
 41
30.0
 42
30.0
 43
30.0
 50
180.0
  0
INSERT
  5
1E48
330
377
100
AcDbEntity
  8
0
 62
     0
370
    15
100
AcDbBlockReference
  2
_DotSmall
 10
1166.005716632864
 20
1287.022521528057
 30
0.0
 41
30.0
 42
30.0
 43
30.0
  0
MTEXT
  5
1E49
330
377
100
AcDbEntity
  8
0
 62
     0
100
AcDbMText
 10
1041.005716632864
 20
1305.772521528057
 30
0.0
 40
25.0
 41
0.0
 71
     5
 72
     1
  1
250
 73
     1
 44
1.0
1001
ACAD
1000
MTEXTBEGIN
1070
    73
1070
     1
1070
    44
1040
1.0
1070
    74
1070
     0
1000
MTEXTEND
  0
POINT
  5
1E4A
330
377
100
AcDbEntity
  8
Defpoints
 62
     0
100
AcDbPoint
 10
916.0057166328643
 20
1446.302511279493
 30
0.0
  0
POINT
  5
1E4B
330
377
100
AcDbEntity
  8
Defpoints
 62
     0
100
AcDbPoint
 10
1166.005716632864
 20
1464.559599470272
 30
0.0
  0
POINT
  5
1E4C
330
377
100
AcDbEntity
  8
Defpoints
 62
     0
100
AcDbPoint
 10
1166.005716632864
 20
1287.022521528057
 30
0.0
  0
ENDBLK
  5
382
330
377
100
AcDbEntity
  8
0
100
AcDbBlockEnd
  0
BLOCK
  5
38F
330
385
100
AcDbEntity
  8
0
100
AcDbBlockBegin
  2
*D9
 70
     1
 10
0.0
 20
0.0
 30
0.0
  3
*D9
  1

  0
LINE
  5
1E4D
330
385
100
AcDbEntity
  8
0
 62
     0
370
    15
100
AcDbLine
 10
789.4454328771789
 20
1484.559599470272
 30
0.0
 11
755.5982143584258
 21
1484.559599470272
 31
0.0
  0
LINE
  5
1E4E
330
385
100
AcDbEntity
  8
0
 62
     0
370
    15
100
AcDbLine
 10
1041.005716632864
 20
1654.559599470272
 30
0.0
 11
755.5982143584258
 21
1654.559599470272
 31
0.0
  0
LINE
  5
1E4F
330
385
100
AcDbEntity
  8
0
 62
     0
370
    15
100
AcDbLine
 10
755.5982143584258
 20
1484.559599470272
 30
0.0
 11
755.5982143584258
 21
1654.559599470272
 31
0.0
  0
INSERT
  5
1E50
330
385
100
AcDbEntity
  8
0
 62
     0
370
    15
100
AcDbBlockReference
  2
_DotSmall
 10
755.5982143584258
 20
1484.559599470272
 30
0.0
 41
30.0
 42
30.0
 43
30.0
 50
270.0
  0
INSERT
  5
1E51
330
385
100
AcDbEntity
  8
0
 62
     0
370
    15
100
AcDbBlockReference
  2
_DotSmall
 10
755.5982143584258
 20
1654.559599470272
 30
0.0
 41
30.0
 42
30.0
 43
30.0
 50
90.0
  0
MTEXT
  5
1E52
330
385
100
AcDbEntity
  8
0
 62
     0
100
AcDbMText
 10
736.8482143584255
 20
1538.109993721399
 30
0.0
 40
25.0
 41
0.0
 71
     5
 72
     1
  1
170
 11
0.0000000000000001
 21
1.0
 31
0.0
 73
     1
 44
1.0
1001
ACAD
1000
MTEXTBEGIN
1070
    73
1070
     1
1070
    44
1040
1.0
1070
    74
1070
     0
1000
MTEXTEND
  0
POINT
  5
1E53
330
385
100
AcDbEntity
  8
Defpoints
 62
     0
100
AcDbPoint
 10
854.445432877179
 20
1484.559599470272
 30
0.0
  0
POINT
  5
1E54
330
385
100
AcDbEntity
  8
Defpoints
 62
     0
100
AcDbPoint
 10
1106.005716632864
 20
1654.559599470272
 30
0.0
  0
POINT
  5
1E55
330
385
100
AcDbEntity
  8
Defpoints
 62
     0
100
AcDbPoint
 10
755.5982143584258
 20
1654.559599470272
 30
0.0
  0
ENDBLK
  5
390
330
385
100
AcDbEntity
  8
0
100
AcDbBlockEnd
  0
BLOCK
  5
3BD
330
3B3
100
AcDbEntity
  8
0
100
AcDbBlockBegin
  2
*D10
 70
     1
 10
0.0
 20
0.0
 30
0.0
  3
*D10
  1

  0
LINE
  5
1E56
330
3B3
100
AcDbEntity
  8
0
 62
     0
370
    15
100
AcDbLine
 10
981.0057166328643
 20
1736.559599470272
 30
0.0
 11
981.0057166328643
 21
1766.677555917434
 31
0.0
  0
LINE
  5
1E57
330
3B3
100
AcDbEntity
  8
0
 62
     0
370
    15
100
AcDbLine
 10
851.0057166328643
 20
1736.559599470272
 30
0.0
 11
851.0057166328643
 21
1766.677555917434
 31
0.0
  0
LINE
  5
1E58
330
3B3
100
AcDbEntity
  8
0
 62
     0
370
    15
100
AcDbLine
 10
981.0057166328643
 20
1766.677555917434
 30
0.0
 11
851.0057166328643
 21
1766.677555917434
 31
0.0
  0
INSERT
  5
1E59
330
3B3
100
AcDbEntity
  8
0
 62
     0
370
    15
100
AcDbBlockReference
  2
_DotSmall
 10
981.0057166328643
 20
1766.677555917434
 30
0.0
 41
30.0
 42
30.0
 43
30.0
  0
INSERT
  5
1E5A
330
3B3
100
AcDbEntity
  8
0
 62
     0
370
    15
100
AcDbBlockReference
  2
_DotSmall
 10
851.0057166328643
 20
1766.677555917434
 30
0.0
 41
30.0
 42
30.0
 43
30.0
 50
180.0
  0
MTEXT
  5
1E5B
330
3B3
100
AcDbEntity
  8
0
 62
     0
100
AcDbMText
 10
916.0057166328643
 20
1785.427555917434
 30
0.0
 40
25.0
 41
0.0
 71
     5
 72
     1
  1
130
 73
     1
 44
1.0
1001
ACAD
1000
MTEXTBEGIN
1070
    73
1070
     1
1070
    44
1040
1.0
1070
    74
1070
     0
1000
MTEXTEND
  0
POINT
  5
1E5C
330
3B3
100
AcDbEntity
  8
Defpoints
 62
     0
100
AcDbPoint
 10
981.0057166328643
 20
1671.559599470272
 30
0.0
  0
POINT
  5
1E5D
330
3B3
100
AcDbEntity
  8
Defpoints
 62
     0
100
AcDbPoint
 10
851.0057166328643
 20
1671.559599470272
 30
0.0
  0
POINT
  5
1E5E
330
3B3
100
AcDbEntity
  8
Defpoints
 62
     0
100
AcDbPoint
 10
851.0057166328643
 20
1766.677555917434
 30
0.0
  0
ENDBLK
  5
3BE
330
3B3
100
AcDbEntity
  8
0
100
AcDbBlockEnd
  0
BLOCK
  5
3CA
330
3C0
100
AcDbEntity
  8
0
100
AcDbBlockBegin
  2
*D11
 70
     1
 10
0.0
 20
0.0
 30
0.0
  3
*D11
  1

  0
LINE
  5
1E5F
330
3C0
100
AcDbEntity
  8
0
 62
     0
370
    15
100
AcDbLine
 10
1046.005716632864
 20
1801.559599470271
 30
0.0
 11
1046.005716632864
 21
1821.177447232791
 31
0.0
  0
LINE
  5
1E60
330
3C0
100
AcDbEntity
  8
0
 62
     0
370
    15
100
AcDbLine
 10
786.0057166328642
 20
1801.559599470271
 30
0.0
 11
786.0057166328642
 21
1821.177447232791
 31
0.0
  0
LINE
  5
1E61
330
3C0
100
AcDbEntity
  8
0
 62
     0
370
    15
100
AcDbLine
 10
1046.005716632864
 20
1821.177447232791
 30
0.0
 11
786.0057166328642
 21
1821.177447232791
 31
0.0
  0
INSERT
  5
1E62
330
3C0
100
AcDbEntity
  8
0
 62
     0
370
    15
100
AcDbBlockReference
  2
_DotSmall
 10
1046.005716632864
 20
1821.177447232791
 30
0.0
 41
30.0
 42
30.0
 43
30.0
  0
INSERT
  5
1E63
330
3C0
100
AcDbEntity
  8
0
 62
     0
370
    15
100
AcDbBlockReference
  2
_DotSmall
 10
786.0057166328642
 20
1821.177447232791
 30
0.0
 41
30.0
 42
30.0
 43
30.0
 50
180.0
  0
MTEXT
  5
1E64
330
3C0
100
AcDbEntity
  8
0
 62
     0
100
AcDbMText
 10
916.0057166328643
 20
1839.927447232792
 30
0.0
 40
25.0
 41
0.0
 71
     5
 72
     1
  1
260
 73
     1
 44
1.0
1001
ACAD
1000
MTEXTBEGIN
1070
    73
1070
     1
1070
    44
1040
1.0
1070
    74
1070
     0
1000
MTEXTEND
  0
POINT
  5
1E65
330
3C0
100
AcDbEntity
  8
Defpoints
 62
     0
100
AcDbPoint
 10
1046.005716632864
 20
1736.559599470272
 30
0.0
  0
POINT
  5
1E66
330
3C0
100
AcDbEntity
  8
Defpoints
 62
     0
100
AcDbPoint
 10
786.0057166328642
 20
1736.559599470272
 30
0.0
  0
POINT
  5
1E67
330
3C0
100
AcDbEntity
  8
Defpoints
 62
     0
100
AcDbPoint
 10
786.0057166328642
 20
1821.177447232791
 30
0.0
  0
ENDBLK
  5
3CB
330
3C0
100
AcDbEntity
  8
0
100
AcDbBlockEnd
  0
BLOCK
  5
47E
330
474
100
AcDbEntity
  8
0
100
AcDbBlockBegin
  2
*D12
 70
     1
 10
0.0
 20
0.0
 30
0.0
  3
*D12
  1

  0
LINE
  5
3650
330
474
100
AcDbEntity
  8
0
 62
     0
370
    15
100
AcDbLine
 10
836.5057166328643
 20
556.993882710738
 30
0.0
 11
836.5057166328643
 21
500.5994080127229
 31
0.0
  0
LINE
  5
3651
330
474
100
AcDbEntity
  8
0
 62
     0
370
    15
100
AcDbLine
 10
995.5057166328645
 20
556.9938827107383
 30
0.0
 11
995.5057166328645
 21
500.5994080127229
 31
0.0
  0
LINE
  5
3652
330
474
100
AcDbEntity
  8
0
 62
     0
370
    15
100
AcDbLine
 10
836.5057166328643
 20
500.5994080127229
 30
0.0
 11
995.5057166328645
 21
500.5994080127229
 31
0.0
  0
INSERT
  5
3653
330
474
100
AcDbEntity
  8
0
 62
     0
370
    15
100
AcDbBlockReference
  2
_DotSmall
 10
836.5057166328643
 20
500.5994080127229
 30
0.0
 41
30.0
 42
30.0
 43
30.0
 50
180.0
  0
INSERT
  5
3654
330
474
100
AcDbEntity
  8
0
 62
     0
370
    15
100
AcDbBlockReference
  2
_DotSmall
 10
995.5057166328645
 20
500.5994080127229
 30
0.0
 41
30.0
 42
30.0
 43
30.0
  0
MTEXT
  5
3655
330
474
100
AcDbEntity
  8
0
 62
     0
100
AcDbMText
 10
916.0057166328643
 20
519.3494080127229
 30
0.0
 40
25.0
 41
0.0
 71
     5
 72
     1
  1
158
 73
     1
 44
1.0
1001
ACAD
1000
MTEXTBEGIN
1070
    73
1070
     1
1070
    44
1040
1.0
1070
    74
1070
     0
1000
MTEXTEND
  0
POINT
  5
3656
330
474
100
AcDbEntity
  8
Defpoints
 62
     0
100
AcDbPoint
 10
836.5057166328643
 20
621.993882710738
 30
0.0
  0
POINT
  5
3657
330
474
100
AcDbEntity
  8
Defpoints
 62
     0
100
AcDbPoint
 10
995.5057166328645
 20
621.9938827107382
 30
0.0
  0
POINT
  5
3658
330
474
100
AcDbEntity
  8
Defpoints
 62
     0
100
AcDbPoint
 10
995.5057166328645
 20
500.5994080127229
 30
0.0
  0
ENDBLK
  5
47F
330
474
100
AcDbEntity
  8
0
100
AcDbBlockEnd
  0
BLOCK
  5
48B
330
481
100
AcDbEntity
  8
0
100
AcDbBlockBegin
  2
*D13
 70
     1
 10
0.0
 20
0.0
 30
0.0
  3
*D13
  1

  0
LINE
  5
3647
330
481
100
AcDbEntity
  8
0
 62
     0
370
    15
100
AcDbLine
 10
825.5057166328642
 20
693.993882710738
 30
0.0
 11
825.5057166328642
 21
731.1469072487097
 31
0.0
  0
LINE
  5
3648
330
481
100
AcDbEntity
  8
0
 62
     0
370
    15
100
AcDbLine
 10
1006.505716632864
 20
693.9938827107381
 30
0.0
 11
1006.505716632864
 21
731.1469072487097
 31
0.0
  0
LINE
  5
3649
330
481
100
AcDbEntity
  8
0
 62
     0
370
    15
100
AcDbLine
 10
825.5057166328642
 20
731.1469072487097
 30
0.0
 11
1006.505716632864
 21
731.1469072487097
 31
0.0
  0
INSERT
  5
364A
330
481
100
AcDbEntity
  8
0
 62
     0
370
    15
100
AcDbBlockReference
  2
_DotSmall
 10
825.5057166328642
 20
731.1469072487097
 30
0.0
 41
30.0
 42
30.0
 43
30.0
 50
180.0
  0
INSERT
  5
364B
330
481
100
AcDbEntity
  8
0
 62
     0
370
    15
100
AcDbBlockReference
  2
_DotSmall
 10
1006.505716632864
 20
731.1469072487097
 30
0.0
 41
30.0
 42
30.0
 43
30.0
  0
MTEXT
  5
364C
330
481
100
AcDbEntity
  8
0
 62
     0
100
AcDbMText
 10
916.0057166328643
 20
749.8969072487097
 30
0.0
 40
25.0
 41
0.0
 71
     5
 72
     1
  1
181
 73
     1
 44
1.0
1001
ACAD
1000
MTEXTBEGIN
1070
    73
1070
     1
1070
    44
1040
1.0
1070
    74
1070
     0
1000
MTEXTEND
  0
POINT
  5
364D
330
481
100
AcDbEntity
  8
Defpoints
 62
     0
100
AcDbPoint
 10
825.5057166328642
 20
628.993882710738
 30
0.0
  0
POINT
  5
364E
330
481
100
AcDbEntity
  8
Defpoints
 62
     0
100
AcDbPoint
 10
1006.505716632864
 20
628.9938827107381
 30
0.0
  0
POINT
  5
364F
330
481
100
AcDbEntity
  8
Defpoints
 62
     0
100
AcDbPoint
 10
1006.505716632864
 20
731.1469072487097
 30
0.0
  0
ENDBLK
  5
48C
330
481
100
AcDbEntity
  8
0
100
AcDbBlockEnd
  0
BLOCK
  5
593
330
587
100
AcDbEntity
  8
0
100
AcDbBlockBegin
  2
*D14
 70
     1
 10
0.0
 20
0.0
 30
0.0
  3
*D14
  1

  0
LINE
  5
1E83
330
587
100
AcDbEntity
  8
0
 62
     0
370
    15
100
AcDbLine
 10
1029.260652656766
 20
1639.559599470272
 30
0.0
 11
1018.233156061224
 21
1639.559599470272
 31
0.0
  0
LINE
  5
1E84
330
587
100
AcDbEntity
  8
0
 62
     0
370
    15
100
AcDbLine
 10
1046.005716632864
 20
1654.559599470272
 30
0.0
 11
1018.233156061224
 21
1654.559599470272
 31
0.0
  0
LINE
  5
1E85
330
587
100
AcDbEntity
  8
0
 62
     0
370
    15
100
AcDbLine
 10
1018.233156061224
 20
1639.559599470272
 30
0.0
 11
1018.233156061224
 21
1654.559599470272
 31
0.0
  0
MTEXT
  5
1E86
330
587
100
AcDbEntity
  8
0
 62
     0
100
AcDbMText
 10
1015.990069636515
 20
1695.017457954343
 30
0.0
 40
25.0
 41
0.0
 71
     5
 72
     1
  1
15
 11
0.0000000000000001
 21
1.0
 31
0.0
 73
     1
 44
1.0
1001
ACAD
1000
MTEXTBEGIN
1070
    73
1070
     1
1070
    44
1040
1.0
1070
    74
1070
     0
1000
MTEXTEND
  0
INSERT
  5
1E87
330
587
100
AcDbEntity
  8
0
 62
     0
370
    15
100
AcDbBlockReference
  2
_DotSmall
 10
1018.233156061224
 20
1639.559599470272
 30
0.0
 41
30.0
 42
30.0
 43
30.0
 50
270.0
  0
INSERT
  5
1E88
330
587
100
AcDbEntity
  8
0
 62
     0
370
    15
100
AcDbBlockReference
  2
_DotSmall
 10
1018.233156061224
 20
1654.559599470272
 30
0.0
 41
30.0
 42
30.0
 43
30.0
 50
90.0
  0
POINT
  5
1E89
330
587
100
AcDbEntity
  8
Defpoints
 62
     0
100
AcDbPoint
 10
1094.260652656766
 20
1639.559599470272
 30
0.0
  0
POINT
  5
1E8A
330
587
100
AcDbEntity
  8
Defpoints
 62
     0
100
AcDbPoint
 10
1111.005716632864
 20
1654.559599470272
 30
0.0
  0
POINT
  5
1E8B
330
587
100
AcDbEntity
  8
Defpoints
 62
     0
100
AcDbPoint
 10
1018.233156061224
 20
1654.559599470272
 30
0.0
  0
ENDBLK
  5
594
330
587
100
AcDbEntity
  8
0
100
AcDbBlockEnd
  0
BLOCK
  5
E8C
330
E82
100
AcDbEntity
  8
0
100
AcDbBlockBegin
  2
*D15
 70
     1
 10
0.0
 20
0.0
 30
0.0
  3
*D15
  1

  0
LINE
  5
3676
330
E82
100
AcDbEntity
  8
実形
 62
     0
370
    15
100
AcDbLine
 10
825.5057166328642
 20
693.993882710738
 30
0.0
 11
825.5057166328642
 21
731.1469072487097
 31
0.0
  0
LINE
  5
3677
330
E82
100
AcDbEntity
  8
実形
 62
     0
370
    15
100
AcDbLine
 10
805.5057166328642
 20
693.9938827107383
 30
0.0
 11
805.5057166328642
 21
731.1469072487097
 31
0.0
  0
LINE
  5
3678
330
E82
100
AcDbEntity
  8
実形
 62
     0
370
    15
100
AcDbLine
 10
825.5057166328642
 20
731.1469072487097
 30
0.0
 11
805.5057166328642
 21
731.1469072487097
 31
0.0
  0
MTEXT
  5
3679
330
E82
100
AcDbEntity
  8
実形
 62
     0
100
AcDbMText
 10
815.9553422533736
 20
754.4065962188901
 30
0.0
 40
25.0
 41
0.0
 71
     5
 72
     1
  1
20
 73
     1
 44
1.0
1001
ACAD
1000
MTEXTBEGIN
1070
    73
1070
     1
1070
    44
1040
1.0
1070
    74
1070
     0
1000
MTEXTEND
  0
INSERT
  5
367A
330
E82
100
AcDbEntity
  8
実形
 62
     0
370
    15
100
AcDbBlockReference
  2
_DotSmall
 10
825.5057166328642
 20
731.1469072487097
 30
0.0
 41
30.0
 42
30.0
 43
30.0
  0
INSERT
  5
367B
330
E82
100
AcDbEntity
  8
実形
 62
     0
370
    15
100
AcDbBlockReference
  2
_DotSmall
 10
805.5057166328642
 20
731.1469072487097
 30
0.0
 41
30.0
 42
30.0
 43
30.0
 50
180.0
  0
POINT
  5
367C
330
E82
100
AcDbEntity
  8
Defpoints
 62
     0
100
AcDbPoint
 10
825.5057166328642
 20
628.993882710738
 30
0.0
  0
POINT
  5
367D
330
E82
100
AcDbEntity
  8
Defpoints
 62
     0
100
AcDbPoint
 10
805.5057166328642
 20
628.9938827107382
 30
0.0
  0
POINT
  5
367E
330
E82
100
AcDbEntity
  8
Defpoints
 62
     0
100
AcDbPoint
 10
805.5057166328642
 20
731.1469072487097
 30
0.0
  0
ENDBLK
  5
E8D
330
E82
100
AcDbEntity
  8
0
100
AcDbBlockEnd
  0
BLOCK
  5
E99
330
E8F
100
AcDbEntity
  8
0
100
AcDbBlockBegin
  2
*D16
 70
     1
 10
0.0
 20
0.0
 30
0.0
  3
*D16
  1

  0
LINE
  5
3698
330
E8F
100
AcDbEntity
  8
実形
 62
     0
370
    15
100
AcDbLine
 10
1006.505716632864
 20
693.9938827107381
 30
0.0
 11
1006.505716632864
 21
731.1469072487097
 31
0.0
  0
LINE
  5
3699
330
E8F
100
AcDbEntity
  8
実形
 62
     0
370
    15
100
AcDbLine
 10
1026.505716632864
 20
693.9938827107383
 30
0.0
 11
1026.505716632864
 21
731.1469072487097
 31
0.0
  0
LINE
  5
369A
330
E8F
100
AcDbEntity
  8
実形
 62
     0
370
    15
100
AcDbLine
 10
1006.505716632864
 20
731.1469072487097
 30
0.0
 11
1026.505716632864
 21
731.1469072487097
 31
0.0
  0
MTEXT
  5
369B
330
E8F
100
AcDbEntity
  8
実形
 62
     0
100
AcDbMText
 10
1017.345436288032
 20
755.0579159635621
 30
0.0
 40
25.0
 41
0.0
 71
     5
 72
     1
  1
20
 73
     1
 44
1.0
1001
ACAD
1000
MTEXTBEGIN
1070
    73
1070
     1
1070
    44
1040
1.0
1070
    74
1070
     0
1000
MTEXTEND
  0
INSERT
  5
369C
330
E8F
100
AcDbEntity
  8
実形
 62
     0
370
    15
100
AcDbBlockReference
  2
_DotSmall
 10
1006.505716632864
 20
731.1469072487097
 30
0.0
 41
30.0
 42
30.0
 43
30.0
 50
180.0
  0
INSERT
  5
369D
330
E8F
100
AcDbEntity
  8
実形
 62
     0
370
    15
100
AcDbBlockReference
  2
_DotSmall
 10
1026.505716632864
 20
731.1469072487097
 30
0.0
 41
30.0
 42
30.0
 43
30.0
  0
POINT
  5
369E
330
E8F
100
AcDbEntity
  8
Defpoints
 62
     0
100
AcDbPoint
 10
1006.505716632864
 20
628.9938827107381
 30
0.0
  0
POINT
  5
369F
330
E8F
100
AcDbEntity
  8
Defpoints
 62
     0
100
AcDbPoint
 10
1026.505716632864
 20
628.9938827107382
 30
0.0
  0
POINT
  5
36A0
330
E8F
100
AcDbEntity
  8
Defpoints
 62
     0
100
AcDbPoint
 10
1026.505716632864
 20
731.1469072487097
 30
0.0
  0
ENDBLK
  5
E9A
330
E8F
100
AcDbEntity
  8
0
100
AcDbBlockEnd
  0
BLOCK
  5
13F4
330
13EA
100
AcDbEntity
  8
0
100
AcDbBlockBegin
  2
*D17
 70
     1
 10
0.0
 20
0.0
 30
0.0
  3
*D17
  1

  0
LINE
  5
1E9E
330
13EA
100
AcDbEntity
  8
0
 62
     0
370
    15
100
AcDbLine
 10
434.0057166328644
 20
1117.559599470271
 30
0.0
 11
169.6861422435216
 21
1117.559599470271
 31
0.0
  0
LINE
  5
1E9F
330
13EA
100
AcDbEntity
  8
0
 62
     0
370
    15
100
AcDbLine
 10
434.0057166328644
 20
1671.559599470272
 30
0.0
 11
169.6861422435216
 21
1671.559599470272
 31
0.0
  0
LINE
  5
1EA0
330
13EA
100
AcDbEntity
  8
0
 62
     0
370
    15
100
AcDbLine
 10
169.6861422435215
 20
1117.559599470271
 30
0.0
 11
169.6861422435216
 21
1671.559599470272
 31
0.0
  0
INSERT
  5
1EA1
330
13EA
100
AcDbEntity
  8
0
 62
     0
370
    15
100
AcDbBlockReference
  2
_DotSmall
 10
169.6861422435215
 20
1117.559599470271
 30
0.0
 41
30.0
 42
30.0
 43
30.0
 50
270.0
  0
INSERT
  5
1EA2
330
13EA
100
AcDbEntity
  8
0
 62
     0
370
    15
100
AcDbBlockReference
  2
_DotSmall
 10
169.6861422435216
 20
1671.559599470272
 30
0.0
 41
30.0
 42
30.0
 43
30.0
 50
90.0
  0
MTEXT
  5
1EA3
330
13EA
100
AcDbEntity
  8
0
 62
     0
100
AcDbMText
 10
150.9361422435214
 20
1394.559599470271
 30
0.0
 40
25.0
 41
0.0
 71
     5
 72
     1
  1
554
 11
0.0000000000000001
 21
1.0
 31
0.0
 73
     1
 44
1.0
1001
ACAD
1000
MTEXTBEGIN
1070
    73
1070
     1
1070
    44
1040
1.0
1070
    74
1070
     0
1000
MTEXTEND
  0
POINT
  5
1EA4
330
13EA
100
AcDbEntity
  8
Defpoints
 62
     0
100
AcDbPoint
 10
499.0057166328645
 20
1117.559599470271
 30
0.0
  0
POINT
  5
1EA5
330
13EA
100
AcDbEntity
  8
Defpoints
 62
     0
100
AcDbPoint
 10
499.0057166328645
 20
1671.559599470272
 30
0.0
  0
POINT
  5
1EA6
330
13EA
100
AcDbEntity
  8
Defpoints
 62
     0
100
AcDbPoint
 10
169.6861422435216
 20
1671.559599470272
 30
0.0
  0
ENDBLK
  5
13F5
330
13EA
100
AcDbEntity
  8
0
100
AcDbBlockEnd
  0
BLOCK
  5
1400
330
13F6
100
AcDbEntity
  8
0
100
AcDbBlockBegin
  2
*D18
 70
     1
 10
0.0
 20
0.0
 30
0.0
  3
*D18
  1

  0
LINE
  5
1EA7
330
13F6
100
AcDbEntity
  8
0
 62
     0
370
    15
100
AcDbLine
 10
434.0057166328646
 20
1654.559599470271
 30
0.0
 11
239.1561422435216
 21
1654.559599470271
 31
0.0
  0
LINE
  5
1EA8
330
13F6
100
AcDbEntity
  8
0
 62
     0
370
    15
100
AcDbLine
 10
434.0057166328644
 20
1671.559599470272
 30
0.0
 11
239.1561422435216
 21
1671.559599470272
 31
0.0
  0
LINE
  5
1EA9
330
13F6
100
AcDbEntity
  8
0
 62
     0
370
    15
100
AcDbLine
 10
239.1561422435216
 20
1654.559599470271
 30
0.0
 11
239.1561422435216
 21
1671.559599470272
 31
0.0
  0
MTEXT
  5
1EAA
330
13F6
100
AcDbEntity
  8
0
 62
     0
100
AcDbMText
 10
208.9260820417987
 20
1645.216621517677
 30
0.0
 40
25.0
 41
0.0
 71
     5
 72
     1
  1
17
 11
0.0000000000000001
 21
1.0
 31
0.0
 73
     1
 44
1.0
1001
ACAD
1000
MTEXTBEGIN
1070
    73
1070
     1
1070
    44
1040
1.0
1070
    74
1070
     0
1000
MTEXTEND
  0
INSERT
  5
1EAB
330
13F6
100
AcDbEntity
  8
0
 62
     0
370
    15
100
AcDbBlockReference
  2
_DotSmall
 10
239.1561422435216
 20
1654.559599470271
 30
0.0
 41
30.0
 42
30.0
 43
30.0
 50
270.0
  0
INSERT
  5
1EAC
330
13F6
100
AcDbEntity
  8
0
 62
     0
370
    15
100
AcDbBlockReference
  2
_DotSmall
 10
239.1561422435216
 20
1671.559599470272
 30
0.0
 41
30.0
 42
30.0
 43
30.0
 50
90.0
  0
POINT
  5
1EAD
330
13F6
100
AcDbEntity
  8
Defpoints
 62
     0
100
AcDbPoint
 10
499.0057166328646
 20
1654.559599470271
 30
0.0
  0
POINT
  5
1EAE
330
13F6
100
AcDbEntity
  8
Defpoints
 62
     0
100
AcDbPoint
 10
499.0057166328645
 20
1671.559599470272
 30
0.0
  0
POINT
  5
1EAF
330
13F6
100
AcDbEntity
  8
Defpoints
 62
     0
100
AcDbPoint
 10
239.1561422435216
 20
1671.559599470272
 30
0.0
  0
ENDBLK
  5
1401
330
13F6
100
AcDbEntity
  8
0
100
AcDbBlockEnd
  0
BLOCK
  5
140C
330
1402
100
AcDbEntity
  8
0
100
AcDbBlockBegin
  2
*D19
 70
     1
 10
0.0
 20
0.0
 30
0.0
  3
*D19
  1

  0
LINE
  5
1EB0
330
1402
100
AcDbEntity
  8
0
 62
     0
370
    15
100
AcDbLine
 10
434.0057166328644
 20
1134.559599470271
 30
0.0
 11
239.1561422435215
 21
1134.559599470271
 31
0.0
  0
LINE
  5
1EB1
330
1402
100
AcDbEntity
  8
0
 62
     0
370
    15
100
AcDbLine
 10
434.0057166328646
 20
1654.559599470271
 30
0.0
 11
239.1561422435216
 21
1654.559599470271
 31
0.0
  0
LINE
  5
1EB2
330
1402
100
AcDbEntity
  8
0
 62
     0
370
    15
100
AcDbLine
 10
239.1561422435215
 20
1134.559599470271
 30
0.0
 11
239.1561422435216
 21
1654.559599470271
 31
0.0
  0
INSERT
  5
1EB3
330
1402
100
AcDbEntity
  8
0
 62
     0
370
    15
100
AcDbBlockReference
  2
_DotSmall
 10
239.1561422435215
 20
1134.559599470271
 30
0.0
 41
30.0
 42
30.0
 43
30.0
 50
270.0
  0
INSERT
  5
1EB4
330
1402
100
AcDbEntity
  8
0
 62
     0
370
    15
100
AcDbBlockReference
  2
_DotSmall
 10
239.1561422435216
 20
1654.559599470271
 30
0.0
 41
30.0
 42
30.0
 43
30.0
 50
90.0
  0
MTEXT
  5
1EB5
330
1402
100
AcDbEntity
  8
0
 62
     0
100
AcDbMText
 10
220.4061422435213
 20
1394.559599470271
 30
0.0
 40
25.0
 41
0.0
 71
     5
 72
     1
  1
520
 11
0.0000000000000001
 21
1.0
 31
0.0
 73
     1
 44
1.0
1001
ACAD
1000
MTEXTBEGIN
1070
    73
1070
     1
1070
    44
1040
1.0
1070
    74
1070
     0
1000
MTEXTEND
  0
POINT
  5
1EB6
330
1402
100
AcDbEntity
  8
Defpoints
 62
     0
100
AcDbPoint
 10
499.0057166328645
 20
1134.559599470271
 30
0.0
  0
POINT
  5
1EB7
330
1402
100
AcDbEntity
  8
Defpoints
 62
     0
100
AcDbPoint
 10
499.0057166328646
 20
1654.559599470271
 30
0.0
  0
POINT
  5
1EB8
330
1402
100
AcDbEntity
  8
Defpoints
 62
     0
100
AcDbPoint
 10
239.1561422435216
 20
1654.559599470271
 30
0.0
  0
ENDBLK
  5
140D
330
1402
100
AcDbEntity
  8
0
100
AcDbBlockEnd
  0
BLOCK
  5
1418
330
140E
100
AcDbEntity
  8
0
100
AcDbBlockBegin
  2
*D20
 70
     1
 10
0.0
 20
0.0
 30
0.0
  3
*D20
  1

  0
LINE
  5
1EB9
330
140E
100
AcDbEntity
  8
0
 62
     0
370
    15
100
AcDbLine
 10
434.0057166328644
 20
1117.559599470271
 30
0.0
 11
239.1561422435217
 21
1117.559599470271
 31
0.0
  0
LINE
  5
1EBA
330
140E
100
AcDbEntity
  8
0
 62
     0
370
    15
100
AcDbLine
 10
434.0057166328644
 20
1134.559599470271
 30
0.0
 11
239.1561422435217
 21
1134.559599470271
 31
0.0
  0
LINE
  5
1EBB
330
140E
100
AcDbEntity
  8
0
 62
     0
370
    15
100
AcDbLine
 10
239.1561422435217
 20
1117.559599470271
 30
0.0
 11
239.1561422435217
 21
1134.559599470271
 31
0.0
  0
MTEXT
  5
1EBC
330
140E
100
AcDbEntity
  8
0
 62
     0
100
AcDbMText
 10
212.4970609864133
 20
1143.122886550999
 30
0.0
 40
25.0
 41
0.0
 71
     5
 72
     1
  1
17
 11
0.0000000000000001
 21
1.0
 31
0.0
 73
     1
 44
1.0
1001
ACAD
1000
MTEXTBEGIN
1070
    73
1070
     1
1070
    44
1040
1.0
1070
    74
1070
     0
1000
MTEXTEND
  0
INSERT
  5
1EBD
330
140E
100
AcDbEntity
  8
0
 62
     0
370
    15
100
AcDbBlockReference
  2
_DotSmall
 10
239.1561422435217
 20
1117.559599470271
 30
0.0
 41
30.0
 42
30.0
 43
30.0
 50
270.0
  0
INSERT
  5
1EBE
330
140E
100
AcDbEntity
  8
0
 62
     0
370
    15
100
AcDbBlockReference
  2
_DotSmall
 10
239.1561422435217
 20
1134.559599470271
 30
0.0
 41
30.0
 42
30.0
 43
30.0
 50
90.0
  0
POINT
  5
1EBF
330
140E
100
AcDbEntity
  8
Defpoints
 62
     0
100
AcDbPoint
 10
499.0057166328645
 20
1117.559599470271
 30
0.0
  0
POINT
  5
1EC0
330
140E
100
AcDbEntity
  8
Defpoints
 62
     0
100
AcDbPoint
 10
499.0057166328645
 20
1134.559599470271
 30
0.0
  0
POINT
  5
1EC1
330
140E
100
AcDbEntity
  8
Defpoints
 62
     0
100
AcDbPoint
 10
239.1561422435217
 20
1134.559599470271
 30
0.0
  0
ENDBLK
  5
1419
330
140E
100
AcDbEntity
  8
0
100
AcDbBlockEnd
  0
BLOCK
  5
1424
330
141A
100
AcDbEntity
  8
0
100
AcDbBlockBegin
  2
*D21
 70
     1
 10
0.0
 20
0.0
 30
0.0
  3
*D21
  1

  0
LINE
  5
1EC2
330
141A
100
AcDbEntity
  8
0
 62
     0
370
    15
100
AcDbLine
 10
434.0057166328644
 20
1149.559599470271
 30
0.0
 11
308.6261422435215
 21
1149.559599470271
 31
0.0
  0
LINE
  5
1EC3
330
141A
100
AcDbEntity
  8
0
 62
     0
370
    15
100
AcDbLine
 10
434.0057166328646
 20
1579.559599470272
 30
0.0
 11
308.6261422435216
 21
1579.559599470272
 31
0.0
  0
LINE
  5
1EC4
330
141A
100
AcDbEntity
  8
0
 62
     0
370
    15
100
AcDbLine
 10
308.6261422435215
 20
1149.559599470271
 30
0.0
 11
308.6261422435216
 21
1579.559599470272
 31
0.0
  0
INSERT
  5
1EC5
330
141A
100
AcDbEntity
  8
0
 62
     0
370
    15
100
AcDbBlockReference
  2
_DotSmall
 10
308.6261422435215
 20
1149.559599470271
 30
0.0
 41
30.0
 42
30.0
 43
30.0
 50
270.0
  0
INSERT
  5
1EC6
330
141A
100
AcDbEntity
  8
0
 62
     0
370
    15
100
AcDbBlockReference
  2
_DotSmall
 10
308.6261422435216
 20
1579.559599470272
 30
0.0
 41
30.0
 42
30.0
 43
30.0
 50
90.0
  0
MTEXT
  5
1EC7
330
141A
100
AcDbEntity
  8
0
 62
     0
100
AcDbMText
 10
289.8761422435213
 20
1364.559599470271
 30
0.0
 40
25.0
 41
0.0
 71
     5
 72
     1
  1
430
 11
0.0000000000000001
 21
1.0
 31
0.0
 73
     1
 44
1.0
1001
ACAD
1000
MTEXTBEGIN
1070
    73
1070
     1
1070
    44
1040
1.0
1070
    74
1070
     0
1000
MTEXTEND
  0
POINT
  5
1EC8
330
141A
100
AcDbEntity
  8
Defpoints
 62
     0
100
AcDbPoint
 10
499.0057166328645
 20
1149.559599470271
 30
0.0
  0
POINT
  5
1EC9
330
141A
100
AcDbEntity
  8
Defpoints
 62
     0
100
AcDbPoint
 10
499.0057166328646
 20
1579.559599470272
 30
0.0
  0
POINT
  5
1ECA
330
141A
100
AcDbEntity
  8
Defpoints
 62
     0
100
AcDbPoint
 10
308.6261422435216
 20
1579.559599470272
 30
0.0
  0
ENDBLK
  5
1425
330
141A
100
AcDbEntity
  8
0
100
AcDbBlockEnd
  0
BLOCK
  5
1430
330
1426
100
AcDbEntity
  8
0
100
AcDbBlockBegin
  2
*D22
 70
     1
 10
0.0
 20
0.0
 30
0.0
  3
*D22
  1

  0
LINE
  5
1ECB
330
1426
100
AcDbEntity
  8
0
 62
     0
370
    15
100
AcDbLine
 10
434.0057166328646
 20
1579.559599470272
 30
0.0
 11
308.6261422435216
 21
1579.559599470272
 31
0.0
  0
LINE
  5
1ECC
330
1426
100
AcDbEntity
  8
0
 62
     0
370
    15
100
AcDbLine
 10
434.0057166328646
 20
1654.559599470271
 30
0.0
 11
308.6261422435216
 21
1654.559599470271
 31
0.0
  0
LINE
  5
1ECD
330
1426
100
AcDbEntity
  8
0
 62
     0
370
    15
100
AcDbLine
 10
308.6261422435216
 20
1579.559599470272
 30
0.0
 11
308.6261422435216
 21
1654.559599470271
 31
0.0
  0
INSERT
  5
1ECE
330
1426
100
AcDbEntity
  8
0
 62
     0
370
    15
100
AcDbBlockReference
  2
_DotSmall
 10
308.6261422435216
 20
1579.559599470272
 30
0.0
 41
30.0
 42
30.0
 43
30.0
 50
270.0
  0
INSERT
  5
1ECF
330
1426
100
AcDbEntity
  8
0
 62
     0
370
    15
100
AcDbBlockReference
  2
_DotSmall
 10
308.6261422435216
 20
1654.559599470271
 30
0.0
 41
30.0
 42
30.0
 43
30.0
 50
90.0
  0
MTEXT
  5
1ED0
330
1426
100
AcDbEntity
  8
0
 62
     0
100
AcDbMText
 10
289.8761422435214
 20
1617.059599470271
 30
0.0
 40
25.0
 41
0.0
 71
     5
 72
     1
  1
75
 11
0.0000000000000001
 21
1.0
 31
0.0
 73
     1
 44
1.0
1001
ACAD
1000
MTEXTBEGIN
1070
    73
1070
     1
1070
    44
1040
1.0
1070
    74
1070
     0
1000
MTEXTEND
  0
POINT
  5
1ED1
330
1426
100
AcDbEntity
  8
Defpoints
 62
     0
100
AcDbPoint
 10
499.0057166328646
 20
1579.559599470272
 30
0.0
  0
POINT
  5
1ED2
330
1426
100
AcDbEntity
  8
Defpoints
 62
     0
100
AcDbPoint
 10
499.0057166328646
 20
1654.559599470271
 30
0.0
  0
POINT
  5
1ED3
330
1426
100
AcDbEntity
  8
Defpoints
 62
     0
100
AcDbPoint
 10
308.6261422435216
 20
1654.559599470271
 30
0.0
  0
ENDBLK
  5
1431
330
1426
100
AcDbEntity
  8
0
100
AcDbBlockEnd
  0
BLOCK
  5
143D
330
1432
100
AcDbEntity
  8
0
100
AcDbBlockBegin
  2
*D23
 70
     1
 10
0.0
 20
0.0
 30
0.0
  3
*D23
  1

  0
LINE
  5
1ED4
330
1432
100
AcDbEntity
  8
0
 62
     0
370
    15
100
AcDbLine
 10
434.0057166328644
 20
1134.559599470271
 30
0.0
 11
308.6261422435216
 21
1134.559599470271
 31
0.0
  0
LINE
  5
1ED5
330
1432
100
AcDbEntity
  8
0
 62
     0
370
    15
100
AcDbLine
 10
434.0057166328644
 20
1149.559599470271
 30
0.0
 11
308.6261422435216
 21
1149.559599470271
 31
0.0
  0
LINE
  5
1ED6
330
1432
100
AcDbEntity
  8
0
 62
     0
370
    15
100
AcDbLine
 10
308.6261422435216
 20
1134.559599470271
 30
0.0
 11
308.6261422435216
 21
1149.559599470271
 31
0.0
  0
LINE
  5
1ED7
330
1432
100
AcDbEntity
  8
0
 62
     0
370
    15
100
AcDbLine
 10
308.6261422435216
 20
1149.559599470271
 30
0.0
 11
308.6261422435216
 21
1225.392932803605
 31
0.0
  0
INSERT
  5
1ED8
330
1432
100
AcDbEntity
  8
0
 62
     0
370
    15
100
AcDbBlockReference
  2
_DotSmall
 10
308.6261422435216
 20
1134.559599470271
 30
0.0
 41
30.0
 42
30.0
 43
30.0
 50
270.0
  0
INSERT
  5
1ED9
330
1432
100
AcDbEntity
  8
0
 62
     0
370
    15
100
AcDbBlockReference
  2
_DotSmall
 10
308.6261422435216
 20
1149.559599470271
 30
0.0
 41
30.0
 42
30.0
 43
30.0
 50
90.0
  0
MTEXT
  5
1EDA
330
1432
100
AcDbEntity
  8
0
 62
     0
100
AcDbMText
 10
289.8761422435214
 20
1202.476266136938
 30
0.0
 40
25.0
 41
0.0
 71
     5
 72
     1
  1
15
 11
0.0000000000000001
 21
1.0
 31
0.0
 73
     1
 44
1.0
1001
ACAD
1000
MTEXTBEGIN
1070
    73
1070
     1
1070
    44
1040
1.0
1070
    74
1070
     0
1000
MTEXTEND
  0
POINT
  5
1EDB
330
1432
100
AcDbEntity
  8
Defpoints
 62
     0
100
AcDbPoint
 10
499.0057166328645
 20
1134.559599470271
 30
0.0
  0
POINT
  5
1EDC
330
1432
100
AcDbEntity
  8
Defpoints
 62
     0
100
AcDbPoint
 10
499.0057166328645
 20
1149.559599470271
 30
0.0
  0
POINT
  5
1EDD
330
1432
100
AcDbEntity
  8
Defpoints
 62
     0
100
AcDbPoint
 10
308.6261422435216
 20
1149.559599470271
 30
0.0
  0
ENDBLK
  5
143E
330
1432
100
AcDbEntity
  8
0
100
AcDbBlockEnd
  0
BLOCK
  5
1449
330
143F
100
AcDbEntity
  8
0
100
AcDbBlockBegin
  2
*D24
 70
     1
 10
0.0
 20
0.0
 30
0.0
  3
*D24
  1

  0
LINE
  5
1EDE
330
143F
100
AcDbEntity
  8
実形
 62
     0
370
    15
100
AcDbLine
 10
434.0057166328644
 20
1579.559599470272
 30
0.0
 11
378.0961422435217
 21
1579.559599470272
 31
0.0
  0
LINE
  5
1EDF
330
143F
100
AcDbEntity
  8
実形
 62
     0
370
    15
100
AcDbLine
 10
434.0057166328644
 20
1364.559599470271
 30
0.0
 11
378.0961422435216
 21
1364.559599470271
 31
0.0
  0
LINE
  5
1EE0
330
143F
100
AcDbEntity
  8
実形
 62
     0
370
    15
100
AcDbLine
 10
378.0961422435217
 20
1579.559599470272
 30
0.0
 11
378.0961422435216
 21
1364.559599470271
 31
0.0
  0
INSERT
  5
1EE1
330
143F
100
AcDbEntity
  8
実形
 62
     0
370
    15
100
AcDbBlockReference
  2
_DotSmall
 10
378.0961422435217
 20
1579.559599470272
 30
0.0
 41
30.0
 42
30.0
 43
30.0
 50
90.0
  0
INSERT
  5
1EE2
330
143F
100
AcDbEntity
  8
実形
 62
     0
370
    15
100
AcDbBlockReference
  2
_DotSmall
 10
378.0961422435216
 20
1364.559599470271
 30
0.0
 41
30.0
 42
30.0
 43
30.0
 50
270.0
  0
MTEXT
  5
1EE3
330
143F
100
AcDbEntity
  8
実形
 62
     0
100
AcDbMText
 10
359.3461422435215
 20
1472.059599470272
 30
0.0
 40
25.0
 41
0.0
 71
     5
 72
     1
  1
215
 11
0.0000000000000001
 21
1.0
 31
0.0
 73
     1
 44
1.0
1001
ACAD
1000
MTEXTBEGIN
1070
    73
1070
     1
1070
    44
1040
1.0
1070
    74
1070
     0
1000
MTEXTEND
  0
POINT
  5
1EE4
330
143F
100
AcDbEntity
  8
Defpoints
 62
     0
100
AcDbPoint
 10
499.0057166328644
 20
1579.559599470272
 30
0.0
  0
POINT
  5
1EE5
330
143F
100
AcDbEntity
  8
Defpoints
 62
     0
100
AcDbPoint
 10
499.0057166328645
 20
1364.559599470271
 30
0.0
  0
POINT
  5
1EE6
330
143F
100
AcDbEntity
  8
Defpoints
 62
     0
100
AcDbPoint
 10
378.0961422435216
 20
1364.559599470271
 30
0.0
  0
ENDBLK
  5
144A
330
143F
100
AcDbEntity
  8
0
100
AcDbBlockEnd
  0
BLOCK
  5
167F
330
1675
100
AcDbEntity
  8
0
100
AcDbBlockBegin
  2
*D25
 70
     1
 10
0.0
 20
0.0
 30
0.0
  3
*D25
  1

  0
LINE
  5
1EE7
330
1675
100
AcDbEntity
  8
実形
 62
     0
370
    15
100
AcDbLine
 10
746.005716632864
 20
1714.559599470272
 30
0.0
 11
746.005716632864
 21
1738.98649140129
 31
0.0
  0
LINE
  5
1EE8
330
1675
100
AcDbEntity
  8
実形
 62
     0
370
    15
100
AcDbLine
 10
556.0057166328638
 20
1714.559599470272
 30
0.0
 11
556.0057166328638
 21
1738.98649140129
 31
0.0
  0
LINE
  5
1EE9
330
1675
100
AcDbEntity
  8
実形
 62
     0
370
    15
100
AcDbLine
 10
746.005716632864
 20
1738.98649140129
 30
0.0
 11
556.0057166328638
 21
1738.98649140129
 31
0.0
  0
INSERT
  5
1EEA
330
1675
100
AcDbEntity
  8
実形
 62
     0
370
    15
100
AcDbBlockReference
  2
_DotSmall
 10
746.005716632864
 20
1738.98649140129
 30
0.0
 41
30.0
 42
30.0
 43
30.0
  0
INSERT
  5
1EEB
330
1675
100
AcDbEntity
  8
実形
 62
     0
370
    15
100
AcDbBlockReference
  2
_DotSmall
 10
556.0057166328638
 20
1738.98649140129
 30
0.0
 41
30.0
 42
30.0
 43
30.0
 50
180.0
  0
MTEXT
  5
1EEC
330
1675
100
AcDbEntity
  8
実形
 62
     0
100
AcDbMText
 10
651.0057166328639
 20
1757.73649140129
 30
0.0
 40
25.0
 41
0.0
 71
     5
 72
     1
  1
190
 73
     1
 44
1.0
1001
ACAD
1000
MTEXTBEGIN
1070
    73
1070
     1
1070
    44
1040
1.0
1070
    74
1070
     0
1000
MTEXTEND
  0
POINT
  5
1EED
330
1675
100
AcDbEntity
  8
Defpoints
 62
     0
100
AcDbPoint
 10
746.005716632864
 20
1649.559599470272
 30
0.0
  0
POINT
  5
1EEE
330
1675
100
AcDbEntity
  8
Defpoints
 62
     0
100
AcDbPoint
 10
556.0057166328638
 20
1649.559599470272
 30
0.0
  0
POINT
  5
1EEF
330
1675
100
AcDbEntity
  8
Defpoints
 62
     0
100
AcDbPoint
 10
556.0057166328638
 20
1738.98649140129
 30
0.0
  0
ENDBLK
  5
1680
330
1675
100
AcDbEntity
  8
0
100
AcDbBlockEnd
  0
BLOCK
  5
168B
330
1681
100
AcDbEntity
  8
0
100
AcDbBlockBegin
  2
*D26
 70
     1
 10
0.0
 20
0.0
 30
0.0
  3
*D26
  1

  0
LINE
  5
1EF0
330
1681
100
AcDbEntity
  8
実形
 62
     0
370
    15
100
AcDbLine
 10
556.0057166328638
 20
1714.559599470272
 30
0.0
 11
556.0057166328638
 21
1738.98649140129
 31
0.0
  0
LINE
  5
1EF1
330
1681
100
AcDbEntity
  8
実形
 62
     0
370
    15
100
AcDbLine
 10
516.0057166328642
 20
1714.559599470272
 30
0.0
 11
516.0057166328642
 21
1738.98649140129
 31
0.0
  0
LINE
  5
1EF2
330
1681
100
AcDbEntity
  8
実形
 62
     0
370
    15
100
AcDbLine
 10
556.0057166328638
 20
1738.98649140129
 30
0.0
 11
516.0057166328642
 21
1738.98649140129
 31
0.0
  0
MTEXT
  5
1EF3
330
1681
100
AcDbEntity
  8
実形
 62
     0
100
AcDbMText
 10
537.5566095119665
 20
1758.511916576206
 30
0.0
 40
25.0
 41
0.0
 71
     5
 72
     1
  1
40
 73
     1
 44
1.0
1001
ACAD
1000
MTEXTBEGIN
1070
    73
1070
     1
1070
    44
1040
1.0
1070
    74
1070
     0
1000
MTEXTEND
  0
INSERT
  5
1EF4
330
1681
100
AcDbEntity
  8
実形
 62
     0
370
    15
100
AcDbBlockReference
  2
_DotSmall
 10
556.0057166328638
 20
1738.98649140129
 30
0.0
 41
30.0
 42
30.0
 43
30.0
  0
INSERT
  5
1EF5
330
1681
100
AcDbEntity
  8
実形
 62
     0
370
    15
100
AcDbBlockReference
  2
_DotSmall
 10
516.0057166328642
 20
1738.98649140129
 30
0.0
 41
30.0
 42
30.0
 43
30.0
 50
180.0
  0
POINT
  5
1EF6
330
1681
100
AcDbEntity
  8
Defpoints
 62
     0
100
AcDbPoint
 10
556.0057166328638
 20
1649.559599470272
 30
0.0
  0
POINT
  5
1EF7
330
1681
100
AcDbEntity
  8
Defpoints
 62
     0
100
AcDbPoint
 10
516.0057166328642
 20
1649.559599470272
 30
0.0
  0
POINT
  5
1EF8
330
1681
100
AcDbEntity
  8
Defpoints
 62
     0
100
AcDbPoint
 10
516.0057166328642
 20
1738.98649140129
 30
0.0
  0
ENDBLK
  5
168C
330
1681
100
AcDbEntity
  8
0
100
AcDbBlockEnd
  0
BLOCK
  5
1697
330
168D
100
AcDbEntity
  8
0
100
AcDbBlockBegin
  2
*D27
 70
     1
 10
0.0
 20
0.0
 30
0.0
  3
*D27
  1

  0
LINE
  5
1EF9
330
168D
100
AcDbEntity
  8
実形
 62
     0
370
    15
100
AcDbLine
 10
434.0057166328646
 20
1649.559599470272
 30
0.0
 11
404.0353101052145
 21
1649.559599470272
 31
0.0
  0
LINE
  5
1EFA
330
168D
100
AcDbEntity
  8
実形
 62
     0
370
    15
100
AcDbLine
 10
434.0057166328644
 20
1590.559599470271
 30
0.0
 11
404.0353101052145
 21
1590.559599470271
 31
0.0
  0
LINE
  5
1EFB
330
168D
100
AcDbEntity
  8
実形
 62
     0
370
    15
100
AcDbLine
 10
404.0353101052145
 20
1649.559599470272
 30
0.0
 11
404.0353101052145
 21
1590.559599470271
 31
0.0
  0
INSERT
  5
1EFC
330
168D
100
AcDbEntity
  8
実形
 62
     0
370
    15
100
AcDbBlockReference
  2
_DotSmall
 10
404.0353101052145
 20
1649.559599470272
 30
0.0
 41
30.0
 42
30.0
 43
30.0
 50
90.0
  0
INSERT
  5
1EFD
330
168D
100
AcDbEntity
  8
実形
 62
     0
370
    15
100
AcDbBlockReference
  2
_DotSmall
 10
404.0353101052145
 20
1590.559599470271
 30
0.0
 41
30.0
 42
30.0
 43
30.0
 50
270.0
  0
MTEXT
  5
1EFE
330
168D
100
AcDbEntity
  8
実形
 62
     0
100
AcDbMText
 10
385.2853101052143
 20
1620.059599470272
 30
0.0
 40
25.0
 41
0.0
 71
     5
 72
     1
  1
59
 11
0.0000000000000001
 21
1.0
 31
0.0
 73
     1
 44
1.0
1001
ACAD
1000
MTEXTBEGIN
1070
    73
1070
     1
1070
    44
1040
1.0
1070
    74
1070
     0
1000
MTEXTEND
  0
POINT
  5
1EFF
330
168D
100
AcDbEntity
  8
Defpoints
 62
     0
100
AcDbPoint
 10
499.0057166328646
 20
1649.559599470272
 30
0.0
  0
POINT
  5
1F00
330
168D
100
AcDbEntity
  8
Defpoints
 62
     0
100
AcDbPoint
 10
499.0057166328644
 20
1590.559599470271
 30
0.0
  0
POINT
  5
1F01
330
168D
100
AcDbEntity
  8
Defpoints
 62
     0
100
AcDbPoint
 10
404.0353101052145
 20
1590.559599470271
 30
0.0
  0
ENDBLK
  5
1698
330
168D
100
AcDbEntity
  8
0
100
AcDbBlockEnd
  0
BLOCK
  5
16A3
330
1699
100
AcDbEntity
  8
0
100
AcDbBlockBegin
  2
*D28
 70
     1
 10
0.0
 20
0.0
 30
0.0
  3
*D28
  1

  0
LINE
  5
1F02
330
1699
100
AcDbEntity
  8
実形
 62
     0
370
    15
100
AcDbLine
 10
434.0057166328646
 20
1654.559599470271
 30
0.0
 11
404.0353101052145
 21
1654.559599470271
 31
0.0
  0
LINE
  5
1F03
330
1699
100
AcDbEntity
  8
実形
 62
     0
370
    15
100
AcDbLine
 10
425.1203221027894
 20
1590.559599470271
 30
0.0
 11
404.0353101052145
 21
1590.559599470271
 31
0.0
  0
LINE
  5
1F04
330
1699
100
AcDbEntity
  8
実形
 62
     0
370
    15
100
AcDbLine
 10
404.0353101052145
 20
1654.559599470271
 30
0.0
 11
404.0353101052145
 21
1590.559599470271
 31
0.0
  0
MTEXT
  5
1F05
330
1699
100
AcDbEntity
  8
実形
 62
     0
100
AcDbMText
 10
455.6953593586358
 20
1652.603737280043
 30
0.0
 40
25.0
 41
0.0
 71
     5
 72
     1
  1
5
 11
0.0000000000000001
 21
1.0
 31
0.0
 73
     1
 44
1.0
1001
ACAD
1000
MTEXTBEGIN
1070
    73
1070
     1
1070
    44
1040
1.0
1070
    74
1070
     0
1000
MTEXTEND
  0
INSERT
  5
1F06
330
1699
100
AcDbEntity
  8
実形
 62
     0
370
    15
100
AcDbBlockReference
  2
_DotSmall
 10
404.0353101052145
 20
1654.559599470271
 30
0.0
 41
30.0
 42
30.0
 43
30.0
 50
90.0
  0
INSERT
  5
1F07
330
1699
100
AcDbEntity
  8
実形
 62
     0
370
    15
100
AcDbBlockReference
  2
_DotSmall
 10
404.0353101052145
 20
1590.559599470271
 30
0.0
 41
30.0
 42
30.0
 43
30.0
 50
270.0
  0
POINT
  5
1F08
330
1699
100
AcDbEntity
  8
Defpoints
 62
     0
100
AcDbPoint
 10
499.0057166328646
 20
1654.559599470271
 30
0.0
  0
POINT
  5
1F09
330
1699
100
AcDbEntity
  8
Defpoints
 62
     0
100
AcDbPoint
 10
490.1203221027893
 20
1590.559599470271
 30
0.0
  0
POINT
  5
1F0A
330
1699
100
AcDbEntity
  8
Defpoints
 62
     0
100
AcDbPoint
 10
404.0353101052145
 20
1590.559599470271
 30
0.0
  0
ENDBLK
  5
16A4
330
1699
100
AcDbEntity
  8
0
100
AcDbBlockEnd
  0
BLOCK
  5
1D89
330
1D7F
100
AcDbEntity
  8
0
100
AcDbBlockBegin
  2
*D29
 70
     1
 10
0.0
 20
0.0
 30
0.0
  3
*D29
  1

  0
LINE
  5
1F2F
330
1D7F
100
AcDbEntity
  8
実形
 62
     0
370
    15
100
AcDbLine
 10
482.0057166328642
 20
1751.612591106737
 30
0.0
 11
482.0057166328642
 21
1880.493224318022
 31
0.0
  0
LINE
  5
1F30
330
1D7F
100
AcDbEntity
  8
実形
 62
     0
370
    15
100
AcDbLine
 10
1200.005716632864
 20
1751.612591106739
 30
0.0
 11
1200.005716632864
 21
1880.493224318022
 31
0.0
  0
LINE
  5
1F31
330
1D7F
100
AcDbEntity
  8
実形
 62
     0
370
    15
100
AcDbLine
 10
482.0057166328642
 20
1880.493224318022
 30
0.0
 11
1200.005716632864
 21
1880.493224318022
 31
0.0
  0
INSERT
  5
1F32
330
1D7F
100
AcDbEntity
  8
実形
 62
     0
370
    15
100
AcDbBlockReference
  2
_DotSmall
 10
482.0057166328642
 20
1880.493224318022
 30
0.0
 41
30.0
 42
30.0
 43
30.0
 50
180.0
  0
INSERT
  5
1F33
330
1D7F
100
AcDbEntity
  8
実形
 62
     0
370
    15
100
AcDbBlockReference
  2
_DotSmall
 10
1200.005716632864
 20
1880.493224318022
 30
0.0
 41
30.0
 42
30.0
 43
30.0
  0
MTEXT
  5
1F34
330
1D7F
100
AcDbEntity
  8
実形
 62
     0
100
AcDbMText
 10
841.0057166328643
 20
1899.243224318022
 30
0.0
 40
25.0
 41
0.0
 71
     5
 72
     1
  1
718
 73
     1
 44
1.0
1001
ACAD
1000
MTEXTBEGIN
1070
    73
1070
     1
1070
    44
1040
1.0
1070
    74
1070
     0
1000
MTEXTEND
  0
POINT
  5
1F35
330
1D7F
100
AcDbEntity
  8
Defpoints
 62
     0
100
AcDbPoint
 10
482.0057166328642
 20
1686.612591106737
 30
0.0
  0
POINT
  5
1F36
330
1D7F
100
AcDbEntity
  8
Defpoints
 62
     0
100
AcDbPoint
 10
1200.005716632864
 20
1686.612591106739
 30
0.0
  0
POINT
  5
1F37
330
1D7F
100
AcDbEntity
  8
Defpoints
 62
     0
100
AcDbPoint
 10
1200.005716632864
 20
1880.493224318022
 30
0.0
  0
ENDBLK
  5
1D8A
330
1D7F
100
AcDbEntity
  8
0
100
AcDbBlockEnd
  0
BLOCK
  5
1D95
330
1D8B
100
AcDbEntity
  8
0
100
AcDbBlockBegin
  2
*D30
 70
     1
 10
0.0
 20
0.0
 30
0.0
  3
*D30
  1

  0
LINE
  5
1F38
330
1D8B
100
AcDbEntity
  8
実形
 62
     0
370
    15
100
AcDbLine
 10
482.0057166328642
 20
1751.612591106737
 30
0.0
 11
482.0057166328642
 21
1784.077913309369
 31
0.0
  0
LINE
  5
1F39
330
1D8B
100
AcDbEntity
  8
実形
 62
     0
370
    15
100
AcDbLine
 10
516.0057166328642
 20
1751.612591106737
 30
0.0
 11
516.0057166328642
 21
1784.077913309369
 31
0.0
  0
LINE
  5
1F3A
330
1D8B
100
AcDbEntity
  8
実形
 62
     0
370
    15
100
AcDbLine
 10
482.0057166328642
 20
1784.077913309369
 30
0.0
 11
516.0057166328642
 21
1784.077913309369
 31
0.0
  0
MTEXT
  5
1F3B
330
1D8B
100
AcDbEntity
  8
実形
 62
     0
100
AcDbMText
 10
517.8246617814665
 20
1818.540575730121
 30
0.0
 40
25.0
 41
0.0
 71
     5
 72
     1
  1
35
 73
     1
 44
1.0
1001
ACAD
1000
MTEXTBEGIN
1070
    73
1070
     1
1070
    44
1040
1.0
1070
    74
1070
     0
1000
MTEXTEND
  0
INSERT
  5
1F3C
330
1D8B
100
AcDbEntity
  8
実形
 62
     0
370
    15
100
AcDbBlockReference
  2
_DotSmall
 10
482.0057166328642
 20
1784.077913309369
 30
0.0
 41
30.0
 42
30.0
 43
30.0
 50
180.0
  0
INSERT
  5
1F3D
330
1D8B
100
AcDbEntity
  8
実形
 62
     0
370
    15
100
AcDbBlockReference
  2
_DotSmall
 10
516.0057166328642
 20
1784.077913309369
 30
0.0
 41
30.0
 42
30.0
 43
30.0
  0
POINT
  5
1F3E
330
1D8B
100
AcDbEntity
  8
Defpoints
 62
     0
100
AcDbPoint
 10
482.0057166328642
 20
1686.612591106737
 30
0.0
  0
POINT
  5
1F3F
330
1D8B
100
AcDbEntity
  8
Defpoints
 62
     0
100
AcDbPoint
 10
516.0057166328642
 20
1686.612591106738
 30
0.0
  0
POINT
  5
1F40
330
1D8B
100
AcDbEntity
  8
Defpoints
 62
     0
100
AcDbPoint
 10
516.0057166328642
 20
1784.077913309369
 30
0.0
  0
ENDBLK
  5
1D96
330
1D8B
100
AcDbEntity
  8
0
100
AcDbBlockEnd
  0
BLOCK
  5
1DA1
330
1D97
100
AcDbEntity
  8
0
100
AcDbBlockBegin
  2
*D31
 70
     1
 10
0.0
 20
0.0
 30
0.0
  3
*D31
  1

  0
LINE
  5
1F41
330
1D97
100
AcDbEntity
  8
実形
 62
     0
370
    15
100
AcDbLine
 10
1166.005716632864
 20
1751.612591106737
 30
0.0
 11
1166.005716632864
 21
1784.077913309369
 31
0.0
  0
LINE
  5
1F42
330
1D97
100
AcDbEntity
  8
実形
 62
     0
370
    15
100
AcDbLine
 10
1200.005716632864
 20
1751.612591106737
 30
0.0
 11
1200.005716632864
 21
1784.077913309369
 31
0.0
  0
LINE
  5
1F43
330
1D97
100
AcDbEntity
  8
実形
 62
     0
370
    15
100
AcDbLine
 10
1166.005716632864
 20
1784.077913309369
 30
0.0
 11
1200.005716632864
 21
1784.077913309369
 31
0.0
  0
MTEXT
  5
1F44
330
1D97
100
AcDbEntity
  8
実形
 62
     0
100
AcDbMText
 10
1159.094477948733
 20
1817.604711871749
 30
0.0
 40
25.0
 41
0.0
 71
     5
 72
     1
  1
35
 73
     1
 44
1.0
1001
ACAD
1000
MTEXTBEGIN
1070
    73
1070
     1
1070
    44
1040
1.0
1070
    74
1070
     0
1000
MTEXTEND
  0
INSERT
  5
1F45
330
1D97
100
AcDbEntity
  8
実形
 62
     0
370
    15
100
AcDbBlockReference
  2
_DotSmall
 10
1166.005716632864
 20
1784.077913309369
 30
0.0
 41
30.0
 42
30.0
 43
30.0
 50
180.0
  0
INSERT
  5
1F46
330
1D97
100
AcDbEntity
  8
実形
 62
     0
370
    15
100
AcDbBlockReference
  2
_DotSmall
 10
1200.005716632864
 20
1784.077913309369
 30
0.0
 41
30.0
 42
30.0
 43
30.0
  0
POINT
  5
1F47
330
1D97
100
AcDbEntity
  8
Defpoints
 62
     0
100
AcDbPoint
 10
1166.005716632864
 20
1686.612591106737
 30
0.0
  0
POINT
  5
1F48
330
1D97
100
AcDbEntity
  8
Defpoints
 62
     0
100
AcDbPoint
 10
1200.005716632864
 20
1686.612591106738
 30
0.0
  0
POINT
  5
1F49
330
1D97
100
AcDbEntity
  8
Defpoints
 62
     0
100
AcDbPoint
 10
1200.005716632864
 20
1784.077913309369
 30
0.0
  0
ENDBLK
  5
1DA2
330
1D97
100
AcDbEntity
  8
0
100
AcDbBlockEnd
  0
BLOCK
  5
1DAD
330
1DA3
100
AcDbEntity
  8
0
100
AcDbBlockBegin
  2
*D32
 70
     1
 10
0.0
 20
0.0
 30
0.0
  3
*D32
  1

  0
LINE
  5
1F4A
330
1DA3
100
AcDbEntity
  8
実形
 62
     0
370
    15
100
AcDbLine
 10
1235.301732387242
 20
1688.559599470272
 30
0.0
 11
1351.09669050178
 21
1688.559599470272
 31
0.0
  0
LINE
  5
1F4B
330
1DA3
100
AcDbEntity
  8
実形
 62
     0
370
    15
100
AcDbLine
 10
1235.301732387242
 20
1100.559599470271
 30
0.0
 11
1351.096690501779
 21
1100.559599470271
 31
0.0
  0
LINE
  5
1F4C
330
1DA3
100
AcDbEntity
  8
実形
 62
     0
370
    15
100
AcDbLine
 10
1351.09669050178
 20
1688.559599470272
 30
0.0
 11
1351.096690501779
 21
1100.559599470271
 31
0.0
  0
INSERT
  5
1F4D
330
1DA3
100
AcDbEntity
  8
実形
 62
     0
370
    15
100
AcDbBlockReference
  2
_DotSmall
 10
1351.09669050178
 20
1688.559599470272
 30
0.0
 41
30.0
 42
30.0
 43
30.0
 50
90.0
  0
INSERT
  5
1F4E
330
1DA3
100
AcDbEntity
  8
実形
 62
     0
370
    15
100
AcDbBlockReference
  2
_DotSmall
 10
1351.096690501779
 20
1100.559599470271
 30
0.0
 41
30.0
 42
30.0
 43
30.0
 50
270.0
  0
MTEXT
  5
1F4F
330
1DA3
100
AcDbEntity
  8
実形
 62
     0
100
AcDbMText
 10
1332.346690501779
 20
1394.559599470271
 30
0.0
 40
25.0
 41
0.0
 71
     5
 72
     1
  1
588
 11
0.0000000000000001
 21
1.0
 31
0.0
 73
     1
 44
1.0
1001
ACAD
1000
MTEXTBEGIN
1070
    73
1070
     1
1070
    44
1040
1.0
1070
    74
1070
     0
1000
MTEXTEND
  0
POINT
  5
1F50
330
1DA3
100
AcDbEntity
  8
Defpoints
 62
     0
100
AcDbPoint
 10
1170.301732387241
 20
1688.559599470272
 30
0.0
  0
POINT
  5
1F51
330
1DA3
100
AcDbEntity
  8
Defpoints
 62
     0
100
AcDbPoint
 10
1170.301732387241
 20
1100.559599470271
 30
0.0
  0
POINT
  5
1F52
330
1DA3
100
AcDbEntity
  8
Defpoints
 62
     0
100
AcDbPoint
 10
1351.096690501779
 20
1100.559599470271
 30
0.0
  0
ENDBLK
  5
1DAE
330
1DA3
100
AcDbEntity
  8
0
100
AcDbBlockEnd
  0
BLOCK
  5
1DB9
330
1DAF
100
AcDbEntity
  8
0
100
AcDbBlockBegin
  2
*D33
 70
     1
 10
0.0
 20
0.0
 30
0.0
  3
*D33
  1

  0
LINE
  5
1F53
330
1DAF
100
AcDbEntity
  8
実形
 62
     0
370
    15
100
AcDbLine
 10
1253.529986889435
 20
1688.559599470272
 30
0.0
 11
1308.534608788649
 21
1688.559599470272
 31
0.0
  0
LINE
  5
1F54
330
1DAF
100
AcDbEntity
  8
実形
 62
     0
370
    15
100
AcDbLine
 10
1253.529986889435
 20
1654.559599470272
 30
0.0
 11
1308.534608788649
 21
1654.559599470272
 31
0.0
  0
LINE
  5
1F55
330
1DAF
100
AcDbEntity
  8
実形
 62
     0
370
    15
100
AcDbLine
 10
1308.534608788649
 20
1688.559599470272
 30
0.0
 11
1308.534608788649
 21
1654.559599470272
 31
0.0
  0
MTEXT
  5
1F56
330
1DAF
100
AcDbEntity
  8
実形
 62
     0
100
AcDbMText
 10
1288.286773553365
 20
1626.908579088462
 30
0.0
 40
25.0
 41
0.0
 71
     5
 72
     1
  1
35
 11
0.0000000000000001
 21
1.0
 31
0.0
 73
     1
 44
1.0
1001
ACAD
1000
MTEXTBEGIN
1070
    73
1070
     1
1070
    44
1040
1.0
1070
    74
1070
     0
1000
MTEXTEND
  0
INSERT
  5
1F57
330
1DAF
100
AcDbEntity
  8
実形
 62
     0
370
    15
100
AcDbBlockReference
  2
_DotSmall
 10
1308.534608788649
 20
1688.559599470272
 30
0.0
 41
30.0
 42
30.0
 43
30.0
 50
90.0
  0
INSERT
  5
1F58
330
1DAF
100
AcDbEntity
  8
実形
 62
     0
370
    15
100
AcDbBlockReference
  2
_DotSmall
 10
1308.534608788649
 20
1654.559599470272
 30
0.0
 41
30.0
 42
30.0
 43
30.0
 50
270.0
  0
POINT
  5
1F59
330
1DAF
100
AcDbEntity
  8
Defpoints
 62
     0
100
AcDbPoint
 10
1188.529986889435
 20
1688.559599470272
 30
0.0
  0
POINT
  5
1F5A
330
1DAF
100
AcDbEntity
  8
Defpoints
 62
     0
100
AcDbPoint
 10
1188.529986889435
 20
1654.559599470272
 30
0.0
  0
POINT
  5
1F5B
330
1DAF
100
AcDbEntity
  8
Defpoints
 62
     0
100
AcDbPoint
 10
1308.534608788649
 20
1654.559599470272
 30
0.0
  0
ENDBLK
  5
1DBA
330
1DAF
100
AcDbEntity
  8
0
100
AcDbBlockEnd
  0
BLOCK
  5
1DC5
330
1DBB
100
AcDbEntity
  8
0
100
AcDbBlockBegin
  2
*D34
 70
     1
 10
0.0
 20
0.0
 30
0.0
  3
*D34
  1

  0
LINE
  5
1F5C
330
1DBB
100
AcDbEntity
  8
実形
 62
     0
370
    15
100
AcDbLine
 10
1235.301732387242
 20
1134.559599470271
 30
0.0
 11
1290.306354286455
 21
1134.559599470271
 31
0.0
  0
LINE
  5
1F5D
330
1DBB
100
AcDbEntity
  8
実形
 62
     0
370
    15
100
AcDbLine
 10
1235.301732387242
 20
1100.559599470271
 30
0.0
 11
1290.306354286455
 21
1100.559599470271
 31
0.0
  0
LINE
  5
1F5E
330
1DBB
100
AcDbEntity
  8
実形
 62
     0
370
    15
100
AcDbLine
 10
1290.306354286455
 20
1134.559599470271
 30
0.0
 11
1290.306354286455
 21
1100.559599470271
 31
0.0
  0
MTEXT
  5
1F5F
330
1DBB
100
AcDbEntity
  8
実形
 62
     0
100
AcDbMText
 10
1259.212386446213
 20
1168.250877964981
 30
0.0
 40
25.0
 41
0.0
 71
     5
 72
     1
  1
35
 11
0.0000000000000001
 21
1.0
 31
0.0
 73
     1
 44
1.0
1001
ACAD
1000
MTEXTBEGIN
1070
    73
1070
     1
1070
    44
1040
1.0
1070
    74
1070
     0
1000
MTEXTEND
  0
INSERT
  5
1F60
330
1DBB
100
AcDbEntity
  8
実形
 62
     0
370
    15
100
AcDbBlockReference
  2
_DotSmall
 10
1290.306354286455
 20
1134.559599470271
 30
0.0
 41
30.0
 42
30.0
 43
30.0
 50
90.0
  0
INSERT
  5
1F61
330
1DBB
100
AcDbEntity
  8
実形
 62
     0
370
    15
100
AcDbBlockReference
  2
_DotSmall
 10
1290.306354286455
 20
1100.559599470271
 30
0.0
 41
30.0
 42
30.0
 43
30.0
 50
270.0
  0
POINT
  5
1F62
330
1DBB
100
AcDbEntity
  8
Defpoints
 62
     0
100
AcDbPoint
 10
1170.301732387241
 20
1134.559599470271
 30
0.0
  0
POINT
  5
1F63
330
1DBB
100
AcDbEntity
  8
Defpoints
 62
     0
100
AcDbPoint
 10
1170.301732387241
 20
1100.559599470271
 30
0.0
  0
POINT
  5
1F64
330
1DBB
100
AcDbEntity
  8
Defpoints
 62
     0
100
AcDbPoint
 10
1290.306354286455
 20
1100.559599470271
 30
0.0
  0
ENDBLK
  5
1DC6
330
1DBB
100
AcDbEntity
  8
0
100
AcDbBlockEnd
  0
BLOCK
  5
2FAC
330
2FA5
100
AcDbEntity
  8
0
100
AcDbBlockBegin
  2
*D35
 70
     1
 10
0.0
 20
0.0
 30
0.0
  3
*D35
  1

  0
LINE
  5
3092
330
2FA5
100
AcDbEntity
  8
実形
 62
     0
370
    13
100
AcDbLine
 10
2090.833877365067
 20
553.2947101512847
 30
0.0
 11
2090.833877365067
 21
467.1003685502147
 31
0.0
  0
LINE
  5
3093
330
2FA5
100
AcDbEntity
  8
実形
 62
     0
370
    13
100
AcDbLine
 10
2075.233877365067
 20
527.502986728412
 30
0.0
 11
2075.233877365067
 21
467.1003685502147
 31
0.0
  0
MTEXT
  5
3094
330
2FA5
100
AcDbEntity
  8
実形
 62
     0
100
AcDbMText
 10
2054.88545157578
 20
491.5915116428197
 30
0.0
 40
25.0
 41
0.0
 71
     5
 72
     1
  1
1
 73
     1
 44
1.0
1001
ACAD
1000
MTEXTBEGIN
1070
    73
1070
     1
1070
    44
1040
1.0
1070
    74
1070
     0
1000
MTEXTEND
  0
POINT
  5
3095
330
2FA5
100
AcDbEntity
  8
Defpoints
 62
     0
100
AcDbPoint
 10
2090.833877365067
 20
559.2947101512846
 30
0.0
  0
POINT
  5
3096
330
2FA5
100
AcDbEntity
  8
Defpoints
 62
     0
100
AcDbPoint
 10
2075.233877365067
 20
533.5029867284119
 30
0.0
  0
POINT
  5
3097
330
2FA5
100
AcDbEntity
  8
Defpoints
 62
     0
100
AcDbPoint
 10
2075.233877365067
 20
467.1003685502147
 30
0.0
  0
ENDBLK
  5
2FAD
330
2FA5
100
AcDbEntity
  8
0
100
AcDbBlockEnd
  0
BLOCK
  5
2FB8
330
2FAE
100
AcDbEntity
  8
0
100
AcDbBlockBegin
  2
*D36
 70
     1
 10
0.0
 20
0.0
 30
0.0
  3
*D36
  1

  0
LINE
  5
3098
330
2FAE
100
AcDbEntity
  8
実形
 62
     0
370
    18
100
AcDbLine
 10
2090.833877365066
 20
591.9073852958003
 30
0.0
 11
2090.833877365066
 21
617.1548568615962
 31
0.0
  0
LINE
  5
3099
330
2FAE
100
AcDbEntity
  8
実形
 62
     0
370
    18
100
AcDbLine
 10
2356.033877365065
 20
591.9073852958005
 30
0.0
 11
2356.033877365065
 21
617.1548568615962
 31
0.0
  0
LINE
  5
309A
330
2FAE
100
AcDbEntity
  8
実形
 62
     0
370
    18
100
AcDbLine
 10
2090.833877365066
 20
617.1548568615962
 30
0.0
 11
2356.033877365065
 21
617.1548568615962
 31
0.0
  0
INSERT
  5
309B
330
2FAE
100
AcDbEntity
  8
実形
 62
     0
370
    18
100
AcDbBlockReference
  2
_DotSmall
 10
2090.833877365066
 20
617.1548568615962
 30
0.0
 41
30.0
 42
30.0
 43
30.0
 50
180.0
  0
INSERT
  5
309C
330
2FAE
100
AcDbEntity
  8
実形
 62
     0
370
    18
100
AcDbBlockReference
  2
_DotSmall
 10
2356.033877365065
 20
617.1548568615962
 30
0.0
 41
30.0
 42
30.0
 43
30.0
  0
MTEXT
  5
309D
330
2FAE
100
AcDbEntity
  8
実形
 62
     0
100
AcDbMText
 10
2223.433877365065
 20
635.9048568615962
 30
0.0
 40
25.0
 41
0.0
 71
     5
 72
     1
  1
17
 73
     1
 44
1.0
1001
ACAD
1000
MTEXTBEGIN
1070
    73
1070
     1
1070
    44
1040
1.0
1070
    74
1070
     0
1000
MTEXTEND
  0
POINT
  5
309E
330
2FAE
100
AcDbEntity
  8
Defpoints
 62
     0
100
AcDbPoint
 10
2090.833877365066
 20
526.9073852958004
 30
0.0
  0
POINT
  5
309F
330
2FAE
100
AcDbEntity
  8
Defpoints
 62
     0
100
AcDbPoint
 10
2356.033877365065
 20
526.9073852958005
 30
0.0
  0
POINT
  5
30A0
330
2FAE
100
AcDbEntity
  8
Defpoints
 62
     0
100
AcDbPoint
 10
2356.033877365065
 20
617.1548568615962
 30
0.0
  0
ENDBLK
  5
2FB9
330
2FAE
100
AcDbEntity
  8
0
100
AcDbBlockEnd
  0
BLOCK
  5
2FC4
330
2FBA
100
AcDbEntity
  8
0
100
AcDbBlockBegin
  2
*D37
 70
     1
 10
0.0
 20
0.0
 30
0.0
  3
*D37
  1

  0
LINE
  5
30A1
330
2FBA
100
AcDbEntity
  8
実形
 62
     0
370
    18
100
AcDbLine
 10
2250.113367995707
 20
504.6947101512855
 30
0.0
 11
2215.460134891442
 21
504.6947101512855
 31
0.0
  0
LINE
  5
30A2
330
2FBA
100
AcDbEntity
  8
実形
 62
     0
370
    18
100
AcDbLine
 10
2202.959844379684
 20
543.6947101512855
 30
0.0
 11
2215.460134891442
 21
543.6947101512855
 31
0.0
  0
LINE
  5
30A3
330
2FBA
100
AcDbEntity
  8
実形
 62
     0
370
    18
100
AcDbLine
 10
2215.460134891442
 20
504.6947101512855
 30
0.0
 11
2215.460134891442
 21
543.6947101512855
 31
0.0
  0
MTEXT
  5
30A4
330
2FBA
100
AcDbEntity
  8
実形
 62
     0
100
AcDbMText
 10
2183.987549496718
 20
515.0052225685112
 30
0.0
 40
23.0
 41
0.0
 71
     5
 72
     1
  1
2.5
 11
0.0000000000000001
 21
1.0
 31
0.0
 73
     1
 44
1.0
1001
ACAD
1000
MTEXTBEGIN
1070
    73
1070
     1
1070
    44
1040
1.0
1070
    74
1070
     0
1000
MTEXTEND
  0
INSERT
  5
30A5
330
2FBA
100
AcDbEntity
  8
実形
 62
     0
370
    18
100
AcDbBlockReference
  2
_DotSmall
 10
2215.460134891442
 20
504.6947101512855
 30
0.0
 41
30.0
 42
30.0
 43
30.0
 50
270.0
  0
INSERT
  5
30A6
330
2FBA
100
AcDbEntity
  8
実形
 62
     0
370
    18
100
AcDbBlockReference
  2
_DotSmall
 10
2215.460134891442
 20
543.6947101512855
 30
0.0
 41
30.0
 42
30.0
 43
30.0
 50
90.0
  0
POINT
  5
30A7
330
2FBA
100
AcDbEntity
  8
Defpoints
 62
     0
100
AcDbPoint
 10
2315.113367995707
 20
504.6947101512855
 30
0.0
  0
POINT
  5
30A8
330
2FBA
100
AcDbEntity
  8
Defpoints
 62
     0
100
AcDbPoint
 10
2267.959844379684
 20
543.6947101512855
 30
0.0
  0
POINT
  5
30A9
330
2FBA
100
AcDbEntity
  8
Defpoints
 62
     0
100
AcDbPoint
 10
2215.460134891442
 20
543.6947101512855
 30
0.0
  0
ENDBLK
  5
2FC5
330
2FBA
100
AcDbEntity
  8
0
100
AcDbBlockEnd
  0
BLOCK
  5
2FD0
330
2FC6
100
AcDbEntity
  8
0
100
AcDbBlockBegin
  2
*D38
 70
     1
 10
0.0
 20
0.0
 30
0.0
  3
*D38
  1

  0
LINE
  5
30AA
330
2FC6
100
AcDbEntity
  8
実形
 62
     0
370
    18
100
AcDbLine
 10
2278.033877365066
 20
448.0145559292668
 30
0.0
 11
2278.033877365066
 21
452.0882219802177
 31
0.0
  0
LINE
  5
30AB
330
2FC6
100
AcDbEntity
  8
実形
 62
     0
370
    18
100
AcDbLine
 10
2356.033877365066
 20
448.0145559292668
 30
0.0
 11
2356.033877365066
 21
452.0882219802177
 31
0.0
  0
LINE
  5
30AC
330
2FC6
100
AcDbEntity
  8
実形
 62
     0
370
    18
100
AcDbLine
 10
2278.033877365066
 20
452.0882219802177
 30
0.0
 11
2356.033877365066
 21
452.0882219802177
 31
0.0
  0
INSERT
  5
30AD
330
2FC6
100
AcDbEntity
  8
実形
 62
     0
370
    18
100
AcDbBlockReference
  2
_DotSmall
 10
2278.033877365066
 20
452.0882219802177
 30
0.0
 41
30.0
 42
30.0
 43
30.0
 50
180.0
  0
INSERT
  5
30AE
330
2FC6
100
AcDbEntity
  8
実形
 62
     0
370
    18
100
AcDbBlockReference
  2
_DotSmall
 10
2356.033877365066
 20
452.0882219802177
 30
0.0
 41
30.0
 42
30.0
 43
30.0
  0
MTEXT
  5
30AF
330
2FC6
100
AcDbEntity
  8
実形
 62
     0
100
AcDbMText
 10
2317.033877365066
 20
470.8382219802177
 30
0.0
 40
25.0
 41
0.0
 71
     5
 72
     1
  1
5
 73
     1
 44
1.0
1001
ACAD
1000
MTEXTBEGIN
1070
    73
1070
     1
1070
    44
1040
1.0
1070
    74
1070
     0
1000
MTEXTEND
  0
POINT
  5
30B0
330
2FC6
100
AcDbEntity
  8
Defpoints
 62
     0
100
AcDbPoint
 10
2278.033877365066
 20
513.0145559292668
 30
0.0
  0
POINT
  5
30B1
330
2FC6
100
AcDbEntity
  8
Defpoints
 62
     0
100
AcDbPoint
 10
2356.033877365066
 20
513.0145559292668
 30
0.0
  0
POINT
  5
30B2
330
2FC6
100
AcDbEntity
  8
Defpoints
 62
     0
100
AcDbPoint
 10
2356.033877365066
 20
452.0882219802177
 30
0.0
  0
ENDBLK
  5
2FD1
330
2FC6
100
AcDbEntity
  8
0
100
AcDbBlockEnd
  0
BLOCK
  5
2FDC
330
2FD2
100
AcDbEntity
  8
0
100
AcDbBlockBegin
  2
*D39
 70
     1
 10
0.0
 20
0.0
 30
0.0
  3
*D39
  1

  0
LINE
  5
30B3
330
2FD2
100
AcDbEntity
  8
実形
 62
     0
370
    18
100
AcDbLine
 10
2253.018840457773
 20
442.2947101512853
 30
0.0
 11
2217.398583849133
 21
442.2947101512853
 31
0.0
  0
LINE
  5
30B4
330
2FD2
100
AcDbEntity
  8
実形
 62
     0
370
    18
100
AcDbLine
 10
2296.445481530403
 20
403.2947101512855
 30
0.0
 11
2217.398583849133
 21
403.2947101512855
 31
0.0
  0
LINE
  5
30B5
330
2FD2
100
AcDbEntity
  8
実形
 62
     0
370
    18
100
AcDbLine
 10
2217.398583849133
 20
442.2947101512853
 30
0.0
 11
2217.398583849133
 21
403.2947101512855
 31
0.0
  0
MTEXT
  5
30B6
330
2FD2
100
AcDbEntity
  8
実形
 62
     0
100
AcDbMText
 10
2184.779122545192
 20
431.6583152348946
 30
0.0
 40
23.0
 41
0.0
 71
     5
 72
     1
  1
2.5
 11
0.0000000000000001
 21
1.0
 31
0.0
 73
     1
 44
1.0
1001
ACAD
1000
MTEXTBEGIN
1070
    73
1070
     1
1070
    44
1040
1.0
1070
    74
1070
     0
1000
MTEXTEND
  0
INSERT
  5
30B7
330
2FD2
100
AcDbEntity
  8
実形
 62
     0
370
    18
100
AcDbBlockReference
  2
_DotSmall
 10
2217.398583849133
 20
442.2947101512853
 30
0.0
 41
30.0
 42
30.0
 43
30.0
 50
90.0
  0
INSERT
  5
30B8
330
2FD2
100
AcDbEntity
  8
実形
 62
     0
370
    18
100
AcDbBlockReference
  2
_DotSmall
 10
2217.398583849133
 20
403.2947101512855
 30
0.0
 41
30.0
 42
30.0
 43
30.0
 50
270.0
  0
POINT
  5
30B9
330
2FD2
100
AcDbEntity
  8
Defpoints
 62
     0
100
AcDbPoint
 10
2318.018840457773
 20
442.2947101512853
 30
0.0
  0
POINT
  5
30BA
330
2FD2
100
AcDbEntity
  8
Defpoints
 62
     0
100
AcDbPoint
 10
2361.445481530404
 20
403.2947101512855
 30
0.0
  0
POINT
  5
30BB
330
2FD2
100
AcDbEntity
  8
Defpoints
 62
     0
100
AcDbPoint
 10
2217.398583849133
 20
403.2947101512855
 30
0.0
  0
ENDBLK
  5
2FDD
330
2FD2
100
AcDbEntity
  8
0
100
AcDbBlockEnd
  0
BLOCK
  5
2FE8
330
2FDE
100
AcDbEntity
  8
0
100
AcDbBlockBegin
  2
*D40
 70
     1
 10
0.0
 20
0.0
 30
0.0
  3
*D40
  1

  0
LINE
  5
30BC
330
2FDE
100
AcDbEntity
  8
実形
 62
     0
370
    18
100
AcDbLine
 10
2075.233877365066
 20
696.1956311673393
 30
0.0
 11
2075.233877365066
 21
733.9587029177619
 31
0.0
  0
LINE
  5
30BD
330
2FDE
100
AcDbEntity
  8
実形
 62
     0
370
    18
100
AcDbLine
 10
2387.233877365066
 20
696.1956311673393
 30
0.0
 11
2387.233877365066
 21
733.9587029177619
 31
0.0
  0
LINE
  5
30BE
330
2FDE
100
AcDbEntity
  8
実形
 62
     0
370
    18
100
AcDbLine
 10
2075.233877365066
 20
733.9587029177619
 30
0.0
 11
2387.233877365066
 21
733.9587029177619
 31
0.0
  0
INSERT
  5
30BF
330
2FDE
100
AcDbEntity
  8
実形
 62
     0
370
    18
100
AcDbBlockReference
  2
_DotSmall
 10
2075.233877365066
 20
733.9587029177619
 30
0.0
 41
30.0
 42
30.0
 43
30.0
 50
180.0
  0
INSERT
  5
30C0
330
2FDE
100
AcDbEntity
  8
実形
 62
     0
370
    18
100
AcDbBlockReference
  2
_DotSmall
 10
2387.233877365066
 20
733.9587029177619
 30
0.0
 41
30.0
 42
30.0
 43
30.0
  0
MTEXT
  5
30C1
330
2FDE
100
AcDbEntity
  8
実形
 62
     0
100
AcDbMText
 10
2231.233877365066
 20
752.7087029177619
 30
0.0
 40
25.0
 41
0.0
 71
     5
 72
     1
  1
20
 73
     1
 44
1.0
1001
ACAD
1000
MTEXTBEGIN
1070
    73
1070
     1
1070
    44
1040
1.0
1070
    74
1070
     0
1000
MTEXTEND
  0
POINT
  5
30C2
330
2FDE
100
AcDbEntity
  8
Defpoints
 62
     0
100
AcDbPoint
 10
2075.233877365066
 20
631.1956311673393
 30
0.0
  0
POINT
  5
30C3
330
2FDE
100
AcDbEntity
  8
Defpoints
 62
     0
100
AcDbPoint
 10
2387.233877365066
 20
631.1956311673393
 30
0.0
  0
POINT
  5
30C4
330
2FDE
100
AcDbEntity
  8
Defpoints
 62
     0
100
AcDbPoint
 10
2387.233877365066
 20
733.9587029177619
 30
0.0
  0
ENDBLK
  5
2FE9
330
2FDE
100
AcDbEntity
  8
0
100
AcDbBlockEnd
  0
BLOCK
  5
2FF4
330
2FEA
100
AcDbEntity
  8
0
100
AcDbBlockBegin
  2
*D41
 70
     1
 10
0.0
 20
0.0
 30
0.0
  3
*D41
  1

  0
LINE
  5
30C5
330
2FEA
100
AcDbEntity
  8
実形
 62
     0
370
    18
100
AcDbLine
 10
2387.233877365066
 20
695.0056853622645
 30
0.0
 11
2387.233877365066
 21
733.9587029177619
 31
0.0
  0
LINE
  5
30C6
330
2FEA
100
AcDbEntity
  8
実形
 62
     0
370
    18
100
AcDbLine
 10
2621.233877365066
 20
696.1956311673382
 30
0.0
 11
2621.233877365066
 21
733.9587029177619
 31
0.0
  0
LINE
  5
30C7
330
2FEA
100
AcDbEntity
  8
実形
 62
     0
370
    18
100
AcDbLine
 10
2387.233877365066
 20
733.9587029177619
 30
0.0
 11
2621.233877365066
 21
733.9587029177619
 31
0.0
  0
INSERT
  5
30C8
330
2FEA
100
AcDbEntity
  8
実形
 62
     0
370
    18
100
AcDbBlockReference
  2
_DotSmall
 10
2387.233877365066
 20
733.9587029177619
 30
0.0
 41
30.0
 42
30.0
 43
30.0
 50
180.0
  0
INSERT
  5
30C9
330
2FEA
100
AcDbEntity
  8
実形
 62
     0
370
    18
100
AcDbBlockReference
  2
_DotSmall
 10
2621.233877365066
 20
733.9587029177619
 30
0.0
 41
30.0
 42
30.0
 43
30.0
  0
MTEXT
  5
30CA
330
2FEA
100
AcDbEntity
  8
実形
 62
     0
100
AcDbMText
 10
2504.233877365066
 20
752.7087029177619
 30
0.0
 40
25.0
 41
0.0
 71
     5
 72
     1
  1
15
 73
     1
 44
1.0
1001
ACAD
1000
MTEXTBEGIN
1070
    73
1070
     1
1070
    44
1040
1.0
1070
    74
1070
     0
1000
MTEXTEND
  0
POINT
  5
30CB
330
2FEA
100
AcDbEntity
  8
Defpoints
 62
     0
100
AcDbPoint
 10
2387.233877365066
 20
630.0056853622646
 30
0.0
  0
POINT
  5
30CC
330
2FEA
100
AcDbEntity
  8
Defpoints
 62
     0
100
AcDbPoint
 10
2621.233877365066
 20
631.1956311673382
 30
0.0
  0
POINT
  5
30CD
330
2FEA
100
AcDbEntity
  8
Defpoints
 62
     0
100
AcDbPoint
 10
2621.233877365066
 20
733.9587029177619
 30
0.0
  0
ENDBLK
  5
2FF5
330
2FEA
100
AcDbEntity
  8
0
100
AcDbBlockEnd
  0
BLOCK
  5
3000
330
2FF6
100
AcDbEntity
  8
0
100
AcDbBlockBegin
  2
*D42
 70
     1
 10
0.0
 20
0.0
 30
0.0
  3
*D42
  1

  0
LINE
  5
30CE
330
2FF6
100
AcDbEntity
  8
実形
 62
     0
370
    18
100
AcDbLine
 10
2075.233877365066
 20
696.1956311673382
 30
0.0
 11
2075.233877365066
 21
777.4666415156134
 31
0.0
  0
LINE
  5
30CF
330
2FF6
100
AcDbEntity
  8
実形
 62
     0
370
    18
100
AcDbLine
 10
2621.233877365066
 20
696.1956311673382
 30
0.0
 11
2621.233877365066
 21
777.4666415156134
 31
0.0
  0
LINE
  5
30D0
330
2FF6
100
AcDbEntity
  8
実形
 62
     0
370
    18
100
AcDbLine
 10
2075.233877365066
 20
777.4666415156134
 30
0.0
 11
2621.233877365066
 21
777.4666415156134
 31
0.0
  0
INSERT
  5
30D1
330
2FF6
100
AcDbEntity
  8
実形
 62
     0
370
    18
100
AcDbBlockReference
  2
_DotSmall
 10
2075.233877365066
 20
777.4666415156134
 30
0.0
 41
30.0
 42
30.0
 43
30.0
 50
180.0
  0
INSERT
  5
30D2
330
2FF6
100
AcDbEntity
  8
実形
 62
     0
370
    18
100
AcDbBlockReference
  2
_DotSmall
 10
2621.233877365066
 20
777.4666415156134
 30
0.0
 41
30.0
 42
30.0
 43
30.0
  0
MTEXT
  5
30D3
330
2FF6
100
AcDbEntity
  8
実形
 62
     0
100
AcDbMText
 10
2348.233877365066
 20
796.2166415156134
 30
0.0
 40
25.0
 41
0.0
 71
     5
 72
     1
  1
35
 73
     1
 44
1.0
1001
ACAD
1000
MTEXTBEGIN
1070
    73
1070
     1
1070
    44
1040
1.0
1070
    74
1070
     0
1000
MTEXTEND
  0
POINT
  5
30D4
330
2FF6
100
AcDbEntity
  8
Defpoints
 62
     0
100
AcDbPoint
 10
2075.233877365066
 20
631.1956311673382
 30
0.0
  0
POINT
  5
30D5
330
2FF6
100
AcDbEntity
  8
Defpoints
 62
     0
100
AcDbPoint
 10
2621.233877365066
 20
631.1956311673382
 30
0.0
  0
POINT
  5
30D6
330
2FF6
100
AcDbEntity
  8
Defpoints
 62
     0
100
AcDbPoint
 10
2621.233877365066
 20
777.4666415156134
 30
0.0
  0
ENDBLK
  5
3001
330
2FF6
100
AcDbEntity
  8
0
100
AcDbBlockEnd
  0
BLOCK
  5
300C
330
3002
100
AcDbEntity
  8
0
100
AcDbBlockBegin
  2
*D43
 70
     1
 10
0.0
 20
0.0
 30
0.0
  3
*D43
  1

  0
LINE
  5
30D7
330
3002
100
AcDbEntity
  8
実形
 62
     0
370
    18
100
AcDbLine
 10
2106.433877365066
 20
346.5474686202858
 30
0.0
 11
2106.433877365066
 21
297.5085770831867
 31
0.0
  0
LINE
  5
30D8
330
3002
100
AcDbEntity
  8
実形
 62
     0
370
    18
100
AcDbLine
 10
2153.233877365066
 20
346.5474686202858
 30
0.0
 11
2153.233877365066
 21
297.5085770831867
 31
0.0
  0
LINE
  5
30D9
330
3002
100
AcDbEntity
  8
実形
 62
     0
370
    18
100
AcDbLine
 10
2106.433877365066
 20
297.5085770831867
 30
0.0
 11
2153.233877365066
 21
297.5085770831867
 31
0.0
  0
MTEXT
  5
30DA
330
3002
100
AcDbEntity
  8
実形
 62
     0
100
AcDbMText
 10
2053.203290699754
 20
332.9138518235977
 30
0.0
 40
25.0
 41
0.0
 71
     5
 72
     1
  1
3.3
 73
     1
 44
1.0
1001
ACAD
1000
MTEXTBEGIN
1070
    73
1070
     1
1070
    44
1040
1.0
1070
    74
1070
     0
1000
MTEXTEND
  0
INSERT
  5
30DB
330
3002
100
AcDbEntity
  8
実形
 62
     0
370
    18
100
AcDbBlockReference
  2
_DotSmall
 10
2106.433877365066
 20
297.5085770831867
 30
0.0
 41
30.0
 42
30.0
 43
30.0
 50
180.0
  0
INSERT
  5
30DC
330
3002
100
AcDbEntity
  8
実形
 62
     0
370
    18
100
AcDbBlockReference
  2
_DotSmall
 10
2153.233877365066
 20
297.5085770831867
 30
0.0
 41
30.0
 42
30.0
 43
30.0
  0
POINT
  5
30DD
330
3002
100
AcDbEntity
  8
Defpoints
 62
     0
100
AcDbPoint
 10
2106.433877365066
 20
411.5474686202857
 30
0.0
  0
POINT
  5
30DE
330
3002
100
AcDbEntity
  8
Defpoints
 62
     0
100
AcDbPoint
 10
2153.233877365066
 20
411.5474686202857
 30
0.0
  0
POINT
  5
30DF
330
3002
100
AcDbEntity
  8
Defpoints
 62
     0
100
AcDbPoint
 10
2153.233877365066
 20
297.5085770831867
 30
0.0
  0
ENDBLK
  5
300D
330
3002
100
AcDbEntity
  8
0
100
AcDbBlockEnd
  0
BLOCK
  5
3018
330
300E
100
AcDbEntity
  8
0
100
AcDbBlockBegin
  2
*D44
 70
     1
 10
0.0
 20
0.0
 30
0.0
  3
*D44
  1

  0
LINE
  5
30E0
330
300E
100
AcDbEntity
  8
実形
 62
     0
370
    18
100
AcDbLine
 10
2153.233877365066
 20
346.5474686202858
 30
0.0
 11
2153.233877365066
 21
297.5085770831867
 31
0.0
  0
LINE
  5
30E1
330
300E
100
AcDbEntity
  8
実形
 62
     0
370
    18
100
AcDbLine
 10
2309.233877365066
 20
346.5474686202858
 30
0.0
 11
2309.233877365066
 21
297.5085770831867
 31
0.0
  0
LINE
  5
30E2
330
300E
100
AcDbEntity
  8
実形
 62
     0
370
    18
100
AcDbLine
 10
2153.233877365066
 20
297.5085770831867
 30
0.0
 11
2309.233877365066
 21
297.5085770831867
 31
0.0
  0
INSERT
  5
30E3
330
300E
100
AcDbEntity
  8
実形
 62
     0
370
    18
100
AcDbBlockReference
  2
_DotSmall
 10
2153.233877365066
 20
297.5085770831867
 30
0.0
 41
30.0
 42
30.0
 43
30.0
 50
180.0
  0
INSERT
  5
30E4
330
300E
100
AcDbEntity
  8
実形
 62
     0
370
    18
100
AcDbBlockReference
  2
_DotSmall
 10
2309.233877365066
 20
297.5085770831867
 30
0.0
 41
30.0
 42
30.0
 43
30.0
  0
MTEXT
  5
30E5
330
300E
100
AcDbEntity
  8
実形
 62
     0
100
AcDbMText
 10
2231.233877365066
 20
316.2585770831867
 30
0.0
 40
25.0
 41
0.0
 71
     5
 72
     1
  1
10
 73
     1
 44
1.0
1001
ACAD
1000
MTEXTBEGIN
1070
    73
1070
     1
1070
    44
1040
1.0
1070
    74
1070
     0
1000
MTEXTEND
  0
POINT
  5
30E6
330
300E
100
AcDbEntity
  8
Defpoints
 62
     0
100
AcDbPoint
 10
2153.233877365066
 20
411.5474686202857
 30
0.0
  0
POINT
  5
30E7
330
300E
100
AcDbEntity
  8
Defpoints
 62
     0
100
AcDbPoint
 10
2309.233877365066
 20
411.5474686202857
 30
0.0
  0
POINT
  5
30E8
330
300E
100
AcDbEntity
  8
Defpoints
 62
     0
100
AcDbPoint
 10
2309.233877365066
 20
297.5085770831867
 30
0.0
  0
ENDBLK
  5
3019
330
300E
100
AcDbEntity
  8
0
100
AcDbBlockEnd
  0
BLOCK
  5
3024
330
301A
100
AcDbEntity
  8
0
100
AcDbBlockBegin
  2
*D45
 70
     1
 10
0.0
 20
0.0
 30
0.0
  3
*D45
  1

  0
LINE
  5
30E9
330
301A
100
AcDbEntity
  8
実形
 62
     0
370
    18
100
AcDbLine
 10
2309.233877365066
 20
346.5474686202858
 30
0.0
 11
2309.233877365066
 21
297.5085770831867
 31
0.0
  0
LINE
  5
30EA
330
301A
100
AcDbEntity
  8
実形
 62
     0
370
    18
100
AcDbLine
 10
2387.233877365066
 20
346.5474686202858
 30
0.0
 11
2387.233877365066
 21
297.5085770831867
 31
0.0
  0
LINE
  5
30EB
330
301A
100
AcDbEntity
  8
実形
 62
     0
370
    18
100
AcDbLine
 10
2309.233877365066
 20
297.5085770831867
 30
0.0
 11
2387.233877365066
 21
297.5085770831867
 31
0.0
  0
INSERT
  5
30EC
330
301A
100
AcDbEntity
  8
実形
 62
     0
370
    18
100
AcDbBlockReference
  2
_DotSmall
 10
2309.233877365066
 20
297.5085770831867
 30
0.0
 41
30.0
 42
30.0
 43
30.0
 50
180.0
  0
INSERT
  5
30ED
330
301A
100
AcDbEntity
  8
実形
 62
     0
370
    18
100
AcDbBlockReference
  2
_DotSmall
 10
2387.233877365066
 20
297.5085770831867
 30
0.0
 41
30.0
 42
30.0
 43
30.0
  0
MTEXT
  5
30EE
330
301A
100
AcDbEntity
  8
実形
 62
     0
100
AcDbMText
 10
2348.233877365066
 20
316.2585770831867
 30
0.0
 40
25.0
 41
0.0
 71
     5
 72
     1
  1
5
 73
     1
 44
1.0
1001
ACAD
1000
MTEXTBEGIN
1070
    73
1070
     1
1070
    44
1040
1.0
1070
    74
1070
     0
1000
MTEXTEND
  0
POINT
  5
30EF
330
301A
100
AcDbEntity
  8
Defpoints
 62
     0
100
AcDbPoint
 10
2309.233877365066
 20
411.5474686202857
 30
0.0
  0
POINT
  5
30F0
330
301A
100
AcDbEntity
  8
Defpoints
 62
     0
100
AcDbPoint
 10
2387.233877365066
 20
411.5474686202857
 30
0.0
  0
POINT
  5
30F1
330
301A
100
AcDbEntity
  8
Defpoints
 62
     0
100
AcDbPoint
 10
2387.233877365066
 20
297.5085770831867
 30
0.0
  0
ENDBLK
  5
3025
330
301A
100
AcDbEntity
  8
0
100
AcDbBlockEnd
  0
BLOCK
  5
3030
330
3026
100
AcDbEntity
  8
0
100
AcDbBlockBegin
  2
*D46
 70
     1
 10
0.0
 20
0.0
 30
0.0
  3
*D46
  1

  0
LINE
  5
30F2
330
3026
100
AcDbEntity
  8
実形
 62
     0
370
    18
100
AcDbLine
 10
2387.233877365066
 20
346.5474686202859
 30
0.0
 11
2387.233877365066
 21
297.5085770831867
 31
0.0
  0
LINE
  5
30F3
330
3026
100
AcDbEntity
  8
実形
 62
     0
370
    18
100
AcDbLine
 10
2621.233877365066
 20
346.5474686202858
 30
0.0
 11
2621.233877365066
 21
297.5085770831867
 31
0.0
  0
LINE
  5
30F4
330
3026
100
AcDbEntity
  8
実形
 62
     0
370
    18
100
AcDbLine
 10
2387.233877365066
 20
297.5085770831867
 30
0.0
 11
2621.233877365066
 21
297.5085770831867
 31
0.0
  0
INSERT
  5
30F5
330
3026
100
AcDbEntity
  8
実形
 62
     0
370
    18
100
AcDbBlockReference
  2
_DotSmall
 10
2387.233877365066
 20
297.5085770831867
 30
0.0
 41
30.0
 42
30.0
 43
30.0
 50
180.0
  0
INSERT
  5
30F6
330
3026
100
AcDbEntity
  8
実形
 62
     0
370
    18
100
AcDbBlockReference
  2
_DotSmall
 10
2621.233877365066
 20
297.5085770831867
 30
0.0
 41
30.0
 42
30.0
 43
30.0
  0
MTEXT
  5
30F7
330
3026
100
AcDbEntity
  8
実形
 62
     0
100
AcDbMText
 10
2504.233877365066
 20
316.2585770831867
 30
0.0
 40
25.0
 41
0.0
 71
     5
 72
     1
  1
15
 73
     1
 44
1.0
1001
ACAD
1000
MTEXTBEGIN
1070
    73
1070
     1
1070
    44
1040
1.0
1070
    74
1070
     0
1000
MTEXTEND
  0
POINT
  5
30F8
330
3026
100
AcDbEntity
  8
Defpoints
 62
     0
100
AcDbPoint
 10
2387.233877365066
 20
411.5474686202858
 30
0.0
  0
POINT
  5
30F9
330
3026
100
AcDbEntity
  8
Defpoints
 62
     0
100
AcDbPoint
 10
2621.233877365066
 20
411.5474686202857
 30
0.0
  0
POINT
  5
30FA
330
3026
100
AcDbEntity
  8
Defpoints
 62
     0
100
AcDbPoint
 10
2621.233877365066
 20
297.5085770831867
 30
0.0
  0
ENDBLK
  5
3031
330
3026
100
AcDbEntity
  8
0
100
AcDbBlockEnd
  0
BLOCK
  5
303C
330
3032
100
AcDbEntity
  8
0
100
AcDbBlockBegin
  2
*D47
 70
     1
 10
0.0
 20
0.0
 30
0.0
  3
*D47
  1

  0
LINE
  5
30FB
330
3032
100
AcDbEntity
  8
実形
 62
     0
370
    18
100
AcDbLine
 10
2077.023276234157
 20
297.8281686160613
 30
0.0
 11
2077.023276234157
 21
247.5388396829094
 31
0.0
  0
LINE
  5
30FC
330
3032
100
AcDbEntity
  8
実形
 62
     0
370
    18
100
AcDbLine
 10
2155.023276234156
 20
297.8281686160613
 30
0.0
 11
2155.023276234156
 21
247.5388396829094
 31
0.0
  0
LINE
  5
30FD
330
3032
100
AcDbEntity
  8
実形
 62
     0
370
    18
100
AcDbLine
 10
2077.023276234157
 20
247.5388396829094
 30
0.0
 11
2155.023276234156
 21
247.5388396829094
 31
0.0
  0
INSERT
  5
30FE
330
3032
100
AcDbEntity
  8
実形
 62
     0
370
    18
100
AcDbBlockReference
  2
_DotSmall
 10
2077.023276234157
 20
247.5388396829094
 30
0.0
 41
30.0
 42
30.0
 43
30.0
 50
180.0
  0
INSERT
  5
30FF
330
3032
100
AcDbEntity
  8
実形
 62
     0
370
    18
100
AcDbBlockReference
  2
_DotSmall
 10
2155.023276234156
 20
247.5388396829094
 30
0.0
 41
30.0
 42
30.0
 43
30.0
  0
MTEXT
  5
3100
330
3032
100
AcDbEntity
  8
実形
 62
     0
100
AcDbMText
 10
2116.023276234157
 20
266.2888396829094
 30
0.0
 40
25.0
 41
0.0
 71
     5
 72
     1
  1
5
 73
     1
 44
1.0
1001
ACAD
1000
MTEXTBEGIN
1070
    73
1070
     1
1070
    44
1040
1.0
1070
    74
1070
     0
1000
MTEXTEND
  0
POINT
  5
3101
330
3032
100
AcDbEntity
  8
Defpoints
 62
     0
100
AcDbPoint
 10
2077.023276234157
 20
362.8281686160613
 30
0.0
  0
POINT
  5
3102
330
3032
100
AcDbEntity
  8
Defpoints
 62
     0
100
AcDbPoint
 10
2155.023276234156
 20
362.8281686160613
 30
0.0
  0
POINT
  5
3103
330
3032
100
AcDbEntity
  8
Defpoints
 62
     0
100
AcDbPoint
 10
2155.023276234156
 20
247.5388396829094
 30
0.0
  0
ENDBLK
  5
303D
330
3032
100
AcDbEntity
  8
0
100
AcDbBlockEnd
  0
BLOCK
  5
3048
330
303E
100
AcDbEntity
  8
0
100
AcDbBlockBegin
  2
*D48
 70
     1
 10
0.0
 20
0.0
 30
0.0
  3
*D48
  1

  0
LINE
  5
3104
330
303E
100
AcDbEntity
  8
実形
 62
     0
370
    18
100
AcDbLine
 10
2155.023276234156
 20
297.8281686160613
 30
0.0
 11
2155.023276234156
 21
247.5388396829094
 31
0.0
  0
LINE
  5
3105
330
303E
100
AcDbEntity
  8
実形
 62
     0
370
    18
100
AcDbLine
 10
2623.023276234156
 20
297.8281686160613
 30
0.0
 11
2623.023276234156
 21
247.5388396829094
 31
0.0
  0
LINE
  5
3106
330
303E
100
AcDbEntity
  8
実形
 62
     0
370
    18
100
AcDbLine
 10
2155.023276234156
 20
247.5388396829094
 30
0.0
 11
2623.023276234156
 21
247.5388396829094
 31
0.0
  0
INSERT
  5
3107
330
303E
100
AcDbEntity
  8
実形
 62
     0
370
    18
100
AcDbBlockReference
  2
_DotSmall
 10
2155.023276234156
 20
247.5388396829094
 30
0.0
 41
30.0
 42
30.0
 43
30.0
 50
180.0
  0
INSERT
  5
3108
330
303E
100
AcDbEntity
  8
実形
 62
     0
370
    18
100
AcDbBlockReference
  2
_DotSmall
 10
2623.023276234156
 20
247.5388396829094
 30
0.0
 41
30.0
 42
30.0
 43
30.0
  0
MTEXT
  5
3109
330
303E
100
AcDbEntity
  8
実形
 62
     0
100
AcDbMText
 10
2389.023276234156
 20
266.2888396829094
 30
0.0
 40
25.0
 41
0.0
 71
     5
 72
     1
  1
30
 73
     1
 44
1.0
1001
ACAD
1000
MTEXTBEGIN
1070
    73
1070
     1
1070
    44
1040
1.0
1070
    74
1070
     0
1000
MTEXTEND
  0
POINT
  5
310A
330
303E
100
AcDbEntity
  8
Defpoints
 62
     0
100
AcDbPoint
 10
2155.023276234156
 20
362.8281686160613
 30
0.0
  0
POINT
  5
310B
330
303E
100
AcDbEntity
  8
Defpoints
 62
     0
100
AcDbPoint
 10
2623.023276234156
 20
362.8281686160613
 30
0.0
  0
POINT
  5
310C
330
303E
100
AcDbEntity
  8
Defpoints
 62
     0
100
AcDbPoint
 10
2623.023276234156
 20
247.5388396829094
 30
0.0
  0
ENDBLK
  5
3049
330
303E
100
AcDbEntity
  8
0
100
AcDbBlockEnd
  0
BLOCK
  5
3054
330
304A
100
AcDbEntity
  8
0
100
AcDbBlockBegin
  2
*D49
 70
     1
 10
0.0
 20
0.0
 30
0.0
  3
*D49
  1

  0
LINE
  5
310D
330
304A
100
AcDbEntity
  8
実形
 62
     0
370
    18
100
AcDbLine
 10
2032.328912889143
 20
684.0947101512855
 30
0.0
 11
1970.032114275532
 21
684.0947101512855
 31
0.0
  0
LINE
  5
310E
330
304A
100
AcDbEntity
  8
実形
 62
     0
370
    18
100
AcDbLine
 10
2032.328912889143
 20
585.2947101512854
 30
0.0
 11
1970.032114275532
 21
585.2947101512854
 31
0.0
  0
LINE
  5
310F
330
304A
100
AcDbEntity
  8
実形
 62
     0
370
    18
100
AcDbLine
 10
1970.032114275532
 20
684.0947101512855
 30
0.0
 11
1970.032114275532
 21
585.2947101512854
 31
0.0
  0
INSERT
  5
3110
330
304A
100
AcDbEntity
  8
実形
 62
     0
370
    18
100
AcDbBlockReference
  2
_DotSmall
 10
1970.032114275532
 20
684.0947101512855
 30
0.0
 41
30.0
 42
30.0
 43
30.0
 50
90.0
  0
INSERT
  5
3111
330
304A
100
AcDbEntity
  8
実形
 62
     0
370
    18
100
AcDbBlockReference
  2
_DotSmall
 10
1970.032114275532
 20
585.2947101512854
 30
0.0
 41
30.0
 42
30.0
 43
30.0
 50
270.0
  0
MTEXT
  5
3112
330
304A
100
AcDbEntity
  8
実形
 62
     0
100
AcDbMText
 10
1951.282114275532
 20
634.6947101512859
 30
0.0
 40
25.0
 41
0.0
 71
     5
 72
     1
  1
6.5
 11
0.0000000000000001
 21
1.0
 31
0.0
 73
     1
 44
1.0
1001
ACAD
1000
MTEXTBEGIN
1070
    73
1070
     1
1070
    44
1040
1.0
1070
    74
1070
     0
1000
MTEXTEND
  0
POINT
  5
3113
330
304A
100
AcDbEntity
  8
Defpoints
 62
     0
100
AcDbPoint
 10
2097.328912889143
 20
684.0947101512855
 30
0.0
  0
POINT
  5
3114
330
304A
100
AcDbEntity
  8
Defpoints
 62
     0
100
AcDbPoint
 10
2097.328912889143
 20
585.2947101512854
 30
0.0
  0
POINT
  5
3115
330
304A
100
AcDbEntity
  8
Defpoints
 62
     0
100
AcDbPoint
 10
1970.032114275532
 20
585.2947101512854
 30
0.0
  0
ENDBLK
  5
3055
330
304A
100
AcDbEntity
  8
0
100
AcDbBlockEnd
  0
BLOCK
  5
3060
330
3056
100
AcDbEntity
  8
0
100
AcDbBlockBegin
  2
*D50
 70
     1
 10
0.0
 20
0.0
 30
0.0
  3
*D50
  1

  0
LINE
  5
3116
330
3056
100
AcDbEntity
  8
実形
 62
     0
370
    18
100
AcDbLine
 10
2032.328912889143
 20
684.0947101512855
 30
0.0
 11
1916.035186721017
 21
684.0947101512855
 31
0.0
  0
LINE
  5
3117
330
3056
100
AcDbEntity
  8
実形
 62
     0
370
    18
100
AcDbLine
 10
2032.328912889143
 20
559.2947101512846
 30
0.0
 11
1916.035186721017
 21
559.2947101512846
 31
0.0
  0
LINE
  5
3118
330
3056
100
AcDbEntity
  8
実形
 62
     0
370
    18
100
AcDbLine
 10
1916.035186721017
 20
684.0947101512855
 30
0.0
 11
1916.035186721017
 21
559.2947101512846
 31
0.0
  0
INSERT
  5
3119
330
3056
100
AcDbEntity
  8
実形
 62
     0
370
    18
100
AcDbBlockReference
  2
_DotSmall
 10
1916.035186721017
 20
684.0947101512855
 30
0.0
 41
30.0
 42
30.0
 43
30.0
 50
90.0
  0
INSERT
  5
311A
330
3056
100
AcDbEntity
  8
実形
 62
     0
370
    18
100
AcDbBlockReference
  2
_DotSmall
 10
1916.035186721017
 20
559.2947101512846
 30
0.0
 41
30.0
 42
30.0
 43
30.0
 50
270.0
  0
MTEXT
  5
311B
330
3056
100
AcDbEntity
  8
実形
 62
     0
100
AcDbMText
 10
1897.285186721017
 20
621.6947101512854
 30
0.0
 40
25.0
 41
0.0
 71
     5
 72
     1
  1
8.3
 11
0.0000000000000001
 21
1.0
 31
0.0
 73
     1
 44
1.0
1001
ACAD
1000
MTEXTBEGIN
1070
    73
1070
     1
1070
    44
1040
1.0
1070
    74
1070
     0
1000
MTEXTEND
  0
POINT
  5
311C
330
3056
100
AcDbEntity
  8
Defpoints
 62
     0
100
AcDbPoint
 10
2097.328912889143
 20
684.0947101512855
 30
0.0
  0
POINT
  5
311D
330
3056
100
AcDbEntity
  8
Defpoints
 62
     0
100
AcDbPoint
 10
2097.328912889143
 20
559.2947101512846
 30
0.0
  0
POINT
  5
311E
330
3056
100
AcDbEntity
  8
Defpoints
 62
     0
100
AcDbPoint
 10
1916.035186721017
 20
559.2947101512846
 30
0.0
  0
ENDBLK
  5
3061
330
3056
100
AcDbEntity
  8
0
100
AcDbBlockEnd
  0
BLOCK
  5
306C
330
3062
100
AcDbEntity
  8
0
100
AcDbBlockBegin
  2
*D51
 70
     1
 10
0.0
 20
0.0
 30
0.0
  3
*D51
  1

  0
LINE
  5
311F
330
3062
100
AcDbEntity
  8
実形
 62
     0
370
    18
100
AcDbLine
 10
2032.328912889143
 20
543.6947101512854
 30
0.0
 11
1864.389549972262
 21
543.6947101512854
 31
0.0
  0
LINE
  5
3120
330
3062
100
AcDbEntity
  8
実形
 62
     0
370
    18
100
AcDbLine
 10
2032.328912889143
 20
684.0947101512855
 30
0.0
 11
1864.389549972262
 21
684.0947101512855
 31
0.0
  0
LINE
  5
3121
330
3062
100
AcDbEntity
  8
実形
 62
     0
370
    18
100
AcDbLine
 10
1864.389549972262
 20
543.6947101512854
 30
0.0
 11
1864.389549972262
 21
684.0947101512855
 31
0.0
  0
INSERT
  5
3122
330
3062
100
AcDbEntity
  8
実形
 62
     0
370
    18
100
AcDbBlockReference
  2
_DotSmall
 10
1864.389549972262
 20
543.6947101512854
 30
0.0
 41
30.0
 42
30.0
 43
30.0
 50
270.0
  0
INSERT
  5
3123
330
3062
100
AcDbEntity
  8
実形
 62
     0
370
    18
100
AcDbBlockReference
  2
_DotSmall
 10
1864.389549972262
 20
684.0947101512855
 30
0.0
 41
30.0
 42
30.0
 43
30.0
 50
90.0
  0
MTEXT
  5
3124
330
3062
100
AcDbEntity
  8
実形
 62
     0
100
AcDbMText
 10
1845.639549972261
 20
613.8947101512858
 30
0.0
 40
25.0
 41
0.0
 71
     5
 72
     1
  1
9
 11
0.0000000000000001
 21
1.0
 31
0.0
 73
     1
 44
1.0
1001
ACAD
1000
MTEXTBEGIN
1070
    73
1070
     1
1070
    44
1040
1.0
1070
    74
1070
     0
1000
MTEXTEND
  0
POINT
  5
3125
330
3062
100
AcDbEntity
  8
Defpoints
 62
     0
100
AcDbPoint
 10
2097.328912889143
 20
543.6947101512854
 30
0.0
  0
POINT
  5
3126
330
3062
100
AcDbEntity
  8
Defpoints
 62
     0
100
AcDbPoint
 10
2097.328912889143
 20
684.0947101512855
 30
0.0
  0
POINT
  5
3127
330
3062
100
AcDbEntity
  8
Defpoints
 62
     0
100
AcDbPoint
 10
1864.389549972262
 20
684.0947101512855
 30
0.0
  0
ENDBLK
  5
306D
330
3062
100
AcDbEntity
  8
0
100
AcDbBlockEnd
  0
BLOCK
  5
3078
330
306E
100
AcDbEntity
  8
0
100
AcDbBlockBegin
  2
*D52
 70
     1
 10
0.0
 20
0.0
 30
0.0
  3
*D52
  1

  0
LINE
  5
3128
330
306E
100
AcDbEntity
  8
実形
 62
     0
370
    18
100
AcDbLine
 10
2647.25404811461
 20
543.6947101512855
 30
0.0
 11
2673.699912636183
 21
543.6947101512855
 31
0.0
  0
LINE
  5
3129
330
306E
100
AcDbEntity
  8
実形
 62
     0
370
    18
100
AcDbLine
 10
2647.25404811461
 20
403.2947101512855
 30
0.0
 11
2673.699912636183
 21
403.2947101512855
 31
0.0
  0
LINE
  5
312A
330
306E
100
AcDbEntity
  8
実形
 62
     0
370
    18
100
AcDbLine
 10
2673.699912636183
 20
543.6947101512855
 30
0.0
 11
2673.699912636183
 21
403.2947101512855
 31
0.0
  0
INSERT
  5
312B
330
306E
100
AcDbEntity
  8
実形
 62
     0
370
    18
100
AcDbBlockReference
  2
_DotSmall
 10
2673.699912636183
 20
543.6947101512855
 30
0.0
 41
30.0
 42
30.0
 43
30.0
 50
90.0
  0
INSERT
  5
312C
330
306E
100
AcDbEntity
  8
実形
 62
     0
370
    18
100
AcDbBlockReference
  2
_DotSmall
 10
2673.699912636183
 20
403.2947101512855
 30
0.0
 41
30.0
 42
30.0
 43
30.0
 50
270.0
  0
MTEXT
  5
312D
330
306E
100
AcDbEntity
  8
実形
 62
     0
100
AcDbMText
 10
2654.949912636183
 20
473.4947101512859
 30
0.0
 40
25.0
 41
0.0
 71
     5
 72
     1
  1
9
 11
0.0000000000000001
 21
1.0
 31
0.0
 73
     1
 44
1.0
1001
ACAD
1000
MTEXTBEGIN
1070
    73
1070
     1
1070
    44
1040
1.0
1070
    74
1070
     0
1000
MTEXTEND
  0
POINT
  5
312E
330
306E
100
AcDbEntity
  8
Defpoints
 62
     0
100
AcDbPoint
 10
2582.25404811461
 20
543.6947101512855
 30
0.0
  0
POINT
  5
312F
330
306E
100
AcDbEntity
  8
Defpoints
 62
     0
100
AcDbPoint
 10
2582.25404811461
 20
403.2947101512855
 30
0.0
  0
POINT
  5
3130
330
306E
100
AcDbEntity
  8
Defpoints
 62
     0
100
AcDbPoint
 10
2673.699912636183
 20
403.2947101512855
 30
0.0
  0
ENDBLK
  5
3079
330
306E
100
AcDbEntity
  8
0
100
AcDbBlockEnd
  0
BLOCK
  5
3084
330
307A
100
AcDbEntity
  8
0
100
AcDbBlockBegin
  2
*D53
 70
     1
 10
0.0
 20
0.0
 30
0.0
  3
*D53
  1

  0
LINE
  5
3131
330
307A
100
AcDbEntity
  8
実形
 62
     0
370
    18
100
AcDbLine
 10
2647.25404811461
 20
684.0947101512855
 30
0.0
 11
2673.699912636183
 21
684.0947101512855
 31
0.0
  0
LINE
  5
3132
330
307A
100
AcDbEntity
  8
実形
 62
     0
370
    18
100
AcDbLine
 10
2647.25404811461
 20
543.6947101512855
 30
0.0
 11
2673.699912636183
 21
543.6947101512855
 31
0.0
  0
LINE
  5
3133
330
307A
100
AcDbEntity
  8
実形
 62
     0
370
    18
100
AcDbLine
 10
2673.699912636183
 20
684.0947101512855
 30
0.0
 11
2673.699912636183
 21
543.6947101512855
 31
0.0
  0
INSERT
  5
3134
330
307A
100
AcDbEntity
  8
実形
 62
     0
370
    18
100
AcDbBlockReference
  2
_DotSmall
 10
2673.699912636183
 20
684.0947101512855
 30
0.0
 41
30.0
 42
30.0
 43
30.0
 50
90.0
  0
INSERT
  5
3135
330
307A
100
AcDbEntity
  8
実形
 62
     0
370
    18
100
AcDbBlockReference
  2
_DotSmall
 10
2673.699912636183
 20
543.6947101512855
 30
0.0
 41
30.0
 42
30.0
 43
30.0
 50
270.0
  0
MTEXT
  5
3136
330
307A
100
AcDbEntity
  8
実形
 62
     0
100
AcDbMText
 10
2654.949912636183
 20
613.8947101512859
 30
0.0
 40
25.0
 41
0.0
 71
     5
 72
     1
  1
9
 11
0.0000000000000001
 21
1.0
 31
0.0
 73
     1
 44
1.0
1001
ACAD
1000
MTEXTBEGIN
1070
    73
1070
     1
1070
    44
1040
1.0
1070
    74
1070
     0
1000
MTEXTEND
  0
POINT
  5
3137
330
307A
100
AcDbEntity
  8
Defpoints
 62
     0
100
AcDbPoint
 10
2582.25404811461
 20
684.0947101512855
 30
0.0
  0
POINT
  5
3138
330
307A
100
AcDbEntity
  8
Defpoints
 62
     0
100
AcDbPoint
 10
2582.25404811461
 20
543.6947101512855
 30
0.0
  0
POINT
  5
3139
330
307A
100
AcDbEntity
  8
Defpoints
 62
     0
100
AcDbPoint
 10
2673.699912636183
 20
543.6947101512855
 30
0.0
  0
ENDBLK
  5
3085
330
307A
100
AcDbEntity
  8
0
100
AcDbBlockEnd
  0
BLOCK
  5
3090
330
3086
100
AcDbEntity
  8
0
100
AcDbBlockBegin
  2
*D54
 70
     1
 10
0.0
 20
0.0
 30
0.0
  3
*D54
  1

  0
LINE
  5
313A
330
3086
100
AcDbEntity
  8
実形
 62
     0
370
    18
100
AcDbLine
 10
2647.25404811461
 20
684.0947101512855
 30
0.0
 11
2715.480008308167
 21
684.0947101512855
 31
0.0
  0
LINE
  5
313B
330
3086
100
AcDbEntity
  8
実形
 62
     0
370
    18
100
AcDbLine
 10
2647.25404811461
 20
403.2947101512855
 30
0.0
 11
2715.480008308167
 21
403.2947101512855
 31
0.0
  0
LINE
  5
313C
330
3086
100
AcDbEntity
  8
実形
 62
     0
370
    18
100
AcDbLine
 10
2715.480008308167
 20
684.0947101512855
 30
0.0
 11
2715.480008308167
 21
403.2947101512855
 31
0.0
  0
INSERT
  5
313D
330
3086
100
AcDbEntity
  8
実形
 62
     0
370
    18
100
AcDbBlockReference
  2
_DotSmall
 10
2715.480008308167
 20
684.0947101512855
 30
0.0
 41
30.0
 42
30.0
 43
30.0
 50
90.0
  0
INSERT
  5
313E
330
3086
100
AcDbEntity
  8
実形
 62
     0
370
    18
100
AcDbBlockReference
  2
_DotSmall
 10
2715.480008308167
 20
403.2947101512855
 30
0.0
 41
30.0
 42
30.0
 43
30.0
 50
270.0
  0
MTEXT
  5
313F
330
3086
100
AcDbEntity
  8
実形
 62
     0
100
AcDbMText
 10
2696.730008308167
 20
543.694710151286
 30
0.0
 40
25.0
 41
0.0
 71
     5
 72
     1
  1
18
 11
0.0000000000000001
 21
1.0
 31
0.0
 73
     1
 44
1.0
1001
ACAD
1000
MTEXTBEGIN
1070
    73
1070
     1
1070
    44
1040
1.0
1070
    74
1070
     0
1000
MTEXTEND
  0
POINT
  5
3140
330
3086
100
AcDbEntity
  8
Defpoints
 62
     0
100
AcDbPoint
 10
2582.25404811461
 20
684.0947101512855
 30
0.0
  0
POINT
  5
3141
330
3086
100
AcDbEntity
  8
Defpoints
 62
     0
100
AcDbPoint
 10
2582.25404811461
 20
403.2947101512855
 30
0.0
  0
POINT
  5
3142
330
3086
100
AcDbEntity
  8
Defpoints
 62
     0
100
AcDbPoint
 10
2715.480008308167
 20
403.2947101512855
 30
0.0
  0
ENDBLK
  5
3091
330
3086
100
AcDbEntity
  8
0
100
AcDbBlockEnd
  0
BLOCK
  5
3288
330
327C
100
AcDbEntity
  8
0
 62
     3
100
AcDbBlockBegin
  2
*D55
 70
     1
 10
0.0
 20
0.0
 30
0.0
  3
*D55
  1

  0
LINE
  5
368D
330
327C
100
AcDbEntity
  8
実形
 62
     0
370
    15
100
AcDbLine
 10
445.4430273722191
 20
827.2938827107381
 30
0.0
 11
364.3648529432447
 21
827.2938827107381
 31
0.0
  0
LINE
  5
368E
330
327C
100
AcDbEntity
  8
実形
 62
     0
370
    15
100
AcDbLine
 10
445.4430273722191
 20
809.2938827107381
 30
0.0
 11
364.3648529432447
 21
809.2938827107381
 31
0.0
  0
LINE
  5
368F
330
327C
100
AcDbEntity
  8
実形
 62
     0
370
    15
100
AcDbLine
 10
364.3648529432447
 20
827.2938827107381
 30
0.0
 11
364.3648529432447
 21
809.2938827107381
 31
0.0
  0
LINE
  5
3690
330
327C
100
AcDbEntity
  8
実形
 62
     0
370
    15
100
AcDbLine
 10
364.3648529432447
 20
818.2938827107381
 30
0.0
 11
306.3800290268718
 21
852.8613812022177
 31
0.0
  0
LINE
  5
3691
330
327C
100
AcDbEntity
  8
実形
 62
     0
370
    15
100
AcDbLine
 10
306.3800290268718
 20
852.8613812022177
 30
0.0
 11
306.3800290268718
 21
898.6947145355511
 31
0.0
  0
MTEXT
  5
3692
330
327C
100
AcDbEntity
  8
実形
 62
     0
100
AcDbMText
 10
287.6300290268717
 20
875.7780478688843
 30
0.0
 40
25.0
 41
0.0
 71
     5
 72
     1
  1
18
 11
0.0000000000000001
 21
1.0
 31
0.0
 73
     1
 44
1.0
1001
ACAD
1000
MTEXTBEGIN
1070
    73
1070
     1
1070
    44
1040
1.0
1070
    74
1070
     0
1000
MTEXTEND
  0
INSERT
  5
3693
330
327C
100
AcDbEntity
  8
実形
 62
     0
370
    15
100
AcDbBlockReference
  2
_DotSmall
 10
364.3648529432447
 20
827.2938827107381
 30
0.0
 41
30.0
 42
30.0
 43
30.0
 50
90.0
  0
INSERT
  5
3694
330
327C
100
AcDbEntity
  8
実形
 62
     0
370
    15
100
AcDbBlockReference
  2
_DotSmall
 10
364.3648529432447
 20
809.2938827107381
 30
0.0
 41
30.0
 42
30.0
 43
30.0
 50
270.0
  0
POINT
  5
3695
330
327C
100
AcDbEntity
  8
Defpoints
 62
     0
100
AcDbPoint
 10
510.4430273722192
 20
827.2938827107381
 30
0.0
  0
POINT
  5
3696
330
327C
100
AcDbEntity
  8
Defpoints
 62
     0
100
AcDbPoint
 10
510.4430273722192
 20
809.2938827107381
 30
0.0
  0
POINT
  5
3697
330
327C
100
AcDbEntity
  8
Defpoints
 62
     0
100
AcDbPoint
 10
364.3648529432447
 20
809.2938827107381
 30
0.0
  0
ENDBLK
  5
3289
330
327C
100
AcDbEntity
  8
0
 62
     3
100
AcDbBlockEnd
  0
BLOCK
  5
3299
330
328A
100
AcDbEntity
  8
0
 62
     3
100
AcDbBlockBegin
  2
*D56
 70
     1
 10
0.0
 20
0.0
 30
0.0
  3
*D56
  1

  0
LINE
  5
367F
330
328A
100
AcDbEntity
  8
実形
 62
     0
370
    15
100
AcDbLine
 10
446.421805013395
 20
809.2938827107381
 30
0.0
 11
364.3648529432447
 21
809.2938827107381
 31
0.0
  0
LINE
  5
3680
330
328A
100
AcDbEntity
  8
実形
 62
     0
370
    15
100
AcDbLine
 10
446.421805013395
 20
803.9938827107382
 30
0.0
 11
364.3648529432447
 21
803.9938827107382
 31
0.0
  0
LINE
  5
3681
330
328A
100
AcDbEntity
  8
実形
 62
     0
370
    15
100
AcDbLine
 10
364.3648529432447
 20
809.2938827107381
 30
0.0
 11
364.3648529432447
 21
839.293882710738
 31
0.0
  0
LINE
  5
3682
330
328A
100
AcDbEntity
  8
実形
 62
     0
370
    15
100
AcDbLine
 10
364.3648529432447
 20
803.9938827107382
 30
0.0
 11
364.3648529432447
 21
773.9938827107383
 31
0.0
  0
LINE
  5
3683
330
328A
100
AcDbEntity
  8
実形
 62
     0
370
    15
100
AcDbLine
 10
364.3648529432447
 20
806.6438827107383
 30
0.0
 11
307.2980283970045
 21
782.3166441254943
 31
0.0
  0
LINE
  5
3684
330
328A
100
AcDbEntity
  8
実形
 62
     0
370
    15
100
AcDbLine
 10
307.2980283970045
 20
782.3166441254943
 30
0.0
 11
307.2980283970045
 21
719.8166441254943
 31
0.0
  0
MTEXT
  5
3685
330
328A
100
AcDbEntity
  8
実形
 62
     0
100
AcDbMText
 10
288.5480283970044
 20
751.0666441254945
 30
0.0
 40
25.0
 41
0.0
 71
     5
 72
     1
  1
5.3
 11
0.0000000000000001
 21
1.0
 31
0.0
 73
     1
 44
1.0
1001
ACAD
1000
MTEXTBEGIN
1070
    73
1070
     1
1070
    44
1040
1.0
1070
    74
1070
     0
1000
MTEXTEND
  0
LINE
  5
3686
330
328A
100
AcDbEntity
  8
実形
 62
     0
370
    15
100
AcDbLine
 10
364.3648529432447
 20
809.2938827107381
 30
0.0
 11
364.3648529432447
 21
803.9938827107382
 31
0.0
  0
LINE
  5
3687
330
328A
100
AcDbEntity
  8
実形
 62
     0
370
    15
100
AcDbLine
 10
364.3648529432447
 20
809.2938827107381
 30
0.0
 11
364.3648529432447
 21
803.9938827107382
 31
0.0
  0
INSERT
  5
3688
330
328A
100
AcDbEntity
  8
実形
 62
     0
370
    15
100
AcDbBlockReference
  2
_DotSmall
 10
364.3648529432447
 20
809.2938827107381
 30
0.0
 41
30.0
 42
30.0
 43
30.0
 50
270.0
  0
INSERT
  5
3689
330
328A
100
AcDbEntity
  8
実形
 62
     0
370
    15
100
AcDbBlockReference
  2
_DotSmall
 10
364.3648529432447
 20
803.9938827107382
 30
0.0
 41
30.0
 42
30.0
 43
30.0
 50
90.0
  0
POINT
  5
368A
330
328A
100
AcDbEntity
  8
Defpoints
 62
     0
100
AcDbPoint
 10
511.421805013395
 20
809.2938827107381
 30
0.0
  0
POINT
  5
368B
330
328A
100
AcDbEntity
  8
Defpoints
 62
     0
100
AcDbPoint
 10
511.421805013395
 20
803.9938827107382
 30
0.0
  0
POINT
  5
368C
330
328A
100
AcDbEntity
  8
Defpoints
 62
     0
100
AcDbPoint
 10
364.3648529432447
 20
803.9938827107382
 30
0.0
  0
ENDBLK
  5
329A
330
328A
100
AcDbEntity
  8
0
 62
     3
100
AcDbBlockEnd
  0
BLOCK
  5
32A5
330
329B
100
AcDbEntity
  8
0
 62
     3
100
AcDbBlockBegin
  2
*D57
 70
     1
 10
0.0
 20
0.0
 30
0.0
  3
*D57
  1

  0
LINE
  5
366D
330
329B
100
AcDbEntity
  8
実形
 62
     0
370
    15
100
AcDbLine
 10
445.5028911912539
 20
803.9938827107382
 30
0.0
 11
364.3648529432447
 21
803.9938827107382
 31
0.0
  0
LINE
  5
366E
330
329B
100
AcDbEntity
  8
実形
 62
     0
370
    15
100
AcDbLine
 10
445.4430273722191
 20
628.9938827107382
 30
0.0
 11
364.3648529432447
 21
628.9938827107382
 31
0.0
  0
LINE
  5
366F
330
329B
100
AcDbEntity
  8
実形
 62
     0
370
    15
100
AcDbLine
 10
364.3648529432447
 20
803.9938827107382
 30
0.0
 11
364.3648529432447
 21
628.9938827107382
 31
0.0
  0
INSERT
  5
3670
330
329B
100
AcDbEntity
  8
実形
 62
     0
370
    15
100
AcDbBlockReference
  2
_DotSmall
 10
364.3648529432447
 20
803.9938827107382
 30
0.0
 41
30.0
 42
30.0
 43
30.0
 50
90.0
  0
INSERT
  5
3671
330
329B
100
AcDbEntity
  8
実形
 62
     0
370
    15
100
AcDbBlockReference
  2
_DotSmall
 10
364.3648529432447
 20
628.9938827107382
 30
0.0
 41
30.0
 42
30.0
 43
30.0
 50
270.0
  0
MTEXT
  5
3672
330
329B
100
AcDbEntity
  8
実形
 62
     0
100
AcDbMText
 10
345.6148529432446
 20
716.4938827107383
 30
0.0
 40
25.0
 41
0.0
 71
     5
 72
     1
  1
175
 11
0.0000000000000001
 21
1.0
 31
0.0
 73
     1
 44
1.0
1001
ACAD
1000
MTEXTBEGIN
1070
    73
1070
     1
1070
    44
1040
1.0
1070
    74
1070
     0
1000
MTEXTEND
  0
POINT
  5
3673
330
329B
100
AcDbEntity
  8
Defpoints
 62
     0
100
AcDbPoint
 10
510.5028911912539
 20
803.9938827107382
 30
0.0
  0
POINT
  5
3674
330
329B
100
AcDbEntity
  8
Defpoints
 62
     0
100
AcDbPoint
 10
510.4430273722192
 20
628.9938827107382
 30
0.0
  0
POINT
  5
3675
330
329B
100
AcDbEntity
  8
Defpoints
 62
     0
100
AcDbPoint
 10
364.3648529432447
 20
628.9938827107382
 30
0.0
  0
ENDBLK
  5
32A6
330
329B
100
AcDbEntity
  8
0
 62
     3
100
AcDbBlockEnd
  0
BLOCK
  5
32B1
330
32A7
100
AcDbEntity
  8
0
 62
     3
100
AcDbBlockBegin
  2
*D58
 70
     1
 10
0.0
 20
0.0
 30
0.0
  3
*D58
  1

  0
LINE
  5
32E3
330
32A7
100
AcDbEntity
  8
実形
 62
     0
370
    15
100
AcDbLine
 10
380.4430273722192
 20
827.2938827107381
 30
0.0
 11
236.3454712726778
 21
827.2938827107383
 31
0.0
  0
LINE
  5
32E4
330
32A7
100
AcDbEntity
  8
実形
 62
     0
370
    15
100
AcDbLine
 10
380.4430273722192
 20
628.9938827107382
 30
0.0
 11
236.3454712726778
 21
628.9938827107383
 31
0.0
  0
LINE
  5
32E5
330
32A7
100
AcDbEntity
  8
実形
 62
     0
370
    15
100
AcDbLine
 10
236.3454712726778
 20
827.2938827107383
 30
0.0
 11
236.3454712726778
 21
628.9938827107383
 31
0.0
  0
INSERT
  5
32E6
330
32A7
100
AcDbEntity
  8
実形
 62
     0
370
    15
100
AcDbBlockReference
  2
_DotSmall
 10
236.3454712726778
 20
827.2938827107383
 30
0.0
 41
30.0
 42
30.0
 43
30.0
 50
90.0
  0
INSERT
  5
32E7
330
32A7
100
AcDbEntity
  8
実形
 62
     0
370
    15
100
AcDbBlockReference
  2
_DotSmall
 10
236.3454712726778
 20
628.9938827107383
 30
0.0
 41
30.0
 42
30.0
 43
30.0
 50
270.0
  0
MTEXT
  5
32E8
330
32A7
100
AcDbEntity
  8
実形
 62
     0
100
AcDbMText
 10
217.5954712726777
 20
728.1438827107383
 30
0.0
 40
25.0
 41
0.0
 71
     5
 72
     1
  1
198.3
 11
0.0000000000000001
 21
1.0
 31
0.0
 73
     1
 44
1.0
1001
ACAD
1000
MTEXTBEGIN
1070
    73
1070
     1
1070
    44
1040
1.0
1070
    74
1070
     0
1000
MTEXTEND
  0
POINT
  5
32E9
330
32A7
100
AcDbEntity
  8
Defpoints
 62
     0
100
AcDbPoint
 10
445.4430273722191
 20
827.2938827107381
 30
0.0
  0
POINT
  5
32EA
330
32A7
100
AcDbEntity
  8
Defpoints
 62
     0
100
AcDbPoint
 10
445.4430273722191
 20
628.9938827107382
 30
0.0
  0
POINT
  5
32EB
330
32A7
100
AcDbEntity
  8
Defpoints
 62
     0
100
AcDbPoint
 10
236.3454712726778
 20
628.9938827107383
 30
0.0
  0
ENDBLK
  5
32B2
330
32A7
100
AcDbEntity
  8
0
 62
     3
100
AcDbBlockEnd
  0
BLOCK
  5
32BF
330
32B3
100
AcDbEntity
  8
0
 62
     3
100
AcDbBlockBegin
  2
*D59
 70
     1
 10
0.0
 20
0.0
 30
0.0
  3
*D59
  1

  0
LINE
  5
3662
330
32B3
100
AcDbEntity
  8
実形
 62
     0
370
    15
100
AcDbLine
 10
445.4430273722191
 20
628.9938827107381
 30
0.0
 11
364.3648529432447
 21
628.9938827107381
 31
0.0
  0
LINE
  5
3663
330
32B3
100
AcDbEntity
  8
実形
 62
     0
370
    15
100
AcDbLine
 10
445.4430273722191
 20
618.9938827107383
 30
0.0
 11
364.3648529432447
 21
618.9938827107383
 31
0.0
  0
LINE
  5
3664
330
32B3
100
AcDbEntity
  8
実形
 62
     0
370
    15
100
AcDbLine
 10
364.3648529432447
 20
628.9938827107381
 30
0.0
 11
364.3648529432447
 21
658.9938827107381
 31
0.0
  0
LINE
  5
3665
330
32B3
100
AcDbEntity
  8
実形
 62
     0
370
    15
100
AcDbLine
 10
364.3648529432447
 20
618.9938827107383
 30
0.0
 11
364.3648529432447
 21
588.9938827107382
 31
0.0
  0
MTEXT
  5
3666
330
32B3
100
AcDbEntity
  8
実形
 62
     0
100
AcDbMText
 10
339.5412084212965
 20
608.1978622180905
 30
0.0
 40
25.0
 41
0.0
 71
     5
 72
     1
  1
7
 11
0.0000000000000001
 21
1.0
 31
0.0
 73
     1
 44
1.0
1001
ACAD
1000
MTEXTBEGIN
1070
    73
1070
     1
1070
    44
1040
1.0
1070
    74
1070
     0
1000
MTEXTEND
  0
LINE
  5
3667
330
32B3
100
AcDbEntity
  8
実形
 62
     0
370
    15
100
AcDbLine
 10
364.3648529432447
 20
628.9938827107381
 30
0.0
 11
364.3648529432447
 21
618.9938827107383
 31
0.0
  0
INSERT
  5
3668
330
32B3
100
AcDbEntity
  8
実形
 62
     0
370
    15
100
AcDbBlockReference
  2
_DotSmall
 10
364.3648529432447
 20
628.9938827107381
 30
0.0
 41
30.0
 42
30.0
 43
30.0
 50
270.0
  0
INSERT
  5
3669
330
32B3
100
AcDbEntity
  8
実形
 62
     0
370
    15
100
AcDbBlockReference
  2
_DotSmall
 10
364.3648529432447
 20
618.9938827107383
 30
0.0
 41
30.0
 42
30.0
 43
30.0
 50
90.0
  0
POINT
  5
366A
330
32B3
100
AcDbEntity
  8
Defpoints
 62
     0
100
AcDbPoint
 10
510.4430273722191
 20
628.9938827107381
 30
0.0
  0
POINT
  5
366B
330
32B3
100
AcDbEntity
  8
Defpoints
 62
     0
100
AcDbPoint
 10
510.4430273722191
 20
618.9938827107383
 30
0.0
  0
POINT
  5
366C
330
32B3
100
AcDbEntity
  8
Defpoints
 62
     0
100
AcDbPoint
 10
364.3648529432447
 20
618.9938827107383
 30
0.0
  0
ENDBLK
  5
32C0
330
32B3
100
AcDbEntity
  8
0
 62
     3
100
AcDbBlockEnd
  0
BLOCK
  5
33A9
330
339F
100
AcDbEntity
  8
0
 62
     3
100
AcDbBlockBegin
  2
*D60
 70
     1
 10
0.0
 20
0.0
 30
0.0
  3
*D60
  1

  0
LINE
  5
363E
330
339F
100
AcDbEntity
  8
実形
 62
     0
370
    15
100
AcDbLine
 10
1709.462862593816
 20
1636.659599470271
 30
0.0
 11
1738.410407394939
 21
1636.659599470271
 31
0.0
  0
LINE
  5
363F
330
339F
100
AcDbEntity
  8
実形
 62
     0
370
    15
100
AcDbLine
 10
1709.462862593816
 20
1603.459599470272
 30
0.0
 11
1738.410407394939
 21
1603.459599470272
 31
0.0
  0
LINE
  5
3640
330
339F
100
AcDbEntity
  8
実形
 62
     0
370
    15
100
AcDbLine
 10
1738.410407394939
 20
1636.659599470271
 30
0.0
 11
1738.410407394939
 21
1603.459599470272
 31
0.0
  0
MTEXT
  5
3641
330
339F
100
AcDbEntity
  8
実形
 62
     0
100
AcDbMText
 10
1765.112274487994
 20
1619.136659167581
 30
0.0
 40
25.0
 41
0.0
 71
     5
 72
     1
  1
33.2
 11
0.0000000000000001
 21
1.0
 31
0.0
 73
     1
 44
1.0
1001
ACAD
1000
MTEXTBEGIN
1070
    73
1070
     1
1070
    44
1040
1.0
1070
    74
1070
     0
1000
MTEXTEND
  0
INSERT
  5
3642
330
339F
100
AcDbEntity
  8
実形
 62
     0
370
    15
100
AcDbBlockReference
  2
_DotSmall
 10
1738.410407394939
 20
1636.659599470271
 30
0.0
 41
30.0
 42
30.0
 43
30.0
 50
90.0
  0
INSERT
  5
3643
330
339F
100
AcDbEntity
  8
実形
 62
     0
370
    15
100
AcDbBlockReference
  2
_DotSmall
 10
1738.410407394939
 20
1603.459599470272
 30
0.0
 41
30.0
 42
30.0
 43
30.0
 50
270.0
  0
POINT
  5
3644
330
339F
100
AcDbEntity
  8
Defpoints
 62
     0
100
AcDbPoint
 10
1644.462862593815
 20
1636.659599470271
 30
0.0
  0
POINT
  5
3645
330
339F
100
AcDbEntity
  8
Defpoints
 62
     0
100
AcDbPoint
 10
1644.462862593815
 20
1603.459599470272
 30
0.0
  0
POINT
  5
3646
330
339F
100
AcDbEntity
  8
Defpoints
 62
     0
100
AcDbPoint
 10
1738.410407394939
 20
1603.459599470272
 30
0.0
  0
ENDBLK
  5
33AA
330
339F
100
AcDbEntity
  8
0
 62
     3
100
AcDbBlockEnd
  0
BLOCK
  5
33D4
330
33D3
100
AcDbEntity
  8
0
100
AcDbBlockBegin
  2
*D61
 70
     1
 10
0.0
 20
0.0
 30
0.0
  3
*D61
  1

  0
LINE
  5
33D5
330
33D3
100
AcDbEntity
  8
実形
 62
     0
370
    15
100
AcDbLine
 10
1673.003436414592
 20
1165.999420178306
 30
0.0
 11
1673.003436414592
 21
1084.921245749332
 31
0.0
  0
LINE
  5
33D6
330
33D3
100
AcDbEntity
  8
実形
 62
     0
370
    15
100
AcDbLine
 10
1691.003436414592
 20
1165.999420178306
 30
0.0
 11
1691.003436414592
 21
1084.921245749332
 31
0.0
  0
LINE
  5
33D7
330
33D3
100
AcDbEntity
  8
実形
 62
     0
370
    15
100
AcDbLine
 10
1673.003436414592
 20
1084.921245749332
 30
0.0
 11
1691.003436414592
 21
1084.921245749332
 31
0.0
  0
LINE
  5
33D8
330
33D3
100
AcDbEntity
  8
実形
 62
     0
370
    15
100
AcDbLine
 10
1682.003436414592
 20
1084.921245749332
 30
0.0
 11
1647.435937923112
 21
1026.936421832959
 31
0.0
  0
LINE
  5
33D9
330
33D3
100
AcDbEntity
  8
実形
 62
     0
370
    15
100
AcDbLine
 10
1647.435937923112
 20
1026.936421832959
 30
0.0
 11
1601.602604589779
 21
1026.936421832959
 31
0.0
  0
MTEXT
  5
33DA
330
33D3
100
AcDbEntity
  8
実形
 62
     0
100
AcDbMText
 10
1624.519271256446
 20
1045.686421832959
 30
0.0
 40
25.0
 41
0.0
 71
     5
 72
     1
  1
18
 73
     1
 44
1.0
1001
ACAD
1000
MTEXTBEGIN
1070
    73
1070
     1
1070
    44
1040
1.0
1070
    74
1070
     0
1000
MTEXTEND
  0
INSERT
  5
33DB
330
33D3
100
AcDbEntity
  8
実形
 62
     0
370
    15
100
AcDbBlockReference
  2
_DotSmall
 10
1673.003436414592
 20
1084.921245749332
 30
0.0
 41
30.0
 42
30.0
 43
30.0
 50
180.0
  0
INSERT
  5
33DC
330
33D3
100
AcDbEntity
  8
実形
 62
     0
370
    15
100
AcDbBlockReference
  2
_DotSmall
 10
1691.003436414592
 20
1084.921245749332
 30
0.0
 41
30.0
 42
30.0
 43
30.0
  0
POINT
  5
33DD
330
33D3
100
AcDbEntity
  8
Defpoints
 62
     0
100
AcDbPoint
 10
1673.003436414592
 20
1230.999420178306
 30
0.0
  0
POINT
  5
33DE
330
33D3
100
AcDbEntity
  8
Defpoints
 62
     0
100
AcDbPoint
 10
1691.003436414592
 20
1230.999420178306
 30
0.0
  0
POINT
  5
33DF
330
33D3
100
AcDbEntity
  8
Defpoints
 62
     0
100
AcDbPoint
 10
1691.003436414592
 20
1084.921245749332
 30
0.0
  0
ENDBLK
  5
33E0
330
33D3
100
AcDbEntity
  8
0
100
AcDbBlockEnd
  0
BLOCK
  5
33E2
330
33E1
100
AcDbEntity
  8
0
100
AcDbBlockBegin
  2
*D62
 70
     1
 10
0.0
 20
0.0
 30
0.0
  3
*D62
  1

  0
LINE
  5
33E3
330
33E1
100
AcDbEntity
  8
実形
 62
     0
370
    15
100
AcDbLine
 10
1691.003436414592
 20
1166.978197819482
 30
0.0
 11
1691.003436414592
 21
1084.921245749332
 31
0.0
  0
LINE
  5
33E4
330
33E1
100
AcDbEntity
  8
実形
 62
     0
370
    15
100
AcDbLine
 10
1696.303436414592
 20
1166.978197819482
 30
0.0
 11
1696.303436414592
 21
1084.921245749332
 31
0.0
  0
LINE
  5
33E5
330
33E1
100
AcDbEntity
  8
実形
 62
     0
370
    15
100
AcDbLine
 10
1691.003436414592
 20
1084.921245749332
 30
0.0
 11
1661.003436414592
 21
1084.921245749332
 31
0.0
  0
LINE
  5
33E6
330
33E1
100
AcDbEntity
  8
実形
 62
     0
370
    15
100
AcDbLine
 10
1696.303436414592
 20
1084.921245749332
 30
0.0
 11
1726.303436414592
 21
1084.921245749332
 31
0.0
  0
LINE
  5
33E7
330
33E1
100
AcDbEntity
  8
実形
 62
     0
370
    15
100
AcDbLine
 10
1693.653436414592
 20
1084.921245749332
 30
0.0
 11
1717.980674999836
 21
1027.854421203092
 31
0.0
  0
LINE
  5
33E8
330
33E1
100
AcDbEntity
  8
実形
 62
     0
370
    15
100
AcDbLine
 10
1717.980674999836
 20
1027.854421203092
 30
0.0
 11
1780.480674999836
 21
1027.854421203092
 31
0.0
  0
MTEXT
  5
33E9
330
33E1
100
AcDbEntity
  8
実形
 62
     0
100
AcDbMText
 10
1749.230674999836
 20
1046.604421203092
 30
0.0
 40
25.0
 41
0.0
 71
     5
 72
     1
  1
5.3
 73
     1
 44
1.0
1001
ACAD
1000
MTEXTBEGIN
1070
    73
1070
     1
1070
    44
1040
1.0
1070
    74
1070
     0
1000
MTEXTEND
  0
LINE
  5
33EA
330
33E1
100
AcDbEntity
  8
実形
 62
     0
370
    15
100
AcDbLine
 10
1691.003436414592
 20
1084.921245749332
 30
0.0
 11
1696.303436414592
 21
1084.921245749332
 31
0.0
  0
LINE
  5
33EB
330
33E1
100
AcDbEntity
  8
実形
 62
     0
370
    15
100
AcDbLine
 10
1691.003436414592
 20
1084.921245749332
 30
0.0
 11
1696.303436414592
 21
1084.921245749332
 31
0.0
  0
INSERT
  5
33EC
330
33E1
100
AcDbEntity
  8
実形
 62
     0
370
    15
100
AcDbBlockReference
  2
_DotSmall
 10
1691.003436414592
 20
1084.921245749332
 30
0.0
 41
30.0
 42
30.0
 43
30.0
  0
INSERT
  5
33ED
330
33E1
100
AcDbEntity
  8
実形
 62
     0
370
    15
100
AcDbBlockReference
  2
_DotSmall
 10
1696.303436414592
 20
1084.921245749332
 30
0.0
 41
30.0
 42
30.0
 43
30.0
 50
180.0
  0
POINT
  5
33EE
330
33E1
100
AcDbEntity
  8
Defpoints
 62
     0
100
AcDbPoint
 10
1691.003436414592
 20
1231.978197819482
 30
0.0
  0
POINT
  5
33EF
330
33E1
100
AcDbEntity
  8
Defpoints
 62
     0
100
AcDbPoint
 10
1696.303436414592
 20
1231.978197819482
 30
0.0
  0
POINT
  5
33F0
330
33E1
100
AcDbEntity
  8
Defpoints
 62
     0
100
AcDbPoint
 10
1696.303436414592
 20
1084.921245749332
 30
0.0
  0
ENDBLK
  5
33F1
330
33E1
100
AcDbEntity
  8
0
100
AcDbBlockEnd
  0
BLOCK
  5
33F3
330
33F2
100
AcDbEntity
  8
0
100
AcDbBlockBegin
  2
*D63
 70
     1
 10
0.0
 20
0.0
 30
0.0
  3
*D63
  1

  0
LINE
  5
33F4
330
33F2
100
AcDbEntity
  8
実形
 62
     0
370
    15
100
AcDbLine
 10
1696.303436414592
 20
1166.059283997341
 30
0.0
 11
1696.303436414592
 21
1084.921245749332
 31
0.0
  0
LINE
  5
33F5
330
33F2
100
AcDbEntity
  8
実形
 62
     0
370
    15
100
AcDbLine
 10
1871.303436414592
 20
1165.999420178306
 30
0.0
 11
1871.303436414592
 21
1084.921245749332
 31
0.0
  0
LINE
  5
33F6
330
33F2
100
AcDbEntity
  8
実形
 62
     0
370
    15
100
AcDbLine
 10
1696.303436414592
 20
1084.921245749332
 30
0.0
 11
1871.303436414592
 21
1084.921245749332
 31
0.0
  0
INSERT
  5
33F7
330
33F2
100
AcDbEntity
  8
実形
 62
     0
370
    15
100
AcDbBlockReference
  2
_DotSmall
 10
1696.303436414592
 20
1084.921245749332
 30
0.0
 41
30.0
 42
30.0
 43
30.0
 50
180.0
  0
INSERT
  5
33F8
330
33F2
100
AcDbEntity
  8
実形
 62
     0
370
    15
100
AcDbBlockReference
  2
_DotSmall
 10
1871.303436414592
 20
1084.921245749332
 30
0.0
 41
30.0
 42
30.0
 43
30.0
  0
MTEXT
  5
33F9
330
33F2
100
AcDbEntity
  8
実形
 62
     0
100
AcDbMText
 10
1783.803436414592
 20
1103.671245749332
 30
0.0
 40
25.0
 41
0.0
 71
     5
 72
     1
  1
175
 73
     1
 44
1.0
1001
ACAD
1000
MTEXTBEGIN
1070
    73
1070
     1
1070
    44
1040
1.0
1070
    74
1070
     0
1000
MTEXTEND
  0
POINT
  5
33FA
330
33F2
100
AcDbEntity
  8
Defpoints
 62
     0
100
AcDbPoint
 10
1696.303436414592
 20
1231.059283997341
 30
0.0
  0
POINT
  5
33FB
330
33F2
100
AcDbEntity
  8
Defpoints
 62
     0
100
AcDbPoint
 10
1871.303436414592
 20
1230.999420178306
 30
0.0
  0
POINT
  5
33FC
330
33F2
100
AcDbEntity
  8
Defpoints
 62
     0
100
AcDbPoint
 10
1871.303436414592
 20
1084.921245749332
 30
0.0
  0
ENDBLK
  5
33FD
330
33F2
100
AcDbEntity
  8
0
100
AcDbBlockEnd
  0
BLOCK
  5
33FF
330
33FE
100
AcDbEntity
  8
0
100
AcDbBlockBegin
  2
*D64
 70
     1
 10
0.0
 20
0.0
 30
0.0
  3
*D64
  1

  0
LINE
  5
3400
330
33FE
100
AcDbEntity
  8
実形
 62
     0
370
    15
100
AcDbLine
 10
1673.003436414592
 20
1100.999420178306
 30
0.0
 11
1673.003436414592
 21
956.9018640787653
 31
0.0
  0
LINE
  5
3401
330
33FE
100
AcDbEntity
  8
実形
 62
     0
370
    15
100
AcDbLine
 10
1871.303436414592
 20
1100.999420178306
 30
0.0
 11
1871.303436414592
 21
956.9018640787653
 31
0.0
  0
LINE
  5
3402
330
33FE
100
AcDbEntity
  8
実形
 62
     0
370
    15
100
AcDbLine
 10
1673.003436414592
 20
956.9018640787653
 30
0.0
 11
1871.303436414592
 21
956.9018640787653
 31
0.0
  0
INSERT
  5
3403
330
33FE
100
AcDbEntity
  8
実形
 62
     0
370
    15
100
AcDbBlockReference
  2
_DotSmall
 10
1673.003436414592
 20
956.9018640787653
 30
0.0
 41
30.0
 42
30.0
 43
30.0
 50
180.0
  0
INSERT
  5
3404
330
33FE
100
AcDbEntity
  8
実形
 62
     0
370
    15
100
AcDbBlockReference
  2
_DotSmall
 10
1871.303436414592
 20
956.9018640787653
 30
0.0
 41
30.0
 42
30.0
 43
30.0
  0
MTEXT
  5
3405
330
33FE
100
AcDbEntity
  8
実形
 62
     0
100
AcDbMText
 10
1772.153436414592
 20
975.6518640787653
 30
0.0
 40
25.0
 41
0.0
 71
     5
 72
     1
  1
198.3
 73
     1
 44
1.0
1001
ACAD
1000
MTEXTBEGIN
1070
    73
1070
     1
1070
    44
1040
1.0
1070
    74
1070
     0
1000
MTEXTEND
  0
POINT
  5
3406
330
33FE
100
AcDbEntity
  8
Defpoints
 62
     0
100
AcDbPoint
 10
1673.003436414592
 20
1165.999420178306
 30
0.0
  0
POINT
  5
3407
330
33FE
100
AcDbEntity
  8
Defpoints
 62
     0
100
AcDbPoint
 10
1871.303436414592
 20
1165.999420178306
 30
0.0
  0
POINT
  5
3408
330
33FE
100
AcDbEntity
  8
Defpoints
 62
     0
100
AcDbPoint
 10
1871.303436414592
 20
956.9018640787653
 30
0.0
  0
ENDBLK
  5
3409
330
33FE
100
AcDbEntity
  8
0
100
AcDbBlockEnd
  0
BLOCK
  5
340B
330
340A
100
AcDbEntity
  8
0
100
AcDbBlockBegin
  2
*D65
 70
     1
 10
0.0
 20
0.0
 30
0.0
  3
*D65
  1

  0
LINE
  5
340C
330
340A
100
AcDbEntity
  8
実形
 62
     0
370
    15
100
AcDbLine
 10
1871.303436414592
 20
1165.999420178306
 30
0.0
 11
1871.303436414592
 21
1084.921245749332
 31
0.0
  0
LINE
  5
340D
330
340A
100
AcDbEntity
  8
実形
 62
     0
370
    15
100
AcDbLine
 10
1881.303436414592
 20
1165.999420178306
 30
0.0
 11
1881.303436414592
 21
1084.921245749332
 31
0.0
  0
LINE
  5
340E
330
340A
100
AcDbEntity
  8
実形
 62
     0
370
    15
100
AcDbLine
 10
1871.303436414592
 20
1084.921245749332
 30
0.0
 11
1841.303436414592
 21
1084.921245749332
 31
0.0
  0
LINE
  5
340F
330
340A
100
AcDbEntity
  8
実形
 62
     0
370
    15
100
AcDbLine
 10
1881.303436414592
 20
1084.921245749332
 30
0.0
 11
1911.303436414592
 21
1084.921245749332
 31
0.0
  0
MTEXT
  5
3410
330
340A
100
AcDbEntity
  8
実形
 62
     0
100
AcDbMText
 10
1899.246174486356
 20
1106.199728823325
 30
0.0
 40
25.0
 41
0.0
 71
     5
 72
     1
  1
7
 73
     1
 44
1.0
1001
ACAD
1000
MTEXTBEGIN
1070
    73
1070
     1
1070
    44
1040
1.0
1070
    74
1070
     0
1000
MTEXTEND
  0
LINE
  5
3411
330
340A
100
AcDbEntity
  8
実形
 62
     0
370
    15
100
AcDbLine
 10
1871.303436414592
 20
1084.921245749332
 30
0.0
 11
1881.303436414592
 21
1084.921245749332
 31
0.0
  0
INSERT
  5
3412
330
340A
100
AcDbEntity
  8
実形
 62
     0
370
    15
100
AcDbBlockReference
  2
_DotSmall
 10
1871.303436414592
 20
1084.921245749332
 30
0.0
 41
30.0
 42
30.0
 43
30.0
  0
INSERT
  5
3413
330
340A
100
AcDbEntity
  8
実形
 62
     0
370
    15
100
AcDbBlockReference
  2
_DotSmall
 10
1881.303436414592
 20
1084.921245749332
 30
0.0
 41
30.0
 42
30.0
 43
30.0
 50
180.0
  0
POINT
  5
3414
330
340A
100
AcDbEntity
  8
Defpoints
 62
     0
100
AcDbPoint
 10
1871.303436414592
 20
1230.999420178306
 30
0.0
  0
POINT
  5
3415
330
340A
100
AcDbEntity
  8
Defpoints
 62
     0
100
AcDbPoint
 10
1881.303436414592
 20
1230.999420178306
 30
0.0
  0
POINT
  5
3416
330
340A
100
AcDbEntity
  8
Defpoints
 62
     0
100
AcDbPoint
 10
1881.303436414592
 20
1084.921245749332
 30
0.0
  0
ENDBLK
  5
3417
330
340A
100
AcDbEntity
  8
0
100
AcDbBlockEnd
  0
BLOCK
  5
3420
330
3418
100
AcDbEntity
  8
0
 62
     3
100
AcDbBlockBegin
  2
A$C1AAF7BE3
 70
     0
 10
0.0
 20
0.0
 30
0.0
  3
A$C1AAF7BE3
  1

  0
DIMENSION
  5
3419
330
3418
100
AcDbEntity
  8
実形
100
AcDbDimension
  2
*D61
 10
0.0
 20
-106.7084877430352
 30
0.0
 11
-49.81749849147991
 21
-164.6933116594082
 31
0.0
 12
-1691.003436414592
 22
-1191.629733492367
 32
0.0
 70
   128
 71
     5
 42
18.0
  3
ISO-25
100
AcDbAlignedDimension
 13
-18.0
 23
39.36968668593909
 33
0.0
 14
0.0
 24
39.36968668593909
 34
0.0
 50
180.0
100
AcDbRotatedDimension
1001
ACAD
1000
DSTYLE
1002
{
1070
   279
1070
     1
1002
}
  0
DIMENSION
  5
341A
330
3418
100
AcDbEntity
  8
実形
100
AcDbDimension
  2
*D62
 10
5.299999999999727
 20
-106.7084877430352
 30
0.0
 11
33.22723858524341
 21
-163.7753122892754
 31
0.0
 12
-1691.003436414592
 22
-1191.629733492367
 32
0.0
 70
   128
 71
     5
 42
5.299999999999727
  3
ISO-25
100
AcDbAlignedDimension
 13
0.0
 23
40.34846432711492
 33
0.0
 14
5.299999999999727
 24
40.34846432711492
 34
0.0
 50
180.0
100
AcDbRotatedDimension
1001
ACAD
1000
DSTYLE
1002
{
1070
   279
1070
     1
1002
}
  0
DIMENSION
  5
341B
330
3418
100
AcDbEntity
  8
実形
100
AcDbDimension
  2
*D63
 10
180.2999999999997
 20
-106.7084877430352
 30
0.0
 11
92.79999999999972
 21
-87.95848774303522
 31
0.0
 12
-1691.003436414592
 22
-1191.629733492367
 32
0.0
 71
     5
 42
175.0
  3
ISO-25
100
AcDbAlignedDimension
 13
5.299999999999727
 23
39.42955050497403
 33
0.0
 14
180.2999999999997
 24
39.36968668593909
 34
0.0
 50
180.0
100
AcDbRotatedDimension
1001
ACAD
1000
DSTYLE
1002
{
1070
   279
1070
     1
1002
}
  0
DIMENSION
  5
341C
330
3418
100
AcDbEntity
  8
実形
100
AcDbDimension
  2
*D64
 10
180.2999999999997
 20
-234.7278694136021
 30
0.0
 11
81.14999999999964
 21
-215.9778694136021
 31
0.0
 12
-1691.003436414592
 22
-1191.629733492367
 32
0.0
 71
     5
 42
198.3000000000002
  3
ISO-25
100
AcDbAlignedDimension
 13
-18.00000000000045
 23
-25.63031331406091
 33
0.0
 14
180.2999999999997
 24
-25.63031331406091
 34
0.0
 50
180.0
100
AcDbRotatedDimension
1001
ACAD
1000
DSTYLE
1002
{
1070
   279
1070
     1
1002
}
  0
DIMENSION
  5
341D
330
3418
100
AcDbEntity
  8
実形
100
AcDbDimension
  2
*D65
 10
190.2999999999997
 20
-106.7084877430352
 30
0.0
 11
208.242738071764
 21
-104.1800046690423
 31
0.0
 12
-1691.003436414592
 22
-1191.629733492367
 32
0.0
 70
   128
  1
7
 71
     5
 42
10.0
  3
ISO-25
100
AcDbAlignedDimension
 13
180.2999999999997
 23
39.36968668593909
 33
0.0
 14
190.2999999999997
 24
39.36968668593909
 34
0.0
 50
180.0
100
AcDbRotatedDimension
1001
ACAD
1000
DSTYLE
1002
{
1070
   279
1070
     1
1002
}
  0
ENDBLK
  5
3421
330
3418
100
AcDbEntity
  8
0
 62
     3
100
AcDbBlockEnd
  0
BLOCK
  5
3484
330
3478
100
AcDbEntity
  8
0
 62
     3
100
AcDbBlockBegin
  2
*D67
 70
     1
 10
0.0
 20
0.0
 30
0.0
  3
*D67
  1

  0
LINE
  5
35ED
330
3478
100
AcDbEntity
  8
実形
 62
     0
370
    15
100
AcDbLine
 10
1502.162862593815
 20
1074.92928615621
 30
0.0
 11
1502.162862593815
 21
993.8511117272364
 31
0.0
  0
LINE
  5
35EE
330
3478
100
AcDbEntity
  8
実形
 62
     0
370
    15
100
AcDbLine
 10
1520.162862593815
 20
1074.92928615621
 30
0.0
 11
1520.162862593815
 21
993.8511117272364
 31
0.0
  0
LINE
  5
35EF
330
3478
100
AcDbEntity
  8
実形
 62
     0
370
    15
100
AcDbLine
 10
1502.162862593815
 20
993.8511117272364
 30
0.0
 11
1520.162862593815
 21
993.8511117272364
 31
0.0
  0
LINE
  5
35F0
330
3478
100
AcDbEntity
  8
実形
 62
     0
370
    15
100
AcDbLine
 10
1511.162862593815
 20
993.8511117272364
 30
0.0
 11
1476.595364102335
 21
935.8662878108635
 31
0.0
  0
LINE
  5
35F1
330
3478
100
AcDbEntity
  8
実形
 62
     0
370
    15
100
AcDbLine
 10
1476.595364102335
 20
935.8662878108635
 30
0.0
 11
1430.762030769002
 21
935.8662878108635
 31
0.0
  0
MTEXT
  5
35F2
330
3478
100
AcDbEntity
  8
実形
 62
     0
100
AcDbMText
 10
1453.678697435669
 20
954.6162878108635
 30
0.0
 40
25.0
 41
0.0
 71
     5
 72
     1
  1
18
 73
     1
 44
1.0
1001
ACAD
1000
MTEXTBEGIN
1070
    73
1070
     1
1070
    44
1040
1.0
1070
    74
1070
     0
1000
MTEXTEND
  0
INSERT
  5
35F3
330
3478
100
AcDbEntity
  8
実形
 62
     0
370
    15
100
AcDbBlockReference
  2
_DotSmall
 10
1502.162862593815
 20
993.8511117272364
 30
0.0
 41
30.0
 42
30.0
 43
30.0
 50
180.0
  0
INSERT
  5
35F4
330
3478
100
AcDbEntity
  8
実形
 62
     0
370
    15
100
AcDbBlockReference
  2
_DotSmall
 10
1520.162862593815
 20
993.8511117272364
 30
0.0
 41
30.0
 42
30.0
 43
30.0
  0
POINT
  5
35F5
330
3478
100
AcDbEntity
  8
Defpoints
 62
     0
100
AcDbPoint
 10
1502.162862593815
 20
1139.929286156211
 30
0.0
  0
POINT
  5
35F6
330
3478
100
AcDbEntity
  8
Defpoints
 62
     0
100
AcDbPoint
 10
1520.162862593815
 20
1139.929286156211
 30
0.0
  0
POINT
  5
35F7
330
3478
100
AcDbEntity
  8
Defpoints
 62
     0
100
AcDbPoint
 10
1520.162862593815
 20
993.8511117272364
 30
0.0
  0
ENDBLK
  5
3485
330
3478
100
AcDbEntity
  8
0
 62
     3
100
AcDbBlockEnd
  0
BLOCK
  5
3495
330
3486
100
AcDbEntity
  8
0
 62
     3
100
AcDbBlockBegin
  2
*D68
 70
     1
 10
0.0
 20
0.0
 30
0.0
  3
*D68
  1

  0
LINE
  5
35DF
330
3486
100
AcDbEntity
  8
実形
 62
     0
370
    15
100
AcDbLine
 10
1520.162862593815
 20
1075.908063797387
 30
0.0
 11
1520.162862593815
 21
993.8511117272364
 31
0.0
  0
LINE
  5
35E0
330
3486
100
AcDbEntity
  8
実形
 62
     0
370
    15
100
AcDbLine
 10
1525.462862593815
 20
1075.908063797387
 30
0.0
 11
1525.462862593815
 21
993.8511117272364
 31
0.0
  0
LINE
  5
35E1
330
3486
100
AcDbEntity
  8
実形
 62
     0
370
    15
100
AcDbLine
 10
1520.162862593815
 20
993.8511117272364
 30
0.0
 11
1490.162862593815
 21
993.8511117272364
 31
0.0
  0
LINE
  5
35E2
330
3486
100
AcDbEntity
  8
実形
 62
     0
370
    15
100
AcDbLine
 10
1525.462862593815
 20
993.8511117272364
 30
0.0
 11
1555.462862593815
 21
993.8511117272364
 31
0.0
  0
LINE
  5
35E3
330
3486
100
AcDbEntity
  8
実形
 62
     0
370
    15
100
AcDbLine
 10
1522.812862593815
 20
993.8511117272364
 30
0.0
 11
1547.140101179059
 21
936.7842871809962
 31
0.0
  0
LINE
  5
35E4
330
3486
100
AcDbEntity
  8
実形
 62
     0
370
    15
100
AcDbLine
 10
1547.140101179059
 20
936.7842871809962
 30
0.0
 11
1609.640101179059
 21
936.7842871809962
 31
0.0
  0
MTEXT
  5
35E5
330
3486
100
AcDbEntity
  8
実形
 62
     0
100
AcDbMText
 10
1578.390101179059
 20
955.5342871809962
 30
0.0
 40
25.0
 41
0.0
 71
     5
 72
     1
  1
5.3
 73
     1
 44
1.0
1001
ACAD
1000
MTEXTBEGIN
1070
    73
1070
     1
1070
    44
1040
1.0
1070
    74
1070
     0
1000
MTEXTEND
  0
LINE
  5
35E6
330
3486
100
AcDbEntity
  8
実形
 62
     0
370
    15
100
AcDbLine
 10
1520.162862593815
 20
993.8511117272364
 30
0.0
 11
1525.462862593815
 21
993.8511117272364
 31
0.0
  0
LINE
  5
35E7
330
3486
100
AcDbEntity
  8
実形
 62
     0
370
    15
100
AcDbLine
 10
1520.162862593815
 20
993.8511117272364
 30
0.0
 11
1525.462862593815
 21
993.8511117272364
 31
0.0
  0
INSERT
  5
35E8
330
3486
100
AcDbEntity
  8
実形
 62
     0
370
    15
100
AcDbBlockReference
  2
_DotSmall
 10
1520.162862593815
 20
993.8511117272364
 30
0.0
 41
30.0
 42
30.0
 43
30.0
  0
INSERT
  5
35E9
330
3486
100
AcDbEntity
  8
実形
 62
     0
370
    15
100
AcDbBlockReference
  2
_DotSmall
 10
1525.462862593815
 20
993.8511117272364
 30
0.0
 41
30.0
 42
30.0
 43
30.0
 50
180.0
  0
POINT
  5
35EA
330
3486
100
AcDbEntity
  8
Defpoints
 62
     0
100
AcDbPoint
 10
1520.162862593815
 20
1140.908063797386
 30
0.0
  0
POINT
  5
35EB
330
3486
100
AcDbEntity
  8
Defpoints
 62
     0
100
AcDbPoint
 10
1525.462862593815
 20
1140.908063797386
 30
0.0
  0
POINT
  5
35EC
330
3486
100
AcDbEntity
  8
Defpoints
 62
     0
100
AcDbPoint
 10
1525.462862593815
 20
993.8511117272364
 30
0.0
  0
ENDBLK
  5
3496
330
3486
100
AcDbEntity
  8
0
 62
     3
100
AcDbBlockEnd
  0
BLOCK
  5
34A1
330
3497
100
AcDbEntity
  8
0
 62
     3
100
AcDbBlockBegin
  2
*D69
 70
     1
 10
0.0
 20
0.0
 30
0.0
  3
*D69
  1

  0
LINE
  5
3603
330
3497
100
AcDbEntity
  8
実形
 62
     0
370
    15
100
AcDbLine
 10
1525.462862593815
 20
1074.989149975245
 30
0.0
 11
1525.462862593815
 21
993.8511117272364
 31
0.0
  0
LINE
  5
3604
330
3497
100
AcDbEntity
  8
実形
 62
     0
370
    15
100
AcDbLine
 10
1700.462862593815
 20
1074.92928615621
 30
0.0
 11
1700.462862593815
 21
993.8511117272364
 31
0.0
  0
LINE
  5
3605
330
3497
100
AcDbEntity
  8
実形
 62
     0
370
    15
100
AcDbLine
 10
1525.462862593815
 20
993.8511117272364
 30
0.0
 11
1700.462862593815
 21
993.8511117272364
 31
0.0
  0
INSERT
  5
3606
330
3497
100
AcDbEntity
  8
実形
 62
     0
370
    15
100
AcDbBlockReference
  2
_DotSmall
 10
1525.462862593815
 20
993.8511117272364
 30
0.0
 41
30.0
 42
30.0
 43
30.0
 50
180.0
  0
INSERT
  5
3607
330
3497
100
AcDbEntity
  8
実形
 62
     0
370
    15
100
AcDbBlockReference
  2
_DotSmall
 10
1700.462862593815
 20
993.8511117272364
 30
0.0
 41
30.0
 42
30.0
 43
30.0
  0
MTEXT
  5
3608
330
3497
100
AcDbEntity
  8
実形
 62
     0
100
AcDbMText
 10
1612.962862593815
 20
1012.601111727236
 30
0.0
 40
25.0
 41
0.0
 71
     5
 72
     1
  1
175
 73
     1
 44
1.0
1001
ACAD
1000
MTEXTBEGIN
1070
    73
1070
     1
1070
    44
1040
1.0
1070
    74
1070
     0
1000
MTEXTEND
  0
POINT
  5
3609
330
3497
100
AcDbEntity
  8
Defpoints
 62
     0
100
AcDbPoint
 10
1525.462862593815
 20
1139.989149975245
 30
0.0
  0
POINT
  5
360A
330
3497
100
AcDbEntity
  8
Defpoints
 62
     0
100
AcDbPoint
 10
1700.462862593815
 20
1139.929286156211
 30
0.0
  0
POINT
  5
360B
330
3497
100
AcDbEntity
  8
Defpoints
 62
     0
100
AcDbPoint
 10
1700.462862593815
 20
993.8511117272364
 30
0.0
  0
ENDBLK
  5
34A2
330
3497
100
AcDbEntity
  8
0
 62
     3
100
AcDbBlockEnd
  0
BLOCK
  5
34AD
330
34A3
100
AcDbEntity
  8
0
 62
     3
100
AcDbBlockBegin
  2
*D70
 70
     1
 10
0.0
 20
0.0
 30
0.0
  3
*D70
  1

  0
LINE
  5
35D6
330
34A3
100
AcDbEntity
  8
実形
 62
     0
370
    15
100
AcDbLine
 10
1502.162862593815
 20
1009.929286156211
 30
0.0
 11
1502.162862593815
 21
865.8317300566695
 31
0.0
  0
LINE
  5
35D7
330
34A3
100
AcDbEntity
  8
実形
 62
     0
370
    15
100
AcDbLine
 10
1700.462862593815
 20
1009.929286156211
 30
0.0
 11
1700.462862593815
 21
865.8317300566695
 31
0.0
  0
LINE
  5
35D8
330
34A3
100
AcDbEntity
  8
実形
 62
     0
370
    15
100
AcDbLine
 10
1502.162862593815
 20
865.8317300566695
 30
0.0
 11
1700.462862593815
 21
865.8317300566695
 31
0.0
  0
INSERT
  5
35D9
330
34A3
100
AcDbEntity
  8
実形
 62
     0
370
    15
100
AcDbBlockReference
  2
_DotSmall
 10
1502.162862593815
 20
865.8317300566695
 30
0.0
 41
30.0
 42
30.0
 43
30.0
 50
180.0
  0
INSERT
  5
35DA
330
34A3
100
AcDbEntity
  8
実形
 62
     0
370
    15
100
AcDbBlockReference
  2
_DotSmall
 10
1700.462862593815
 20
865.8317300566695
 30
0.0
 41
30.0
 42
30.0
 43
30.0
  0
MTEXT
  5
35DB
330
34A3
100
AcDbEntity
  8
実形
 62
     0
100
AcDbMText
 10
1601.312862593815
 20
884.5817300566695
 30
0.0
 40
25.0
 41
0.0
 71
     5
 72
     1
  1
198.3
 73
     1
 44
1.0
1001
ACAD
1000
MTEXTBEGIN
1070
    73
1070
     1
1070
    44
1040
1.0
1070
    74
1070
     0
1000
MTEXTEND
  0
POINT
  5
35DC
330
34A3
100
AcDbEntity
  8
Defpoints
 62
     0
100
AcDbPoint
 10
1502.162862593815
 20
1074.92928615621
 30
0.0
  0
POINT
  5
35DD
330
34A3
100
AcDbEntity
  8
Defpoints
 62
     0
100
AcDbPoint
 10
1700.462862593815
 20
1074.92928615621
 30
0.0
  0
POINT
  5
35DE
330
34A3
100
AcDbEntity
  8
Defpoints
 62
     0
100
AcDbPoint
 10
1700.462862593815
 20
865.8317300566695
 30
0.0
  0
ENDBLK
  5
34AE
330
34A3
100
AcDbEntity
  8
0
 62
     3
100
AcDbBlockEnd
  0
BLOCK
  5
34BB
330
34AF
100
AcDbEntity
  8
0
 62
     3
100
AcDbBlockBegin
  2
*D71
 70
     1
 10
0.0
 20
0.0
 30
0.0
  3
*D71
  1

  0
LINE
  5
35F8
330
34AF
100
AcDbEntity
  8
実形
 62
     0
370
    15
100
AcDbLine
 10
1700.462862593815
 20
1074.92928615621
 30
0.0
 11
1700.462862593815
 21
993.8511117272364
 31
0.0
  0
LINE
  5
35F9
330
34AF
100
AcDbEntity
  8
実形
 62
     0
370
    15
100
AcDbLine
 10
1710.462862593815
 20
1074.92928615621
 30
0.0
 11
1710.462862593815
 21
993.8511117272364
 31
0.0
  0
LINE
  5
35FA
330
34AF
100
AcDbEntity
  8
実形
 62
     0
370
    15
100
AcDbLine
 10
1700.462862593815
 20
993.8511117272364
 30
0.0
 11
1670.462862593815
 21
993.8511117272364
 31
0.0
  0
LINE
  5
35FB
330
34AF
100
AcDbEntity
  8
実形
 62
     0
370
    15
100
AcDbLine
 10
1710.462862593815
 20
993.8511117272364
 30
0.0
 11
1740.462862593815
 21
993.8511117272364
 31
0.0
  0
MTEXT
  5
35FC
330
34AF
100
AcDbEntity
  8
実形
 62
     0
100
AcDbMText
 10
1728.405600665579
 20
1015.129594801229
 30
0.0
 40
25.0
 41
0.0
 71
     5
 72
     1
  1
7
 73
     1
 44
1.0
1001
ACAD
1000
MTEXTBEGIN
1070
    73
1070
     1
1070
    44
1040
1.0
1070
    74
1070
     0
1000
MTEXTEND
  0
LINE
  5
35FD
330
34AF
100
AcDbEntity
  8
実形
 62
     0
370
    15
100
AcDbLine
 10
1700.462862593815
 20
993.8511117272364
 30
0.0
 11
1710.462862593815
 21
993.8511117272364
 31
0.0
  0
INSERT
  5
35FE
330
34AF
100
AcDbEntity
  8
実形
 62
     0
370
    15
100
AcDbBlockReference
  2
_DotSmall
 10
1700.462862593815
 20
993.8511117272364
 30
0.0
 41
30.0
 42
30.0
 43
30.0
  0
INSERT
  5
35FF
330
34AF
100
AcDbEntity
  8
実形
 62
     0
370
    15
100
AcDbBlockReference
  2
_DotSmall
 10
1710.462862593815
 20
993.8511117272364
 30
0.0
 41
30.0
 42
30.0
 43
30.0
 50
180.0
  0
POINT
  5
3600
330
34AF
100
AcDbEntity
  8
Defpoints
 62
     0
100
AcDbPoint
 10
1700.462862593815
 20
1139.929286156211
 30
0.0
  0
POINT
  5
3601
330
34AF
100
AcDbEntity
  8
Defpoints
 62
     0
100
AcDbPoint
 10
1710.462862593815
 20
1139.929286156211
 30
0.0
  0
POINT
  5
3602
330
34AF
100
AcDbEntity
  8
Defpoints
 62
     0
100
AcDbPoint
 10
1710.462862593815
 20
993.8511117272364
 30
0.0
  0
ENDBLK
  5
34BC
330
34AF
100
AcDbEntity
  8
0
 62
     3
100
AcDbBlockEnd
  0
BLOCK
  5
356A
330
3560
100
AcDbEntity
  8
0
 62
     3
100
AcDbBlockBegin
  2
*D72
 70
     1
 10
0.0
 20
0.0
 30
0.0
  3
*D72
  1

  0
LINE
  5
3623
330
3560
100
AcDbEntity
  8
実形
 62
     0
370
    15
100
AcDbLine
 10
1502.162862593816
 20
1707.703346214882
 30
0.0
 11
1502.162862593816
 21
1742.039156248796
 31
0.0
  0
LINE
  5
3624
330
3560
100
AcDbEntity
  8
実形
 62
     0
370
    15
100
AcDbLine
 10
1520.162862593816
 20
1707.703346214882
 30
0.0
 11
1520.162862593816
 21
1742.039156248796
 31
0.0
  0
LINE
  5
3625
330
3560
100
AcDbEntity
  8
実形
 62
     0
370
    15
100
AcDbLine
 10
1502.162862593816
 20
1742.039156248796
 30
0.0
 11
1520.162862593816
 21
1742.039156248796
 31
0.0
  0
MTEXT
  5
3626
330
3560
100
AcDbEntity
  8
実形
 62
     0
100
AcDbMText
 10
1473.14241642953
 20
1763.342717527662
 30
0.0
 40
25.0
 41
0.0
 71
     5
 72
     1
  1
18
 73
     1
 44
1.0
1001
ACAD
1000
MTEXTBEGIN
1070
    73
1070
     1
1070
    44
1040
1.0
1070
    74
1070
     0
1000
MTEXTEND
  0
INSERT
  5
3627
330
3560
100
AcDbEntity
  8
実形
 62
     0
370
    15
100
AcDbBlockReference
  2
_DotSmall
 10
1502.162862593816
 20
1742.039156248796
 30
0.0
 41
30.0
 42
30.0
 43
30.0
 50
180.0
  0
INSERT
  5
3628
330
3560
100
AcDbEntity
  8
実形
 62
     0
370
    15
100
AcDbBlockReference
  2
_DotSmall
 10
1520.162862593816
 20
1742.039156248796
 30
0.0
 41
30.0
 42
30.0
 43
30.0
  0
POINT
  5
3629
330
3560
100
AcDbEntity
  8
Defpoints
 62
     0
100
AcDbPoint
 10
1502.162862593816
 20
1642.703346214882
 30
0.0
  0
POINT
  5
362A
330
3560
100
AcDbEntity
  8
Defpoints
 62
     0
100
AcDbPoint
 10
1520.162862593816
 20
1642.703346214882
 30
0.0
  0
POINT
  5
362B
330
3560
100
AcDbEntity
  8
Defpoints
 62
     0
100
AcDbPoint
 10
1520.162862593816
 20
1742.039156248796
 30
0.0
  0
ENDBLK
  5
356B
330
3560
100
AcDbEntity
  8
0
 62
     3
100
AcDbBlockEnd
  0
BLOCK
  5
357B
330
356C
100
AcDbEntity
  8
0
 62
     3
100
AcDbBlockBegin
  2
*D73
 70
     1
 10
0.0
 20
0.0
 30
0.0
  3
*D73
  1

  0
LINE
  5
3615
330
356C
100
AcDbEntity
  8
実形
 62
     0
370
    15
100
AcDbLine
 10
1520.162862593816
 20
1707.703346214882
 30
0.0
 11
1520.162862593816
 21
1742.039156248796
 31
0.0
  0
LINE
  5
3616
330
356C
100
AcDbEntity
  8
実形
 62
     0
370
    15
100
AcDbLine
 10
1525.462862593816
 20
1707.703346214882
 30
0.0
 11
1525.462862593816
 21
1742.039156248796
 31
0.0
  0
LINE
  5
3617
330
356C
100
AcDbEntity
  8
実形
 62
     0
370
    15
100
AcDbLine
 10
1520.162862593816
 20
1742.039156248796
 30
0.0
 11
1490.162862593816
 21
1742.039156248796
 31
0.0
  0
LINE
  5
3618
330
356C
100
AcDbEntity
  8
実形
 62
     0
370
    15
100
AcDbLine
 10
1525.462862593816
 20
1742.039156248796
 30
0.0
 11
1555.462862593816
 21
1742.039156248796
 31
0.0
  0
LINE
  5
3619
330
356C
100
AcDbEntity
  8
実形
 62
     0
370
    15
100
AcDbLine
 10
1522.812862593816
 20
1742.039156248796
 30
0.0
 11
1482.376232704867
 21
1802.466577812191
 31
0.0
  0
LINE
  5
361A
330
356C
100
AcDbEntity
  8
実形
 62
     0
370
    15
100
AcDbLine
 10
1482.376232704867
 20
1802.466577812191
 30
0.0
 11
1425.876232704867
 21
1802.466577812191
 31
0.0
  0
MTEXT
  5
361B
330
356C
100
AcDbEntity
  8
実形
 62
     0
100
AcDbMText
 10
1454.126232704867
 20
1819.716577812192
 30
0.0
 40
22.0
 41
0.0
 71
     5
 72
     1
  1
5.3
 73
     1
 44
1.0
1001
ACAD
1000
MTEXTBEGIN
1070
    73
1070
     1
1070
    44
1040
1.0
1070
    74
1070
     0
1000
MTEXTEND
  0
LINE
  5
361C
330
356C
100
AcDbEntity
  8
実形
 62
     0
370
    15
100
AcDbLine
 10
1520.162862593816
 20
1742.039156248796
 30
0.0
 11
1525.462862593816
 21
1742.039156248796
 31
0.0
  0
LINE
  5
361D
330
356C
100
AcDbEntity
  8
実形
 62
     0
370
    15
100
AcDbLine
 10
1520.162862593816
 20
1742.039156248796
 30
0.0
 11
1525.462862593816
 21
1742.039156248796
 31
0.0
  0
INSERT
  5
361E
330
356C
100
AcDbEntity
  8
実形
 62
     0
370
    15
100
AcDbBlockReference
  2
_DotSmall
 10
1520.162862593816
 20
1742.039156248796
 30
0.0
 41
30.0
 42
30.0
 43
30.0
  0
INSERT
  5
361F
330
356C
100
AcDbEntity
  8
実形
 62
     0
370
    15
100
AcDbBlockReference
  2
_DotSmall
 10
1525.462862593816
 20
1742.039156248796
 30
0.0
 41
30.0
 42
30.0
 43
30.0
 50
180.0
  0
POINT
  5
3620
330
356C
100
AcDbEntity
  8
Defpoints
 62
     0
100
AcDbPoint
 10
1520.162862593816
 20
1642.703346214882
 30
0.0
  0
POINT
  5
3621
330
356C
100
AcDbEntity
  8
Defpoints
 62
     0
100
AcDbPoint
 10
1525.462862593816
 20
1642.703346214882
 30
0.0
  0
POINT
  5
3622
330
356C
100
AcDbEntity
  8
Defpoints
 62
     0
100
AcDbPoint
 10
1525.462862593816
 20
1742.039156248796
 30
0.0
  0
ENDBLK
  5
357C
330
356C
100
AcDbEntity
  8
0
 62
     3
100
AcDbBlockEnd
  0
BLOCK
  5
3587
330
357D
100
AcDbEntity
  8
0
 62
     3
100
AcDbBlockBegin
  2
*D74
 70
     1
 10
0.0
 20
0.0
 30
0.0
  3
*D74
  1

  0
LINE
  5
3635
330
357D
100
AcDbEntity
  8
実形
 62
     0
370
    15
100
AcDbLine
 10
1525.462862593816
 20
1707.703346214882
 30
0.0
 11
1525.462862593816
 21
1742.039156248796
 31
0.0
  0
LINE
  5
3636
330
357D
100
AcDbEntity
  8
実形
 62
     0
370
    15
100
AcDbLine
 10
1624.462862593816
 20
1707.703346214882
 30
0.0
 11
1624.462862593816
 21
1742.039156248796
 31
0.0
  0
LINE
  5
3637
330
357D
100
AcDbEntity
  8
実形
 62
     0
370
    15
100
AcDbLine
 10
1525.462862593816
 20
1742.039156248796
 30
0.0
 11
1624.462862593816
 21
1742.039156248796
 31
0.0
  0
INSERT
  5
3638
330
357D
100
AcDbEntity
  8
実形
 62
     0
370
    15
100
AcDbBlockReference
  2
_DotSmall
 10
1525.462862593816
 20
1742.039156248796
 30
0.0
 41
30.0
 42
30.0
 43
30.0
 50
180.0
  0
INSERT
  5
3639
330
357D
100
AcDbEntity
  8
実形
 62
     0
370
    15
100
AcDbBlockReference
  2
_DotSmall
 10
1624.462862593816
 20
1742.039156248796
 30
0.0
 41
30.0
 42
30.0
 43
30.0
  0
MTEXT
  5
363A
330
357D
100
AcDbEntity
  8
実形
 62
     0
100
AcDbMText
 10
1574.962862593816
 20
1760.789156248796
 30
0.0
 40
25.0
 41
0.0
 71
     5
 72
     1
  1
99
 73
     1
 44
1.0
1001
ACAD
1000
MTEXTBEGIN
1070
    73
1070
     1
1070
    44
1040
1.0
1070
    74
1070
     0
1000
MTEXTEND
  0
POINT
  5
363B
330
357D
100
AcDbEntity
  8
Defpoints
 62
     0
100
AcDbPoint
 10
1525.462862593816
 20
1642.703346214882
 30
0.0
  0
POINT
  5
363C
330
357D
100
AcDbEntity
  8
Defpoints
 62
     0
100
AcDbPoint
 10
1624.462862593816
 20
1642.703346214882
 30
0.0
  0
POINT
  5
363D
330
357D
100
AcDbEntity
  8
Defpoints
 62
     0
100
AcDbPoint
 10
1624.462862593816
 20
1742.039156248796
 30
0.0
  0
ENDBLK
  5
3588
330
357D
100
AcDbEntity
  8
0
 62
     3
100
AcDbBlockEnd
  0
BLOCK
  5
3593
330
3589
100
AcDbEntity
  8
0
 62
     3
100
AcDbBlockBegin
  2
*D75
 70
     1
 10
0.0
 20
0.0
 30
0.0
  3
*D75
  1

  0
LINE
  5
360C
330
3589
100
AcDbEntity
  8
実形
 62
     0
370
    15
100
AcDbLine
 10
1502.162862593816
 20
1707.703346214882
 30
0.0
 11
1502.162862593816
 21
1804.312639258175
 31
0.0
  0
LINE
  5
360D
330
3589
100
AcDbEntity
  8
実形
 62
     0
370
    15
100
AcDbLine
 10
1624.462862593816
 20
1707.703346214882
 30
0.0
 11
1624.462862593816
 21
1804.312639258175
 31
0.0
  0
LINE
  5
360E
330
3589
100
AcDbEntity
  8
実形
 62
     0
370
    15
100
AcDbLine
 10
1502.162862593816
 20
1804.312639258175
 30
0.0
 11
1624.462862593816
 21
1804.312639258175
 31
0.0
  0
INSERT
  5
360F
330
3589
100
AcDbEntity
  8
実形
 62
     0
370
    15
100
AcDbBlockReference
  2
_DotSmall
 10
1502.162862593816
 20
1804.312639258175
 30
0.0
 41
30.0
 42
30.0
 43
30.0
 50
180.0
  0
INSERT
  5
3610
330
3589
100
AcDbEntity
  8
実形
 62
     0
370
    15
100
AcDbBlockReference
  2
_DotSmall
 10
1624.462862593816
 20
1804.312639258175
 30
0.0
 41
30.0
 42
30.0
 43
30.0
  0
MTEXT
  5
3611
330
3589
100
AcDbEntity
  8
実形
 62
     0
100
AcDbMText
 10
1563.312862593815
 20
1823.062639258175
 30
0.0
 40
25.0
 41
0.0
 71
     5
 72
     1
  1
122.3
 73
     1
 44
1.0
1001
ACAD
1000
MTEXTBEGIN
1070
    73
1070
     1
1070
    44
1040
1.0
1070
    74
1070
     0
1000
MTEXTEND
  0
POINT
  5
3612
330
3589
100
AcDbEntity
  8
Defpoints
 62
     0
100
AcDbPoint
 10
1502.162862593816
 20
1642.703346214882
 30
0.0
  0
POINT
  5
3613
330
3589
100
AcDbEntity
  8
Defpoints
 62
     0
100
AcDbPoint
 10
1624.462862593816
 20
1642.703346214882
 30
0.0
  0
POINT
  5
3614
330
3589
100
AcDbEntity
  8
Defpoints
 62
     0
100
AcDbPoint
 10
1624.462862593816
 20
1804.312639258175
 30
0.0
  0
ENDBLK
  5
3594
330
3589
100
AcDbEntity
  8
0
 62
     3
100
AcDbBlockEnd
  0
BLOCK
  5
359F
330
3595
100
AcDbEntity
  8
0
 62
     3
100
AcDbBlockBegin
  2
*D76
 70
     1
 10
0.0
 20
0.0
 30
0.0
  3
*D76
  1

  0
LINE
  5
362C
330
3595
100
AcDbEntity
  8
実形
 62
     0
370
    15
100
AcDbLine
 10
1624.462862593816
 20
1700.767093328853
 30
0.0
 11
1624.462862593816
 21
1742.039156248796
 31
0.0
  0
LINE
  5
362D
330
3595
100
AcDbEntity
  8
実形
 62
     0
370
    15
100
AcDbLine
 10
1644.462862593815
 20
1700.767093328853
 30
0.0
 11
1644.462862593815
 21
1742.039156248796
 31
0.0
  0
LINE
  5
362E
330
3595
100
AcDbEntity
  8
実形
 62
     0
370
    15
100
AcDbLine
 10
1624.462862593816
 20
1742.039156248796
 30
0.0
 11
1644.462862593815
 21
1742.039156248796
 31
0.0
  0
MTEXT
  5
362F
330
3595
100
AcDbEntity
  8
実形
 62
     0
100
AcDbMText
 10
1654.876056726854
 20
1765.57205406232
 30
0.0
 40
25.0
 41
0.0
 71
     5
 72
     1
  1
20
 73
     1
 44
1.0
1001
ACAD
1000
MTEXTBEGIN
1070
    73
1070
     1
1070
    44
1040
1.0
1070
    74
1070
     0
1000
MTEXTEND
  0
INSERT
  5
3630
330
3595
100
AcDbEntity
  8
実形
 62
     0
370
    15
100
AcDbBlockReference
  2
_DotSmall
 10
1624.462862593816
 20
1742.039156248796
 30
0.0
 41
30.0
 42
30.0
 43
30.0
 50
180.0
  0
INSERT
  5
3631
330
3595
100
AcDbEntity
  8
実形
 62
     0
370
    15
100
AcDbBlockReference
  2
_DotSmall
 10
1644.462862593815
 20
1742.039156248796
 30
0.0
 41
30.0
 42
30.0
 43
30.0
  0
POINT
  5
3632
330
3595
100
AcDbEntity
  8
Defpoints
 62
     0
100
AcDbPoint
 10
1624.462862593816
 20
1635.767093328853
 30
0.0
  0
POINT
  5
3633
330
3595
100
AcDbEntity
  8
Defpoints
 62
     0
100
AcDbPoint
 10
1644.462862593815
 20
1635.767093328853
 30
0.0
  0
POINT
  5
3634
330
3595
100
AcDbEntity
  8
Defpoints
 62
     0
100
AcDbPoint
 10
1644.462862593815
 20
1742.039156248796
 30
0.0
  0
ENDBLK
  5
35A0
330
3595
100
AcDbEntity
  8
0
 62
     3
100
AcDbBlockEnd
  0
ENDSEC
  0
SECTION
  2
ENTITIES
  0
LINE
  5
9C
330
1F
100
AcDbEntity
  8
補助
100
AcDbLine
 10
104.0
 20
4.0
 30
0.0
 11
2784.0
 21
4.0
 31
0.0
  0
LINE
  5
A0
330
1F
100
AcDbEntity
  8
補助
100
AcDbLine
 10
2784.0
 20
2024.0
 30
0.0
 11
104.0
 21
2024.0
 31
0.0
  0
LINE
  5
A5
330
1F
100
AcDbEntity
  8
補助
100
AcDbLine
 10
2784.0
 20
4.0
 30
0.0
 11
2784.0
 21
2024.0
 31
0.0
  0
LINE
  5
A8
330
1F
100
AcDbEntity
  8
補助
100
AcDbLine
 10
2184.0
 20
69.0
 30
0.0
 11
2184.0
 21
199.0
 31
0.0
  0
LINE
  5
A9
330
1F
100
AcDbEntity
  8
補助
100
AcDbLine
 10
2184.0
 20
69.0
 30
0.0
 11
2784.0
 21
69.0
 31
0.0
  0
LINE
  5
AA
330
1F
100
AcDbEntity
  8
補助
100
AcDbLine
 10
2064.0
 20
134.0
 30
0.0
 11
2784.0
 21
134.0
 31
0.0
  0
LINE
  5
AB
330
1F
100
AcDbEntity
  8
補助
100
AcDbLine
 10
2064.0
 20
199.0
 30
0.0
 11
2784.0
 21
199.0
 31
0.0
  0
LINE
  5
AD
330
1F
100
AcDbEntity
  8
補助
100
AcDbLine
 10
2784.0
 20
4.0
 30
0.0
 11
2784.0
 21
69.0
 31
0.0
  0
LINE
  5
25F
330
1F
100
AcDbEntity
  8
0
100
AcDbLine
 10
1051.005716632864
 20
1134.559599470271
 30
0.0
 11
631.0057166328642
 21
1134.559599470271
 31
0.0
  0
LINE
  5
260
330
1F
100
AcDbEntity
  8
0
100
AcDbLine
 10
516.0057166328642
 20
1264.559599470272
 30
0.0
 11
516.005716632864
 21
1594.559599470272
 31
0.0
  0
LINE
  5
261
330
1F
100
AcDbEntity
  8
0
100
AcDbLine
 10
576.005716632864
 20
1654.559599470272
 30
0.0
 11
1106.005716632864
 21
1654.559599470272
 31
0.0
  0
LINE
  5
262
330
1F
100
AcDbEntity
  8
0
100
AcDbLine
 10
1166.005716632864
 20
1594.559599470272
 30
0.0
 11
1166.005716632864
 21
1264.559599470272
 31
0.0
  0
LINE
  5
267
330
1F
100
AcDbEntity
  8
0
100
AcDbLine
 10
631.005716632864
 20
1579.559599470272
 30
0.0
 11
726.0057166328643
 21
1579.559599470272
 31
0.0
  0
LINE
  5
26B
330
1F
100
AcDbEntity
  8
0
100
AcDbLine
 10
1051.005716632864
 20
1149.559599470271
 30
0.0
 11
631.0057166328642
 21
1149.559599470271
 31
0.0
  0
DIMENSION
  5
2E9
330
1F
100
AcDbEntity
  8
0
100
AcDbDimension
  2
*D4
 10
1166.005716632864
 20
1000.651827675555
 30
0.0
 11
1113.089049966197
 21
1019.401827675555
 31
0.0
 70
    32
 71
     5
 42
17.0
  3
ISO-25
100
AcDbAlignedDimension
 13
1183.005716632864
 23
1117.559599470271
 33
0.0
 14
1166.005716632864
 24
1117.559599470271
 34
0.0
 50
180.0
100
AcDbRotatedDimension
  0
DIMENSION
  5
2F7
330
1F
100
AcDbEntity
  8
0
100
AcDbDimension
  2
*D5
 10
516.0057166328642
 20
1000.651827675555
 30
0.0
 11
841.0057166328643
 21
1019.401827675555
 31
0.0
 70
    32
 71
     5
 42
650.0
  3
ISO-25
100
AcDbAlignedDimension
 13
1166.005716632864
 23
1117.559599470271
 33
0.0
 14
516.0057166328642
 24
1117.559599470271
 34
0.0
 50
180.0
100
AcDbRotatedDimension
1001
ACAD
1000
DSTYLE
1002
{
1070
   279
1070
     1
1002
}
  0
DIMENSION
  5
304
330
1F
100
AcDbEntity
  8
0
100
AcDbDimension
  2
*D6
 10
499.0057166328642
 20
1000.651827675555
 30
0.0
 11
559.4639322173207
 21
1000.651827675555
 31
0.0
 70
   160
 71
     5
 42
17.0
  3
ISO-25
100
AcDbAlignedDimension
 13
516.0057166328642
 23
1117.559599470271
 33
0.0
 14
499.0057166328642
 24
1117.559599470271
 34
0.0
 50
180.0
100
AcDbRotatedDimension
1001
ACAD
1000
DSTYLE
1002
{
1070
   279
1070
     1
1002
}
  0
DIMENSION
  5
31C
330
1F
100
AcDbEntity
  8
0
100
AcDbDimension
  2
*D7
 10
499.0057166328642
 20
930.2930557203481
 30
0.0
 11
841.0057166328643
 21
949.0430557203481
 31
0.0
 70
    32
 71
     5
 42
684.0
  3
ISO-25
100
AcDbAlignedDimension
 13
1183.005716632864
 23
1117.559599470271
 33
0.0
 14
499.0057166328642
 24
1117.559599470271
 34
0.0
 50
180.0
100
AcDbRotatedDimension
  0
ARC
  5
32A
330
1F
100
AcDbEntity
  8
0
100
AcDbCircle
 10
1051.005716632864
 20
1264.559599470272
 30
0.0
 40
115.0
100
AcDbArc
 50
270.0
 51
0.000000000000007
  0
ARC
  5
32B
330
1F
100
AcDbEntity
  8
0
100
AcDbCircle
 10
631.0057166328642
 20
1264.559599470272
 30
0.0
 40
115.0
100
AcDbArc
 50
180.0
 51
270.0
  0
LINE
  5
32C
330
1F
100
AcDbEntity
  8
0
100
AcDbLine
 10
1166.005716632864
 20
1464.559599470272
 30
0.0
 11
1166.005716632864
 21
1249.559599470271
 31
0.0
  0
LINE
  5
32D
330
1F
100
AcDbEntity
  8
0
100
AcDbLine
 10
516.0057166328642
 20
1249.559599470271
 30
0.0
 11
516.005716632864
 21
1464.559599470272
 31
0.0
  0
ARC
  5
32E
330
1F
100
AcDbEntity
  8
0
100
AcDbCircle
 10
1051.005716632864
 20
1249.559599470271
 30
0.0
 40
115.0
100
AcDbArc
 50
270.0
 51
0.000000000000007
  0
ARC
  5
32F
330
1F
100
AcDbEntity
  8
0
100
AcDbCircle
 10
631.0057166328642
 20
1249.559599470271
 30
0.0
 40
115.0
100
AcDbArc
 50
180.0
 51
270.0
  0
CIRCLE
  5
334
330
1F
100
AcDbEntity
  8
0
100
AcDbCircle
 10
916.0057166328643
 20
1484.559599470272
 30
0.0
 40
79.5
  0
CIRCLE
  5
335
330
1F
100
AcDbEntity
  8
0
100
AcDbCircle
 10
916.0057166328643
 20
1484.559599470272
 30
0.0
 40
90.5
  0
ARC
  5
339
330
1F
100
AcDbEntity
  8
0
100
AcDbCircle
 10
631.005716632864
 20
1464.559599470272
 30
0.0
 40
115.0
100
AcDbArc
 50
90.0
 51
180.0
  0
ARC
  5
33C
330
1F
100
AcDbEntity
  8
0
100
AcDbCircle
 10
726.0057166328643
 20
1679.559599470272
 30
0.0
 40
100.0
100
AcDbArc
 50
270.0
 51
327.1335352609136
  0
ARC
  5
340
330
1F
100
AcDbEntity
  8
0
100
AcDbCircle
 10
863.7554897724232
 20
1590.559599470271
 30
0.0
 40
64.0
100
AcDbArc
 50
90.0
 51
147.1335352609138
  0
ARC
  5
370
330
1F
100
AcDbEntity
  8
0
100
AcDbCircle
 10
1106.005716632864
 20
1594.559599470272
 30
0.0
 40
60.0
100
AcDbArc
 50
0.000000000000007
 51
90.0
  0
ARC
  5
371
330
1F
100
AcDbEntity
  8
0
100
AcDbCircle
 10
576.005716632864
 20
1594.559599470272
 30
0.0
 40
60.0
100
AcDbArc
 50
90.00000000000003
 51
180.0
  0
DIMENSION
  5
376
330
1F
100
AcDbEntity
  8
0
100
AcDbDimension
  2
*D8
 10
1166.005716632864
 20
1287.022521528057
 30
0.0
 11
1041.005716632864
 21
1305.772521528057
 31
0.0
 70
    32
 71
     5
 42
250.0
  3
ISO-25
100
AcDbAlignedDimension
 13
916.0057166328643
 23
1446.302511279493
 33
0.0
 14
1166.005716632864
 24
1464.559599470272
 34
0.0
 50
180.0
100
AcDbRotatedDimension
  0
DIMENSION
  5
384
330
1F
100
AcDbEntity
  8
0
100
AcDbDimension
  2
*D9
 10
755.5982143584258
 20
1654.559599470272
 30
0.0
 11
755.5982143584255
 21
1538.109993721399
 31
0.0
 70
   160
 71
     5
 42
170.0000000000002
  3
ISO-25
100
AcDbAlignedDimension
 13
854.445432877179
 23
1484.559599470272
 33
0.0
 14
1106.005716632864
 24
1654.559599470272
 34
0.0
 50
90.0
100
AcDbRotatedDimension
  0
LINE
  5
39A
330
1F
100
AcDbEntity
  8
Cen
 48
0.8
100
AcDbLine
 10
781.8981549537856
 20
1484.559599470272
 30
0.0
 11
1050.113278311943
 21
1484.559599470272
 31
0.0
  0
LINE
  5
39B
330
1F
100
AcDbEntity
  8
Cen
 48
0.8
100
AcDbLine
 10
916.0057166328643
 20
1371.082198559778
 30
0.0
 11
916.0057166328643
 21
1598.037000380765
 31
0.0
  0
DIMENSION
  5
3B2
330
1F
100
AcDbEntity
  8
0
100
AcDbDimension
  2
*D10
 10
851.0057166328643
 20
1766.677555917434
 30
0.0
 11
916.0057166328643
 21
1785.427555917434
 31
0.0
 70
    32
 71
     5
 42
130.0
  3
ISO-25
100
AcDbAlignedDimension
 13
981.0057166328643
 23
1671.559599470272
 33
0.0
 14
851.0057166328643
 24
1671.559599470272
 34
0.0
 50
180.0
100
AcDbRotatedDimension
  0
DIMENSION
  5
3BF
330
1F
100
AcDbEntity
  8
0
100
AcDbDimension
  2
*D11
 10
786.0057166328642
 20
1821.177447232791
 30
0.0
 11
916.0057166328643
 21
1839.927447232792
 31
0.0
 70
    32
 71
     5
 42
260.0
  3
ISO-25
100
AcDbAlignedDimension
 13
1046.005716632864
 23
1736.559599470272
 33
0.0
 14
786.0057166328642
 24
1736.559599470272
 34
0.0
 50
180.0
100
AcDbRotatedDimension
  0
LINE
  5
3DD
330
1F
100
AcDbEntity
  8
Cen
100
AcDbLine
 10
786.0057166328642
 20
1801.559599470271
 30
0.0
 11
786.0057166328642
 21
1607.559599470272
 31
0.0
  0
LINE
  5
3DE
330
1F
100
AcDbEntity
  8
Cen
100
AcDbLine
 10
1046.005716632864
 20
1801.559599470271
 30
0.0
 11
1046.005716632864
 21
1607.559599470272
 31
0.0
  0
CIRCLE
  5
3DF
330
1F
100
AcDbEntity
  8
Cen
100
AcDbCircle
 10
786.0057166328642
 20
1639.559599470272
 30
0.0
 40
6.0
  0
CIRCLE
  5
3E0
330
1F
100
AcDbEntity
  8
Cen
100
AcDbCircle
 10
1046.005716632864
 20
1639.559599470272
 30
0.0
 40
6.0
  0
LINE
  5
3E3
330
1F
100
AcDbEntity
  8
Cen
100
AcDbLine
 10
981.005716632864
 20
1766.677555917434
 30
0.0
 11
981.0057166328643
 21
1639.559599470272
 31
0.0
  0
LINE
  5
3E4
330
1F
100
AcDbEntity
  8
Cen
100
AcDbLine
 10
851.0057166328641
 20
1766.677555917434
 30
0.0
 11
851.0057166328643
 21
1639.559599470272
 31
0.0
  0
LINE
  5
40A
330
1F
100
AcDbEntity
  8
0
100
AcDbLine
 10
1166.005716632864
 20
809.2938827107383
 30
0.0
 11
1166.005716632864
 21
668.0402325085919
 31
0.0
  0
LINE
  5
40B
330
1F
100
AcDbEntity
  8
0
100
AcDbLine
 10
516.0057166328645
 20
809.2938827107381
 30
0.0
 11
516.0057166328645
 21
677.1865299348946
 31
0.0
  0
LINE
  5
40D
330
1F
100
AcDbEntity
  8
0
100
AcDbLine
 10
1166.005716632864
 20
803.9938827107381
 30
0.0
 11
981.0057166328643
 21
803.9938827107381
 31
0.0
  0
LINE
  5
413
330
1F
100
AcDbEntity
  8
0
100
AcDbLine
 10
1006.505716632864
 20
621.9938827107382
 30
0.0
 11
996.5057166328644
 21
621.9938827107382
 31
0.0
  0
LINE
  5
414
330
1F
100
AcDbEntity
  8
0
100
AcDbLine
 10
1006.505716632864
 20
628.9938827107381
 30
0.0
 11
1006.505716632864
 21
621.993882710738
 31
0.0
  0
LINE
  5
415
330
1F
100
AcDbEntity
  8
0
100
AcDbLine
 10
825.5057166328642
 20
628.993882710738
 30
0.0
 11
825.5057166328642
 21
621.993882710738
 31
0.0
  0
LINE
  5
419
330
1F
100
AcDbEntity
  8
0
100
AcDbLine
 10
1136.97451640786
 20
638.0558794724504
 30
0.0
 11
1026.505716632864
 21
630.9938827107382
 31
0.0
  0
LINE
  5
41A
330
1F
100
AcDbEntity
  8
0
100
AcDbLine
 10
544.1440267184113
 20
647.2443504774401
 30
0.0
 11
663.0001598719852
 21
639.854331835767
 31
0.0
  0
LINE
  5
41E
330
1F
100
AcDbEntity
  8
0
100
AcDbLine
 10
1006.505716632864
 20
628.9938827107381
 30
0.0
 11
825.5057166328642
 21
628.993882710738
 31
0.0
  0
ARC
  5
471
330
1F
100
AcDbEntity
  8
0
100
AcDbCircle
 10
1136.005716632864
 20
668.0402325085919
 30
0.0
 40
30.0
100
AcDbArc
 50
271.8505930230076
 51
360.0
  0
DIMENSION
  5
473
330
1F
100
AcDbEntity
  8
0
100
AcDbDimension
  2
*D12
 10
995.5057166328645
 20
500.5994080127229
 30
0.0
 11
916.0057166328643
 21
519.3494080127229
 31
0.0
 70
    32
  1
158
 71
     5
 42
159.0000000000002
  3
ISO-25
100
AcDbAlignedDimension
 13
836.5057166328643
 23
621.993882710738
 33
0.0
 14
995.5057166328645
 24
621.9938827107382
 34
0.0
 50
180.0
100
AcDbRotatedDimension
  0
DIMENSION
  5
480
330
1F
100
AcDbEntity
  8
0
100
AcDbDimension
  2
*D13
 10
1006.505716632864
 20
731.1469072487097
 30
0.0
 11
916.0057166328643
 21
749.8969072487097
 31
0.0
 70
    32
 71
     5
 42
181.0
  3
ISO-25
100
AcDbAlignedDimension
 13
825.5057166328642
 23
628.993882710738
 33
0.0
 14
1006.505716632864
 24
628.9938827107381
 34
0.0
 50
180.0
100
AcDbRotatedDimension
  0
LINE
  5
48E
330
1F
100
AcDbEntity
  8
Cen
100
AcDbLine
 10
916.0057166328643
 20
712.2994746659733
 30
0.0
 11
916.0057166328643
 21
597.7393407656136
 31
0.0
  0
LEADER
  5
50F
330
1F
100
AcDbEntity
  8
0
100
AcDbLeader
  3
ISO-25
 40
25.0
 41
41.66666666666666
 76
     2
 10
1053.517064412522
 20
1645.505840210941
 30
0.0
 10
1077.850093054877
 20
1730.915614591573
 30
0.0
211
-1.0
221
0.0
231
0.0
210
0.0
220
0.0
230
-1.0
213
0.0
223
12.5
233
0.0
1001
ACAD
1000
DSTYLE
1002
{
1070
    41
1040
25.0
1070
   147
1040
6.25
1070
    77
1070
     0
1070
    73
1070
     1
1070
    74
1070
     1
1070
   342
1005
DA
1002
}
  0
TEXT
  5
511
330
1F
100
AcDbEntity
  8
0
100
AcDbText
 10
1078.790615210643
 20
1743.524540847358
 30
0.0
 40
25.0
  1
12%%C
 72
     2
 11
1137.123948543976
 21
1740.191207514025
 31
0.0
100
AcDbText
 73
     1
  0
MTEXT
  5
532
330
1F
100
AcDbEntity
  8
0
100
AcDbMText
 10
1469.226616777811
 20
1181.110374981098
 30
0.0
 40
25.0
 41
0.0
 71
     9
 72
     1
  1

 73
     1
 44
1.0
1001
ACAD
1000
MTEXTBEGIN
1070
    73
1070
     1
1070
    44
1040
1.0
1070
    74
1070
     0
1000
MTEXTEND
  0
LEADER
  5
53D
330
1F
100
AcDbEntity
  8
0
100
AcDbLeader
  3
ISO-25
 40
25.0
 41
16.66666666666666
 76
     2
 10
927.4824459190176
 20
1159.017621334399
 30
0.0
 10
901.7064158220982
 20
1205.852188287837
 30
0.0
211
-1.0
221
0.0
231
0.0
210
0.0
220
0.0
230
-1.0
213
0.0
223
-12.5
233
0.0
1001
ACAD
1000
DSTYLE
1002
{
1070
    41
1040
25.0
1070
   147
1040
6.25
1070
    77
1070
     0
1070
    73
1070
     1
1070
    74
1070
     1
1070
   279
1070
     1
1070
   342
1005
DA
1002
}
  0
TEXT
  5
53F
330
1F
100
AcDbEntity
  8
0
100
AcDbText
 10
807.3143811882319
 20
1220.477539197819
 30
0.0
 40
25.0
  1
10000R
 11
807.3143811882319
 21
1217.144205864486
 31
0.0
100
AcDbText
 73
     1
  0
LEADER
  5
540
330
1F
100
AcDbEntity
  8
0
100
AcDbLeader
  3
ISO-25
 76
     2
 10
516.9345591393821
 20
1339.948684102694
 30
0.0
 10
613.1064066175504
 20
1339.948684102694
 30
0.0
211
-1.0
221
0.0
231
0.0
210
0.0
220
0.0
230
-1.0
1001
ACAD
1000
DSTYLE
1002
{
1070
    41
1040
25.0
1070
   147
1040
6.25
1070
    77
1070
     0
1070
    73
1070
     1
1070
    74
1070
     1
1070
   279
1070
     1
1070
   342
1005
DA
1002
}
  0
TEXT
  5
54B
330
1F
100
AcDbEntity
  8
0
100
AcDbText
 10
628.9779082397608
 20
1327.448684102694
 30
0.0
 40
25.0
  1
1500R
 72
     2
 11
728.9779082397608
 21
1339.948684102694
 31
0.0
100
AcDbText
 73
     2
  0
LEADER
  5
54C
330
1F
100
AcDbEntity
  8
0
100
AcDbLeader
  3
ISO-25
 40
25.0
 41
16.66666666666666
 76
     2
 10
568.4769003541914
 20
1160.683123635916
 30
0.0
 10
620.0653000981874
 20
1199.035812149558
 30
0.0
211
-1.0
221
0.0
231
0.0
210
0.0
220
0.0
230
-1.0
213
0.0
223
12.5
233
0.0
1001
ACAD
1000
DSTYLE
1002
{
1070
    41
1040
25.0
1070
   147
1040
6.25
1070
    77
1070
     0
1070
    73
1070
     1
1070
    74
1070
     1
1070
   279
1070
     1
1070
   342
1005
DA
1002
}
  0
TEXT
  5
54E
330
1F
100
AcDbEntity
  8
0
100
AcDbText
 10
579.1260853396273
 20
1539.933966669209
 30
0.0
 40
25.0
  1
59R
 72
     2
 11
645.792752006294
 21
1536.600633335875
 31
0.0
100
AcDbText
 73
     1
  0
LEADER
  5
558
330
1F
100
AcDbEntity
  8
0
100
AcDbLeader
  3
ISO-25
 40
25.0
 41
16.66666666666666
 76
     2
 10
998.9152984718112
 20
1639.893523892961
 30
0.0
 10
943.9833590525331
 20
1616.86643926071
 30
0.0
211
-1.0
221
0.0
231
0.0
210
0.0
220
0.0
230
-1.0
213
0.0
223
-12.5
233
0.0
1001
ACAD
1000
DSTYLE
1002
{
1070
    41
1040
25.0
1070
   147
1040
6.25
1070
    77
1070
     0
1070
    73
1070
     1
1070
    74
1070
     1
1070
   279
1070
     1
1070
   342
1005
DA
1002
}
  0
TEXT
  5
55A
330
1F
100
AcDbEntity
  8
0
100
AcDbText
 10
864.1676921049011
 20
1609.347953865133
 30
0.0
 40
25.0
  1
64R
 11
864.1676921049011
 21
1606.014620531799
 31
0.0
100
AcDbText
 73
     1
  0
MTEXT
  5
55C
330
1F
100
AcDbEntity
  8
0
100
AcDbMText
 10
1010.02660136874
 20
1423.470120422065
 30
0.0
 40
25.0
 41
0.0
 71
     1
 72
     1
  1

 73
     1
 44
1.0
1001
ACAD
1000
MTEXTBEGIN
1070
    73
1070
     1
1070
    44
1040
1.0
1070
    74
1070
     0
1000
MTEXTEND
  0
LEADER
  5
55D
330
1F
100
AcDbEntity
  8
0
100
AcDbLeader
  3
ISO-25
 40
25.0
 41
16.66666666666666
 76
     2
 10
684.9534166701914
 20
1573.503514886112
 30
0.0
 10
653.3191951309627
 20
1457.587968025644
 30
0.0
211
-1.0
221
0.0
231
0.0
210
0.0
220
0.0
230
-1.0
213
0.0
223
-12.5
233
0.0
1001
ACAD
1000
DSTYLE
1002
{
1070
    41
1040
25.0
1070
   147
1040
6.25
1070
    77
1070
     0
1070
    73
1070
     1
1070
    74
1070
     1
1070
   279
1070
     1
1070
   342
1005
DA
1002
}
  0
TEXT
  5
55F
330
1F
100
AcDbEntity
  8
0
100
AcDbText
 10
590.866714587014
 20
1418.291721962237
 30
0.0
 40
25.0
  1
10000R
 11
590.866714587014
 21
1443.291721962237
 31
0.0
100
AcDbText
 73
     3
  0
LEADER
  5
560
330
1F
100
AcDbEntity
  8
0
100
AcDbLeader
  3
ISO-25
 40
25.0
 41
16.66666666666666
 76
     2
 10
1120.065588931897
 20
1559.502851758362
 30
0.0
 10
1081.297494147283
 20
1527.540296500793
 30
0.0
211
-1.0
221
0.0
231
0.0
210
0.0
220
0.0
230
-1.0
213
0.0
223
-12.5
233
0.0
1001
ACAD
1000
DSTYLE
1002
{
1070
    41
1040
25.0
1070
   147
1040
6.25
1070
    77
1070
     0
1070
    73
1070
     1
1070
    74
1070
     1
1070
   279
1070
     1
1070
   342
1005
DA
1002
}
  0
TEXT
  5
562
330
1F
100
AcDbEntity
  8
0
100
AcDbText
 10
1032.534450678339
 20
1492.73338018693
 30
0.0
 40
25.0
  1
100R
 11
1032.534450678339
 21
1517.73338018693
 31
0.0
100
AcDbText
 73
     3
  0
LEADER
  5
563
330
1F
100
AcDbEntity
  8
0
100
AcDbLeader
  3
ISO-25
 40
33.33333333333333
 41
16.66666666666667
 76
     2
 10
530.4630228063551
 20
1624.108711411829
 30
0.0
 10
574.5022689489733
 20
1550.7651417084
 30
0.0
213
0.0
223
-12.5
233
0.0
1001
ACAD
1000
DSTYLE
1002
{
1070
   147
1040
6.25
1070
    77
1070
     0
1070
    73
1070
     1
1070
    74
1070
     1
1070
   279
1070
     1
1070
   342
1005
DA
1002
}
  0
TEXT
  5
565
330
1F
100
AcDbEntity
  8
0
100
AcDbText
 10
641.6674153693711
 20
1200.578314718361
 30
0.0
 40
25.0
  1
114R
 11
641.6674153693711
 21
1225.578314718361
 31
0.0
100
AcDbText
 73
     3
  0
LEADER
  5
566
330
1F
100
AcDbEntity
  8
0
100
AcDbLeader
  3
ISO-25
 40
25.0
 41
16.66666666666666
 76
     2
 10
1051.252221071996
 20
1587.591158606403
 30
0.0
 10
1052.221419230936
 20
1526.571737925795
 30
0.0
211
-1.0
221
0.0
231
0.0
210
0.0
220
0.0
230
-1.0
213
0.0
223
12.5
233
0.0
1001
ACAD
1000
DSTYLE
1002
{
1070
    41
1040
25.0
1070
   147
1040
6.25
1070
    77
1070
     0
1070
    73
1070
     1
1070
    74
1070
     1
1070
   279
1070
     1
1070
   342
1005
DA
1002
}
  0
LINE
  5
56A
330
1F
100
AcDbEntity
  8
補助
100
AcDbLine
 10
2784.0
 20
134.0
 30
0.0
 11
2784.0
 21
199.0
 31
0.0
  0
DIMENSION
  5
586
330
1F
100
AcDbEntity
  8
0
100
AcDbDimension
  2
*D14
 10
1018.233156061224
 20
1654.559599470272
 30
0.0
 11
1015.990069636515
 21
1695.017457954343
 31
0.0
 70
   160
 71
     5
 42
15.00000000000023
  3
ISO-25
100
AcDbAlignedDimension
 13
1094.260652656766
 23
1639.559599470272
 33
0.0
 14
1111.005716632864
 24
1654.559599470272
 34
0.0
 50
90.0
100
AcDbRotatedDimension
1001
ACAD
1000
DSTYLE
1002
{
1070
   279
1070
     2
1002
}
  0
LINE
  5
59F
330
1F
100
AcDbEntity
  8
Cen
100
AcDbLine
 10
1065.013867016763
 20
1639.559599470272
 30
0.0
 11
1030.493145502531
 21
1639.559599470272
 31
0.0
  0
LINE
  5
5A0
330
1F
100
AcDbEntity
  8
Cen
100
AcDbLine
 10
801.793379014809
 20
1639.559599470272
 30
0.0
 11
768.8908190564161
 21
1639.559599470272
 31
0.0
  0
MTEXT
  5
5A9
330
1F
100
AcDbEntity
  8
Cen
100
AcDbMText
 10
1527.939315450184
 20
552.4831097022406
 30
0.0
 40
25.0
 41
0.0
 71
     9
 72
     1
  1

 73
     1
 44
1.0
1001
ACAD
1000
MTEXTBEGIN
1070
    73
1070
     1
1070
    44
1040
1.0
1070
    74
1070
     0
1000
MTEXTEND
  0
LEADER
  5
5AA
330
1F
100
AcDbEntity
  8
Cen
100
AcDbLeader
  3
ISO-25
 40
25.0
 41
16.66666666666666
 76
     2
 10
524.5414253266298
 20
665.3312680231197
 30
0.0
 10
553.4178376286582
 20
715.1757660705802
 30
0.0
211
-1.0
221
0.0
231
0.0
210
0.0
220
0.0
230
-1.0
213
0.0
223
12.5
233
0.0
1001
ACAD
1000
DSTYLE
1002
{
1070
    41
1040
25.0
1070
   147
1040
6.25
1070
    77
1070
     0
1070
   279
1070
     1
1002
}
  0
TEXT
  5
5AD
330
1F
100
AcDbEntity
  8
0
100
AcDbText
 10
551.653739360785
 20
723.0459529432396
 30
0.0
 40
25.0
  1
30R
100
AcDbText
  0
LINE
  5
5D0
330
1F
100
AcDbEntity
  8
補助
100
AcDbLine
 10
2784.0
 20
69.0
 30
0.0
 11
2784.0
 21
134.0
 31
0.0
  0
TEXT
  5
5D2
330
1F
100
AcDbEntity
  8
0
100
AcDbText
 10
2430.916666666667
 20
84.0
 30
0.0
 40
35.0
  1
1：10
 72
     4
 11
2484.0
 21
101.5
 31
0.0
100
AcDbText
  0
TEXT
  5
5D8
330
1F
100
AcDbEntity
  8
0
100
AcDbText
 10
231.1659029702105
 20
53.51169987015055
 30
0.0
 40
30.0
  1
※実寸には製造上の誤差が多少生ずる場合があります。シンクの穴あけ加工は現物合わせにてお願いします。
100
AcDbText
  0
TEXT
  5
5F4
330
1F
100
AcDbEntity
  8
補助
100
AcDbText
 10
2300.255774665348
 20
16.49999999999999
 30
0.0
 40
40.0
  1
中外交易株式会社
 72
     4
 11
2488.255774665347
 21
36.5
 31
0.0
100
AcDbText
  0
LINE
  5
5F5
330
1F
100
AcDbEntity
  8
補助
100
AcDbLine
 10
2064.0
 20
69.0
 30
0.0
 11
2784.0
 21
69.0
 31
0.0
  0
HATCH
  5
5F6
330
1F
100
AcDbEntity
  8
補助
100
AcDbHatch
 10
0.0
 20
0.0
 30
0.0
210
0.0
220
0.0
230
1.0
  2
SOLID
 70
     1
 71
     1
 91
        3
 92
        1
 93
        4
 72
     2
 10
2257.166198313996
 20
36.5
 40
20.0
 50
11.6477236670766
 51
342.6561058784691
 73
     1
 72
     1
 10
2276.256852341323
 20
30.53787547858514
 11
2252.166198313995
 21
30.53787547858519
 72
     1
 10
2252.166198313995
 20
30.53787547858519
 11
2252.166198313995
 21
40.53787547858519
 72
     1
 10
2252.166198313995
 20
40.53787547858519
 11
2276.75434681301
 21
40.53787547858519
 97
        4
330
5F7
330
5F9
330
5FA
330
5FB
 92
        1
 93
        4
 72
     2
 10
2188.255774665348
 20
36.5
 40
20.0
 50
11.6477236670766
 51
342.6561058784691
 73
     1
 72
     1
 10
2207.346428692676
 20
30.53787547858514
 11
2183.255774665347
 21
30.53787547858519
 72
     1
 10
2183.255774665347
 20
30.53787547858519
 11
2183.255774665347
 21
40.53787547858519
 72
     1
 10
2183.255774665347
 20
40.53787547858519
 11
2207.843923164362
 21
40.53787547858519
 97
        4
330
5F8
330
601
330
602
330
603
 92
        1
 93
        5
 72
     1
 10
2245.64189404294
 20
56.5
 11
2210.641894042939
 21
56.5
 72
     1
 10
2210.641894042939
 20
56.5
 11
2210.641894042939
 21
16.5
 72
     1
 10
2210.641894042939
 20
16.5
 11
2245.64189404294
 21
16.5
 72
     1
 10
2245.64189404294
 20
16.5
 11
2210.641894042939
 21
36.5
 72
     1
 10
2210.641894042939
 20
36.5
 11
2245.64189404294
 21
56.5
 97
        5
330
5FC
330
600
330
5FF
330
5FE
330
5FD
 75
     0
 76
     1
 98
        1
 10
-60.0
 20
0.0
  0
ARC
  5
5F7
102
{ACAD_REACTORS
330
5F6
102
}
330
1F
100
AcDbEntity
  8
補助
370
     5
100
AcDbCircle
 10
2257.166198313996
 20
36.5
 30
0.0
 40
20.0
100
AcDbArc
 50
11.6477236670766
 51
342.6561058784691
  0
ARC
  5
5F8
102
{ACAD_REACTORS
330
5F6
102
}
330
1F
100
AcDbEntity
  8
補助
370
     5
100
AcDbCircle
 10
2188.255774665348
 20
36.5
 30
0.0
 40
20.0
100
AcDbArc
 50
11.6477236670766
 51
342.6561058784691
  0
LINE
  5
5F9
102
{ACAD_REACTORS
330
5F6
102
}
330
1F
100
AcDbEntity
  8
補助
370
     5
100
AcDbLine
 10
2252.166198313995
 20
30.53787547858519
 30
0.0
 11
2276.256852341323
 21
30.53787547858514
 31
0.0
  0
LINE
  5
5FA
102
{ACAD_REACTORS
330
5F6
102
}
330
1F
100
AcDbEntity
  8
補助
370
     5
100
AcDbLine
 10
2252.166198313995
 20
40.53787547858519
 30
0.0
 11
2252.166198313995
 21
30.53787547858519
 31
0.0
  0
LINE
  5
5FB
102
{ACAD_REACTORS
330
5F6
102
}
330
1F
100
AcDbEntity
  8
補助
370
     5
100
AcDbLine
 10
2276.75434681301
 20
40.53787547858519
 30
0.0
 11
2252.166198313995
 21
40.53787547858519
 31
0.0
  0
LINE
  5
5FC
102
{ACAD_REACTORS
330
5F6
102
}
330
1F
100
AcDbEntity
  8
補助
370
     5
100
AcDbLine
 10
2245.64189404294
 20
56.5
 30
0.0
 11
2210.641894042939
 21
56.5
 31
0.0
  0
LINE
  5
5FD
102
{ACAD_REACTORS
330
5F6
102
}
330
1F
100
AcDbEntity
  8
補助
370
     5
100
AcDbLine
 10
2210.641894042939
 20
36.5
 30
0.0
 11
2245.64189404294
 21
56.5
 31
0.0
  0
LINE
  5
5FE
102
{ACAD_REACTORS
330
5F6
102
}
330
1F
100
AcDbEntity
  8
補助
370
     5
100
AcDbLine
 10
2245.64189404294
 20
16.5
 30
0.0
 11
2210.641894042939
 21
36.5
 31
0.0
  0
LINE
  5
5FF
102
{ACAD_REACTORS
330
5F6
102
}
330
1F
100
AcDbEntity
  8
補助
370
     5
100
AcDbLine
 10
2210.641894042939
 20
16.5
 30
0.0
 11
2245.64189404294
 21
16.5
 31
0.0
  0
LINE
  5
600
102
{ACAD_REACTORS
330
5F6
102
}
330
1F
100
AcDbEntity
  8
補助
370
     5
100
AcDbLine
 10
2210.641894042939
 20
56.5
 30
0.0
 11
2210.641894042939
 21
16.5
 31
0.0
  0
LINE
  5
601
102
{ACAD_REACTORS
330
5F6
102
}
330
1F
100
AcDbEntity
  8
補助
370
     5
100
AcDbLine
 10
2183.255774665347
 20
30.53787547858519
 30
0.0
 11
2207.346428692676
 21
30.53787547858514
 31
0.0
  0
LINE
  5
602
102
{ACAD_REACTORS
330
5F6
102
}
330
1F
100
AcDbEntity
  8
補助
370
     5
100
AcDbLine
 10
2183.255774665347
 20
40.53787547858519
 30
0.0
 11
2183.255774665347
 21
30.53787547858519
 31
0.0
  0
LINE
  5
603
102
{ACAD_REACTORS
330
5F6
102
}
330
1F
100
AcDbEntity
  8
補助
370
     5
100
AcDbLine
 10
2207.843923164362
 20
40.53787547858519
 30
0.0
 11
2183.255774665347
 21
40.53787547858519
 31
0.0
  0
LINE
  5
A29
330
1F
100
AcDbEntity
  8
補助
100
AcDbLine
 10
2064.0
 20
4.0
 30
0.0
 11
2064.0
 21
199.0
 31
0.0
  0
TEXT
  5
A2C
330
1F
100
AcDbEntity
  8
補助
100
AcDbText
 10
2086.666666666667
 20
149.0
 30
0.0
 40
35.0
  1
品番
 72
     4
 11
2124.0
 21
166.5
 31
0.0
100
AcDbText
  0
TEXT
  5
A2D
330
1F
100
AcDbEntity
  8
補助
100
AcDbText
 10
2086.666666666667
 20
84.0
 30
0.0
 40
35.0
  1
尺度
 72
     4
 11
2124.0
 21
101.5
 31
0.0
100
AcDbText
  0
CIRCLE
  5
C9F
330
1F
100
AcDbEntity
  8
0
370
    13
100
AcDbCircle
 10
916.0057166328643
 20
1484.559599470272
 30
0.0
 40
110.5
  0
LINE
  5
CB5
330
1F
100
AcDbEntity
  8
実形
370
    13
100
AcDbLine
 10
833.10932650303
 20
1386.664790374505
 30
0.0
 11
585.4415261889825
 21
1529.655861555423
 31
0.0
  0
ARC
  5
DCC
330
1F
100
AcDbEntity
  8
0
100
AcDbCircle
 10
968.2559434933052
 20
1590.559599470271
 30
0.0
 40
64.0
100
AcDbArc
 50
32.86646473908621
 51
90.0
  0
ARC
  5
DCD
330
1F
100
AcDbEntity
  8
0
100
AcDbCircle
 10
1106.005716632864
 20
1679.559599470272
 30
0.0
 40
100.0
100
AcDbArc
 50
212.8664647390864
 51
258.4630409671845
  0
ARC
  5
DCF
330
1F
100
AcDbEntity
  8
0
100
AcDbCircle
 10
1066.005716632864
 20
1483.600420047618
 30
0.0
 40
100.0
100
AcDbArc
 50
0.000000000000007
 51
78.46304096718451
  0
LINE
  5
DD0
330
1F
100
AcDbEntity
  8
実形
370
    13
100
AcDbLine
 10
1142.569705129946
 20
1470.069632497677
 30
0.0
 11
998.1082809753527
 21
1386.664790374505
 31
0.0
  0
ARC
  5
DD1
330
1F
100
AcDbEntity
  8
実形
370
    13
100
AcDbCircle
 10
915.6088037391914
 20
1529.558076545408
 30
0.0
 40
164.9989544723223
100
AcDbArc
 50
239.9999999999999
 51
300.0
  0
ARC
  5
DE6
330
1F
100
AcDbEntity
  8
実形
370
    13
100
AcDbCircle
 10
915.6088037391914
 20
1529.558076545408
 30
0.0
 40
160.2489544723223
100
AcDbArc
 50
239.9999999999999
 51
300.0
  0
LINE
  5
DE7
330
1F
100
AcDbEntity
  8
実形
370
    13
100
AcDbLine
 10
835.4843265030302
 20
1390.778411042481
 30
0.0
 11
585.4415261889825
 21
1529.655861555423
 31
0.0
  0
LINE
  5
DE8
330
1F
100
AcDbEntity
  8
実形
370
    13
100
AcDbLine
 10
1142.569705129946
 20
1470.069632497677
 30
0.0
 11
995.7332809753527
 21
1390.778411042481
 31
0.0
  0
LINE
  5
E77
330
1F
100
AcDbEntity
  8
0
100
AcDbLine
 10
851.0057166328643
 20
803.9938827107381
 30
0.0
 11
516.0057166328647
 21
803.9938827107381
 31
0.0
  0
LINE
  5
E7F
330
1F
100
AcDbEntity
  8
実形
100
AcDbLine
 10
825.5057166328642
 20
628.993882710738
 30
0.0
 11
805.5057166328642
 21
630.9938827107382
 31
0.0
  0
LINE
  5
E80
330
1F
100
AcDbEntity
  8
実形
100
AcDbLine
 10
1026.505716632864
 20
630.9938827107382
 30
0.0
 11
1006.505716632864
 21
628.993882710738
 31
0.0
  0
DIMENSION
  5
E81
330
1F
100
AcDbEntity
  8
実形
100
AcDbDimension
  2
*D15
 10
805.5057166328642
 20
731.1469072487097
 30
0.0
 11
815.9553422533736
 21
735.6565962188901
 31
0.0
 70
   160
 71
     5
 42
20.0
  3
ISO-25
100
AcDbAlignedDimension
 13
825.5057166328642
 23
628.993882710738
 33
0.0
 14
805.5057166328642
 24
628.9938827107382
 34
0.0
 50
180.0
100
AcDbRotatedDimension
1001
ACAD
1000
DSTYLE
1002
{
1070
   279
1070
     1
1002
}
  0
DIMENSION
  5
E8E
330
1F
100
AcDbEntity
  8
実形
100
AcDbDimension
  2
*D16
 10
1026.505716632864
 20
731.1469072487097
 30
0.0
 11
1017.345436288032
 21
736.3079159635621
 31
0.0
 70
   160
 71
     5
 42
20.0
  3
ISO-25
100
AcDbAlignedDimension
 13
1006.505716632864
 23
628.9938827107381
 33
0.0
 14
1026.505716632864
 24
628.9938827107382
 34
0.0
 50
180.0
100
AcDbRotatedDimension
1001
ACAD
1000
DSTYLE
1002
{
1070
   279
1070
     1
1002
}
  0
LEADER
  5
EAD
330
1F
100
AcDbEntity
  8
Cen
100
AcDbLeader
  3
ISO-25
 40
25.0
 41
16.66666666666666
 76
     2
 10
1087.269274324588
 20
639.92630351891
 30
0.0
 10
1109.952976041622
 20
699.1972919165519
 30
0.0
211
-1.0
221
0.0
231
0.0
210
0.0
220
0.0
230
-1.0
213
0.0
223
12.5
233
0.0
1001
ACAD
1000
DSTYLE
1002
{
1070
    41
1040
25.0
1070
   147
1040
6.25
1070
    77
1070
     0
1070
   279
1070
     1
1002
}
  0
TEXT
  5
EAE
330
1F
100
AcDbEntity
  8
0
100
AcDbText
 10
1044.482263188772
 20
708.4866691999086
 30
0.0
 40
25.0
  1
4500R
100
AcDbText
  0
LINE
  5
EB1
330
1F
100
AcDbEntity
  8
実形
100
AcDbLine
 10
805.5057166328627
 20
630.9938827107385
 30
0.0
 11
665.8539544149489
 21
635.942610812377
 31
0.0
  0
LINE
  5
EB2
330
1F
100
AcDbEntity
  8
実形
100
AcDbLine
 10
664.4070753762625
 20
637.4416699050978
 30
0.0
 11
664.4070753762625
 21
638.3572228628943
 31
0.0
  0
ARC
  5
EB6
330
1F
100
AcDbEntity
  8
実形
100
AcDbCircle
 10
662.9070753762626
 20
638.3572228628943
 30
0.0
 40
1.5
100
AcDbArc
 50
0.000000000000007
 51
86.44214813388188
  0
ARC
  5
EB7
330
1F
100
AcDbEntity
  8
実形
100
AcDbCircle
 10
665.9070753762626
 20
637.4416699050978
 30
0.0
 40
1.5
100
AcDbArc
 50
180.0
 51
267.9705043760164
  0
ARC
  5
EB8
330
1F
100
AcDbEntity
  8
0
100
AcDbCircle
 10
546.0057166328645
 20
677.1865299348946
 30
0.0
 40
30.0
100
AcDbArc
 50
180.0000000000001
 51
266.4421481338818
  0
TEXT
  5
EB9
330
1F
100
AcDbEntity
  8
0
100
AcDbText
 10
641.3655525335889
 20
715.1757660705802
 30
0.0
 40
25.0
  1
4500R
100
AcDbText
  0
LEADER
  5
EBA
330
1F
100
AcDbEntity
  8
Cen
100
AcDbLeader
  3
ISO-25
 40
25.0
 41
16.66666666666666
 76
     2
 10
719.7513030514128
 20
637.3029078946906
 30
0.0
 10
708.3004147911051
 20
702.05879265266
 30
0.0
211
-1.0
221
0.0
231
0.0
210
0.0
220
0.0
230
-1.0
213
0.0
223
12.5
233
0.0
1001
ACAD
1000
DSTYLE
1002
{
1070
    41
1040
25.0
1070
   147
1040
6.25
1070
    77
1070
     0
1070
   279
1070
     1
1002
}
  0
LEADER
  5
EBB
330
1F
100
AcDbEntity
  8
Cen
100
AcDbLeader
  3
ISO-25
 40
25.0
 41
16.66666666666666
 76
     2
 10
616.0587291672964
 20
647.7964856883905
 30
0.0
 10
667.6109195093122
 20
700.7470948405503
 30
0.0
211
-1.0
221
0.0
231
0.0
210
0.0
220
0.0
230
-1.0
213
0.0
223
12.5
233
0.0
1001
ACAD
1000
DSTYLE
1002
{
1070
    41
1040
25.0
1070
   147
1040
6.25
1070
    77
1070
     0
1070
   279
1070
     1
1002
}
  0
LINE
  5
EFC
330
1F
100
AcDbEntity
  8
0
100
AcDbLine
 10
994.5057166328645
 20
621.9938827107382
 30
0.0
 11
837.5057166328641
 21
621.993882710738
 31
0.0
  0
LINE
  5
F02
330
1F
100
AcDbEntity
  8
0
100
AcDbLine
 10
835.5057166328643
 20
621.993882710738
 30
0.0
 11
825.5057166328642
 21
621.993882710738
 31
0.0
  0
DIMENSION
  5
13DC
330
1F
100
AcDbEntity
  8
0
100
AcDbDimension
  2
*D17
 10
169.6861422435216
 20
1671.559599470272
 30
0.0
 11
150.9361422435214
 21
1394.559599470271
 31
0.0
 70
    32
 71
     5
 42
554.0
  3
ISO-25
100
AcDbAlignedDimension
 13
499.0057166328645
 23
1117.559599470271
 33
0.0
 14
499.0057166328645
 24
1671.559599470272
 34
0.0
 50
90.0
100
AcDbRotatedDimension
  0
DIMENSION
  5
13DD
330
1F
100
AcDbEntity
  8
0
100
AcDbDimension
  2
*D18
 10
239.1561422435216
 20
1671.559599470272
 30
0.0
 11
227.6760820417987
 21
1645.216621517677
 31
0.0
 70
   160
 71
     5
 42
17.0
  3
ISO-25
100
AcDbAlignedDimension
 13
499.0057166328646
 23
1654.559599470271
 33
0.0
 14
499.0057166328645
 24
1671.559599470272
 34
0.0
 50
90.0
100
AcDbRotatedDimension
1001
ACAD
1000
DSTYLE
1002
{
1070
   279
1070
     1
1002
}
  0
DIMENSION
  5
13DE
330
1F
100
AcDbEntity
  8
0
100
AcDbDimension
  2
*D19
 10
239.1561422435216
 20
1654.559599470271
 30
0.0
 11
220.4061422435213
 21
1394.559599470271
 31
0.0
 70
    32
 71
     5
 42
520.0
  3
ISO-25
100
AcDbAlignedDimension
 13
499.0057166328645
 23
1134.559599470271
 33
0.0
 14
499.0057166328646
 24
1654.559599470271
 34
0.0
 50
90.0
100
AcDbRotatedDimension
1001
ACAD
1000
DSTYLE
1002
{
1070
   279
1070
     1
1002
}
  0
DIMENSION
  5
13DF
330
1F
100
AcDbEntity
  8
0
100
AcDbDimension
  2
*D20
 10
239.1561422435217
 20
1134.559599470271
 30
0.0
 11
212.4970609864133
 21
1143.122886550999
 31
0.0
 70
   160
 71
     5
 42
17.0
  3
ISO-25
100
AcDbAlignedDimension
 13
499.0057166328645
 23
1117.559599470271
 33
0.0
 14
499.0057166328645
 24
1134.559599470271
 34
0.0
 50
90.0
100
AcDbRotatedDimension
1001
ACAD
1000
DSTYLE
1002
{
1070
   279
1070
     2
1002
}
  0
DIMENSION
  5
13E0
330
1F
100
AcDbEntity
  8
0
100
AcDbDimension
  2
*D21
 10
308.6261422435216
 20
1579.559599470272
 30
0.0
 11
289.8761422435213
 21
1364.559599470271
 31
0.0
 70
    32
 71
     5
 42
430.0
  3
ISO-25
100
AcDbAlignedDimension
 13
499.0057166328645
 23
1149.559599470271
 33
0.0
 14
499.0057166328646
 24
1579.559599470272
 34
0.0
 50
90.0
100
AcDbRotatedDimension
1001
ACAD
1000
DSTYLE
1002
{
1070
   279
1070
     1
1002
}
  0
DIMENSION
  5
13E1
330
1F
100
AcDbEntity
  8
0
100
AcDbDimension
  2
*D22
 10
308.6261422435216
 20
1654.559599470271
 30
0.0
 11
289.8761422435214
 21
1617.059599470271
 31
0.0
 70
    32
 71
     5
 42
75.0
  3
ISO-25
100
AcDbAlignedDimension
 13
499.0057166328646
 23
1579.559599470272
 33
0.0
 14
499.0057166328646
 24
1654.559599470271
 34
0.0
 50
90.0
100
AcDbRotatedDimension
1001
ACAD
1000
DSTYLE
1002
{
1070
   279
1070
     1
1002
}
  0
DIMENSION
  5
13E2
330
1F
100
AcDbEntity
  8
0
100
AcDbDimension
  2
*D23
 10
308.6261422435216
 20
1149.559599470271
 30
0.0
 11
289.8761422435214
 21
1202.476266136938
 31
0.0
 70
    32
 71
     5
 42
15.0
  3
ISO-25
100
AcDbAlignedDimension
 13
499.0057166328645
 23
1134.559599470271
 33
0.0
 14
499.0057166328645
 24
1149.559599470271
 34
0.0
 50
90.0
100
AcDbRotatedDimension
  0
DIMENSION
  5
13E3
330
1F
100
AcDbEntity
  8
実形
100
AcDbDimension
  2
*D24
 10
378.0961422435216
 20
1364.559599470271
 30
0.0
 11
359.3461422435215
 21
1472.059599470272
 31
0.0
 70
    32
 71
     5
 42
215.0
  3
ISO-25
100
AcDbAlignedDimension
 13
499.0057166328644
 23
1579.559599470272
 33
0.0
 14
499.0057166328645
 24
1364.559599470271
 34
0.0
 50
90.0
100
AcDbRotatedDimension
1001
ACAD
1000
DSTYLE
1002
{
1070
   279
1070
     1
1002
}
  0
ARC
  5
166A
330
1F
100
AcDbEntity
  8
0
100
AcDbCircle
 10
716.505716632864
 20
1620.059599470272
 30
0.0
 40
29.5
100
AcDbArc
 50
270.0
 51
0.000000000000007
  0
ARC
  5
166B
330
1F
100
AcDbEntity
  8
0
100
AcDbCircle
 10
716.505716632864
 20
1620.059599470272
 30
0.0
 40
29.5
100
AcDbArc
 50
0.000000000000007
 51
90.0
  0
LINE
  5
166C
330
1F
100
AcDbEntity
  8
0
100
AcDbLine
 10
746.005716632864
 20
1620.059599470272
 30
0.0
 11
746.005716632864
 21
1620.059599470272
 31
0.0
  0
ARC
  5
166D
330
1F
100
AcDbEntity
  8
0
100
AcDbCircle
 10
585.5057166328638
 20
1620.059599470272
 30
0.0
 40
29.5
100
AcDbArc
 50
90.0
 51
180.0
  0
ARC
  5
166E
330
1F
100
AcDbEntity
  8
0
100
AcDbCircle
 10
585.5057166328635
 20
1620.059599470272
 30
0.0
 40
29.5
100
AcDbArc
 50
180.0
 51
270.0
  0
LINE
  5
166F
330
1F
100
AcDbEntity
  8
0
100
AcDbLine
 10
585.5057166328635
 20
1590.559599470272
 30
0.0
 11
716.505716632864
 21
1590.559599470272
 31
0.0
  0
LINE
  5
1670
330
1F
100
AcDbEntity
  8
0
100
AcDbLine
 10
585.5057166328641
 20
1649.559599470272
 30
0.0
 11
716.505716632864
 21
1649.559599470271
 31
0.0
  0
DIMENSION
  5
1671
330
1F
100
AcDbEntity
  8
実形
100
AcDbDimension
  2
*D25
 10
556.0057166328638
 20
1738.98649140129
 30
0.0
 11
651.0057166328639
 21
1757.73649140129
 31
0.0
 70
    32
 71
     5
 42
190.0000000000002
  3
ISO-25
100
AcDbAlignedDimension
 13
746.005716632864
 23
1649.559599470272
 33
0.0
 14
556.0057166328638
 24
1649.559599470272
 34
0.0
 50
180.0
100
AcDbRotatedDimension
1001
ACAD
1000
DSTYLE
1002
{
1070
   279
1070
     1
1002
}
  0
DIMENSION
  5
1672
330
1F
100
AcDbEntity
  8
実形
100
AcDbDimension
  2
*D26
 10
516.0057166328642
 20
1738.98649140129
 30
0.0
 11
537.5566095119665
 21
1739.761916576206
 31
0.0
 70
   160
 71
     5
 42
39.99999999999955
  3
ISO-25
100
AcDbAlignedDimension
 13
556.0057166328638
 23
1649.559599470272
 33
0.0
 14
516.0057166328642
 24
1649.559599470272
 34
0.0
 50
180.0
100
AcDbRotatedDimension
1001
ACAD
1000
DSTYLE
1002
{
1070
   279
1070
     1
1002
}
  0
DIMENSION
  5
1673
330
1F
100
AcDbEntity
  8
実形
100
AcDbDimension
  2
*D27
 10
404.0353101052145
 20
1590.559599470271
 30
0.0
 11
385.2853101052143
 21
1620.059599470272
 31
0.0
 70
    32
 71
     5
 42
59.00000000000023
  3
ISO-25
100
AcDbAlignedDimension
 13
499.0057166328646
 23
1649.559599470272
 33
0.0
 14
499.0057166328644
 24
1590.559599470271
 34
0.0
 50
90.0
100
AcDbRotatedDimension
1001
ACAD
1000
DSTYLE
1002
{
1070
   279
1070
     1
1002
}
  0
DIMENSION
  5
1674
330
1F
100
AcDbEntity
  8
実形
100
AcDbDimension
  2
*D28
 10
404.0353101052145
 20
1590.559599470271
 30
0.0
 11
455.6953593586358
 21
1652.603737280043
 31
0.0
 70
   160
  1
5
 71
     5
 42
64.00000000000023
  3
ISO-25
100
AcDbAlignedDimension
 13
499.0057166328646
 23
1654.559599470271
 33
0.0
 14
490.1203221027893
 24
1590.559599470271
 34
0.0
 50
90.0
100
AcDbRotatedDimension
1001
ACAD
1000
DSTYLE
1002
{
1070
   279
1070
     2
1002
}
  0
ARC
  5
18B1
330
1F
100
AcDbEntity
  8
実形
370
    15
100
AcDbCircle
 10
651.0057166328639
 20
1620.059599470272
 30
0.0
 40
12.5
100
AcDbArc
 50
282.5558577985861
 51
347.4441422014121
  0
LINE
  5
18B4
330
1F
100
AcDbEntity
  8
実形
370
    15
100
AcDbLine
 10
639.7807444725422
 20
1621.559599470272
 30
0.0
 11
648.5057166328639
 21
1621.559599470272
 31
0.0
  0
LINE
  5
18B5
330
1F
100
AcDbEntity
  8
実形
370
    15
100
AcDbLine
 10
639.7807444725421
 20
1618.559599470272
 30
0.0
 11
648.5057166328639
 21
1618.559599470271
 31
0.0
  0
LINE
  5
18B6
330
1F
100
AcDbEntity
  8
実形
370
    15
100
AcDbLine
 10
652.5057166328639
 20
1631.284571630593
 30
0.0
 11
652.5057166328638
 21
1622.559599470272
 31
0.0
  0
LINE
  5
18B7
330
1F
100
AcDbEntity
  8
実形
370
    15
100
AcDbLine
 10
649.5057166328639
 20
1631.284571630593
 30
0.0
 11
649.5057166328639
 21
1622.559599470272
 31
0.0
  0
LINE
  5
18B8
330
1F
100
AcDbEntity
  8
実形
370
    15
100
AcDbLine
 10
649.5057166328639
 20
1617.559599470272
 30
0.0
 11
649.5057166328639
 21
1608.83462730995
 31
0.0
  0
LINE
  5
18B9
330
1F
100
AcDbEntity
  8
実形
370
    15
100
AcDbLine
 10
653.5057166328638
 20
1621.559599470272
 30
0.0
 11
662.2306887931858
 21
1621.559599470272
 31
0.0
  0
LINE
  5
18BA
330
1F
100
AcDbEntity
  8
実形
370
    15
100
AcDbLine
 10
652.5057166328638
 20
1617.559599470272
 30
0.0
 11
652.5057166328639
 21
1608.83462730995
 31
0.0
  0
LINE
  5
18BB
330
1F
100
AcDbEntity
  8
実形
370
    15
100
AcDbLine
 10
653.5057166328638
 20
1618.559599470272
 30
0.0
 11
662.2306887931856
 21
1618.559599470272
 31
0.0
  0
ARC
  5
18BC
330
1F
100
AcDbEntity
  8
実形
370
    15
100
AcDbCircle
 10
651.0057166328639
 20
1620.059599470272
 30
0.0
 40
12.5
100
AcDbArc
 50
192.5558577985846
 51
257.4441422014139
  0
ARC
  5
18BD
330
1F
100
AcDbEntity
  8
実形
370
    15
100
AcDbCircle
 10
651.0057166328639
 20
1620.059599470272
 30
0.0
 40
12.5
100
AcDbArc
 50
102.555857798586
 51
167.4441422014132
  0
ARC
  5
18BE
330
1F
100
AcDbEntity
  8
実形
370
    15
100
AcDbCircle
 10
651.0057166328639
 20
1620.059599470272
 30
0.0
 40
12.5
100
AcDbArc
 50
12.55585779858354
 51
77.4441422014134
  0
ARC
  5
18BF
330
1F
100
AcDbEntity
  8
実形
370
    15
100
AcDbCircle
 10
653.505716632864
 20
1631.284571630593
 30
0.0
 40
1.0
100
AcDbArc
 50
77.44414220141242
 51
180.0
  0
ARC
  5
18C0
330
1F
100
AcDbEntity
  8
実形
370
    15
100
AcDbCircle
 10
662.2306887931858
 20
1622.559599470271
 30
0.0
 40
1.0
100
AcDbArc
 50
270.0
 51
12.55585779858264
  0
ARC
  5
18C1
330
1F
100
AcDbEntity
  8
実形
370
    15
100
AcDbCircle
 10
662.2306887931856
 20
1617.559599470271
 30
0.0
 40
1.0
100
AcDbArc
 50
347.4441422014174
 51
90.0
  0
ARC
  5
18C2
330
1F
100
AcDbEntity
  8
実形
370
    15
100
AcDbCircle
 10
653.5057166328639
 20
1608.83462730995
 30
0.0
 40
1.0
100
AcDbArc
 50
180.0
 51
282.5558577985876
  0
ARC
  5
18C3
330
1F
100
AcDbEntity
  8
実形
370
    15
100
AcDbCircle
 10
648.5057166328639
 20
1608.83462730995
 30
0.0
 40
1.0
100
AcDbArc
 50
257.4441422014124
 51
0.0
  0
ARC
  5
18C4
330
1F
100
AcDbEntity
  8
実形
370
    15
100
AcDbCircle
 10
639.7807444725421
 20
1617.559599470272
 30
0.0
 40
1.0
100
AcDbArc
 50
90.0
 51
192.5558577985812
  0
ARC
  5
18C5
330
1F
100
AcDbEntity
  8
実形
370
    15
100
AcDbCircle
 10
639.7807444725422
 20
1622.559599470272
 30
0.0
 40
1.0
100
AcDbArc
 50
167.4441422014188
 51
270.0
  0
ARC
  5
18C6
330
1F
100
AcDbEntity
  8
実形
370
    15
100
AcDbCircle
 10
648.5057166328639
 20
1631.284571630593
 30
0.0
 40
1.0
100
AcDbArc
 50
0.0
 51
102.5558577985876
  0
ARC
  5
18C7
330
1F
100
AcDbEntity
  8
実形
370
    15
100
AcDbCircle
 10
648.5057166328639
 20
1617.559599470272
 30
0.0
 40
1.0
100
AcDbArc
 50
0.0
 51
89.99999999999864
  0
ARC
  5
18C8
330
1F
100
AcDbEntity
  8
実形
370
    15
100
AcDbCircle
 10
653.5057166328638
 20
1617.559599470272
 30
0.0
 40
1.0
100
AcDbArc
 50
90.00000000000133
 51
180.0000000000007
  0
ARC
  5
18C9
330
1F
100
AcDbEntity
  8
実形
370
    15
100
AcDbCircle
 10
653.5057166328638
 20
1622.559599470272
 30
0.0
 40
1.0
100
AcDbArc
 50
179.9999999999993
 51
270.0000000000027
  0
ARC
  5
18CA
330
1F
100
AcDbEntity
  8
実形
370
    15
100
AcDbCircle
 10
648.5057166328639
 20
1622.559599470272
 30
0.0
 40
1.0
100
AcDbArc
 50
269.9999999999987
 51
0.0
  0
LINE
  5
18D1
330
1F
100
AcDbEntity
  8
実形
370
    15
100
AcDbLine
 10
566.0057166328639
 20
1620.059599470272
 30
0.0
 11
566.0057166328639
 21
1620.059599470272
 31
0.0
  0
LINE
  5
18D2
330
1F
100
AcDbEntity
  8
実形
370
    15
100
AcDbLine
 10
576.0057166328639
 20
1610.059599470272
 30
0.0
 11
616.0057166328639
 21
1610.059599470272
 31
0.0
  0
LINE
  5
18D3
330
1F
100
AcDbEntity
  8
実形
370
    15
100
AcDbLine
 10
626.0057166328639
 20
1620.059599470272
 30
0.0
 11
626.0057166328639
 21
1620.059599470272
 31
0.0
  0
LINE
  5
18D4
330
1F
100
AcDbEntity
  8
実形
370
    15
100
AcDbLine
 10
616.0057166328639
 20
1630.059599470271
 30
0.0
 11
576.0057166328639
 21
1630.059599470271
 31
0.0
  0
ARC
  5
18D6
330
1F
100
AcDbEntity
  8
実形
370
    15
100
AcDbCircle
 10
616.0057166328639
 20
1620.059599470272
 30
0.0
 40
10.0
100
AcDbArc
 50
0.0
 51
90.0
  0
ARC
  5
18D7
330
1F
100
AcDbEntity
  8
実形
370
    15
100
AcDbCircle
 10
616.0057166328639
 20
1620.059599470272
 30
0.0
 40
10.0
100
AcDbArc
 50
270.0
 51
0.0
  0
ARC
  5
18D8
330
1F
100
AcDbEntity
  8
実形
370
    15
100
AcDbCircle
 10
576.0057166328639
 20
1620.059599470272
 30
0.0
 40
10.0
100
AcDbArc
 50
180.0
 51
270.0
  0
ARC
  5
18D9
330
1F
100
AcDbEntity
  8
実形
370
    15
100
AcDbCircle
 10
576.0057166328639
 20
1620.059599470272
 30
0.0
 40
10.0
100
AcDbArc
 50
90.0
 51
180.0
  0
LINE
  5
18DA
330
1F
100
AcDbEntity
  8
実形
370
    15
100
AcDbLine
 10
576.0057166328639
 20
1615.059599470271
 30
0.0
 11
616.0057166328639
 21
1615.059599470272
 31
0.0
  0
ARC
  5
18DB
330
1F
100
AcDbEntity
  8
実形
370
    15
100
AcDbCircle
 10
576.0057166328639
 20
1620.059599470272
 30
0.0
 40
5.0
100
AcDbArc
 50
180.0
 51
270.0
  0
ARC
  5
18DC
330
1F
100
AcDbEntity
  8
実形
370
    15
100
AcDbCircle
 10
576.0057166328639
 20
1620.059599470272
 30
0.0
 40
5.0
100
AcDbArc
 50
90.0
 51
180.0
  0
LINE
  5
18DD
330
1F
100
AcDbEntity
  8
実形
370
    15
100
AcDbLine
 10
616.0057166328639
 20
1625.059599470272
 30
0.0
 11
576.0057166328639
 21
1625.059599470272
 31
0.0
  0
ARC
  5
18DE
330
1F
100
AcDbEntity
  8
実形
370
    15
100
AcDbCircle
 10
616.0057166328639
 20
1620.059599470272
 30
0.0
 40
5.0
100
AcDbArc
 50
0.0
 51
90.0
  0
ARC
  5
18DF
330
1F
100
AcDbEntity
  8
実形
370
    15
100
AcDbCircle
 10
616.0057166328639
 20
1620.059599470272
 30
0.0
 40
5.0
100
AcDbArc
 50
270.0
 51
0.0
  0
ARC
  5
18E0
330
1F
100
AcDbEntity
  8
実形
370
    15
100
AcDbCircle
 10
686.0057166328641
 20
1620.059599470272
 30
0.0
 40
5.0
100
AcDbArc
 50
180.0
 51
270.0
  0
ARC
  5
18E1
330
1F
100
AcDbEntity
  8
実形
370
    15
100
AcDbCircle
 10
686.0057166328641
 20
1620.059599470272
 30
0.0
 40
5.0
100
AcDbArc
 50
90.0
 51
180.0
  0
LINE
  5
18E2
330
1F
100
AcDbEntity
  8
実形
370
    15
100
AcDbLine
 10
686.0057166328641
 20
1625.059599470272
 30
0.0
 11
726.0057166328642
 21
1625.059599470272
 31
0.0
  0
ARC
  5
18E3
330
1F
100
AcDbEntity
  8
実形
370
    15
100
AcDbCircle
 10
726.0057166328642
 20
1620.059599470272
 30
0.0
 40
5.0
100
AcDbArc
 50
0.000000000000007
 51
90.0
  0
ARC
  5
18E4
330
1F
100
AcDbEntity
  8
実形
370
    15
100
AcDbCircle
 10
726.0057166328642
 20
1620.059599470272
 30
0.0
 40
5.0
100
AcDbArc
 50
270.0
 51
0.000000000000007
  0
LINE
  5
18E5
330
1F
100
AcDbEntity
  8
実形
370
    15
100
AcDbLine
 10
726.0057166328642
 20
1615.059599470271
 30
0.0
 11
686.0057166328641
 21
1615.059599470272
 31
0.0
  0
LINE
  5
18E6
330
1F
100
AcDbEntity
  8
実形
370
    15
100
AcDbLine
 10
686.0057166328641
 20
1630.059599470271
 30
0.0
 11
726.0057166328642
 21
1630.059599470271
 31
0.0
  0
LINE
  5
18E7
330
1F
100
AcDbEntity
  8
実形
370
    15
100
AcDbLine
 10
736.0057166328641
 20
1620.059599470272
 30
0.0
 11
736.0057166328641
 21
1620.059599470272
 31
0.0
  0
ARC
  5
18E8
330
1F
100
AcDbEntity
  8
実形
370
    15
100
AcDbCircle
 10
726.0057166328642
 20
1620.059599470272
 30
0.0
 40
10.0
100
AcDbArc
 50
0.000000000000007
 51
90.0
  0
LINE
  5
18E9
330
1F
100
AcDbEntity
  8
実形
370
    15
100
AcDbLine
 10
726.0057166328642
 20
1610.059599470272
 30
0.0
 11
686.0057166328641
 21
1610.059599470272
 31
0.0
  0
ARC
  5
18EA
330
1F
100
AcDbEntity
  8
実形
370
    15
100
AcDbCircle
 10
726.0057166328642
 20
1620.059599470272
 30
0.0
 40
10.0
100
AcDbArc
 50
270.0
 51
0.000000000000007
  0
LINE
  5
18EB
330
1F
100
AcDbEntity
  8
実形
370
    15
100
AcDbLine
 10
676.0057166328642
 20
1620.059599470272
 30
0.0
 11
676.0057166328642
 21
1620.059599470272
 31
0.0
  0
ARC
  5
18EC
330
1F
100
AcDbEntity
  8
実形
370
    15
100
AcDbCircle
 10
686.0057166328641
 20
1620.059599470272
 30
0.0
 40
10.0
100
AcDbArc
 50
180.0
 51
270.0
  0
ARC
  5
18ED
330
1F
100
AcDbEntity
  8
実形
370
    15
100
AcDbCircle
 10
686.0057166328641
 20
1620.059599470272
 30
0.0
 40
10.0
100
AcDbArc
 50
90.0
 51
180.0
  0
TEXT
  5
1D03
330
1F
100
AcDbEntity
  8
0
100
AcDbText
 10
2212.503109788411
 20
148.826590342889
 30
0.0
 40
35.0
  1
Jstn        S-GRM-POL
  7
ms明朝
 72
     4
 11
2481.303109788411
 21
163.526590342889
 31
0.0
100
AcDbText
  0
TEXT
  5
1D04
330
1F
100
AcDbEntity
  8
0
100
AcDbText
 10
2331.544807177514
 20
148.8558054667019
 30
0.0
 40
35.0
  1
718-588
  7
ms明朝
 72
     4
 11
2421.144807177514
 21
165.9558054667019
 31
0.0
100
AcDbText
  0
LINE
  5
1D69
330
1F
100
AcDbEntity
  8
0
100
AcDbLine
 10
631.0057166328642
 20
1100.559599470271
 30
0.0
 11
1051.005716632864
 21
1100.559599470271
 31
0.0
  0
LINE
  5
1D6A
330
1F
100
AcDbEntity
  8
0
100
AcDbLine
 10
1200.005716632864
 20
1264.559599470272
 30
0.0
 11
1200.005716632864
 21
1594.559599470272
 31
0.0
  0
LINE
  5
1D6B
330
1F
100
AcDbEntity
  8
0
100
AcDbLine
 10
1106.005716632864
 20
1688.559599470272
 30
0.0
 11
576.0057166328643
 21
1688.559599470272
 31
0.0
  0
LINE
  5
1D6C
330
1F
100
AcDbEntity
  8
0
100
AcDbLine
 10
482.0057166328642
 20
1594.559599470272
 30
0.0
 11
482.0057166328642
 21
1264.559599470272
 31
0.0
  0
ARC
  5
1D6D
330
1F
100
AcDbEntity
  8
0
100
AcDbCircle
 10
631.0057166328642
 20
1249.559599470271
 30
0.0
 40
149.0
100
AcDbArc
 50
180.0
 51
270.0
  0
ARC
  5
1D6E
330
1F
100
AcDbEntity
  8
0
100
AcDbCircle
 10
1051.005716632864
 20
1249.559599470271
 30
0.0
 40
149.0
100
AcDbArc
 50
270.0
 51
0.0
  0
ARC
  5
1D6F
330
1F
100
AcDbEntity
  8
0
100
AcDbCircle
 10
576.0057166328643
 20
1594.559599470272
 30
0.0
 40
94.0
100
AcDbArc
 50
90.0
 51
180.0
  0
ARC
  5
1D70
330
1F
100
AcDbEntity
  8
0
100
AcDbCircle
 10
1106.005716632864
 20
1594.559599470272
 30
0.0
 40
94.0
100
AcDbArc
 50
0.0
 51
90.0
  0
TEXT
  5
1D71
330
1F
100
AcDbEntity
  8
0
 62
     0
100
AcDbText
 10
358.4115945652623
 20
1732.626670741498
 30
0.0
 40
25.0
  1
94R
 72
     2
 11
425.0782612319289
 21
1729.293337408165
 31
0.0
100
AcDbText
 73
     1
  0
LEADER
  5
1D72
330
1F
100
AcDbEntity
  8
実形
100
AcDbLeader
  3
ISO-25
 76
     2
 10
494.0188023689498
 20
1659.856032895613
 30
0.0
 10
420.9628434799988
 20
1723.562353757795
 30
0.0
1001
ACAD
1000
DSTYLE
1002
{
1070
   147
1040
6.25
1070
    77
1070
     0
1070
   279
1070
     1
1002
}
  0
TEXT
  5
1D73
330
1F
100
AcDbEntity
  8
0
 62
     0
100
AcDbText
 10
373.3733576075067
 20
1028.727522717945
 30
0.0
 40
25.0
  1
149R
 72
     2
 11
456.7066909408399
 21
1025.394189384612
 31
0.0
100
AcDbText
 73
     1
  0
LEADER
  5
1D74
330
1F
100
AcDbEntity
  8
実形
100
AcDbLeader
  3
ISO-25
 76
     2
 10
520.3846167662277
 20
1137.647741946157
 30
0.0
 10
451.3468372406351
 20
1069.262583658491
 30
0.0
1001
ACAD
1000
DSTYLE
1002
{
1070
   147
1040
6.25
1070
    77
1070
     0
1070
   279
1070
     1
1002
}
  0
DIMENSION
  5
1D75
330
1F
100
AcDbEntity
  8
実形
100
AcDbDimension
  2
*D29
 10
1200.005716632864
 20
1880.493224318022
 30
0.0
 11
841.0057166328643
 21
1899.243224318022
 31
0.0
 70
    32
 71
     5
 42
718.0
  3
ISO-25
100
AcDbAlignedDimension
 13
482.0057166328642
 23
1686.612591106737
 33
0.0
 14
1200.005716632864
 24
1686.612591106739
 34
0.0
100
AcDbRotatedDimension
1001
ACAD
1000
DSTYLE
1002
{
1070
   279
1070
     1
1002
}
  0
DIMENSION
  5
1D76
330
1F
100
AcDbEntity
  8
実形
100
AcDbDimension
  2
*D30
 10
516.0057166328642
 20
1784.077913309369
 30
0.0
 11
517.8246617814665
 21
1799.790575730121
 31
0.0
 70
   160
  1
35
 71
     5
 42
34.0
  3
ISO-25
100
AcDbAlignedDimension
 13
482.0057166328642
 23
1686.612591106737
 33
0.0
 14
516.0057166328642
 24
1686.612591106738
 34
0.0
100
AcDbRotatedDimension
1001
ACAD
1000
DSTYLE
1002
{
1070
   279
1070
     1
1002
}
  0
DIMENSION
  5
1D77
330
1F
100
AcDbEntity
  8
実形
100
AcDbDimension
  2
*D31
 10
1200.005716632864
 20
1784.077913309369
 30
0.0
 11
1159.094477948733
 21
1798.854711871749
 31
0.0
 70
   160
  1
35
 71
     5
 42
33.99999999999977
  3
ISO-25
100
AcDbAlignedDimension
 13
1166.005716632864
 23
1686.612591106737
 33
0.0
 14
1200.005716632864
 24
1686.612591106738
 34
0.0
100
AcDbRotatedDimension
1001
ACAD
1000
DSTYLE
1002
{
1070
   279
1070
     1
1002
}
  0
DIMENSION
  5
1D78
330
1F
100
AcDbEntity
  8
実形
100
AcDbDimension
  2
*D32
 10
1351.096690501779
 20
1100.559599470271
 30
0.0
 11
1332.346690501779
 21
1394.559599470271
 31
0.0
 70
    32
 71
     5
 42
588.0000000000002
  3
ISO-25
100
AcDbAlignedDimension
 13
1170.301732387241
 23
1688.559599470272
 33
0.0
 14
1170.301732387241
 24
1100.559599470271
 34
0.0
 50
90.0
100
AcDbRotatedDimension
1001
ACAD
1000
DSTYLE
1002
{
1070
   279
1070
     1
1002
}
  0
DIMENSION
  5
1D79
330
1F
100
AcDbEntity
  8
実形
100
AcDbDimension
  2
*D33
 10
1308.534608788649
 20
1654.559599470272
 30
0.0
 11
1307.036773553365
 21
1626.908579088462
 31
0.0
 70
   160
  1
35
 71
     5
 42
34.0
  3
ISO-25
100
AcDbAlignedDimension
 13
1188.529986889435
 23
1688.559599470272
 33
0.0
 14
1188.529986889435
 24
1654.559599470272
 34
0.0
 50
90.0
100
AcDbRotatedDimension
1001
ACAD
1000
DSTYLE
1002
{
1070
   279
1070
     1
1002
}
  0
DIMENSION
  5
1D7A
330
1F
100
AcDbEntity
  8
実形
100
AcDbDimension
  2
*D34
 10
1290.306354286455
 20
1100.559599470271
 30
0.0
 11
1277.962386446213
 21
1168.250877964981
 31
0.0
 70
   160
  1
35
 71
     5
 42
33.99999999999977
  3
ISO-25
100
AcDbAlignedDimension
 13
1170.301732387241
 23
1134.559599470271
 33
0.0
 14
1170.301732387241
 24
1100.559599470271
 34
0.0
 50
90.0
100
AcDbRotatedDimension
1001
ACAD
1000
DSTYLE
1002
{
1070
   279
1070
     1
1002
}
  0
TEXT
  5
1D7B
330
1F
100
AcDbEntity
  8
0
 62
     0
100
AcDbText
 10
1261.148352743277
 20
1747.893485044879
 30
0.0
 40
25.0
  1
94R
 72
     2
 11
1327.815019409944
 21
1744.560151711545
 31
0.0
100
AcDbText
 73
     1
  0
LEADER
  5
1D7C
330
1F
100
AcDbEntity
  8
実形
100
AcDbLeader
  3
ISO-25
 76
     2
 10
1163.313368069469
 20
1679.911090308557
 30
0.0
 10
1251.714796965296
 20
1738.829168061175
 30
0.0
1001
ACAD
1000
DSTYLE
1002
{
1070
   147
1040
6.25
1070
    77
1070
     0
1070
   279
1070
     1
1002
}
  0
TEXT
  5
1D7D
330
1F
100
AcDbEntity
  8
0
 62
     0
100
AcDbText
 10
1216.798331349665
 20
1014.55766570178
 30
0.0
 40
25.0
  1
149R
 72
     2
 11
1300.131664682998
 21
1011.224332368446
 31
0.0
100
AcDbText
 73
     1
  0
LEADER
  5
1D7E
330
1F
100
AcDbEntity
  8
実形
100
AcDbLeader
  3
ISO-25
 76
     2
 10
1150.152198583826
 20
1126.037863941896
 30
0.0
 10
1216.042613591201
 20
1049.31122271571
 30
0.0
1001
ACAD
1000
DSTYLE
1002
{
1070
   147
1040
6.25
1070
    77
1070
     0
1070
   279
1070
     1
1002
}
  0
LINE
  5
1E06
330
1F
100
AcDbEntity
  8
実形
100
AcDbLine
 10
1200.005716632864
 20
1249.559599470271
 30
0.0
 11
1200.005716632864
 21
1264.559599470272
 31
0.0
  0
LINE
  5
1E07
330
1F
100
AcDbEntity
  8
実形
100
AcDbLine
 10
482.0057166328642
 20
1249.559599470271
 30
0.0
 11
482.0057166328642
 21
1264.559599470272
 31
0.0
  0
LINE
  5
1E1E
330
1F
100
AcDbEntity
  8
補助
100
AcDbLine
 10
104.0
 20
2024.0
 30
0.0
 11
104.0
 21
4.0
 31
0.0
  0
TEXT
  5
1F79
330
1F
100
AcDbEntity
  8
0
100
AcDbText
 10
1079.16870192697
 20
1368.711755084158
 30
0.0
 40
25.0
  1
59R
 72
     2
 11
1145.835368593637
 21
1365.378421750824
 31
0.0
100
AcDbText
 73
     1
  0
LEADER
  5
1F7A
330
1F
100
AcDbEntity
  8
0
100
AcDbLeader
  3
ISO-25
 40
33.33333333333333
 41
16.66666666666667
 76
     2
 10
1144.688295598507
 20
1617.05563403558
 30
0.0
 10
1112.285104633824
 20
1408.816974376971
 30
0.0
213
0.0
223
-12.5
233
0.0
1001
ACAD
1000
DSTYLE
1002
{
1070
   147
1040
6.25
1070
    77
1070
     0
1070
    73
1070
     1
1070
    74
1070
     1
1070
   279
1070
     1
1070
   342
1005
DA
1002
}
  0
LEADER
  5
1F84
330
1F
100
AcDbEntity
  8
0
100
AcDbLeader
  3
ISO-25
 40
25.0
 41
16.66666666666666
 76
     2
 10
1124.272756417997
 20
1168.817767385668
 30
0.0
 10
1076.795907520633
 20
1192.865772315429
 30
0.0
211
-1.0
221
0.0
231
0.0
210
0.0
220
0.0
230
-1.0
213
0.0
223
12.5
233
0.0
1001
ACAD
1000
DSTYLE
1002
{
1070
    41
1040
25.0
1070
   147
1040
6.25
1070
    77
1070
     0
1070
    73
1070
     1
1070
    74
1070
     1
1070
   279
1070
     1
1070
   342
1005
DA
1002
}
  0
TEXT
  5
1F85
330
1F
100
AcDbEntity
  8
0
100
AcDbText
 10
1006.486603921934
 20
1201.910793786149
 30
0.0
 40
25.0
  1
114R
 11
1006.486603921934
 21
1226.910793786149
 31
0.0
100
AcDbText
 73
     3
  0
LINE
  5
2E1D
330
1F
100
AcDbEntity
  8
補助
100
AcDbLine
 10
2784.0
 20
1959.0
 30
0.0
 11
2019.387286519283
 21
1959.000000000001
 31
0.0
  0
LINE
  5
2E1E
330
1F
100
AcDbEntity
  8
補助
100
AcDbLine
 10
2784.0
 20
1894.0
 30
0.0
 11
2019.387286519283
 21
1894.0
 31
0.0
  0
LINE
  5
2E1F
330
1F
100
AcDbEntity
  8
補助
100
AcDbLine
 10
2784.0
 20
1829.0
 30
0.0
 11
2019.387286519283
 21
1829.0
 31
0.0
  0
LINE
  5
2E20
330
1F
100
AcDbEntity
  8
補助
100
AcDbLine
 10
2784.0
 20
1764.0
 30
0.0
 11
2019.387286519283
 21
1764.0
 31
0.0
  0
LINE
  5
2E21
330
1F
100
AcDbEntity
  8
補助
100
AcDbLine
 10
2202.547653420927
 20
1764.0
 30
0.0
 11
2202.547653420927
 21
2024.0
 31
0.0
  0
LINE
  5
2E22
330
1F
100
AcDbEntity
  8
補助
100
AcDbLine
 10
2019.387286519283
 20
1764.0
 30
0.0
 11
2019.387286519283
 21
2024.0
 31
0.0
  0
TEXT
  5
2E23
330
1F
100
AcDbEntity
  8
補助
100
AcDbText
 10
2050.295698850121
 20
1976.328571428572
 30
0.0
 40
30.0
  1
部品名
  7
明朝
 72
     4
 11
2116.124270278692
 21
1991.5
 31
0.0
100
AcDbText
  0
TEXT
  5
2E24
330
1F
100
AcDbEntity
  8
補助
100
AcDbText
 10
2627.614285714286
 20
1976.071428571429
 30
0.0
 40
30.0
  1
厚さ
  7
明朝
 72
     4
 11
2671.5
 21
1991.5
 31
0.0
100
AcDbText
  0
LINE
  5
2E25
330
1F
100
AcDbEntity
  8
補助
100
AcDbLine
 10
2559.0
 20
1764.0
 30
0.0
 11
2559.0
 21
2024.0
 31
0.0
  0
TEXT
  5
2E26
330
1F
100
AcDbEntity
  8
補助
100
AcDbText
 10
2338.490869919937
 20
1975.947979478155
 30
0.0
 40
30.0
  1
材質
  7
明朝
 72
     4
 11
2382.376584205651
 21
1991.119408049583
 31
0.0
100
AcDbText
  0
TEXT
  5
2E27
330
1F
100
AcDbEntity
  8
実形
100
AcDbText
 10
2048.227810657788
 20
1910.557142857143
 30
0.0
 40
30.0
  1
ボウル
  7
明朝
 72
     4
 11
2114.056382086359
 21
1926.5
 31
0.0
100
AcDbText
  0
TEXT
  5
2E28
330
1F
100
AcDbEntity
  8
実形
100
AcDbText
 10
2594.700000000001
 20
1911.842857142857
 30
0.0
 40
30.0
  1
0.7ｍｍ
  7
明朝
 72
     4
 11
2671.500000000001
 21
1926.5
 31
0.0
100
AcDbText
  0
TEXT
  5
2E29
330
1F
100
AcDbEntity
  8
実形
100
AcDbText
 10
2271.988297679294
 20
1910.728571428572
 30
0.0
 40
30.0
  1
SUS304（BA)
  7
明朝
 72
     4
 11
2392.674011965008
 21
1926.5
 31
0.0
100
AcDbText
  0
TEXT
  5
2E2A
330
1F
100
AcDbEntity
  8
実形
100
AcDbText
 10
2070.170667800645
 20
1846.242857142857
 30
0.0
 40
30.0
  1
天板
  7
明朝
 72
     4
 11
2114.056382086359
 21
1861.5
 31
0.0
100
AcDbText
  0
TEXT
  5
2E2B
330
1F
100
AcDbEntity
  8
実形
100
AcDbText
 10
2219.734774251222
 20
1848.285714285714
 30
0.0
 40
25.0
  1
アクリル人工大理石
  7
明朝
 72
     4
 11
2384.306202822651
 21
1861.5
 31
0.0
100
AcDbText
  0
TEXT
  5
2E2C
330
1F
100
AcDbEntity
  8
実形
100
AcDbText
 10
2605.67142857143
 20
1846.842857142857
 30
0.0
 40
30.0
  1
18ｍｍ
  7
明朝
 72
     4
 11
2671.500000000001
 21
1861.5
 31
0.0
100
AcDbText
  0
TEXT
  5
2E2D
330
1F
100
AcDbEntity
  8
実形
100
AcDbText
 10
2026.284953514931
 20
1780.557142857143
 30
0.0
 40
30.0
  1
ポケット
  7
明朝
 72
     4
 11
2114.056382086359
 21
1796.5
 31
0.0
100
AcDbText
  0
TEXT
  5
2E2E
330
1F
100
AcDbEntity
  8
実形
100
AcDbText
 10
2292.877631394079
 20
1783.642857142857
 30
0.0
 40
25.0
  1
樹脂（PP）
  7
明朝
 72
     4
 11
2384.306202822651
 21
1796.5
 31
0.0
100
AcDbText
  0
TEXT
  5
2E2F
330
1F
100
AcDbEntity
  8
実形
100
AcDbText
 10
2616.642857142859
 20
1781.842857142857
 30
0.0
 40
30.0
  1
3ｍｍ
  7
明朝
 72
     4
 11
2671.500000000001
 21
1796.5
 31
0.0
100
AcDbText
  0
LINE
  5
2F64
330
1F
100
AcDbEntity
  8
実形
 62
     0
100
AcDbLine
 10
2543.233877365066
 20
684.0947101512854
 30
0.0
 11
2153.233877365066
 21
684.0947101512854
 31
0.0
  0
LINE
  5
2F65
330
1F
100
AcDbEntity
  8
実形
 62
     0
100
AcDbLine
 10
2387.233877365066
 20
585.2947101512853
 30
0.0
 11
2075.233877365066
 21
585.2947101512854
 31
0.0
  0
ARC
  5
2F66
330
1F
100
AcDbEntity
  8
実形
 62
     0
100
AcDbCircle
 10
2153.233877365066
 20
606.0947101512854
 30
0.0
 40
78.0
100
AcDbArc
 50
90.0
 51
180.0
  0
ARC
  5
2F67
330
1F
100
AcDbEntity
  8
実形
 62
     0
100
AcDbCircle
 10
2543.233877365066
 20
606.0947101512854
 30
0.0
 40
78.0
100
AcDbArc
 50
0.0
 51
90.0
  0
LINE
  5
2F68
330
1F
100
AcDbEntity
  8
実形
 62
     0
100
AcDbLine
 10
2621.233877365066
 20
543.6947101512854
 30
0.0
 11
2387.233877365066
 21
543.6947101512854
 31
0.0
  0
LINE
  5
2F69
330
1F
100
AcDbEntity
  8
実形
 62
     0
100
AcDbLine
 10
2278.033877365066
 20
543.6947101512854
 30
0.0
 11
2153.233877365066
 21
543.6947101512854
 31
0.0
  0
LINE
  5
2F6A
330
1F
100
AcDbEntity
  8
実形
 62
     0
100
AcDbLine
 10
2356.033877365065
 20
543.6947101512854
 30
0.0
 11
2106.433877365066
 21
543.6947101512854
 31
0.0
  0
LINE
  5
2F6B
330
1F
100
AcDbEntity
  8
実形
 62
     0
100
AcDbLine
 10
2621.233877365066
 20
403.2947101512855
 30
0.0
 11
2386.105494977745
 21
403.2947101512855
 31
0.0
  0
LINE
  5
2F6C
330
1F
100
AcDbEntity
  8
実形
 62
     0
100
AcDbLine
 10
2278.033877365066
 20
403.2947101512855
 30
0.0
 11
2153.233877365066
 21
403.2947101512855
 31
0.0
  0
LINE
  5
2F6D
330
1F
100
AcDbEntity
  8
実形
 62
     0
100
AcDbLine
 10
2075.233877365066
 20
606.0947101512854
 30
0.0
 11
2075.233877365066
 21
585.2947101512854
 31
0.0
  0
LINE
  5
2F6E
330
1F
100
AcDbEntity
  8
実形
 62
     0
100
AcDbLine
 10
2090.833877365066
 20
559.2947101512845
 30
0.0
 11
2356.033877365065
 21
559.2947101512846
 31
0.0
  0
LINE
  5
2F6F
330
1F
100
AcDbEntity
  8
実形
 62
     0
100
AcDbLine
 10
2278.033877365066
 20
543.6947101512854
 30
0.0
 11
2153.233877365066
 21
543.6947101512854
 31
0.0
  0
LINE
  5
2F70
330
1F
100
AcDbEntity
  8
実形
 62
     0
100
AcDbLine
 10
2621.233877365066
 20
606.0947101512854
 30
0.0
 11
2621.233877365066
 21
403.2947101512855
 31
0.0
  0
LINE
  5
2F71
330
1F
100
AcDbEntity
  8
実形
 62
     0
100
AcDbLine
 10
2153.233877365066
 20
543.6947101512854
 30
0.0
 11
2153.233877365066
 21
403.2947101512863
 31
0.0
  0
LINE
  5
2F72
330
1F
100
AcDbEntity
  8
実形
 62
     0
100
AcDbLine
 10
2090.833877365066
 20
559.2947101512845
 30
0.0
 11
2090.833877365066
 21
356.5086976533553
 31
0.0
  0
LINE
  5
2F73
330
1F
100
AcDbEntity
  8
実形
 62
     0
100
AcDbLine
 10
2106.433877365066
 20
543.6947101512854
 30
0.0
 11
2106.433877365066
 21
356.5086976533554
 31
0.0
  0
ARC
  5
2F74
330
1F
100
AcDbEntity
  8
実形
 62
     0
100
AcDbCircle
 10
2348.233877365066
 20
543.6947101512854
 30
0.0
 40
39.0
100
AcDbArc
 50
180.0
 51
0.0
  0
TEXT
  5
2F75
330
1F
100
AcDbEntity
  8
実形
100
AcDbText
 10
1844.08269694555
 20
410.9876312842443
 30
0.0
 40
35.0
  1
シンク厚　
 11
1844.08269694555
 21
406.3209646175776
 31
0.0
100
AcDbText
 73
     1
  0
DIMENSION
  5
2F76
330
1F
100
AcDbEntity
  8
実形
 62
     0
100
AcDbDimension
  2
*D35
 10
2075.233877365067
 20
467.1003685502147
 30
0.0
 11
2054.88545157578
 21
491.5915116428197
 31
0.0
 70
   160
  1
1
 71
     5
 42
15.59999999999991
  3
ISO-25
100
AcDbAlignedDimension
 13
2090.833877365067
 23
559.2947101512846
 33
0.0
 14
2075.233877365067
 24
533.5029867284119
 34
0.0
 50
180.0
100
AcDbRotatedDimension
1001
ACAD
1000
DSTYLE
1002
{
1070
   282
1070
     1
1070
   281
1070
     1
1070
    41
1040
5.0
1070
    42
1040
6.0
1070
   140
1040
25.0
1070
   147
1040
1.199999999999999
1070
   279
1070
     2
1070
   289
1070
     2
1070
   371
1070
    13
1070
   372
1070
    13
1002
}
  0
TEXT
  5
2F77
330
1F
100
AcDbEntity
  8
実形
  6
HIDDEN2
 62
     0
100
AcDbText
 10
2095.797198899368
 20
462.9308652071995
 30
0.0
 40
10.14
  1
● 
 71
     2
100
AcDbText
  0
TEXT
  5
2F78
330
1F
100
AcDbEntity
  8
実形
  6
HIDDEN2
 62
     0
100
AcDbText
 10
2079.566838424828
 20
462.4970760796131
 30
0.0
 40
10.14
  1
● 
 71
     2
100
AcDbText
  0
LINE
  5
2F79
330
1F
100
AcDbEntity
  8
実形
 62
     0
100
AcDbLine
 10
2091.245173341136
 20
467.4229398449074
 30
0.0
 11
2075.560266305432
 21
467.4229398449074
 31
0.0
  0
ARC
  5
2F7A
330
1F
100
AcDbEntity
  8
実形
 62
     0
100
AcDbCircle
 10
2347.105494977745
 20
403.2947101512855
 30
0.0
 40
39.0
100
AcDbArc
 50
0.0
 51
180.0
  0
LINE
  5
2F7B
330
1F
100
AcDbEntity
  8
実形
 62
     0
100
AcDbLine
 10
2278.033877365066
 20
457.3521962228079
 30
0.0
 11
2278.033877365066
 21
439.4500692892673
 31
0.0
  0
LINE
  5
2F7C
330
1F
100
AcDbEntity
  8
実形
 62
     0
100
AcDbLine
 10
2356.033877365065
 20
457.3521962228079
 30
0.0
 11
2356.033877365065
 21
439.4977027967055
 31
0.0
  0
TEXT
  5
2F7D
330
1F
100
AcDbEntity
  8
実形
 62
     0
100
AcDbText
 10
1859.409434822997
 20
359.2737114633438
 30
0.0
 40
28.0
  1
0.7mm
 11
1859.409434822997
 21
355.5403781300104
 31
0.0
100
AcDbText
 73
     1
  0
TEXT
  5
2F7E
330
1F
100
AcDbEntity
  8
実形
 62
     0
100
AcDbText
 10
1969.171950854548
 20
724.7069313792997
 30
0.0
 40
28.0
  1
5R
 11
1969.171950854548
 21
720.9735980459663
 31
0.0
100
AcDbText
 73
     1
  0
DIMENSION
  5
2F7F
330
1F
100
AcDbEntity
  8
実形
 62
     0
100
AcDbDimension
  2
*D36
 10
2356.033877365065
 20
617.1548568615962
 30
0.0
 11
2223.433877365065
 21
635.9048568615962
 31
0.0
 70
    32
  1
17
 71
     5
 42
265.1999999999998
  3
ISO-25
100
AcDbAlignedDimension
 13
2090.833877365066
 23
526.9073852958004
 33
0.0
 14
2356.033877365065
 24
526.9073852958005
 34
0.0
100
AcDbRotatedDimension
1001
ACAD
1000
DSTYLE
1002
{
1070
   279
1070
     2
1070
   371
1070
    18
1070
   372
1070
    18
1002
}
  0
LEADER
  5
2F80
330
1F
100
AcDbEntity
  8
実形
 62
     0
100
AcDbLeader
  3
ISO-25
 76
     2
 10
2080.730586898456
 20
658.778126851076
 30
0.0
 10
2006.358162869183
 20
712.4806979619262
 30
0.0
1001
ACAD
1000
DSTYLE
1002
{
1070
   147
1040
6.25
1070
    77
1070
     0
1070
   279
1070
     2
1070
   371
1070
    18
1070
   372
1070
    18
1002
}
  0
DIMENSION
  5
2F81
330
1F
100
AcDbEntity
  8
実形
 62
     0
100
AcDbDimension
  2
*D37
 10
2215.460134891442
 20
543.6947101512855
 30
0.0
 11
2183.987549496718
 21
515.0052225685112
 31
0.0
 70
   160
  1
2.5
 71
     5
 42
38.99999999999995
  3
ISO-25
100
AcDbAlignedDimension
 13
2315.113367995707
 23
504.6947101512855
 33
0.0
 14
2267.959844379684
 24
543.6947101512855
 34
0.0
 50
90.0
100
AcDbRotatedDimension
1001
ACAD
1000
DSTYLE
1002
{
1070
   140
1040
23.0
1070
   279
1070
     2
1070
   371
1070
    18
1070
   372
1070
    18
1002
}
  0
DIMENSION
  5
2F82
330
1F
100
AcDbEntity
  8
実形
 62
     0
100
AcDbDimension
  2
*D38
 10
2356.033877365066
 20
452.0882219802177
 30
0.0
 11
2317.033877365066
 21
470.8382219802177
 31
0.0
 70
    32
  1
5
 71
     5
 42
78.0
  3
ISO-25
100
AcDbAlignedDimension
 13
2278.033877365066
 23
513.0145559292668
 33
0.0
 14
2356.033877365066
 24
513.0145559292668
 34
0.0
100
AcDbRotatedDimension
1001
ACAD
1000
DSTYLE
1002
{
1070
   279
1070
     2
1070
   371
1070
    18
1070
   372
1070
    18
1002
}
  0
LINE
  5
2F83
330
1F
100
AcDbEntity
  8
実形
 62
     0
100
AcDbLine
 10
2278.033877365066
 20
452.0882219802177
 30
0.0
 11
2278.033877365066
 21
494.7079487038194
 31
0.0
  0
LINE
  5
2F84
330
1F
100
AcDbEntity
  8
実形
 62
     0
100
AcDbLine
 10
2356.033877365065
 20
452.0882219802177
 30
0.0
 11
2356.033877365065
 21
493.5103420910408
 31
0.0
  0
DIMENSION
  5
2F85
330
1F
100
AcDbEntity
  8
実形
 62
     0
100
AcDbDimension
  2
*D39
 10
2217.398583849133
 20
403.2947101512855
 30
0.0
 11
2184.779122545192
 21
431.6583152348946
 31
0.0
 70
   160
  1
2.5
 71
     5
 42
38.99999999999995
  3
ISO-25
100
AcDbAlignedDimension
 13
2318.018840457773
 23
442.2947101512853
 33
0.0
 14
2361.445481530404
 24
403.2947101512855
 34
0.0
 50
90.0
100
AcDbRotatedDimension
1001
ACAD
1000
DSTYLE
1002
{
1070
   140
1040
23.0
1070
   279
1070
     2
1070
   371
1070
    18
1070
   372
1070
    18
1002
}
  0
DIMENSION
  5
2F86
330
1F
100
AcDbEntity
  8
実形
 62
     0
100
AcDbDimension
  2
*D40
 10
2387.233877365066
 20
733.9587029177619
 30
0.0
 11
2231.233877365066
 21
752.7087029177619
 31
0.0
 70
    32
  1
20
 71
     5
 42
311.9999999999996
  3
ISO-25
100
AcDbAlignedDimension
 13
2075.233877365066
 23
631.1956311673393
 33
0.0
 14
2387.233877365066
 24
631.1956311673393
 34
0.0
100
AcDbRotatedDimension
1001
ACAD
1000
DSTYLE
1002
{
1070
   279
1070
     2
1070
   371
1070
    18
1070
   372
1070
    18
1002
}
  0
DIMENSION
  5
2F87
330
1F
100
AcDbEntity
  8
実形
 62
     0
100
AcDbDimension
  2
*D41
 10
2621.233877365066
 20
733.9587029177619
 30
0.0
 11
2504.233877365066
 21
752.7087029177619
 31
0.0
 70
    32
  1
15
 71
     5
 42
234.0
  3
ISO-25
100
AcDbAlignedDimension
 13
2387.233877365066
 23
630.0056853622646
 33
0.0
 14
2621.233877365066
 24
631.1956311673382
 34
0.0
100
AcDbRotatedDimension
1001
ACAD
1000
DSTYLE
1002
{
1070
   279
1070
     2
1070
   371
1070
    18
1070
   372
1070
    18
1002
}
  0
DIMENSION
  5
2F88
330
1F
100
AcDbEntity
  8
実形
 62
     0
100
AcDbDimension
  2
*D42
 10
2621.233877365066
 20
777.4666415156134
 30
0.0
 11
2348.233877365066
 21
796.2166415156134
 31
0.0
 70
    32
  1
35
 71
     5
 42
545.9999999999995
  3
ISO-25
100
AcDbAlignedDimension
 13
2075.233877365066
 23
631.1956311673382
 33
0.0
 14
2621.233877365066
 24
631.1956311673382
 34
0.0
100
AcDbRotatedDimension
1001
ACAD
1000
DSTYLE
1002
{
1070
   279
1070
     2
1070
   371
1070
    18
1070
   372
1070
    18
1002
}
  0
TEXT
  5
2F89
330
1F
100
AcDbEntity
  8
実形
 62
     0
100
AcDbText
 10
2661.234589240095
 20
713.6502811430476
 30
0.0
 40
28.0
  1
5R
 11
2661.234589240095
 21
709.9169478097143
 31
0.0
100
AcDbText
 73
     1
  0
DIMENSION
  5
2F8A
330
1F
100
AcDbEntity
  8
実形
 62
     0
100
AcDbDimension
  2
*D43
 10
2153.233877365066
 20
297.5085770831867
 30
0.0
 11
2053.203290699754
 21
332.9138518235977
 31
0.0
 70
   160
  1
3.3
 71
     5
 42
46.80000000000018
  3
ISO-25
100
AcDbAlignedDimension
 13
2106.433877365066
 23
411.5474686202857
 33
0.0
 14
2153.233877365066
 24
411.5474686202857
 34
0.0
100
AcDbRotatedDimension
1001
ACAD
1000
DSTYLE
1002
{
1070
   140
1040
25.0
1070
   279
1070
     2
1070
   371
1070
    18
1070
   372
1070
    18
1002
}
  0
DIMENSION
  5
2F8B
330
1F
100
AcDbEntity
  8
実形
 62
     0
100
AcDbDimension
  2
*D44
 10
2309.233877365066
 20
297.5085770831867
 30
0.0
 11
2231.233877365066
 21
316.2585770831867
 31
0.0
 70
    32
  1
10
 71
     5
 42
156.0
  3
ISO-25
100
AcDbAlignedDimension
 13
2153.233877365066
 23
411.5474686202857
 33
0.0
 14
2309.233877365066
 24
411.5474686202857
 34
0.0
100
AcDbRotatedDimension
1001
ACAD
1000
DSTYLE
1002
{
1070
   279
1070
     2
1070
   371
1070
    18
1070
   372
1070
    18
1002
}
  0
DIMENSION
  5
2F8C
330
1F
100
AcDbEntity
  8
実形
 62
     0
100
AcDbDimension
  2
*D45
 10
2387.233877365066
 20
297.5085770831867
 30
0.0
 11
2348.233877365066
 21
316.2585770831867
 31
0.0
 70
    32
  1
5
 71
     5
 42
78.0
  3
ISO-25
100
AcDbAlignedDimension
 13
2309.233877365066
 23
411.5474686202857
 33
0.0
 14
2387.233877365066
 24
411.5474686202857
 34
0.0
100
AcDbRotatedDimension
1001
ACAD
1000
DSTYLE
1002
{
1070
   279
1070
     2
1070
   371
1070
    18
1070
   372
1070
    18
1002
}
  0
DIMENSION
  5
2F8D
330
1F
100
AcDbEntity
  8
実形
 62
     0
100
AcDbDimension
  2
*D46
 10
2621.233877365066
 20
297.5085770831867
 30
0.0
 11
2504.233877365066
 21
316.2585770831867
 31
0.0
 70
    32
  1
15
 71
     5
 42
234.0
  3
ISO-25
100
AcDbAlignedDimension
 13
2387.233877365066
 23
411.5474686202858
 33
0.0
 14
2621.233877365066
 24
411.5474686202857
 34
0.0
100
AcDbRotatedDimension
1001
ACAD
1000
DSTYLE
1002
{
1070
   279
1070
     2
1070
   371
1070
    18
1070
   372
1070
    18
1002
}
  0
DIMENSION
  5
2F8E
330
1F
100
AcDbEntity
  8
実形
 62
     0
100
AcDbDimension
  2
*D47
 10
2155.023276234156
 20
247.5388396829094
 30
0.0
 11
2116.023276234157
 21
266.2888396829094
 31
0.0
 70
    32
  1
5
 71
     5
 42
77.99999999999954
  3
ISO-25
100
AcDbAlignedDimension
 13
2077.023276234157
 23
362.8281686160613
 33
0.0
 14
2155.023276234156
 24
362.8281686160613
 34
0.0
100
AcDbRotatedDimension
1001
ACAD
1000
DSTYLE
1002
{
1070
   279
1070
     2
1070
   371
1070
    18
1070
   372
1070
    18
1002
}
  0
DIMENSION
  5
2F8F
330
1F
100
AcDbEntity
  8
実形
 62
     0
100
AcDbDimension
  2
*D48
 10
2623.023276234156
 20
247.5388396829094
 30
0.0
 11
2389.023276234156
 21
266.2888396829094
 31
0.0
 70
    32
  1
30
 71
     5
 42
468.0
  3
ISO-25
100
AcDbAlignedDimension
 13
2155.023276234156
 23
362.8281686160613
 33
0.0
 14
2623.023276234156
 24
362.8281686160613
 34
0.0
100
AcDbRotatedDimension
1001
ACAD
1000
DSTYLE
1002
{
1070
   279
1070
     2
1070
   371
1070
    18
1070
   372
1070
    18
1002
}
  0
LINE
  5
2F90
330
1F
100
AcDbEntity
  8
実形
 62
     0
100
AcDbLine
 10
2089.14414202772
 20
414.8786635805636
 30
0.0
 11
2005.196656620899
 21
408.9889439325022
 31
0.0
  0
LINE
  5
2F91
330
1F
100
AcDbEntity
  8
実形
 62
     0
100
AcDbLine
 10
2088.820600113063
 20
414.7274049971472
 30
0.0
 11
2056.485883910302
 21
400.9756935648645
 31
0.0
  0
LINE
  5
2F92
330
1F
100
AcDbEntity
  8
実形
 62
     0
100
AcDbLine
 10
2088.472360117057
 20
415.6242072570588
 30
0.0
 11
2056.198770657017
 21
421.9662971197472
 31
0.0
  0
TEXT
  5
2F93
330
1F
100
AcDbEntity
  8
実形
 62
     0
370
    -2
100
AcDbText
 10
1943.905583280765
 20
836.850626796042
 30
0.0
 40
38.0
  1
A-A　断面詳細図
100
AcDbText
  0
TEXT
  5
2F94
330
1F
100
AcDbEntity
  8
実形
 62
     0
370
    -2
100
AcDbText
 10
2039.041635208127
 20
838.8009194430942
 30
0.0
 40
35.0
  1
´
100
AcDbText
  0
DIMENSION
  5
2F95
330
1F
100
AcDbEntity
  8
実形
 62
     0
100
AcDbDimension
  2
*D49
 10
1970.032114275532
 20
585.2947101512854
 30
0.0
 11
1951.282114275532
 21
634.6947101512859
 31
0.0
 70
    32
  1
6.5
 71
     5
 42
98.80000000000007
  3
ISO-25
100
AcDbAlignedDimension
 13
2097.328912889143
 23
684.0947101512855
 33
0.0
 14
2097.328912889143
 24
585.2947101512854
 34
0.0
 50
90.0
100
AcDbRotatedDimension
1001
ACAD
1000
DSTYLE
1002
{
1070
   279
1070
     2
1070
   371
1070
    18
1070
   372
1070
    18
1002
}
  0
DIMENSION
  5
2F96
330
1F
100
AcDbEntity
  8
実形
 62
     0
100
AcDbDimension
  2
*D50
 10
1916.035186721017
 20
559.2947101512846
 30
0.0
 11
1897.285186721017
 21
621.6947101512854
 31
0.0
 70
    32
  1
8.3
 71
     5
 42
124.8000000000008
  3
ISO-25
100
AcDbAlignedDimension
 13
2097.328912889143
 23
684.0947101512855
 33
0.0
 14
2097.328912889143
 24
559.2947101512846
 34
0.0
 50
90.0
100
AcDbRotatedDimension
1001
ACAD
1000
DSTYLE
1002
{
1070
   279
1070
     2
1070
   371
1070
    18
1070
   372
1070
    18
1002
}
  0
DIMENSION
  5
2F97
330
1F
100
AcDbEntity
  8
実形
100
AcDbDimension
  2
*D51
 10
1864.389549972262
 20
684.0947101512855
 30
0.0
 11
1845.639549972261
 21
613.8947101512858
 31
0.0
 70
    32
  1
9
 71
     5
 42
140.4000000000001
  3
ISO-25
100
AcDbAlignedDimension
 13
2097.328912889143
 23
543.6947101512854
 33
0.0
 14
2097.328912889143
 24
684.0947101512855
 34
0.0
 50
90.0
100
AcDbRotatedDimension
1001
ACAD
1000
DSTYLE
1002
{
1070
   279
1070
     2
1070
   371
1070
    18
1070
   372
1070
    18
1002
}
  0
LINE
  5
2F98
330
1F
100
AcDbEntity
  8
実形
 62
     0
100
AcDbLine
 10
1970.032114275532
 20
559.4808025581515
 30
0.0
 11
1970.032114275532
 21
543.6947101512854
 31
0.0
  0
TEXT
  5
2F99
330
1F
100
AcDbEntity
  8
実形
  6
HIDDEN2
 62
     0
100
AcDbText
 10
1974.759963930668
 20
554.1584046865482
 30
0.0
 40
10.14
  1
● 
 71
     2
100
AcDbText
  0
TEXT
  5
2F9A
330
1F
100
AcDbEntity
  8
実形
  6
HIDDEN2
 62
     0
100
AcDbText
 10
1974.759963930668
 20
539.0050600708654
 30
0.0
 40
10.14
  1
● 
 71
     2
100
AcDbText
  0
TEXT
  5
2F9B
330
1F
100
AcDbEntity
  8
実形
 62
     0
100
AcDbText
 10
1965.904597556985
 20
483.7785695213888
 30
0.0
 40
29.25
  1
0.7
 50
90.0
 11
1969.804597556985
 21
483.7785695213888
 31
0.0
100
AcDbText
 73
     1
  0
ARC
  5
2F9C
330
1F
100
AcDbEntity
  8
実形
 62
     0
100
AcDbCircle
 10
2095.749391898479
 20
294.0352561825519
 30
0.0
 40
37.21807911390647
100
AcDbArc
 50
10.8838049813006
 51
99.73672806232286
  0
ARC
  5
2F9D
330
1F
100
AcDbEntity
  8
実形
 62
     0
100
AcDbCircle
 10
2101.132326064329
 20
286.3222816243725
 30
0.0
 40
34.71092069179851
100
AcDbArc
 50
27.82370983300087
 51
64.29661093933541
  0
ARC
  5
2F9E
330
1F
100
AcDbEntity
  8
実形
 62
     0
100
AcDbCircle
 10
2095.736654257051
 20
304.1012932169378
 30
0.0
 40
36.96117099445193
100
AcDbArc
 50
355.5051092068189
 51
31.89192001425599
  0
DIMENSION
  5
2F9F
330
1F
100
AcDbEntity
  8
実形
 62
     0
100
AcDbDimension
  2
*D52
 10
2673.699912636183
 20
403.2947101512855
 30
0.0
 11
2654.949912636183
 21
473.4947101512859
 31
0.0
 70
    32
  1
9
 71
     5
 42
140.4
  3
ISO-25
100
AcDbAlignedDimension
 13
2582.25404811461
 23
543.6947101512855
 33
0.0
 14
2582.25404811461
 24
403.2947101512855
 34
0.0
 50
90.0
100
AcDbRotatedDimension
1001
ACAD
1000
DSTYLE
1002
{
1070
   279
1070
     2
1070
   371
1070
    18
1070
   372
1070
    18
1002
}
  0
DIMENSION
  5
2FA0
330
1F
100
AcDbEntity
  8
実形
 62
     0
100
AcDbDimension
  2
*D53
 10
2673.699912636183
 20
543.6947101512855
 30
0.0
 11
2654.949912636183
 21
613.8947101512859
 31
0.0
 70
    32
  1
9
 71
     5
 42
140.3999999999999
  3
ISO-25
100
AcDbAlignedDimension
 13
2582.25404811461
 23
684.0947101512855
 33
0.0
 14
2582.25404811461
 24
543.6947101512855
 34
0.0
 50
90.0
100
AcDbRotatedDimension
1001
ACAD
1000
DSTYLE
1002
{
1070
   279
1070
     2
1070
   371
1070
    18
1070
   372
1070
    18
1002
}
  0
DIMENSION
  5
2FA1
330
1F
100
AcDbEntity
  8
実形
 62
     0
100
AcDbDimension
  2
*D54
 10
2715.480008308167
 20
403.2947101512855
 30
0.0
 11
2696.730008308167
 21
543.694710151286
 31
0.0
 70
    32
  1
18
 71
     5
 42
280.8
  3
ISO-25
100
AcDbAlignedDimension
 13
2582.25404811461
 23
684.0947101512855
 33
0.0
 14
2582.25404811461
 24
403.2947101512855
 34
0.0
 50
90.0
100
AcDbRotatedDimension
1001
ACAD
1000
DSTYLE
1002
{
1070
   279
1070
     2
1070
   371
1070
    18
1070
   372
1070
    18
1002
}
  0
LEADER
  5
2FA2
330
1F
100
AcDbEntity
  8
実形
 62
     0
100
AcDbLeader
  3
ISO-25
 76
     2
 10
2598.968887029636
 20
666.6445109732322
 30
0.0
 10
2665.822583513264
 20
707.9203906258708
 30
0.0
1001
ACAD
1000
DSTYLE
1002
{
1070
   147
1040
6.25
1070
    77
1070
     0
1070
   279
1070
     2
1070
   371
1070
    18
1070
   372
1070
    18
1002
}
  0
LINE
  5
2FA3
330
1F
100
AcDbEntity
  8
実形
 62
     0
100
AcDbLine
 10
2356.033877365065
 20
559.2947101512846
 30
0.0
 11
2356.033877365065
 21
543.6947101512854
 31
0.0
  0
LINE
  5
2FA4
330
1F
100
AcDbEntity
  8
実形
100
AcDbLine
 10
2387.233877365066
 20
585.2947101512853
 30
0.0
 11
2387.233877365066
 21
543.6947101512854
 31
0.0
  0
LINE
  5
3143
330
1F
100
AcDbEntity
  8
0
100
AcDbLine
 10
1190.005716632864
 20
827.2938827107379
 30
0.0
 11
492.0057166328643
 21
827.2938827107381
 31
0.0
  0
LINE
  5
3144
330
1F
100
AcDbEntity
  8
0
100
AcDbLine
 10
1200.005716632864
 20
809.2938827107381
 30
0.0
 11
482.0057166328642
 21
809.293882710738
 31
0.0
  0
LINE
  5
3145
330
1F
100
AcDbEntity
  8
実形
100
AcDbLine
 10
482.0057166328643
 20
817.2938827107381
 30
0.0
 11
482.0057166328642
 21
809.293882710738
 31
0.0
  0
LINE
  5
3146
330
1F
100
AcDbEntity
  8
実形
100
AcDbLine
 10
1200.005716632864
 20
817.293882710738
 30
0.0
 11
1200.005716632864
 21
809.2938827107383
 31
0.0
  0
LEADER
  5
3273
330
1F
100
AcDbEntity
  8
実形
100
AcDbLeader
  3
ISO-25
 40
25.0
 41
16.66666666666666
 76
     2
 10
476.4310716339251
 20
832.9634265428191
 30
0.0
 10
435.5579796284801
 20
876.6710748245083
 30
0.0
213
0.0
223
12.5
233
0.0
1001
ACAD
1000
DSTYLE
1002
{
1070
   147
1040
6.25
1070
    77
1070
     0
1070
    41
1040
20.0
1070
   342
1005
DA
1002
}
  0
TEXT
  5
3274
330
1F
100
AcDbEntity
  8
実形
100
AcDbText
 10
410.6830415902235
 20
889.0979218502412
 30
0.0
 40
25.0
  1
5R
 72
     2
 11
452.3497082568901
 21
914.0979218502412
 31
0.0
100
AcDbText
 73
     3
  0
DIMENSION
  5
3275
330
1F
100
AcDbEntity
  8
実形
100
AcDbDimension
  2
*D55
 10
364.3648529432447
 20
809.2938827107381
 30
0.0
 11
306.3800290268717
 21
859.1113812022177
 31
0.0
 70
   160
 71
     5
 42
18.0
  3
ISO-25
100
AcDbAlignedDimension
 13
510.4430273722192
 23
827.2938827107381
 33
0.0
 14
510.4430273722192
 24
809.2938827107381
 34
0.0
 50
90.0
100
AcDbRotatedDimension
1001
ACAD
1000
DSTYLE
1002
{
1070
   279
1070
     1
1002
}
  0
DIMENSION
  5
3276
330
1F
100
AcDbEntity
  8
実形
100
AcDbDimension
  2
*D56
 10
364.3648529432447
 20
803.9938827107382
 30
0.0
 11
307.2980283970044
 21
776.0666441254945
 31
0.0
 70
   160
 71
     5
 42
5.29999999999984
  3
ISO-25
100
AcDbAlignedDimension
 13
511.421805013395
 23
809.2938827107381
 33
0.0
 14
511.421805013395
 24
803.9938827107382
 34
0.0
 50
90.0
100
AcDbRotatedDimension
1001
ACAD
1000
DSTYLE
1002
{
1070
   279
1070
     1
1002
}
  0
DIMENSION
  5
3277
330
1F
100
AcDbEntity
  8
実形
100
AcDbDimension
  2
*D57
 10
364.3648529432447
 20
628.9938827107382
 30
0.0
 11
345.6148529432446
 21
716.4938827107383
 31
0.0
 70
    32
 71
     5
 42
175.0
  3
ISO-25
100
AcDbAlignedDimension
 13
510.5028911912539
 23
803.9938827107382
 33
0.0
 14
510.4430273722192
 24
628.9938827107382
 34
0.0
 50
90.0
100
AcDbRotatedDimension
1001
ACAD
1000
DSTYLE
1002
{
1070
   279
1070
     1
1002
}
  0
DIMENSION
  5
3278
330
1F
100
AcDbEntity
  8
実形
100
AcDbDimension
  2
*D58
 10
236.3454712726778
 20
628.9938827107383
 30
0.0
 11
217.5954712726777
 21
728.1438827107383
 31
0.0
 70
    32
 71
     5
 42
198.2999999999999
  3
ISO-25
100
AcDbAlignedDimension
 13
445.4430273722191
 23
827.2938827107381
 33
0.0
 14
445.4430273722191
 24
628.9938827107382
 34
0.0
 50
90.0
100
AcDbRotatedDimension
1001
ACAD
1000
DSTYLE
1002
{
1070
   279
1070
     1
1002
}
  0
DIMENSION
  5
3279
330
1F
100
AcDbEntity
  8
実形
100
AcDbDimension
  2
*D59
 10
364.3648529432447
 20
618.9938827107383
 30
0.0
 11
358.2912084212965
 21
608.1978622180905
 31
0.0
 70
   160
  1
7
 71
     5
 42
9.999999999999886
  3
ISO-25
100
AcDbAlignedDimension
 13
510.4430273722191
 23
628.9938827107381
 33
0.0
 14
510.4430273722191
 24
618.9938827107383
 34
0.0
 50
90.0
100
AcDbRotatedDimension
1001
ACAD
1000
DSTYLE
1002
{
1070
   279
1070
     1
1002
}
  0
LEADER
  5
327A
330
1F
100
AcDbEntity
  8
実形
100
AcDbLeader
  3
ISO-25
 40
25.0
 41
16.66666666666666
 76
     2
 10
1216.452439290687
 20
832.9634265428191
 30
0.0
 10
1257.325531296132
 20
876.6710748245083
 30
0.0
211
-1.0
221
0.0
231
0.0
213
0.0
223
12.5
233
0.0
1001
ACAD
1000
DSTYLE
1002
{
1070
   147
1040
6.25
1070
    77
1070
     0
1070
    41
1040
20.0
1070
   342
1005
DA
1002
}
  0
TEXT
  5
327B
330
1F
100
AcDbEntity
  8
実形
100
AcDbText
 10
1240.140680360231
 20
889.0979218502412
 30
0.0
 40
25.0
  1
5R
 72
     2
 11
1281.807347026898
 21
914.0979218502412
 31
0.0
100
AcDbText
 73
     3
  0
LINE
  5
3355
330
1F
100
AcDbEntity
  8
0
100
AcDbLine
 10
1520.162862593816
 20
1654.559599470272
 30
0.0
 11
1664.00004653904
 21
1654.559599470272
 31
0.0
  0
LINE
  5
3356
330
1F
100
AcDbEntity
  8
0
100
AcDbLine
 10
1528.462862593816
 20
1579.559599470272
 30
0.0
 11
1670.462862593816
 21
1579.559599470272
 31
0.0
  0
LINE
  5
3357
330
1F
100
AcDbEntity
  8
0
100
AcDbLine
 10
1520.162862593815
 20
1134.559599470271
 30
0.0
 11
1522.462862593815
 21
1134.559599470271
 31
0.0
  0
LINE
  5
3358
330
1F
100
AcDbEntity
  8
0
100
AcDbLine
 10
1528.462862593816
 20
1149.559599470271
 30
0.0
 11
1661.664775044388
 21
1149.559599470271
 31
0.0
  0
LINE
  5
3359
330
1F
100
AcDbEntity
  8
0
100
AcDbLine
 10
1525.462862593816
 20
1146.559599470271
 30
0.0
 11
1525.462862593815
 21
1137.559599470271
 31
0.0
  0
ARC
  5
335A
330
1F
100
AcDbEntity
  8
0
100
AcDbCircle
 10
1522.462862593815
 20
1137.559599470271
 30
0.0
 40
3.0
100
AcDbArc
 50
270.0
 51
0.0
  0
ARC
  5
335B
330
1F
100
AcDbEntity
  8
0
100
AcDbCircle
 10
1528.462862593816
 20
1146.559599470271
 30
0.0
 40
3.0
100
AcDbArc
 50
90.0
 51
180.0
  0
LINE
  5
335C
330
1F
100
AcDbEntity
  8
0
100
AcDbLine
 10
1525.462862593816
 20
1654.559599470271
 30
0.0
 11
1525.462862593816
 21
1582.559599470272
 31
0.0
  0
ARC
  5
335D
330
1F
100
AcDbEntity
  8
0
100
AcDbCircle
 10
1528.462862593816
 20
1582.559599470272
 30
0.0
 40
3.0
100
AcDbArc
 50
180.0
 51
270.0
  0
LINE
  5
335E
330
1F
100
AcDbEntity
  8
0
100
AcDbLine
 10
1525.462862593816
 20
1582.559599470272
 30
0.0
 11
1525.462862593815
 21
1137.559599470271
 31
0.0
  0
LINE
  5
335F
330
1F
100
AcDbEntity
  8
0
100
AcDbLine
 10
1700.462862593816
 20
1549.559599470271
 30
0.0
 11
1700.462862593816
 21
1394.059599470276
 31
0.0
  0
LINE
  5
3360
330
1F
100
AcDbEntity
  8
0
100
AcDbLine
 10
1708.462862593816
 20
1575.059599470272
 30
0.0
 11
1708.462862593815
 21
1394.059599470276
 31
0.0
  0
LINE
  5
3361
330
1F
100
AcDbEntity
  8
0
100
AcDbLine
 10
1700.462862593816
 20
1394.059599470272
 30
0.0
 11
1691.639714581659
 21
1178.333630573041
 31
0.0
  0
ARC
  5
3362
330
1F
100
AcDbEntity
  8
0
100
AcDbCircle
 10
1661.664775044388
 20
1179.559599470271
 30
0.0
 40
30.0
100
AcDbArc
 50
270.0
 51
357.657919691536
  0
ARC
  5
3363
330
1F
100
AcDbEntity
  8
0
100
AcDbCircle
 10
1670.462862593816
 20
1549.559599470271
 30
0.0
 40
30.0
100
AcDbArc
 50
0.0
 51
90.0
  0
LINE
  5
3364
330
1F
100
AcDbEntity
  8
Cen
100
AcDbLine
 10
1605.869032813608
 20
1482.684599470271
 30
0.0
 11
1736.523445048931
 21
1482.684599470271
 31
0.0
  0
LEADER
  5
3365
330
1F
100
AcDbEntity
  8
Cen
100
AcDbLeader
  3
ISO-25
 40
25.0
 41
16.66666666666666
 76
     2
 10
1526.943309592852
 20
1579.972910722613
 30
0.0
 10
1471.770380821084
 20
1543.938637119311
 30
0.0
213
0.0
223
12.5
233
0.0
1001
ACAD
1000
DSTYLE
1002
{
1070
    41
1040
25.0
1070
   147
1040
6.25
1070
    77
1070
     0
1070
   279
1070
     1
1002
}
  0
LEADER
  5
3366
330
1F
100
AcDbEntity
  8
Cen
100
AcDbLeader
  3
ISO-25
 76
     2
 10
1526.553387455496
 20
1148.873450091236
 30
0.0
 10
1582.349986504394
 20
1105.00153258605
 30
0.0
1001
ACAD
1000
DSTYLE
1002
{
1070
    41
1040
25.0
1070
   147
1040
6.25
1070
    77
1070
     0
1070
   279
1070
     1
1002
}
  0
TEXT
  5
3367
330
1F
100
AcDbEntity
  8
0
100
AcDbText
 10
1586.269378127117
 20
1076.435618217712
 30
0.0
 40
25.0
  1
3R
100
AcDbText
  0
LEADER
  5
3368
330
1F
100
AcDbEntity
  8
Cen
100
AcDbLeader
  3
ISO-25
 76
     2
 10
1524.508002570313
 20
1135.364741279742
 30
0.0
 10
1473.529275472634
 20
1171.34817379114
 30
0.0
1001
ACAD
1000
DSTYLE
1002
{
1070
    41
1040
25.0
1070
   147
1040
6.25
1070
    77
1070
     0
1070
   279
1070
     1
1002
}
  0
TEXT
  5
3369
330
1F
100
AcDbEntity
  8
0
100
AcDbText
 10
1426.496584333868
 20
1161.442250030615
 30
0.0
 40
25.0
  1
3R
100
AcDbText
  0
TEXT
  5
336A
330
1F
100
AcDbEntity
  8
0
100
AcDbText
 10
1423.804326188812
 20
1511.159180937335
 30
0.0
 40
25.0
  1
3R
100
AcDbText
  0
LINE
  5
336B
330
1F
100
AcDbEntity
  8
実形
100
AcDbLine
 10
1700.462862593816
 20
1575.059599470272
 30
0.0
 11
1708.462862593816
 21
1575.059599470272
 31
0.0
  0
LINE
  5
336C
330
1F
100
AcDbEntity
  8
実形
100
AcDbLine
 10
1700.462862593816
 20
1394.059599470276
 30
0.0
 11
1708.462862593816
 21
1394.059599470276
 31
0.0
  0
ARC
  5
336D
330
1F
100
AcDbEntity
  8
実形
100
AcDbCircle
 10
1664.00004653904
 20
1624.559599470272
 30
0.0
 40
30.0
100
AcDbArc
 50
7.169362918619547
 51
90.0
  0
LINE
  5
336E
330
1F
100
AcDbEntity
  8
0
100
AcDbLine
 10
1700.462862593816
 20
1575.059599470272
 30
0.0
 11
1700.462862593816
 21
1549.559599470271
 31
0.0
  0
LINE
  5
336F
330
1F
100
AcDbEntity
  8
実形
100
AcDbLine
 10
1693.765493861215
 20
1628.303680894445
 30
0.0
 11
1700.462862593816
 21
1575.059599470272
 31
0.0
  0
LINE
  5
3370
330
1F
100
AcDbEntity
  8
0
  6
HIDDEN2
100
AcDbLine
 10
1525.462862593816
 20
1649.059599470271
 30
0.0
 11
1621.462862593816
 21
1649.059599470272
 31
0.0
  0
LINE
  5
3371
330
1F
100
AcDbEntity
  8
0
  6
HIDDEN2
100
AcDbLine
 10
1624.462862593816
 20
1646.059599470271
 30
0.0
 11
1624.462862593816
 21
1594.059599470272
 31
0.0
  0
LINE
  5
3372
330
1F
100
AcDbEntity
  8
0
  6
HIDDEN2
100
AcDbLine
 10
1621.462862593816
 20
1591.059599470272
 30
0.0
 11
1525.462862593816
 21
1591.059599470272
 31
0.0
  0
LINE
  5
3373
330
1F
100
AcDbEntity
  8
0
  6
HIDDEN2
 48
0.5
100
AcDbLine
 10
1624.462862593816
 20
1603.459599470272
 30
0.0
 11
1644.462862593815
 21
1603.459599470272
 31
0.0
  0
LINE
  5
3374
330
1F
100
AcDbEntity
  8
0
  6
HIDDEN2
 48
0.5
100
AcDbLine
 10
1624.462862593816
 20
1636.659599470271
 30
0.0
 11
1644.462862593815
 21
1636.659599470271
 31
0.0
  0
LINE
  5
3375
330
1F
100
AcDbEntity
  8
0
  6
HIDDEN2
100
AcDbLine
 10
1644.462862593815
 20
1636.659599470271
 30
0.0
 11
1644.462862593815
 21
1603.459599470272
 31
0.0
  0
ARC
  5
3376
330
1F
100
AcDbEntity
  8
0
  6
HIDDEN2
 48
0.5
100
AcDbCircle
 10
1621.462862593816
 20
1594.059599470272
 30
0.0
 40
3.0
100
AcDbArc
 50
270.0
 51
0.0
  0
DIMENSION
  5
337A
330
1F
100
AcDbEntity
  8
実形
100
AcDbDimension
  2
*D60
 10
1738.410407394939
 20
1603.459599470272
 30
0.0
 11
1765.112274487994
 21
1619.136659167581
 31
0.0
 70
   160
 71
     5
 42
33.19999999999982
  3
ISO-25
100
AcDbAlignedDimension
 13
1644.462862593815
 23
1636.659599470271
 33
0.0
 14
1644.462862593815
 24
1603.459599470272
 34
0.0
 50
90.0
100
AcDbRotatedDimension
1001
ACAD
1000
DSTYLE
1002
{
1070
   175
1070
     0
1070
   172
1070
     1
1070
    75
1070
     0
1070
   279
1070
     2
1002
}
  0
LINE
  5
33CF
330
1F
100
AcDbEntity
  8
0
100
AcDbLine
 10
1502.162862593816
 20
1683.559599470272
 30
0.0
 11
1502.162862593816
 21
1105.559599470272
 31
0.0
  0
LINE
  5
33D0
330
1F
100
AcDbEntity
  8
0
100
AcDbLine
 10
1520.162862593816
 20
1688.559599470272
 30
0.0
 11
1520.162862593815
 21
1100.559599470271
 31
0.0
  0
LINE
  5
33D1
330
1F
100
AcDbEntity
  8
実形
100
AcDbLine
 10
1507.162862593816
 20
1688.559599470272
 30
0.0
 11
1520.162862593816
 21
1688.559599470272
 31
0.0
  0
LINE
  5
33D2
330
1F
100
AcDbEntity
  8
実形
100
AcDbLine
 10
1507.162862593816
 20
1100.559599470271
 30
0.0
 11
1520.162862593815
 21
1100.559599470271
 31
0.0
  0
DIMENSION
  5
3473
330
1F
100
AcDbEntity
  8
実形
100
AcDbDimension
  2
*D67
 10
1520.162862593815
 20
993.8511117272364
 30
0.0
 11
1470.345364102336
 21
935.8662878108635
 31
0.0
 70
   160
 71
     5
 42
18.0
  3
ISO-25
100
AcDbAlignedDimension
 13
1502.162862593815
 23
1139.929286156211
 33
0.0
 14
1520.162862593815
 24
1139.929286156211
 34
0.0
 50
180.0
100
AcDbRotatedDimension
1001
ACAD
1000
DSTYLE
1002
{
1070
   279
1070
     1
1002
}
  0
DIMENSION
  5
3474
330
1F
100
AcDbEntity
  8
実形
100
AcDbDimension
  2
*D68
 10
1525.462862593815
 20
993.8511117272364
 30
0.0
 11
1553.390101179059
 21
936.7842871809962
 31
0.0
 70
   160
 71
     5
 42
5.299999999999727
  3
ISO-25
100
AcDbAlignedDimension
 13
1520.162862593815
 23
1140.908063797386
 33
0.0
 14
1525.462862593815
 24
1140.908063797386
 34
0.0
 50
180.0
100
AcDbRotatedDimension
1001
ACAD
1000
DSTYLE
1002
{
1070
   279
1070
     1
1002
}
  0
DIMENSION
  5
3475
330
1F
100
AcDbEntity
  8
実形
100
AcDbDimension
  2
*D69
 10
1700.462862593815
 20
993.8511117272364
 30
0.0
 11
1612.962862593815
 21
1012.601111727236
 31
0.0
 70
    32
 71
     5
 42
175.0
  3
ISO-25
100
AcDbAlignedDimension
 13
1525.462862593815
 23
1139.989149975245
 33
0.0
 14
1700.462862593815
 24
1139.929286156211
 34
0.0
 50
180.0
100
AcDbRotatedDimension
1001
ACAD
1000
DSTYLE
1002
{
1070
   279
1070
     1
1002
}
  0
DIMENSION
  5
3476
330
1F
100
AcDbEntity
  8
実形
100
AcDbDimension
  2
*D70
 10
1700.462862593815
 20
865.8317300566695
 30
0.0
 11
1601.312862593815
 21
884.5817300566695
 31
0.0
 70
    32
 71
     5
 42
198.3000000000002
  3
ISO-25
100
AcDbAlignedDimension
 13
1502.162862593815
 23
1074.92928615621
 33
0.0
 14
1700.462862593815
 24
1074.92928615621
 34
0.0
 50
180.0
100
AcDbRotatedDimension
1001
ACAD
1000
DSTYLE
1002
{
1070
   279
1070
     1
1002
}
  0
DIMENSION
  5
3477
330
1F
100
AcDbEntity
  8
実形
100
AcDbDimension
  2
*D71
 10
1710.462862593815
 20
993.8511117272364
 30
0.0
 11
1728.405600665579
 21
996.3795948012293
 31
0.0
 70
   160
  1
7
 71
     5
 42
10.0
  3
ISO-25
100
AcDbAlignedDimension
 13
1700.462862593815
 23
1139.929286156211
 33
0.0
 14
1710.462862593815
 24
1139.929286156211
 34
0.0
 50
180.0
100
AcDbRotatedDimension
1001
ACAD
1000
DSTYLE
1002
{
1070
   279
1070
     1
1002
}
  0
ARC
  5
34F4
330
1F
100
AcDbEntity
  8
実形
100
AcDbCircle
 10
1190.005716632864
 20
817.293882710738
 30
0.0
 40
10.0
100
AcDbArc
 50
0.0
 51
90.0
  0
ARC
  5
34F5
330
1F
100
AcDbEntity
  8
実形
100
AcDbCircle
 10
492.0057166328643
 20
817.2938827107381
 30
0.0
 40
10.0
100
AcDbArc
 50
90.0
 51
180.0
  0
LEADER
  5
3500
330
1F
100
AcDbEntity
  8
実形
100
AcDbLeader
  3
ISO-25
 40
25.0
 41
16.66666666666666
 76
     2
 10
1493.748340291113
 20
1097.538075300935
 30
0.0
 10
1434.271639108684
 20
1057.902415502086
 30
0.0
213
0.0
223
12.5
233
0.0
1001
ACAD
1000
DSTYLE
1002
{
1070
   147
1040
6.25
1070
    77
1070
     0
1070
    41
1040
20.0
1070
   342
1005
DA
1002
}
  0
TEXT
  5
3501
330
1F
100
AcDbEntity
  8
実形
100
AcDbText
 10
1402.881162006184
 20
1025.214447577866
 30
0.0
 40
25.0
  1
5R
 72
     2
 11
1444.547828672851
 21
1050.214447577866
 31
0.0
100
AcDbText
 73
     3
  0
LEADER
  5
3502
330
1F
100
AcDbEntity
  8
実形
100
AcDbLeader
  3
ISO-25
 40
25.0
 41
16.66666666666666
 76
     2
 10
1494.424522501996
 20
1693.99594111185
 30
0.0
 10
1418.465407942026
 20
1736.350330933434
 30
0.0
213
0.0
223
12.5
233
0.0
1001
ACAD
1000
DSTYLE
1002
{
1070
   147
1040
6.25
1070
    77
1070
     0
1070
    41
1040
20.0
1070
   342
1005
DA
1002
}
  0
TEXT
  5
3503
330
1F
100
AcDbEntity
  8
実形
100
AcDbText
 10
1384.690033378374
 20
1741.385888428928
 30
0.0
 40
25.0
  1
5R
 72
     2
 11
1426.35670004504
 21
1766.385888428928
 31
0.0
100
AcDbText
 73
     3
  0
DIMENSION
  5
355B
330
1F
100
AcDbEntity
  8
実形
100
AcDbDimension
  2
*D72
 10
1520.162862593816
 20
1742.039156248796
 30
0.0
 11
1473.14241642953
 21
1744.592717527662
 31
0.0
 70
   160
 71
     5
 42
18.0
  3
ISO-25
100
AcDbAlignedDimension
 13
1502.162862593816
 23
1642.703346214882
 33
0.0
 14
1520.162862593816
 24
1642.703346214882
 34
0.0
100
AcDbRotatedDimension
1001
ACAD
1000
DSTYLE
1002
{
1070
   279
1070
     1
1002
}
  0
DIMENSION
  5
355C
330
1F
100
AcDbEntity
  8
実形
100
AcDbDimension
  2
*D73
 10
1525.462862593816
 20
1742.039156248796
 30
0.0
 11
1476.126232704867
 21
1802.466577812191
 31
0.0
 70
   160
 71
     5
 42
5.300000000000181
  3
ISO-25
100
AcDbAlignedDimension
 13
1520.162862593816
 23
1642.703346214882
 33
0.0
 14
1525.462862593816
 24
1642.703346214882
 34
0.0
100
AcDbRotatedDimension
1001
ACAD
1000
DSTYLE
1002
{
1070
   140
1040
22.0
1070
   279
1070
     1
1002
}
  0
DIMENSION
  5
355D
330
1F
100
AcDbEntity
  8
実形
100
AcDbDimension
  2
*D74
 10
1624.462862593816
 20
1742.039156248796
 30
0.0
 11
1574.962862593816
 21
1760.789156248796
 31
0.0
 70
    32
 71
     5
 42
98.99999999999977
  3
ISO-25
100
AcDbAlignedDimension
 13
1525.462862593816
 23
1642.703346214882
 33
0.0
 14
1624.462862593816
 24
1642.703346214882
 34
0.0
100
AcDbRotatedDimension
1001
ACAD
1000
DSTYLE
1002
{
1070
   279
1070
     1
1002
}
  0
DIMENSION
  5
355E
330
1F
100
AcDbEntity
  8
実形
100
AcDbDimension
  2
*D75
 10
1624.462862593816
 20
1804.312639258175
 30
0.0
 11
1563.312862593815
 21
1823.062639258175
 31
0.0
 70
    32
 71
     5
 42
122.2999999999999
  3
ISO-25
100
AcDbAlignedDimension
 13
1502.162862593816
 23
1642.703346214882
 33
0.0
 14
1624.462862593816
 24
1642.703346214882
 34
0.0
100
AcDbRotatedDimension
1001
ACAD
1000
DSTYLE
1002
{
1070
   279
1070
     1
1002
}
  0
DIMENSION
  5
355F
330
1F
100
AcDbEntity
  8
実形
100
AcDbDimension
  2
*D76
 10
1644.462862593815
 20
1742.039156248796
 30
0.0
 11
1654.876056726854
 21
1746.82205406232
 31
0.0
 70
   160
 71
     5
 42
20.0
  3
ISO-25
100
AcDbAlignedDimension
 13
1624.462862593816
 23
1635.767093328853
 33
0.0
 14
1644.462862593815
 24
1635.767093328853
 34
0.0
100
AcDbRotatedDimension
1001
ACAD
1000
DSTYLE
1002
{
1070
   279
1070
     1
1002
}
  0
ARC
  5
35D4
330
1F
100
AcDbEntity
  8
実形
100
AcDbCircle
 10
1507.162862593816
 20
1683.559599470272
 30
0.0
 40
5.0
100
AcDbArc
 50
90.0
 51
180.0
  0
ARC
  5
35D5
330
1F
100
AcDbEntity
  8
実形
100
AcDbCircle
 10
1507.162862593816
 20
1105.559599470272
 30
0.0
 40
5.0
100
AcDbArc
 50
179.9999999999999
 51
270.0
  0
LINE
  5
36AB
330
1F
100
AcDbEntity
  8
センター
 48
0.5
370
    15
100
AcDbLine
 10
1144.881792479382
 20
1330.784366687828
 30
0.0
 11
1232.286566135054
 21
1330.784366687828
 31
0.0
  0
TEXT
  5
36AC
330
1F
100
AcDbEntity
  8
実形
370
    -2
100
AcDbText
 10
1118.474044123279
 20
1320.41404687174
 30
0.0
 40
25.0
  1
A
100
AcDbText
  0
TEXT
  5
36AD
330
1F
100
AcDbEntity
  8
実形
370
    -2
100
AcDbText
 10
1239.333963759982
 20
1320.41404687174
 30
0.0
 40
25.0
  1
A
100
AcDbText
  0
TEXT
  5
36AE
330
1F
100
AcDbEntity
  8
実形
370
    -2
100
AcDbText
 10
1248.938738519748
 20
1318.813585509568
 30
0.0
 40
25.0
  1
´
100
AcDbText
  0
VIEWPORT
  5
2E
102
{ACAD_XDICTIONARY
360
36EA
102
}
330
1B
100
AcDbEntity
 67
     1
  8
0
100
AcDbViewport
 10
144.7270812988281
 20
101.2295806407928
 30
0.0
 40
411.6736216682419
 41
222.1517806396485
 68
     1
 69
     1
 12
144.7270812988281
 22
101.2295806407928
 13
0.0
 23
0.0
 14
10.0
 24
10.0
 15
10.0
 25
10.0
 16
0.0
 26
0.0
 36
1.0
 17
0.0
 27
0.0
 37
0.0
 42
50.0
 43
0.0
 44
0.0
 45
222.1517806396485
 50
0.0
 51
0.0
 72
   100
 90
    32800
  1

281
     0
 71
     1
 74
     0
110
0.0
120
0.0
130
0.0
111
1.0
121
0.0
131
0.0
112
0.0
122
1.0
132
0.0
 79
     0
146
0.0
  0
VIEWPORT
  5
30
102
{ACAD_XDICTIONARY
360
36EC
102
}
330
1B
100
AcDbEntity
 67
     1
  8
0
100
AcDbViewport
 10
139.2237563133239
 20
101.2295821905136
 30
0.0
 40
222.7580101013184
 41
161.9673315048218
 68
     2
 69
     2
 12
210.0
 22
148.5
 13
0.0
 23
0.0
 14
10.0
 24
10.0
 15
10.0
 25
10.0
 16
0.0
 26
0.0
 36
1.0
 17
0.0
 27
0.0
 37
0.0
 42
50.0
 43
0.0
 44
0.0
 45
309.0686705647124
 50
0.0
 51
0.0
 72
   100
 90
    32864
  1

281
     0
 71
     1
 74
     0
110
0.0
120
0.0
130
0.0
111
1.0
121
0.0
131
0.0
112
0.0
122
1.0
132
0.0
 79
     0
146
0.0
  0
ENDSEC
  0
SECTION
  2
OBJECTS
  0
DICTIONARY
  5
C
330
0
100
AcDbDictionary
281
     1
  3
ACAD_COLOR
350
1909
  3
ACAD_GROUP
350
D
  3
ACAD_LAYOUT
350
1A
  3
ACAD_MATERIAL
350
1908
  3
ACAD_MLINESTYLE
350
17
  3
ACAD_PLOTSETTINGS
350
19
  3
ACAD_PLOTSTYLENAME
350
E
  3
ACAD_TABLESTYLE
350
190A
  3
AcadDim
350
5B1
  3
ACDBHEADERROUNDTRIPXREC
350
36E3
  3
AcDbVariableDictionary
350
96D
  0
DICTIONARY
  5
1969
330
2
100
AcDbDictionary
280
     1
281
     1
  3
ACAD_LAYERFILTERS
360
1E1D
  3
ACAD_LAYERSTATES
360
196A
  3
ACLYDICTIONARY
360
1E1C
  0
DICTIONARY
  5
19DA
330
1F
100
AcDbDictionary
280
     1
281
     1
  3
ACAD_SORTENTS
360
19DB
  0
DICTIONARY
  5
341E
330
3418
100
AcDbDictionary
280
     1
281
     1
  3
ACAD_SORTENTS
360
341F
  0
DICTIONARY
  5
36EA
330
2E
100
AcDbDictionary
280
     1
281
     1
  3
ACAD_XREC_ROUNDTRIP
360
36EB
  0
DICTIONARY
  5
36EC
330
30
100
AcDbDictionary
280
     1
281
     1
  3
ACAD_XREC_ROUNDTRIP
360
36ED
  0
DICTIONARY
  5
1909
102
{ACAD_REACTORS
330
C
102
}
330
C
100
AcDbDictionary
281
     1
  0
DICTIONARY
  5
D
102
{ACAD_REACTORS
330
C
102
}
330
C
100
AcDbDictionary
281
     1
  0
DICTIONARY
  5
1A
102
{ACAD_REACTORS
330
C
102
}
330
C
100
AcDbDictionary
281
     1
  3
Model
350
22
  3
ﾚｲｱｳﾄ1
350
1E
  3
ﾚｲｱｳﾄ2
350
26
  0
DICTIONARY
  5
1908
102
{ACAD_REACTORS
330
C
102
}
330
C
100
AcDbDictionary
281
     1
  0
DICTIONARY
  5
17
102
{ACAD_REACTORS
330
C
102
}
330
C
100
AcDbDictionary
281
     1
  3
Standard
350
18
  0
DICTIONARY
  5
19
102
{ACAD_REACTORS
330
C
102
}
330
C
100
AcDbDictionary
281
     1
  0
ACDBDICTIONARYWDFLT
  5
E
102
{ACAD_REACTORS
330
C
102
}
330
C
100
AcDbDictionary
281
     1
  3
Normal
350
F
100
AcDbDictionaryWithDefault
340
F
  0
DICTIONARY
  5
190A
102
{ACAD_REACTORS
330
C
102
}
330
C
100
AcDbDictionary
281
     1
  3
Standard
350
190B
  0
XRECORD
  5
5B1
102
{ACAD_REACTORS
330
C
102
}
330
C
100
AcDbXrecord
280
     1
 90
   990106
  3

 60
     0
 61
     0
 62
     1
 63
     3
 64
     0
 65
     0
 66
     0
 67
     3
 68
     1
 69
     0
 70
     0
 71
     0
 72
     0
 40
5.637859010809637
170
     0
340
0
  0
DICTIONARY
  5
36E3
102
{ACAD_REACTORS
330
C
102
}
330
C
100
AcDbDictionary
281
     1
  0
DICTIONARY
  5
96D
102
{ACAD_REACTORS
330
C
102
}
330
C
100
AcDbDictionary
281
     1
  3
CTABLESTYLE
350
1911
  3
DIMASSOC
350
36E0
  3
PROJECTNAME
350
36E1
  3
SORTENTS
350
96E
  0
DICTIONARY
  5
1E1D
102
{ACAD_REACTORS
330
1969
102
}
330
1969
100
AcDbDictionary
281
     1
  0
DICTIONARY
  5
196A
102
{ACAD_REACTORS
330
1969
102
}
330
1969
100
AcDbDictionary
281
     1
  0
DICTIONARY
  5
1E1C
102
{ACAD_REACTORS
330
1969
102
}
330
1969
100
AcDbDictionary
281
     1
1001
ACAD
1000
<All
  0
SORTENTSTABLE
  5
19DB
102
{ACAD_REACTORS
330
19DA
102
}
330
19DA
100
AcDbSortentsTable
330
1F
331
1F7A
  5
2E1D
331
2F71
  5
2F74
331
1D6C
  5
1D70
331
EB1
  5
EB9
331
18E5
  5
18EA
331
2F79
  5
2F7C
331
1D74
  5
1D78
331
EB9
  5
13DC
331
166F
  5
1674
331
18ED
  5
1D6A
331
2F81
  5
2F84
331
1D7C
  5
1E07
331
18B6
  5
18BB
331
335F
  5
3364
331
18BE
  5
18C3
331
3367
  5
336C
331
336F
  5
3374
331
54B
  5
55C
331
A5
  5
A8
331
376
  5
384
331
5AA
  5
5F4
331
3DD
  5
3DE
331
260
  5
261
331
563
  5
59F
331
5D2
  5
5F7
331
2E22
  5
2E25
331
2F89
  5
2F8C
331
18C6
  5
18D1
331
2E2A
  5
2E2D
331
2F91
  5
2F94
331
2F99
  5
2F9C
331
13E1
  5
166C
331
18D6
  5
18DB
331
2FA1
  5
2FA4
331
2F6A
  5
2F6D
331
18DE
  5
18E3
331
3279
  5
327B
331
34F4
  5
3274
331
3475
  5
34F5
331
355C
  5
355E
331
A9
  5
AA
331
32F
  5
334
331
40D
  5
419
331
415
  5
471
331
5FA
  5
5FF
331
602
  5
C9F
331
2F72
  5
2F75
331
1D6D
  5
1D71
331
EB2
  5
EBA
331
18E6
  5
18EB
331
2F7A
  5
2F7D
331
1D75
  5
1D79
331
EBA
  5
13DD
331
1670
  5
187D
331
2F82
  5
2F85
331
3358
  5
335D
331
1D7D
  5
1E1E
331
18B7
  5
18BC
331
33CF
  5
3357
331
3360
  5
3365
331
18BF
  5
18C4
331
3368
  5
336D
331
54C
  5
55D
331
55C
  5
563
331
3DE
  5
3DF
331
261
  5
262
331
A2C
  5
DCD
331
2E23
  5
2E26
331
2F8A
  5
2F8D
331
F02
  5
13E0
331
18C7
  5
18D2
331
2E2B
  5
2E2E
331
2F92
  5
2F95
331
2F9A
  5
2F9D
331
3370
  5
3375
331
13E2
  5
166D
331
18D7
  5
18DC
331
2FA2
  5
3143
331
DCC
  5
DE6
331
2F6B
  5
2F6E
331
18DF
  5
18E4
331
327A
  5
3355
331
34F5
  5
40D
331
3476
  5
3500
331
355D
  5
355F
331
2E9
  5
2F7
331
AA
  5
AB
331
53D
  5
54E
331
3BF
  5
3DD
331
340
  5
370
331
41E
  5
48E
331
5FB
  5
600
331
603
  5
CB5
331
2F73
  5
2F76
331
1D6E
  5
1D72
331
18E7
  5
18EC
331
2F7B
  5
2F7E
331
1F84
  5
2E1E
331
1D76
  5
1D7A
331
EBB
  5
13DE
331
1671
  5
187E
331
2F83
  5
2F86
331
1D7E
  5
1F79
331
18B8
  5
18BD
331
3359
  5
335E
331
33D0
  5
3359
331
3361
  5
3366
331
3369
  5
336E
331
35D4
  5
3475
331
370
  5
371
331
3DF
  5
3E0
331
262
  5
267
331
55D
  5
565
331
565
  5
5A0
331
48E
  5
53F
331
18C0
  5
18C5
331
2F8B
  5
2F8E
331
A2D
  5
DCF
331
2E24
  5
2E27
331
18C8
  5
18D3
331
2F93
  5
2F96
331
2E2C
  5
2E2F
331
2F9B
  5
2F9E
331
CB5
  5
DD1
331
2F64
  5
2F67
331
3371
  5
3376
331
18D8
  5
18DD
331
13E3
  5
166E
331
2FA3
  5
3144
331
DCD
  5
DE7
331
2F6C
  5
2F6F
331
3143
  5
40B
331
3273
  5
3275
331
327B
  5
3356
331
3477
  5
3501
331
355E
  5
35D4
331
AB
  5
AD
331
5F4
  5
5F9
331
339
  5
33C
331
5FC
  5
601
331
18E0
  5
18E5
331
2F74
  5
2F77
331
1D6F
  5
1D73
331
18E8
  5
18ED
331
166A
  5
166F
331
2F7C
  5
2F7F
331
1F85
  5
2E1F
331
1E06
  5
1F7A
331
1D77
  5
1D7B
331
1672
  5
18B5
331
18B1
  5
18B8
331
2F84
  5
2F87
331
1E1E
  5
A0
331
18B9
  5
18BE
331
2E1D
  5
2E20
331
335A
  5
335F
331
33D1
  5
3474
331
3362
  5
3367
331
336A
  5
336F
331
35D5
  5
3358
331
371
  5
376
331
A0
  5
A5
331
54E
  5
55F
331
5AD
  5
5F5
331
3E0
  5
3E3
331
566
  5
5A9
331
26B
  5
2E9
331
50F
  5
540
331
EFC
  5
13DF
331
18C1
  5
18C6
331
2F8C
  5
2F8F
331
2E25
  5
2E28
331
18C9
  5
18D4
331
2F94
  5
2F97
331
2E2D
  5
2F64
331
13DC
  5
13E1
331
18D1
  5
18D7
331
2F9C
  5
2F9F
331
2F65
  5
2F68
331
3372
  5
3377
331
18D9
  5
18DE
331
2FA4
  5
3145
331
2F6D
  5
2F70
331
3144
  5
413
331
337A
  5
3473
331
3274
  5
3276
331
355F
  5
35D5
331
32A
  5
32B
331
586
  5
5AD
331
5F5
  5
5FA
331
53F
  5
558
331
5FD
  5
602
331
2F75
  5
2F78
331
EAD
  5
EB7
331
18E1
  5
18E6
331
1D70
  5
1D74
331
2F7D
  5
2F80
331
166B
  5
1670
331
DE6
  5
E80
331
18E9
  5
1976
331
1E07
  5
1F84
331
1D78
  5
1D7C
331
2F85
  5
2F88
331
1673
  5
18B6
331
335B
  5
3360
331
2E1E
  5
2E21
331
18BA
  5
18BF
331
33D2
  5
3476
331
3363
  5
3368
331
336B
  5
3370
331
480
  5
533
331
55F
  5
566
331
2F8D
  5
2F90
331
2E26
  5
2E29
331
18C2
  5
18C7
331
2F95
  5
2F98
331
2E2E
  5
2F65
331
C9F
  5
DD0
331
18CA
  5
18D6
331
2F9D
  5
2FA0
331
2F66
  5
2F69
331
E8E
  5
EB6
331
13DD
  5
13E2
331
18D2
  5
18D8
331
3373
  5
3378
331
3145
  5
3146
331
2F6E
  5
2F71
331
DCF
  5
DE8
331
18DA
  5
18DF
331
3275
  5
3277
331
3500
  5
3502
331
39A
  5
39B
331
32B
  5
32C
331
AD
  5
25F
331
3B2
  5
3BF
331
5F6
  5
5FB
331
419
  5
473
331
540
  5
55A
331
304
  5
31C
331
471
  5
4B0
331
5FE
  5
603
331
59F
  5
5AE
331
1D69
  5
1D6D
331
2F76
  5
2F79
331
EAE
  5
EB8
331
18E2
  5
18E7
331
1D71
  5
1D75
331
2F7E
  5
2F81
331
EB6
  5
EBB
331
DE7
  5
E81
331
166C
  5
1671
331
18EA
  5
1977
331
1D79
  5
1D7D
331
2F86
  5
2F89
331
1674
  5
18B7
331
335C
  5
3361
331
2E1F
  5
2E22
331
E77
  5
EAD
331
18BB
  5
18C0
331
3364
  5
3369
331
336C
  5
3371
331
558
  5
560
331
31C
  5
32A
331
560
  5
56A
331
2F8E
  5
2F91
331
2E27
  5
2E2A
331
E7F
  5
EAE
331
18C3
  5
18C8
331
2F96
  5
2F99
331
2E2F
  5
2F66
331
2F9E
  5
2FA1
331
2F67
  5
2F6A
331
13DE
  5
13E3
331
18D3
  5
18D9
331
3146
  5
3273
331
3374
  5
33D0
331
2F6F
  5
2F72
331
18DB
  5
18E0
331
3276
  5
3278
331
3355
  5
335A
331
3501
  5
3503
331
511
  5
54B
331
39B
  5
3B2
331
32C
  5
32D
331
40A
  5
414
331
334
  5
335
331
5F7
  5
5FC
331
33C
  5
340
331
41A
  5
480
331
5FF
  5
A29
331
DD0
  5
E77
331
1D6A
  5
1D6E
331
2F77
  5
2F7A
331
18E3
  5
18E8
331
1D72
  5
1D76
331
2F7F
  5
2F82
331
EB7
  5
ED9
331
DE8
  5
E8E
331
166D
  5
1672
331
18EB
  5
1978
331
1D7A
  5
1D7E
331
2F87
  5
2F8A
331
18B4
  5
18B9
331
335D
  5
3362
331
18BC
  5
18C1
331
3365
  5
336A
331
336D
  5
3372
331
5A0
  5
5B0
331
384
  5
39A
331
3E3
  5
3E4
331
5D0
  5
5F6
331
2E20
  5
2E23
331
A29
  5
DCC
331
2F8F
  5
2F92
331
2E28
  5
2E2B
331
E80
  5
EB1
331
18C4
  5
18C9
331
2F97
  5
2F9A
331
2F9F
  5
2FA2
331
2F68
  5
2F6B
331
13DF
  5
15B7
331
18D4
  5
18DA
331
3375
  5
33D1
331
1D03
  5
1D6B
331
18DC
  5
18E1
331
3277
  5
3279
331
3502
  5
355B
331
3356
  5
335B
331
3473
  5
3477
331
5D8
  5
5F8
331
32D
  5
32E
331
40B
  5
415
331
532
  5
54C
331
335
  5
339
331
413
  5
41A
331
5F8
  5
5FD
331
600
  5
A2C
331
473
  5
52C
331
2F70
  5
2F73
331
1F79
  5
1F85
331
DD1
  5
E7F
331
1D6B
  5
1D6F
331
2F78
  5
2F7B
331
18E4
  5
18E9
331
1D73
  5
1D77
331
18EC
  5
1D69
331
2F80
  5
2F83
331
EB8
  5
EDA
331
166E
  5
1673
331
18B5
  5
18BA
331
1D7B
  5
1E06
331
335E
  5
3363
331
18BD
  5
18C2
331
3366
  5
336B
331
336E
  5
3373
331
9C
  5
9C
331
55A
  5
562
331
25F
  5
260
331
5A9
  5
5D8
331
562
  5
56C
331
3E4
  5
407
331
267
  5
26B
331
2E21
  5
2E24
331
2F88
  5
2F8B
331
2F90
  5
2F93
331
2E29
  5
2E2C
331
E81
  5
EB2
331
18C5
  5
18CA
331
2F98
  5
2F9B
331
2FA0
  5
2FA3
331
2F69
  5
2F6C
331
13E0
  5
166B
331
3376
  5
33D2
331
1D04
  5
1D6C
331
18DD
  5
18E2
331
3278
  5
327A
331
3503
  5
355C
331
3357
  5
335C
331
3474
  5
34F4
331
355B
  5
355D
331
A8
  5
A9
331
56A
  5
5AA
331
32E
  5
32F
331
2F7
  5
304
331
414
  5
41E
331
5F9
  5
5FE
331
601
  5
A2D
  0
SORTENTSTABLE
  5
341F
102
{ACAD_REACTORS
330
341E
102
}
330
341E
100
AcDbSortentsTable
330
3418
  0
XRECORD
  5
36EB
102
{ACAD_REACTORS
330
36EA
102
}
330
36EA
100
AcDbXrecord
280
     1
102
SHADEPLOT
 70
     0
  0
XRECORD
  5
36ED
102
{ACAD_REACTORS
330
36EC
102
}
330
36EC
100
AcDbXrecord
280
     1
102
SHADEPLOT
 70
     0
  0
LAYOUT
  5
22
102
{ACAD_XDICTIONARY
360
36E6
102
}
102
{ACAD_REACTORS
330
1A
102
}
330
1A
100
AcDbPlotSettings
  1

  2
EPSON PM-800C
  4
A4
  6

 40
3.757083177566528
 41
14.7637300491333
 42
3.757080078125
 43
3.757080078125
 44
209.9733276367187
 45
296.9683227539062
 46
0.0
 47
0.0
 48
0.0
 49
0.0
140
0.0
141
0.0
142
1.0
143
10.0
 70
 11952
 72
     1
 73
     1
 74
     2
  7

 75
    20
147
0.1
148
0.0
149
0.0
100
AcDbLayout
  1
Model
 70
     1
 71
     0
 10
0.0
 20
0.0
 11
12.0
 21
9.0
 12
0.0
 22
0.0
 32
0.0
 14
0.0
 24
0.0
 34
0.0
 15
0.0
 25
0.0
 35
0.0
146
0.0
 13
0.0
 23
0.0
 33
0.0
 16
1.0
 26
0.0
 36
0.0
 17
0.0
 27
1.0
 37
0.0
 76
     0
330
1F
  0
LAYOUT
  5
1E
102
{ACAD_XDICTIONARY
360
36E4
102
}
102
{ACAD_REACTORS
330
1A
102
}
330
1A
100
AcDbPlotSettings
  1

  2
EPSON PM-800C
  4
A4
  6

 40
3.757083177566528
 41
14.7637300491333
 42
3.757080078125
 43
3.757080078125
 44
209.9733276367187
 45
296.9683227539062
 46
0.0
 47
0.0
 48
0.0
 49
0.0
140
0.0
141
0.0
142
1.0
143
1.0
 70
   688
 72
     1
 73
     1
 74
     5
  7

 75
    16
147
1.0
148
0.0
149
0.0
100
AcDbLayout
  1
ﾚｲｱｳﾄ1
 70
     1
 71
     1
 10
-3.757080078125
 20
-3.757083177566528
 11
293.2112426757813
 21
206.2162444591522
 12
0.0
 22
0.0
 32
0.0
 14
27.8447512626648
 24
20.24591643810271
 34
0.0
 15
250.6027613639831
 25
182.2132479429245
 35
0.0
146
0.0
 13
0.0
 23
0.0
 33
0.0
 16
1.0
 26
0.0
 36
0.0
 17
0.0
 27
1.0
 37
0.0
 76
     0
330
1B
331
2E
  0
LAYOUT
  5
26
102
{ACAD_XDICTIONARY
360
36E8
102
}
102
{ACAD_REACTORS
330
1A
102
}
330
1A
100
AcDbPlotSettings
  1

  2
EPSON PM-800C
  4

  6

 40
0.0
 41
0.0
 42
0.0
 43
0.0
 44
0.0
 45
0.0
 46
0.0
 47
0.0
 48
0.0
 49
0.0
140
0.0
141
0.0
142
1.0
143
1.0
 70
   688
 72
     0
 73
     0
 74
     5
  7

 75
    16
147
1.0
148
0.0
149
0.0
100
AcDbLayout
  1
ﾚｲｱｳﾄ2
 70
     1
 71
     2
 10
0.0
 20
0.0
 11
12.0
 21
9.0
 12
0.0
 22
0.0
 32
0.0
 14
0.0
 24
0.0
 34
0.0
 15
0.0
 25
0.0
 35
0.0
146
0.0
 13
0.0
 23
0.0
 33
0.0
 16
1.0
 26
0.0
 36
0.0
 17
0.0
 27
1.0
 37
0.0
 76
     0
330
23
  0
MLINESTYLE
  5
18
102
{ACAD_REACTORS
330
17
102
}
330
17
100
AcDbMlineStyle
  2
STANDARD
 70
     0
  3

 62
   256
 51
90.0
 52
90.0
 71
     2
 49
0.5
 62
   256
  6
BYLAYER
 49
-0.5
 62
   256
  6
BYLAYER
  0
ACDBPLACEHOLDER
  5
F
102
{ACAD_REACTORS
330
E
102
}
330
E
  0
TABLESTYLE
  5
190B
102
{ACAD_REACTORS
330
190A
102
}
330
190A
100
AcDbTableStyle
  3
Standard
 70
     0
 71
     0
 40
1.5
 41
1.5
280
     0
281
     0
  7
Standard
140
4.5
170
     2
 62
     0
 63
     7
283
     0
274
    -2
284
     1
 64
     0
275
    -2
285
     1
 65
     0
276
    -2
286
     1
 66
     0
277
    -2
287
     1
 67
     0
278
    -2
288
     1
 68
     0
279
    -2
289
     1
 69
     0
  7
Standard
140
6.0
170
     5
 62
     0
 63
     7
283
     0
274
    -2
284
     1
 64
     0
275
    -2
285
     1
 65
     0
276
    -2
286
     1
 66
     0
277
    -2
287
     1
 67
     0
278
    -2
288
     1
 68
     0
279
    -2
289
     1
 69
     0
  7
Standard
140
4.5
170
     5
 62
     0
 63
     7
283
     0
274
    -2
284
     1
 64
     0
275
    -2
285
     1
 65
     0
276
    -2
286
     1
 66
     0
277
    -2
287
     1
 67
     0
278
    -2
288
     1
 68
     0
279
    -2
289
     1
 69
     0
  0
DICTIONARYVAR
  5
1911
102
{ACAD_REACTORS
330
96D
102
}
330
96D
100
DictionaryVariables
280
     0
  1
STANDARD
  0
DICTIONARYVAR
  5
36E0
102
{ACAD_REACTORS
330
96D
102
}
330
96D
100
DictionaryVariables
280
     0
  1
1
  0
DICTIONARYVAR
  5
36E1
102
{ACAD_REACTORS
330
96D
102
}
330
96D
100
DictionaryVariables
280
     0
  1

  0
DICTIONARYVAR
  5
96E
102
{ACAD_REACTORS
330
96D
102
}
330
96D
100
DictionaryVariables
280
     0
  1
96
  0
DICTIONARY
  5
36E6
330
22
100
AcDbDictionary
280
     1
281
     1
  3
ACAD_XREC_ROUNDTRIP
360
36E7
  0
DICTIONARY
  5
36E4
330
1E
100
AcDbDictionary
280
     1
281
     1
  3
ACAD_XREC_ROUNDTRIP
360
36E5
  0
DICTIONARY
  5
36E8
330
26
100
AcDbDictionary
280
     1
281
     1
  3
ACAD_XREC_ROUNDTRIP
360
36E9
  0
XRECORD
  5
36E7
102
{ACAD_REACTORS
330
36E6
102
}
330
36E6
100
AcDbXrecord
280
     1
102
SHADEPLOT
 70
     0
102
SHADEPLOTRESLEVEL
 70
     2
102
SHADEPLOTCUSTOMDPI
 70
   300
  0
XRECORD
  5
36E5
102
{ACAD_REACTORS
330
36E4
102
}
330
36E4
100
AcDbXrecord
280
     1
102
SHADEPLOT
 70
     0
102
SHADEPLOTRESLEVEL
 70
     2
102
SHADEPLOTCUSTOMDPI
 70
   300
  0
XRECORD
  5
36E9
102
{ACAD_REACTORS
330
36E8
102
}
330
36E8
100
AcDbXrecord
280
     1
102
SHADEPLOT
 70
     0
102
SHADEPLOTRESLEVEL
 70
     2
102
SHADEPLOTCUSTOMDPI
 70
   300
  0
ENDSEC
  0
EOF
