  0
SECTION
  2
HEADER
  9
$ACADVER
  1
AC1015
  9
$ACADMAINTVER
 70
    20
  9
$DWGCODEPAGE
  3
ANSI_932
  9
$INSBASE
 10
0.0
 20
0.0
 30
0.0
  9
$EXTMIN
 10
119.0
 20
4.0
 30
0.0
  9
$EXTMAX
 10
2784.0
 20
2024.0
 30
0.0
  9
$LIMMIN
 10
0.0
 20
0.0
  9
$LIMMAX
 10
29700.0
 20
21000.0
  9
$ORTHOMODE
 70
     1
  9
$REGENMODE
 70
     1
  9
$FILLMODE
 70
     1
  9
$QTEXTMODE
 70
     0
  9
$MIRRTEXT
 70
     1
  9
$LTSCALE
 40
4.0
  9
$ATTMODE
 70
     1
  9
$TEXTSIZE
 40
35.0
  9
$TRACEWID
 40
1.0
  9
$TEXTSTYLE
  7
Standard
  9
$CLAYER
  8
実形
  9
$CELTYPE
  6
ByLayer
  9
$CECOLOR
 62
   256
  9
$CELTSCALE
 40
1.0
  9
$DISPSILH
 70
     0
  9
$DIMSCALE
 40
1.0
  9
$DIMASZ
 40
10.0
  9
$DIMEXO
 40
65.0
  9
$DIMDLI
 40
3.75
  9
$DIMRND
 40
0.0
  9
$DIMDLE
 40
0.0
  9
$DIMEXE
 40
0.0
  9
$DIMTP
 40
0.0
  9
$DIMTM
 40
0.0
  9
$DIMTXT
 40
25.0
  9
$DIMCEN
 40
2.5
  9
$DIMTSZ
 40
0.0
  9
$DIMTOL
 70
     0
  9
$DIMLIM
 70
     0
  9
$DIMTIH
 70
     0
  9
$DIMTOH
 70
     0
  9
$DIMSE1
 70
     0
  9
$DIMSE2
 70
     0
  9
$DIMTAD
 70
     1
  9
$DIMZIN
 70
     8
  9
$DIMBLK
  1
Dot
  9
$DIMASO
 70
     1
  9
$DIMSHO
 70
     1
  9
$DIMPOST
  1

  9
$DIMAPOST
  1

  9
$DIMALT
 70
     0
  9
$DIMALTD
 70
     3
  9
$DIMALTF
 40
0.03937007874016
  9
$DIMLFAC
 40
1.0
  9
$DIMTOFL
 70
     1
  9
$DIMTVP
 40
0.0
  9
$DIMTIX
 70
     0
  9
$DIMSOXD
 70
     0
  9
$DIMSAH
 70
     0
  9
$DIMBLK1
  1

  9
$DIMBLK2
  1

  9
$DIMSTYLE
  2
ISO-25
  9
$DIMCLRD
 70
     0
  9
$DIMCLRE
 70
     0
  9
$DIMCLRT
 70
     0
  9
$DIMTFAC
 40
1.0
  9
$DIMGAP
 40
6.25
  9
$DIMJUST
 70
     0
  9
$DIMSD1
 70
     0
  9
$DIMSD2
 70
     0
  9
$DIMTOLJ
 70
     0
  9
$DIMTZIN
 70
     8
  9
$DIMALTZ
 70
     0
  9
$DIMALTTZ
 70
     0
  9
$DIMUPT
 70
     0
  9
$DIMDEC
 70
     2
  9
$DIMTDEC
 70
     2
  9
$DIMALTU
 70
     2
  9
$DIMALTTD
 70
     3
  9
$DIMTXSTY
  7
Standard
  9
$DIMAUNIT
 70
     0
  9
$DIMADEC
 70
     0
  9
$DIMALTRND
 40
0.0
  9
$DIMAZIN
 70
     0
  9
$DIMDSEP
 70
    46
  9
$DIMATFIT
 70
     3
  9
$DIMFRAC
 70
     0
  9
$DIMLDRBLK
  1
Open30
  9
$DIMLUNIT
 70
     2
  9
$DIMLWD
 70
    15
  9
$DIMLWE
 70
    15
  9
$DIMTMOVE
 70
     2
  9
$LUNITS
 70
     2
  9
$LUPREC
 70
     2
  9
$SKETCHINC
 40
1.0
  9
$FILLETRAD
 40
3.0
  9
$AUNITS
 70
     0
  9
$AUPREC
 70
     0
  9
$MENU
  1
.
  9
$ELEVATION
 40
0.0
  9
$PELEVATION
 40
0.0
  9
$THICKNESS
 40
0.0
  9
$LIMCHECK
 70
     1
  9
$CHAMFERA
 40
10.0
  9
$CHAMFERB
 40
10.0
  9
$CHAMFERC
 40
20.0
  9
$CHAMFERD
 40
0.0
  9
$SKPOLY
 70
     0
  9
$TDCREATE
 40
2451673.575802199
  9
$TDUCREATE
 40
2451673.200802199
  9
$TDUPDATE
 40
2458813.752015405
  9
$TDUUPDATE
 40
2458813.377015405
  9
$TDINDWG
 40
1.5967316204
  9
$TDUSRTIMER
 40
1.5967309259
  9
$USRTIMER
 70
     1
  9
$ANGBASE
 50
0.0
  9
$ANGDIR
 70
     0
  9
$PDMODE
 70
     0
  9
$PDSIZE
 40
0.0
  9
$PLINEWID
 40
0.0
  9
$SPLFRAME
 70
     0
  9
$SPLINETYPE
 70
     6
  9
$SPLINESEGS
 70
     8
  9
$HANDSEED
  5
2A4F
  9
$SURFTAB1
 70
     6
  9
$SURFTAB2
 70
     6
  9
$SURFTYPE
 70
     6
  9
$SURFU
 70
     6
  9
$SURFV
 70
     6
  9
$UCSBASE
  2

  9
$UCSNAME
  2

  9
$UCSORG
 10
0.0
 20
0.0
 30
0.0
  9
$UCSXDIR
 10
1.0
 20
0.0
 30
0.0
  9
$UCSYDIR
 10
0.0
 20
1.0
 30
0.0
  9
$UCSORTHOREF
  2

  9
$UCSORTHOVIEW
 70
     0
  9
$UCSORGTOP
 10
0.0
 20
0.0
 30
0.0
  9
$UCSORGBOTTOM
 10
0.0
 20
0.0
 30
0.0
  9
$UCSORGLEFT
 10
0.0
 20
0.0
 30
0.0
  9
$UCSORGRIGHT
 10
0.0
 20
0.0
 30
0.0
  9
$UCSORGFRONT
 10
0.0
 20
0.0
 30
0.0
  9
$UCSORGBACK
 10
0.0
 20
0.0
 30
0.0
  9
$PUCSBASE
  2

  9
$PUCSNAME
  2

  9
$PUCSORG
 10
0.0
 20
0.0
 30
0.0
  9
$PUCSXDIR
 10
1.0
 20
0.0
 30
0.0
  9
$PUCSYDIR
 10
0.0
 20
1.0
 30
0.0
  9
$PUCSORTHOREF
  2

  9
$PUCSORTHOVIEW
 70
     0
  9
$PUCSORGTOP
 10
0.0
 20
0.0
 30
0.0
  9
$PUCSORGBOTTOM
 10
0.0
 20
0.0
 30
0.0
  9
$PUCSORGLEFT
 10
0.0
 20
0.0
 30
0.0
  9
$PUCSORGRIGHT
 10
0.0
 20
0.0
 30
0.0
  9
$PUCSORGFRONT
 10
0.0
 20
0.0
 30
0.0
  9
$PUCSORGBACK
 10
0.0
 20
0.0
 30
0.0
  9
$USERI1
 70
     0
  9
$USERI2
 70
     0
  9
$USERI3
 70
     0
  9
$USERI4
 70
     0
  9
$USERI5
 70
     0
  9
$USERR1
 40
0.0
  9
$USERR2
 40
0.0
  9
$USERR3
 40
0.0
  9
$USERR4
 40
0.0
  9
$USERR5
 40
0.0
  9
$WORLDVIEW
 70
     1
  9
$SHADEDGE
 70
     3
  9
$SHADEDIF
 70
    70
  9
$TILEMODE
 70
     1
  9
$MAXACTVP
 70
    64
  9
$PINSBASE
 10
0.0
 20
0.0
 30
0.0
  9
$PLIMCHECK
 70
     0
  9
$PEXTMIN
 10
27.8447512626648
 20
20.24591643810271
 30
0.0
  9
$PEXTMAX
 10
250.6027613639831
 20
182.2132479429245
 30
0.0
  9
$PLIMMIN
 10
-3.757080078125
 20
-3.757083177566528
  9
$PLIMMAX
 10
293.2112426757813
 20
206.2162444591522
  9
$UNITMODE
 70
     0
  9
$VISRETAIN
 70
     1
  9
$PLINEGEN
 70
     0
  9
$PSLTSCALE
 70
     1
  9
$TREEDEPTH
 70
  3020
  9
$CMLSTYLE
  2
Standard
  9
$CMLJUST
 70
     0
  9
$CMLSCALE
 40
20.0
  9
$PROXYGRAPHICS
 70
     1
  9
$MEASUREMENT
 70
     1
  9
$CELWEIGHT
370
    -1
  9
$ENDCAPS
280
     0
  9
$JOINSTYLE
280
     0
  9
$LWDISPLAY
290
     0
  9
$INSUNITS
 70
     4
  9
$HYPERLINKBASE
  1

  9
$STYLESHEET
  1

  9
$XEDIT
290
     1
  9
$CEPSNTYPE
380
     0
  9
$PSTYLEMODE
290
     1
  9
$FINGERPRINTGUID
  2
{C8EA1F16-24C9-11D4-9416-CE0A3B32152F}
  9
$VERSIONGUID
  2
{28C736D2-E1FD-4119-8463-F2D446C8C7FB}
  9
$EXTNAMES
290
     1
  9
$PSVPSCALE
 40
0.0
  9
$OLESTARTUP
290
     0
  0
ENDSEC
  0
SECTION
  2
CLASSES
  0
CLASS
  1
ACDBDICTIONARYWDFLT
  2
AcDbDictionaryWithDefault
  3
ObjectDBX Classes
 90
        0
280
     0
281
     0
  0
CLASS
  1
ACDBPLACEHOLDER
  2
AcDbPlaceHolder
  3
ObjectDBX Classes
 90
        0
280
     0
281
     0
  0
CLASS
  1
LAYOUT
  2
AcDbLayout
  3
ObjectDBX Classes
 90
        0
280
     0
281
     0
  0
CLASS
  1
DICTIONARYVAR
  2
AcDbDictionaryVar
  3
ObjectDBX Classes
 90
        0
280
     0
281
     0
  0
CLASS
  1
TABLESTYLE
  2
AcDbTableStyle
  3
ObjectDBX Classes
 90
     2047
280
     0
281
     0
  0
CLASS
  1
SORTENTSTABLE
  2
AcDbSortentsTable
  3
ObjectDBX Classes
 90
        0
280
     0
281
     0
  0
ENDSEC
  0
SECTION
  2
TABLES
  0
TABLE
  2
VPORT
  5
8
330
0
100
AcDbSymbolTable
 70
     2
  0
VPORT
  5
2A43
330
8
100
AcDbSymbolTableRecord
100
AcDbViewportTableRecord
  2
*Active
 70
     0
 10
0.0
 20
0.0
 11
1.0
 21
1.0
 12
1257.209063817025
 22
1103.860996641876
 13
0.0
 23
0.0
 14
10.0
 24
10.0
 15
10.0
 25
10.0
 16
0.0
 26
0.0
 36
1.0
 17
0.0
 27
0.0
 37
0.0
 40
2381.946999742535
 41
1.29038112522686
 42
50.0
 43
0.0
 44
0.0
 50
0.0
 51
0.0
 71
     0
 72
   100
 73
     1
 74
     3
 75
     0
 76
     0
 77
     0
 78
     0
281
     0
 65
     1
110
0.0
120
0.0
130
0.0
111
1.0
121
0.0
131
0.0
112
0.0
122
1.0
132
0.0
 79
     0
146
0.0
  0
ENDTAB
  0
TABLE
  2
LTYPE
  5
5
330
0
100
AcDbSymbolTable
 70
    46
  0
LTYPE
  5
14
330
5
100
AcDbSymbolTableRecord
100
AcDbLinetypeTableRecord
  2
ByBlock
 70
     0
  3

 72
    65
 73
     0
 40
0.0
  0
LTYPE
  5
15
330
5
100
AcDbSymbolTableRecord
100
AcDbLinetypeTableRecord
  2
ByLayer
 70
     0
  3

 72
    65
 73
     0
 40
0.0
  0
LTYPE
  5
16
330
5
100
AcDbSymbolTableRecord
100
AcDbLinetypeTableRecord
  2
Continuous
 70
     0
  3
Solid line
 72
    65
 73
     0
 40
0.0
  0
LTYPE
  5
34
330
5
100
AcDbSymbolTableRecord
100
AcDbLinetypeTableRecord
  2
ACAD_ISO02W100
 70
     0
  3
ISO dash __ __ __ __ __ __ __ __ __ __ __ __ __
 72
    65
 73
     2
 40
15.0
 49
12.0
 74
     0
 49
-3.0
 74
     0
  0
LTYPE
  5
35
330
5
100
AcDbSymbolTableRecord
100
AcDbLinetypeTableRecord
  2
ACAD_ISO03W100
 70
     0
  3
ISO dash space __    __    __    __    __    __
 72
    65
 73
     2
 40
30.0
 49
12.0
 74
     0
 49
-18.0
 74
     0
  0
LTYPE
  5
36
330
5
100
AcDbSymbolTableRecord
100
AcDbLinetypeTableRecord
  2
ACAD_ISO04W100
 70
     0
  3
ISO long-dash dot ____ . ____ . ____ . ____ . _
 72
    65
 73
     4
 40
30.0
 49
24.0
 74
     0
 49
-3.0
 74
     0
 49
0.0
 74
     0
 49
-3.0
 74
     0
  0
LTYPE
  5
37
330
5
100
AcDbSymbolTableRecord
100
AcDbLinetypeTableRecord
  2
ACAD_ISO05W100
 70
     0
  3
ISO long-dash double-dot ____ .. ____ .. ____ .
 72
    65
 73
     6
 40
34.0
 49
24.0
 74
     0
 49
-3.0
 74
     0
 49
0.5
 74
     0
 49
-3.0
 74
     0
 49
0.5
 74
     0
 49
-3.0
 74
     0
  0
LTYPE
  5
38
330
5
100
AcDbSymbolTableRecord
100
AcDbLinetypeTableRecord
  2
ACAD_ISO06W100
 70
     0
  3
ISO long-dash triple-dot ____ ... ____ ... ____
 72
    65
 73
     8
 40
37.5
 49
24.0
 74
     0
 49
-3.0
 74
     0
 49
0.5
 74
     0
 49
-3.0
 74
     0
 49
0.5
 74
     0
 49
-3.0
 74
     0
 49
0.5
 74
     0
 49
-3.0
 74
     0
  0
LTYPE
  5
39
330
5
100
AcDbSymbolTableRecord
100
AcDbLinetypeTableRecord
  2
ACAD_ISO07W100
 70
     0
  3
ISO dot . . . . . . . . . . . . . . . . . . . .
 72
    65
 73
     2
 40
3.0
 49
0.0
 74
     0
 49
-3.0
 74
     0
  0
LTYPE
  5
3A
330
5
100
AcDbSymbolTableRecord
100
AcDbLinetypeTableRecord
  2
ACAD_ISO08W100
 70
     0
  3
ISO long-dash short-dash ____ __ ____ __ ____ _
 72
    65
 73
     4
 40
36.0
 49
24.0
 74
     0
 49
-3.0
 74
     0
 49
6.0
 74
     0
 49
-3.0
 74
     0
  0
LTYPE
  5
3B
330
5
100
AcDbSymbolTableRecord
100
AcDbLinetypeTableRecord
  2
ACAD_ISO09W100
 70
     0
  3
ISO long-dash double-short-dash ____ __ __ ____
 72
    65
 73
     6
 40
45.0
 49
24.0
 74
     0
 49
-3.0
 74
     0
 49
6.0
 74
     0
 49
-3.0
 74
     0
 49
6.0
 74
     0
 49
-3.0
 74
     0
  0
LTYPE
  5
3C
330
5
100
AcDbSymbolTableRecord
100
AcDbLinetypeTableRecord
  2
ACAD_ISO10W100
 70
     0
  3
ISO dash dot __ . __ . __ . __ . __ . __ . __ .
 72
    65
 73
     4
 40
18.0
 49
12.0
 74
     0
 49
-3.0
 74
     0
 49
0.0
 74
     0
 49
-3.0
 74
     0
  0
LTYPE
  5
3D
330
5
100
AcDbSymbolTableRecord
100
AcDbLinetypeTableRecord
  2
ACAD_ISO11W100
 70
     0
  3
ISO double-dash dot __ __ . __ __ . __ __ . __ 
 72
    65
 73
     6
 40
33.0
 49
12.0
 74
     0
 49
-3.0
 74
     0
 49
12.0
 74
     0
 49
-3.0
 74
     0
 49
0.0
 74
     0
 49
-3.0
 74
     0
  0
LTYPE
  5
3E
330
5
100
AcDbSymbolTableRecord
100
AcDbLinetypeTableRecord
  2
ACAD_ISO12W100
 70
     0
  3
ISO dash double-dot __ . . __ . . __ . . __ . .
 72
    65
 73
     6
 40
21.0
 49
12.0
 74
     0
 49
-3.0
 74
     0
 49
0.0
 74
     0
 49
-3.0
 74
     0
 49
0.0
 74
     0
 49
-3.0
 74
     0
  0
LTYPE
  5
3F
330
5
100
AcDbSymbolTableRecord
100
AcDbLinetypeTableRecord
  2
ACAD_ISO13W100
 70
     0
  3
ISO double-dash double-dot __ __ . . __ __ . . 
 72
    65
 73
     8
 40
36.0
 49
12.0
 74
     0
 49
-3.0
 74
     0
 49
12.0
 74
     0
 49
-3.0
 74
     0
 49
0.0
 74
     0
 49
-3.0
 74
     0
 49
0.0
 74
     0
 49
-3.0
 74
     0
  0
LTYPE
  5
40
330
5
100
AcDbSymbolTableRecord
100
AcDbLinetypeTableRecord
  2
ACAD_ISO14W100
 70
     0
  3
ISO dash triple-dot __ . . . __ . . . __ . . . 
 72
    65
 73
     8
 40
24.0
 49
12.0
 74
     0
 49
-3.0
 74
     0
 49
0.0
 74
     0
 49
-3.0
 74
     0
 49
0.0
 74
     0
 49
-3.0
 74
     0
 49
0.0
 74
     0
 49
-3.0
 74
     0
  0
LTYPE
  5
41
330
5
100
AcDbSymbolTableRecord
100
AcDbLinetypeTableRecord
  2
ACAD_ISO15W100
 70
     0
  3
ISO double-dash triple-dot __ __ . . . __ __ . 
 72
    65
 73
    10
 40
39.0
 49
12.0
 74
     0
 49
-3.0
 74
     0
 49
12.0
 74
     0
 49
-3.0
 74
     0
 49
0.0
 74
     0
 49
-3.0
 74
     0
 49
0.0
 74
     0
 49
-3.0
 74
     0
 49
0.0
 74
     0
 49
-3.0
 74
     0
  0
LTYPE
  5
42
330
5
100
AcDbSymbolTableRecord
100
AcDbLinetypeTableRecord
  2
BATTING
 70
     0
  3
Batting SSSSSSSSSSSSSSSSSSSSSSSSSSSSSSSSSSSSSSS
 72
    65
 73
     4
 40
10.16254
 49
0.00254
 74
     0
 49
-2.54
 74
     4
 75
   134
340
33
 46
2.54
 50
0.0
 44
-2.54
 45
0.0
 49
-5.08
 74
     4
 75
   134
340
33
 46
2.54
 50
180.0
 44
2.54
 45
0.0
 49
-2.54
 74
     0
  0
LTYPE
  5
43
330
5
100
AcDbSymbolTableRecord
100
AcDbLinetypeTableRecord
  2
BORDER
 70
     0
  3
Border __ __ . __ __ . __ __ . __ __ . __ __ .
 72
    65
 73
     6
 40
44.45
 49
12.7
 74
     0
 49
-6.349999999999999
 74
     0
 49
12.7
 74
     0
 49
-6.349999999999999
 74
     0
 49
0.0
 74
     0
 49
-6.349999999999999
 74
     0
  0
LTYPE
  5
44
330
5
100
AcDbSymbolTableRecord
100
AcDbLinetypeTableRecord
  2
BORDER2
 70
     0
  3
Border (.5x) __.__.__.__.__.__.__.__.__.__.__.
 72
    65
 73
     6
 40
22.225
 49
6.349999999999999
 74
     0
 49
-3.174999999999999
 74
     0
 49
6.349999999999999
 74
     0
 49
-3.174999999999999
 74
     0
 49
0.0
 74
     0
 49
-3.174999999999999
 74
     0
  0
LTYPE
  5
45
330
5
100
AcDbSymbolTableRecord
100
AcDbLinetypeTableRecord
  2
BORDERX2
 70
     0
  3
Border (2x) ____  ____  .  ____  ____  .  ___
 72
    65
 73
     6
 40
88.9
 49
25.4
 74
     0
 49
-12.7
 74
     0
 49
25.4
 74
     0
 49
-12.7
 74
     0
 49
0.0
 74
     0
 49
-12.7
 74
     0
  0
LTYPE
  5
46
330
5
100
AcDbSymbolTableRecord
100
AcDbLinetypeTableRecord
  2
CENTER
 70
     0
  3
Center ____ _ ____ _ ____ _ ____ _ ____ _ ____
 72
    65
 73
     4
 40
50.8
 49
31.75
 74
     0
 49
-6.349999999999999
 74
     0
 49
6.349999999999999
 74
     0
 49
-6.349999999999999
 74
     0
  0
LTYPE
  5
47
330
5
100
AcDbSymbolTableRecord
100
AcDbLinetypeTableRecord
  2
CENTER2
 70
     0
  3
Center (.5x) ___ _ ___ _ ___ _ ___ _ ___ _ ___
 72
    65
 73
     4
 40
28.575
 49
19.05
 74
     0
 49
-3.174999999999999
 74
     0
 49
3.174999999999999
 74
     0
 49
-3.174999999999999
 74
     0
  0
LTYPE
  5
48
330
5
100
AcDbSymbolTableRecord
100
AcDbLinetypeTableRecord
  2
CENTERX2
 70
     0
  3
Center (2x) ________  __  ________  __  _____
 72
    65
 73
     4
 40
101.6
 49
63.5
 74
     0
 49
-12.7
 74
     0
 49
12.7
 74
     0
 49
-12.7
 74
     0
  0
LTYPE
  5
49
330
5
100
AcDbSymbolTableRecord
100
AcDbLinetypeTableRecord
  2
DASHDOT
 70
     0
  3
Dash dot __ . __ . __ . __ . __ . __ . __ . __
 72
    65
 73
     4
 40
25.4
 49
12.7
 74
     0
 49
-6.349999999999999
 74
     0
 49
0.0
 74
     0
 49
-6.349999999999999
 74
     0
  0
LTYPE
  5
4A
330
5
100
AcDbSymbolTableRecord
100
AcDbLinetypeTableRecord
  2
DASHDOT2
 70
     0
  3
Dash dot (.5x) _._._._._._._._._._._._._._._.
 72
    65
 73
     4
 40
12.7
 49
6.349999999999999
 74
     0
 49
-3.174999999999999
 74
     0
 49
0.0
 74
     0
 49
-3.174999999999999
 74
     0
  0
LTYPE
  5
4B
330
5
100
AcDbSymbolTableRecord
100
AcDbLinetypeTableRecord
  2
DASHDOTX2
 70
     0
  3
Dash dot (2x) ____  .  ____  .  ____  .  ___
 72
    65
 73
     4
 40
50.8
 49
25.4
 74
     0
 49
-12.7
 74
     0
 49
0.0
 74
     0
 49
-12.7
 74
     0
  0
LTYPE
  5
4C
330
5
100
AcDbSymbolTableRecord
100
AcDbLinetypeTableRecord
  2
DASHED
 70
     0
  3
Dashed __ __ __ __ __ __ __ __ __ __ __ __ __ _
 72
    65
 73
     2
 40
19.05
 49
12.7
 74
     0
 49
-6.349999999999999
 74
     0
  0
LTYPE
  5
4D
330
5
100
AcDbSymbolTableRecord
100
AcDbLinetypeTableRecord
  2
DASHED2
 70
     0
  3
Dashed (.5x) _ _ _ _ _ _ _ _ _ _ _ _ _ _ _ _ _
 72
    65
 73
     2
 40
9.524999999999998
 49
6.349999999999999
 74
     0
 49
-3.174999999999999
 74
     0
  0
LTYPE
  5
4E
330
5
100
AcDbSymbolTableRecord
100
AcDbLinetypeTableRecord
  2
DASHEDX2
 70
     0
  3
Dashed (2x) ____  ____  ____  ____  ____  ___
 72
    65
 73
     2
 40
38.1
 49
25.4
 74
     0
 49
-12.7
 74
     0
  0
LTYPE
  5
4F
330
5
100
AcDbSymbolTableRecord
100
AcDbLinetypeTableRecord
  2
DIVIDE
 70
     0
  3
Divide ____ . . ____ . . ____ . . ____ . . ____
 72
    65
 73
     6
 40
31.75
 49
12.7
 74
     0
 49
-6.349999999999999
 74
     0
 49
0.0
 74
     0
 49
-6.349999999999999
 74
     0
 49
0.0
 74
     0
 49
-6.349999999999999
 74
     0
  0
LTYPE
  5
50
330
5
100
AcDbSymbolTableRecord
100
AcDbLinetypeTableRecord
  2
DIVIDE2
 70
     0
  3
Divide (.5x) __..__..__..__..__..__..__..__.._
 72
    65
 73
     6
 40
15.875
 49
6.349999999999999
 74
     0
 49
-3.174999999999999
 74
     0
 49
0.0
 74
     0
 49
-3.174999999999999
 74
     0
 49
0.0
 74
     0
 49
-3.174999999999999
 74
     0
  0
LTYPE
  5
51
330
5
100
AcDbSymbolTableRecord
100
AcDbLinetypeTableRecord
  2
DIVIDEX2
 70
     0
  3
Divide (2x) ________  .  .  ________  .  .  _
 72
    65
 73
     6
 40
63.49999999999999
 49
25.4
 74
     0
 49
-12.7
 74
     0
 49
0.0
 74
     0
 49
-12.7
 74
     0
 49
0.0
 74
     0
 49
-12.7
 74
     0
  0
LTYPE
  5
52
330
5
100
AcDbSymbolTableRecord
100
AcDbLinetypeTableRecord
  2
DOT
 70
     0
  3
Dot . . . . . . . . . . . . . . . . . . . . . .
 72
    65
 73
     2
 40
6.349999999999999
 49
0.0
 74
     0
 49
-6.349999999999999
 74
     0
  0
LTYPE
  5
53
330
5
100
AcDbSymbolTableRecord
100
AcDbLinetypeTableRecord
  2
DOT2
 70
     0
  3
Dot (.5x) .....................................
 72
    65
 73
     2
 40
3.174999999999999
 49
0.0
 74
     0
 49
-3.174999999999999
 74
     0
  0
LTYPE
  5
54
330
5
100
AcDbSymbolTableRecord
100
AcDbLinetypeTableRecord
  2
DOTX2
 70
     0
  3
Dot (2x) .  .  .  .  .  .  .  .  .  .  .  .  . 
 72
    65
 73
     2
 40
12.7
 49
0.0
 74
     0
 49
-12.7
 74
     0
  0
LTYPE
  5
55
330
5
100
AcDbSymbolTableRecord
100
AcDbLinetypeTableRecord
  2
FENCELINE1
 70
     0
  3
Fenceline circle ----0-----0----0-----0----0---
 72
    65
 73
     4
 40
36.83
 49
6.349999999999999
 74
     0
 49
-2.54
 74
     4
 75
   133
340
33
 46
2.54
 50
0.0
 44
-2.54
 45
0.0
 49
-2.54
 74
     0
 49
25.4
 74
     0
  0
LTYPE
  5
56
330
5
100
AcDbSymbolTableRecord
100
AcDbLinetypeTableRecord
  2
FENCELINE2
 70
     0
  3
Fenceline square ----[]-----[]----[]-----[]----
 72
    65
 73
     4
 40
36.83
 49
6.349999999999999
 74
     0
 49
-2.54
 74
     4
 75
   132
340
33
 46
2.54
 50
0.0
 44
-2.54
 45
0.0
 49
-2.54
 74
     0
 49
25.4
 74
     0
  0
LTYPE
  5
57
330
5
100
AcDbSymbolTableRecord
100
AcDbLinetypeTableRecord
  2
GAS_LINE
 70
     0
  3
Gas line ----GAS----GAS----GAS----GAS----GAS---
 72
    65
 73
     3
 40
24.13
 49
12.7
 74
     0
 49
-5.08
 74
     2
 75
     0
340
11
 46
2.54
 50
0.0
 44
-2.54
 45
-1.27
  9
GAS
 49
-6.349999999999999
 74
     0
  0
LTYPE
  5
58
330
5
100
AcDbSymbolTableRecord
100
AcDbLinetypeTableRecord
  2
HIDDEN
 70
     0
  3
Hidden __ __ __ __ __ __ __ __ __ __ __ __ __ _
 72
    65
 73
     2
 40
9.524999999999998
 49
6.349999999999999
 74
     0
 49
-3.174999999999999
 74
     0
  0
LTYPE
  5
59
330
5
100
AcDbSymbolTableRecord
100
AcDbLinetypeTableRecord
  2
HIDDEN2
 70
     0
  3
Hidden (.5x) _ _ _ _ _ _ _ _ _ _ _ _ _ _ _ _ _
 72
    65
 73
     2
 40
4.762499999999999
 49
3.174999999999999
 74
     0
 49
-1.587499999999999
 74
     0
  0
LTYPE
  5
5A
330
5
100
AcDbSymbolTableRecord
100
AcDbLinetypeTableRecord
  2
HIDDENX2
 70
     0
  3
Hidden (2x) ____ ____ ____ ____ ____ ____ ____
 72
    65
 73
     2
 40
19.05
 49
12.7
 74
     0
 49
-6.349999999999999
 74
     0
  0
LTYPE
  5
5B
330
5
100
AcDbSymbolTableRecord
100
AcDbLinetypeTableRecord
  2
HOT_WATER_SUPPLY
 70
     0
  3
Hot water supply ---- HW ---- HW ---- HW ----
 72
    65
 73
     3
 40
22.86
 49
12.7
 74
     0
 49
-5.08
 74
     2
 75
     0
340
11
 46
2.54
 50
0.0
 44
-2.54
 45
-1.27
  9
HW
 49
-5.08
 74
     0
  0
LTYPE
  5
5C
330
5
100
AcDbSymbolTableRecord
100
AcDbLinetypeTableRecord
  2
PHANTOM
 70
     0
  3
Phantom ______  __  __  ______  __  __  ______
 72
    65
 73
     6
 40
63.5
 49
31.75
 74
     0
 49
-6.349999999999999
 74
     0
 49
6.349999999999999
 74
     0
 49
-6.349999999999999
 74
     0
 49
6.349999999999999
 74
     0
 49
-6.349999999999999
 74
     0
  0
LTYPE
  5
5D
330
5
100
AcDbSymbolTableRecord
100
AcDbLinetypeTableRecord
  2
PHANTOM2
 70
     0
  3
Phantom (.5x) ___ _ _ ___ _ _ ___ _ _ ___ _ _
 72
    65
 73
     6
 40
31.75
 49
15.875
 74
     0
 49
-3.174999999999999
 74
     0
 49
3.174999999999999
 74
     0
 49
-3.174999999999999
 74
     0
 49
3.174999999999999
 74
     0
 49
-3.174999999999999
 74
     0
  0
LTYPE
  5
5E
330
5
100
AcDbSymbolTableRecord
100
AcDbLinetypeTableRecord
  2
PHANTOMX2
 70
     0
  3
Phantom (2x) ____________    ____    ____   _
 72
    65
 73
     6
 40
127.0
 49
63.5
 74
     0
 49
-12.7
 74
     0
 49
12.7
 74
     0
 49
-12.7
 74
     0
 49
12.7
 74
     0
 49
-12.7
 74
     0
  0
LTYPE
  5
5F
330
5
100
AcDbSymbolTableRecord
100
AcDbLinetypeTableRecord
  2
TRACKS
 70
     0
  3
Tracks -|-|-|-|-|-|-|-|-|-|-|-|-|-|-|-|-|-|-|-|
 72
    65
 73
     2
 40
7.62
 49
3.81
 74
     4
 75
   130
340
33
 46
6.349999999999999
 50
0.0
 44
0.0
 45
0.0
 49
3.81
 74
     0
  0
LTYPE
  5
60
330
5
100
AcDbSymbolTableRecord
100
AcDbLinetypeTableRecord
  2
ZIGZAG
 70
     0
  3
Zig zag /\/\/\/\/\/\/\/\/\/\/\/\/\/\/\/\/\/\/\/
 72
    65
 73
     4
 40
20.32254
 49
0.00254
 74
     0
 49
-5.08
 74
     4
 75
   131
340
33
 46
5.08
 50
0.0
 44
-5.08
 45
0.0
 49
-10.16
 74
     4
 75
   131
340
33
 46
5.08
 50
180.0
 44
5.08
 45
0.0
 49
-5.08
 74
     0
  0
ENDTAB
  0
TABLE
  2
LAYER
  5
2
102
{ACAD_XDICTIONARY
360
1359
102
}
330
0
100
AcDbSymbolTable
 70
     9
  0
LAYER
  5
10
330
2
100
AcDbSymbolTableRecord
100
AcDbLayerTableRecord
  2
0
 70
     0
 62
     7
  6
Continuous
370
    -3
390
F
  0
LAYER
  5
C3
330
2
100
AcDbSymbolTableRecord
100
AcDbLayerTableRecord
  2
Defpoints
 70
     0
 62
     7
  6
Continuous
290
     0
370
    -3
390
F
  0
LAYER
  5
256
330
2
100
AcDbSymbolTableRecord
100
AcDbLayerTableRecord
  2
センター
 70
     0
 62
     7
  6
CENTER2
370
    15
390
F
  0
LAYER
  5
268
330
2
100
AcDbSymbolTableRecord
100
AcDbLayerTableRecord
  2
実形
 70
     0
 62
     7
  6
Continuous
370
    -3
390
F
  0
LAYER
  5
269
330
2
100
AcDbSymbolTableRecord
100
AcDbLayerTableRecord
  2
補助
 70
     0
 62
     7
  6
Continuous
370
    -3
390
F
  0
LAYER
  5
26A
330
2
100
AcDbSymbolTableRecord
100
AcDbLayerTableRecord
  2
寸法
 70
     0
 62
     7
  6
Continuous
370
    -3
390
F
  0
LAYER
  5
26B
330
2
100
AcDbSymbolTableRecord
100
AcDbLayerTableRecord
  2
ハッチング
 70
     0
 62
     7
  6
Continuous
370
    18
390
F
  0
LAYER
  5
26D
330
2
100
AcDbSymbolTableRecord
100
AcDbLayerTableRecord
  2
文字
 70
     0
 62
     7
  6
Continuous
370
    -3
390
F
  0
LAYER
  5
FCC
330
2
100
AcDbSymbolTableRecord
100
AcDbLayerTableRecord
  2
Cen
 70
     0
 62
     7
  6
CENTER2
370
    15
390
F
  0
ENDTAB
  0
TABLE
  2
STYLE
  5
3
330
0
100
AcDbSymbolTable
 70
     5
  0
STYLE
  5
11
330
3
100
AcDbSymbolTableRecord
100
AcDbTextStyleTableRecord
  2
Standard
 70
     0
 40
0.0
 41
1.0
 50
0.0
 71
     0
 42
35.0
  3
txt.shx
  4

  0
STYLE
  5
33
330
3
100
AcDbSymbolTableRecord
100
AcDbTextStyleTableRecord
  2

 70
     1
 40
0.0
 41
1.0
 50
0.0
 71
     0
 42
2.5
  3
ltypeshp.shx
  4

  0
STYLE
  5
1358
330
3
100
AcDbSymbolTableRecord
100
AcDbTextStyleTableRecord
  2
MS明朝
 70
     0
 40
0.0
 41
1.0
 50
0.0
 71
     0
 42
35.0
  3
MS Mincho.ttf
  4

1001
ACAD
1000
MS Mincho
1071
    32785
  0
STYLE
  5
15E5
330
3
100
AcDbSymbolTableRecord
100
AcDbTextStyleTableRecord
  2
ｍｓ明朝
 70
     0
 40
0.0
 41
1.0
 50
0.0
 71
     0
 42
35.0
  3
MS Mincho.ttf
  4

1001
ACAD
1000
MS Mincho
1071
    32785
  0
STYLE
  5
1F7C
330
3
100
AcDbSymbolTableRecord
100
AcDbTextStyleTableRecord
  2
明朝
 70
     0
 40
0.0
 41
1.0
 50
0.0
 71
     0
 42
25.0
  3
MS Mincho.ttf
  4

1001
ACAD
1000
MS Mincho
1071
    32785
  0
ENDTAB
  0
TABLE
  2
VIEW
  5
6
330
0
100
AcDbSymbolTable
 70
     0
  0
ENDTAB
  0
TABLE
  2
UCS
  5
7
330
0
100
AcDbSymbolTable
 70
     0
  0
ENDTAB
  0
TABLE
  2
APPID
  5
9
330
0
100
AcDbSymbolTable
 70
     3
  0
APPID
  5
12
330
9
100
AcDbSymbolTableRecord
100
AcDbRegAppTableRecord
  2
ACAD
 70
     0
  0
APPID
  5
1364
330
9
100
AcDbSymbolTableRecord
100
AcDbRegAppTableRecord
  2
ACAD_PSEXT
 70
     0
  0
APPID
  5
1B26
330
9
100
AcDbSymbolTableRecord
100
AcDbRegAppTableRecord
  2
ACAD_DSTYLE_DIMTEXT_FILL
 70
     0
  0
ENDTAB
  0
TABLE
  2
DIMSTYLE
  5
A
330
0
100
AcDbSymbolTable
 70
     1
100
AcDbDimStyleTable
 71
     1
340
27
  0
DIMSTYLE
105
27
102
{ACAD_REACTORS
330
4FD
330
522
330
3E9
330
40C
330
41A
330
427
330
466
330
47C
330
492
330
4C3
330
15ED
330
1668
330
16A7
330
1C2C
330
1CA4
330
1CC3
330
1CF3
330
1D01
330
1D0E
330
2401
330
240A
330
240B
330
240C
330
240E
330
2411
330
2412
330
2415
330
2416
330
2417
330
2418
330
241B
330
241C
330
241D
330
241E
330
241F
330
2420
330
2426
330
2427
330
2428
330
2651
330
2652
330
2653
330
2654
330
2655
330
27C6
330
27C7
330
28FF
330
2900
330
2901
330
2902
102
}
330
A
100
AcDbSymbolTableRecord
100
AcDbDimStyleTableRecord
  2
ISO-25
 70
     0
 41
35.0
 42
65.0
 43
3.75
 44
0.0
 73
     0
 74
     0
 77
     1
 78
     8
140
25.0
141
2.5
143
0.03937007874016
147
6.25
171
     3
172
     1
271
     2
272
     2
274
     3
283
     0
284
     8
340
11
341
DA
342
D0
371
    15
372
    15
  0
ENDTAB
  0
TABLE
  2
BLOCK_RECORD
  5
1
330
0
100
AcDbSymbolTable
 70
    62
  0
BLOCK_RECORD
  5
1F
102
{ACAD_XDICTIONARY
360
126E
102
}
330
1
100
AcDbSymbolTableRecord
100
AcDbBlockTableRecord
  2
*Model_Space
340
22
  0
BLOCK_RECORD
  5
1B
330
1
100
AcDbSymbolTableRecord
100
AcDbBlockTableRecord
  2
*Paper_Space
340
1E
  0
BLOCK_RECORD
  5
23
330
1
100
AcDbSymbolTableRecord
100
AcDbBlockTableRecord
  2
*Paper_Space0
340
26
  0
BLOCK_RECORD
  5
D0
330
1
100
AcDbSymbolTableRecord
100
AcDbBlockTableRecord
  2
_DotSmall
340
0
102
{BLKREFS
331
1D6E
331
1D6F
331
1D77
331
1D78
331
1D80
331
1D81
331
1D92
331
1D93
331
1D9B
331
1D9C
331
1DA5
331
1DA6
331
1DAF
331
1DB0
331
1DC0
331
1DC1
331
1DCA
331
1DCB
331
1DD4
331
1DD5
331
1DDC
331
1DDD
331
1DEF
331
1DF0
331
1E01
331
1E02
331
2526
331
2527
331
252F
331
2530
331
2538
331
2539
331
2541
331
2542
331
254B
331
254C
331
2553
331
2554
331
255D
331
255E
331
2565
331
2566
331
256E
331
256F
331
2577
331
2578
331
2581
331
2582
331
2589
331
258A
331
2592
331
2593
331
259B
331
259C
331
25A4
331
25A5
331
25AD
331
25AE
331
25B6
331
25B7
331
25BF
331
25C0
331
25C8
331
25C9
331
26CA
331
26CB
331
26F7
331
26F8
331
2701
331
2702
331
270C
331
270D
331
2715
331
2716
331
2964
331
2965
331
296D
331
296E
331
2977
331
2978
331
2982
331
2983
331
298A
331
298B
331
2993
331
2994
331
2A0E
331
2A0F
331
29DA
331
29DB
331
29E8
331
29E9
331
29F4
331
29F5
331
29FF
331
2A00
102
}
  0
BLOCK_RECORD
  5
D4
330
1
100
AcDbSymbolTableRecord
100
AcDbBlockTableRecord
  2
_Origin2
340
0
  0
BLOCK_RECORD
  5
DA
330
1
100
AcDbSymbolTableRecord
100
AcDbBlockTableRecord
  2
_Open30
340
0
  0
BLOCK_RECORD
  5
3EA
330
1
100
AcDbSymbolTableRecord
100
AcDbBlockTableRecord
  2
*D4
340
0
  0
BLOCK_RECORD
  5
40D
330
1
100
AcDbSymbolTableRecord
100
AcDbBlockTableRecord
  2
*D5
340
0
  0
BLOCK_RECORD
  5
41B
330
1
100
AcDbSymbolTableRecord
100
AcDbBlockTableRecord
  2
*D6
340
0
  0
BLOCK_RECORD
  5
428
330
1
100
AcDbSymbolTableRecord
100
AcDbBlockTableRecord
  2
*D7
340
0
  0
BLOCK_RECORD
  5
467
330
1
100
AcDbSymbolTableRecord
100
AcDbBlockTableRecord
  2
*D8
340
0
  0
BLOCK_RECORD
  5
47D
330
1
100
AcDbSymbolTableRecord
100
AcDbBlockTableRecord
  2
*D9
340
0
  0
BLOCK_RECORD
  5
493
330
1
100
AcDbSymbolTableRecord
100
AcDbBlockTableRecord
  2
*D10
340
0
  0
BLOCK_RECORD
  5
4C4
330
1
100
AcDbSymbolTableRecord
100
AcDbBlockTableRecord
  2
*D11
340
0
  0
BLOCK_RECORD
  5
4FE
330
1
100
AcDbSymbolTableRecord
100
AcDbBlockTableRecord
  2
*D12
340
0
  0
BLOCK_RECORD
  5
523
330
1
100
AcDbSymbolTableRecord
100
AcDbBlockTableRecord
  2
*D13
340
0
  0
BLOCK_RECORD
  5
12B5
330
1
100
AcDbSymbolTableRecord
100
AcDbBlockTableRecord
  2
_Dot
340
0
102
{BLKREFS
331
1E24
331
1E25
331
1E2E
331
1E2F
331
1E37
331
1E38
331
1E40
331
1E41
331
1E49
331
1E4A
331
1E51
331
1E52
102
}
  0
BLOCK_RECORD
  5
15EE
330
1
100
AcDbSymbolTableRecord
100
AcDbBlockTableRecord
  2
*D15
340
0
  0
BLOCK_RECORD
  5
1669
330
1
100
AcDbSymbolTableRecord
100
AcDbBlockTableRecord
  2
*D16
340
0
  0
BLOCK_RECORD
  5
16A8
330
1
100
AcDbSymbolTableRecord
100
AcDbBlockTableRecord
  2
*D17
340
0
  0
BLOCK_RECORD
  5
17D0
102
{ACAD_XDICTIONARY
360
17D2
102
}
330
1
100
AcDbSymbolTableRecord
100
AcDbBlockTableRecord
  2
A$C4249135D
340
0
  0
BLOCK_RECORD
  5
1C2D
330
1
100
AcDbSymbolTableRecord
100
AcDbBlockTableRecord
  2
*D19
340
0
  0
BLOCK_RECORD
  5
1CA5
330
1
100
AcDbSymbolTableRecord
100
AcDbBlockTableRecord
  2
*D20
340
0
  0
BLOCK_RECORD
  5
1CC4
330
1
100
AcDbSymbolTableRecord
100
AcDbBlockTableRecord
  2
*D21
340
0
  0
BLOCK_RECORD
  5
1CF4
330
1
100
AcDbSymbolTableRecord
100
AcDbBlockTableRecord
  2
*D22
340
0
  0
BLOCK_RECORD
  5
1D02
330
1
100
AcDbSymbolTableRecord
100
AcDbBlockTableRecord
  2
*D23
340
0
  0
BLOCK_RECORD
  5
1D0F
330
1
100
AcDbSymbolTableRecord
100
AcDbBlockTableRecord
  2
*D24
340
0
  0
BLOCK_RECORD
  5
2430
330
1
100
AcDbSymbolTableRecord
100
AcDbBlockTableRecord
  2
*D25
340
0
  0
BLOCK_RECORD
  5
2439
330
1
100
AcDbSymbolTableRecord
100
AcDbBlockTableRecord
  2
*D26
340
0
  0
BLOCK_RECORD
  5
2445
330
1
100
AcDbSymbolTableRecord
100
AcDbBlockTableRecord
  2
*D27
340
0
  0
BLOCK_RECORD
  5
2451
330
1
100
AcDbSymbolTableRecord
100
AcDbBlockTableRecord
  2
*D28
340
0
  0
BLOCK_RECORD
  5
245D
330
1
100
AcDbSymbolTableRecord
100
AcDbBlockTableRecord
  2
*D29
340
0
  0
BLOCK_RECORD
  5
2469
330
1
100
AcDbSymbolTableRecord
100
AcDbBlockTableRecord
  2
*D30
340
0
  0
BLOCK_RECORD
  5
2475
330
1
100
AcDbSymbolTableRecord
100
AcDbBlockTableRecord
  2
*D31
340
0
  0
BLOCK_RECORD
  5
2481
330
1
100
AcDbSymbolTableRecord
100
AcDbBlockTableRecord
  2
*D32
340
0
  0
BLOCK_RECORD
  5
248D
330
1
100
AcDbSymbolTableRecord
100
AcDbBlockTableRecord
  2
*D33
340
0
  0
BLOCK_RECORD
  5
2499
330
1
100
AcDbSymbolTableRecord
100
AcDbBlockTableRecord
  2
*D34
340
0
  0
BLOCK_RECORD
  5
24A5
330
1
100
AcDbSymbolTableRecord
100
AcDbBlockTableRecord
  2
*D35
340
0
  0
BLOCK_RECORD
  5
24B1
330
1
100
AcDbSymbolTableRecord
100
AcDbBlockTableRecord
  2
*D36
340
0
  0
BLOCK_RECORD
  5
24BD
330
1
100
AcDbSymbolTableRecord
100
AcDbBlockTableRecord
  2
*D37
340
0
  0
BLOCK_RECORD
  5
24C9
330
1
100
AcDbSymbolTableRecord
100
AcDbBlockTableRecord
  2
*D38
340
0
  0
BLOCK_RECORD
  5
24D5
330
1
100
AcDbSymbolTableRecord
100
AcDbBlockTableRecord
  2
*D39
340
0
  0
BLOCK_RECORD
  5
24E1
330
1
100
AcDbSymbolTableRecord
100
AcDbBlockTableRecord
  2
*D40
340
0
  0
BLOCK_RECORD
  5
24ED
330
1
100
AcDbSymbolTableRecord
100
AcDbBlockTableRecord
  2
*D41
340
0
  0
BLOCK_RECORD
  5
24F9
330
1
100
AcDbSymbolTableRecord
100
AcDbBlockTableRecord
  2
*D42
340
0
  0
BLOCK_RECORD
  5
2505
330
1
100
AcDbSymbolTableRecord
100
AcDbBlockTableRecord
  2
*D43
340
0
  0
BLOCK_RECORD
  5
2511
330
1
100
AcDbSymbolTableRecord
100
AcDbBlockTableRecord
  2
*D44
340
0
  0
BLOCK_RECORD
  5
265E
330
1
100
AcDbSymbolTableRecord
100
AcDbBlockTableRecord
  2
*D45
340
0
  0
BLOCK_RECORD
  5
266A
330
1
100
AcDbSymbolTableRecord
100
AcDbBlockTableRecord
  2
*D46
340
0
  0
BLOCK_RECORD
  5
2678
330
1
100
AcDbSymbolTableRecord
100
AcDbBlockTableRecord
  2
*D47
340
0
  0
BLOCK_RECORD
  5
2684
330
1
100
AcDbSymbolTableRecord
100
AcDbBlockTableRecord
  2
*D48
340
0
  0
BLOCK_RECORD
  5
2690
330
1
100
AcDbSymbolTableRecord
100
AcDbBlockTableRecord
  2
*D49
340
0
  0
BLOCK_RECORD
  5
27FE
330
1
100
AcDbSymbolTableRecord
100
AcDbBlockTableRecord
  2
*D50
340
0
  0
BLOCK_RECORD
  5
280A
330
1
100
AcDbSymbolTableRecord
100
AcDbBlockTableRecord
  2
*D51
340
0
  0
BLOCK_RECORD
  5
2907
330
1
100
AcDbSymbolTableRecord
100
AcDbBlockTableRecord
  2
*D52
340
0
  0
BLOCK_RECORD
  5
2913
330
1
100
AcDbSymbolTableRecord
100
AcDbBlockTableRecord
  2
*D53
340
0
  0
BLOCK_RECORD
  5
291F
330
1
100
AcDbSymbolTableRecord
100
AcDbBlockTableRecord
  2
*D54
340
0
  0
BLOCK_RECORD
  5
292D
330
1
100
AcDbSymbolTableRecord
100
AcDbBlockTableRecord
  2
*D55
340
0
  0
BLOCK_RECORD
  5
29D4
330
1
100
AcDbSymbolTableRecord
100
AcDbBlockTableRecord
  2
*D56
340
0
  0
BLOCK_RECORD
  5
29E0
330
1
100
AcDbSymbolTableRecord
100
AcDbBlockTableRecord
  2
*D57
340
0
  0
BLOCK_RECORD
  5
29EE
330
1
100
AcDbSymbolTableRecord
100
AcDbBlockTableRecord
  2
*D58
340
0
  0
BLOCK_RECORD
  5
29FA
330
1
100
AcDbSymbolTableRecord
100
AcDbBlockTableRecord
  2
*D59
340
0
  0
BLOCK_RECORD
  5
2A06
330
1
100
AcDbSymbolTableRecord
100
AcDbBlockTableRecord
  2
*D60
340
0
  0
BLOCK_RECORD
  5
2A14
102
{ACAD_XDICTIONARY
360
2A22
102
}
330
1
100
AcDbSymbolTableRecord
100
AcDbBlockTableRecord
  2
A$C2B9813D3
340
0
  0
ENDTAB
  0
ENDSEC
  0
SECTION
  2
BLOCKS
  0
BLOCK
  5
20
330
1F
100
AcDbEntity
  8
0
100
AcDbBlockBegin
  2
*Model_Space
 70
     0
 10
0.0
 20
0.0
 30
0.0
  3
*Model_Space
  1

  0
ENDBLK
  5
21
330
1F
100
AcDbEntity
  8
0
100
AcDbBlockEnd
  0
BLOCK
  5
1C
330
1B
100
AcDbEntity
 67
     1
  8
0
100
AcDbBlockBegin
  2
*Paper_Space
 70
     0
 10
0.0
 20
0.0
 30
0.0
  3
*Paper_Space
  1

  0
ENDBLK
  5
1D
330
1B
100
AcDbEntity
 67
     1
  8
0
100
AcDbBlockEnd
  0
BLOCK
  5
24
330
23
100
AcDbEntity
  8
0
100
AcDbBlockBegin
  2
*Paper_Space0
 70
     0
 10
0.0
 20
0.0
 30
0.0
  3
*Paper_Space0
  1

  0
ENDBLK
  5
25
330
23
100
AcDbEntity
  8
0
100
AcDbBlockEnd
  0
BLOCK
  5
D2
330
D0
100
AcDbEntity
  8
0
100
AcDbBlockBegin
  2
_DotSmall
 70
     0
 10
0.0
 20
0.0
 30
0.0
  3
_DotSmall
  1

  0
LWPOLYLINE
  5
D1
330
D0
100
AcDbEntity
  8
0
 62
     0
100
AcDbPolyline
 90
        2
 70
     1
 43
0.5
 10
-0.0625
 20
0.0
 42
1.0
 10
0.0625
 20
0.0
 42
1.0
  0
ENDBLK
  5
D3
330
D0
100
AcDbEntity
  8
0
100
AcDbBlockEnd
  0
BLOCK
  5
D8
330
D4
100
AcDbEntity
  8
0
100
AcDbBlockBegin
  2
_Origin2
 70
     0
 10
0.0
 20
0.0
 30
0.0
  3
_Origin2
  1

  0
CIRCLE
  5
D5
330
D4
100
AcDbEntity
  8
0
 62
     0
370
    -2
100
AcDbCircle
 10
0.0
 20
0.0
 30
0.0
 40
0.5
  0
CIRCLE
  5
D6
330
D4
100
AcDbEntity
  8
0
 62
     0
370
    -2
100
AcDbCircle
 10
0.0
 20
0.0
 30
0.0
 40
0.25
  0
LINE
  5
D7
330
D4
100
AcDbEntity
  8
0
 62
     0
370
    -2
100
AcDbLine
 10
-0.5
 20
0.0
 30
0.0
 11
-1.0
 21
0.0
 31
0.0
  0
ENDBLK
  5
D9
330
D4
100
AcDbEntity
  8
0
100
AcDbBlockEnd
  0
BLOCK
  5
DE
330
DA
100
AcDbEntity
  8
0
100
AcDbBlockBegin
  2
_Open30
 70
     0
 10
0.0
 20
0.0
 30
0.0
  3
_Open30
  1

  0
LINE
  5
DB
330
DA
100
AcDbEntity
  8
0
 62
     0
370
    -2
100
AcDbLine
 10
-1.0
 20
0.26794919
 30
0.0
 11
0.0
 21
0.0
 31
0.0
  0
LINE
  5
DC
330
DA
100
AcDbEntity
  8
0
 62
     0
370
    -2
100
AcDbLine
 10
0.0
 20
0.0
 30
0.0
 11
-1.0
 21
-0.26794919
 31
0.0
  0
LINE
  5
DD
330
DA
100
AcDbEntity
  8
0
 62
     0
370
    -2
100
AcDbLine
 10
0.0
 20
0.0
 30
0.0
 11
-1.0
 21
0.0
 31
0.0
  0
ENDBLK
  5
DF
330
DA
100
AcDbEntity
  8
0
100
AcDbBlockEnd
  0
BLOCK
  5
3F4
330
3EA
100
AcDbEntity
  8
0
100
AcDbBlockBegin
  2
*D4
 70
     1
 10
0.0
 20
0.0
 30
0.0
  3
*D4
  1

  0
LINE
  5
1D7D
330
3EA
100
AcDbEntity
  8
実形
 62
     0
370
    15
100
AcDbLine
 10
892.5297166899737
 20
1386.441711899552
 30
0.0
 11
962.4979644047835
 21
1386.441711899552
 31
0.0
  0
LINE
  5
1D7E
330
3EA
100
AcDbEntity
  8
実形
 62
     0
370
    15
100
AcDbLine
 10
892.5297166899737
 20
1536.441711899552
 30
0.0
 11
962.4979644047835
 21
1536.441711899552
 31
0.0
  0
LINE
  5
1D7F
330
3EA
100
AcDbEntity
  8
実形
 62
     0
370
    15
100
AcDbLine
 10
962.4979644047835
 20
1386.441711899552
 30
0.0
 11
962.4979644047835
 21
1536.441711899552
 31
0.0
  0
INSERT
  5
1D80
330
3EA
100
AcDbEntity
  8
実形
 62
     0
370
    15
100
AcDbBlockReference
  2
_DotSmall
 10
962.4979644047835
 20
1386.441711899552
 30
0.0
 41
35.0
 42
35.0
 43
35.0
 50
270.0
  0
INSERT
  5
1D81
330
3EA
100
AcDbEntity
  8
実形
 62
     0
370
    15
100
AcDbBlockReference
  2
_DotSmall
 10
962.4979644047835
 20
1536.441711899552
 30
0.0
 41
35.0
 42
35.0
 43
35.0
 50
90.0
  0
MTEXT
  5
1D82
330
3EA
100
AcDbEntity
  8
実形
 62
     0
100
AcDbMText
 10
943.7479644047833
 20
1461.441711899553
 30
0.0
 40
25.0
 41
0.0
 71
     5
 72
     1
  1
150
 11
0.0000000000000001
 21
1.0
 31
0.0
 73
     1
 44
1.0
1001
ACAD
1000
MTEXTBEGIN
1070
    73
1070
     1
1070
    44
1040
1.0
1070
    74
1070
     0
1000
MTEXTEND
  0
POINT
  5
1D83
330
3EA
100
AcDbEntity
  8
Defpoints
 62
     0
100
AcDbPoint
 10
827.5297166899736
 20
1386.441711899552
 30
0.0
  0
POINT
  5
1D84
330
3EA
100
AcDbEntity
  8
Defpoints
 62
     0
100
AcDbPoint
 10
827.5297166899736
 20
1536.441711899552
 30
0.0
  0
POINT
  5
1D85
330
3EA
100
AcDbEntity
  8
Defpoints
 62
     0
100
AcDbPoint
 10
962.4979644047835
 20
1536.441711899552
 30
0.0
  0
ENDBLK
  5
3F5
330
3EA
100
AcDbEntity
  8
0
100
AcDbBlockEnd
  0
BLOCK
  5
418
330
40D
100
AcDbEntity
  8
0
100
AcDbBlockBegin
  2
*D5
 70
     1
 10
0.0
 20
0.0
 30
0.0
  3
*D5
  1

  0
LINE
  5
1DC6
330
40D
100
AcDbEntity
  8
実形
 62
     0
370
    15
100
AcDbLine
 10
422.5297166899736
 20
1111.441711899552
 30
0.0
 11
383.7340558284142
 21
1111.441711899552
 31
0.0
  0
LINE
  5
1DC7
330
40D
100
AcDbEntity
  8
実形
 62
     0
370
    15
100
AcDbLine
 10
422.5297166899736
 20
1126.441711899552
 30
0.0
 11
383.7340558284142
 21
1126.441711899552
 31
0.0
  0
LINE
  5
1DC8
330
40D
100
AcDbEntity
  8
実形
 62
     0
370
    15
100
AcDbLine
 10
383.7340558284142
 20
1111.441711899552
 30
0.0
 11
383.7340558284142
 21
1126.441711899552
 31
0.0
  0
LINE
  5
1DC9
330
40D
100
AcDbEntity
  8
実形
 62
     0
370
    15
100
AcDbLine
 10
383.7340558284142
 20
1126.441711899552
 30
0.0
 11
383.7340558284143
 21
1207.275045232886
 31
0.0
  0
INSERT
  5
1DCA
330
40D
100
AcDbEntity
  8
実形
 62
     0
370
    15
100
AcDbBlockReference
  2
_DotSmall
 10
383.7340558284142
 20
1111.441711899552
 30
0.0
 41
35.0
 42
35.0
 43
35.0
 50
270.0
  0
INSERT
  5
1DCB
330
40D
100
AcDbEntity
  8
実形
 62
     0
370
    15
100
AcDbBlockReference
  2
_DotSmall
 10
383.7340558284142
 20
1126.441711899552
 30
0.0
 41
35.0
 42
35.0
 43
35.0
 50
90.0
  0
MTEXT
  5
1DCC
330
40D
100
AcDbEntity
  8
実形
 62
     0
100
AcDbMText
 10
364.984055828414
 20
1184.358378566219
 30
0.0
 40
25.0
 41
0.0
 71
     5
 72
     1
  1
15
 11
0.0000000000000001
 21
1.0
 31
0.0
 73
     1
 44
1.0
1001
ACAD
1000
MTEXTBEGIN
1070
    73
1070
     1
1070
    44
1040
1.0
1070
    74
1070
     0
1000
MTEXTEND
  0
POINT
  5
1DCD
330
40D
100
AcDbEntity
  8
Defpoints
 62
     0
100
AcDbPoint
 10
487.5297166899736
 20
1111.441711899552
 30
0.0
  0
POINT
  5
1DCE
330
40D
100
AcDbEntity
  8
Defpoints
 62
     0
100
AcDbPoint
 10
487.5297166899736
 20
1126.441711899552
 30
0.0
  0
POINT
  5
1DCF
330
40D
100
AcDbEntity
  8
Defpoints
 62
     0
100
AcDbPoint
 10
383.7340558284142
 20
1126.441711899552
 30
0.0
  0
ENDBLK
  5
419
330
40D
100
AcDbEntity
  8
0
100
AcDbBlockEnd
  0
BLOCK
  5
425
330
41B
100
AcDbEntity
  8
0
100
AcDbBlockBegin
  2
*D6
 70
     1
 10
0.0
 20
0.0
 30
0.0
  3
*D6
  1

  0
LINE
  5
1D98
330
41B
100
AcDbEntity
  8
実形
 62
     0
370
    15
100
AcDbLine
 10
422.5297166899736
 20
1126.441711899552
 30
0.0
 11
383.734055828414
 21
1126.441711899552
 31
0.0
  0
LINE
  5
1D99
330
41B
100
AcDbEntity
  8
実形
 62
     0
370
    15
100
AcDbLine
 10
422.5297166899736
 20
1536.441711899552
 30
0.0
 11
383.7340558284142
 21
1536.441711899552
 31
0.0
  0
LINE
  5
1D9A
330
41B
100
AcDbEntity
  8
実形
 62
     0
370
    15
100
AcDbLine
 10
383.734055828414
 20
1126.441711899552
 30
0.0
 11
383.7340558284142
 21
1536.441711899552
 31
0.0
  0
INSERT
  5
1D9B
330
41B
100
AcDbEntity
  8
実形
 62
     0
370
    15
100
AcDbBlockReference
  2
_DotSmall
 10
383.734055828414
 20
1126.441711899552
 30
0.0
 41
35.0
 42
35.0
 43
35.0
 50
270.0
  0
INSERT
  5
1D9C
330
41B
100
AcDbEntity
  8
実形
 62
     0
370
    15
100
AcDbBlockReference
  2
_DotSmall
 10
383.7340558284142
 20
1536.441711899552
 30
0.0
 41
35.0
 42
35.0
 43
35.0
 50
90.0
  0
MTEXT
  5
1D9D
330
41B
100
AcDbEntity
  8
実形
 62
     0
100
AcDbMText
 10
364.9840558284139
 20
1331.441711899552
 30
0.0
 40
25.0
 41
0.0
 71
     5
 72
     1
  1
410
 11
0.0000000000000001
 21
1.0
 31
0.0
 73
     1
 44
1.0
1001
ACAD
1000
MTEXTBEGIN
1070
    73
1070
     1
1070
    44
1040
1.0
1070
    74
1070
     0
1000
MTEXTEND
  0
POINT
  5
1D9E
330
41B
100
AcDbEntity
  8
Defpoints
 62
     0
100
AcDbPoint
 10
487.5297166899736
 20
1126.441711899552
 30
0.0
  0
POINT
  5
1D9F
330
41B
100
AcDbEntity
  8
Defpoints
 62
     0
100
AcDbPoint
 10
487.5297166899736
 20
1536.441711899552
 30
0.0
  0
POINT
  5
1DA0
330
41B
100
AcDbEntity
  8
Defpoints
 62
     0
100
AcDbPoint
 10
383.7340558284142
 20
1536.441711899552
 30
0.0
  0
ENDBLK
  5
426
330
41B
100
AcDbEntity
  8
0
100
AcDbBlockEnd
  0
BLOCK
  5
432
330
428
100
AcDbEntity
  8
0
100
AcDbBlockBegin
  2
*D7
 70
     1
 10
0.0
 20
0.0
 30
0.0
  3
*D7
  1

  0
LINE
  5
1DEB
330
428
100
AcDbEntity
  8
実形
 62
     0
370
    15
100
AcDbLine
 10
422.5297166899736
 20
1536.441711899552
 30
0.0
 11
383.7340558284142
 21
1536.441711899552
 31
0.0
  0
LINE
  5
1DEC
330
428
100
AcDbEntity
  8
実形
 62
     0
370
    15
100
AcDbLine
 10
422.5297166899736
 20
1551.441711899552
 30
0.0
 11
383.7340558284142
 21
1551.441711899552
 31
0.0
  0
LINE
  5
1DED
330
428
100
AcDbEntity
  8
実形
 62
     0
370
    15
100
AcDbLine
 10
383.7340558284142
 20
1536.441711899552
 30
0.0
 11
383.7340558284142
 21
1551.441711899552
 31
0.0
  0
MTEXT
  5
1DEE
330
428
100
AcDbEntity
  8
実形
 62
     0
100
AcDbMText
 10
364.984055828414
 20
1498.877837318124
 30
0.0
 40
25.0
 41
0.0
 71
     5
 72
     1
  1
15
 11
0.0000000000000001
 21
1.0
 31
0.0
 73
     1
 44
1.0
1001
ACAD
1000
MTEXTBEGIN
1070
    73
1070
     1
1070
    44
1040
1.0
1070
    74
1070
     0
1000
MTEXTEND
  0
INSERT
  5
1DEF
330
428
100
AcDbEntity
  8
実形
 62
     0
370
    15
100
AcDbBlockReference
  2
_DotSmall
 10
383.7340558284142
 20
1536.441711899552
 30
0.0
 41
35.0
 42
35.0
 43
35.0
 50
270.0
  0
INSERT
  5
1DF0
330
428
100
AcDbEntity
  8
実形
 62
     0
370
    15
100
AcDbBlockReference
  2
_DotSmall
 10
383.7340558284142
 20
1551.441711899552
 30
0.0
 41
35.0
 42
35.0
 43
35.0
 50
90.0
  0
POINT
  5
1DF1
330
428
100
AcDbEntity
  8
Defpoints
 62
     0
100
AcDbPoint
 10
487.5297166899736
 20
1536.441711899552
 30
0.0
  0
POINT
  5
1DF2
330
428
100
AcDbEntity
  8
Defpoints
 62
     0
100
AcDbPoint
 10
487.5297166899736
 20
1551.441711899552
 30
0.0
  0
POINT
  5
1DF3
330
428
100
AcDbEntity
  8
Defpoints
 62
     0
100
AcDbPoint
 10
383.7340558284142
 20
1551.441711899552
 30
0.0
  0
ENDBLK
  5
433
330
428
100
AcDbEntity
  8
0
100
AcDbBlockEnd
  0
BLOCK
  5
471
330
467
100
AcDbEntity
  8
0
100
AcDbBlockBegin
  2
*D8
 70
     1
 10
0.0
 20
0.0
 30
0.0
  3
*D8
  1

  0
LINE
  5
1DD9
330
467
100
AcDbEntity
  8
実形
 62
     0
370
    15
100
AcDbLine
 10
422.5297166899736
 20
1551.441711899552
 30
0.0
 11
307.241613588857
 21
1551.441711899552
 31
0.0
  0
LINE
  5
1DDA
330
467
100
AcDbEntity
  8
実形
 62
     0
370
    15
100
AcDbLine
 10
422.5297166899736
 20
1631.441711899552
 30
0.0
 11
307.241613588857
 21
1631.441711899552
 31
0.0
  0
LINE
  5
1DDB
330
467
100
AcDbEntity
  8
実形
 62
     0
370
    15
100
AcDbLine
 10
307.241613588857
 20
1551.441711899552
 30
0.0
 11
307.241613588857
 21
1631.441711899552
 31
0.0
  0
INSERT
  5
1DDC
330
467
100
AcDbEntity
  8
実形
 62
     0
370
    15
100
AcDbBlockReference
  2
_DotSmall
 10
307.241613588857
 20
1551.441711899552
 30
0.0
 41
35.0
 42
35.0
 43
35.0
 50
270.0
  0
INSERT
  5
1DDD
330
467
100
AcDbEntity
  8
実形
 62
     0
370
    15
100
AcDbBlockReference
  2
_DotSmall
 10
307.241613588857
 20
1631.441711899552
 30
0.0
 41
35.0
 42
35.0
 43
35.0
 50
90.0
  0
MTEXT
  5
1DDE
330
467
100
AcDbEntity
  8
実形
 62
     0
100
AcDbMText
 10
288.4916135888568
 20
1591.441711899552
 30
0.0
 40
25.0
 41
0.0
 71
     5
 72
     1
  1
80
 11
0.0000000000000001
 21
1.0
 31
0.0
 73
     1
 44
1.0
1001
ACAD
1000
MTEXTBEGIN
1070
    73
1070
     1
1070
    44
1040
1.0
1070
    74
1070
     0
1000
MTEXTEND
  0
POINT
  5
1DDF
330
467
100
AcDbEntity
  8
Defpoints
 62
     0
100
AcDbPoint
 10
487.5297166899736
 20
1551.441711899552
 30
0.0
  0
POINT
  5
1DE0
330
467
100
AcDbEntity
  8
Defpoints
 62
     0
100
AcDbPoint
 10
487.5297166899736
 20
1631.441711899552
 30
0.0
  0
POINT
  5
1DE1
330
467
100
AcDbEntity
  8
Defpoints
 62
     0
100
AcDbPoint
 10
307.241613588857
 20
1631.441711899552
 30
0.0
  0
ENDBLK
  5
472
330
467
100
AcDbEntity
  8
0
100
AcDbBlockEnd
  0
BLOCK
  5
487
330
47D
100
AcDbEntity
  8
0
100
AcDbBlockBegin
  2
*D9
 70
     1
 10
0.0
 20
0.0
 30
0.0
  3
*D9
  1

  0
LINE
  5
1DD0
330
47D
100
AcDbEntity
  8
実形
 62
     0
370
    15
100
AcDbLine
 10
422.5297166899736
 20
1631.441711899552
 30
0.0
 11
307.241613588857
 21
1631.441711899552
 31
0.0
  0
LINE
  5
1DD1
330
47D
100
AcDbEntity
  8
実形
 62
     0
370
    15
100
AcDbLine
 10
422.5297166899736
 20
1646.441711899552
 30
0.0
 11
307.241613588857
 21
1646.441711899552
 31
0.0
  0
LINE
  5
1DD2
330
47D
100
AcDbEntity
  8
実形
 62
     0
370
    15
100
AcDbLine
 10
307.241613588857
 20
1631.441711899552
 30
0.0
 11
307.241613588857
 21
1646.441711899552
 31
0.0
  0
MTEXT
  5
1DD3
330
47D
100
AcDbEntity
  8
実形
 62
     0
100
AcDbMText
 10
299.0067038942589
 20
1673.368431179885
 30
0.0
 40
25.0
 41
0.0
 71
     5
 72
     1
  1
15
 11
0.0000000000000001
 21
1.0
 31
0.0
 73
     1
 44
1.0
1001
ACAD
1000
MTEXTBEGIN
1070
    73
1070
     1
1070
    44
1040
1.0
1070
    74
1070
     0
1000
MTEXTEND
  0
INSERT
  5
1DD4
330
47D
100
AcDbEntity
  8
実形
 62
     0
370
    15
100
AcDbBlockReference
  2
_DotSmall
 10
307.241613588857
 20
1631.441711899552
 30
0.0
 41
35.0
 42
35.0
 43
35.0
 50
270.0
  0
INSERT
  5
1DD5
330
47D
100
AcDbEntity
  8
実形
 62
     0
370
    15
100
AcDbBlockReference
  2
_DotSmall
 10
307.241613588857
 20
1646.441711899552
 30
0.0
 41
35.0
 42
35.0
 43
35.0
 50
90.0
  0
POINT
  5
1DD6
330
47D
100
AcDbEntity
  8
Defpoints
 62
     0
100
AcDbPoint
 10
487.5297166899736
 20
1631.441711899552
 30
0.0
  0
POINT
  5
1DD7
330
47D
100
AcDbEntity
  8
Defpoints
 62
     0
100
AcDbPoint
 10
487.5297166899736
 20
1646.441711899552
 30
0.0
  0
POINT
  5
1DD8
330
47D
100
AcDbEntity
  8
Defpoints
 62
     0
100
AcDbPoint
 10
307.241613588857
 20
1646.441711899552
 30
0.0
  0
ENDBLK
  5
488
330
47D
100
AcDbEntity
  8
0
100
AcDbBlockEnd
  0
BLOCK
  5
49D
330
493
100
AcDbEntity
  8
0
100
AcDbBlockBegin
  2
*D10
 70
     1
 10
0.0
 20
0.0
 30
0.0
  3
*D10
  1

  0
LINE
  5
1D8F
330
493
100
AcDbEntity
  8
実形
 62
     0
370
    15
100
AcDbLine
 10
422.5297166899736
 20
1646.441711899552
 30
0.0
 11
229.692829878679
 21
1646.441711899552
 31
0.0
  0
LINE
  5
1D90
330
493
100
AcDbEntity
  8
実形
 62
     0
370
    15
100
AcDbLine
 10
422.5297166899736
 20
1096.441711899552
 30
0.0
 11
229.6928298786788
 21
1096.441711899552
 31
0.0
  0
LINE
  5
1D91
330
493
100
AcDbEntity
  8
実形
 62
     0
370
    15
100
AcDbLine
 10
229.6928298786789
 20
1646.441711899552
 30
0.0
 11
229.6928298786788
 21
1096.441711899552
 31
0.0
  0
INSERT
  5
1D92
330
493
100
AcDbEntity
  8
実形
 62
     0
370
    15
100
AcDbBlockReference
  2
_DotSmall
 10
229.6928298786789
 20
1646.441711899552
 30
0.0
 41
35.0
 42
35.0
 43
35.0
 50
90.0
  0
INSERT
  5
1D93
330
493
100
AcDbEntity
  8
実形
 62
     0
370
    15
100
AcDbBlockReference
  2
_DotSmall
 10
229.6928298786788
 20
1096.441711899552
 30
0.0
 41
35.0
 42
35.0
 43
35.0
 50
270.0
  0
MTEXT
  5
1D94
330
493
100
AcDbEntity
  8
実形
 62
     0
100
AcDbMText
 10
210.9428298786787
 20
1371.441711899552
 30
0.0
 40
25.0
 41
0.0
 71
     5
 72
     1
  1
550
 11
0.0000000000000001
 21
1.0
 31
0.0
 73
     1
 44
1.0
1001
ACAD
1000
MTEXTBEGIN
1070
    73
1070
     1
1070
    44
1040
1.0
1070
    74
1070
     0
1000
MTEXTEND
  0
POINT
  5
1D95
330
493
100
AcDbEntity
  8
Defpoints
 62
     0
100
AcDbPoint
 10
487.5297166899736
 20
1646.441711899552
 30
0.0
  0
POINT
  5
1D96
330
493
100
AcDbEntity
  8
Defpoints
 62
     0
100
AcDbPoint
 10
487.5297166899736
 20
1096.441711899552
 30
0.0
  0
POINT
  5
1D97
330
493
100
AcDbEntity
  8
Defpoints
 62
     0
100
AcDbPoint
 10
229.6928298786788
 20
1096.441711899552
 30
0.0
  0
ENDBLK
  5
49E
330
493
100
AcDbEntity
  8
0
100
AcDbBlockEnd
  0
BLOCK
  5
4CF
330
4C4
100
AcDbEntity
  8
0
100
AcDbBlockBegin
  2
*D11
 70
     1
 10
0.0
 20
0.0
 30
0.0
  3
*D11
  1

  0
LINE
  5
1DA1
330
4C4
100
AcDbEntity
  8
実形
 62
     0
370
    15
100
AcDbLine
 10
422.5297166899736
 20
1111.441711899552
 30
0.0
 11
307.2416135888571
 21
1111.441711899552
 31
0.0
  0
LINE
  5
1DA2
330
4C4
100
AcDbEntity
  8
実形
 62
     0
370
    15
100
AcDbLine
 10
422.5297166899736
 20
1096.441711899552
 30
0.0
 11
307.2416135888571
 21
1096.441711899552
 31
0.0
  0
LINE
  5
1DA3
330
4C4
100
AcDbEntity
  8
実形
 62
     0
370
    15
100
AcDbLine
 10
307.2416135888571
 20
1096.441711899552
 30
0.0
 11
307.2416135888571
 21
1111.441711899552
 31
0.0
  0
LINE
  5
1DA4
330
4C4
100
AcDbEntity
  8
実形
 62
     0
370
    15
100
AcDbLine
 10
307.2416135888571
 20
1111.441711899552
 30
0.0
 11
307.2416135888571
 21
1192.275045232886
 31
0.0
  0
INSERT
  5
1DA5
330
4C4
100
AcDbEntity
  8
実形
 62
     0
370
    15
100
AcDbBlockReference
  2
_DotSmall
 10
307.2416135888571
 20
1096.441711899552
 30
0.0
 41
35.0
 42
35.0
 43
35.0
 50
270.0
  0
INSERT
  5
1DA6
330
4C4
100
AcDbEntity
  8
実形
 62
     0
370
    15
100
AcDbBlockReference
  2
_DotSmall
 10
307.2416135888571
 20
1111.441711899552
 30
0.0
 41
35.0
 42
35.0
 43
35.0
 50
90.0
  0
MTEXT
  5
1DA7
330
4C4
100
AcDbEntity
  8
実形
 62
     0
100
AcDbMText
 10
288.4916135888569
 20
1169.358378566219
 30
0.0
 40
25.0
 41
0.0
 71
     5
 72
     1
  1
15
 11
0.0000000000000001
 21
1.0
 31
0.0
 73
     1
 44
1.0
1001
ACAD
1000
MTEXTBEGIN
1070
    73
1070
     1
1070
    44
1040
1.0
1070
    74
1070
     0
1000
MTEXTEND
  0
POINT
  5
1DA8
330
4C4
100
AcDbEntity
  8
Defpoints
 62
     0
100
AcDbPoint
 10
487.5297166899736
 20
1111.441711899552
 30
0.0
  0
POINT
  5
1DA9
330
4C4
100
AcDbEntity
  8
Defpoints
 62
     0
100
AcDbPoint
 10
487.5297166899736
 20
1096.441711899552
 30
0.0
  0
POINT
  5
1DAA
330
4C4
100
AcDbEntity
  8
Defpoints
 62
     0
100
AcDbPoint
 10
307.2416135888571
 20
1096.441711899552
 30
0.0
  0
ENDBLK
  5
4D0
330
4C4
100
AcDbEntity
  8
0
100
AcDbBlockEnd
  0
BLOCK
  5
508
330
4FE
100
AcDbEntity
  8
0
100
AcDbBlockBegin
  2
*D12
 70
     1
 10
0.0
 20
0.0
 30
0.0
  3
*D12
  1

  0
LINE
  5
1D74
330
4FE
100
AcDbEntity
  8
実形
 62
     0
370
    15
100
AcDbLine
 10
502.5297166899735
 20
1031.441711899552
 30
0.0
 11
502.5297166899735
 21
979.2183864986473
 31
0.0
  0
LINE
  5
1D75
330
4FE
100
AcDbEntity
  8
実形
 62
     0
370
    15
100
AcDbLine
 10
1152.529716689973
 20
1031.441711899552
 30
0.0
 11
1152.529716689973
 21
979.2183864986473
 31
0.0
  0
LINE
  5
1D76
330
4FE
100
AcDbEntity
  8
実形
 62
     0
370
    15
100
AcDbLine
 10
502.5297166899735
 20
979.2183864986473
 30
0.0
 11
1152.529716689973
 21
979.2183864986473
 31
0.0
  0
INSERT
  5
1D77
330
4FE
100
AcDbEntity
  8
実形
 62
     0
370
    15
100
AcDbBlockReference
  2
_DotSmall
 10
502.5297166899735
 20
979.2183864986473
 30
0.0
 41
35.0
 42
35.0
 43
35.0
 50
180.0
  0
INSERT
  5
1D78
330
4FE
100
AcDbEntity
  8
実形
 62
     0
370
    15
100
AcDbBlockReference
  2
_DotSmall
 10
1152.529716689973
 20
979.2183864986473
 30
0.0
 41
35.0
 42
35.0
 43
35.0
  0
MTEXT
  5
1D79
330
4FE
100
AcDbEntity
  8
実形
 62
     0
100
AcDbMText
 10
827.5297166899736
 20
997.9683864986473
 30
0.0
 40
25.0
 41
0.0
 71
     5
 72
     1
  1
650
 73
     1
 44
1.0
1001
ACAD
1000
MTEXTBEGIN
1070
    73
1070
     1
1070
    44
1040
1.0
1070
    74
1070
     0
1000
MTEXTEND
  0
POINT
  5
1D7A
330
4FE
100
AcDbEntity
  8
Defpoints
 62
     0
100
AcDbPoint
 10
502.5297166899735
 20
1096.441711899552
 30
0.0
  0
POINT
  5
1D7B
330
4FE
100
AcDbEntity
  8
Defpoints
 62
     0
100
AcDbPoint
 10
1152.529716689973
 20
1096.441711899552
 30
0.0
  0
POINT
  5
1D7C
330
4FE
100
AcDbEntity
  8
Defpoints
 62
     0
100
AcDbPoint
 10
1152.529716689973
 20
979.2183864986473
 30
0.0
  0
ENDBLK
  5
509
330
4FE
100
AcDbEntity
  8
0
100
AcDbBlockEnd
  0
BLOCK
  5
52D
330
523
100
AcDbEntity
  8
0
100
AcDbBlockBegin
  2
*D13
 70
     1
 10
0.0
 20
0.0
 30
0.0
  3
*D13
  1

  0
LINE
  5
1D6B
330
523
100
AcDbEntity
  8
実形
 62
     0
370
    15
100
AcDbLine
 10
487.5297166899736
 20
1031.441711899552
 30
0.0
 11
487.5297166899736
 21
905.0979712649878
 31
0.0
  0
LINE
  5
1D6C
330
523
100
AcDbEntity
  8
実形
 62
     0
370
    15
100
AcDbLine
 10
1167.529716689974
 20
1031.441711899552
 30
0.0
 11
1167.529716689974
 21
905.0979712649878
 31
0.0
  0
LINE
  5
1D6D
330
523
100
AcDbEntity
  8
実形
 62
     0
370
    15
100
AcDbLine
 10
487.5297166899736
 20
905.0979712649878
 30
0.0
 11
1167.529716689974
 21
905.0979712649878
 31
0.0
  0
INSERT
  5
1D6E
330
523
100
AcDbEntity
  8
実形
 62
     0
370
    15
100
AcDbBlockReference
  2
_DotSmall
 10
487.5297166899736
 20
905.0979712649878
 30
0.0
 41
35.0
 42
35.0
 43
35.0
 50
180.0
  0
INSERT
  5
1D6F
330
523
100
AcDbEntity
  8
実形
 62
     0
370
    15
100
AcDbBlockReference
  2
_DotSmall
 10
1167.529716689974
 20
905.0979712649878
 30
0.0
 41
35.0
 42
35.0
 43
35.0
  0
MTEXT
  5
1D70
330
523
100
AcDbEntity
  8
実形
 62
     0
100
AcDbMText
 10
827.5297166899736
 20
923.8479712649878
 30
0.0
 40
25.0
 41
0.0
 71
     5
 72
     1
  1
680
 73
     1
 44
1.0
1001
ACAD
1000
MTEXTBEGIN
1070
    73
1070
     1
1070
    44
1040
1.0
1070
    74
1070
     0
1000
MTEXTEND
  0
POINT
  5
1D71
330
523
100
AcDbEntity
  8
Defpoints
 62
     0
100
AcDbPoint
 10
487.5297166899736
 20
1096.441711899552
 30
0.0
  0
POINT
  5
1D72
330
523
100
AcDbEntity
  8
Defpoints
 62
     0
100
AcDbPoint
 10
1167.529716689974
 20
1096.441711899552
 30
0.0
  0
POINT
  5
1D73
330
523
100
AcDbEntity
  8
Defpoints
 62
     0
100
AcDbPoint
 10
1167.529716689974
 20
905.0979712649878
 30
0.0
  0
ENDBLK
  5
52E
330
523
100
AcDbEntity
  8
0
100
AcDbBlockEnd
  0
BLOCK
  5
12B8
330
12B5
100
AcDbEntity
  8
0
100
AcDbBlockBegin
  2
_Dot
 70
     0
 10
0.0
 20
0.0
 30
0.0
  3
_Dot
  1

  0
LWPOLYLINE
  5
12B6
330
12B5
100
AcDbEntity
  8
0
  6
ByBlock
 62
     0
100
AcDbPolyline
 90
        2
 70
     1
 43
0.5
 10
-0.25
 20
0.0
 42
1.0
 10
0.25
 20
0.0
 42
1.0
  0
LINE
  5
12B7
330
12B5
100
AcDbEntity
  8
0
  6
ByBlock
 62
     0
370
    -2
100
AcDbLine
 10
-0.5
 20
0.0
 30
0.0
 11
-1.0
 21
0.0
 31
0.0
  0
ENDBLK
  5
12B9
330
12B5
100
AcDbEntity
  8
0
100
AcDbBlockEnd
  0
BLOCK
  5
15F8
330
15EE
100
AcDbEntity
  8
0
100
AcDbBlockBegin
  2
*D15
 70
     1
 10
0.0
 20
0.0
 30
0.0
  3
*D15
  1

  0
LINE
  5
1DAB
330
15EE
100
AcDbEntity
  8
実形
 62
     0
370
    15
100
AcDbLine
 10
502.5297166899735
 20
1031.441711899552
 30
0.0
 11
502.5297166899735
 21
979.2183864986473
 31
0.0
  0
LINE
  5
1DAC
330
15EE
100
AcDbEntity
  8
実形
 62
     0
370
    15
100
AcDbLine
 10
487.5297166899736
 20
1031.441711899552
 30
0.0
 11
487.5297166899736
 21
979.2183864986473
 31
0.0
  0
LINE
  5
1DAD
330
15EE
100
AcDbEntity
  8
実形
 62
     0
370
    15
100
AcDbLine
 10
502.5297166899735
 20
979.2183864986473
 30
0.0
 11
487.5297166899736
 21
979.2183864986473
 31
0.0
  0
MTEXT
  5
1DAE
330
15EE
100
AcDbEntity
  8
実形
 62
     0
100
AcDbMText
 10
534.0925397724167
 20
1003.348522038423
 30
0.0
 40
25.0
 41
0.0
 71
     5
 72
     1
  1
15
 73
     1
 44
1.0
1001
ACAD
1000
MTEXTBEGIN
1070
    73
1070
     1
1070
    44
1040
1.0
1070
    74
1070
     0
1000
MTEXTEND
  0
INSERT
  5
1DAF
330
15EE
100
AcDbEntity
  8
実形
 62
     0
370
    15
100
AcDbBlockReference
  2
_DotSmall
 10
502.5297166899735
 20
979.2183864986473
 30
0.0
 41
35.0
 42
35.0
 43
35.0
  0
INSERT
  5
1DB0
330
15EE
100
AcDbEntity
  8
実形
 62
     0
370
    15
100
AcDbBlockReference
  2
_DotSmall
 10
487.5297166899736
 20
979.2183864986473
 30
0.0
 41
35.0
 42
35.0
 43
35.0
 50
180.0
  0
POINT
  5
1DB1
330
15EE
100
AcDbEntity
  8
Defpoints
 62
     0
100
AcDbPoint
 10
502.5297166899735
 20
1096.441711899552
 30
0.0
  0
POINT
  5
1DB2
330
15EE
100
AcDbEntity
  8
Defpoints
 62
     0
100
AcDbPoint
 10
487.5297166899736
 20
1096.441711899552
 30
0.0
  0
POINT
  5
1DB3
330
15EE
100
AcDbEntity
  8
Defpoints
 62
     0
100
AcDbPoint
 10
487.5297166899736
 20
979.2183864986473
 30
0.0
  0
ENDBLK
  5
15F9
330
15EE
100
AcDbEntity
  8
0
100
AcDbBlockEnd
  0
BLOCK
  5
1673
330
1669
100
AcDbEntity
  8
0
100
AcDbBlockBegin
  2
*D16
 70
     1
 10
0.0
 20
0.0
 30
0.0
  3
*D16
  1

  0
LINE
  5
1DFD
330
1669
100
AcDbEntity
  8
実形
 62
     0
370
    15
100
AcDbLine
 10
1167.529716689974
 20
1031.441711899552
 30
0.0
 11
1167.529716689974
 21
979.2183864986473
 31
0.0
  0
LINE
  5
1DFE
330
1669
100
AcDbEntity
  8
実形
 62
     0
370
    15
100
AcDbLine
 10
1152.529716689973
 20
1031.441711899552
 30
0.0
 11
1152.529716689973
 21
979.2183864986473
 31
0.0
  0
LINE
  5
1DFF
330
1669
100
AcDbEntity
  8
実形
 62
     0
370
    15
100
AcDbLine
 10
1167.529716689974
 20
979.2183864986473
 30
0.0
 11
1152.529716689973
 21
979.2183864986473
 31
0.0
  0
MTEXT
  5
1E00
330
1669
100
AcDbEntity
  8
実形
 62
     0
100
AcDbMText
 10
1121.129618618908
 20
998.2646973638711
 30
0.0
 40
25.0
 41
0.0
 71
     5
 72
     1
  1
15
 73
     1
 44
1.0
1001
ACAD
1000
MTEXTBEGIN
1070
    73
1070
     1
1070
    44
1040
1.0
1070
    74
1070
     0
1000
MTEXTEND
  0
INSERT
  5
1E01
330
1669
100
AcDbEntity
  8
実形
 62
     0
370
    15
100
AcDbBlockReference
  2
_DotSmall
 10
1167.529716689974
 20
979.2183864986473
 30
0.0
 41
35.0
 42
35.0
 43
35.0
  0
INSERT
  5
1E02
330
1669
100
AcDbEntity
  8
実形
 62
     0
370
    15
100
AcDbBlockReference
  2
_DotSmall
 10
1152.529716689973
 20
979.2183864986473
 30
0.0
 41
35.0
 42
35.0
 43
35.0
 50
180.0
  0
POINT
  5
1E03
330
1669
100
AcDbEntity
  8
Defpoints
 62
     0
100
AcDbPoint
 10
1167.529716689974
 20
1096.441711899552
 30
0.0
  0
POINT
  5
1E04
330
1669
100
AcDbEntity
  8
Defpoints
 62
     0
100
AcDbPoint
 10
1152.529716689973
 20
1096.441711899552
 30
0.0
  0
POINT
  5
1E05
330
1669
100
AcDbEntity
  8
Defpoints
 62
     0
100
AcDbPoint
 10
1152.529716689973
 20
979.2183864986473
 30
0.0
  0
ENDBLK
  5
1674
330
1669
100
AcDbEntity
  8
0
100
AcDbBlockEnd
  0
BLOCK
  5
16B2
330
16A8
100
AcDbEntity
  8
0
100
AcDbBlockBegin
  2
*D17
 70
     1
 10
0.0
 20
0.0
 30
0.0
  3
*D17
  1

  0
LINE
  5
1DBD
330
16A8
100
AcDbEntity
  8
実形
 62
     0
370
    15
100
AcDbLine
 10
502.5297166899735
 20
1266.441711899552
 30
0.0
 11
502.5297166899735
 21
1330.481858913561
 31
0.0
  0
LINE
  5
1DBE
330
16A8
100
AcDbEntity
  8
実形
 62
     0
370
    15
100
AcDbLine
 10
827.5297166899736
 20
1321.441711899552
 30
0.0
 11
827.5297166899736
 21
1330.481858913561
 31
0.0
  0
LINE
  5
1DBF
330
16A8
100
AcDbEntity
  8
実形
 62
     0
370
    15
100
AcDbLine
 10
502.5297166899735
 20
1330.481858913561
 30
0.0
 11
827.5297166899736
 21
1330.481858913561
 31
0.0
  0
INSERT
  5
1DC0
330
16A8
100
AcDbEntity
  8
実形
 62
     0
370
    15
100
AcDbBlockReference
  2
_DotSmall
 10
502.5297166899735
 20
1330.481858913561
 30
0.0
 41
35.0
 42
35.0
 43
35.0
 50
180.0
  0
INSERT
  5
1DC1
330
16A8
100
AcDbEntity
  8
実形
 62
     0
370
    15
100
AcDbBlockReference
  2
_DotSmall
 10
827.5297166899736
 20
1330.481858913561
 30
0.0
 41
35.0
 42
35.0
 43
35.0
  0
MTEXT
  5
1DC2
330
16A8
100
AcDbEntity
  8
実形
 62
     0
100
AcDbMText
 10
665.0297166899735
 20
1349.231858913561
 30
0.0
 40
25.0
 41
0.0
 71
     5
 72
     1
  1
325
 73
     1
 44
1.0
1001
ACAD
1000
MTEXTBEGIN
1070
    73
1070
     1
1070
    44
1040
1.0
1070
    74
1070
     0
1000
MTEXTEND
  0
POINT
  5
1DC3
330
16A8
100
AcDbEntity
  8
Defpoints
 62
     0
100
AcDbPoint
 10
502.5297166899735
 20
1331.441711899552
 30
0.0
  0
POINT
  5
1DC4
330
16A8
100
AcDbEntity
  8
Defpoints
 62
     0
100
AcDbPoint
 10
827.5297166899736
 20
1386.441711899552
 30
0.0
  0
POINT
  5
1DC5
330
16A8
100
AcDbEntity
  8
Defpoints
 62
     0
100
AcDbPoint
 10
827.5297166899736
 20
1330.481858913561
 30
0.0
  0
ENDBLK
  5
16B3
330
16A8
100
AcDbEntity
  8
0
100
AcDbBlockEnd
  0
BLOCK
  5
17D4
330
17D0
100
AcDbEntity
  8
0
100
AcDbBlockBegin
  2
A$C4249135D
 70
     0
 10
0.0
 20
0.0
 30
0.0
  3
A$C4249135D
  1

  0
LINE
  5
17D1
330
17D0
100
AcDbEntity
  8
0
 62
     4
100
AcDbLine
 10
-15.0
 20
0.0
 30
0.0
 11
-15.0
 21
-30.75535338355531
 31
0.0
  0
ENDBLK
  5
17D5
330
17D0
100
AcDbEntity
  8
0
100
AcDbBlockEnd
  0
BLOCK
  5
1C37
330
1C2D
100
AcDbEntity
  8
0
100
AcDbBlockBegin
  2
*D19
 70
     1
 10
0.0
 20
0.0
 30
0.0
  3
*D19
  1

  0
LINE
  5
1E21
330
1C2D
100
AcDbEntity
  8
実形
 62
     0
370
    15
100
AcDbLine
 10
468.5297166899737
 20
1713.82642717865
 30
0.0
 11
468.5297166899737
 21
1812.97416064225
 31
0.0
  0
LINE
  5
1E22
330
1C2D
100
AcDbEntity
  8
実形
 62
     0
370
    15
100
AcDbLine
 10
1186.529716689973
 20
1713.82642717865
 30
0.0
 11
1186.529716689973
 21
1812.97416064225
 31
0.0
  0
LINE
  5
1E23
330
1C2D
100
AcDbEntity
  8
実形
 62
     0
370
    15
100
AcDbLine
 10
478.5297166899737
 20
1812.97416064225
 30
0.0
 11
1176.529716689973
 21
1812.97416064225
 31
0.0
  0
INSERT
  5
1E24
330
1C2D
100
AcDbEntity
  8
実形
 62
     0
370
    15
100
AcDbBlockReference
  2
_Dot
 10
468.5297166899737
 20
1812.97416064225
 30
0.0
 41
10.0
 42
10.0
 43
10.0
 50
180.0
  0
INSERT
  5
1E25
330
1C2D
100
AcDbEntity
  8
実形
 62
     0
370
    15
100
AcDbBlockReference
  2
_Dot
 10
1186.529716689973
 20
1812.97416064225
 30
0.0
 41
10.0
 42
10.0
 43
10.0
  0
MTEXT
  5
1E26
330
1C2D
100
AcDbEntity
  8
実形
 62
     0
100
AcDbMText
 10
827.5297166899736
 20
1831.72416064225
 30
0.0
 40
25.0
 41
0.0
 71
     5
 72
     1
  1
718
 73
     1
 44
1.0
1001
ACAD
1000
MTEXTBEGIN
1070
    73
1070
     1
1070
    44
1040
1.0
1070
    74
1070
     0
1000
MTEXTEND
  0
POINT
  5
1E27
330
1C2D
100
AcDbEntity
  8
Defpoints
 62
     0
100
AcDbPoint
 10
468.5297166899737
 20
1648.82642717865
 30
0.0
  0
POINT
  5
1E28
330
1C2D
100
AcDbEntity
  8
Defpoints
 62
     0
100
AcDbPoint
 10
1186.529716689973
 20
1648.82642717865
 30
0.0
  0
POINT
  5
1E29
330
1C2D
100
AcDbEntity
  8
Defpoints
 62
     0
100
AcDbPoint
 10
1186.529716689973
 20
1812.97416064225
 30
0.0
  0
ENDBLK
  5
1C38
330
1C2D
100
AcDbEntity
  8
0
100
AcDbBlockEnd
  0
BLOCK
  5
1CAF
330
1CA5
100
AcDbEntity
  8
0
100
AcDbBlockBegin
  2
*D20
 70
     1
 10
0.0
 20
0.0
 30
0.0
  3
*D20
  1

  0
LINE
  5
1E2A
330
1CA5
100
AcDbEntity
  8
実形
 62
     0
370
    15
100
AcDbLine
 10
468.5297166899737
 20
1713.82642717865
 30
0.0
 11
468.5297166899737
 21
1745.73124491248
 31
0.0
  0
LINE
  5
1E2B
330
1CA5
100
AcDbEntity
  8
実形
 62
     0
370
    15
100
AcDbLine
 10
502.5297166899737
 20
1713.82642717865
 30
0.0
 11
502.5297166899737
 21
1745.73124491248
 31
0.0
  0
LINE
  5
1E2C
330
1CA5
100
AcDbEntity
  8
実形
 62
     0
370
    15
100
AcDbLine
 10
478.5297166899737
 20
1745.73124491248
 30
0.0
 11
492.5297166899738
 21
1745.73124491248
 31
0.0
  0
MTEXT
  5
1E2D
330
1CA5
100
AcDbEntity
  8
実形
 62
     0
100
AcDbMText
 10
504.9452790652721
 20
1774.709759181678
 30
0.0
 40
25.0
 41
0.0
 71
     5
 72
     1
  1
35
 73
     1
 44
1.0
1001
ACAD
1000
MTEXTBEGIN
1070
    73
1070
     1
1070
    44
1040
1.0
1070
    74
1070
     0
1000
MTEXTEND
  0
INSERT
  5
1E2E
330
1CA5
100
AcDbEntity
  8
実形
 62
     0
370
    15
100
AcDbBlockReference
  2
_Dot
 10
468.5297166899737
 20
1745.73124491248
 30
0.0
 41
10.0
 42
10.0
 43
10.0
 50
180.0
  0
INSERT
  5
1E2F
330
1CA5
100
AcDbEntity
  8
実形
 62
     0
370
    15
100
AcDbBlockReference
  2
_Dot
 10
502.5297166899737
 20
1745.73124491248
 30
0.0
 41
10.0
 42
10.0
 43
10.0
  0
POINT
  5
1E30
330
1CA5
100
AcDbEntity
  8
Defpoints
 62
     0
100
AcDbPoint
 10
468.5297166899737
 20
1648.82642717865
 30
0.0
  0
POINT
  5
1E31
330
1CA5
100
AcDbEntity
  8
Defpoints
 62
     0
100
AcDbPoint
 10
502.5297166899737
 20
1648.82642717865
 30
0.0
  0
POINT
  5
1E32
330
1CA5
100
AcDbEntity
  8
Defpoints
 62
     0
100
AcDbPoint
 10
502.5297166899737
 20
1745.73124491248
 30
0.0
  0
ENDBLK
  5
1CB0
330
1CA5
100
AcDbEntity
  8
0
100
AcDbBlockEnd
  0
BLOCK
  5
1CCE
330
1CC4
100
AcDbEntity
  8
0
100
AcDbBlockBegin
  2
*D21
 70
     1
 10
0.0
 20
0.0
 30
0.0
  3
*D21
  1

  0
LINE
  5
1E33
330
1CC4
100
AcDbEntity
  8
実形
 62
     0
370
    15
100
AcDbLine
 10
1152.529716689973
 20
1713.82642717865
 30
0.0
 11
1152.529716689973
 21
1745.73124491248
 31
0.0
  0
LINE
  5
1E34
330
1CC4
100
AcDbEntity
  8
実形
 62
     0
370
    15
100
AcDbLine
 10
1186.529716689973
 20
1713.82642717865
 30
0.0
 11
1186.529716689973
 21
1745.73124491248
 31
0.0
  0
LINE
  5
1E35
330
1CC4
100
AcDbEntity
  8
実形
 62
     0
370
    15
100
AcDbLine
 10
1162.529716689973
 20
1745.73124491248
 30
0.0
 11
1176.529716689973
 21
1745.73124491248
 31
0.0
  0
MTEXT
  5
1E36
330
1CC4
100
AcDbEntity
  8
実形
 62
     0
100
AcDbMText
 10
1156.14418578014
 20
1770.78703176634
 30
0.0
 40
25.0
 41
0.0
 71
     5
 72
     1
  1
35
 73
     1
 44
1.0
1001
ACAD
1000
MTEXTBEGIN
1070
    73
1070
     1
1070
    44
1040
1.0
1070
    74
1070
     0
1000
MTEXTEND
  0
INSERT
  5
1E37
330
1CC4
100
AcDbEntity
  8
実形
 62
     0
370
    15
100
AcDbBlockReference
  2
_Dot
 10
1152.529716689973
 20
1745.73124491248
 30
0.0
 41
10.0
 42
10.0
 43
10.0
 50
180.0
  0
INSERT
  5
1E38
330
1CC4
100
AcDbEntity
  8
実形
 62
     0
370
    15
100
AcDbBlockReference
  2
_Dot
 10
1186.529716689973
 20
1745.73124491248
 30
0.0
 41
10.0
 42
10.0
 43
10.0
  0
POINT
  5
1E39
330
1CC4
100
AcDbEntity
  8
Defpoints
 62
     0
100
AcDbPoint
 10
1152.529716689973
 20
1648.82642717865
 30
0.0
  0
POINT
  5
1E3A
330
1CC4
100
AcDbEntity
  8
Defpoints
 62
     0
100
AcDbPoint
 10
1186.529716689973
 20
1648.82642717865
 30
0.0
  0
POINT
  5
1E3B
330
1CC4
100
AcDbEntity
  8
Defpoints
 62
     0
100
AcDbPoint
 10
1186.529716689973
 20
1745.73124491248
 30
0.0
  0
ENDBLK
  5
1CCF
330
1CC4
100
AcDbEntity
  8
0
100
AcDbBlockEnd
  0
BLOCK
  5
1CFE
330
1CF4
100
AcDbEntity
  8
0
100
AcDbBlockBegin
  2
*D22
 70
     1
 10
0.0
 20
0.0
 30
0.0
  3
*D22
  1

  0
LINE
  5
1E3C
330
1CF4
100
AcDbEntity
  8
実形
 62
     0
370
    15
100
AcDbLine
 10
1263.260648446332
 20
1665.441711899552
 30
0.0
 11
1311.184410259419
 21
1665.441711899552
 31
0.0
  0
LINE
  5
1E3D
330
1CF4
100
AcDbEntity
  8
実形
 62
     0
370
    15
100
AcDbLine
 10
1263.260648446332
 20
1631.441711899552
 30
0.0
 11
1311.184410259419
 21
1631.441711899552
 31
0.0
  0
LINE
  5
1E3E
330
1CF4
100
AcDbEntity
  8
実形
 62
     0
370
    15
100
AcDbLine
 10
1311.184410259419
 20
1655.441711899552
 30
0.0
 11
1311.184410259419
 21
1641.441711899552
 31
0.0
  0
MTEXT
  5
1E3F
330
1CF4
100
AcDbEntity
  8
実形
 62
     0
100
AcDbMText
 10
1289.797456868211
 20
1598.237700747159
 30
0.0
 40
25.0
 41
0.0
 71
     5
 72
     1
  1
35
 11
0.0000000000000001
 21
1.0
 31
0.0
 73
     1
 44
1.0
1001
ACAD
1000
MTEXTBEGIN
1070
    73
1070
     1
1070
    44
1040
1.0
1070
    74
1070
     0
1000
MTEXTEND
  0
INSERT
  5
1E40
330
1CF4
100
AcDbEntity
  8
実形
 62
     0
370
    15
100
AcDbBlockReference
  2
_Dot
 10
1311.184410259419
 20
1665.441711899552
 30
0.0
 41
10.0
 42
10.0
 43
10.0
 50
90.0
  0
INSERT
  5
1E41
330
1CF4
100
AcDbEntity
  8
実形
 62
     0
370
    15
100
AcDbBlockReference
  2
_Dot
 10
1311.184410259419
 20
1631.441711899552
 30
0.0
 41
10.0
 42
10.0
 43
10.0
 50
270.0
  0
POINT
  5
1E42
330
1CF4
100
AcDbEntity
  8
Defpoints
 62
     0
100
AcDbPoint
 10
1198.260648446332
 20
1665.441711899552
 30
0.0
  0
POINT
  5
1E43
330
1CF4
100
AcDbEntity
  8
Defpoints
 62
     0
100
AcDbPoint
 10
1198.260648446332
 20
1631.441711899552
 30
0.0
  0
POINT
  5
1E44
330
1CF4
100
AcDbEntity
  8
Defpoints
 62
     0
100
AcDbPoint
 10
1311.184410259419
 20
1631.441711899552
 30
0.0
  0
ENDBLK
  5
1CFF
330
1CF4
100
AcDbEntity
  8
0
100
AcDbBlockEnd
  0
BLOCK
  5
1D0C
330
1D02
100
AcDbEntity
  8
0
100
AcDbBlockBegin
  2
*D23
 70
     1
 10
0.0
 20
0.0
 30
0.0
  3
*D23
  1

  0
LINE
  5
1E45
330
1D02
100
AcDbEntity
  8
実形
 62
     0
370
    15
100
AcDbLine
 10
1263.260648446332
 20
1111.441711899552
 30
0.0
 11
1311.184410259418
 21
1111.441711899552
 31
0.0
  0
LINE
  5
1E46
330
1D02
100
AcDbEntity
  8
実形
 62
     0
370
    15
100
AcDbLine
 10
1263.260648446332
 20
1077.441711899552
 30
0.0
 11
1311.184410259418
 21
1077.441711899552
 31
0.0
  0
LINE
  5
1E47
330
1D02
100
AcDbEntity
  8
実形
 62
     0
370
    15
100
AcDbLine
 10
1311.184410259418
 20
1101.441711899552
 30
0.0
 11
1311.184410259418
 21
1087.441711899552
 31
0.0
  0
MTEXT
  5
1E48
330
1D02
100
AcDbEntity
  8
実形
 62
     0
100
AcDbMText
 10
1287.012510196924
 20
1145.461574044227
 30
0.0
 40
25.0
 41
0.0
 71
     5
 72
     1
  1
35
 11
0.0000000000000001
 21
1.0
 31
0.0
 73
     1
 44
1.0
1001
ACAD
1000
MTEXTBEGIN
1070
    73
1070
     1
1070
    44
1040
1.0
1070
    74
1070
     0
1000
MTEXTEND
  0
INSERT
  5
1E49
330
1D02
100
AcDbEntity
  8
実形
 62
     0
370
    15
100
AcDbBlockReference
  2
_Dot
 10
1311.184410259418
 20
1111.441711899552
 30
0.0
 41
10.0
 42
10.0
 43
10.0
 50
90.0
  0
INSERT
  5
1E4A
330
1D02
100
AcDbEntity
  8
実形
 62
     0
370
    15
100
AcDbBlockReference
  2
_Dot
 10
1311.184410259418
 20
1077.441711899552
 30
0.0
 41
10.0
 42
10.0
 43
10.0
 50
270.0
  0
POINT
  5
1E4B
330
1D02
100
AcDbEntity
  8
Defpoints
 62
     0
100
AcDbPoint
 10
1198.260648446332
 20
1111.441711899552
 30
0.0
  0
POINT
  5
1E4C
330
1D02
100
AcDbEntity
  8
Defpoints
 62
     0
100
AcDbPoint
 10
1198.260648446332
 20
1077.441711899552
 30
0.0
  0
POINT
  5
1E4D
330
1D02
100
AcDbEntity
  8
Defpoints
 62
     0
100
AcDbPoint
 10
1311.184410259418
 20
1077.441711899552
 30
0.0
  0
ENDBLK
  5
1D0D
330
1D02
100
AcDbEntity
  8
0
100
AcDbBlockEnd
  0
BLOCK
  5
1D19
330
1D0F
100
AcDbEntity
  8
0
100
AcDbBlockBegin
  2
*D24
 70
     1
 10
0.0
 20
0.0
 30
0.0
  3
*D24
  1

  0
LINE
  5
1E4E
330
1D0F
100
AcDbEntity
  8
実形
 62
     0
370
    15
100
AcDbLine
 10
1263.260648446332
 20
1665.441711899552
 30
0.0
 11
1352.133474647693
 21
1665.441711899552
 31
0.0
  0
LINE
  5
1E4F
330
1D0F
100
AcDbEntity
  8
実形
 62
     0
370
    15
100
AcDbLine
 10
1263.260648446332
 20
1077.441711899552
 30
0.0
 11
1352.133474647693
 21
1077.441711899552
 31
0.0
  0
LINE
  5
1E50
330
1D0F
100
AcDbEntity
  8
実形
 62
     0
370
    15
100
AcDbLine
 10
1352.133474647693
 20
1655.441711899552
 30
0.0
 11
1352.133474647693
 21
1087.441711899552
 31
0.0
  0
INSERT
  5
1E51
330
1D0F
100
AcDbEntity
  8
実形
 62
     0
370
    15
100
AcDbBlockReference
  2
_Dot
 10
1352.133474647693
 20
1665.441711899552
 30
0.0
 41
10.0
 42
10.0
 43
10.0
 50
90.0
  0
INSERT
  5
1E52
330
1D0F
100
AcDbEntity
  8
実形
 62
     0
370
    15
100
AcDbBlockReference
  2
_Dot
 10
1352.133474647693
 20
1077.441711899552
 30
0.0
 41
10.0
 42
10.0
 43
10.0
 50
270.0
  0
MTEXT
  5
1E53
330
1D0F
100
AcDbEntity
  8
実形
 62
     0
100
AcDbMText
 10
1333.383474647693
 20
1371.441711899552
 30
0.0
 40
25.0
 41
0.0
 71
     5
 72
     1
  1
588
 11
0.0000000000000001
 21
1.0
 31
0.0
 73
     1
 44
1.0
1001
ACAD
1000
MTEXTBEGIN
1070
    73
1070
     1
1070
    44
1040
1.0
1070
    74
1070
     0
1000
MTEXTEND
  0
POINT
  5
1E54
330
1D0F
100
AcDbEntity
  8
Defpoints
 62
     0
100
AcDbPoint
 10
1198.260648446332
 20
1665.441711899552
 30
0.0
  0
POINT
  5
1E55
330
1D0F
100
AcDbEntity
  8
Defpoints
 62
     0
100
AcDbPoint
 10
1198.260648446332
 20
1077.441711899552
 30
0.0
  0
POINT
  5
1E56
330
1D0F
100
AcDbEntity
  8
Defpoints
 62
     0
100
AcDbPoint
 10
1352.133474647693
 20
1077.441711899552
 30
0.0
  0
ENDBLK
  5
1D1A
330
1D0F
100
AcDbEntity
  8
0
100
AcDbBlockEnd
  0
BLOCK
  5
2437
330
2430
100
AcDbEntity
  8
0
100
AcDbBlockBegin
  2
*D25
 70
     1
 10
0.0
 20
0.0
 30
0.0
  3
*D25
  1

  0
LINE
  5
251D
330
2430
100
AcDbEntity
  8
実形
 62
     0
370
    13
100
AcDbLine
 10
1963.10327858681
 20
562.6388787035095
 30
0.0
 11
1963.10327858681
 21
476.4445371024394
 31
0.0
  0
LINE
  5
251E
330
2430
100
AcDbEntity
  8
実形
 62
     0
370
    13
100
AcDbLine
 10
1947.50327858681
 20
536.8471552806368
 30
0.0
 11
1947.50327858681
 21
476.4445371024394
 31
0.0
  0
MTEXT
  5
251F
330
2430
100
AcDbEntity
  8
実形
 62
     0
100
AcDbMText
 10
1927.154852797523
 20
500.9356801950445
 30
0.0
 40
25.0
 41
0.0
 71
     5
 72
     1
  1
1
 73
     1
 44
1.0
1001
ACAD
1000
MTEXTBEGIN
1070
    73
1070
     1
1070
    44
1040
1.0
1070
    74
1070
     0
1000
MTEXTEND
  0
POINT
  5
2520
330
2430
100
AcDbEntity
  8
Defpoints
 62
     0
100
AcDbPoint
 10
1963.10327858681
 20
568.6388787035094
 30
0.0
  0
POINT
  5
2521
330
2430
100
AcDbEntity
  8
Defpoints
 62
     0
100
AcDbPoint
 10
1947.50327858681
 20
542.8471552806367
 30
0.0
  0
POINT
  5
2522
330
2430
100
AcDbEntity
  8
Defpoints
 62
     0
100
AcDbPoint
 10
1947.50327858681
 20
476.4445371024394
 30
0.0
  0
ENDBLK
  5
2438
330
2430
100
AcDbEntity
  8
0
100
AcDbBlockEnd
  0
BLOCK
  5
2443
330
2439
100
AcDbEntity
  8
0
100
AcDbBlockBegin
  2
*D26
 70
     1
 10
0.0
 20
0.0
 30
0.0
  3
*D26
  1

  0
LINE
  5
2523
330
2439
100
AcDbEntity
  8
実形
 62
     0
370
    18
100
AcDbLine
 10
2532.669934078618
 20
693.4388787035102
 30
0.0
 11
2603.281879703351
 21
693.4388787035102
 31
0.0
  0
LINE
  5
2524
330
2439
100
AcDbEntity
  8
実形
 62
     0
370
    18
100
AcDbLine
 10
2532.669934078618
 20
553.0388787035104
 30
0.0
 11
2603.281879703351
 21
553.0388787035104
 31
0.0
  0
LINE
  5
2525
330
2439
100
AcDbEntity
  8
実形
 62
     0
370
    18
100
AcDbLine
 10
2603.281879703351
 20
693.4388787035102
 30
0.0
 11
2603.281879703351
 21
553.0388787035104
 31
0.0
  0
INSERT
  5
2526
330
2439
100
AcDbEntity
  8
実形
 62
     0
370
    18
100
AcDbBlockReference
  2
_DotSmall
 10
2603.281879703351
 20
693.4388787035102
 30
0.0
 41
35.0
 42
35.0
 43
35.0
 50
90.0
  0
INSERT
  5
2527
330
2439
100
AcDbEntity
  8
実形
 62
     0
370
    18
100
AcDbBlockReference
  2
_DotSmall
 10
2603.281879703351
 20
553.0388787035104
 30
0.0
 41
35.0
 42
35.0
 43
35.0
 50
270.0
  0
MTEXT
  5
2528
330
2439
100
AcDbEntity
  8
実形
 62
     0
100
AcDbMText
 10
2584.531879703351
 20
623.2388787035107
 30
0.0
 40
25.0
 41
0.0
 71
     5
 72
     1
  1
9
 11
0.0000000000000001
 21
1.0
 31
0.0
 73
     1
 44
1.0
1001
ACAD
1000
MTEXTBEGIN
1070
    73
1070
     1
1070
    44
1040
1.0
1070
    74
1070
     0
1000
MTEXTEND
  0
POINT
  5
2529
330
2439
100
AcDbEntity
  8
Defpoints
 62
     0
100
AcDbPoint
 10
2467.669934078618
 20
693.4388787035102
 30
0.0
  0
POINT
  5
252A
330
2439
100
AcDbEntity
  8
Defpoints
 62
     0
100
AcDbPoint
 10
2467.669934078618
 20
553.0388787035104
 30
0.0
  0
POINT
  5
252B
330
2439
100
AcDbEntity
  8
Defpoints
 62
     0
100
AcDbPoint
 10
2603.281879703351
 20
553.0388787035104
 30
0.0
  0
ENDBLK
  5
2444
330
2439
100
AcDbEntity
  8
0
100
AcDbBlockEnd
  0
BLOCK
  5
244F
330
2445
100
AcDbEntity
  8
0
100
AcDbBlockBegin
  2
*D27
 70
     1
 10
0.0
 20
0.0
 30
0.0
  3
*D27
  1

  0
LINE
  5
252C
330
2445
100
AcDbEntity
  8
実形
 62
     0
370
    18
100
AcDbLine
 10
2532.669934078618
 20
553.0388787035104
 30
0.0
 11
2603.281879703351
 21
553.0388787035104
 31
0.0
  0
LINE
  5
252D
330
2445
100
AcDbEntity
  8
実形
 62
     0
370
    18
100
AcDbLine
 10
2532.669934078618
 20
412.6388787035103
 30
0.0
 11
2603.281879703351
 21
412.6388787035103
 31
0.0
  0
LINE
  5
252E
330
2445
100
AcDbEntity
  8
実形
 62
     0
370
    18
100
AcDbLine
 10
2603.281879703351
 20
553.0388787035104
 30
0.0
 11
2603.281879703351
 21
412.6388787035103
 31
0.0
  0
INSERT
  5
252F
330
2445
100
AcDbEntity
  8
実形
 62
     0
370
    18
100
AcDbBlockReference
  2
_DotSmall
 10
2603.281879703351
 20
553.0388787035104
 30
0.0
 41
35.0
 42
35.0
 43
35.0
 50
90.0
  0
INSERT
  5
2530
330
2445
100
AcDbEntity
  8
実形
 62
     0
370
    18
100
AcDbBlockReference
  2
_DotSmall
 10
2603.281879703351
 20
412.6388787035103
 30
0.0
 41
35.0
 42
35.0
 43
35.0
 50
270.0
  0
MTEXT
  5
2531
330
2445
100
AcDbEntity
  8
実形
 62
     0
100
AcDbMText
 10
2584.531879703351
 20
482.8388787035107
 30
0.0
 40
25.0
 41
0.0
 71
     5
 72
     1
  1
9
 11
0.0000000000000001
 21
1.0
 31
0.0
 73
     1
 44
1.0
1001
ACAD
1000
MTEXTBEGIN
1070
    73
1070
     1
1070
    44
1040
1.0
1070
    74
1070
     0
1000
MTEXTEND
  0
POINT
  5
2532
330
2445
100
AcDbEntity
  8
Defpoints
 62
     0
100
AcDbPoint
 10
2467.669934078618
 20
553.0388787035104
 30
0.0
  0
POINT
  5
2533
330
2445
100
AcDbEntity
  8
Defpoints
 62
     0
100
AcDbPoint
 10
2467.669934078618
 20
412.6388787035103
 30
0.0
  0
POINT
  5
2534
330
2445
100
AcDbEntity
  8
Defpoints
 62
     0
100
AcDbPoint
 10
2603.281879703351
 20
412.6388787035103
 30
0.0
  0
ENDBLK
  5
2450
330
2445
100
AcDbEntity
  8
0
100
AcDbBlockEnd
  0
BLOCK
  5
245B
330
2451
100
AcDbEntity
  8
0
100
AcDbBlockBegin
  2
*D28
 70
     1
 10
0.0
 20
0.0
 30
0.0
  3
*D28
  1

  0
LINE
  5
2535
330
2451
100
AcDbEntity
  8
実形
 62
     0
370
    18
100
AcDbLine
 10
2532.669934078618
 20
693.4388787035103
 30
0.0
 11
2670.139520579067
 21
693.4388787035103
 31
0.0
  0
LINE
  5
2536
330
2451
100
AcDbEntity
  8
実形
 62
     0
370
    18
100
AcDbLine
 10
2532.669934078618
 20
412.6388787035103
 30
0.0
 11
2670.139520579067
 21
412.6388787035103
 31
0.0
  0
LINE
  5
2537
330
2451
100
AcDbEntity
  8
実形
 62
     0
370
    18
100
AcDbLine
 10
2670.139520579067
 20
693.4388787035103
 30
0.0
 11
2670.139520579067
 21
412.6388787035103
 31
0.0
  0
INSERT
  5
2538
330
2451
100
AcDbEntity
  8
実形
 62
     0
370
    18
100
AcDbBlockReference
  2
_DotSmall
 10
2670.139520579067
 20
693.4388787035103
 30
0.0
 41
35.0
 42
35.0
 43
35.0
 50
90.0
  0
INSERT
  5
2539
330
2451
100
AcDbEntity
  8
実形
 62
     0
370
    18
100
AcDbBlockReference
  2
_DotSmall
 10
2670.139520579067
 20
412.6388787035103
 30
0.0
 41
35.0
 42
35.0
 43
35.0
 50
270.0
  0
MTEXT
  5
253A
330
2451
100
AcDbEntity
  8
実形
 62
     0
100
AcDbMText
 10
2651.389520579066
 20
553.0388787035108
 30
0.0
 40
25.0
 41
0.0
 71
     5
 72
     1
  1
18
 11
0.0000000000000001
 21
1.0
 31
0.0
 73
     1
 44
1.0
1001
ACAD
1000
MTEXTBEGIN
1070
    73
1070
     1
1070
    44
1040
1.0
1070
    74
1070
     0
1000
MTEXTEND
  0
POINT
  5
253B
330
2451
100
AcDbEntity
  8
Defpoints
 62
     0
100
AcDbPoint
 10
2467.669934078618
 20
693.4388787035103
 30
0.0
  0
POINT
  5
253C
330
2451
100
AcDbEntity
  8
Defpoints
 62
     0
100
AcDbPoint
 10
2467.669934078618
 20
412.6388787035103
 30
0.0
  0
POINT
  5
253D
330
2451
100
AcDbEntity
  8
Defpoints
 62
     0
100
AcDbPoint
 10
2670.139520579067
 20
412.6388787035103
 30
0.0
  0
ENDBLK
  5
245C
330
2451
100
AcDbEntity
  8
0
100
AcDbBlockEnd
  0
BLOCK
  5
2467
330
245D
100
AcDbEntity
  8
0
100
AcDbBlockBegin
  2
*D29
 70
     1
 10
0.0
 20
0.0
 30
0.0
  3
*D29
  1

  0
LINE
  5
253E
330
245D
100
AcDbEntity
  8
実形
 62
     0
370
    18
100
AcDbLine
 10
1963.103278586809
 20
601.2515538480251
 30
0.0
 11
1963.103278586809
 21
626.499025413821
 31
0.0
  0
LINE
  5
253F
330
245D
100
AcDbEntity
  8
実形
 62
     0
370
    18
100
AcDbLine
 10
2197.103278586809
 20
601.2515538480251
 30
0.0
 11
2197.103278586809
 21
626.499025413821
 31
0.0
  0
LINE
  5
2540
330
245D
100
AcDbEntity
  8
実形
 62
     0
370
    18
100
AcDbLine
 10
1963.103278586809
 20
626.499025413821
 30
0.0
 11
2197.103278586809
 21
626.499025413821
 31
0.0
  0
INSERT
  5
2541
330
245D
100
AcDbEntity
  8
実形
 62
     0
370
    18
100
AcDbBlockReference
  2
_DotSmall
 10
1963.103278586809
 20
626.499025413821
 30
0.0
 41
35.0
 42
35.0
 43
35.0
 50
180.0
  0
INSERT
  5
2542
330
245D
100
AcDbEntity
  8
実形
 62
     0
370
    18
100
AcDbBlockReference
  2
_DotSmall
 10
2197.103278586809
 20
626.499025413821
 30
0.0
 41
35.0
 42
35.0
 43
35.0
  0
MTEXT
  5
2543
330
245D
100
AcDbEntity
  8
実形
 62
     0
100
AcDbMText
 10
2080.103278586809
 20
645.249025413821
 30
0.0
 40
25.0
 41
0.0
 71
     5
 72
     1
  1
15
 73
     1
 44
1.0
1001
ACAD
1000
MTEXTBEGIN
1070
    73
1070
     1
1070
    44
1040
1.0
1070
    74
1070
     0
1000
MTEXTEND
  0
POINT
  5
2544
330
245D
100
AcDbEntity
  8
Defpoints
 62
     0
100
AcDbPoint
 10
1963.103278586809
 20
536.2515538480251
 30
0.0
  0
POINT
  5
2545
330
245D
100
AcDbEntity
  8
Defpoints
 62
     0
100
AcDbPoint
 10
2197.103278586809
 20
536.2515538480251
 30
0.0
  0
POINT
  5
2546
330
245D
100
AcDbEntity
  8
Defpoints
 62
     0
100
AcDbPoint
 10
2197.103278586809
 20
626.499025413821
 30
0.0
  0
ENDBLK
  5
2468
330
245D
100
AcDbEntity
  8
0
100
AcDbBlockEnd
  0
BLOCK
  5
2473
330
2469
100
AcDbEntity
  8
0
100
AcDbBlockBegin
  2
*D30
 70
     1
 10
0.0
 20
0.0
 30
0.0
  3
*D30
  1

  0
LINE
  5
2547
330
2469
100
AcDbEntity
  8
実形
 62
     0
370
    18
100
AcDbLine
 10
2164.883963240635
 20
514.0388787035103
 30
0.0
 11
2101.036883161905
 21
514.0388787035103
 31
0.0
  0
LINE
  5
2548
330
2469
100
AcDbEntity
  8
実形
 62
     0
370
    18
100
AcDbLine
 10
2088.536592650147
 20
553.0388787035104
 30
0.0
 11
2101.036883161905
 21
553.0388787035104
 31
0.0
  0
LINE
  5
2549
330
2469
100
AcDbEntity
  8
実形
 62
     0
370
    18
100
AcDbLine
 10
2101.036883161905
 20
514.0388787035103
 30
0.0
 11
2101.036883161905
 21
553.0388787035104
 31
0.0
  0
MTEXT
  5
254A
330
2469
100
AcDbEntity
  8
実形
 62
     0
100
AcDbMText
 10
2069.564297767181
 20
524.3493911207361
 30
0.0
 40
23.0
 41
0.0
 71
     5
 72
     1
  1
2.5
 11
0.0000000000000001
 21
1.0
 31
0.0
 73
     1
 44
1.0
1001
ACAD
1000
MTEXTBEGIN
1070
    73
1070
     1
1070
    44
1040
1.0
1070
    74
1070
     0
1000
MTEXTEND
  0
INSERT
  5
254B
330
2469
100
AcDbEntity
  8
実形
 62
     0
370
    18
100
AcDbBlockReference
  2
_DotSmall
 10
2101.036883161905
 20
514.0388787035103
 30
0.0
 41
35.0
 42
35.0
 43
35.0
 50
270.0
  0
INSERT
  5
254C
330
2469
100
AcDbEntity
  8
実形
 62
     0
370
    18
100
AcDbBlockReference
  2
_DotSmall
 10
2101.036883161905
 20
553.0388787035104
 30
0.0
 41
35.0
 42
35.0
 43
35.0
 50
90.0
  0
POINT
  5
254D
330
2469
100
AcDbEntity
  8
Defpoints
 62
     0
100
AcDbPoint
 10
2229.883963240635
 20
514.0388787035103
 30
0.0
  0
POINT
  5
254E
330
2469
100
AcDbEntity
  8
Defpoints
 62
     0
100
AcDbPoint
 10
2153.536592650147
 20
553.0388787035104
 30
0.0
  0
POINT
  5
254F
330
2469
100
AcDbEntity
  8
Defpoints
 62
     0
100
AcDbPoint
 10
2101.036883161905
 20
553.0388787035104
 30
0.0
  0
ENDBLK
  5
2474
330
2469
100
AcDbEntity
  8
0
100
AcDbBlockEnd
  0
BLOCK
  5
247F
330
2475
100
AcDbEntity
  8
0
100
AcDbBlockBegin
  2
*D31
 70
     1
 10
0.0
 20
0.0
 30
0.0
  3
*D31
  1

  0
LINE
  5
2550
330
2475
100
AcDbEntity
  8
実形
 62
     0
370
    18
100
AcDbLine
 10
2150.30327858681
 20
457.3587244814916
 30
0.0
 11
2150.30327858681
 21
461.4323905324424
 31
0.0
  0
LINE
  5
2551
330
2475
100
AcDbEntity
  8
実形
 62
     0
370
    18
100
AcDbLine
 10
2228.303278586809
 20
457.3587244814916
 30
0.0
 11
2228.303278586809
 21
461.4323905324424
 31
0.0
  0
LINE
  5
2552
330
2475
100
AcDbEntity
  8
実形
 62
     0
370
    18
100
AcDbLine
 10
2150.30327858681
 20
461.4323905324424
 30
0.0
 11
2228.303278586809
 21
461.4323905324424
 31
0.0
  0
INSERT
  5
2553
330
2475
100
AcDbEntity
  8
実形
 62
     0
370
    18
100
AcDbBlockReference
  2
_DotSmall
 10
2150.30327858681
 20
461.4323905324424
 30
0.0
 41
35.0
 42
35.0
 43
35.0
 50
180.0
  0
INSERT
  5
2554
330
2475
100
AcDbEntity
  8
実形
 62
     0
370
    18
100
AcDbBlockReference
  2
_DotSmall
 10
2228.303278586809
 20
461.4323905324424
 30
0.0
 41
35.0
 42
35.0
 43
35.0
  0
MTEXT
  5
2555
330
2475
100
AcDbEntity
  8
実形
 62
     0
100
AcDbMText
 10
2189.303278586809
 20
480.1823905324424
 30
0.0
 40
25.0
 41
0.0
 71
     5
 72
     1
  1
5
 73
     1
 44
1.0
1001
ACAD
1000
MTEXTBEGIN
1070
    73
1070
     1
1070
    44
1040
1.0
1070
    74
1070
     0
1000
MTEXTEND
  0
POINT
  5
2556
330
2475
100
AcDbEntity
  8
Defpoints
 62
     0
100
AcDbPoint
 10
2150.30327858681
 20
522.3587244814916
 30
0.0
  0
POINT
  5
2557
330
2475
100
AcDbEntity
  8
Defpoints
 62
     0
100
AcDbPoint
 10
2228.303278586809
 20
522.3587244814916
 30
0.0
  0
POINT
  5
2558
330
2475
100
AcDbEntity
  8
Defpoints
 62
     0
100
AcDbPoint
 10
2228.303278586809
 20
461.4323905324424
 30
0.0
  0
ENDBLK
  5
2480
330
2475
100
AcDbEntity
  8
0
100
AcDbBlockEnd
  0
BLOCK
  5
248B
330
2481
100
AcDbEntity
  8
0
100
AcDbBlockBegin
  2
*D32
 70
     1
 10
0.0
 20
0.0
 30
0.0
  3
*D32
  1

  0
LINE
  5
2559
330
2481
100
AcDbEntity
  8
実形
 62
     0
370
    18
100
AcDbLine
 10
2138.595588728236
 20
451.6388787035102
 30
0.0
 11
2102.975332119596
 21
451.6388787035102
 31
0.0
  0
LINE
  5
255A
330
2481
100
AcDbEntity
  8
実形
 62
     0
370
    18
100
AcDbLine
 10
2150.882092629512
 20
412.6388787035103
 30
0.0
 11
2102.975332119596
 21
412.6388787035103
 31
0.0
  0
LINE
  5
255B
330
2481
100
AcDbEntity
  8
実形
 62
     0
370
    18
100
AcDbLine
 10
2102.975332119596
 20
451.6388787035102
 30
0.0
 11
2102.975332119596
 21
412.6388787035103
 31
0.0
  0
MTEXT
  5
255C
330
2481
100
AcDbEntity
  8
実形
 62
     0
100
AcDbMText
 10
2070.355870815655
 20
441.0024837871193
 30
0.0
 40
23.0
 41
0.0
 71
     5
 72
     1
  1
2.5
 11
0.0000000000000001
 21
1.0
 31
0.0
 73
     1
 44
1.0
1001
ACAD
1000
MTEXTBEGIN
1070
    73
1070
     1
1070
    44
1040
1.0
1070
    74
1070
     0
1000
MTEXTEND
  0
INSERT
  5
255D
330
2481
100
AcDbEntity
  8
実形
 62
     0
370
    18
100
AcDbBlockReference
  2
_DotSmall
 10
2102.975332119596
 20
451.6388787035102
 30
0.0
 41
35.0
 42
35.0
 43
35.0
 50
90.0
  0
INSERT
  5
255E
330
2481
100
AcDbEntity
  8
実形
 62
     0
370
    18
100
AcDbBlockReference
  2
_DotSmall
 10
2102.975332119596
 20
412.6388787035103
 30
0.0
 41
35.0
 42
35.0
 43
35.0
 50
270.0
  0
POINT
  5
255F
330
2481
100
AcDbEntity
  8
Defpoints
 62
     0
100
AcDbPoint
 10
2203.595588728236
 20
451.6388787035102
 30
0.0
  0
POINT
  5
2560
330
2481
100
AcDbEntity
  8
Defpoints
 62
     0
100
AcDbPoint
 10
2215.882092629512
 20
412.6388787035102
 30
0.0
  0
POINT
  5
2561
330
2481
100
AcDbEntity
  8
Defpoints
 62
     0
100
AcDbPoint
 10
2102.975332119596
 20
412.6388787035103
 30
0.0
  0
ENDBLK
  5
248C
330
2481
100
AcDbEntity
  8
0
100
AcDbBlockEnd
  0
BLOCK
  5
2497
330
248D
100
AcDbEntity
  8
0
100
AcDbBlockBegin
  2
*D33
 70
     1
 10
0.0
 20
0.0
 30
0.0
  3
*D33
  1

  0
LINE
  5
2562
330
248D
100
AcDbEntity
  8
実形
 62
     0
370
    18
100
AcDbLine
 10
1947.50327858681
 20
705.5397997195641
 30
0.0
 11
1947.50327858681
 21
743.3028714699867
 31
0.0
  0
LINE
  5
2563
330
248D
100
AcDbEntity
  8
実形
 62
     0
370
    18
100
AcDbLine
 10
2228.303278586809
 20
705.5397997195641
 30
0.0
 11
2228.303278586809
 21
743.3028714699867
 31
0.0
  0
LINE
  5
2564
330
248D
100
AcDbEntity
  8
実形
 62
     0
370
    18
100
AcDbLine
 10
1947.50327858681
 20
743.3028714699867
 30
0.0
 11
2228.303278586809
 21
743.3028714699867
 31
0.0
  0
INSERT
  5
2565
330
248D
100
AcDbEntity
  8
実形
 62
     0
370
    18
100
AcDbBlockReference
  2
_DotSmall
 10
1947.50327858681
 20
743.3028714699867
 30
0.0
 41
35.0
 42
35.0
 43
35.0
 50
180.0
  0
INSERT
  5
2566
330
248D
100
AcDbEntity
  8
実形
 62
     0
370
    18
100
AcDbBlockReference
  2
_DotSmall
 10
2228.303278586809
 20
743.3028714699867
 30
0.0
 41
35.0
 42
35.0
 43
35.0
  0
MTEXT
  5
2567
330
248D
100
AcDbEntity
  8
実形
 62
     0
100
AcDbMText
 10
2087.903278586809
 20
762.0528714699867
 30
0.0
 40
25.0
 41
0.0
 71
     5
 72
     1
  1
18
 73
     1
 44
1.0
1001
ACAD
1000
MTEXTBEGIN
1070
    73
1070
     1
1070
    44
1040
1.0
1070
    74
1070
     0
1000
MTEXTEND
  0
POINT
  5
2568
330
248D
100
AcDbEntity
  8
Defpoints
 62
     0
100
AcDbPoint
 10
1947.50327858681
 20
640.5397997195641
 30
0.0
  0
POINT
  5
2569
330
248D
100
AcDbEntity
  8
Defpoints
 62
     0
100
AcDbPoint
 10
2228.303278586809
 20
640.5397997195641
 30
0.0
  0
POINT
  5
256A
330
248D
100
AcDbEntity
  8
Defpoints
 62
     0
100
AcDbPoint
 10
2228.303278586809
 20
743.3028714699867
 30
0.0
  0
ENDBLK
  5
2498
330
248D
100
AcDbEntity
  8
0
100
AcDbBlockEnd
  0
BLOCK
  5
24A3
330
2499
100
AcDbEntity
  8
0
100
AcDbBlockBegin
  2
*D34
 70
     1
 10
0.0
 20
0.0
 30
0.0
  3
*D34
  1

  0
LINE
  5
256B
330
2499
100
AcDbEntity
  8
実形
 62
     0
370
    18
100
AcDbLine
 10
2228.303278586809
 20
705.539799719563
 30
0.0
 11
2228.303278586809
 21
743.3028714699867
 31
0.0
  0
LINE
  5
256C
330
2499
100
AcDbEntity
  8
実形
 62
     0
370
    18
100
AcDbLine
 10
2493.503278586809
 20
705.539799719563
 30
0.0
 11
2493.503278586809
 21
743.3028714699867
 31
0.0
  0
LINE
  5
256D
330
2499
100
AcDbEntity
  8
実形
 62
     0
370
    18
100
AcDbLine
 10
2228.303278586809
 20
743.3028714699867
 30
0.0
 11
2493.503278586809
 21
743.3028714699867
 31
0.0
  0
INSERT
  5
256E
330
2499
100
AcDbEntity
  8
実形
 62
     0
370
    18
100
AcDbBlockReference
  2
_DotSmall
 10
2228.303278586809
 20
743.3028714699867
 30
0.0
 41
35.0
 42
35.0
 43
35.0
 50
180.0
  0
INSERT
  5
256F
330
2499
100
AcDbEntity
  8
実形
 62
     0
370
    18
100
AcDbBlockReference
  2
_DotSmall
 10
2493.503278586809
 20
743.3028714699867
 30
0.0
 41
35.0
 42
35.0
 43
35.0
  0
MTEXT
  5
2570
330
2499
100
AcDbEntity
  8
実形
 62
     0
100
AcDbMText
 10
2360.90327858681
 20
762.0528714699867
 30
0.0
 40
25.0
 41
0.0
 71
     5
 72
     1
  1
17
 73
     1
 44
1.0
1001
ACAD
1000
MTEXTBEGIN
1070
    73
1070
     1
1070
    44
1040
1.0
1070
    74
1070
     0
1000
MTEXTEND
  0
POINT
  5
2571
330
2499
100
AcDbEntity
  8
Defpoints
 62
     0
100
AcDbPoint
 10
2228.303278586809
 20
640.5397997195629
 30
0.0
  0
POINT
  5
2572
330
2499
100
AcDbEntity
  8
Defpoints
 62
     0
100
AcDbPoint
 10
2493.503278586809
 20
640.5397997195629
 30
0.0
  0
POINT
  5
2573
330
2499
100
AcDbEntity
  8
Defpoints
 62
     0
100
AcDbPoint
 10
2493.503278586809
 20
743.3028714699867
 30
0.0
  0
ENDBLK
  5
24A4
330
2499
100
AcDbEntity
  8
0
100
AcDbBlockEnd
  0
BLOCK
  5
24AF
330
24A5
100
AcDbEntity
  8
0
100
AcDbBlockBegin
  2
*D35
 70
     1
 10
0.0
 20
0.0
 30
0.0
  3
*D35
  1

  0
LINE
  5
2574
330
24A5
100
AcDbEntity
  8
実形
 62
     0
370
    18
100
AcDbLine
 10
1947.50327858681
 20
705.539799719563
 30
0.0
 11
1947.50327858681
 21
786.8108100678382
 31
0.0
  0
LINE
  5
2575
330
24A5
100
AcDbEntity
  8
実形
 62
     0
370
    18
100
AcDbLine
 10
2493.503278586809
 20
705.539799719563
 30
0.0
 11
2493.503278586809
 21
786.8108100678382
 31
0.0
  0
LINE
  5
2576
330
24A5
100
AcDbEntity
  8
実形
 62
     0
370
    18
100
AcDbLine
 10
1947.50327858681
 20
786.8108100678382
 30
0.0
 11
2493.503278586809
 21
786.8108100678382
 31
0.0
  0
INSERT
  5
2577
330
24A5
100
AcDbEntity
  8
実形
 62
     0
370
    18
100
AcDbBlockReference
  2
_DotSmall
 10
1947.50327858681
 20
786.8108100678382
 30
0.0
 41
35.0
 42
35.0
 43
35.0
 50
180.0
  0
INSERT
  5
2578
330
24A5
100
AcDbEntity
  8
実形
 62
     0
370
    18
100
AcDbBlockReference
  2
_DotSmall
 10
2493.503278586809
 20
786.8108100678382
 30
0.0
 41
35.0
 42
35.0
 43
35.0
  0
MTEXT
  5
2579
330
24A5
100
AcDbEntity
  8
実形
 62
     0
100
AcDbMText
 10
2220.50327858681
 20
805.5608100678382
 30
0.0
 40
25.0
 41
0.0
 71
     5
 72
     1
  1
35
 73
     1
 44
1.0
1001
ACAD
1000
MTEXTBEGIN
1070
    73
1070
     1
1070
    44
1040
1.0
1070
    74
1070
     0
1000
MTEXTEND
  0
POINT
  5
257A
330
24A5
100
AcDbEntity
  8
Defpoints
 62
     0
100
AcDbPoint
 10
1947.50327858681
 20
640.5397997195629
 30
0.0
  0
POINT
  5
257B
330
24A5
100
AcDbEntity
  8
Defpoints
 62
     0
100
AcDbPoint
 10
2493.503278586809
 20
640.5397997195629
 30
0.0
  0
POINT
  5
257C
330
24A5
100
AcDbEntity
  8
Defpoints
 62
     0
100
AcDbPoint
 10
2493.503278586809
 20
786.8108100678382
 30
0.0
  0
ENDBLK
  5
24B0
330
24A5
100
AcDbEntity
  8
0
100
AcDbBlockEnd
  0
BLOCK
  5
24BB
330
24B1
100
AcDbEntity
  8
0
100
AcDbBlockBegin
  2
*D36
 70
     1
 10
0.0
 20
0.0
 30
0.0
  3
*D36
  1

  0
LINE
  5
257D
330
24B1
100
AcDbEntity
  8
実形
 62
     0
370
    18
100
AcDbLine
 10
1978.703278586809
 20
355.8916371725106
 30
0.0
 11
1978.703278586809
 21
306.8527456354114
 31
0.0
  0
LINE
  5
257E
330
24B1
100
AcDbEntity
  8
実形
 62
     0
370
    18
100
AcDbLine
 10
2025.503278586809
 20
355.8916371725106
 30
0.0
 11
2025.503278586809
 21
306.8527456354114
 31
0.0
  0
LINE
  5
257F
330
24B1
100
AcDbEntity
  8
実形
 62
     0
370
    18
100
AcDbLine
 10
1978.703278586809
 20
306.8527456354114
 30
0.0
 11
2025.503278586809
 21
306.8527456354114
 31
0.0
  0
MTEXT
  5
2580
330
24B1
100
AcDbEntity
  8
実形
 62
     0
100
AcDbMText
 10
1925.472691921497
 20
342.2580203758225
 30
0.0
 40
25.0
 41
0.0
 71
     5
 72
     1
  1
3.2
 73
     1
 44
1.0
1001
ACAD
1000
MTEXTBEGIN
1070
    73
1070
     1
1070
    44
1040
1.0
1070
    74
1070
     0
1000
MTEXTEND
  0
INSERT
  5
2581
330
24B1
100
AcDbEntity
  8
実形
 62
     0
370
    18
100
AcDbBlockReference
  2
_DotSmall
 10
1978.703278586809
 20
306.8527456354114
 30
0.0
 41
35.0
 42
35.0
 43
35.0
 50
180.0
  0
INSERT
  5
2582
330
24B1
100
AcDbEntity
  8
実形
 62
     0
370
    18
100
AcDbBlockReference
  2
_DotSmall
 10
2025.503278586809
 20
306.8527456354114
 30
0.0
 41
35.0
 42
35.0
 43
35.0
  0
POINT
  5
2583
330
24B1
100
AcDbEntity
  8
Defpoints
 62
     0
100
AcDbPoint
 10
1978.703278586809
 20
420.8916371725106
 30
0.0
  0
POINT
  5
2584
330
24B1
100
AcDbEntity
  8
Defpoints
 62
     0
100
AcDbPoint
 10
2025.503278586809
 20
420.8916371725106
 30
0.0
  0
POINT
  5
2585
330
24B1
100
AcDbEntity
  8
Defpoints
 62
     0
100
AcDbPoint
 10
2025.503278586809
 20
306.8527456354114
 30
0.0
  0
ENDBLK
  5
24BC
330
24B1
100
AcDbEntity
  8
0
100
AcDbBlockEnd
  0
BLOCK
  5
24C7
330
24BD
100
AcDbEntity
  8
0
100
AcDbBlockBegin
  2
*D37
 70
     1
 10
0.0
 20
0.0
 30
0.0
  3
*D37
  1

  0
LINE
  5
2586
330
24BD
100
AcDbEntity
  8
実形
 62
     0
370
    18
100
AcDbLine
 10
2025.503278586809
 20
355.8916371725106
 30
0.0
 11
2025.503278586809
 21
306.8527456354114
 31
0.0
  0
LINE
  5
2587
330
24BD
100
AcDbEntity
  8
実形
 62
     0
370
    18
100
AcDbLine
 10
2150.30327858681
 20
355.8916371725106
 30
0.0
 11
2150.30327858681
 21
306.8527456354114
 31
0.0
  0
LINE
  5
2588
330
24BD
100
AcDbEntity
  8
実形
 62
     0
370
    18
100
AcDbLine
 10
2025.503278586809
 20
306.8527456354114
 30
0.0
 11
2150.30327858681
 21
306.8527456354114
 31
0.0
  0
INSERT
  5
2589
330
24BD
100
AcDbEntity
  8
実形
 62
     0
370
    18
100
AcDbBlockReference
  2
_DotSmall
 10
2025.503278586809
 20
306.8527456354114
 30
0.0
 41
35.0
 42
35.0
 43
35.0
 50
180.0
  0
INSERT
  5
258A
330
24BD
100
AcDbEntity
  8
実形
 62
     0
370
    18
100
AcDbBlockReference
  2
_DotSmall
 10
2150.30327858681
 20
306.8527456354114
 30
0.0
 41
35.0
 42
35.0
 43
35.0
  0
MTEXT
  5
258B
330
24BD
100
AcDbEntity
  8
実形
 62
     0
100
AcDbMText
 10
2087.903278586809
 20
325.6027456354114
 30
0.0
 40
25.0
 41
0.0
 71
     5
 72
     1
  1
8
 73
     1
 44
1.0
1001
ACAD
1000
MTEXTBEGIN
1070
    73
1070
     1
1070
    44
1040
1.0
1070
    74
1070
     0
1000
MTEXTEND
  0
POINT
  5
258C
330
24BD
100
AcDbEntity
  8
Defpoints
 62
     0
100
AcDbPoint
 10
2025.503278586809
 20
420.8916371725106
 30
0.0
  0
POINT
  5
258D
330
24BD
100
AcDbEntity
  8
Defpoints
 62
     0
100
AcDbPoint
 10
2150.30327858681
 20
420.8916371725106
 30
0.0
  0
POINT
  5
258E
330
24BD
100
AcDbEntity
  8
Defpoints
 62
     0
100
AcDbPoint
 10
2150.30327858681
 20
306.8527456354114
 30
0.0
  0
ENDBLK
  5
24C8
330
24BD
100
AcDbEntity
  8
0
100
AcDbBlockEnd
  0
BLOCK
  5
24D3
330
24C9
100
AcDbEntity
  8
0
100
AcDbBlockBegin
  2
*D38
 70
     1
 10
0.0
 20
0.0
 30
0.0
  3
*D38
  1

  0
LINE
  5
258F
330
24C9
100
AcDbEntity
  8
実形
 62
     0
370
    18
100
AcDbLine
 10
2150.30327858681
 20
355.8916371725106
 30
0.0
 11
2150.30327858681
 21
306.8527456354114
 31
0.0
  0
LINE
  5
2590
330
24C9
100
AcDbEntity
  8
実形
 62
     0
370
    18
100
AcDbLine
 10
2228.303278586809
 20
355.8916371725106
 30
0.0
 11
2228.303278586809
 21
306.8527456354114
 31
0.0
  0
LINE
  5
2591
330
24C9
100
AcDbEntity
  8
実形
 62
     0
370
    18
100
AcDbLine
 10
2150.30327858681
 20
306.8527456354114
 30
0.0
 11
2228.303278586809
 21
306.8527456354114
 31
0.0
  0
INSERT
  5
2592
330
24C9
100
AcDbEntity
  8
実形
 62
     0
370
    18
100
AcDbBlockReference
  2
_DotSmall
 10
2150.30327858681
 20
306.8527456354114
 30
0.0
 41
35.0
 42
35.0
 43
35.0
 50
180.0
  0
INSERT
  5
2593
330
24C9
100
AcDbEntity
  8
実形
 62
     0
370
    18
100
AcDbBlockReference
  2
_DotSmall
 10
2228.303278586809
 20
306.8527456354114
 30
0.0
 41
35.0
 42
35.0
 43
35.0
  0
MTEXT
  5
2594
330
24C9
100
AcDbEntity
  8
実形
 62
     0
100
AcDbMText
 10
2189.303278586809
 20
325.6027456354114
 30
0.0
 40
25.0
 41
0.0
 71
     5
 72
     1
  1
5
 73
     1
 44
1.0
1001
ACAD
1000
MTEXTBEGIN
1070
    73
1070
     1
1070
    44
1040
1.0
1070
    74
1070
     0
1000
MTEXTEND
  0
POINT
  5
2595
330
24C9
100
AcDbEntity
  8
Defpoints
 62
     0
100
AcDbPoint
 10
2150.30327858681
 20
420.8916371725106
 30
0.0
  0
POINT
  5
2596
330
24C9
100
AcDbEntity
  8
Defpoints
 62
     0
100
AcDbPoint
 10
2228.303278586809
 20
420.8916371725106
 30
0.0
  0
POINT
  5
2597
330
24C9
100
AcDbEntity
  8
Defpoints
 62
     0
100
AcDbPoint
 10
2228.303278586809
 20
306.8527456354114
 30
0.0
  0
ENDBLK
  5
24D4
330
24C9
100
AcDbEntity
  8
0
100
AcDbBlockEnd
  0
BLOCK
  5
24DF
330
24D5
100
AcDbEntity
  8
0
100
AcDbBlockBegin
  2
*D39
 70
     1
 10
0.0
 20
0.0
 30
0.0
  3
*D39
  1

  0
LINE
  5
2598
330
24D5
100
AcDbEntity
  8
実形
 62
     0
370
    18
100
AcDbLine
 10
2228.303278586809
 20
355.8916371725106
 30
0.0
 11
2228.303278586809
 21
306.8527456354114
 31
0.0
  0
LINE
  5
2599
330
24D5
100
AcDbEntity
  8
実形
 62
     0
370
    18
100
AcDbLine
 10
2493.503278586809
 20
355.8916371725106
 30
0.0
 11
2493.503278586809
 21
306.8527456354114
 31
0.0
  0
LINE
  5
259A
330
24D5
100
AcDbEntity
  8
実形
 62
     0
370
    18
100
AcDbLine
 10
2228.303278586809
 20
306.8527456354114
 30
0.0
 11
2493.503278586809
 21
306.8527456354114
 31
0.0
  0
INSERT
  5
259B
330
24D5
100
AcDbEntity
  8
実形
 62
     0
370
    18
100
AcDbBlockReference
  2
_DotSmall
 10
2228.303278586809
 20
306.8527456354114
 30
0.0
 41
35.0
 42
35.0
 43
35.0
 50
180.0
  0
INSERT
  5
259C
330
24D5
100
AcDbEntity
  8
実形
 62
     0
370
    18
100
AcDbBlockReference
  2
_DotSmall
 10
2493.503278586809
 20
306.8527456354114
 30
0.0
 41
35.0
 42
35.0
 43
35.0
  0
MTEXT
  5
259D
330
24D5
100
AcDbEntity
  8
実形
 62
     0
100
AcDbMText
 10
2360.90327858681
 20
325.6027456354114
 30
0.0
 40
25.0
 41
0.0
 71
     5
 72
     1
  1
17
 73
     1
 44
1.0
1001
ACAD
1000
MTEXTBEGIN
1070
    73
1070
     1
1070
    44
1040
1.0
1070
    74
1070
     0
1000
MTEXTEND
  0
POINT
  5
259E
330
24D5
100
AcDbEntity
  8
Defpoints
 62
     0
100
AcDbPoint
 10
2228.303278586809
 20
420.8916371725106
 30
0.0
  0
POINT
  5
259F
330
24D5
100
AcDbEntity
  8
Defpoints
 62
     0
100
AcDbPoint
 10
2493.503278586809
 20
420.8916371725106
 30
0.0
  0
POINT
  5
25A0
330
24D5
100
AcDbEntity
  8
Defpoints
 62
     0
100
AcDbPoint
 10
2493.503278586809
 20
306.8527456354114
 30
0.0
  0
ENDBLK
  5
24E0
330
24D5
100
AcDbEntity
  8
0
100
AcDbBlockEnd
  0
BLOCK
  5
24EB
330
24E1
100
AcDbEntity
  8
0
100
AcDbBlockBegin
  2
*D40
 70
     1
 10
0.0
 20
0.0
 30
0.0
  3
*D40
  1

  0
LINE
  5
25A1
330
24E1
100
AcDbEntity
  8
実形
 62
     0
370
    18
100
AcDbLine
 10
1949.2926774559
 20
307.172337168286
 30
0.0
 11
1949.2926774559
 21
256.8830082351342
 31
0.0
  0
LINE
  5
25A2
330
24E1
100
AcDbEntity
  8
実形
 62
     0
370
    18
100
AcDbLine
 10
2027.2926774559
 20
307.172337168286
 30
0.0
 11
2027.2926774559
 21
256.8830082351342
 31
0.0
  0
LINE
  5
25A3
330
24E1
100
AcDbEntity
  8
実形
 62
     0
370
    18
100
AcDbLine
 10
1949.2926774559
 20
256.8830082351342
 30
0.0
 11
2027.2926774559
 21
256.8830082351342
 31
0.0
  0
INSERT
  5
25A4
330
24E1
100
AcDbEntity
  8
実形
 62
     0
370
    18
100
AcDbBlockReference
  2
_DotSmall
 10
1949.2926774559
 20
256.8830082351342
 30
0.0
 41
35.0
 42
35.0
 43
35.0
 50
180.0
  0
INSERT
  5
25A5
330
24E1
100
AcDbEntity
  8
実形
 62
     0
370
    18
100
AcDbBlockReference
  2
_DotSmall
 10
2027.2926774559
 20
256.8830082351342
 30
0.0
 41
35.0
 42
35.0
 43
35.0
  0
MTEXT
  5
25A6
330
24E1
100
AcDbEntity
  8
実形
 62
     0
100
AcDbMText
 10
1988.2926774559
 20
275.6330082351342
 30
0.0
 40
25.0
 41
0.0
 71
     5
 72
     1
  1
5
 73
     1
 44
1.0
1001
ACAD
1000
MTEXTBEGIN
1070
    73
1070
     1
1070
    44
1040
1.0
1070
    74
1070
     0
1000
MTEXTEND
  0
POINT
  5
25A7
330
24E1
100
AcDbEntity
  8
Defpoints
 62
     0
100
AcDbPoint
 10
1949.2926774559
 20
372.172337168286
 30
0.0
  0
POINT
  5
25A8
330
24E1
100
AcDbEntity
  8
Defpoints
 62
     0
100
AcDbPoint
 10
2027.2926774559
 20
372.172337168286
 30
0.0
  0
POINT
  5
25A9
330
24E1
100
AcDbEntity
  8
Defpoints
 62
     0
100
AcDbPoint
 10
2027.2926774559
 20
256.8830082351342
 30
0.0
  0
ENDBLK
  5
24EC
330
24E1
100
AcDbEntity
  8
0
100
AcDbBlockEnd
  0
BLOCK
  5
24F7
330
24ED
100
AcDbEntity
  8
0
100
AcDbBlockBegin
  2
*D41
 70
     1
 10
0.0
 20
0.0
 30
0.0
  3
*D41
  1

  0
LINE
  5
25AA
330
24ED
100
AcDbEntity
  8
実形
 62
     0
370
    18
100
AcDbLine
 10
2027.2926774559
 20
307.172337168286
 30
0.0
 11
2027.2926774559
 21
256.8830082351342
 31
0.0
  0
LINE
  5
25AB
330
24ED
100
AcDbEntity
  8
実形
 62
     0
370
    18
100
AcDbLine
 10
2495.2926774559
 20
307.172337168286
 30
0.0
 11
2495.2926774559
 21
256.8830082351342
 31
0.0
  0
LINE
  5
25AC
330
24ED
100
AcDbEntity
  8
実形
 62
     0
370
    18
100
AcDbLine
 10
2027.2926774559
 20
256.8830082351342
 30
0.0
 11
2495.2926774559
 21
256.8830082351342
 31
0.0
  0
INSERT
  5
25AD
330
24ED
100
AcDbEntity
  8
実形
 62
     0
370
    18
100
AcDbBlockReference
  2
_DotSmall
 10
2027.2926774559
 20
256.8830082351342
 30
0.0
 41
35.0
 42
35.0
 43
35.0
 50
180.0
  0
INSERT
  5
25AE
330
24ED
100
AcDbEntity
  8
実形
 62
     0
370
    18
100
AcDbBlockReference
  2
_DotSmall
 10
2495.2926774559
 20
256.8830082351342
 30
0.0
 41
35.0
 42
35.0
 43
35.0
  0
MTEXT
  5
25AF
330
24ED
100
AcDbEntity
  8
実形
 62
     0
100
AcDbMText
 10
2261.2926774559
 20
275.6330082351342
 30
0.0
 40
25.0
 41
0.0
 71
     5
 72
     1
  1
30
 73
     1
 44
1.0
1001
ACAD
1000
MTEXTBEGIN
1070
    73
1070
     1
1070
    44
1040
1.0
1070
    74
1070
     0
1000
MTEXTEND
  0
POINT
  5
25B0
330
24ED
100
AcDbEntity
  8
Defpoints
 62
     0
100
AcDbPoint
 10
2027.2926774559
 20
372.172337168286
 30
0.0
  0
POINT
  5
25B1
330
24ED
100
AcDbEntity
  8
Defpoints
 62
     0
100
AcDbPoint
 10
2495.2926774559
 20
372.172337168286
 30
0.0
  0
POINT
  5
25B2
330
24ED
100
AcDbEntity
  8
Defpoints
 62
     0
100
AcDbPoint
 10
2495.2926774559
 20
256.8830082351342
 30
0.0
  0
ENDBLK
  5
24F8
330
24ED
100
AcDbEntity
  8
0
100
AcDbBlockEnd
  0
BLOCK
  5
2503
330
24F9
100
AcDbEntity
  8
0
100
AcDbBlockBegin
  2
*D42
 70
     1
 10
0.0
 20
0.0
 30
0.0
  3
*D42
  1

  0
LINE
  5
25B3
330
24F9
100
AcDbEntity
  8
実形
 62
     0
370
    18
100
AcDbLine
 10
1904.598314110886
 20
693.4388787035103
 30
0.0
 11
1842.301515497275
 21
693.4388787035103
 31
0.0
  0
LINE
  5
25B4
330
24F9
100
AcDbEntity
  8
実形
 62
     0
370
    18
100
AcDbLine
 10
1904.598314110886
 20
594.6388787035102
 30
0.0
 11
1842.301515497275
 21
594.6388787035102
 31
0.0
  0
LINE
  5
25B5
330
24F9
100
AcDbEntity
  8
実形
 62
     0
370
    18
100
AcDbLine
 10
1842.301515497275
 20
693.4388787035103
 30
0.0
 11
1842.301515497275
 21
594.6388787035102
 31
0.0
  0
INSERT
  5
25B6
330
24F9
100
AcDbEntity
  8
実形
 62
     0
370
    18
100
AcDbBlockReference
  2
_DotSmall
 10
1842.301515497275
 20
693.4388787035103
 30
0.0
 41
35.0
 42
35.0
 43
35.0
 50
90.0
  0
INSERT
  5
25B7
330
24F9
100
AcDbEntity
  8
実形
 62
     0
370
    18
100
AcDbBlockReference
  2
_DotSmall
 10
1842.301515497275
 20
594.6388787035102
 30
0.0
 41
35.0
 42
35.0
 43
35.0
 50
270.0
  0
MTEXT
  5
25B8
330
24F9
100
AcDbEntity
  8
実形
 62
     0
100
AcDbMText
 10
1823.551515497275
 20
644.0388787035106
 30
0.0
 40
25.0
 41
0.0
 71
     5
 72
     1
  1
6.5
 11
0.0000000000000001
 21
1.0
 31
0.0
 73
     1
 44
1.0
1001
ACAD
1000
MTEXTBEGIN
1070
    73
1070
     1
1070
    44
1040
1.0
1070
    74
1070
     0
1000
MTEXTEND
  0
POINT
  5
25B9
330
24F9
100
AcDbEntity
  8
Defpoints
 62
     0
100
AcDbPoint
 10
1969.598314110886
 20
693.4388787035103
 30
0.0
  0
POINT
  5
25BA
330
24F9
100
AcDbEntity
  8
Defpoints
 62
     0
100
AcDbPoint
 10
1969.598314110886
 20
594.6388787035102
 30
0.0
  0
POINT
  5
25BB
330
24F9
100
AcDbEntity
  8
Defpoints
 62
     0
100
AcDbPoint
 10
1842.301515497275
 20
594.6388787035102
 30
0.0
  0
ENDBLK
  5
2504
330
24F9
100
AcDbEntity
  8
0
100
AcDbBlockEnd
  0
BLOCK
  5
250F
330
2505
100
AcDbEntity
  8
0
100
AcDbBlockBegin
  2
*D43
 70
     1
 10
0.0
 20
0.0
 30
0.0
  3
*D43
  1

  0
LINE
  5
25BC
330
2505
100
AcDbEntity
  8
実形
 62
     0
370
    18
100
AcDbLine
 10
1904.598314110886
 20
693.4388787035103
 30
0.0
 11
1788.304587942761
 21
693.4388787035104
 31
0.0
  0
LINE
  5
25BD
330
2505
100
AcDbEntity
  8
実形
 62
     0
370
    18
100
AcDbLine
 10
1904.598314110886
 20
568.6388787035094
 30
0.0
 11
1788.304587942761
 21
568.6388787035095
 31
0.0
  0
LINE
  5
25BE
330
2505
100
AcDbEntity
  8
実形
 62
     0
370
    18
100
AcDbLine
 10
1788.304587942761
 20
693.4388787035104
 30
0.0
 11
1788.304587942761
 21
568.6388787035095
 31
0.0
  0
INSERT
  5
25BF
330
2505
100
AcDbEntity
  8
実形
 62
     0
370
    18
100
AcDbBlockReference
  2
_DotSmall
 10
1788.304587942761
 20
693.4388787035104
 30
0.0
 41
35.0
 42
35.0
 43
35.0
 50
90.0
  0
INSERT
  5
25C0
330
2505
100
AcDbEntity
  8
実形
 62
     0
370
    18
100
AcDbBlockReference
  2
_DotSmall
 10
1788.304587942761
 20
568.6388787035095
 30
0.0
 41
35.0
 42
35.0
 43
35.0
 50
270.0
  0
MTEXT
  5
25C1
330
2505
100
AcDbEntity
  8
実形
 62
     0
100
AcDbMText
 10
1769.554587942761
 20
631.0388787035102
 30
0.0
 40
25.0
 41
0.0
 71
     5
 72
     1
  1
8.2
 11
0.0000000000000001
 21
1.0
 31
0.0
 73
     1
 44
1.0
1001
ACAD
1000
MTEXTBEGIN
1070
    73
1070
     1
1070
    44
1040
1.0
1070
    74
1070
     0
1000
MTEXTEND
  0
POINT
  5
25C2
330
2505
100
AcDbEntity
  8
Defpoints
 62
     0
100
AcDbPoint
 10
1969.598314110886
 20
693.4388787035103
 30
0.0
  0
POINT
  5
25C3
330
2505
100
AcDbEntity
  8
Defpoints
 62
     0
100
AcDbPoint
 10
1969.598314110886
 20
568.6388787035094
 30
0.0
  0
POINT
  5
25C4
330
2505
100
AcDbEntity
  8
Defpoints
 62
     0
100
AcDbPoint
 10
1788.304587942761
 20
568.6388787035095
 30
0.0
  0
ENDBLK
  5
2510
330
2505
100
AcDbEntity
  8
0
100
AcDbBlockEnd
  0
BLOCK
  5
251B
330
2511
100
AcDbEntity
  8
0
100
AcDbBlockBegin
  2
*D44
 70
     1
 10
0.0
 20
0.0
 30
0.0
  3
*D44
  1

  0
LINE
  5
25C5
330
2511
100
AcDbEntity
  8
実形
 62
     0
370
    18
100
AcDbLine
 10
1904.598314110886
 20
553.0388787035102
 30
0.0
 11
1736.658951194005
 21
553.0388787035104
 31
0.0
  0
LINE
  5
25C6
330
2511
100
AcDbEntity
  8
実形
 62
     0
370
    18
100
AcDbLine
 10
1904.598314110886
 20
693.4388787035103
 30
0.0
 11
1736.658951194005
 21
693.4388787035104
 31
0.0
  0
LINE
  5
25C7
330
2511
100
AcDbEntity
  8
実形
 62
     0
370
    18
100
AcDbLine
 10
1736.658951194005
 20
553.0388787035104
 30
0.0
 11
1736.658951194005
 21
693.4388787035104
 31
0.0
  0
INSERT
  5
25C8
330
2511
100
AcDbEntity
  8
実形
 62
     0
370
    18
100
AcDbBlockReference
  2
_DotSmall
 10
1736.658951194005
 20
553.0388787035104
 30
0.0
 41
35.0
 42
35.0
 43
35.0
 50
270.0
  0
INSERT
  5
25C9
330
2511
100
AcDbEntity
  8
実形
 62
     0
370
    18
100
AcDbBlockReference
  2
_DotSmall
 10
1736.658951194005
 20
693.4388787035104
 30
0.0
 41
35.0
 42
35.0
 43
35.0
 50
90.0
  0
MTEXT
  5
25CA
330
2511
100
AcDbEntity
  8
実形
 62
     0
100
AcDbMText
 10
1717.908951194005
 20
623.2388787035106
 30
0.0
 40
25.0
 41
0.0
 71
     5
 72
     1
  1
9
 11
0.0000000000000001
 21
1.0
 31
0.0
 73
     1
 44
1.0
1001
ACAD
1000
MTEXTBEGIN
1070
    73
1070
     1
1070
    44
1040
1.0
1070
    74
1070
     0
1000
MTEXTEND
  0
POINT
  5
25CB
330
2511
100
AcDbEntity
  8
Defpoints
 62
     0
100
AcDbPoint
 10
1969.598314110886
 20
553.0388787035102
 30
0.0
  0
POINT
  5
25CC
330
2511
100
AcDbEntity
  8
Defpoints
 62
     0
100
AcDbPoint
 10
1969.598314110886
 20
693.4388787035103
 30
0.0
  0
POINT
  5
25CD
330
2511
100
AcDbEntity
  8
Defpoints
 62
     0
100
AcDbPoint
 10
1736.658951194005
 20
693.4388787035104
 30
0.0
  0
ENDBLK
  5
251C
330
2511
100
AcDbEntity
  8
0
100
AcDbBlockEnd
  0
BLOCK
  5
2668
330
265E
100
AcDbEntity
  8
0
100
AcDbBlockBegin
  2
*D45
 70
     1
 10
0.0
 20
0.0
 30
0.0
  3
*D45
  1

  0
LINE
  5
2711
330
265E
100
AcDbEntity
  8
実形
 62
     0
370
    18
100
AcDbLine
 10
430.8076667403931
 20
793.0612300917895
 30
0.0
 11
352.8078886316782
 21
793.0612300917895
 31
0.0
  0
LINE
  5
2712
330
265E
100
AcDbEntity
  8
実形
 62
     0
370
    18
100
AcDbLine
 10
431.786444381569
 20
775.0612300917895
 30
0.0
 11
352.8078886316782
 21
775.0612300917895
 31
0.0
  0
LINE
  5
2713
330
265E
100
AcDbEntity
  8
実形
 62
     0
370
    18
100
AcDbLine
 10
352.8078886316782
 20
793.0612300917895
 30
0.0
 11
352.8078886316782
 21
775.0612300917895
 31
0.0
  0
MTEXT
  5
2714
330
265E
100
AcDbEntity
  8
実形
 62
     0
100
AcDbMText
 10
272.6058079643246
 20
844.6077094368485
 30
0.0
 40
25.0
 41
0.0
 71
     5
 72
     1
  1
18
 11
0.0000000000000001
 21
1.0
 31
0.0
 73
     1
 44
1.0
1001
ACAD
1000
MTEXTBEGIN
1070
    73
1070
     1
1070
    44
1040
1.0
1070
    74
1070
     0
1000
MTEXTEND
  0
INSERT
  5
2715
330
265E
100
AcDbEntity
  8
実形
 62
     0
370
    18
100
AcDbBlockReference
  2
_DotSmall
 10
352.8078886316782
 20
793.0612300917895
 30
0.0
 41
35.0
 42
35.0
 43
35.0
 50
90.0
  0
INSERT
  5
2716
330
265E
100
AcDbEntity
  8
実形
 62
     0
370
    18
100
AcDbBlockReference
  2
_DotSmall
 10
352.8078886316782
 20
775.0612300917895
 30
0.0
 41
35.0
 42
35.0
 43
35.0
 50
270.0
  0
POINT
  5
2717
330
265E
100
AcDbEntity
  8
Defpoints
 62
     0
100
AcDbPoint
 10
495.8076667403932
 20
793.0612300917895
 30
0.0
  0
POINT
  5
2718
330
265E
100
AcDbEntity
  8
Defpoints
 62
     0
100
AcDbPoint
 10
496.786444381569
 20
775.0612300917895
 30
0.0
  0
POINT
  5
2719
330
265E
100
AcDbEntity
  8
Defpoints
 62
     0
100
AcDbPoint
 10
352.8078886316782
 20
775.0612300917895
 30
0.0
  0
ENDBLK
  5
2669
330
265E
100
AcDbEntity
  8
0
100
AcDbBlockEnd
  0
BLOCK
  5
2676
330
266A
100
AcDbEntity
  8
0
100
AcDbBlockBegin
  2
*D46
 70
     1
 10
0.0
 20
0.0
 30
0.0
  3
*D46
  1

  0
LINE
  5
2706
330
266A
100
AcDbEntity
  8
実形
 62
     0
370
    18
100
AcDbLine
 10
431.786444381569
 20
775.0612300917895
 30
0.0
 11
352.8078886316782
 21
775.0612300917895
 31
0.0
  0
LINE
  5
2707
330
266A
100
AcDbEntity
  8
実形
 62
     0
370
    18
100
AcDbLine
 10
431.786444381569
 20
769.8612300917895
 30
0.0
 11
352.8078886316782
 21
769.8612300917895
 31
0.0
  0
LINE
  5
2708
330
266A
100
AcDbEntity
  8
実形
 62
     0
370
    18
100
AcDbLine
 10
352.8078886316782
 20
775.0612300917895
 30
0.0
 11
352.8078886316782
 21
810.0612300917894
 31
0.0
  0
LINE
  5
2709
330
266A
100
AcDbEntity
  8
実形
 62
     0
370
    18
100
AcDbLine
 10
352.8078886316782
 20
769.8612300917895
 30
0.0
 11
352.8078886316782
 21
734.8612300917896
 31
0.0
  0
MTEXT
  5
270A
330
266A
100
AcDbEntity
  8
実形
 62
     0
100
AcDbMText
 10
275.3806583857042
 20
746.8009476358475
 30
0.0
 40
25.0
 41
0.0
 71
     5
 72
     1
  1
5.2
 11
0.0000000000000001
 21
1.0
 31
0.0
 73
     1
 44
1.0
1001
ACAD
1000
MTEXTBEGIN
1070
    73
1070
     1
1070
    44
1040
1.0
1070
    74
1070
     0
1000
MTEXTEND
  0
LINE
  5
270B
330
266A
100
AcDbEntity
  8
実形
 62
     0
370
    18
100
AcDbLine
 10
352.8078886316782
 20
775.0612300917895
 30
0.0
 11
352.8078886316782
 21
769.8612300917895
 31
0.0
  0
INSERT
  5
270C
330
266A
100
AcDbEntity
  8
実形
 62
     0
370
    18
100
AcDbBlockReference
  2
_DotSmall
 10
352.8078886316782
 20
775.0612300917895
 30
0.0
 41
35.0
 42
35.0
 43
35.0
 50
270.0
  0
INSERT
  5
270D
330
266A
100
AcDbEntity
  8
実形
 62
     0
370
    18
100
AcDbBlockReference
  2
_DotSmall
 10
352.8078886316782
 20
769.8612300917895
 30
0.0
 41
35.0
 42
35.0
 43
35.0
 50
90.0
  0
POINT
  5
270E
330
266A
100
AcDbEntity
  8
Defpoints
 62
     0
100
AcDbPoint
 10
496.786444381569
 20
775.0612300917895
 30
0.0
  0
POINT
  5
270F
330
266A
100
AcDbEntity
  8
Defpoints
 62
     0
100
AcDbPoint
 10
496.786444381569
 20
769.8612300917895
 30
0.0
  0
POINT
  5
2710
330
266A
100
AcDbEntity
  8
Defpoints
 62
     0
100
AcDbPoint
 10
352.8078886316782
 20
769.8612300917895
 30
0.0
  0
ENDBLK
  5
2677
330
266A
100
AcDbEntity
  8
0
100
AcDbBlockEnd
  0
BLOCK
  5
2682
330
2678
100
AcDbEntity
  8
0
100
AcDbBlockBegin
  2
*D47
 70
     1
 10
0.0
 20
0.0
 30
0.0
  3
*D47
  1

  0
LINE
  5
26FD
330
2678
100
AcDbEntity
  8
実形
 62
     0
370
    18
100
AcDbLine
 10
431.786444381569
 20
769.8612300917895
 30
0.0
 11
352.8078886316782
 21
769.8612300917895
 31
0.0
  0
LINE
  5
26FE
330
2678
100
AcDbEntity
  8
実形
 62
     0
370
    18
100
AcDbLine
 10
376.7199366068219
 20
594.8612300917894
 30
0.0
 11
352.8078886316782
 21
594.8612300917894
 31
0.0
  0
LINE
  5
26FF
330
2678
100
AcDbEntity
  8
実形
 62
     0
370
    18
100
AcDbLine
 10
352.8078886316782
 20
769.8612300917895
 30
0.0
 11
352.8078886316782
 21
594.8612300917894
 31
0.0
  0
MTEXT
  5
2700
330
2678
100
AcDbEntity
  8
実形
 62
     0
100
AcDbMText
 10
326.934062287148
 20
665.6239819760413
 30
0.0
 40
25.0
 41
0.0
 71
     5
 72
     1
  1
175
 11
0.0000000000000001
 21
1.0
 31
0.0
 73
     1
 44
1.0
1001
ACAD
1000
MTEXTBEGIN
1070
    73
1070
     1
1070
    44
1040
1.0
1070
    74
1070
     0
1000
MTEXTEND
  0
INSERT
  5
2701
330
2678
100
AcDbEntity
  8
実形
 62
     0
370
    18
100
AcDbBlockReference
  2
_DotSmall
 10
352.8078886316782
 20
769.8612300917895
 30
0.0
 41
35.0
 42
35.0
 43
35.0
 50
90.0
  0
INSERT
  5
2702
330
2678
100
AcDbEntity
  8
実形
 62
     0
370
    18
100
AcDbBlockReference
  2
_DotSmall
 10
352.8078886316782
 20
594.8612300917894
 30
0.0
 41
35.0
 42
35.0
 43
35.0
 50
270.0
  0
POINT
  5
2703
330
2678
100
AcDbEntity
  8
Defpoints
 62
     0
100
AcDbPoint
 10
496.786444381569
 20
769.8612300917895
 30
0.0
  0
POINT
  5
2704
330
2678
100
AcDbEntity
  8
Defpoints
 62
     0
100
AcDbPoint
 10
441.7199366068218
 20
594.8612300917894
 30
0.0
  0
POINT
  5
2705
330
2678
100
AcDbEntity
  8
Defpoints
 62
     0
100
AcDbPoint
 10
352.8078886316782
 20
594.8612300917894
 30
0.0
  0
ENDBLK
  5
2683
330
2678
100
AcDbEntity
  8
0
100
AcDbBlockEnd
  0
BLOCK
  5
268E
330
2684
100
AcDbEntity
  8
0
100
AcDbBlockBegin
  2
*D48
 70
     1
 10
0.0
 20
0.0
 30
0.0
  3
*D48
  1

  0
LINE
  5
26F4
330
2684
100
AcDbEntity
  8
実形
 62
     0
370
    18
100
AcDbLine
 10
430.8076667403931
 20
793.0612300917895
 30
0.0
 11
242.1859901810369
 21
793.0612300917896
 31
0.0
  0
LINE
  5
26F5
330
2684
100
AcDbEntity
  8
実形
 62
     0
370
    18
100
AcDbLine
 10
376.7199366068219
 20
594.8612300917894
 30
0.0
 11
242.1859901810369
 21
594.8612300917895
 31
0.0
  0
LINE
  5
26F6
330
2684
100
AcDbEntity
  8
実形
 62
     0
370
    18
100
AcDbLine
 10
242.1859901810369
 20
793.0612300917896
 30
0.0
 11
242.1859901810369
 21
594.8612300917895
 31
0.0
  0
INSERT
  5
26F7
330
2684
100
AcDbEntity
  8
実形
 62
     0
370
    18
100
AcDbBlockReference
  2
_DotSmall
 10
242.1859901810369
 20
793.0612300917896
 30
0.0
 41
35.0
 42
35.0
 43
35.0
 50
90.0
  0
INSERT
  5
26F8
330
2684
100
AcDbEntity
  8
実形
 62
     0
370
    18
100
AcDbBlockReference
  2
_DotSmall
 10
242.1859901810369
 20
594.8612300917895
 30
0.0
 41
35.0
 42
35.0
 43
35.0
 50
270.0
  0
MTEXT
  5
26F9
330
2684
100
AcDbEntity
  8
実形
 62
     0
100
AcDbMText
 10
223.4359901810368
 20
693.9612300917896
 30
0.0
 40
25.0
 41
0.0
 71
     5
 72
     1
  1
198.2
 11
0.0000000000000001
 21
1.0
 31
0.0
 73
     1
 44
1.0
1001
ACAD
1000
MTEXTBEGIN
1070
    73
1070
     1
1070
    44
1040
1.0
1070
    74
1070
     0
1000
MTEXTEND
  0
POINT
  5
26FA
330
2684
100
AcDbEntity
  8
Defpoints
 62
     0
100
AcDbPoint
 10
495.8076667403932
 20
793.0612300917895
 30
0.0
  0
POINT
  5
26FB
330
2684
100
AcDbEntity
  8
Defpoints
 62
     0
100
AcDbPoint
 10
441.7199366068218
 20
594.8612300917894
 30
0.0
  0
POINT
  5
26FC
330
2684
100
AcDbEntity
  8
Defpoints
 62
     0
100
AcDbPoint
 10
242.1859901810369
 20
594.8612300917895
 30
0.0
  0
ENDBLK
  5
268F
330
2684
100
AcDbEntity
  8
0
100
AcDbBlockEnd
  0
BLOCK
  5
269C
330
2690
100
AcDbEntity
  8
0
100
AcDbBlockBegin
  2
*D49
 70
     1
 10
0.0
 20
0.0
 30
0.0
  3
*D49
  1

  0
LINE
  5
26C4
330
2690
100
AcDbEntity
  8
実形
 62
     0
370
    18
100
AcDbLine
 10
432.8798421908016
 20
594.8612300917894
 30
0.0
 11
352.8078886316782
 21
594.8612300917894
 31
0.0
  0
LINE
  5
26C5
330
2690
100
AcDbEntity
  8
実形
 62
     0
370
    18
100
AcDbLine
 10
432.8798421908016
 20
584.8612300917895
 30
0.0
 11
352.8078886316782
 21
584.8612300917895
 31
0.0
  0
LINE
  5
26C6
330
2690
100
AcDbEntity
  8
実形
 62
     0
370
    18
100
AcDbLine
 10
352.8078886316782
 20
594.8612300917894
 30
0.0
 11
352.8078886316782
 21
629.8612300917895
 31
0.0
  0
LINE
  5
26C7
330
2690
100
AcDbEntity
  8
実形
 62
     0
370
    18
100
AcDbLine
 10
352.8078886316782
 20
584.8612300917895
 30
0.0
 11
352.8078886316782
 21
549.8612300917894
 31
0.0
  0
MTEXT
  5
26C8
330
2690
100
AcDbEntity
  8
実形
 62
     0
100
AcDbMText
 10
317.8078886316781
 20
578.5234464275528
 30
0.0
 40
25.0
 41
0.0
 71
     5
 72
     1
  1
7
 11
0.0000000000000001
 21
1.0
 31
0.0
 73
     1
 44
1.0
1001
ACAD
1000
MTEXTBEGIN
1070
    73
1070
     1
1070
    44
1040
1.0
1070
    74
1070
     0
1000
MTEXTEND
  0
LINE
  5
26C9
330
2690
100
AcDbEntity
  8
実形
 62
     0
370
    18
100
AcDbLine
 10
352.8078886316782
 20
594.8612300917894
 30
0.0
 11
352.8078886316782
 21
584.8612300917895
 31
0.0
  0
INSERT
  5
26CA
330
2690
100
AcDbEntity
  8
実形
 62
     0
370
    18
100
AcDbBlockReference
  2
_DotSmall
 10
352.8078886316782
 20
594.8612300917894
 30
0.0
 41
35.0
 42
35.0
 43
35.0
 50
270.0
  0
INSERT
  5
26CB
330
2690
100
AcDbEntity
  8
実形
 62
     0
370
    18
100
AcDbBlockReference
  2
_DotSmall
 10
352.8078886316782
 20
584.8612300917895
 30
0.0
 41
35.0
 42
35.0
 43
35.0
 50
90.0
  0
POINT
  5
26CC
330
2690
100
AcDbEntity
  8
Defpoints
 62
     0
100
AcDbPoint
 10
497.8798421908016
 20
594.8612300917894
 30
0.0
  0
POINT
  5
26CD
330
2690
100
AcDbEntity
  8
Defpoints
 62
     0
100
AcDbPoint
 10
497.8798421908016
 20
584.8612300917895
 30
0.0
  0
POINT
  5
26CE
330
2690
100
AcDbEntity
  8
Defpoints
 62
     0
100
AcDbPoint
 10
352.8078886316782
 20
584.8612300917895
 30
0.0
  0
ENDBLK
  5
269D
330
2690
100
AcDbEntity
  8
0
100
AcDbBlockEnd
  0
BLOCK
  5
2808
330
27FE
100
AcDbEntity
  8
0
100
AcDbBlockBegin
  2
*D50
 70
     1
 10
0.0
 20
0.0
 30
0.0
  3
*D50
  1

  0
LINE
  5
2990
330
27FE
100
AcDbEntity
  8
実形
 62
     0
370
    15
100
AcDbLine
 10
1771.879741488939
 20
1465.941711899552
 30
0.0
 11
1818.451586160327
 21
1465.941711899552
 31
0.0
  0
LINE
  5
2991
330
27FE
100
AcDbEntity
  8
実形
 62
     0
370
    15
100
AcDbLine
 10
1771.879741488939
 20
1306.941711899552
 30
0.0
 11
1818.451586160327
 21
1306.941711899552
 31
0.0
  0
LINE
  5
2992
330
27FE
100
AcDbEntity
  8
実形
 62
     0
370
    15
100
AcDbLine
 10
1818.451586160327
 20
1465.941711899552
 30
0.0
 11
1818.451586160327
 21
1306.941711899552
 31
0.0
  0
INSERT
  5
2993
330
27FE
100
AcDbEntity
  8
実形
 62
     0
370
    15
100
AcDbBlockReference
  2
_DotSmall
 10
1818.451586160327
 20
1465.941711899552
 30
0.0
 41
35.0
 42
35.0
 43
35.0
 50
90.0
  0
INSERT
  5
2994
330
27FE
100
AcDbEntity
  8
実形
 62
     0
370
    15
100
AcDbBlockReference
  2
_DotSmall
 10
1818.451586160327
 20
1306.941711899552
 30
0.0
 41
35.0
 42
35.0
 43
35.0
 50
270.0
  0
MTEXT
  5
2995
330
27FE
100
AcDbEntity
  8
実形
 62
     0
100
AcDbMText
 10
1799.701586160327
 20
1385.649703856679
 30
0.0
 40
25.0
 41
0.0
 71
     5
 72
     1
  1
158%%C
 11
0.0000000000000001
 21
1.0
 31
0.0
 73
     1
 44
1.0
1001
ACAD
1000
MTEXTBEGIN
1070
    73
1070
     1
1070
    44
1040
1.0
1070
    74
1070
     0
1000
MTEXTEND
  0
POINT
  5
2996
330
27FE
100
AcDbEntity
  8
Defpoints
 62
     0
100
AcDbPoint
 10
1706.879741488939
 20
1465.941711899552
 30
0.0
  0
POINT
  5
2997
330
27FE
100
AcDbEntity
  8
Defpoints
 62
     0
100
AcDbPoint
 10
1706.879741488939
 20
1306.941711899552
 30
0.0
  0
POINT
  5
2998
330
27FE
100
AcDbEntity
  8
Defpoints
 62
     0
100
AcDbPoint
 10
1818.451586160327
 20
1306.941711899552
 30
0.0
  0
ENDBLK
  5
2809
330
27FE
100
AcDbEntity
  8
0
100
AcDbBlockEnd
  0
BLOCK
  5
2814
330
280A
100
AcDbEntity
  8
0
100
AcDbBlockBegin
  2
*D51
 70
     1
 10
0.0
 20
0.0
 30
0.0
  3
*D51
  1

  0
LINE
  5
2961
330
280A
100
AcDbEntity
  8
実形
 62
     0
370
    15
100
AcDbLine
 10
1689.11912731207
 20
1476.941711899552
 30
0.0
 11
1646.416002722794
 21
1476.941711899552
 31
0.0
  0
LINE
  5
2962
330
280A
100
AcDbEntity
  8
実形
 62
     0
370
    15
100
AcDbLine
 10
1689.11912731207
 20
1295.941711899552
 30
0.0
 11
1646.416002722794
 21
1295.941711899552
 31
0.0
  0
LINE
  5
2963
330
280A
100
AcDbEntity
  8
実形
 62
     0
370
    15
100
AcDbLine
 10
1646.416002722794
 20
1476.941711899552
 30
0.0
 11
1646.416002722794
 21
1295.941711899552
 31
0.0
  0
INSERT
  5
2964
330
280A
100
AcDbEntity
  8
実形
 62
     0
370
    15
100
AcDbBlockReference
  2
_DotSmall
 10
1646.416002722794
 20
1476.941711899552
 30
0.0
 41
35.0
 42
35.0
 43
35.0
 50
90.0
  0
INSERT
  5
2965
330
280A
100
AcDbEntity
  8
実形
 62
     0
370
    15
100
AcDbBlockReference
  2
_DotSmall
 10
1646.416002722794
 20
1295.941711899552
 30
0.0
 41
35.0
 42
35.0
 43
35.0
 50
270.0
  0
MTEXT
  5
2966
330
280A
100
AcDbEntity
  8
実形
 62
     0
100
AcDbMText
 10
1627.666002722794
 20
1386.441711899553
 30
0.0
 40
25.0
 41
0.0
 71
     5
 72
     1
  1
181%%C
 11
0.0000000000000001
 21
1.0
 31
0.0
 73
     1
 44
1.0
1001
ACAD
1000
MTEXTBEGIN
1070
    73
1070
     1
1070
    44
1040
1.0
1070
    74
1070
     0
1000
MTEXTEND
  0
POINT
  5
2967
330
280A
100
AcDbEntity
  8
Defpoints
 62
     0
100
AcDbPoint
 10
1754.11912731207
 20
1476.941711899552
 30
0.0
  0
POINT
  5
2968
330
280A
100
AcDbEntity
  8
Defpoints
 62
     0
100
AcDbPoint
 10
1754.11912731207
 20
1295.941711899552
 30
0.0
  0
POINT
  5
2969
330
280A
100
AcDbEntity
  8
Defpoints
 62
     0
100
AcDbPoint
 10
1646.416002722794
 20
1295.941711899552
 30
0.0
  0
ENDBLK
  5
2815
330
280A
100
AcDbEntity
  8
0
100
AcDbBlockEnd
  0
BLOCK
  5
2911
330
2907
100
AcDbEntity
  8
0
100
AcDbBlockBegin
  2
*D52
 70
     1
 10
0.0
 20
0.0
 30
0.0
  3
*D52
  1

  0
LINE
  5
2973
330
2907
100
AcDbEntity
  8
実形
 62
     0
370
    18
100
AcDbLine
 10
1501.679741488939
 20
1046.595570749572
 30
0.0
 11
1501.679741488939
 21
950.7885836053743
 31
0.0
  0
LINE
  5
2974
330
2907
100
AcDbEntity
  8
実形
 62
     0
370
    18
100
AcDbLine
 10
1519.679741488939
 20
1046.595570749572
 30
0.0
 11
1519.679741488939
 21
950.7885836053743
 31
0.0
  0
LINE
  5
2975
330
2907
100
AcDbEntity
  8
実形
 62
     0
370
    18
100
AcDbLine
 10
1501.679741488939
 20
950.7885836053743
 30
0.0
 11
1519.679741488939
 21
950.7885836053743
 31
0.0
  0
MTEXT
  5
2976
330
2907
100
AcDbEntity
  8
実形
 62
     0
100
AcDbMText
 10
1470.547858587795
 20
979.4048703067787
 30
0.0
 40
25.0
 41
0.0
 71
     5
 72
     1
  1
18
 73
     1
 44
1.0
1001
ACAD
1000
MTEXTBEGIN
1070
    73
1070
     1
1070
    44
1040
1.0
1070
    74
1070
     0
1000
MTEXTEND
  0
INSERT
  5
2977
330
2907
100
AcDbEntity
  8
実形
 62
     0
370
    18
100
AcDbBlockReference
  2
_DotSmall
 10
1501.679741488939
 20
950.7885836053743
 30
0.0
 41
35.0
 42
35.0
 43
35.0
 50
180.0
  0
INSERT
  5
2978
330
2907
100
AcDbEntity
  8
実形
 62
     0
370
    18
100
AcDbBlockReference
  2
_DotSmall
 10
1519.679741488939
 20
950.7885836053743
 30
0.0
 41
35.0
 42
35.0
 43
35.0
  0
POINT
  5
2979
330
2907
100
AcDbEntity
  8
Defpoints
 62
     0
100
AcDbPoint
 10
1501.679741488939
 20
1111.595570749573
 30
0.0
  0
POINT
  5
297A
330
2907
100
AcDbEntity
  8
Defpoints
 62
     0
100
AcDbPoint
 10
1519.679741488939
 20
1111.595570749573
 30
0.0
  0
POINT
  5
297B
330
2907
100
AcDbEntity
  8
Defpoints
 62
     0
100
AcDbPoint
 10
1519.679741488939
 20
950.7885836053743
 30
0.0
  0
ENDBLK
  5
2912
330
2907
100
AcDbEntity
  8
0
100
AcDbBlockEnd
  0
BLOCK
  5
291D
330
2913
100
AcDbEntity
  8
0
100
AcDbBlockBegin
  2
*D53
 70
     1
 10
0.0
 20
0.0
 30
0.0
  3
*D53
  1

  0
LINE
  5
2987
330
2913
100
AcDbEntity
  8
実形
 62
     0
370
    18
100
AcDbLine
 10
1519.679741488939
 20
1046.595570749572
 30
0.0
 11
1519.679741488939
 21
950.7885836053743
 31
0.0
  0
LINE
  5
2988
330
2913
100
AcDbEntity
  8
実形
 62
     0
370
    18
100
AcDbLine
 10
1699.879741488939
 20
1046.595570749572
 30
0.0
 11
1699.879741488939
 21
950.7885836053743
 31
0.0
  0
LINE
  5
2989
330
2913
100
AcDbEntity
  8
実形
 62
     0
370
    18
100
AcDbLine
 10
1519.679741488939
 20
950.7885836053743
 30
0.0
 11
1699.879741488939
 21
950.7885836053743
 31
0.0
  0
INSERT
  5
298A
330
2913
100
AcDbEntity
  8
実形
 62
     0
370
    18
100
AcDbBlockReference
  2
_DotSmall
 10
1519.679741488939
 20
950.7885836053743
 30
0.0
 41
35.0
 42
35.0
 43
35.0
 50
180.0
  0
INSERT
  5
298B
330
2913
100
AcDbEntity
  8
実形
 62
     0
370
    18
100
AcDbBlockReference
  2
_DotSmall
 10
1699.879741488939
 20
950.7885836053743
 30
0.0
 41
35.0
 42
35.0
 43
35.0
  0
MTEXT
  5
298C
330
2913
100
AcDbEntity
  8
実形
 62
     0
100
AcDbMText
 10
1609.779741488939
 20
969.5385836053743
 30
0.0
 40
25.0
 41
0.0
 71
     5
 72
     1
  1
180.2
 73
     1
 44
1.0
1001
ACAD
1000
MTEXTBEGIN
1070
    73
1070
     1
1070
    44
1040
1.0
1070
    74
1070
     0
1000
MTEXTEND
  0
POINT
  5
298D
330
2913
100
AcDbEntity
  8
Defpoints
 62
     0
100
AcDbPoint
 10
1519.679741488939
 20
1111.595570749573
 30
0.0
  0
POINT
  5
298E
330
2913
100
AcDbEntity
  8
Defpoints
 62
     0
100
AcDbPoint
 10
1699.879741488939
 20
1111.595570749573
 30
0.0
  0
POINT
  5
298F
330
2913
100
AcDbEntity
  8
Defpoints
 62
     0
100
AcDbPoint
 10
1699.879741488939
 20
950.7885836053743
 30
0.0
  0
ENDBLK
  5
291E
330
2913
100
AcDbEntity
  8
0
100
AcDbBlockEnd
  0
BLOCK
  5
292B
330
291F
100
AcDbEntity
  8
0
100
AcDbBlockBegin
  2
*D54
 70
     1
 10
0.0
 20
0.0
 30
0.0
  3
*D54
  1

  0
LINE
  5
297C
330
291F
100
AcDbEntity
  8
実形
 62
     0
370
    18
100
AcDbLine
 10
1699.879741488939
 20
1046.595570749572
 30
0.0
 11
1699.879741488939
 21
994.497164633371
 31
0.0
  0
LINE
  5
297D
330
291F
100
AcDbEntity
  8
実形
 62
     0
370
    18
100
AcDbLine
 10
1709.879741488939
 20
1046.595570749572
 30
0.0
 11
1709.879741488939
 21
994.497164633371
 31
0.0
  0
LINE
  5
297E
330
291F
100
AcDbEntity
  8
実形
 62
     0
370
    18
100
AcDbLine
 10
1699.879741488939
 20
994.497164633371
 30
0.0
 11
1664.879741488939
 21
994.497164633371
 31
0.0
  0
LINE
  5
297F
330
291F
100
AcDbEntity
  8
実形
 62
     0
370
    18
100
AcDbLine
 10
1709.879741488939
 20
994.497164633371
 30
0.0
 11
1744.879741488939
 21
994.497164633371
 31
0.0
  0
MTEXT
  5
2980
330
291F
100
AcDbEntity
  8
実形
 62
     0
100
AcDbMText
 10
1742.340702655632
 20
1017.682568811921
 30
0.0
 40
25.0
 41
0.0
 71
     5
 72
     1
  1
7
 73
     1
 44
1.0
1001
ACAD
1000
MTEXTBEGIN
1070
    73
1070
     1
1070
    44
1040
1.0
1070
    74
1070
     0
1000
MTEXTEND
  0
LINE
  5
2981
330
291F
100
AcDbEntity
  8
実形
 62
     0
370
    18
100
AcDbLine
 10
1699.879741488939
 20
994.497164633371
 30
0.0
 11
1709.879741488939
 21
994.497164633371
 31
0.0
  0
INSERT
  5
2982
330
291F
100
AcDbEntity
  8
実形
 62
     0
370
    18
100
AcDbBlockReference
  2
_DotSmall
 10
1699.879741488939
 20
994.497164633371
 30
0.0
 41
35.0
 42
35.0
 43
35.0
  0
INSERT
  5
2983
330
291F
100
AcDbEntity
  8
実形
 62
     0
370
    18
100
AcDbBlockReference
  2
_DotSmall
 10
1709.879741488939
 20
994.497164633371
 30
0.0
 41
35.0
 42
35.0
 43
35.0
 50
180.0
  0
POINT
  5
2984
330
291F
100
AcDbEntity
  8
Defpoints
 62
     0
100
AcDbPoint
 10
1699.879741488939
 20
1111.595570749573
 30
0.0
  0
POINT
  5
2985
330
291F
100
AcDbEntity
  8
Defpoints
 62
     0
100
AcDbPoint
 10
1709.879741488939
 20
1111.595570749573
 30
0.0
  0
POINT
  5
2986
330
291F
100
AcDbEntity
  8
Defpoints
 62
     0
100
AcDbPoint
 10
1709.879741488939
 20
994.497164633371
 30
0.0
  0
ENDBLK
  5
292C
330
291F
100
AcDbEntity
  8
0
100
AcDbBlockEnd
  0
BLOCK
  5
2937
330
292D
100
AcDbEntity
  8
0
100
AcDbBlockBegin
  2
*D55
 70
     1
 10
0.0
 20
0.0
 30
0.0
  3
*D55
  1

  0
LINE
  5
296A
330
292D
100
AcDbEntity
  8
実形
 62
     0
370
    18
100
AcDbLine
 10
1501.679741488939
 20
1046.595570749572
 30
0.0
 11
1501.679741488939
 21
892.0104956551826
 31
0.0
  0
LINE
  5
296B
330
292D
100
AcDbEntity
  8
実形
 62
     0
370
    18
100
AcDbLine
 10
1699.879741488939
 20
1046.595570749572
 30
0.0
 11
1699.879741488939
 21
892.0104956551826
 31
0.0
  0
LINE
  5
296C
330
292D
100
AcDbEntity
  8
実形
 62
     0
370
    18
100
AcDbLine
 10
1501.679741488939
 20
892.0104956551826
 30
0.0
 11
1699.879741488939
 21
892.0104956551826
 31
0.0
  0
INSERT
  5
296D
330
292D
100
AcDbEntity
  8
実形
 62
     0
370
    18
100
AcDbBlockReference
  2
_DotSmall
 10
1501.679741488939
 20
892.0104956551826
 30
0.0
 41
35.0
 42
35.0
 43
35.0
 50
180.0
  0
INSERT
  5
296E
330
292D
100
AcDbEntity
  8
実形
 62
     0
370
    18
100
AcDbBlockReference
  2
_DotSmall
 10
1699.879741488939
 20
892.0104956551826
 30
0.0
 41
35.0
 42
35.0
 43
35.0
  0
MTEXT
  5
296F
330
292D
100
AcDbEntity
  8
実形
 62
     0
100
AcDbMText
 10
1600.779741488939
 20
910.7604956551826
 30
0.0
 40
25.0
 41
0.0
 71
     5
 72
     1
  1
198.2
 73
     1
 44
1.0
1001
ACAD
1000
MTEXTBEGIN
1070
    73
1070
     1
1070
    44
1040
1.0
1070
    74
1070
     0
1000
MTEXTEND
  0
POINT
  5
2970
330
292D
100
AcDbEntity
  8
Defpoints
 62
     0
100
AcDbPoint
 10
1501.679741488939
 20
1111.595570749573
 30
0.0
  0
POINT
  5
2971
330
292D
100
AcDbEntity
  8
Defpoints
 62
     0
100
AcDbPoint
 10
1699.879741488939
 20
1111.595570749573
 30
0.0
  0
POINT
  5
2972
330
292D
100
AcDbEntity
  8
Defpoints
 62
     0
100
AcDbPoint
 10
1699.879741488939
 20
892.0104956551826
 30
0.0
  0
ENDBLK
  5
2938
330
292D
100
AcDbEntity
  8
0
100
AcDbBlockEnd
  0
BLOCK
  5
29D5
330
29D4
100
AcDbEntity
  8
0
100
AcDbBlockBegin
  2
*D56
 70
     1
 10
0.0
 20
0.0
 30
0.0
  3
*D56
  1

  0
LINE
  5
29D6
330
29D4
100
AcDbEntity
  8
実形
 62
     0
370
    18
100
AcDbLine
 10
430.8076667403931
 20
793.0612300917895
 30
0.0
 11
352.8078886316782
 21
793.0612300917895
 31
0.0
  0
LINE
  5
29D7
330
29D4
100
AcDbEntity
  8
実形
 62
     0
370
    18
100
AcDbLine
 10
431.786444381569
 20
775.0612300917895
 30
0.0
 11
352.8078886316782
 21
775.0612300917895
 31
0.0
  0
LINE
  5
29D8
330
29D4
100
AcDbEntity
  8
実形
 62
     0
370
    18
100
AcDbLine
 10
352.8078886316782
 20
793.0612300917895
 30
0.0
 11
352.8078886316782
 21
775.0612300917895
 31
0.0
  0
MTEXT
  5
29D9
330
29D4
100
AcDbEntity
  8
実形
 62
     0
100
AcDbMText
 10
272.6058079643246
 20
844.6077094368485
 30
0.0
 40
25.0
 41
0.0
 71
     5
 72
     1
  1
18
 11
0.0000000000000001
 21
1.0
 31
0.0
 73
     1
 44
1.0
1001
ACAD
1000
MTEXTBEGIN
1070
    73
1070
     1
1070
    44
1040
1.0
1070
    74
1070
     0
1000
MTEXTEND
  0
INSERT
  5
29DA
330
29D4
100
AcDbEntity
  8
実形
 62
     0
370
    18
100
AcDbBlockReference
  2
_DotSmall
 10
352.8078886316782
 20
793.0612300917895
 30
0.0
 41
35.0
 42
35.0
 43
35.0
 50
90.0
  0
INSERT
  5
29DB
330
29D4
100
AcDbEntity
  8
実形
 62
     0
370
    18
100
AcDbBlockReference
  2
_DotSmall
 10
352.8078886316782
 20
775.0612300917895
 30
0.0
 41
35.0
 42
35.0
 43
35.0
 50
270.0
  0
POINT
  5
29DC
330
29D4
100
AcDbEntity
  8
Defpoints
 62
     0
100
AcDbPoint
 10
495.8076667403932
 20
793.0612300917895
 30
0.0
  0
POINT
  5
29DD
330
29D4
100
AcDbEntity
  8
Defpoints
 62
     0
100
AcDbPoint
 10
496.786444381569
 20
775.0612300917895
 30
0.0
  0
POINT
  5
29DE
330
29D4
100
AcDbEntity
  8
Defpoints
 62
     0
100
AcDbPoint
 10
352.8078886316782
 20
775.0612300917895
 30
0.0
  0
ENDBLK
  5
29DF
330
29D4
100
AcDbEntity
  8
0
100
AcDbBlockEnd
  0
BLOCK
  5
29E1
330
29E0
100
AcDbEntity
  8
0
100
AcDbBlockBegin
  2
*D57
 70
     1
 10
0.0
 20
0.0
 30
0.0
  3
*D57
  1

  0
LINE
  5
29E2
330
29E0
100
AcDbEntity
  8
実形
 62
     0
370
    18
100
AcDbLine
 10
431.786444381569
 20
775.0612300917895
 30
0.0
 11
352.8078886316782
 21
775.0612300917895
 31
0.0
  0
LINE
  5
29E3
330
29E0
100
AcDbEntity
  8
実形
 62
     0
370
    18
100
AcDbLine
 10
431.786444381569
 20
769.8612300917895
 30
0.0
 11
352.8078886316782
 21
769.8612300917895
 31
0.0
  0
LINE
  5
29E4
330
29E0
100
AcDbEntity
  8
実形
 62
     0
370
    18
100
AcDbLine
 10
352.8078886316782
 20
775.0612300917895
 30
0.0
 11
352.8078886316782
 21
810.0612300917894
 31
0.0
  0
LINE
  5
29E5
330
29E0
100
AcDbEntity
  8
実形
 62
     0
370
    18
100
AcDbLine
 10
352.8078886316782
 20
769.8612300917895
 30
0.0
 11
352.8078886316782
 21
734.8612300917896
 31
0.0
  0
MTEXT
  5
29E6
330
29E0
100
AcDbEntity
  8
実形
 62
     0
100
AcDbMText
 10
275.3806583857042
 20
746.8009476358475
 30
0.0
 40
25.0
 41
0.0
 71
     5
 72
     1
  1
5.2
 11
0.0000000000000001
 21
1.0
 31
0.0
 73
     1
 44
1.0
1001
ACAD
1000
MTEXTBEGIN
1070
    73
1070
     1
1070
    44
1040
1.0
1070
    74
1070
     0
1000
MTEXTEND
  0
LINE
  5
29E7
330
29E0
100
AcDbEntity
  8
実形
 62
     0
370
    18
100
AcDbLine
 10
352.8078886316782
 20
775.0612300917895
 30
0.0
 11
352.8078886316782
 21
769.8612300917895
 31
0.0
  0
INSERT
  5
29E8
330
29E0
100
AcDbEntity
  8
実形
 62
     0
370
    18
100
AcDbBlockReference
  2
_DotSmall
 10
352.8078886316782
 20
775.0612300917895
 30
0.0
 41
35.0
 42
35.0
 43
35.0
 50
270.0
  0
INSERT
  5
29E9
330
29E0
100
AcDbEntity
  8
実形
 62
     0
370
    18
100
AcDbBlockReference
  2
_DotSmall
 10
352.8078886316782
 20
769.8612300917895
 30
0.0
 41
35.0
 42
35.0
 43
35.0
 50
90.0
  0
POINT
  5
29EA
330
29E0
100
AcDbEntity
  8
Defpoints
 62
     0
100
AcDbPoint
 10
496.786444381569
 20
775.0612300917895
 30
0.0
  0
POINT
  5
29EB
330
29E0
100
AcDbEntity
  8
Defpoints
 62
     0
100
AcDbPoint
 10
496.786444381569
 20
769.8612300917895
 30
0.0
  0
POINT
  5
29EC
330
29E0
100
AcDbEntity
  8
Defpoints
 62
     0
100
AcDbPoint
 10
352.8078886316782
 20
769.8612300917895
 30
0.0
  0
ENDBLK
  5
29ED
330
29E0
100
AcDbEntity
  8
0
100
AcDbBlockEnd
  0
BLOCK
  5
29EF
330
29EE
100
AcDbEntity
  8
0
100
AcDbBlockBegin
  2
*D58
 70
     1
 10
0.0
 20
0.0
 30
0.0
  3
*D58
  1

  0
LINE
  5
29F0
330
29EE
100
AcDbEntity
  8
実形
 62
     0
370
    18
100
AcDbLine
 10
431.786444381569
 20
769.8612300917895
 30
0.0
 11
352.8078886316782
 21
769.8612300917895
 31
0.0
  0
LINE
  5
29F1
330
29EE
100
AcDbEntity
  8
実形
 62
     0
370
    18
100
AcDbLine
 10
376.7199366068219
 20
594.8612300917894
 30
0.0
 11
352.8078886316782
 21
594.8612300917894
 31
0.0
  0
LINE
  5
29F2
330
29EE
100
AcDbEntity
  8
実形
 62
     0
370
    18
100
AcDbLine
 10
352.8078886316782
 20
769.8612300917895
 30
0.0
 11
352.8078886316782
 21
594.8612300917894
 31
0.0
  0
MTEXT
  5
29F3
330
29EE
100
AcDbEntity
  8
実形
 62
     0
100
AcDbMText
 10
326.934062287148
 20
665.6239819760413
 30
0.0
 40
25.0
 41
0.0
 71
     5
 72
     1
  1
175
 11
0.0000000000000001
 21
1.0
 31
0.0
 73
     1
 44
1.0
1001
ACAD
1000
MTEXTBEGIN
1070
    73
1070
     1
1070
    44
1040
1.0
1070
    74
1070
     0
1000
MTEXTEND
  0
INSERT
  5
29F4
330
29EE
100
AcDbEntity
  8
実形
 62
     0
370
    18
100
AcDbBlockReference
  2
_DotSmall
 10
352.8078886316782
 20
769.8612300917895
 30
0.0
 41
35.0
 42
35.0
 43
35.0
 50
90.0
  0
INSERT
  5
29F5
330
29EE
100
AcDbEntity
  8
実形
 62
     0
370
    18
100
AcDbBlockReference
  2
_DotSmall
 10
352.8078886316782
 20
594.8612300917894
 30
0.0
 41
35.0
 42
35.0
 43
35.0
 50
270.0
  0
POINT
  5
29F6
330
29EE
100
AcDbEntity
  8
Defpoints
 62
     0
100
AcDbPoint
 10
496.786444381569
 20
769.8612300917895
 30
0.0
  0
POINT
  5
29F7
330
29EE
100
AcDbEntity
  8
Defpoints
 62
     0
100
AcDbPoint
 10
441.7199366068218
 20
594.8612300917894
 30
0.0
  0
POINT
  5
29F8
330
29EE
100
AcDbEntity
  8
Defpoints
 62
     0
100
AcDbPoint
 10
352.8078886316782
 20
594.8612300917894
 30
0.0
  0
ENDBLK
  5
29F9
330
29EE
100
AcDbEntity
  8
0
100
AcDbBlockEnd
  0
BLOCK
  5
29FB
330
29FA
100
AcDbEntity
  8
0
100
AcDbBlockBegin
  2
*D59
 70
     1
 10
0.0
 20
0.0
 30
0.0
  3
*D59
  1

  0
LINE
  5
29FC
330
29FA
100
AcDbEntity
  8
実形
 62
     0
370
    18
100
AcDbLine
 10
430.8076667403931
 20
793.0612300917895
 30
0.0
 11
242.1859901810369
 21
793.0612300917896
 31
0.0
  0
LINE
  5
29FD
330
29FA
100
AcDbEntity
  8
実形
 62
     0
370
    18
100
AcDbLine
 10
376.7199366068219
 20
594.8612300917894
 30
0.0
 11
242.1859901810369
 21
594.8612300917895
 31
0.0
  0
LINE
  5
29FE
330
29FA
100
AcDbEntity
  8
実形
 62
     0
370
    18
100
AcDbLine
 10
242.1859901810369
 20
793.0612300917896
 30
0.0
 11
242.1859901810369
 21
594.8612300917895
 31
0.0
  0
INSERT
  5
29FF
330
29FA
100
AcDbEntity
  8
実形
 62
     0
370
    18
100
AcDbBlockReference
  2
_DotSmall
 10
242.1859901810369
 20
793.0612300917896
 30
0.0
 41
35.0
 42
35.0
 43
35.0
 50
90.0
  0
INSERT
  5
2A00
330
29FA
100
AcDbEntity
  8
実形
 62
     0
370
    18
100
AcDbBlockReference
  2
_DotSmall
 10
242.1859901810369
 20
594.8612300917895
 30
0.0
 41
35.0
 42
35.0
 43
35.0
 50
270.0
  0
MTEXT
  5
2A01
330
29FA
100
AcDbEntity
  8
実形
 62
     0
100
AcDbMText
 10
223.4359901810368
 20
693.9612300917896
 30
0.0
 40
25.0
 41
0.0
 71
     5
 72
     1
  1
198.2
 11
0.0000000000000001
 21
1.0
 31
0.0
 73
     1
 44
1.0
1001
ACAD
1000
MTEXTBEGIN
1070
    73
1070
     1
1070
    44
1040
1.0
1070
    74
1070
     0
1000
MTEXTEND
  0
POINT
  5
2A02
330
29FA
100
AcDbEntity
  8
Defpoints
 62
     0
100
AcDbPoint
 10
495.8076667403932
 20
793.0612300917895
 30
0.0
  0
POINT
  5
2A03
330
29FA
100
AcDbEntity
  8
Defpoints
 62
     0
100
AcDbPoint
 10
441.7199366068218
 20
594.8612300917894
 30
0.0
  0
POINT
  5
2A04
330
29FA
100
AcDbEntity
  8
Defpoints
 62
     0
100
AcDbPoint
 10
242.1859901810369
 20
594.8612300917895
 30
0.0
  0
ENDBLK
  5
2A05
330
29FA
100
AcDbEntity
  8
0
100
AcDbBlockEnd
  0
BLOCK
  5
2A07
330
2A06
100
AcDbEntity
  8
0
100
AcDbBlockBegin
  2
*D60
 70
     1
 10
0.0
 20
0.0
 30
0.0
  3
*D60
  1

  0
LINE
  5
2A08
330
2A06
100
AcDbEntity
  8
実形
 62
     0
370
    18
100
AcDbLine
 10
432.8798421908016
 20
594.8612300917894
 30
0.0
 11
352.8078886316782
 21
594.8612300917894
 31
0.0
  0
LINE
  5
2A09
330
2A06
100
AcDbEntity
  8
実形
 62
     0
370
    18
100
AcDbLine
 10
432.8798421908016
 20
584.8612300917895
 30
0.0
 11
352.8078886316782
 21
584.8612300917895
 31
0.0
  0
LINE
  5
2A0A
330
2A06
100
AcDbEntity
  8
実形
 62
     0
370
    18
100
AcDbLine
 10
352.8078886316782
 20
594.8612300917894
 30
0.0
 11
352.8078886316782
 21
629.8612300917895
 31
0.0
  0
LINE
  5
2A0B
330
2A06
100
AcDbEntity
  8
実形
 62
     0
370
    18
100
AcDbLine
 10
352.8078886316782
 20
584.8612300917895
 30
0.0
 11
352.8078886316782
 21
549.8612300917894
 31
0.0
  0
MTEXT
  5
2A0C
330
2A06
100
AcDbEntity
  8
実形
 62
     0
100
AcDbMText
 10
317.8078886316781
 20
578.5234464275528
 30
0.0
 40
25.0
 41
0.0
 71
     5
 72
     1
  1
7
 11
0.0000000000000001
 21
1.0
 31
0.0
 73
     1
 44
1.0
1001
ACAD
1000
MTEXTBEGIN
1070
    73
1070
     1
1070
    44
1040
1.0
1070
    74
1070
     0
1000
MTEXTEND
  0
LINE
  5
2A0D
330
2A06
100
AcDbEntity
  8
実形
 62
     0
370
    18
100
AcDbLine
 10
352.8078886316782
 20
594.8612300917894
 30
0.0
 11
352.8078886316782
 21
584.8612300917895
 31
0.0
  0
INSERT
  5
2A0E
330
2A06
100
AcDbEntity
  8
実形
 62
     0
370
    18
100
AcDbBlockReference
  2
_DotSmall
 10
352.8078886316782
 20
594.8612300917894
 30
0.0
 41
35.0
 42
35.0
 43
35.0
 50
270.0
  0
INSERT
  5
2A0F
330
2A06
100
AcDbEntity
  8
実形
 62
     0
370
    18
100
AcDbBlockReference
  2
_DotSmall
 10
352.8078886316782
 20
584.8612300917895
 30
0.0
 41
35.0
 42
35.0
 43
35.0
 50
90.0
  0
POINT
  5
2A10
330
2A06
100
AcDbEntity
  8
Defpoints
 62
     0
100
AcDbPoint
 10
497.8798421908016
 20
594.8612300917894
 30
0.0
  0
POINT
  5
2A11
330
2A06
100
AcDbEntity
  8
Defpoints
 62
     0
100
AcDbPoint
 10
497.8798421908016
 20
584.8612300917895
 30
0.0
  0
POINT
  5
2A12
330
2A06
100
AcDbEntity
  8
Defpoints
 62
     0
100
AcDbPoint
 10
352.8078886316782
 20
584.8612300917895
 30
0.0
  0
ENDBLK
  5
2A13
330
2A06
100
AcDbEntity
  8
0
100
AcDbBlockEnd
  0
BLOCK
  5
2A24
330
2A14
100
AcDbEntity
  8
0
100
AcDbBlockBegin
  2
A$C2B9813D3
 70
     0
 10
0.0
 20
0.0
 30
0.0
  3
A$C2B9813D3
  1

  0
DIMENSION
  5
2A15
330
2A14
100
AcDbEntity
  8
実形
100
AcDbDimension
  2
*D56
 10
-115.7218280582954
 20
0.0
 30
0.0
 11
-195.923908725649
 21
69.54647934505897
 31
0.0
 12
-468.5297166899736
 22
-775.0612300917895
 32
0.0
 70
   128
 71
     5
 42
18.0
  3
ISO-25
100
AcDbAlignedDimension
 13
27.27795005041958
 23
18.0
 33
0.0
 14
28.25672769159542
 24
0.0
 34
0.0
 50
90.0
100
AcDbRotatedDimension
1001
ACAD
1000
DSTYLE
1002
{
1070
   140
1040
25.0
1070
   279
1070
     2
1070
   371
1070
    18
1070
   372
1070
    18
1002
}
  0
DIMENSION
  5
2A16
330
2A14
100
AcDbEntity
  8
実形
100
AcDbDimension
  2
*D57
 10
-115.7218280582954
 20
-5.199999999999931
 30
0.0
 11
-193.1490583042694
 21
-28.26028245594193
 31
0.0
 12
-468.5297166899736
 22
-775.0612300917895
 32
0.0
 70
   128
 71
     5
 42
5.199999999999931
  3
ISO-25
100
AcDbAlignedDimension
 13
28.25672769159542
 23
0.0
 33
0.0
 14
28.25672769159542
 24
-5.199999999999931
 34
0.0
 50
90.0
100
AcDbRotatedDimension
1001
ACAD
1000
DSTYLE
1002
{
1070
   140
1040
25.0
1070
   279
1070
     2
1070
   371
1070
    18
1070
   372
1070
    18
1002
}
  0
DIMENSION
  5
2A17
330
2A14
100
AcDbEntity
  8
実形
100
AcDbDimension
  2
*D58
 10
-115.7218280582954
 20
-180.2
 30
0.0
 11
-141.5956544028256
 21
-109.4372481157481
 31
0.0
 12
-468.5297166899736
 22
-775.0612300917895
 32
0.0
 70
   128
 71
     5
 42
175.0000000000001
  3
ISO-25
100
AcDbAlignedDimension
 13
28.25672769159542
 23
-5.199999999999931
 33
0.0
 14
-26.80978008315174
 24
-180.2
 34
0.0
 50
90.0
100
AcDbRotatedDimension
1001
ACAD
1000
DSTYLE
1002
{
1070
   279
1070
     2
1070
   371
1070
    18
1070
   372
1070
    18
1002
}
  0
DIMENSION
  5
2A18
330
2A14
100
AcDbEntity
  8
実形
100
AcDbDimension
  2
*D59
 10
-226.3437265089367
 20
-180.1999999999999
 30
0.0
 11
-245.0937265089368
 21
-81.0999999999999
 31
0.0
 12
-468.5297166899736
 22
-775.0612300917895
 32
0.0
 71
     5
 42
198.2
  3
ISO-25
100
AcDbAlignedDimension
 13
27.27795005041958
 23
18.0
 33
0.0
 14
-26.80978008315174
 24
-180.2
 34
0.0
 50
90.0
100
AcDbRotatedDimension
1001
ACAD
1000
DSTYLE
1002
{
1070
   279
1070
     2
1070
   371
1070
    18
1070
   372
1070
    18
1002
}
  0
DIMENSION
  5
2A19
330
2A14
100
AcDbEntity
  8
実形
100
AcDbDimension
  2
*D60
 10
-115.7218280582954
 20
-190.2
 30
0.0
 11
-150.7218280582955
 21
-196.5377836642367
 31
0.0
 12
-468.5297166899736
 22
-775.0612300917895
 32
0.0
 70
   128
  1
7
 71
     5
 42
10.0
  3
ISO-25
100
AcDbAlignedDimension
 13
29.35012550082797
 23
-180.2
 33
0.0
 14
29.35012550082797
 24
-190.2
 34
0.0
 50
90.0
100
AcDbRotatedDimension
1001
ACAD
1000
DSTYLE
1002
{
1070
   279
1070
     2
1070
   371
1070
    18
1070
   372
1070
    18
1002
}
  0
LINE
  5
2A1A
330
2A14
100
AcDbEntity
  8
実形
100
AcDbLine
 10
-117.9248130989751
 20
-2.581910242939784
 30
0.0
 11
-164.8986805051052
 21
-24.54366835106544
 31
0.0
  0
LINE
  5
2A1B
330
2A14
100
AcDbEntity
  8
実形
100
AcDbLine
 10
-120.2903982959385
 20
-3.257647759688779
 30
0.0
 11
-138.5392420874657
 21
-7.987882580377345
 31
0.0
  0
LINE
  5
2A1C
330
2A14
100
AcDbEntity
  8
実形
100
AcDbLine
 10
-119.9524441071505
 20
-3.933399717127258
 30
0.0
 11
-133.4701175047546
 21
-14.06959243456572
 31
0.0
  0
ARC
  5
2A1D
330
2A14
100
AcDbEntity
  8
実形
100
AcDbCircle
 10
-72.87913243740695
 20
130.0033379497869
 30
0.0
 40
128.7156019851906
100
AcDbArc
 50
213.3909885014397
 51
249.3522921630743
  0
LINE
  5
2A1E
330
2A14
100
AcDbEntity
  8
実形
100
AcDbLine
 10
-118.2290223839397
 20
9.710790981085438
 30
0.0
 11
-129.1343755807181
 21
17.38749142387291
 31
0.0
  0
LINE
  5
2A1F
330
2A14
100
AcDbEntity
  8
実形
100
AcDbLine
 10
-118.4314165111452
 20
9.569840862510091
 30
0.0
 11
-132.3160634825842
 21
13.15224359919716
 31
0.0
  0
LEADER
  5
2A20
330
2A14
100
AcDbEntity
  8
実形
100
AcDbLeader
  3
ISO-25
 40
25.0
 41
16.66666666666666
 76
     2
 10
-5.459963764483063
 20
23.66954383208099
 30
0.0
 10
-46.33305576992802
 20
67.37719211377021
 30
0.0
213
0.0
223
12.5
233
0.0
1001
ACAD
1000
DSTYLE
1002
{
1070
   147
1040
6.25
1070
    77
1070
     0
1070
    41
1040
20.0
1070
   342
1005
DA
1002
}
  0
TEXT
  5
2A21
330
2A14
100
AcDbEntity
  8
実形
100
AcDbText
 10
-71.20799380818462
 20
79.80403913950318
 30
0.0
 40
25.0
  1
5R
 72
     2
 11
-29.54132714151797
 21
104.8040391395032
 31
0.0
100
AcDbText
 73
     3
  0
ENDBLK
  5
2A25
330
2A14
100
AcDbEntity
  8
0
100
AcDbBlockEnd
  0
ENDSEC
  0
SECTION
  2
ENTITIES
  0
LINE
  5
9C
330
1F
100
AcDbEntity
  8
実形
100
AcDbLine
 10
119.0
 20
4.0
 30
0.0
 11
2784.0
 21
4.0
 31
0.0
  0
LINE
  5
A0
330
1F
100
AcDbEntity
  8
実形
100
AcDbLine
 10
2784.0
 20
2024.0
 30
0.0
 11
119.0
 21
2024.0
 31
0.0
  0
LINE
  5
A5
330
1F
100
AcDbEntity
  8
実形
100
AcDbLine
 10
2784.0
 20
4.0
 30
0.0
 11
2784.0
 21
2024.0
 31
0.0
  0
LINE
  5
2DD
330
1F
100
AcDbEntity
  8
実形
100
AcDbLine
 10
562.5297166899736
 20
1111.441711899552
 30
0.0
 11
1092.529716689973
 21
1111.441711899552
 31
0.0
  0
LINE
  5
2E0
330
1F
100
AcDbEntity
  8
実形
100
AcDbLine
 10
562.5297166899736
 20
1631.441711899552
 30
0.0
 11
1092.529716689973
 21
1631.441711899552
 31
0.0
  0
LINE
  5
2F1
330
1F
100
AcDbEntity
  8
実形
100
AcDbLine
 10
502.5297166899735
 20
1429.500179725728
 30
0.0
 11
502.5297166899735
 21
1233.383244073377
 31
0.0
  0
LINE
  5
2F2
330
1F
100
AcDbEntity
  8
実形
100
AcDbLine
 10
1152.529716689973
 20
1429.500179725728
 30
0.0
 11
1152.529716689973
 21
1233.383244073377
 31
0.0
  0
ARC
  5
2F4
330
1F
100
AcDbEntity
  8
実形
100
AcDbCircle
 10
827.5297166899736
 20
4876.441711899552
 30
0.0
 40
3750.0
100
AcDbArc
 50
266.4658276845697
 51
273.5341723154303
  0
ARC
  5
2F7
330
1F
100
AcDbEntity
  8
実形
100
AcDbCircle
 10
827.5297166899736
 20
-2213.558288100447
 30
0.0
 40
3750.0
100
AcDbArc
 50
86.46582768456978
 51
93.53417231543021
  0
ARC
  5
2F8
330
1F
100
AcDbEntity
  8
実形
100
AcDbCircle
 10
602.5297166899735
 20
1429.500179725728
 30
0.0
 40
100.0
100
AcDbArc
 50
93.53417231542977
 51
180.0
  0
ARC
  5
2FA
330
1F
100
AcDbEntity
  8
実形
100
AcDbCircle
 10
602.5297166899735
 20
1233.383244073377
 30
0.0
 40
100.0
100
AcDbArc
 50
180.0
 51
266.4658276845687
  0
ARC
  5
2FB
330
1F
100
AcDbEntity
  8
実形
100
AcDbCircle
 10
1052.529716689973
 20
1233.383244073377
 30
0.0
 40
100.0
100
AcDbArc
 50
273.5341723154304
 51
0.0
  0
ARC
  5
2FC
330
1F
100
AcDbEntity
  8
実形
100
AcDbCircle
 10
1052.529716689973
 20
1429.500179725728
 30
0.0
 40
100.0
100
AcDbArc
 50
0.0
 51
86.46582768456996
  0
LINE
  5
2FD
330
1F
100
AcDbEntity
  8
実形
100
AcDbLine
 10
502.5297166899735
 20
1491.441711899552
 30
0.0
 11
502.5297166899735
 21
1171.441711899552
 31
0.0
  0
LINE
  5
2FE
330
1F
100
AcDbEntity
  8
実形
100
AcDbLine
 10
562.5297166899736
 20
1551.441711899552
 30
0.0
 11
1092.529716689974
 21
1551.441711899552
 31
0.0
  0
LINE
  5
2FF
330
1F
100
AcDbEntity
  8
実形
100
AcDbLine
 10
1152.529716689974
 20
1491.441711899552
 30
0.0
 11
1152.529716689973
 21
1171.441711899552
 31
0.0
  0
ARC
  5
300
330
1F
100
AcDbEntity
  8
実形
100
AcDbCircle
 10
562.5297166899736
 20
1491.441711899552
 30
0.0
 40
60.0
100
AcDbArc
 50
90.0
 51
180.0
  0
ARC
  5
301
330
1F
100
AcDbEntity
  8
実形
100
AcDbCircle
 10
562.5297166899736
 20
1171.441711899552
 30
0.0
 40
60.0
100
AcDbArc
 50
180.0
 51
270.0
  0
ARC
  5
302
330
1F
100
AcDbEntity
  8
実形
100
AcDbCircle
 10
1092.529716689973
 20
1171.441711899552
 30
0.0
 40
60.0
100
AcDbArc
 50
270.0
 51
0.0
  0
ARC
  5
303
330
1F
100
AcDbEntity
  8
実形
100
AcDbCircle
 10
1092.529716689974
 20
1491.441711899552
 30
0.0
 40
60.0
100
AcDbArc
 50
0.0
 51
90.0
  0
LINE
  5
306
330
1F
100
AcDbEntity
  8
実形
100
AcDbLine
 10
502.5297166899737
 20
1571.441711899552
 30
0.0
 11
502.5297166899735
 21
1233.383244073377
 31
0.0
  0
LINE
  5
307
330
1F
100
AcDbEntity
  8
実形
100
AcDbLine
 10
1152.529716689973
 20
1571.441711899552
 30
0.0
 11
1152.529716689973
 21
1233.383244073377
 31
0.0
  0
ARC
  5
308
330
1F
100
AcDbEntity
  8
実形
100
AcDbCircle
 10
562.5297166899736
 20
1571.441711899552
 30
0.0
 40
60.0
100
AcDbArc
 50
90.0
 51
180.0
  0
ARC
  5
309
330
1F
100
AcDbEntity
  8
実形
100
AcDbCircle
 10
1092.529716689973
 20
1571.441711899552
 30
0.0
 40
60.0
100
AcDbArc
 50
0.0
 51
90.0
  0
LINE
  5
31B
330
1F
100
AcDbEntity
  8
実形
100
AcDbLine
 10
1152.529716689973
 20
634.8090711020217
 30
0.0
 11
1152.529716689973
 21
775.0612300917894
 31
0.0
  0
ARC
  5
324
330
1F
100
AcDbEntity
  8
実形
100
AcDbCircle
 10
1122.529716689973
 20
634.8090711020217
 30
0.0
 40
30.0
100
AcDbArc
 50
271.5
 51
0.000000000000007
  0
LINE
  5
327
330
1F
100
AcDbEntity
  8
実形
100
AcDbLine
 10
502.5297166899735
 20
769.8612300917893
 30
0.0
 11
1152.529716689973
 21
769.8612300917893
 31
0.0
  0
DIMENSION
  5
3E9
330
1F
100
AcDbEntity
  8
実形
100
AcDbDimension
  2
*D4
 10
962.4979644047835
 20
1536.441711899552
 30
0.0
 11
943.7479644047833
 21
1461.441711899553
 31
0.0
 70
    32
 71
     5
 42
150.0
  3
ISO-25
100
AcDbAlignedDimension
 13
827.5297166899736
 23
1386.441711899552
 33
0.0
 14
827.5297166899736
 24
1536.441711899552
 34
0.0
 50
90.0
100
AcDbRotatedDimension
  0
DIMENSION
  5
40C
330
1F
100
AcDbEntity
  8
実形
100
AcDbDimension
  2
*D5
 10
383.7340558284142
 20
1126.441711899552
 30
0.0
 11
383.734055828414
 21
1184.358378566219
 31
0.0
 70
   160
 71
     5
 42
15.0
  3
ISO-25
100
AcDbAlignedDimension
 13
487.5297166899736
 23
1111.441711899552
 33
0.0
 14
487.5297166899736
 24
1126.441711899552
 34
0.0
 50
90.0
100
AcDbRotatedDimension
  0
DIMENSION
  5
41A
330
1F
100
AcDbEntity
  8
実形
100
AcDbDimension
  2
*D6
 10
383.7340558284142
 20
1536.441711899552
 30
0.0
 11
364.9840558284139
 21
1331.441711899552
 31
0.0
 70
    32
 71
     5
 42
410.0
  3
ISO-25
100
AcDbAlignedDimension
 13
487.5297166899736
 23
1126.441711899552
 33
0.0
 14
487.5297166899736
 24
1536.441711899552
 34
0.0
 50
90.0
100
AcDbRotatedDimension
1001
ACAD
1000
DSTYLE
1002
{
1070
   279
1070
     1
1002
}
  0
DIMENSION
  5
427
330
1F
100
AcDbEntity
  8
実形
100
AcDbDimension
  2
*D7
 10
383.7340558284142
 20
1551.441711899552
 30
0.0
 11
383.734055828414
 21
1498.877837318124
 31
0.0
 70
   160
 71
     5
 42
15.0
  3
ISO-25
100
AcDbAlignedDimension
 13
487.5297166899736
 23
1536.441711899552
 33
0.0
 14
487.5297166899736
 24
1551.441711899552
 34
0.0
 50
90.0
100
AcDbRotatedDimension
1001
ACAD
1000
DSTYLE
1002
{
1070
   279
1070
     1
1002
}
  0
DIMENSION
  5
466
330
1F
100
AcDbEntity
  8
実形
100
AcDbDimension
  2
*D8
 10
307.241613588857
 20
1631.441711899552
 30
0.0
 11
288.4916135888568
 21
1591.441711899552
 31
0.0
 70
    32
 71
     5
 42
80.0
  3
ISO-25
100
AcDbAlignedDimension
 13
487.5297166899736
 23
1551.441711899552
 33
0.0
 14
487.5297166899736
 24
1631.441711899552
 34
0.0
 50
90.0
100
AcDbRotatedDimension
  0
DIMENSION
  5
47C
330
1F
100
AcDbEntity
  8
実形
100
AcDbDimension
  2
*D9
 10
307.241613588857
 20
1646.441711899552
 30
0.0
 11
317.7567038942588
 21
1673.368431179885
 31
0.0
 70
   160
 71
     5
 42
15.0
  3
ISO-25
100
AcDbAlignedDimension
 13
487.5297166899736
 23
1631.441711899552
 33
0.0
 14
487.5297166899736
 24
1646.441711899552
 34
0.0
 50
90.0
100
AcDbRotatedDimension
1001
ACAD
1000
DSTYLE
1002
{
1070
   279
1070
     1
1002
}
  0
DIMENSION
  5
492
330
1F
100
AcDbEntity
  8
実形
100
AcDbDimension
  2
*D10
 10
229.6928298786788
 20
1096.441711899552
 30
0.0
 11
210.9428298786787
 21
1371.441711899552
 31
0.0
 70
    32
 71
     5
 42
550.0
  3
ISO-25
100
AcDbAlignedDimension
 13
487.5297166899736
 23
1646.441711899552
 33
0.0
 14
487.5297166899736
 24
1096.441711899552
 34
0.0
 50
90.0
100
AcDbRotatedDimension
  0
DIMENSION
  5
4C3
330
1F
100
AcDbEntity
  8
実形
100
AcDbDimension
  2
*D11
 10
307.2416135888571
 20
1096.441711899552
 30
0.0
 11
307.2416135888569
 21
1169.358378566219
 31
0.0
 70
   160
 71
     5
 42
15.0
  3
ISO-25
100
AcDbAlignedDimension
 13
487.5297166899736
 23
1111.441711899552
 33
0.0
 14
487.5297166899736
 24
1096.441711899552
 34
0.0
 50
90.0
100
AcDbRotatedDimension
  0
DIMENSION
  5
4FD
330
1F
100
AcDbEntity
  8
実形
100
AcDbDimension
  2
*D12
 10
1152.529716689973
 20
979.2183864986473
 30
0.0
 11
827.5297166899736
 21
997.9683864986473
 31
0.0
 70
    32
 71
     5
 42
650.0
  3
ISO-25
100
AcDbAlignedDimension
 13
502.5297166899735
 23
1096.441711899552
 33
0.0
 14
1152.529716689973
 24
1096.441711899552
 34
0.0
100
AcDbRotatedDimension
1001
ACAD
1000
DSTYLE
1002
{
1070
   279
1070
     1
1002
}
  0
DIMENSION
  5
522
330
1F
100
AcDbEntity
  8
実形
100
AcDbDimension
  2
*D13
 10
1167.529716689974
 20
905.0979712649878
 30
0.0
 11
827.5297166899736
 21
923.8479712649878
 31
0.0
 70
    33
 71
     5
 42
680.0
  3
ISO-25
100
AcDbAlignedDimension
 13
487.5297166899736
 23
1096.441711899552
 33
0.0
 14
1167.529716689974
 24
1096.441711899552
 34
0.0
1001
ACAD
1000
DSTYLE
1002
{
1070
   340
1005
11
1002
}
  0
LEADER
  5
8DB
330
1F
100
AcDbEntity
  8
実形
100
AcDbLeader
  3
ISO-25
 40
66.66666666666666
 41
87.5
 76
     2
 10
709.0580281653192
 20
1135.05003689103
 30
0.0
 10
737.201826024354
 20
1174.888923617892
 30
0.0
213
0.0
223
-12.5
233
0.0
1001
ACAD
1000
DSTYLE
1002
{
1070
   147
1040
6.25
1070
    77
1070
     0
1070
    41
1040
20.0
1070
   342
1005
DA
1002
}
  0
TEXT
  5
8DD
330
1F
100
AcDbEntity
  8
実形
100
AcDbText
 10
747.7557523049681
 20
1179.707061203552
 30
0.0
 40
25.0
  1
3750R
 11
747.7557523049681
 21
1171.373727870219
 31
0.0
100
AcDbText
 73
     1
  0
LEADER
  5
C24
330
1F
100
AcDbEntity
  8
実形
100
AcDbLeader
  3
ISO-25
 40
25.0
 41
16.66666666666666
 76
     2
 10
1124.90298713523
 20
1533.865136157077
 30
0.0
 10
1056.63274120963
 20
1503.757328116389
 30
0.0
213
0.0
223
12.5
233
0.0
1001
ACAD
1000
DSTYLE
1002
{
1070
   147
1040
6.25
1070
    77
1070
     0
1070
    41
1040
20.0
1070
   342
1005
DA
1002
}
  0
LEADER
  5
C26
330
1F
100
AcDbEntity
  8
実形
100
AcDbLeader
  3
ISO-25
 40
25.0
 41
16.66666666666666
 76
     2
 10
1121.643547929837
 20
1492.603942424735
 30
0.0
 10
1084.121667453562
 20
1451.094183634341
 30
0.0
213
0.0
223
12.5
233
0.0
1001
ACAD
1000
DSTYLE
1002
{
1070
   147
1040
6.25
1070
    77
1070
     0
1070
    41
1040
20.0
1070
   342
1005
DA
1002
}
  0
LEADER
  5
C29
330
1F
100
AcDbEntity
  8
実形
100
AcDbLeader
  3
ISO-25
 40
74.99999999999999
 41
41.66666666666666
 76
     2
 10
1145.66029938693
 20
1331.535794991876
 30
0.0
 10
1086.373353961265
 20
1331.535794991876
 30
0.0
213
0.0
223
12.5
233
0.0
1001
ACAD
1000
DSTYLE
1002
{
1070
   147
1040
6.25
1070
    77
1070
     0
1070
    41
1040
20.0
1070
   342
1005
DA
1002
}
  0
TEXT
  5
C2B
330
1F
100
AcDbEntity
  8
実形
100
AcDbText
 10
984.4596394491228
 20
1490.992559241303
 30
0.0
 40
25.0
  1
60R
 72
     2
 11
1046.959639449123
 21
1482.65922590797
 31
0.0
100
AcDbText
 73
     1
  0
TEXT
  5
C2C
330
1F
100
AcDbEntity
  8
実形
100
AcDbText
 10
1004.856869000668
 20
1426.75656811439
 30
0.0
 40
25.0
  1
100R
 72
     2
 11
1079.856869000668
 21
1418.423234781056
 31
0.0
100
AcDbText
 73
     1
  0
TEXT
  5
C2E
330
1F
100
AcDbEntity
  8
実形
100
AcDbText
 10
970.8338969761502
 20
1319.035794991876
 30
0.0
 40
25.0
  1
2000R
 72
     2
 11
1075.000563642817
 21
1331.535794991876
 31
0.0
100
AcDbText
 73
     2
  0
LEADER
  5
CB8
330
1F
100
AcDbEntity
  8
実形
100
AcDbLeader
  3
ISO-25
 76
     2
 10
1135.636700479932
 20
618.1635122414315
 30
0.0
 10
1092.444869930226
 20
657.1349797655539
 30
0.0
1001
ACAD
1000
DSTYLE
1002
{
1070
   147
1040
6.25
1070
    77
1070
     0
1070
    41
1040
20.0
1070
   342
1005
DA
1002
}
  0
LEADER
  5
CB9
330
1F
100
AcDbEntity
  8
実形
100
AcDbLeader
  3
ISO-25
 76
     2
 10
526.4873607494368
 20
614.4912880018862
 30
0.0
 10
567.1371143907681
 20
655.1233847492458
 30
0.0
1001
ACAD
1000
DSTYLE
1002
{
1070
   147
1040
6.25
1070
    77
1070
     0
1070
    41
1040
20.0
1070
   342
1005
DA
1002
}
  0
TEXT
  5
CC2
330
1F
100
AcDbEntity
  8
実形
100
AcDbText
 10
1021.149078256239
 20
655.6382307111483
 30
0.0
 40
25.0
  1
30R
 11
1021.149078256239
 21
647.304897377815
 31
0.0
100
AcDbText
 73
     1
  0
TEXT
  5
CC3
330
1F
100
AcDbEntity
  8
実形
100
AcDbText
 10
568.1495539248707
 20
657.9575434716649
 30
0.0
 40
25.0
  1
30R
 11
568.1495539248707
 21
649.6242101383316
 31
0.0
100
AcDbText
 73
     1
  0
TEXT
  5
DC3
330
1F
100
AcDbEntity
  8
実形
100
AcDbText
 10
191.7098177320886
 20
90.06009540427749
 30
0.0
 40
25.0
  1
※実寸には製造上の誤差が多少生ずる場合があります。シンクの穴あけ加工は現物合わせにてお願いします。
  7
MS明朝
100
AcDbText
  0
TEXT
  5
FFB
330
1F
100
AcDbEntity
  8
実形
100
AcDbText
 10
2077.151164740479
 20
85.79362836235922
 30
0.0
 40
30.0
  1
尺度
  7
MS明朝
 72
     4
 11
2121.036879026193
 21
101.9936283623592
 31
0.0
100
AcDbText
  0
TEXT
  5
FFC
330
1F
100
AcDbEntity
  8
実形
100
AcDbText
 10
2080.114285714286
 20
151.8428571428571
 30
0.0
 40
30.0
  1
品番
  7
MS明朝
 72
     4
 11
2124.0
 21
166.5
 31
0.0
100
AcDbText
  0
LINE
  5
FFD
330
1F
100
AcDbEntity
  8
実形
100
AcDbLine
 10
2064.0
 20
69.0
 30
0.0
 11
2784.0
 21
69.0
 31
0.0
  0
LINE
  5
FFE
330
1F
100
AcDbEntity
  8
実形
100
AcDbLine
 10
2064.0
 20
199.0
 30
0.0
 11
2784.0
 21
199.0
 31
0.0
  0
LINE
  5
FFF
330
1F
100
AcDbEntity
  8
実形
100
AcDbLine
 10
2064.0
 20
134.0
 30
0.0
 11
2784.0
 21
134.0
 31
0.0
  0
LINE
  5
1000
330
1F
100
AcDbEntity
  8
実形
100
AcDbLine
 10
2064.0
 20
4.0
 30
0.0
 11
2064.0
 21
199.0
 31
0.0
  0
TEXT
  5
1001
330
1F
100
AcDbEntity
  8
実形
100
AcDbText
 10
2283.455774665347
 20
18.5
 30
0.0
 40
35.0
  1
中外交易株式会社
  7
MS明朝
 72
     4
 11
2488.255774665347
 21
36.5
 31
0.0
100
AcDbText
  0
LINE
  5
1003
330
1F
100
AcDbEntity
  8
実形
100
AcDbLine
 10
2184.0
 20
69.0
 30
0.0
 11
2784.0
 21
69.0
 31
0.0
  0
LINE
  5
1004
102
{ACAD_REACTORS
330
1011
102
}
330
1F
100
AcDbEntity
  8
実形
370
     5
100
AcDbLine
 10
2207.843923164362
 20
40.53787547858519
 30
0.0
 11
2183.255774665347
 21
40.53787547858519
 31
0.0
  0
LINE
  5
1005
102
{ACAD_REACTORS
330
1011
102
}
330
1F
100
AcDbEntity
  8
実形
370
     5
100
AcDbLine
 10
2183.255774665347
 20
40.53787547858519
 30
0.0
 11
2183.255774665347
 21
30.53787547858519
 31
0.0
  0
LINE
  5
1006
102
{ACAD_REACTORS
330
1011
102
}
330
1F
100
AcDbEntity
  8
実形
370
     5
100
AcDbLine
 10
2183.255774665347
 20
30.53787547858519
 30
0.0
 11
2207.346428692676
 21
30.53787547858514
 31
0.0
  0
LINE
  5
1007
102
{ACAD_REACTORS
330
1011
102
}
330
1F
100
AcDbEntity
  8
実形
370
     5
100
AcDbLine
 10
2210.641894042939
 20
56.5
 30
0.0
 11
2210.641894042939
 21
16.5
 31
0.0
  0
LINE
  5
1008
102
{ACAD_REACTORS
330
1011
102
}
330
1F
100
AcDbEntity
  8
実形
370
     5
100
AcDbLine
 10
2210.641894042939
 20
16.5
 30
0.0
 11
2245.64189404294
 21
16.5
 31
0.0
  0
LINE
  5
1009
102
{ACAD_REACTORS
330
1011
102
}
330
1F
100
AcDbEntity
  8
実形
370
     5
100
AcDbLine
 10
2245.64189404294
 20
16.5
 30
0.0
 11
2210.641894042939
 21
36.5
 31
0.0
  0
LINE
  5
100A
102
{ACAD_REACTORS
330
1011
102
}
330
1F
100
AcDbEntity
  8
実形
370
     5
100
AcDbLine
 10
2210.641894042939
 20
36.5
 30
0.0
 11
2245.64189404294
 21
56.5
 31
0.0
  0
LINE
  5
100B
102
{ACAD_REACTORS
330
1011
102
}
330
1F
100
AcDbEntity
  8
実形
370
     5
100
AcDbLine
 10
2245.64189404294
 20
56.5
 30
0.0
 11
2210.641894042939
 21
56.5
 31
0.0
  0
LINE
  5
100C
102
{ACAD_REACTORS
330
1011
102
}
330
1F
100
AcDbEntity
  8
実形
370
     5
100
AcDbLine
 10
2276.75434681301
 20
40.53787547858519
 30
0.0
 11
2252.166198313995
 21
40.53787547858519
 31
0.0
  0
LINE
  5
100D
102
{ACAD_REACTORS
330
1011
102
}
330
1F
100
AcDbEntity
  8
実形
370
     5
100
AcDbLine
 10
2252.166198313995
 20
40.53787547858519
 30
0.0
 11
2252.166198313995
 21
30.53787547858519
 31
0.0
  0
LINE
  5
100E
102
{ACAD_REACTORS
330
1011
102
}
330
1F
100
AcDbEntity
  8
実形
370
     5
100
AcDbLine
 10
2252.166198313995
 20
30.53787547858519
 30
0.0
 11
2276.256852341323
 21
30.53787547858514
 31
0.0
  0
ARC
  5
100F
102
{ACAD_REACTORS
330
1011
102
}
330
1F
100
AcDbEntity
  8
実形
370
     5
100
AcDbCircle
 10
2188.255774665348
 20
36.5
 30
0.0
 40
20.0
100
AcDbArc
 50
11.6477236670766
 51
342.6561058784746
  0
ARC
  5
1010
102
{ACAD_REACTORS
330
1011
102
}
330
1F
100
AcDbEntity
  8
実形
370
     5
100
AcDbCircle
 10
2257.166198313996
 20
36.5
 30
0.0
 40
20.0
100
AcDbArc
 50
11.6477236670766
 51
342.6561058784746
  0
HATCH
  5
1011
330
1F
100
AcDbEntity
  8
実形
100
AcDbHatch
 10
0.0
 20
0.0
 30
0.0
210
0.0
220
0.0
230
1.0
  2
SOLID
 70
     1
 71
     1
 91
        3
 92
        1
 93
        4
 72
     2
 10
2257.166198313996
 20
36.5
 40
20.0
 50
11.6477236670766
 51
342.6561058784746
 73
     1
 72
     1
 10
2276.256852341323
 20
30.53787547858514
 11
2252.166198313995
 21
30.53787547858519
 72
     1
 10
2252.166198313995
 20
30.53787547858519
 11
2252.166198313995
 21
40.53787547858519
 72
     1
 10
2252.166198313995
 20
40.53787547858519
 11
2276.75434681301
 21
40.53787547858519
 97
        4
330
1010
330
100E
330
100D
330
100C
 92
        1
 93
        4
 72
     2
 10
2188.255774665348
 20
36.5
 40
20.0
 50
11.6477236670766
 51
342.6561058784746
 73
     1
 72
     1
 10
2207.346428692676
 20
30.53787547858514
 11
2183.255774665347
 21
30.53787547858519
 72
     1
 10
2183.255774665347
 20
30.53787547858519
 11
2183.255774665347
 21
40.53787547858519
 72
     1
 10
2183.255774665347
 20
40.53787547858519
 11
2207.843923164362
 21
40.53787547858519
 97
        4
330
100F
330
1006
330
1005
330
1004
 92
        1
 93
        5
 72
     1
 10
2245.64189404294
 20
56.5
 11
2210.641894042939
 21
56.5
 72
     1
 10
2210.641894042939
 20
56.5
 11
2210.641894042939
 21
16.5
 72
     1
 10
2210.641894042939
 20
16.5
 11
2245.64189404294
 21
16.5
 72
     1
 10
2245.64189404294
 20
16.5
 11
2210.641894042939
 21
36.5
 72
     1
 10
2210.641894042939
 20
36.5
 11
2245.64189404294
 21
56.5
 97
        5
330
100B
330
1007
330
1008
330
1009
330
100A
 75
     0
 76
     1
 98
        1
 10
-60.0
 20
0.0
  0
LINE
  5
1012
330
1F
100
AcDbEntity
  8
実形
100
AcDbLine
 10
2184.0
 20
69.0
 30
0.0
 11
2184.0
 21
199.0
 31
0.0
  0
TEXT
  5
1013
330
1F
100
AcDbEntity
  8
実形
100
AcDbText
 10
2420.0
 20
84.40000000000001
 30
0.0
 40
35.0
  1
1：10
  7
MS明朝
 72
     4
 11
2484.0
 21
101.5
 31
0.0
100
AcDbText
  0
LINE
  5
1014
330
1F
100
AcDbEntity
  8
実形
100
AcDbLine
 10
2784.0
 20
69.0
 30
0.0
 11
2784.0
 21
134.0
 31
0.0
  0
LINE
  5
1015
330
1F
100
AcDbEntity
  8
実形
100
AcDbLine
 10
2784.0
 20
134.0
 30
0.0
 11
2784.0
 21
199.0
 31
0.0
  0
LINE
  5
1016
330
1F
100
AcDbEntity
  8
実形
100
AcDbLine
 10
2784.0
 20
4.0
 30
0.0
 11
2784.0
 21
69.0
 31
0.0
  0
LINE
  5
1279
330
1F
100
AcDbEntity
  8
実形
  6
CENTER2
100
AcDbLine
 10
827.5297166899736
 20
1540.569835212891
 30
0.0
 11
827.5297166899736
 21
1251.721642448602
 31
0.0
  0
LINE
  5
128E
330
1F
100
AcDbEntity
  8
実形
  6
CENTER2
100
AcDbLine
 10
681.8126061714192
 20
1386.441711899552
 30
0.0
 11
964.6854644047834
 21
1386.441711899552
 31
0.0
  0
CIRCLE
  5
1290
330
1F
100
AcDbEntity
  8
実形
100
AcDbCircle
 10
827.5297166899736
 20
1386.441711899552
 30
0.0
 40
79.5
  0
CIRCLE
  5
1291
330
1F
100
AcDbEntity
  8
実形
100
AcDbCircle
 10
827.5297166899736
 20
1386.441711899552
 30
0.0
 40
90.5
  0
LINE
  5
130D
330
1F
100
AcDbEntity
  8
実形
  6
CENTER2
 48
0.5
100
AcDbLine
 10
827.5297166899736
 20
667.1087809102036
 30
0.0
 11
827.5297166899736
 21
505.1631270525904
 31
0.0
  0
LINE
  5
1343
330
1F
100
AcDbEntity
  8
実形
100
AcDbLine
 10
917.9649816245646
 20
594.8612300917893
 30
0.0
 11
1123.31502513921
 21
604.8193513527551
 31
0.0
  0
LINE
  5
1344
330
1F
100
AcDbEntity
  8
実形
100
AcDbLine
 10
502.529716689974
 20
634.8090711020217
 30
0.0
 11
502.529716689974
 21
775.0612300917894
 31
0.0
  0
ARC
  5
1347
330
1F
100
AcDbEntity
  8
実形
100
AcDbCircle
 10
532.5297166899741
 20
634.8090711020217
 30
0.0
 40
30.0
100
AcDbArc
 50
180.0
 51
268.5
  0
LINE
  5
1348
330
1F
100
AcDbEntity
  8
実形
  6
ACAD_ISO08W100
100
AcDbLine
 10
912.0297166899781
 20
594.8612300917893
 30
0.0
 11
508.4011915721726
 21
594.8612300917893
 31
0.0
  0
ARC
  5
1349
330
1F
100
AcDbEntity
  8
実形
100
AcDbCircle
 10
912.0297166899781
 20
594.8612300917893
 30
0.0
 40
346.6490970545442
100
AcDbArc
 50
178.4999999999999
 51
180.0
  0
LINE
  5
134A
330
1F
100
AcDbEntity
  8
実形
100
AcDbLine
 10
737.0944517553827
 20
594.8612300917893
 30
0.0
 11
531.7444082407377
 21
604.8193513527551
 31
0.0
  0
TEXT
  5
1355
330
1F
100
AcDbEntity
  8
実形
100
AcDbText
 10
543.9091713113502
 20
556.4608419530917
 30
0.0
 40
25.0
  1
1.5°
 11
543.9091713113502
 21
548.1275086197583
 31
0.0
100
AcDbText
 73
     1
  0
LINE
  5
1356
330
1F
100
AcDbEntity
  8
実形
100
AcDbLine
 10
917.9649816245646
 20
594.8612300917893
 30
0.0
 11
912.0297166899781
 21
594.8612300917893
 31
0.0
  0
LINE
  5
157C
330
1F
100
AcDbEntity
  8
実形
100
AcDbLine
 10
737.0944517553851
 20
594.8612300917893
 30
0.0
 11
917.9649816245646
 21
594.8612300917893
 31
0.0
  0
DIMENSION
  5
15ED
330
1F
100
AcDbEntity
  8
実形
100
AcDbDimension
  2
*D15
 10
487.5297166899736
 20
979.2183864986473
 30
0.0
 11
534.0925397724167
 21
984.5985220384235
 31
0.0
 70
   160
 71
     5
 42
15.0
  3
ISO-25
100
AcDbAlignedDimension
 13
502.5297166899735
 23
1096.441711899552
 33
0.0
 14
487.5297166899736
 24
1096.441711899552
 34
0.0
 50
180.0
100
AcDbRotatedDimension
1001
ACAD
1000
DSTYLE
1002
{
1070
   279
1070
     1
1002
}
  0
DIMENSION
  5
1668
330
1F
100
AcDbEntity
  8
実形
100
AcDbDimension
  2
*D16
 10
1152.529716689973
 20
979.2183864986473
 30
0.0
 11
1121.129618618908
 21
998.2646973638711
 31
0.0
 70
   160
 71
     5
 42
15.0
  3
ISO-25
100
AcDbAlignedDimension
 13
1167.529716689974
 23
1096.441711899552
 33
0.0
 14
1152.529716689973
 24
1096.441711899552
 34
0.0
 50
180.0
100
AcDbRotatedDimension
1001
ACAD
1000
DSTYLE
1002
{
1070
   279
1070
     2
1002
}
  0
DIMENSION
  5
16A7
330
1F
100
AcDbEntity
  8
実形
100
AcDbDimension
  2
*D17
 10
827.5297166899736
 20
1330.481858913561
 30
0.0
 11
665.0297166899735
 21
1349.231858913561
 31
0.0
 70
    32
 71
     5
 42
325.0
  3
ISO-25
100
AcDbAlignedDimension
 13
502.5297166899735
 23
1331.441711899552
 33
0.0
 14
827.5297166899736
 24
1386.441711899552
 34
0.0
100
AcDbRotatedDimension
1001
ACAD
1000
DSTYLE
1002
{
1070
   343
1005
D0
1070
   173
1070
     1
1070
   344
1005
D0
1070
    41
1040
35.0
1070
   342
1005
0
1002
}
  0
LINE
  5
17B6
330
1F
100
AcDbEntity
  8
実形
100
AcDbLine
 10
918.0297166899752
 20
587.8612300917893
 30
0.0
 11
737.0297166899749
 21
587.8612300917893
 31
0.0
  0
LINE
  5
17B7
330
1F
100
AcDbEntity
  8
実形
100
AcDbLine
 10
737.0297166899749
 20
594.8612300917893
 30
0.0
 11
737.0297166899747
 21
587.8612300917893
 31
0.0
  0
LINE
  5
17B8
330
1F
100
AcDbEntity
  8
実形
100
AcDbLine
 10
918.029716689975
 20
594.8612300917893
 30
0.0
 11
918.029716689975
 21
587.8612300917893
 31
0.0
  0
LINE
  5
1AFE
330
1F
100
AcDbEntity
  8
実形
100
AcDbLine
 10
562.5297166899736
 20
1665.441711899552
 30
0.0
 11
1092.529716689973
 21
1665.441711899552
 31
0.0
  0
ARC
  5
1AFF
330
1F
100
AcDbEntity
  8
実形
100
AcDbCircle
 10
1092.529716689973
 20
1571.441711899552
 30
0.0
 40
94.0
100
AcDbArc
 50
0.0
 51
90.0
  0
LINE
  5
1B00
330
1F
100
AcDbEntity
  8
実形
100
AcDbLine
 10
1186.529716689973
 20
1571.441711899552
 30
0.0
 11
1186.529716689973
 21
1233.383244073377
 31
0.0
  0
ARC
  5
1B01
330
1F
100
AcDbEntity
  8
実形
100
AcDbCircle
 10
1092.529716689973
 20
1171.441711899552
 30
0.0
 40
94.0
100
AcDbArc
 50
270.0
 51
0.0
  0
LINE
  5
1B02
330
1F
100
AcDbEntity
  8
実形
100
AcDbLine
 10
1186.529716689974
 20
1491.441711899552
 30
0.0
 11
1186.529716689973
 21
1171.441711899552
 31
0.0
  0
LINE
  5
1B03
330
1F
100
AcDbEntity
  8
実形
100
AcDbLine
 10
562.5297166899736
 20
1077.441711899552
 30
0.0
 11
1092.529716689973
 21
1077.441711899552
 31
0.0
  0
ARC
  5
1B04
330
1F
100
AcDbEntity
  8
実形
100
AcDbCircle
 10
562.5297166899736
 20
1171.441711899552
 30
0.0
 40
94.0
100
AcDbArc
 50
180.0
 51
270.0
  0
LINE
  5
1B05
330
1F
100
AcDbEntity
  8
実形
100
AcDbLine
 10
468.5297166899736
 20
1571.441711899552
 30
0.0
 11
468.5297166899736
 21
1233.383244073377
 31
0.0
  0
LINE
  5
1B06
330
1F
100
AcDbEntity
  8
実形
100
AcDbLine
 10
468.5297166899736
 20
1491.441711899552
 30
0.0
 11
468.5297166899736
 21
1171.441711899552
 31
0.0
  0
ARC
  5
1B07
330
1F
100
AcDbEntity
  8
実形
100
AcDbCircle
 10
562.5297166899736
 20
1571.441711899552
 30
0.0
 40
94.0
100
AcDbArc
 50
90.0
 51
180.0
  0
LEADER
  5
1B13
330
1F
100
AcDbEntity
  8
実形
100
AcDbLeader
  3
ISO-25
 40
25.0
 41
16.66666666666666
 76
     2
 10
483.8877393188304
 20
1638.97077534243
 30
0.0
 10
442.2663799008441
 20
1693.817529749926
 30
0.0
213
0.0
223
12.5
233
0.0
1001
ACAD
1000
DSTYLE
1002
{
1070
   147
1040
6.25
1070
    77
1070
     0
1070
    41
1040
20.0
1070
   342
1005
DA
1002
}
  0
TEXT
  5
1B14
330
1F
100
AcDbEntity
  8
実形
100
AcDbText
 10
381.3433190292275
 20
1705.165124277137
 30
0.0
 40
25.0
  1
94R
 72
     2
 11
448.0099856958941
 21
1730.165124277136
 31
0.0
100
AcDbText
 73
     3
  0
DIMENSION
  5
1C2C
330
1F
100
AcDbEntity
  8
実形
100
AcDbDimension
  2
*D19
 10
1186.529716689973
 20
1812.97416064225
 30
0.0
 11
827.5297166899736
 21
1831.72416064225
 31
0.0
 70
    32
 71
     5
 42
717.9999999999995
  3
ISO-25
100
AcDbAlignedDimension
 13
468.5297166899737
 23
1648.82642717865
 33
0.0
 14
1186.529716689973
 24
1648.82642717865
 34
0.0
100
AcDbRotatedDimension
1001
ACAD
1000
DSTYLE
1002
{
1070
    41
1040
10.0
1070
   342
1005
12B5
1002
}
  0
DIMENSION
  5
1CA4
330
1F
100
AcDbEntity
  8
実形
100
AcDbDimension
  2
*D20
 10
502.5297166899737
 20
1745.73124491248
 30
0.0
 11
504.9452790652721
 21
1774.709759181678
 31
0.0
 70
   160
  1
35
 71
     5
 42
34.0
  3
ISO-25
100
AcDbAlignedDimension
 13
468.5297166899737
 23
1648.82642717865
 33
0.0
 14
502.5297166899737
 24
1648.82642717865
 34
0.0
100
AcDbRotatedDimension
1001
ACAD
1000
DSTYLE
1002
{
1070
    41
1040
10.0
1070
   279
1070
     2
1070
   342
1005
12B5
1002
}
  0
DIMENSION
  5
1CC3
330
1F
100
AcDbEntity
  8
実形
100
AcDbDimension
  2
*D21
 10
1186.529716689973
 20
1745.73124491248
 30
0.0
 11
1156.14418578014
 21
1770.78703176634
 31
0.0
 70
   160
  1
35
 71
     5
 42
34.0
  3
ISO-25
100
AcDbAlignedDimension
 13
1152.529716689973
 23
1648.82642717865
 33
0.0
 14
1186.529716689973
 24
1648.82642717865
 34
0.0
100
AcDbRotatedDimension
1001
ACAD
1000
DSTYLE
1002
{
1070
    41
1040
10.0
1070
   279
1070
     2
1070
   342
1005
12B5
1002
}
  0
DIMENSION
  5
1CF3
330
1F
100
AcDbEntity
  8
実形
100
AcDbDimension
  2
*D22
 10
1311.184410259419
 20
1631.441711899552
 30
0.0
 11
1289.797456868211
 21
1598.237700747159
 31
0.0
 70
   160
  1
35
 71
     5
 42
34.0
  3
ISO-25
100
AcDbAlignedDimension
 13
1198.260648446332
 23
1665.441711899552
 33
0.0
 14
1198.260648446332
 24
1631.441711899552
 34
0.0
 50
90.0
100
AcDbRotatedDimension
1001
ACAD
1000
DSTYLE
1002
{
1070
    41
1040
10.0
1070
   279
1070
     2
1070
   342
1005
12B5
1002
}
  0
DIMENSION
  5
1D01
330
1F
100
AcDbEntity
  8
実形
100
AcDbDimension
  2
*D23
 10
1311.184410259418
 20
1077.441711899552
 30
0.0
 11
1287.012510196924
 21
1145.461574044227
 31
0.0
 70
   160
  1
35
 71
     5
 42
34.00000000000023
  3
ISO-25
100
AcDbAlignedDimension
 13
1198.260648446332
 23
1111.441711899552
 33
0.0
 14
1198.260648446332
 24
1077.441711899552
 34
0.0
 50
90.0
100
AcDbRotatedDimension
1001
ACAD
1000
DSTYLE
1002
{
1070
    41
1040
10.0
1070
   279
1070
     2
1070
   342
1005
12B5
1002
}
  0
DIMENSION
  5
1D0E
330
1F
100
AcDbEntity
  8
実形
100
AcDbDimension
  2
*D24
 10
1352.133474647693
 20
1077.441711899552
 30
0.0
 11
1333.383474647693
 21
1371.441711899552
 31
0.0
 70
    32
 71
     5
 42
588.0
  3
ISO-25
100
AcDbAlignedDimension
 13
1198.260648446332
 23
1665.441711899552
 33
0.0
 14
1198.260648446332
 24
1077.441711899552
 34
0.0
 50
90.0
100
AcDbRotatedDimension
1001
ACAD
1000
DSTYLE
1002
{
1070
    41
1040
10.0
1070
   279
1070
     2
1070
   342
1005
12B5
1002
}
  0
LEADER
  5
1D51
330
1F
100
AcDbEntity
  8
実形
100
AcDbLeader
  3
ISO-25
 40
25.0
 41
16.66666666666666
 76
     2
 10
491.0795125712102
 20
1099.245355403298
 30
0.0
 10
434.3103669925913
 20
1040.89601128715
 30
0.0
213
0.0
223
12.5
233
0.0
1001
ACAD
1000
DSTYLE
1002
{
1070
   147
1040
6.25
1070
    77
1070
     0
1070
    41
1040
20.0
1070
   342
1005
DA
1002
}
  0
TEXT
  5
1D52
330
1F
100
AcDbEntity
  8
実形
100
AcDbText
 10
395.6886826706326
 20
1010.378691032012
 30
0.0
 40
25.0
  1
94R
 72
     2
 11
462.3553493372992
 21
1035.378691032012
 31
0.0
100
AcDbText
 73
     3
  0
LEADER
  5
1D5E
330
1F
100
AcDbEntity
  8
実形
100
AcDbLeader
  3
ISO-25
 40
25.0
 41
16.66666666666666
 76
     2
 10
1174.392973714551
 20
1640.526651332777
 30
0.0
 10
1238.696045944547
 20
1691.275799431431
 30
0.0
213
0.0
223
12.5
233
0.0
1001
ACAD
1000
DSTYLE
1002
{
1070
   147
1040
6.25
1070
    77
1070
     0
1070
    41
1040
20.0
1070
   342
1005
DA
1002
}
  0
TEXT
  5
1D5F
330
1F
100
AcDbEntity
  8
実形
100
AcDbText
 10
1208.10513868845
 20
1698.312077717222
 30
0.0
 40
25.0
  1
94R
 72
     2
 11
1274.771805355117
 21
1723.312077717222
 31
0.0
100
AcDbText
 73
     3
  0
LEADER
  5
1D60
330
1F
100
AcDbEntity
  8
実形
100
AcDbLeader
  3
ISO-25
 40
25.0
 41
16.66666666666666
 76
     2
 10
1177.77348569587
 20
1105.100896181531
 30
0.0
 10
1237.32251844339
 20
1060.172784280901
 30
0.0
213
0.0
223
12.5
233
0.0
1001
ACAD
1000
DSTYLE
1002
{
1070
   147
1040
6.25
1070
    77
1070
     0
1070
    41
1040
20.0
1070
   342
1005
DA
1002
}
  0
TEXT
  5
1D61
330
1F
100
AcDbEntity
  8
実形
100
AcDbText
 10
1215.424919303841
 20
1030.309294996285
 30
0.0
 40
25.0
  1
94R
 72
     2
 11
1282.091585970508
 21
1055.309294996285
 31
0.0
100
AcDbText
 73
     3
  0
TEXT
  5
1E5F
330
1F
100
AcDbEntity
  8
0
100
AcDbText
 10
2279.2
 20
151.8
 30
0.0
 40
35.0
  1
Jstn        S-HC
  7
MS明朝
 72
     4
 11
2484.0
 21
166.5
 31
0.0
100
AcDbText
  0
TEXT
  5
1E60
330
1F
100
AcDbEntity
  8
0
100
AcDbText
 10
2405.159319895514
 20
150.2375358068406
 30
0.0
 40
35.0
  1
718-588
  7
MS明朝
 72
     4
 11
2494.759319895515
 21
167.3375358068406
 31
0.0
100
AcDbText
  0
LINE
  5
1E82
330
1F
100
AcDbEntity
  8
実形
100
AcDbLine
 10
119.0
 20
2024.0
 30
0.0
 11
119.0
 21
4.0
 31
0.0
  0
TEXT
  5
1EFE
330
1F
100
AcDbEntity
  8
実形
100
AcDbText
 10
610.9026771054159
 20
1576.585900024116
 30
0.0
 40
25.0
  1
4角×
  7
MS明朝
 72
     2
 11
702.3312485339873
 21
1601.585900024116
 31
0.0
100
AcDbText
 73
     3
  0
LEADER
  5
1F25
330
1F
100
AcDbEntity
  8
実形
100
AcDbLeader
  3
ISO-25
 40
25.0
 41
16.66666666666666
 76
     2
 10
528.392101472189
 20
1608.075268898186
 30
0.0
 10
593.4756098983098
 20
1588.885904945566
 30
0.0
213
0.0
223
12.5
233
0.0
1001
ACAD
1000
DSTYLE
1002
{
1070
   147
1040
6.25
1070
    77
1070
     0
1070
    41
1040
20.0
1070
   342
1005
DA
1002
}
  0
TEXT
  5
1F37
330
1F
100
AcDbEntity
  8
実形
100
AcDbText
 10
708.1515312511149
 20
1576.87996022159
 30
0.0
 40
25.0
  1
59R
 72
     2
 11
774.8181979177815
 21
1601.87996022159
 31
0.0
100
AcDbText
 73
     3
  0
LINE
  5
1F92
330
1F
100
AcDbEntity
  8
補助
100
AcDbLine
 10
2784.0
 20
1959.0
 30
0.0
 11
2019.387286519283
 21
1959.000000000001
 31
0.0
  0
LINE
  5
1F93
330
1F
100
AcDbEntity
  8
補助
100
AcDbLine
 10
2784.0
 20
1894.0
 30
0.0
 11
2019.387286519283
 21
1894.0
 31
0.0
  0
LINE
  5
1F94
330
1F
100
AcDbEntity
  8
補助
100
AcDbLine
 10
2784.0
 20
1829.0
 30
0.0
 11
2019.387286519283
 21
1829.0
 31
0.0
  0
LINE
  5
1F95
330
1F
100
AcDbEntity
  8
補助
100
AcDbLine
 10
2202.547653420927
 20
1829.0
 30
0.0
 11
2202.547653420927
 21
2024.0
 31
0.0
  0
LINE
  5
1F96
330
1F
100
AcDbEntity
  8
補助
100
AcDbLine
 10
2019.387286519283
 20
1829.0
 30
0.0
 11
2019.387286519283
 21
2024.0
 31
0.0
  0
TEXT
  5
1F97
330
1F
100
AcDbEntity
  8
補助
100
AcDbText
 10
2050.295698850121
 20
1976.328571428572
 30
0.0
 40
30.0
  1
部品名
  7
明朝
 72
     4
 11
2116.124270278692
 21
1991.5
 31
0.0
100
AcDbText
  0
TEXT
  5
1F98
330
1F
100
AcDbEntity
  8
補助
100
AcDbText
 10
2627.614285714286
 20
1976.071428571429
 30
0.0
 40
30.0
  1
厚さ
  7
明朝
 72
     4
 11
2671.5
 21
1991.5
 31
0.0
100
AcDbText
  0
LINE
  5
1F99
330
1F
100
AcDbEntity
  8
補助
100
AcDbLine
 10
2559.0
 20
1829.0
 30
0.0
 11
2559.0
 21
2024.0
 31
0.0
  0
TEXT
  5
1F9A
330
1F
100
AcDbEntity
  8
補助
100
AcDbText
 10
2338.490869919937
 20
1975.947979478155
 30
0.0
 40
30.0
  1
材質
  7
明朝
 72
     4
 11
2382.376584205651
 21
1991.119408049583
 31
0.0
100
AcDbText
  0
TEXT
  5
1F9B
330
1F
100
AcDbEntity
  8
実形
100
AcDbText
 10
2048.227810657788
 20
1910.557142857143
 30
0.0
 40
30.0
  1
ボウル
  7
明朝
 72
     4
 11
2114.056382086359
 21
1926.5
 31
0.0
100
AcDbText
  0
TEXT
  5
1F9C
330
1F
100
AcDbEntity
  8
実形
100
AcDbText
 10
2594.700000000001
 20
1911.842857142857
 30
0.0
 40
30.0
  1
0.8ｍｍ
  7
明朝
 72
     4
 11
2671.500000000001
 21
1926.5
 31
0.0
100
AcDbText
  0
TEXT
  5
1F9D
330
1F
100
AcDbEntity
  8
実形
100
AcDbText
 10
2239.074011965008
 20
1910.728571428572
 30
0.0
 40
30.0
  1
SUS304（No.4）
  7
明朝
 72
     4
 11
2392.674011965008
 21
1926.5
 31
0.0
100
AcDbText
  0
TEXT
  5
1F9E
330
1F
100
AcDbEntity
  8
実形
100
AcDbText
 10
2070.170667800645
 20
1846.242857142857
 30
0.0
 40
30.0
  1
天板
  7
明朝
 72
     4
 11
2114.056382086359
 21
1861.5
 31
0.0
100
AcDbText
  0
TEXT
  5
1F9F
330
1F
100
AcDbEntity
  8
実形
100
AcDbText
 10
2219.734774251222
 20
1848.285714285714
 30
0.0
 40
25.0
  1
アクリル人工大理石
  7
明朝
 72
     4
 11
2384.306202822651
 21
1861.5
 31
0.0
100
AcDbText
  0
TEXT
  5
1FA0
330
1F
100
AcDbEntity
  8
実形
100
AcDbText
 10
2605.67142857143
 20
1846.842857142857
 30
0.0
 40
30.0
  1
18ｍｍ
  7
明朝
 72
     4
 11
2671.500000000001
 21
1861.5
 31
0.0
100
AcDbText
  0
LINE
  5
1FA1
330
1F
100
AcDbEntity
  8
実形
100
AcDbLine
 10
468.5297166899736
 20
790.0612300917893
 30
0.0
 11
468.5297166899736
 21
775.0612300917894
 31
0.0
  0
LINE
  5
1FA2
330
1F
100
AcDbEntity
  8
実形
100
AcDbLine
 10
1186.529716689973
 20
790.0612300917893
 30
0.0
 11
1186.529716689973
 21
775.0612300917895
 31
0.0
  0
LINE
  5
23EE
330
1F
100
AcDbEntity
  8
実形
100
AcDbLine
 10
2415.50327858681
 20
693.4388787035102
 30
0.0
 11
2025.503278586809
 21
693.4388787035102
 31
0.0
  0
LINE
  5
23EF
330
1F
100
AcDbEntity
  8
実形
100
AcDbLine
 10
2228.303278586809
 20
594.6388787035102
 30
0.0
 11
1947.503278586809
 21
594.6388787035102
 31
0.0
  0
ARC
  5
23F0
330
1F
100
AcDbEntity
  8
実形
100
AcDbCircle
 10
2025.503278586809
 20
615.4388787035102
 30
0.0
 40
78.0
100
AcDbArc
 50
90.0
 51
180.0
  0
ARC
  5
23F1
330
1F
100
AcDbEntity
  8
実形
100
AcDbCircle
 10
2415.50327858681
 20
615.4388787035102
 30
0.0
 40
78.0
100
AcDbArc
 50
0.0
 51
90.0
  0
LINE
  5
23F2
330
1F
100
AcDbEntity
  8
実形
100
AcDbLine
 10
2493.503278586809
 20
553.0388787035102
 30
0.0
 11
2228.303278586809
 21
553.0388787035102
 31
0.0
  0
LINE
  5
23F3
330
1F
100
AcDbEntity
  8
実形
100
AcDbLine
 10
2150.303278586809
 20
553.0388787035102
 30
0.0
 11
2025.503278586809
 21
553.0388787035102
 31
0.0
  0
LINE
  5
23F4
330
1F
100
AcDbEntity
  8
実形
100
AcDbLine
 10
2197.103278586809
 20
553.0388787035102
 30
0.0
 11
1978.703278586809
 21
553.0388787035102
 31
0.0
  0
LINE
  5
23F5
330
1F
100
AcDbEntity
  8
実形
100
AcDbLine
 10
2493.503278586809
 20
412.6388787035102
 30
0.0
 11
2258.374896199489
 21
412.6388787035102
 31
0.0
  0
LINE
  5
23F6
330
1F
100
AcDbEntity
  8
実形
100
AcDbLine
 10
2150.303278586809
 20
412.6388787035102
 30
0.0
 11
2025.503278586809
 21
412.6388787035102
 31
0.0
  0
LINE
  5
23F7
330
1F
100
AcDbEntity
  8
実形
100
AcDbLine
 10
1947.503278586809
 20
615.4388787035102
 30
0.0
 11
1947.503278586809
 21
594.6388787035102
 31
0.0
  0
LINE
  5
23F8
330
1F
100
AcDbEntity
  8
実形
100
AcDbLine
 10
1963.103278586809
 20
568.6388787035093
 30
0.0
 11
2197.103278586809
 21
568.6388787035093
 31
0.0
  0
LINE
  5
23F9
330
1F
100
AcDbEntity
  8
実形
100
AcDbLine
 10
2228.303278586809
 20
594.6388787035102
 30
0.0
 11
2228.303278586809
 21
553.0388787035102
 31
0.0
  0
LINE
  5
23FA
330
1F
100
AcDbEntity
  8
実形
100
AcDbLine
 10
2150.303278586809
 20
553.0388787035102
 30
0.0
 11
2025.503278586809
 21
553.0388787035102
 31
0.0
  0
LINE
  5
23FB
330
1F
100
AcDbEntity
  8
実形
100
AcDbLine
 10
2493.503278586809
 20
615.4388787035102
 30
0.0
 11
2493.503278586809
 21
412.6388787035102
 31
0.0
  0
LINE
  5
23FC
330
1F
100
AcDbEntity
  8
実形
100
AcDbLine
 10
2025.503278586809
 20
553.0388787035102
 30
0.0
 11
2025.503278586809
 21
412.6388787035112
 31
0.0
  0
LINE
  5
23FD
330
1F
100
AcDbEntity
  8
実形
100
AcDbLine
 10
1963.103278586809
 20
568.6388787035093
 30
0.0
 11
1963.10327858681
 21
365.8528662055801
 31
0.0
  0
LINE
  5
23FE
330
1F
100
AcDbEntity
  8
実形
100
AcDbLine
 10
1978.703278586809
 20
553.0388787035102
 30
0.0
 11
1978.703278586809
 21
365.8528662055802
 31
0.0
  0
ARC
  5
23FF
330
1F
100
AcDbEntity
  8
実形
100
AcDbCircle
 10
2189.303278586809
 20
553.0388787035102
 30
0.0
 40
39.0
100
AcDbArc
 50
180.0
 51
0.0
  0
DIMENSION
  5
2401
330
1F
100
AcDbEntity
  8
実形
100
AcDbDimension
  2
*D25
 10
1947.50327858681
 20
476.4445371024394
 30
0.0
 11
1927.154852797523
 21
500.9356801950445
 31
0.0
 70
   160
  1
1
 71
     5
 42
15.59999999999991
  3
ISO-25
100
AcDbAlignedDimension
 13
1963.10327858681
 23
568.6388787035094
 33
0.0
 14
1947.50327858681
 24
542.8471552806367
 34
0.0
 50
180.0
100
AcDbRotatedDimension
1001
ACAD
1000
DSTYLE
1002
{
1070
   282
1070
     1
1070
   281
1070
     1
1070
    41
1040
5.0
1070
    42
1040
6.0
1070
   140
1040
25.0
1070
   147
1040
1.199999999999999
1070
   279
1070
     2
1070
   289
1070
     2
1070
   371
1070
    13
1070
   372
1070
    13
1002
}
  0
TEXT
  5
2402
330
1F
100
AcDbEntity
  8
実形
  6
HIDDEN2
100
AcDbText
 10
1968.066600121111
 20
472.2750337594243
 30
0.0
 40
10.14
  1
● 
 71
     2
100
AcDbText
  0
TEXT
  5
2403
330
1F
100
AcDbEntity
  8
実形
  6
HIDDEN2
100
AcDbText
 10
1951.836239646571
 20
471.8412446318379
 30
0.0
 40
10.14
  1
● 
 71
     2
100
AcDbText
  0
LINE
  5
2404
330
1F
100
AcDbEntity
  8
実形
100
AcDbLine
 10
1963.51457456288
 20
476.7671083971321
 30
0.0
 11
1947.829667527175
 21
476.7671083971321
 31
0.0
  0
LINE
  5
2405
330
1F
100
AcDbEntity
  8
実形
100
AcDbLine
 10
2258.374896199489
 20
412.6388787035102
 30
0.0
 11
2228.303278586809
 21
412.6388787035102
 31
0.0
  0
ARC
  5
2406
330
1F
100
AcDbEntity
  8
実形
100
AcDbCircle
 10
2189.303278586809
 20
412.6388787035102
 30
0.0
 40
39.0
100
AcDbArc
 50
0.0
 51
180.0
  0
LINE
  5
2407
330
1F
100
AcDbEntity
  8
実形
100
AcDbLine
 10
2150.303278586809
 20
466.6963647750328
 30
0.0
 11
2150.303278586809
 21
448.7942378414921
 31
0.0
  0
LINE
  5
2408
330
1F
100
AcDbEntity
  8
実形
100
AcDbLine
 10
2228.303278586809
 20
466.6963647750328
 30
0.0
 11
2228.303278586809
 21
448.8418713489303
 31
0.0
  0
TEXT
  5
2409
330
1F
100
AcDbEntity
  8
実形
100
AcDbText
 10
1715.791659422994
 20
349.0878889580135
 30
0.0
 40
30.0
  1
0.8mm
 11
1715.791659422994
 21
339.0878889580136
 31
0.0
100
AcDbText
 73
     1
  0
DIMENSION
  5
240A
330
1F
100
AcDbEntity
  8
実形
100
AcDbDimension
  2
*D26
 10
2603.281879703351
 20
553.0388787035104
 30
0.0
 11
2584.531879703351
 21
623.2388787035107
 31
0.0
 70
    32
  1
9
 71
     5
 42
140.3999999999998
  3
ISO-25
100
AcDbAlignedDimension
 13
2467.669934078618
 23
693.4388787035102
 33
0.0
 14
2467.669934078618
 24
553.0388787035104
 34
0.0
 50
90.0
100
AcDbRotatedDimension
1001
ACAD
1000
DSTYLE
1002
{
1070
   279
1070
     2
1070
   371
1070
    18
1070
   372
1070
    18
1002
}
  0
DIMENSION
  5
240B
330
1F
100
AcDbEntity
  8
実形
100
AcDbDimension
  2
*D27
 10
2603.281879703351
 20
412.6388787035103
 30
0.0
 11
2584.531879703351
 21
482.8388787035107
 31
0.0
 70
    32
  1
9
 71
     5
 42
140.4
  3
ISO-25
100
AcDbAlignedDimension
 13
2467.669934078618
 23
553.0388787035104
 33
0.0
 14
2467.669934078618
 24
412.6388787035103
 34
0.0
 50
90.0
100
AcDbRotatedDimension
1001
ACAD
1000
DSTYLE
1002
{
1070
   279
1070
     2
1070
   371
1070
    18
1070
   372
1070
    18
1002
}
  0
DIMENSION
  5
240C
330
1F
100
AcDbEntity
  8
実形
100
AcDbDimension
  2
*D28
 10
2670.139520579067
 20
412.6388787035103
 30
0.0
 11
2651.389520579066
 21
553.0388787035108
 31
0.0
 70
    32
  1
18
 71
     5
 42
280.8
  3
ISO-25
100
AcDbAlignedDimension
 13
2467.669934078618
 23
693.4388787035103
 33
0.0
 14
2467.669934078618
 24
412.6388787035103
 34
0.0
 50
90.0
100
AcDbRotatedDimension
1001
ACAD
1000
DSTYLE
1002
{
1070
   279
1070
     2
1070
   371
1070
    18
1070
   372
1070
    18
1002
}
  0
TEXT
  5
240D
330
1F
100
AcDbEntity
  8
実形
100
AcDbText
 10
1841.441352076292
 20
740.0677665981911
 30
0.0
 40
29.25
  1
5R
 11
1841.441352076292
 21
730.3177665981912
 31
0.0
100
AcDbText
 73
     1
  0
DIMENSION
  5
240E
330
1F
100
AcDbEntity
  8
実形
100
AcDbDimension
  2
*D29
 10
2197.103278586809
 20
626.499025413821
 30
0.0
 11
2080.103278586809
 21
645.249025413821
 31
0.0
 70
    32
  1
15
 71
     5
 42
234.0
  3
ISO-25
100
AcDbAlignedDimension
 13
1963.103278586809
 23
536.2515538480251
 33
0.0
 14
2197.103278586809
 24
536.2515538480251
 34
0.0
100
AcDbRotatedDimension
1001
ACAD
1000
DSTYLE
1002
{
1070
   279
1070
     2
1070
   371
1070
    18
1070
   372
1070
    18
1002
}
  0
LEADER
  5
240F
330
1F
100
AcDbEntity
  8
実形
100
AcDbLeader
  3
ISO-25
 76
     2
 10
1952.999988120199
 20
668.1222954033009
 30
0.0
 10
1878.627564090926
 20
721.824866514151
 30
0.0
1001
ACAD
1000
DSTYLE
1002
{
1070
   147
1040
6.25
1070
    77
1070
     0
1070
   279
1070
     2
1070
   371
1070
    18
1070
   372
1070
    18
1002
}
  0
LINE
  5
2410
330
1F
100
AcDbEntity
  8
実形
100
AcDbLine
 10
2197.103278586809
 20
568.6388787035093
 30
0.0
 11
2197.103278586809
 21
553.0388787035102
 31
0.0
  0
DIMENSION
  5
2411
330
1F
100
AcDbEntity
  8
実形
100
AcDbDimension
  2
*D30
 10
2101.036883161905
 20
553.0388787035104
 30
0.0
 11
2069.564297767181
 21
524.3493911207361
 31
0.0
 70
   160
  1
2.5
 71
     5
 42
39.0
  3
ISO-25
100
AcDbAlignedDimension
 13
2229.883963240635
 23
514.0388787035103
 33
0.0
 14
2153.536592650147
 24
553.0388787035104
 34
0.0
 50
90.0
100
AcDbRotatedDimension
1001
ACAD
1000
DSTYLE
1002
{
1070
   140
1040
23.0
1070
   279
1070
     2
1070
   371
1070
    18
1070
   372
1070
    18
1002
}
  0
DIMENSION
  5
2412
330
1F
100
AcDbEntity
  8
実形
100
AcDbDimension
  2
*D31
 10
2228.303278586809
 20
461.4323905324424
 30
0.0
 11
2189.303278586809
 21
480.1823905324424
 31
0.0
 70
    32
  1
5
 71
     5
 42
78.0
  3
ISO-25
100
AcDbAlignedDimension
 13
2150.30327858681
 23
522.3587244814916
 33
0.0
 14
2228.303278586809
 24
522.3587244814916
 34
0.0
100
AcDbRotatedDimension
1001
ACAD
1000
DSTYLE
1002
{
1070
   279
1070
     2
1070
   371
1070
    18
1070
   372
1070
    18
1002
}
  0
LINE
  5
2413
330
1F
100
AcDbEntity
  8
実形
100
AcDbLine
 10
2150.303278586809
 20
461.4323905324425
 30
0.0
 11
2150.303278586809
 21
504.0521172560442
 31
0.0
  0
LINE
  5
2414
330
1F
100
AcDbEntity
  8
実形
100
AcDbLine
 10
2228.303278586809
 20
461.4323905324425
 30
0.0
 11
2228.303278586809
 21
502.8545106432656
 31
0.0
  0
DIMENSION
  5
2415
330
1F
100
AcDbEntity
  8
実形
100
AcDbDimension
  2
*D32
 10
2102.975332119596
 20
412.6388787035103
 30
0.0
 11
2070.355870815655
 21
441.0024837871193
 31
0.0
 70
   160
  1
2.5
 71
     5
 42
38.99999999999995
  3
ISO-25
100
AcDbAlignedDimension
 13
2203.595588728236
 23
451.6388787035102
 33
0.0
 14
2215.882092629512
 24
412.6388787035102
 34
0.0
 50
90.0
100
AcDbRotatedDimension
1001
ACAD
1000
DSTYLE
1002
{
1070
   140
1040
23.0
1070
   279
1070
     2
1070
   371
1070
    18
1070
   372
1070
    18
1002
}
  0
DIMENSION
  5
2416
330
1F
100
AcDbEntity
  8
実形
100
AcDbDimension
  2
*D33
 10
2228.303278586809
 20
743.3028714699867
 30
0.0
 11
2087.903278586809
 21
762.0528714699867
 31
0.0
 70
    32
  1
18
 71
     5
 42
280.7999999999997
  3
ISO-25
100
AcDbAlignedDimension
 13
1947.50327858681
 23
640.5397997195641
 33
0.0
 14
2228.303278586809
 24
640.5397997195641
 34
0.0
100
AcDbRotatedDimension
1001
ACAD
1000
DSTYLE
1002
{
1070
   279
1070
     2
1070
   371
1070
    18
1070
   372
1070
    18
1002
}
  0
DIMENSION
  5
2417
330
1F
100
AcDbEntity
  8
実形
100
AcDbDimension
  2
*D34
 10
2493.503278586809
 20
743.3028714699867
 30
0.0
 11
2360.90327858681
 21
762.0528714699867
 31
0.0
 70
    32
  1
17
 71
     5
 42
265.1999999999998
  3
ISO-25
100
AcDbAlignedDimension
 13
2228.303278586809
 23
640.5397997195629
 33
0.0
 14
2493.503278586809
 24
640.5397997195629
 34
0.0
100
AcDbRotatedDimension
1001
ACAD
1000
DSTYLE
1002
{
1070
   279
1070
     2
1070
   371
1070
    18
1070
   372
1070
    18
1002
}
  0
DIMENSION
  5
2418
330
1F
100
AcDbEntity
  8
実形
100
AcDbDimension
  2
*D35
 10
2493.503278586809
 20
786.8108100678382
 30
0.0
 11
2220.50327858681
 21
805.5608100678382
 31
0.0
 70
    32
  1
35
 71
     5
 42
545.9999999999995
  3
ISO-25
100
AcDbAlignedDimension
 13
1947.50327858681
 23
640.5397997195629
 33
0.0
 14
2493.503278586809
 24
640.5397997195629
 34
0.0
100
AcDbRotatedDimension
1001
ACAD
1000
DSTYLE
1002
{
1070
   279
1070
     2
1070
   371
1070
    18
1070
   372
1070
    18
1002
}
  0
TEXT
  5
2419
330
1F
100
AcDbEntity
  8
実形
100
AcDbText
 10
2550.529317622146
 20
743.082863747579
 30
0.0
 40
29.25
  1
5R
 11
2550.529317622146
 21
733.332863747579
 31
0.0
100
AcDbText
 73
     1
  0
LEADER
  5
241A
330
1F
100
AcDbEntity
  8
実形
100
AcDbLeader
  3
ISO-25
 76
     2
 10
2483.051372681067
 20
671.1373925526888
 30
0.0
 10
2567.167011323674
 20
730.8335781775614
 30
0.0
1001
ACAD
1000
DSTYLE
1002
{
1070
   147
1040
6.25
1070
    77
1070
     0
1070
   279
1070
     2
1070
   371
1070
    18
1070
   372
1070
    18
1002
}
  0
DIMENSION
  5
241B
330
1F
100
AcDbEntity
  8
実形
100
AcDbDimension
  2
*D36
 10
2025.503278586809
 20
306.8527456354114
 30
0.0
 11
1925.472691921497
 21
342.2580203758225
 31
0.0
 70
   160
  1
3.2
 71
     5
 42
46.80000000000018
  3
ISO-25
100
AcDbAlignedDimension
 13
1978.703278586809
 23
420.8916371725106
 33
0.0
 14
2025.503278586809
 24
420.8916371725106
 34
0.0
100
AcDbRotatedDimension
1001
ACAD
1000
DSTYLE
1002
{
1070
   140
1040
25.0
1070
   279
1070
     2
1070
   371
1070
    18
1070
   372
1070
    18
1002
}
  0
DIMENSION
  5
241C
330
1F
100
AcDbEntity
  8
実形
100
AcDbDimension
  2
*D37
 10
2150.30327858681
 20
306.8527456354114
 30
0.0
 11
2087.903278586809
 21
325.6027456354114
 31
0.0
 70
    32
  1
8
 71
     5
 42
124.8000000000001
  3
ISO-25
100
AcDbAlignedDimension
 13
2025.503278586809
 23
420.8916371725106
 33
0.0
 14
2150.30327858681
 24
420.8916371725106
 34
0.0
100
AcDbRotatedDimension
1001
ACAD
1000
DSTYLE
1002
{
1070
   279
1070
     2
1070
   371
1070
    18
1070
   372
1070
    18
1002
}
  0
DIMENSION
  5
241D
330
1F
100
AcDbEntity
  8
実形
100
AcDbDimension
  2
*D38
 10
2228.303278586809
 20
306.8527456354114
 30
0.0
 11
2189.303278586809
 21
325.6027456354114
 31
0.0
 70
    32
  1
5
 71
     5
 42
78.0
  3
ISO-25
100
AcDbAlignedDimension
 13
2150.30327858681
 23
420.8916371725106
 33
0.0
 14
2228.303278586809
 24
420.8916371725106
 34
0.0
100
AcDbRotatedDimension
1001
ACAD
1000
DSTYLE
1002
{
1070
   279
1070
     2
1070
   371
1070
    18
1070
   372
1070
    18
1002
}
  0
DIMENSION
  5
241E
330
1F
100
AcDbEntity
  8
実形
100
AcDbDimension
  2
*D39
 10
2493.503278586809
 20
306.8527456354114
 30
0.0
 11
2360.90327858681
 21
325.6027456354114
 31
0.0
 70
    32
  1
17
 71
     5
 42
265.1999999999998
  3
ISO-25
100
AcDbAlignedDimension
 13
2228.303278586809
 23
420.8916371725106
 33
0.0
 14
2493.503278586809
 24
420.8916371725106
 34
0.0
100
AcDbRotatedDimension
1001
ACAD
1000
DSTYLE
1002
{
1070
   279
1070
     2
1070
   371
1070
    18
1070
   372
1070
    18
1002
}
  0
DIMENSION
  5
241F
330
1F
100
AcDbEntity
  8
実形
100
AcDbDimension
  2
*D40
 10
2027.2926774559
 20
256.8830082351342
 30
0.0
 11
1988.2926774559
 21
275.6330082351342
 31
0.0
 70
    32
  1
5
 71
     5
 42
77.99999999999954
  3
ISO-25
100
AcDbAlignedDimension
 13
1949.2926774559
 23
372.172337168286
 33
0.0
 14
2027.2926774559
 24
372.172337168286
 34
0.0
100
AcDbRotatedDimension
1001
ACAD
1000
DSTYLE
1002
{
1070
   279
1070
     2
1070
   371
1070
    18
1070
   372
1070
    18
1002
}
  0
DIMENSION
  5
2420
330
1F
100
AcDbEntity
  8
実形
100
AcDbDimension
  2
*D41
 10
2495.2926774559
 20
256.8830082351342
 30
0.0
 11
2261.2926774559
 21
275.6330082351342
 31
0.0
 70
    32
  1
30
 71
     5
 42
468.0
  3
ISO-25
100
AcDbAlignedDimension
 13
2027.2926774559
 23
372.172337168286
 33
0.0
 14
2495.2926774559
 24
372.172337168286
 34
0.0
100
AcDbRotatedDimension
1001
ACAD
1000
DSTYLE
1002
{
1070
   279
1070
     2
1070
   371
1070
    18
1070
   372
1070
    18
1002
}
  0
LINE
  5
2421
330
1F
100
AcDbEntity
  8
実形
100
AcDbLine
 10
1961.413543249463
 20
424.2228321327884
 30
0.0
 11
1877.466057842642
 21
418.333112484727
 31
0.0
  0
LINE
  5
2422
330
1F
100
AcDbEntity
  8
実形
100
AcDbLine
 10
1961.090001334807
 20
424.071573549372
 30
0.0
 11
1928.755285132045
 21
410.3198621170893
 31
0.0
  0
LINE
  5
2423
330
1F
100
AcDbEntity
  8
実形
100
AcDbLine
 10
1960.7417613388
 20
424.9683758092836
 30
0.0
 11
1928.46817187876
 21
431.310465671972
 31
0.0
  0
DIMENSION
  5
2426
330
1F
100
AcDbEntity
  8
実形
100
AcDbDimension
  2
*D42
 10
1842.301515497275
 20
594.6388787035102
 30
0.0
 11
1823.551515497275
 21
644.0388787035106
 31
0.0
 70
    32
  1
6.5
 71
     5
 42
98.80000000000007
  3
ISO-25
100
AcDbAlignedDimension
 13
1969.598314110886
 23
693.4388787035103
 33
0.0
 14
1969.598314110886
 24
594.6388787035102
 34
0.0
 50
90.0
100
AcDbRotatedDimension
1001
ACAD
1000
DSTYLE
1002
{
1070
   279
1070
     2
1070
   371
1070
    18
1070
   372
1070
    18
1002
}
  0
DIMENSION
  5
2427
330
1F
100
AcDbEntity
  8
実形
100
AcDbDimension
  2
*D43
 10
1788.304587942761
 20
568.6388787035095
 30
0.0
 11
1769.554587942761
 21
631.0388787035102
 31
0.0
 70
    32
  1
8.2
 71
     5
 42
124.8000000000008
  3
ISO-25
100
AcDbAlignedDimension
 13
1969.598314110886
 23
693.4388787035103
 33
0.0
 14
1969.598314110886
 24
568.6388787035094
 34
0.0
 50
90.0
100
AcDbRotatedDimension
1001
ACAD
1000
DSTYLE
1002
{
1070
   279
1070
     2
1070
   371
1070
    18
1070
   372
1070
    18
1002
}
  0
DIMENSION
  5
2428
330
1F
100
AcDbEntity
  8
実形
100
AcDbDimension
  2
*D44
 10
1736.658951194005
 20
693.4388787035104
 30
0.0
 11
1717.908951194005
 21
623.2388787035106
 31
0.0
 70
    32
  1
9
 71
     5
 42
140.4000000000001
  3
ISO-25
100
AcDbAlignedDimension
 13
1969.598314110886
 23
553.0388787035102
 33
0.0
 14
1969.598314110886
 24
693.4388787035103
 34
0.0
 50
90.0
100
AcDbRotatedDimension
1001
ACAD
1000
DSTYLE
1002
{
1070
   279
1070
     2
1070
   371
1070
    18
1070
   372
1070
    18
1002
}
  0
LINE
  5
2429
330
1F
100
AcDbEntity
  8
実形
100
AcDbLine
 10
1842.301515497275
 20
568.8249711103763
 30
0.0
 11
1842.301515497275
 21
553.0388787035102
 31
0.0
  0
TEXT
  5
242A
330
1F
100
AcDbEntity
  8
実形
  6
HIDDEN2
100
AcDbText
 10
1847.029365152411
 20
563.502573238773
 30
0.0
 40
10.14
  1
● 
 71
     2
100
AcDbText
  0
TEXT
  5
242B
330
1F
100
AcDbEntity
  8
実形
  6
HIDDEN2
100
AcDbText
 10
1847.029365152411
 20
548.3492286230903
 30
0.0
 40
10.14
  1
● 
 71
     2
100
AcDbText
  0
TEXT
  5
242C
330
1F
100
AcDbEntity
  8
実形
100
AcDbText
 10
1830.626243456453
 20
487.9282153131335
 30
0.0
 40
29.25
  1
0.8
 50
90.0
 11
1840.376243456454
 21
487.9282153131335
 31
0.0
100
AcDbText
 73
     1
  0
ARC
  5
242D
330
1F
100
AcDbEntity
  8
実形
100
AcDbCircle
 10
1968.018793120222
 20
303.3794247347767
 30
0.0
 40
37.21807911390647
100
AcDbArc
 50
10.88380498132619
 51
99.73672806232286
  0
ARC
  5
242E
330
1F
100
AcDbEntity
  8
実形
100
AcDbCircle
 10
1973.401727286072
 20
295.6664501765973
 30
0.0
 40
34.71092069179851
100
AcDbArc
 50
27.82370983298791
 51
64.29661093933541
  0
ARC
  5
242F
330
1F
100
AcDbEntity
  8
実形
100
AcDbCircle
 10
1968.006055478794
 20
313.4454617691626
 30
0.0
 40
36.96117099445193
100
AcDbArc
 50
355.5051092068189
 51
31.89192001426014
  0
TEXT
  5
25F2
330
1F
100
AcDbEntity
  8
実形
100
AcDbText
 10
1750.867724418273
 20
828.0434015440222
 30
0.0
 40
38.0
  1
A-A´断面詳細図
  7
明朝
 72
     4
 11
1959.324867275415
 21
847.8034015440224
 31
0.0
100
AcDbText
  0
TEXT
  5
25FB
330
1F
100
AcDbEntity
  8
実形
100
AcDbText
 10
1702.313523274524
 20
415.2595626418462
 30
0.0
 40
30.0
  1
シンク厚
  7
明朝
 72
     4
 11
1790.084951845952
 21
430.3452769275605
 31
0.0
100
AcDbText
  0
LINE
  5
25FD
330
1F
100
AcDbEntity
  8
実形
100
AcDbLine
 10
468.5297166899736
 20
775.0612300917895
 30
0.0
 11
1186.529716689973
 21
775.0612300917894
 31
0.0
  0
DIMENSION
  5
2651
330
1F
100
AcDbEntity
  8
実形
100
AcDbDimension
  2
*D45
 10
352.8078886316782
 20
775.0612300917895
 30
0.0
 11
272.6058079643246
 21
844.6077094368485
 31
0.0
 70
   160
 71
     5
 42
18.0
  3
ISO-25
100
AcDbAlignedDimension
 13
495.8076667403932
 23
793.0612300917895
 33
0.0
 14
496.786444381569
 24
775.0612300917895
 34
0.0
 50
90.0
100
AcDbRotatedDimension
1001
ACAD
1000
DSTYLE
1002
{
1070
   140
1040
25.0
1070
   279
1070
     2
1070
   371
1070
    18
1070
   372
1070
    18
1002
}
  0
DIMENSION
  5
2652
330
1F
100
AcDbEntity
  8
実形
100
AcDbDimension
  2
*D46
 10
352.8078886316782
 20
769.8612300917895
 30
0.0
 11
275.3806583857042
 21
746.8009476358475
 31
0.0
 70
   160
 71
     5
 42
5.199999999999931
  3
ISO-25
100
AcDbAlignedDimension
 13
496.786444381569
 23
775.0612300917895
 33
0.0
 14
496.786444381569
 24
769.8612300917895
 34
0.0
 50
90.0
100
AcDbRotatedDimension
1001
ACAD
1000
DSTYLE
1002
{
1070
   140
1040
25.0
1070
   279
1070
     2
1070
   371
1070
    18
1070
   372
1070
    18
1002
}
  0
DIMENSION
  5
2653
330
1F
100
AcDbEntity
  8
実形
100
AcDbDimension
  2
*D47
 10
352.8078886316782
 20
594.8612300917894
 30
0.0
 11
326.934062287148
 21
665.6239819760413
 31
0.0
 70
   160
 71
     5
 42
175.0000000000001
  3
ISO-25
100
AcDbAlignedDimension
 13
496.786444381569
 23
769.8612300917895
 33
0.0
 14
441.7199366068218
 24
594.8612300917894
 34
0.0
 50
90.0
100
AcDbRotatedDimension
1001
ACAD
1000
DSTYLE
1002
{
1070
   279
1070
     2
1070
   371
1070
    18
1070
   372
1070
    18
1002
}
  0
DIMENSION
  5
2654
330
1F
100
AcDbEntity
  8
実形
100
AcDbDimension
  2
*D48
 10
242.1859901810369
 20
594.8612300917895
 30
0.0
 11
223.4359901810368
 21
693.9612300917896
 31
0.0
 70
    32
 71
     5
 42
198.2
  3
ISO-25
100
AcDbAlignedDimension
 13
495.8076667403932
 23
793.0612300917895
 33
0.0
 14
441.7199366068218
 24
594.8612300917894
 34
0.0
 50
90.0
100
AcDbRotatedDimension
1001
ACAD
1000
DSTYLE
1002
{
1070
   279
1070
     2
1070
   371
1070
    18
1070
   372
1070
    18
1002
}
  0
DIMENSION
  5
2655
330
1F
100
AcDbEntity
  8
実形
100
AcDbDimension
  2
*D49
 10
352.8078886316782
 20
584.8612300917895
 30
0.0
 11
317.8078886316781
 21
578.5234464275528
 31
0.0
 70
   160
  1
7
 71
     5
 42
10.0
  3
ISO-25
100
AcDbAlignedDimension
 13
497.8798421908016
 23
594.8612300917894
 33
0.0
 14
497.8798421908016
 24
584.8612300917895
 34
0.0
 50
90.0
100
AcDbRotatedDimension
1001
ACAD
1000
DSTYLE
1002
{
1070
   279
1070
     2
1070
   371
1070
    18
1070
   372
1070
    18
1002
}
  0
LINE
  5
2656
330
1F
100
AcDbEntity
  8
実形
100
AcDbLine
 10
350.6049035909985
 20
772.4793198488497
 30
0.0
 11
303.6310361848685
 21
750.5175617407241
 31
0.0
  0
LINE
  5
2657
330
1F
100
AcDbEntity
  8
実形
100
AcDbLine
 10
348.2393183940351
 20
771.8035823321007
 30
0.0
 11
329.9904746025079
 21
767.0733475114121
 31
0.0
  0
LINE
  5
2658
330
1F
100
AcDbEntity
  8
実形
100
AcDbLine
 10
348.5772725828231
 20
771.1278303746622
 30
0.0
 11
335.059599185219
 21
760.9916376572238
 31
0.0
  0
ARC
  5
2659
330
1F
100
AcDbEntity
  8
実形
100
AcDbCircle
 10
395.6505842525666
 20
905.0645680415764
 30
0.0
 40
128.7156019851906
100
AcDbArc
 50
213.3909885014397
 51
249.3522921630743
  0
LINE
  5
265A
330
1F
100
AcDbEntity
  8
実形
100
AcDbLine
 10
350.3006943060338
 20
784.7720210728749
 30
0.0
 11
339.3953411092555
 21
792.4487215156625
 31
0.0
  0
LINE
  5
265B
330
1F
100
AcDbEntity
  8
実形
100
AcDbLine
 10
350.0983001788284
 20
784.6310709542996
 30
0.0
 11
336.2136532073894
 21
788.2134736909867
 31
0.0
  0
LEADER
  5
265C
330
1F
100
AcDbEntity
  8
実形
100
AcDbLeader
  3
ISO-25
 40
25.0
 41
16.66666666666666
 76
     2
 10
463.0697529254905
 20
798.7307739238705
 30
0.0
 10
422.1966609200455
 20
842.4384222055596
 30
0.0
213
0.0
223
12.5
233
0.0
1001
ACAD
1000
DSTYLE
1002
{
1070
   147
1040
6.25
1070
    77
1070
     0
1070
    41
1040
20.0
1070
   342
1005
DA
1002
}
  0
TEXT
  5
265D
330
1F
100
AcDbEntity
  8
実形
100
AcDbText
 10
397.3217228817889
 20
854.8652692312927
 30
0.0
 40
25.0
  1
5R
 72
     2
 11
438.9883895484556
 21
879.8652692312927
 31
0.0
100
AcDbText
 73
     3
  0
LINE
  5
26D9
330
1F
100
AcDbEntity
  8
センター
 48
0.5
370
    15
100
AcDbLine
 10
1141.245360319961
 20
1388.243979448527
 30
0.0
 11
1218.169575392283
 21
1388.243979448527
 31
0.0
  0
TEXT
  5
26DA
330
1F
100
AcDbEntity
  8
実形
370
    -2
100
AcDbText
 10
1104.357053380508
 20
1377.873659632439
 30
0.0
 40
25.0
  1
A
100
AcDbText
  0
TEXT
  5
26DB
330
1F
100
AcDbEntity
  8
実形
370
    -2
100
AcDbText
 10
1225.216973017211
 20
1377.873659632439
 30
0.0
 40
25.0
  1
A
100
AcDbText
  0
LINE
  5
26E6
330
1F
100
AcDbEntity
  8
実形
100
AcDbLine
 10
1241.504563318701
 20
1398.350172951213
 30
0.0
 11
1249.612387321713
 21
1402.403226820197
 31
0.0
  0
LINE
  5
26E7
330
1F
100
AcDbEntity
  8
実形
100
AcDbLine
 10
471.5297166899735
 20
793.0612300917894
 30
0.0
 11
1183.529716689973
 21
793.0612300917894
 31
0.0
  0
LEADER
  5
26F0
330
1F
100
AcDbEntity
  8
実形
100
AcDbLeader
  3
ISO-25
 40
25.0
 41
16.66666666666666
 76
     2
 10
1199.096831829233
 20
798.4693343426006
 30
0.0
 10
1236.48430715278
 20
832.2087458031392
 30
0.0
213
0.0
223
12.5
233
0.0
1001
ACAD
1000
DSTYLE
1002
{
1070
   147
1040
6.25
1070
    77
1070
     0
1070
    41
1040
20.0
1070
   342
1005
DA
1002
}
  0
TEXT
  5
26F1
330
1F
100
AcDbEntity
  8
実形
100
AcDbText
 10
1226.85124924495
 20
839.0082560946593
 30
0.0
 40
25.0
  1
5R
 72
     2
 11
1268.517915911616
 21
864.0082560946593
 31
0.0
100
AcDbText
 73
     3
  0
ARC
  5
26F2
330
1F
100
AcDbEntity
  8
実形
100
AcDbCircle
 10
471.5297166899735
 20
790.0612300917893
 30
0.0
 40
3.0
100
AcDbArc
 50
89.99999999999998
 51
180.0
  0
ARC
  5
26F3
330
1F
100
AcDbEntity
  8
実形
100
AcDbCircle
 10
1183.529716689973
 20
790.0612300917893
 30
0.0
 40
3.0
100
AcDbArc
 50
0.0
 51
90.0
  0
LINE
  5
27AD
330
1F
100
AcDbEntity
  8
実形
100
AcDbLine
 10
1519.679741488939
 20
1111.441711899552
 30
0.0
 11
1521.879741488939
 21
1111.441711899552
 31
0.0
  0
LINE
  5
27AE
330
1F
100
AcDbEntity
  8
実形
100
AcDbLine
 10
1524.879741488939
 20
1114.441711899552
 30
0.0
 11
1524.879741488939
 21
1121.441711899552
 31
0.0
  0
LINE
  5
27AF
330
1F
100
AcDbEntity
  8
実形
100
AcDbLine
 10
1529.879741488939
 20
1126.441711899552
 30
0.0
 11
1665.692803223927
 21
1126.441711899552
 31
0.0
  0
LINE
  5
27B0
330
1F
100
AcDbEntity
  8
実形
100
AcDbLine
 10
1699.879741488939
 20
1315.941711899552
 30
0.0
 11
1699.879741488939
 21
1506.441711899552
 31
0.0
  0
LINE
  5
27B1
330
1F
100
AcDbEntity
  8
実形
100
AcDbLine
 10
1669.879741488939
 20
1536.441711899552
 30
0.0
 11
1529.879741488939
 21
1536.441711899552
 31
0.0
  0
LINE
  5
27B2
330
1F
100
AcDbEntity
  8
実形
100
AcDbLine
 10
1524.87974148894
 20
1541.441711899552
 30
0.0
 11
1524.879741488939
 21
1548.441711899552
 31
0.0
  0
LINE
  5
27B3
330
1F
100
AcDbEntity
  8
実形
100
AcDbLine
 10
1521.879741488939
 20
1551.441711899552
 30
0.0
 11
1519.679741488939
 21
1551.441711899552
 31
0.0
  0
ARC
  5
27BB
330
1F
100
AcDbEntity
  8
実形
100
AcDbCircle
 10
1521.879741488939
 20
1548.441711899552
 30
0.0
 40
3.0
100
AcDbArc
 50
0.0
 51
90.0
  0
ARC
  5
27BC
330
1F
100
AcDbEntity
  8
実形
100
AcDbCircle
 10
1529.879741488939
 20
1121.441711899552
 30
0.0
 40
5.0
100
AcDbArc
 50
90.0
 51
180.0
  0
ARC
  5
27BD
330
1F
100
AcDbEntity
  8
実形
100
AcDbCircle
 10
1529.879741488939
 20
1541.441711899552
 30
0.0
 40
5.0
100
AcDbArc
 50
180.0
 51
270.0
  0
ARC
  5
27BE
330
1F
100
AcDbEntity
  8
実形
100
AcDbCircle
 10
1669.879741488939
 20
1506.441711899552
 30
0.0
 40
30.0
100
AcDbArc
 50
0.0
 51
90.0
  0
LINE
  5
27BF
330
1F
100
AcDbEntity
  8
実形
100
AcDbLine
 10
1699.879741488939
 20
1315.941711899552
 30
0.0
 11
1695.682522973194
 21
1155.656403450316
 31
0.0
  0
ARC
  5
27C0
330
1F
100
AcDbEntity
  8
実形
100
AcDbCircle
 10
1665.692803223927
 20
1156.441711899552
 30
0.0
 40
30.0
100
AcDbArc
 50
270.0
 51
358.4999999999973
  0
ARC
  5
27C2
330
1F
100
AcDbEntity
  8
実形
100
AcDbCircle
 10
1521.879741488939
 20
1114.441711899552
 30
0.0
 40
3.0
100
AcDbArc
 50
270.0
 51
0.0
  0
DIMENSION
  5
27C6
330
1F
100
AcDbEntity
  8
実形
100
AcDbDimension
  2
*D50
 10
1818.451586160327
 20
1306.941711899552
 30
0.0
 11
1818.451586160327
 21
1385.649703856679
 31
0.0
 70
   160
  1
158%%C
 71
     5
 42
159.0
  3
ISO-25
100
AcDbAlignedDimension
 13
1706.879741488939
 23
1465.941711899552
 33
0.0
 14
1706.879741488939
 24
1306.941711899552
 34
0.0
 50
90.0
100
AcDbRotatedDimension
  0
DIMENSION
  5
27C7
330
1F
100
AcDbEntity
  8
実形
100
AcDbDimension
  2
*D51
 10
1646.416002722794
 20
1295.941711899552
 30
0.0
 11
1646.416002722794
 21
1386.441711899553
 31
0.0
 70
   160
  1
181%%C
 71
     5
 42
181.0
  3
ISO-25
100
AcDbAlignedDimension
 13
1754.11912731207
 23
1476.941711899552
 33
0.0
 14
1754.11912731207
 24
1295.941711899552
 34
0.0
 50
90.0
100
AcDbRotatedDimension
  0
LEADER
  5
27C8
330
1F
100
AcDbEntity
  8
実形
100
AcDbLeader
  3
ISO-25
 40
25.0
 41
62.5
 76
     2
 10
1695.207994790556
 20
1525.424545342011
 30
0.0
 10
1751.787018666814
 20
1557.879441001278
 30
0.0
213
0.0
223
-12.5
233
0.0
1001
ACAD
1000
DSTYLE
1002
{
1070
   147
1040
6.25
1070
    77
1070
     0
1070
    41
1040
25.0
1070
   342
1005
DA
1002
}
  0
TEXT
  5
27C9
330
1F
100
AcDbEntity
  8
実形
100
AcDbText
 10
1689.3930086465
 20
1561.832507347843
 30
0.0
 40
25.0
  1
30R
 11
1689.3930086465
 21
1553.49917401451
 31
0.0
100
AcDbText
 73
     1
  0
LEADER
  5
27CA
330
1F
100
AcDbEntity
  8
実形
100
AcDbLeader
  3
ISO-25
 76
     2
 10
1530.015252560082
 20
1122.259331540992
 30
0.0
 10
1564.629539932422
 20
1084.537350352918
 30
0.0
1001
ACAD
1000
DSTYLE
1002
{
1070
   147
1040
6.25
1070
    77
1070
     0
1070
    41
1040
20.0
1070
   342
1005
DA
1002
}
  0
LEADER
  5
27CB
330
1F
100
AcDbEntity
  8
実形
100
AcDbLeader
  3
ISO-25
 76
     2
 10
1521.125835621595
 20
1114.762176423288
 30
0.0
 10
1470.723401820846
 20
1150.724264886417
 30
0.0
1001
ACAD
1000
DSTYLE
1002
{
1070
   147
1040
6.25
1070
    77
1070
     0
1070
    41
1040
20.0
1070
   342
1005
DA
1002
}
  0
LEADER
  5
27CC
330
1F
100
AcDbEntity
  8
実形
100
AcDbLeader
  3
ISO-25
 76
     2
 10
1684.987511456836
 20
1139.712578155594
 30
0.0
 10
1647.332740946324
 20
1175.951930844551
 30
0.0
1001
ACAD
1000
DSTYLE
1002
{
1070
   147
1040
6.25
1070
    77
1070
     0
1070
    41
1040
20.0
1070
   342
1005
DA
1002
}
  0
TEXT
  5
27CD
330
1F
100
AcDbEntity
  8
実形
100
AcDbText
 10
1575.333956838834
 20
1179.002026017992
 30
0.0
 40
25.0
  1
30R
 11
1575.333956838834
 21
1170.668692684659
 31
0.0
100
AcDbText
 73
     1
  0
TEXT
  5
27CE
330
1F
100
AcDbEntity
  8
実形
100
AcDbText
 10
1421.293130916315
 20
1149.191316450642
 30
0.0
 40
25.0
  1
3R
 11
1421.293130916315
 21
1140.857983117309
 31
0.0
100
AcDbText
 73
     1
  0
TEXT
  5
27CF
330
1F
100
AcDbEntity
  8
実形
100
AcDbText
 10
1574.598176397784
 20
1068.049788128531
 30
0.0
 40
25.0
  1
5R
 11
1574.598176397784
 21
1059.716454795198
 31
0.0
100
AcDbText
 73
     1
  0
LINE
  5
27D4
330
1F
100
AcDbEntity
  8
実形
100
AcDbLine
 10
1559.879741488939
 20
1368.941711899552
 30
0.0
 11
1559.87974148894
 21
1368.941711899552
 31
0.0
  0
LINE
  5
27DD
330
1F
100
AcDbEntity
  8
実形
100
AcDbLine
 10
1706.879741488939
 20
1476.941711899552
 30
0.0
 11
1706.879741488939
 21
1295.941711899537
 31
0.0
  0
LINE
  5
27DE
330
1F
100
AcDbEntity
  8
実形
100
AcDbLine
 10
1699.879741488939
 20
1476.941711899552
 30
0.0
 11
1706.879741488939
 21
1476.941711899552
 31
0.0
  0
LINE
  5
27DF
330
1F
100
AcDbEntity
  8
実形
100
AcDbLine
 10
1699.879741488939
 20
1295.941711899535
 30
0.0
 11
1706.87974148894
 21
1295.941711899537
 31
0.0
  0
LINE
  5
28BB
330
1F
100
AcDbEntity
  8
実形
100
AcDbLine
 10
1504.679741488939
 20
1665.441711899552
 30
0.0
 11
1519.679741488939
 21
1665.441711899552
 31
0.0
  0
LINE
  5
28BC
330
1F
100
AcDbEntity
  8
実形
100
AcDbLine
 10
1504.679741488939
 20
1077.441711899552
 30
0.0
 11
1519.679741488939
 21
1077.441711899552
 31
0.0
  0
LINE
  5
28BD
330
1F
100
AcDbEntity
  8
実形
100
AcDbLine
 10
1519.679741488939
 20
1665.441711899552
 30
0.0
 11
1519.679741488939
 21
1077.441711899552
 31
0.0
  0
LINE
  5
28BE
330
1F
100
AcDbEntity
  8
実形
100
AcDbLine
 10
1501.679741488939
 20
1662.441711899552
 30
0.0
 11
1501.679741488939
 21
1080.441711899552
 31
0.0
  0
DIMENSION
  5
28FF
330
1F
100
AcDbEntity
  8
実形
100
AcDbDimension
  2
*D52
 10
1519.679741488939
 20
950.7885836053743
 30
0.0
 11
1470.547858587795
 21
979.4048703067787
 31
0.0
 70
   160
 71
     5
 42
18.0
  3
ISO-25
100
AcDbAlignedDimension
 13
1501.679741488939
 23
1111.595570749573
 33
0.0
 14
1519.679741488939
 24
1111.595570749573
 34
0.0
100
AcDbRotatedDimension
1001
ACAD
1000
DSTYLE
1002
{
1070
   279
1070
     2
1070
   371
1070
    18
1070
   372
1070
    18
1002
}
  0
DIMENSION
  5
2900
330
1F
100
AcDbEntity
  8
実形
100
AcDbDimension
  2
*D53
 10
1699.879741488939
 20
950.7885836053743
 30
0.0
 11
1609.779741488939
 21
969.5385836053743
 31
0.0
 70
    32
 71
     5
 42
180.1999999999998
  3
ISO-25
100
AcDbAlignedDimension
 13
1519.679741488939
 23
1111.595570749573
 33
0.0
 14
1699.879741488939
 24
1111.595570749573
 34
0.0
100
AcDbRotatedDimension
1001
ACAD
1000
DSTYLE
1002
{
1070
   279
1070
     2
1070
   371
1070
    18
1070
   372
1070
    18
1002
}
  0
DIMENSION
  5
2901
330
1F
100
AcDbEntity
  8
実形
100
AcDbDimension
  2
*D54
 10
1709.879741488939
 20
994.497164633371
 30
0.0
 11
1742.340702655632
 21
1017.682568811921
 31
0.0
 70
   160
  1
7
 71
     5
 42
10.0
  3
ISO-25
100
AcDbAlignedDimension
 13
1699.879741488939
 23
1111.595570749573
 33
0.0
 14
1709.879741488939
 24
1111.595570749573
 34
0.0
100
AcDbRotatedDimension
1001
ACAD
1000
DSTYLE
1002
{
1070
   279
1070
     2
1070
   371
1070
    18
1070
   372
1070
    18
1002
}
  0
DIMENSION
  5
2902
330
1F
100
AcDbEntity
  8
実形
100
AcDbDimension
  2
*D55
 10
1699.879741488939
 20
892.0104956551826
 30
0.0
 11
1600.779741488939
 21
910.7604956551826
 31
0.0
 70
    32
 71
     5
 42
198.1999999999998
  3
ISO-25
100
AcDbAlignedDimension
 13
1501.679741488939
 23
1111.595570749573
 33
0.0
 14
1699.879741488939
 24
1111.595570749573
 34
0.0
100
AcDbRotatedDimension
1001
ACAD
1000
DSTYLE
1002
{
1070
   279
1070
     2
1070
   371
1070
    18
1070
   372
1070
    18
1002
}
  0
LEADER
  5
2903
330
1F
100
AcDbEntity
  8
実形
100
AcDbLeader
  3
ISO-25
 40
25.0
 41
16.66666666666666
 76
     2
 10
1493.941401397119
 20
1670.87805354113
 30
0.0
 10
1447.436733519838
 20
1713.232443362714
 30
0.0
213
0.0
223
12.5
233
0.0
1001
ACAD
1000
DSTYLE
1002
{
1070
   147
1040
6.25
1070
    77
1070
     0
1070
    41
1040
20.0
1070
   342
1005
DA
1002
}
  0
TEXT
  5
2904
330
1F
100
AcDbEntity
  8
実形
100
AcDbText
 10
1421.015730907906
 20
1720.764389554767
 30
0.0
 40
25.0
  1
5R
 72
     2
 11
1462.682397574573
 21
1745.764389554767
 31
0.0
100
AcDbText
 73
     3
  0
LEADER
  5
2905
330
1F
100
AcDbEntity
  8
実形
100
AcDbLeader
  3
ISO-25
 40
25.0
 41
16.66666666666666
 76
     2
 10
1493.265219186237
 20
1074.420187730216
 30
0.0
 10
1433.788518003808
 20
1034.784527931367
 30
0.0
213
0.0
223
12.5
233
0.0
1001
ACAD
1000
DSTYLE
1002
{
1070
   147
1040
6.25
1070
    77
1070
     0
1070
    41
1040
20.0
1070
   342
1005
DA
1002
}
  0
TEXT
  5
2906
330
1F
100
AcDbEntity
  8
実形
100
AcDbText
 10
1402.398040901308
 20
1002.096560007147
 30
0.0
 40
25.0
  1
5R
 72
     2
 11
1444.064707567975
 21
1027.096560007147
 31
0.0
100
AcDbText
 73
     3
  0
ARC
  5
295F
330
1F
100
AcDbEntity
  8
実形
100
AcDbCircle
 10
1504.679741488939
 20
1080.441711899552
 30
0.0
 40
3.0
100
AcDbArc
 50
180.0
 51
270.0
  0
ARC
  5
2960
330
1F
100
AcDbEntity
  8
実形
100
AcDbCircle
 10
1504.679741488939
 20
1662.441711899552
 30
0.0
 40
3.0
100
AcDbArc
 50
90.0
 51
180.0
  0
VIEWPORT
  5
2E
102
{ACAD_XDICTIONARY
360
2A4B
102
}
330
1B
100
AcDbEntity
 67
     1
  8
0
100
AcDbViewport
 10
144.7270812988281
 20
101.2295806407928
 30
0.0
 40
411.6736216682419
 41
222.1517806396485
 68
     1
 69
     1
 12
144.7270812988281
 22
101.2295806407928
 13
0.0
 23
0.0
 14
10.0
 24
10.0
 15
10.0
 25
10.0
 16
0.0
 26
0.0
 36
1.0
 17
0.0
 27
0.0
 37
0.0
 42
50.0
 43
0.0
 44
0.0
 45
222.1517806396485
 50
0.0
 51
0.0
 72
   100
 90
    32800
  1

281
     0
 71
     1
 74
     0
110
0.0
120
0.0
130
0.0
111
1.0
121
0.0
131
0.0
112
0.0
122
1.0
132
0.0
 79
     0
146
0.0
  0
VIEWPORT
  5
30
102
{ACAD_XDICTIONARY
360
2A4D
102
}
330
1B
100
AcDbEntity
 67
     1
  8
0
100
AcDbViewport
 10
139.2237563133239
 20
101.2295821905136
 30
0.0
 40
222.7580101013184
 41
161.9673315048218
 68
     2
 69
     2
 12
210.0
 22
148.5
 13
0.0
 23
0.0
 14
10.0
 24
10.0
 15
10.0
 25
10.0
 16
0.0
 26
0.0
 36
1.0
 17
0.0
 27
0.0
 37
0.0
 42
50.0
 43
0.0
 44
0.0
 45
309.0686705647124
 50
0.0
 51
0.0
 72
   100
 90
    32864
  1

281
     0
 71
     1
 74
     0
110
0.0
120
0.0
130
0.0
111
1.0
121
0.0
131
0.0
112
0.0
122
1.0
132
0.0
 79
     0
146
0.0
  0
ENDSEC
  0
SECTION
  2
OBJECTS
  0
DICTIONARY
  5
C
330
0
100
AcDbDictionary
281
     1
  3
ACAD_COLOR
350
1247
  3
ACAD_GROUP
350
D
  3
ACAD_LAYOUT
350
1A
  3
ACAD_MATERIAL
350
1246
  3
ACAD_MLINESTYLE
350
17
  3
ACAD_PLOTSETTINGS
350
19
  3
ACAD_PLOTSTYLENAME
350
E
  3
ACAD_TABLESTYLE
350
1248
  3
AcadDim
350
CBC
  3
ACDBHEADERROUNDTRIPXREC
350
2A44
  3
AcDbVariableDictionary
350
EFD
  0
DICTIONARY
  5
1359
330
2
100
AcDbDictionary
280
     1
281
     1
  3
ACAD_LAYERFILTERS
360
135B
  3
ACAD_LAYERSTATES
360
171A
  3
ACLYDICTIONARY
360
135A
  0
DICTIONARY
  5
126E
330
1F
100
AcDbDictionary
280
     1
281
     1
  3
ACAD_SORTENTS
360
126F
  0
DICTIONARY
  5
17D2
330
17D0
100
AcDbDictionary
280
     1
281
     1
  3
ACAD_SORTENTS
360
17D3
  0
DICTIONARY
  5
2A22
330
2A14
100
AcDbDictionary
280
     1
281
     1
  3
ACAD_SORTENTS
360
2A23
  0
DICTIONARY
  5
2A4B
330
2E
100
AcDbDictionary
280
     1
281
     1
  3
ACAD_XREC_ROUNDTRIP
360
2A4C
  0
DICTIONARY
  5
2A4D
330
30
100
AcDbDictionary
280
     1
281
     1
  3
ACAD_XREC_ROUNDTRIP
360
2A4E
  0
DICTIONARY
  5
1247
102
{ACAD_REACTORS
330
C
102
}
330
C
100
AcDbDictionary
281
     1
  0
DICTIONARY
  5
D
102
{ACAD_REACTORS
330
C
102
}
330
C
100
AcDbDictionary
281
     1
  0
DICTIONARY
  5
1A
102
{ACAD_REACTORS
330
C
102
}
330
C
100
AcDbDictionary
281
     1
  3
Model
350
22
  3
ﾚｲｱｳﾄ1
350
1E
  3
ﾚｲｱｳﾄ2
350
26
  0
DICTIONARY
  5
1246
102
{ACAD_REACTORS
330
C
102
}
330
C
100
AcDbDictionary
281
     1
  0
DICTIONARY
  5
17
102
{ACAD_REACTORS
330
C
102
}
330
C
100
AcDbDictionary
281
     1
  3
Standard
350
18
  0
DICTIONARY
  5
19
102
{ACAD_REACTORS
330
C
102
}
330
C
100
AcDbDictionary
281
     1
  0
ACDBDICTIONARYWDFLT
  5
E
102
{ACAD_REACTORS
330
C
102
}
330
C
100
AcDbDictionary
281
     1
  3
Normal
350
F
100
AcDbDictionaryWithDefault
340
F
  0
DICTIONARY
  5
1248
102
{ACAD_REACTORS
330
C
102
}
330
C
100
AcDbDictionary
281
     1
  3
Standard
350
1249
  0
XRECORD
  5
CBC
102
{ACAD_REACTORS
330
C
102
}
330
C
100
AcDbXrecord
280
     1
 90
   990106
  3

 60
     0
 61
     0
 62
     1
 63
     3
 64
     0
 65
     0
 66
     0
 67
     3
 68
     1
 69
     0
 70
     0
 71
     0
 72
     0
 40
30.0
170
     0
  0
DICTIONARY
  5
2A44
102
{ACAD_REACTORS
330
C
102
}
330
C
100
AcDbDictionary
281
     1
  0
DICTIONARY
  5
EFD
102
{ACAD_REACTORS
330
C
102
}
330
C
100
AcDbDictionary
281
     1
  3
CTABLESTYLE
350
124F
  3
DIMASSOC
350
2A41
  3
PROJECTNAME
350
2A42
  3
SORTENTS
350
EFE
  0
DICTIONARY
  5
135B
102
{ACAD_REACTORS
330
1359
102
}
330
1359
100
AcDbDictionary
281
     1
  0
DICTIONARY
  5
171A
102
{ACAD_REACTORS
330
1359
102
}
330
1359
100
AcDbDictionary
281
     1
  0
DICTIONARY
  5
135A
102
{ACAD_REACTORS
330
1359
102
}
330
1359
100
AcDbDictionary
281
     1
1001
ACAD
1000
<All
  0
SORTENTSTABLE
  5
126F
102
{ACAD_REACTORS
330
126E
102
}
330
126E
100
AcDbSortentsTable
330
1F
331
1D01
  5
1D5E
331
1B03
  5
2F2
331
A5
  5
2DD
331
2651
  5
2654
331
27BE
  5
27BE
331
28BD
  5
27C2
331
2659
  5
265C
331
27C6
  5
27C9
331
4C3
  5
C1A
331
27CE
  5
27D1
331
2905
  5
295F
331
1001
  5
1016
331
1290
  5
1726
331
1009
  5
1020
331
47C
  5
BE8
331
2413
  5
2417
331
1F9C
  5
1F9F
331
241B
  5
241F
331
2423
  5
2429
331
242B
  5
242F
331
23F4
  5
23F8
331
1B13
  5
1CC3
331
1D51
  5
1D60
331
15ED
  5
1B01
331
1D61
  5
1EFE
331
27DE
  5
28BC
331
CC2
  5
100C
331
2FE
  5
303
331
1011
  5
11A8
331
25F2
  5
2652
331
26F0
  5
26F2
331
27AF
  5
27AF
331
306
  5
317
331
1348
  5
172B
331
23FC
  5
2401
331
1F25
  5
1F93
331
2404
  5
2408
331
240C
  5
2410
331
1F95
  5
1F98
331
1B04
  5
30A
331
2652
  5
2655
331
27BF
  5
27BF
331
28BE
  5
27C3
331
265A
  5
265D
331
27C7
  5
27CA
331
1279
  5
4E5
331
8DB
  5
1001
331
27CF
  5
27D6
331
2906
  5
2960
331
1291
  5
1727
331
100A
  5
1021
331
C2B
  5
1007
331
2F7
  5
2FC
331
2414
  5
2418
331
1F9D
  5
1FA0
331
241C
  5
2420
331
242C
  5
25F2
331
23F5
  5
23F9
331
1EFE
  5
1F92
331
1CC3
  5
1D51
331
1B14
  5
1CF3
331
1D52
  5
1D61
331
1CF3
  5
1D52
331
1C2C
  5
1D01
331
26D9
  5
26E6
331
27DF
  5
28BD
331
CC3
  5
100D
331
2FF
  5
306
331
1012
  5
11B0
331
26F1
  5
26F3
331
27B0
  5
27B0
331
DC3
  5
100E
331
307
  5
31B
331
1349
  5
172C
331
23FD
  5
2402
331
2405
  5
2409
331
240D
  5
2411
331
1F96
  5
1F99
331
1CA4
  5
1D0E
331
1B05
  5
31A
331
25FB
  5
2653
331
2653
  5
2656
331
27C0
  5
27C0
331
265B
  5
26D9
331
27C8
  5
27CB
331
28FF
  5
2901
331
327
  5
BD7
331
FFB
  5
100F
331
466
  5
BE6
331
2E0
  5
2F4
331
C24
  5
1003
331
1003
  5
1019
331
100B
  5
1022
331
C2C
  5
1008
331
2415
  5
2419
331
1E5F
  5
1F25
331
1F9E
  5
1FA1
331
241D
  5
2421
331
23EE
  5
23F2
331
242D
  5
25FB
331
23F6
  5
23FA
331
17B6
  5
1B14
331
26DA
  5
26E7
331
2F8
  5
2FD
331
4FD
  5
C1C
331
26F2
  5
556
331
27B1
  5
27B1
331
300
  5
308
331
1013
  5
1290
331
308
  5
324
331
427
  5
BE5
331
134A
  5
17B6
331
23FE
  5
2403
331
2406
  5
240A
331
1F37
  5
1F94
331
240E
  5
2412
331
1F97
  5
1F9A
331
A0
  5
A5
331
1AFE
  5
2F7
331
16A7
  5
1B03
331
1B06
  5
302
331
2654
  5
2657
331
295F
  5
27C4
331
265C
  5
26DA
331
27C9
  5
27CC
331
2900
  5
2902
331
8DD
  5
1002
331
FFC
  5
1010
331
1004
  5
101A
331
100C
  5
1023
331
2F1
  5
2F8
331
2416
  5
241A
331
1F9F
  5
1FA2
331
1E60
  5
1F37
331
241E
  5
2422
331
2426
  5
242A
331
23EF
  5
23F3
331
242E
  5
25FD
331
23F7
  5
23FB
331
17B7
  5
1C2C
331
26DB
  5
26F0
331
1014
  5
1668
331
26F3
  5
23F1
331
27B2
  5
27B2
331
301
  5
309
331
309
  5
337
331
1343
  5
1728
331
23FF
  5
2404
331
2407
  5
240B
331
240F
  5
2413
331
1668
  5
1B02
331
1AFF
  5
4C3
331
1B07
  5
336
331
25FD
  5
522
331
2655
  5
2658
331
27C2
  5
27C8
331
2960
  5
28FF
331
2901
  5
2903
331
265D
  5
26DB
331
27CA
  5
27CD
331
3E9
  5
BE2
331
FFD
  5
1011
331
C26
  5
1005
331
1005
  5
101B
331
100D
  5
1024
331
C2E
  5
1009
331
2F2
  5
2FA
331
1F98
  5
1F9B
331
2417
  5
241B
331
1FA0
  5
23EE
331
241F
  5
2423
331
2427
  5
242B
331
23F0
  5
23F4
331
242F
  5
2651
331
17B8
  5
1CA4
331
2FA
  5
2FE
331
1015
  5
1699
331
302
  5
30B
331
27B3
  5
27B3
331
1344
  5
1729
331
23F8
  5
23FC
331
2408
  5
240C
331
1B00
  5
322
331
1D0E
  5
1D5F
331
27BB
  5
27BB
331
2656
  5
2659
331
2902
  5
2904
331
27CB
  5
27CE
331
FFE
  5
1013
331
1006
  5
101D
331
100E
  5
1183
331
2410
  5
2414
331
1F99
  5
1F9C
331
1FA1
  5
23EF
331
2418
  5
241C
331
1E82
  5
A0
331
2420
  5
2426
331
2428
  5
242C
331
23F1
  5
23F5
331
1D5E
  5
1E5F
331
2FB
  5
2FF
331
41A
  5
BE4
331
303
  5
30D
331
1016
  5
16A7
331
130D
  5
BD9
331
31B
  5
63C
331
23F9
  5
23FD
331
2401
  5
2405
331
2409
  5
240D
331
1F92
  5
1F95
331
1B01
  5
30C
331
28BB
  5
28BE
331
27BC
  5
27BC
331
2657
  5
265A
331
2903
  5
2905
331
27CC
  5
27CF
331
1355
  5
17B7
331
FFF
  5
1014
331
27D4
  5
27DF
331
128E
  5
4FD
331
1007
  5
101E
331
100F
  5
11A6
331
CB8
  5
100A
331
2F4
  5
2FB
331
1F9A
  5
1F9D
331
2411
  5
2415
331
1FA2
  5
23F0
331
2419
  5
241D
331
2421
  5
2427
331
23F2
  5
23F6
331
2429
  5
242D
331
1D5F
  5
1E60
331
2FC
  5
300
331
27AD
  5
27AD
331
26E6
  5
26F1
331
492
  5
C18
331
23FA
  5
23FE
331
2402
  5
2406
331
240A
  5
240E
331
1F93
  5
1F96
331
9C
  5
9C
331
1B02
  5
307
331
27BD
  5
27BD
331
28BC
  5
2900
331
2658
  5
265B
331
324
  5
BD6
331
27CD
  5
27D0
331
2904
  5
2906
331
1356
  5
17B8
331
1000
  5
1015
331
2DD
  5
2F1
331
1008
  5
101F
331
C29
  5
1006
331
CB9
  5
100B
331
2412
  5
2416
331
1F9B
  5
1F9E
331
241A
  5
241E
331
2422
  5
2428
331
242A
  5
242E
331
23F3
  5
23F7
331
157C
  5
17D7
331
1D60
  5
1E82
331
27DD
  5
28BB
331
40C
  5
BE3
331
2FD
  5
301
331
1010
  5
11A7
331
27AE
  5
27AE
331
26E7
  5
52F
331
522
  5
FFD
331
1347
  5
172A
331
23FB
  5
23FF
331
2403
  5
2407
331
240B
  5
240F
331
1F94
  5
1F97
  0
SORTENTSTABLE
  5
17D3
102
{ACAD_REACTORS
330
17D2
102
}
330
17D2
100
AcDbSortentsTable
330
17D0
  0
SORTENTSTABLE
  5
2A23
102
{ACAD_REACTORS
330
2A22
102
}
330
2A22
100
AcDbSortentsTable
330
2A14
  0
XRECORD
  5
2A4C
102
{ACAD_REACTORS
330
2A4B
102
}
330
2A4B
100
AcDbXrecord
280
     1
102
SHADEPLOT
 70
     0
  0
XRECORD
  5
2A4E
102
{ACAD_REACTORS
330
2A4D
102
}
330
2A4D
100
AcDbXrecord
280
     1
102
SHADEPLOT
 70
     0
  0
LAYOUT
  5
22
102
{ACAD_XDICTIONARY
360
2A47
102
}
102
{ACAD_REACTORS
330
1A
102
}
330
1A
100
AcDbPlotSettings
  1

  2
EPSON PX-V700
  4
A4
  6

 40
3.757083177566528
 41
14.7637300491333
 42
3.757080078125
 43
3.757080078125
 44
209.9733276367187
 45
296.9683227539062
 46
0.0
 47
0.0
 48
0.0
 49
0.0
140
0.0
141
0.0
142
1.0
143
10.0
 70
 11952
 72
     1
 73
     1
 74
     2
  7

 75
    20
147
0.1
148
0.0
149
0.0
100
AcDbLayout
  1
Model
 70
     1
 71
     0
 10
0.0
 20
0.0
 11
12.0
 21
9.0
 12
0.0
 22
0.0
 32
0.0
 14
0.0
 24
0.0
 34
0.0
 15
0.0
 25
0.0
 35
0.0
146
0.0
 13
0.0
 23
0.0
 33
0.0
 16
1.0
 26
0.0
 36
0.0
 17
0.0
 27
1.0
 37
0.0
 76
     0
330
1F
1001
ACAD_PSEXT
1000
EPSON PX-V700
1000
EPSON PX-V700
1000
USB001
1000

1070
     0
  0
LAYOUT
  5
1E
102
{ACAD_XDICTIONARY
360
2A45
102
}
102
{ACAD_REACTORS
330
1A
102
}
330
1A
100
AcDbPlotSettings
  1

  2
EPSON PM-800C
  4
A4
  6

 40
3.757083177566528
 41
14.7637300491333
 42
3.757080078125
 43
3.757080078125
 44
209.9733276367187
 45
296.9683227539062
 46
0.0
 47
0.0
 48
0.0
 49
0.0
140
0.0
141
0.0
142
1.0
143
1.0
 70
   688
 72
     1
 73
     1
 74
     5
  7

 75
    16
147
1.0
148
0.0
149
0.0
100
AcDbLayout
  1
ﾚｲｱｳﾄ1
 70
     1
 71
     1
 10
-3.757080078125
 20
-3.757083177566528
 11
293.2112426757813
 21
206.2162444591522
 12
0.0
 22
0.0
 32
0.0
 14
27.8447512626648
 24
20.24591643810271
 34
0.0
 15
250.6027613639831
 25
182.2132479429245
 35
0.0
146
0.0
 13
0.0
 23
0.0
 33
0.0
 16
1.0
 26
0.0
 36
0.0
 17
0.0
 27
1.0
 37
0.0
 76
     0
330
1B
331
2E
  0
LAYOUT
  5
26
102
{ACAD_XDICTIONARY
360
2A49
102
}
102
{ACAD_REACTORS
330
1A
102
}
330
1A
100
AcDbPlotSettings
  1

  2
EPSON PM-800C
  4

  6

 40
0.0
 41
0.0
 42
0.0
 43
0.0
 44
0.0
 45
0.0
 46
0.0
 47
0.0
 48
0.0
 49
0.0
140
0.0
141
0.0
142
1.0
143
1.0
 70
   688
 72
     0
 73
     0
 74
     5
  7

 75
    16
147
1.0
148
0.0
149
0.0
100
AcDbLayout
  1
ﾚｲｱｳﾄ2
 70
     1
 71
     2
 10
0.0
 20
0.0
 11
12.0
 21
9.0
 12
0.0
 22
0.0
 32
0.0
 14
0.0
 24
0.0
 34
0.0
 15
0.0
 25
0.0
 35
0.0
146
0.0
 13
0.0
 23
0.0
 33
0.0
 16
1.0
 26
0.0
 36
0.0
 17
0.0
 27
1.0
 37
0.0
 76
     0
330
23
  0
MLINESTYLE
  5
18
102
{ACAD_REACTORS
330
17
102
}
330
17
100
AcDbMlineStyle
  2
STANDARD
 70
     0
  3

 62
   256
 51
90.0
 52
90.0
 71
     2
 49
0.5
 62
   256
  6
BYLAYER
 49
-0.5
 62
   256
  6
BYLAYER
  0
ACDBPLACEHOLDER
  5
F
102
{ACAD_REACTORS
330
E
102
}
330
E
  0
TABLESTYLE
  5
1249
102
{ACAD_REACTORS
330
1248
102
}
330
1248
100
AcDbTableStyle
  3
Standard
 70
     0
 71
     0
 40
1.5
 41
1.5
280
     0
281
     0
  7
Standard
140
4.5
170
     2
 62
     0
 63
     7
283
     0
274
    -2
284
     1
 64
     0
275
    -2
285
     1
 65
     0
276
    -2
286
     1
 66
     0
277
    -2
287
     1
 67
     0
278
    -2
288
     1
 68
     0
279
    -2
289
     1
 69
     0
  7
Standard
140
6.0
170
     5
 62
     0
 63
     7
283
     0
274
    -2
284
     1
 64
     0
275
    -2
285
     1
 65
     0
276
    -2
286
     1
 66
     0
277
    -2
287
     1
 67
     0
278
    -2
288
     1
 68
     0
279
    -2
289
     1
 69
     0
  7
Standard
140
4.5
170
     5
 62
     0
 63
     7
283
     0
274
    -2
284
     1
 64
     0
275
    -2
285
     1
 65
     0
276
    -2
286
     1
 66
     0
277
    -2
287
     1
 67
     0
278
    -2
288
     1
 68
     0
279
    -2
289
     1
 69
     0
  0
DICTIONARYVAR
  5
124F
102
{ACAD_REACTORS
330
EFD
102
}
330
EFD
100
DictionaryVariables
280
     0
  1
STANDARD
  0
DICTIONARYVAR
  5
2A41
102
{ACAD_REACTORS
330
EFD
102
}
330
EFD
100
DictionaryVariables
280
     0
  1
1
  0
DICTIONARYVAR
  5
2A42
102
{ACAD_REACTORS
330
EFD
102
}
330
EFD
100
DictionaryVariables
280
     0
  1

  0
DICTIONARYVAR
  5
EFE
102
{ACAD_REACTORS
330
EFD
102
}
330
EFD
100
DictionaryVariables
280
     0
  1
96
  0
DICTIONARY
  5
2A47
330
22
100
AcDbDictionary
280
     1
281
     1
  3
ACAD_XREC_ROUNDTRIP
360
2A48
  0
DICTIONARY
  5
2A45
330
1E
100
AcDbDictionary
280
     1
281
     1
  3
ACAD_XREC_ROUNDTRIP
360
2A46
  0
DICTIONARY
  5
2A49
330
26
100
AcDbDictionary
280
     1
281
     1
  3
ACAD_XREC_ROUNDTRIP
360
2A4A
  0
XRECORD
  5
2A48
102
{ACAD_REACTORS
330
2A47
102
}
330
2A47
100
AcDbXrecord
280
     1
102
SHADEPLOT
 70
     0
102
SHADEPLOTRESLEVEL
 70
     2
102
SHADEPLOTCUSTOMDPI
 70
   300
  0
XRECORD
  5
2A46
102
{ACAD_REACTORS
330
2A45
102
}
330
2A45
100
AcDbXrecord
280
     1
102
SHADEPLOT
 70
     0
102
SHADEPLOTRESLEVEL
 70
     2
102
SHADEPLOTCUSTOMDPI
 70
   300
  0
XRECORD
  5
2A4A
102
{ACAD_REACTORS
330
2A49
102
}
330
2A49
100
AcDbXrecord
280
     1
102
SHADEPLOT
 70
     0
102
SHADEPLOTRESLEVEL
 70
     2
102
SHADEPLOTCUSTOMDPI
 70
   300
  0
ENDSEC
  0
EOF
