  0
SECTION
  2
HEADER
  9
$ACADVER
  1
AC1015
  9
$ACADMAINTVER
 70
    20
  9
$DWGCODEPAGE
  3
ANSI_932
  9
$INSBASE
 10
0.0
 20
0.0
 30
0.0
  9
$EXTMIN
 10
109.0
 20
4.0
 30
0.0
  9
$EXTMAX
 10
2784.0
 20
2024.0
 30
0.0
  9
$LIMMIN
 10
0.0
 20
0.0
  9
$LIMMAX
 10
29700.0
 20
21000.0
  9
$ORTHOMODE
 70
     1
  9
$REGENMODE
 70
     1
  9
$FILLMODE
 70
     1
  9
$QTEXTMODE
 70
     0
  9
$MIRRTEXT
 70
     1
  9
$LTSCALE
 40
4.0
  9
$ATTMODE
 70
     1
  9
$TEXTSIZE
 40
25.0
  9
$TRACEWID
 40
1.0
  9
$TEXTSTYLE
  7
Standard
  9
$CLAYER
  8
実形
  9
$CELTYPE
  6
ByLayer
  9
$CECOLOR
 62
   256
  9
$CELTSCALE
 40
1.0
  9
$DISPSILH
 70
     0
  9
$DIMSCALE
 40
1.0
  9
$DIMASZ
 40
35.0
  9
$DIMEXO
 40
65.0
  9
$DIMDLI
 40
3.75
  9
$DIMRND
 40
0.0
  9
$DIMDLE
 40
0.0
  9
$DIMEXE
 40
0.0
  9
$DIMTP
 40
0.0
  9
$DIMTM
 40
0.0
  9
$DIMTXT
 40
25.0
  9
$DIMCEN
 40
2.5
  9
$DIMTSZ
 40
0.0
  9
$DIMTOL
 70
     0
  9
$DIMLIM
 70
     0
  9
$DIMTIH
 70
     0
  9
$DIMTOH
 70
     0
  9
$DIMSE1
 70
     0
  9
$DIMSE2
 70
     0
  9
$DIMTAD
 70
     1
  9
$DIMZIN
 70
     8
  9
$DIMBLK
  1
DotSmall
  9
$DIMASO
 70
     1
  9
$DIMSHO
 70
     1
  9
$DIMPOST
  1

  9
$DIMAPOST
  1

  9
$DIMALT
 70
     0
  9
$DIMALTD
 70
     3
  9
$DIMALTF
 40
0.03937007874016
  9
$DIMLFAC
 40
1.0
  9
$DIMTOFL
 70
     1
  9
$DIMTVP
 40
0.0
  9
$DIMTIX
 70
     0
  9
$DIMSOXD
 70
     0
  9
$DIMSAH
 70
     0
  9
$DIMBLK1
  1

  9
$DIMBLK2
  1

  9
$DIMSTYLE
  2
ISO-25
  9
$DIMCLRD
 70
     0
  9
$DIMCLRE
 70
     0
  9
$DIMCLRT
 70
     0
  9
$DIMTFAC
 40
1.0
  9
$DIMGAP
 40
6.25
  9
$DIMJUST
 70
     0
  9
$DIMSD1
 70
     0
  9
$DIMSD2
 70
     0
  9
$DIMTOLJ
 70
     0
  9
$DIMTZIN
 70
     8
  9
$DIMALTZ
 70
     0
  9
$DIMALTTZ
 70
     0
  9
$DIMUPT
 70
     0
  9
$DIMDEC
 70
     2
  9
$DIMTDEC
 70
     2
  9
$DIMALTU
 70
     2
  9
$DIMALTTD
 70
     3
  9
$DIMTXSTY
  7
Standard
  9
$DIMAUNIT
 70
     0
  9
$DIMADEC
 70
     0
  9
$DIMALTRND
 40
0.0
  9
$DIMAZIN
 70
     0
  9
$DIMDSEP
 70
    46
  9
$DIMATFIT
 70
     3
  9
$DIMFRAC
 70
     0
  9
$DIMLDRBLK
  1
Open30
  9
$DIMLUNIT
 70
     2
  9
$DIMLWD
 70
    18
  9
$DIMLWE
 70
    18
  9
$DIMTMOVE
 70
     2
  9
$LUNITS
 70
     2
  9
$LUPREC
 70
     2
  9
$SKETCHINC
 40
1.0
  9
$FILLETRAD
 40
0.0
  9
$AUNITS
 70
     0
  9
$AUPREC
 70
     0
  9
$MENU
  1
.
  9
$ELEVATION
 40
0.0
  9
$PELEVATION
 40
0.0
  9
$THICKNESS
 40
0.0
  9
$LIMCHECK
 70
     1
  9
$CHAMFERA
 40
10.0
  9
$CHAMFERB
 40
10.0
  9
$CHAMFERC
 40
20.0
  9
$CHAMFERD
 40
0.0
  9
$SKPOLY
 70
     0
  9
$TDCREATE
 40
2451673.575802199
  9
$TDUCREATE
 40
2451673.200802199
  9
$TDUPDATE
 40
2458813.752736354
  9
$TDUUPDATE
 40
2458813.377736354
  9
$TDINDWG
 40
1.8535279514
  9
$TDUSRTIMER
 40
1.8535272569
  9
$USRTIMER
 70
     1
  9
$ANGBASE
 50
0.0
  9
$ANGDIR
 70
     0
  9
$PDMODE
 70
     3
  9
$PDSIZE
 40
0.0
  9
$PLINEWID
 40
0.0
  9
$SPLFRAME
 70
     0
  9
$SPLINETYPE
 70
     6
  9
$SPLINESEGS
 70
     8
  9
$HANDSEED
  5
5E55
  9
$SURFTAB1
 70
     6
  9
$SURFTAB2
 70
     6
  9
$SURFTYPE
 70
     6
  9
$SURFU
 70
     6
  9
$SURFV
 70
     6
  9
$UCSBASE
  2

  9
$UCSNAME
  2

  9
$UCSORG
 10
0.0
 20
0.0
 30
0.0
  9
$UCSXDIR
 10
1.0
 20
0.0
 30
0.0
  9
$UCSYDIR
 10
0.0
 20
1.0
 30
0.0
  9
$UCSORTHOREF
  2

  9
$UCSORTHOVIEW
 70
     0
  9
$UCSORGTOP
 10
0.0
 20
0.0
 30
0.0
  9
$UCSORGBOTTOM
 10
0.0
 20
0.0
 30
0.0
  9
$UCSORGLEFT
 10
0.0
 20
0.0
 30
0.0
  9
$UCSORGRIGHT
 10
0.0
 20
0.0
 30
0.0
  9
$UCSORGFRONT
 10
0.0
 20
0.0
 30
0.0
  9
$UCSORGBACK
 10
0.0
 20
0.0
 30
0.0
  9
$PUCSBASE
  2

  9
$PUCSNAME
  2

  9
$PUCSORG
 10
0.0
 20
0.0
 30
0.0
  9
$PUCSXDIR
 10
1.0
 20
0.0
 30
0.0
  9
$PUCSYDIR
 10
0.0
 20
1.0
 30
0.0
  9
$PUCSORTHOREF
  2

  9
$PUCSORTHOVIEW
 70
     0
  9
$PUCSORGTOP
 10
0.0
 20
0.0
 30
0.0
  9
$PUCSORGBOTTOM
 10
0.0
 20
0.0
 30
0.0
  9
$PUCSORGLEFT
 10
0.0
 20
0.0
 30
0.0
  9
$PUCSORGRIGHT
 10
0.0
 20
0.0
 30
0.0
  9
$PUCSORGFRONT
 10
0.0
 20
0.0
 30
0.0
  9
$PUCSORGBACK
 10
0.0
 20
0.0
 30
0.0
  9
$USERI1
 70
     0
  9
$USERI2
 70
     0
  9
$USERI3
 70
     0
  9
$USERI4
 70
     0
  9
$USERI5
 70
     0
  9
$USERR1
 40
0.0
  9
$USERR2
 40
0.0
  9
$USERR3
 40
0.0
  9
$USERR4
 40
0.0
  9
$USERR5
 40
0.0
  9
$WORLDVIEW
 70
     1
  9
$SHADEDGE
 70
     3
  9
$SHADEDIF
 70
    70
  9
$TILEMODE
 70
     1
  9
$MAXACTVP
 70
    64
  9
$PINSBASE
 10
0.0
 20
0.0
 30
0.0
  9
$PLIMCHECK
 70
     0
  9
$PEXTMIN
 10
27.8447512626648
 20
20.24591643810271
 30
0.0
  9
$PEXTMAX
 10
250.6027613639831
 20
182.2132479429245
 30
0.0
  9
$PLIMMIN
 10
-3.757080078125
 20
-3.757083177566528
  9
$PLIMMAX
 10
293.2112426757813
 20
206.2162444591522
  9
$UNITMODE
 70
     0
  9
$VISRETAIN
 70
     1
  9
$PLINEGEN
 70
     0
  9
$PSLTSCALE
 70
     1
  9
$TREEDEPTH
 70
  3020
  9
$CMLSTYLE
  2
Standard
  9
$CMLJUST
 70
     0
  9
$CMLSCALE
 40
20.0
  9
$PROXYGRAPHICS
 70
     1
  9
$MEASUREMENT
 70
     1
  9
$CELWEIGHT
370
    -1
  9
$ENDCAPS
280
     0
  9
$JOINSTYLE
280
     0
  9
$LWDISPLAY
290
     0
  9
$INSUNITS
 70
     4
  9
$HYPERLINKBASE
  1

  9
$STYLESHEET
  1

  9
$XEDIT
290
     1
  9
$CEPSNTYPE
380
     0
  9
$PSTYLEMODE
290
     1
  9
$FINGERPRINTGUID
  2
{C8EA1F16-24C9-11D4-9416-CE0A3B32152F}
  9
$VERSIONGUID
  2
{927E8A26-95B8-4519-A45B-55B4962DF6AA}
  9
$EXTNAMES
290
     1
  9
$PSVPSCALE
 40
0.0
  9
$OLESTARTUP
290
     0
  0
ENDSEC
  0
SECTION
  2
CLASSES
  0
CLASS
  1
ACDBDICTIONARYWDFLT
  2
AcDbDictionaryWithDefault
  3
ObjectDBX Classes
 90
        0
280
     0
281
     0
  0
CLASS
  1
ACDBPLACEHOLDER
  2
AcDbPlaceHolder
  3
ObjectDBX Classes
 90
        0
280
     0
281
     0
  0
CLASS
  1
LAYOUT
  2
AcDbLayout
  3
ObjectDBX Classes
 90
        0
280
     0
281
     0
  0
CLASS
  1
TABLESTYLE
  2
AcDbTableStyle
  3
ObjectDBX Classes
 90
     2047
280
     0
281
     0
  0
CLASS
  1
DICTIONARYVAR
  2
AcDbDictionaryVar
  3
ObjectDBX Classes
 90
        0
280
     0
281
     0
  0
CLASS
  1
SORTENTSTABLE
  2
AcDbSortentsTable
  3
ObjectDBX Classes
 90
        0
280
     0
281
     0
  0
ENDSEC
  0
SECTION
  2
TABLES
  0
TABLE
  2
VPORT
  5
8
330
0
100
AcDbSymbolTable
 70
     2
  0
VPORT
  5
5E49
330
8
100
AcDbSymbolTableRecord
100
AcDbViewportTableRecord
  2
*Active
 70
     0
 10
0.0
 20
0.0
 11
1.0
 21
1.0
 12
1444.503689862066
 22
991.8152831453403
 13
0.0
 23
0.0
 14
10.0
 24
10.0
 15
10.0
 25
10.0
 16
0.0
 26
0.0
 36
1.0
 17
0.0
 27
0.0
 37
0.0
 40
2395.210376999749
 41
1.29038112522686
 42
50.0
 43
0.0
 44
0.0
 50
0.0
 51
0.0
 71
     0
 72
   100
 73
     1
 74
     3
 75
     0
 76
     0
 77
     0
 78
     0
281
     0
 65
     1
110
0.0
120
0.0
130
0.0
111
1.0
121
0.0
131
0.0
112
0.0
122
1.0
132
0.0
 79
     0
146
0.0
  0
ENDTAB
  0
TABLE
  2
LTYPE
  5
5
330
0
100
AcDbSymbolTable
 70
    46
  0
LTYPE
  5
14
330
5
100
AcDbSymbolTableRecord
100
AcDbLinetypeTableRecord
  2
ByBlock
 70
     0
  3

 72
    65
 73
     0
 40
0.0
  0
LTYPE
  5
15
330
5
100
AcDbSymbolTableRecord
100
AcDbLinetypeTableRecord
  2
ByLayer
 70
     0
  3

 72
    65
 73
     0
 40
0.0
  0
LTYPE
  5
16
330
5
100
AcDbSymbolTableRecord
100
AcDbLinetypeTableRecord
  2
Continuous
 70
     0
  3
Solid line
 72
    65
 73
     0
 40
0.0
  0
LTYPE
  5
34
330
5
100
AcDbSymbolTableRecord
100
AcDbLinetypeTableRecord
  2
ACAD_ISO02W100
 70
     0
  3
ISO dash __ __ __ __ __ __ __ __ __ __ __ __ __
 72
    65
 73
     2
 40
15.0
 49
12.0
 74
     0
 49
-3.0
 74
     0
  0
LTYPE
  5
35
330
5
100
AcDbSymbolTableRecord
100
AcDbLinetypeTableRecord
  2
ACAD_ISO03W100
 70
     0
  3
ISO dash space __    __    __    __    __    __
 72
    65
 73
     2
 40
30.0
 49
12.0
 74
     0
 49
-18.0
 74
     0
  0
LTYPE
  5
36
330
5
100
AcDbSymbolTableRecord
100
AcDbLinetypeTableRecord
  2
ACAD_ISO04W100
 70
     0
  3
ISO long-dash dot ____ . ____ . ____ . ____ . _
 72
    65
 73
     4
 40
30.0
 49
24.0
 74
     0
 49
-3.0
 74
     0
 49
0.0
 74
     0
 49
-3.0
 74
     0
  0
LTYPE
  5
37
330
5
100
AcDbSymbolTableRecord
100
AcDbLinetypeTableRecord
  2
ACAD_ISO05W100
 70
     0
  3
ISO long-dash double-dot ____ .. ____ .. ____ .
 72
    65
 73
     6
 40
34.0
 49
24.0
 74
     0
 49
-3.0
 74
     0
 49
0.5
 74
     0
 49
-3.0
 74
     0
 49
0.5
 74
     0
 49
-3.0
 74
     0
  0
LTYPE
  5
38
330
5
100
AcDbSymbolTableRecord
100
AcDbLinetypeTableRecord
  2
ACAD_ISO06W100
 70
     0
  3
ISO long-dash triple-dot ____ ... ____ ... ____
 72
    65
 73
     8
 40
37.5
 49
24.0
 74
     0
 49
-3.0
 74
     0
 49
0.5
 74
     0
 49
-3.0
 74
     0
 49
0.5
 74
     0
 49
-3.0
 74
     0
 49
0.5
 74
     0
 49
-3.0
 74
     0
  0
LTYPE
  5
39
330
5
100
AcDbSymbolTableRecord
100
AcDbLinetypeTableRecord
  2
ACAD_ISO07W100
 70
     0
  3
ISO dot . . . . . . . . . . . . . . . . . . . .
 72
    65
 73
     2
 40
3.0
 49
0.0
 74
     0
 49
-3.0
 74
     0
  0
LTYPE
  5
3A
330
5
100
AcDbSymbolTableRecord
100
AcDbLinetypeTableRecord
  2
ACAD_ISO08W100
 70
     0
  3
ISO long-dash short-dash ____ __ ____ __ ____ _
 72
    65
 73
     4
 40
36.0
 49
24.0
 74
     0
 49
-3.0
 74
     0
 49
6.0
 74
     0
 49
-3.0
 74
     0
  0
LTYPE
  5
3B
330
5
100
AcDbSymbolTableRecord
100
AcDbLinetypeTableRecord
  2
ACAD_ISO09W100
 70
     0
  3
ISO long-dash double-short-dash ____ __ __ ____
 72
    65
 73
     6
 40
45.0
 49
24.0
 74
     0
 49
-3.0
 74
     0
 49
6.0
 74
     0
 49
-3.0
 74
     0
 49
6.0
 74
     0
 49
-3.0
 74
     0
  0
LTYPE
  5
3C
330
5
100
AcDbSymbolTableRecord
100
AcDbLinetypeTableRecord
  2
ACAD_ISO10W100
 70
     0
  3
ISO dash dot __ . __ . __ . __ . __ . __ . __ .
 72
    65
 73
     4
 40
18.0
 49
12.0
 74
     0
 49
-3.0
 74
     0
 49
0.0
 74
     0
 49
-3.0
 74
     0
  0
LTYPE
  5
3D
330
5
100
AcDbSymbolTableRecord
100
AcDbLinetypeTableRecord
  2
ACAD_ISO11W100
 70
     0
  3
ISO double-dash dot __ __ . __ __ . __ __ . __ 
 72
    65
 73
     6
 40
33.0
 49
12.0
 74
     0
 49
-3.0
 74
     0
 49
12.0
 74
     0
 49
-3.0
 74
     0
 49
0.0
 74
     0
 49
-3.0
 74
     0
  0
LTYPE
  5
3E
330
5
100
AcDbSymbolTableRecord
100
AcDbLinetypeTableRecord
  2
ACAD_ISO12W100
 70
     0
  3
ISO dash double-dot __ . . __ . . __ . . __ . .
 72
    65
 73
     6
 40
21.0
 49
12.0
 74
     0
 49
-3.0
 74
     0
 49
0.0
 74
     0
 49
-3.0
 74
     0
 49
0.0
 74
     0
 49
-3.0
 74
     0
  0
LTYPE
  5
3F
330
5
100
AcDbSymbolTableRecord
100
AcDbLinetypeTableRecord
  2
ACAD_ISO13W100
 70
     0
  3
ISO double-dash double-dot __ __ . . __ __ . . 
 72
    65
 73
     8
 40
36.0
 49
12.0
 74
     0
 49
-3.0
 74
     0
 49
12.0
 74
     0
 49
-3.0
 74
     0
 49
0.0
 74
     0
 49
-3.0
 74
     0
 49
0.0
 74
     0
 49
-3.0
 74
     0
  0
LTYPE
  5
40
330
5
100
AcDbSymbolTableRecord
100
AcDbLinetypeTableRecord
  2
ACAD_ISO14W100
 70
     0
  3
ISO dash triple-dot __ . . . __ . . . __ . . . 
 72
    65
 73
     8
 40
24.0
 49
12.0
 74
     0
 49
-3.0
 74
     0
 49
0.0
 74
     0
 49
-3.0
 74
     0
 49
0.0
 74
     0
 49
-3.0
 74
     0
 49
0.0
 74
     0
 49
-3.0
 74
     0
  0
LTYPE
  5
41
330
5
100
AcDbSymbolTableRecord
100
AcDbLinetypeTableRecord
  2
ACAD_ISO15W100
 70
     0
  3
ISO double-dash triple-dot __ __ . . . __ __ . 
 72
    65
 73
    10
 40
39.0
 49
12.0
 74
     0
 49
-3.0
 74
     0
 49
12.0
 74
     0
 49
-3.0
 74
     0
 49
0.0
 74
     0
 49
-3.0
 74
     0
 49
0.0
 74
     0
 49
-3.0
 74
     0
 49
0.0
 74
     0
 49
-3.0
 74
     0
  0
LTYPE
  5
42
330
5
100
AcDbSymbolTableRecord
100
AcDbLinetypeTableRecord
  2
BATTING
 70
     0
  3
Batting SSSSSSSSSSSSSSSSSSSSSSSSSSSSSSSSSSSSSSS
 72
    65
 73
     4
 40
10.16254
 49
0.00254
 74
     0
 49
-2.54
 74
     4
 75
   134
340
33
 46
2.54
 50
0.0
 44
-2.54
 45
0.0
 49
-5.08
 74
     4
 75
   134
340
33
 46
2.54
 50
180.0
 44
2.54
 45
0.0
 49
-2.54
 74
     0
  0
LTYPE
  5
43
330
5
100
AcDbSymbolTableRecord
100
AcDbLinetypeTableRecord
  2
BORDER
 70
     0
  3
Border __ __ . __ __ . __ __ . __ __ . __ __ .
 72
    65
 73
     6
 40
44.45
 49
12.7
 74
     0
 49
-6.349999999999999
 74
     0
 49
12.7
 74
     0
 49
-6.349999999999999
 74
     0
 49
0.0
 74
     0
 49
-6.349999999999999
 74
     0
  0
LTYPE
  5
44
330
5
100
AcDbSymbolTableRecord
100
AcDbLinetypeTableRecord
  2
BORDER2
 70
     0
  3
Border (.5x) __.__.__.__.__.__.__.__.__.__.__.
 72
    65
 73
     6
 40
22.225
 49
6.349999999999999
 74
     0
 49
-3.174999999999999
 74
     0
 49
6.349999999999999
 74
     0
 49
-3.174999999999999
 74
     0
 49
0.0
 74
     0
 49
-3.174999999999999
 74
     0
  0
LTYPE
  5
45
330
5
100
AcDbSymbolTableRecord
100
AcDbLinetypeTableRecord
  2
BORDERX2
 70
     0
  3
Border (2x) ____  ____  .  ____  ____  .  ___
 72
    65
 73
     6
 40
88.9
 49
25.4
 74
     0
 49
-12.7
 74
     0
 49
25.4
 74
     0
 49
-12.7
 74
     0
 49
0.0
 74
     0
 49
-12.7
 74
     0
  0
LTYPE
  5
46
330
5
100
AcDbSymbolTableRecord
100
AcDbLinetypeTableRecord
  2
CENTER
 70
     0
  3
Center ____ _ ____ _ ____ _ ____ _ ____ _ ____
 72
    65
 73
     4
 40
50.8
 49
31.75
 74
     0
 49
-6.349999999999999
 74
     0
 49
6.349999999999999
 74
     0
 49
-6.349999999999999
 74
     0
  0
LTYPE
  5
47
330
5
100
AcDbSymbolTableRecord
100
AcDbLinetypeTableRecord
  2
CENTER2
 70
     0
  3
Center (.5x) ___ _ ___ _ ___ _ ___ _ ___ _ ___
 72
    65
 73
     4
 40
28.575
 49
19.05
 74
     0
 49
-3.174999999999999
 74
     0
 49
3.174999999999999
 74
     0
 49
-3.174999999999999
 74
     0
  0
LTYPE
  5
48
330
5
100
AcDbSymbolTableRecord
100
AcDbLinetypeTableRecord
  2
CENTERX2
 70
     0
  3
Center (2x) ________  __  ________  __  _____
 72
    65
 73
     4
 40
101.6
 49
63.5
 74
     0
 49
-12.7
 74
     0
 49
12.7
 74
     0
 49
-12.7
 74
     0
  0
LTYPE
  5
49
330
5
100
AcDbSymbolTableRecord
100
AcDbLinetypeTableRecord
  2
DASHDOT
 70
     0
  3
Dash dot __ . __ . __ . __ . __ . __ . __ . __
 72
    65
 73
     4
 40
25.4
 49
12.7
 74
     0
 49
-6.349999999999999
 74
     0
 49
0.0
 74
     0
 49
-6.349999999999999
 74
     0
  0
LTYPE
  5
4A
330
5
100
AcDbSymbolTableRecord
100
AcDbLinetypeTableRecord
  2
DASHDOT2
 70
     0
  3
Dash dot (.5x) _._._._._._._._._._._._._._._.
 72
    65
 73
     4
 40
12.7
 49
6.349999999999999
 74
     0
 49
-3.174999999999999
 74
     0
 49
0.0
 74
     0
 49
-3.174999999999999
 74
     0
  0
LTYPE
  5
4B
330
5
100
AcDbSymbolTableRecord
100
AcDbLinetypeTableRecord
  2
DASHDOTX2
 70
     0
  3
Dash dot (2x) ____  .  ____  .  ____  .  ___
 72
    65
 73
     4
 40
50.8
 49
25.4
 74
     0
 49
-12.7
 74
     0
 49
0.0
 74
     0
 49
-12.7
 74
     0
  0
LTYPE
  5
4C
330
5
100
AcDbSymbolTableRecord
100
AcDbLinetypeTableRecord
  2
DASHED
 70
     0
  3
Dashed __ __ __ __ __ __ __ __ __ __ __ __ __ _
 72
    65
 73
     2
 40
19.05
 49
12.7
 74
     0
 49
-6.349999999999999
 74
     0
  0
LTYPE
  5
4D
330
5
100
AcDbSymbolTableRecord
100
AcDbLinetypeTableRecord
  2
DASHED2
 70
     0
  3
Dashed (.5x) _ _ _ _ _ _ _ _ _ _ _ _ _ _ _ _ _
 72
    65
 73
     2
 40
9.524999999999998
 49
6.349999999999999
 74
     0
 49
-3.174999999999999
 74
     0
  0
LTYPE
  5
4E
330
5
100
AcDbSymbolTableRecord
100
AcDbLinetypeTableRecord
  2
DASHEDX2
 70
     0
  3
Dashed (2x) ____  ____  ____  ____  ____  ___
 72
    65
 73
     2
 40
38.1
 49
25.4
 74
     0
 49
-12.7
 74
     0
  0
LTYPE
  5
4F
330
5
100
AcDbSymbolTableRecord
100
AcDbLinetypeTableRecord
  2
DIVIDE
 70
     0
  3
Divide ____ . . ____ . . ____ . . ____ . . ____
 72
    65
 73
     6
 40
31.75
 49
12.7
 74
     0
 49
-6.349999999999999
 74
     0
 49
0.0
 74
     0
 49
-6.349999999999999
 74
     0
 49
0.0
 74
     0
 49
-6.349999999999999
 74
     0
  0
LTYPE
  5
50
330
5
100
AcDbSymbolTableRecord
100
AcDbLinetypeTableRecord
  2
DIVIDE2
 70
     0
  3
Divide (.5x) __..__..__..__..__..__..__..__.._
 72
    65
 73
     6
 40
15.875
 49
6.349999999999999
 74
     0
 49
-3.174999999999999
 74
     0
 49
0.0
 74
     0
 49
-3.174999999999999
 74
     0
 49
0.0
 74
     0
 49
-3.174999999999999
 74
     0
  0
LTYPE
  5
51
330
5
100
AcDbSymbolTableRecord
100
AcDbLinetypeTableRecord
  2
DIVIDEX2
 70
     0
  3
Divide (2x) ________  .  .  ________  .  .  _
 72
    65
 73
     6
 40
63.49999999999999
 49
25.4
 74
     0
 49
-12.7
 74
     0
 49
0.0
 74
     0
 49
-12.7
 74
     0
 49
0.0
 74
     0
 49
-12.7
 74
     0
  0
LTYPE
  5
52
330
5
100
AcDbSymbolTableRecord
100
AcDbLinetypeTableRecord
  2
DOT
 70
     0
  3
Dot . . . . . . . . . . . . . . . . . . . . . .
 72
    65
 73
     2
 40
6.349999999999999
 49
0.0
 74
     0
 49
-6.349999999999999
 74
     0
  0
LTYPE
  5
53
330
5
100
AcDbSymbolTableRecord
100
AcDbLinetypeTableRecord
  2
DOT2
 70
     0
  3
Dot (.5x) .....................................
 72
    65
 73
     2
 40
3.174999999999999
 49
0.0
 74
     0
 49
-3.174999999999999
 74
     0
  0
LTYPE
  5
54
330
5
100
AcDbSymbolTableRecord
100
AcDbLinetypeTableRecord
  2
DOTX2
 70
     0
  3
Dot (2x) .  .  .  .  .  .  .  .  .  .  .  .  . 
 72
    65
 73
     2
 40
12.7
 49
0.0
 74
     0
 49
-12.7
 74
     0
  0
LTYPE
  5
55
330
5
100
AcDbSymbolTableRecord
100
AcDbLinetypeTableRecord
  2
FENCELINE1
 70
     0
  3
Fenceline circle ----0-----0----0-----0----0---
 72
    65
 73
     4
 40
36.83
 49
6.349999999999999
 74
     0
 49
-2.54
 74
     4
 75
   133
340
33
 46
2.54
 50
0.0
 44
-2.54
 45
0.0
 49
-2.54
 74
     0
 49
25.4
 74
     0
  0
LTYPE
  5
56
330
5
100
AcDbSymbolTableRecord
100
AcDbLinetypeTableRecord
  2
FENCELINE2
 70
     0
  3
Fenceline square ----[]-----[]----[]-----[]----
 72
    65
 73
     4
 40
36.83
 49
6.349999999999999
 74
     0
 49
-2.54
 74
     4
 75
   132
340
33
 46
2.54
 50
0.0
 44
-2.54
 45
0.0
 49
-2.54
 74
     0
 49
25.4
 74
     0
  0
LTYPE
  5
57
330
5
100
AcDbSymbolTableRecord
100
AcDbLinetypeTableRecord
  2
GAS_LINE
 70
     0
  3
Gas line ----GAS----GAS----GAS----GAS----GAS---
 72
    65
 73
     3
 40
24.13
 49
12.7
 74
     0
 49
-5.08
 74
     2
 75
     0
340
11
 46
2.54
 50
0.0
 44
-2.54
 45
-1.27
  9
GAS
 49
-6.349999999999999
 74
     0
  0
LTYPE
  5
58
330
5
100
AcDbSymbolTableRecord
100
AcDbLinetypeTableRecord
  2
HIDDEN
 70
     0
  3
Hidden __ __ __ __ __ __ __ __ __ __ __ __ __ _
 72
    65
 73
     2
 40
9.524999999999998
 49
6.349999999999999
 74
     0
 49
-3.174999999999999
 74
     0
  0
LTYPE
  5
59
330
5
100
AcDbSymbolTableRecord
100
AcDbLinetypeTableRecord
  2
HIDDEN2
 70
     0
  3
Hidden (.5x) _ _ _ _ _ _ _ _ _ _ _ _ _ _ _ _ _
 72
    65
 73
     2
 40
4.762499999999999
 49
3.174999999999999
 74
     0
 49
-1.587499999999999
 74
     0
  0
LTYPE
  5
5A
330
5
100
AcDbSymbolTableRecord
100
AcDbLinetypeTableRecord
  2
HIDDENX2
 70
     0
  3
Hidden (2x) ____ ____ ____ ____ ____ ____ ____
 72
    65
 73
     2
 40
19.05
 49
12.7
 74
     0
 49
-6.349999999999999
 74
     0
  0
LTYPE
  5
5B
330
5
100
AcDbSymbolTableRecord
100
AcDbLinetypeTableRecord
  2
HOT_WATER_SUPPLY
 70
     0
  3
Hot water supply ---- HW ---- HW ---- HW ----
 72
    65
 73
     3
 40
22.86
 49
12.7
 74
     0
 49
-5.08
 74
     2
 75
     0
340
11
 46
2.54
 50
0.0
 44
-2.54
 45
-1.27
  9
HW
 49
-5.08
 74
     0
  0
LTYPE
  5
5C
330
5
100
AcDbSymbolTableRecord
100
AcDbLinetypeTableRecord
  2
PHANTOM
 70
     0
  3
Phantom ______  __  __  ______  __  __  ______
 72
    65
 73
     6
 40
63.5
 49
31.75
 74
     0
 49
-6.349999999999999
 74
     0
 49
6.349999999999999
 74
     0
 49
-6.349999999999999
 74
     0
 49
6.349999999999999
 74
     0
 49
-6.349999999999999
 74
     0
  0
LTYPE
  5
5D
330
5
100
AcDbSymbolTableRecord
100
AcDbLinetypeTableRecord
  2
PHANTOM2
 70
     0
  3
Phantom (.5x) ___ _ _ ___ _ _ ___ _ _ ___ _ _
 72
    65
 73
     6
 40
31.75
 49
15.875
 74
     0
 49
-3.174999999999999
 74
     0
 49
3.174999999999999
 74
     0
 49
-3.174999999999999
 74
     0
 49
3.174999999999999
 74
     0
 49
-3.174999999999999
 74
     0
  0
LTYPE
  5
5E
330
5
100
AcDbSymbolTableRecord
100
AcDbLinetypeTableRecord
  2
PHANTOMX2
 70
     0
  3
Phantom (2x) ____________    ____    ____   _
 72
    65
 73
     6
 40
127.0
 49
63.5
 74
     0
 49
-12.7
 74
     0
 49
12.7
 74
     0
 49
-12.7
 74
     0
 49
12.7
 74
     0
 49
-12.7
 74
     0
  0
LTYPE
  5
5F
330
5
100
AcDbSymbolTableRecord
100
AcDbLinetypeTableRecord
  2
TRACKS
 70
     0
  3
Tracks -|-|-|-|-|-|-|-|-|-|-|-|-|-|-|-|-|-|-|-|
 72
    65
 73
     2
 40
7.62
 49
3.81
 74
     4
 75
   130
340
33
 46
6.349999999999999
 50
0.0
 44
0.0
 45
0.0
 49
3.81
 74
     0
  0
LTYPE
  5
60
330
5
100
AcDbSymbolTableRecord
100
AcDbLinetypeTableRecord
  2
ZIGZAG
 70
     0
  3
Zig zag /\/\/\/\/\/\/\/\/\/\/\/\/\/\/\/\/\/\/\/
 72
    65
 73
     4
 40
20.32254
 49
0.00254
 74
     0
 49
-5.08
 74
     4
 75
   131
340
33
 46
5.08
 50
0.0
 44
-5.08
 45
0.0
 49
-10.16
 74
     4
 75
   131
340
33
 46
5.08
 50
180.0
 44
5.08
 45
0.0
 49
-5.08
 74
     0
  0
ENDTAB
  0
TABLE
  2
LAYER
  5
2
102
{ACAD_XDICTIONARY
360
191A
102
}
330
0
100
AcDbSymbolTable
 70
     9
  0
LAYER
  5
10
330
2
100
AcDbSymbolTableRecord
100
AcDbLayerTableRecord
  2
0
 70
     0
 62
     7
  6
Continuous
290
     0
370
    -3
390
F
  0
LAYER
  5
C3
330
2
100
AcDbSymbolTableRecord
100
AcDbLayerTableRecord
  2
Defpoints
 70
     0
 62
     7
  6
Continuous
290
     0
370
    -3
390
F
  0
LAYER
  5
256
330
2
100
AcDbSymbolTableRecord
100
AcDbLayerTableRecord
  2
センター
 70
     0
 62
     7
  6
CENTER2
370
    18
390
F
  0
LAYER
  5
268
330
2
100
AcDbSymbolTableRecord
100
AcDbLayerTableRecord
  2
実形
 70
     0
 62
     7
  6
Continuous
370
    -3
390
F
  0
LAYER
  5
269
330
2
100
AcDbSymbolTableRecord
100
AcDbLayerTableRecord
  2
補助
 70
     0
 62
     7
  6
Continuous
370
    -3
390
F
  0
LAYER
  5
26A
330
2
100
AcDbSymbolTableRecord
100
AcDbLayerTableRecord
  2
寸法
 70
     0
 62
     7
  6
Continuous
370
    18
390
F
  0
LAYER
  5
26B
330
2
100
AcDbSymbolTableRecord
100
AcDbLayerTableRecord
  2
ハッチング
 70
     0
 62
     7
  6
Continuous
370
    18
390
F
  0
LAYER
  5
26D
330
2
100
AcDbSymbolTableRecord
100
AcDbLayerTableRecord
  2
文字
 70
     0
 62
     7
  6
Continuous
370
    -3
390
F
  0
LAYER
  5
FE8
330
2
100
AcDbSymbolTableRecord
100
AcDbLayerTableRecord
  2
Cen
 70
     0
 62
     7
  6
CENTER2
370
    15
390
F
  0
ENDTAB
  0
TABLE
  2
STYLE
  5
3
330
0
100
AcDbSymbolTable
 70
     5
  0
STYLE
  5
11
330
3
100
AcDbSymbolTableRecord
100
AcDbTextStyleTableRecord
  2
Standard
 70
     0
 40
0.0
 41
1.0
 50
0.0
 71
     0
 42
25.0
  3
txt.shx
  4
bigfont.shx
  0
STYLE
  5
33
330
3
100
AcDbSymbolTableRecord
100
AcDbTextStyleTableRecord
  2

 70
     1
 40
0.0
 41
1.0
 50
0.0
 71
     0
 42
2.5
  3
ltypeshp.shx
  4

  0
STYLE
  5
19A9
330
3
100
AcDbSymbolTableRecord
100
AcDbTextStyleTableRecord
  2
ｍｓ明朝
 70
     0
 40
0.0
 41
1.0
 50
0.0
 71
     0
 42
35.0
  3
MS Mincho.ttf
  4

1001
ACAD
1000
MS Mincho
1071
    32785
  0
STYLE
  5
1AF2
330
3
100
AcDbSymbolTableRecord
100
AcDbTextStyleTableRecord
  2
MS明朝
 70
     0
 40
0.0
 41
1.0
 50
0.0
 71
     0
 42
35.0
  3
MS Mincho.ttf
  4

1001
ACAD
1000
MS Mincho
1071
    32785
  0
STYLE
  5
1C8B
330
3
100
AcDbSymbolTableRecord
100
AcDbTextStyleTableRecord
  2
明朝
 70
     0
 40
0.0
 41
1.0
 50
0.0
 71
     0
 42
25.0
  3
MS Mincho.ttf
  4

1001
ACAD
1000
MS Mincho
1071
    32785
  0
ENDTAB
  0
TABLE
  2
VIEW
  5
6
330
0
100
AcDbSymbolTable
 70
     0
  0
ENDTAB
  0
TABLE
  2
UCS
  5
7
330
0
100
AcDbSymbolTable
 70
     0
  0
ENDTAB
  0
TABLE
  2
APPID
  5
9
330
0
100
AcDbSymbolTable
 70
     2
  0
APPID
  5
12
330
9
100
AcDbSymbolTableRecord
100
AcDbRegAppTableRecord
  2
ACAD
 70
     0
  0
APPID
  5
1BAB
330
9
100
AcDbSymbolTableRecord
100
AcDbRegAppTableRecord
  2
ACAD_DSTYLE_DIMTEXT_FILL
 70
     0
  0
ENDTAB
  0
TABLE
  2
DIMSTYLE
  5
A
330
0
100
AcDbSymbolTable
 70
     1
100
AcDbDimStyleTable
 71
     1
340
27
  0
DIMSTYLE
105
27
102
{ACAD_REACTORS
330
3CE
330
3E9
330
3DC
330
3F6
330
104A
330
1058
330
1065
330
1B57
330
1B58
330
1B59
330
1BE4
330
1C03
330
1DFE
330
1DFF
330
2682
330
2683
330
3679
330
3CE3
330
3CF9
330
3D0F
330
3E28
330
3E49
330
3E7A
330
3EB7
330
3F58
330
3F6E
330
3F85
330
3FD7
330
3FF6
330
400C
330
4022
330
40C6
330
40E5
330
1C23
330
45CC
330
45D9
330
45F3
330
4618
330
482A
330
4837
330
4844
330
4891
330
48F5
330
49E1
330
4A51
330
4A68
330
58CB
330
58CC
330
58D1
330
58D2
330
58D3
330
58D6
102
}
330
A
100
AcDbSymbolTableRecord
100
AcDbDimStyleTableRecord
  2
ISO-25
 70
     0
 41
35.0
 42
65.0
 43
3.75
 44
0.0
 73
     0
 74
     0
 77
     1
 78
     8
140
25.0
141
2.5
143
0.03937007874016
147
6.25
171
     3
172
     1
271
     2
272
     2
274
     3
283
     0
284
     8
340
11
341
DA
342
D0
371
    15
372
    15
  0
ENDTAB
  0
TABLE
  2
BLOCK_RECORD
  5
1
330
0
100
AcDbSymbolTable
 70
    56
  0
BLOCK_RECORD
  5
1F
102
{ACAD_XDICTIONARY
360
1A15
102
}
330
1
100
AcDbSymbolTableRecord
100
AcDbBlockTableRecord
  2
*Model_Space
340
22
  0
BLOCK_RECORD
  5
1B
330
1
100
AcDbSymbolTableRecord
100
AcDbBlockTableRecord
  2
*Paper_Space
340
1E
  0
BLOCK_RECORD
  5
23
330
1
100
AcDbSymbolTableRecord
100
AcDbBlockTableRecord
  2
*Paper_Space0
340
26
  0
BLOCK_RECORD
  5
D0
330
1
100
AcDbSymbolTableRecord
100
AcDbBlockTableRecord
  2
_DotSmall
340
0
102
{BLKREFS
331
5BE6
331
5BE7
331
5BF0
331
5BF1
331
5BF9
331
5BFA
331
5C52
331
5C53
331
5C5A
331
5C5B
331
5C63
331
5C64
331
5C6B
331
5C6C
331
5C75
331
5C76
331
5C7D
331
5C7E
331
5C86
331
5C87
331
5C8F
331
5C90
331
5C98
331
5C99
331
5CA1
331
5CA2
331
5CAD
331
5CAE
331
5CB5
331
5CB6
331
5CC1
331
5CC2
331
5CC9
331
5CCA
331
5CD3
331
5CD4
331
5CDB
331
5CDC
331
5CE5
331
5CE6
331
5CF0
331
5CF1
331
5CF9
331
5CFA
331
5D01
331
5D02
331
5D0A
331
5D0B
331
5D13
331
5D14
331
5D1C
331
5D1D
331
5D25
331
5D26
331
5D2F
331
5D30
331
5D37
331
5D38
331
5D40
331
5D41
331
5D49
331
5D4A
331
5D53
331
5D54
331
5D5B
331
5D5C
331
5D65
331
5D66
331
5D6D
331
5D6E
331
5D76
331
5D77
331
5D7F
331
5D80
331
5D88
331
5D89
331
5D97
331
5D98
331
5DA0
331
5DA1
331
5DA9
331
5DAA
331
5DB2
331
5DB3
331
5DBB
331
5DBC
331
5DC5
331
5DC6
331
5DCE
331
5DCF
331
5DD7
331
5DD8
331
5DDF
331
5DE0
331
5DE9
331
5DEA
331
5DF1
331
5DF2
331
5DFB
331
5DFC
331
5E03
331
5E04
102
}
  0
BLOCK_RECORD
  5
D4
330
1
100
AcDbSymbolTableRecord
100
AcDbBlockTableRecord
  2
_Origin2
340
0
  0
BLOCK_RECORD
  5
DA
330
1
100
AcDbSymbolTableRecord
100
AcDbBlockTableRecord
  2
_Open30
340
0
  0
BLOCK_RECORD
  5
3CF
330
1
100
AcDbSymbolTableRecord
100
AcDbBlockTableRecord
  2
*D4
340
0
  0
BLOCK_RECORD
  5
3DD
330
1
100
AcDbSymbolTableRecord
100
AcDbBlockTableRecord
  2
*D5
340
0
  0
BLOCK_RECORD
  5
3EA
330
1
100
AcDbSymbolTableRecord
100
AcDbBlockTableRecord
  2
*D6
340
0
  0
BLOCK_RECORD
  5
3F7
330
1
100
AcDbSymbolTableRecord
100
AcDbBlockTableRecord
  2
*D7
340
0
  0
BLOCK_RECORD
  5
104B
330
1
100
AcDbSymbolTableRecord
100
AcDbBlockTableRecord
  2
*D8
340
0
  0
BLOCK_RECORD
  5
1059
330
1
100
AcDbSymbolTableRecord
100
AcDbBlockTableRecord
  2
*D9
340
0
  0
BLOCK_RECORD
  5
1066
330
1
100
AcDbSymbolTableRecord
100
AcDbBlockTableRecord
  2
*D10
340
0
  0
BLOCK_RECORD
  5
1B5A
330
1
100
AcDbSymbolTableRecord
100
AcDbBlockTableRecord
  2
*D11
340
0
  0
BLOCK_RECORD
  5
1B66
330
1
100
AcDbSymbolTableRecord
100
AcDbBlockTableRecord
  2
*D12
340
0
  0
BLOCK_RECORD
  5
1B72
330
1
100
AcDbSymbolTableRecord
100
AcDbBlockTableRecord
  2
*D13
340
0
  0
BLOCK_RECORD
  5
1BE5
330
1
100
AcDbSymbolTableRecord
100
AcDbBlockTableRecord
  2
*D14
340
0
  0
BLOCK_RECORD
  5
1C04
330
1
100
AcDbSymbolTableRecord
100
AcDbBlockTableRecord
  2
*D15
340
0
  0
BLOCK_RECORD
  5
1C24
330
1
100
AcDbSymbolTableRecord
100
AcDbBlockTableRecord
  2
*D16
340
0
  0
BLOCK_RECORD
  5
1E1D
330
1
100
AcDbSymbolTableRecord
100
AcDbBlockTableRecord
  2
*D17
340
0
  0
BLOCK_RECORD
  5
1E29
330
1
100
AcDbSymbolTableRecord
100
AcDbBlockTableRecord
  2
*D18
340
0
  0
BLOCK_RECORD
  5
269B
330
1
100
AcDbSymbolTableRecord
100
AcDbBlockTableRecord
  2
*D19
340
0
  0
BLOCK_RECORD
  5
26A7
330
1
100
AcDbSymbolTableRecord
100
AcDbBlockTableRecord
  2
*D20
340
0
  0
BLOCK_RECORD
  5
373F
330
1
100
AcDbSymbolTableRecord
100
AcDbBlockTableRecord
  2
*D21
340
0
  0
BLOCK_RECORD
  5
3CE4
330
1
100
AcDbSymbolTableRecord
100
AcDbBlockTableRecord
  2
*D22
340
0
  0
BLOCK_RECORD
  5
3CFA
330
1
100
AcDbSymbolTableRecord
100
AcDbBlockTableRecord
  2
*D23
340
0
  0
BLOCK_RECORD
  5
3D10
330
1
100
AcDbSymbolTableRecord
100
AcDbBlockTableRecord
  2
*D24
340
0
  0
BLOCK_RECORD
  5
3E29
330
1
100
AcDbSymbolTableRecord
100
AcDbBlockTableRecord
  2
*D25
340
0
  0
BLOCK_RECORD
  5
3E4A
330
1
100
AcDbSymbolTableRecord
100
AcDbBlockTableRecord
  2
*D26
340
0
  0
BLOCK_RECORD
  5
3E7B
330
1
100
AcDbSymbolTableRecord
100
AcDbBlockTableRecord
  2
*D27
340
0
  0
BLOCK_RECORD
  5
3EB8
330
1
100
AcDbSymbolTableRecord
100
AcDbBlockTableRecord
  2
*D28
340
0
  0
BLOCK_RECORD
  5
3F59
330
1
100
AcDbSymbolTableRecord
100
AcDbBlockTableRecord
  2
*D29
340
0
  0
BLOCK_RECORD
  5
3F6F
330
1
100
AcDbSymbolTableRecord
100
AcDbBlockTableRecord
  2
*D30
340
0
  0
BLOCK_RECORD
  5
3F86
330
1
100
AcDbSymbolTableRecord
100
AcDbBlockTableRecord
  2
*D31
340
0
  0
BLOCK_RECORD
  5
3FD8
330
1
100
AcDbSymbolTableRecord
100
AcDbBlockTableRecord
  2
*D32
340
0
  0
BLOCK_RECORD
  5
3FF7
330
1
100
AcDbSymbolTableRecord
100
AcDbBlockTableRecord
  2
*D33
340
0
  0
BLOCK_RECORD
  5
400D
330
1
100
AcDbSymbolTableRecord
100
AcDbBlockTableRecord
  2
*D34
340
0
  0
BLOCK_RECORD
  5
4023
330
1
100
AcDbSymbolTableRecord
100
AcDbBlockTableRecord
  2
*D35
340
0
  0
BLOCK_RECORD
  5
40C7
330
1
100
AcDbSymbolTableRecord
100
AcDbBlockTableRecord
  2
*D36
340
0
  0
BLOCK_RECORD
  5
40E6
330
1
100
AcDbSymbolTableRecord
100
AcDbBlockTableRecord
  2
*D37
340
0
  0
BLOCK_RECORD
  5
45CD
330
1
100
AcDbSymbolTableRecord
100
AcDbBlockTableRecord
  2
*D38
340
0
  0
BLOCK_RECORD
  5
45DA
330
1
100
AcDbSymbolTableRecord
100
AcDbBlockTableRecord
  2
*D39
340
0
  0
BLOCK_RECORD
  5
45F4
330
1
100
AcDbSymbolTableRecord
100
AcDbBlockTableRecord
  2
*D40
340
0
  0
BLOCK_RECORD
  5
4619
330
1
100
AcDbSymbolTableRecord
100
AcDbBlockTableRecord
  2
*D41
340
0
  0
BLOCK_RECORD
  5
482B
330
1
100
AcDbSymbolTableRecord
100
AcDbBlockTableRecord
  2
*D42
340
0
  0
BLOCK_RECORD
  5
4838
330
1
100
AcDbSymbolTableRecord
100
AcDbBlockTableRecord
  2
*D43
340
0
  0
BLOCK_RECORD
  5
4845
330
1
100
AcDbSymbolTableRecord
100
AcDbBlockTableRecord
  2
*D44
340
0
  0
BLOCK_RECORD
  5
4892
330
1
100
AcDbSymbolTableRecord
100
AcDbBlockTableRecord
  2
*D45
340
0
  0
BLOCK_RECORD
  5
48F6
330
1
100
AcDbSymbolTableRecord
100
AcDbBlockTableRecord
  2
*D46
340
0
  0
BLOCK_RECORD
  5
49E2
330
1
100
AcDbSymbolTableRecord
100
AcDbBlockTableRecord
  2
*D47
340
0
  0
BLOCK_RECORD
  5
4A52
330
1
100
AcDbSymbolTableRecord
100
AcDbBlockTableRecord
  2
*D48
340
0
  0
BLOCK_RECORD
  5
4A69
330
1
100
AcDbSymbolTableRecord
100
AcDbBlockTableRecord
  2
*D49
340
0
  0
BLOCK_RECORD
  5
590F
330
1
100
AcDbSymbolTableRecord
100
AcDbBlockTableRecord
  2
*D50
340
0
  0
BLOCK_RECORD
  5
591B
330
1
100
AcDbSymbolTableRecord
100
AcDbBlockTableRecord
  2
*D51
340
0
  0
BLOCK_RECORD
  5
5927
330
1
100
AcDbSymbolTableRecord
100
AcDbBlockTableRecord
  2
*D52
340
0
  0
BLOCK_RECORD
  5
5933
330
1
100
AcDbSymbolTableRecord
100
AcDbBlockTableRecord
  2
*D53
340
0
  0
BLOCK_RECORD
  5
593F
330
1
100
AcDbSymbolTableRecord
100
AcDbBlockTableRecord
  2
*D54
340
0
  0
BLOCK_RECORD
  5
594A
330
1
100
AcDbSymbolTableRecord
100
AcDbBlockTableRecord
  2
*D55
340
0
  0
ENDTAB
  0
ENDSEC
  0
SECTION
  2
BLOCKS
  0
BLOCK
  5
20
330
1F
100
AcDbEntity
  8
0
100
AcDbBlockBegin
  2
*Model_Space
 70
     0
 10
0.0
 20
0.0
 30
0.0
  3
*Model_Space
  1

  0
ENDBLK
  5
21
330
1F
100
AcDbEntity
  8
0
100
AcDbBlockEnd
  0
BLOCK
  5
1C
330
1B
100
AcDbEntity
 67
     1
  8
0
100
AcDbBlockBegin
  2
*Paper_Space
 70
     0
 10
0.0
 20
0.0
 30
0.0
  3
*Paper_Space
  1

  0
ENDBLK
  5
1D
330
1B
100
AcDbEntity
 67
     1
  8
0
100
AcDbBlockEnd
  0
BLOCK
  5
24
330
23
100
AcDbEntity
  8
0
100
AcDbBlockBegin
  2
*Paper_Space0
 70
     0
 10
0.0
 20
0.0
 30
0.0
  3
*Paper_Space0
  1

  0
ENDBLK
  5
25
330
23
100
AcDbEntity
  8
0
100
AcDbBlockEnd
  0
BLOCK
  5
D2
330
D0
100
AcDbEntity
  8
0
100
AcDbBlockBegin
  2
_DotSmall
 70
     0
 10
0.0
 20
0.0
 30
0.0
  3
_DotSmall
  1

  0
LWPOLYLINE
  5
D1
330
D0
100
AcDbEntity
  8
0
 62
     0
100
AcDbPolyline
 90
        2
 70
     1
 43
0.5
 10
-0.0625
 20
0.0
 42
1.0
 10
0.0625
 20
0.0
 42
1.0
  0
ENDBLK
  5
D3
330
D0
100
AcDbEntity
  8
0
100
AcDbBlockEnd
  0
BLOCK
  5
D8
330
D4
100
AcDbEntity
  8
0
100
AcDbBlockBegin
  2
_Origin2
 70
     0
 10
0.0
 20
0.0
 30
0.0
  3
_Origin2
  1

  0
CIRCLE
  5
D5
330
D4
100
AcDbEntity
  8
0
 62
     0
370
    -2
100
AcDbCircle
 10
0.0
 20
0.0
 30
0.0
 40
0.5
  0
CIRCLE
  5
D6
330
D4
100
AcDbEntity
  8
0
 62
     0
370
    -2
100
AcDbCircle
 10
0.0
 20
0.0
 30
0.0
 40
0.25
  0
LINE
  5
D7
330
D4
100
AcDbEntity
  8
0
 62
     0
370
    -2
100
AcDbLine
 10
-0.5
 20
0.0
 30
0.0
 11
-1.0
 21
0.0
 31
0.0
  0
ENDBLK
  5
D9
330
D4
100
AcDbEntity
  8
0
100
AcDbBlockEnd
  0
BLOCK
  5
DE
330
DA
100
AcDbEntity
  8
0
100
AcDbBlockBegin
  2
_Open30
 70
     0
 10
0.0
 20
0.0
 30
0.0
  3
_Open30
  1

  0
LINE
  5
DB
330
DA
100
AcDbEntity
  8
0
 62
     0
370
    -2
100
AcDbLine
 10
-1.0
 20
0.26794919
 30
0.0
 11
0.0
 21
0.0
 31
0.0
  0
LINE
  5
DC
330
DA
100
AcDbEntity
  8
0
 62
     0
370
    -2
100
AcDbLine
 10
0.0
 20
0.0
 30
0.0
 11
-1.0
 21
-0.26794919
 31
0.0
  0
LINE
  5
DD
330
DA
100
AcDbEntity
  8
0
 62
     0
370
    -2
100
AcDbLine
 10
0.0
 20
0.0
 30
0.0
 11
-1.0
 21
0.0
 31
0.0
  0
ENDBLK
  5
DF
330
DA
100
AcDbEntity
  8
0
100
AcDbBlockEnd
  0
BLOCK
  5
3DA
330
3CF
100
AcDbEntity
  8
0
100
AcDbBlockBegin
  2
*D4
 70
     1
 10
0.0
 20
0.0
 30
0.0
  3
*D4
  1

  0
LINE
  5
5C4F
330
3CF
100
AcDbEntity
  8
実形
 62
     0
370
    15
100
AcDbLine
 10
428.5670385856247
 20
1670.187035644826
 30
0.0
 11
335.3917238617515
 21
1670.187035644826
 31
0.0
  0
LINE
  5
5C50
330
3CF
100
AcDbEntity
  8
実形
 62
     0
370
    15
100
AcDbLine
 10
428.5670385856247
 20
1655.187035644826
 30
0.0
 11
335.3917238617514
 21
1655.187035644826
 31
0.0
  0
LINE
  5
5C51
330
3CF
100
AcDbEntity
  8
実形
 62
     0
370
    18
100
AcDbLine
 10
335.3917238617515
 20
1670.187035644826
 30
0.0
 11
335.3917238617514
 21
1655.187035644826
 31
0.0
  0
INSERT
  5
5C52
330
3CF
100
AcDbEntity
  8
実形
 62
     0
370
    18
100
AcDbBlockReference
  2
_DotSmall
 10
335.3917238617515
 20
1670.187035644826
 30
0.0
 41
35.0
 42
35.0
 43
35.0
 50
90.0
  0
INSERT
  5
5C53
330
3CF
100
AcDbEntity
  8
実形
 62
     0
370
    18
100
AcDbBlockReference
  2
_DotSmall
 10
335.3917238617514
 20
1655.187035644826
 30
0.0
 41
35.0
 42
35.0
 43
35.0
 50
270.0
  0
POINT
  5
5C54
330
3CF
100
AcDbEntity
  8
Defpoints
 62
     0
100
AcDbPoint
 10
493.5670385856247
 20
1670.187035644826
 30
0.0
  0
POINT
  5
5C55
330
3CF
100
AcDbEntity
  8
Defpoints
 62
     0
100
AcDbPoint
 10
493.5670385856247
 20
1655.187035644826
 30
0.0
  0
POINT
  5
5C56
330
3CF
100
AcDbEntity
  8
Defpoints
 62
     0
100
AcDbPoint
 10
335.3917238617514
 20
1655.187035644826
 30
0.0
  0
ENDBLK
  5
3DB
330
3CF
100
AcDbEntity
  8
0
100
AcDbBlockEnd
  0
BLOCK
  5
3E7
330
3DD
100
AcDbEntity
  8
0
100
AcDbBlockBegin
  2
*D5
 70
     1
 10
0.0
 20
0.0
 30
0.0
  3
*D5
  1

  0
LINE
  5
5E00
330
3DD
100
AcDbEntity
  8
実形
 62
     0
370
    15
100
AcDbLine
 10
428.5670385856247
 20
1655.187035644826
 30
0.0
 11
335.3917238617515
 21
1655.187035644826
 31
0.0
  0
LINE
  5
5E01
330
3DD
100
AcDbEntity
  8
実形
 62
     0
370
    15
100
AcDbLine
 10
428.5670385856247
 20
1215.187035644826
 30
0.0
 11
335.3917238617514
 21
1215.187035644826
 31
0.0
  0
LINE
  5
5E02
330
3DD
100
AcDbEntity
  8
実形
 62
     0
370
    18
100
AcDbLine
 10
335.3917238617515
 20
1655.187035644826
 30
0.0
 11
335.3917238617514
 21
1215.187035644826
 31
0.0
  0
INSERT
  5
5E03
330
3DD
100
AcDbEntity
  8
実形
 62
     0
370
    18
100
AcDbBlockReference
  2
_DotSmall
 10
335.3917238617515
 20
1655.187035644826
 30
0.0
 41
35.0
 42
35.0
 43
35.0
 50
90.0
  0
INSERT
  5
5E04
330
3DD
100
AcDbEntity
  8
実形
 62
     0
370
    18
100
AcDbBlockReference
  2
_DotSmall
 10
335.3917238617514
 20
1215.187035644826
 30
0.0
 41
35.0
 42
35.0
 43
35.0
 50
270.0
  0
MTEXT
  5
5E05
330
3DD
100
AcDbEntity
  8
実形
 62
     0
100
AcDbMText
 10
316.6417238617512
 20
1435.187035644826
 30
0.0
 40
25.0
 41
0.0
 71
     5
 72
     1
  1
440
 11
0.0000000000000001
 21
1.0
 31
0.0
 73
     1
 44
1.0
1001
ACAD
1000
MTEXTBEGIN
1070
    73
1070
     1
1070
    44
1040
1.0
1070
    74
1070
     0
1000
MTEXTEND
  0
POINT
  5
5E06
330
3DD
100
AcDbEntity
  8
Defpoints
 62
     0
100
AcDbPoint
 10
493.5670385856247
 20
1655.187035644826
 30
0.0
  0
POINT
  5
5E07
330
3DD
100
AcDbEntity
  8
Defpoints
 62
     0
100
AcDbPoint
 10
493.5670385856247
 20
1215.187035644826
 30
0.0
  0
POINT
  5
5E08
330
3DD
100
AcDbEntity
  8
Defpoints
 62
     0
100
AcDbPoint
 10
335.3917238617514
 20
1215.187035644826
 30
0.0
  0
ENDBLK
  5
3E8
330
3DD
100
AcDbEntity
  8
0
100
AcDbBlockEnd
  0
BLOCK
  5
3F4
330
3EA
100
AcDbEntity
  8
0
100
AcDbBlockBegin
  2
*D6
 70
     1
 10
0.0
 20
0.0
 30
0.0
  3
*D6
  1

  0
LINE
  5
5DF7
330
3EA
100
AcDbEntity
  8
実形
 62
     0
370
    15
100
AcDbLine
 10
428.5670385856247
 20
1215.187035644826
 30
0.0
 11
335.3917238617514
 21
1215.187035644826
 31
0.0
  0
LINE
  5
5DF8
330
3EA
100
AcDbEntity
  8
実形
 62
     0
370
    15
100
AcDbLine
 10
428.5670385856247
 20
1200.187035644826
 30
0.0
 11
335.3917238617514
 21
1200.187035644826
 31
0.0
  0
LINE
  5
5DF9
330
3EA
100
AcDbEntity
  8
実形
 62
     0
370
    18
100
AcDbLine
 10
335.3917238617514
 20
1215.187035644826
 30
0.0
 11
335.3917238617514
 21
1200.187035644826
 31
0.0
  0
MTEXT
  5
5DFA
330
3EA
100
AcDbEntity
  8
実形
 62
     0
370
    -2
100
AcDbMText
 10
311.0741866521239
 20
1223.443354612232
 30
0.0
 40
25.0
 41
0.0
 71
     5
 72
     1
  1
15
 11
0.0000000000000001
 21
1.0
 31
0.0
 73
     1
 44
1.0
1001
ACAD
1000
MTEXTBEGIN
1070
    73
1070
     1
1070
    44
1040
1.0
1070
    74
1070
     0
1000
MTEXTEND
  0
INSERT
  5
5DFB
330
3EA
100
AcDbEntity
  8
実形
 62
     0
370
    18
100
AcDbBlockReference
  2
_DotSmall
 10
335.3917238617514
 20
1215.187035644826
 30
0.0
 41
35.0
 42
35.0
 43
35.0
 50
90.0
  0
INSERT
  5
5DFC
330
3EA
100
AcDbEntity
  8
実形
 62
     0
370
    18
100
AcDbBlockReference
  2
_DotSmall
 10
335.3917238617514
 20
1200.187035644826
 30
0.0
 41
35.0
 42
35.0
 43
35.0
 50
270.0
  0
POINT
  5
5DFD
330
3EA
100
AcDbEntity
  8
Defpoints
 62
     0
100
AcDbPoint
 10
493.5670385856247
 20
1215.187035644826
 30
0.0
  0
POINT
  5
5DFE
330
3EA
100
AcDbEntity
  8
Defpoints
 62
     0
100
AcDbPoint
 10
493.5670385856247
 20
1200.187035644826
 30
0.0
  0
POINT
  5
5DFF
330
3EA
100
AcDbEntity
  8
Defpoints
 62
     0
100
AcDbPoint
 10
335.3917238617514
 20
1200.187035644826
 30
0.0
  0
ENDBLK
  5
3F5
330
3EA
100
AcDbEntity
  8
0
100
AcDbBlockEnd
  0
BLOCK
  5
401
330
3F7
100
AcDbEntity
  8
0
100
AcDbBlockBegin
  2
*D7
 70
     1
 10
0.0
 20
0.0
 30
0.0
  3
*D7
  1

  0
LINE
  5
5DEE
330
3F7
100
AcDbEntity
  8
実形
 62
     0
370
    15
100
AcDbLine
 10
428.5670385856247
 20
1670.187035644826
 30
0.0
 11
281.5518255370672
 21
1670.187035644826
 31
0.0
  0
LINE
  5
5DEF
330
3F7
100
AcDbEntity
  8
実形
 62
     0
370
    15
100
AcDbLine
 10
428.5670385856247
 20
1200.187035644826
 30
0.0
 11
281.5518255370671
 21
1200.187035644826
 31
0.0
  0
LINE
  5
5DF0
330
3F7
100
AcDbEntity
  8
実形
 62
     0
370
    18
100
AcDbLine
 10
281.5518255370672
 20
1670.187035644826
 30
0.0
 11
281.5518255370671
 21
1200.187035644826
 31
0.0
  0
INSERT
  5
5DF1
330
3F7
100
AcDbEntity
  8
実形
 62
     0
370
    18
100
AcDbBlockReference
  2
_DotSmall
 10
281.5518255370672
 20
1670.187035644826
 30
0.0
 41
35.0
 42
35.0
 43
35.0
 50
90.0
  0
INSERT
  5
5DF2
330
3F7
100
AcDbEntity
  8
実形
 62
     0
370
    18
100
AcDbBlockReference
  2
_DotSmall
 10
281.5518255370671
 20
1200.187035644826
 30
0.0
 41
35.0
 42
35.0
 43
35.0
 50
270.0
  0
MTEXT
  5
5DF3
330
3F7
100
AcDbEntity
  8
実形
 62
     0
100
AcDbMText
 10
262.8018255370669
 20
1435.187035644826
 30
0.0
 40
25.0
 41
0.0
 71
     5
 72
     1
  1
470
 11
0.0000000000000001
 21
1.0
 31
0.0
 73
     1
 44
1.0
1001
ACAD
1000
MTEXTBEGIN
1070
    73
1070
     1
1070
    44
1040
1.0
1070
    74
1070
     0
1000
MTEXTEND
  0
POINT
  5
5DF4
330
3F7
100
AcDbEntity
  8
Defpoints
 62
     0
100
AcDbPoint
 10
493.5670385856247
 20
1670.187035644826
 30
0.0
  0
POINT
  5
5DF5
330
3F7
100
AcDbEntity
  8
Defpoints
 62
     0
100
AcDbPoint
 10
493.5670385856247
 20
1200.187035644826
 30
0.0
  0
POINT
  5
5DF6
330
3F7
100
AcDbEntity
  8
Defpoints
 62
     0
100
AcDbPoint
 10
281.5518255370671
 20
1200.187035644826
 30
0.0
  0
ENDBLK
  5
402
330
3F7
100
AcDbEntity
  8
0
100
AcDbBlockEnd
  0
BLOCK
  5
1056
330
104B
100
AcDbEntity
  8
0
100
AcDbBlockBegin
  2
*D8
 70
     1
 10
0.0
 20
0.0
 30
0.0
  3
*D8
  1

  0
LINE
  5
5DE5
330
104B
100
AcDbEntity
  8
実形
 62
     0
370
    18
100
AcDbLine
 10
428.5670385856247
 20
1655.187035644826
 30
0.0
 11
388.2578827671114
 21
1655.187035644826
 31
0.0
  0
LINE
  5
5DE6
330
104B
100
AcDbEntity
  8
実形
 62
     0
370
    18
100
AcDbLine
 10
428.5670385856247
 20
1640.187035644826
 30
0.0
 11
388.2578827671114
 21
1640.187035644826
 31
0.0
  0
LINE
  5
5DE7
330
104B
100
AcDbEntity
  8
実形
 62
     0
370
    18
100
AcDbLine
 10
388.2578827671114
 20
1655.187035644826
 30
0.0
 11
388.2578827671114
 21
1640.187035644826
 31
0.0
  0
MTEXT
  5
5DE8
330
104B
100
AcDbEntity
  8
実形
 62
     0
100
AcDbMText
 10
364.3569021842432
 20
1633.939094675534
 30
0.0
 40
25.0
 41
0.0
 71
     5
 72
     1
  1
15
 11
0.0000000000000001
 21
1.0
 31
0.0
 73
     1
 44
1.0
1001
ACAD
1000
MTEXTBEGIN
1070
    73
1070
     1
1070
    44
1040
1.0
1070
    74
1070
     0
1000
MTEXTEND
  0
INSERT
  5
5DE9
330
104B
100
AcDbEntity
  8
実形
 62
     0
370
    18
100
AcDbBlockReference
  2
_DotSmall
 10
388.2578827671114
 20
1655.187035644826
 30
0.0
 41
35.0
 42
35.0
 43
35.0
 50
90.0
  0
INSERT
  5
5DEA
330
104B
100
AcDbEntity
  8
実形
 62
     0
370
    18
100
AcDbBlockReference
  2
_DotSmall
 10
388.2578827671114
 20
1640.187035644826
 30
0.0
 41
35.0
 42
35.0
 43
35.0
 50
270.0
  0
POINT
  5
5DEB
330
104B
100
AcDbEntity
  8
Defpoints
 62
     0
100
AcDbPoint
 10
493.5670385856247
 20
1655.187035644826
 30
0.0
  0
POINT
  5
5DEC
330
104B
100
AcDbEntity
  8
Defpoints
 62
     0
100
AcDbPoint
 10
493.5670385856247
 20
1640.187035644826
 30
0.0
  0
POINT
  5
5DED
330
104B
100
AcDbEntity
  8
Defpoints
 62
     0
100
AcDbPoint
 10
388.2578827671114
 20
1640.187035644826
 30
0.0
  0
ENDBLK
  5
1057
330
104B
100
AcDbEntity
  8
0
100
AcDbBlockEnd
  0
BLOCK
  5
1063
330
1059
100
AcDbEntity
  8
0
100
AcDbBlockBegin
  2
*D9
 70
     1
 10
0.0
 20
0.0
 30
0.0
  3
*D9
  1

  0
LINE
  5
5DDC
330
1059
100
AcDbEntity
  8
実形
 62
     0
370
    18
100
AcDbLine
 10
428.5670385856247
 20
1640.187035644826
 30
0.0
 11
388.2578827671114
 21
1640.187035644826
 31
0.0
  0
LINE
  5
5DDD
330
1059
100
AcDbEntity
  8
実形
 62
     0
370
    18
100
AcDbLine
 10
428.5670385856247
 20
1230.187035644826
 30
0.0
 11
388.2578827671114
 21
1230.187035644826
 31
0.0
  0
LINE
  5
5DDE
330
1059
100
AcDbEntity
  8
実形
 62
     0
370
    18
100
AcDbLine
 10
388.2578827671114
 20
1640.187035644826
 30
0.0
 11
388.2578827671114
 21
1230.187035644826
 31
0.0
  0
INSERT
  5
5DDF
330
1059
100
AcDbEntity
  8
実形
 62
     0
370
    18
100
AcDbBlockReference
  2
_DotSmall
 10
388.2578827671114
 20
1640.187035644826
 30
0.0
 41
35.0
 42
35.0
 43
35.0
 50
90.0
  0
INSERT
  5
5DE0
330
1059
100
AcDbEntity
  8
実形
 62
     0
370
    18
100
AcDbBlockReference
  2
_DotSmall
 10
388.2578827671114
 20
1230.187035644826
 30
0.0
 41
35.0
 42
35.0
 43
35.0
 50
270.0
  0
MTEXT
  5
5DE1
330
1059
100
AcDbEntity
  8
実形
 62
     0
100
AcDbMText
 10
369.5078827671112
 20
1435.187035644826
 30
0.0
 40
25.0
 41
0.0
 71
     5
 72
     1
  1
410
 11
0.0000000000000001
 21
1.0
 31
0.0
 73
     1
 44
1.0
1001
ACAD
1000
MTEXTBEGIN
1070
    73
1070
     1
1070
    44
1040
1.0
1070
    74
1070
     0
1000
MTEXTEND
  0
POINT
  5
5DE2
330
1059
100
AcDbEntity
  8
Defpoints
 62
     0
100
AcDbPoint
 10
493.5670385856247
 20
1640.187035644826
 30
0.0
  0
POINT
  5
5DE3
330
1059
100
AcDbEntity
  8
Defpoints
 62
     0
100
AcDbPoint
 10
493.5670385856247
 20
1230.187035644826
 30
0.0
  0
POINT
  5
5DE4
330
1059
100
AcDbEntity
  8
Defpoints
 62
     0
100
AcDbPoint
 10
388.2578827671114
 20
1230.187035644826
 30
0.0
  0
ENDBLK
  5
1064
330
1059
100
AcDbEntity
  8
0
100
AcDbBlockEnd
  0
BLOCK
  5
1070
330
1066
100
AcDbEntity
  8
0
100
AcDbBlockBegin
  2
*D10
 70
     1
 10
0.0
 20
0.0
 30
0.0
  3
*D10
  1

  0
LINE
  5
5DD3
330
1066
100
AcDbEntity
  8
実形
 62
     0
370
    18
100
AcDbLine
 10
428.5670385856247
 20
1230.187035644826
 30
0.0
 11
388.2578827671112
 21
1230.187035644826
 31
0.0
  0
LINE
  5
5DD4
330
1066
100
AcDbEntity
  8
実形
 62
     0
370
    18
100
AcDbLine
 10
428.5670385856247
 20
1215.187035644826
 30
0.0
 11
388.2578827671112
 21
1215.187035644826
 31
0.0
  0
LINE
  5
5DD5
330
1066
100
AcDbEntity
  8
実形
 62
     0
370
    18
100
AcDbLine
 10
388.2578827671112
 20
1230.187035644826
 30
0.0
 11
388.2578827671112
 21
1215.187035644826
 31
0.0
  0
MTEXT
  5
5DD6
330
1066
100
AcDbEntity
  8
実形
 62
     0
100
AcDbMText
 10
367.0409974478189
 20
1238.911309260595
 30
0.0
 40
25.0
 41
0.0
 71
     5
 72
     1
  1
15
 11
0.0000000000000001
 21
1.0
 31
0.0
 73
     1
 44
1.0
1001
ACAD
1000
MTEXTBEGIN
1070
    73
1070
     1
1070
    44
1040
1.0
1070
    74
1070
     0
1000
MTEXTEND
  0
INSERT
  5
5DD7
330
1066
100
AcDbEntity
  8
実形
 62
     0
370
    18
100
AcDbBlockReference
  2
_DotSmall
 10
388.2578827671112
 20
1230.187035644826
 30
0.0
 41
35.0
 42
35.0
 43
35.0
 50
90.0
  0
INSERT
  5
5DD8
330
1066
100
AcDbEntity
  8
実形
 62
     0
370
    18
100
AcDbBlockReference
  2
_DotSmall
 10
388.2578827671112
 20
1215.187035644826
 30
0.0
 41
35.0
 42
35.0
 43
35.0
 50
270.0
  0
POINT
  5
5DD9
330
1066
100
AcDbEntity
  8
Defpoints
 62
     0
100
AcDbPoint
 10
493.5670385856247
 20
1230.187035644826
 30
0.0
  0
POINT
  5
5DDA
330
1066
100
AcDbEntity
  8
Defpoints
 62
     0
100
AcDbPoint
 10
493.5670385856247
 20
1215.187035644826
 30
0.0
  0
POINT
  5
5DDB
330
1066
100
AcDbEntity
  8
Defpoints
 62
     0
100
AcDbPoint
 10
388.2578827671112
 20
1215.187035644826
 30
0.0
  0
ENDBLK
  5
1071
330
1066
100
AcDbEntity
  8
0
100
AcDbBlockEnd
  0
BLOCK
  5
1B64
330
1B5A
100
AcDbEntity
  8
0
100
AcDbBlockBegin
  2
*D11
 70
     1
 10
0.0
 20
0.0
 30
0.0
  3
*D11
  1

  0
LINE
  5
5DCA
330
1B5A
100
AcDbEntity
  8
実形
 62
     0
370
    18
100
AcDbLine
 10
1401.698586980798
 20
1689.187035644826
 30
0.0
 11
1439.859578778836
 21
1689.187035644826
 31
0.0
  0
LINE
  5
5DCB
330
1B5A
100
AcDbEntity
  8
実形
 62
     0
370
    18
100
AcDbLine
 10
1401.698586980798
 20
1655.187035644826
 30
0.0
 11
1439.859578778836
 21
1655.187035644826
 31
0.0
  0
LINE
  5
5DCC
330
1B5A
100
AcDbEntity
  8
実形
 62
     0
370
    18
100
AcDbLine
 10
1439.859578778836
 20
1689.187035644826
 30
0.0
 11
1439.859578778836
 21
1655.187035644826
 31
0.0
  0
MTEXT
  5
5DCD
330
1B5A
100
AcDbEntity
  8
実形
 62
     0
100
AcDbMText
 10
1417.636558712496
 20
1623.291280890229
 30
0.0
 40
25.0
 41
0.0
 71
     5
 72
     1
  1
35
 11
0.0000000000000001
 21
1.0
 31
0.0
 73
     1
 44
1.0
1001
ACAD
1000
MTEXTBEGIN
1070
    73
1070
     1
1070
    44
1040
1.0
1070
    74
1070
     0
1000
MTEXTEND
  0
INSERT
  5
5DCE
330
1B5A
100
AcDbEntity
  8
実形
 62
     0
370
    18
100
AcDbBlockReference
  2
_DotSmall
 10
1439.859578778836
 20
1689.187035644826
 30
0.0
 41
35.0
 42
35.0
 43
35.0
 50
90.0
  0
INSERT
  5
5DCF
330
1B5A
100
AcDbEntity
  8
実形
 62
     0
370
    18
100
AcDbBlockReference
  2
_DotSmall
 10
1439.859578778836
 20
1655.187035644826
 30
0.0
 41
35.0
 42
35.0
 43
35.0
 50
270.0
  0
POINT
  5
5DD0
330
1B5A
100
AcDbEntity
  8
Defpoints
 62
     0
100
AcDbPoint
 10
1336.698586980797
 20
1689.187035644826
 30
0.0
  0
POINT
  5
5DD1
330
1B5A
100
AcDbEntity
  8
Defpoints
 62
     0
100
AcDbPoint
 10
1336.698586980797
 20
1655.187035644826
 30
0.0
  0
POINT
  5
5DD2
330
1B5A
100
AcDbEntity
  8
Defpoints
 62
     0
100
AcDbPoint
 10
1439.859578778836
 20
1655.187035644826
 30
0.0
  0
ENDBLK
  5
1B65
330
1B5A
100
AcDbEntity
  8
0
100
AcDbBlockEnd
  0
BLOCK
  5
1B70
330
1B66
100
AcDbEntity
  8
0
100
AcDbBlockBegin
  2
*D12
 70
     1
 10
0.0
 20
0.0
 30
0.0
  3
*D12
  1

  0
LINE
  5
5DC1
330
1B66
100
AcDbEntity
  8
実形
 62
     0
370
    18
100
AcDbLine
 10
1401.698586980798
 20
1215.187035644826
 30
0.0
 11
1439.859578778836
 21
1215.187035644826
 31
0.0
  0
LINE
  5
5DC2
330
1B66
100
AcDbEntity
  8
実形
 62
     0
370
    18
100
AcDbLine
 10
1401.698586980798
 20
1181.187035644826
 30
0.0
 11
1439.859578778836
 21
1181.187035644826
 31
0.0
  0
LINE
  5
5DC3
330
1B66
100
AcDbEntity
  8
実形
 62
     0
370
    18
100
AcDbLine
 10
1439.859578778836
 20
1215.187035644826
 30
0.0
 11
1439.859578778836
 21
1181.187035644826
 31
0.0
  0
MTEXT
  5
5DC4
330
1B66
100
AcDbEntity
  8
実形
 62
     0
100
AcDbMText
 10
1422.33597954168
 20
1256.875269712179
 30
0.0
 40
25.0
 41
0.0
 71
     5
 72
     1
  1
35
 11
0.0000000000000001
 21
1.0
 31
0.0
 73
     1
 44
1.0
1001
ACAD
1000
MTEXTBEGIN
1070
    73
1070
     1
1070
    44
1040
1.0
1070
    74
1070
     0
1000
MTEXTEND
  0
INSERT
  5
5DC5
330
1B66
100
AcDbEntity
  8
実形
 62
     0
370
    18
100
AcDbBlockReference
  2
_DotSmall
 10
1439.859578778836
 20
1215.187035644826
 30
0.0
 41
35.0
 42
35.0
 43
35.0
 50
90.0
  0
INSERT
  5
5DC6
330
1B66
100
AcDbEntity
  8
実形
 62
     0
370
    18
100
AcDbBlockReference
  2
_DotSmall
 10
1439.859578778836
 20
1181.187035644826
 30
0.0
 41
35.0
 42
35.0
 43
35.0
 50
270.0
  0
POINT
  5
5DC7
330
1B66
100
AcDbEntity
  8
Defpoints
 62
     0
100
AcDbPoint
 10
1336.698586980797
 20
1215.187035644826
 30
0.0
  0
POINT
  5
5DC8
330
1B66
100
AcDbEntity
  8
Defpoints
 62
     0
100
AcDbPoint
 10
1336.698586980797
 20
1181.187035644826
 30
0.0
  0
POINT
  5
5DC9
330
1B66
100
AcDbEntity
  8
Defpoints
 62
     0
100
AcDbPoint
 10
1439.859578778836
 20
1181.187035644826
 30
0.0
  0
ENDBLK
  5
1B71
330
1B66
100
AcDbEntity
  8
0
100
AcDbBlockEnd
  0
BLOCK
  5
1B7C
330
1B72
100
AcDbEntity
  8
0
100
AcDbBlockBegin
  2
*D13
 70
     1
 10
0.0
 20
0.0
 30
0.0
  3
*D13
  1

  0
LINE
  5
5DB8
330
1B72
100
AcDbEntity
  8
実形
 62
     0
370
    18
100
AcDbLine
 10
1438.791169514075
 20
1689.187035644826
 30
0.0
 11
1488.256529622351
 21
1689.187035644826
 31
0.0
  0
LINE
  5
5DB9
330
1B72
100
AcDbEntity
  8
実形
 62
     0
370
    18
100
AcDbLine
 10
1438.791169514075
 20
1181.187035644826
 30
0.0
 11
1488.256529622351
 21
1181.187035644826
 31
0.0
  0
LINE
  5
5DBA
330
1B72
100
AcDbEntity
  8
実形
 62
     0
370
    18
100
AcDbLine
 10
1488.256529622351
 20
1689.187035644826
 30
0.0
 11
1488.256529622351
 21
1181.187035644826
 31
0.0
  0
INSERT
  5
5DBB
330
1B72
100
AcDbEntity
  8
実形
 62
     0
370
    18
100
AcDbBlockReference
  2
_DotSmall
 10
1488.256529622351
 20
1689.187035644826
 30
0.0
 41
35.0
 42
35.0
 43
35.0
 50
90.0
  0
INSERT
  5
5DBC
330
1B72
100
AcDbEntity
  8
実形
 62
     0
370
    18
100
AcDbBlockReference
  2
_DotSmall
 10
1488.256529622351
 20
1181.187035644826
 30
0.0
 41
35.0
 42
35.0
 43
35.0
 50
270.0
  0
MTEXT
  5
5DBD
330
1B72
100
AcDbEntity
  8
実形
 62
     0
100
AcDbMText
 10
1469.506529622351
 20
1435.187035644826
 30
0.0
 40
25.0
 41
0.0
 71
     5
 72
     1
  1
508
 11
0.0000000000000001
 21
1.0
 31
0.0
 73
     1
 44
1.0
1001
ACAD
1000
MTEXTBEGIN
1070
    73
1070
     1
1070
    44
1040
1.0
1070
    74
1070
     0
1000
MTEXTEND
  0
POINT
  5
5DBE
330
1B72
100
AcDbEntity
  8
Defpoints
 62
     0
100
AcDbPoint
 10
1373.791169514075
 20
1689.187035644826
 30
0.0
  0
POINT
  5
5DBF
330
1B72
100
AcDbEntity
  8
Defpoints
 62
     0
100
AcDbPoint
 10
1373.791169514075
 20
1181.187035644826
 30
0.0
  0
POINT
  5
5DC0
330
1B72
100
AcDbEntity
  8
Defpoints
 62
     0
100
AcDbPoint
 10
1488.256529622351
 20
1181.187035644826
 30
0.0
  0
ENDBLK
  5
1B7D
330
1B72
100
AcDbEntity
  8
0
100
AcDbBlockEnd
  0
BLOCK
  5
1BEF
330
1BE5
100
AcDbEntity
  8
0
100
AcDbBlockBegin
  2
*D14
 70
     1
 10
0.0
 20
0.0
 30
0.0
  3
*D14
  1

  0
LINE
  5
5BF5
330
1BE5
100
AcDbEntity
  8
実形
 62
     0
370
    18
100
AcDbLine
 10
492.0060542338616
 20
1739.773717093029
 30
0.0
 11
492.0060542338616
 21
1768.850277586584
 31
0.0
  0
LINE
  5
5BF6
330
1BE5
100
AcDbEntity
  8
実形
 62
     0
370
    18
100
AcDbLine
 10
526.0058833179209
 20
1739.773717093029
 30
0.0
 11
526.0058833179209
 21
1768.850277586584
 31
0.0
  0
LINE
  5
5BF7
330
1BE5
100
AcDbEntity
  8
実形
 62
     0
370
    18
100
AcDbLine
 10
492.0060542338616
 20
1768.850277586584
 30
0.0
 11
526.0058833179209
 21
1768.850277586584
 31
0.0
  0
MTEXT
  5
5BF8
330
1BE5
100
AcDbEntity
  8
実形
 62
     0
100
AcDbMText
 10
529.0037121015538
 20
1803.850277586584
 30
0.0
 40
25.0
 41
0.0
 71
     5
 72
     1
  1
35
 73
     1
 44
1.0
1001
ACAD
1000
MTEXTBEGIN
1070
    73
1070
     1
1070
    44
1040
1.0
1070
    74
1070
     0
1000
MTEXTEND
  0
INSERT
  5
5BF9
330
1BE5
100
AcDbEntity
  8
実形
 62
     0
370
    18
100
AcDbBlockReference
  2
_DotSmall
 10
492.0060542338616
 20
1768.850277586584
 30
0.0
 41
35.0
 42
35.0
 43
35.0
 50
180.0
  0
INSERT
  5
5BFA
330
1BE5
100
AcDbEntity
  8
実形
 62
     0
370
    18
100
AcDbBlockReference
  2
_DotSmall
 10
526.0058833179209
 20
1768.850277586584
 30
0.0
 41
35.0
 42
35.0
 43
35.0
  0
POINT
  5
5BFB
330
1BE5
100
AcDbEntity
  8
Defpoints
 62
     0
100
AcDbPoint
 10
492.0060542338616
 20
1674.773717093029
 30
0.0
  0
POINT
  5
5BFC
330
1BE5
100
AcDbEntity
  8
Defpoints
 62
     0
100
AcDbPoint
 10
526.0058833179209
 20
1674.773717093029
 30
0.0
  0
POINT
  5
5BFD
330
1BE5
100
AcDbEntity
  8
Defpoints
 62
     0
100
AcDbPoint
 10
526.0058833179209
 20
1768.850277586584
 30
0.0
  0
ENDBLK
  5
1BF0
330
1BE5
100
AcDbEntity
  8
0
100
AcDbBlockEnd
  0
BLOCK
  5
1C0E
330
1C04
100
AcDbEntity
  8
0
100
AcDbBlockBegin
  2
*D15
 70
     1
 10
0.0
 20
0.0
 30
0.0
  3
*D15
  1

  0
LINE
  5
5BEC
330
1C04
100
AcDbEntity
  8
実形
 62
     0
370
    18
100
AcDbLine
 10
1360.329622737387
 20
1739.773717093029
 30
0.0
 11
1360.329622737387
 21
1768.850277586584
 31
0.0
  0
LINE
  5
5BED
330
1C04
100
AcDbEntity
  8
実形
 62
     0
370
    18
100
AcDbLine
 10
1326.329793653327
 20
1739.773717093029
 30
0.0
 11
1326.329793653327
 21
1768.850277586584
 31
0.0
  0
LINE
  5
5BEE
330
1C04
100
AcDbEntity
  8
実形
 62
     0
370
    18
100
AcDbLine
 10
1360.329622737387
 20
1768.850277586584
 30
0.0
 11
1326.329793653327
 21
1768.850277586584
 31
0.0
  0
MTEXT
  5
5BEF
330
1C04
100
AcDbEntity
  8
実形
 62
     0
100
AcDbMText
 10
1325.225402855451
 20
1803.850277586584
 30
0.0
 40
25.0
 41
0.0
 71
     5
 72
     1
  1
35
 73
     1
 44
1.0
1001
ACAD
1000
MTEXTBEGIN
1070
    73
1070
     1
1070
    44
1040
1.0
1070
    74
1070
     0
1000
MTEXTEND
  0
INSERT
  5
5BF0
330
1C04
100
AcDbEntity
  8
実形
 62
     0
370
    18
100
AcDbBlockReference
  2
_DotSmall
 10
1360.329622737387
 20
1768.850277586584
 30
0.0
 41
35.0
 42
35.0
 43
35.0
  0
INSERT
  5
5BF1
330
1C04
100
AcDbEntity
  8
実形
 62
     0
370
    18
100
AcDbBlockReference
  2
_DotSmall
 10
1326.329793653327
 20
1768.850277586584
 30
0.0
 41
35.0
 42
35.0
 43
35.0
 50
180.0
  0
POINT
  5
5BF2
330
1C04
100
AcDbEntity
  8
Defpoints
 62
     0
100
AcDbPoint
 10
1360.329622737387
 20
1674.773717093028
 30
0.0
  0
POINT
  5
5BF3
330
1C04
100
AcDbEntity
  8
Defpoints
 62
     0
100
AcDbPoint
 10
1326.329793653327
 20
1674.773717093028
 30
0.0
  0
POINT
  5
5BF4
330
1C04
100
AcDbEntity
  8
Defpoints
 62
     0
100
AcDbPoint
 10
1326.329793653327
 20
1768.850277586584
 30
0.0
  0
ENDBLK
  5
1C0F
330
1C04
100
AcDbEntity
  8
0
100
AcDbBlockEnd
  0
BLOCK
  5
1C2E
330
1C24
100
AcDbEntity
  8
0
100
AcDbBlockBegin
  2
*D16
 70
     1
 10
0.0
 20
0.0
 30
0.0
  3
*D16
  1

  0
LINE
  5
5BE3
330
1C24
100
AcDbEntity
  8
実形
 62
     0
370
    18
100
AcDbLine
 10
492.0060542338616
 20
1739.773717093029
 30
0.0
 11
492.0060542338616
 21
1833.458046852117
 31
0.0
  0
LINE
  5
5BE4
330
1C24
100
AcDbEntity
  8
実形
 62
     0
370
    18
100
AcDbLine
 10
1360.329622737387
 20
1739.773717093029
 30
0.0
 11
1360.329622737387
 21
1833.458046852117
 31
0.0
  0
LINE
  5
5BE5
330
1C24
100
AcDbEntity
  8
実形
 62
     0
370
    18
100
AcDbLine
 10
492.0060542338616
 20
1833.458046852117
 30
0.0
 11
1360.329622737387
 21
1833.458046852117
 31
0.0
  0
INSERT
  5
5BE6
330
1C24
100
AcDbEntity
  8
実形
 62
     0
370
    18
100
AcDbBlockReference
  2
_DotSmall
 10
492.0060542338616
 20
1833.458046852117
 30
0.0
 41
35.0
 42
35.0
 43
35.0
 50
180.0
  0
INSERT
  5
5BE7
330
1C24
100
AcDbEntity
  8
実形
 62
     0
370
    18
100
AcDbBlockReference
  2
_DotSmall
 10
1360.329622737387
 20
1833.458046852117
 30
0.0
 41
35.0
 42
35.0
 43
35.0
  0
MTEXT
  5
5BE8
330
1C24
100
AcDbEntity
  8
実形
 62
     0
100
AcDbMText
 10
926.167838485624
 20
1852.208046852117
 30
0.0
 40
25.0
 41
0.0
 71
     5
 72
     1
  1
868
 73
     1
 44
1.0
1001
ACAD
1000
MTEXTBEGIN
1070
    73
1070
     1
1070
    44
1040
1.0
1070
    74
1070
     0
1000
MTEXTEND
  0
POINT
  5
5BE9
330
1C24
100
AcDbEntity
  8
Defpoints
 62
     0
100
AcDbPoint
 10
492.0060542338616
 20
1674.773717093028
 30
0.0
  0
POINT
  5
5BEA
330
1C24
100
AcDbEntity
  8
Defpoints
 62
     0
100
AcDbPoint
 10
1360.329622737387
 20
1674.773717093028
 30
0.0
  0
POINT
  5
5BEB
330
1C24
100
AcDbEntity
  8
Defpoints
 62
     0
100
AcDbPoint
 10
1360.329622737387
 20
1833.458046852117
 30
0.0
  0
ENDBLK
  5
1C2F
330
1C24
100
AcDbEntity
  8
0
100
AcDbBlockEnd
  0
BLOCK
  5
1E27
330
1E1D
100
AcDbEntity
  8
0
100
AcDbBlockBegin
  2
*D17
 70
     1
 10
0.0
 20
0.0
 30
0.0
  3
*D17
  1

  0
LINE
  5
5DAF
330
1E1D
100
AcDbEntity
  8
実形
 62
     0
370
    15
100
AcDbLine
 10
1903.865951868394
 20
1570.187035644826
 30
0.0
 11
1949.172095960314
 21
1570.187035644826
 31
0.0
  0
LINE
  5
5DB0
330
1E1D
100
AcDbEntity
  8
実形
 62
     0
370
    15
100
AcDbLine
 10
1903.865951868394
 20
1410.187035644826
 30
0.0
 11
1949.172095960314
 21
1410.187035644826
 31
0.0
  0
LINE
  5
5DB1
330
1E1D
100
AcDbEntity
  8
実形
 62
     0
370
    18
100
AcDbLine
 10
1949.172095960314
 20
1570.187035644826
 30
0.0
 11
1949.172095960314
 21
1410.187035644826
 31
0.0
  0
INSERT
  5
5DB2
330
1E1D
100
AcDbEntity
  8
実形
 62
     0
370
    18
100
AcDbBlockReference
  2
_DotSmall
 10
1949.172095960314
 20
1570.187035644826
 30
0.0
 41
35.0
 42
35.0
 43
35.0
 50
90.0
  0
INSERT
  5
5DB3
330
1E1D
100
AcDbEntity
  8
実形
 62
     0
370
    18
100
AcDbBlockReference
  2
_DotSmall
 10
1949.172095960314
 20
1410.187035644826
 30
0.0
 41
35.0
 42
35.0
 43
35.0
 50
270.0
  0
MTEXT
  5
5DB4
330
1E1D
100
AcDbEntity
  8
実形
 62
     0
100
AcDbMText
 10
1930.422095960314
 20
1490.187035644826
 30
0.0
 40
25.0
 41
0.0
 71
     5
 72
     1
  1
158
 11
0.0000000000000001
 21
1.0
 31
0.0
 73
     1
 44
1.0
1001
ACAD
1000
MTEXTBEGIN
1070
    73
1070
     1
1070
    44
1040
1.0
1070
    74
1070
     0
1000
MTEXTEND
  0
POINT
  5
5DB5
330
1E1D
100
AcDbEntity
  8
Defpoints
 62
     0
100
AcDbPoint
 10
1838.865951868394
 20
1570.187035644826
 30
0.0
  0
POINT
  5
5DB6
330
1E1D
100
AcDbEntity
  8
Defpoints
 62
     0
100
AcDbPoint
 10
1838.865951868394
 20
1410.187035644826
 30
0.0
  0
POINT
  5
5DB7
330
1E1D
100
AcDbEntity
  8
Defpoints
 62
     0
100
AcDbPoint
 10
1949.172095960314
 20
1410.187035644826
 30
0.0
  0
ENDBLK
  5
1E28
330
1E1D
100
AcDbEntity
  8
0
100
AcDbBlockEnd
  0
BLOCK
  5
1E33
330
1E29
100
AcDbEntity
  8
0
100
AcDbBlockBegin
  2
*D18
 70
     1
 10
0.0
 20
0.0
 30
0.0
  3
*D18
  1

  0
LINE
  5
5DA6
330
1E29
100
AcDbEntity
  8
実形
 62
     0
370
    15
100
AcDbLine
 10
1903.865951868394
 20
1580.687035644826
 30
0.0
 11
1998.818366717295
 21
1580.687035644826
 31
0.0
  0
LINE
  5
5DA7
330
1E29
100
AcDbEntity
  8
実形
 62
     0
370
    15
100
AcDbLine
 10
1903.865951868394
 20
1399.687035644826
 30
0.0
 11
1998.818366717295
 21
1399.687035644826
 31
0.0
  0
LINE
  5
5DA8
330
1E29
100
AcDbEntity
  8
実形
 62
     0
370
    18
100
AcDbLine
 10
1998.818366717295
 20
1580.687035644826
 30
0.0
 11
1998.818366717295
 21
1399.687035644826
 31
0.0
  0
INSERT
  5
5DA9
330
1E29
100
AcDbEntity
  8
実形
 62
     0
370
    18
100
AcDbBlockReference
  2
_DotSmall
 10
1998.818366717295
 20
1580.687035644826
 30
0.0
 41
35.0
 42
35.0
 43
35.0
 50
90.0
  0
INSERT
  5
5DAA
330
1E29
100
AcDbEntity
  8
実形
 62
     0
370
    18
100
AcDbBlockReference
  2
_DotSmall
 10
1998.818366717295
 20
1399.687035644826
 30
0.0
 41
35.0
 42
35.0
 43
35.0
 50
270.0
  0
MTEXT
  5
5DAB
330
1E29
100
AcDbEntity
  8
実形
 62
     0
100
AcDbMText
 10
1980.068366717295
 20
1490.187035644826
 30
0.0
 40
25.0
 41
0.0
 71
     5
 72
     1
  1
181
 11
0.0000000000000001
 21
1.0
 31
0.0
 73
     1
 44
1.0
1001
ACAD
1000
MTEXTBEGIN
1070
    73
1070
     1
1070
    44
1040
1.0
1070
    74
1070
     0
1000
MTEXTEND
  0
POINT
  5
5DAC
330
1E29
100
AcDbEntity
  8
Defpoints
 62
     0
100
AcDbPoint
 10
1838.865951868394
 20
1580.687035644826
 30
0.0
  0
POINT
  5
5DAD
330
1E29
100
AcDbEntity
  8
Defpoints
 62
     0
100
AcDbPoint
 10
1838.865951868394
 20
1399.687035644826
 30
0.0
  0
POINT
  5
5DAE
330
1E29
100
AcDbEntity
  8
Defpoints
 62
     0
100
AcDbPoint
 10
1998.818366717295
 20
1399.687035644826
 30
0.0
  0
ENDBLK
  5
1E34
330
1E29
100
AcDbEntity
  8
0
100
AcDbBlockEnd
  0
BLOCK
  5
26A5
330
269B
100
AcDbEntity
  8
0
100
AcDbBlockBegin
  2
*D19
 70
     1
 10
0.0
 20
0.0
 30
0.0
  3
*D19
  1

  0
LINE
  5
5D9D
330
269B
100
AcDbEntity
  8
実形
 62
     0
370
    15
100
AcDbLine
 10
846.1678384856368
 20
522.871203739568
 30
0.0
 11
846.1678384856368
 21
471.4437964384951
 31
0.0
  0
LINE
  5
5D9E
330
269B
100
AcDbEntity
  8
実形
 62
     0
370
    15
100
AcDbLine
 10
1006.167838485636
 20
522.871203739568
 30
0.0
 11
1006.167838485636
 21
471.4437964384951
 31
0.0
  0
LINE
  5
5D9F
330
269B
100
AcDbEntity
  8
実形
 62
     0
370
    18
100
AcDbLine
 10
846.1678384856368
 20
471.4437964384951
 30
0.0
 11
1006.167838485636
 21
471.4437964384951
 31
0.0
  0
INSERT
  5
5DA0
330
269B
100
AcDbEntity
  8
実形
 62
     0
370
    18
100
AcDbBlockReference
  2
_DotSmall
 10
846.1678384856368
 20
471.4437964384951
 30
0.0
 41
35.0
 42
35.0
 43
35.0
 50
180.0
  0
INSERT
  5
5DA1
330
269B
100
AcDbEntity
  8
実形
 62
     0
370
    18
100
AcDbBlockReference
  2
_DotSmall
 10
1006.167838485636
 20
471.4437964384951
 30
0.0
 41
35.0
 42
35.0
 43
35.0
  0
MTEXT
  5
5DA2
330
269B
100
AcDbEntity
  8
実形
 62
     0
100
AcDbMText
 10
926.1678384856368
 20
490.1937964384951
 30
0.0
 40
25.0
 41
0.0
 71
     5
 72
     1
  1
158
 73
     1
 44
1.0
1001
ACAD
1000
MTEXTBEGIN
1070
    73
1070
     1
1070
    44
1040
1.0
1070
    74
1070
     0
1000
MTEXTEND
  0
POINT
  5
5DA3
330
269B
100
AcDbEntity
  8
Defpoints
 62
     0
100
AcDbPoint
 10
846.1678384856368
 20
587.871203739568
 30
0.0
  0
POINT
  5
5DA4
330
269B
100
AcDbEntity
  8
Defpoints
 62
     0
100
AcDbPoint
 10
1006.167838485636
 20
587.871203739568
 30
0.0
  0
POINT
  5
5DA5
330
269B
100
AcDbEntity
  8
Defpoints
 62
     0
100
AcDbPoint
 10
1006.167838485636
 20
471.4437964384951
 30
0.0
  0
ENDBLK
  5
26A6
330
269B
100
AcDbEntity
  8
0
100
AcDbBlockEnd
  0
BLOCK
  5
26B1
330
26A7
100
AcDbEntity
  8
0
100
AcDbBlockBegin
  2
*D20
 70
     1
 10
0.0
 20
0.0
 30
0.0
  3
*D20
  1

  0
LINE
  5
5D94
330
26A7
100
AcDbEntity
  8
実形
 62
     0
370
    15
100
AcDbLine
 10
835.6678384856367
 20
522.8712037395681
 30
0.0
 11
835.6678384856367
 21
425.8733390679017
 31
0.0
  0
LINE
  5
5D95
330
26A7
100
AcDbEntity
  8
実形
 62
     0
370
    15
100
AcDbLine
 10
1016.667838485637
 20
522.871203739568
 30
0.0
 11
1016.667838485637
 21
425.8733390679017
 31
0.0
  0
LINE
  5
5D96
330
26A7
100
AcDbEntity
  8
実形
 62
     0
370
    18
100
AcDbLine
 10
835.6678384856367
 20
425.8733390679017
 30
0.0
 11
1016.667838485637
 21
425.8733390679017
 31
0.0
  0
INSERT
  5
5D97
330
26A7
100
AcDbEntity
  8
実形
 62
     0
370
    18
100
AcDbBlockReference
  2
_DotSmall
 10
835.6678384856367
 20
425.8733390679017
 30
0.0
 41
35.0
 42
35.0
 43
35.0
 50
180.0
  0
INSERT
  5
5D98
330
26A7
100
AcDbEntity
  8
実形
 62
     0
370
    18
100
AcDbBlockReference
  2
_DotSmall
 10
1016.667838485637
 20
425.8733390679017
 30
0.0
 41
35.0
 42
35.0
 43
35.0
  0
MTEXT
  5
5D99
330
26A7
100
AcDbEntity
  8
実形
 62
     0
100
AcDbMText
 10
926.1678384856368
 20
444.6233390679017
 30
0.0
 40
25.0
 41
0.0
 71
     5
 72
     1
  1
181
 73
     1
 44
1.0
1001
ACAD
1000
MTEXTBEGIN
1070
    73
1070
     1
1070
    44
1040
1.0
1070
    74
1070
     0
1000
MTEXTEND
  0
POINT
  5
5D9A
330
26A7
100
AcDbEntity
  8
Defpoints
 62
     0
100
AcDbPoint
 10
835.6678384856367
 20
587.8712037395681
 30
0.0
  0
POINT
  5
5D9B
330
26A7
100
AcDbEntity
  8
Defpoints
 62
     0
100
AcDbPoint
 10
1016.667838485637
 20
587.871203739568
 30
0.0
  0
POINT
  5
5D9C
330
26A7
100
AcDbEntity
  8
Defpoints
 62
     0
100
AcDbPoint
 10
1016.667838485637
 20
425.8733390679017
 30
0.0
  0
ENDBLK
  5
26B2
330
26A7
100
AcDbEntity
  8
0
100
AcDbBlockEnd
  0
BLOCK
  5
3746
330
373F
100
AcDbEntity
  8
0
100
AcDbBlockBegin
  2
*D21
 70
     1
 10
0.0
 20
0.0
 30
0.0
  3
*D21
  1

  0
LINE
  5
5D8E
330
373F
100
AcDbEntity
  8
実形
 62
     0
370
    13
100
AcDbLine
 10
1963.10327858681
 20
562.6388787035095
 30
0.0
 11
1963.10327858681
 21
476.4445371024394
 31
0.0
  0
LINE
  5
5D8F
330
373F
100
AcDbEntity
  8
実形
 62
     0
370
    13
100
AcDbLine
 10
1947.50327858681
 20
536.8471552806368
 30
0.0
 11
1947.50327858681
 21
476.4445371024394
 31
0.0
  0
MTEXT
  5
5D90
330
373F
100
AcDbEntity
  8
実形
 62
     0
100
AcDbMText
 10
1927.154852797523
 20
500.9356801950445
 30
0.0
 40
25.0
 41
0.0
 71
     5
 72
     1
  1
1
 73
     1
 44
1.0
1001
ACAD
1000
MTEXTBEGIN
1070
    73
1070
     1
1070
    44
1040
1.0
1070
    74
1070
     0
1000
MTEXTEND
  0
POINT
  5
5D91
330
373F
100
AcDbEntity
  8
Defpoints
 62
     0
100
AcDbPoint
 10
1963.10327858681
 20
568.6388787035094
 30
0.0
  0
POINT
  5
5D92
330
373F
100
AcDbEntity
  8
Defpoints
 62
     0
100
AcDbPoint
 10
1947.50327858681
 20
542.8471552806367
 30
0.0
  0
POINT
  5
5D93
330
373F
100
AcDbEntity
  8
Defpoints
 62
     0
100
AcDbPoint
 10
1947.50327858681
 20
476.4445371024394
 30
0.0
  0
ENDBLK
  5
3747
330
373F
100
AcDbEntity
  8
0
100
AcDbBlockEnd
  0
BLOCK
  5
3CEE
330
3CE4
100
AcDbEntity
  8
0
100
AcDbBlockBegin
  2
*D22
 70
     1
 10
0.0
 20
0.0
 30
0.0
  3
*D22
  1

  0
LINE
  5
5D85
330
3CE4
100
AcDbEntity
  8
実形
 62
     0
370
    18
100
AcDbLine
 10
2532.669934078618
 20
693.4388787035102
 30
0.0
 11
2603.281879703351
 21
693.4388787035102
 31
0.0
  0
LINE
  5
5D86
330
3CE4
100
AcDbEntity
  8
実形
 62
     0
370
    18
100
AcDbLine
 10
2532.669934078618
 20
553.0388787035104
 30
0.0
 11
2603.281879703351
 21
553.0388787035104
 31
0.0
  0
LINE
  5
5D87
330
3CE4
100
AcDbEntity
  8
実形
 62
     0
370
    18
100
AcDbLine
 10
2603.281879703351
 20
693.4388787035102
 30
0.0
 11
2603.281879703351
 21
553.0388787035104
 31
0.0
  0
INSERT
  5
5D88
330
3CE4
100
AcDbEntity
  8
実形
 62
     0
370
    18
100
AcDbBlockReference
  2
_DotSmall
 10
2603.281879703351
 20
693.4388787035102
 30
0.0
 41
35.0
 42
35.0
 43
35.0
 50
90.0
  0
INSERT
  5
5D89
330
3CE4
100
AcDbEntity
  8
実形
 62
     0
370
    18
100
AcDbBlockReference
  2
_DotSmall
 10
2603.281879703351
 20
553.0388787035104
 30
0.0
 41
35.0
 42
35.0
 43
35.0
 50
270.0
  0
MTEXT
  5
5D8A
330
3CE4
100
AcDbEntity
  8
実形
 62
     0
100
AcDbMText
 10
2584.531879703351
 20
623.2388787035107
 30
0.0
 40
25.0
 41
0.0
 71
     5
 72
     1
  1
9
 11
0.0000000000000001
 21
1.0
 31
0.0
 73
     1
 44
1.0
1001
ACAD
1000
MTEXTBEGIN
1070
    73
1070
     1
1070
    44
1040
1.0
1070
    74
1070
     0
1000
MTEXTEND
  0
POINT
  5
5D8B
330
3CE4
100
AcDbEntity
  8
Defpoints
 62
     0
100
AcDbPoint
 10
2467.669934078618
 20
693.4388787035102
 30
0.0
  0
POINT
  5
5D8C
330
3CE4
100
AcDbEntity
  8
Defpoints
 62
     0
100
AcDbPoint
 10
2467.669934078618
 20
553.0388787035104
 30
0.0
  0
POINT
  5
5D8D
330
3CE4
100
AcDbEntity
  8
Defpoints
 62
     0
100
AcDbPoint
 10
2603.281879703351
 20
553.0388787035104
 30
0.0
  0
ENDBLK
  5
3CEF
330
3CE4
100
AcDbEntity
  8
0
100
AcDbBlockEnd
  0
BLOCK
  5
3D04
330
3CFA
100
AcDbEntity
  8
0
100
AcDbBlockBegin
  2
*D23
 70
     1
 10
0.0
 20
0.0
 30
0.0
  3
*D23
  1

  0
LINE
  5
5D7C
330
3CFA
100
AcDbEntity
  8
実形
 62
     0
370
    18
100
AcDbLine
 10
2532.669934078618
 20
553.0388787035104
 30
0.0
 11
2603.281879703351
 21
553.0388787035104
 31
0.0
  0
LINE
  5
5D7D
330
3CFA
100
AcDbEntity
  8
実形
 62
     0
370
    18
100
AcDbLine
 10
2532.669934078618
 20
412.6388787035103
 30
0.0
 11
2603.281879703351
 21
412.6388787035103
 31
0.0
  0
LINE
  5
5D7E
330
3CFA
100
AcDbEntity
  8
実形
 62
     0
370
    18
100
AcDbLine
 10
2603.281879703351
 20
553.0388787035104
 30
0.0
 11
2603.281879703351
 21
412.6388787035103
 31
0.0
  0
INSERT
  5
5D7F
330
3CFA
100
AcDbEntity
  8
実形
 62
     0
370
    18
100
AcDbBlockReference
  2
_DotSmall
 10
2603.281879703351
 20
553.0388787035104
 30
0.0
 41
35.0
 42
35.0
 43
35.0
 50
90.0
  0
INSERT
  5
5D80
330
3CFA
100
AcDbEntity
  8
実形
 62
     0
370
    18
100
AcDbBlockReference
  2
_DotSmall
 10
2603.281879703351
 20
412.6388787035103
 30
0.0
 41
35.0
 42
35.0
 43
35.0
 50
270.0
  0
MTEXT
  5
5D81
330
3CFA
100
AcDbEntity
  8
実形
 62
     0
100
AcDbMText
 10
2584.531879703351
 20
482.8388787035107
 30
0.0
 40
25.0
 41
0.0
 71
     5
 72
     1
  1
9
 11
0.0000000000000001
 21
1.0
 31
0.0
 73
     1
 44
1.0
1001
ACAD
1000
MTEXTBEGIN
1070
    73
1070
     1
1070
    44
1040
1.0
1070
    74
1070
     0
1000
MTEXTEND
  0
POINT
  5
5D82
330
3CFA
100
AcDbEntity
  8
Defpoints
 62
     0
100
AcDbPoint
 10
2467.669934078618
 20
553.0388787035104
 30
0.0
  0
POINT
  5
5D83
330
3CFA
100
AcDbEntity
  8
Defpoints
 62
     0
100
AcDbPoint
 10
2467.669934078618
 20
412.6388787035103
 30
0.0
  0
POINT
  5
5D84
330
3CFA
100
AcDbEntity
  8
Defpoints
 62
     0
100
AcDbPoint
 10
2603.281879703351
 20
412.6388787035103
 30
0.0
  0
ENDBLK
  5
3D05
330
3CFA
100
AcDbEntity
  8
0
100
AcDbBlockEnd
  0
BLOCK
  5
3D1A
330
3D10
100
AcDbEntity
  8
0
100
AcDbBlockBegin
  2
*D24
 70
     1
 10
0.0
 20
0.0
 30
0.0
  3
*D24
  1

  0
LINE
  5
5D73
330
3D10
100
AcDbEntity
  8
実形
 62
     0
370
    18
100
AcDbLine
 10
2532.669934078618
 20
693.4388787035103
 30
0.0
 11
2670.139520579067
 21
693.4388787035103
 31
0.0
  0
LINE
  5
5D74
330
3D10
100
AcDbEntity
  8
実形
 62
     0
370
    18
100
AcDbLine
 10
2532.669934078618
 20
412.6388787035103
 30
0.0
 11
2670.139520579067
 21
412.6388787035103
 31
0.0
  0
LINE
  5
5D75
330
3D10
100
AcDbEntity
  8
実形
 62
     0
370
    18
100
AcDbLine
 10
2670.139520579067
 20
693.4388787035103
 30
0.0
 11
2670.139520579067
 21
412.6388787035103
 31
0.0
  0
INSERT
  5
5D76
330
3D10
100
AcDbEntity
  8
実形
 62
     0
370
    18
100
AcDbBlockReference
  2
_DotSmall
 10
2670.139520579067
 20
693.4388787035103
 30
0.0
 41
35.0
 42
35.0
 43
35.0
 50
90.0
  0
INSERT
  5
5D77
330
3D10
100
AcDbEntity
  8
実形
 62
     0
370
    18
100
AcDbBlockReference
  2
_DotSmall
 10
2670.139520579067
 20
412.6388787035103
 30
0.0
 41
35.0
 42
35.0
 43
35.0
 50
270.0
  0
MTEXT
  5
5D78
330
3D10
100
AcDbEntity
  8
実形
 62
     0
100
AcDbMText
 10
2651.389520579066
 20
553.0388787035108
 30
0.0
 40
25.0
 41
0.0
 71
     5
 72
     1
  1
18
 11
0.0000000000000001
 21
1.0
 31
0.0
 73
     1
 44
1.0
1001
ACAD
1000
MTEXTBEGIN
1070
    73
1070
     1
1070
    44
1040
1.0
1070
    74
1070
     0
1000
MTEXTEND
  0
POINT
  5
5D79
330
3D10
100
AcDbEntity
  8
Defpoints
 62
     0
100
AcDbPoint
 10
2467.669934078618
 20
693.4388787035103
 30
0.0
  0
POINT
  5
5D7A
330
3D10
100
AcDbEntity
  8
Defpoints
 62
     0
100
AcDbPoint
 10
2467.669934078618
 20
412.6388787035103
 30
0.0
  0
POINT
  5
5D7B
330
3D10
100
AcDbEntity
  8
Defpoints
 62
     0
100
AcDbPoint
 10
2670.139520579067
 20
412.6388787035103
 30
0.0
  0
ENDBLK
  5
3D1B
330
3D10
100
AcDbEntity
  8
0
100
AcDbBlockEnd
  0
BLOCK
  5
3E33
330
3E29
100
AcDbEntity
  8
0
100
AcDbBlockBegin
  2
*D25
 70
     1
 10
0.0
 20
0.0
 30
0.0
  3
*D25
  1

  0
LINE
  5
5D6A
330
3E29
100
AcDbEntity
  8
実形
 62
     0
370
    18
100
AcDbLine
 10
1963.103278586809
 20
601.2515538480251
 30
0.0
 11
1963.103278586809
 21
626.499025413821
 31
0.0
  0
LINE
  5
5D6B
330
3E29
100
AcDbEntity
  8
実形
 62
     0
370
    18
100
AcDbLine
 10
2197.103278586809
 20
601.2515538480251
 30
0.0
 11
2197.103278586809
 21
626.499025413821
 31
0.0
  0
LINE
  5
5D6C
330
3E29
100
AcDbEntity
  8
実形
 62
     0
370
    18
100
AcDbLine
 10
1963.103278586809
 20
626.499025413821
 30
0.0
 11
2197.103278586809
 21
626.499025413821
 31
0.0
  0
INSERT
  5
5D6D
330
3E29
100
AcDbEntity
  8
実形
 62
     0
370
    18
100
AcDbBlockReference
  2
_DotSmall
 10
1963.103278586809
 20
626.499025413821
 30
0.0
 41
35.0
 42
35.0
 43
35.0
 50
180.0
  0
INSERT
  5
5D6E
330
3E29
100
AcDbEntity
  8
実形
 62
     0
370
    18
100
AcDbBlockReference
  2
_DotSmall
 10
2197.103278586809
 20
626.499025413821
 30
0.0
 41
35.0
 42
35.0
 43
35.0
  0
MTEXT
  5
5D6F
330
3E29
100
AcDbEntity
  8
実形
 62
     0
100
AcDbMText
 10
2080.103278586809
 20
645.249025413821
 30
0.0
 40
25.0
 41
0.0
 71
     5
 72
     1
  1
15
 73
     1
 44
1.0
1001
ACAD
1000
MTEXTBEGIN
1070
    73
1070
     1
1070
    44
1040
1.0
1070
    74
1070
     0
1000
MTEXTEND
  0
POINT
  5
5D70
330
3E29
100
AcDbEntity
  8
Defpoints
 62
     0
100
AcDbPoint
 10
1963.103278586809
 20
536.2515538480251
 30
0.0
  0
POINT
  5
5D71
330
3E29
100
AcDbEntity
  8
Defpoints
 62
     0
100
AcDbPoint
 10
2197.103278586809
 20
536.2515538480251
 30
0.0
  0
POINT
  5
5D72
330
3E29
100
AcDbEntity
  8
Defpoints
 62
     0
100
AcDbPoint
 10
2197.103278586809
 20
626.499025413821
 30
0.0
  0
ENDBLK
  5
3E34
330
3E29
100
AcDbEntity
  8
0
100
AcDbBlockEnd
  0
BLOCK
  5
3E54
330
3E4A
100
AcDbEntity
  8
0
100
AcDbBlockBegin
  2
*D26
 70
     1
 10
0.0
 20
0.0
 30
0.0
  3
*D26
  1

  0
LINE
  5
5D61
330
3E4A
100
AcDbEntity
  8
実形
 62
     0
370
    18
100
AcDbLine
 10
2164.883963240635
 20
514.0388787035103
 30
0.0
 11
2101.036883161905
 21
514.0388787035103
 31
0.0
  0
LINE
  5
5D62
330
3E4A
100
AcDbEntity
  8
実形
 62
     0
370
    18
100
AcDbLine
 10
2088.536592650147
 20
553.0388787035104
 30
0.0
 11
2101.036883161905
 21
553.0388787035104
 31
0.0
  0
LINE
  5
5D63
330
3E4A
100
AcDbEntity
  8
実形
 62
     0
370
    18
100
AcDbLine
 10
2101.036883161905
 20
514.0388787035103
 30
0.0
 11
2101.036883161905
 21
553.0388787035104
 31
0.0
  0
MTEXT
  5
5D64
330
3E4A
100
AcDbEntity
  8
実形
 62
     0
100
AcDbMText
 10
2069.564297767181
 20
524.3493911207361
 30
0.0
 40
23.0
 41
0.0
 71
     5
 72
     1
  1
2.5
 11
0.0000000000000001
 21
1.0
 31
0.0
 73
     1
 44
1.0
1001
ACAD
1000
MTEXTBEGIN
1070
    73
1070
     1
1070
    44
1040
1.0
1070
    74
1070
     0
1000
MTEXTEND
  0
INSERT
  5
5D65
330
3E4A
100
AcDbEntity
  8
実形
 62
     0
370
    18
100
AcDbBlockReference
  2
_DotSmall
 10
2101.036883161905
 20
514.0388787035103
 30
0.0
 41
35.0
 42
35.0
 43
35.0
 50
270.0
  0
INSERT
  5
5D66
330
3E4A
100
AcDbEntity
  8
実形
 62
     0
370
    18
100
AcDbBlockReference
  2
_DotSmall
 10
2101.036883161905
 20
553.0388787035104
 30
0.0
 41
35.0
 42
35.0
 43
35.0
 50
90.0
  0
POINT
  5
5D67
330
3E4A
100
AcDbEntity
  8
Defpoints
 62
     0
100
AcDbPoint
 10
2229.883963240635
 20
514.0388787035103
 30
0.0
  0
POINT
  5
5D68
330
3E4A
100
AcDbEntity
  8
Defpoints
 62
     0
100
AcDbPoint
 10
2153.536592650147
 20
553.0388787035104
 30
0.0
  0
POINT
  5
5D69
330
3E4A
100
AcDbEntity
  8
Defpoints
 62
     0
100
AcDbPoint
 10
2101.036883161905
 20
553.0388787035104
 30
0.0
  0
ENDBLK
  5
3E55
330
3E4A
100
AcDbEntity
  8
0
100
AcDbBlockEnd
  0
BLOCK
  5
3E85
330
3E7B
100
AcDbEntity
  8
0
100
AcDbBlockBegin
  2
*D27
 70
     1
 10
0.0
 20
0.0
 30
0.0
  3
*D27
  1

  0
LINE
  5
5D58
330
3E7B
100
AcDbEntity
  8
実形
 62
     0
370
    18
100
AcDbLine
 10
2150.30327858681
 20
457.3587244814916
 30
0.0
 11
2150.30327858681
 21
461.4323905324424
 31
0.0
  0
LINE
  5
5D59
330
3E7B
100
AcDbEntity
  8
実形
 62
     0
370
    18
100
AcDbLine
 10
2228.303278586809
 20
457.3587244814916
 30
0.0
 11
2228.303278586809
 21
461.4323905324424
 31
0.0
  0
LINE
  5
5D5A
330
3E7B
100
AcDbEntity
  8
実形
 62
     0
370
    18
100
AcDbLine
 10
2150.30327858681
 20
461.4323905324424
 30
0.0
 11
2228.303278586809
 21
461.4323905324424
 31
0.0
  0
INSERT
  5
5D5B
330
3E7B
100
AcDbEntity
  8
実形
 62
     0
370
    18
100
AcDbBlockReference
  2
_DotSmall
 10
2150.30327858681
 20
461.4323905324424
 30
0.0
 41
35.0
 42
35.0
 43
35.0
 50
180.0
  0
INSERT
  5
5D5C
330
3E7B
100
AcDbEntity
  8
実形
 62
     0
370
    18
100
AcDbBlockReference
  2
_DotSmall
 10
2228.303278586809
 20
461.4323905324424
 30
0.0
 41
35.0
 42
35.0
 43
35.0
  0
MTEXT
  5
5D5D
330
3E7B
100
AcDbEntity
  8
実形
 62
     0
100
AcDbMText
 10
2189.303278586809
 20
480.1823905324424
 30
0.0
 40
25.0
 41
0.0
 71
     5
 72
     1
  1
5
 73
     1
 44
1.0
1001
ACAD
1000
MTEXTBEGIN
1070
    73
1070
     1
1070
    44
1040
1.0
1070
    74
1070
     0
1000
MTEXTEND
  0
POINT
  5
5D5E
330
3E7B
100
AcDbEntity
  8
Defpoints
 62
     0
100
AcDbPoint
 10
2150.30327858681
 20
522.3587244814916
 30
0.0
  0
POINT
  5
5D5F
330
3E7B
100
AcDbEntity
  8
Defpoints
 62
     0
100
AcDbPoint
 10
2228.303278586809
 20
522.3587244814916
 30
0.0
  0
POINT
  5
5D60
330
3E7B
100
AcDbEntity
  8
Defpoints
 62
     0
100
AcDbPoint
 10
2228.303278586809
 20
461.4323905324424
 30
0.0
  0
ENDBLK
  5
3E86
330
3E7B
100
AcDbEntity
  8
0
100
AcDbBlockEnd
  0
BLOCK
  5
3EC2
330
3EB8
100
AcDbEntity
  8
0
100
AcDbBlockBegin
  2
*D28
 70
     1
 10
0.0
 20
0.0
 30
0.0
  3
*D28
  1

  0
LINE
  5
5D4F
330
3EB8
100
AcDbEntity
  8
実形
 62
     0
370
    18
100
AcDbLine
 10
2138.595588728236
 20
451.6388787035102
 30
0.0
 11
2102.975332119596
 21
451.6388787035102
 31
0.0
  0
LINE
  5
5D50
330
3EB8
100
AcDbEntity
  8
実形
 62
     0
370
    18
100
AcDbLine
 10
2150.882092629512
 20
412.6388787035103
 30
0.0
 11
2102.975332119596
 21
412.6388787035103
 31
0.0
  0
LINE
  5
5D51
330
3EB8
100
AcDbEntity
  8
実形
 62
     0
370
    18
100
AcDbLine
 10
2102.975332119596
 20
451.6388787035102
 30
0.0
 11
2102.975332119596
 21
412.6388787035103
 31
0.0
  0
MTEXT
  5
5D52
330
3EB8
100
AcDbEntity
  8
実形
 62
     0
100
AcDbMText
 10
2070.355870815655
 20
441.0024837871193
 30
0.0
 40
23.0
 41
0.0
 71
     5
 72
     1
  1
2.5
 11
0.0000000000000001
 21
1.0
 31
0.0
 73
     1
 44
1.0
1001
ACAD
1000
MTEXTBEGIN
1070
    73
1070
     1
1070
    44
1040
1.0
1070
    74
1070
     0
1000
MTEXTEND
  0
INSERT
  5
5D53
330
3EB8
100
AcDbEntity
  8
実形
 62
     0
370
    18
100
AcDbBlockReference
  2
_DotSmall
 10
2102.975332119596
 20
451.6388787035102
 30
0.0
 41
35.0
 42
35.0
 43
35.0
 50
90.0
  0
INSERT
  5
5D54
330
3EB8
100
AcDbEntity
  8
実形
 62
     0
370
    18
100
AcDbBlockReference
  2
_DotSmall
 10
2102.975332119596
 20
412.6388787035103
 30
0.0
 41
35.0
 42
35.0
 43
35.0
 50
270.0
  0
POINT
  5
5D55
330
3EB8
100
AcDbEntity
  8
Defpoints
 62
     0
100
AcDbPoint
 10
2203.595588728236
 20
451.6388787035102
 30
0.0
  0
POINT
  5
5D56
330
3EB8
100
AcDbEntity
  8
Defpoints
 62
     0
100
AcDbPoint
 10
2215.882092629512
 20
412.6388787035102
 30
0.0
  0
POINT
  5
5D57
330
3EB8
100
AcDbEntity
  8
Defpoints
 62
     0
100
AcDbPoint
 10
2102.975332119596
 20
412.6388787035103
 30
0.0
  0
ENDBLK
  5
3EC3
330
3EB8
100
AcDbEntity
  8
0
100
AcDbBlockEnd
  0
BLOCK
  5
3F63
330
3F59
100
AcDbEntity
  8
0
100
AcDbBlockBegin
  2
*D29
 70
     1
 10
0.0
 20
0.0
 30
0.0
  3
*D29
  1

  0
LINE
  5
5D46
330
3F59
100
AcDbEntity
  8
実形
 62
     0
370
    18
100
AcDbLine
 10
1947.50327858681
 20
705.5397997195641
 30
0.0
 11
1947.50327858681
 21
743.3028714699867
 31
0.0
  0
LINE
  5
5D47
330
3F59
100
AcDbEntity
  8
実形
 62
     0
370
    18
100
AcDbLine
 10
2228.303278586809
 20
705.5397997195641
 30
0.0
 11
2228.303278586809
 21
743.3028714699867
 31
0.0
  0
LINE
  5
5D48
330
3F59
100
AcDbEntity
  8
実形
 62
     0
370
    18
100
AcDbLine
 10
1947.50327858681
 20
743.3028714699867
 30
0.0
 11
2228.303278586809
 21
743.3028714699867
 31
0.0
  0
INSERT
  5
5D49
330
3F59
100
AcDbEntity
  8
実形
 62
     0
370
    18
100
AcDbBlockReference
  2
_DotSmall
 10
1947.50327858681
 20
743.3028714699867
 30
0.0
 41
35.0
 42
35.0
 43
35.0
 50
180.0
  0
INSERT
  5
5D4A
330
3F59
100
AcDbEntity
  8
実形
 62
     0
370
    18
100
AcDbBlockReference
  2
_DotSmall
 10
2228.303278586809
 20
743.3028714699867
 30
0.0
 41
35.0
 42
35.0
 43
35.0
  0
MTEXT
  5
5D4B
330
3F59
100
AcDbEntity
  8
実形
 62
     0
100
AcDbMText
 10
2087.903278586809
 20
762.0528714699867
 30
0.0
 40
25.0
 41
0.0
 71
     5
 72
     1
  1
18
 73
     1
 44
1.0
1001
ACAD
1000
MTEXTBEGIN
1070
    73
1070
     1
1070
    44
1040
1.0
1070
    74
1070
     0
1000
MTEXTEND
  0
POINT
  5
5D4C
330
3F59
100
AcDbEntity
  8
Defpoints
 62
     0
100
AcDbPoint
 10
1947.50327858681
 20
640.5397997195641
 30
0.0
  0
POINT
  5
5D4D
330
3F59
100
AcDbEntity
  8
Defpoints
 62
     0
100
AcDbPoint
 10
2228.303278586809
 20
640.5397997195641
 30
0.0
  0
POINT
  5
5D4E
330
3F59
100
AcDbEntity
  8
Defpoints
 62
     0
100
AcDbPoint
 10
2228.303278586809
 20
743.3028714699867
 30
0.0
  0
ENDBLK
  5
3F64
330
3F59
100
AcDbEntity
  8
0
100
AcDbBlockEnd
  0
BLOCK
  5
3F79
330
3F6F
100
AcDbEntity
  8
0
100
AcDbBlockBegin
  2
*D30
 70
     1
 10
0.0
 20
0.0
 30
0.0
  3
*D30
  1

  0
LINE
  5
5D3D
330
3F6F
100
AcDbEntity
  8
実形
 62
     0
370
    18
100
AcDbLine
 10
2228.303278586809
 20
705.539799719563
 30
0.0
 11
2228.303278586809
 21
743.3028714699867
 31
0.0
  0
LINE
  5
5D3E
330
3F6F
100
AcDbEntity
  8
実形
 62
     0
370
    18
100
AcDbLine
 10
2493.503278586809
 20
705.539799719563
 30
0.0
 11
2493.503278586809
 21
743.3028714699867
 31
0.0
  0
LINE
  5
5D3F
330
3F6F
100
AcDbEntity
  8
実形
 62
     0
370
    18
100
AcDbLine
 10
2228.303278586809
 20
743.3028714699867
 30
0.0
 11
2493.503278586809
 21
743.3028714699867
 31
0.0
  0
INSERT
  5
5D40
330
3F6F
100
AcDbEntity
  8
実形
 62
     0
370
    18
100
AcDbBlockReference
  2
_DotSmall
 10
2228.303278586809
 20
743.3028714699867
 30
0.0
 41
35.0
 42
35.0
 43
35.0
 50
180.0
  0
INSERT
  5
5D41
330
3F6F
100
AcDbEntity
  8
実形
 62
     0
370
    18
100
AcDbBlockReference
  2
_DotSmall
 10
2493.503278586809
 20
743.3028714699867
 30
0.0
 41
35.0
 42
35.0
 43
35.0
  0
MTEXT
  5
5D42
330
3F6F
100
AcDbEntity
  8
実形
 62
     0
100
AcDbMText
 10
2360.90327858681
 20
762.0528714699867
 30
0.0
 40
25.0
 41
0.0
 71
     5
 72
     1
  1
17
 73
     1
 44
1.0
1001
ACAD
1000
MTEXTBEGIN
1070
    73
1070
     1
1070
    44
1040
1.0
1070
    74
1070
     0
1000
MTEXTEND
  0
POINT
  5
5D43
330
3F6F
100
AcDbEntity
  8
Defpoints
 62
     0
100
AcDbPoint
 10
2228.303278586809
 20
640.5397997195629
 30
0.0
  0
POINT
  5
5D44
330
3F6F
100
AcDbEntity
  8
Defpoints
 62
     0
100
AcDbPoint
 10
2493.503278586809
 20
640.5397997195629
 30
0.0
  0
POINT
  5
5D45
330
3F6F
100
AcDbEntity
  8
Defpoints
 62
     0
100
AcDbPoint
 10
2493.503278586809
 20
743.3028714699867
 30
0.0
  0
ENDBLK
  5
3F7A
330
3F6F
100
AcDbEntity
  8
0
100
AcDbBlockEnd
  0
BLOCK
  5
3F90
330
3F86
100
AcDbEntity
  8
0
100
AcDbBlockBegin
  2
*D31
 70
     1
 10
0.0
 20
0.0
 30
0.0
  3
*D31
  1

  0
LINE
  5
5D34
330
3F86
100
AcDbEntity
  8
実形
 62
     0
370
    18
100
AcDbLine
 10
1947.50327858681
 20
705.539799719563
 30
0.0
 11
1947.50327858681
 21
786.8108100678382
 31
0.0
  0
LINE
  5
5D35
330
3F86
100
AcDbEntity
  8
実形
 62
     0
370
    18
100
AcDbLine
 10
2493.503278586809
 20
705.539799719563
 30
0.0
 11
2493.503278586809
 21
786.8108100678382
 31
0.0
  0
LINE
  5
5D36
330
3F86
100
AcDbEntity
  8
実形
 62
     0
370
    18
100
AcDbLine
 10
1947.50327858681
 20
786.8108100678382
 30
0.0
 11
2493.503278586809
 21
786.8108100678382
 31
0.0
  0
INSERT
  5
5D37
330
3F86
100
AcDbEntity
  8
実形
 62
     0
370
    18
100
AcDbBlockReference
  2
_DotSmall
 10
1947.50327858681
 20
786.8108100678382
 30
0.0
 41
35.0
 42
35.0
 43
35.0
 50
180.0
  0
INSERT
  5
5D38
330
3F86
100
AcDbEntity
  8
実形
 62
     0
370
    18
100
AcDbBlockReference
  2
_DotSmall
 10
2493.503278586809
 20
786.8108100678382
 30
0.0
 41
35.0
 42
35.0
 43
35.0
  0
MTEXT
  5
5D39
330
3F86
100
AcDbEntity
  8
実形
 62
     0
100
AcDbMText
 10
2220.50327858681
 20
805.5608100678382
 30
0.0
 40
25.0
 41
0.0
 71
     5
 72
     1
  1
35
 73
     1
 44
1.0
1001
ACAD
1000
MTEXTBEGIN
1070
    73
1070
     1
1070
    44
1040
1.0
1070
    74
1070
     0
1000
MTEXTEND
  0
POINT
  5
5D3A
330
3F86
100
AcDbEntity
  8
Defpoints
 62
     0
100
AcDbPoint
 10
1947.50327858681
 20
640.5397997195629
 30
0.0
  0
POINT
  5
5D3B
330
3F86
100
AcDbEntity
  8
Defpoints
 62
     0
100
AcDbPoint
 10
2493.503278586809
 20
640.5397997195629
 30
0.0
  0
POINT
  5
5D3C
330
3F86
100
AcDbEntity
  8
Defpoints
 62
     0
100
AcDbPoint
 10
2493.503278586809
 20
786.8108100678382
 30
0.0
  0
ENDBLK
  5
3F91
330
3F86
100
AcDbEntity
  8
0
100
AcDbBlockEnd
  0
BLOCK
  5
3FE2
330
3FD8
100
AcDbEntity
  8
0
100
AcDbBlockBegin
  2
*D32
 70
     1
 10
0.0
 20
0.0
 30
0.0
  3
*D32
  1

  0
LINE
  5
5D2B
330
3FD8
100
AcDbEntity
  8
実形
 62
     0
370
    18
100
AcDbLine
 10
1978.703278586809
 20
355.8916371725106
 30
0.0
 11
1978.703278586809
 21
306.8527456354114
 31
0.0
  0
LINE
  5
5D2C
330
3FD8
100
AcDbEntity
  8
実形
 62
     0
370
    18
100
AcDbLine
 10
2025.503278586809
 20
355.8916371725106
 30
0.0
 11
2025.503278586809
 21
306.8527456354114
 31
0.0
  0
LINE
  5
5D2D
330
3FD8
100
AcDbEntity
  8
実形
 62
     0
370
    18
100
AcDbLine
 10
1978.703278586809
 20
306.8527456354114
 30
0.0
 11
2025.503278586809
 21
306.8527456354114
 31
0.0
  0
MTEXT
  5
5D2E
330
3FD8
100
AcDbEntity
  8
実形
 62
     0
100
AcDbMText
 10
1925.472691921497
 20
342.2580203758225
 30
0.0
 40
25.0
 41
0.0
 71
     5
 72
     1
  1
3.2
 73
     1
 44
1.0
1001
ACAD
1000
MTEXTBEGIN
1070
    73
1070
     1
1070
    44
1040
1.0
1070
    74
1070
     0
1000
MTEXTEND
  0
INSERT
  5
5D2F
330
3FD8
100
AcDbEntity
  8
実形
 62
     0
370
    18
100
AcDbBlockReference
  2
_DotSmall
 10
1978.703278586809
 20
306.8527456354114
 30
0.0
 41
35.0
 42
35.0
 43
35.0
 50
180.0
  0
INSERT
  5
5D30
330
3FD8
100
AcDbEntity
  8
実形
 62
     0
370
    18
100
AcDbBlockReference
  2
_DotSmall
 10
2025.503278586809
 20
306.8527456354114
 30
0.0
 41
35.0
 42
35.0
 43
35.0
  0
POINT
  5
5D31
330
3FD8
100
AcDbEntity
  8
Defpoints
 62
     0
100
AcDbPoint
 10
1978.703278586809
 20
420.8916371725106
 30
0.0
  0
POINT
  5
5D32
330
3FD8
100
AcDbEntity
  8
Defpoints
 62
     0
100
AcDbPoint
 10
2025.503278586809
 20
420.8916371725106
 30
0.0
  0
POINT
  5
5D33
330
3FD8
100
AcDbEntity
  8
Defpoints
 62
     0
100
AcDbPoint
 10
2025.503278586809
 20
306.8527456354114
 30
0.0
  0
ENDBLK
  5
3FE3
330
3FD8
100
AcDbEntity
  8
0
100
AcDbBlockEnd
  0
BLOCK
  5
4001
330
3FF7
100
AcDbEntity
  8
0
100
AcDbBlockBegin
  2
*D33
 70
     1
 10
0.0
 20
0.0
 30
0.0
  3
*D33
  1

  0
LINE
  5
5D22
330
3FF7
100
AcDbEntity
  8
実形
 62
     0
370
    18
100
AcDbLine
 10
2025.503278586809
 20
355.8916371725106
 30
0.0
 11
2025.503278586809
 21
306.8527456354114
 31
0.0
  0
LINE
  5
5D23
330
3FF7
100
AcDbEntity
  8
実形
 62
     0
370
    18
100
AcDbLine
 10
2150.30327858681
 20
355.8916371725106
 30
0.0
 11
2150.30327858681
 21
306.8527456354114
 31
0.0
  0
LINE
  5
5D24
330
3FF7
100
AcDbEntity
  8
実形
 62
     0
370
    18
100
AcDbLine
 10
2025.503278586809
 20
306.8527456354114
 30
0.0
 11
2150.30327858681
 21
306.8527456354114
 31
0.0
  0
INSERT
  5
5D25
330
3FF7
100
AcDbEntity
  8
実形
 62
     0
370
    18
100
AcDbBlockReference
  2
_DotSmall
 10
2025.503278586809
 20
306.8527456354114
 30
0.0
 41
35.0
 42
35.0
 43
35.0
 50
180.0
  0
INSERT
  5
5D26
330
3FF7
100
AcDbEntity
  8
実形
 62
     0
370
    18
100
AcDbBlockReference
  2
_DotSmall
 10
2150.30327858681
 20
306.8527456354114
 30
0.0
 41
35.0
 42
35.0
 43
35.0
  0
MTEXT
  5
5D27
330
3FF7
100
AcDbEntity
  8
実形
 62
     0
100
AcDbMText
 10
2087.903278586809
 20
325.6027456354114
 30
0.0
 40
25.0
 41
0.0
 71
     5
 72
     1
  1
8
 73
     1
 44
1.0
1001
ACAD
1000
MTEXTBEGIN
1070
    73
1070
     1
1070
    44
1040
1.0
1070
    74
1070
     0
1000
MTEXTEND
  0
POINT
  5
5D28
330
3FF7
100
AcDbEntity
  8
Defpoints
 62
     0
100
AcDbPoint
 10
2025.503278586809
 20
420.8916371725106
 30
0.0
  0
POINT
  5
5D29
330
3FF7
100
AcDbEntity
  8
Defpoints
 62
     0
100
AcDbPoint
 10
2150.30327858681
 20
420.8916371725106
 30
0.0
  0
POINT
  5
5D2A
330
3FF7
100
AcDbEntity
  8
Defpoints
 62
     0
100
AcDbPoint
 10
2150.30327858681
 20
306.8527456354114
 30
0.0
  0
ENDBLK
  5
4002
330
3FF7
100
AcDbEntity
  8
0
100
AcDbBlockEnd
  0
BLOCK
  5
4017
330
400D
100
AcDbEntity
  8
0
100
AcDbBlockBegin
  2
*D34
 70
     1
 10
0.0
 20
0.0
 30
0.0
  3
*D34
  1

  0
LINE
  5
5D19
330
400D
100
AcDbEntity
  8
実形
 62
     0
370
    18
100
AcDbLine
 10
2150.30327858681
 20
355.8916371725106
 30
0.0
 11
2150.30327858681
 21
306.8527456354114
 31
0.0
  0
LINE
  5
5D1A
330
400D
100
AcDbEntity
  8
実形
 62
     0
370
    18
100
AcDbLine
 10
2228.303278586809
 20
355.8916371725106
 30
0.0
 11
2228.303278586809
 21
306.8527456354114
 31
0.0
  0
LINE
  5
5D1B
330
400D
100
AcDbEntity
  8
実形
 62
     0
370
    18
100
AcDbLine
 10
2150.30327858681
 20
306.8527456354114
 30
0.0
 11
2228.303278586809
 21
306.8527456354114
 31
0.0
  0
INSERT
  5
5D1C
330
400D
100
AcDbEntity
  8
実形
 62
     0
370
    18
100
AcDbBlockReference
  2
_DotSmall
 10
2150.30327858681
 20
306.8527456354114
 30
0.0
 41
35.0
 42
35.0
 43
35.0
 50
180.0
  0
INSERT
  5
5D1D
330
400D
100
AcDbEntity
  8
実形
 62
     0
370
    18
100
AcDbBlockReference
  2
_DotSmall
 10
2228.303278586809
 20
306.8527456354114
 30
0.0
 41
35.0
 42
35.0
 43
35.0
  0
MTEXT
  5
5D1E
330
400D
100
AcDbEntity
  8
実形
 62
     0
100
AcDbMText
 10
2189.303278586809
 20
325.6027456354114
 30
0.0
 40
25.0
 41
0.0
 71
     5
 72
     1
  1
5
 73
     1
 44
1.0
1001
ACAD
1000
MTEXTBEGIN
1070
    73
1070
     1
1070
    44
1040
1.0
1070
    74
1070
     0
1000
MTEXTEND
  0
POINT
  5
5D1F
330
400D
100
AcDbEntity
  8
Defpoints
 62
     0
100
AcDbPoint
 10
2150.30327858681
 20
420.8916371725106
 30
0.0
  0
POINT
  5
5D20
330
400D
100
AcDbEntity
  8
Defpoints
 62
     0
100
AcDbPoint
 10
2228.303278586809
 20
420.8916371725106
 30
0.0
  0
POINT
  5
5D21
330
400D
100
AcDbEntity
  8
Defpoints
 62
     0
100
AcDbPoint
 10
2228.303278586809
 20
306.8527456354114
 30
0.0
  0
ENDBLK
  5
4018
330
400D
100
AcDbEntity
  8
0
100
AcDbBlockEnd
  0
BLOCK
  5
402D
330
4023
100
AcDbEntity
  8
0
100
AcDbBlockBegin
  2
*D35
 70
     1
 10
0.0
 20
0.0
 30
0.0
  3
*D35
  1

  0
LINE
  5
5D10
330
4023
100
AcDbEntity
  8
実形
 62
     0
370
    18
100
AcDbLine
 10
2228.303278586809
 20
355.8916371725106
 30
0.0
 11
2228.303278586809
 21
306.8527456354114
 31
0.0
  0
LINE
  5
5D11
330
4023
100
AcDbEntity
  8
実形
 62
     0
370
    18
100
AcDbLine
 10
2493.503278586809
 20
355.8916371725106
 30
0.0
 11
2493.503278586809
 21
306.8527456354114
 31
0.0
  0
LINE
  5
5D12
330
4023
100
AcDbEntity
  8
実形
 62
     0
370
    18
100
AcDbLine
 10
2228.303278586809
 20
306.8527456354114
 30
0.0
 11
2493.503278586809
 21
306.8527456354114
 31
0.0
  0
INSERT
  5
5D13
330
4023
100
AcDbEntity
  8
実形
 62
     0
370
    18
100
AcDbBlockReference
  2
_DotSmall
 10
2228.303278586809
 20
306.8527456354114
 30
0.0
 41
35.0
 42
35.0
 43
35.0
 50
180.0
  0
INSERT
  5
5D14
330
4023
100
AcDbEntity
  8
実形
 62
     0
370
    18
100
AcDbBlockReference
  2
_DotSmall
 10
2493.503278586809
 20
306.8527456354114
 30
0.0
 41
35.0
 42
35.0
 43
35.0
  0
MTEXT
  5
5D15
330
4023
100
AcDbEntity
  8
実形
 62
     0
100
AcDbMText
 10
2360.90327858681
 20
325.6027456354114
 30
0.0
 40
25.0
 41
0.0
 71
     5
 72
     1
  1
17
 73
     1
 44
1.0
1001
ACAD
1000
MTEXTBEGIN
1070
    73
1070
     1
1070
    44
1040
1.0
1070
    74
1070
     0
1000
MTEXTEND
  0
POINT
  5
5D16
330
4023
100
AcDbEntity
  8
Defpoints
 62
     0
100
AcDbPoint
 10
2228.303278586809
 20
420.8916371725106
 30
0.0
  0
POINT
  5
5D17
330
4023
100
AcDbEntity
  8
Defpoints
 62
     0
100
AcDbPoint
 10
2493.503278586809
 20
420.8916371725106
 30
0.0
  0
POINT
  5
5D18
330
4023
100
AcDbEntity
  8
Defpoints
 62
     0
100
AcDbPoint
 10
2493.503278586809
 20
306.8527456354114
 30
0.0
  0
ENDBLK
  5
402E
330
4023
100
AcDbEntity
  8
0
100
AcDbBlockEnd
  0
BLOCK
  5
40D1
330
40C7
100
AcDbEntity
  8
0
100
AcDbBlockBegin
  2
*D36
 70
     1
 10
0.0
 20
0.0
 30
0.0
  3
*D36
  1

  0
LINE
  5
5D07
330
40C7
100
AcDbEntity
  8
実形
 62
     0
370
    18
100
AcDbLine
 10
1949.2926774559
 20
307.172337168286
 30
0.0
 11
1949.2926774559
 21
256.8830082351342
 31
0.0
  0
LINE
  5
5D08
330
40C7
100
AcDbEntity
  8
実形
 62
     0
370
    18
100
AcDbLine
 10
2027.2926774559
 20
307.172337168286
 30
0.0
 11
2027.2926774559
 21
256.8830082351342
 31
0.0
  0
LINE
  5
5D09
330
40C7
100
AcDbEntity
  8
実形
 62
     0
370
    18
100
AcDbLine
 10
1949.2926774559
 20
256.8830082351342
 30
0.0
 11
2027.2926774559
 21
256.8830082351342
 31
0.0
  0
INSERT
  5
5D0A
330
40C7
100
AcDbEntity
  8
実形
 62
     0
370
    18
100
AcDbBlockReference
  2
_DotSmall
 10
1949.2926774559
 20
256.8830082351342
 30
0.0
 41
35.0
 42
35.0
 43
35.0
 50
180.0
  0
INSERT
  5
5D0B
330
40C7
100
AcDbEntity
  8
実形
 62
     0
370
    18
100
AcDbBlockReference
  2
_DotSmall
 10
2027.2926774559
 20
256.8830082351342
 30
0.0
 41
35.0
 42
35.0
 43
35.0
  0
MTEXT
  5
5D0C
330
40C7
100
AcDbEntity
  8
実形
 62
     0
100
AcDbMText
 10
1988.2926774559
 20
275.6330082351342
 30
0.0
 40
25.0
 41
0.0
 71
     5
 72
     1
  1
5
 73
     1
 44
1.0
1001
ACAD
1000
MTEXTBEGIN
1070
    73
1070
     1
1070
    44
1040
1.0
1070
    74
1070
     0
1000
MTEXTEND
  0
POINT
  5
5D0D
330
40C7
100
AcDbEntity
  8
Defpoints
 62
     0
100
AcDbPoint
 10
1949.2926774559
 20
372.172337168286
 30
0.0
  0
POINT
  5
5D0E
330
40C7
100
AcDbEntity
  8
Defpoints
 62
     0
100
AcDbPoint
 10
2027.2926774559
 20
372.172337168286
 30
0.0
  0
POINT
  5
5D0F
330
40C7
100
AcDbEntity
  8
Defpoints
 62
     0
100
AcDbPoint
 10
2027.2926774559
 20
256.8830082351342
 30
0.0
  0
ENDBLK
  5
40D2
330
40C7
100
AcDbEntity
  8
0
100
AcDbBlockEnd
  0
BLOCK
  5
40F0
330
40E6
100
AcDbEntity
  8
0
100
AcDbBlockBegin
  2
*D37
 70
     1
 10
0.0
 20
0.0
 30
0.0
  3
*D37
  1

  0
LINE
  5
5CFE
330
40E6
100
AcDbEntity
  8
実形
 62
     0
370
    18
100
AcDbLine
 10
2027.2926774559
 20
307.172337168286
 30
0.0
 11
2027.2926774559
 21
256.8830082351342
 31
0.0
  0
LINE
  5
5CFF
330
40E6
100
AcDbEntity
  8
実形
 62
     0
370
    18
100
AcDbLine
 10
2495.2926774559
 20
307.172337168286
 30
0.0
 11
2495.2926774559
 21
256.8830082351342
 31
0.0
  0
LINE
  5
5D00
330
40E6
100
AcDbEntity
  8
実形
 62
     0
370
    18
100
AcDbLine
 10
2027.2926774559
 20
256.8830082351342
 30
0.0
 11
2495.2926774559
 21
256.8830082351342
 31
0.0
  0
INSERT
  5
5D01
330
40E6
100
AcDbEntity
  8
実形
 62
     0
370
    18
100
AcDbBlockReference
  2
_DotSmall
 10
2027.2926774559
 20
256.8830082351342
 30
0.0
 41
35.0
 42
35.0
 43
35.0
 50
180.0
  0
INSERT
  5
5D02
330
40E6
100
AcDbEntity
  8
実形
 62
     0
370
    18
100
AcDbBlockReference
  2
_DotSmall
 10
2495.2926774559
 20
256.8830082351342
 30
0.0
 41
35.0
 42
35.0
 43
35.0
  0
MTEXT
  5
5D03
330
40E6
100
AcDbEntity
  8
実形
 62
     0
100
AcDbMText
 10
2261.2926774559
 20
275.6330082351342
 30
0.0
 40
25.0
 41
0.0
 71
     5
 72
     1
  1
30
 73
     1
 44
1.0
1001
ACAD
1000
MTEXTBEGIN
1070
    73
1070
     1
1070
    44
1040
1.0
1070
    74
1070
     0
1000
MTEXTEND
  0
POINT
  5
5D04
330
40E6
100
AcDbEntity
  8
Defpoints
 62
     0
100
AcDbPoint
 10
2027.2926774559
 20
372.172337168286
 30
0.0
  0
POINT
  5
5D05
330
40E6
100
AcDbEntity
  8
Defpoints
 62
     0
100
AcDbPoint
 10
2495.2926774559
 20
372.172337168286
 30
0.0
  0
POINT
  5
5D06
330
40E6
100
AcDbEntity
  8
Defpoints
 62
     0
100
AcDbPoint
 10
2495.2926774559
 20
256.8830082351342
 30
0.0
  0
ENDBLK
  5
40F1
330
40E6
100
AcDbEntity
  8
0
100
AcDbBlockEnd
  0
BLOCK
  5
45D7
330
45CD
100
AcDbEntity
  8
0
100
AcDbBlockBegin
  2
*D38
 70
     1
 10
0.0
 20
0.0
 30
0.0
  3
*D38
  1

  0
LINE
  5
5CF5
330
45CD
100
AcDbEntity
  8
実形
 62
     0
370
    18
100
AcDbLine
 10
456.0237565719125
 20
796.0712037395681
 30
0.0
 11
378.0239784631977
 21
796.0712037395681
 31
0.0
  0
LINE
  5
5CF6
330
45CD
100
AcDbEntity
  8
実形
 62
     0
370
    18
100
AcDbLine
 10
457.0025342130883
 20
778.0712037395681
 30
0.0
 11
378.0239784631977
 21
778.0712037395681
 31
0.0
  0
LINE
  5
5CF7
330
45CD
100
AcDbEntity
  8
実形
 62
     0
370
    18
100
AcDbLine
 10
378.0239784631977
 20
796.0712037395681
 30
0.0
 11
378.0239784631977
 21
778.0712037395681
 31
0.0
  0
MTEXT
  5
5CF8
330
45CD
100
AcDbEntity
  8
実形
 62
     0
100
AcDbMText
 10
297.8218977958441
 20
847.617683084627
 30
0.0
 40
25.0
 41
0.0
 71
     5
 72
     1
  1
18
 11
0.0000000000000001
 21
1.0
 31
0.0
 73
     1
 44
1.0
1001
ACAD
1000
MTEXTBEGIN
1070
    73
1070
     1
1070
    44
1040
1.0
1070
    74
1070
     0
1000
MTEXTEND
  0
INSERT
  5
5CF9
330
45CD
100
AcDbEntity
  8
実形
 62
     0
370
    18
100
AcDbBlockReference
  2
_DotSmall
 10
378.0239784631977
 20
796.0712037395681
 30
0.0
 41
35.0
 42
35.0
 43
35.0
 50
90.0
  0
INSERT
  5
5CFA
330
45CD
100
AcDbEntity
  8
実形
 62
     0
370
    18
100
AcDbBlockReference
  2
_DotSmall
 10
378.0239784631977
 20
778.0712037395681
 30
0.0
 41
35.0
 42
35.0
 43
35.0
 50
270.0
  0
POINT
  5
5CFB
330
45CD
100
AcDbEntity
  8
Defpoints
 62
     0
100
AcDbPoint
 10
521.0237565719125
 20
796.0712037395681
 30
0.0
  0
POINT
  5
5CFC
330
45CD
100
AcDbEntity
  8
Defpoints
 62
     0
100
AcDbPoint
 10
522.0025342130884
 20
778.0712037395681
 30
0.0
  0
POINT
  5
5CFD
330
45CD
100
AcDbEntity
  8
Defpoints
 62
     0
100
AcDbPoint
 10
378.0239784631977
 20
778.0712037395681
 30
0.0
  0
ENDBLK
  5
45D8
330
45CD
100
AcDbEntity
  8
0
100
AcDbBlockEnd
  0
BLOCK
  5
45E6
330
45DA
100
AcDbEntity
  8
0
100
AcDbBlockBegin
  2
*D39
 70
     1
 10
0.0
 20
0.0
 30
0.0
  3
*D39
  1

  0
LINE
  5
5CEA
330
45DA
100
AcDbEntity
  8
実形
 62
     0
370
    18
100
AcDbLine
 10
457.0025342130883
 20
778.0712037395681
 30
0.0
 11
378.0239784631977
 21
778.0712037395681
 31
0.0
  0
LINE
  5
5CEB
330
45DA
100
AcDbEntity
  8
実形
 62
     0
370
    18
100
AcDbLine
 10
457.0025342130883
 20
772.8712037395681
 30
0.0
 11
378.0239784631977
 21
772.8712037395681
 31
0.0
  0
LINE
  5
5CEC
330
45DA
100
AcDbEntity
  8
実形
 62
     0
370
    18
100
AcDbLine
 10
378.0239784631977
 20
778.0712037395681
 30
0.0
 11
378.0239784631977
 21
813.071203739568
 31
0.0
  0
LINE
  5
5CED
330
45DA
100
AcDbEntity
  8
実形
 62
     0
370
    18
100
AcDbLine
 10
378.0239784631977
 20
772.8712037395681
 30
0.0
 11
378.0239784631977
 21
737.8712037395681
 31
0.0
  0
MTEXT
  5
5CEE
330
45DA
100
AcDbEntity
  8
実形
 62
     0
100
AcDbMText
 10
300.5967482172236
 20
749.8109212836261
 30
0.0
 40
25.0
 41
0.0
 71
     5
 72
     1
  1
5.2
 11
0.0000000000000001
 21
1.0
 31
0.0
 73
     1
 44
1.0
1001
ACAD
1000
MTEXTBEGIN
1070
    73
1070
     1
1070
    44
1040
1.0
1070
    74
1070
     0
1000
MTEXTEND
  0
LINE
  5
5CEF
330
45DA
100
AcDbEntity
  8
実形
 62
     0
370
    18
100
AcDbLine
 10
378.0239784631977
 20
778.0712037395681
 30
0.0
 11
378.0239784631977
 21
772.8712037395681
 31
0.0
  0
INSERT
  5
5CF0
330
45DA
100
AcDbEntity
  8
実形
 62
     0
370
    18
100
AcDbBlockReference
  2
_DotSmall
 10
378.0239784631977
 20
778.0712037395681
 30
0.0
 41
35.0
 42
35.0
 43
35.0
 50
270.0
  0
INSERT
  5
5CF1
330
45DA
100
AcDbEntity
  8
実形
 62
     0
370
    18
100
AcDbBlockReference
  2
_DotSmall
 10
378.0239784631977
 20
772.8712037395681
 30
0.0
 41
35.0
 42
35.0
 43
35.0
 50
90.0
  0
POINT
  5
5CF2
330
45DA
100
AcDbEntity
  8
Defpoints
 62
     0
100
AcDbPoint
 10
522.0025342130884
 20
778.0712037395681
 30
0.0
  0
POINT
  5
5CF3
330
45DA
100
AcDbEntity
  8
Defpoints
 62
     0
100
AcDbPoint
 10
522.0025342130884
 20
772.8712037395681
 30
0.0
  0
POINT
  5
5CF4
330
45DA
100
AcDbEntity
  8
Defpoints
 62
     0
100
AcDbPoint
 10
378.0239784631977
 20
772.8712037395681
 30
0.0
  0
ENDBLK
  5
45E7
330
45DA
100
AcDbEntity
  8
0
100
AcDbBlockEnd
  0
BLOCK
  5
45FE
330
45F4
100
AcDbEntity
  8
0
100
AcDbBlockBegin
  2
*D40
 70
     1
 10
0.0
 20
0.0
 30
0.0
  3
*D40
  1

  0
LINE
  5
5CE1
330
45F4
100
AcDbEntity
  8
実形
 62
     0
370
    18
100
AcDbLine
 10
457.0025342130883
 20
772.8712037395681
 30
0.0
 11
378.0239784631977
 21
772.8712037395681
 31
0.0
  0
LINE
  5
5CE2
330
45F4
100
AcDbEntity
  8
実形
 62
     0
370
    18
100
AcDbLine
 10
401.9360264383412
 20
597.8712037395681
 30
0.0
 11
378.0239784631976
 21
597.8712037395681
 31
0.0
  0
LINE
  5
5CE3
330
45F4
100
AcDbEntity
  8
実形
 62
     0
370
    18
100
AcDbLine
 10
378.0239784631977
 20
772.8712037395681
 30
0.0
 11
378.0239784631976
 21
597.8712037395681
 31
0.0
  0
MTEXT
  5
5CE4
330
45F4
100
AcDbEntity
  8
実形
 62
     0
100
AcDbMText
 10
352.1501521186674
 20
668.6339556238199
 30
0.0
 40
25.0
 41
0.0
 71
     5
 72
     1
  1
175
 11
0.0000000000000001
 21
1.0
 31
0.0
 73
     1
 44
1.0
1001
ACAD
1000
MTEXTBEGIN
1070
    73
1070
     1
1070
    44
1040
1.0
1070
    74
1070
     0
1000
MTEXTEND
  0
INSERT
  5
5CE5
330
45F4
100
AcDbEntity
  8
実形
 62
     0
370
    18
100
AcDbBlockReference
  2
_DotSmall
 10
378.0239784631977
 20
772.8712037395681
 30
0.0
 41
35.0
 42
35.0
 43
35.0
 50
90.0
  0
INSERT
  5
5CE6
330
45F4
100
AcDbEntity
  8
実形
 62
     0
370
    18
100
AcDbBlockReference
  2
_DotSmall
 10
378.0239784631976
 20
597.8712037395681
 30
0.0
 41
35.0
 42
35.0
 43
35.0
 50
270.0
  0
POINT
  5
5CE7
330
45F4
100
AcDbEntity
  8
Defpoints
 62
     0
100
AcDbPoint
 10
522.0025342130884
 20
772.8712037395681
 30
0.0
  0
POINT
  5
5CE8
330
45F4
100
AcDbEntity
  8
Defpoints
 62
     0
100
AcDbPoint
 10
466.9360264383413
 20
597.8712037395681
 30
0.0
  0
POINT
  5
5CE9
330
45F4
100
AcDbEntity
  8
Defpoints
 62
     0
100
AcDbPoint
 10
378.0239784631976
 20
597.8712037395681
 30
0.0
  0
ENDBLK
  5
45FF
330
45F4
100
AcDbEntity
  8
0
100
AcDbBlockEnd
  0
BLOCK
  5
4623
330
4619
100
AcDbEntity
  8
0
100
AcDbBlockBegin
  2
*D41
 70
     1
 10
0.0
 20
0.0
 30
0.0
  3
*D41
  1

  0
LINE
  5
5CD8
330
4619
100
AcDbEntity
  8
実形
 62
     0
370
    18
100
AcDbLine
 10
456.0237565719125
 20
796.0712037395681
 30
0.0
 11
267.4020800125564
 21
796.0712037395681
 31
0.0
  0
LINE
  5
5CD9
330
4619
100
AcDbEntity
  8
実形
 62
     0
370
    18
100
AcDbLine
 10
401.9360264383412
 20
597.8712037395681
 30
0.0
 11
267.4020800125563
 21
597.8712037395681
 31
0.0
  0
LINE
  5
5CDA
330
4619
100
AcDbEntity
  8
実形
 62
     0
370
    18
100
AcDbLine
 10
267.4020800125564
 20
796.0712037395681
 30
0.0
 11
267.4020800125563
 21
597.8712037395681
 31
0.0
  0
INSERT
  5
5CDB
330
4619
100
AcDbEntity
  8
実形
 62
     0
370
    18
100
AcDbBlockReference
  2
_DotSmall
 10
267.4020800125564
 20
796.0712037395681
 30
0.0
 41
35.0
 42
35.0
 43
35.0
 50
90.0
  0
INSERT
  5
5CDC
330
4619
100
AcDbEntity
  8
実形
 62
     0
370
    18
100
AcDbBlockReference
  2
_DotSmall
 10
267.4020800125563
 20
597.8712037395681
 30
0.0
 41
35.0
 42
35.0
 43
35.0
 50
270.0
  0
MTEXT
  5
5CDD
330
4619
100
AcDbEntity
  8
実形
 62
     0
100
AcDbMText
 10
248.6520800125563
 20
696.9712037395681
 30
0.0
 40
25.0
 41
0.0
 71
     5
 72
     1
  1
198.2
 11
0.0000000000000001
 21
1.0
 31
0.0
 73
     1
 44
1.0
1001
ACAD
1000
MTEXTBEGIN
1070
    73
1070
     1
1070
    44
1040
1.0
1070
    74
1070
     0
1000
MTEXTEND
  0
POINT
  5
5CDE
330
4619
100
AcDbEntity
  8
Defpoints
 62
     0
100
AcDbPoint
 10
521.0237565719125
 20
796.0712037395681
 30
0.0
  0
POINT
  5
5CDF
330
4619
100
AcDbEntity
  8
Defpoints
 62
     0
100
AcDbPoint
 10
466.9360264383413
 20
597.8712037395681
 30
0.0
  0
POINT
  5
5CE0
330
4619
100
AcDbEntity
  8
Defpoints
 62
     0
100
AcDbPoint
 10
267.4020800125563
 20
597.8712037395681
 30
0.0
  0
ENDBLK
  5
4624
330
4619
100
AcDbEntity
  8
0
100
AcDbBlockEnd
  0
BLOCK
  5
4835
330
482B
100
AcDbEntity
  8
0
100
AcDbBlockBegin
  2
*D42
 70
     1
 10
0.0
 20
0.0
 30
0.0
  3
*D42
  1

  0
LINE
  5
5CCF
330
482B
100
AcDbEntity
  8
実形
 62
     0
370
    18
100
AcDbLine
 10
1625.665951868394
 20
1150.340894494846
 30
0.0
 11
1625.665951868394
 21
1054.533907350647
 31
0.0
  0
LINE
  5
5CD0
330
482B
100
AcDbEntity
  8
実形
 62
     0
370
    18
100
AcDbLine
 10
1643.665951868394
 20
1150.340894494846
 30
0.0
 11
1643.665951868394
 21
1054.533907350647
 31
0.0
  0
LINE
  5
5CD1
330
482B
100
AcDbEntity
  8
実形
 62
     0
370
    18
100
AcDbLine
 10
1625.665951868394
 20
1054.533907350647
 30
0.0
 11
1643.665951868394
 21
1054.533907350647
 31
0.0
  0
MTEXT
  5
5CD2
330
482B
100
AcDbEntity
  8
実形
 62
     0
100
AcDbMText
 10
1594.53406896725
 20
1083.150194052052
 30
0.0
 40
25.0
 41
0.0
 71
     5
 72
     1
  1
18
 73
     1
 44
1.0
1001
ACAD
1000
MTEXTBEGIN
1070
    73
1070
     1
1070
    44
1040
1.0
1070
    74
1070
     0
1000
MTEXTEND
  0
INSERT
  5
5CD3
330
482B
100
AcDbEntity
  8
実形
 62
     0
370
    18
100
AcDbBlockReference
  2
_DotSmall
 10
1625.665951868394
 20
1054.533907350647
 30
0.0
 41
35.0
 42
35.0
 43
35.0
 50
180.0
  0
INSERT
  5
5CD4
330
482B
100
AcDbEntity
  8
実形
 62
     0
370
    18
100
AcDbBlockReference
  2
_DotSmall
 10
1643.665951868394
 20
1054.533907350647
 30
0.0
 41
35.0
 42
35.0
 43
35.0
  0
POINT
  5
5CD5
330
482B
100
AcDbEntity
  8
Defpoints
 62
     0
100
AcDbPoint
 10
1625.665951868394
 20
1215.340894494846
 30
0.0
  0
POINT
  5
5CD6
330
482B
100
AcDbEntity
  8
Defpoints
 62
     0
100
AcDbPoint
 10
1643.665951868394
 20
1215.340894494846
 30
0.0
  0
POINT
  5
5CD7
330
482B
100
AcDbEntity
  8
Defpoints
 62
     0
100
AcDbPoint
 10
1643.665951868394
 20
1054.533907350647
 30
0.0
  0
ENDBLK
  5
4836
330
482B
100
AcDbEntity
  8
0
100
AcDbBlockEnd
  0
BLOCK
  5
4842
330
4838
100
AcDbEntity
  8
0
100
AcDbBlockBegin
  2
*D43
 70
     1
 10
0.0
 20
0.0
 30
0.0
  3
*D43
  1

  0
LINE
  5
5CC6
330
4838
100
AcDbEntity
  8
実形
 62
     0
370
    18
100
AcDbLine
 10
1643.665951868394
 20
1150.340894494846
 30
0.0
 11
1643.665951868394
 21
1054.533907350647
 31
0.0
  0
LINE
  5
5CC7
330
4838
100
AcDbEntity
  8
実形
 62
     0
370
    18
100
AcDbLine
 10
1823.865951868394
 20
1150.340894494846
 30
0.0
 11
1823.865951868394
 21
1054.533907350647
 31
0.0
  0
LINE
  5
5CC8
330
4838
100
AcDbEntity
  8
実形
 62
     0
370
    18
100
AcDbLine
 10
1643.665951868394
 20
1054.533907350647
 30
0.0
 11
1823.865951868394
 21
1054.533907350647
 31
0.0
  0
INSERT
  5
5CC9
330
4838
100
AcDbEntity
  8
実形
 62
     0
370
    18
100
AcDbBlockReference
  2
_DotSmall
 10
1643.665951868394
 20
1054.533907350647
 30
0.0
 41
35.0
 42
35.0
 43
35.0
 50
180.0
  0
INSERT
  5
5CCA
330
4838
100
AcDbEntity
  8
実形
 62
     0
370
    18
100
AcDbBlockReference
  2
_DotSmall
 10
1823.865951868394
 20
1054.533907350647
 30
0.0
 41
35.0
 42
35.0
 43
35.0
  0
MTEXT
  5
5CCB
330
4838
100
AcDbEntity
  8
実形
 62
     0
100
AcDbMText
 10
1733.765951868394
 20
1073.283907350647
 30
0.0
 40
25.0
 41
0.0
 71
     5
 72
     1
  1
180.2
 73
     1
 44
1.0
1001
ACAD
1000
MTEXTBEGIN
1070
    73
1070
     1
1070
    44
1040
1.0
1070
    74
1070
     0
1000
MTEXTEND
  0
POINT
  5
5CCC
330
4838
100
AcDbEntity
  8
Defpoints
 62
     0
100
AcDbPoint
 10
1643.665951868394
 20
1215.340894494846
 30
0.0
  0
POINT
  5
5CCD
330
4838
100
AcDbEntity
  8
Defpoints
 62
     0
100
AcDbPoint
 10
1823.865951868394
 20
1215.340894494846
 30
0.0
  0
POINT
  5
5CCE
330
4838
100
AcDbEntity
  8
Defpoints
 62
     0
100
AcDbPoint
 10
1823.865951868394
 20
1054.533907350647
 30
0.0
  0
ENDBLK
  5
4843
330
4838
100
AcDbEntity
  8
0
100
AcDbBlockEnd
  0
BLOCK
  5
4851
330
4845
100
AcDbEntity
  8
0
100
AcDbBlockBegin
  2
*D44
 70
     1
 10
0.0
 20
0.0
 30
0.0
  3
*D44
  1

  0
LINE
  5
5CBB
330
4845
100
AcDbEntity
  8
実形
 62
     0
370
    18
100
AcDbLine
 10
1823.865951868394
 20
1150.340894494846
 30
0.0
 11
1823.865951868394
 21
1098.242488378644
 31
0.0
  0
LINE
  5
5CBC
330
4845
100
AcDbEntity
  8
実形
 62
     0
370
    18
100
AcDbLine
 10
1833.865951868394
 20
1150.340894494846
 30
0.0
 11
1833.865951868394
 21
1098.242488378644
 31
0.0
  0
LINE
  5
5CBD
330
4845
100
AcDbEntity
  8
実形
 62
     0
370
    18
100
AcDbLine
 10
1823.865951868394
 20
1098.242488378644
 30
0.0
 11
1788.865951868394
 21
1098.242488378644
 31
0.0
  0
LINE
  5
5CBE
330
4845
100
AcDbEntity
  8
実形
 62
     0
370
    18
100
AcDbLine
 10
1833.865951868394
 20
1098.242488378644
 30
0.0
 11
1868.865951868394
 21
1098.242488378644
 31
0.0
  0
MTEXT
  5
5CBF
330
4845
100
AcDbEntity
  8
実形
 62
     0
100
AcDbMText
 10
1866.326913035087
 20
1121.427892557194
 30
0.0
 40
25.0
 41
0.0
 71
     5
 72
     1
  1
7
 73
     1
 44
1.0
1001
ACAD
1000
MTEXTBEGIN
1070
    73
1070
     1
1070
    44
1040
1.0
1070
    74
1070
     0
1000
MTEXTEND
  0
LINE
  5
5CC0
330
4845
100
AcDbEntity
  8
実形
 62
     0
370
    18
100
AcDbLine
 10
1823.865951868394
 20
1098.242488378644
 30
0.0
 11
1833.865951868394
 21
1098.242488378644
 31
0.0
  0
INSERT
  5
5CC1
330
4845
100
AcDbEntity
  8
実形
 62
     0
370
    18
100
AcDbBlockReference
  2
_DotSmall
 10
1823.865951868394
 20
1098.242488378644
 30
0.0
 41
35.0
 42
35.0
 43
35.0
  0
INSERT
  5
5CC2
330
4845
100
AcDbEntity
  8
実形
 62
     0
370
    18
100
AcDbBlockReference
  2
_DotSmall
 10
1833.865951868394
 20
1098.242488378644
 30
0.0
 41
35.0
 42
35.0
 43
35.0
 50
180.0
  0
POINT
  5
5CC3
330
4845
100
AcDbEntity
  8
Defpoints
 62
     0
100
AcDbPoint
 10
1823.865951868394
 20
1215.340894494846
 30
0.0
  0
POINT
  5
5CC4
330
4845
100
AcDbEntity
  8
Defpoints
 62
     0
100
AcDbPoint
 10
1833.865951868394
 20
1215.340894494846
 30
0.0
  0
POINT
  5
5CC5
330
4845
100
AcDbEntity
  8
Defpoints
 62
     0
100
AcDbPoint
 10
1833.865951868394
 20
1098.242488378644
 30
0.0
  0
ENDBLK
  5
4852
330
4845
100
AcDbEntity
  8
0
100
AcDbBlockEnd
  0
BLOCK
  5
489C
330
4892
100
AcDbEntity
  8
0
100
AcDbBlockBegin
  2
*D45
 70
     1
 10
0.0
 20
0.0
 30
0.0
  3
*D45
  1

  0
LINE
  5
5CB2
330
4892
100
AcDbEntity
  8
実形
 62
     0
370
    18
100
AcDbLine
 10
1625.665951868394
 20
1150.340894494846
 30
0.0
 11
1625.665951868394
 21
995.755819400456
 31
0.0
  0
LINE
  5
5CB3
330
4892
100
AcDbEntity
  8
実形
 62
     0
370
    18
100
AcDbLine
 10
1823.865951868394
 20
1150.340894494846
 30
0.0
 11
1823.865951868394
 21
995.755819400456
 31
0.0
  0
LINE
  5
5CB4
330
4892
100
AcDbEntity
  8
実形
 62
     0
370
    18
100
AcDbLine
 10
1625.665951868394
 20
995.755819400456
 30
0.0
 11
1823.865951868394
 21
995.755819400456
 31
0.0
  0
INSERT
  5
5CB5
330
4892
100
AcDbEntity
  8
実形
 62
     0
370
    18
100
AcDbBlockReference
  2
_DotSmall
 10
1625.665951868394
 20
995.755819400456
 30
0.0
 41
35.0
 42
35.0
 43
35.0
 50
180.0
  0
INSERT
  5
5CB6
330
4892
100
AcDbEntity
  8
実形
 62
     0
370
    18
100
AcDbBlockReference
  2
_DotSmall
 10
1823.865951868394
 20
995.755819400456
 30
0.0
 41
35.0
 42
35.0
 43
35.0
  0
MTEXT
  5
5CB7
330
4892
100
AcDbEntity
  8
実形
 62
     0
100
AcDbMText
 10
1724.765951868394
 20
1014.505819400456
 30
0.0
 40
25.0
 41
0.0
 71
     5
 72
     1
  1
198.2
 73
     1
 44
1.0
1001
ACAD
1000
MTEXTBEGIN
1070
    73
1070
     1
1070
    44
1040
1.0
1070
    74
1070
     0
1000
MTEXTEND
  0
POINT
  5
5CB8
330
4892
100
AcDbEntity
  8
Defpoints
 62
     0
100
AcDbPoint
 10
1625.665951868394
 20
1215.340894494846
 30
0.0
  0
POINT
  5
5CB9
330
4892
100
AcDbEntity
  8
Defpoints
 62
     0
100
AcDbPoint
 10
1823.865951868394
 20
1215.340894494846
 30
0.0
  0
POINT
  5
5CBA
330
4892
100
AcDbEntity
  8
Defpoints
 62
     0
100
AcDbPoint
 10
1823.865951868394
 20
995.755819400456
 30
0.0
  0
ENDBLK
  5
489D
330
4892
100
AcDbEntity
  8
0
100
AcDbBlockEnd
  0
BLOCK
  5
4902
330
48F6
100
AcDbEntity
  8
0
100
AcDbBlockBegin
  2
*D46
 70
     1
 10
0.0
 20
0.0
 30
0.0
  3
*D46
  1

  0
LINE
  5
5CA7
330
48F6
100
AcDbEntity
  8
実形
 62
     0
370
    18
100
AcDbLine
 10
458.0959320223209
 20
597.8712037395681
 30
0.0
 11
378.0239784631976
 21
597.8712037395681
 31
0.0
  0
LINE
  5
5CA8
330
48F6
100
AcDbEntity
  8
実形
 62
     0
370
    18
100
AcDbLine
 10
458.0959320223209
 20
587.871203739568
 30
0.0
 11
378.0239784631976
 21
587.871203739568
 31
0.0
  0
LINE
  5
5CA9
330
48F6
100
AcDbEntity
  8
実形
 62
     0
370
    18
100
AcDbLine
 10
378.0239784631976
 20
597.8712037395681
 30
0.0
 11
378.0239784631976
 21
632.871203739568
 31
0.0
  0
LINE
  5
5CAA
330
48F6
100
AcDbEntity
  8
実形
 62
     0
370
    18
100
AcDbLine
 10
378.0239784631976
 20
587.871203739568
 30
0.0
 11
378.0239784631976
 21
552.871203739568
 31
0.0
  0
MTEXT
  5
5CAB
330
48F6
100
AcDbEntity
  8
実形
 62
     0
100
AcDbMText
 10
343.0239784631975
 20
581.5334200753313
 30
0.0
 40
25.0
 41
0.0
 71
     5
 72
     1
  1
7
 11
0.0000000000000001
 21
1.0
 31
0.0
 73
     1
 44
1.0
1001
ACAD
1000
MTEXTBEGIN
1070
    73
1070
     1
1070
    44
1040
1.0
1070
    74
1070
     0
1000
MTEXTEND
  0
LINE
  5
5CAC
330
48F6
100
AcDbEntity
  8
実形
 62
     0
370
    18
100
AcDbLine
 10
378.0239784631976
 20
597.8712037395681
 30
0.0
 11
378.0239784631976
 21
587.871203739568
 31
0.0
  0
INSERT
  5
5CAD
330
48F6
100
AcDbEntity
  8
実形
 62
     0
370
    18
100
AcDbBlockReference
  2
_DotSmall
 10
378.0239784631976
 20
597.8712037395681
 30
0.0
 41
35.0
 42
35.0
 43
35.0
 50
270.0
  0
INSERT
  5
5CAE
330
48F6
100
AcDbEntity
  8
実形
 62
     0
370
    18
100
AcDbBlockReference
  2
_DotSmall
 10
378.0239784631976
 20
587.871203739568
 30
0.0
 41
35.0
 42
35.0
 43
35.0
 50
90.0
  0
POINT
  5
5CAF
330
48F6
100
AcDbEntity
  8
Defpoints
 62
     0
100
AcDbPoint
 10
523.095932022321
 20
597.8712037395681
 30
0.0
  0
POINT
  5
5CB0
330
48F6
100
AcDbEntity
  8
Defpoints
 62
     0
100
AcDbPoint
 10
523.095932022321
 20
587.871203739568
 30
0.0
  0
POINT
  5
5CB1
330
48F6
100
AcDbEntity
  8
Defpoints
 62
     0
100
AcDbPoint
 10
378.0239784631976
 20
587.871203739568
 30
0.0
  0
ENDBLK
  5
4903
330
48F6
100
AcDbEntity
  8
0
100
AcDbBlockEnd
  0
BLOCK
  5
49EC
330
49E2
100
AcDbEntity
  8
0
100
AcDbBlockBegin
  2
*D47
 70
     1
 10
0.0
 20
0.0
 30
0.0
  3
*D47
  1

  0
LINE
  5
5C9E
330
49E2
100
AcDbEntity
  8
実形
 62
     0
370
    18
100
AcDbLine
 10
1904.598314110886
 20
693.4388787035103
 30
0.0
 11
1842.301515497275
 21
693.4388787035103
 31
0.0
  0
LINE
  5
5C9F
330
49E2
100
AcDbEntity
  8
実形
 62
     0
370
    18
100
AcDbLine
 10
1904.598314110886
 20
594.6388787035102
 30
0.0
 11
1842.301515497275
 21
594.6388787035102
 31
0.0
  0
LINE
  5
5CA0
330
49E2
100
AcDbEntity
  8
実形
 62
     0
370
    18
100
AcDbLine
 10
1842.301515497275
 20
693.4388787035103
 30
0.0
 11
1842.301515497275
 21
594.6388787035102
 31
0.0
  0
INSERT
  5
5CA1
330
49E2
100
AcDbEntity
  8
実形
 62
     0
370
    18
100
AcDbBlockReference
  2
_DotSmall
 10
1842.301515497275
 20
693.4388787035103
 30
0.0
 41
35.0
 42
35.0
 43
35.0
 50
90.0
  0
INSERT
  5
5CA2
330
49E2
100
AcDbEntity
  8
実形
 62
     0
370
    18
100
AcDbBlockReference
  2
_DotSmall
 10
1842.301515497275
 20
594.6388787035102
 30
0.0
 41
35.0
 42
35.0
 43
35.0
 50
270.0
  0
MTEXT
  5
5CA3
330
49E2
100
AcDbEntity
  8
実形
 62
     0
100
AcDbMText
 10
1823.551515497275
 20
644.0388787035106
 30
0.0
 40
25.0
 41
0.0
 71
     5
 72
     1
  1
6.5
 11
0.0000000000000001
 21
1.0
 31
0.0
 73
     1
 44
1.0
1001
ACAD
1000
MTEXTBEGIN
1070
    73
1070
     1
1070
    44
1040
1.0
1070
    74
1070
     0
1000
MTEXTEND
  0
POINT
  5
5CA4
330
49E2
100
AcDbEntity
  8
Defpoints
 62
     0
100
AcDbPoint
 10
1969.598314110886
 20
693.4388787035103
 30
0.0
  0
POINT
  5
5CA5
330
49E2
100
AcDbEntity
  8
Defpoints
 62
     0
100
AcDbPoint
 10
1969.598314110886
 20
594.6388787035102
 30
0.0
  0
POINT
  5
5CA6
330
49E2
100
AcDbEntity
  8
Defpoints
 62
     0
100
AcDbPoint
 10
1842.301515497275
 20
594.6388787035102
 30
0.0
  0
ENDBLK
  5
49ED
330
49E2
100
AcDbEntity
  8
0
100
AcDbBlockEnd
  0
BLOCK
  5
4A5C
330
4A52
100
AcDbEntity
  8
0
100
AcDbBlockBegin
  2
*D48
 70
     1
 10
0.0
 20
0.0
 30
0.0
  3
*D48
  1

  0
LINE
  5
5C95
330
4A52
100
AcDbEntity
  8
実形
 62
     0
370
    18
100
AcDbLine
 10
1904.598314110886
 20
693.4388787035103
 30
0.0
 11
1788.304587942761
 21
693.4388787035104
 31
0.0
  0
LINE
  5
5C96
330
4A52
100
AcDbEntity
  8
実形
 62
     0
370
    18
100
AcDbLine
 10
1904.598314110886
 20
568.6388787035094
 30
0.0
 11
1788.304587942761
 21
568.6388787035095
 31
0.0
  0
LINE
  5
5C97
330
4A52
100
AcDbEntity
  8
実形
 62
     0
370
    18
100
AcDbLine
 10
1788.304587942761
 20
693.4388787035104
 30
0.0
 11
1788.304587942761
 21
568.6388787035095
 31
0.0
  0
INSERT
  5
5C98
330
4A52
100
AcDbEntity
  8
実形
 62
     0
370
    18
100
AcDbBlockReference
  2
_DotSmall
 10
1788.304587942761
 20
693.4388787035104
 30
0.0
 41
35.0
 42
35.0
 43
35.0
 50
90.0
  0
INSERT
  5
5C99
330
4A52
100
AcDbEntity
  8
実形
 62
     0
370
    18
100
AcDbBlockReference
  2
_DotSmall
 10
1788.304587942761
 20
568.6388787035095
 30
0.0
 41
35.0
 42
35.0
 43
35.0
 50
270.0
  0
MTEXT
  5
5C9A
330
4A52
100
AcDbEntity
  8
実形
 62
     0
100
AcDbMText
 10
1769.554587942761
 20
631.0388787035102
 30
0.0
 40
25.0
 41
0.0
 71
     5
 72
     1
  1
8.2
 11
0.0000000000000001
 21
1.0
 31
0.0
 73
     1
 44
1.0
1001
ACAD
1000
MTEXTBEGIN
1070
    73
1070
     1
1070
    44
1040
1.0
1070
    74
1070
     0
1000
MTEXTEND
  0
POINT
  5
5C9B
330
4A52
100
AcDbEntity
  8
Defpoints
 62
     0
100
AcDbPoint
 10
1969.598314110886
 20
693.4388787035103
 30
0.0
  0
POINT
  5
5C9C
330
4A52
100
AcDbEntity
  8
Defpoints
 62
     0
100
AcDbPoint
 10
1969.598314110886
 20
568.6388787035094
 30
0.0
  0
POINT
  5
5C9D
330
4A52
100
AcDbEntity
  8
Defpoints
 62
     0
100
AcDbPoint
 10
1788.304587942761
 20
568.6388787035095
 30
0.0
  0
ENDBLK
  5
4A5D
330
4A52
100
AcDbEntity
  8
0
100
AcDbBlockEnd
  0
BLOCK
  5
4A73
330
4A69
100
AcDbEntity
  8
0
100
AcDbBlockBegin
  2
*D49
 70
     1
 10
0.0
 20
0.0
 30
0.0
  3
*D49
  1

  0
LINE
  5
5C8C
330
4A69
100
AcDbEntity
  8
実形
 62
     0
370
    18
100
AcDbLine
 10
1904.598314110886
 20
553.0388787035102
 30
0.0
 11
1736.658951194005
 21
553.0388787035104
 31
0.0
  0
LINE
  5
5C8D
330
4A69
100
AcDbEntity
  8
実形
 62
     0
370
    18
100
AcDbLine
 10
1904.598314110886
 20
693.4388787035103
 30
0.0
 11
1736.658951194005
 21
693.4388787035104
 31
0.0
  0
LINE
  5
5C8E
330
4A69
100
AcDbEntity
  8
実形
 62
     0
370
    18
100
AcDbLine
 10
1736.658951194005
 20
553.0388787035104
 30
0.0
 11
1736.658951194005
 21
693.4388787035104
 31
0.0
  0
INSERT
  5
5C8F
330
4A69
100
AcDbEntity
  8
実形
 62
     0
370
    18
100
AcDbBlockReference
  2
_DotSmall
 10
1736.658951194005
 20
553.0388787035104
 30
0.0
 41
35.0
 42
35.0
 43
35.0
 50
270.0
  0
INSERT
  5
5C90
330
4A69
100
AcDbEntity
  8
実形
 62
     0
370
    18
100
AcDbBlockReference
  2
_DotSmall
 10
1736.658951194005
 20
693.4388787035104
 30
0.0
 41
35.0
 42
35.0
 43
35.0
 50
90.0
  0
MTEXT
  5
5C91
330
4A69
100
AcDbEntity
  8
実形
 62
     0
100
AcDbMText
 10
1717.908951194005
 20
623.2388787035106
 30
0.0
 40
25.0
 41
0.0
 71
     5
 72
     1
  1
9
 11
0.0000000000000001
 21
1.0
 31
0.0
 73
     1
 44
1.0
1001
ACAD
1000
MTEXTBEGIN
1070
    73
1070
     1
1070
    44
1040
1.0
1070
    74
1070
     0
1000
MTEXTEND
  0
POINT
  5
5C92
330
4A69
100
AcDbEntity
  8
Defpoints
 62
     0
100
AcDbPoint
 10
1969.598314110886
 20
553.0388787035102
 30
0.0
  0
POINT
  5
5C93
330
4A69
100
AcDbEntity
  8
Defpoints
 62
     0
100
AcDbPoint
 10
1969.598314110886
 20
693.4388787035103
 30
0.0
  0
POINT
  5
5C94
330
4A69
100
AcDbEntity
  8
Defpoints
 62
     0
100
AcDbPoint
 10
1736.658951194005
 20
693.4388787035104
 30
0.0
  0
ENDBLK
  5
4A74
330
4A69
100
AcDbEntity
  8
0
100
AcDbBlockEnd
  0
BLOCK
  5
5919
330
590F
100
AcDbEntity
  8
0
100
AcDbBlockBegin
  2
*D50
 70
     1
 10
0.0
 20
0.0
 30
0.0
  3
*D50
  1

  0
LINE
  5
5C83
330
590F
100
AcDbEntity
  8
実形
 62
     0
370
    15
100
AcDbLine
 10
926.1678384856368
 20
1417.999733260441
 30
0.0
 11
926.1678384856368
 21
1380.356704135434
 31
0.0
  0
LINE
  5
5C84
330
590F
100
AcDbEntity
  8
実形
 62
     0
370
    15
100
AcDbLine
 10
526.1678384856367
 20
1370.187035644826
 30
0.0
 11
526.1678384856367
 21
1380.356704135434
 31
0.0
  0
LINE
  5
5C85
330
590F
100
AcDbEntity
  8
実形
 62
     0
370
    18
100
AcDbLine
 10
926.1678384856368
 20
1380.356704135434
 30
0.0
 11
526.1678384856367
 21
1380.356704135434
 31
0.0
  0
INSERT
  5
5C86
330
590F
100
AcDbEntity
  8
実形
 62
     0
370
    18
100
AcDbBlockReference
  2
_DotSmall
 10
926.1678384856368
 20
1380.356704135434
 30
0.0
 41
35.0
 42
35.0
 43
35.0
  0
INSERT
  5
5C87
330
590F
100
AcDbEntity
  8
実形
 62
     0
370
    18
100
AcDbBlockReference
  2
_DotSmall
 10
526.1678384856367
 20
1380.356704135434
 30
0.0
 41
35.0
 42
35.0
 43
35.0
 50
180.0
  0
MTEXT
  5
5C88
330
590F
100
AcDbEntity
  8
実形
 62
     0
370
    -2
100
AcDbMText
 10
726.1678384856367
 20
1399.106704135434
 30
0.0
 40
25.0
 41
0.0
 71
     5
 72
     1
  1
400
 73
     1
 44
1.0
1001
ACAD
1000
MTEXTBEGIN
1070
    73
1070
     1
1070
    44
1040
1.0
1070
    74
1070
     0
1000
MTEXTEND
  0
POINT
  5
5C89
330
590F
100
AcDbEntity
  8
Defpoints
 62
     0
100
AcDbPoint
 10
926.1678384856368
 20
1482.999733260442
 30
0.0
  0
POINT
  5
5C8A
330
590F
100
AcDbEntity
  8
Defpoints
 62
     0
100
AcDbPoint
 10
526.1678384856367
 20
1435.187035644826
 30
0.0
  0
POINT
  5
5C8B
330
590F
100
AcDbEntity
  8
Defpoints
 62
     0
100
AcDbPoint
 10
526.1678384856367
 20
1380.356704135434
 30
0.0
  0
ENDBLK
  5
591A
330
590F
100
AcDbEntity
  8
0
100
AcDbBlockEnd
  0
BLOCK
  5
5925
330
591B
100
AcDbEntity
  8
0
100
AcDbBlockBegin
  2
*D51
 70
     1
 10
0.0
 20
0.0
 30
0.0
  3
*D51
  1

  0
LINE
  5
5C7A
330
591B
100
AcDbEntity
  8
実形
 62
     0
370
    15
100
AcDbLine
 10
1048.823501390562
 20
1490.187035644826
 30
0.0
 11
1172.703050352795
 21
1490.187035644826
 31
0.0
  0
LINE
  5
5C7B
330
591B
100
AcDbEntity
  8
実形
 62
     0
370
    15
100
AcDbLine
 10
991.1678384856369
 20
1640.187035644826
 30
0.0
 11
1172.703050352795
 21
1640.187035644826
 31
0.0
  0
LINE
  5
5C7C
330
591B
100
AcDbEntity
  8
実形
 62
     0
370
    18
100
AcDbLine
 10
1172.703050352795
 20
1490.187035644826
 30
0.0
 11
1172.703050352795
 21
1640.187035644826
 31
0.0
  0
INSERT
  5
5C7D
330
591B
100
AcDbEntity
  8
実形
 62
     0
370
    18
100
AcDbBlockReference
  2
_DotSmall
 10
1172.703050352795
 20
1490.187035644826
 30
0.0
 41
35.0
 42
35.0
 43
35.0
 50
270.0
  0
INSERT
  5
5C7E
330
591B
100
AcDbEntity
  8
実形
 62
     0
370
    18
100
AcDbBlockReference
  2
_DotSmall
 10
1172.703050352795
 20
1640.187035644826
 30
0.0
 41
35.0
 42
35.0
 43
35.0
 50
90.0
  0
MTEXT
  5
5C7F
330
591B
100
AcDbEntity
  8
実形
 62
     0
370
    -2
100
AcDbMText
 10
1153.953050352795
 20
1564.766224830202
 30
0.0
 40
25.0
 41
0.0
 71
     5
 72
     1
  1
150
 11
0.0000000000000001
 21
1.0
 31
0.0
 73
     1
 44
1.0
1001
ACAD
1000
MTEXTBEGIN
1070
    73
1070
     1
1070
    44
1040
1.0
1070
    74
1070
     0
1000
MTEXTEND
  0
POINT
  5
5C80
330
591B
100
AcDbEntity
  8
Defpoints
 62
     0
100
AcDbPoint
 10
983.8235013905624
 20
1490.187035644826
 30
0.0
  0
POINT
  5
5C81
330
591B
100
AcDbEntity
  8
Defpoints
 62
     0
100
AcDbPoint
 10
926.1678384856368
 20
1640.187035644826
 30
0.0
  0
POINT
  5
5C82
330
591B
100
AcDbEntity
  8
Defpoints
 62
     0
100
AcDbPoint
 10
1172.703050352795
 20
1640.187035644826
 30
0.0
  0
ENDBLK
  5
5926
330
591B
100
AcDbEntity
  8
0
100
AcDbBlockEnd
  0
BLOCK
  5
5931
330
5927
100
AcDbEntity
  8
0
100
AcDbBlockBegin
  2
*D52
 70
     1
 10
0.0
 20
0.0
 30
0.0
  3
*D52
  1

  0
LINE
  5
5C71
330
5927
100
AcDbEntity
  8
実形
 62
     0
370
    15
100
AcDbLine
 10
511.1678384856368
 20
1135.187035644826
 30
0.0
 11
511.1678384856368
 21
1052.254917874772
 31
0.0
  0
LINE
  5
5C72
330
5927
100
AcDbEntity
  8
実形
 62
     0
370
    15
100
AcDbLine
 10
526.1678384856367
 20
1135.187035644826
 30
0.0
 11
526.1678384856367
 21
1052.254917874772
 31
0.0
  0
LINE
  5
5C73
330
5927
100
AcDbEntity
  8
実形
 62
     0
370
    18
100
AcDbLine
 10
511.1678384856368
 20
1052.254917874772
 30
0.0
 11
526.1678384856367
 21
1052.254917874772
 31
0.0
  0
LINE
  5
5C74
330
5927
100
AcDbEntity
  8
実形
 62
     0
370
    18
100
AcDbLine
 10
526.1678384856367
 20
1052.254917874772
 30
0.0
 11
591.9178384856368
 21
1052.254917874772
 31
0.0
  0
INSERT
  5
5C75
330
5927
100
AcDbEntity
  8
実形
 62
     0
370
    18
100
AcDbBlockReference
  2
_DotSmall
 10
511.1678384856368
 20
1052.254917874772
 30
0.0
 41
35.0
 42
35.0
 43
35.0
 50
180.0
  0
INSERT
  5
5C76
330
5927
100
AcDbEntity
  8
実形
 62
     0
370
    18
100
AcDbBlockReference
  2
_DotSmall
 10
526.1678384856367
 20
1052.254917874772
 30
0.0
 41
35.0
 42
35.0
 43
35.0
  0
POINT
  5
5C77
330
5927
100
AcDbEntity
  8
Defpoints
 62
     0
100
AcDbPoint
 10
511.1678384856368
 20
1200.187035644826
 30
0.0
  0
POINT
  5
5C78
330
5927
100
AcDbEntity
  8
Defpoints
 62
     0
100
AcDbPoint
 10
526.1678384856367
 20
1200.187035644826
 30
0.0
  0
POINT
  5
5C79
330
5927
100
AcDbEntity
  8
Defpoints
 62
     0
100
AcDbPoint
 10
526.1678384856367
 20
1052.254917874772
 30
0.0
  0
ENDBLK
  5
5932
330
5927
100
AcDbEntity
  8
0
100
AcDbBlockEnd
  0
BLOCK
  5
593D
330
5933
100
AcDbEntity
  8
0
100
AcDbBlockBegin
  2
*D53
 70
     1
 10
0.0
 20
0.0
 30
0.0
  3
*D53
  1

  0
LINE
  5
5C68
330
5933
100
AcDbEntity
  8
実形
 62
     0
370
    15
100
AcDbLine
 10
526.1678384856367
 20
1135.187035644826
 30
0.0
 11
526.1678384856367
 21
1052.254917874772
 31
0.0
  0
LINE
  5
5C69
330
5933
100
AcDbEntity
  8
実形
 62
     0
370
    15
100
AcDbLine
 10
1326.167838485637
 20
1135.187035644826
 30
0.0
 11
1326.167838485637
 21
1052.254917874772
 31
0.0
  0
LINE
  5
5C6A
330
5933
100
AcDbEntity
  8
実形
 62
     0
370
    18
100
AcDbLine
 10
526.1678384856367
 20
1052.254917874772
 30
0.0
 11
1326.167838485637
 21
1052.254917874772
 31
0.0
  0
INSERT
  5
5C6B
330
5933
100
AcDbEntity
  8
実形
 62
     0
370
    18
100
AcDbBlockReference
  2
_DotSmall
 10
526.1678384856367
 20
1052.254917874772
 30
0.0
 41
35.0
 42
35.0
 43
35.0
 50
180.0
  0
INSERT
  5
5C6C
330
5933
100
AcDbEntity
  8
実形
 62
     0
370
    18
100
AcDbBlockReference
  2
_DotSmall
 10
1326.167838485637
 20
1052.254917874772
 30
0.0
 41
35.0
 42
35.0
 43
35.0
  0
MTEXT
  5
5C6D
330
5933
100
AcDbEntity
  8
実形
 62
     0
100
AcDbMText
 10
926.1678384856368
 20
1071.004917874772
 30
0.0
 40
25.0
 41
0.0
 71
     5
 72
     1
  1
800
 73
     1
 44
1.0
1001
ACAD
1000
MTEXTBEGIN
1070
    73
1070
     1
1070
    44
1040
1.0
1070
    74
1070
     0
1000
MTEXTEND
  0
POINT
  5
5C6E
330
5933
100
AcDbEntity
  8
Defpoints
 62
     0
100
AcDbPoint
 10
526.1678384856367
 20
1200.187035644826
 30
0.0
  0
POINT
  5
5C6F
330
5933
100
AcDbEntity
  8
Defpoints
 62
     0
100
AcDbPoint
 10
1326.167838485637
 20
1200.187035644826
 30
0.0
  0
POINT
  5
5C70
330
5933
100
AcDbEntity
  8
Defpoints
 62
     0
100
AcDbPoint
 10
1326.167838485637
 20
1052.254917874772
 30
0.0
  0
ENDBLK
  5
593E
330
5933
100
AcDbEntity
  8
0
100
AcDbBlockEnd
  0
BLOCK
  5
5948
330
593F
100
AcDbEntity
  8
0
100
AcDbBlockBegin
  2
*D54
 70
     1
 10
0.0
 20
0.0
 30
0.0
  3
*D54
  1

  0
LINE
  5
5C60
330
593F
100
AcDbEntity
  8
実形
 62
     0
370
    15
100
AcDbLine
 10
1326.167838485637
 20
1135.187035644826
 30
0.0
 11
1326.167838485637
 21
1052.254917874772
 31
0.0
  0
LINE
  5
5C61
330
593F
100
AcDbEntity
  8
実形
 62
     0
370
    15
100
AcDbLine
 10
1341.167838485637
 20
1135.187035644826
 30
0.0
 11
1341.167838485637
 21
1052.254917874772
 31
0.0
  0
LINE
  5
5C62
330
593F
100
AcDbEntity
  8
実形
 62
     0
370
    18
100
AcDbLine
 10
1326.167838485637
 20
1052.254917874772
 30
0.0
 11
1341.167838485637
 21
1052.254917874772
 31
0.0
  0
INSERT
  5
5C63
330
593F
100
AcDbEntity
  8
実形
 62
     0
370
    18
100
AcDbBlockReference
  2
_DotSmall
 10
1326.167838485637
 20
1052.254917874772
 30
0.0
 41
35.0
 42
35.0
 43
35.0
 50
180.0
  0
INSERT
  5
5C64
330
593F
100
AcDbEntity
  8
実形
 62
     0
370
    18
100
AcDbBlockReference
  2
_DotSmall
 10
1341.167838485637
 20
1052.254917874772
 30
0.0
 41
35.0
 42
35.0
 43
35.0
  0
POINT
  5
5C65
330
593F
100
AcDbEntity
  8
Defpoints
 62
     0
100
AcDbPoint
 10
1326.167838485637
 20
1200.187035644826
 30
0.0
  0
POINT
  5
5C66
330
593F
100
AcDbEntity
  8
Defpoints
 62
     0
100
AcDbPoint
 10
1341.167838485637
 20
1200.187035644826
 30
0.0
  0
POINT
  5
5C67
330
593F
100
AcDbEntity
  8
Defpoints
 62
     0
100
AcDbPoint
 10
1341.167838485637
 20
1052.254917874772
 30
0.0
  0
ENDBLK
  5
5949
330
593F
100
AcDbEntity
  8
0
100
AcDbBlockEnd
  0
BLOCK
  5
5954
330
594A
100
AcDbEntity
  8
0
100
AcDbBlockBegin
  2
*D55
 70
     1
 10
0.0
 20
0.0
 30
0.0
  3
*D55
  1

  0
LINE
  5
5C57
330
594A
100
AcDbEntity
  8
実形
 62
     0
370
    15
100
AcDbLine
 10
511.1678384856368
 20
1135.187035644826
 30
0.0
 11
511.1678384856368
 21
998.2415905294928
 31
0.0
  0
LINE
  5
5C58
330
594A
100
AcDbEntity
  8
実形
 62
     0
370
    15
100
AcDbLine
 10
1341.167838485637
 20
1135.187035644826
 30
0.0
 11
1341.167838485637
 21
998.2415905294928
 31
0.0
  0
LINE
  5
5C59
330
594A
100
AcDbEntity
  8
実形
 62
     0
370
    18
100
AcDbLine
 10
511.1678384856368
 20
998.2415905294928
 30
0.0
 11
1341.167838485637
 21
998.2415905294928
 31
0.0
  0
INSERT
  5
5C5A
330
594A
100
AcDbEntity
  8
実形
 62
     0
370
    18
100
AcDbBlockReference
  2
_DotSmall
 10
511.1678384856368
 20
998.2415905294928
 30
0.0
 41
35.0
 42
35.0
 43
35.0
 50
180.0
  0
INSERT
  5
5C5B
330
594A
100
AcDbEntity
  8
実形
 62
     0
370
    18
100
AcDbBlockReference
  2
_DotSmall
 10
1341.167838485637
 20
998.2415905294928
 30
0.0
 41
35.0
 42
35.0
 43
35.0
  0
MTEXT
  5
5C5C
330
594A
100
AcDbEntity
  8
実形
 62
     0
100
AcDbMText
 10
926.1678384856368
 20
1016.991590529493
 30
0.0
 40
25.0
 41
0.0
 71
     5
 72
     1
  1
830
 73
     1
 44
1.0
1001
ACAD
1000
MTEXTBEGIN
1070
    73
1070
     1
1070
    44
1040
1.0
1070
    74
1070
     0
1000
MTEXTEND
  0
POINT
  5
5C5D
330
594A
100
AcDbEntity
  8
Defpoints
 62
     0
100
AcDbPoint
 10
511.1678384856368
 20
1200.187035644826
 30
0.0
  0
POINT
  5
5C5E
330
594A
100
AcDbEntity
  8
Defpoints
 62
     0
100
AcDbPoint
 10
1341.167838485637
 20
1200.187035644826
 30
0.0
  0
POINT
  5
5C5F
330
594A
100
AcDbEntity
  8
Defpoints
 62
     0
100
AcDbPoint
 10
1341.167838485637
 20
998.2415905294928
 30
0.0
  0
ENDBLK
  5
5955
330
594A
100
AcDbEntity
  8
0
100
AcDbBlockEnd
  0
ENDSEC
  0
SECTION
  2
ENTITIES
  0
LINE
  5
9C
330
1F
100
AcDbEntity
  8
実形
100
AcDbLine
 10
109.0
 20
4.0
 30
0.0
 11
2784.0
 21
4.0
 31
0.0
  0
LINE
  5
A0
330
1F
100
AcDbEntity
  8
実形
100
AcDbLine
 10
2784.0
 20
2024.0
 30
0.0
 11
109.0
 21
2024.0
 31
0.0
  0
LINE
  5
A5
330
1F
100
AcDbEntity
  8
実形
100
AcDbLine
 10
2784.0
 20
4.0
 30
0.0
 11
2784.0
 21
2024.0
 31
0.0
  0
CIRCLE
  5
2EB
330
1F
100
AcDbEntity
  8
実形
100
AcDbCircle
 10
926.1678384856368
 20
1490.187035644826
 30
0.0
 40
80.0
  0
CIRCLE
  5
2EE
330
1F
100
AcDbEntity
  8
実形
100
AcDbCircle
 10
926.1678384856368
 20
1490.187035644826
 30
0.0
 40
90.5
  0
LINE
  5
33A
330
1F
100
AcDbEntity
  8
実形
  6
ACAD_ISO08W100
 48
0.5
370
    15
100
AcDbLine
 10
794.1781556909
 20
1490.187035644826
 30
0.0
 11
1058.157521280373
 21
1490.187035644826
 31
0.0
  0
LINE
  5
33B
330
1F
100
AcDbEntity
  8
実形
  6
ACAD_ISO08W100
 48
0.5
370
    15
100
AcDbLine
 10
926.1678384856368
 20
1598.277647173261
 30
0.0
 11
926.1678384856368
 21
1382.096424116391
 31
0.0
  0
DIMENSION
  5
3CE
330
1F
100
AcDbEntity
  8
実形
100
AcDbDimension
  2
*D4
 10
335.3917238617514
 20
1655.187035644826
 30
0.0
 11
335.3917238617512
 21
1662.687035644826
 31
0.0
 70
    32
  1
 
 71
     5
 42
15.0
  3
ISO-25
100
AcDbAlignedDimension
 13
493.5670385856247
 23
1670.187035644826
 33
0.0
 14
493.5670385856247
 24
1655.187035644826
 34
0.0
 50
90.0
100
AcDbRotatedDimension
1001
ACAD
1000
DSTYLE
1002
{
1070
   371
1070
    18
1002
}
  0
DIMENSION
  5
3DC
330
1F
100
AcDbEntity
  8
実形
100
AcDbDimension
  2
*D5
 10
335.3917238617514
 20
1215.187035644826
 30
0.0
 11
316.6417238617512
 21
1435.187035644826
 31
0.0
 70
    32
 71
     5
 42
440.0
  3
ISO-25
100
AcDbAlignedDimension
 13
493.5670385856247
 23
1655.187035644826
 33
0.0
 14
493.5670385856247
 24
1215.187035644826
 34
0.0
 50
90.0
100
AcDbRotatedDimension
1001
ACAD
1000
DSTYLE
1002
{
1070
   371
1070
    18
1070
   279
1070
     1
1002
}
  0
DIMENSION
  5
3E9
330
1F
100
AcDbEntity
  8
実形
370
    -2
100
AcDbDimension
  2
*D6
 10
335.3917238617514
 20
1200.187035644826
 30
0.0
 11
329.8241866521239
 21
1223.443354612232
 31
0.0
 70
   160
 71
     5
 42
15.0
  3
ISO-25
100
AcDbAlignedDimension
 13
493.5670385856247
 23
1215.187035644826
 33
0.0
 14
493.5670385856247
 24
1200.187035644826
 34
0.0
 50
90.0
100
AcDbRotatedDimension
1001
ACAD
1000
DSTYLE
1002
{
1070
   371
1070
    18
1070
   279
1070
     1
1002
}
  0
DIMENSION
  5
3F6
330
1F
100
AcDbEntity
  8
実形
100
AcDbDimension
  2
*D7
 10
281.5518255370671
 20
1200.187035644826
 30
0.0
 11
262.8018255370669
 21
1435.187035644826
 31
0.0
 70
    32
 71
     5
 42
470.0
  3
ISO-25
100
AcDbAlignedDimension
 13
493.5670385856247
 23
1670.187035644826
 33
0.0
 14
493.5670385856247
 24
1200.187035644826
 34
0.0
 50
90.0
100
AcDbRotatedDimension
1001
ACAD
1000
DSTYLE
1002
{
1070
   371
1070
    18
1002
}
  0
TEXT
  5
43C
330
1F
100
AcDbEntity
  8
実形
370
    -2
100
AcDbText
 10
326.2518389406887
 20
1629.179724014498
 30
0.0
 40
25.0
  1
15
 50
90.0
100
AcDbText
  0
LEADER
  5
7CF
330
1F
100
AcDbEntity
  8
実形
100
AcDbLeader
  3
ISO-25
 40
25.0
 41
16.66666666666666
 76
     2
 10
944.4497288204356
 20
1236.354509589749
 30
0.0
 10
983.6721380150802
 20
1271.191335808468
 30
0.0
213
0.0
223
-12.5
233
0.0
1001
ACAD
1000
DSTYLE
1002
{
1070
    41
1040
25.0
1070
   147
1040
6.25
1070
    77
1070
     0
1070
    73
1070
     1
1070
    74
1070
     1
1070
   279
1070
     1
1070
   342
1005
DA
1002
}
  0
TEXT
  5
8C9
330
1F
100
AcDbEntity
  8
0
100
AcDbText
 10
249.2632881086038
 20
83.52862940911927
 30
0.0
 40
30.0
  1
※実寸には製造上の誤差が多少生ずる場合があります。シンクの穴あけ加工は現物合わせにてお願いします。
100
AcDbText
  0
TEXT
  5
1014
330
1F
100
AcDbEntity
  8
補助
100
AcDbText
 10
2086.666666666667
 20
84.0
 30
0.0
 40
35.0
  1
尺度
 72
     4
 11
2124.0
 21
101.5
 31
0.0
100
AcDbText
  0
TEXT
  5
1015
330
1F
100
AcDbEntity
  8
補助
100
AcDbText
 10
2086.666666666667
 20
149.0
 30
0.0
 40
35.0
  1
品番
 72
     4
 11
2124.0
 21
166.5
 31
0.0
100
AcDbText
  0
LINE
  5
1016
330
1F
100
AcDbEntity
  8
補助
100
AcDbLine
 10
2064.0
 20
69.0
 30
0.0
 11
2784.0
 21
69.0
 31
0.0
  0
LINE
  5
1017
330
1F
100
AcDbEntity
  8
補助
100
AcDbLine
 10
2064.0
 20
199.0
 30
0.0
 11
2784.0
 21
199.0
 31
0.0
  0
LINE
  5
1018
330
1F
100
AcDbEntity
  8
補助
100
AcDbLine
 10
2064.0
 20
134.0
 30
0.0
 11
2784.0
 21
134.0
 31
0.0
  0
LINE
  5
1019
330
1F
100
AcDbEntity
  8
補助
100
AcDbLine
 10
2064.0
 20
4.0
 30
0.0
 11
2064.0
 21
199.0
 31
0.0
  0
TEXT
  5
101A
330
1F
100
AcDbEntity
  8
補助
100
AcDbText
 10
2300.255774665348
 20
16.49999999999999
 30
0.0
 40
40.0
  1
中外交易株式会社
 72
     4
 11
2488.255774665347
 21
36.5
 31
0.0
100
AcDbText
  0
LINE
  5
101B
330
1F
100
AcDbEntity
  8
補助
100
AcDbLine
 10
2184.0
 20
69.0
 30
0.0
 11
2784.0
 21
69.0
 31
0.0
  0
LINE
  5
101D
102
{ACAD_REACTORS
330
102A
102
}
330
1F
100
AcDbEntity
  8
補助
370
     5
100
AcDbLine
 10
2207.843923164362
 20
40.53787547858519
 30
0.0
 11
2183.255774665347
 21
40.53787547858519
 31
0.0
  0
LINE
  5
101E
102
{ACAD_REACTORS
330
102A
102
}
330
1F
100
AcDbEntity
  8
補助
370
     5
100
AcDbLine
 10
2183.255774665347
 20
40.53787547858519
 30
0.0
 11
2183.255774665347
 21
30.53787547858519
 31
0.0
  0
LINE
  5
101F
102
{ACAD_REACTORS
330
102A
102
}
330
1F
100
AcDbEntity
  8
補助
370
     5
100
AcDbLine
 10
2183.255774665347
 20
30.53787547858519
 30
0.0
 11
2207.346428692676
 21
30.53787547858514
 31
0.0
  0
LINE
  5
1020
102
{ACAD_REACTORS
330
102A
102
}
330
1F
100
AcDbEntity
  8
補助
370
     5
100
AcDbLine
 10
2210.641894042939
 20
56.5
 30
0.0
 11
2210.641894042939
 21
16.5
 31
0.0
  0
LINE
  5
1021
102
{ACAD_REACTORS
330
102A
102
}
330
1F
100
AcDbEntity
  8
補助
370
     5
100
AcDbLine
 10
2210.641894042939
 20
16.5
 30
0.0
 11
2245.64189404294
 21
16.5
 31
0.0
  0
LINE
  5
1022
102
{ACAD_REACTORS
330
102A
102
}
330
1F
100
AcDbEntity
  8
補助
370
     5
100
AcDbLine
 10
2245.64189404294
 20
16.5
 30
0.0
 11
2210.641894042939
 21
36.5
 31
0.0
  0
LINE
  5
1023
102
{ACAD_REACTORS
330
102A
102
}
330
1F
100
AcDbEntity
  8
補助
370
     5
100
AcDbLine
 10
2210.641894042939
 20
36.5
 30
0.0
 11
2245.64189404294
 21
56.5
 31
0.0
  0
LINE
  5
1024
102
{ACAD_REACTORS
330
102A
102
}
330
1F
100
AcDbEntity
  8
補助
370
     5
100
AcDbLine
 10
2245.64189404294
 20
56.5
 30
0.0
 11
2210.641894042939
 21
56.5
 31
0.0
  0
LINE
  5
1025
102
{ACAD_REACTORS
330
102A
102
}
330
1F
100
AcDbEntity
  8
補助
370
     5
100
AcDbLine
 10
2276.75434681301
 20
40.53787547858519
 30
0.0
 11
2252.166198313995
 21
40.53787547858519
 31
0.0
  0
LINE
  5
1026
102
{ACAD_REACTORS
330
102A
102
}
330
1F
100
AcDbEntity
  8
補助
370
     5
100
AcDbLine
 10
2252.166198313995
 20
40.53787547858519
 30
0.0
 11
2252.166198313995
 21
30.53787547858519
 31
0.0
  0
LINE
  5
1027
102
{ACAD_REACTORS
330
102A
102
}
330
1F
100
AcDbEntity
  8
補助
370
     5
100
AcDbLine
 10
2252.166198313995
 20
30.53787547858519
 30
0.0
 11
2276.256852341323
 21
30.53787547858514
 31
0.0
  0
ARC
  5
1028
102
{ACAD_REACTORS
330
102A
102
}
330
1F
100
AcDbEntity
  8
補助
370
     5
100
AcDbCircle
 10
2188.255774665348
 20
36.5
 30
0.0
 40
20.0
100
AcDbArc
 50
11.6477236670746
 51
342.6561058784882
  0
ARC
  5
1029
102
{ACAD_REACTORS
330
102A
102
}
330
1F
100
AcDbEntity
  8
補助
370
     5
100
AcDbCircle
 10
2257.166198313996
 20
36.5
 30
0.0
 40
20.0
100
AcDbArc
 50
11.6477236670746
 51
342.6561058784882
  0
HATCH
  5
102A
330
1F
100
AcDbEntity
  8
補助
100
AcDbHatch
 10
0.0
 20
0.0
 30
0.0
210
0.0
220
0.0
230
1.0
  2
SOLID
 70
     1
 71
     1
 91
        3
 92
        1
 93
        4
 72
     2
 10
2257.166198313996
 20
36.5
 40
20.0
 50
11.6477236670746
 51
342.6561058784882
 73
     1
 72
     1
 10
2276.256852341323
 20
30.53787547858514
 11
2252.166198313995
 21
30.53787547858519
 72
     1
 10
2252.166198313995
 20
30.53787547858519
 11
2252.166198313995
 21
40.53787547858519
 72
     1
 10
2252.166198313995
 20
40.53787547858519
 11
2276.75434681301
 21
40.53787547858519
 97
        4
330
1029
330
1027
330
1026
330
1025
 92
        1
 93
        4
 72
     2
 10
2188.255774665348
 20
36.5
 40
20.0
 50
11.6477236670746
 51
342.6561058784882
 73
     1
 72
     1
 10
2207.346428692676
 20
30.53787547858514
 11
2183.255774665347
 21
30.53787547858519
 72
     1
 10
2183.255774665347
 20
30.53787547858519
 11
2183.255774665347
 21
40.53787547858519
 72
     1
 10
2183.255774665347
 20
40.53787547858519
 11
2207.843923164362
 21
40.53787547858519
 97
        4
330
1028
330
101F
330
101E
330
101D
 92
        1
 93
        5
 72
     1
 10
2245.64189404294
 20
56.5
 11
2210.641894042939
 21
56.5
 72
     1
 10
2210.641894042939
 20
56.5
 11
2210.641894042939
 21
16.5
 72
     1
 10
2210.641894042939
 20
16.5
 11
2245.64189404294
 21
16.5
 72
     1
 10
2245.64189404294
 20
16.5
 11
2210.641894042939
 21
36.5
 72
     1
 10
2210.641894042939
 20
36.5
 11
2245.64189404294
 21
56.5
 97
        5
330
1024
330
1020
330
1021
330
1022
330
1023
 75
     0
 76
     1
 98
        1
 10
-60.0
 20
0.0
  0
LINE
  5
102B
330
1F
100
AcDbEntity
  8
補助
100
AcDbLine
 10
2184.0
 20
69.0
 30
0.0
 11
2184.0
 21
199.0
 31
0.0
  0
TEXT
  5
102C
330
1F
100
AcDbEntity
  8
実形
100
AcDbText
 10
2430.916666666667
 20
84.0
 30
0.0
 40
35.0
  1
1：10
 72
     4
 11
2484.0
 21
101.5
 31
0.0
100
AcDbText
  0
LINE
  5
102D
330
1F
100
AcDbEntity
  8
補助
100
AcDbLine
 10
2784.0
 20
69.0
 30
0.0
 11
2784.0
 21
134.0
 31
0.0
  0
LINE
  5
102E
330
1F
100
AcDbEntity
  8
補助
100
AcDbLine
 10
2784.0
 20
134.0
 30
0.0
 11
2784.0
 21
199.0
 31
0.0
  0
LINE
  5
102F
330
1F
100
AcDbEntity
  8
補助
100
AcDbLine
 10
2784.0
 20
4.0
 30
0.0
 11
2784.0
 21
69.0
 31
0.0
  0
DIMENSION
  5
104A
330
1F
100
AcDbEntity
  8
実形
100
AcDbDimension
  2
*D8
 10
388.2578827671114
 20
1640.187035644826
 30
0.0
 11
364.3569021842432
 21
1633.939094675534
 31
0.0
 70
   160
 71
     5
 42
15.0
  3
ISO-25
100
AcDbAlignedDimension
 13
493.5670385856247
 23
1655.187035644826
 33
0.0
 14
493.5670385856247
 24
1640.187035644826
 34
0.0
 50
90.0
100
AcDbRotatedDimension
1001
ACAD
1000
DSTYLE
1002
{
1070
   279
1070
     2
1070
   371
1070
    18
1070
   372
1070
    18
1002
}
  0
DIMENSION
  5
1058
330
1F
100
AcDbEntity
  8
実形
100
AcDbDimension
  2
*D9
 10
388.2578827671114
 20
1230.187035644826
 30
0.0
 11
369.5078827671112
 21
1435.187035644826
 31
0.0
 70
    32
 71
     5
 42
410.0
  3
ISO-25
100
AcDbAlignedDimension
 13
493.5670385856247
 23
1640.187035644826
 33
0.0
 14
493.5670385856247
 24
1230.187035644826
 34
0.0
 50
90.0
100
AcDbRotatedDimension
1001
ACAD
1000
DSTYLE
1002
{
1070
   279
1070
     1
1070
   371
1070
    18
1070
   372
1070
    18
1002
}
  0
DIMENSION
  5
1065
330
1F
100
AcDbEntity
  8
実形
100
AcDbDimension
  2
*D10
 10
388.2578827671112
 20
1215.187035644826
 30
0.0
 11
385.7909974478189
 21
1238.911309260595
 31
0.0
 70
   160
 71
     5
 42
15.0
  3
ISO-25
100
AcDbAlignedDimension
 13
493.5670385856247
 23
1230.187035644826
 33
0.0
 14
493.5670385856247
 24
1215.187035644826
 34
0.0
 50
90.0
100
AcDbRotatedDimension
1001
ACAD
1000
DSTYLE
1002
{
1070
   279
1070
     1
1070
   371
1070
    18
1070
   372
1070
    18
1002
}
  0
LINE
  5
1A14
330
1F
100
AcDbEntity
  8
実形
100
AcDbLine
 10
109.0
 20
2024.0
 30
0.0
 11
109.0
 21
4.0
 31
0.0
  0
TEXT
  5
1AFB
330
1F
100
AcDbEntity
  8
実形
100
AcDbText
 10
2253.6
 20
149.6644391117014
 30
0.0
 40
35.0
  1
Jstn         S-DAN
  7
MS明朝
 72
     4
 11
2484.0
 21
164.3644391117013
 31
0.0
100
AcDbText
  0
TEXT
  5
1AFC
330
1F
100
AcDbEntity
  8
実形
100
AcDbText
 10
2394.751154452292
 20
148.7628606443344
 30
0.0
 40
35.0
  1
868-508
  7
MS明朝
 72
     4
 11
2484.351154452292
 21
165.8628606443344
 31
0.0
100
AcDbText
  0
LEADER
  5
1B15
330
1F
100
AcDbEntity
  8
実形
100
AcDbLeader
  3
ISO-25
 40
25.0
 41
16.66666666666666
 76
     2
 10
498.8255501861483
 20
1665.684191015799
 30
0.0
 10
457.2041907681621
 20
1720.530945423294
 30
0.0
213
0.0
223
12.5
233
0.0
1001
ACAD
1000
DSTYLE
1002
{
1070
   147
1040
6.25
1070
    77
1070
     0
1070
    41
1040
20.0
1070
   342
1005
DA
1002
}
  0
TEXT
  5
1B16
330
1F
100
AcDbEntity
  8
実形
100
AcDbText
 10
396.2811298965454
 20
1731.878539950506
 30
0.0
 40
25.0
  1
94R
 72
     2
 11
462.947796563212
 21
1756.878539950506
 31
0.0
100
AcDbText
 73
     3
  0
TEXT
  5
1B17
330
1F
100
AcDbEntity
  8
実形
100
AcDbText
 10
632.7849556337541
 20
1592.064299927684
 30
0.0
 40
25.0
  1
4角×
  7
MS明朝
 72
     2
 11
724.2135270623256
 21
1617.064299927684
 31
0.0
100
AcDbText
 73
     3
  0
LEADER
  5
1B18
330
1F
100
AcDbEntity
  8
実形
100
AcDbLeader
  3
ISO-25
 40
25.0
 41
16.66666666666666
 76
     2
 10
549.0053465029177
 20
1633.959965321996
 30
0.0
 10
615.357888426648
 20
1604.364304849135
 30
0.0
213
0.0
223
12.5
233
0.0
1001
ACAD
1000
DSTYLE
1002
{
1070
   147
1040
6.25
1070
    77
1070
     0
1070
    41
1040
20.0
1070
   342
1005
DA
1002
}
  0
LEADER
  5
1B19
330
1F
100
AcDbEntity
  8
実形
100
AcDbLeader
  3
ISO-25
 40
25.0
 41
16.66666666666666
 76
     2
 10
498.2397249361092
 20
1201.437850934016
 30
0.0
 10
441.4705793574903
 20
1143.088506817867
 30
0.0
213
0.0
223
12.5
233
0.0
1001
ACAD
1000
DSTYLE
1002
{
1070
   147
1040
6.25
1070
    77
1070
     0
1070
    41
1040
20.0
1070
   342
1005
DA
1002
}
  0
TEXT
  5
1B1A
330
1F
100
AcDbEntity
  8
実形
100
AcDbText
 10
402.8488950355316
 20
1105.07737196042
 30
0.0
 40
25.0
  1
94R
 72
     2
 11
469.5155617021982
 21
1130.07737196042
 31
0.0
100
AcDbText
 73
     3
  0
LEADER
  5
1B1B
330
1F
100
AcDbEntity
  8
実形
100
AcDbLeader
  3
ISO-25
 40
25.0
 41
16.66666666666666
 76
     2
 10
1344.793350474136
 20
1661.039330933333
 30
0.0
 10
1409.096422704131
 20
1711.788479031987
 30
0.0
213
0.0
223
12.5
233
0.0
1001
ACAD
1000
DSTYLE
1002
{
1070
   147
1040
6.25
1070
    77
1070
     0
1070
    41
1040
20.0
1070
   342
1005
DA
1002
}
  0
TEXT
  5
1B1C
330
1F
100
AcDbEntity
  8
実形
100
AcDbText
 10
1378.505515448034
 20
1718.824757317779
 30
0.0
 40
25.0
  1
94R
 72
     2
 11
1445.172182114701
 21
1743.824757317779
 31
0.0
100
AcDbText
 73
     3
  0
LEADER
  5
1B1D
330
1F
100
AcDbEntity
  8
実形
100
AcDbLeader
  3
ISO-25
 40
25.0
 41
16.66666666666666
 76
     2
 10
1345.408195993128
 20
1199.214827388993
 30
0.0
 10
1404.957228740648
 20
1154.286715488363
 30
0.0
213
0.0
223
12.5
233
0.0
1001
ACAD
1000
DSTYLE
1002
{
1070
   147
1040
6.25
1070
    77
1070
     0
1070
    41
1040
20.0
1070
   342
1005
DA
1002
}
  0
TEXT
  5
1B1E
330
1F
100
AcDbEntity
  8
実形
100
AcDbText
 10
1383.059629601099
 20
1124.423226203747
 30
0.0
 40
25.0
  1
94R
 72
     2
 11
1449.726296267766
 21
1149.423226203746
 31
0.0
100
AcDbText
 73
     3
  0
TEXT
  5
1B26
330
1F
100
AcDbEntity
  8
実形
100
AcDbText
 10
725.539548491477
 20
1592.358360125158
 30
0.0
 40
25.0
  1
59R
 72
     2
 11
792.2062151581436
 21
1617.358360125158
 31
0.0
100
AcDbText
 73
     3
  0
DIMENSION
  5
1B57
330
1F
100
AcDbEntity
  8
実形
100
AcDbDimension
  2
*D11
 10
1439.859578778836
 20
1655.187035644826
 30
0.0
 11
1417.636558712496
 21
1623.291280890229
 31
0.0
 70
   160
  1
35
 71
     5
 42
34.00000000000023
  3
ISO-25
100
AcDbAlignedDimension
 13
1336.698586980797
 23
1689.187035644826
 33
0.0
 14
1336.698586980797
 24
1655.187035644826
 34
0.0
 50
90.0
100
AcDbRotatedDimension
1001
ACAD
1000
DSTYLE
1002
{
1070
   279
1070
     2
1070
   371
1070
    18
1070
   372
1070
    18
1002
}
  0
DIMENSION
  5
1B58
330
1F
100
AcDbEntity
  8
実形
100
AcDbDimension
  2
*D12
 10
1439.859578778836
 20
1181.187035644826
 30
0.0
 11
1422.33597954168
 21
1256.875269712179
 31
0.0
 70
   160
  1
35
 71
     5
 42
34.00000000000023
  3
ISO-25
100
AcDbAlignedDimension
 13
1336.698586980797
 23
1215.187035644826
 33
0.0
 14
1336.698586980797
 24
1181.187035644826
 34
0.0
 50
90.0
100
AcDbRotatedDimension
1001
ACAD
1000
DSTYLE
1002
{
1070
   279
1070
     2
1070
   371
1070
    18
1070
   372
1070
    18
1002
}
  0
DIMENSION
  5
1B59
330
1F
100
AcDbEntity
  8
実形
100
AcDbDimension
  2
*D13
 10
1488.256529622351
 20
1181.187035644826
 30
0.0
 11
1469.506529622351
 21
1435.187035644826
 31
0.0
 70
    32
 71
     5
 42
508.0
  3
ISO-25
100
AcDbAlignedDimension
 13
1373.791169514075
 23
1689.187035644826
 33
0.0
 14
1373.791169514075
 24
1181.187035644826
 34
0.0
 50
90.0
100
AcDbRotatedDimension
1001
ACAD
1000
DSTYLE
1002
{
1070
   279
1070
     2
1070
   371
1070
    18
1070
   372
1070
    18
1002
}
  0
DIMENSION
  5
1BE4
330
1F
100
AcDbEntity
  8
実形
100
AcDbDimension
  2
*D14
 10
526.0058833179209
 20
1768.850277586584
 30
0.0
 11
529.0037121015538
 21
1803.850277586584
 31
0.0
 70
   160
  1
35
 71
     5
 42
33.9998290840594
  3
ISO-25
100
AcDbAlignedDimension
 13
492.0060542338616
 23
1674.773717093029
 33
0.0
 14
526.0058833179209
 24
1674.773717093029
 34
0.0
100
AcDbRotatedDimension
1001
ACAD
1000
DSTYLE
1002
{
1070
   279
1070
     2
1070
   371
1070
    18
1070
   372
1070
    18
1002
}
  0
DIMENSION
  5
1C03
330
1F
100
AcDbEntity
  8
実形
100
AcDbDimension
  2
*D15
 10
1326.329793653327
 20
1768.850277586584
 30
0.0
 11
1325.225402855451
 21
1803.850277586584
 31
0.0
 70
   160
  1
35
 71
     5
 42
33.99982908405946
  3
ISO-25
100
AcDbAlignedDimension
 13
1360.329622737387
 23
1674.773717093028
 33
0.0
 14
1326.329793653327
 24
1674.773717093028
 34
0.0
100
AcDbRotatedDimension
1001
ACAD
1000
DSTYLE
1002
{
1070
   279
1070
     2
1070
   371
1070
    18
1070
   372
1070
    18
1002
}
  0
DIMENSION
  5
1C23
330
1F
100
AcDbEntity
  8
実形
100
AcDbDimension
  2
*D16
 10
1360.329622737387
 20
1833.458046852117
 30
0.0
 11
926.167838485624
 21
1852.208046852117
 31
0.0
 70
    32
  1
868
 71
     5
 42
868.3235685035251
  3
ISO-25
100
AcDbAlignedDimension
 13
492.0060542338616
 23
1674.773717093028
 33
0.0
 14
1360.329622737387
 24
1674.773717093028
 34
0.0
100
AcDbRotatedDimension
1001
ACAD
1000
DSTYLE
1002
{
1070
   279
1070
     2
1070
   371
1070
    18
1070
   372
1070
    18
1002
}
  0
LINE
  5
1C9D
330
1F
100
AcDbEntity
  8
実形
100
AcDbLine
 10
2784.0
 20
1959.0
 30
0.0
 11
2019.387286519283
 21
1959.000000000001
 31
0.0
  0
LINE
  5
1C9E
330
1F
100
AcDbEntity
  8
実形
100
AcDbLine
 10
2784.0
 20
1894.0
 30
0.0
 11
2019.387286519283
 21
1894.0
 31
0.0
  0
LINE
  5
1C9F
330
1F
100
AcDbEntity
  8
実形
100
AcDbLine
 10
2202.547653420927
 20
1829.0
 30
0.0
 11
2202.547653420927
 21
2024.0
 31
0.0
  0
LINE
  5
1CA0
330
1F
100
AcDbEntity
  8
実形
100
AcDbLine
 10
2019.387286519283
 20
1829.0
 30
0.0
 11
2019.387286519283
 21
2024.0
 31
0.0
  0
TEXT
  5
1CA1
330
1F
100
AcDbEntity
  8
実形
100
AcDbText
 10
2050.295698850121
 20
1976.328571428572
 30
0.0
 40
30.0
  1
部品名
  7
明朝
 72
     4
 11
2116.124270278692
 21
1991.5
 31
0.0
100
AcDbText
  0
TEXT
  5
1CA2
330
1F
100
AcDbEntity
  8
実形
100
AcDbText
 10
2627.614285714286
 20
1976.071428571429
 30
0.0
 40
30.0
  1
厚さ
  7
明朝
 72
     4
 11
2671.5
 21
1991.5
 31
0.0
100
AcDbText
  0
LINE
  5
1CA3
330
1F
100
AcDbEntity
  8
実形
100
AcDbLine
 10
2559.0
 20
1829.0
 30
0.0
 11
2559.0
 21
2024.0
 31
0.0
  0
TEXT
  5
1CA4
330
1F
100
AcDbEntity
  8
実形
100
AcDbText
 10
2338.490869919937
 20
1975.947979478155
 30
0.0
 40
30.0
  1
材質
  7
明朝
 72
     4
 11
2382.376584205651
 21
1991.119408049583
 31
0.0
100
AcDbText
  0
TEXT
  5
1CA5
330
1F
100
AcDbEntity
  8
実形
100
AcDbText
 10
2048.227810657788
 20
1910.557142857143
 30
0.0
 40
30.0
  1
ボウル
  7
明朝
 72
     4
 11
2114.056382086359
 21
1926.5
 31
0.0
100
AcDbText
  0
TEXT
  5
1CA6
330
1F
100
AcDbEntity
  8
実形
100
AcDbText
 10
2594.700000000001
 20
1911.842857142857
 30
0.0
 40
30.0
  1
0.8ｍｍ
  7
明朝
 72
     4
 11
2671.500000000001
 21
1926.5
 31
0.0
100
AcDbText
  0
TEXT
  5
1CA7
330
1F
100
AcDbEntity
  8
実形
100
AcDbText
 10
2239.074011965008
 20
1910.728571428572
 30
0.0
 40
30.0
  1
SUS304（No.4）
  7
明朝
 72
     4
 11
2392.674011965008
 21
1926.5
 31
0.0
100
AcDbText
  0
LINE
  5
1CA8
330
1F
100
AcDbEntity
  8
実形
100
AcDbLine
 10
2784.0
 20
1829.0
 30
0.0
 11
2019.387286519283
 21
1829.0
 31
0.0
  0
TEXT
  5
1CB1
330
1F
100
AcDbEntity
  8
実形
100
AcDbText
 10
2070.170667800645
 20
1846.242857142857
 30
0.0
 40
30.0
  1
天板
  7
明朝
 72
     4
 11
2114.056382086359
 21
1861.5
 31
0.0
100
AcDbText
  0
TEXT
  5
1CBA
330
1F
100
AcDbEntity
  8
実形
100
AcDbText
 10
2219.734774251222
 20
1848.285714285714
 30
0.0
 40
25.0
  1
アクリル人工大理石
  7
明朝
 72
     4
 11
2384.306202822651
 21
1861.5
 31
0.0
100
AcDbText
  0
TEXT
  5
1CC4
330
1F
100
AcDbEntity
  8
実形
100
AcDbText
 10
2605.67142857143
 20
1846.842857142857
 30
0.0
 40
30.0
  1
18ｍｍ
  7
明朝
 72
     4
 11
2671.500000000001
 21
1861.5
 31
0.0
100
AcDbText
  0
LINE
  5
1DF8
330
1F
100
AcDbEntity
  8
実形
100
AcDbLine
 10
1823.865951868394
 20
1399.687035644826
 30
0.0
 11
1823.865951868394
 21
1580.687035644826
 31
0.0
  0
LINE
  5
1DF9
330
1F
100
AcDbEntity
  8
実形
100
AcDbLine
 10
1823.865951868394
 20
1580.687035644826
 30
0.0
 11
1833.865951868394
 21
1580.687035644826
 31
0.0
  0
LINE
  5
1DFA
330
1F
100
AcDbEntity
  8
実形
100
AcDbLine
 10
1833.865951868394
 20
1580.687035644826
 30
0.0
 11
1833.865951868394
 21
1399.687035644826
 31
0.0
  0
LINE
  5
1DFB
330
1F
100
AcDbEntity
  8
実形
100
AcDbLine
 10
1833.865951868394
 20
1399.687035644826
 30
0.0
 11
1823.865951868394
 21
1399.687035644826
 31
0.0
  0
TEXT
  5
1DFD
330
1F
100
AcDbEntity
  8
実形
370
    -2
100
AcDbText
 10
1696.13638229994
 20
1282.184863658695
 30
0.0
 40
25.0
  1
30R
100
AcDbText
  0
DIMENSION
  5
1DFE
330
1F
100
AcDbEntity
  8
実形
100
AcDbDimension
  2
*D17
 10
1949.172095960314
 20
1410.187035644826
 30
0.0
 11
1930.422095960314
 21
1490.187035644826
 31
0.0
 70
    32
  1
158
 71
     5
 42
160.0
  3
ISO-25
100
AcDbAlignedDimension
 13
1838.865951868394
 23
1570.187035644826
 33
0.0
 14
1838.865951868394
 24
1410.187035644826
 34
0.0
 50
90.0
100
AcDbRotatedDimension
1001
ACAD
1000
DSTYLE
1002
{
1070
   371
1070
    18
1002
}
  0
DIMENSION
  5
1DFF
330
1F
100
AcDbEntity
  8
実形
100
AcDbDimension
  2
*D18
 10
1998.818366717295
 20
1399.687035644826
 30
0.0
 11
1980.068366717295
 21
1490.187035644826
 31
0.0
 70
    32
 71
     5
 42
181.0
  3
ISO-25
100
AcDbAlignedDimension
 13
1838.865951868394
 23
1580.687035644826
 33
0.0
 14
1838.865951868394
 24
1399.687035644826
 34
0.0
 50
90.0
100
AcDbRotatedDimension
1001
ACAD
1000
DSTYLE
1002
{
1070
   371
1070
    18
1002
}
  0
LEADER
  5
1E00
330
1F
100
AcDbEntity
  8
実形
100
AcDbLeader
  3
ISO-25
 40
25.0
 41
16.66666666666666
 76
     2
 10
1810.94894568349
 20
1241.399919473503
 30
0.0
 10
1773.905567006764
 20
1278.414043211655
 30
0.0
213
0.0
223
-12.5
233
0.0
1001
ACAD
1000
DSTYLE
1002
{
1070
    41
1040
25.0
1070
   147
1040
6.25
1070
    77
1070
     0
1070
    73
1070
     1
1070
    74
1070
     1
1070
   279
1070
     1
1070
   342
1005
DA
1002
}
  0
LINE
  5
1E01
330
1F
100
AcDbEntity
  8
実形
100
AcDbLine
 10
1643.665951868394
 20
1655.187035644826
 30
0.0
 11
1645.865951868395
 21
1655.187035644826
 31
0.0
  0
LINE
  5
1E02
330
1F
100
AcDbEntity
  8
実形
100
AcDbLine
 10
1648.865951868394
 20
1652.187035644826
 30
0.0
 11
1648.865951868394
 21
1645.187035644826
 31
0.0
  0
LINE
  5
1E03
330
1F
100
AcDbEntity
  8
実形
100
AcDbLine
 10
1653.865951868394
 20
1640.187035644826
 30
0.0
 11
1793.865951868394
 21
1640.187035644826
 31
0.0
  0
LINE
  5
1E04
330
1F
100
AcDbEntity
  8
実形
100
AcDbLine
 10
1793.865951868394
 20
1230.187035644826
 30
0.0
 11
1653.865951868394
 21
1230.187035644826
 31
0.0
  0
LINE
  5
1E05
330
1F
100
AcDbEntity
  8
実形
100
AcDbLine
 10
1648.865951868394
 20
1225.187035644826
 30
0.0
 11
1648.865951868394
 21
1218.187035644826
 31
0.0
  0
LINE
  5
1E06
330
1F
100
AcDbEntity
  8
実形
100
AcDbLine
 10
1645.865951868395
 20
1215.187035644826
 30
0.0
 11
1643.665951868395
 21
1215.187035644826
 31
0.0
  0
ARC
  5
1E07
330
1F
100
AcDbEntity
  8
実形
100
AcDbCircle
 10
1645.865951868395
 20
1652.187035644826
 30
0.0
 40
3.0
100
AcDbArc
 50
0.0
 51
90.0
  0
ARC
  5
1E08
330
1F
100
AcDbEntity
  8
実形
100
AcDbCircle
 10
1645.865951868395
 20
1218.187035644826
 30
0.0
 40
3.0
100
AcDbArc
 50
270.0
 51
0.0
  0
ARC
  5
1E09
330
1F
100
AcDbEntity
  8
実形
100
AcDbCircle
 10
1653.865951868394
 20
1645.187035644826
 30
0.0
 40
5.0
100
AcDbArc
 50
180.0
 51
270.0
  0
ARC
  5
1E0A
330
1F
100
AcDbEntity
  8
実形
100
AcDbCircle
 10
1653.865951868394
 20
1225.187035644826
 30
0.0
 40
5.0
100
AcDbArc
 50
90.0
 51
180.0
  0
LEADER
  5
1E0C
330
1F
100
AcDbEntity
  8
実形
100
AcDbLeader
  3
ISO-25
 40
25.0
 41
16.66666666666666
 76
     2
 10
1644.349265527974
 20
1650.962806017696
 30
0.0
 10
1607.274044248842
 20
1615.61058664741
 30
0.0
210
0.0
220
0.0
230
-1.0
213
0.0
223
12.5
233
0.0
1001
ACAD
1000
DSTYLE
1002
{
1070
    41
1040
25.0
1070
   147
1040
6.25
1070
    77
1070
     0
1070
    73
1070
     1
1070
    74
1070
     1
1070
   279
1070
     1
1070
   342
1005
DA
1002
}
  0
TEXT
  5
1E0D
330
1F
100
AcDbEntity
  8
実形
370
    -2
100
AcDbText
 10
1565.038512556376
 20
1584.080715328788
 30
0.0
 40
25.0
  1
3R
100
AcDbText
  0
LEADER
  5
1E0E
330
1F
100
AcDbEntity
  8
実形
100
AcDbLeader
  3
ISO-25
 40
25.0
 41
16.66666666666666
 76
     2
 10
1654.731895158126
 20
1646.002556433519
 30
0.0
 10
1693.979857120535
 20
1680.347746925804
 30
0.0
210
0.0
220
0.0
230
-1.0
213
0.0
223
12.5
233
0.0
1001
ACAD
1000
DSTYLE
1002
{
1070
    41
1040
25.0
1070
   147
1040
6.25
1070
    77
1070
     0
1070
    73
1070
     1
1070
    74
1070
     1
1070
   279
1070
     1
1070
   342
1005
DA
1002
}
  0
TEXT
  5
1E0F
330
1F
100
AcDbEntity
  8
実形
370
    -2
100
AcDbText
 10
1704.774541447536
 20
1668.35926548391
 30
0.0
 40
25.0
  1
5R
100
AcDbText
  0
LINE
  5
1E11
330
1F
100
AcDbEntity
  8
実形
100
AcDbLine
 10
1823.865951868394
 20
1580.687035644826
 30
0.0
 11
1823.865951868394
 21
1610.187035644826
 31
0.0
  0
LINE
  5
1E12
330
1F
100
AcDbEntity
  8
実形
100
AcDbLine
 10
1823.865951868394
 20
1399.687035644826
 30
0.0
 11
1823.865951868394
 21
1260.187035644826
 31
0.0
  0
ARC
  5
1E13
330
1F
100
AcDbEntity
  8
実形
100
AcDbCircle
 10
1793.865951868394
 20
1610.187035644826
 30
0.0
 40
30.0
100
AcDbArc
 50
0.0
 51
90.0
  0
ARC
  5
1E14
330
1F
100
AcDbEntity
  8
実形
100
AcDbCircle
 10
1793.865951868394
 20
1260.187035644826
 30
0.0
 40
30.0
100
AcDbArc
 50
270.0
 51
0.0
  0
LINE
  5
267B
330
1F
100
AcDbEntity
  8
実形
100
AcDbLine
 10
835.6678384856367
 20
597.8712037395681
 30
0.0
 11
1006.167838485636
 21
597.8712037395681
 31
0.0
  0
LINE
  5
267C
330
1F
100
AcDbEntity
  8
実形
100
AcDbLine
 10
1006.167838485636
 20
597.8712037395681
 30
0.0
 11
1016.667838485637
 21
597.8712037395681
 31
0.0
  0
LINE
  5
267D
330
1F
100
AcDbEntity
  8
実形
100
AcDbLine
 10
835.6678384856367
 20
597.8712037395681
 30
0.0
 11
835.6678384856367
 21
587.871203739568
 31
0.0
  0
LINE
  5
267E
330
1F
100
AcDbEntity
  8
実形
100
AcDbLine
 10
835.6678384856367
 20
587.871203739568
 30
0.0
 11
1016.667838485637
 21
587.871203739568
 31
0.0
  0
LINE
  5
267F
330
1F
100
AcDbEntity
  8
実形
100
AcDbLine
 10
1016.667838485637
 20
587.871203739568
 30
0.0
 11
1016.667838485637
 21
597.8712037395681
 31
0.0
  0
DIMENSION
  5
2682
330
1F
100
AcDbEntity
  8
実形
100
AcDbDimension
  2
*D19
 10
1006.167838485636
 20
471.4437964384951
 30
0.0
 11
926.1678384856368
 21
490.1937964384951
 31
0.0
 70
    32
  1
158
 71
     5
 42
160.0
  3
ISO-25
100
AcDbAlignedDimension
 13
846.1678384856368
 23
587.871203739568
 33
0.0
 14
1006.167838485636
 24
587.871203739568
 34
0.0
100
AcDbRotatedDimension
1001
ACAD
1000
DSTYLE
1002
{
1070
   371
1070
    18
1002
}
  0
DIMENSION
  5
2683
330
1F
100
AcDbEntity
  8
実形
100
AcDbDimension
  2
*D20
 10
1016.667838485637
 20
425.8733390679017
 30
0.0
 11
926.1678384856368
 21
444.6233390679017
 31
0.0
 70
    32
 71
     5
 42
181.0
  3
ISO-25
100
AcDbAlignedDimension
 13
835.6678384856367
 23
587.8712037395681
 33
0.0
 14
1016.667838485637
 24
587.871203739568
 34
0.0
100
AcDbRotatedDimension
1001
ACAD
1000
DSTYLE
1002
{
1070
   371
1070
    18
1002
}
  0
LINE
  5
2686
330
1F
100
AcDbEntity
  8
実形
100
AcDbLine
 10
526.1678384856367
 20
778.0712037395679
 30
0.0
 11
526.1678384856367
 21
633.2365084751928
 31
0.0
  0
LINE
  5
2688
330
1F
100
AcDbEntity
  8
実形
 48
0.4
100
AcDbLine
 10
1323.167838485637
 20
772.8712037395681
 30
0.0
 11
529.1678384856368
 21
772.8712037395681
 31
0.0
  0
ARC
  5
2691
330
1F
100
AcDbEntity
  8
実形
100
AcDbCircle
 10
529.1678384856368
 20
775.8712037395682
 30
0.0
 40
3.0
100
AcDbArc
 50
180.0
 51
270.0
  0
LINE
  5
270E
330
1F
100
AcDbEntity
  8
実形
100
AcDbLine
 10
497.9678384856367
 20
796.0712037395681
 30
0.0
 11
522.9678384856367
 21
796.0712037395681
 31
0.0
  0
ARC
  5
2710
330
1F
100
AcDbEntity
  8
実形
100
AcDbCircle
 10
497.9678384856367
 20
791.0712037395681
 30
0.0
 40
5.0
100
AcDbArc
 50
90.0
 51
180.0
  0
LINE
  5
2714
330
1F
100
AcDbEntity
  8
実形
100
AcDbLine
 10
514.9678384856367
 20
778.0712037395681
 30
0.0
 11
522.9678384856367
 21
778.0712037395681
 31
0.0
  0
LINE
  5
271A
330
1F
100
AcDbEntity
  8
実形
100
AcDbLine
 10
492.9678384856368
 20
791.0712037395681
 30
0.0
 11
492.9678384856368
 21
778.0712037395681
 31
0.0
  0
LINE
  5
271D
330
1F
100
AcDbEntity
  8
実形
100
AcDbLine
 10
433.0401706899522
 20
778.0712037395681
 30
0.0
 11
434.9678384856368
 21
778.0712037395681
 31
0.0
  0
LINE
  5
2721
330
1F
100
AcDbEntity
  8
実形
100
AcDbLine
 10
526.1678384856367
 20
778.0712037395681
 30
0.0
 11
526.1678384856367
 21
767.5464356759696
 31
0.0
  0
LINE
  5
3484
330
1F
100
AcDbEntity
  8
実形
100
AcDbLine
 10
1625.665951868394
 20
1684.187035644826
 30
0.0
 11
1625.665951868394
 21
1659.187035644826
 31
0.0
  0
ARC
  5
3486
330
1F
100
AcDbEntity
  8
実形
100
AcDbCircle
 10
1630.665951868395
 20
1684.187035644826
 30
0.0
 40
5.0
100
AcDbArc
 50
90.0
 51
180.0
  0
LINE
  5
348E
330
1F
100
AcDbEntity
  8
実形
100
AcDbLine
 10
1630.665951868395
 20
1689.187035644826
 30
0.0
 11
1643.665951868394
 21
1689.187035644826
 31
0.0
  0
LINE
  5
34E6
330
1F
100
AcDbEntity
  8
実形
100
AcDbLine
 10
1625.665951868394
 20
1186.187035644826
 30
0.0
 11
1625.665951868394
 21
1211.187035644825
 31
0.0
  0
ARC
  5
34E8
330
1F
100
AcDbEntity
  8
実形
100
AcDbCircle
 10
1630.665951868395
 20
1186.187035644826
 30
0.0
 40
5.0
100
AcDbArc
 50
180.0
 51
270.0
  0
LINE
  5
34EB
330
1F
100
AcDbEntity
  8
実形
100
AcDbLine
 10
1643.665951868394
 20
1181.187035644826
 30
0.0
 11
1643.665951868394
 21
1196.25936784914
 31
0.0
  0
LINE
  5
34F0
330
1F
100
AcDbEntity
  8
実形
100
AcDbLine
 10
1630.665951868395
 20
1181.187035644826
 30
0.0
 11
1643.665951868394
 21
1181.187035644826
 31
0.0
  0
LINE
  5
34F3
330
1F
100
AcDbEntity
  8
実形
100
AcDbLine
 10
1643.665951868394
 20
1196.25936784914
 30
0.0
 11
1643.665951868394
 21
1198.187035644826
 31
0.0
  0
LINE
  5
3509
330
1F
100
AcDbEntity
  8
実形
100
AcDbLine
 10
522.9678384856367
 20
796.0712037395681
 30
0.0
 11
1354.367838485637
 21
796.0712037395681
 31
0.0
  0
LINE
  5
350A
330
1F
100
AcDbEntity
  8
実形
100
AcDbLine
 10
1625.665951868394
 20
1659.187035644826
 30
0.0
 11
1625.665951868394
 21
1211.187035644825
 31
0.0
  0
LINE
  5
3655
330
1F
100
AcDbEntity
  8
実形
100
AcDbLine
 10
2415.50327858681
 20
693.4388787035102
 30
0.0
 11
2025.503278586809
 21
693.4388787035102
 31
0.0
  0
ARC
  5
3656
330
1F
100
AcDbEntity
  8
実形
100
AcDbCircle
 10
2025.503278586809
 20
615.4388787035102
 30
0.0
 40
78.0
100
AcDbArc
 50
90.0
 51
180.0
  0
ARC
  5
3657
330
1F
100
AcDbEntity
  8
実形
100
AcDbCircle
 10
2415.50327858681
 20
615.4388787035102
 30
0.0
 40
78.0
100
AcDbArc
 50
0.000000000000007
 51
90.0
  0
LINE
  5
3658
330
1F
100
AcDbEntity
  8
実形
100
AcDbLine
 10
2493.503278586809
 20
553.0388787035102
 30
0.0
 11
2228.303278586809
 21
553.0388787035102
 31
0.0
  0
LINE
  5
3659
330
1F
100
AcDbEntity
  8
実形
100
AcDbLine
 10
2150.303278586809
 20
553.0388787035102
 30
0.0
 11
2025.503278586809
 21
553.0388787035102
 31
0.0
  0
LINE
  5
365A
330
1F
100
AcDbEntity
  8
実形
100
AcDbLine
 10
2197.103278586809
 20
553.0388787035102
 30
0.0
 11
1978.703278586809
 21
553.0388787035102
 31
0.0
  0
LINE
  5
365B
330
1F
100
AcDbEntity
  8
実形
100
AcDbLine
 10
2493.503278586809
 20
412.6388787035102
 30
0.0
 11
2258.374896199489
 21
412.6388787035102
 31
0.0
  0
LINE
  5
365C
330
1F
100
AcDbEntity
  8
実形
100
AcDbLine
 10
2150.303278586809
 20
412.6388787035102
 30
0.0
 11
2025.503278586809
 21
412.6388787035102
 31
0.0
  0
LINE
  5
365D
330
1F
100
AcDbEntity
  8
実形
100
AcDbLine
 10
1947.503278586809
 20
615.4388787035102
 30
0.0
 11
1947.503278586809
 21
594.6388787035102
 31
0.0
  0
LINE
  5
365F
330
1F
100
AcDbEntity
  8
実形
100
AcDbLine
 10
1963.103278586809
 20
568.6388787035093
 30
0.0
 11
2197.103278586809
 21
568.6388787035093
 31
0.0
  0
LINE
  5
3660
330
1F
100
AcDbEntity
  8
実形
100
AcDbLine
 10
2228.303278586809
 20
594.6388787035102
 30
0.0
 11
2228.303278586809
 21
553.0388787035102
 31
0.0
  0
LINE
  5
3661
330
1F
100
AcDbEntity
  8
実形
100
AcDbLine
 10
2150.303278586809
 20
553.0388787035102
 30
0.0
 11
2025.503278586809
 21
553.0388787035102
 31
0.0
  0
LINE
  5
3662
330
1F
100
AcDbEntity
  8
実形
100
AcDbLine
 10
2493.503278586809
 20
615.4388787035102
 30
0.0
 11
2493.503278586809
 21
412.6388787035102
 31
0.0
  0
LINE
  5
3663
330
1F
100
AcDbEntity
  8
実形
100
AcDbLine
 10
2025.503278586809
 20
553.0388787035102
 30
0.0
 11
2025.503278586809
 21
412.6388787035112
 31
0.0
  0
LINE
  5
3665
330
1F
100
AcDbEntity
  8
実形
100
AcDbLine
 10
1963.103278586809
 20
568.6388787035093
 30
0.0
 11
1963.10327858681
 21
365.8528662055801
 31
0.0
  0
LINE
  5
3667
330
1F
100
AcDbEntity
  8
実形
100
AcDbLine
 10
1978.703278586809
 20
553.0388787035102
 30
0.0
 11
1978.703278586809
 21
365.8528662055802
 31
0.0
  0
ARC
  5
366C
330
1F
100
AcDbEntity
  8
実形
100
AcDbCircle
 10
2189.303278586809
 20
553.0388787035102
 30
0.0
 40
39.0
100
AcDbArc
 50
180.0
 51
0.000000000000007
  0
TEXT
  5
3672
330
1F
100
AcDbEntity
  8
実形
100
AcDbText
 10
1716.352098167294
 20
420.331799836469
 30
0.0
 40
35.0
  1
シンク厚　
 11
1716.352098167294
 21
415.6651331698023
 31
0.0
100
AcDbText
 73
     1
  0
DIMENSION
  5
3679
330
1F
100
AcDbEntity
  8
実形
100
AcDbDimension
  2
*D21
 10
1947.50327858681
 20
476.4445371024394
 30
0.0
 11
1927.154852797523
 21
500.9356801950445
 31
0.0
 70
   160
  1
1
 71
     5
 42
15.59999999999991
  3
ISO-25
100
AcDbAlignedDimension
 13
1963.10327858681
 23
568.6388787035094
 33
0.0
 14
1947.50327858681
 24
542.8471552806367
 34
0.0
 50
180.0
100
AcDbRotatedDimension
1001
ACAD
1000
DSTYLE
1002
{
1070
   282
1070
     1
1070
   281
1070
     1
1070
    41
1040
5.0
1070
    42
1040
6.0
1070
   140
1040
25.0
1070
   147
1040
1.199999999999999
1070
   279
1070
     2
1070
   289
1070
     2
1070
   371
1070
    13
1070
   372
1070
    13
1002
}
  0
TEXT
  5
367A
330
1F
100
AcDbEntity
  8
実形
  6
HIDDEN2
100
AcDbText
 10
1968.066600121111
 20
472.2750337594243
 30
0.0
 40
10.14
  1
● 
 71
     2
100
AcDbText
  0
TEXT
  5
367B
330
1F
100
AcDbEntity
  8
実形
  6
HIDDEN2
100
AcDbText
 10
1951.836239646571
 20
471.8412446318379
 30
0.0
 40
10.14
  1
● 
 71
     2
100
AcDbText
  0
LINE
  5
367C
330
1F
100
AcDbEntity
  8
実形
100
AcDbLine
 10
1963.51457456288
 20
476.7671083971321
 30
0.0
 11
1947.829667527175
 21
476.7671083971321
 31
0.0
  0
LINE
  5
367F
330
1F
100
AcDbEntity
  8
実形
100
AcDbLine
 10
2258.374896199489
 20
412.6388787035102
 30
0.0
 11
2228.303278586809
 21
412.6388787035102
 31
0.0
  0
ARC
  5
3680
330
1F
100
AcDbEntity
  8
実形
100
AcDbCircle
 10
2189.303278586809
 20
412.6388787035102
 30
0.0
 40
39.0
100
AcDbArc
 50
0.000000000000007
 51
180.0
  0
LINE
  5
3681
330
1F
100
AcDbEntity
  8
実形
100
AcDbLine
 10
2150.303278586809
 20
466.6963647750328
 30
0.0
 11
2150.303278586809
 21
448.7942378414921
 31
0.0
  0
LINE
  5
3682
330
1F
100
AcDbEntity
  8
実形
100
AcDbLine
 10
2228.303278586809
 20
466.6963647750328
 30
0.0
 11
2228.303278586809
 21
448.8418713489303
 31
0.0
  0
TEXT
  5
3689
330
1F
100
AcDbEntity
  8
実形
100
AcDbText
 10
1731.678836044741
 20
379.778457895655
 30
0.0
 40
35.0
  1
0.8mm
 11
1731.678836044741
 21
375.1117912289883
 31
0.0
100
AcDbText
 73
     1
  0
DIMENSION
  5
3CE3
330
1F
100
AcDbEntity
  8
実形
100
AcDbDimension
  2
*D22
 10
2603.281879703351
 20
553.0388787035104
 30
0.0
 11
2584.531879703351
 21
623.2388787035107
 31
0.0
 70
    32
  1
9
 71
     5
 42
140.3999999999998
  3
ISO-25
100
AcDbAlignedDimension
 13
2467.669934078618
 23
693.4388787035102
 33
0.0
 14
2467.669934078618
 24
553.0388787035104
 34
0.0
 50
90.0
100
AcDbRotatedDimension
1001
ACAD
1000
DSTYLE
1002
{
1070
   279
1070
     2
1070
   371
1070
    18
1070
   372
1070
    18
1002
}
  0
DIMENSION
  5
3CF9
330
1F
100
AcDbEntity
  8
実形
100
AcDbDimension
  2
*D23
 10
2603.281879703351
 20
412.6388787035103
 30
0.0
 11
2584.531879703351
 21
482.8388787035107
 31
0.0
 70
    32
  1
9
 71
     5
 42
140.4
  3
ISO-25
100
AcDbAlignedDimension
 13
2467.669934078618
 23
553.0388787035104
 33
0.0
 14
2467.669934078618
 24
412.6388787035103
 34
0.0
 50
90.0
100
AcDbRotatedDimension
1001
ACAD
1000
DSTYLE
1002
{
1070
   279
1070
     2
1070
   371
1070
    18
1070
   372
1070
    18
1002
}
  0
DIMENSION
  5
3D0F
330
1F
100
AcDbEntity
  8
実形
100
AcDbDimension
  2
*D24
 10
2670.139520579067
 20
412.6388787035103
 30
0.0
 11
2651.389520579066
 21
553.0388787035108
 31
0.0
 70
    32
  1
18
 71
     5
 42
280.8
  3
ISO-25
100
AcDbAlignedDimension
 13
2467.669934078618
 23
693.4388787035103
 33
0.0
 14
2467.669934078618
 24
412.6388787035103
 34
0.0
 50
90.0
100
AcDbRotatedDimension
1001
ACAD
1000
DSTYLE
1002
{
1070
   279
1070
     2
1070
   371
1070
    18
1070
   372
1070
    18
1002
}
  0
TEXT
  5
3E18
330
1F
100
AcDbEntity
  8
実形
100
AcDbText
 10
1841.441352076292
 20
734.2177665981911
 30
0.0
 40
29.25
  1
5R
 11
1841.441352076292
 21
730.3177665981912
 31
0.0
100
AcDbText
 73
     1
  0
DIMENSION
  5
3E28
330
1F
100
AcDbEntity
  8
実形
100
AcDbDimension
  2
*D25
 10
2197.103278586809
 20
626.499025413821
 30
0.0
 11
2080.103278586809
 21
645.249025413821
 31
0.0
 70
    32
  1
15
 71
     5
 42
234.0
  3
ISO-25
100
AcDbAlignedDimension
 13
1963.103278586809
 23
536.2515538480251
 33
0.0
 14
2197.103278586809
 24
536.2515538480251
 34
0.0
100
AcDbRotatedDimension
1001
ACAD
1000
DSTYLE
1002
{
1070
   279
1070
     2
1070
   371
1070
    18
1070
   372
1070
    18
1002
}
  0
LEADER
  5
3E47
330
1F
100
AcDbEntity
  8
実形
100
AcDbLeader
  3
ISO-25
 76
     2
 10
1952.999988120199
 20
668.1222954033009
 30
0.0
 10
1878.627564090926
 20
721.824866514151
 30
0.0
1001
ACAD
1000
DSTYLE
1002
{
1070
   147
1040
6.25
1070
    77
1070
     0
1070
   279
1070
     2
1070
   371
1070
    18
1070
   372
1070
    18
1002
}
  0
LINE
  5
3E48
330
1F
100
AcDbEntity
  8
実形
100
AcDbLine
 10
2197.103278586809
 20
568.6388787035093
 30
0.0
 11
2197.103278586809
 21
553.0388787035102
 31
0.0
  0
DIMENSION
  5
3E49
330
1F
100
AcDbEntity
  8
実形
100
AcDbDimension
  2
*D26
 10
2101.036883161905
 20
553.0388787035104
 30
0.0
 11
2069.564297767181
 21
524.3493911207361
 31
0.0
 70
   160
  1
2.5
 71
     5
 42
39.0
  3
ISO-25
100
AcDbAlignedDimension
 13
2229.883963240635
 23
514.0388787035103
 33
0.0
 14
2153.536592650147
 24
553.0388787035104
 34
0.0
 50
90.0
100
AcDbRotatedDimension
1001
ACAD
1000
DSTYLE
1002
{
1070
   140
1040
23.0
1070
   279
1070
     2
1070
   371
1070
    18
1070
   372
1070
    18
1002
}
  0
DIMENSION
  5
3E7A
330
1F
100
AcDbEntity
  8
実形
100
AcDbDimension
  2
*D27
 10
2228.303278586809
 20
461.4323905324424
 30
0.0
 11
2189.303278586809
 21
480.1823905324424
 31
0.0
 70
    32
  1
5
 71
     5
 42
78.0
  3
ISO-25
100
AcDbAlignedDimension
 13
2150.30327858681
 23
522.3587244814916
 33
0.0
 14
2228.303278586809
 24
522.3587244814916
 34
0.0
100
AcDbRotatedDimension
1001
ACAD
1000
DSTYLE
1002
{
1070
   279
1070
     2
1070
   371
1070
    18
1070
   372
1070
    18
1002
}
  0
LINE
  5
3EB4
330
1F
100
AcDbEntity
  8
実形
100
AcDbLine
 10
2150.303278586809
 20
461.4323905324425
 30
0.0
 11
2150.303278586809
 21
504.0521172560442
 31
0.0
  0
LINE
  5
3EB5
330
1F
100
AcDbEntity
  8
実形
100
AcDbLine
 10
2228.303278586809
 20
461.4323905324425
 30
0.0
 11
2228.303278586809
 21
502.8545106432656
 31
0.0
  0
DIMENSION
  5
3EB7
330
1F
100
AcDbEntity
  8
実形
100
AcDbDimension
  2
*D28
 10
2102.975332119596
 20
412.6388787035103
 30
0.0
 11
2070.355870815655
 21
441.0024837871193
 31
0.0
 70
   160
  1
2.5
 71
     5
 42
38.99999999999995
  3
ISO-25
100
AcDbAlignedDimension
 13
2203.595588728236
 23
451.6388787035102
 33
0.0
 14
2215.882092629512
 24
412.6388787035102
 34
0.0
 50
90.0
100
AcDbRotatedDimension
1001
ACAD
1000
DSTYLE
1002
{
1070
   140
1040
23.0
1070
   279
1070
     2
1070
   371
1070
    18
1070
   372
1070
    18
1002
}
  0
DIMENSION
  5
3F58
330
1F
100
AcDbEntity
  8
実形
100
AcDbDimension
  2
*D29
 10
2228.303278586809
 20
743.3028714699867
 30
0.0
 11
2087.903278586809
 21
762.0528714699867
 31
0.0
 70
    32
  1
18
 71
     5
 42
280.7999999999997
  3
ISO-25
100
AcDbAlignedDimension
 13
1947.50327858681
 23
640.5397997195641
 33
0.0
 14
2228.303278586809
 24
640.5397997195641
 34
0.0
100
AcDbRotatedDimension
1001
ACAD
1000
DSTYLE
1002
{
1070
   279
1070
     2
1070
   371
1070
    18
1070
   372
1070
    18
1002
}
  0
DIMENSION
  5
3F6E
330
1F
100
AcDbEntity
  8
実形
100
AcDbDimension
  2
*D30
 10
2493.503278586809
 20
743.3028714699867
 30
0.0
 11
2360.90327858681
 21
762.0528714699867
 31
0.0
 70
    32
  1
17
 71
     5
 42
265.1999999999998
  3
ISO-25
100
AcDbAlignedDimension
 13
2228.303278586809
 23
640.5397997195629
 33
0.0
 14
2493.503278586809
 24
640.5397997195629
 34
0.0
100
AcDbRotatedDimension
1001
ACAD
1000
DSTYLE
1002
{
1070
   279
1070
     2
1070
   371
1070
    18
1070
   372
1070
    18
1002
}
  0
DIMENSION
  5
3F85
330
1F
100
AcDbEntity
  8
実形
100
AcDbDimension
  2
*D31
 10
2493.503278586809
 20
786.8108100678382
 30
0.0
 11
2220.50327858681
 21
805.5608100678382
 31
0.0
 70
    32
  1
35
 71
     5
 42
545.9999999999995
  3
ISO-25
100
AcDbAlignedDimension
 13
1947.50327858681
 23
640.5397997195629
 33
0.0
 14
2493.503278586809
 24
640.5397997195629
 34
0.0
100
AcDbRotatedDimension
1001
ACAD
1000
DSTYLE
1002
{
1070
   279
1070
     2
1070
   371
1070
    18
1070
   372
1070
    18
1002
}
  0
TEXT
  5
3FBF
330
1F
100
AcDbEntity
  8
実形
100
AcDbText
 10
2550.529317622146
 20
737.2328637475789
 30
0.0
 40
29.25
  1
5R
 11
2550.529317622146
 21
733.332863747579
 31
0.0
100
AcDbText
 73
     1
  0
LEADER
  5
3FC0
330
1F
100
AcDbEntity
  8
実形
100
AcDbLeader
  3
ISO-25
 76
     2
 10
2483.051372681067
 20
671.1373925526888
 30
0.0
 10
2567.167011323674
 20
730.8335781775614
 30
0.0
1001
ACAD
1000
DSTYLE
1002
{
1070
   147
1040
6.25
1070
    77
1070
     0
1070
   279
1070
     2
1070
   371
1070
    18
1070
   372
1070
    18
1002
}
  0
DIMENSION
  5
3FD7
330
1F
100
AcDbEntity
  8
実形
100
AcDbDimension
  2
*D32
 10
2025.503278586809
 20
306.8527456354114
 30
0.0
 11
1925.472691921497
 21
342.2580203758225
 31
0.0
 70
   160
  1
3.2
 71
     5
 42
46.80000000000018
  3
ISO-25
100
AcDbAlignedDimension
 13
1978.703278586809
 23
420.8916371725106
 33
0.0
 14
2025.503278586809
 24
420.8916371725106
 34
0.0
100
AcDbRotatedDimension
1001
ACAD
1000
DSTYLE
1002
{
1070
   140
1040
25.0
1070
   279
1070
     2
1070
   371
1070
    18
1070
   372
1070
    18
1002
}
  0
DIMENSION
  5
3FF6
330
1F
100
AcDbEntity
  8
実形
100
AcDbDimension
  2
*D33
 10
2150.30327858681
 20
306.8527456354114
 30
0.0
 11
2087.903278586809
 21
325.6027456354114
 31
0.0
 70
    32
  1
8
 71
     5
 42
124.8000000000001
  3
ISO-25
100
AcDbAlignedDimension
 13
2025.503278586809
 23
420.8916371725106
 33
0.0
 14
2150.30327858681
 24
420.8916371725106
 34
0.0
100
AcDbRotatedDimension
1001
ACAD
1000
DSTYLE
1002
{
1070
   279
1070
     2
1070
   371
1070
    18
1070
   372
1070
    18
1002
}
  0
DIMENSION
  5
400C
330
1F
100
AcDbEntity
  8
実形
100
AcDbDimension
  2
*D34
 10
2228.303278586809
 20
306.8527456354114
 30
0.0
 11
2189.303278586809
 21
325.6027456354114
 31
0.0
 70
    32
  1
5
 71
     5
 42
78.0
  3
ISO-25
100
AcDbAlignedDimension
 13
2150.30327858681
 23
420.8916371725106
 33
0.0
 14
2228.303278586809
 24
420.8916371725106
 34
0.0
100
AcDbRotatedDimension
1001
ACAD
1000
DSTYLE
1002
{
1070
   279
1070
     2
1070
   371
1070
    18
1070
   372
1070
    18
1002
}
  0
DIMENSION
  5
4022
330
1F
100
AcDbEntity
  8
実形
100
AcDbDimension
  2
*D35
 10
2493.503278586809
 20
306.8527456354114
 30
0.0
 11
2360.90327858681
 21
325.6027456354114
 31
0.0
 70
    32
  1
17
 71
     5
 42
265.1999999999998
  3
ISO-25
100
AcDbAlignedDimension
 13
2228.303278586809
 23
420.8916371725106
 33
0.0
 14
2493.503278586809
 24
420.8916371725106
 34
0.0
100
AcDbRotatedDimension
1001
ACAD
1000
DSTYLE
1002
{
1070
   279
1070
     2
1070
   371
1070
    18
1070
   372
1070
    18
1002
}
  0
DIMENSION
  5
40C6
330
1F
100
AcDbEntity
  8
実形
100
AcDbDimension
  2
*D36
 10
2027.2926774559
 20
256.8830082351342
 30
0.0
 11
1988.2926774559
 21
275.6330082351342
 31
0.0
 70
    32
  1
5
 71
     5
 42
77.99999999999954
  3
ISO-25
100
AcDbAlignedDimension
 13
1949.2926774559
 23
372.172337168286
 33
0.0
 14
2027.2926774559
 24
372.172337168286
 34
0.0
100
AcDbRotatedDimension
1001
ACAD
1000
DSTYLE
1002
{
1070
   279
1070
     2
1070
   371
1070
    18
1070
   372
1070
    18
1002
}
  0
DIMENSION
  5
40E5
330
1F
100
AcDbEntity
  8
実形
100
AcDbDimension
  2
*D37
 10
2495.2926774559
 20
256.8830082351342
 30
0.0
 11
2261.2926774559
 21
275.6330082351342
 31
0.0
 70
    32
  1
30
 71
     5
 42
468.0
  3
ISO-25
100
AcDbAlignedDimension
 13
2027.2926774559
 23
372.172337168286
 33
0.0
 14
2495.2926774559
 24
372.172337168286
 34
0.0
100
AcDbRotatedDimension
1001
ACAD
1000
DSTYLE
1002
{
1070
   279
1070
     2
1070
   371
1070
    18
1070
   372
1070
    18
1002
}
  0
LINE
  5
445D
330
1F
100
AcDbEntity
  8
実形
100
AcDbLine
 10
1643.665951868395
 20
1689.187035644826
 30
0.0
 11
1643.665951868395
 21
1181.187035644826
 31
0.0
  0
LINE
  5
4467
330
1F
100
AcDbEntity
  8
実形
100
AcDbLine
 10
1961.413543249463
 20
424.2228321327884
 30
0.0
 11
1877.466057842642
 21
418.333112484727
 31
0.0
  0
LINE
  5
449E
330
1F
100
AcDbEntity
  8
実形
100
AcDbLine
 10
1961.090001334807
 20
424.071573549372
 30
0.0
 11
1928.755285132045
 21
410.3198621170893
 31
0.0
  0
LINE
  5
449F
330
1F
100
AcDbEntity
  8
実形
100
AcDbLine
 10
1960.7417613388
 20
424.9683758092836
 30
0.0
 11
1928.46817187876
 21
431.310465671972
 31
0.0
  0
DIMENSION
  5
45CC
330
1F
100
AcDbEntity
  8
実形
100
AcDbDimension
  2
*D38
 10
378.0239784631977
 20
778.0712037395681
 30
0.0
 11
297.8218977958441
 21
847.617683084627
 31
0.0
 70
   160
 71
     5
 42
18.0
  3
ISO-25
100
AcDbAlignedDimension
 13
521.0237565719125
 23
796.0712037395681
 33
0.0
 14
522.0025342130884
 24
778.0712037395681
 34
0.0
 50
90.0
100
AcDbRotatedDimension
1001
ACAD
1000
DSTYLE
1002
{
1070
   140
1040
25.0
1070
   279
1070
     2
1070
   371
1070
    18
1070
   372
1070
    18
1002
}
  0
DIMENSION
  5
45D9
330
1F
100
AcDbEntity
  8
実形
100
AcDbDimension
  2
*D39
 10
378.0239784631977
 20
772.8712037395681
 30
0.0
 11
300.5967482172236
 21
749.8109212836261
 31
0.0
 70
   160
 71
     5
 42
5.199999999999931
  3
ISO-25
100
AcDbAlignedDimension
 13
522.0025342130884
 23
778.0712037395681
 33
0.0
 14
522.0025342130884
 24
772.8712037395681
 34
0.0
 50
90.0
100
AcDbRotatedDimension
1001
ACAD
1000
DSTYLE
1002
{
1070
   140
1040
25.0
1070
   279
1070
     2
1070
   371
1070
    18
1070
   372
1070
    18
1002
}
  0
DIMENSION
  5
45F3
330
1F
100
AcDbEntity
  8
実形
100
AcDbDimension
  2
*D40
 10
378.0239784631976
 20
597.8712037395681
 30
0.0
 11
352.1501521186674
 21
668.6339556238199
 31
0.0
 70
   160
 71
     5
 42
175.0000000000001
  3
ISO-25
100
AcDbAlignedDimension
 13
522.0025342130884
 23
772.8712037395681
 33
0.0
 14
466.9360264383413
 24
597.8712037395681
 34
0.0
 50
90.0
100
AcDbRotatedDimension
1001
ACAD
1000
DSTYLE
1002
{
1070
   279
1070
     2
1070
   371
1070
    18
1070
   372
1070
    18
1002
}
  0
DIMENSION
  5
4618
330
1F
100
AcDbEntity
  8
実形
100
AcDbDimension
  2
*D41
 10
267.4020800125563
 20
597.8712037395681
 30
0.0
 11
248.6520800125563
 21
696.9712037395681
 31
0.0
 70
    32
 71
     5
 42
198.2
  3
ISO-25
100
AcDbAlignedDimension
 13
521.0237565719125
 23
796.0712037395681
 33
0.0
 14
466.9360264383413
 24
597.8712037395681
 34
0.0
 50
90.0
100
AcDbRotatedDimension
1001
ACAD
1000
DSTYLE
1002
{
1070
   279
1070
     2
1070
   371
1070
    18
1070
   372
1070
    18
1002
}
  0
DIMENSION
  5
482A
330
1F
100
AcDbEntity
  8
実形
100
AcDbDimension
  2
*D42
 10
1643.665951868394
 20
1054.533907350647
 30
0.0
 11
1594.53406896725
 21
1083.150194052052
 31
0.0
 70
   160
 71
     5
 42
18.0
  3
ISO-25
100
AcDbAlignedDimension
 13
1625.665951868394
 23
1215.340894494846
 33
0.0
 14
1643.665951868394
 24
1215.340894494846
 34
0.0
100
AcDbRotatedDimension
1001
ACAD
1000
DSTYLE
1002
{
1070
   279
1070
     2
1070
   371
1070
    18
1070
   372
1070
    18
1002
}
  0
DIMENSION
  5
4837
330
1F
100
AcDbEntity
  8
実形
100
AcDbDimension
  2
*D43
 10
1823.865951868394
 20
1054.533907350647
 30
0.0
 11
1733.765951868394
 21
1073.283907350647
 31
0.0
 70
    32
 71
     5
 42
180.1999999999998
  3
ISO-25
100
AcDbAlignedDimension
 13
1643.665951868394
 23
1215.340894494846
 33
0.0
 14
1823.865951868394
 24
1215.340894494846
 34
0.0
100
AcDbRotatedDimension
1001
ACAD
1000
DSTYLE
1002
{
1070
   279
1070
     2
1070
   371
1070
    18
1070
   372
1070
    18
1002
}
  0
DIMENSION
  5
4844
330
1F
100
AcDbEntity
  8
実形
100
AcDbDimension
  2
*D44
 10
1833.865951868394
 20
1098.242488378644
 30
0.0
 11
1866.326913035087
 21
1121.427892557194
 31
0.0
 70
   160
  1
7
 71
     5
 42
10.0
  3
ISO-25
100
AcDbAlignedDimension
 13
1823.865951868394
 23
1215.340894494846
 33
0.0
 14
1833.865951868394
 24
1215.340894494846
 34
0.0
100
AcDbRotatedDimension
1001
ACAD
1000
DSTYLE
1002
{
1070
   279
1070
     2
1070
   371
1070
    18
1070
   372
1070
    18
1002
}
  0
DIMENSION
  5
4891
330
1F
100
AcDbEntity
  8
実形
100
AcDbDimension
  2
*D45
 10
1823.865951868394
 20
995.755819400456
 30
0.0
 11
1724.765951868394
 21
1014.505819400456
 31
0.0
 70
    32
 71
     5
 42
198.1999999999998
  3
ISO-25
100
AcDbAlignedDimension
 13
1625.665951868394
 23
1215.340894494846
 33
0.0
 14
1823.865951868394
 24
1215.340894494846
 34
0.0
100
AcDbRotatedDimension
1001
ACAD
1000
DSTYLE
1002
{
1070
   279
1070
     2
1070
   371
1070
    18
1070
   372
1070
    18
1002
}
  0
DIMENSION
  5
48F5
330
1F
100
AcDbEntity
  8
実形
100
AcDbDimension
  2
*D46
 10
378.0239784631976
 20
587.871203739568
 30
0.0
 11
343.0239784631975
 21
581.5334200753313
 31
0.0
 70
   160
  1
7
 71
     5
 42
10.0
  3
ISO-25
100
AcDbAlignedDimension
 13
523.095932022321
 23
597.8712037395681
 33
0.0
 14
523.095932022321
 24
587.871203739568
 34
0.0
 50
90.0
100
AcDbRotatedDimension
1001
ACAD
1000
DSTYLE
1002
{
1070
   279
1070
     2
1070
   371
1070
    18
1070
   372
1070
    18
1002
}
  0
LINE
  5
496B
330
1F
100
AcDbEntity
  8
実形
100
AcDbLine
 10
375.8209934225178
 20
775.4892934966282
 30
0.0
 11
328.8471260163878
 21
753.5275353885026
 31
0.0
  0
LINE
  5
4977
330
1F
100
AcDbEntity
  8
実形
100
AcDbLine
 10
373.4554082255545
 20
774.8135559798793
 30
0.0
 11
355.2065644340273
 21
770.0833211591907
 31
0.0
  0
LINE
  5
4978
330
1F
100
AcDbEntity
  8
実形
100
AcDbLine
 10
373.7933624143425
 20
774.1378040224408
 30
0.0
 11
360.2756890167384
 21
764.0016113050023
 31
0.0
  0
LINE
  5
4998
330
1F
100
AcDbEntity
  8
実形
100
AcDbLine
 10
2228.303278586809
 20
594.6388787035102
 30
0.0
 11
1947.503278586809
 21
594.6388787035102
 31
0.0
  0
TEXT
  5
49AD
330
1F
100
AcDbEntity
  8
実形
370
    -2
100
AcDbText
 10
1269.130931984437
 20
1480.021297044273
 30
0.0
 40
25.0
  1
A
100
AcDbText
  0
TEXT
  5
49B6
330
1F
100
AcDbEntity
  8
実形
370
    -2
100
AcDbText
 10
1389.99085162114
 20
1480.021297044273
 30
0.0
 40
25.0
  1
A
100
AcDbText
  0
TEXT
  5
49BF
330
1F
100
AcDbEntity
  8
実形
370
    -2
100
AcDbText
 10
1399.595626380907
 20
1478.420835682102
 30
0.0
 40
25.0
  1
´
100
AcDbText
  0
TEXT
  5
49C9
330
1F
100
AcDbEntity
  8
実形
370
    -2
100
AcDbText
 10
1699.713549269298
 20
842.5655953544445
 30
0.0
 40
38.0
  1
A-A　断面詳細図
100
AcDbText
  0
TEXT
  5
49CA
330
1F
100
AcDbEntity
  8
実形
370
    -2
100
AcDbText
 10
1794.84960119666
 20
844.5158880014968
 30
0.0
 40
35.0
  1
´
100
AcDbText
  0
DIMENSION
  5
49E1
330
1F
100
AcDbEntity
  8
実形
100
AcDbDimension
  2
*D47
 10
1842.301515497275
 20
594.6388787035102
 30
0.0
 11
1823.551515497275
 21
644.0388787035106
 31
0.0
 70
    32
  1
6.5
 71
     5
 42
98.80000000000007
  3
ISO-25
100
AcDbAlignedDimension
 13
1969.598314110886
 23
693.4388787035103
 33
0.0
 14
1969.598314110886
 24
594.6388787035102
 34
0.0
 50
90.0
100
AcDbRotatedDimension
1001
ACAD
1000
DSTYLE
1002
{
1070
   279
1070
     2
1070
   371
1070
    18
1070
   372
1070
    18
1002
}
  0
DIMENSION
  5
4A51
330
1F
100
AcDbEntity
  8
実形
100
AcDbDimension
  2
*D48
 10
1788.304587942761
 20
568.6388787035095
 30
0.0
 11
1769.554587942761
 21
631.0388787035102
 31
0.0
 70
    32
  1
8.2
 71
     5
 42
124.8000000000008
  3
ISO-25
100
AcDbAlignedDimension
 13
1969.598314110886
 23
693.4388787035103
 33
0.0
 14
1969.598314110886
 24
568.6388787035094
 34
0.0
 50
90.0
100
AcDbRotatedDimension
1001
ACAD
1000
DSTYLE
1002
{
1070
   279
1070
     2
1070
   371
1070
    18
1070
   372
1070
    18
1002
}
  0
DIMENSION
  5
4A68
330
1F
100
AcDbEntity
  8
実形
100
AcDbDimension
  2
*D49
 10
1736.658951194005
 20
693.4388787035104
 30
0.0
 11
1717.908951194005
 21
623.2388787035106
 31
0.0
 70
    32
  1
9
 71
     5
 42
140.4000000000001
  3
ISO-25
100
AcDbAlignedDimension
 13
1969.598314110886
 23
553.0388787035102
 33
0.0
 14
1969.598314110886
 24
693.4388787035103
 34
0.0
 50
90.0
100
AcDbRotatedDimension
1001
ACAD
1000
DSTYLE
1002
{
1070
   279
1070
     2
1070
   371
1070
    18
1070
   372
1070
    18
1002
}
  0
LINE
  5
4E2B
330
1F
100
AcDbEntity
  8
実形
100
AcDbLine
 10
1842.301515497275
 20
568.8249711103763
 30
0.0
 11
1842.301515497275
 21
553.0388787035102
 31
0.0
  0
TEXT
  5
4E35
330
1F
100
AcDbEntity
  8
実形
  6
HIDDEN2
100
AcDbText
 10
1847.029365152411
 20
563.502573238773
 30
0.0
 40
10.14
  1
● 
 71
     2
100
AcDbText
  0
TEXT
  5
4E3D
330
1F
100
AcDbEntity
  8
実形
  6
HIDDEN2
100
AcDbText
 10
1847.029365152411
 20
548.3492286230903
 30
0.0
 40
10.14
  1
● 
 71
     2
100
AcDbText
  0
TEXT
  5
4E46
330
1F
100
AcDbEntity
  8
実形
100
AcDbText
 10
1836.476243456453
 20
487.9282153131335
 30
0.0
 40
29.25
  1
0.8
 50
90.0
 11
1840.376243456454
 21
487.9282153131335
 31
0.0
100
AcDbText
 73
     1
  0
ARC
  5
4E6B
330
1F
100
AcDbEntity
  8
実形
100
AcDbCircle
 10
1968.018793120222
 20
303.3794247347767
 30
0.0
 40
37.21807911390647
100
AcDbArc
 50
10.8838049813307
 51
99.73672806231851
  0
ARC
  5
4E8A
330
1F
100
AcDbEntity
  8
実形
100
AcDbCircle
 10
420.866674084086
 20
908.0745416893549
 30
0.0
 40
128.7156019851906
100
AcDbArc
 50
213.3909885014409
 51
249.3522921630725
  0
LINE
  5
4E8B
330
1F
100
AcDbEntity
  8
実形
100
AcDbLine
 10
375.5167841375532
 20
787.7819947206535
 30
0.0
 11
364.6114309407749
 21
795.458695163441
 31
0.0
  0
LINE
  5
4E8C
330
1F
100
AcDbEntity
  8
実形
100
AcDbLine
 10
375.3143900103478
 20
787.6410446020781
 30
0.0
 11
361.4297430389088
 21
791.2234473387652
 31
0.0
  0
ARC
  5
4ECB
330
1F
100
AcDbEntity
  8
実形
100
AcDbCircle
 10
1973.401727286072
 20
295.6664501765973
 30
0.0
 40
34.71092069179851
100
AcDbArc
 50
27.82370983297815
 51
64.29661093933164
  0
ARC
  5
4ECC
330
1F
100
AcDbEntity
  8
実形
100
AcDbCircle
 10
1968.006055478794
 20
313.4454617691626
 30
0.0
 40
36.96117099445193
100
AcDbArc
 50
355.5051092068196
 51
31.89192001426602
  0
LEADER
  5
5080
330
1F
100
AcDbEntity
  8
実形
100
AcDbLeader
  3
ISO-25
 40
25.0
 41
16.66666666666666
 76
     2
 10
488.2858427570099
 20
801.740747571649
 30
0.0
 10
447.412750751565
 20
845.4483958533383
 30
0.0
213
0.0
223
12.5
233
0.0
1001
ACAD
1000
DSTYLE
1002
{
1070
   147
1040
6.25
1070
    77
1070
     0
1070
    41
1040
20.0
1070
   342
1005
DA
1002
}
  0
TEXT
  5
5081
330
1F
100
AcDbEntity
  8
実形
100
AcDbText
 10
422.5378127133083
 20
857.8752428790712
 30
0.0
 40
25.0
  1
5R
 72
     2
 11
464.204479379975
 21
882.8752428790712
 31
0.0
100
AcDbText
 73
     3
  0
LEADER
  5
508B
330
1F
100
AcDbEntity
  8
実形
100
AcDbLeader
  3
ISO-25
 40
25.0
 41
16.66666666666666
 76
     2
 10
1364.320282104422
 20
801.4793079903792
 30
0.0
 10
1401.707757427969
 20
835.2187194509179
 30
0.0
213
0.0
223
12.5
233
0.0
1001
ACAD
1000
DSTYLE
1002
{
1070
   147
1040
6.25
1070
    77
1070
     0
1070
    41
1040
20.0
1070
   342
1005
DA
1002
}
  0
TEXT
  5
508C
330
1F
100
AcDbEntity
  8
実形
100
AcDbText
 10
1392.074699520139
 20
842.018229742438
 30
0.0
 40
25.0
  1
5R
 72
     2
 11
1433.741366186806
 21
867.018229742438
 31
0.0
100
AcDbText
 73
     3
  0
LEADER
  5
5096
330
1F
100
AcDbEntity
  8
実形
100
AcDbLeader
  3
ISO-25
 40
25.0
 41
16.66666666666666
 76
     2
 10
1617.927611776575
 20
1690.374188876053
 30
0.0
 10
1571.422943899293
 20
1732.728578697637
 30
0.0
213
0.0
223
12.5
233
0.0
1001
ACAD
1000
DSTYLE
1002
{
1070
   147
1040
6.25
1070
    77
1070
     0
1070
    41
1040
20.0
1070
   342
1005
DA
1002
}
  0
TEXT
  5
5097
330
1F
100
AcDbEntity
  8
実形
100
AcDbText
 10
1545.001941287362
 20
1740.260524889691
 30
0.0
 40
25.0
  1
5R
 72
     2
 11
1586.668607954029
 21
1765.260524889691
 31
0.0
100
AcDbText
 73
     3
  0
LEADER
  5
50A1
330
1F
100
AcDbEntity
  8
実形
100
AcDbLeader
  3
ISO-25
 40
25.0
 41
16.66666666666666
 76
     2
 10
1617.251429565692
 20
1178.165511475489
 30
0.0
 10
1557.774728383263
 20
1138.52985167664
 30
0.0
213
0.0
223
12.5
233
0.0
1001
ACAD
1000
DSTYLE
1002
{
1070
   147
1040
6.25
1070
    77
1070
     0
1070
    41
1040
20.0
1070
   342
1005
DA
1002
}
  0
TEXT
  5
50A2
330
1F
100
AcDbEntity
  8
実形
100
AcDbText
 10
1526.384251280763
 20
1105.84188375242
 30
0.0
 40
25.0
  1
5R
 72
     2
 11
1568.05091794743
 21
1130.84188375242
 31
0.0
100
AcDbText
 73
     3
  0
CIRCLE
  5
58C1
330
1F
100
AcDbEntity
  8
実形
100
AcDbCircle
 10
926.1678384856368
 20
1490.187035644826
 30
0.0
 40
80.0
  0
CIRCLE
  5
58C2
330
1F
100
AcDbEntity
  8
実形
100
AcDbCircle
 10
926.1678384856368
 20
1490.187035644826
 30
0.0
 40
90.5
  0
LINE
  5
58C3
330
1F
100
AcDbEntity
  8
実形
100
AcDbLine
 10
835.6678384856367
 20
597.8712037395681
 30
0.0
 11
1006.167838485636
 21
597.8712037395681
 31
0.0
  0
LINE
  5
58C4
330
1F
100
AcDbEntity
  8
実形
100
AcDbLine
 10
1006.167838485636
 20
597.8712037395681
 30
0.0
 11
1016.667838485637
 21
597.8712037395681
 31
0.0
  0
LINE
  5
58C6
330
1F
100
AcDbEntity
  8
実形
100
AcDbLine
 10
835.6678384856367
 20
587.871203739568
 30
0.0
 11
1016.667838485637
 21
587.871203739568
 31
0.0
  0
LINE
  5
58C7
330
1F
100
AcDbEntity
  8
実形
100
AcDbLine
 10
1016.667838485637
 20
587.871203739568
 30
0.0
 11
1016.667838485637
 21
597.8712037395681
 31
0.0
  0
DIMENSION
  5
58CB
330
1F
100
AcDbEntity
  8
実形
370
    -2
100
AcDbDimension
  2
*D50
 10
526.1678384856367
 20
1380.356704135434
 30
0.0
 11
726.1678384856367
 21
1399.106704135434
 31
0.0
 70
    32
 71
     5
 42
400.0
  3
ISO-25
100
AcDbAlignedDimension
 13
926.1678384856368
 23
1482.999733260442
 33
0.0
 14
526.1678384856367
 24
1435.187035644826
 34
0.0
100
AcDbRotatedDimension
1001
ACAD
1000
DSTYLE
1002
{
1070
   371
1070
    18
1002
}
  0
DIMENSION
  5
58CC
330
1F
100
AcDbEntity
  8
実形
370
    -2
100
AcDbDimension
  2
*D51
 10
1172.703050352795
 20
1640.187035644826
 30
0.0
 11
1172.703050352795
 21
1564.766224830202
 31
0.0
 70
   160
 71
     5
 42
150.0
  3
ISO-25
100
AcDbAlignedDimension
 13
983.8235013905624
 23
1490.187035644826
 33
0.0
 14
926.1678384856368
 24
1640.187035644826
 34
0.0
 50
90.0
100
AcDbRotatedDimension
1001
ACAD
1000
DSTYLE
1002
{
1070
   371
1070
    18
1002
}
  0
TEXT
  5
58CD
330
1F
100
AcDbEntity
  8
実形
370
    -2
100
AcDbText
 10
999.2439981827228
 20
1275.240674507051
 30
0.0
 40
25.0
  1
4600R
100
AcDbText
  0
TEXT
  5
58CE
330
1F
100
AcDbEntity
  8
実形
370
    -2
100
AcDbText
 10
1126.634870014604
 20
1409.385483361924
 30
0.0
 40
25.0
  1
2000R
100
AcDbText
  0
TEXT
  5
58CF
330
1F
100
AcDbEntity
  8
実形
370
    -2
100
AcDbText
 10
631.1205455024519
 20
1289.761177037373
 30
0.0
 40
25.0
  1
100R
100
AcDbText
  0
TEXT
  5
58D0
330
1F
100
AcDbEntity
  8
実形
100
AcDbText
 10
1188.366044450337
 20
657.1459827006279
 30
0.0
 40
25.0
  1
30R
100
AcDbText
  0
DIMENSION
  5
58D1
330
1F
100
AcDbEntity
  8
実形
100
AcDbDimension
  2
*D52
 10
526.1678384856367
 20
1052.254917874772
 30
0.0
 11
585.6678384856368
 21
1052.254917874772
 31
0.0
 70
   160
  1
 
 71
     5
 42
15.0
  3
ISO-25
100
AcDbAlignedDimension
 13
511.1678384856368
 23
1200.187035644826
 33
0.0
 14
526.1678384856367
 24
1200.187035644826
 34
0.0
100
AcDbRotatedDimension
1001
ACAD
1000
DSTYLE
1002
{
1070
   371
1070
    18
1002
}
  0
DIMENSION
  5
58D2
330
1F
100
AcDbEntity
  8
実形
100
AcDbDimension
  2
*D53
 10
1326.167838485637
 20
1052.254917874772
 30
0.0
 11
926.1678384856368
 21
1071.004917874772
 31
0.0
 70
    32
 71
     5
 42
800.0
  3
ISO-25
100
AcDbAlignedDimension
 13
526.1678384856367
 23
1200.187035644826
 33
0.0
 14
1326.167838485637
 24
1200.187035644826
 34
0.0
100
AcDbRotatedDimension
1001
ACAD
1000
DSTYLE
1002
{
1070
   371
1070
    18
1070
   279
1070
     1
1002
}
  0
DIMENSION
  5
58D3
330
1F
100
AcDbEntity
  8
実形
100
AcDbDimension
  2
*D54
 10
1341.167838485637
 20
1052.254917874772
 30
0.0
 11
1333.667838485637
 21
1052.254917874772
 31
0.0
 70
    32
  1
 
 71
     5
 42
15.0
  3
ISO-25
100
AcDbAlignedDimension
 13
1326.167838485637
 23
1200.187035644826
 33
0.0
 14
1341.167838485637
 24
1200.187035644826
 34
0.0
100
AcDbRotatedDimension
1001
ACAD
1000
DSTYLE
1002
{
1070
   371
1070
    18
1070
   279
1070
     1
1002
}
  0
TEXT
  5
58D4
330
1F
100
AcDbEntity
  8
実形
100
AcDbText
 10
452.5696220394211
 20
1054.542915509167
 30
0.0
 40
25.0
  1
15
100
AcDbText
  0
TEXT
  5
58D5
330
1F
100
AcDbEntity
  8
実形
370
    -2
100
AcDbText
 10
1364.43129853223
 20
1054.542915509167
 30
0.0
 40
25.0
  1
15
100
AcDbText
  0
DIMENSION
  5
58D6
330
1F
100
AcDbEntity
  8
実形
100
AcDbDimension
  2
*D55
 10
1341.167838485637
 20
998.2415905294928
 30
0.0
 11
926.1678384856368
 21
1016.991590529493
 31
0.0
 70
    32
 71
     5
 42
830.0
  3
ISO-25
100
AcDbAlignedDimension
 13
511.1678384856368
 23
1200.187035644826
 33
0.0
 14
1341.167838485637
 24
1200.187035644826
 34
0.0
100
AcDbRotatedDimension
1001
ACAD
1000
DSTYLE
1002
{
1070
   371
1070
    18
1002
}
  0
LEADER
  5
58D9
330
1F
100
AcDbEntity
  8
実形
100
AcDbLeader
  3
ISO-25
 40
25.0
 41
16.66666666666666
 76
     2
 10
944.4497288204356
 20
1236.354509589749
 30
0.0
 10
983.6721380150802
 20
1271.191335808468
 30
0.0
213
0.0
223
-12.5
233
0.0
1001
ACAD
1000
DSTYLE
1002
{
1070
    41
1040
25.0
1070
   147
1040
6.25
1070
    77
1070
     0
1070
    73
1070
     1
1070
    74
1070
     1
1070
   279
1070
     1
1070
   342
1005
DA
1002
}
  0
LEADER
  5
58DA
330
1F
100
AcDbEntity
  8
実形
100
AcDbLeader
  3
ISO-25
 40
25.0
 41
16.66666666666666
 76
     2
 10
1316.785203997379
 20
1420.393990698125
 30
0.0
 10
1242.698430158293
 20
1422.571292925258
 30
0.0
213
0.0
223
-12.5
233
0.0
1001
ACAD
1000
DSTYLE
1002
{
1070
    41
1040
25.0
1070
   147
1040
6.25
1070
    77
1070
     0
1070
    73
1070
     1
1070
    74
1070
     1
1070
   279
1070
     1
1070
   342
1005
DA
1002
}
  0
LEADER
  5
58DB
330
1F
100
AcDbEntity
  8
実形
100
AcDbLeader
  3
ISO-25
 40
25.0
 41
16.66666666666666
 76
     2
 10
568.9306952032138
 20
1265.417222023951
 30
0.0
 10
616.8691934982644
 20
1295.899443788406
 30
0.0
211
-1.0
221
0.0
231
0.0
210
0.0
220
0.0
230
-1.0
213
0.0
223
-12.5
233
0.0
1001
ACAD
1000
DSTYLE
1002
{
1070
    41
1040
25.0
1070
   147
1040
6.25
1070
    77
1070
     0
1070
    73
1070
     1
1070
    74
1070
     1
1070
   279
1070
     1
1070
   342
1005
DA
1002
}
  0
LEADER
  5
58DC
330
1F
100
AcDbEntity
  8
実形
100
AcDbLeader
  3
ISO-25
 40
25.0
 41
16.66666666666666
 76
     2
 10
1309.810188600168
 20
627.6205139556013
 30
0.0
 10
1261.871690305118
 20
658.1027357200564
 30
0.0
213
0.0
223
-12.5
233
0.0
1001
ACAD
1000
DSTYLE
1002
{
1070
    41
1040
25.0
1070
   147
1040
6.25
1070
    77
1070
     0
1070
    73
1070
     1
1070
    74
1070
     1
1070
   279
1070
     1
1070
   342
1005
DA
1002
}
  0
LINE
  5
58DE
330
1F
100
AcDbEntity
  8
実形
100
AcDbLine
 10
1266.330095269703
 20
1215.187035644826
 30
0.0
 11
586.00558170156
 21
1215.187035644826
 31
0.0
  0
LINE
  5
58DF
330
1F
100
AcDbEntity
  8
実形
100
AcDbLine
 10
586.00558170156
 20
1655.187035644826
 30
0.0
 11
1266.330095269703
 21
1655.187035644826
 31
0.0
  0
ARC
  5
58E0
330
1F
100
AcDbEntity
  8
実形
100
AcDbCircle
 10
2526.167838485637
 20
1435.187035644826
 30
0.0
 40
2000.0
100
AcDbArc
 50
177.1295622366263
 51
182.8704377633737
  0
ARC
  5
58E1
330
1F
100
AcDbEntity
  8
実形
100
AcDbCircle
 10
-673.8321615143632
 20
1435.187035644826
 30
0.0
 40
2000.0
100
AcDbArc
 50
357.1295622366263
 51
2.870437763373671
  0
ARC
  5
58E2
330
1F
100
AcDbEntity
  8
実形
100
AcDbCircle
 10
-49194.16692087914
 20
1435.187035644882
 30
0.0
 40
50520.75067928305
100
AcDbArc
 50
359.8183273145941
 51
0.1816726854059578
  0
ARC
  5
58E3
330
1F
100
AcDbEntity
  8
実形
100
AcDbCircle
 10
1266.330095269703
 20
1275.187035644826
 30
0.0
 40
60.0
100
AcDbArc
 50
270.0
 51
359.8183273145679
  0
ARC
  5
58E4
330
1F
100
AcDbEntity
  8
実形
100
AcDbCircle
 10
1266.330095269703
 20
1595.187035644826
 30
0.0
 40
60.0
100
AcDbArc
 50
0.1816726854059578
 51
90.0
  0
ARC
  5
58E5
330
1F
100
AcDbEntity
  8
実形
100
AcDbCircle
 10
51046.50259765261
 20
1435.187035644826
 30
0.0
 40
50520.75067908528
100
AcDbArc
 50
179.818327314594
 51
180.1816726854059
  0
ARC
  5
58E6
330
1F
100
AcDbEntity
  8
実形
100
AcDbCircle
 10
586.00558170156
 20
1275.187035644826
 30
0.0
 40
60.0
100
AcDbArc
 50
180.1816726854059
 51
270.0
  0
ARC
  5
58E7
330
1F
100
AcDbEntity
  8
実形
100
AcDbCircle
 10
586.00558170156
 20
1595.187035644826
 30
0.0
 40
60.0
100
AcDbArc
 50
90.0
 51
179.818327314568
  0
LINE
  5
58E8
330
1F
100
AcDbEntity
  8
実形
100
AcDbLine
 10
526.1678384856369
 20
778.0712037395679
 30
0.0
 11
526.1678384856367
 21
633.2365084751927
 31
0.0
  0
LINE
  5
58E9
330
1F
100
AcDbEntity
  8
実形
100
AcDbLine
 10
1326.167838485637
 20
633.2365084751927
 30
0.0
 11
1326.167838485637
 21
778.0712037395681
 31
0.0
  0
LINE
  5
58EA
330
1F
100
AcDbEntity
  8
実形
100
AcDbLine
 10
1323.167838485637
 20
772.8712037395681
 30
0.0
 11
529.1678384856368
 21
772.8712037395681
 31
0.0
  0
LINE
  5
58EB
330
1F
100
AcDbEntity
  8
実形
100
AcDbLine
 10
1016.667838485637
 20
597.8712037395681
 30
0.0
 11
1296.953146934873
 21
603.2467887259262
 31
0.0
  0
LINE
  5
58EC
330
1F
100
AcDbEntity
  8
実形
100
AcDbLine
 10
835.6678384856367
 20
597.8712037395681
 30
0.0
 11
555.3825300364005
 21
603.2467887259262
 31
0.0
  0
ARC
  5
58ED
330
1F
100
AcDbEntity
  8
実形
100
AcDbCircle
 10
556.1678384856368
 20
633.2365084751927
 30
0.0
 40
30.0
100
AcDbArc
 50
180.0
 51
268.4999999999841
  0
ARC
  5
58EE
330
1F
100
AcDbEntity
  8
実形
100
AcDbCircle
 10
1296.167838485637
 20
633.2365084751927
 30
0.0
 40
30.0
100
AcDbArc
 50
271.5000000000159
 51
0.0
  0
LINE
  5
58EF
330
1F
100
AcDbEntity
  8
実形
100
AcDbLine
 10
835.6678384856367
 20
597.8712037395681
 30
0.0
 11
495.3176574552435
 21
597.8712037395681
 31
0.0
  0
TEXT
  5
58F0
330
1F
100
AcDbEntity
  8
実形
100
AcDbText
 10
574.4990068147935
 20
555.3049624296859
 30
0.0
 40
25.0
  1
1.5°
100
AcDbText
  0
ARC
  5
58F4
330
1F
100
AcDbEntity
  8
実形
100
AcDbCircle
 10
1323.167838485637
 20
775.871203739568
 30
0.0
 40
3.0
100
AcDbArc
 50
270.0
 51
0.0
  0
ARC
  5
5902
330
1F
100
AcDbEntity
  8
実形
100
AcDbCircle
 10
926.1678384856368
 20
5830.187035644826
 30
0.0
 40
4600.0
100
AcDbArc
 50
266.2078658679542
 51
273.7921341320458
  0
ARC
  5
5903
330
1F
100
AcDbEntity
  8
実形
100
AcDbCircle
 10
926.1678384856368
 20
-2959.812964355174
 30
0.0
 40
4600.0
100
AcDbArc
 50
86.20786586795423
 51
93.79213413204578
  0
ARC
  5
5904
330
1F
100
AcDbEntity
  8
実形
100
AcDbCircle
 10
1223.783961870958
 20
1340.039527700227
 30
0.0
 40
100.0
100
AcDbArc
 50
273.7921341320458
 51
357.1295622366263
  0
ARC
  5
5905
330
1F
100
AcDbEntity
  8
実形
100
AcDbCircle
 10
1223.783961870958
 20
1530.334543589425
 30
0.0
 40
100.0
100
AcDbArc
 50
2.870437763373671
 51
86.20786586795423
  0
ARC
  5
5906
330
1F
100
AcDbEntity
  8
実形
100
AcDbCircle
 10
628.5517151003159
 20
1530.334543589425
 30
0.0
 40
100.0
100
AcDbArc
 50
93.79213413204578
 51
177.1295622366263
  0
ARC
  5
5907
330
1F
100
AcDbEntity
  8
実形
100
AcDbCircle
 10
628.5517151003159
 20
1340.039527700227
 30
0.0
 40
100.0
100
AcDbArc
 50
182.8704377633737
 51
266.2078658679542
  0
LINE
  5
59E2
330
1F
100
AcDbEntity
  8
実形
100
AcDbLine
 10
586.00558170156
 20
1689.187035644826
 30
0.0
 11
1266.330095269703
 21
1689.187035644826
 31
0.0
  0
ARC
  5
59E3
330
1F
100
AcDbEntity
  8
実形
100
AcDbCircle
 10
1266.330095269703
 20
1595.187035644826
 30
0.0
 40
94.0
100
AcDbArc
 50
0.1816726854059578
 51
90.0
  0
ARC
  5
59E4
330
1F
100
AcDbEntity
  8
実形
100
AcDbCircle
 10
-49194.16692087914
 20
1435.187035644882
 30
0.0
 40
50554.75067928306
100
AcDbArc
 50
359.8183273145941
 51
0.1816726854059578
  0
ARC
  5
59E5
330
1F
100
AcDbEntity
  8
実形
100
AcDbCircle
 10
1266.330095269703
 20
1275.187035644826
 30
0.0
 40
94.0
100
AcDbArc
 50
270.0
 51
359.8183273145679
  0
LINE
  5
59E6
330
1F
100
AcDbEntity
  8
実形
100
AcDbLine
 10
1266.330095269703
 20
1181.187035644826
 30
0.0
 11
586.00558170156
 21
1181.187035644826
 31
0.0
  0
ARC
  5
59E7
330
1F
100
AcDbEntity
  8
実形
100
AcDbCircle
 10
586.00558170156
 20
1275.187035644826
 30
0.0
 40
94.0
100
AcDbArc
 50
180.1816726854059
 51
270.0
  0
ARC
  5
59E8
330
1F
100
AcDbEntity
  8
実形
100
AcDbCircle
 10
51046.50259765261
 20
1435.187035644826
 30
0.0
 40
50554.75067908528
100
AcDbArc
 50
179.818327314594
 51
180.1816726854059
  0
ARC
  5
59E9
330
1F
100
AcDbEntity
  8
実形
100
AcDbCircle
 10
586.00558170156
 20
1595.187035644826
 30
0.0
 40
94.0
100
AcDbArc
 50
90.0
 51
179.818327314568
  0
LINE
  5
5B29
330
1F
100
AcDbEntity
  8
実形
100
AcDbLine
 10
492.9678384856368
 20
778.0712037395681
 30
0.0
 11
526.1678384856367
 21
778.0712037395679
 31
0.0
  0
ARC
  5
5B2A
330
1F
100
AcDbEntity
  8
実形
100
AcDbCircle
 10
1354.367838485637
 20
791.0712037395681
 30
0.0
 40
5.0
100
AcDbArc
 50
0.000000000000007
 51
90.0
  0
LINE
  5
5B2B
330
1F
100
AcDbEntity
  8
実形
100
AcDbLine
 10
1359.367838485637
 20
791.0712037395681
 30
0.0
 11
1359.367838485637
 21
778.0712037395681
 31
0.0
  0
LINE
  5
5B2C
330
1F
100
AcDbEntity
  8
実形
100
AcDbLine
 10
1359.367838485637
 20
778.0712037395681
 30
0.0
 11
1326.167838485637
 21
778.0712037395679
 31
0.0
  0
LINE
  5
5B2E
330
1F
100
AcDbEntity
  8
実形
100
AcDbLine
 10
526.1678384856367
 20
778.0712037395679
 30
0.0
 11
1326.167838485637
 21
778.0712037395681
 31
0.0
  0
LINE
  5
5B60
330
1F
100
AcDbEntity
  8
実形
100
AcDbLine
 10
820.1036761539562
 20
587.871203739568
 30
0.0
 11
494.6369886740686
 21
587.871203739568
 31
0.0
  0
LINE
  5
5E11
330
1F
100
AcDbEntity
  8
センター
 48
0.5
370
    15
100
AcDbLine
 10
926.1678384856368
 20
676.0878276149814
 30
0.0
 11
926.1678384856368
 21
519.6720073076813
 31
0.0
  0
LINE
  5
5E1A
330
1F
100
AcDbEntity
  8
センター
 48
0.5
370
    15
100
AcDbLine
 10
1707.330163189437
 20
1490.187035644826
 30
0.0
 11
1861.241115446499
 21
1490.187035644826
 31
0.0
  0
LINE
  5
5E24
330
1F
100
AcDbEntity
  8
センター
 48
0.5
370
    15
100
AcDbLine
 10
1299.396862243677
 20
1490.391616860362
 30
0.0
 11
1380.267562548182
 21
1490.391616860362
 31
0.0
  0
VIEWPORT
  5
2E
102
{ACAD_XDICTIONARY
360
5E51
102
}
330
1B
100
AcDbEntity
 67
     1
  8
0
100
AcDbViewport
 10
144.7270812988281
 20
101.2295806407928
 30
0.0
 40
411.6736216682419
 41
222.1517806396485
 68
     1
 69
     1
 12
144.7270812988281
 22
101.2295806407928
 13
0.0
 23
0.0
 14
10.0
 24
10.0
 15
10.0
 25
10.0
 16
0.0
 26
0.0
 36
1.0
 17
0.0
 27
0.0
 37
0.0
 42
50.0
 43
0.0
 44
0.0
 45
222.1517806396485
 50
0.0
 51
0.0
 72
   100
 90
    32800
  1

281
     0
 71
     1
 74
     0
110
0.0
120
0.0
130
0.0
111
1.0
121
0.0
131
0.0
112
0.0
122
1.0
132
0.0
 79
     0
146
0.0
  0
VIEWPORT
  5
30
102
{ACAD_XDICTIONARY
360
5E53
102
}
330
1B
100
AcDbEntity
 67
     1
  8
0
100
AcDbViewport
 10
139.2237563133239
 20
101.2295821905136
 30
0.0
 40
222.7580101013184
 41
161.9673315048218
 68
     2
 69
     2
 12
210.0
 22
148.5
 13
0.0
 23
0.0
 14
10.0
 24
10.0
 15
10.0
 25
10.0
 16
0.0
 26
0.0
 36
1.0
 17
0.0
 27
0.0
 37
0.0
 42
50.0
 43
0.0
 44
0.0
 45
309.0686705647124
 50
0.0
 51
0.0
 72
   100
 90
    32864
  1

281
     0
 71
     1
 74
     0
110
0.0
120
0.0
130
0.0
111
1.0
121
0.0
131
0.0
112
0.0
122
1.0
132
0.0
 79
     0
146
0.0
  0
ENDSEC
  0
SECTION
  2
OBJECTS
  0
DICTIONARY
  5
C
330
0
100
AcDbDictionary
281
     1
  3
ACAD_COLOR
350
18D5
  3
ACAD_GROUP
350
D
  3
ACAD_LAYOUT
350
1A
  3
ACAD_MATERIAL
350
18D4
  3
ACAD_MLINESTYLE
350
17
  3
ACAD_PLOTSETTINGS
350
19
  3
ACAD_PLOTSTYLENAME
350
E
  3
ACAD_TABLESTYLE
350
18D6
  3
AcadDim
350
40B7
  3
ACDBHEADERROUNDTRIPXREC
350
5E4A
  3
AcDbVariableDictionary
350
18F7
  0
DICTIONARY
  5
191A
330
2
100
AcDbDictionary
280
     1
281
     1
  3
ACAD_LAYERFILTERS
360
32E1
  3
ACAD_LAYERSTATES
360
191B
  3
ACLYDICTIONARY
360
32E0
  0
DICTIONARY
  5
1A15
330
1F
100
AcDbDictionary
280
     1
281
     1
  3
ACAD_SORTENTS
360
1A16
  0
DICTIONARY
  5
5E51
330
2E
100
AcDbDictionary
280
     1
281
     1
  3
ACAD_XREC_ROUNDTRIP
360
5E52
  0
DICTIONARY
  5
5E53
330
30
100
AcDbDictionary
280
     1
281
     1
  3
ACAD_XREC_ROUNDTRIP
360
5E54
  0
DICTIONARY
  5
18D5
102
{ACAD_REACTORS
330
C
102
}
330
C
100
AcDbDictionary
281
     1
  0
DICTIONARY
  5
D
102
{ACAD_REACTORS
330
C
102
}
330
C
100
AcDbDictionary
281
     1
  0
DICTIONARY
  5
1A
102
{ACAD_REACTORS
330
C
102
}
330
C
100
AcDbDictionary
281
     1
  3
Model
350
22
  3
ﾚｲｱｳﾄ1
350
1E
  3
ﾚｲｱｳﾄ2
350
26
  0
DICTIONARY
  5
18D4
102
{ACAD_REACTORS
330
C
102
}
330
C
100
AcDbDictionary
281
     1
  0
DICTIONARY
  5
17
102
{ACAD_REACTORS
330
C
102
}
330
C
100
AcDbDictionary
281
     1
  3
Standard
350
18
  0
DICTIONARY
  5
19
102
{ACAD_REACTORS
330
C
102
}
330
C
100
AcDbDictionary
281
     1
  0
ACDBDICTIONARYWDFLT
  5
E
102
{ACAD_REACTORS
330
C
102
}
330
C
100
AcDbDictionary
281
     1
  3
Normal
350
F
100
AcDbDictionaryWithDefault
340
F
  0
DICTIONARY
  5
18D6
102
{ACAD_REACTORS
330
C
102
}
330
C
100
AcDbDictionary
281
     1
  3
Standard
350
18D7
  0
XRECORD
  5
40B7
102
{ACAD_REACTORS
330
C
102
}
330
C
100
AcDbXrecord
280
     1
 90
   990106
  3

 60
     0
 61
     0
 62
     1
 63
     3
 64
     0
 65
     0
 66
     0
 67
     3
 68
     1
 69
     0
 70
     0
 71
     0
 72
     0
 40
30.0
170
     0
  0
DICTIONARY
  5
5E4A
102
{ACAD_REACTORS
330
C
102
}
330
C
100
AcDbDictionary
281
     1
  0
DICTIONARY
  5
18F7
102
{ACAD_REACTORS
330
C
102
}
330
C
100
AcDbDictionary
281
     1
  3
CTABLESTYLE
350
18F8
  3
DIMASSOC
350
5E47
  3
PROJECTNAME
350
5E48
  0
DICTIONARY
  5
32E1
102
{ACAD_REACTORS
330
191A
102
}
330
191A
100
AcDbDictionary
281
     1
  0
DICTIONARY
  5
191B
102
{ACAD_REACTORS
330
191A
102
}
330
191A
100
AcDbDictionary
281
     1
  0
DICTIONARY
  5
32E0
102
{ACAD_REACTORS
330
191A
102
}
330
191A
100
AcDbDictionary
281
     1
1001
ACAD
1000
<All
  0
SORTENTSTABLE
  5
1A16
102
{ACAD_REACTORS
330
1A15
102
}
330
1A15
100
AcDbSortentsTable
330
1F
331
445D
  5
449E
331
4A51
  5
4A68
331
58C7
  5
58C8
331
58EC
  5
58F5
331
58F4
  5
5909
331
59E3
  5
58EA
331
5904
  5
590D
331
3FBF
  5
3FC1
331
267E
  5
2681
331
367B
  5
367F
331
3F58
  5
3F85
331
2686
  5
268A
331
271D
  5
2A6C
331
3E49
  5
3EB4
331
3FD7
  5
400C
331
1DF9
  5
1DFE
331
1026
  5
102B
331
1E01
  5
1E07
331
102E
  5
10C3
331
1B1C
  5
1B58
331
1E09
  5
1E10
331
7CF
  5
7D0
331
1CA2
  5
1CA8
331
5080
  5
5081
331
40C6
  5
41AF
331
58CD
  5
58CE
331
49CA
  5
49E1
331
58D5
  5
58D6
331
365C
  5
365F
331
58E5
  5
58EB
331
366C
  5
3679
331
3CE3
  5
3D0F
331
1C03
  5
1C76
331
1017
  5
101C
331
1CBA
  5
1DFA
331
101F
  5
1024
331
1C23
  5
1CA1
331
496B
  5
4978
331
4844
  5
48F5
331
58ED
  5
58F6
331
270E
  5
2713
331
5905
  5
590E
331
59E4
  5
58E6
331
267F
  5
2682
331
367C
  5
3680
331
3FC0
  5
3FF6
331
A0
  5
A5
331
1027
  5
102C
331
1B15
  5
1B1A
331
1DFA
  5
1DFF
331
1BE4
  5
1C75
331
102F
  5
10C5
331
1B1D
  5
1B59
331
1E02
  5
1E08
331
1E0A
  5
1E12
331
1CA3
  5
1CB1
331
449E
  5
4586
331
5081
  5
508B
331
58CE
  5
58CF
331
58D6
  5
58D7
331
58DE
  5
58DF
331
3655
  5
3656
331
365D
  5
3660
331
58E6
  5
58ED
331
3E7A
  5
3EB5
331
3665
  5
366C
331
3486
  5
348E
331
348E
  5
34E6
331
3E9
  5
3F6
331
1018
  5
101E
331
50A1
  5
50A2
331
58C1
  5
58C2
331
58EE
  5
58F7
331
34E6
  5
34E8
331
5906
  5
59E1
331
59E5
  5
58E8
331
2688
  5
268B
331
1020
  5
1025
331
1028
  5
102D
331
1B16
  5
1B1B
331
1DFB
  5
1E00
331
1B1E
  5
1BE4
331
33A
  5
33B
331
1E03
  5
1E09
331
1B26
  5
1C03
331
1CA4
  5
1CBA
331
4E8A
  5
4E8B
331
4467
  5
449F
331
449F
  5
45CA
331
48F5
  5
4977
331
58CF
  5
58D0
331
4E2B
  5
4E35
331
1E11
  5
1E18
331
3656
  5
3658
331
58DF
  5
58E1
331
58E7
  5
58EF
331
1058
  5
10CA
331
8C9
  5
F27
331
1019
  5
101F
331
1CC4
  5
1DFC
331
50A2
  5
55A7
331
58C2
  5
58C3
331
4E6B
  5
4E8A
331
58EF
  5
58F8
331
59E6
  5
58E0
331
2710
  5
2717
331
5907
  5
59E2
331
1021
  5
1026
331
2EB
  5
2EE
331
1029
  5
102E
331
1B17
  5
1B1C
331
33B
  5
33C
331
1E04
  5
1E0A
331
1C9D
  5
1CA2
331
1E0C
  5
1E13
331
1CA5
  5
1CC4
331
1B57
  5
1C23
331
49AD
  5
49B6
331
4E8B
  5
4E8C
331
4ECB
  5
4ECC
331
4837
  5
4891
331
508B
  5
508C
331
58D0
  5
58D1
331
2691
  5
2694
331
1E12
  5
1E19
331
58E0
  5
58E3
331
3657
  5
3659
331
365F
  5
3661
331
3667
  5
3672
331
3EB4
  5
3EB7
331
101A
  5
1020
331
4022
  5
40E5
331
58C3
  5
58C4
331
58E8
  5
58F1
331
58F0
  5
5905
331
59E7
  5
58EE
331
34E8
  5
34EB
331
2682
  5
2685
331
34F0
  5
34F3
331
367F
  5
3681
331
1022
  5
1027
331
1DFD
  5
1E02
331
102A
  5
102F
331
1B18
  5
1B1D
331
1E05
  5
1E0B
331
104A
  5
10C9
331
1C9E
  5
1CA3
331
1E0D
  5
1E14
331
1CA6
  5
1DF7
331
4618
  5
4837
331
4E8C
  5
4ECB
331
49B6
  5
49BF
331
4ECC
  5
5080
331
508C
  5
5096
331
58D1
  5
58D2
331
2721
  5
32E6
331
58D9
  5
58DA
331
1E13
  5
1E1A
331
3658
  5
365A
331
58E1
  5
58E4
331
3660
  5
3662
331
3EB5
  5
3F58
331
1B58
  5
1C73
331
3DC
  5
3E9
331
101B
  5
1021
331
45D9
  5
4618
331
4E35
  5
4E3D
331
4977
  5
498A
331
4E3D
  5
4E46
331
58C4
  5
58C5
331
58E9
  5
58F2
331
267B
  5
267E
331
2683
  5
2686
331
271A
  5
2723
331
3680
  5
3682
331
3509
  5
350A
331
3D0F
  5
3E28
331
9C
  5
9C
331
1023
  5
1028
331
1DFE
  5
1E03
331
102B
  5
1030
331
1B19
  5
1B1E
331
43C
  5
43D
331
1E06
  5
1E0D
331
1E0E
  5
1E15
331
1C9F
  5
1CA5
331
1CA7
  5
1DF8
331
49BF
  5
49C9
331
59E8
  5
58EC
331
58D2
  5
58D3
331
58DA
  5
58DB
331
1E14
  5
267D
331
3659
  5
365B
331
58E2
  5
58E5
331
3661
  5
3663
331
3F85
  5
3FC0
331
1B59
  5
1C74
331
1014
  5
1019
331
400C
  5
40C6
331
4978
  5
49A3
331
4998
  5
3657
331
4E46
  5
4E6B
331
58EA
  5
58F3
331
5902
  5
590B
331
267C
  5
267F
331
3679
  5
367B
331
3E47
  5
3E49
331
3681
  5
3689
331
350A
  5
3655
331
A5
  5
2EB
331
1024
  5
1029
331
1DFF
  5
1E04
331
102C
  5
1031
331
1B1A
  5
1B26
331
2EE
  5
2F9
331
1E07
  5
1E0E
331
1CA0
  5
1CA6
331
1E0F
  5
1E17
331
3CE
  5
3DC
331
4891
  5
496B
331
482A
  5
4844
331
59E9
  5
58F0
331
58CB
  5
58CC
331
58D3
  5
58D4
331
58DB
  5
58DC
331
3689
  5
3CF9
331
3F6E
  5
3FBF
331
365A
  5
365C
331
58E3
  5
58E7
331
3E18
  5
3E47
331
3662
  5
3665
331
3E28
  5
3E48
331
3EB7
  5
3F6E
331
1CA8
  5
1CA4
331
1015
  5
101A
331
101D
  5
1022
331
1AFB
  5
1B18
331
3F6
  5
43C
331
5096
  5
5097
331
45F3
  5
482A
331
58C6
  5
58C7
331
58EB
  5
58F4
331
59E2
  5
58E2
331
5903
  5
590C
331
3672
  5
367A
331
3CF9
  5
3E18
331
34EB
  5
34F0
331
267D
  5
2680
331
2714
  5
271D
331
367A
  5
367C
331
34F3
  5
3509
331
3682
  5
3CE3
331
3E48
  5
3E7A
331
1DF8
  5
1DFD
331
1025
  5
102A
331
1E00
  5
1E05
331
102D
  5
1032
331
1B1B
  5
1B57
331
1E08
  5
1E0F
331
1CA1
  5
1CA7
331
4A68
  5
4E2B
331
3FF6
  5
4022
331
45CC
  5
45F3
331
49C9
  5
49CA
331
58CC
  5
58CD
331
58D4
  5
58D5
331
58DC
  5
58DD
331
365B
  5
365D
331
58E4
  5
58E9
331
3663
  5
3667
331
3484
  5
3486
331
1CB1
  5
1DF9
331
1065
  5
10E9
331
1A14
  5
A0
331
1016
  5
101B
331
101E
  5
1023
331
1AFC
  5
1B19
331
49E1
  5
4A51
331
40E5
  5
445D
331
5097
  5
50A1
  0
XRECORD
  5
5E52
102
{ACAD_REACTORS
330
5E51
102
}
330
5E51
100
AcDbXrecord
280
     1
102
SHADEPLOT
 70
     0
  0
XRECORD
  5
5E54
102
{ACAD_REACTORS
330
5E53
102
}
330
5E53
100
AcDbXrecord
280
     1
102
SHADEPLOT
 70
     0
  0
LAYOUT
  5
22
102
{ACAD_XDICTIONARY
360
5E4D
102
}
102
{ACAD_REACTORS
330
1A
102
}
330
1A
100
AcDbPlotSettings
  1

  2
EPSON PM-800C
  4
A4
  6

 40
3.757083177566528
 41
14.7637300491333
 42
3.757080078125
 43
3.757080078125
 44
209.9733276367187
 45
296.9683227539062
 46
0.0
 47
0.0
 48
0.0
 49
0.0
140
0.0
141
0.0
142
1.0
143
10.0
 70
 11952
 72
     1
 73
     1
 74
     2
  7

 75
    20
147
0.1
148
0.0
149
0.0
100
AcDbLayout
  1
Model
 70
     1
 71
     0
 10
0.0
 20
0.0
 11
12.0
 21
9.0
 12
0.0
 22
0.0
 32
0.0
 14
0.0
 24
0.0
 34
0.0
 15
0.0
 25
0.0
 35
0.0
146
0.0
 13
0.0
 23
0.0
 33
0.0
 16
1.0
 26
0.0
 36
0.0
 17
0.0
 27
1.0
 37
0.0
 76
     0
330
1F
  0
LAYOUT
  5
1E
102
{ACAD_XDICTIONARY
360
5E4B
102
}
102
{ACAD_REACTORS
330
1A
102
}
330
1A
100
AcDbPlotSettings
  1

  2
EPSON PM-800C
  4
A4
  6

 40
3.757083177566528
 41
14.7637300491333
 42
3.757080078125
 43
3.757080078125
 44
209.9733276367187
 45
296.9683227539062
 46
0.0
 47
0.0
 48
0.0
 49
0.0
140
0.0
141
0.0
142
1.0
143
1.0
 70
   688
 72
     1
 73
     1
 74
     5
  7

 75
    16
147
1.0
148
0.0
149
0.0
100
AcDbLayout
  1
ﾚｲｱｳﾄ1
 70
     1
 71
     1
 10
-3.757080078125
 20
-3.757083177566528
 11
293.2112426757813
 21
206.2162444591522
 12
0.0
 22
0.0
 32
0.0
 14
27.8447512626648
 24
20.24591643810271
 34
0.0
 15
250.6027613639831
 25
182.2132479429245
 35
0.0
146
0.0
 13
0.0
 23
0.0
 33
0.0
 16
1.0
 26
0.0
 36
0.0
 17
0.0
 27
1.0
 37
0.0
 76
     0
330
1B
331
2E
  0
LAYOUT
  5
26
102
{ACAD_XDICTIONARY
360
5E4F
102
}
102
{ACAD_REACTORS
330
1A
102
}
330
1A
100
AcDbPlotSettings
  1

  2
EPSON PM-800C
  4

  6

 40
0.0
 41
0.0
 42
0.0
 43
0.0
 44
0.0
 45
0.0
 46
0.0
 47
0.0
 48
0.0
 49
0.0
140
0.0
141
0.0
142
1.0
143
1.0
 70
   688
 72
     0
 73
     0
 74
     5
  7

 75
    16
147
1.0
148
0.0
149
0.0
100
AcDbLayout
  1
ﾚｲｱｳﾄ2
 70
     1
 71
     2
 10
0.0
 20
0.0
 11
12.0
 21
9.0
 12
0.0
 22
0.0
 32
0.0
 14
0.0
 24
0.0
 34
0.0
 15
0.0
 25
0.0
 35
0.0
146
0.0
 13
0.0
 23
0.0
 33
0.0
 16
1.0
 26
0.0
 36
0.0
 17
0.0
 27
1.0
 37
0.0
 76
     0
330
23
  0
MLINESTYLE
  5
18
102
{ACAD_REACTORS
330
17
102
}
330
17
100
AcDbMlineStyle
  2
STANDARD
 70
     0
  3

 62
   256
 51
90.0
 52
90.0
 71
     2
 49
0.5
 62
   256
  6
BYLAYER
 49
-0.5
 62
   256
  6
BYLAYER
  0
ACDBPLACEHOLDER
  5
F
102
{ACAD_REACTORS
330
E
102
}
330
E
  0
TABLESTYLE
  5
18D7
102
{ACAD_REACTORS
330
18D6
102
}
330
18D6
100
AcDbTableStyle
  3
Standard
 70
     0
 71
     0
 40
1.5
 41
1.5
280
     0
281
     0
  7
Standard
140
4.5
170
     2
 62
     0
 63
     7
283
     0
274
    -2
284
     1
 64
     0
275
    -2
285
     1
 65
     0
276
    -2
286
     1
 66
     0
277
    -2
287
     1
 67
     0
278
    -2
288
     1
 68
     0
279
    -2
289
     1
 69
     0
  7
Standard
140
6.0
170
     5
 62
     0
 63
     7
283
     0
274
    -2
284
     1
 64
     0
275
    -2
285
     1
 65
     0
276
    -2
286
     1
 66
     0
277
    -2
287
     1
 67
     0
278
    -2
288
     1
 68
     0
279
    -2
289
     1
 69
     0
  7
Standard
140
4.5
170
     5
 62
     0
 63
     7
283
     0
274
    -2
284
     1
 64
     0
275
    -2
285
     1
 65
     0
276
    -2
286
     1
 66
     0
277
    -2
287
     1
 67
     0
278
    -2
288
     1
 68
     0
279
    -2
289
     1
 69
     0
  0
DICTIONARYVAR
  5
18F8
102
{ACAD_REACTORS
330
18F7
102
}
330
18F7
100
DictionaryVariables
280
     0
  1
STANDARD
  0
DICTIONARYVAR
  5
5E47
102
{ACAD_REACTORS
330
18F7
102
}
330
18F7
100
DictionaryVariables
280
     0
  1
1
  0
DICTIONARYVAR
  5
5E48
102
{ACAD_REACTORS
330
18F7
102
}
330
18F7
100
DictionaryVariables
280
     0
  1

  0
DICTIONARY
  5
5E4D
330
22
100
AcDbDictionary
280
     1
281
     1
  3
ACAD_XREC_ROUNDTRIP
360
5E4E
  0
DICTIONARY
  5
5E4B
330
1E
100
AcDbDictionary
280
     1
281
     1
  3
ACAD_XREC_ROUNDTRIP
360
5E4C
  0
DICTIONARY
  5
5E4F
330
26
100
AcDbDictionary
280
     1
281
     1
  3
ACAD_XREC_ROUNDTRIP
360
5E50
  0
XRECORD
  5
5E4E
102
{ACAD_REACTORS
330
5E4D
102
}
330
5E4D
100
AcDbXrecord
280
     1
102
SHADEPLOT
 70
     0
102
SHADEPLOTRESLEVEL
 70
     2
102
SHADEPLOTCUSTOMDPI
 70
   300
  0
XRECORD
  5
5E4C
102
{ACAD_REACTORS
330
5E4B
102
}
330
5E4B
100
AcDbXrecord
280
     1
102
SHADEPLOT
 70
     0
102
SHADEPLOTRESLEVEL
 70
     2
102
SHADEPLOTCUSTOMDPI
 70
   300
  0
XRECORD
  5
5E50
102
{ACAD_REACTORS
330
5E4F
102
}
330
5E4F
100
AcDbXrecord
280
     1
102
SHADEPLOT
 70
     0
102
SHADEPLOTRESLEVEL
 70
     2
102
SHADEPLOTCUSTOMDPI
 70
   300
  0
ENDSEC
  0
EOF
