  0
SECTION
  2
HEADER
  9
$ACADVER
  1
AC1015
  9
$ACADMAINTVER
 70
    20
  9
$DWGCODEPAGE
  3
ANSI_932
  9
$INSBASE
 10
0.0
 20
0.0
 30
0.0
  9
$EXTMIN
 10
174.0
 20
3.999996119316222
 30
0.0
  9
$EXTMAX
 10
3103.565196520456
 20
2024.0
 30
0.0
  9
$LIMMIN
 10
54.0
 20
4.0
  9
$LIMMAX
 10
2834.0
 20
2024.0
  9
$ORTHOMODE
 70
     0
  9
$REGENMODE
 70
     1
  9
$FILLMODE
 70
     1
  9
$QTEXTMODE
 70
     0
  9
$MIRRTEXT
 70
     1
  9
$LTSCALE
 40
4.0
  9
$ATTMODE
 70
     1
  9
$TEXTSIZE
 40
30.0
  9
$TRACEWID
 40
1.0
  9
$TEXTSTYLE
  7
Standard
  9
$CLAYER
  8
実形
  9
$CELTYPE
  6
ByLayer
  9
$CECOLOR
 62
     3
  9
$CELTSCALE
 40
1.0
  9
$DISPSILH
 70
     0
  9
$DIMSCALE
 40
1.0
  9
$DIMASZ
 40
10.0
  9
$DIMEXO
 40
65.0
  9
$DIMDLI
 40
3.75
  9
$DIMRND
 40
0.0
  9
$DIMDLE
 40
0.0
  9
$DIMEXE
 40
0.0
  9
$DIMTP
 40
0.0
  9
$DIMTM
 40
0.0
  9
$DIMTXT
 40
30.0
  9
$DIMCEN
 40
2.5
  9
$DIMTSZ
 40
0.0
  9
$DIMTOL
 70
     0
  9
$DIMLIM
 70
     0
  9
$DIMTIH
 70
     0
  9
$DIMTOH
 70
     0
  9
$DIMSE1
 70
     0
  9
$DIMSE2
 70
     0
  9
$DIMTAD
 70
     1
  9
$DIMZIN
 70
     8
  9
$DIMBLK
  1
Dot
  9
$DIMASO
 70
     1
  9
$DIMSHO
 70
     1
  9
$DIMPOST
  1

  9
$DIMAPOST
  1

  9
$DIMALT
 70
     0
  9
$DIMALTD
 70
     3
  9
$DIMALTF
 40
0.03937007874016
  9
$DIMLFAC
 40
1.0
  9
$DIMTOFL
 70
     1
  9
$DIMTVP
 40
0.0
  9
$DIMTIX
 70
     0
  9
$DIMSOXD
 70
     0
  9
$DIMSAH
 70
     0
  9
$DIMBLK1
  1

  9
$DIMBLK2
  1

  9
$DIMSTYLE
  2
ISO-25
  9
$DIMCLRD
 70
     0
  9
$DIMCLRE
 70
     0
  9
$DIMCLRT
 70
     0
  9
$DIMTFAC
 40
1.0
  9
$DIMGAP
 40
6.599999999999998
  9
$DIMJUST
 70
     0
  9
$DIMSD1
 70
     0
  9
$DIMSD2
 70
     0
  9
$DIMTOLJ
 70
     0
  9
$DIMTZIN
 70
     8
  9
$DIMALTZ
 70
     0
  9
$DIMALTTZ
 70
     0
  9
$DIMUPT
 70
     0
  9
$DIMDEC
 70
     2
  9
$DIMTDEC
 70
     2
  9
$DIMALTU
 70
     2
  9
$DIMALTTD
 70
     3
  9
$DIMTXSTY
  7
Standard
  9
$DIMAUNIT
 70
     0
  9
$DIMADEC
 70
     0
  9
$DIMALTRND
 40
0.0
  9
$DIMAZIN
 70
     0
  9
$DIMDSEP
 70
    46
  9
$DIMATFIT
 70
     3
  9
$DIMFRAC
 70
     0
  9
$DIMLDRBLK
  1
Open30
  9
$DIMLUNIT
 70
     2
  9
$DIMLWD
 70
    18
  9
$DIMLWE
 70
    18
  9
$DIMTMOVE
 70
     2
  9
$LUNITS
 70
     2
  9
$LUPREC
 70
     2
  9
$SKETCHINC
 40
1.0
  9
$FILLETRAD
 40
50.0
  9
$AUNITS
 70
     0
  9
$AUPREC
 70
     0
  9
$MENU
  1
.
  9
$ELEVATION
 40
0.0
  9
$PELEVATION
 40
0.0
  9
$THICKNESS
 40
0.0
  9
$LIMCHECK
 70
     1
  9
$CHAMFERA
 40
10.0
  9
$CHAMFERB
 40
10.0
  9
$CHAMFERC
 40
20.0
  9
$CHAMFERD
 40
0.0
  9
$SKPOLY
 70
     0
  9
$TDCREATE
 40
2451673.575802199
  9
$TDUCREATE
 40
2451673.200802199
  9
$TDUPDATE
 40
2458813.762754004
  9
$TDUUPDATE
 40
2458813.387754005
  9
$TDINDWG
 40
4.7333333565
  9
$TDUSRTIMER
 40
4.7333326620
  9
$USRTIMER
 70
     1
  9
$ANGBASE
 50
0.0
  9
$ANGDIR
 70
     0
  9
$PDMODE
 70
     0
  9
$PDSIZE
 40
0.0
  9
$PLINEWID
 40
0.0
  9
$SPLFRAME
 70
     0
  9
$SPLINETYPE
 70
     6
  9
$SPLINESEGS
 70
     8
  9
$HANDSEED
  5
B7DC
  9
$SURFTAB1
 70
     6
  9
$SURFTAB2
 70
     6
  9
$SURFTYPE
 70
     6
  9
$SURFU
 70
     6
  9
$SURFV
 70
     6
  9
$UCSBASE
  2

  9
$UCSNAME
  2

  9
$UCSORG
 10
0.0
 20
0.0
 30
0.0
  9
$UCSXDIR
 10
1.0
 20
0.0
 30
0.0
  9
$UCSYDIR
 10
0.0
 20
1.0
 30
0.0
  9
$UCSORTHOREF
  2

  9
$UCSORTHOVIEW
 70
     0
  9
$UCSORGTOP
 10
0.0
 20
0.0
 30
0.0
  9
$UCSORGBOTTOM
 10
0.0
 20
0.0
 30
0.0
  9
$UCSORGLEFT
 10
0.0
 20
0.0
 30
0.0
  9
$UCSORGRIGHT
 10
0.0
 20
0.0
 30
0.0
  9
$UCSORGFRONT
 10
0.0
 20
0.0
 30
0.0
  9
$UCSORGBACK
 10
0.0
 20
0.0
 30
0.0
  9
$PUCSBASE
  2

  9
$PUCSNAME
  2

  9
$PUCSORG
 10
0.0
 20
0.0
 30
0.0
  9
$PUCSXDIR
 10
1.0
 20
0.0
 30
0.0
  9
$PUCSYDIR
 10
0.0
 20
1.0
 30
0.0
  9
$PUCSORTHOREF
  2

  9
$PUCSORTHOVIEW
 70
     0
  9
$PUCSORGTOP
 10
0.0
 20
0.0
 30
0.0
  9
$PUCSORGBOTTOM
 10
0.0
 20
0.0
 30
0.0
  9
$PUCSORGLEFT
 10
0.0
 20
0.0
 30
0.0
  9
$PUCSORGRIGHT
 10
0.0
 20
0.0
 30
0.0
  9
$PUCSORGFRONT
 10
0.0
 20
0.0
 30
0.0
  9
$PUCSORGBACK
 10
0.0
 20
0.0
 30
0.0
  9
$USERI1
 70
     0
  9
$USERI2
 70
     0
  9
$USERI3
 70
     0
  9
$USERI4
 70
     0
  9
$USERI5
 70
     0
  9
$USERR1
 40
0.0
  9
$USERR2
 40
0.0
  9
$USERR3
 40
0.0
  9
$USERR4
 40
0.0
  9
$USERR5
 40
0.0
  9
$WORLDVIEW
 70
     1
  9
$SHADEDGE
 70
     3
  9
$SHADEDIF
 70
    70
  9
$TILEMODE
 70
     1
  9
$MAXACTVP
 70
    64
  9
$PINSBASE
 10
0.0
 20
0.0
 30
0.0
  9
$PLIMCHECK
 70
     0
  9
$PEXTMIN
 10
27.8447512626648
 20
20.24591643810271
 30
0.0
  9
$PEXTMAX
 10
250.6027613639831
 20
182.2132479429245
 30
0.0
  9
$PLIMMIN
 10
-3.757080078125
 20
-3.757083177566528
  9
$PLIMMAX
 10
293.2112426757813
 20
206.2162444591522
  9
$UNITMODE
 70
     0
  9
$VISRETAIN
 70
     1
  9
$PLINEGEN
 70
     0
  9
$PSLTSCALE
 70
     1
  9
$TREEDEPTH
 70
  3020
  9
$CMLSTYLE
  2
Standard
  9
$CMLJUST
 70
     0
  9
$CMLSCALE
 40
20.0
  9
$PROXYGRAPHICS
 70
     1
  9
$MEASUREMENT
 70
     1
  9
$CELWEIGHT
370
    -1
  9
$ENDCAPS
280
     0
  9
$JOINSTYLE
280
     0
  9
$LWDISPLAY
290
     0
  9
$INSUNITS
 70
     4
  9
$HYPERLINKBASE
  1

  9
$STYLESHEET
  1

  9
$XEDIT
290
     1
  9
$CEPSNTYPE
380
     0
  9
$PSTYLEMODE
290
     1
  9
$FINGERPRINTGUID
  2
{C8EA1F16-24C9-11D4-9416-CE0A3B32152F}
  9
$VERSIONGUID
  2
{997A9BE9-257C-4A29-9B30-0695E2B698EE}
  9
$EXTNAMES
290
     1
  9
$PSVPSCALE
 40
0.0
  9
$OLESTARTUP
290
     0
  0
ENDSEC
  0
SECTION
  2
CLASSES
  0
CLASS
  1
ACDBDICTIONARYWDFLT
  2
AcDbDictionaryWithDefault
  3
ObjectDBX Classes
 90
        0
280
     0
281
     0
  0
CLASS
  1
ACDBPLACEHOLDER
  2
AcDbPlaceHolder
  3
ObjectDBX Classes
 90
        0
280
     0
281
     0
  0
CLASS
  1
LAYOUT
  2
AcDbLayout
  3
ObjectDBX Classes
 90
        0
280
     0
281
     0
  0
CLASS
  1
DICTIONARYVAR
  2
AcDbDictionaryVar
  3
ObjectDBX Classes
 90
        0
280
     0
281
     0
  0
CLASS
  1
TABLESTYLE
  2
AcDbTableStyle
  3
ObjectDBX Classes
 90
     2047
280
     0
281
     0
  0
CLASS
  1
SORTENTSTABLE
  2
AcDbSortentsTable
  3
ObjectDBX Classes
 90
        0
280
     0
281
     0
  0
ENDSEC
  0
SECTION
  2
TABLES
  0
TABLE
  2
VPORT
  5
8
330
0
100
AcDbSymbolTable
 70
     2
  0
VPORT
  5
B7CF
330
8
100
AcDbSymbolTableRecord
100
AcDbViewportTableRecord
  2
*Active
 70
     0
 10
0.0
 20
0.0
 11
1.0
 21
1.0
 12
1658.526535230422
 22
1010.446464122916
 13
0.0
 23
0.0
 14
10.0
 24
10.0
 15
10.0
 25
10.0
 16
0.0
 26
0.0
 36
1.0
 17
0.0
 27
0.0
 37
0.0
 40
2523.691568690878
 41
1.29038112522686
 42
50.0
 43
0.0
 44
0.0
 50
0.0
 51
0.0
 71
     0
 72
   100
 73
     1
 74
     3
 75
     0
 76
     0
 77
     0
 78
     0
281
     0
 65
     1
110
0.0
120
0.0
130
0.0
111
1.0
121
0.0
131
0.0
112
0.0
122
1.0
132
0.0
 79
     0
146
0.0
  0
ENDTAB
  0
TABLE
  2
LTYPE
  5
5
330
0
100
AcDbSymbolTable
 70
    46
  0
LTYPE
  5
14
330
5
100
AcDbSymbolTableRecord
100
AcDbLinetypeTableRecord
  2
ByBlock
 70
     0
  3

 72
    65
 73
     0
 40
0.0
  0
LTYPE
  5
15
330
5
100
AcDbSymbolTableRecord
100
AcDbLinetypeTableRecord
  2
ByLayer
 70
     0
  3

 72
    65
 73
     0
 40
0.0
  0
LTYPE
  5
16
330
5
100
AcDbSymbolTableRecord
100
AcDbLinetypeTableRecord
  2
Continuous
 70
     0
  3
Solid line
 72
    65
 73
     0
 40
0.0
  0
LTYPE
  5
34
330
5
100
AcDbSymbolTableRecord
100
AcDbLinetypeTableRecord
  2
ACAD_ISO02W100
 70
     0
  3
ISO dash __ __ __ __ __ __ __ __ __ __ __ __ __
 72
    65
 73
     2
 40
15.0
 49
12.0
 74
     0
 49
-3.0
 74
     0
  0
LTYPE
  5
35
330
5
100
AcDbSymbolTableRecord
100
AcDbLinetypeTableRecord
  2
ACAD_ISO03W100
 70
     0
  3
ISO dash space __    __    __    __    __    __
 72
    65
 73
     2
 40
30.0
 49
12.0
 74
     0
 49
-18.0
 74
     0
  0
LTYPE
  5
36
330
5
100
AcDbSymbolTableRecord
100
AcDbLinetypeTableRecord
  2
ACAD_ISO04W100
 70
     0
  3
ISO long-dash dot ____ . ____ . ____ . ____ . _
 72
    65
 73
     4
 40
30.0
 49
24.0
 74
     0
 49
-3.0
 74
     0
 49
0.0
 74
     0
 49
-3.0
 74
     0
  0
LTYPE
  5
37
330
5
100
AcDbSymbolTableRecord
100
AcDbLinetypeTableRecord
  2
ACAD_ISO05W100
 70
     0
  3
ISO long-dash double-dot ____ .. ____ .. ____ .
 72
    65
 73
     6
 40
34.0
 49
24.0
 74
     0
 49
-3.0
 74
     0
 49
0.5
 74
     0
 49
-3.0
 74
     0
 49
0.5
 74
     0
 49
-3.0
 74
     0
  0
LTYPE
  5
38
330
5
100
AcDbSymbolTableRecord
100
AcDbLinetypeTableRecord
  2
ACAD_ISO06W100
 70
     0
  3
ISO long-dash triple-dot ____ ... ____ ... ____
 72
    65
 73
     8
 40
37.5
 49
24.0
 74
     0
 49
-3.0
 74
     0
 49
0.5
 74
     0
 49
-3.0
 74
     0
 49
0.5
 74
     0
 49
-3.0
 74
     0
 49
0.5
 74
     0
 49
-3.0
 74
     0
  0
LTYPE
  5
39
330
5
100
AcDbSymbolTableRecord
100
AcDbLinetypeTableRecord
  2
ACAD_ISO07W100
 70
     0
  3
ISO dot . . . . . . . . . . . . . . . . . . . .
 72
    65
 73
     2
 40
3.0
 49
0.0
 74
     0
 49
-3.0
 74
     0
  0
LTYPE
  5
3A
330
5
100
AcDbSymbolTableRecord
100
AcDbLinetypeTableRecord
  2
ACAD_ISO08W100
 70
     0
  3
ISO long-dash short-dash ____ __ ____ __ ____ _
 72
    65
 73
     4
 40
36.0
 49
24.0
 74
     0
 49
-3.0
 74
     0
 49
6.0
 74
     0
 49
-3.0
 74
     0
  0
LTYPE
  5
3B
330
5
100
AcDbSymbolTableRecord
100
AcDbLinetypeTableRecord
  2
ACAD_ISO09W100
 70
     0
  3
ISO long-dash double-short-dash ____ __ __ ____
 72
    65
 73
     6
 40
45.0
 49
24.0
 74
     0
 49
-3.0
 74
     0
 49
6.0
 74
     0
 49
-3.0
 74
     0
 49
6.0
 74
     0
 49
-3.0
 74
     0
  0
LTYPE
  5
3C
330
5
100
AcDbSymbolTableRecord
100
AcDbLinetypeTableRecord
  2
ACAD_ISO10W100
 70
     0
  3
ISO dash dot __ . __ . __ . __ . __ . __ . __ .
 72
    65
 73
     4
 40
18.0
 49
12.0
 74
     0
 49
-3.0
 74
     0
 49
0.0
 74
     0
 49
-3.0
 74
     0
  0
LTYPE
  5
3D
330
5
100
AcDbSymbolTableRecord
100
AcDbLinetypeTableRecord
  2
ACAD_ISO11W100
 70
     0
  3
ISO double-dash dot __ __ . __ __ . __ __ . __ 
 72
    65
 73
     6
 40
33.0
 49
12.0
 74
     0
 49
-3.0
 74
     0
 49
12.0
 74
     0
 49
-3.0
 74
     0
 49
0.0
 74
     0
 49
-3.0
 74
     0
  0
LTYPE
  5
3E
330
5
100
AcDbSymbolTableRecord
100
AcDbLinetypeTableRecord
  2
ACAD_ISO12W100
 70
     0
  3
ISO dash double-dot __ . . __ . . __ . . __ . .
 72
    65
 73
     6
 40
21.0
 49
12.0
 74
     0
 49
-3.0
 74
     0
 49
0.0
 74
     0
 49
-3.0
 74
     0
 49
0.0
 74
     0
 49
-3.0
 74
     0
  0
LTYPE
  5
3F
330
5
100
AcDbSymbolTableRecord
100
AcDbLinetypeTableRecord
  2
ACAD_ISO13W100
 70
     0
  3
ISO double-dash double-dot __ __ . . __ __ . . 
 72
    65
 73
     8
 40
36.0
 49
12.0
 74
     0
 49
-3.0
 74
     0
 49
12.0
 74
     0
 49
-3.0
 74
     0
 49
0.0
 74
     0
 49
-3.0
 74
     0
 49
0.0
 74
     0
 49
-3.0
 74
     0
  0
LTYPE
  5
40
330
5
100
AcDbSymbolTableRecord
100
AcDbLinetypeTableRecord
  2
ACAD_ISO14W100
 70
     0
  3
ISO dash triple-dot __ . . . __ . . . __ . . . 
 72
    65
 73
     8
 40
24.0
 49
12.0
 74
     0
 49
-3.0
 74
     0
 49
0.0
 74
     0
 49
-3.0
 74
     0
 49
0.0
 74
     0
 49
-3.0
 74
     0
 49
0.0
 74
     0
 49
-3.0
 74
     0
  0
LTYPE
  5
41
330
5
100
AcDbSymbolTableRecord
100
AcDbLinetypeTableRecord
  2
ACAD_ISO15W100
 70
     0
  3
ISO double-dash triple-dot __ __ . . . __ __ . 
 72
    65
 73
    10
 40
39.0
 49
12.0
 74
     0
 49
-3.0
 74
     0
 49
12.0
 74
     0
 49
-3.0
 74
     0
 49
0.0
 74
     0
 49
-3.0
 74
     0
 49
0.0
 74
     0
 49
-3.0
 74
     0
 49
0.0
 74
     0
 49
-3.0
 74
     0
  0
LTYPE
  5
42
330
5
100
AcDbSymbolTableRecord
100
AcDbLinetypeTableRecord
  2
BATTING
 70
     0
  3
Batting SSSSSSSSSSSSSSSSSSSSSSSSSSSSSSSSSSSSSSS
 72
    65
 73
     4
 40
10.16254
 49
0.00254
 74
     0
 49
-2.54
 74
     4
 75
   134
340
33
 46
2.54
 50
0.0
 44
-2.54
 45
0.0
 49
-5.08
 74
     4
 75
   134
340
33
 46
2.54
 50
180.0
 44
2.54
 45
0.0
 49
-2.54
 74
     0
  0
LTYPE
  5
43
330
5
100
AcDbSymbolTableRecord
100
AcDbLinetypeTableRecord
  2
BORDER
 70
     0
  3
Border __ __ . __ __ . __ __ . __ __ . __ __ .
 72
    65
 73
     6
 40
44.45
 49
12.7
 74
     0
 49
-6.349999999999999
 74
     0
 49
12.7
 74
     0
 49
-6.349999999999999
 74
     0
 49
0.0
 74
     0
 49
-6.349999999999999
 74
     0
  0
LTYPE
  5
44
330
5
100
AcDbSymbolTableRecord
100
AcDbLinetypeTableRecord
  2
BORDER2
 70
     0
  3
Border (.5x) __.__.__.__.__.__.__.__.__.__.__.
 72
    65
 73
     6
 40
22.225
 49
6.349999999999999
 74
     0
 49
-3.174999999999999
 74
     0
 49
6.349999999999999
 74
     0
 49
-3.174999999999999
 74
     0
 49
0.0
 74
     0
 49
-3.174999999999999
 74
     0
  0
LTYPE
  5
45
330
5
100
AcDbSymbolTableRecord
100
AcDbLinetypeTableRecord
  2
BORDERX2
 70
     0
  3
Border (2x) ____  ____  .  ____  ____  .  ___
 72
    65
 73
     6
 40
88.9
 49
25.4
 74
     0
 49
-12.7
 74
     0
 49
25.4
 74
     0
 49
-12.7
 74
     0
 49
0.0
 74
     0
 49
-12.7
 74
     0
  0
LTYPE
  5
46
330
5
100
AcDbSymbolTableRecord
100
AcDbLinetypeTableRecord
  2
CENTER
 70
     0
  3
Center ____ _ ____ _ ____ _ ____ _ ____ _ ____
 72
    65
 73
     4
 40
50.8
 49
31.75
 74
     0
 49
-6.349999999999999
 74
     0
 49
6.349999999999999
 74
     0
 49
-6.349999999999999
 74
     0
  0
LTYPE
  5
47
330
5
100
AcDbSymbolTableRecord
100
AcDbLinetypeTableRecord
  2
CENTER2
 70
     0
  3
Center (.5x) ___ _ ___ _ ___ _ ___ _ ___ _ ___
 72
    65
 73
     4
 40
28.575
 49
19.05
 74
     0
 49
-3.174999999999999
 74
     0
 49
3.174999999999999
 74
     0
 49
-3.174999999999999
 74
     0
  0
LTYPE
  5
48
330
5
100
AcDbSymbolTableRecord
100
AcDbLinetypeTableRecord
  2
CENTERX2
 70
     0
  3
Center (2x) ________  __  ________  __  _____
 72
    65
 73
     4
 40
101.6
 49
63.5
 74
     0
 49
-12.7
 74
     0
 49
12.7
 74
     0
 49
-12.7
 74
     0
  0
LTYPE
  5
49
330
5
100
AcDbSymbolTableRecord
100
AcDbLinetypeTableRecord
  2
DASHDOT
 70
     0
  3
Dash dot __ . __ . __ . __ . __ . __ . __ . __
 72
    65
 73
     4
 40
25.4
 49
12.7
 74
     0
 49
-6.349999999999999
 74
     0
 49
0.0
 74
     0
 49
-6.349999999999999
 74
     0
  0
LTYPE
  5
4A
330
5
100
AcDbSymbolTableRecord
100
AcDbLinetypeTableRecord
  2
DASHDOT2
 70
     0
  3
Dash dot (.5x) _._._._._._._._._._._._._._._.
 72
    65
 73
     4
 40
12.7
 49
6.349999999999999
 74
     0
 49
-3.174999999999999
 74
     0
 49
0.0
 74
     0
 49
-3.174999999999999
 74
     0
  0
LTYPE
  5
4B
330
5
100
AcDbSymbolTableRecord
100
AcDbLinetypeTableRecord
  2
DASHDOTX2
 70
     0
  3
Dash dot (2x) ____  .  ____  .  ____  .  ___
 72
    65
 73
     4
 40
50.8
 49
25.4
 74
     0
 49
-12.7
 74
     0
 49
0.0
 74
     0
 49
-12.7
 74
     0
  0
LTYPE
  5
4C
330
5
100
AcDbSymbolTableRecord
100
AcDbLinetypeTableRecord
  2
DASHED
 70
     0
  3
Dashed __ __ __ __ __ __ __ __ __ __ __ __ __ _
 72
    65
 73
     2
 40
19.05
 49
12.7
 74
     0
 49
-6.349999999999999
 74
     0
  0
LTYPE
  5
4D
330
5
100
AcDbSymbolTableRecord
100
AcDbLinetypeTableRecord
  2
DASHED2
 70
     0
  3
Dashed (.5x) _ _ _ _ _ _ _ _ _ _ _ _ _ _ _ _ _
 72
    65
 73
     2
 40
9.524999999999998
 49
6.349999999999999
 74
     0
 49
-3.174999999999999
 74
     0
  0
LTYPE
  5
4E
330
5
100
AcDbSymbolTableRecord
100
AcDbLinetypeTableRecord
  2
DASHEDX2
 70
     0
  3
Dashed (2x) ____  ____  ____  ____  ____  ___
 72
    65
 73
     2
 40
38.1
 49
25.4
 74
     0
 49
-12.7
 74
     0
  0
LTYPE
  5
4F
330
5
100
AcDbSymbolTableRecord
100
AcDbLinetypeTableRecord
  2
DIVIDE
 70
     0
  3
Divide ____ . . ____ . . ____ . . ____ . . ____
 72
    65
 73
     6
 40
31.75
 49
12.7
 74
     0
 49
-6.349999999999999
 74
     0
 49
0.0
 74
     0
 49
-6.349999999999999
 74
     0
 49
0.0
 74
     0
 49
-6.349999999999999
 74
     0
  0
LTYPE
  5
50
330
5
100
AcDbSymbolTableRecord
100
AcDbLinetypeTableRecord
  2
DIVIDE2
 70
     0
  3
Divide (.5x) __..__..__..__..__..__..__..__.._
 72
    65
 73
     6
 40
15.875
 49
6.349999999999999
 74
     0
 49
-3.174999999999999
 74
     0
 49
0.0
 74
     0
 49
-3.174999999999999
 74
     0
 49
0.0
 74
     0
 49
-3.174999999999999
 74
     0
  0
LTYPE
  5
51
330
5
100
AcDbSymbolTableRecord
100
AcDbLinetypeTableRecord
  2
DIVIDEX2
 70
     0
  3
Divide (2x) ________  .  .  ________  .  .  _
 72
    65
 73
     6
 40
63.49999999999999
 49
25.4
 74
     0
 49
-12.7
 74
     0
 49
0.0
 74
     0
 49
-12.7
 74
     0
 49
0.0
 74
     0
 49
-12.7
 74
     0
  0
LTYPE
  5
52
330
5
100
AcDbSymbolTableRecord
100
AcDbLinetypeTableRecord
  2
DOT
 70
     0
  3
Dot . . . . . . . . . . . . . . . . . . . . . .
 72
    65
 73
     2
 40
6.349999999999999
 49
0.0
 74
     0
 49
-6.349999999999999
 74
     0
  0
LTYPE
  5
53
330
5
100
AcDbSymbolTableRecord
100
AcDbLinetypeTableRecord
  2
DOT2
 70
     0
  3
Dot (.5x) .....................................
 72
    65
 73
     2
 40
3.174999999999999
 49
0.0
 74
     0
 49
-3.174999999999999
 74
     0
  0
LTYPE
  5
54
330
5
100
AcDbSymbolTableRecord
100
AcDbLinetypeTableRecord
  2
DOTX2
 70
     0
  3
Dot (2x) .  .  .  .  .  .  .  .  .  .  .  .  . 
 72
    65
 73
     2
 40
12.7
 49
0.0
 74
     0
 49
-12.7
 74
     0
  0
LTYPE
  5
55
330
5
100
AcDbSymbolTableRecord
100
AcDbLinetypeTableRecord
  2
FENCELINE1
 70
     0
  3
Fenceline circle ----0-----0----0-----0----0---
 72
    65
 73
     4
 40
36.83
 49
6.349999999999999
 74
     0
 49
-2.54
 74
     4
 75
   133
340
33
 46
2.54
 50
0.0
 44
-2.54
 45
0.0
 49
-2.54
 74
     0
 49
25.4
 74
     0
  0
LTYPE
  5
56
330
5
100
AcDbSymbolTableRecord
100
AcDbLinetypeTableRecord
  2
FENCELINE2
 70
     0
  3
Fenceline square ----[]-----[]----[]-----[]----
 72
    65
 73
     4
 40
36.83
 49
6.349999999999999
 74
     0
 49
-2.54
 74
     4
 75
   132
340
33
 46
2.54
 50
0.0
 44
-2.54
 45
0.0
 49
-2.54
 74
     0
 49
25.4
 74
     0
  0
LTYPE
  5
57
330
5
100
AcDbSymbolTableRecord
100
AcDbLinetypeTableRecord
  2
GAS_LINE
 70
     0
  3
Gas line ----GAS----GAS----GAS----GAS----GAS---
 72
    65
 73
     3
 40
24.13
 49
12.7
 74
     0
 49
-5.08
 74
     2
 75
     0
340
11
 46
2.54
 50
0.0
 44
-2.54
 45
-1.27
  9
GAS
 49
-6.349999999999999
 74
     0
  0
LTYPE
  5
58
330
5
100
AcDbSymbolTableRecord
100
AcDbLinetypeTableRecord
  2
HIDDEN
 70
     0
  3
Hidden __ __ __ __ __ __ __ __ __ __ __ __ __ _
 72
    65
 73
     2
 40
9.524999999999998
 49
6.349999999999999
 74
     0
 49
-3.174999999999999
 74
     0
  0
LTYPE
  5
59
330
5
100
AcDbSymbolTableRecord
100
AcDbLinetypeTableRecord
  2
HIDDEN2
 70
     0
  3
Hidden (.5x) _ _ _ _ _ _ _ _ _ _ _ _ _ _ _ _ _
 72
    65
 73
     2
 40
4.762499999999999
 49
3.174999999999999
 74
     0
 49
-1.587499999999999
 74
     0
  0
LTYPE
  5
5A
330
5
100
AcDbSymbolTableRecord
100
AcDbLinetypeTableRecord
  2
HIDDENX2
 70
     0
  3
Hidden (2x) ____ ____ ____ ____ ____ ____ ____
 72
    65
 73
     2
 40
19.05
 49
12.7
 74
     0
 49
-6.349999999999999
 74
     0
  0
LTYPE
  5
5B
330
5
100
AcDbSymbolTableRecord
100
AcDbLinetypeTableRecord
  2
HOT_WATER_SUPPLY
 70
     0
  3
Hot water supply ---- HW ---- HW ---- HW ----
 72
    65
 73
     3
 40
22.86
 49
12.7
 74
     0
 49
-5.08
 74
     2
 75
     0
340
11
 46
2.54
 50
0.0
 44
-2.54
 45
-1.27
  9
HW
 49
-5.08
 74
     0
  0
LTYPE
  5
5C
330
5
100
AcDbSymbolTableRecord
100
AcDbLinetypeTableRecord
  2
PHANTOM
 70
     0
  3
Phantom ______  __  __  ______  __  __  ______
 72
    65
 73
     6
 40
63.5
 49
31.75
 74
     0
 49
-6.349999999999999
 74
     0
 49
6.349999999999999
 74
     0
 49
-6.349999999999999
 74
     0
 49
6.349999999999999
 74
     0
 49
-6.349999999999999
 74
     0
  0
LTYPE
  5
5D
330
5
100
AcDbSymbolTableRecord
100
AcDbLinetypeTableRecord
  2
PHANTOM2
 70
     0
  3
Phantom (.5x) ___ _ _ ___ _ _ ___ _ _ ___ _ _
 72
    65
 73
     6
 40
31.75
 49
15.875
 74
     0
 49
-3.174999999999999
 74
     0
 49
3.174999999999999
 74
     0
 49
-3.174999999999999
 74
     0
 49
3.174999999999999
 74
     0
 49
-3.174999999999999
 74
     0
  0
LTYPE
  5
5E
330
5
100
AcDbSymbolTableRecord
100
AcDbLinetypeTableRecord
  2
PHANTOMX2
 70
     0
  3
Phantom (2x) ____________    ____    ____   _
 72
    65
 73
     6
 40
127.0
 49
63.5
 74
     0
 49
-12.7
 74
     0
 49
12.7
 74
     0
 49
-12.7
 74
     0
 49
12.7
 74
     0
 49
-12.7
 74
     0
  0
LTYPE
  5
5F
330
5
100
AcDbSymbolTableRecord
100
AcDbLinetypeTableRecord
  2
TRACKS
 70
     0
  3
Tracks -|-|-|-|-|-|-|-|-|-|-|-|-|-|-|-|-|-|-|-|
 72
    65
 73
     2
 40
7.62
 49
3.81
 74
     4
 75
   130
340
33
 46
6.349999999999999
 50
0.0
 44
0.0
 45
0.0
 49
3.81
 74
     0
  0
LTYPE
  5
60
330
5
100
AcDbSymbolTableRecord
100
AcDbLinetypeTableRecord
  2
ZIGZAG
 70
     0
  3
Zig zag /\/\/\/\/\/\/\/\/\/\/\/\/\/\/\/\/\/\/\/
 72
    65
 73
     4
 40
20.32254
 49
0.00254
 74
     0
 49
-5.08
 74
     4
 75
   131
340
33
 46
5.08
 50
0.0
 44
-5.08
 45
0.0
 49
-10.16
 74
     4
 75
   131
340
33
 46
5.08
 50
180.0
 44
5.08
 45
0.0
 49
-5.08
 74
     0
  0
ENDTAB
  0
TABLE
  2
LAYER
  5
2
102
{ACAD_XDICTIONARY
360
24C4
102
}
330
0
100
AcDbSymbolTable
 70
     9
  0
LAYER
  5
10
330
2
100
AcDbSymbolTableRecord
100
AcDbLayerTableRecord
  2
0
 70
     0
 62
     7
  6
Continuous
290
     0
370
    -3
390
F
  0
LAYER
  5
C3
330
2
100
AcDbSymbolTableRecord
100
AcDbLayerTableRecord
  2
Defpoints
 70
     0
 62
     7
  6
Continuous
290
     0
370
    -3
390
F
  0
LAYER
  5
256
330
2
100
AcDbSymbolTableRecord
100
AcDbLayerTableRecord
  2
センター
 70
     0
 62
     7
  6
CENTER2
370
    18
390
F
  0
LAYER
  5
268
330
2
100
AcDbSymbolTableRecord
100
AcDbLayerTableRecord
  2
実形
 70
     0
 62
     7
  6
Continuous
370
    -3
390
F
  0
LAYER
  5
269
330
2
100
AcDbSymbolTableRecord
100
AcDbLayerTableRecord
  2
補助
 70
     0
 62
     4
  6
Continuous
370
    -3
390
F
  0
LAYER
  5
26A
330
2
100
AcDbSymbolTableRecord
100
AcDbLayerTableRecord
  2
寸法
 70
     0
 62
     7
  6
Continuous
370
    18
390
F
  0
LAYER
  5
26B
330
2
100
AcDbSymbolTableRecord
100
AcDbLayerTableRecord
  2
ハッチング
 70
     0
 62
     7
  6
Continuous
370
    18
390
F
  0
LAYER
  5
26D
330
2
100
AcDbSymbolTableRecord
100
AcDbLayerTableRecord
  2
枠
 70
     0
 62
     7
  6
Continuous
370
    -3
390
F
  0
LAYER
  5
1B3D
330
2
100
AcDbSymbolTableRecord
100
AcDbLayerTableRecord
  2
Cen
 70
     0
 62
     7
  6
CENTER2
290
     0
370
    15
390
F
  0
ENDTAB
  0
TABLE
  2
STYLE
  5
3
330
0
100
AcDbSymbolTable
 70
     4
  0
STYLE
  5
11
330
3
100
AcDbSymbolTableRecord
100
AcDbTextStyleTableRecord
  2
Standard
 70
     0
 40
0.0
 41
1.0
 50
0.0
 71
     0
 42
30.0
  3
txt.shx
  4
bigfont.shx
  0
STYLE
  5
33
330
3
100
AcDbSymbolTableRecord
100
AcDbTextStyleTableRecord
  2

 70
     1
 40
0.0
 41
1.0
 50
0.0
 71
     0
 42
2.5
  3
ltypeshp.shx
  4

  0
STYLE
  5
35E2
330
3
100
AcDbSymbolTableRecord
100
AcDbTextStyleTableRecord
  2
ms明朝
 70
     0
 40
0.0
 41
1.0
 50
0.0
 71
     0
 42
25.0
  3
MS Mincho.ttf
  4

1001
ACAD
1000
MS Mincho
1071
    32785
  0
STYLE
  5
7F78
330
3
100
AcDbSymbolTableRecord
100
AcDbTextStyleTableRecord
  2
明朝
 70
     0
 40
0.0
 41
1.0
 50
0.0
 71
     0
 42
25.0
  3
MS Mincho.ttf
  4

1001
ACAD
1000
MS Mincho
1071
    32785
  0
ENDTAB
  0
TABLE
  2
VIEW
  5
6
330
0
100
AcDbSymbolTable
 70
     0
  0
ENDTAB
  0
TABLE
  2
UCS
  5
7
330
0
100
AcDbSymbolTable
 70
     0
  0
ENDTAB
  0
TABLE
  2
APPID
  5
9
330
0
100
AcDbSymbolTable
 70
     2
  0
APPID
  5
12
330
9
100
AcDbSymbolTableRecord
100
AcDbRegAppTableRecord
  2
ACAD
 70
     0
  0
APPID
  5
24C3
330
9
100
AcDbSymbolTableRecord
100
AcDbRegAppTableRecord
  2
ACAD_PSEXT
 70
     0
  0
ENDTAB
  0
TABLE
  2
DIMSTYLE
  5
A
330
0
100
AcDbSymbolTable
 70
     1
100
AcDbDimStyleTable
 71
     1
340
27
  0
DIMSTYLE
105
27
102
{ACAD_REACTORS
330
8DDC
330
9416
330
9417
330
9419
330
941A
330
941E
330
941F
330
9422
330
9423
330
9426
330
942E
330
942F
330
943F
330
971E
330
972B
330
976F
330
97A0
330
9819
330
9826
330
9858
330
9880
330
9F6A
330
9F6B
330
9F6D
330
9F6E
330
9F72
330
9F73
330
9F76
330
9F77
330
9F7A
330
9F82
330
9F83
330
9F93
330
A2E9
330
A2EA
330
A2EB
330
A2EC
330
A49B
330
A4A7
330
A4A8
330
A4A9
330
A4AC
330
A4AD
330
A4AE
330
A59E
330
A65B
330
ABC8
330
AD42
330
AF7B
102
}
330
A
100
AcDbSymbolTableRecord
100
AcDbDimStyleTableRecord
  2
ISO-25
 70
     0
 41
35.0
 42
65.0
 43
3.75
 44
0.0
 73
     0
 74
     0
 77
     1
 78
     8
140
25.0
141
2.5
143
0.03937007874016
147
6.25
171
     3
172
     1
271
     2
272
     2
274
     3
283
     0
284
     8
340
11
341
DA
342
D0
371
    15
372
    15
  0
ENDTAB
  0
TABLE
  2
BLOCK_RECORD
  5
1
330
0
100
AcDbSymbolTable
 70
    69
  0
BLOCK_RECORD
  5
1F
102
{ACAD_XDICTIONARY
360
2396
102
}
330
1
100
AcDbSymbolTableRecord
100
AcDbBlockTableRecord
  2
*Model_Space
340
22
  0
BLOCK_RECORD
  5
1B
330
1
100
AcDbSymbolTableRecord
100
AcDbBlockTableRecord
  2
*Paper_Space
340
1E
  0
BLOCK_RECORD
  5
23
330
1
100
AcDbSymbolTableRecord
100
AcDbBlockTableRecord
  2
*Paper_Space0
340
26
  0
BLOCK_RECORD
  5
D0
330
1
100
AcDbSymbolTableRecord
100
AcDbBlockTableRecord
  2
_DotSmall
340
0
102
{BLKREFS
331
A070
331
A071
331
A1BB
331
A1BC
331
A1C4
331
A1C5
331
A1CD
331
A1CE
331
A1D6
331
A1D7
331
A1F1
331
A1F2
331
A1FA
331
A1FB
331
A203
331
A204
331
A20C
331
A20D
331
A215
331
A216
331
A21E
331
A21F
331
AD94
331
AD95
331
ADFE
331
ADFF
331
AF6C
331
AF6D
331
B075
331
B076
331
B087
331
B088
331
B090
331
B091
331
B0A2
331
B0A3
331
B0BD
331
B0BE
331
B0EB
331
B0EC
331
B0F4
331
B0F5
331
B158
331
B159
331
B166
331
B167
331
B170
331
B171
331
B179
331
B17A
331
B182
331
B183
331
B18B
331
B18C
102
}
  0
BLOCK_RECORD
  5
D4
330
1
100
AcDbSymbolTableRecord
100
AcDbBlockTableRecord
  2
_Origin2
340
0
  0
BLOCK_RECORD
  5
DA
330
1
100
AcDbSymbolTableRecord
100
AcDbBlockTableRecord
  2
_Open30
340
0
  0
BLOCK_RECORD
  5
2D6
330
1
100
AcDbSymbolTableRecord
100
AcDbBlockTableRecord
  2
A$C6CAC4411
340
0
  0
BLOCK_RECORD
  5
30D
330
1
100
AcDbSymbolTableRecord
100
AcDbBlockTableRecord
  2
_Dot
340
0
102
{BLKREFS
331
A9A7
331
A9A8
331
A9CB
331
A9CC
331
A9EF
331
A9F0
331
A9F8
331
A9F9
331
AA01
331
AA02
331
AA0B
331
AA0C
331
AA14
331
AA15
331
AA1C
331
AA1D
331
AA28
331
AA29
331
AA31
331
AA32
331
AA3A
331
AA3B
331
AA42
331
AA43
331
AA4C
331
AA4D
331
AA55
331
AA56
331
AA5E
331
AA5F
331
AD86
331
AD87
331
ADA0
331
ADA1
331
AE0A
331
AE0B
331
ADF0
331
ADF1
331
AF61
331
AF62
331
AFB1
331
AFB2
331
AFBA
331
AFBB
331
B196
331
B197
331
B19E
331
B19F
331
B1A8
331
B1A9
331
B1B0
331
B1B1
331
B1BA
331
B1BB
331
B1C3
331
B1C4
102
}
  0
BLOCK_RECORD
  5
313C
102
{ACAD_XDICTIONARY
360
313E
102
}
330
1
100
AcDbSymbolTableRecord
100
AcDbBlockTableRecord
  2
A$C6850087C
340
0
  0
BLOCK_RECORD
  5
3846
102
{ACAD_XDICTIONARY
360
3848
102
}
330
1
100
AcDbSymbolTableRecord
100
AcDbBlockTableRecord
  2
A$C71387EE1
340
0
  0
BLOCK_RECORD
  5
6B87
102
{ACAD_XDICTIONARY
360
6B89
102
}
330
1
100
AcDbSymbolTableRecord
100
AcDbBlockTableRecord
  2
A$C47AF373A
340
0
  0
BLOCK_RECORD
  5
6C00
102
{ACAD_XDICTIONARY
360
6C02
102
}
330
1
100
AcDbSymbolTableRecord
100
AcDbBlockTableRecord
  2
A$C2B9560D8
340
0
  0
BLOCK_RECORD
  5
84D2
102
{ACAD_XDICTIONARY
360
84D4
102
}
330
1
100
AcDbSymbolTableRecord
100
AcDbBlockTableRecord
  2
A$C14192292
340
0
  0
BLOCK_RECORD
  5
85E5
102
{ACAD_XDICTIONARY
360
85E7
102
}
330
1
100
AcDbSymbolTableRecord
100
AcDbBlockTableRecord
  2
A$C0B4A6642
340
0
  0
BLOCK_RECORD
  5
8DDD
330
1
100
AcDbSymbolTableRecord
100
AcDbBlockTableRecord
  2
*D12
340
0
  0
BLOCK_RECORD
  5
9446
330
1
100
AcDbSymbolTableRecord
100
AcDbBlockTableRecord
  2
*D13
340
0
  0
BLOCK_RECORD
  5
9452
330
1
100
AcDbSymbolTableRecord
100
AcDbBlockTableRecord
  2
*D14
340
0
  0
BLOCK_RECORD
  5
945E
330
1
100
AcDbSymbolTableRecord
100
AcDbBlockTableRecord
  2
*D15
340
0
  0
BLOCK_RECORD
  5
946A
330
1
100
AcDbSymbolTableRecord
100
AcDbBlockTableRecord
  2
*D16
340
0
  0
BLOCK_RECORD
  5
9476
330
1
100
AcDbSymbolTableRecord
100
AcDbBlockTableRecord
  2
*D17
340
0
  0
BLOCK_RECORD
  5
9482
330
1
100
AcDbSymbolTableRecord
100
AcDbBlockTableRecord
  2
*D18
340
0
  0
BLOCK_RECORD
  5
948E
330
1
100
AcDbSymbolTableRecord
100
AcDbBlockTableRecord
  2
*D19
340
0
  0
BLOCK_RECORD
  5
949A
330
1
100
AcDbSymbolTableRecord
100
AcDbBlockTableRecord
  2
*D20
340
0
  0
BLOCK_RECORD
  5
94A6
330
1
100
AcDbSymbolTableRecord
100
AcDbBlockTableRecord
  2
*D21
340
0
  0
BLOCK_RECORD
  5
94B2
330
1
100
AcDbSymbolTableRecord
100
AcDbBlockTableRecord
  2
*D22
340
0
  0
BLOCK_RECORD
  5
94BE
330
1
100
AcDbSymbolTableRecord
100
AcDbBlockTableRecord
  2
*D23
340
0
  0
BLOCK_RECORD
  5
94CA
330
1
100
AcDbSymbolTableRecord
100
AcDbBlockTableRecord
  2
*D24
340
0
  0
BLOCK_RECORD
  5
971F
330
1
100
AcDbSymbolTableRecord
100
AcDbBlockTableRecord
  2
*D25
340
0
  0
BLOCK_RECORD
  5
972C
330
1
100
AcDbSymbolTableRecord
100
AcDbBlockTableRecord
  2
*D26
340
0
  0
BLOCK_RECORD
  5
9770
330
1
100
AcDbSymbolTableRecord
100
AcDbBlockTableRecord
  2
*D27
340
0
  0
BLOCK_RECORD
  5
97A1
330
1
100
AcDbSymbolTableRecord
100
AcDbBlockTableRecord
  2
*D28
340
0
  0
BLOCK_RECORD
  5
981A
330
1
100
AcDbSymbolTableRecord
100
AcDbBlockTableRecord
  2
*D29
340
0
  0
BLOCK_RECORD
  5
9827
330
1
100
AcDbSymbolTableRecord
100
AcDbBlockTableRecord
  2
*D30
340
0
  0
BLOCK_RECORD
  5
9859
330
1
100
AcDbSymbolTableRecord
100
AcDbBlockTableRecord
  2
*D31
340
0
  0
BLOCK_RECORD
  5
9881
330
1
100
AcDbSymbolTableRecord
100
AcDbBlockTableRecord
  2
*D32
340
0
  0
BLOCK_RECORD
  5
9F95
330
1
100
AcDbSymbolTableRecord
100
AcDbBlockTableRecord
  2
*D33
340
0
  0
BLOCK_RECORD
  5
9FA1
330
1
100
AcDbSymbolTableRecord
100
AcDbBlockTableRecord
  2
*D34
340
0
  0
BLOCK_RECORD
  5
9FAD
330
1
100
AcDbSymbolTableRecord
100
AcDbBlockTableRecord
  2
*D35
340
0
  0
BLOCK_RECORD
  5
9FB9
330
1
100
AcDbSymbolTableRecord
100
AcDbBlockTableRecord
  2
*D36
340
0
  0
BLOCK_RECORD
  5
9FC5
330
1
100
AcDbSymbolTableRecord
100
AcDbBlockTableRecord
  2
*D37
340
0
  0
BLOCK_RECORD
  5
9FD1
330
1
100
AcDbSymbolTableRecord
100
AcDbBlockTableRecord
  2
*D38
340
0
  0
BLOCK_RECORD
  5
9FDD
330
1
100
AcDbSymbolTableRecord
100
AcDbBlockTableRecord
  2
*D39
340
0
  0
BLOCK_RECORD
  5
9FE9
330
1
100
AcDbSymbolTableRecord
100
AcDbBlockTableRecord
  2
*D40
340
0
  0
BLOCK_RECORD
  5
9FF5
330
1
100
AcDbSymbolTableRecord
100
AcDbBlockTableRecord
  2
*D41
340
0
  0
BLOCK_RECORD
  5
A001
330
1
100
AcDbSymbolTableRecord
100
AcDbBlockTableRecord
  2
*D42
340
0
  0
BLOCK_RECORD
  5
A00D
330
1
100
AcDbSymbolTableRecord
100
AcDbBlockTableRecord
  2
*D43
340
0
  0
BLOCK_RECORD
  5
A019
330
1
100
AcDbSymbolTableRecord
100
AcDbBlockTableRecord
  2
*D44
340
0
  0
BLOCK_RECORD
  5
A30E
330
1
100
AcDbSymbolTableRecord
100
AcDbBlockTableRecord
  2
*D45
340
0
  0
BLOCK_RECORD
  5
A31A
330
1
100
AcDbSymbolTableRecord
100
AcDbBlockTableRecord
  2
*D46
340
0
  0
BLOCK_RECORD
  5
A326
330
1
100
AcDbSymbolTableRecord
100
AcDbBlockTableRecord
  2
*D47
340
0
  0
BLOCK_RECORD
  5
A332
330
1
100
AcDbSymbolTableRecord
100
AcDbBlockTableRecord
  2
*D48
340
0
  0
BLOCK_RECORD
  5
A4BF
330
1
100
AcDbSymbolTableRecord
100
AcDbBlockTableRecord
  2
*D49
340
0
  0
BLOCK_RECORD
  5
A4D7
330
1
100
AcDbSymbolTableRecord
100
AcDbBlockTableRecord
  2
*D50
340
0
  0
BLOCK_RECORD
  5
A4E5
330
1
100
AcDbSymbolTableRecord
100
AcDbBlockTableRecord
  2
*D51
340
0
  0
BLOCK_RECORD
  5
A4F1
330
1
100
AcDbSymbolTableRecord
100
AcDbBlockTableRecord
  2
*D52
340
0
  0
BLOCK_RECORD
  5
A4FD
330
1
100
AcDbSymbolTableRecord
100
AcDbBlockTableRecord
  2
*D53
340
0
  0
BLOCK_RECORD
  5
A509
330
1
100
AcDbSymbolTableRecord
100
AcDbBlockTableRecord
  2
*D54
340
0
  0
BLOCK_RECORD
  5
A515
330
1
100
AcDbSymbolTableRecord
100
AcDbBlockTableRecord
  2
*D55
340
0
  0
BLOCK_RECORD
  5
A59F
330
1
100
AcDbSymbolTableRecord
100
AcDbBlockTableRecord
  2
*D56
340
0
  0
BLOCK_RECORD
  5
A68E
330
1
100
AcDbSymbolTableRecord
100
AcDbBlockTableRecord
  2
*D57
340
0
  0
BLOCK_RECORD
  5
ABF1
330
1
100
AcDbSymbolTableRecord
100
AcDbBlockTableRecord
  2
*D58
340
0
  0
BLOCK_RECORD
  5
AD43
330
1
100
AcDbSymbolTableRecord
100
AcDbBlockTableRecord
  2
*D59
340
0
  0
BLOCK_RECORD
  5
AD83
330
1
100
AcDbSymbolTableRecord
100
AcDbBlockTableRecord
  2
*D60
340
0
  0
BLOCK_RECORD
  5
AD8F
330
1
100
AcDbSymbolTableRecord
100
AcDbBlockTableRecord
  2
*D61
340
0
  0
BLOCK_RECORD
  5
AD9B
330
1
100
AcDbSymbolTableRecord
100
AcDbBlockTableRecord
  2
*D62
340
0
  0
BLOCK_RECORD
  5
ADA7
102
{ACAD_XDICTIONARY
360
ADE8
102
}
330
1
100
AcDbSymbolTableRecord
100
AcDbBlockTableRecord
  2
A$C1CFD3EBA
340
0
  0
BLOCK_RECORD
  5
ADED
330
1
100
AcDbSymbolTableRecord
100
AcDbBlockTableRecord
  2
*D64
340
0
  0
BLOCK_RECORD
  5
ADF9
330
1
100
AcDbSymbolTableRecord
100
AcDbBlockTableRecord
  2
*D65
340
0
  0
BLOCK_RECORD
  5
AE05
330
1
100
AcDbSymbolTableRecord
100
AcDbBlockTableRecord
  2
*D66
340
0
  0
BLOCK_RECORD
  5
AE11
102
{ACAD_XDICTIONARY
360
AE53
102
}
330
1
100
AcDbSymbolTableRecord
100
AcDbBlockTableRecord
  2
A$C5666542C
340
0
  0
BLOCK_RECORD
  5
AF7C
330
1
100
AcDbSymbolTableRecord
100
AcDbBlockTableRecord
  2
*D68
340
0
  0
ENDTAB
  0
ENDSEC
  0
SECTION
  2
BLOCKS
  0
BLOCK
  5
20
330
1F
100
AcDbEntity
  8
0
100
AcDbBlockBegin
  2
*Model_Space
 70
     0
 10
0.0
 20
0.0
 30
0.0
  3
*Model_Space
  1

  0
ENDBLK
  5
21
330
1F
100
AcDbEntity
  8
0
100
AcDbBlockEnd
  0
BLOCK
  5
1C
330
1B
100
AcDbEntity
 67
     1
  8
0
100
AcDbBlockBegin
  2
*Paper_Space
 70
     0
 10
0.0
 20
0.0
 30
0.0
  3
*Paper_Space
  1

  0
ENDBLK
  5
1D
330
1B
100
AcDbEntity
 67
     1
  8
0
100
AcDbBlockEnd
  0
BLOCK
  5
24
330
23
100
AcDbEntity
  8
0
100
AcDbBlockBegin
  2
*Paper_Space0
 70
     0
 10
0.0
 20
0.0
 30
0.0
  3
*Paper_Space0
  1

  0
ENDBLK
  5
25
330
23
100
AcDbEntity
  8
0
100
AcDbBlockEnd
  0
BLOCK
  5
D2
330
D0
100
AcDbEntity
  8
0
100
AcDbBlockBegin
  2
_DotSmall
 70
     0
 10
0.0
 20
0.0
 30
0.0
  3
_DotSmall
  1

  0
LWPOLYLINE
  5
D1
330
D0
100
AcDbEntity
  8
0
 62
     0
100
AcDbPolyline
 90
        2
 70
     1
 43
0.5
 10
-0.0625
 20
0.0
 42
1.0
 10
0.0625
 20
0.0
 42
1.0
  0
ENDBLK
  5
D3
330
D0
100
AcDbEntity
  8
0
100
AcDbBlockEnd
  0
BLOCK
  5
D8
330
D4
100
AcDbEntity
  8
0
100
AcDbBlockBegin
  2
_Origin2
 70
     0
 10
0.0
 20
0.0
 30
0.0
  3
_Origin2
  1

  0
CIRCLE
  5
D5
330
D4
100
AcDbEntity
  8
0
 62
     0
370
    -2
100
AcDbCircle
 10
0.0
 20
0.0
 30
0.0
 40
0.5
  0
CIRCLE
  5
D6
330
D4
100
AcDbEntity
  8
0
 62
     0
370
    -2
100
AcDbCircle
 10
0.0
 20
0.0
 30
0.0
 40
0.25
  0
LINE
  5
D7
330
D4
100
AcDbEntity
  8
0
 62
     0
370
    -2
100
AcDbLine
 10
-0.5
 20
0.0
 30
0.0
 11
-1.0
 21
0.0
 31
0.0
  0
ENDBLK
  5
D9
330
D4
100
AcDbEntity
  8
0
100
AcDbBlockEnd
  0
BLOCK
  5
DE
330
DA
100
AcDbEntity
  8
0
100
AcDbBlockBegin
  2
_Open30
 70
     0
 10
0.0
 20
0.0
 30
0.0
  3
_Open30
  1

  0
LINE
  5
DB
330
DA
100
AcDbEntity
  8
0
 62
     0
370
    -2
100
AcDbLine
 10
-1.0
 20
0.26794919
 30
0.0
 11
0.0
 21
0.0
 31
0.0
  0
LINE
  5
DC
330
DA
100
AcDbEntity
  8
0
 62
     0
370
    -2
100
AcDbLine
 10
0.0
 20
0.0
 30
0.0
 11
-1.0
 21
-0.26794919
 31
0.0
  0
LINE
  5
DD
330
DA
100
AcDbEntity
  8
0
 62
     0
370
    -2
100
AcDbLine
 10
0.0
 20
0.0
 30
0.0
 11
-1.0
 21
0.0
 31
0.0
  0
ENDBLK
  5
DF
330
DA
100
AcDbEntity
  8
0
100
AcDbBlockEnd
  0
BLOCK
  5
2E7
330
2D6
100
AcDbEntity
  8
0
100
AcDbBlockBegin
  2
A$C6CAC4411
 70
     0
 10
0.0
 20
0.0
 30
0.0
  3
A$C6CAC4411
  1

  0
TEXT
  5
2D7
330
2D6
100
AcDbEntity
  8
0
100
AcDbText
 10
176.2557717918098
 20
0.0000022116982912
 30
0.0
 40
40.0
  1
中外交易株式会社
 72
     4
 11
364.2557717918098
 21
20.0000022116983
 31
0.0
100
AcDbText
  0
LINE
  5
2D8
330
2D6
100
AcDbEntity
  8
0
100
AcDbLine
 10
-0.0000028735375963
 20
52.5000022116983
 30
0.0
 11
599.9999971264624
 21
52.5000022116983
 31
0.0
  0
HATCH
  5
2D9
330
2D6
100
AcDbEntity
  8
実形
100
AcDbHatch
 10
0.0
 20
0.0
 30
0.0
210
0.0
220
0.0
230
1.0
  2
SOLID
 70
     1
 71
     1
 91
        3
 92
        1
 93
        4
 72
     2
 10
133.1661954404576
 20
20.0000022116983
 40
20.0
 50
11.64772366707622
 51
342.6561058784662
 73
     1
 72
     1
 10
152.2568494677857
 20
14.03787769028346
 11
128.1661954404576
 21
14.03787769028349
 72
     1
 10
128.1661954404576
 20
14.03787769028349
 11
128.1661954404576
 21
24.0378776902835
 72
     1
 10
128.1661954404576
 20
24.0378776902835
 11
152.7543439394721
 21
24.0378776902835
 97
        4
330
2DF
330
2DC
330
2E0
330
2DD
 92
        1
 93
        4
 72
     2
 10
64.25577179180982
 20
20.0000022116983
 40
20.0
 50
11.64772366707622
 51
342.6561058784662
 73
     1
 72
     1
 10
83.34642581913795
 20
14.03787769028346
 11
59.25577179180982
 21
14.03787769028349
 72
     1
 10
59.25577179180982
 20
14.03787769028349
 11
59.25577179180982
 21
24.0378776902835
 72
     1
 10
59.25577179180982
 20
24.0378776902835
 11
83.84392029082437
 21
24.0378776902835
 97
        4
330
2DE
330
2DB
330
2E1
330
2DA
 92
        1
 93
        5
 72
     1
 10
121.6418911694018
 20
40.0000022116983
 11
86.64189116940178
 21
40.0000022116983
 72
     1
 10
86.64189116940178
 20
40.0000022116983
 11
86.64189116940178
 21
0.0000022116983018
 72
     1
 10
86.64189116940178
 20
0.0000022116983018
 11
121.6418911694018
 21
0.0000022116983018
 72
     1
 10
121.6418911694018
 20
0.0000022116983018
 11
86.64189116940178
 21
20.0000022116983
 72
     1
 10
86.64189116940178
 20
20.0000022116983
 11
121.6418911694018
 21
40.0000022116983
 97
        5
330
2E2
330
2E3
330
2E5
330
2E6
330
2E4
 75
     0
 76
     1
 98
        1
 10
-2184.000002873538
 20
-16.4999977883017
  0
LINE
  5
2DA
102
{ACAD_REACTORS
330
2D9
102
}
330
2D6
100
AcDbEntity
  8
実形
370
     5
100
AcDbLine
 10
83.84392029082437
 20
24.0378776902835
 30
0.0
 11
59.25577179180982
 21
24.0378776902835
 31
0.0
  0
LINE
  5
2DB
102
{ACAD_REACTORS
330
2D9
102
}
330
2D6
100
AcDbEntity
  8
実形
370
     5
100
AcDbLine
 10
59.25577179180982
 20
14.03787769028349
 30
0.0
 11
83.34642581913795
 21
14.03787769028346
 31
0.0
  0
LINE
  5
2DC
102
{ACAD_REACTORS
330
2D9
102
}
330
2D6
100
AcDbEntity
  8
実形
370
     5
100
AcDbLine
 10
128.1661954404576
 20
14.03787769028349
 30
0.0
 11
152.2568494677857
 21
14.03787769028346
 31
0.0
  0
LINE
  5
2DD
102
{ACAD_REACTORS
330
2D9
102
}
330
2D6
100
AcDbEntity
  8
実形
370
     5
100
AcDbLine
 10
152.7543439394721
 20
24.0378776902835
 30
0.0
 11
128.1661954404576
 21
24.0378776902835
 31
0.0
  0
ARC
  5
2DE
102
{ACAD_REACTORS
330
2D9
102
}
330
2D6
100
AcDbEntity
  8
実形
370
     5
100
AcDbCircle
 10
64.25577179180982
 20
20.0000022116983
 30
0.0
 40
20.0
100
AcDbArc
 50
11.6477236670758
 51
342.6561058784691
  0
ARC
  5
2DF
102
{ACAD_REACTORS
330
2D9
102
}
330
2D6
100
AcDbEntity
  8
実形
370
     5
100
AcDbCircle
 10
133.1661954404576
 20
20.0000022116983
 30
0.0
 40
20.0
100
AcDbArc
 50
11.6477236670758
 51
342.6561058784691
  0
LINE
  5
2E0
102
{ACAD_REACTORS
330
2D9
102
}
330
2D6
100
AcDbEntity
  8
実形
370
     5
100
AcDbLine
 10
128.1661954404576
 20
24.0378776902835
 30
0.0
 11
128.1661954404576
 21
14.03787769028349
 31
0.0
  0
LINE
  5
2E1
102
{ACAD_REACTORS
330
2D9
102
}
330
2D6
100
AcDbEntity
  8
実形
370
     5
100
AcDbLine
 10
59.25577179180982
 20
24.0378776902835
 30
0.0
 11
59.25577179180982
 21
14.03787769028349
 31
0.0
  0
LINE
  5
2E2
102
{ACAD_REACTORS
330
2D9
102
}
330
2D6
100
AcDbEntity
  8
実形
370
     5
100
AcDbLine
 10
121.6418911694018
 20
40.0000022116983
 30
0.0
 11
86.64189116940178
 21
40.0000022116983
 31
0.0
  0
LINE
  5
2E3
102
{ACAD_REACTORS
330
2D9
102
}
330
2D6
100
AcDbEntity
  8
実形
370
     5
100
AcDbLine
 10
86.64189116940178
 20
40.0000022116983
 30
0.0
 11
86.64189116940178
 21
0.0000022116983018
 31
0.0
  0
LINE
  5
2E4
102
{ACAD_REACTORS
330
2D9
102
}
330
2D6
100
AcDbEntity
  8
実形
370
     5
100
AcDbLine
 10
86.64189116940178
 20
20.0000022116983
 30
0.0
 11
121.6418911694018
 21
40.0000022116983
 31
0.0
  0
LINE
  5
2E5
102
{ACAD_REACTORS
330
2D9
102
}
330
2D6
100
AcDbEntity
  8
実形
370
     5
100
AcDbLine
 10
86.64189116940178
 20
0.0000022116983018
 30
0.0
 11
121.6418911694018
 21
0.0000022116983018
 31
0.0
  0
LINE
  5
2E6
102
{ACAD_REACTORS
330
2D9
102
}
330
2D6
100
AcDbEntity
  8
実形
370
     5
100
AcDbLine
 10
121.6418911694018
 20
0.0000022116983018
 30
0.0
 11
86.64189116940178
 21
20.0000022116983
 31
0.0
  0
ENDBLK
  5
2E8
330
2D6
100
AcDbEntity
  8
0
100
AcDbBlockEnd
  0
BLOCK
  5
310
330
30D
100
AcDbEntity
  8
0
100
AcDbBlockBegin
  2
_Dot
 70
     0
 10
0.0
 20
0.0
 30
0.0
  3
_Dot
  1

  0
LWPOLYLINE
  5
30E
330
30D
100
AcDbEntity
  8
0
 62
     0
100
AcDbPolyline
 90
        2
 70
     1
 43
0.5
 10
-0.25
 20
0.0
 42
1.0
 10
0.25
 20
0.0
 42
1.0
  0
LINE
  5
30F
330
30D
100
AcDbEntity
  8
0
 62
     0
370
    -2
100
AcDbLine
 10
-0.5
 20
0.0
 30
0.0
 11
-1.0
 21
0.0
 31
0.0
  0
ENDBLK
  5
311
330
30D
100
AcDbEntity
  8
0
100
AcDbBlockEnd
  0
BLOCK
  5
3140
330
313C
100
AcDbEntity
  8
0
100
AcDbBlockBegin
  2
A$C6850087C
 70
     0
 10
0.0
 20
0.0
 30
0.0
  3
A$C6850087C
  1

  0
TEXT
  5
313D
330
313C
100
AcDbEntity
  8
実形
 62
     0
 48
20.0
100
AcDbText
 10
0.0
 20
0.0
 30
0.0
 40
40.0
  1
平面図
100
AcDbText
  0
ENDBLK
  5
3141
330
313C
100
AcDbEntity
  8
0
100
AcDbBlockEnd
  0
BLOCK
  5
384A
330
3846
100
AcDbEntity
  8
0
 62
     1
100
AcDbBlockBegin
  2
A$C71387EE1
 70
     0
 10
0.0
 20
0.0
 30
0.0
  3
A$C71387EE1
  1

  0
HATCH
  5
3847
330
3846
100
AcDbEntity
  8
実形
 62
     0
100
AcDbHatch
 10
0.0
 20
0.0
 30
0.0
210
0.0
220
0.0
230
1.0
  2
SOLID
 70
     1
 71
     0
 91
        1
 92
        7
 72
     1
 73
     1
 93
        2
 10
4.552685078746208
 20
-0.0000011660104065
 42
-1.0
 10
4.54872920619573
 20
9.101406589272301
 42
-1.0
 97
        0
 75
     0
 76
     1
 47
0.1166526434546944
 98
        1
 10
6.65106624868099
 20
3.151407247997667
  0
ENDBLK
  5
384B
330
3846
100
AcDbEntity
  8
0
 62
     1
100
AcDbBlockEnd
  0
BLOCK
  5
6B8B
330
6B87
100
AcDbEntity
  8
0
 62
     3
100
AcDbBlockBegin
  2
A$C47AF373A
 70
     0
 10
0.0
 20
0.0
 30
0.0
  3
A$C47AF373A
  1

  0
LINE
  5
6B88
330
6B87
100
AcDbEntity
  8
枠
 62
     0
100
AcDbLine
 10
-0.0000111344452307
 20
0.0000048001220421
 30
0.0
 11
-0.0000111344452307
 21
2020.000004800122
 31
0.0
  0
ENDBLK
  5
6B8C
330
6B87
100
AcDbEntity
  8
0
 62
     3
100
AcDbBlockEnd
  0
BLOCK
  5
6C04
330
6C00
100
AcDbEntity
  8
0
 62
     3
100
AcDbBlockBegin
  2
A$C2B9560D8
 70
     0
 10
0.0
 20
0.0
 30
0.0
  3
A$C2B9560D8
  1

  0
LINE
  5
6C01
330
6C00
100
AcDbEntity
  8
枠
 62
     0
100
AcDbLine
 10
-0.0000103150450741
 20
2020.000004800122
 30
0.0
 11
-0.0000103150450741
 21
0.0000048001220421
 31
0.0
  0
ENDBLK
  5
6C05
330
6C00
100
AcDbEntity
  8
0
 62
     3
100
AcDbBlockEnd
  0
BLOCK
  5
84D6
330
84D2
100
AcDbEntity
  8
0
 62
     3
100
AcDbBlockBegin
  2
A$C14192292
 70
     0
 10
0.0
 20
0.0
 30
0.0
  3
A$C14192292
  1

  0
TEXT
  5
84D3
330
84D2
100
AcDbEntity
  8
実形
100
AcDbText
 10
-0.0000020523254205
 20
-0.0000012915567518
 30
0.0
 40
25.0
  1
6R
 72
     2
 11
41.66666461434124
 21
-3.333334624890085
 31
0.0
100
AcDbText
 73
     1
  0
ENDBLK
  5
84D7
330
84D2
100
AcDbEntity
  8
0
 62
     3
100
AcDbBlockEnd
  0
BLOCK
  5
85E9
330
85E5
100
AcDbEntity
  8
0
 62
     3
100
AcDbBlockBegin
  2
A$C0B4A6642
 70
     0
 10
0.0
 20
0.0
 30
0.0
  3
A$C0B4A6642
  1

  0
TEXT
  5
85E6
330
85E5
100
AcDbEntity
  8
実形
100
AcDbText
 10
24.99999914899665
 20
0.0000001903276474
 30
0.0
 40
25.0
  1
7
 50
90.0
 72
     2
 11
28.33333248232998
 21
16.66666685699431
 31
0.0
100
AcDbText
 73
     1
  0
ENDBLK
  5
85EA
330
85E5
100
AcDbEntity
  8
0
 62
     3
100
AcDbBlockEnd
  0
BLOCK
  5
8DE7
330
8DDD
100
AcDbEntity
  8
0
 62
     3
100
AcDbBlockBegin
  2
*D12
 70
     1
 10
0.0
 20
0.0
 30
0.0
  3
*D12
  1

  0
LINE
  5
A9A4
330
8DDD
100
AcDbEntity
  8
実形
 62
     0
370
    18
100
AcDbLine
 10
1110.742175197768
 20
1528.693471705118
 30
0.0
 11
1148.980984814266
 21
1528.693471705118
 31
0.0
  0
LINE
  5
A9A5
330
8DDD
100
AcDbEntity
  8
実形
 62
     0
370
    18
100
AcDbLine
 10
1110.742175197768
 20
1673.693471705118
 30
0.0
 11
1148.980984814267
 21
1673.693471705118
 31
0.0
  0
LINE
  5
A9A6
330
8DDD
100
AcDbEntity
  8
実形
 62
     0
370
    18
100
AcDbLine
 10
1148.980984814267
 20
1538.693471705118
 30
0.0
 11
1148.980984814267
 21
1663.693471705118
 31
0.0
  0
INSERT
  5
A9A7
330
8DDD
100
AcDbEntity
  8
実形
 62
     0
370
    18
100
AcDbBlockReference
  2
_Dot
 10
1148.980984814266
 20
1528.693471705118
 30
0.0
 41
10.0
 42
10.0
 43
10.0
 50
270.0
  0
INSERT
  5
A9A8
330
8DDD
100
AcDbEntity
  8
実形
 62
     0
370
    18
100
AcDbBlockReference
  2
_Dot
 10
1148.980984814267
 20
1673.693471705118
 30
0.0
 41
10.0
 42
10.0
 43
10.0
 50
90.0
  0
MTEXT
  5
A9A9
330
8DDD
100
AcDbEntity
  8
実形
 62
     0
100
AcDbMText
 10
1127.380984814266
 20
1601.193471705119
 30
0.0
 40
30.0
 41
0.0
 71
     5
 72
     1
  1
145
 11
0.0000000000000001
 21
1.0
 31
0.0
 73
     1
 44
1.0
1001
ACAD
1000
MTEXTBEGIN
1070
    73
1070
     1
1070
    44
1040
1.0
1070
    74
1070
     0
1000
MTEXTEND
  0
POINT
  5
A9AA
330
8DDD
100
AcDbEntity
  8
Defpoints
 62
     0
100
AcDbPoint
 10
1045.742175197768
 20
1528.693471705118
 30
0.0
  0
POINT
  5
A9AB
330
8DDD
100
AcDbEntity
  8
Defpoints
 62
     0
100
AcDbPoint
 10
1045.742175197768
 20
1673.693471705118
 30
0.0
  0
POINT
  5
A9AC
330
8DDD
100
AcDbEntity
  8
Defpoints
 62
     0
100
AcDbPoint
 10
1148.980984814267
 20
1673.693471705118
 30
0.0
  0
ENDBLK
  5
8DE8
330
8DDD
100
AcDbEntity
  8
0
 62
     3
100
AcDbBlockEnd
  0
BLOCK
  5
9450
330
9446
100
AcDbEntity
  8
0
 62
     3
100
AcDbBlockBegin
  2
*D13
 70
     1
 10
0.0
 20
0.0
 30
0.0
  3
*D13
  1

  0
LINE
  5
A1B8
330
9446
100
AcDbEntity
  8
実形
 62
     0
370
    18
100
AcDbLine
 10
2112.629956685867
 20
535.3890766270942
 30
0.0
 11
2112.629956685867
 21
504.906225743507
 31
0.0
  0
LINE
  5
A1B9
330
9446
100
AcDbEntity
  8
実形
 62
     0
370
    18
100
AcDbLine
 10
2162.629956685867
 20
535.3890766270942
 30
0.0
 11
2162.629956685867
 21
504.906225743507
 31
0.0
  0
LINE
  5
A1BA
330
9446
100
AcDbEntity
  8
実形
 62
     0
370
    18
100
AcDbLine
 10
2112.629956685867
 20
504.906225743507
 30
0.0
 11
2162.629956685867
 21
504.906225743507
 31
0.0
  0
INSERT
  5
A1BB
330
9446
100
AcDbEntity
  8
実形
 62
     0
370
    18
100
AcDbBlockReference
  2
_DotSmall
 10
2112.629956685867
 20
504.906225743507
 30
0.0
 41
35.0
 42
35.0
 43
35.0
 50
180.0
  0
INSERT
  5
A1BC
330
9446
100
AcDbEntity
  8
実形
 62
     0
370
    18
100
AcDbBlockReference
  2
_DotSmall
 10
2162.629956685867
 20
504.906225743507
 30
0.0
 41
35.0
 42
35.0
 43
35.0
  0
MTEXT
  5
A1BD
330
9446
100
AcDbEntity
  8
実形
 62
     0
100
AcDbMText
 10
2138.744931551634
 20
523.656225743507
 30
0.0
 40
25.0
 41
0.0
 71
     5
 72
     1
  1
5
 73
     1
 44
1.0
1001
ACAD
1000
MTEXTBEGIN
1070
    73
1070
     1
1070
    44
1040
1.0
1070
    74
1070
     0
1000
MTEXTEND
  0
POINT
  5
A1BE
330
9446
100
AcDbEntity
  8
Defpoints
 62
     0
100
AcDbPoint
 10
2112.629956685867
 20
600.3890766270942
 30
0.0
  0
POINT
  5
A1BF
330
9446
100
AcDbEntity
  8
Defpoints
 62
     0
100
AcDbPoint
 10
2162.629956685867
 20
600.3890766270942
 30
0.0
  0
POINT
  5
A1C0
330
9446
100
AcDbEntity
  8
Defpoints
 62
     0
100
AcDbPoint
 10
2162.629956685867
 20
504.906225743507
 30
0.0
  0
ENDBLK
  5
9451
330
9446
100
AcDbEntity
  8
0
 62
     3
100
AcDbBlockEnd
  0
BLOCK
  5
945C
330
9452
100
AcDbEntity
  8
0
 62
     3
100
AcDbBlockBegin
  2
*D14
 70
     1
 10
0.0
 20
0.0
 30
0.0
  3
*D14
  1

  0
LINE
  5
A1C1
330
9452
100
AcDbEntity
  8
実形
 62
     0
370
    18
100
AcDbLine
 10
2085.780658627266
 20
685.949147950414
 30
0.0
 11
2048.255758094706
 21
685.949147950414
 31
0.0
  0
LINE
  5
A1C2
330
9452
100
AcDbEntity
  8
実形
 62
     0
370
    18
100
AcDbLine
 10
2080.431441622709
 20
565.949147950414
 30
0.0
 11
2048.255758094706
 21
565.949147950414
 31
0.0
  0
LINE
  5
A1C3
330
9452
100
AcDbEntity
  8
実形
 62
     0
370
    18
100
AcDbLine
 10
2048.255758094706
 20
685.949147950414
 30
0.0
 11
2048.255758094706
 21
565.949147950414
 31
0.0
  0
INSERT
  5
A1C4
330
9452
100
AcDbEntity
  8
実形
 62
     0
370
    18
100
AcDbBlockReference
  2
_DotSmall
 10
2048.255758094706
 20
685.949147950414
 30
0.0
 41
35.0
 42
35.0
 43
35.0
 50
90.0
  0
INSERT
  5
A1C5
330
9452
100
AcDbEntity
  8
実形
 62
     0
370
    18
100
AcDbBlockReference
  2
_DotSmall
 10
2048.255758094706
 20
565.949147950414
 30
0.0
 41
35.0
 42
35.0
 43
35.0
 50
270.0
  0
MTEXT
  5
A1C6
330
9452
100
AcDbEntity
  8
実形
 62
     0
100
AcDbMText
 10
2029.505758094706
 20
625.9491479504143
 30
0.0
 40
25.0
 41
0.0
 71
     5
 72
     1
  1
12
 11
0.0000000000000001
 21
1.0
 31
0.0
 73
     1
 44
1.0
1001
ACAD
1000
MTEXTBEGIN
1070
    73
1070
     1
1070
    44
1040
1.0
1070
    74
1070
     0
1000
MTEXTEND
  0
POINT
  5
A1C7
330
9452
100
AcDbEntity
  8
Defpoints
 62
     0
100
AcDbPoint
 10
2150.780658627267
 20
685.949147950414
 30
0.0
  0
POINT
  5
A1C8
330
9452
100
AcDbEntity
  8
Defpoints
 62
     0
100
AcDbPoint
 10
2145.431441622709
 20
565.949147950414
 30
0.0
  0
POINT
  5
A1C9
330
9452
100
AcDbEntity
  8
Defpoints
 62
     0
100
AcDbPoint
 10
2048.255758094706
 20
565.949147950414
 30
0.0
  0
ENDBLK
  5
945D
330
9452
100
AcDbEntity
  8
0
 62
     3
100
AcDbBlockEnd
  0
BLOCK
  5
9468
330
945E
100
AcDbEntity
  8
0
 62
     3
100
AcDbBlockBegin
  2
*D15
 70
     1
 10
0.0
 20
0.0
 30
0.0
  3
*D15
  1

  0
LINE
  5
A1CA
330
945E
100
AcDbEntity
  8
実形
 62
     0
370
    18
100
AcDbLine
 10
2582.629956685868
 20
533.5683542431998
 30
0.0
 11
2582.629956685868
 21
510.3074725836522
 31
0.0
  0
LINE
  5
A1CB
330
945E
100
AcDbEntity
  8
実形
 62
     0
370
    18
100
AcDbLine
 10
2682.629956685868
 20
533.5683542431998
 30
0.0
 11
2682.629956685868
 21
510.3074725836522
 31
0.0
  0
LINE
  5
A1CC
330
945E
100
AcDbEntity
  8
実形
 62
     0
370
    18
100
AcDbLine
 10
2582.629956685868
 20
510.3074725836522
 30
0.0
 11
2682.629956685868
 21
510.3074725836522
 31
0.0
  0
INSERT
  5
A1CD
330
945E
100
AcDbEntity
  8
実形
 62
     0
370
    18
100
AcDbBlockReference
  2
_DotSmall
 10
2582.629956685868
 20
510.3074725836522
 30
0.0
 41
35.0
 42
35.0
 43
35.0
 50
180.0
  0
INSERT
  5
A1CE
330
945E
100
AcDbEntity
  8
実形
 62
     0
370
    18
100
AcDbBlockReference
  2
_DotSmall
 10
2682.629956685868
 20
510.3074725836522
 30
0.0
 41
35.0
 42
35.0
 43
35.0
  0
MTEXT
  5
A1CF
330
945E
100
AcDbEntity
  8
実形
 62
     0
100
AcDbMText
 10
2632.629956685868
 20
529.0574725836522
 30
0.0
 40
25.0
 41
0.0
 71
     5
 72
     1
  1
10
 73
     1
 44
1.0
1001
ACAD
1000
MTEXTBEGIN
1070
    73
1070
     1
1070
    44
1040
1.0
1070
    74
1070
     0
1000
MTEXTEND
  0
POINT
  5
A1D0
330
945E
100
AcDbEntity
  8
Defpoints
 62
     0
100
AcDbPoint
 10
2582.629956685868
 20
598.5683542431997
 30
0.0
  0
POINT
  5
A1D1
330
945E
100
AcDbEntity
  8
Defpoints
 62
     0
100
AcDbPoint
 10
2682.629956685868
 20
598.5683542431997
 30
0.0
  0
POINT
  5
A1D2
330
945E
100
AcDbEntity
  8
Defpoints
 62
     0
100
AcDbPoint
 10
2682.629956685868
 20
510.3074725836522
 30
0.0
  0
ENDBLK
  5
9469
330
945E
100
AcDbEntity
  8
0
 62
     3
100
AcDbBlockEnd
  0
BLOCK
  5
9474
330
946A
100
AcDbEntity
  8
0
 62
     3
100
AcDbBlockBegin
  2
*D16
 70
     1
 10
0.0
 20
0.0
 30
0.0
  3
*D16
  1

  0
LINE
  5
A1D3
330
946A
100
AcDbEntity
  8
実形
 62
     0
370
    18
100
AcDbLine
 10
2532.629956685868
 20
533.5683542431998
 30
0.0
 11
2532.629956685868
 21
510.3074725836522
 31
0.0
  0
LINE
  5
A1D4
330
946A
100
AcDbEntity
  8
実形
 62
     0
370
    18
100
AcDbLine
 10
2582.480808253705
 20
533.5683542431998
 30
0.0
 11
2582.480808253705
 21
510.3074725836522
 31
0.0
  0
LINE
  5
A1D5
330
946A
100
AcDbEntity
  8
実形
 62
     0
370
    18
100
AcDbLine
 10
2532.629956685868
 20
510.3074725836522
 30
0.0
 11
2582.480808253705
 21
510.3074725836522
 31
0.0
  0
INSERT
  5
A1D6
330
946A
100
AcDbEntity
  8
実形
 62
     0
370
    18
100
AcDbBlockReference
  2
_DotSmall
 10
2532.629956685868
 20
510.3074725836522
 30
0.0
 41
35.0
 42
35.0
 43
35.0
 50
180.0
  0
INSERT
  5
A1D7
330
946A
100
AcDbEntity
  8
実形
 62
     0
370
    18
100
AcDbBlockReference
  2
_DotSmall
 10
2582.480808253705
 20
510.3074725836522
 30
0.0
 41
35.0
 42
35.0
 43
35.0
  0
MTEXT
  5
A1D8
330
946A
100
AcDbEntity
  8
実形
 62
     0
100
AcDbMText
 10
2557.555382469786
 20
529.0574725836522
 30
0.0
 40
25.0
 41
0.0
 71
     5
 72
     1
  1
5
 73
     1
 44
1.0
1001
ACAD
1000
MTEXTBEGIN
1070
    73
1070
     1
1070
    44
1040
1.0
1070
    74
1070
     0
1000
MTEXTEND
  0
POINT
  5
A1D9
330
946A
100
AcDbEntity
  8
Defpoints
 62
     0
100
AcDbPoint
 10
2532.629956685868
 20
598.5683542431997
 30
0.0
  0
POINT
  5
A1DA
330
946A
100
AcDbEntity
  8
Defpoints
 62
     0
100
AcDbPoint
 10
2582.480808253705
 20
598.5683542431997
 30
0.0
  0
POINT
  5
A1DB
330
946A
100
AcDbEntity
  8
Defpoints
 62
     0
100
AcDbPoint
 10
2582.480808253705
 20
510.3074725836522
 30
0.0
  0
ENDBLK
  5
9475
330
946A
100
AcDbEntity
  8
0
 62
     3
100
AcDbBlockEnd
  0
BLOCK
  5
9480
330
9476
100
AcDbEntity
  8
0
 62
     3
100
AcDbBlockBegin
  2
*D17
 70
     1
 10
0.0
 20
0.0
 30
0.0
  3
*D17
  1

  0
LINE
  5
B17F
330
9476
100
AcDbEntity
  8
実形
 62
     0
370
    18
100
AcDbLine
 10
2162.629956685868
 20
715.4244183565051
 30
0.0
 11
2162.629956685868
 21
748.4181638289328
 31
0.0
  0
LINE
  5
B180
330
9476
100
AcDbEntity
  8
実形
 62
     0
370
    18
100
AcDbLine
 10
2412.629956685868
 20
715.4244183565051
 30
0.0
 11
2412.629956685868
 21
748.4181638289328
 31
0.0
  0
LINE
  5
B181
330
9476
100
AcDbEntity
  8
実形
 62
     0
370
    18
100
AcDbLine
 10
2162.629956685868
 20
748.4181638289328
 30
0.0
 11
2412.629956685868
 21
748.4181638289328
 31
0.0
  0
INSERT
  5
B182
330
9476
100
AcDbEntity
  8
実形
 62
     0
370
    18
100
AcDbBlockReference
  2
_DotSmall
 10
2162.629956685868
 20
748.4181638289328
 30
0.0
 41
35.0
 42
35.0
 43
35.0
 50
180.0
  0
INSERT
  5
B183
330
9476
100
AcDbEntity
  8
実形
 62
     0
370
    18
100
AcDbBlockReference
  2
_DotSmall
 10
2412.629956685868
 20
748.4181638289328
 30
0.0
 41
35.0
 42
35.0
 43
35.0
  0
MTEXT
  5
B184
330
9476
100
AcDbEntity
  8
実形
 62
     0
100
AcDbMText
 10
2287.629956685868
 20
767.1681638289328
 30
0.0
 40
25.0
 41
0.0
 71
     5
 72
     1
  1
27
 73
     1
 44
1.0
1001
ACAD
1000
MTEXTBEGIN
1070
    73
1070
     1
1070
    44
1040
1.0
1070
    74
1070
     0
1000
MTEXTEND
  0
POINT
  5
B185
330
9476
100
AcDbEntity
  8
Defpoints
 62
     0
100
AcDbPoint
 10
2162.629956685868
 20
650.4244183565051
 30
0.0
  0
POINT
  5
B186
330
9476
100
AcDbEntity
  8
Defpoints
 62
     0
100
AcDbPoint
 10
2412.629956685868
 20
650.4244183565051
 30
0.0
  0
POINT
  5
B187
330
9476
100
AcDbEntity
  8
Defpoints
 62
     0
100
AcDbPoint
 10
2412.629956685868
 20
748.4181638289328
 30
0.0
  0
ENDBLK
  5
9481
330
9476
100
AcDbEntity
  8
0
 62
     3
100
AcDbBlockEnd
  0
BLOCK
  5
948C
330
9482
100
AcDbEntity
  8
0
 62
     3
100
AcDbBlockBegin
  2
*D18
 70
     1
 10
0.0
 20
0.0
 30
0.0
  3
*D18
  1

  0
LINE
  5
B188
330
9482
100
AcDbEntity
  8
実形
 62
     0
370
    18
100
AcDbLine
 10
2112.629956685868
 20
720.3628681169393
 30
0.0
 11
2112.629956685868
 21
809.3232943152843
 31
0.0
  0
LINE
  5
B189
330
9482
100
AcDbEntity
  8
実形
 62
     0
370
    18
100
AcDbLine
 10
2682.629956685868
 20
714.3628681169393
 30
0.0
 11
2682.629956685868
 21
809.3232943152843
 31
0.0
  0
LINE
  5
B18A
330
9482
100
AcDbEntity
  8
実形
 62
     0
370
    18
100
AcDbLine
 10
2112.629956685868
 20
809.3232943152843
 30
0.0
 11
2682.629956685868
 21
809.3232943152843
 31
0.0
  0
INSERT
  5
B18B
330
9482
100
AcDbEntity
  8
実形
 62
     0
370
    18
100
AcDbBlockReference
  2
_DotSmall
 10
2112.629956685868
 20
809.3232943152843
 30
0.0
 41
35.0
 42
35.0
 43
35.0
 50
180.0
  0
INSERT
  5
B18C
330
9482
100
AcDbEntity
  8
実形
 62
     0
370
    18
100
AcDbBlockReference
  2
_DotSmall
 10
2682.629956685868
 20
809.3232943152843
 30
0.0
 41
35.0
 42
35.0
 43
35.0
  0
MTEXT
  5
B18D
330
9482
100
AcDbEntity
  8
実形
 62
     0
100
AcDbMText
 10
2397.629956685868
 20
828.0732943152843
 30
0.0
 40
25.0
 41
0.0
 71
     5
 72
     1
  1
59
 73
     1
 44
1.0
1001
ACAD
1000
MTEXTBEGIN
1070
    73
1070
     1
1070
    44
1040
1.0
1070
    74
1070
     0
1000
MTEXTEND
  0
POINT
  5
B18E
330
9482
100
AcDbEntity
  8
Defpoints
 62
     0
100
AcDbPoint
 10
2112.629956685868
 20
655.3628681169393
 30
0.0
  0
POINT
  5
B18F
330
9482
100
AcDbEntity
  8
Defpoints
 62
     0
100
AcDbPoint
 10
2682.629956685868
 20
649.3628681169393
 30
0.0
  0
POINT
  5
B190
330
9482
100
AcDbEntity
  8
Defpoints
 62
     0
100
AcDbPoint
 10
2682.629956685868
 20
809.3232943152843
 30
0.0
  0
ENDBLK
  5
948D
330
9482
100
AcDbEntity
  8
0
 62
     3
100
AcDbBlockEnd
  0
BLOCK
  5
9498
330
948E
100
AcDbEntity
  8
0
 62
     3
100
AcDbBlockBegin
  2
*D19
 70
     1
 10
0.0
 20
0.0
 30
0.0
  3
*D19
  1

  0
LINE
  5
A1EE
330
948E
100
AcDbEntity
  8
実形
 62
     0
370
    18
100
AcDbLine
 10
2711.032322324599
 20
685.949147950414
 30
0.0
 11
2754.140284938466
 21
685.949147950414
 31
0.0
  0
LINE
  5
A1EF
330
948E
100
AcDbEntity
  8
実形
 62
     0
370
    18
100
AcDbLine
 10
2711.032322324599
 20
635.949147950414
 30
0.0
 11
2754.140284938466
 21
635.949147950414
 31
0.0
  0
LINE
  5
A1F0
330
948E
100
AcDbEntity
  8
実形
 62
     0
370
    18
100
AcDbLine
 10
2754.140284938466
 20
685.949147950414
 30
0.0
 11
2754.140284938466
 21
635.949147950414
 31
0.0
  0
INSERT
  5
A1F1
330
948E
100
AcDbEntity
  8
実形
 62
     0
370
    18
100
AcDbBlockReference
  2
_DotSmall
 10
2754.140284938466
 20
685.949147950414
 30
0.0
 41
35.0
 42
35.0
 43
35.0
 50
90.0
  0
INSERT
  5
A1F2
330
948E
100
AcDbEntity
  8
実形
 62
     0
370
    18
100
AcDbBlockReference
  2
_DotSmall
 10
2754.140284938466
 20
635.949147950414
 30
0.0
 41
35.0
 42
35.0
 43
35.0
 50
270.0
  0
MTEXT
  5
A1F3
330
948E
100
AcDbEntity
  8
実形
 62
     0
100
AcDbMText
 10
2735.390284938466
 20
660.9491479504145
 30
0.0
 40
25.0
 41
0.0
 71
     5
 72
     1
  1
5
 11
0.0000000000000001
 21
1.0
 31
0.0
 73
     1
 44
1.0
1001
ACAD
1000
MTEXTBEGIN
1070
    73
1070
     1
1070
    44
1040
1.0
1070
    74
1070
     0
1000
MTEXTEND
  0
POINT
  5
A1F4
330
948E
100
AcDbEntity
  8
Defpoints
 62
     0
100
AcDbPoint
 10
2646.032322324599
 20
685.949147950414
 30
0.0
  0
POINT
  5
A1F5
330
948E
100
AcDbEntity
  8
Defpoints
 62
     0
100
AcDbPoint
 10
2646.032322324599
 20
635.949147950414
 30
0.0
  0
POINT
  5
A1F6
330
948E
100
AcDbEntity
  8
Defpoints
 62
     0
100
AcDbPoint
 10
2754.140284938466
 20
635.949147950414
 30
0.0
  0
ENDBLK
  5
9499
330
948E
100
AcDbEntity
  8
0
 62
     3
100
AcDbBlockEnd
  0
BLOCK
  5
94A4
330
949A
100
AcDbEntity
  8
0
 62
     3
100
AcDbBlockBegin
  2
*D20
 70
     1
 10
0.0
 20
0.0
 30
0.0
  3
*D20
  1

  0
LINE
  5
A1F7
330
949A
100
AcDbEntity
  8
実形
 62
     0
370
    18
100
AcDbLine
 10
2632.629956685868
 20
714.3628681169393
 30
0.0
 11
2632.629956685868
 21
761.8430812161118
 31
0.0
  0
LINE
  5
A1F8
330
949A
100
AcDbEntity
  8
実形
 62
     0
370
    18
100
AcDbLine
 10
2682.629956685868
 20
714.3628681169393
 30
0.0
 11
2682.629956685868
 21
761.8430812161118
 31
0.0
  0
LINE
  5
A1F9
330
949A
100
AcDbEntity
  8
実形
 62
     0
370
    18
100
AcDbLine
 10
2632.629956685868
 20
761.8430812161118
 30
0.0
 11
2682.629956685868
 21
761.8430812161118
 31
0.0
  0
INSERT
  5
A1FA
330
949A
100
AcDbEntity
  8
実形
 62
     0
370
    18
100
AcDbBlockReference
  2
_DotSmall
 10
2632.629956685868
 20
761.8430812161118
 30
0.0
 41
35.0
 42
35.0
 43
35.0
 50
180.0
  0
INSERT
  5
A1FB
330
949A
100
AcDbEntity
  8
実形
 62
     0
370
    18
100
AcDbBlockReference
  2
_DotSmall
 10
2682.629956685868
 20
761.8430812161118
 30
0.0
 41
35.0
 42
35.0
 43
35.0
  0
MTEXT
  5
A1FC
330
949A
100
AcDbEntity
  8
実形
 62
     0
100
AcDbMText
 10
2657.629956685868
 20
780.5930812161118
 30
0.0
 40
25.0
 41
0.0
 71
     5
 72
     1
  1
5
 73
     1
 44
1.0
1001
ACAD
1000
MTEXTBEGIN
1070
    73
1070
     1
1070
    44
1040
1.0
1070
    74
1070
     0
1000
MTEXTEND
  0
POINT
  5
A1FD
330
949A
100
AcDbEntity
  8
Defpoints
 62
     0
100
AcDbPoint
 10
2632.629956685868
 20
649.3628681169393
 30
0.0
  0
POINT
  5
A1FE
330
949A
100
AcDbEntity
  8
Defpoints
 62
     0
100
AcDbPoint
 10
2682.629956685868
 20
649.3628681169393
 30
0.0
  0
POINT
  5
A1FF
330
949A
100
AcDbEntity
  8
Defpoints
 62
     0
100
AcDbPoint
 10
2682.629956685868
 20
761.8430812161118
 30
0.0
  0
ENDBLK
  5
94A5
330
949A
100
AcDbEntity
  8
0
 62
     3
100
AcDbBlockEnd
  0
BLOCK
  5
94B0
330
94A6
100
AcDbEntity
  8
0
 62
     3
100
AcDbBlockBegin
  2
*D21
 70
     1
 10
0.0
 20
0.0
 30
0.0
  3
*D21
  1

  0
LINE
  5
A200
330
94A6
100
AcDbEntity
  8
実形
 62
     0
370
    18
100
AcDbLine
 10
2426.340982258765
 20
615.949147950414
 30
0.0
 11
2455.858320481269
 21
615.949147950414
 31
0.0
  0
LINE
  5
A201
330
94A6
100
AcDbEntity
  8
実形
 62
     0
370
    18
100
AcDbLine
 10
2426.340982258765
 20
565.949147950414
 30
0.0
 11
2455.858320481269
 21
565.949147950414
 31
0.0
  0
LINE
  5
A202
330
94A6
100
AcDbEntity
  8
実形
 62
     0
370
    18
100
AcDbLine
 10
2455.858320481269
 20
615.949147950414
 30
0.0
 11
2455.858320481269
 21
565.949147950414
 31
0.0
  0
INSERT
  5
A203
330
94A6
100
AcDbEntity
  8
実形
 62
     0
370
    18
100
AcDbBlockReference
  2
_DotSmall
 10
2455.858320481269
 20
615.949147950414
 30
0.0
 41
35.0
 42
35.0
 43
35.0
 50
90.0
  0
INSERT
  5
A204
330
94A6
100
AcDbEntity
  8
実形
 62
     0
370
    18
100
AcDbBlockReference
  2
_DotSmall
 10
2455.858320481269
 20
565.949147950414
 30
0.0
 41
35.0
 42
35.0
 43
35.0
 50
270.0
  0
MTEXT
  5
A205
330
94A6
100
AcDbEntity
  8
実形
 62
     0
100
AcDbMText
 10
2437.108320481268
 20
590.9491479504144
 30
0.0
 40
25.0
 41
0.0
 71
     5
 72
     1
  1
5
 11
0.0000000000000001
 21
1.0
 31
0.0
 73
     1
 44
1.0
1001
ACAD
1000
MTEXTBEGIN
1070
    73
1070
     1
1070
    44
1040
1.0
1070
    74
1070
     0
1000
MTEXTEND
  0
POINT
  5
A206
330
94A6
100
AcDbEntity
  8
Defpoints
 62
     0
100
AcDbPoint
 10
2361.340982258765
 20
615.949147950414
 30
0.0
  0
POINT
  5
A207
330
94A6
100
AcDbEntity
  8
Defpoints
 62
     0
100
AcDbPoint
 10
2361.340982258765
 20
565.949147950414
 30
0.0
  0
POINT
  5
A208
330
94A6
100
AcDbEntity
  8
Defpoints
 62
     0
100
AcDbPoint
 10
2455.858320481269
 20
565.949147950414
 30
0.0
  0
ENDBLK
  5
94B1
330
94A6
100
AcDbEntity
  8
0
 62
     3
100
AcDbBlockEnd
  0
BLOCK
  5
94BC
330
94B2
100
AcDbEntity
  8
0
 62
     3
100
AcDbBlockBegin
  2
*D22
 70
     1
 10
0.0
 20
0.0
 30
0.0
  3
*D22
  1

  0
LINE
  5
A209
330
94B2
100
AcDbEntity
  8
実形
 62
     0
370
    18
100
AcDbLine
 10
2192.629956685868
 20
456.7145072985422
 30
0.0
 11
2192.629956685868
 21
433.2504785557957
 31
0.0
  0
LINE
  5
A20A
330
94B2
100
AcDbEntity
  8
実形
 62
     0
370
    18
100
AcDbLine
 10
2442.629956685868
 20
456.7145072985422
 30
0.0
 11
2442.629956685868
 21
433.2504785557957
 31
0.0
  0
LINE
  5
A20B
330
94B2
100
AcDbEntity
  8
実形
 62
     0
370
    18
100
AcDbLine
 10
2192.629956685868
 20
433.2504785557957
 30
0.0
 11
2442.629956685868
 21
433.2504785557957
 31
0.0
  0
INSERT
  5
A20C
330
94B2
100
AcDbEntity
  8
実形
 62
     0
370
    18
100
AcDbBlockReference
  2
_DotSmall
 10
2192.629956685868
 20
433.2504785557957
 30
0.0
 41
35.0
 42
35.0
 43
35.0
 50
180.0
  0
INSERT
  5
A20D
330
94B2
100
AcDbEntity
  8
実形
 62
     0
370
    18
100
AcDbBlockReference
  2
_DotSmall
 10
2442.629956685868
 20
433.2504785557957
 30
0.0
 41
35.0
 42
35.0
 43
35.0
  0
MTEXT
  5
A20E
330
94B2
100
AcDbEntity
  8
実形
 62
     0
100
AcDbMText
 10
2317.629956685868
 20
452.0004785557957
 30
0.0
 40
25.0
 41
0.0
 71
     5
 72
     1
  1
25
 73
     1
 44
1.0
1001
ACAD
1000
MTEXTBEGIN
1070
    73
1070
     1
1070
    44
1040
1.0
1070
    74
1070
     0
1000
MTEXTEND
  0
POINT
  5
A20F
330
94B2
100
AcDbEntity
  8
Defpoints
 62
     0
100
AcDbPoint
 10
2192.629956685868
 20
521.7145072985422
 30
0.0
  0
POINT
  5
A210
330
94B2
100
AcDbEntity
  8
Defpoints
 62
     0
100
AcDbPoint
 10
2442.629956685868
 20
521.7145072985422
 30
0.0
  0
POINT
  5
A211
330
94B2
100
AcDbEntity
  8
Defpoints
 62
     0
100
AcDbPoint
 10
2442.629956685868
 20
433.2504785557957
 30
0.0
  0
ENDBLK
  5
94BD
330
94B2
100
AcDbEntity
  8
0
 62
     3
100
AcDbBlockEnd
  0
BLOCK
  5
94C8
330
94BE
100
AcDbEntity
  8
0
 62
     3
100
AcDbBlockBegin
  2
*D23
 70
     1
 10
0.0
 20
0.0
 30
0.0
  3
*D23
  1

  0
LINE
  5
A212
330
94BE
100
AcDbEntity
  8
実形
 62
     0
370
    18
100
AcDbLine
 10
2472.397881736805
 20
557.5221228905047
 30
0.0
 11
2490.342061978752
 21
557.5221228905047
 31
0.0
  0
LINE
  5
A213
330
94BE
100
AcDbEntity
  8
実形
 62
     0
370
    18
100
AcDbLine
 10
2472.397881736805
 20
487.5221228905046
 30
0.0
 11
2490.342061978752
 21
487.5221228905046
 31
0.0
  0
LINE
  5
A214
330
94BE
100
AcDbEntity
  8
実形
 62
     0
370
    18
100
AcDbLine
 10
2490.342061978752
 20
557.5221228905047
 30
0.0
 11
2490.342061978752
 21
487.5221228905046
 31
0.0
  0
INSERT
  5
A215
330
94BE
100
AcDbEntity
  8
実形
 62
     0
370
    18
100
AcDbBlockReference
  2
_DotSmall
 10
2490.342061978752
 20
557.5221228905047
 30
0.0
 41
35.0
 42
35.0
 43
35.0
 50
90.0
  0
INSERT
  5
A216
330
94BE
100
AcDbEntity
  8
実形
 62
     0
370
    18
100
AcDbBlockReference
  2
_DotSmall
 10
2490.342061978752
 20
487.5221228905046
 30
0.0
 41
35.0
 42
35.0
 43
35.0
 50
270.0
  0
MTEXT
  5
A217
330
94BE
100
AcDbEntity
  8
実形
 62
     0
100
AcDbMText
 10
2471.592061978752
 20
522.5221228905052
 30
0.0
 40
25.0
 41
0.0
 71
     5
 72
     1
  1
7
 11
0.0000000000000001
 21
1.0
 31
0.0
 73
     1
 44
1.0
1001
ACAD
1000
MTEXTBEGIN
1070
    73
1070
     1
1070
    44
1040
1.0
1070
    74
1070
     0
1000
MTEXTEND
  0
POINT
  5
A218
330
94BE
100
AcDbEntity
  8
Defpoints
 62
     0
100
AcDbPoint
 10
2407.397881736805
 20
557.5221228905047
 30
0.0
  0
POINT
  5
A219
330
94BE
100
AcDbEntity
  8
Defpoints
 62
     0
100
AcDbPoint
 10
2407.397881736805
 20
487.5221228905047
 30
0.0
  0
POINT
  5
A21A
330
94BE
100
AcDbEntity
  8
Defpoints
 62
     0
100
AcDbPoint
 10
2490.342061978752
 20
487.5221228905046
 30
0.0
  0
ENDBLK
  5
94C9
330
94BE
100
AcDbEntity
  8
0
 62
     3
100
AcDbBlockEnd
  0
BLOCK
  5
94D4
330
94CA
100
AcDbEntity
  8
0
 62
     3
100
AcDbBlockBegin
  2
*D24
 70
     1
 10
0.0
 20
0.0
 30
0.0
  3
*D24
  1

  0
LINE
  5
A21B
330
94CA
100
AcDbEntity
  8
実形
 62
     0
370
    18
100
AcDbLine
 10
2412.629956685868
 20
720.8341679468849
 30
0.0
 11
2412.629956685868
 21
748.4181638289328
 31
0.0
  0
LINE
  5
A21C
330
94CA
100
AcDbEntity
  8
実形
 62
     0
370
    18
100
AcDbLine
 10
2532.629956685868
 20
717.2786915959513
 30
0.0
 11
2532.629956685868
 21
748.4181638289328
 31
0.0
  0
LINE
  5
A21D
330
94CA
100
AcDbEntity
  8
実形
 62
     0
370
    18
100
AcDbLine
 10
2412.629956685868
 20
748.4181638289328
 30
0.0
 11
2532.629956685868
 21
748.4181638289328
 31
0.0
  0
INSERT
  5
A21E
330
94CA
100
AcDbEntity
  8
実形
 62
     0
370
    18
100
AcDbBlockReference
  2
_DotSmall
 10
2412.629956685868
 20
748.4181638289328
 30
0.0
 41
35.0
 42
35.0
 43
35.0
 50
180.0
  0
INSERT
  5
A21F
330
94CA
100
AcDbEntity
  8
実形
 62
     0
370
    18
100
AcDbBlockReference
  2
_DotSmall
 10
2532.629956685868
 20
748.4181638289328
 30
0.0
 41
35.0
 42
35.0
 43
35.0
  0
MTEXT
  5
A220
330
94CA
100
AcDbEntity
  8
実形
 62
     0
100
AcDbMText
 10
2472.629956685868
 20
767.1681638289328
 30
0.0
 40
25.0
 41
0.0
 71
     5
 72
     1
  1
12
 73
     1
 44
1.0
1001
ACAD
1000
MTEXTBEGIN
1070
    73
1070
     1
1070
    44
1040
1.0
1070
    74
1070
     0
1000
MTEXTEND
  0
POINT
  5
A221
330
94CA
100
AcDbEntity
  8
Defpoints
 62
     0
100
AcDbPoint
 10
2412.629956685868
 20
655.8341679468849
 30
0.0
  0
POINT
  5
A222
330
94CA
100
AcDbEntity
  8
Defpoints
 62
     0
100
AcDbPoint
 10
2532.629956685868
 20
652.2786915959514
 30
0.0
  0
POINT
  5
A223
330
94CA
100
AcDbEntity
  8
Defpoints
 62
     0
100
AcDbPoint
 10
2532.629956685868
 20
748.4181638289328
 30
0.0
  0
ENDBLK
  5
94D5
330
94CA
100
AcDbEntity
  8
0
 62
     3
100
AcDbBlockEnd
  0
BLOCK
  5
9729
330
971F
100
AcDbEntity
  8
0
 62
     3
100
AcDbBlockBegin
  2
*D25
 70
     1
 10
0.0
 20
0.0
 30
0.0
  3
*D25
  1

  0
LINE
  5
B1AD
330
971F
100
AcDbEntity
  8
実形
 62
     0
370
    18
100
AcDbLine
 10
563.0239931742753
 20
1164.303376488294
 30
0.0
 11
563.0239931742753
 21
1119.820443634184
 31
0.0
  0
LINE
  5
B1AE
330
971F
100
AcDbEntity
  8
実形
 62
     0
370
    18
100
AcDbLine
 10
1313.023993174276
 20
1164.303376488294
 30
0.0
 11
1313.023993174276
 21
1119.820443634184
 31
0.0
  0
LINE
  5
B1AF
330
971F
100
AcDbEntity
  8
実形
 62
     0
370
    18
100
AcDbLine
 10
573.0239931742753
 20
1119.820443634184
 30
0.0
 11
1303.023993174275
 21
1119.820443634184
 31
0.0
  0
INSERT
  5
B1B0
330
971F
100
AcDbEntity
  8
実形
 62
     0
370
    18
100
AcDbBlockReference
  2
_Dot
 10
563.0239931742753
 20
1119.820443634184
 30
0.0
 41
10.0
 42
10.0
 43
10.0
 50
180.0
  0
INSERT
  5
B1B1
330
971F
100
AcDbEntity
  8
実形
 62
     0
370
    18
100
AcDbBlockReference
  2
_Dot
 10
1313.023993174276
 20
1119.820443634184
 30
0.0
 41
10.0
 42
10.0
 43
10.0
  0
MTEXT
  5
B1B2
330
971F
100
AcDbEntity
  8
実形
 62
     0
100
AcDbMText
 10
938.0239931742755
 20
1141.420443634184
 30
0.0
 40
30.0
 41
0.0
 71
     5
 72
     1
  1
748
 73
     1
 44
1.0
1001
ACAD
1000
MTEXTBEGIN
1070
    73
1070
     1
1070
    44
1040
1.0
1070
    74
1070
     0
1000
MTEXTEND
  0
POINT
  5
B1B3
330
971F
100
AcDbEntity
  8
Defpoints
 62
     0
100
AcDbPoint
 10
563.0239931742753
 20
1229.303376488294
 30
0.0
  0
POINT
  5
B1B4
330
971F
100
AcDbEntity
  8
Defpoints
 62
     0
100
AcDbPoint
 10
1313.023993174276
 20
1229.303376488294
 30
0.0
  0
POINT
  5
B1B5
330
971F
100
AcDbEntity
  8
Defpoints
 62
     0
100
AcDbPoint
 10
1313.023993174276
 20
1119.820443634184
 30
0.0
  0
ENDBLK
  5
972A
330
971F
100
AcDbEntity
  8
0
 62
     3
100
AcDbBlockEnd
  0
BLOCK
  5
9736
330
972C
100
AcDbEntity
  8
0
 62
     3
100
AcDbBlockBegin
  2
*D26
 70
     1
 10
0.0
 20
0.0
 30
0.0
  3
*D26
  1

  0
LINE
  5
B1B6
330
972C
100
AcDbEntity
  8
実形
 62
     0
370
    18
100
AcDbLine
 10
504.0239931742749
 20
1164.303376488294
 30
0.0
 11
504.0239931742749
 21
1119.820443634184
 31
0.0
  0
LINE
  5
B1B7
330
972C
100
AcDbEntity
  8
実形
 62
     0
370
    18
100
AcDbLine
 10
1313.023993174276
 20
1164.303376488294
 30
0.0
 11
1313.023993174276
 21
1119.820443634184
 31
0.0
  0
LINE
  5
B1B8
330
972C
100
AcDbEntity
  8
実形
 62
     0
370
    18
100
AcDbLine
 10
514.0239931742748
 20
1119.820443634184
 30
0.0
 11
1303.023993174275
 21
1119.820443634184
 31
0.0
  0
MTEXT
  5
B1B9
330
972C
100
AcDbEntity
  8
実形
 62
     0
100
AcDbMText
 10
533.9972375229226
 20
1141.420443634184
 30
0.0
 40
25.0
 41
0.0
 71
     5
 72
     1
  1
60
 73
     1
 44
1.0
1001
ACAD
1000
MTEXTBEGIN
1070
    73
1070
     1
1070
    44
1040
1.0
1070
    74
1070
     0
1000
MTEXTEND
  0
INSERT
  5
B1BA
330
972C
100
AcDbEntity
  8
実形
 62
     0
370
    18
100
AcDbBlockReference
  2
_Dot
 10
504.0239931742749
 20
1119.820443634184
 30
0.0
 41
10.0
 42
10.0
 43
10.0
 50
180.0
  0
INSERT
  5
B1BB
330
972C
100
AcDbEntity
  8
実形
 62
     0
370
    18
100
AcDbBlockReference
  2
_Dot
 10
1313.023993174276
 20
1119.820443634184
 30
0.0
 41
10.0
 42
10.0
 43
10.0
  0
POINT
  5
B1BC
330
972C
100
AcDbEntity
  8
Defpoints
 62
     0
100
AcDbPoint
 10
504.0239931742749
 20
1229.303376488294
 30
0.0
  0
POINT
  5
B1BD
330
972C
100
AcDbEntity
  8
Defpoints
 62
     0
100
AcDbPoint
 10
1313.023993174276
 20
1229.303376488294
 30
0.0
  0
POINT
  5
B1BE
330
972C
100
AcDbEntity
  8
Defpoints
 62
     0
100
AcDbPoint
 10
1313.023993174276
 20
1119.820443634184
 30
0.0
  0
ENDBLK
  5
9737
330
972C
100
AcDbEntity
  8
0
 62
     3
100
AcDbBlockEnd
  0
BLOCK
  5
977A
330
9770
100
AcDbEntity
  8
0
 62
     3
100
AcDbBlockBegin
  2
*D27
 70
     1
 10
0.0
 20
0.0
 30
0.0
  3
*D27
  1

  0
LINE
  5
B1BF
330
9770
100
AcDbEntity
  8
実形
 62
     0
370
    18
100
AcDbLine
 10
563.0239931742753
 20
1164.303376488294
 30
0.0
 11
563.0239931742753
 21
1119.820443634184
 31
0.0
  0
LINE
  5
B1C0
330
9770
100
AcDbEntity
  8
実形
 62
     0
370
    18
100
AcDbLine
 10
1372.023993174276
 20
1164.303376488294
 30
0.0
 11
1372.023993174276
 21
1119.820443634184
 31
0.0
  0
LINE
  5
B1C1
330
9770
100
AcDbEntity
  8
実形
 62
     0
370
    18
100
AcDbLine
 10
573.0239931742753
 20
1119.820443634184
 30
0.0
 11
1362.023993174276
 21
1119.820443634184
 31
0.0
  0
MTEXT
  5
B1C2
330
9770
100
AcDbEntity
  8
実形
 62
     0
100
AcDbMText
 10
1342.982765884575
 20
1141.420443634184
 30
0.0
 40
25.0
 41
0.0
 71
     5
 72
     1
  1
60
 73
     1
 44
1.0
1001
ACAD
1000
MTEXTBEGIN
1070
    73
1070
     1
1070
    44
1040
1.0
1070
    74
1070
     0
1000
MTEXTEND
  0
INSERT
  5
B1C3
330
9770
100
AcDbEntity
  8
実形
 62
     0
370
    18
100
AcDbBlockReference
  2
_Dot
 10
563.0239931742753
 20
1119.820443634184
 30
0.0
 41
10.0
 42
10.0
 43
10.0
 50
180.0
  0
INSERT
  5
B1C4
330
9770
100
AcDbEntity
  8
実形
 62
     0
370
    18
100
AcDbBlockReference
  2
_Dot
 10
1372.023993174276
 20
1119.820443634184
 30
0.0
 41
10.0
 42
10.0
 43
10.0
  0
POINT
  5
B1C5
330
9770
100
AcDbEntity
  8
Defpoints
 62
     0
100
AcDbPoint
 10
563.0239931742753
 20
1229.303376488294
 30
0.0
  0
POINT
  5
B1C6
330
9770
100
AcDbEntity
  8
Defpoints
 62
     0
100
AcDbPoint
 10
1372.023993174276
 20
1229.303376488294
 30
0.0
  0
POINT
  5
B1C7
330
9770
100
AcDbEntity
  8
Defpoints
 62
     0
100
AcDbPoint
 10
1372.023993174276
 20
1119.820443634184
 30
0.0
  0
ENDBLK
  5
977B
330
9770
100
AcDbEntity
  8
0
 62
     3
100
AcDbBlockEnd
  0
BLOCK
  5
97AB
330
97A1
100
AcDbEntity
  8
0
 62
     3
100
AcDbBlockBegin
  2
*D28
 70
     1
 10
0.0
 20
0.0
 30
0.0
  3
*D28
  1

  0
LINE
  5
A9C8
330
97A1
100
AcDbEntity
  8
実形
 62
     0
370
    18
100
AcDbLine
 10
504.0239931742749
 20
1180.259185592099
 30
0.0
 11
504.0239931742749
 21
1061.449708252456
 31
0.0
  0
LINE
  5
A9C9
330
97A1
100
AcDbEntity
  8
実形
 62
     0
370
    18
100
AcDbLine
 10
1372.023993174276
 20
1180.259185592099
 30
0.0
 11
1372.023993174276
 21
1061.449708252456
 31
0.0
  0
LINE
  5
A9CA
330
97A1
100
AcDbEntity
  8
実形
 62
     0
370
    18
100
AcDbLine
 10
514.0239931742748
 20
1061.449708252456
 30
0.0
 11
1362.023993174276
 21
1061.449708252456
 31
0.0
  0
INSERT
  5
A9CB
330
97A1
100
AcDbEntity
  8
実形
 62
     0
370
    18
100
AcDbBlockReference
  2
_Dot
 10
504.0239931742749
 20
1061.449708252456
 30
0.0
 41
10.0
 42
10.0
 43
10.0
 50
180.0
  0
INSERT
  5
A9CC
330
97A1
100
AcDbEntity
  8
実形
 62
     0
370
    18
100
AcDbBlockReference
  2
_Dot
 10
1372.023993174276
 20
1061.449708252456
 30
0.0
 41
10.0
 42
10.0
 43
10.0
  0
MTEXT
  5
A9CD
330
97A1
100
AcDbEntity
  8
実形
 62
     0
100
AcDbMText
 10
938.0239931742753
 20
1083.049708252456
 30
0.0
 40
30.0
 41
0.0
 71
     5
 72
     1
  1
868
 73
     1
 44
1.0
1001
ACAD
1000
MTEXTBEGIN
1070
    73
1070
     1
1070
    44
1040
1.0
1070
    74
1070
     0
1000
MTEXTEND
  0
POINT
  5
A9CE
330
97A1
100
AcDbEntity
  8
Defpoints
 62
     0
100
AcDbPoint
 10
504.0239931742749
 20
1245.259185592099
 30
0.0
  0
POINT
  5
A9CF
330
97A1
100
AcDbEntity
  8
Defpoints
 62
     0
100
AcDbPoint
 10
1372.023993174276
 20
1245.259185592099
 30
0.0
  0
POINT
  5
A9D0
330
97A1
100
AcDbEntity
  8
Defpoints
 62
     0
100
AcDbPoint
 10
1372.023993174276
 20
1061.449708252456
 30
0.0
  0
ENDBLK
  5
97AC
330
97A1
100
AcDbEntity
  8
0
 62
     3
100
AcDbBlockEnd
  0
BLOCK
  5
9824
330
981A
100
AcDbEntity
  8
0
 62
     3
100
AcDbBlockBegin
  2
*D29
 70
     1
 10
0.0
 20
0.0
 30
0.0
  3
*D29
  1

  0
LINE
  5
B19B
330
981A
100
AcDbEntity
  8
実形
 62
     0
370
    18
100
AcDbLine
 10
438.9120478012337
 20
1673.693471705117
 30
0.0
 11
394.2667574347689
 21
1673.693471705117
 31
0.0
  0
LINE
  5
B19C
330
981A
100
AcDbEntity
  8
実形
 62
     0
370
    18
100
AcDbLine
 10
438.9120478012336
 20
1273.693471705118
 30
0.0
 11
394.2667574347688
 21
1273.693471705118
 31
0.0
  0
LINE
  5
B19D
330
981A
100
AcDbEntity
  8
実形
 62
     0
370
    18
100
AcDbLine
 10
394.2667574347689
 20
1663.693471705118
 30
0.0
 11
394.2667574347688
 21
1283.693471705118
 31
0.0
  0
INSERT
  5
B19E
330
981A
100
AcDbEntity
  8
実形
 62
     0
370
    18
100
AcDbBlockReference
  2
_Dot
 10
394.2667574347689
 20
1673.693471705117
 30
0.0
 41
10.0
 42
10.0
 43
10.0
 50
90.0
  0
INSERT
  5
B19F
330
981A
100
AcDbEntity
  8
実形
 62
     0
370
    18
100
AcDbBlockReference
  2
_Dot
 10
394.2667574347688
 20
1273.693471705118
 30
0.0
 41
10.0
 42
10.0
 43
10.0
 50
270.0
  0
MTEXT
  5
B1A0
330
981A
100
AcDbEntity
  8
実形
 62
     0
100
AcDbMText
 10
372.6667574347686
 20
1473.693471705118
 30
0.0
 40
30.0
 41
0.0
 71
     5
 72
     1
  1
396
 11
0.0000000000000001
 21
1.0
 31
0.0
 73
     1
 44
1.0
1001
ACAD
1000
MTEXTBEGIN
1070
    73
1070
     1
1070
    44
1040
1.0
1070
    74
1070
     0
1000
MTEXTEND
  0
POINT
  5
B1A1
330
981A
100
AcDbEntity
  8
Defpoints
 62
     0
100
AcDbPoint
 10
503.9120478012336
 20
1673.693471705117
 30
0.0
  0
POINT
  5
B1A2
330
981A
100
AcDbEntity
  8
Defpoints
 62
     0
100
AcDbPoint
 10
503.9120478012335
 20
1273.693471705118
 30
0.0
  0
POINT
  5
B1A3
330
981A
100
AcDbEntity
  8
Defpoints
 62
     0
100
AcDbPoint
 10
394.2667574347688
 20
1273.693471705118
 30
0.0
  0
ENDBLK
  5
9825
330
981A
100
AcDbEntity
  8
0
 62
     3
100
AcDbBlockEnd
  0
BLOCK
  5
9831
330
9827
100
AcDbEntity
  8
0
 62
     3
100
AcDbBlockBegin
  2
*D30
 70
     1
 10
0.0
 20
0.0
 30
0.0
  3
*D30
  1

  0
LINE
  5
B1A4
330
9827
100
AcDbEntity
  8
実形
 62
     0
370
    18
100
AcDbLine
 10
438.9120478012337
 20
1730.693471705118
 30
0.0
 11
394.2667574347689
 21
1730.693471705118
 31
0.0
  0
LINE
  5
B1A5
330
9827
100
AcDbEntity
  8
実形
 62
     0
370
    18
100
AcDbLine
 10
438.9120478012337
 20
1273.693471705118
 30
0.0
 11
394.2667574347688
 21
1273.693471705118
 31
0.0
  0
LINE
  5
B1A6
330
9827
100
AcDbEntity
  8
実形
 62
     0
370
    18
100
AcDbLine
 10
394.2667574347689
 20
1720.693471705118
 30
0.0
 11
394.2667574347688
 21
1283.693471705118
 31
0.0
  0
MTEXT
  5
B1A7
330
9827
100
AcDbEntity
  8
実形
 62
     0
100
AcDbMText
 10
372.6667574347686
 20
1698.354985760122
 30
0.0
 40
30.0
 41
0.0
 71
     5
 72
     1
  1
59
 11
0.0000000000000001
 21
1.0
 31
0.0
 73
     1
 44
1.0
1001
ACAD
1000
MTEXTBEGIN
1070
    73
1070
     1
1070
    44
1040
1.0
1070
    74
1070
     0
1000
MTEXTEND
  0
INSERT
  5
B1A8
330
9827
100
AcDbEntity
  8
実形
 62
     0
370
    18
100
AcDbBlockReference
  2
_Dot
 10
394.2667574347689
 20
1730.693471705118
 30
0.0
 41
10.0
 42
10.0
 43
10.0
 50
90.0
  0
INSERT
  5
B1A9
330
9827
100
AcDbEntity
  8
実形
 62
     0
370
    18
100
AcDbBlockReference
  2
_Dot
 10
394.2667574347688
 20
1273.693471705118
 30
0.0
 41
10.0
 42
10.0
 43
10.0
 50
270.0
  0
POINT
  5
B1AA
330
9827
100
AcDbEntity
  8
Defpoints
 62
     0
100
AcDbPoint
 10
503.9120478012336
 20
1730.693471705118
 30
0.0
  0
POINT
  5
B1AB
330
9827
100
AcDbEntity
  8
Defpoints
 62
     0
100
AcDbPoint
 10
503.9120478012336
 20
1273.693471705118
 30
0.0
  0
POINT
  5
B1AC
330
9827
100
AcDbEntity
  8
Defpoints
 62
     0
100
AcDbPoint
 10
394.2667574347688
 20
1273.693471705118
 30
0.0
  0
ENDBLK
  5
9832
330
9827
100
AcDbEntity
  8
0
 62
     3
100
AcDbBlockEnd
  0
BLOCK
  5
9863
330
9859
100
AcDbEntity
  8
0
 62
     3
100
AcDbBlockBegin
  2
*D31
 70
     1
 10
0.0
 20
0.0
 30
0.0
  3
*D31
  1

  0
LINE
  5
B192
330
9859
100
AcDbEntity
  8
実形
 62
     0
370
    18
100
AcDbLine
 10
438.9120478012337
 20
1673.693471705118
 30
0.0
 11
394.2667574347689
 21
1673.693471705118
 31
0.0
  0
LINE
  5
B193
330
9859
100
AcDbEntity
  8
実形
 62
     0
370
    18
100
AcDbLine
 10
438.9120478012337
 20
1216.693471705118
 30
0.0
 11
394.2667574347688
 21
1216.693471705118
 31
0.0
  0
LINE
  5
B194
330
9859
100
AcDbEntity
  8
実形
 62
     0
370
    18
100
AcDbLine
 10
394.2667574347689
 20
1663.693471705118
 30
0.0
 11
394.2667574347688
 21
1226.693471705118
 31
0.0
  0
MTEXT
  5
B195
330
9859
100
AcDbEntity
  8
実形
 62
     0
100
AcDbMText
 10
372.6667574347686
 20
1254.732096622301
 30
0.0
 40
30.0
 41
0.0
 71
     5
 72
     1
  1
59
 11
0.0000000000000001
 21
1.0
 31
0.0
 73
     1
 44
1.0
1001
ACAD
1000
MTEXTBEGIN
1070
    73
1070
     1
1070
    44
1040
1.0
1070
    74
1070
     0
1000
MTEXTEND
  0
INSERT
  5
B196
330
9859
100
AcDbEntity
  8
実形
 62
     0
370
    18
100
AcDbBlockReference
  2
_Dot
 10
394.2667574347689
 20
1673.693471705118
 30
0.0
 41
10.0
 42
10.0
 43
10.0
 50
90.0
  0
INSERT
  5
B197
330
9859
100
AcDbEntity
  8
実形
 62
     0
370
    18
100
AcDbBlockReference
  2
_Dot
 10
394.2667574347688
 20
1216.693471705118
 30
0.0
 41
10.0
 42
10.0
 43
10.0
 50
270.0
  0
POINT
  5
B198
330
9859
100
AcDbEntity
  8
Defpoints
 62
     0
100
AcDbPoint
 10
503.9120478012336
 20
1673.693471705118
 30
0.0
  0
POINT
  5
B199
330
9859
100
AcDbEntity
  8
Defpoints
 62
     0
100
AcDbPoint
 10
503.9120478012336
 20
1216.693471705118
 30
0.0
  0
POINT
  5
B19A
330
9859
100
AcDbEntity
  8
Defpoints
 62
     0
100
AcDbPoint
 10
394.2667574347688
 20
1216.693471705118
 30
0.0
  0
ENDBLK
  5
9864
330
9859
100
AcDbEntity
  8
0
 62
     3
100
AcDbBlockEnd
  0
BLOCK
  5
988B
330
9881
100
AcDbEntity
  8
0
 62
     3
100
AcDbBlockBegin
  2
*D32
 70
     1
 10
0.0
 20
0.0
 30
0.0
  3
*D32
  1

  0
LINE
  5
A9EC
330
9881
100
AcDbEntity
  8
実形
 62
     0
370
    18
100
AcDbLine
 10
401.8884494826107
 20
1730.693471705118
 30
0.0
 11
329.9512773348307
 21
1730.693471705118
 31
0.0
  0
LINE
  5
A9ED
330
9881
100
AcDbEntity
  8
実形
 62
     0
370
    18
100
AcDbLine
 10
409.9300072463902
 20
1216.693471705118
 30
0.0
 11
329.9512773348306
 21
1216.693471705118
 31
0.0
  0
LINE
  5
A9EE
330
9881
100
AcDbEntity
  8
実形
 62
     0
370
    18
100
AcDbLine
 10
329.9512773348307
 20
1720.693471705118
 30
0.0
 11
329.9512773348306
 21
1226.693471705118
 31
0.0
  0
INSERT
  5
A9EF
330
9881
100
AcDbEntity
  8
実形
 62
     0
370
    18
100
AcDbBlockReference
  2
_Dot
 10
329.9512773348307
 20
1730.693471705118
 30
0.0
 41
10.0
 42
10.0
 43
10.0
 50
90.0
  0
INSERT
  5
A9F0
330
9881
100
AcDbEntity
  8
実形
 62
     0
370
    18
100
AcDbBlockReference
  2
_Dot
 10
329.9512773348306
 20
1216.693471705118
 30
0.0
 41
10.0
 42
10.0
 43
10.0
 50
270.0
  0
MTEXT
  5
A9F1
330
9881
100
AcDbEntity
  8
実形
 62
     0
100
AcDbMText
 10
308.3512773348304
 20
1473.693471705118
 30
0.0
 40
30.0
 41
0.0
 71
     5
 72
     1
  1
514
 11
0.0000000000000001
 21
1.0
 31
0.0
 73
     1
 44
1.0
1001
ACAD
1000
MTEXTBEGIN
1070
    73
1070
     1
1070
    44
1040
1.0
1070
    74
1070
     0
1000
MTEXTEND
  0
POINT
  5
A9F2
330
9881
100
AcDbEntity
  8
Defpoints
 62
     0
100
AcDbPoint
 10
466.8884494826106
 20
1730.693471705118
 30
0.0
  0
POINT
  5
A9F3
330
9881
100
AcDbEntity
  8
Defpoints
 62
     0
100
AcDbPoint
 10
474.9300072463902
 20
1216.693471705118
 30
0.0
  0
POINT
  5
A9F4
330
9881
100
AcDbEntity
  8
Defpoints
 62
     0
100
AcDbPoint
 10
329.9512773348306
 20
1216.693471705118
 30
0.0
  0
ENDBLK
  5
988C
330
9881
100
AcDbEntity
  8
0
 62
     3
100
AcDbBlockEnd
  0
BLOCK
  5
9F9F
330
9F95
100
AcDbEntity
  8
0
 62
     3
100
AcDbBlockBegin
  2
*D33
 70
     1
 10
0.0
 20
0.0
 30
0.0
  3
*D33
  1

  0
LINE
  5
B0E8
330
9F95
100
AcDbEntity
  8
実形
 62
     0
370
    18
100
AcDbLine
 10
2082.629956685868
 20
1342.908065037131
 30
0.0
 11
2082.629956685868
 21
1312.425214153543
 31
0.0
  0
LINE
  5
B0E9
330
9F95
100
AcDbEntity
  8
実形
 62
     0
370
    18
100
AcDbLine
 10
2132.629956685867
 20
1342.908065037131
 30
0.0
 11
2132.629956685867
 21
1312.425214153543
 31
0.0
  0
LINE
  5
B0EA
330
9F95
100
AcDbEntity
  8
実形
 62
     0
370
    18
100
AcDbLine
 10
2082.629956685868
 20
1312.425214153543
 30
0.0
 11
2132.629956685867
 21
1312.425214153543
 31
0.0
  0
INSERT
  5
B0EB
330
9F95
100
AcDbEntity
  8
実形
 62
     0
370
    18
100
AcDbBlockReference
  2
_DotSmall
 10
2082.629956685868
 20
1312.425214153543
 30
0.0
 41
35.0
 42
35.0
 43
35.0
 50
180.0
  0
INSERT
  5
B0EC
330
9F95
100
AcDbEntity
  8
実形
 62
     0
370
    18
100
AcDbBlockReference
  2
_DotSmall
 10
2132.629956685867
 20
1312.425214153543
 30
0.0
 41
35.0
 42
35.0
 43
35.0
  0
MTEXT
  5
B0ED
330
9F95
100
AcDbEntity
  8
実形
 62
     0
100
AcDbMText
 10
2108.744931551634
 20
1331.175214153544
 30
0.0
 40
25.0
 41
0.0
 71
     5
 72
     1
  1
5
 73
     1
 44
1.0
1001
ACAD
1000
MTEXTBEGIN
1070
    73
1070
     1
1070
    44
1040
1.0
1070
    74
1070
     0
1000
MTEXTEND
  0
POINT
  5
B0EE
330
9F95
100
AcDbEntity
  8
Defpoints
 62
     0
100
AcDbPoint
 10
2082.629956685868
 20
1407.90806503713
 30
0.0
  0
POINT
  5
B0EF
330
9F95
100
AcDbEntity
  8
Defpoints
 62
     0
100
AcDbPoint
 10
2132.629956685867
 20
1407.90806503713
 30
0.0
  0
POINT
  5
B0F0
330
9F95
100
AcDbEntity
  8
Defpoints
 62
     0
100
AcDbPoint
 10
2132.629956685867
 20
1312.425214153543
 30
0.0
  0
ENDBLK
  5
9FA0
330
9F95
100
AcDbEntity
  8
0
 62
     3
100
AcDbBlockEnd
  0
BLOCK
  5
9FAB
330
9FA1
100
AcDbEntity
  8
0
 62
     3
100
AcDbBlockBegin
  2
*D34
 70
     1
 10
0.0
 20
0.0
 30
0.0
  3
*D34
  1

  0
LINE
  5
B0F1
330
9FA1
100
AcDbEntity
  8
実形
 62
     0
370
    18
100
AcDbLine
 10
2055.780658627266
 20
1493.46813636045
 30
0.0
 11
2018.255758094706
 21
1493.46813636045
 31
0.0
  0
LINE
  5
B0F2
330
9FA1
100
AcDbEntity
  8
実形
 62
     0
370
    18
100
AcDbLine
 10
2050.431441622709
 20
1373.46813636045
 30
0.0
 11
2018.255758094706
 21
1373.46813636045
 31
0.0
  0
LINE
  5
B0F3
330
9FA1
100
AcDbEntity
  8
実形
 62
     0
370
    18
100
AcDbLine
 10
2018.255758094706
 20
1493.46813636045
 30
0.0
 11
2018.255758094706
 21
1373.46813636045
 31
0.0
  0
INSERT
  5
B0F4
330
9FA1
100
AcDbEntity
  8
実形
 62
     0
370
    18
100
AcDbBlockReference
  2
_DotSmall
 10
2018.255758094706
 20
1493.46813636045
 30
0.0
 41
35.0
 42
35.0
 43
35.0
 50
90.0
  0
INSERT
  5
B0F5
330
9FA1
100
AcDbEntity
  8
実形
 62
     0
370
    18
100
AcDbBlockReference
  2
_DotSmall
 10
2018.255758094706
 20
1373.46813636045
 30
0.0
 41
35.0
 42
35.0
 43
35.0
 50
270.0
  0
MTEXT
  5
B0F6
330
9FA1
100
AcDbEntity
  8
実形
 62
     0
100
AcDbMText
 10
1999.505758094706
 20
1433.46813636045
 30
0.0
 40
25.0
 41
0.0
 71
     5
 72
     1
  1
12
 11
0.0000000000000001
 21
1.0
 31
0.0
 73
     1
 44
1.0
1001
ACAD
1000
MTEXTBEGIN
1070
    73
1070
     1
1070
    44
1040
1.0
1070
    74
1070
     0
1000
MTEXTEND
  0
POINT
  5
B0F7
330
9FA1
100
AcDbEntity
  8
Defpoints
 62
     0
100
AcDbPoint
 10
2120.780658627266
 20
1493.46813636045
 30
0.0
  0
POINT
  5
B0F8
330
9FA1
100
AcDbEntity
  8
Defpoints
 62
     0
100
AcDbPoint
 10
2115.431441622709
 20
1373.46813636045
 30
0.0
  0
POINT
  5
B0F9
330
9FA1
100
AcDbEntity
  8
Defpoints
 62
     0
100
AcDbPoint
 10
2018.255758094706
 20
1373.46813636045
 30
0.0
  0
ENDBLK
  5
9FAC
330
9FA1
100
AcDbEntity
  8
0
 62
     3
100
AcDbBlockEnd
  0
BLOCK
  5
9FB7
330
9FAD
100
AcDbEntity
  8
0
 62
     3
100
AcDbBlockBegin
  2
*D35
 70
     1
 10
0.0
 20
0.0
 30
0.0
  3
*D35
  1

  0
LINE
  5
B08D
330
9FAD
100
AcDbEntity
  8
実形
 62
     0
370
    18
100
AcDbLine
 10
2572.629956685868
 20
1341.087342653236
 30
0.0
 11
2572.629956685868
 21
1317.826460993688
 31
0.0
  0
LINE
  5
B08E
330
9FAD
100
AcDbEntity
  8
実形
 62
     0
370
    18
100
AcDbLine
 10
2672.629956685868
 20
1341.087342653236
 30
0.0
 11
2672.629956685868
 21
1317.826460993688
 31
0.0
  0
LINE
  5
B08F
330
9FAD
100
AcDbEntity
  8
実形
 62
     0
370
    18
100
AcDbLine
 10
2572.629956685868
 20
1317.826460993688
 30
0.0
 11
2672.629956685868
 21
1317.826460993688
 31
0.0
  0
INSERT
  5
B090
330
9FAD
100
AcDbEntity
  8
実形
 62
     0
370
    18
100
AcDbBlockReference
  2
_DotSmall
 10
2572.629956685868
 20
1317.826460993688
 30
0.0
 41
35.0
 42
35.0
 43
35.0
 50
180.0
  0
INSERT
  5
B091
330
9FAD
100
AcDbEntity
  8
実形
 62
     0
370
    18
100
AcDbBlockReference
  2
_DotSmall
 10
2672.629956685868
 20
1317.826460993688
 30
0.0
 41
35.0
 42
35.0
 43
35.0
  0
MTEXT
  5
B092
330
9FAD
100
AcDbEntity
  8
実形
 62
     0
100
AcDbMText
 10
2622.629956685868
 20
1336.576460993688
 30
0.0
 40
25.0
 41
0.0
 71
     5
 72
     1
  1
10
 73
     1
 44
1.0
1001
ACAD
1000
MTEXTBEGIN
1070
    73
1070
     1
1070
    44
1040
1.0
1070
    74
1070
     0
1000
MTEXTEND
  0
POINT
  5
B093
330
9FAD
100
AcDbEntity
  8
Defpoints
 62
     0
100
AcDbPoint
 10
2572.629956685868
 20
1406.087342653236
 30
0.0
  0
POINT
  5
B094
330
9FAD
100
AcDbEntity
  8
Defpoints
 62
     0
100
AcDbPoint
 10
2672.629956685868
 20
1406.087342653236
 30
0.0
  0
POINT
  5
B095
330
9FAD
100
AcDbEntity
  8
Defpoints
 62
     0
100
AcDbPoint
 10
2672.629956685868
 20
1317.826460993688
 30
0.0
  0
ENDBLK
  5
9FB8
330
9FAD
100
AcDbEntity
  8
0
 62
     3
100
AcDbBlockEnd
  0
BLOCK
  5
9FC3
330
9FB9
100
AcDbEntity
  8
0
 62
     3
100
AcDbBlockBegin
  2
*D36
 70
     1
 10
0.0
 20
0.0
 30
0.0
  3
*D36
  1

  0
LINE
  5
B084
330
9FB9
100
AcDbEntity
  8
実形
 62
     0
370
    18
100
AcDbLine
 10
2522.629956685868
 20
1341.087342653236
 30
0.0
 11
2522.629956685868
 21
1317.826460993688
 31
0.0
  0
LINE
  5
B085
330
9FB9
100
AcDbEntity
  8
実形
 62
     0
370
    18
100
AcDbLine
 10
2572.480808253705
 20
1341.087342653236
 30
0.0
 11
2572.480808253705
 21
1317.826460993688
 31
0.0
  0
LINE
  5
B086
330
9FB9
100
AcDbEntity
  8
実形
 62
     0
370
    18
100
AcDbLine
 10
2522.629956685868
 20
1317.826460993688
 30
0.0
 11
2572.480808253705
 21
1317.826460993688
 31
0.0
  0
INSERT
  5
B087
330
9FB9
100
AcDbEntity
  8
実形
 62
     0
370
    18
100
AcDbBlockReference
  2
_DotSmall
 10
2522.629956685868
 20
1317.826460993688
 30
0.0
 41
35.0
 42
35.0
 43
35.0
 50
180.0
  0
INSERT
  5
B088
330
9FB9
100
AcDbEntity
  8
実形
 62
     0
370
    18
100
AcDbBlockReference
  2
_DotSmall
 10
2572.480808253705
 20
1317.826460993688
 30
0.0
 41
35.0
 42
35.0
 43
35.0
  0
MTEXT
  5
B089
330
9FB9
100
AcDbEntity
  8
実形
 62
     0
100
AcDbMText
 10
2547.555382469786
 20
1336.576460993688
 30
0.0
 40
25.0
 41
0.0
 71
     5
 72
     1
  1
5
 73
     1
 44
1.0
1001
ACAD
1000
MTEXTBEGIN
1070
    73
1070
     1
1070
    44
1040
1.0
1070
    74
1070
     0
1000
MTEXTEND
  0
POINT
  5
B08A
330
9FB9
100
AcDbEntity
  8
Defpoints
 62
     0
100
AcDbPoint
 10
2522.629956685868
 20
1406.087342653236
 30
0.0
  0
POINT
  5
B08B
330
9FB9
100
AcDbEntity
  8
Defpoints
 62
     0
100
AcDbPoint
 10
2572.480808253705
 20
1406.087342653236
 30
0.0
  0
POINT
  5
B08C
330
9FB9
100
AcDbEntity
  8
Defpoints
 62
     0
100
AcDbPoint
 10
2572.480808253705
 20
1317.826460993688
 30
0.0
  0
ENDBLK
  5
9FC4
330
9FB9
100
AcDbEntity
  8
0
 62
     3
100
AcDbBlockEnd
  0
BLOCK
  5
9FCF
330
9FC5
100
AcDbEntity
  8
0
 62
     3
100
AcDbBlockBegin
  2
*D37
 70
     1
 10
0.0
 20
0.0
 30
0.0
  3
*D37
  1

  0
LINE
  5
B155
330
9FC5
100
AcDbEntity
  8
実形
 62
     0
370
    18
100
AcDbLine
 10
2132.629956685868
 20
1525.687955876822
 30
0.0
 11
2132.629956685868
 21
1555.937152238969
 31
0.0
  0
LINE
  5
B156
330
9FC5
100
AcDbEntity
  8
実形
 62
     0
370
    18
100
AcDbLine
 10
2412.629956685868
 20
1532.66487381606
 30
0.0
 11
2412.629956685868
 21
1555.937152238969
 31
0.0
  0
LINE
  5
B157
330
9FC5
100
AcDbEntity
  8
実形
 62
     0
370
    18
100
AcDbLine
 10
2132.629956685868
 20
1555.937152238969
 30
0.0
 11
2412.629956685868
 21
1555.937152238969
 31
0.0
  0
INSERT
  5
B158
330
9FC5
100
AcDbEntity
  8
実形
 62
     0
370
    18
100
AcDbBlockReference
  2
_DotSmall
 10
2132.629956685868
 20
1555.937152238969
 30
0.0
 41
35.0
 42
35.0
 43
35.0
 50
180.0
  0
INSERT
  5
B159
330
9FC5
100
AcDbEntity
  8
実形
 62
     0
370
    18
100
AcDbBlockReference
  2
_DotSmall
 10
2412.629956685868
 20
1555.937152238969
 30
0.0
 41
35.0
 42
35.0
 43
35.0
  0
MTEXT
  5
B15A
330
9FC5
100
AcDbEntity
  8
実形
 62
     0
100
AcDbMText
 10
2257.629956685868
 20
1574.687152238969
 30
0.0
 40
25.0
 41
0.0
 71
     5
 72
     1
  1
28
 73
     1
 44
1.0
1001
ACAD
1000
MTEXTBEGIN
1070
    73
1070
     1
1070
    44
1040
1.0
1070
    74
1070
     0
1000
MTEXTEND
  0
POINT
  5
B15B
330
9FC5
100
AcDbEntity
  8
Defpoints
 62
     0
100
AcDbPoint
 10
2132.629956685868
 20
1460.687955876822
 30
0.0
  0
POINT
  5
B15C
330
9FC5
100
AcDbEntity
  8
Defpoints
 62
     0
100
AcDbPoint
 10
2412.629956685868
 20
1467.66487381606
 30
0.0
  0
POINT
  5
B15D
330
9FC5
100
AcDbEntity
  8
Defpoints
 62
     0
100
AcDbPoint
 10
2412.629956685868
 20
1555.937152238969
 30
0.0
  0
ENDBLK
  5
9FD0
330
9FC5
100
AcDbEntity
  8
0
 62
     3
100
AcDbBlockEnd
  0
BLOCK
  5
9FDB
330
9FD1
100
AcDbEntity
  8
0
 62
     3
100
AcDbBlockBegin
  2
*D38
 70
     1
 10
0.0
 20
0.0
 30
0.0
  3
*D38
  1

  0
LINE
  5
B176
330
9FD1
100
AcDbEntity
  8
実形
 62
     0
370
    18
100
AcDbLine
 10
2082.629956685868
 20
1527.881856526976
 30
0.0
 11
2082.629956685868
 21
1616.84228272532
 31
0.0
  0
LINE
  5
B177
330
9FD1
100
AcDbEntity
  8
実形
 62
     0
370
    18
100
AcDbLine
 10
2672.629956685868
 20
1521.881856526976
 30
0.0
 11
2672.629956685868
 21
1616.84228272532
 31
0.0
  0
LINE
  5
B178
330
9FD1
100
AcDbEntity
  8
実形
 62
     0
370
    18
100
AcDbLine
 10
2082.629956685868
 20
1616.84228272532
 30
0.0
 11
2672.629956685868
 21
1616.84228272532
 31
0.0
  0
INSERT
  5
B179
330
9FD1
100
AcDbEntity
  8
実形
 62
     0
370
    18
100
AcDbBlockReference
  2
_DotSmall
 10
2082.629956685868
 20
1616.84228272532
 30
0.0
 41
35.0
 42
35.0
 43
35.0
 50
180.0
  0
INSERT
  5
B17A
330
9FD1
100
AcDbEntity
  8
実形
 62
     0
370
    18
100
AcDbBlockReference
  2
_DotSmall
 10
2672.629956685868
 20
1616.84228272532
 30
0.0
 41
35.0
 42
35.0
 43
35.0
  0
MTEXT
  5
B17B
330
9FD1
100
AcDbEntity
  8
実形
 62
     0
100
AcDbMText
 10
2377.629956685868
 20
1635.59228272532
 30
0.0
 40
25.0
 41
0.0
 71
     5
 72
     1
  1
60
 73
     1
 44
1.0
1001
ACAD
1000
MTEXTBEGIN
1070
    73
1070
     1
1070
    44
1040
1.0
1070
    74
1070
     0
1000
MTEXTEND
  0
POINT
  5
B17C
330
9FD1
100
AcDbEntity
  8
Defpoints
 62
     0
100
AcDbPoint
 10
2082.629956685868
 20
1462.881856526976
 30
0.0
  0
POINT
  5
B17D
330
9FD1
100
AcDbEntity
  8
Defpoints
 62
     0
100
AcDbPoint
 10
2672.629956685868
 20
1456.881856526976
 30
0.0
  0
POINT
  5
B17E
330
9FD1
100
AcDbEntity
  8
Defpoints
 62
     0
100
AcDbPoint
 10
2672.629956685868
 20
1616.84228272532
 30
0.0
  0
ENDBLK
  5
9FDC
330
9FD1
100
AcDbEntity
  8
0
 62
     3
100
AcDbBlockEnd
  0
BLOCK
  5
9FE7
330
9FDD
100
AcDbEntity
  8
0
 62
     3
100
AcDbBlockBegin
  2
*D39
 70
     1
 10
0.0
 20
0.0
 30
0.0
  3
*D39
  1

  0
LINE
  5
B072
330
9FDD
100
AcDbEntity
  8
実形
 62
     0
370
    18
100
AcDbLine
 10
2701.032322324599
 20
1493.46813636045
 30
0.0
 11
2744.140284938466
 21
1493.46813636045
 31
0.0
  0
LINE
  5
B073
330
9FDD
100
AcDbEntity
  8
実形
 62
     0
370
    18
100
AcDbLine
 10
2701.032322324599
 20
1443.46813636045
 30
0.0
 11
2744.140284938466
 21
1443.46813636045
 31
0.0
  0
LINE
  5
B074
330
9FDD
100
AcDbEntity
  8
実形
 62
     0
370
    18
100
AcDbLine
 10
2744.140284938466
 20
1493.46813636045
 30
0.0
 11
2744.140284938466
 21
1443.46813636045
 31
0.0
  0
INSERT
  5
B075
330
9FDD
100
AcDbEntity
  8
実形
 62
     0
370
    18
100
AcDbBlockReference
  2
_DotSmall
 10
2744.140284938466
 20
1493.46813636045
 30
0.0
 41
35.0
 42
35.0
 43
35.0
 50
90.0
  0
INSERT
  5
B076
330
9FDD
100
AcDbEntity
  8
実形
 62
     0
370
    18
100
AcDbBlockReference
  2
_DotSmall
 10
2744.140284938466
 20
1443.46813636045
 30
0.0
 41
35.0
 42
35.0
 43
35.0
 50
270.0
  0
MTEXT
  5
B077
330
9FDD
100
AcDbEntity
  8
実形
 62
     0
100
AcDbMText
 10
2725.390284938466
 20
1468.468136360451
 30
0.0
 40
25.0
 41
0.0
 71
     5
 72
     1
  1
5
 11
0.0000000000000001
 21
1.0
 31
0.0
 73
     1
 44
1.0
1001
ACAD
1000
MTEXTBEGIN
1070
    73
1070
     1
1070
    44
1040
1.0
1070
    74
1070
     0
1000
MTEXTEND
  0
POINT
  5
B078
330
9FDD
100
AcDbEntity
  8
Defpoints
 62
     0
100
AcDbPoint
 10
2636.032322324599
 20
1493.46813636045
 30
0.0
  0
POINT
  5
B079
330
9FDD
100
AcDbEntity
  8
Defpoints
 62
     0
100
AcDbPoint
 10
2636.032322324599
 20
1443.46813636045
 30
0.0
  0
POINT
  5
B07A
330
9FDD
100
AcDbEntity
  8
Defpoints
 62
     0
100
AcDbPoint
 10
2744.140284938466
 20
1443.46813636045
 30
0.0
  0
ENDBLK
  5
9FE8
330
9FDD
100
AcDbEntity
  8
0
 62
     3
100
AcDbBlockEnd
  0
BLOCK
  5
9FF3
330
9FE9
100
AcDbEntity
  8
0
 62
     3
100
AcDbBlockBegin
  2
*D40
 70
     1
 10
0.0
 20
0.0
 30
0.0
  3
*D40
  1

  0
LINE
  5
B09F
330
9FE9
100
AcDbEntity
  8
実形
 62
     0
370
    18
100
AcDbLine
 10
2622.629956685868
 20
1521.881856526976
 30
0.0
 11
2622.629956685868
 21
1569.362069626148
 31
0.0
  0
LINE
  5
B0A0
330
9FE9
100
AcDbEntity
  8
実形
 62
     0
370
    18
100
AcDbLine
 10
2672.629956685868
 20
1521.881856526976
 30
0.0
 11
2672.629956685868
 21
1569.362069626148
 31
0.0
  0
LINE
  5
B0A1
330
9FE9
100
AcDbEntity
  8
実形
 62
     0
370
    18
100
AcDbLine
 10
2622.629956685868
 20
1569.362069626148
 30
0.0
 11
2672.629956685868
 21
1569.362069626148
 31
0.0
  0
INSERT
  5
B0A2
330
9FE9
100
AcDbEntity
  8
実形
 62
     0
370
    18
100
AcDbBlockReference
  2
_DotSmall
 10
2622.629956685868
 20
1569.362069626148
 30
0.0
 41
35.0
 42
35.0
 43
35.0
 50
180.0
  0
INSERT
  5
B0A3
330
9FE9
100
AcDbEntity
  8
実形
 62
     0
370
    18
100
AcDbBlockReference
  2
_DotSmall
 10
2672.629956685868
 20
1569.362069626148
 30
0.0
 41
35.0
 42
35.0
 43
35.0
  0
MTEXT
  5
B0A4
330
9FE9
100
AcDbEntity
  8
実形
 62
     0
100
AcDbMText
 10
2647.629956685868
 20
1588.112069626148
 30
0.0
 40
25.0
 41
0.0
 71
     5
 72
     1
  1
5
 73
     1
 44
1.0
1001
ACAD
1000
MTEXTBEGIN
1070
    73
1070
     1
1070
    44
1040
1.0
1070
    74
1070
     0
1000
MTEXTEND
  0
POINT
  5
B0A5
330
9FE9
100
AcDbEntity
  8
Defpoints
 62
     0
100
AcDbPoint
 10
2622.629956685868
 20
1456.881856526976
 30
0.0
  0
POINT
  5
B0A6
330
9FE9
100
AcDbEntity
  8
Defpoints
 62
     0
100
AcDbPoint
 10
2672.629956685868
 20
1456.881856526976
 30
0.0
  0
POINT
  5
B0A7
330
9FE9
100
AcDbEntity
  8
Defpoints
 62
     0
100
AcDbPoint
 10
2672.629956685868
 20
1569.362069626148
 30
0.0
  0
ENDBLK
  5
9FF4
330
9FE9
100
AcDbEntity
  8
0
 62
     3
100
AcDbBlockEnd
  0
BLOCK
  5
9FFF
330
9FF5
100
AcDbEntity
  8
0
 62
     3
100
AcDbBlockBegin
  2
*D41
 70
     1
 10
0.0
 20
0.0
 30
0.0
  3
*D41
  1

  0
LINE
  5
A06D
330
9FF5
100
AcDbEntity
  8
実形
 62
     0
370
    18
100
AcDbLine
 10
2426.340982258765
 20
1423.46813636045
 30
0.0
 11
2455.858320481269
 21
1423.46813636045
 31
0.0
  0
LINE
  5
A06E
330
9FF5
100
AcDbEntity
  8
実形
 62
     0
370
    18
100
AcDbLine
 10
2426.340982258765
 20
1373.46813636045
 30
0.0
 11
2455.858320481269
 21
1373.46813636045
 31
0.0
  0
LINE
  5
A06F
330
9FF5
100
AcDbEntity
  8
実形
 62
     0
370
    18
100
AcDbLine
 10
2455.858320481269
 20
1423.46813636045
 30
0.0
 11
2455.858320481269
 21
1373.46813636045
 31
0.0
  0
INSERT
  5
A070
330
9FF5
100
AcDbEntity
  8
実形
 62
     0
370
    18
100
AcDbBlockReference
  2
_DotSmall
 10
2455.858320481269
 20
1423.46813636045
 30
0.0
 41
35.0
 42
35.0
 43
35.0
 50
90.0
  0
INSERT
  5
A071
330
9FF5
100
AcDbEntity
  8
実形
 62
     0
370
    18
100
AcDbBlockReference
  2
_DotSmall
 10
2455.858320481269
 20
1373.46813636045
 30
0.0
 41
35.0
 42
35.0
 43
35.0
 50
270.0
  0
MTEXT
  5
A072
330
9FF5
100
AcDbEntity
  8
実形
 62
     0
100
AcDbMText
 10
2437.108320481268
 20
1398.46813636045
 30
0.0
 40
25.0
 41
0.0
 71
     5
 72
     1
  1
5
 11
0.0000000000000001
 21
1.0
 31
0.0
 73
     1
 44
1.0
1001
ACAD
1000
MTEXTBEGIN
1070
    73
1070
     1
1070
    44
1040
1.0
1070
    74
1070
     0
1000
MTEXTEND
  0
POINT
  5
A073
330
9FF5
100
AcDbEntity
  8
Defpoints
 62
     0
100
AcDbPoint
 10
2361.340982258765
 20
1423.46813636045
 30
0.0
  0
POINT
  5
A074
330
9FF5
100
AcDbEntity
  8
Defpoints
 62
     0
100
AcDbPoint
 10
2361.340982258765
 20
1373.46813636045
 30
0.0
  0
POINT
  5
A075
330
9FF5
100
AcDbEntity
  8
Defpoints
 62
     0
100
AcDbPoint
 10
2455.858320481269
 20
1373.46813636045
 30
0.0
  0
ENDBLK
  5
A000
330
9FF5
100
AcDbEntity
  8
0
 62
     3
100
AcDbBlockEnd
  0
BLOCK
  5
A00B
330
A001
100
AcDbEntity
  8
0
 62
     3
100
AcDbBlockBegin
  2
*D42
 70
     1
 10
0.0
 20
0.0
 30
0.0
  3
*D42
  1

  0
LINE
  5
B163
330
A001
100
AcDbEntity
  8
実形
 62
     0
370
    18
100
AcDbLine
 10
2172.629956685868
 20
1264.233495708579
 30
0.0
 11
2172.629956685868
 21
1240.769466965832
 31
0.0
  0
LINE
  5
B164
330
A001
100
AcDbEntity
  8
実形
 62
     0
370
    18
100
AcDbLine
 10
2442.629956685868
 20
1264.233495708579
 30
0.0
 11
2442.629956685868
 21
1240.769466965832
 31
0.0
  0
LINE
  5
B165
330
A001
100
AcDbEntity
  8
実形
 62
     0
370
    18
100
AcDbLine
 10
2172.629956685868
 20
1240.769466965832
 30
0.0
 11
2442.629956685868
 21
1240.769466965832
 31
0.0
  0
INSERT
  5
B166
330
A001
100
AcDbEntity
  8
実形
 62
     0
370
    18
100
AcDbBlockReference
  2
_DotSmall
 10
2172.629956685868
 20
1240.769466965832
 30
0.0
 41
35.0
 42
35.0
 43
35.0
 50
180.0
  0
INSERT
  5
B167
330
A001
100
AcDbEntity
  8
実形
 62
     0
370
    18
100
AcDbBlockReference
  2
_DotSmall
 10
2442.629956685868
 20
1240.769466965832
 30
0.0
 41
35.0
 42
35.0
 43
35.0
  0
MTEXT
  5
B168
330
A001
100
AcDbEntity
  8
実形
 62
     0
100
AcDbMText
 10
2307.629956685868
 20
1259.519466965832
 30
0.0
 40
25.0
 41
0.0
 71
     5
 72
     1
  1
27
 73
     1
 44
1.0
1001
ACAD
1000
MTEXTBEGIN
1070
    73
1070
     1
1070
    44
1040
1.0
1070
    74
1070
     0
1000
MTEXTEND
  0
POINT
  5
B169
330
A001
100
AcDbEntity
  8
Defpoints
 62
     0
100
AcDbPoint
 10
2172.629956685868
 20
1329.233495708578
 30
0.0
  0
POINT
  5
B16A
330
A001
100
AcDbEntity
  8
Defpoints
 62
     0
100
AcDbPoint
 10
2442.629956685868
 20
1329.233495708578
 30
0.0
  0
POINT
  5
B16B
330
A001
100
AcDbEntity
  8
Defpoints
 62
     0
100
AcDbPoint
 10
2442.629956685868
 20
1240.769466965832
 30
0.0
  0
ENDBLK
  5
A00C
330
A001
100
AcDbEntity
  8
0
 62
     3
100
AcDbBlockEnd
  0
BLOCK
  5
A017
330
A00D
100
AcDbEntity
  8
0
 62
     3
100
AcDbBlockBegin
  2
*D43
 70
     1
 10
0.0
 20
0.0
 30
0.0
  3
*D43
  1

  0
LINE
  5
B0BA
330
A00D
100
AcDbEntity
  8
実形
 62
     0
370
    18
100
AcDbLine
 10
2462.104011657428
 20
1365.041111300541
 30
0.0
 11
2480.342061978752
 21
1365.041111300541
 31
0.0
  0
LINE
  5
B0BB
330
A00D
100
AcDbEntity
  8
実形
 62
     0
370
    18
100
AcDbLine
 10
2462.503965980345
 20
1295.041111300541
 30
0.0
 11
2480.342061978752
 21
1295.041111300541
 31
0.0
  0
LINE
  5
B0BC
330
A00D
100
AcDbEntity
  8
実形
 62
     0
370
    18
100
AcDbLine
 10
2480.342061978752
 20
1365.041111300541
 30
0.0
 11
2480.342061978752
 21
1295.041111300541
 31
0.0
  0
INSERT
  5
B0BD
330
A00D
100
AcDbEntity
  8
実形
 62
     0
370
    18
100
AcDbBlockReference
  2
_DotSmall
 10
2480.342061978752
 20
1365.041111300541
 30
0.0
 41
35.0
 42
35.0
 43
35.0
 50
90.0
  0
INSERT
  5
B0BE
330
A00D
100
AcDbEntity
  8
実形
 62
     0
370
    18
100
AcDbBlockReference
  2
_DotSmall
 10
2480.342061978752
 20
1295.041111300541
 30
0.0
 41
35.0
 42
35.0
 43
35.0
 50
270.0
  0
MTEXT
  5
B0BF
330
A00D
100
AcDbEntity
  8
実形
 62
     0
100
AcDbMText
 10
2461.592061978751
 20
1330.041111300541
 30
0.0
 40
25.0
 41
0.0
 71
     5
 72
     1
  1
7
 11
0.0000000000000001
 21
1.0
 31
0.0
 73
     1
 44
1.0
1001
ACAD
1000
MTEXTBEGIN
1070
    73
1070
     1
1070
    44
1040
1.0
1070
    74
1070
     0
1000
MTEXTEND
  0
POINT
  5
B0C0
330
A00D
100
AcDbEntity
  8
Defpoints
 62
     0
100
AcDbPoint
 10
2397.104011657428
 20
1365.041111300541
 30
0.0
  0
POINT
  5
B0C1
330
A00D
100
AcDbEntity
  8
Defpoints
 62
     0
100
AcDbPoint
 10
2397.503965980345
 20
1295.041111300541
 30
0.0
  0
POINT
  5
B0C2
330
A00D
100
AcDbEntity
  8
Defpoints
 62
     0
100
AcDbPoint
 10
2480.342061978752
 20
1295.041111300541
 30
0.0
  0
ENDBLK
  5
A018
330
A00D
100
AcDbEntity
  8
0
 62
     3
100
AcDbBlockEnd
  0
BLOCK
  5
A023
330
A019
100
AcDbEntity
  8
0
 62
     3
100
AcDbBlockBegin
  2
*D44
 70
     1
 10
0.0
 20
0.0
 30
0.0
  3
*D44
  1

  0
LINE
  5
B16D
330
A019
100
AcDbEntity
  8
実形
 62
     0
370
    18
100
AcDbLine
 10
2412.629956685868
 20
1528.353156356921
 30
0.0
 11
2412.629956685868
 21
1555.937152238969
 31
0.0
  0
LINE
  5
B16E
330
A019
100
AcDbEntity
  8
実形
 62
     0
370
    18
100
AcDbLine
 10
2522.629956685868
 20
1526.907699655111
 30
0.0
 11
2522.629956685868
 21
1555.937152238969
 31
0.0
  0
LINE
  5
B16F
330
A019
100
AcDbEntity
  8
実形
 62
     0
370
    18
100
AcDbLine
 10
2412.629956685868
 20
1555.937152238969
 30
0.0
 11
2522.629956685868
 21
1555.937152238969
 31
0.0
  0
INSERT
  5
B170
330
A019
100
AcDbEntity
  8
実形
 62
     0
370
    18
100
AcDbBlockReference
  2
_DotSmall
 10
2412.629956685868
 20
1555.937152238969
 30
0.0
 41
35.0
 42
35.0
 43
35.0
 50
180.0
  0
INSERT
  5
B171
330
A019
100
AcDbEntity
  8
実形
 62
     0
370
    18
100
AcDbBlockReference
  2
_DotSmall
 10
2522.629956685868
 20
1555.937152238969
 30
0.0
 41
35.0
 42
35.0
 43
35.0
  0
MTEXT
  5
B172
330
A019
100
AcDbEntity
  8
実形
 62
     0
100
AcDbMText
 10
2467.629956685867
 20
1574.687152238969
 30
0.0
 40
25.0
 41
0.0
 71
     5
 72
     1
  1
12
 73
     1
 44
1.0
1001
ACAD
1000
MTEXTBEGIN
1070
    73
1070
     1
1070
    44
1040
1.0
1070
    74
1070
     0
1000
MTEXTEND
  0
POINT
  5
B173
330
A019
100
AcDbEntity
  8
Defpoints
 62
     0
100
AcDbPoint
 10
2412.629956685868
 20
1463.353156356921
 30
0.0
  0
POINT
  5
B174
330
A019
100
AcDbEntity
  8
Defpoints
 62
     0
100
AcDbPoint
 10
2522.629956685868
 20
1461.907699655111
 30
0.0
  0
POINT
  5
B175
330
A019
100
AcDbEntity
  8
Defpoints
 62
     0
100
AcDbPoint
 10
2522.629956685868
 20
1555.937152238969
 30
0.0
  0
ENDBLK
  5
A024
330
A019
100
AcDbEntity
  8
0
 62
     3
100
AcDbBlockEnd
  0
BLOCK
  5
A318
330
A30E
100
AcDbEntity
  8
0
 62
     3
100
AcDbBlockBegin
  2
*D45
 70
     1
 10
0.0
 20
0.0
 30
0.0
  3
*D45
  1

  0
LINE
  5
A9F5
330
A30E
100
AcDbEntity
  8
実形
 62
     0
370
    18
100
AcDbLine
 10
1783.386433759944
 20
1449.693471705118
 30
0.0
 11
1809.784671999769
 21
1449.693471705118
 31
0.0
  0
LINE
  5
A9F6
330
A30E
100
AcDbEntity
  8
実形
 62
     0
370
    18
100
AcDbLine
 10
1783.386433759944
 20
1607.693471705118
 30
0.0
 11
1809.784671999769
 21
1607.693471705118
 31
0.0
  0
LINE
  5
A9F7
330
A30E
100
AcDbEntity
  8
実形
 62
     0
370
    18
100
AcDbLine
 10
1809.784671999769
 20
1459.693471705118
 30
0.0
 11
1809.784671999769
 21
1597.693471705118
 31
0.0
  0
INSERT
  5
A9F8
330
A30E
100
AcDbEntity
  8
実形
 62
     0
370
    18
100
AcDbBlockReference
  2
_Dot
 10
1809.784671999769
 20
1449.693471705118
 30
0.0
 41
10.0
 42
10.0
 43
10.0
 50
270.0
  0
INSERT
  5
A9F9
330
A30E
100
AcDbEntity
  8
実形
 62
     0
370
    18
100
AcDbBlockReference
  2
_Dot
 10
1809.784671999769
 20
1607.693471705118
 30
0.0
 41
10.0
 42
10.0
 43
10.0
 50
90.0
  0
MTEXT
  5
A9FA
330
A30E
100
AcDbEntity
  8
実形
 62
     0
100
AcDbMText
 10
1788.184671999769
 20
1528.693471705119
 30
0.0
 40
30.0
 41
0.0
 71
     5
 72
     1
  1
158
 11
0.0000000000000001
 21
1.0
 31
0.0
 73
     1
 44
1.0
1001
ACAD
1000
MTEXTBEGIN
1070
    73
1070
     1
1070
    44
1040
1.0
1070
    74
1070
     0
1000
MTEXTEND
  0
POINT
  5
A9FB
330
A30E
100
AcDbEntity
  8
Defpoints
 62
     0
100
AcDbPoint
 10
1718.386433759945
 20
1449.693471705118
 30
0.0
  0
POINT
  5
A9FC
330
A30E
100
AcDbEntity
  8
Defpoints
 62
     0
100
AcDbPoint
 10
1718.386433759945
 20
1607.693471705118
 30
0.0
  0
POINT
  5
A9FD
330
A30E
100
AcDbEntity
  8
Defpoints
 62
     0
100
AcDbPoint
 10
1809.784671999769
 20
1607.693471705118
 30
0.0
  0
ENDBLK
  5
A319
330
A30E
100
AcDbEntity
  8
0
 62
     3
100
AcDbBlockEnd
  0
BLOCK
  5
A324
330
A31A
100
AcDbEntity
  8
0
 62
     3
100
AcDbBlockBegin
  2
*D46
 70
     1
 10
0.0
 20
0.0
 30
0.0
  3
*D46
  1

  0
LINE
  5
A9FE
330
A31A
100
AcDbEntity
  8
実形
 62
     0
370
    18
100
AcDbLine
 10
1660.519518606386
 20
1438.193471705118
 30
0.0
 11
1631.278371321998
 21
1438.193471705118
 31
0.0
  0
LINE
  5
A9FF
330
A31A
100
AcDbEntity
  8
実形
 62
     0
370
    18
100
AcDbLine
 10
1660.519518606386
 20
1619.193471705118
 30
0.0
 11
1631.278371321998
 21
1619.193471705118
 31
0.0
  0
LINE
  5
AA00
330
A31A
100
AcDbEntity
  8
実形
 62
     0
370
    18
100
AcDbLine
 10
1631.278371321998
 20
1448.193471705118
 30
0.0
 11
1631.278371321998
 21
1609.193471705118
 31
0.0
  0
INSERT
  5
AA01
330
A31A
100
AcDbEntity
  8
実形
 62
     0
370
    18
100
AcDbBlockReference
  2
_Dot
 10
1631.278371321998
 20
1438.193471705118
 30
0.0
 41
10.0
 42
10.0
 43
10.0
 50
270.0
  0
INSERT
  5
AA02
330
A31A
100
AcDbEntity
  8
実形
 62
     0
370
    18
100
AcDbBlockReference
  2
_Dot
 10
1631.278371321998
 20
1619.193471705118
 30
0.0
 41
10.0
 42
10.0
 43
10.0
 50
90.0
  0
MTEXT
  5
AA03
330
A31A
100
AcDbEntity
  8
実形
 62
     0
100
AcDbMText
 10
1609.678371321998
 20
1528.693471705119
 30
0.0
 40
30.0
 41
0.0
 71
     5
 72
     1
  1
181
 11
0.0000000000000001
 21
1.0
 31
0.0
 73
     1
 44
1.0
1001
ACAD
1000
MTEXTBEGIN
1070
    73
1070
     1
1070
    44
1040
1.0
1070
    74
1070
     0
1000
MTEXTEND
  0
POINT
  5
AA04
330
A31A
100
AcDbEntity
  8
Defpoints
 62
     0
100
AcDbPoint
 10
1725.519518606386
 20
1438.193471705118
 30
0.0
  0
POINT
  5
AA05
330
A31A
100
AcDbEntity
  8
Defpoints
 62
     0
100
AcDbPoint
 10
1725.519518606386
 20
1619.193471705118
 30
0.0
  0
POINT
  5
AA06
330
A31A
100
AcDbEntity
  8
Defpoints
 62
     0
100
AcDbPoint
 10
1631.278371321998
 20
1619.193471705118
 30
0.0
  0
ENDBLK
  5
A325
330
A31A
100
AcDbEntity
  8
0
 62
     3
100
AcDbBlockEnd
  0
BLOCK
  5
A330
330
A326
100
AcDbEntity
  8
0
 62
     3
100
AcDbBlockBegin
  2
*D47
 70
     1
 10
0.0
 20
0.0
 30
0.0
  3
*D47
  1

  0
LINE
  5
AA07
330
A326
100
AcDbEntity
  8
実形
 62
     0
370
    18
100
AcDbLine
 10
1660.519518606386
 20
1428.193471705118
 30
0.0
 11
1631.278371321998
 21
1428.193471705118
 31
0.0
  0
LINE
  5
AA08
330
A326
100
AcDbEntity
  8
実形
 62
     0
370
    18
100
AcDbLine
 10
1660.519518606386
 20
1619.193471705118
 30
0.0
 11
1631.278371321998
 21
1619.193471705118
 31
0.0
  0
LINE
  5
AA09
330
A326
100
AcDbEntity
  8
実形
 62
     0
370
    18
100
AcDbLine
 10
1631.278371321998
 20
1438.193471705118
 30
0.0
 11
1631.278371321998
 21
1609.193471705118
 31
0.0
  0
MTEXT
  5
AA0A
330
A326
100
AcDbEntity
  8
実形
 62
     0
100
AcDbMText
 10
1609.678371321998
 20
1429.966859599051
 30
0.0
 40
30.0
 41
0.0
 71
     5
 72
     1
  1
10
 11
0.0000000000000001
 21
1.0
 31
0.0
 73
     1
 44
1.0
1001
ACAD
1000
MTEXTBEGIN
1070
    73
1070
     1
1070
    44
1040
1.0
1070
    74
1070
     0
1000
MTEXTEND
  0
INSERT
  5
AA0B
330
A326
100
AcDbEntity
  8
実形
 62
     0
370
    18
100
AcDbBlockReference
  2
_Dot
 10
1631.278371321998
 20
1428.193471705118
 30
0.0
 41
10.0
 42
10.0
 43
10.0
 50
270.0
  0
INSERT
  5
AA0C
330
A326
100
AcDbEntity
  8
実形
 62
     0
370
    18
100
AcDbBlockReference
  2
_Dot
 10
1631.278371321998
 20
1619.193471705118
 30
0.0
 41
10.0
 42
10.0
 43
10.0
 50
90.0
  0
POINT
  5
AA0D
330
A326
100
AcDbEntity
  8
Defpoints
 62
     0
100
AcDbPoint
 10
1725.519518606386
 20
1428.193471705118
 30
0.0
  0
POINT
  5
AA0E
330
A326
100
AcDbEntity
  8
Defpoints
 62
     0
100
AcDbPoint
 10
1725.519518606386
 20
1619.193471705118
 30
0.0
  0
POINT
  5
AA0F
330
A326
100
AcDbEntity
  8
Defpoints
 62
     0
100
AcDbPoint
 10
1631.278371321998
 20
1619.193471705118
 30
0.0
  0
ENDBLK
  5
A331
330
A326
100
AcDbEntity
  8
0
 62
     3
100
AcDbBlockEnd
  0
BLOCK
  5
A33C
330
A332
100
AcDbEntity
  8
0
 62
     3
100
AcDbBlockBegin
  2
*D48
 70
     1
 10
0.0
 20
0.0
 30
0.0
  3
*D48
  1

  0
LINE
  5
AA10
330
A332
100
AcDbEntity
  8
実形
 62
     0
370
    18
100
AcDbLine
 10
1660.519518606386
 20
1438.193471705118
 30
0.0
 11
1631.278371321998
 21
1438.193471705118
 31
0.0
  0
LINE
  5
AA11
330
A332
100
AcDbEntity
  8
実形
 62
     0
370
    18
100
AcDbLine
 10
1660.519518606386
 20
1629.193471705118
 30
0.0
 11
1631.278371321998
 21
1629.193471705118
 31
0.0
  0
LINE
  5
AA12
330
A332
100
AcDbEntity
  8
実形
 62
     0
370
    18
100
AcDbLine
 10
1631.278371321998
 20
1448.193471705118
 30
0.0
 11
1631.278371321998
 21
1619.193471705118
 31
0.0
  0
MTEXT
  5
AA13
330
A332
100
AcDbEntity
  8
実形
 62
     0
100
AcDbMText
 10
1606.779321843407
 20
1608.402582895716
 30
0.0
 40
30.0
 41
0.0
 71
     5
 72
     1
  1
10
 11
0.0000000000000001
 21
1.0
 31
0.0
 73
     1
 44
1.0
1001
ACAD
1000
MTEXTBEGIN
1070
    73
1070
     1
1070
    44
1040
1.0
1070
    74
1070
     0
1000
MTEXTEND
  0
INSERT
  5
AA14
330
A332
100
AcDbEntity
  8
実形
 62
     0
370
    18
100
AcDbBlockReference
  2
_Dot
 10
1631.278371321998
 20
1438.193471705118
 30
0.0
 41
10.0
 42
10.0
 43
10.0
 50
270.0
  0
INSERT
  5
AA15
330
A332
100
AcDbEntity
  8
実形
 62
     0
370
    18
100
AcDbBlockReference
  2
_Dot
 10
1631.278371321998
 20
1629.193471705118
 30
0.0
 41
10.0
 42
10.0
 43
10.0
 50
90.0
  0
POINT
  5
AA16
330
A332
100
AcDbEntity
  8
Defpoints
 62
     0
100
AcDbPoint
 10
1725.519518606386
 20
1438.193471705118
 30
0.0
  0
POINT
  5
AA17
330
A332
100
AcDbEntity
  8
Defpoints
 62
     0
100
AcDbPoint
 10
1725.519518606386
 20
1629.193471705118
 30
0.0
  0
POINT
  5
AA18
330
A332
100
AcDbEntity
  8
Defpoints
 62
     0
100
AcDbPoint
 10
1631.278371321998
 20
1629.193471705118
 30
0.0
  0
ENDBLK
  5
A33D
330
A332
100
AcDbEntity
  8
0
 62
     3
100
AcDbBlockEnd
  0
BLOCK
  5
A4C9
330
A4BF
100
AcDbEntity
  8
0
 62
     3
100
AcDbBlockBegin
  2
*D49
 70
     1
 10
0.0
 20
0.0
 30
0.0
  3
*D49
  1

  0
LINE
  5
AA19
330
A4BF
100
AcDbEntity
  8
実形
 62
     0
370
    18
100
AcDbLine
 10
859.0239931742756
 20
688.3971576367566
 30
0.0
 11
859.0239931742756
 21
661.9989193969322
 31
0.0
  0
LINE
  5
AA1A
330
A4BF
100
AcDbEntity
  8
実形
 62
     0
370
    18
100
AcDbLine
 10
1017.023993174275
 20
688.3971576367566
 30
0.0
 11
1017.023993174275
 21
661.9989193969322
 31
0.0
  0
LINE
  5
AA1B
330
A4BF
100
AcDbEntity
  8
実形
 62
     0
370
    18
100
AcDbLine
 10
869.0239931742755
 20
661.9989193969322
 30
0.0
 11
1007.023993174275
 21
661.9989193969322
 31
0.0
  0
INSERT
  5
AA1C
330
A4BF
100
AcDbEntity
  8
実形
 62
     0
370
    18
100
AcDbBlockReference
  2
_Dot
 10
859.0239931742756
 20
661.9989193969322
 30
0.0
 41
10.0
 42
10.0
 43
10.0
 50
180.0
  0
INSERT
  5
AA1D
330
A4BF
100
AcDbEntity
  8
実形
 62
     0
370
    18
100
AcDbBlockReference
  2
_Dot
 10
1017.023993174275
 20
661.9989193969322
 30
0.0
 41
10.0
 42
10.0
 43
10.0
  0
MTEXT
  5
AA1E
330
A4BF
100
AcDbEntity
  8
実形
 62
     0
100
AcDbMText
 10
938.0239931742755
 20
683.5989193969322
 30
0.0
 40
30.0
 41
0.0
 71
     5
 72
     1
  1
158
 73
     1
 44
1.0
1001
ACAD
1000
MTEXTBEGIN
1070
    73
1070
     1
1070
    44
1040
1.0
1070
    74
1070
     0
1000
MTEXTEND
  0
POINT
  5
AA1F
330
A4BF
100
AcDbEntity
  8
Defpoints
 62
     0
100
AcDbPoint
 10
859.0239931742756
 20
753.3971576367567
 30
0.0
  0
POINT
  5
AA20
330
A4BF
100
AcDbEntity
  8
Defpoints
 62
     0
100
AcDbPoint
 10
1017.023993174275
 20
753.3971576367567
 30
0.0
  0
POINT
  5
AA21
330
A4BF
100
AcDbEntity
  8
Defpoints
 62
     0
100
AcDbPoint
 10
1017.023993174275
 20
661.9989193969322
 30
0.0
  0
ENDBLK
  5
A4CA
330
A4BF
100
AcDbEntity
  8
0
 62
     3
100
AcDbBlockEnd
  0
BLOCK
  5
A4E3
330
A4D7
100
AcDbEntity
  8
0
 62
     3
100
AcDbBlockBegin
  2
*D50
 70
     1
 10
0.0
 20
0.0
 30
0.0
  3
*D50
  1

  0
LINE
  5
AA22
330
A4D7
100
AcDbEntity
  8
実形
 62
     0
370
    18
100
AcDbLine
 10
1371.632970104061
 20
861.958493096619
 30
0.0
 11
1398.236513085236
 21
861.958493096619
 31
0.0
  0
LINE
  5
AA23
330
A4D7
100
AcDbEntity
  8
実形
 62
     0
370
    18
100
AcDbLine
 10
1371.632970104061
 20
836.9584930966192
 30
0.0
 11
1398.236513085236
 21
836.9584930966192
 31
0.0
  0
LINE
  5
AA24
330
A4D7
100
AcDbEntity
  8
実形
 62
     0
370
    18
100
AcDbLine
 10
1398.236513085236
 20
871.958493096619
 30
0.0
 11
1398.236513085236
 21
881.9584930966192
 31
0.0
  0
LINE
  5
AA25
330
A4D7
100
AcDbEntity
  8
実形
 62
     0
370
    18
100
AcDbLine
 10
1398.236513085236
 20
826.9584930966193
 30
0.0
 11
1398.236513085236
 21
816.9584930966191
 31
0.0
  0
MTEXT
  5
AA26
330
A4D7
100
AcDbEntity
  8
実形
 62
     0
100
AcDbMText
 10
1424.283312397718
 20
851.6970947160961
 30
0.0
 40
25.0
 41
0.0
 71
     5
 72
     1
  1
25
 11
0.0000000000000001
 21
1.0
 31
0.0
 73
     1
 44
1.0
1001
ACAD
1000
MTEXTBEGIN
1070
    73
1070
     1
1070
    44
1040
1.0
1070
    74
1070
     0
1000
MTEXTEND
  0
LINE
  5
AA27
330
A4D7
100
AcDbEntity
  8
実形
 62
     0
370
    18
100
AcDbLine
 10
1398.236513085236
 20
861.958493096619
 30
0.0
 11
1398.236513085236
 21
836.9584930966192
 31
0.0
  0
INSERT
  5
AA28
330
A4D7
100
AcDbEntity
  8
実形
 62
     0
370
    18
100
AcDbBlockReference
  2
_Dot
 10
1398.236513085236
 20
861.958493096619
 30
0.0
 41
10.0
 42
10.0
 43
10.0
 50
270.0
  0
INSERT
  5
AA29
330
A4D7
100
AcDbEntity
  8
実形
 62
     0
370
    18
100
AcDbBlockReference
  2
_Dot
 10
1398.236513085236
 20
836.9584930966192
 30
0.0
 41
10.0
 42
10.0
 43
10.0
 50
90.0
  0
POINT
  5
AA2A
330
A4D7
100
AcDbEntity
  8
Defpoints
 62
     0
100
AcDbPoint
 10
1306.632970104061
 20
861.958493096619
 30
0.0
  0
POINT
  5
AA2B
330
A4D7
100
AcDbEntity
  8
Defpoints
 62
     0
100
AcDbPoint
 10
1306.632970104061
 20
836.9584930966192
 30
0.0
  0
POINT
  5
AA2C
330
A4D7
100
AcDbEntity
  8
Defpoints
 62
     0
100
AcDbPoint
 10
1398.236513085236
 20
836.9584930966192
 30
0.0
  0
ENDBLK
  5
A4E4
330
A4D7
100
AcDbEntity
  8
0
 62
     3
100
AcDbBlockEnd
  0
BLOCK
  5
A4EF
330
A4E5
100
AcDbEntity
  8
0
 62
     3
100
AcDbBlockBegin
  2
*D51
 70
     1
 10
0.0
 20
0.0
 30
0.0
  3
*D51
  1

  0
LINE
  5
AA2D
330
A4E5
100
AcDbEntity
  8
実形
 62
     0
370
    18
100
AcDbLine
 10
1371.632970104061
 20
821.958493096619
 30
0.0
 11
1398.236513085236
 21
821.958493096619
 31
0.0
  0
LINE
  5
AA2E
330
A4E5
100
AcDbEntity
  8
実形
 62
     0
370
    18
100
AcDbLine
 10
1371.632970104061
 20
861.958493096619
 30
0.0
 11
1398.236513085236
 21
861.958493096619
 31
0.0
  0
LINE
  5
AA2F
330
A4E5
100
AcDbEntity
  8
実形
 62
     0
370
    18
100
AcDbLine
 10
1398.236513085236
 20
831.9584930966192
 30
0.0
 11
1398.236513085236
 21
851.9584930966191
 31
0.0
  0
MTEXT
  5
AA30
330
A4E5
100
AcDbEntity
  8
実形
 62
     0
100
AcDbMText
 10
1384.063588575253
 20
790.98488357943
 30
0.0
 40
25.0
 41
0.0
 71
     5
 72
     1
  1
15
 11
0.0000000000000001
 21
1.0
 31
0.0
 73
     1
 44
1.0
1001
ACAD
1000
MTEXTBEGIN
1070
    73
1070
     1
1070
    44
1040
1.0
1070
    74
1070
     0
1000
MTEXTEND
  0
INSERT
  5
AA31
330
A4E5
100
AcDbEntity
  8
実形
 62
     0
370
    18
100
AcDbBlockReference
  2
_Dot
 10
1398.236513085236
 20
821.958493096619
 30
0.0
 41
10.0
 42
10.0
 43
10.0
 50
270.0
  0
INSERT
  5
AA32
330
A4E5
100
AcDbEntity
  8
実形
 62
     0
370
    18
100
AcDbBlockReference
  2
_Dot
 10
1398.236513085236
 20
861.958493096619
 30
0.0
 41
10.0
 42
10.0
 43
10.0
 50
90.0
  0
POINT
  5
AA33
330
A4E5
100
AcDbEntity
  8
Defpoints
 62
     0
100
AcDbPoint
 10
1306.632970104061
 20
821.958493096619
 30
0.0
  0
POINT
  5
AA34
330
A4E5
100
AcDbEntity
  8
Defpoints
 62
     0
100
AcDbPoint
 10
1306.632970104061
 20
861.958493096619
 30
0.0
  0
POINT
  5
AA35
330
A4E5
100
AcDbEntity
  8
Defpoints
 62
     0
100
AcDbPoint
 10
1398.236513085236
 20
861.958493096619
 30
0.0
  0
ENDBLK
  5
A4F0
330
A4E5
100
AcDbEntity
  8
0
 62
     3
100
AcDbBlockEnd
  0
BLOCK
  5
A4FB
330
A4F1
100
AcDbEntity
  8
0
 62
     3
100
AcDbBlockBegin
  2
*D52
 70
     1
 10
0.0
 20
0.0
 30
0.0
  3
*D52
  1

  0
LINE
  5
AA36
330
A4F1
100
AcDbEntity
  8
実形
 62
     0
370
    18
100
AcDbLine
 10
1449.533735126952
 20
861.958493096619
 30
0.0
 11
1481.856080946223
 21
861.958493096619
 31
0.0
  0
LINE
  5
AA37
330
A4F1
100
AcDbEntity
  8
実形
 62
     0
370
    18
100
AcDbLine
 10
1393.694427963259
 20
821.958493096619
 30
0.0
 11
1481.856080946223
 21
821.958493096619
 31
0.0
  0
LINE
  5
AA38
330
A4F1
100
AcDbEntity
  8
実形
 62
     0
370
    18
100
AcDbLine
 10
1481.856080946223
 20
851.9584930966191
 30
0.0
 11
1481.856080946223
 21
831.9584930966192
 31
0.0
  0
MTEXT
  5
AA39
330
A4F1
100
AcDbEntity
  8
実形
 62
     0
100
AcDbMText
 10
1510.01883143858
 20
842.4932505038569
 30
0.0
 40
25.0
 41
0.0
 71
     5
 72
     1
  1
40
 11
0.0000000000000001
 21
1.0
 31
0.0
 73
     1
 44
1.0
1001
ACAD
1000
MTEXTBEGIN
1070
    73
1070
     1
1070
    44
1040
1.0
1070
    74
1070
     0
1000
MTEXTEND
  0
INSERT
  5
AA3A
330
A4F1
100
AcDbEntity
  8
実形
 62
     0
370
    18
100
AcDbBlockReference
  2
_Dot
 10
1481.856080946223
 20
861.958493096619
 30
0.0
 41
10.0
 42
10.0
 43
10.0
 50
90.0
  0
INSERT
  5
AA3B
330
A4F1
100
AcDbEntity
  8
実形
 62
     0
370
    18
100
AcDbBlockReference
  2
_Dot
 10
1481.856080946223
 20
821.958493096619
 30
0.0
 41
10.0
 42
10.0
 43
10.0
 50
270.0
  0
POINT
  5
AA3C
330
A4F1
100
AcDbEntity
  8
Defpoints
 62
     0
100
AcDbPoint
 10
1384.533735126952
 20
861.958493096619
 30
0.0
  0
POINT
  5
AA3D
330
A4F1
100
AcDbEntity
  8
Defpoints
 62
     0
100
AcDbPoint
 10
1328.694427963259
 20
821.958493096619
 30
0.0
  0
POINT
  5
AA3E
330
A4F1
100
AcDbEntity
  8
Defpoints
 62
     0
100
AcDbPoint
 10
1481.856080946223
 20
821.958493096619
 30
0.0
  0
ENDBLK
  5
A4FC
330
A4F1
100
AcDbEntity
  8
0
 62
     3
100
AcDbBlockEnd
  0
BLOCK
  5
A507
330
A4FD
100
AcDbEntity
  8
0
 62
     3
100
AcDbBlockBegin
  2
*D53
 70
     1
 10
0.0
 20
0.0
 30
0.0
  3
*D53
  1

  0
LINE
  5
AA3F
330
A4FD
100
AcDbEntity
  8
実形
 62
     0
370
    18
100
AcDbLine
 10
608.023993174276
 20
934.2325136633018
 30
0.0
 11
608.023993174276
 21
970.3536365598919
 31
0.0
  0
LINE
  5
AA40
330
A4FD
100
AcDbEntity
  8
実形
 62
     0
370
    18
100
AcDbLine
 10
1268.023993174276
 20
934.2325136633018
 30
0.0
 11
1268.023993174276
 21
970.3536365598919
 31
0.0
  0
LINE
  5
AA41
330
A4FD
100
AcDbEntity
  8
実形
 62
     0
370
    18
100
AcDbLine
 10
618.023993174276
 20
970.3536365598919
 30
0.0
 11
1258.023993174276
 21
970.3536365598919
 31
0.0
  0
INSERT
  5
AA42
330
A4FD
100
AcDbEntity
  8
実形
 62
     0
370
    18
100
AcDbBlockReference
  2
_Dot
 10
608.023993174276
 20
970.3536365598919
 30
0.0
 41
10.0
 42
10.0
 43
10.0
 50
180.0
  0
INSERT
  5
AA43
330
A4FD
100
AcDbEntity
  8
実形
 62
     0
370
    18
100
AcDbBlockReference
  2
_Dot
 10
1268.023993174276
 20
970.3536365598919
 30
0.0
 41
10.0
 42
10.0
 43
10.0
  0
MTEXT
  5
AA44
330
A4FD
100
AcDbEntity
  8
実形
 62
     0
100
AcDbMText
 10
938.023993174276
 20
991.953636559892
 30
0.0
 40
30.0
 41
0.0
 71
     5
 72
     1
  1
660
 73
     1
 44
1.0
1001
ACAD
1000
MTEXTBEGIN
1070
    73
1070
     1
1070
    44
1040
1.0
1070
    74
1070
     0
1000
MTEXTEND
  0
POINT
  5
AA45
330
A4FD
100
AcDbEntity
  8
Defpoints
 62
     0
100
AcDbPoint
 10
608.023993174276
 20
869.2325136633018
 30
0.0
  0
POINT
  5
AA46
330
A4FD
100
AcDbEntity
  8
Defpoints
 62
     0
100
AcDbPoint
 10
1268.023993174276
 20
869.2325136633018
 30
0.0
  0
POINT
  5
AA47
330
A4FD
100
AcDbEntity
  8
Defpoints
 62
     0
100
AcDbPoint
 10
1268.023993174276
 20
970.3536365598919
 30
0.0
  0
ENDBLK
  5
A508
330
A4FD
100
AcDbEntity
  8
0
 62
     3
100
AcDbBlockEnd
  0
BLOCK
  5
A513
330
A509
100
AcDbEntity
  8
0
 62
     3
100
AcDbBlockBegin
  2
*D54
 70
     1
 10
0.0
 20
0.0
 30
0.0
  3
*D54
  1

  0
LINE
  5
AA48
330
A509
100
AcDbEntity
  8
実形
 62
     0
370
    18
100
AcDbLine
 10
1268.023993174276
 20
934.2325136633018
 30
0.0
 11
1268.023993174276
 21
970.3536365598919
 31
0.0
  0
LINE
  5
AA49
330
A509
100
AcDbEntity
  8
実形
 62
     0
370
    18
100
AcDbLine
 10
1318.023993174276
 20
934.2325136633006
 30
0.0
 11
1318.023993174276
 21
970.3536365598919
 31
0.0
  0
LINE
  5
AA4A
330
A509
100
AcDbEntity
  8
実形
 62
     0
370
    18
100
AcDbLine
 10
1278.023993174276
 20
970.3536365598919
 30
0.0
 11
1308.023993174276
 21
970.3536365598919
 31
0.0
  0
MTEXT
  5
AA4B
330
A509
100
AcDbEntity
  8
実形
 62
     0
100
AcDbMText
 10
1293.023993174276
 20
995.253636559892
 30
0.0
 40
30.0
 41
0.0
 71
     5
 72
     1
  1
50
 73
     1
 44
1.0
1001
ACAD
1000
MTEXTBEGIN
1070
    73
1070
     1
1070
    44
1040
1.0
1070
    74
1070
     0
1000
MTEXTEND
  0
INSERT
  5
AA4C
330
A509
100
AcDbEntity
  8
実形
 62
     0
370
    18
100
AcDbBlockReference
  2
_Dot
 10
1268.023993174276
 20
970.3536365598919
 30
0.0
 41
10.0
 42
10.0
 43
10.0
 50
180.0
  0
INSERT
  5
AA4D
330
A509
100
AcDbEntity
  8
実形
 62
     0
370
    18
100
AcDbBlockReference
  2
_Dot
 10
1318.023993174276
 20
970.3536365598919
 30
0.0
 41
10.0
 42
10.0
 43
10.0
  0
POINT
  5
AA4E
330
A509
100
AcDbEntity
  8
Defpoints
 62
     0
100
AcDbPoint
 10
1268.023993174276
 20
869.2325136633018
 30
0.0
  0
POINT
  5
AA4F
330
A509
100
AcDbEntity
  8
Defpoints
 62
     0
100
AcDbPoint
 10
1318.023993174276
 20
869.2325136633005
 30
0.0
  0
POINT
  5
AA50
330
A509
100
AcDbEntity
  8
Defpoints
 62
     0
100
AcDbPoint
 10
1318.023993174276
 20
970.3536365598919
 30
0.0
  0
ENDBLK
  5
A514
330
A509
100
AcDbEntity
  8
0
 62
     3
100
AcDbBlockEnd
  0
BLOCK
  5
A51F
330
A515
100
AcDbEntity
  8
0
 62
     3
100
AcDbBlockBegin
  2
*D55
 70
     1
 10
0.0
 20
0.0
 30
0.0
  3
*D55
  1

  0
LINE
  5
AA51
330
A515
100
AcDbEntity
  8
実形
 62
     0
370
    18
100
AcDbLine
 10
558.023993174276
 20
934.2325136633016
 30
0.0
 11
558.023993174276
 21
970.3536365598919
 31
0.0
  0
LINE
  5
AA52
330
A515
100
AcDbEntity
  8
実形
 62
     0
370
    18
100
AcDbLine
 10
608.023993174276
 20
934.2325136633016
 30
0.0
 11
608.023993174276
 21
970.3536365598919
 31
0.0
  0
LINE
  5
AA53
330
A515
100
AcDbEntity
  8
実形
 62
     0
370
    18
100
AcDbLine
 10
568.023993174276
 20
970.3536365598919
 30
0.0
 11
598.023993174276
 21
970.3536365598919
 31
0.0
  0
MTEXT
  5
AA54
330
A515
100
AcDbEntity
  8
実形
 62
     0
100
AcDbMText
 10
583.023993174276
 20
995.253636559892
 30
0.0
 40
30.0
 41
0.0
 71
     5
 72
     1
  1
50
 73
     1
 44
1.0
1001
ACAD
1000
MTEXTBEGIN
1070
    73
1070
     1
1070
    44
1040
1.0
1070
    74
1070
     0
1000
MTEXTEND
  0
INSERT
  5
AA55
330
A515
100
AcDbEntity
  8
実形
 62
     0
370
    18
100
AcDbBlockReference
  2
_Dot
 10
558.023993174276
 20
970.3536365598919
 30
0.0
 41
10.0
 42
10.0
 43
10.0
 50
180.0
  0
INSERT
  5
AA56
330
A515
100
AcDbEntity
  8
実形
 62
     0
370
    18
100
AcDbBlockReference
  2
_Dot
 10
608.023993174276
 20
970.3536365598919
 30
0.0
 41
10.0
 42
10.0
 43
10.0
  0
POINT
  5
AA57
330
A515
100
AcDbEntity
  8
Defpoints
 62
     0
100
AcDbPoint
 10
558.023993174276
 20
869.2325136633016
 30
0.0
  0
POINT
  5
AA58
330
A515
100
AcDbEntity
  8
Defpoints
 62
     0
100
AcDbPoint
 10
608.023993174276
 20
869.2325136633016
 30
0.0
  0
POINT
  5
AA59
330
A515
100
AcDbEntity
  8
Defpoints
 62
     0
100
AcDbPoint
 10
608.023993174276
 20
970.3536365598919
 30
0.0
  0
ENDBLK
  5
A520
330
A515
100
AcDbEntity
  8
0
 62
     3
100
AcDbBlockEnd
  0
BLOCK
  5
A5A9
330
A59F
100
AcDbEntity
  8
0
 62
     3
100
AcDbBlockBegin
  2
*D56
 70
     1
 10
0.0
 20
0.0
 30
0.0
  3
*D56
  1

  0
LINE
  5
AA5A
330
A59F
100
AcDbEntity
  8
実形
 62
     0
370
    18
100
AcDbLine
 10
1463.236513085236
 20
861.958493096619
 30
0.0
 11
1481.856080946223
 21
861.958493096619
 31
0.0
  0
LINE
  5
AA5B
330
A59F
100
AcDbEntity
  8
実形
 62
     0
370
    18
100
AcDbLine
 10
1400.797427569467
 20
906.9584930966202
 30
0.0
 11
1481.856080946223
 21
906.9584930966202
 31
0.0
  0
LINE
  5
AA5C
330
A59F
100
AcDbEntity
  8
実形
 62
     0
370
    18
100
AcDbLine
 10
1481.856080946223
 20
871.958493096619
 30
0.0
 11
1481.856080946223
 21
896.9584930966203
 31
0.0
  0
MTEXT
  5
AA5D
330
A59F
100
AcDbEntity
  8
実形
 62
     0
100
AcDbMText
 10
1507.677061789583
 20
890.5525822165527
 30
0.0
 40
25.0
 41
0.0
 71
     5
 72
     1
  1
45
 11
0.0000000000000001
 21
1.0
 31
0.0
 73
     1
 44
1.0
1001
ACAD
1000
MTEXTBEGIN
1070
    73
1070
     1
1070
    44
1040
1.0
1070
    74
1070
     0
1000
MTEXTEND
  0
INSERT
  5
AA5E
330
A59F
100
AcDbEntity
  8
実形
 62
     0
370
    18
100
AcDbBlockReference
  2
_Dot
 10
1481.856080946223
 20
861.958493096619
 30
0.0
 41
10.0
 42
10.0
 43
10.0
 50
270.0
  0
INSERT
  5
AA5F
330
A59F
100
AcDbEntity
  8
実形
 62
     0
370
    18
100
AcDbBlockReference
  2
_Dot
 10
1481.856080946223
 20
906.9584930966202
 30
0.0
 41
10.0
 42
10.0
 43
10.0
 50
90.0
  0
POINT
  5
AA60
330
A59F
100
AcDbEntity
  8
Defpoints
 62
     0
100
AcDbPoint
 10
1398.236513085236
 20
861.958493096619
 30
0.0
  0
POINT
  5
AA61
330
A59F
100
AcDbEntity
  8
Defpoints
 62
     0
100
AcDbPoint
 10
1335.797427569467
 20
906.9584930966202
 30
0.0
  0
POINT
  5
AA62
330
A59F
100
AcDbEntity
  8
Defpoints
 62
     0
100
AcDbPoint
 10
1481.856080946223
 20
906.9584930966202
 30
0.0
  0
ENDBLK
  5
A5AA
330
A59F
100
AcDbEntity
  8
0
 62
     3
100
AcDbBlockEnd
  0
BLOCK
  5
A698
330
A68E
100
AcDbEntity
  8
0
 62
     3
100
AcDbBlockBegin
  2
*D57
 70
     1
 10
0.0
 20
0.0
 30
0.0
  3
*D57
  1

  0
ARC
  5
AF60
330
A68E
100
AcDbEntity
  8
実形
 62
     0
370
    18
100
AcDbCircle
 10
1713.011866501639
 20
489.4762923835072
 30
0.0
 40
90.31599869093149
100
AcDbArc
 50
91.34716861234586
 51
172.533646397383
  0
INSERT
  5
AF61
330
A68E
100
AcDbEntity
  8
実形
 62
     0
370
    18
100
AcDbBlockReference
  2
_Dot
 10
1720.883424449543
 20
579.4486114322743
 30
0.0
 41
10.0
 42
10.0
 43
10.0
 50
358.1735843061729
  0
INSERT
  5
AF62
330
A68E
100
AcDbEntity
  8
実形
 62
     0
370
    18
100
AcDbBlockReference
  2
_Dot
 10
1622.713097576468
 20
491.2403644168815
 30
0.0
 41
10.0
 42
10.0
 43
10.0
 50
265.7072307035559
  0
MTEXT
  5
AF63
330
A68E
100
AcDbEntity
  8
実形
 62
     0
100
AcDbMText
 10
1638.211990603253
 20
572.7239309600743
 30
0.0
 40
30.0
 41
0.0
 71
     5
 72
     1
  1
95° 
 11
0.7438403762670676
 21
0.6683573106017973
 31
0.0
 73
     1
 44
1.0
1001
ACAD
1000
MTEXTBEGIN
1070
    73
1070
     1
1070
    44
1040
1.0
1070
    74
1070
     0
1000
MTEXTEND
  0
POINT
  5
AF64
330
A68E
100
AcDbEntity
  8
Defpoints
 62
     0
100
AcDbPoint
 10
1673.004486698338
 20
570.4478255344534
 30
0.0
  0
POINT
  5
AF65
330
A68E
100
AcDbEntity
  8
Defpoints
 62
     0
100
AcDbPoint
 10
1714.713769187679
 20
508.9291290991634
 30
0.0
  0
POINT
  5
AF66
330
A68E
100
AcDbEntity
  8
Defpoints
 62
     0
100
AcDbPoint
 10
1694.32620184783
 20
489.841334552223
 30
0.0
  0
POINT
  5
AF67
330
A68E
100
AcDbEntity
  8
Defpoints
 62
     0
100
AcDbPoint
 10
1245.119799086862
 20
498.6170073742969
 30
0.0
  0
POINT
  5
AF68
330
A68E
100
AcDbEntity
  8
Defpoints
 62
     0
100
AcDbPoint
 10
1732.240629017123
 20
709.2620536528621
 30
0.0
  0
ENDBLK
  5
A699
330
A68E
100
AcDbEntity
  8
0
 62
     3
100
AcDbBlockEnd
  0
BLOCK
  5
ABFB
330
ABF1
100
AcDbEntity
  8
0
 62
     3
100
AcDbBlockBegin
  2
*D58
 70
     1
 10
0.0
 20
0.0
 30
0.0
  3
*D58
  1

  0
LINE
  5
AF69
330
ABF1
100
AcDbEntity
  8
実形
 62
     0
370
    18
100
AcDbLine
 10
1294.480829259715
 20
549.8649690203154
 30
0.0
 11
1324.963680143303
 21
549.8649690203154
 31
0.0
  0
LINE
  5
AF6A
330
ABF1
100
AcDbEntity
  8
実形
 62
     0
370
    18
100
AcDbLine
 10
1294.480829259715
 20
499.8649690203156
 30
0.0
 11
1324.963680143302
 21
499.8649690203156
 31
0.0
  0
LINE
  5
AF6B
330
ABF1
100
AcDbEntity
  8
実形
 62
     0
370
    18
100
AcDbLine
 10
1324.963680143303
 20
549.8649690203154
 30
0.0
 11
1324.963680143302
 21
499.8649690203156
 31
0.0
  0
INSERT
  5
AF6C
330
ABF1
100
AcDbEntity
  8
実形
 62
     0
370
    18
100
AcDbBlockReference
  2
_DotSmall
 10
1324.963680143303
 20
549.8649690203154
 30
0.0
 41
35.0
 42
35.0
 43
35.0
 50
90.0
  0
INSERT
  5
AF6D
330
ABF1
100
AcDbEntity
  8
実形
 62
     0
370
    18
100
AcDbBlockReference
  2
_DotSmall
 10
1324.963680143302
 20
499.8649690203156
 30
0.0
 41
35.0
 42
35.0
 43
35.0
 50
270.0
  0
MTEXT
  5
AF6E
330
ABF1
100
AcDbEntity
  8
実形
 62
     0
100
AcDbMText
 10
1306.213680143302
 20
523.7499941545488
 30
0.0
 40
25.0
 41
0.0
 71
     5
 72
     1
  1
5
 11
0.0000000000000001
 21
1.0
 31
0.0
 73
     1
 44
1.0
1001
ACAD
1000
MTEXTBEGIN
1070
    73
1070
     1
1070
    44
1040
1.0
1070
    74
1070
     0
1000
MTEXTEND
  0
POINT
  5
AF6F
330
ABF1
100
AcDbEntity
  8
Defpoints
 62
     0
100
AcDbPoint
 10
1229.480829259715
 20
549.8649690203156
 30
0.0
  0
POINT
  5
AF70
330
ABF1
100
AcDbEntity
  8
Defpoints
 62
     0
100
AcDbPoint
 10
1229.480829259715
 20
499.8649690203156
 30
0.0
  0
POINT
  5
AF71
330
ABF1
100
AcDbEntity
  8
Defpoints
 62
     0
100
AcDbPoint
 10
1324.963680143302
 20
499.8649690203156
 30
0.0
  0
ENDBLK
  5
ABFC
330
ABF1
100
AcDbEntity
  8
0
 62
     3
100
AcDbBlockEnd
  0
BLOCK
  5
AD4D
330
AD43
100
AcDbEntity
  8
0
 62
     3
100
AcDbBlockBegin
  2
*D59
 70
     1
 10
0.0
 20
0.0
 30
0.0
  3
*D59
  1

  0
LINE
  5
AFAE
330
AD43
100
AcDbEntity
  8
実形
 62
     0
370
    18
100
AcDbLine
 10
1143.920757936395
 20
214.674136010748
 30
0.0
 11
1143.920757936395
 21
136.7215206115197
 31
0.0
  0
LINE
  5
AFAF
330
AD43
100
AcDbEntity
  8
実形
 62
     0
370
    18
100
AcDbLine
 10
1263.920757936396
 20
324.7965460447413
 30
0.0
 11
1263.920757936396
 21
136.7215206115197
 31
0.0
  0
LINE
  5
AFB0
330
AD43
100
AcDbEntity
  8
実形
 62
     0
370
    18
100
AcDbLine
 10
1153.920757936395
 20
136.7215206115197
 30
0.0
 11
1253.920757936396
 21
136.7215206115197
 31
0.0
  0
INSERT
  5
AFB1
330
AD43
100
AcDbEntity
  8
実形
 62
     0
370
    18
100
AcDbBlockReference
  2
_Dot
 10
1143.920757936395
 20
136.7215206115197
 30
0.0
 41
10.0
 42
10.0
 43
10.0
 50
180.0
  0
INSERT
  5
AFB2
330
AD43
100
AcDbEntity
  8
実形
 62
     0
370
    18
100
AcDbBlockReference
  2
_Dot
 10
1263.920757936396
 20
136.7215206115197
 30
0.0
 41
10.0
 42
10.0
 43
10.0
  0
MTEXT
  5
AFB3
330
AD43
100
AcDbEntity
  8
実形
 62
     0
100
AcDbMText
 10
1203.920757936395
 20
158.3215206115197
 30
0.0
 40
30.0
 41
0.0
 71
     5
 72
     1
  1
12
 73
     1
 44
1.0
1001
ACAD
1000
MTEXTBEGIN
1070
    73
1070
     1
1070
    44
1040
1.0
1070
    74
1070
     0
1000
MTEXTEND
  0
POINT
  5
AFB4
330
AD43
100
AcDbEntity
  8
Defpoints
 62
     0
100
AcDbPoint
 10
1143.920757936395
 20
279.6741360107481
 30
0.0
  0
POINT
  5
AFB5
330
AD43
100
AcDbEntity
  8
Defpoints
 62
     0
100
AcDbPoint
 10
1263.920757936396
 20
389.7965460447413
 30
0.0
  0
POINT
  5
AFB6
330
AD43
100
AcDbEntity
  8
Defpoints
 62
     0
100
AcDbPoint
 10
1263.920757936396
 20
136.7215206115197
 30
0.0
  0
ENDBLK
  5
AD4E
330
AD43
100
AcDbEntity
  8
0
 62
     3
100
AcDbBlockEnd
  0
BLOCK
  5
AD84
330
AD83
100
AcDbEntity
  8
0
 62
     3
100
AcDbBlockBegin
  2
*D60
 70
     1
 10
0.0
 20
0.0
 30
0.0
  3
*D60
  1

  0
ARC
  5
AD85
330
AD83
100
AcDbEntity
  8
実形
 62
     0
370
    18
100
AcDbCircle
 10
1333.602356858101
 20
489.4762923835073
 30
0.0
 40
90.31599869093133
100
AcDbArc
 50
91.3471686123459
 51
172.5336463973829
  0
INSERT
  5
AD86
330
AD83
100
AcDbEntity
  8
実形
 62
     0
370
    18
100
AcDbBlockReference
  2
_Dot
 10
1341.473914806005
 20
579.4486114322742
 30
0.0
 41
10.0
 42
10.0
 43
10.0
 50
358.1735843061729
  0
INSERT
  5
AD87
330
AD83
100
AcDbEntity
  8
実形
 62
     0
370
    18
100
AcDbBlockReference
  2
_Dot
 10
1243.30358793293
 20
491.2403644168817
 30
0.0
 41
10.0
 42
10.0
 43
10.0
 50
265.7072307035559
  0
MTEXT
  5
AD88
330
AD83
100
AcDbEntity
  8
実形
 62
     0
100
AcDbMText
 10
1258.802480959716
 20
572.7239309600744
 30
0.0
 40
30.0
 41
0.0
 71
     5
 72
     1
  1
95° 
 11
0.7438403762670676
 21
0.6683573106017973
 31
0.0
 73
     1
 44
1.0
1001
ACAD
1000
MTEXTBEGIN
1070
    73
1070
     1
1070
    44
1040
1.0
1070
    74
1070
     0
1000
MTEXTEND
  0
POINT
  5
AD89
330
AD83
100
AcDbEntity
  8
Defpoints
 62
     0
100
AcDbPoint
 10
1293.5949770548
 20
570.4478255344533
 30
0.0
  0
POINT
  5
AD8A
330
AD83
100
AcDbEntity
  8
Defpoints
 62
     0
100
AcDbPoint
 10
1335.304259544142
 20
508.9291290991633
 30
0.0
  0
POINT
  5
AD8B
330
AD83
100
AcDbEntity
  8
Defpoints
 62
     0
100
AcDbPoint
 10
1314.916692204293
 20
489.841334552223
 30
0.0
  0
POINT
  5
AD8C
330
AD83
100
AcDbEntity
  8
Defpoints
 62
     0
100
AcDbPoint
 10
865.710289443324
 20
498.6170073742968
 30
0.0
  0
POINT
  5
AD8D
330
AD83
100
AcDbEntity
  8
Defpoints
 62
     0
100
AcDbPoint
 10
1352.831119373585
 20
709.2620536528621
 30
0.0
  0
ENDBLK
  5
AD8E
330
AD83
100
AcDbEntity
  8
0
 62
     3
100
AcDbBlockEnd
  0
BLOCK
  5
AD90
330
AD8F
100
AcDbEntity
  8
0
 62
     3
100
AcDbBlockBegin
  2
*D61
 70
     1
 10
0.0
 20
0.0
 30
0.0
  3
*D61
  1

  0
LINE
  5
AD91
330
AD8F
100
AcDbEntity
  8
実形
 62
     0
370
    18
100
AcDbLine
 10
915.0713196161779
 20
549.8649690203156
 30
0.0
 11
945.5541704997651
 21
549.8649690203156
 31
0.0
  0
LINE
  5
AD92
330
AD8F
100
AcDbEntity
  8
実形
 62
     0
370
    18
100
AcDbLine
 10
915.0713196161779
 20
499.8649690203155
 30
0.0
 11
945.5541704997651
 21
499.8649690203155
 31
0.0
  0
LINE
  5
AD93
330
AD8F
100
AcDbEntity
  8
実形
 62
     0
370
    18
100
AcDbLine
 10
945.5541704997651
 20
549.8649690203156
 30
0.0
 11
945.5541704997651
 21
499.8649690203155
 31
0.0
  0
INSERT
  5
AD94
330
AD8F
100
AcDbEntity
  8
実形
 62
     0
370
    18
100
AcDbBlockReference
  2
_DotSmall
 10
945.5541704997651
 20
549.8649690203156
 30
0.0
 41
35.0
 42
35.0
 43
35.0
 50
90.0
  0
INSERT
  5
AD95
330
AD8F
100
AcDbEntity
  8
実形
 62
     0
370
    18
100
AcDbBlockReference
  2
_DotSmall
 10
945.5541704997651
 20
499.8649690203155
 30
0.0
 41
35.0
 42
35.0
 43
35.0
 50
270.0
  0
MTEXT
  5
AD96
330
AD8F
100
AcDbEntity
  8
実形
 62
     0
100
AcDbMText
 10
926.8041704997651
 20
523.749994154549
 30
0.0
 40
25.0
 41
0.0
 71
     5
 72
     1
  1
5
 11
0.0000000000000001
 21
1.0
 31
0.0
 73
     1
 44
1.0
1001
ACAD
1000
MTEXTBEGIN
1070
    73
1070
     1
1070
    44
1040
1.0
1070
    74
1070
     0
1000
MTEXTEND
  0
POINT
  5
AD97
330
AD8F
100
AcDbEntity
  8
Defpoints
 62
     0
100
AcDbPoint
 10
850.0713196161779
 20
549.8649690203156
 30
0.0
  0
POINT
  5
AD98
330
AD8F
100
AcDbEntity
  8
Defpoints
 62
     0
100
AcDbPoint
 10
850.0713196161779
 20
499.8649690203156
 30
0.0
  0
POINT
  5
AD99
330
AD8F
100
AcDbEntity
  8
Defpoints
 62
     0
100
AcDbPoint
 10
945.5541704997651
 20
499.8649690203155
 30
0.0
  0
ENDBLK
  5
AD9A
330
AD8F
100
AcDbEntity
  8
0
 62
     3
100
AcDbBlockEnd
  0
BLOCK
  5
AD9C
330
AD9B
100
AcDbEntity
  8
0
 62
     3
100
AcDbBlockBegin
  2
*D62
 70
     1
 10
0.0
 20
0.0
 30
0.0
  3
*D62
  1

  0
LINE
  5
AD9D
330
AD9B
100
AcDbEntity
  8
実形
 62
     0
370
    18
100
AcDbLine
 10
764.5112482928581
 20
184.8649690203155
 30
0.0
 11
764.5112482928581
 21
158.0355338776207
 31
0.0
  0
LINE
  5
AD9E
330
AD9B
100
AcDbEntity
  8
実形
 62
     0
370
    18
100
AcDbLine
 10
884.511248292858
 20
434.8649690203156
 30
0.0
 11
884.511248292858
 21
158.0355338776207
 31
0.0
  0
LINE
  5
AD9F
330
AD9B
100
AcDbEntity
  8
実形
 62
     0
370
    18
100
AcDbLine
 10
774.5112482928581
 20
158.0355338776207
 30
0.0
 11
874.5112482928581
 21
158.0355338776207
 31
0.0
  0
INSERT
  5
ADA0
330
AD9B
100
AcDbEntity
  8
実形
 62
     0
370
    18
100
AcDbBlockReference
  2
_Dot
 10
764.5112482928581
 20
158.0355338776207
 30
0.0
 41
10.0
 42
10.0
 43
10.0
 50
180.0
  0
INSERT
  5
ADA1
330
AD9B
100
AcDbEntity
  8
実形
 62
     0
370
    18
100
AcDbBlockReference
  2
_Dot
 10
884.511248292858
 20
158.0355338776207
 30
0.0
 41
10.0
 42
10.0
 43
10.0
  0
MTEXT
  5
ADA2
330
AD9B
100
AcDbEntity
  8
実形
 62
     0
100
AcDbMText
 10
824.5112482928581
 20
179.6355338776207
 30
0.0
 40
30.0
 41
0.0
 71
     5
 72
     1
  1
12
 73
     1
 44
1.0
1001
ACAD
1000
MTEXTBEGIN
1070
    73
1070
     1
1070
    44
1040
1.0
1070
    74
1070
     0
1000
MTEXTEND
  0
POINT
  5
ADA3
330
AD9B
100
AcDbEntity
  8
Defpoints
 62
     0
100
AcDbPoint
 10
764.5112482928581
 20
249.8649690203155
 30
0.0
  0
POINT
  5
ADA4
330
AD9B
100
AcDbEntity
  8
Defpoints
 62
     0
100
AcDbPoint
 10
884.511248292858
 20
499.8649690203156
 30
0.0
  0
POINT
  5
ADA5
330
AD9B
100
AcDbEntity
  8
Defpoints
 62
     0
100
AcDbPoint
 10
884.511248292858
 20
158.0355338776207
 30
0.0
  0
ENDBLK
  5
ADA6
330
AD9B
100
AcDbEntity
  8
0
 62
     3
100
AcDbBlockEnd
  0
BLOCK
  5
ADEA
330
ADA7
100
AcDbEntity
  8
0
 62
     3
100
AcDbBlockBegin
  2
A$C1CFD3EBA
 70
     0
 10
0.0
 20
0.0
 30
0.0
  3
A$C1CFD3EBA
  1

  0
LINE
  5
ADA8
330
ADA7
100
AcDbEntity
  8
実形
100
AcDbLine
 10
74.99999562961057
 20
125.6054454409596
 30
0.0
 11
74.99999562961057
 21
315.6054454409595
 31
0.0
  0
LINE
  5
ADA9
330
ADA7
100
AcDbEntity
  8
実形
100
AcDbLine
 10
84.99999562961079
 20
125.6054454409596
 30
0.0
 11
84.99999562961034
 21
315.6054454409595
 31
0.0
  0
LINE
  5
ADAA
330
ADA7
100
AcDbEntity
  8
実形
100
AcDbLine
 10
1001.216553193283
 20
336.8294358486319
 30
0.0
 11
1065.396013215986
 21
336.8294358486319
 31
0.0
  0
ARC
  5
ADAB
330
ADA7
100
AcDbEntity
  8
実形
100
AcDbCircle
 10
1001.216553193283
 20
536.8294358486318
 30
0.0
 40
200.0
100
AcDbArc
 50
260.2432215224308
 51
270.0
  0
LINE
  5
ADAC
330
ADA7
100
AcDbEntity
  8
実形
100
AcDbLine
 10
1002.070056222949
 20
346.8294358486316
 30
0.0
 11
1064.968906962314
 21
346.8294358486319
 31
0.0
  0
ARC
  5
ADAD
330
ADA7
100
AcDbEntity
  8
実形
100
AcDbCircle
 10
1002.070056222949
 20
546.8294358486316
 30
0.0
 40
200.0
100
AcDbArc
 50
260.2432215224308
 51
270.0
  0
LINE
  5
ADAE
330
ADA7
100
AcDbEntity
  8
実形
100
AcDbLine
 10
555.4054395410453
 20
336.8058013805394
 30
0.0
 11
106.1990367800767
 21
345.5814742026132
 31
0.0
  0
ARC
  5
ADAF
330
ADA7
100
AcDbEntity
  8
実形
100
AcDbCircle
 10
104.9999956296105
 20
315.6054454409595
 30
0.0
 40
30.0
100
AcDbArc
 50
87.70938995736051
 51
180.0
  0
LINE
  5
ADB0
330
ADA7
100
AcDbEntity
  8
実形
100
AcDbLine
 10
555.3387818615956
 20
327.6413986658788
 30
0.0
 11
105.7993563965879
 21
335.5894646153952
 31
0.0
  0
ARC
  5
ADB1
330
ADA7
100
AcDbEntity
  8
実形
100
AcDbCircle
 10
104.9999956296103
 20
315.6054454409595
 30
0.0
 40
20.0
100
AcDbArc
 50
87.70938995736051
 51
180.0
  0
LINE
  5
ADB2
330
ADA7
100
AcDbEntity
  8
実形
100
AcDbLine
 10
575.7199779200255
 20
355.0588710851303
 30
0.0
 11
578.2353191676843
 21
383.809353105165
 31
0.0
  0
ARC
  5
ADB3
330
ADA7
100
AcDbEntity
  8
実形
100
AcDbCircle
 10
555.7960839581901
 20
356.8019859400836
 30
0.0
 40
20.0
100
AcDbArc
 50
268.8808150097333
 51
354.9999999999999
  0
LINE
  5
ADB4
330
ADA7
100
AcDbEntity
  8
実形
100
AcDbLine
 10
575.7930068808946
 20
355.8935959274797
 30
0.0
 11
584.1634929521051
 21
451.5686895209541
 31
0.0
  0
ARC
  5
ADB5
330
ADA7
100
AcDbEntity
  8
実形
100
AcDbCircle
 10
555.8691129190601
 20
357.6367107824328
 30
0.0
 40
30.0
100
AcDbArc
 50
268.98708952813
 51
354.9999999999999
  0
LINE
  5
ADB6
330
ADA7
100
AcDbEntity
  8
実形
100
AcDbLine
 10
968.1768361029945
 20
349.7222324543866
 30
0.0
 11
613.2051431284303
 21
410.760761331872
 31
0.0
  0
LINE
  5
ADB7
330
ADA7
100
AcDbEntity
  8
実形
100
AcDbLine
 10
967.3233330733278
 20
339.7222324543868
 30
0.0
 11
611.5104821224327
 21
400.9054011621596
 31
0.0
  0
ARC
  5
ADB8
330
ADA7
100
AcDbEntity
  8
実形
100
AcDbCircle
 10
608.1211601104369
 20
381.1946808227353
 30
0.0
 40
30.0
100
AcDbArc
 50
80.24322152243078
 51
175.0
  0
ARC
  5
ADB9
330
ADA7
100
AcDbEntity
  8
実形
100
AcDbCircle
 10
608.1211601104369
 20
381.1946808227353
 30
0.0
 40
20.0
100
AcDbArc
 50
80.24322152243078
 51
175.0
  0
LINE
  5
ADBA
330
ADA7
100
AcDbEntity
  8
実形
100
AcDbLine
 10
1001.216553193283
 20
336.8294358486319
 30
0.0
 11
1000.725638003663
 21
336.8294358486319
 31
0.0
  0
DIMENSION
  5
ADBB
330
ADA7
100
AcDbEntity
  8
実形
100
AcDbDimension
  2
*D60
 10
593.3198667103375
 20
556.2265204811786
 30
0.0
 11
499.2912282964685
 21
419.6883977883908
 31
0.0
 12
-759.5112526632474
 22
-153.0355331716837
 32
0.0
 70
     2
  1
95° 
 71
     5
 42
1.63852932637548
  3
ISO-25
100
AcDb2LineAngularDimension
 13
555.4054395410453
 23
336.8058013805394
 33
0.0
 14
106.1990367800767
 24
345.5814742026132
 34
0.0
 15
575.7930068808946
 25
355.8935959274797
 35
0.0
 16
534.083724391553
 26
417.4122923627696
 36
0.0
1001
ACAD
1000
DSTYLE
1002
{
1070
    41
1040
10.0
1070
   140
1040
30.0
1070
   147
1040
6.599999999999998
1070
   279
1070
     2
1070
   342
1005
30D
1070
   371
1070
    18
1070
   372
1070
    18
1002
}
  0
LINE
  5
ADBC
330
ADA7
100
AcDbEntity
  8
実形
100
AcDbLine
 10
585.7549538618123
 20
355.0220385000032
 30
0.0
 11
588.1972661486019
 21
382.9377956776884
 31
0.0
  0
LEADER
  5
ADBD
330
ADA7
100
AcDbEntity
  8
実形
100
AcDbLeader
  3
ISO-25
 76
     2
 10
569.9420720988964
 20
342.4299488939514
 30
0.0
 10
615.9958865337212
 20
304.4010023770598
 30
0.0
1001
ACAD
1000
DSTYLE
1002
{
1070
    77
1070
     0
1070
    41
1040
10.0
1070
   140
1040
30.0
1070
   147
1040
6.599999999999998
1070
   279
1070
     2
1070
   342
1005
30D
1070
   371
1070
    18
1070
   372
1070
    18
1002
}
  0
LEADER
  5
ADBE
330
ADA7
100
AcDbEntity
  8
実形
100
AcDbLeader
  3
ISO-25
 76
     2
 10
594.3478989863906
 20
406.6115867506259
 30
0.0
 10
656.4769782161929
 20
356.337113359391
 30
0.0
1001
ACAD
1000
DSTYLE
1002
{
1070
    77
1070
     0
1070
    41
1040
10.0
1070
   140
1040
30.0
1070
   147
1040
6.599999999999998
1070
   279
1070
     2
1070
   342
1005
30D
1070
   371
1070
    18
1070
   372
1070
    18
1002
}
  0
TEXT
  5
ADBF
330
ADA7
100
AcDbEntity
  8
実形
100
AcDbText
 10
620.190186462892
 20
275.1009910570438
 30
0.0
 40
25.0
  1
2R
 72
     2
 11
661.8568531295586
 21
271.7676577237105
 31
0.0
100
AcDbText
 73
     1
  0
TEXT
  5
ADC0
330
ADA7
100
AcDbEntity
  8
実形
100
AcDbText
 10
664.3138387536086
 20
341.257492589778
 30
0.0
 40
25.0
  1
3R
 72
     2
 11
705.9805054202752
 21
337.9241592564447
 31
0.0
100
AcDbText
 73
     1
  0
LINE
  5
ADC1
330
ADA7
100
AcDbEntity
  8
実形
100
AcDbLine
 10
74.99999562961068
 20
346.8294358486319
 30
0.0
 11
291.1182228200687
 21
346.8294358486319
 31
0.0
  0
LINE
  5
ADC2
330
ADA7
100
AcDbEntity
  8
実形
100
AcDbLine
 10
54.99999562961045
 20
396.8294358486319
 30
0.0
 11
124.9999956296105
 21
396.8294358486319
 31
0.0
  0
ARC
  5
ADC3
330
ADA7
100
AcDbEntity
  8
実形
100
AcDbCircle
 10
54.99999562961045
 20
346.8294358486319
 30
0.0
 40
50.0
100
AcDbArc
 50
90.0
 51
180.0
  0
SPLINE
  5
ADC4
330
ADA7
100
AcDbEntity
  8
実形
100
AcDbSpline
210
0.0
220
0.0
230
1.0
 70
     8
 71
     3
 72
    13
 73
     9
 74
     0
 42
0.0000000001
 43
0.0000000001
 40
0.0
 40
0.0
 40
0.0
 40
0.0
 40
35.35533905932754
 40
70.71067811865491
 40
106.0660171779823
 40
141.4213562373097
 40
176.776695296637
 40
209.3865262264552
 40
209.3865262264552
 40
209.3865262264552
 40
209.3865262264552
 10
1042.73580655266
 20
416.4337073475028
 30
0.0
 10
1057.169559328382
 20
408.1003740141694
 30
0.0
 10
1086.037064879826
 20
391.4337073475026
 30
0.0
 10
1019.530773244
 20
366.4337073475026
 30
0.0
 10
1092.254681460136
 20
341.4337073475026
 30
0.0
 10
1017.865340231417
 20
316.4337073475026
 30
0.0
 10
1090.761740470492
 20
292.0808298195622
 30
0.0
 10
1046.465134293572
 20
276.0612856249551
 30
0.0
 10
1043.164352807002
 20
268.3750747636814
 30
0.0
  0
SPLINE
  5
ADC5
330
ADA7
100
AcDbEntity
  8
実形
100
AcDbSpline
210
0.0
220
0.0
230
1.0
 70
     8
 71
     3
 72
    13
 73
     9
 74
     0
 42
0.0000000001
 43
0.0000000001
 40
0.0
 40
0.0
 40
0.0
 40
0.0
 40
35.35533905932754
 40
70.71067811865491
 40
106.0660171779823
 40
141.4213562373097
 40
176.776695296637
 40
209.3865262264552
 40
209.3865262264552
 40
209.3865262264552
 40
209.3865262264552
 10
1067.73580655266
 20
416.4337073475028
 30
0.0
 10
1082.169559328382
 20
408.1003740141694
 30
0.0
 10
1111.037064879825
 20
391.4337073475026
 30
0.0
 10
1044.530773243999
 20
366.4337073475026
 30
0.0
 10
1117.254681460136
 20
341.4337073475026
 30
0.0
 10
1042.865340231416
 20
316.4337073475026
 30
0.0
 10
1115.761740470492
 20
292.0808298195622
 30
0.0
 10
1071.465134293571
 20
276.0612856249551
 30
0.0
 10
1068.164352807001
 20
268.3750747636814
 30
0.0
  0
LEADER
  5
ADC6
330
ADA7
100
AcDbEntity
  8
実形
100
AcDbLeader
  3
ISO-25
 76
     2
 10
87.16877210206439
 20
338.1051583499202
 30
0.0
 10
133.2225865368891
 20
300.0762118330285
 30
0.0
1001
ACAD
1000
DSTYLE
1002
{
1070
    77
1070
     0
1070
    41
1040
10.0
1070
   140
1040
30.0
1070
   147
1040
6.599999999999998
1070
   279
1070
     2
1070
   342
1005
30D
1070
   371
1070
    18
1070
   372
1070
    18
1002
}
  0
TEXT
  5
ADC7
330
ADA7
100
AcDbEntity
  8
実形
100
AcDbText
 10
137.4168864660599
 20
270.7762005130126
 30
0.0
 40
25.0
  1
4R
 72
     2
 11
179.0835531327266
 21
267.4428671796793
 31
0.0
100
AcDbText
 73
     1
  0
LINE
  5
ADC8
330
ADA7
100
AcDbEntity
  8
実形
100
AcDbLine
 10
74.99999562961057
 20
315.6054454409595
 30
0.0
 11
74.99999562961068
 21
346.8294358486319
 31
0.0
  0
LINE
  5
ADC9
330
ADA7
100
AcDbEntity
  8
実形
100
AcDbLine
 10
4.999995629610339
 20
125.6054454409596
 30
0.0
 11
4.999995629610452
 21
346.8294358486319
 31
0.0
  0
LINE
  5
ADCA
330
ADA7
100
AcDbEntity
  8
実形
100
AcDbLine
 10
124.9999956296107
 20
346.8294358486319
 30
0.0
 11
124.9999956296107
 21
396.8294358486319
 31
0.0
  0
LINE
  5
ADCB
330
ADA7
100
AcDbEntity
  8
実形
100
AcDbLine
 10
74.99999562961057
 20
437.4975794899365
 30
0.0
 11
74.99999562961057
 21
463.2936044519465
 31
0.0
  0
LINE
  5
ADCC
330
ADA7
100
AcDbEntity
  8
実形
100
AcDbLine
 10
74.99999562961057
 20
463.2378465752608
 30
0.0
 11
974.9999956296106
 21
463.2378465752608
 31
0.0
  0
LINE
  5
ADCD
330
ADA7
100
AcDbEntity
  8
実形
100
AcDbLine
 10
974.9999956296106
 20
463.2378465752608
 30
0.0
 11
974.9999956296106
 21
437.4418216132507
 31
0.0
  0
HATCH
  5
ADCE
330
ADA7
100
AcDbEntity
  8
実形
100
AcDbHatch
 10
0.0
 20
0.0
 30
0.0
210
0.0
220
0.0
230
1.0
  2
SOLID
 70
     1
 71
     0
 91
        1
 92
        7
 72
     1
 73
     1
 93
        2
 10
75.32514250934764
 20
457.9046507787052
 42
1.0
 10
75.32514250934764
 20
467.9046507787052
 42
1.0
 97
        0
 75
     0
 76
     1
 47
0.2779191024150841
 98
        1
 10
74.87564504829606
 20
464.3200861483729
  0
HATCH
  5
ADCF
330
ADA7
100
AcDbEntity
  8
実形
100
AcDbHatch
 10
0.0
 20
0.0
 30
0.0
210
0.0
220
0.0
230
1.0
  2
SOLID
 70
     1
 71
     0
 91
        1
 92
        7
 72
     1
 73
     1
 93
        2
 10
575.2783473593754
 20
458.5110278862839
 42
1.0
 10
575.2783473593754
 20
468.5110278862839
 42
1.0
 97
        0
 75
     0
 76
     1
 47
0.2779191024150841
 98
        1
 10
574.8288498983238
 20
464.9264632559516
  0
LINE
  5
ADD0
330
ADA7
100
AcDbEntity
  8
実形
100
AcDbLine
 10
574.9999956296106
 20
463.2378465752608
 30
0.0
 11
574.9999956296106
 21
437.4418216132507
 31
0.0
  0
TEXT
  5
ADD1
330
ADA7
100
AcDbEntity
  8
実形
100
AcDbText
 10
310.7722171898913
 20
472.6371731203126
 30
0.0
 40
25.0
  1
50
 72
     2
 11
348.2722171898913
 21
469.3038397869793
 31
0.0
100
AcDbText
 73
     1
  0
TEXT
  5
ADD2
330
ADA7
100
AcDbEntity
  8
実形
100
AcDbText
 10
755.9218812835061
 20
469.2485236558932
 30
0.0
 40
25.0
  1
40
 72
     2
 11
793.4218812835061
 21
465.9151903225599
 31
0.0
100
AcDbText
 73
     1
  0
HATCH
  5
ADD3
330
ADA7
100
AcDbEntity
  8
実形
100
AcDbHatch
 10
0.0
 20
0.0
 30
0.0
210
0.0
220
0.0
230
1.0
  2
SOLID
 70
     1
 71
     0
 91
        1
 92
        7
 72
     1
 73
     1
 93
        2
 10
974.4817565214688
 20
458.0436375257568
 42
1.0
 10
974.4817565214688
 20
468.0436375257568
 42
1.0
 97
        0
 75
     0
 76
     1
 47
0.2779191024150841
 98
        1
 10
974.0322590604174
 20
464.4590728954244
  0
LINE
  5
ADD4
330
ADA7
100
AcDbEntity
  8
実形
100
AcDbLine
 10
291.1182228200687
 20
346.829435848632
 30
0.0
 11
291.1182228200687
 21
411.8294358486318
 31
0.0
  0
LINE
  5
ADD5
330
ADA7
100
AcDbEntity
  8
実形
100
AcDbLine
 10
331.8859143018417
 20
411.8294358486318
 30
0.0
 11
291.1182228200687
 21
411.8294358486318
 31
0.0
  0
TEXT
  5
ADD6
330
ADA7
100
AcDbEntity
  8
実形
100
AcDbText
 10
278.2446283410617
 20
356.0154176994047
 30
0.0
 40
25.0
  1
6.5
 50
90.0
 72
     2
 11
281.5779616743951
 21
406.0154176994046
 31
0.0
100
AcDbText
 73
     1
  0
HATCH
  5
ADD7
330
ADA7
100
AcDbEntity
  8
実形
100
AcDbHatch
 10
0.0
 20
0.0
 30
0.0
210
0.0
220
0.0
230
1.0
  2
SOLID
 70
     1
 71
     0
 91
        1
 92
        7
 72
     1
 73
     1
 93
        2
 10
290.9456711177154
 20
407.0117333535899
 42
1.0
 10
290.9456711177154
 20
417.0117333535899
 42
1.0
 97
        0
 75
     0
 76
     1
 47
0.2779191024150841
 98
        1
 10
290.4961736566638
 20
413.4271687232576
  0
HATCH
  5
ADD8
330
ADA7
100
AcDbEntity
  8
実形
100
AcDbHatch
 10
0.0
 20
0.0
 30
0.0
210
0.0
220
0.0
230
1.0
  2
SOLID
 70
     1
 71
     0
 91
        1
 92
        7
 72
     1
 73
     1
 93
        2
 10
290.8411062083524
 20
342.3001076845112
 42
1.0
 10
290.8411062083524
 20
352.3001076845112
 42
1.0
 97
        0
 75
     0
 76
     1
 47
0.2779191024150841
 98
        1
 10
290.3916087473008
 20
348.7155430541788
  0
LINE
  5
ADD9
330
ADA7
100
AcDbEntity
  8
実形
100
AcDbLine
 10
331.8859143018417
 20
411.8294358486318
 30
0.0
 11
645.2617994337288
 21
411.8294358486318
 31
0.0
  0
LINE
  5
ADDA
330
ADA7
100
AcDbEntity
  8
実形
100
AcDbLine
 10
74.99999562961057
 20
463.2378465752608
 30
0.0
 11
4.999995629610452
 21
463.2378465752608
 31
0.0
  0
HATCH
  5
ADDB
330
ADA7
100
AcDbEntity
  8
実形
100
AcDbHatch
 10
0.0
 20
0.0
 30
0.0
210
0.0
220
0.0
230
1.0
  2
SOLID
 70
     1
 71
     0
 91
        1
 92
        7
 72
     1
 73
     1
 93
        2
 10
5.672974028051612
 20
457.7442877312559
 42
1.0
 10
5.672974028051612
 20
467.744287731256
 42
1.0
 97
        0
 75
     0
 76
     1
 47
0.2779191024150841
 98
        1
 10
5.223476567000034
 20
464.1597231009236
  0
TEXT
  5
ADDC
330
ADA7
100
AcDbEntity
  8
実形
100
AcDbText
 10
33.68547487749069
 20
473.081403230548
 30
0.0
 40
25.0
  1
7
 72
     2
 11
50.35214154415735
 21
469.7480698972147
 31
0.0
100
AcDbText
 73
     1
  0
ARC
  5
ADDD
330
ADA7
100
AcDbEntity
  8
実形
100
AcDbCircle
 10
54.99999562961068
 20
346.8294358486321
 30
0.0
 40
50.0
100
AcDbArc
 50
90.0
 51
180.0
  0
LINE
  5
ADDE
330
ADA7
100
AcDbEntity
  8
実形
100
AcDbLine
 10
124.9999956296107
 20
346.8294358486319
 30
0.0
 11
124.9999956296107
 21
396.8294358486319
 31
0.0
  0
LINE
  5
ADDF
330
ADA7
100
AcDbEntity
  8
実形
100
AcDbLine
 10
74.99999562961068
 20
96.82943584863188
 30
0.0
 11
74.99999562961068
 21
106.8294358486318
 31
0.0
  0
LINE
  5
ADE0
330
ADA7
100
AcDbEntity
  8
実形
100
AcDbLine
 10
74.99999562961068
 20
146.8294358486319
 30
0.0
 11
74.99999562961068
 21
346.8294358486319
 31
0.0
  0
LINE
  5
ADE1
330
ADA7
100
AcDbEntity
  8
実形
100
AcDbLine
 10
124.9999956296107
 20
396.8294358486319
 30
0.0
 11
54.99999562961068
 21
396.8294358486319
 31
0.0
  0
LINE
  5
ADE2
330
ADA7
100
AcDbEntity
  8
実形
100
AcDbLine
 10
124.9999956296107
 20
346.8294358486319
 30
0.0
 11
74.99999562961068
 21
346.8294358486319
 31
0.0
  0
ARC
  5
ADE3
330
ADA7
100
AcDbEntity
  8
実形
100
AcDbCircle
 10
74.99999562961068
 20
126.8294358486321
 30
0.0
 40
20.0
100
AcDbArc
 50
90.0
 51
270.0
  0
DIMENSION
  5
ADE4
330
ADA7
100
AcDbEntity
  8
実形
100
AcDbDimension
  2
*D61
 10
186.0429178365177
 20
346.8294358486318
 30
0.0
 11
186.0429178365176
 21
370.7144609828652
 31
0.0
 12
-759.5112526632474
 22
-153.0355331716837
 32
0.0
 70
   128
  1
5
 71
     5
 42
50.00000000000006
  3
ISO-25
100
AcDbAlignedDimension
 13
90.56006695293048
 23
396.8294358486319
 33
0.0
 14
90.56006695293048
 24
346.8294358486319
 34
0.0
 50
270.0
100
AcDbRotatedDimension
1001
ACAD
1000
DSTYLE
1002
{
1070
   371
1070
    18
1070
   372
1070
    18
1002
}
  0
LINE
  5
ADE5
330
ADA7
100
AcDbEntity
  8
実形
100
AcDbLine
 10
4.99999562961068
 20
346.8294358486314
 30
0.0
 11
4.99999562961068
 21
96.82943584863181
 31
0.0
  0
LINE
  5
ADE6
330
ADA7
100
AcDbEntity
  8
実形
100
AcDbLine
 10
74.99999562961057
 20
125.6054454409596
 30
0.0
 11
84.99999562961079
 21
125.6054454409596
 31
0.0
  0
DIMENSION
  5
ADE7
330
ADA7
100
AcDbEntity
  8
実形
100
AcDbDimension
  2
*D62
 10
124.9999956296107
 20
5.000000705937054
 30
0.0
 11
64.99999562961068
 21
26.60000070593705
 31
0.0
 12
-759.5112526632474
 22
-153.0355331716837
 32
0.0
  1
12
 71
     5
 42
120.0
  3
ISO-25
100
AcDbAlignedDimension
 13
4.99999562961068
 23
96.82943584863181
 33
0.0
 14
124.9999956296107
 24
346.8294358486319
 34
0.0
100
AcDbRotatedDimension
1001
ACAD
1000
DSTYLE
1002
{
1070
    41
1040
10.0
1070
   140
1040
30.0
1070
   147
1040
6.599999999999998
1070
   279
1070
     2
1070
   342
1005
30D
1070
   371
1070
    18
1070
   372
1070
    18
1002
}
  0
ENDBLK
  5
ADEB
330
ADA7
100
AcDbEntity
  8
0
 62
     3
100
AcDbBlockEnd
  0
BLOCK
  5
ADEE
330
ADED
100
AcDbEntity
  8
0
 62
     3
100
AcDbBlockBegin
  2
*D64
 70
     1
 10
0.0
 20
0.0
 30
0.0
  3
*D64
  1

  0
ARC
  5
ADEF
330
ADED
100
AcDbEntity
  8
実形
 62
     0
370
    18
100
AcDbCircle
 10
1333.602356858101
 20
489.4762923835073
 30
0.0
 40
90.31599869093133
100
AcDbArc
 50
91.3471686123459
 51
172.5336463973829
  0
INSERT
  5
ADF0
330
ADED
100
AcDbEntity
  8
実形
 62
     0
370
    18
100
AcDbBlockReference
  2
_Dot
 10
1341.473914806005
 20
579.4486114322742
 30
0.0
 41
10.0
 42
10.0
 43
10.0
 50
358.1735843061729
  0
INSERT
  5
ADF1
330
ADED
100
AcDbEntity
  8
実形
 62
     0
370
    18
100
AcDbBlockReference
  2
_Dot
 10
1243.30358793293
 20
491.2403644168817
 30
0.0
 41
10.0
 42
10.0
 43
10.0
 50
265.7072307035559
  0
MTEXT
  5
ADF2
330
ADED
100
AcDbEntity
  8
実形
 62
     0
100
AcDbMText
 10
1258.802480959716
 20
572.7239309600744
 30
0.0
 40
30.0
 41
0.0
 71
     5
 72
     1
  1
95° 
 11
0.7438403762670676
 21
0.6683573106017973
 31
0.0
 73
     1
 44
1.0
1001
ACAD
1000
MTEXTBEGIN
1070
    73
1070
     1
1070
    44
1040
1.0
1070
    74
1070
     0
1000
MTEXTEND
  0
POINT
  5
ADF3
330
ADED
100
AcDbEntity
  8
Defpoints
 62
     0
100
AcDbPoint
 10
1293.5949770548
 20
570.4478255344533
 30
0.0
  0
POINT
  5
ADF4
330
ADED
100
AcDbEntity
  8
Defpoints
 62
     0
100
AcDbPoint
 10
1335.304259544142
 20
508.9291290991633
 30
0.0
  0
POINT
  5
ADF5
330
ADED
100
AcDbEntity
  8
Defpoints
 62
     0
100
AcDbPoint
 10
1314.916692204293
 20
489.841334552223
 30
0.0
  0
POINT
  5
ADF6
330
ADED
100
AcDbEntity
  8
Defpoints
 62
     0
100
AcDbPoint
 10
865.710289443324
 20
498.6170073742968
 30
0.0
  0
POINT
  5
ADF7
330
ADED
100
AcDbEntity
  8
Defpoints
 62
     0
100
AcDbPoint
 10
1352.831119373585
 20
709.2620536528621
 30
0.0
  0
ENDBLK
  5
ADF8
330
ADED
100
AcDbEntity
  8
0
 62
     3
100
AcDbBlockEnd
  0
BLOCK
  5
ADFA
330
ADF9
100
AcDbEntity
  8
0
 62
     3
100
AcDbBlockBegin
  2
*D65
 70
     1
 10
0.0
 20
0.0
 30
0.0
  3
*D65
  1

  0
LINE
  5
ADFB
330
ADF9
100
AcDbEntity
  8
実形
 62
     0
370
    18
100
AcDbLine
 10
915.0713196161779
 20
549.8649690203156
 30
0.0
 11
945.5541704997651
 21
549.8649690203156
 31
0.0
  0
LINE
  5
ADFC
330
ADF9
100
AcDbEntity
  8
実形
 62
     0
370
    18
100
AcDbLine
 10
915.0713196161779
 20
499.8649690203155
 30
0.0
 11
945.5541704997651
 21
499.8649690203155
 31
0.0
  0
LINE
  5
ADFD
330
ADF9
100
AcDbEntity
  8
実形
 62
     0
370
    18
100
AcDbLine
 10
945.5541704997651
 20
549.8649690203156
 30
0.0
 11
945.5541704997651
 21
499.8649690203155
 31
0.0
  0
INSERT
  5
ADFE
330
ADF9
100
AcDbEntity
  8
実形
 62
     0
370
    18
100
AcDbBlockReference
  2
_DotSmall
 10
945.5541704997651
 20
549.8649690203156
 30
0.0
 41
35.0
 42
35.0
 43
35.0
 50
90.0
  0
INSERT
  5
ADFF
330
ADF9
100
AcDbEntity
  8
実形
 62
     0
370
    18
100
AcDbBlockReference
  2
_DotSmall
 10
945.5541704997651
 20
499.8649690203155
 30
0.0
 41
35.0
 42
35.0
 43
35.0
 50
270.0
  0
MTEXT
  5
AE00
330
ADF9
100
AcDbEntity
  8
実形
 62
     0
100
AcDbMText
 10
926.8041704997651
 20
523.749994154549
 30
0.0
 40
25.0
 41
0.0
 71
     5
 72
     1
  1
5
 11
0.0000000000000001
 21
1.0
 31
0.0
 73
     1
 44
1.0
1001
ACAD
1000
MTEXTBEGIN
1070
    73
1070
     1
1070
    44
1040
1.0
1070
    74
1070
     0
1000
MTEXTEND
  0
POINT
  5
AE01
330
ADF9
100
AcDbEntity
  8
Defpoints
 62
     0
100
AcDbPoint
 10
850.0713196161779
 20
549.8649690203156
 30
0.0
  0
POINT
  5
AE02
330
ADF9
100
AcDbEntity
  8
Defpoints
 62
     0
100
AcDbPoint
 10
850.0713196161779
 20
499.8649690203156
 30
0.0
  0
POINT
  5
AE03
330
ADF9
100
AcDbEntity
  8
Defpoints
 62
     0
100
AcDbPoint
 10
945.5541704997651
 20
499.8649690203155
 30
0.0
  0
ENDBLK
  5
AE04
330
ADF9
100
AcDbEntity
  8
0
 62
     3
100
AcDbBlockEnd
  0
BLOCK
  5
AE06
330
AE05
100
AcDbEntity
  8
0
 62
     3
100
AcDbBlockBegin
  2
*D66
 70
     1
 10
0.0
 20
0.0
 30
0.0
  3
*D66
  1

  0
LINE
  5
AE07
330
AE05
100
AcDbEntity
  8
実形
 62
     0
370
    18
100
AcDbLine
 10
764.5112482928581
 20
184.8649690203155
 30
0.0
 11
764.5112482928581
 21
158.0355338776207
 31
0.0
  0
LINE
  5
AE08
330
AE05
100
AcDbEntity
  8
実形
 62
     0
370
    18
100
AcDbLine
 10
884.511248292858
 20
434.8649690203156
 30
0.0
 11
884.511248292858
 21
158.0355338776207
 31
0.0
  0
LINE
  5
AE09
330
AE05
100
AcDbEntity
  8
実形
 62
     0
370
    18
100
AcDbLine
 10
774.5112482928581
 20
158.0355338776207
 30
0.0
 11
874.5112482928581
 21
158.0355338776207
 31
0.0
  0
INSERT
  5
AE0A
330
AE05
100
AcDbEntity
  8
実形
 62
     0
370
    18
100
AcDbBlockReference
  2
_Dot
 10
764.5112482928581
 20
158.0355338776207
 30
0.0
 41
10.0
 42
10.0
 43
10.0
 50
180.0
  0
INSERT
  5
AE0B
330
AE05
100
AcDbEntity
  8
実形
 62
     0
370
    18
100
AcDbBlockReference
  2
_Dot
 10
884.511248292858
 20
158.0355338776207
 30
0.0
 41
10.0
 42
10.0
 43
10.0
  0
MTEXT
  5
AE0C
330
AE05
100
AcDbEntity
  8
実形
 62
     0
100
AcDbMText
 10
824.5112482928581
 20
179.6355338776207
 30
0.0
 40
30.0
 41
0.0
 71
     5
 72
     1
  1
12
 73
     1
 44
1.0
1001
ACAD
1000
MTEXTBEGIN
1070
    73
1070
     1
1070
    44
1040
1.0
1070
    74
1070
     0
1000
MTEXTEND
  0
POINT
  5
AE0D
330
AE05
100
AcDbEntity
  8
Defpoints
 62
     0
100
AcDbPoint
 10
764.5112482928581
 20
249.8649690203155
 30
0.0
  0
POINT
  5
AE0E
330
AE05
100
AcDbEntity
  8
Defpoints
 62
     0
100
AcDbPoint
 10
884.511248292858
 20
499.8649690203156
 30
0.0
  0
POINT
  5
AE0F
330
AE05
100
AcDbEntity
  8
Defpoints
 62
     0
100
AcDbPoint
 10
884.511248292858
 20
158.0355338776207
 30
0.0
  0
ENDBLK
  5
AE10
330
AE05
100
AcDbEntity
  8
0
 62
     3
100
AcDbBlockEnd
  0
BLOCK
  5
AE55
330
AE11
100
AcDbEntity
  8
0
 62
     3
100
AcDbBlockBegin
  2
A$C5666542C
 70
     0
 10
0.0
 20
0.0
 30
0.0
  3
A$C5666542C
  1

  0
LINE
  5
AE12
330
AE11
100
AcDbEntity
  8
実形
100
AcDbLine
 10
74.99999562961057
 20
125.6054454409596
 30
0.0
 11
74.99999562961057
 21
315.6054454409595
 31
0.0
  0
LINE
  5
AE13
330
AE11
100
AcDbEntity
  8
実形
100
AcDbLine
 10
84.99999562961079
 20
125.6054454409596
 30
0.0
 11
84.99999562961034
 21
315.6054454409595
 31
0.0
  0
LINE
  5
AE14
330
AE11
100
AcDbEntity
  8
実形
100
AcDbLine
 10
1001.216553193283
 20
336.8294358486319
 30
0.0
 11
1065.396013215986
 21
336.8294358486319
 31
0.0
  0
ARC
  5
AE15
330
AE11
100
AcDbEntity
  8
実形
100
AcDbCircle
 10
1001.216553193283
 20
536.8294358486318
 30
0.0
 40
200.0
100
AcDbArc
 50
260.2432215224308
 51
270.0
  0
LINE
  5
AE16
330
AE11
100
AcDbEntity
  8
実形
100
AcDbLine
 10
1002.070056222949
 20
346.8294358486316
 30
0.0
 11
1064.968906962314
 21
346.8294358486319
 31
0.0
  0
ARC
  5
AE17
330
AE11
100
AcDbEntity
  8
実形
100
AcDbCircle
 10
1002.070056222949
 20
546.8294358486316
 30
0.0
 40
200.0
100
AcDbArc
 50
260.2432215224308
 51
270.0
  0
LINE
  5
AE18
330
AE11
100
AcDbEntity
  8
実形
100
AcDbLine
 10
555.4054395410453
 20
336.8058013805394
 30
0.0
 11
106.1990367800767
 21
345.5814742026132
 31
0.0
  0
ARC
  5
AE19
330
AE11
100
AcDbEntity
  8
実形
100
AcDbCircle
 10
104.9999956296105
 20
315.6054454409595
 30
0.0
 40
30.0
100
AcDbArc
 50
87.70938995736051
 51
180.0
  0
LINE
  5
AE1A
330
AE11
100
AcDbEntity
  8
実形
100
AcDbLine
 10
555.3387818615956
 20
327.6413986658788
 30
0.0
 11
105.7993563965879
 21
335.5894646153952
 31
0.0
  0
ARC
  5
AE1B
330
AE11
100
AcDbEntity
  8
実形
100
AcDbCircle
 10
104.9999956296103
 20
315.6054454409595
 30
0.0
 40
20.0
100
AcDbArc
 50
87.70938995736051
 51
180.0
  0
LINE
  5
AE1C
330
AE11
100
AcDbEntity
  8
実形
100
AcDbLine
 10
575.7199779200255
 20
355.0588710851303
 30
0.0
 11
578.2353191676843
 21
383.809353105165
 31
0.0
  0
ARC
  5
AE1D
330
AE11
100
AcDbEntity
  8
実形
100
AcDbCircle
 10
555.7960839581901
 20
356.8019859400836
 30
0.0
 40
20.0
100
AcDbArc
 50
268.8808150097333
 51
354.9999999999999
  0
LINE
  5
AE1E
330
AE11
100
AcDbEntity
  8
実形
100
AcDbLine
 10
575.7930068808946
 20
355.8935959274797
 30
0.0
 11
584.1634929521051
 21
451.5686895209541
 31
0.0
  0
ARC
  5
AE1F
330
AE11
100
AcDbEntity
  8
実形
100
AcDbCircle
 10
555.8691129190601
 20
357.6367107824328
 30
0.0
 40
30.0
100
AcDbArc
 50
268.98708952813
 51
354.9999999999999
  0
LINE
  5
AE20
330
AE11
100
AcDbEntity
  8
実形
100
AcDbLine
 10
968.1768361029945
 20
349.7222324543866
 30
0.0
 11
613.2051431284303
 21
410.760761331872
 31
0.0
  0
LINE
  5
AE21
330
AE11
100
AcDbEntity
  8
実形
100
AcDbLine
 10
967.3233330733278
 20
339.7222324543868
 30
0.0
 11
611.5104821224327
 21
400.9054011621596
 31
0.0
  0
ARC
  5
AE22
330
AE11
100
AcDbEntity
  8
実形
100
AcDbCircle
 10
608.1211601104369
 20
381.1946808227353
 30
0.0
 40
30.0
100
AcDbArc
 50
80.24322152243078
 51
175.0
  0
ARC
  5
AE23
330
AE11
100
AcDbEntity
  8
実形
100
AcDbCircle
 10
608.1211601104369
 20
381.1946808227353
 30
0.0
 40
20.0
100
AcDbArc
 50
80.24322152243078
 51
175.0
  0
LINE
  5
AE24
330
AE11
100
AcDbEntity
  8
実形
100
AcDbLine
 10
1001.216553193283
 20
336.8294358486319
 30
0.0
 11
1000.725638003663
 21
336.8294358486319
 31
0.0
  0
DIMENSION
  5
AE25
330
AE11
100
AcDbEntity
  8
実形
100
AcDbDimension
  2
*D64
 10
593.3198667103375
 20
556.2265204811786
 30
0.0
 11
499.2912282964685
 21
419.6883977883908
 31
0.0
 12
-759.5112526632474
 22
-153.0355331716837
 32
0.0
 70
     2
  1
95° 
 71
     5
 42
1.63852932637548
  3
ISO-25
100
AcDb2LineAngularDimension
 13
555.4054395410453
 23
336.8058013805394
 33
0.0
 14
106.1990367800767
 24
345.5814742026132
 34
0.0
 15
575.7930068808946
 25
355.8935959274797
 35
0.0
 16
534.083724391553
 26
417.4122923627696
 36
0.0
1001
ACAD
1000
DSTYLE
1002
{
1070
    41
1040
10.0
1070
   140
1040
30.0
1070
   147
1040
6.599999999999998
1070
   279
1070
     2
1070
   342
1005
30D
1070
   371
1070
    18
1070
   372
1070
    18
1002
}
  0
LINE
  5
AE26
330
AE11
100
AcDbEntity
  8
実形
100
AcDbLine
 10
585.7549538618123
 20
355.0220385000032
 30
0.0
 11
588.1972661486019
 21
382.9377956776884
 31
0.0
  0
LEADER
  5
AE27
330
AE11
100
AcDbEntity
  8
実形
100
AcDbLeader
  3
ISO-25
 76
     2
 10
569.9420720988964
 20
342.4299488939514
 30
0.0
 10
615.9958865337212
 20
304.4010023770598
 30
0.0
1001
ACAD
1000
DSTYLE
1002
{
1070
    77
1070
     0
1070
    41
1040
10.0
1070
   140
1040
30.0
1070
   147
1040
6.599999999999998
1070
   279
1070
     2
1070
   342
1005
30D
1070
   371
1070
    18
1070
   372
1070
    18
1002
}
  0
LEADER
  5
AE28
330
AE11
100
AcDbEntity
  8
実形
100
AcDbLeader
  3
ISO-25
 76
     2
 10
594.3478989863906
 20
406.6115867506259
 30
0.0
 10
656.4769782161929
 20
356.337113359391
 30
0.0
1001
ACAD
1000
DSTYLE
1002
{
1070
    77
1070
     0
1070
    41
1040
10.0
1070
   140
1040
30.0
1070
   147
1040
6.599999999999998
1070
   279
1070
     2
1070
   342
1005
30D
1070
   371
1070
    18
1070
   372
1070
    18
1002
}
  0
TEXT
  5
AE29
330
AE11
100
AcDbEntity
  8
実形
100
AcDbText
 10
620.190186462892
 20
275.1009910570438
 30
0.0
 40
25.0
  1
2R
 72
     2
 11
661.8568531295586
 21
271.7676577237105
 31
0.0
100
AcDbText
 73
     1
  0
TEXT
  5
AE2A
330
AE11
100
AcDbEntity
  8
実形
100
AcDbText
 10
664.3138387536086
 20
341.257492589778
 30
0.0
 40
25.0
  1
3R
 72
     2
 11
705.9805054202752
 21
337.9241592564447
 31
0.0
100
AcDbText
 73
     1
  0
LINE
  5
AE2B
330
AE11
100
AcDbEntity
  8
実形
100
AcDbLine
 10
74.99999562961068
 20
346.8294358486319
 30
0.0
 11
291.1182228200687
 21
346.8294358486319
 31
0.0
  0
LINE
  5
AE2C
330
AE11
100
AcDbEntity
  8
実形
100
AcDbLine
 10
54.99999562961045
 20
396.8294358486319
 30
0.0
 11
124.9999956296105
 21
396.8294358486319
 31
0.0
  0
ARC
  5
AE2D
330
AE11
100
AcDbEntity
  8
実形
100
AcDbCircle
 10
54.99999562961045
 20
346.8294358486319
 30
0.0
 40
50.0
100
AcDbArc
 50
90.0
 51
180.0
  0
SPLINE
  5
AE2E
330
AE11
100
AcDbEntity
  8
実形
100
AcDbSpline
210
0.0
220
0.0
230
1.0
 70
     8
 71
     3
 72
    13
 73
     9
 74
     0
 42
0.0000000001
 43
0.0000000001
 40
0.0
 40
0.0
 40
0.0
 40
0.0
 40
35.35533905932754
 40
70.71067811865491
 40
106.0660171779823
 40
141.4213562373097
 40
176.776695296637
 40
209.3865262264552
 40
209.3865262264552
 40
209.3865262264552
 40
209.3865262264552
 10
1042.73580655266
 20
416.4337073475028
 30
0.0
 10
1057.169559328382
 20
408.1003740141694
 30
0.0
 10
1086.037064879826
 20
391.4337073475026
 30
0.0
 10
1019.530773244
 20
366.4337073475026
 30
0.0
 10
1092.254681460136
 20
341.4337073475026
 30
0.0
 10
1017.865340231417
 20
316.4337073475026
 30
0.0
 10
1090.761740470492
 20
292.0808298195622
 30
0.0
 10
1046.465134293572
 20
276.0612856249551
 30
0.0
 10
1043.164352807002
 20
268.3750747636814
 30
0.0
  0
SPLINE
  5
AE2F
330
AE11
100
AcDbEntity
  8
実形
100
AcDbSpline
210
0.0
220
0.0
230
1.0
 70
     8
 71
     3
 72
    13
 73
     9
 74
     0
 42
0.0000000001
 43
0.0000000001
 40
0.0
 40
0.0
 40
0.0
 40
0.0
 40
35.35533905932754
 40
70.71067811865491
 40
106.0660171779823
 40
141.4213562373097
 40
176.776695296637
 40
209.3865262264552
 40
209.3865262264552
 40
209.3865262264552
 40
209.3865262264552
 10
1067.73580655266
 20
416.4337073475028
 30
0.0
 10
1082.169559328382
 20
408.1003740141694
 30
0.0
 10
1111.037064879825
 20
391.4337073475026
 30
0.0
 10
1044.530773243999
 20
366.4337073475026
 30
0.0
 10
1117.254681460136
 20
341.4337073475026
 30
0.0
 10
1042.865340231416
 20
316.4337073475026
 30
0.0
 10
1115.761740470492
 20
292.0808298195622
 30
0.0
 10
1071.465134293571
 20
276.0612856249551
 30
0.0
 10
1068.164352807001
 20
268.3750747636814
 30
0.0
  0
LEADER
  5
AE30
330
AE11
100
AcDbEntity
  8
実形
100
AcDbLeader
  3
ISO-25
 76
     2
 10
87.16877210206439
 20
338.1051583499202
 30
0.0
 10
133.2225865368891
 20
300.0762118330285
 30
0.0
1001
ACAD
1000
DSTYLE
1002
{
1070
    77
1070
     0
1070
    41
1040
10.0
1070
   140
1040
30.0
1070
   147
1040
6.599999999999998
1070
   279
1070
     2
1070
   342
1005
30D
1070
   371
1070
    18
1070
   372
1070
    18
1002
}
  0
TEXT
  5
AE31
330
AE11
100
AcDbEntity
  8
実形
100
AcDbText
 10
137.4168864660599
 20
270.7762005130126
 30
0.0
 40
25.0
  1
4R
 72
     2
 11
179.0835531327266
 21
267.4428671796793
 31
0.0
100
AcDbText
 73
     1
  0
LINE
  5
AE32
330
AE11
100
AcDbEntity
  8
実形
100
AcDbLine
 10
74.99999562961057
 20
315.6054454409595
 30
0.0
 11
74.99999562961068
 21
346.8294358486319
 31
0.0
  0
LINE
  5
AE33
330
AE11
100
AcDbEntity
  8
実形
100
AcDbLine
 10
4.999995629610339
 20
125.6054454409596
 30
0.0
 11
4.999995629610452
 21
346.8294358486319
 31
0.0
  0
LINE
  5
AE34
330
AE11
100
AcDbEntity
  8
実形
100
AcDbLine
 10
124.9999956296107
 20
346.8294358486319
 30
0.0
 11
124.9999956296107
 21
396.8294358486319
 31
0.0
  0
LINE
  5
AE35
330
AE11
100
AcDbEntity
  8
実形
100
AcDbLine
 10
74.99999562961057
 20
437.4975794899365
 30
0.0
 11
74.99999562961057
 21
463.2936044519465
 31
0.0
  0
LINE
  5
AE36
330
AE11
100
AcDbEntity
  8
実形
100
AcDbLine
 10
74.99999562961057
 20
463.2378465752608
 30
0.0
 11
974.9999956296106
 21
463.2378465752608
 31
0.0
  0
LINE
  5
AE37
330
AE11
100
AcDbEntity
  8
実形
100
AcDbLine
 10
974.9999956296106
 20
463.2378465752608
 30
0.0
 11
974.9999956296106
 21
437.4418216132507
 31
0.0
  0
HATCH
  5
AE38
330
AE11
100
AcDbEntity
  8
実形
100
AcDbHatch
 10
0.0
 20
0.0
 30
0.0
210
0.0
220
0.0
230
1.0
  2
SOLID
 70
     1
 71
     0
 91
        1
 92
        7
 72
     1
 73
     1
 93
        2
 10
75.32514250934764
 20
457.9046507787052
 42
1.0
 10
75.32514250934764
 20
467.9046507787052
 42
1.0
 97
        0
 75
     0
 76
     1
 47
0.2779191024150841
 98
        1
 10
74.87564504829606
 20
464.3200861483729
  0
HATCH
  5
AE39
330
AE11
100
AcDbEntity
  8
実形
100
AcDbHatch
 10
0.0
 20
0.0
 30
0.0
210
0.0
220
0.0
230
1.0
  2
SOLID
 70
     1
 71
     0
 91
        1
 92
        7
 72
     1
 73
     1
 93
        2
 10
575.2783473593754
 20
458.5110278862839
 42
1.0
 10
575.2783473593754
 20
468.5110278862839
 42
1.0
 97
        0
 75
     0
 76
     1
 47
0.2779191024150841
 98
        1
 10
574.8288498983238
 20
464.9264632559516
  0
LINE
  5
AE3A
330
AE11
100
AcDbEntity
  8
実形
100
AcDbLine
 10
574.9999956296106
 20
463.2378465752608
 30
0.0
 11
574.9999956296106
 21
437.4418216132507
 31
0.0
  0
TEXT
  5
AE3B
330
AE11
100
AcDbEntity
  8
実形
100
AcDbText
 10
310.7722171898913
 20
472.6371731203126
 30
0.0
 40
25.0
  1
50
 72
     2
 11
348.2722171898913
 21
469.3038397869793
 31
0.0
100
AcDbText
 73
     1
  0
TEXT
  5
AE3C
330
AE11
100
AcDbEntity
  8
実形
100
AcDbText
 10
755.9218812835061
 20
469.2485236558932
 30
0.0
 40
25.0
  1
40
 72
     2
 11
793.4218812835061
 21
465.9151903225599
 31
0.0
100
AcDbText
 73
     1
  0
HATCH
  5
AE3D
330
AE11
100
AcDbEntity
  8
実形
100
AcDbHatch
 10
0.0
 20
0.0
 30
0.0
210
0.0
220
0.0
230
1.0
  2
SOLID
 70
     1
 71
     0
 91
        1
 92
        7
 72
     1
 73
     1
 93
        2
 10
974.4817565214688
 20
458.0436375257568
 42
1.0
 10
974.4817565214688
 20
468.0436375257568
 42
1.0
 97
        0
 75
     0
 76
     1
 47
0.2779191024150841
 98
        1
 10
974.0322590604174
 20
464.4590728954244
  0
LINE
  5
AE3E
330
AE11
100
AcDbEntity
  8
実形
100
AcDbLine
 10
291.1182228200687
 20
346.829435848632
 30
0.0
 11
291.1182228200687
 21
411.8294358486318
 31
0.0
  0
LINE
  5
AE3F
330
AE11
100
AcDbEntity
  8
実形
100
AcDbLine
 10
331.8859143018417
 20
411.8294358486318
 30
0.0
 11
291.1182228200687
 21
411.8294358486318
 31
0.0
  0
TEXT
  5
AE40
330
AE11
100
AcDbEntity
  8
実形
100
AcDbText
 10
278.2446283410617
 20
356.0154176994047
 30
0.0
 40
25.0
  1
6.5
 50
90.0
 72
     2
 11
281.5779616743951
 21
406.0154176994046
 31
0.0
100
AcDbText
 73
     1
  0
HATCH
  5
AE41
330
AE11
100
AcDbEntity
  8
実形
100
AcDbHatch
 10
0.0
 20
0.0
 30
0.0
210
0.0
220
0.0
230
1.0
  2
SOLID
 70
     1
 71
     0
 91
        1
 92
        7
 72
     1
 73
     1
 93
        2
 10
290.9456711177154
 20
407.0117333535899
 42
1.0
 10
290.9456711177154
 20
417.0117333535899
 42
1.0
 97
        0
 75
     0
 76
     1
 47
0.2779191024150841
 98
        1
 10
290.4961736566638
 20
413.4271687232576
  0
HATCH
  5
AE42
330
AE11
100
AcDbEntity
  8
実形
100
AcDbHatch
 10
0.0
 20
0.0
 30
0.0
210
0.0
220
0.0
230
1.0
  2
SOLID
 70
     1
 71
     0
 91
        1
 92
        7
 72
     1
 73
     1
 93
        2
 10
290.8411062083524
 20
342.3001076845112
 42
1.0
 10
290.8411062083524
 20
352.3001076845112
 42
1.0
 97
        0
 75
     0
 76
     1
 47
0.2779191024150841
 98
        1
 10
290.3916087473008
 20
348.7155430541788
  0
LINE
  5
AE43
330
AE11
100
AcDbEntity
  8
実形
100
AcDbLine
 10
331.8859143018417
 20
411.8294358486318
 30
0.0
 11
645.2617994337288
 21
411.8294358486318
 31
0.0
  0
LINE
  5
AE44
330
AE11
100
AcDbEntity
  8
実形
100
AcDbLine
 10
4.999995629610452
 20
437.4975794899365
 30
0.0
 11
4.999995629610566
 21
463.2378465752608
 31
0.0
  0
LINE
  5
AE45
330
AE11
100
AcDbEntity
  8
実形
100
AcDbLine
 10
74.99999562961057
 20
463.2378465752608
 30
0.0
 11
4.999995629610452
 21
463.2378465752608
 31
0.0
  0
HATCH
  5
AE46
330
AE11
100
AcDbEntity
  8
実形
100
AcDbHatch
 10
0.0
 20
0.0
 30
0.0
210
0.0
220
0.0
230
1.0
  2
SOLID
 70
     1
 71
     0
 91
        1
 92
        7
 72
     1
 73
     1
 93
        2
 10
5.672974028051612
 20
457.7442877312559
 42
1.0
 10
5.672974028051612
 20
467.744287731256
 42
1.0
 97
        0
 75
     0
 76
     1
 47
0.2779191024150841
 98
        1
 10
5.223476567000034
 20
464.1597231009236
  0
TEXT
  5
AE47
330
AE11
100
AcDbEntity
  8
実形
100
AcDbText
 10
33.68547487749069
 20
473.081403230548
 30
0.0
 40
25.0
  1
7
 72
     2
 11
50.35214154415735
 21
469.7480698972147
 31
0.0
100
AcDbText
 73
     1
  0
ARC
  5
AE48
330
AE11
100
AcDbEntity
  8
実形
100
AcDbCircle
 10
54.99999562961068
 20
346.8294358486321
 30
0.0
 40
50.0
100
AcDbArc
 50
90.0
 51
180.0
  0
LINE
  5
AE49
330
AE11
100
AcDbEntity
  8
実形
100
AcDbLine
 10
124.9999956296107
 20
346.8294358486319
 30
0.0
 11
124.9999956296107
 21
396.8294358486319
 31
0.0
  0
LINE
  5
AE4A
330
AE11
100
AcDbEntity
  8
実形
100
AcDbLine
 10
74.99999562961068
 20
96.82943584863188
 30
0.0
 11
74.99999562961068
 21
106.8294358486318
 31
0.0
  0
LINE
  5
AE4B
330
AE11
100
AcDbEntity
  8
実形
100
AcDbLine
 10
74.99999562961068
 20
146.8294358486319
 30
0.0
 11
74.99999562961068
 21
346.8294358486319
 31
0.0
  0
LINE
  5
AE4C
330
AE11
100
AcDbEntity
  8
実形
100
AcDbLine
 10
124.9999956296107
 20
396.8294358486319
 30
0.0
 11
54.99999562961068
 21
396.8294358486319
 31
0.0
  0
LINE
  5
AE4D
330
AE11
100
AcDbEntity
  8
実形
100
AcDbLine
 10
124.9999956296107
 20
346.8294358486319
 30
0.0
 11
74.99999562961068
 21
346.8294358486319
 31
0.0
  0
ARC
  5
AE4E
330
AE11
100
AcDbEntity
  8
実形
100
AcDbCircle
 10
74.99999562961068
 20
126.8294358486321
 30
0.0
 40
20.0
100
AcDbArc
 50
90.0
 51
270.0
  0
DIMENSION
  5
AE4F
330
AE11
100
AcDbEntity
  8
実形
100
AcDbDimension
  2
*D65
 10
186.0429178365177
 20
346.8294358486318
 30
0.0
 11
186.0429178365176
 21
370.7144609828652
 31
0.0
 12
-759.5112526632474
 22
-153.0355331716837
 32
0.0
 70
   128
  1
5
 71
     5
 42
50.00000000000006
  3
ISO-25
100
AcDbAlignedDimension
 13
90.56006695293048
 23
396.8294358486319
 33
0.0
 14
90.56006695293048
 24
346.8294358486319
 34
0.0
 50
270.0
100
AcDbRotatedDimension
1001
ACAD
1000
DSTYLE
1002
{
1070
   371
1070
    18
1070
   372
1070
    18
1002
}
  0
LINE
  5
AE50
330
AE11
100
AcDbEntity
  8
実形
100
AcDbLine
 10
4.99999562961068
 20
346.8294358486314
 30
0.0
 11
4.99999562961068
 21
96.82943584863181
 31
0.0
  0
LINE
  5
AE51
330
AE11
100
AcDbEntity
  8
実形
100
AcDbLine
 10
74.99999562961057
 20
125.6054454409596
 30
0.0
 11
84.99999562961079
 21
125.6054454409596
 31
0.0
  0
DIMENSION
  5
AE52
330
AE11
100
AcDbEntity
  8
実形
100
AcDbDimension
  2
*D66
 10
124.9999956296107
 20
5.000000705937054
 30
0.0
 11
64.99999562961068
 21
26.60000070593705
 31
0.0
 12
-759.5112526632474
 22
-153.0355331716837
 32
0.0
  1
12
 71
     5
 42
120.0
  3
ISO-25
100
AcDbAlignedDimension
 13
4.99999562961068
 23
96.82943584863181
 33
0.0
 14
124.9999956296107
 24
346.8294358486319
 34
0.0
100
AcDbRotatedDimension
1001
ACAD
1000
DSTYLE
1002
{
1070
    41
1040
10.0
1070
   140
1040
30.0
1070
   147
1040
6.599999999999998
1070
   279
1070
     2
1070
   342
1005
30D
1070
   371
1070
    18
1070
   372
1070
    18
1002
}
  0
ENDBLK
  5
AE56
330
AE11
100
AcDbEntity
  8
0
 62
     3
100
AcDbBlockEnd
  0
BLOCK
  5
AF86
330
AF7C
100
AcDbEntity
  8
0
 62
     3
100
AcDbBlockBegin
  2
*D68
 70
     1
 10
0.0
 20
0.0
 30
0.0
  3
*D68
  1

  0
LINE
  5
AFB7
330
AF7C
100
AcDbEntity
  8
実形
 62
     0
370
    18
100
AcDbLine
 10
1143.920757936395
 20
184.8649690203155
 30
0.0
 11
1143.920757936395
 21
187.3134036985029
 31
0.0
  0
LINE
  5
AFB8
330
AF7C
100
AcDbEntity
  8
実形
 62
     0
370
    18
100
AcDbLine
 10
1213.920757936395
 20
184.8649690203155
 30
0.0
 11
1213.920757936395
 21
187.3134036985029
 31
0.0
  0
LINE
  5
AFB9
330
AF7C
100
AcDbEntity
  8
実形
 62
     0
370
    18
100
AcDbLine
 10
1153.920757936395
 20
187.3134036985029
 30
0.0
 11
1203.920757936395
 21
187.3134036985029
 31
0.0
  0
INSERT
  5
AFBA
330
AF7C
100
AcDbEntity
  8
実形
 62
     0
370
    18
100
AcDbBlockReference
  2
_Dot
 10
1143.920757936395
 20
187.3134036985029
 30
0.0
 41
10.0
 42
10.0
 43
10.0
 50
180.0
  0
INSERT
  5
AFBB
330
AF7C
100
AcDbEntity
  8
実形
 62
     0
370
    18
100
AcDbBlockReference
  2
_Dot
 10
1213.920757936395
 20
187.3134036985029
 30
0.0
 41
10.0
 42
10.0
 43
10.0
  0
MTEXT
  5
AFBC
330
AF7C
100
AcDbEntity
  8
実形
 62
     0
100
AcDbMText
 10
1178.920757936396
 20
208.9134036985029
 30
0.0
 40
30.0
 41
0.0
 71
     5
 72
     1
  1
7
 73
     1
 44
1.0
1001
ACAD
1000
MTEXTBEGIN
1070
    73
1070
     1
1070
    44
1040
1.0
1070
    74
1070
     0
1000
MTEXTEND
  0
POINT
  5
AFBD
330
AF7C
100
AcDbEntity
  8
Defpoints
 62
     0
100
AcDbPoint
 10
1143.920757936395
 20
249.8649690203155
 30
0.0
  0
POINT
  5
AFBE
330
AF7C
100
AcDbEntity
  8
Defpoints
 62
     0
100
AcDbPoint
 10
1213.920757936395
 20
249.8649690203155
 30
0.0
  0
POINT
  5
AFBF
330
AF7C
100
AcDbEntity
  8
Defpoints
 62
     0
100
AcDbPoint
 10
1213.920757936395
 20
187.3134036985029
 30
0.0
  0
ENDBLK
  5
AF87
330
AF7C
100
AcDbEntity
  8
0
 62
     3
100
AcDbBlockEnd
  0
ENDSEC
  0
SECTION
  2
ENTITIES
  0
LINE
  5
9C
330
1F
100
AcDbEntity
  8
枠
 62
     0
100
AcDbLine
 10
174.0
 20
3.99999999999909
 30
0.0
 11
2834.0
 21
3.99999999999909
 31
0.0
  0
LINE
  5
A0
330
1F
100
AcDbEntity
  8
枠
 62
     0
100
AcDbLine
 10
2834.0
 20
2023.999999999999
 30
0.0
 11
174.0
 21
2023.999999999999
 31
0.0
  0
LINE
  5
272
330
1F
100
AcDbEntity
  8
枠
 62
     0
100
AcDbLine
 10
2234.0
 20
133.9999999999991
 30
0.0
 11
2234.0
 21
198.9999999999991
 31
0.0
  0
LINE
  5
1B73
330
1F
100
AcDbEntity
  8
枠
 62
     0
100
AcDbLine
 10
1944.0
 20
2023.999999999999
 30
0.0
 11
2834.0
 21
2023.999999999999
 31
0.0
  0
LINE
  5
1B84
330
1F
100
AcDbEntity
  8
実形
 62
     0
100
AcDbLine
 10
2114.0
 20
68.99999999999909
 30
0.0
 11
2834.0
 21
68.99999999999909
 31
0.0
  0
LINE
  5
1B85
330
1F
100
AcDbEntity
  8
実形
 62
     0
100
AcDbLine
 10
2114.0
 20
198.9999999999991
 30
0.0
 11
2834.0
 21
198.9999999999991
 31
0.0
  0
LINE
  5
1B86
330
1F
100
AcDbEntity
  8
実形
 62
     0
100
AcDbLine
 10
2114.0
 20
133.9999999999991
 30
0.0
 11
2834.0
 21
133.9999999999991
 31
0.0
  0
LINE
  5
1B87
330
1F
100
AcDbEntity
  8
実形
 62
     0
100
AcDbLine
 10
2114.0
 20
3.99999999999909
 30
0.0
 11
2114.0
 21
198.9999999999991
 31
0.0
  0
TEXT
  5
1B88
330
1F
100
AcDbEntity
  8
枠
 62
     0
100
AcDbText
 10
2340.916476167013
 20
18.49999999999909
 30
0.0
 40
35.0
  1
中外交易株式会社
  7
ms明朝
 72
     4
 11
2545.716476167013
 21
36.49999999999909
 31
0.0
100
AcDbText
  0
LINE
  5
1B8A
330
1F
100
AcDbEntity
  8
実形
 62
     0
100
AcDbLine
 10
2234.0
 20
68.99999999999909
 30
0.0
 11
2834.0
 21
68.99999999999909
 31
0.0
  0
LINE
  5
1B8B
102
{ACAD_REACTORS
330
1B98
102
}
330
1F
100
AcDbEntity
  8
枠
 62
     0
370
     5
100
AcDbLine
 10
2257.843923164362
 20
40.53787547858428
 30
0.0
 11
2233.255774665348
 21
40.53787547858428
 31
0.0
  0
LINE
  5
1B8C
102
{ACAD_REACTORS
330
1B98
102
}
330
1F
100
AcDbEntity
  8
枠
 62
     0
370
     5
100
AcDbLine
 10
2233.255774665348
 20
40.53787547858428
 30
0.0
 11
2233.255774665348
 21
30.53787547858429
 31
0.0
  0
LINE
  5
1B8D
102
{ACAD_REACTORS
330
1B98
102
}
330
1F
100
AcDbEntity
  8
枠
 62
     0
370
     5
100
AcDbLine
 10
2233.255774665348
 20
30.53787547858429
 30
0.0
 11
2257.346428692676
 21
30.53787547858429
 31
0.0
  0
LINE
  5
1B8E
102
{ACAD_REACTORS
330
1B98
102
}
330
1F
100
AcDbEntity
  8
枠
 62
     0
370
     5
100
AcDbLine
 10
2260.641894042939
 20
56.49999999999909
 30
0.0
 11
2260.641894042939
 21
16.49999999999909
 31
0.0
  0
LINE
  5
1B8F
102
{ACAD_REACTORS
330
1B98
102
}
330
1F
100
AcDbEntity
  8
枠
 62
     0
370
     5
100
AcDbLine
 10
2260.641894042939
 20
16.49999999999909
 30
0.0
 11
2295.641894042939
 21
16.49999999999909
 31
0.0
  0
LINE
  5
1B90
102
{ACAD_REACTORS
330
1B98
102
}
330
1F
100
AcDbEntity
  8
枠
 62
     0
370
     5
100
AcDbLine
 10
2295.641894042939
 20
16.49999999999909
 30
0.0
 11
2260.641894042939
 21
36.49999999999909
 31
0.0
  0
LINE
  5
1B91
102
{ACAD_REACTORS
330
1B98
102
}
330
1F
100
AcDbEntity
  8
枠
 62
     0
370
     5
100
AcDbLine
 10
2260.641894042939
 20
36.49999999999909
 30
0.0
 11
2295.641894042939
 21
56.49999999999909
 31
0.0
  0
LINE
  5
1B92
102
{ACAD_REACTORS
330
1B98
102
}
330
1F
100
AcDbEntity
  8
枠
 62
     0
370
     5
100
AcDbLine
 10
2295.641894042939
 20
56.49999999999909
 30
0.0
 11
2260.641894042939
 21
56.49999999999909
 31
0.0
  0
LINE
  5
1B93
102
{ACAD_REACTORS
330
1B98
102
}
330
1F
100
AcDbEntity
  8
枠
 62
     0
370
     5
100
AcDbLine
 10
2326.75434681301
 20
40.53787547858428
 30
0.0
 11
2302.166198313996
 21
40.53787547858428
 31
0.0
  0
LINE
  5
1B94
102
{ACAD_REACTORS
330
1B98
102
}
330
1F
100
AcDbEntity
  8
枠
 62
     0
370
     5
100
AcDbLine
 10
2302.166198313996
 20
40.53787547858428
 30
0.0
 11
2302.166198313996
 21
30.53787547858429
 31
0.0
  0
LINE
  5
1B95
102
{ACAD_REACTORS
330
1B98
102
}
330
1F
100
AcDbEntity
  8
枠
 62
     0
370
     5
100
AcDbLine
 10
2302.166198313996
 20
30.53787547858429
 30
0.0
 11
2326.256852341323
 21
30.53787547858429
 31
0.0
  0
ARC
  5
1B96
102
{ACAD_REACTORS
330
1B98
102
}
330
1F
100
AcDbEntity
  8
枠
 62
     0
370
     5
100
AcDbCircle
 10
2238.255774665347
 20
36.49999999999909
 30
0.0
 40
20.0
100
AcDbArc
 50
11.64772366708617
 51
342.6561058784773
  0
ARC
  5
1B97
102
{ACAD_REACTORS
330
1B98
102
}
330
1F
100
AcDbEntity
  8
枠
 62
     0
370
     5
100
AcDbCircle
 10
2307.166198313995
 20
36.49999999999909
 30
0.0
 40
20.0
100
AcDbArc
 50
11.64772366708617
 51
342.6561058784773
  0
HATCH
  5
1B98
330
1F
100
AcDbEntity
  8
枠
 62
     0
100
AcDbHatch
 10
0.0
 20
0.0
 30
0.0
210
0.0
220
0.0
230
1.0
  2
SOLID
 70
     1
 71
     1
 91
        3
 92
        1
 93
        4
 72
     2
 10
2307.166198313995
 20
36.49999999999909
 40
20.0
 50
11.64772366708617
 51
342.6561058784773
 73
     1
 72
     1
 10
2326.256852341323
 20
30.53787547858429
 11
2302.166198313996
 21
30.53787547858429
 72
     1
 10
2302.166198313996
 20
30.53787547858429
 11
2302.166198313996
 21
40.53787547858428
 72
     1
 10
2302.166198313996
 20
40.53787547858428
 11
2326.75434681301
 21
40.53787547858428
 97
        4
330
1B97
330
1B95
330
1B94
330
1B93
 92
        1
 93
        4
 72
     2
 10
2238.255774665347
 20
36.49999999999909
 40
20.0
 50
11.64772366708617
 51
342.6561058784773
 73
     1
 72
     1
 10
2257.346428692676
 20
30.53787547858429
 11
2233.255774665348
 21
30.53787547858429
 72
     1
 10
2233.255774665348
 20
30.53787547858429
 11
2233.255774665348
 21
40.53787547858428
 72
     1
 10
2233.255774665348
 20
40.53787547858428
 11
2257.843923164362
 21
40.53787547858428
 97
        4
330
1B96
330
1B8D
330
1B8C
330
1B8B
 92
        1
 93
        5
 72
     1
 10
2295.641894042939
 20
56.49999999999909
 11
2260.641894042939
 21
56.49999999999909
 72
     1
 10
2260.641894042939
 20
56.49999999999909
 11
2260.641894042939
 21
16.49999999999909
 72
     1
 10
2260.641894042939
 20
16.49999999999909
 11
2295.641894042939
 21
16.49999999999909
 72
     1
 10
2295.641894042939
 20
16.49999999999909
 11
2260.641894042939
 21
36.49999999999909
 72
     1
 10
2260.641894042939
 20
36.49999999999909
 11
2295.641894042939
 21
56.49999999999909
 97
        5
330
1B92
330
1B8E
330
1B8F
330
1B90
330
1B91
 75
     0
 76
     1
 98
        1
 10
-10.0
 20
-0.0000000000009095
  0
LINE
  5
1B99
330
1F
100
AcDbEntity
  8
実形
 62
     0
100
AcDbLine
 10
2234.0
 20
68.99999999999909
 30
0.0
 11
2234.0
 21
198.9999999999991
 31
0.0
  0
TEXT
  5
5E5F
330
1F
100
AcDbEntity
  8
枠
 62
     0
100
AcDbText
 10
2136.666666666667
 20
83.99999999999909
 30
0.0
 40
35.0
  1
尺度
 72
     4
 11
2174.0
 21
101.4999999999991
 31
0.0
100
AcDbText
  0
TEXT
  5
5E68
330
1F
100
AcDbEntity
  8
枠
 62
     0
100
AcDbText
 10
2136.666666666667
 20
148.9999999999991
 30
0.0
 40
35.0
  1
品番
 72
     4
 11
2174.0
 21
166.4999999999991
 31
0.0
100
AcDbText
  0
TEXT
  5
68BC
330
1F
100
AcDbEntity
  8
実形
100
AcDbText
 10
2443.255253185007
 20
84.68238670760312
 30
0.0
 40
35.0
  1
1：10
  7
ms明朝
 72
     4
 11
2507.255253185007
 21
101.7823867076031
 31
0.0
100
AcDbText
  0
TEXT
  5
68D6
330
1F
100
AcDbEntity
  8
実形
100
AcDbText
 10
2329.833279711204
 20
153.230875284324
 30
0.0
 40
30.0
  1
Jstn868-514S-XV1L
  7
ms明朝
 72
     4
 11
2516.347565425489
 21
165.830875284324
 31
0.0
100
AcDbText
  0
LINE
  5
6D9B
330
1F
100
AcDbEntity
  8
実形
 62
     0
100
AcDbLine
 10
2834.0
 20
4.0
 30
0.0
 11
2834.0
 21
2024.0
 31
0.0
  0
LINE
  5
6E31
330
1F
100
AcDbEntity
  8
実形
 62
     0
100
AcDbLine
 10
174.0
 20
2024.0
 30
0.0
 11
174.0
 21
4.0
 31
0.0
  0
TEXT
  5
7CE2
330
1F
100
AcDbEntity
  8
実形
100
AcDbText
 10
234.9784467214322
 20
38.39854527449188
 30
0.0
 40
30.0
  1
※実寸には製造上の誤差が多少生ずる場合があります。シンクの穴あけ加工は現物合わせにてお願いします。
 72
     4
 11
1104.978446721432
 21
53.39854527449188
 31
0.0
100
AcDbText
  0
LINE
  5
7F8A
330
1F
100
AcDbEntity
  8
補助
 62
     0
100
AcDbLine
 10
2834.0
 20
1959.0
 30
0.0
 11
2069.387286519283
 21
1959.000000000001
 31
0.0
  0
LINE
  5
7F8B
330
1F
100
AcDbEntity
  8
補助
 62
     0
100
AcDbLine
 10
2834.0
 20
1894.0
 30
0.0
 11
2069.387286519283
 21
1894.0
 31
0.0
  0
LINE
  5
7F8C
330
1F
100
AcDbEntity
  8
補助
 62
     0
100
AcDbLine
 10
2252.547653420926
 20
1894.0
 30
0.0
 11
2252.547653420926
 21
2024.0
 31
0.0
  0
LINE
  5
7F8D
330
1F
100
AcDbEntity
  8
補助
 62
     0
100
AcDbLine
 10
2069.387286519283
 20
1828.999999999999
 30
0.0
 11
2069.387286519283
 21
2024.0
 31
0.0
  0
TEXT
  5
7F8E
330
1F
100
AcDbEntity
  8
補助
 62
     0
100
AcDbText
 10
2100.295698850121
 20
1976.328571428572
 30
0.0
 40
30.0
  1
部品名
  7
明朝
 72
     4
 11
2166.124270278692
 21
1991.5
 31
0.0
100
AcDbText
  0
TEXT
  5
7F8F
330
1F
100
AcDbEntity
  8
補助
 62
     0
100
AcDbText
 10
2677.614285714286
 20
1976.071428571429
 30
0.0
 40
30.0
  1
厚さ
  7
明朝
 72
     4
 11
2721.5
 21
1991.5
 31
0.0
100
AcDbText
  0
LINE
  5
7F90
330
1F
100
AcDbEntity
  8
補助
 62
     0
100
AcDbLine
 10
2609.0
 20
1894.0
 30
0.0
 11
2609.0
 21
2024.0
 31
0.0
  0
TEXT
  5
7F91
330
1F
100
AcDbEntity
  8
補助
 62
     0
100
AcDbText
 10
2388.490869919937
 20
1975.947979478155
 30
0.0
 40
30.0
  1
材質
  7
明朝
 72
     4
 11
2432.376584205651
 21
1991.119408049583
 31
0.0
100
AcDbText
  0
TEXT
  5
7F92
330
1F
100
AcDbEntity
  8
実形
 62
     0
100
AcDbText
 10
2098.227810657788
 20
1910.557142857143
 30
0.0
 40
30.0
  1
ボウル
  7
明朝
 72
     4
 11
2164.056382086359
 21
1926.5
 31
0.0
100
AcDbText
  0
TEXT
  5
7F93
330
1F
100
AcDbEntity
  8
実形
 62
     0
100
AcDbText
 10
2644.700000000001
 20
1911.842857142857
 30
0.0
 40
30.0
  1
1.0ｍｍ
  7
明朝
 72
     4
 11
2721.500000000001
 21
1926.5
 31
0.0
100
AcDbText
  0
TEXT
  5
7F94
330
1F
100
AcDbEntity
  8
実形
 62
     0
100
AcDbText
 10
2311.016869107866
 20
1910.728571428572
 30
0.0
 40
30.0
  1
SUS304（#9）
  7
明朝
 72
     4
 11
2442.674011965009
 21
1926.5
 31
0.0
100
AcDbText
  0
LINE
  5
8125
330
1F
100
AcDbEntity
  8
実形
  6
ACAD_ISO08W100
 48
0.5
100
AcDbLine
 10
938.0239931742753
 20
1399.007827654849
 30
0.0
 11
938.0239931742753
 21
1658.379115755387
 31
0.0
  0
CIRCLE
  5
8127
330
1F
100
AcDbEntity
  8
実形
100
AcDbCircle
 10
938.0239931742753
 20
1528.693471705118
 30
0.0
 40
79.0
  0
CIRCLE
  5
812A
330
1F
100
AcDbEntity
  8
実形
100
AcDbCircle
 10
938.0239931742753
 20
1528.693471705118
 30
0.0
 40
90.5
  0
CIRCLE
  5
812B
330
1F
100
AcDbEntity
  8
実形
100
AcDbCircle
 10
938.0239931742753
 20
1528.693471705118
 30
0.0
 40
100.0
  0
LINE
  5
8150
330
1F
100
AcDbEntity
  8
実形
  6
ACAD_ISO08W100
 48
0.5
100
AcDbLine
 10
808.3383491240065
 20
1528.693471705118
 30
0.0
 11
1094.750662055131
 21
1528.693471705118
 31
0.0
  0
LINE
  5
857B
330
1F
100
AcDbEntity
  8
実形
100
AcDbLine
 10
454.9127662077144
 20
711.9584930966202
 30
0.0
 11
408.7004056921968
 21
711.9584930966202
 31
0.0
  0
LINE
  5
857C
330
1F
100
AcDbEntity
  8
実形
100
AcDbLine
 10
454.9127662077144
 20
721.9584930966203
 30
0.0
 11
345.6195135007811
 21
721.9584930966203
 31
0.0
  0
LINE
  5
857D
330
1F
100
AcDbEntity
  8
実形
100
AcDbLine
 10
454.9127662077144
 20
741.9584930966202
 30
0.0
 11
408.7004056921968
 21
741.9584930966202
 31
0.0
  0
TEXT
  5
8586
330
1F
100
AcDbEntity
  8
実形
100
AcDbText
 10
337.0284657622912
 20
793.4281320455462
 30
0.0
 40
25.0
  1
185
 50
90.0
 72
     2
 11
340.3617990956245
 21
851.7614653788795
 31
0.0
100
AcDbText
 73
     1
  0
LINE
  5
858F
330
1F
100
AcDbEntity
  8
実形
100
AcDbLine
 10
345.6195135007811
 20
911.9584930966203
 30
0.0
 11
345.6195135007811
 21
721.9584930966203
 31
0.0
  0
TEXT
  5
859B
330
1F
100
AcDbEntity
  8
実形
100
AcDbText
 10
396.0565068377461
 20
699.3403232901404
 30
0.0
 40
25.0
  1
8
 50
90.0
 72
     2
 11
399.3898401710794
 21
716.006989956807
 31
0.0
100
AcDbText
 73
     1
  0
HATCH
  5
85C5
330
1F
100
AcDbEntity
  8
実形
100
AcDbHatch
 10
0.0
 20
0.0
 30
0.0
210
0.0
220
0.0
230
1.0
  2
SOLID
 70
     1
 71
     1
 91
        1
 92
        7
 72
     1
 73
     1
 93
        2
 10
404.0645880367573
 20
711.4652578980521
 42
1.0
 10
414.0645880367574
 20
711.4652578980521
 42
1.0
 97
        1
330
85C6
 75
     0
 76
     1
 47
0.2779191024150841
 98
        1
 10
410.480023406425
 20
711.9147553591037
  0
CIRCLE
  5
85C6
102
{ACAD_REACTORS
330
85C5
102
}
330
1F
100
AcDbEntity
  8
実形
100
AcDbCircle
 10
409.0645880367573
 20
711.4652578980521
 30
0.0
 40
5.0
  0
HATCH
  5
85CF
330
1F
100
AcDbEntity
  8
実形
100
AcDbHatch
 10
0.0
 20
0.0
 30
0.0
210
0.0
220
0.0
230
1.0
  2
SOLID
 70
     1
 71
     1
 91
        1
 92
        7
 72
     1
 73
     1
 93
        2
 10
403.5808088937537
 20
721.7413027246548
 42
1.0
 10
413.5808088937538
 20
721.7413027246548
 42
1.0
 97
        1
330
85D0
 75
     0
 76
     1
 47
0.2779191024150841
 98
        1
 10
409.9962442634214
 20
722.1908001857063
  0
CIRCLE
  5
85D0
102
{ACAD_REACTORS
330
85CF
102
}
330
1F
100
AcDbEntity
  8
実形
100
AcDbCircle
 10
408.5808088937538
 20
721.7413027246548
 30
0.0
 40
5.0
  0
HATCH
  5
85DA
330
1F
100
AcDbEntity
  8
実形
100
AcDbHatch
 10
0.0
 20
0.0
 30
0.0
210
0.0
220
0.0
230
1.0
  2
SOLID
 70
     1
 71
     1
 91
        1
 92
        7
 72
     1
 73
     1
 93
        2
 10
403.7818427185556
 20
742.6553588672095
 42
1.0
 10
413.7818427185557
 20
742.6553588672095
 42
1.0
 97
        1
330
85DB
 75
     0
 76
     1
 47
0.2779191024150841
 98
        1
 10
410.1972780882233
 20
743.1048563282611
  0
CIRCLE
  5
85DB
102
{ACAD_REACTORS
330
85DA
102
}
330
1F
100
AcDbEntity
  8
実形
100
AcDbCircle
 10
408.7818427185557
 20
742.6553588672095
 30
0.0
 40
5.0
  0
TEXT
  5
85E4
330
1F
100
AcDbEntity
  8
実形
100
AcDbText
 10
395.8961561110215
 20
736.0117440763797
 30
0.0
 40
25.0
  1
20
 50
90.0
 72
     2
 11
399.2294894443548
 21
773.5117440763797
 31
0.0
100
AcDbText
 73
     1
  0
HATCH
  5
8613
330
1F
100
AcDbEntity
  8
実形
100
AcDbHatch
 10
0.0
 20
0.0
 30
0.0
210
0.0
220
0.0
230
1.0
  2
SOLID
 70
     1
 71
     0
 91
        1
 92
        7
 72
     1
 73
     1
 93
        2
 10
339.9266701586603
 20
722.4320994797317
 42
1.0
 10
349.9266701586603
 20
722.4320994797317
 42
1.0
 97
        0
 75
     0
 76
     1
 47
0.2779191024150841
 98
        1
 10
346.3421055283279
 20
722.8815969407833
  0
HATCH
  5
861B
330
1F
100
AcDbEntity
  8
実形
100
AcDbHatch
 10
0.0
 20
0.0
 30
0.0
210
0.0
220
0.0
230
1.0
  2
SOLID
 70
     1
 71
     0
 91
        1
 92
        7
 72
     1
 73
     1
 93
        2
 10
340.5985920294497
 20
907.3752272573765
 42
1.0
 10
350.5985920294497
 20
907.3752272573765
 42
1.0
 97
        0
 75
     0
 76
     1
 47
0.2779191024150841
 98
        1
 10
347.0140273991173
 20
907.8247247184281
  0
HATCH
  5
8623
330
1F
100
AcDbEntity
  8
実形
100
AcDbHatch
 10
0.0
 20
0.0
 30
0.0
210
0.0
220
0.0
230
1.0
  2
SOLID
 70
     1
 71
     0
 91
        1
 92
        7
 72
     1
 73
     1
 93
        2
 10
403.907601744695
 20
907.0651700924045
 42
1.0
 10
413.907601744695
 20
907.0651700924045
 42
1.0
 97
        0
 75
     0
 76
     1
 47
0.2779191024150841
 98
        1
 10
410.3230371143626
 20
907.5146675534561
  0
LINE
  5
8638
330
1F
100
AcDbEntity
  8
実形
100
AcDbLine
 10
408.7004056921968
 20
741.9584930966202
 30
0.0
 11
408.7004056921968
 21
711.9584930966202
 31
0.0
  0
LINE
  5
87CC
330
1F
100
AcDbEntity
  8
実形
100
AcDbLine
 10
2103.430509824256
 20
77.81054570725075
 30
0.0
 11
2113.430509824256
 21
77.81054570725075
 31
0.0
  0
LINE
  5
8A64
330
1F
100
AcDbEntity
  8
実形
100
AcDbLine
 10
408.7004056921968
 20
911.9584930966203
 30
0.0
 11
408.7818427185557
 21
742.6553588672095
 31
0.0
  0
TEXT
  5
8A6D
330
1F
100
AcDbEntity
  8
実形
100
AcDbText
 10
395.2206365832251
 20
804.4332590264653
 30
0.0
 40
25.0
  1
165
 50
90.0
 72
     2
 11
398.5539699165583
 21
862.7665923597987
 31
0.0
100
AcDbText
 73
     1
  0
LINE
  5
8A6E
330
1F
100
AcDbEntity
  8
実形
100
AcDbLine
 10
347.2242071739374
 20
711.4652578980521
 30
0.0
 11
289.7063545727497
 21
711.4652578980521
 31
0.0
  0
LINE
  5
8A6F
330
1F
100
AcDbEntity
  8
実形
100
AcDbLine
 10
289.7063545727497
 20
911.9584930966203
 30
0.0
 11
289.7063545727497
 21
711.4652578980521
 31
0.0
  0
HATCH
  5
8A7A
330
1F
100
AcDbEntity
  8
実形
100
AcDbHatch
 10
0.0
 20
0.0
 30
0.0
210
0.0
220
0.0
230
1.0
  2
SOLID
 70
     1
 71
     0
 91
        1
 92
        7
 72
     1
 73
     1
 93
        2
 10
284.4183589657168
 20
712.2065386349177
 42
1.0
 10
294.4183589657168
 20
712.2065386349177
 42
1.0
 97
        0
 75
     0
 76
     1
 47
0.2779191024150841
 98
        1
 10
290.8337943353845
 20
712.6560360959692
  0
HATCH
  5
8A82
330
1F
100
AcDbEntity
  8
実形
100
AcDbHatch
 10
0.0
 20
0.0
 30
0.0
210
0.0
220
0.0
230
1.0
  2
SOLID
 70
     1
 71
     0
 91
        1
 92
        7
 72
     1
 73
     1
 93
        2
 10
284.8734253150196
 20
907.1044919262977
 42
1.0
 10
294.8734253150196
 20
907.1044919262977
 42
1.0
 97
        0
 75
     0
 76
     1
 47
0.2779191024150841
 98
        1
 10
291.2888606846873
 20
907.5539893873493
  0
TEXT
  5
8A8C
330
1F
100
AcDbEntity
  8
実形
100
AcDbText
 10
277.8340179777203
 20
767.219664294235
 30
0.0
 40
25.0
  1
193
 50
90.0
 72
     2
 11
281.1673513110536
 21
825.5529976275683
 31
0.0
100
AcDbText
 73
     1
  0
LINE
  5
8AB4
330
1F
100
AcDbEntity
  8
実形
100
AcDbLine
 10
1705.519518606385
 20
1131.547528273564
 30
0.0
 11
1735.519518606385
 21
1131.547528273564
 31
0.0
  0
LINE
  5
8AB5
330
1F
100
AcDbEntity
  8
実形
100
AcDbLine
 10
1735.519518606385
 20
1177.759888789082
 30
0.0
 11
1735.519518606385
 21
1131.547528273564
 31
0.0
  0
LINE
  5
8AB6
330
1F
100
AcDbEntity
  8
実形
100
AcDbLine
 10
1725.519518606386
 20
1177.759888789082
 30
0.0
 11
1725.519518606386
 21
1068.466636082148
 31
0.0
  0
LINE
  5
8AB7
330
1F
100
AcDbEntity
  8
実形
100
AcDbLine
 10
1705.519518606385
 20
1177.759888789082
 30
0.0
 11
1705.519518606385
 21
1131.547528273564
 31
0.0
  0
LINE
  5
8AB9
330
1F
100
AcDbEntity
  8
実形
100
AcDbLine
 10
1535.519518606386
 20
1068.466636082148
 30
0.0
 11
1725.519518606386
 21
1068.466636082148
 31
0.0
  0
HATCH
  5
8ABD
330
1F
100
AcDbEntity
  8
実形
100
AcDbHatch
 10
0.0
 20
0.0
 30
0.0
210
0.0
220
0.0
230
1.0
  2
SOLID
 70
     1
 71
     1
 91
        1
 92
        7
 72
     1
 73
     1
 93
        2
 10
1731.012753804954
 20
1131.911710618124
 42
1.0
 10
1741.012753804954
 20
1131.911710618124
 42
1.0
 97
        1
330
8ABE
 75
     0
 76
     1
 47
0.2779191024150841
 98
        1
 10
1735.563256343902
 20
1133.327145987792
  0
CIRCLE
  5
8ABE
102
{ACAD_REACTORS
330
8ABD
102
}
330
1F
100
AcDbEntity
  8
実形
100
AcDbCircle
 10
1736.012753804953
 20
1131.911710618124
 30
0.0
 40
5.0
  0
HATCH
  5
8ABF
330
1F
100
AcDbEntity
  8
実形
100
AcDbHatch
 10
0.0
 20
0.0
 30
0.0
210
0.0
220
0.0
230
1.0
  2
SOLID
 70
     1
 71
     1
 91
        1
 92
        7
 72
     1
 73
     1
 93
        2
 10
1720.736708978351
 20
1131.427931475121
 42
1.0
 10
1730.736708978351
 20
1131.427931475121
 42
1.0
 97
        1
330
8AC0
 75
     0
 76
     1
 47
0.2779191024150841
 98
        1
 10
1725.287211517299
 20
1132.843366844789
  0
CIRCLE
  5
8AC0
102
{ACAD_REACTORS
330
8ABF
102
}
330
1F
100
AcDbEntity
  8
実形
100
AcDbCircle
 10
1725.736708978351
 20
1131.427931475121
 30
0.0
 40
5.0
  0
HATCH
  5
8AC1
330
1F
100
AcDbEntity
  8
実形
100
AcDbHatch
 10
0.0
 20
0.0
 30
0.0
210
0.0
220
0.0
230
1.0
  2
SOLID
 70
     1
 71
     1
 91
        1
 92
        7
 72
     1
 73
     1
 93
        2
 10
1699.822652835796
 20
1131.628965299923
 42
1.0
 10
1709.822652835796
 20
1131.628965299923
 42
1.0
 97
        1
330
8AC2
 75
     0
 76
     1
 47
0.2779191024150841
 98
        1
 10
1704.373155374745
 20
1133.044400669591
  0
CIRCLE
  5
8AC2
102
{ACAD_REACTORS
330
8AC1
102
}
330
1F
100
AcDbEntity
  8
実形
100
AcDbCircle
 10
1704.822652835796
 20
1131.628965299923
 30
0.0
 40
5.0
  0
HATCH
  5
8AC5
330
1F
100
AcDbEntity
  8
実形
100
AcDbHatch
 10
0.0
 20
0.0
 30
0.0
210
0.0
220
0.0
230
1.0
  2
SOLID
 70
     1
 71
     0
 91
        1
 92
        7
 72
     1
 73
     1
 93
        2
 10
1725.045912223274
 20
1062.773792740027
 42
1.0
 10
1725.045912223274
 20
1072.773792740028
 42
1.0
 97
        0
 75
     0
 76
     1
 47
0.2779191024150841
 98
        1
 10
1724.596414762222
 20
1069.189228109695
  0
HATCH
  5
8AC6
330
1F
100
AcDbEntity
  8
実形
100
AcDbHatch
 10
0.0
 20
0.0
 30
0.0
210
0.0
220
0.0
230
1.0
  2
SOLID
 70
     1
 71
     0
 91
        1
 92
        7
 72
     1
 73
     1
 93
        2
 10
1540.562467281198
 20
1063.445714610817
 42
1.0
 10
1540.562467281198
 20
1073.445714610817
 42
1.0
 97
        0
 75
     0
 76
     1
 47
0.2779191024150841
 98
        1
 10
1540.112969820147
 20
1069.861149980485
  0
HATCH
  5
8AC7
330
1F
100
AcDbEntity
  8
実形
100
AcDbHatch
 10
0.0
 20
0.0
 30
0.0
210
0.0
220
0.0
230
1.0
  2
SOLID
 70
     1
 71
     0
 91
        1
 92
        7
 72
     1
 73
     1
 93
        2
 10
1540.718228385852
 20
1126.754724326062
 42
1.0
 10
1540.718228385852
 20
1136.754724326062
 42
1.0
 97
        0
 75
     0
 76
     1
 47
0.2779191024150841
 98
        1
 10
1540.2687309248
 20
1133.17015969573
  0
LINE
  5
8AC9
330
1F
100
AcDbEntity
  8
実形
100
AcDbLine
 10
1535.519518606385
 20
1131.547528273564
 30
0.0
 11
1704.822652835796
 21
1131.628965299923
 31
0.0
  0
LINE
  5
8ACB
330
1F
100
AcDbEntity
  8
実形
100
AcDbLine
 10
1736.012753804953
 20
1070.071329755305
 30
0.0
 11
1736.012753804953
 21
953.0539089989479
 31
0.0
  0
LINE
  5
8ACC
330
1F
100
AcDbEntity
  8
実形
100
AcDbLine
 10
1528.519518606385
 20
1012.553477154117
 30
0.0
 11
1736.012753804953
 21
1012.553477154117
 31
0.0
  0
HATCH
  5
8ACE
330
1F
100
AcDbEntity
  8
実形
100
AcDbHatch
 10
0.0
 20
0.0
 30
0.0
210
0.0
220
0.0
230
1.0
  2
SOLID
 70
     1
 71
     0
 91
        1
 92
        7
 72
     1
 73
     1
 93
        2
 10
1735.271473068088
 20
1007.265481547084
 42
1.0
 10
1735.271473068088
 20
1017.265481547084
 42
1.0
 97
        0
 75
     0
 76
     1
 47
0.2779191024150841
 98
        1
 10
1734.821975607037
 20
1013.680916916752
  0
HATCH
  5
8ACF
330
1F
100
AcDbEntity
  8
実形
100
AcDbHatch
 10
0.0
 20
0.0
 30
0.0
210
0.0
220
0.0
230
1.0
  2
SOLID
 70
     1
 71
     0
 91
        1
 92
        7
 72
     1
 73
     1
 93
        2
 10
1540.833202612277
 20
1007.720547896387
 42
1.0
 10
1540.833202612277
 20
1017.720547896387
 42
1.0
 97
        0
 75
     0
 76
     1
 47
0.2779191024150841
 98
        1
 10
1540.383705151225
 20
1014.135983266054
  0
TEXT
  5
8AD9
330
1F
100
AcDbEntity
  8
実形
100
AcDbText
 10
1567.13727697307
 20
1141.728479757627
 30
0.0
 40
25.0
  1
165
 72
     2
 11
1625.470610306403
 21
1138.395146424293
 31
0.0
100
AcDbText
 73
     1
  0
TEXT
  5
8AEC
330
1F
100
AcDbEntity
  8
実形
100
AcDbText
 10
1661.981841340715
 20
1141.728479757627
 30
0.0
 40
25.0
  1
20
 72
     2
 11
1699.481841340715
 21
1138.395146424293
 31
0.0
100
AcDbText
 73
     1
  0
TEXT
  5
8AF5
330
1F
100
AcDbEntity
  8
実形
100
AcDbText
 10
1743.279261370284
 20
1141.728479757627
 30
0.0
 40
25.0
  1
8
 72
     2
 11
1759.945928036951
 21
1138.395146424293
 31
0.0
100
AcDbText
 73
     1
  0
TEXT
  5
8AFE
330
1F
100
AcDbEntity
  8
実形
100
AcDbText
 10
1589.025049352586
 20
1073.747784729855
 30
0.0
 40
25.0
  1
185
 72
     2
 11
1647.358382685919
 21
1070.414451396522
 31
0.0
100
AcDbText
 73
     1
  0
TEXT
  5
8B07
330
1F
100
AcDbEntity
  8
実形
100
AcDbText
 10
1590.588457870932
 20
1019.050674249008
 30
0.0
 40
25.0
  1
193
 72
     2
 11
1648.921791204266
 21
1015.717340915674
 31
0.0
100
AcDbText
 73
     1
  0
LINE
  5
8C05
330
1F
100
AcDbEntity
  8
実形
100
AcDbLine
 10
1705.519518606388
 20
1800.864643688479
 30
0.0
 11
1735.519518606387
 21
1800.864643688479
 31
0.0
  0
LINE
  5
8C06
330
1F
100
AcDbEntity
  8
実形
100
AcDbLine
 10
1735.519518606387
 20
1754.652283172962
 30
0.0
 11
1735.519518606387
 21
1800.864643688479
 31
0.0
  0
LINE
  5
8C07
330
1F
100
AcDbEntity
  8
実形
100
AcDbLine
 10
1725.519518606387
 20
1754.652283172962
 30
0.0
 11
1725.519518606387
 21
1863.945535879895
 31
0.0
  0
LINE
  5
8C08
330
1F
100
AcDbEntity
  8
実形
100
AcDbLine
 10
1715.519518606385
 20
1754.652283172961
 30
0.0
 11
1715.519518606385
 21
1800.864643688479
 31
0.0
  0
LINE
  5
8C09
330
1F
100
AcDbEntity
  8
実形
100
AcDbLine
 10
1535.519518606387
 20
1863.945535879896
 30
0.0
 11
1725.519518606387
 21
1863.945535879895
 31
0.0
  0
HATCH
  5
8C0C
330
1F
100
AcDbEntity
  8
実形
100
AcDbHatch
 10
0.0
 20
0.0
 30
0.0
210
0.0
220
0.0
230
1.0
  2
SOLID
 70
     1
 71
     1
 91
        1
 92
        7
 72
     1
 73
     1
 93
        2
 10
1741.012753804955
 20
1800.500461343919
 42
1.0
 10
1731.012753804956
 20
1800.500461343919
 42
1.0
 97
        1
330
8C0D
 75
     0
 76
     1
 47
0.2779191024150841
 98
        1
 10
1735.563256343904
 20
1799.085025974251
  0
CIRCLE
  5
8C0D
102
{ACAD_REACTORS
330
8C0C
102
}
330
1F
100
AcDbEntity
  8
実形
100
AcDbCircle
 10
1736.012753804956
 20
1800.500461343919
 30
0.0
 40
5.0
  0
HATCH
  5
8C0E
330
1F
100
AcDbEntity
  8
実形
100
AcDbHatch
 10
0.0
 20
0.0
 30
0.0
210
0.0
220
0.0
230
1.0
  2
SOLID
 70
     1
 71
     1
 91
        1
 92
        7
 72
     1
 73
     1
 93
        2
 10
1730.736708978353
 20
1800.984240486922
 42
1.0
 10
1720.736708978353
 20
1800.984240486922
 42
1.0
 97
        1
330
8C0F
 75
     0
 76
     1
 47
0.2779191024150841
 98
        1
 10
1725.287211517301
 20
1799.568805117254
  0
CIRCLE
  5
8C0F
102
{ACAD_REACTORS
330
8C0E
102
}
330
1F
100
AcDbEntity
  8
実形
100
AcDbCircle
 10
1725.736708978353
 20
1800.984240486922
 30
0.0
 40
5.0
  0
HATCH
  5
8C10
330
1F
100
AcDbEntity
  8
実形
100
AcDbHatch
 10
0.0
 20
0.0
 30
0.0
210
0.0
220
0.0
230
1.0
  2
SOLID
 70
     1
 71
     0
 91
        1
 92
        7
 72
     1
 73
     1
 93
        2
 10
1719.822652835796
 20
1800.78320666212
 42
1.0
 10
1709.822652835796
 20
1800.78320666212
 42
1.0
 97
        0
 75
     0
 76
     1
 47
0.2779191024150841
 98
        1
 10
1714.373155374744
 20
1799.367771292452
  0
HATCH
  5
8C12
330
1F
100
AcDbEntity
  8
実形
100
AcDbHatch
 10
0.0
 20
0.0
 30
0.0
210
0.0
220
0.0
230
1.0
  2
SOLID
 70
     1
 71
     0
 91
        1
 92
        7
 72
     1
 73
     1
 93
        2
 10
1725.045912223276
 20
1869.638379222015
 42
-1.0
 10
1725.045912223276
 20
1859.638379222016
 42
-1.0
 97
        0
 75
     0
 76
     1
 47
0.2779191024150841
 98
        1
 10
1724.596414762224
 20
1863.222943852348
  0
HATCH
  5
8C13
330
1F
100
AcDbEntity
  8
実形
100
AcDbHatch
 10
0.0
 20
0.0
 30
0.0
210
0.0
220
0.0
230
1.0
  2
SOLID
 70
     1
 71
     0
 91
        1
 92
        7
 72
     1
 73
     1
 93
        2
 10
1540.462065829007
 20
1868.966457351227
 42
-1.0
 10
1540.462065829007
 20
1858.966457351227
 42
-1.0
 97
        0
 75
     0
 76
     1
 47
0.2779191024150841
 98
        1
 10
1540.012568367955
 20
1862.551021981559
  0
HATCH
  5
8C14
330
1F
100
AcDbEntity
  8
実形
100
AcDbHatch
 10
0.0
 20
0.0
 30
0.0
210
0.0
220
0.0
230
1.0
  2
SOLID
 70
     1
 71
     0
 91
        1
 92
        7
 72
     1
 73
     1
 93
        2
 10
1540.537466404012
 20
1805.657447635982
 42
-1.0
 10
1540.537466404012
 20
1795.657447635982
 42
-1.0
 97
        0
 75
     0
 76
     1
 47
0.2779191024150841
 98
        1
 10
1540.087968942961
 20
1799.242012266314
  0
LINE
  5
8C16
330
1F
100
AcDbEntity
  8
実形
100
AcDbLine
 10
1535.519518606387
 20
1800.86464368848
 30
0.0
 11
1704.822652835798
 21
1800.78320666212
 31
0.0
  0
LINE
  5
8C17
330
1F
100
AcDbEntity
  8
実形
100
AcDbLine
 10
1736.012753804956
 20
1862.340842206739
 30
0.0
 11
1736.012753804956
 21
1919.858694807926
 31
0.0
  0
LINE
  5
8C18
330
1F
100
AcDbEntity
  8
実形
100
AcDbLine
 10
1535.519518606387
 20
1919.858694807927
 30
0.0
 11
1736.012753804956
 21
1919.858694807926
 31
0.0
  0
HATCH
  5
8C1A
330
1F
100
AcDbEntity
  8
実形
100
AcDbHatch
 10
0.0
 20
0.0
 30
0.0
210
0.0
220
0.0
230
1.0
  2
SOLID
 70
     1
 71
     0
 91
        1
 92
        7
 72
     1
 73
     1
 93
        2
 10
1735.27147306809
 20
1925.146690414959
 42
-1.0
 10
1735.27147306809
 20
1915.146690414959
 42
-1.0
 97
        0
 75
     0
 76
     1
 47
0.2779191024150841
 98
        1
 10
1734.821975607038
 20
1918.731255045291
  0
HATCH
  5
8C1B
330
1F
100
AcDbEntity
  8
実形
100
AcDbHatch
 10
0.0
 20
0.0
 30
0.0
210
0.0
220
0.0
230
1.0
  2
SOLID
 70
     1
 71
     0
 91
        1
 92
        7
 72
     1
 73
     1
 93
        2
 10
1540.732801160086
 20
1924.691624065657
 42
-1.0
 10
1540.732801160086
 20
1914.691624065657
 42
-1.0
 97
        0
 75
     0
 76
     1
 47
0.2779191024150841
 98
        1
 10
1540.283303699034
 20
1918.27618869599
  0
TEXT
  5
8C35
330
1F
100
AcDbEntity
  8
実形
100
AcDbText
 10
1603.603934959557
 20
1933.038093092283
 30
0.0
 40
25.0
  1
193
 72
     2
 11
1661.937268292891
 21
1929.70475975895
 31
0.0
100
AcDbText
 73
     1
  0
TEXT
  5
8C3E
330
1F
100
AcDbEntity
  8
実形
100
AcDbText
 10
1596.133701372555
 20
1877.575259585245
 30
0.0
 40
25.0
  1
185
 72
     2
 11
1654.467034705889
 21
1874.241926251912
 31
0.0
100
AcDbText
 73
     1
  0
TEXT
  5
8C51
330
1F
100
AcDbEntity
  8
実形
100
AcDbText
 10
1735.208912263634
 20
1811.302727108229
 30
0.0
 40
25.0
  1
8
 72
     2
 11
1751.875578930301
 21
1807.969393774896
 31
0.0
100
AcDbText
 73
     1
  0
TEXT
  5
8C5A
330
1F
100
AcDbEntity
  8
実形
100
AcDbText
 10
1702.705790739063
 20
1810.287416971755
 30
0.0
 40
25.0
  1
7
 72
     2
 11
1719.37245740573
 21
1806.954083638422
 31
0.0
100
AcDbText
 73
     1
  0
TEXT
  5
8C63
330
1F
100
AcDbEntity
  8
実形
100
AcDbText
 10
1602.04549117678
 20
1809.272111849083
 30
0.0
 40
25.0
  1
178
 72
     2
 11
1660.378824510113
 21
1805.93877851575
 31
0.0
100
AcDbText
 73
     1
  0
DIMENSION
  5
8DDC
330
1F
100
AcDbEntity
  8
実形
100
AcDbDimension
  2
*D12
 10
1148.980984814267
 20
1673.693471705118
 30
0.0
 11
1127.380984814266
 21
1601.193471705119
 31
0.0
 70
    32
 71
     5
 42
145.0000000000002
  3
ISO-25
100
AcDbAlignedDimension
 13
1045.742175197768
 23
1528.693471705118
 33
0.0
 14
1045.742175197768
 24
1673.693471705118
 34
0.0
 50
90.0
100
AcDbRotatedDimension
1001
ACAD
1000
DSTYLE
1002
{
1070
    41
1040
10.0
1070
   140
1040
30.0
1070
   147
1040
6.599999999999998
1070
   279
1070
     2
1070
   342
1005
30D
1070
   371
1070
    18
1070
   372
1070
    18
1002
}
  0
TEXT
  5
8F27
330
1F
100
AcDbEntity
  8
実形
100
AcDbText
 10
1109.088372226894
 20
1327.338124549762
 30
0.0
 40
25.0
  1
4角　10R
 72
     2
 11
1248.25503889356
 21
1324.004791216429
 31
0.0
100
AcDbText
 73
     1
  0
LEADER
  5
8F28
330
1F
100
AcDbEntity
  8
実形
100
AcDbLeader
  3
ISO-25
 76
     2
 10
1303.223352972009
 20
1278.861379344885
 30
0.0
 10
1250.459216089092
 20
1321.449871206588
 30
0.0
1001
ACAD
1000
DSTYLE
1002
{
1070
    77
1070
     0
1070
    41
1040
20.0
1070
   140
1040
30.0
1070
   147
1040
6.599999999999998
1070
   279
1070
     2
1070
   342
1005
30D
1070
   371
1070
    18
1070
   372
1070
    18
1002
}
  0
TEXT
  5
90B9
330
1F
100
AcDbEntity
  8
実形
100
AcDbText
 10
236.1105391001329
 20
82.46992361669526
 30
0.0
 40
30.0
  1
※ボウル上部（ツバの基点部）のアールは、全周 ４Rです。
 72
     4
 11
715.1105391001329
 21
97.46992361669526
 31
0.0
100
AcDbText
  0
ARC
  5
93F4
330
1F
100
AcDbEntity
  8
実形
100
AcDbCircle
 10
2162.629956685867
 20
635.949147950414
 30
0.0
 40
50.0
100
AcDbArc
 50
90.0
 51
180.0
  0
LINE
  5
93F5
330
1F
100
AcDbEntity
  8
実形
100
AcDbLine
 10
2682.629956685868
 20
565.949147950414
 30
0.0
 11
2582.629956685868
 21
565.949147950414
 31
0.0
  0
LINE
  5
93F6
330
1F
100
AcDbEntity
  8
実形
100
AcDbLine
 10
2532.629956685868
 20
565.949147950414
 30
0.0
 11
2412.629956685868
 21
565.949147950414
 31
0.0
  0
LINE
  5
93F7
330
1F
100
AcDbEntity
  8
実形
100
AcDbLine
 10
2162.629956685867
 20
565.949147950414
 30
0.0
 11
2112.629956685867
 21
565.949147950414
 31
0.0
  0
LINE
  5
93F8
330
1F
100
AcDbEntity
  8
実形
100
AcDbLine
 10
2389.709095631477
 20
605.949147950414
 30
0.0
 11
2169.708427923032
 21
605.949147950414
 31
0.0
  0
LINE
  5
93F9
330
1F
100
AcDbEntity
  8
実形
100
AcDbLine
 10
2389.709095631477
 20
595.949147950414
 30
0.0
 11
2179.708427923031
 21
595.949147950414
 31
0.0
  0
LINE
  5
93FA
330
1F
100
AcDbEntity
  8
実形
100
AcDbLine
 10
2412.629956685868
 20
615.949147950414
 30
0.0
 11
2402.629956685867
 21
615.949147950414
 31
0.0
  0
LINE
  5
93FB
330
1F
100
AcDbEntity
  8
実形
100
AcDbLine
 10
2362.629956685867
 20
615.949147950414
 30
0.0
 11
2162.629956685867
 21
615.949147950414
 31
0.0
  0
LINE
  5
93FC
330
1F
100
AcDbEntity
  8
実形
100
AcDbLine
 10
2112.629956685867
 20
565.949147950414
 30
0.0
 11
2112.629956685867
 21
635.949147950414
 31
0.0
  0
LINE
  5
93FD
330
1F
100
AcDbEntity
  8
実形
100
AcDbLine
 10
2162.629956685867
 20
565.949147950414
 30
0.0
 11
2162.629956685867
 21
615.949147950414
 31
0.0
  0
LINE
  5
93FE
330
1F
100
AcDbEntity
  8
実形
100
AcDbLine
 10
2192.629956685868
 20
565.949147950414
 30
0.0
 11
2192.629956685868
 21
587.5221228905047
 31
0.0
  0
LINE
  5
9400
330
1F
100
AcDbEntity
  8
実形
100
AcDbLine
 10
2412.629956685868
 20
565.949147950414
 30
0.0
 11
2412.629956685868
 21
615.949147950414
 31
0.0
  0
TEXT
  5
9401
330
1F
100
AcDbEntity
  8
実形
100
AcDbText
 10
2734.969696966184
 20
475.2951891155153
 30
0.0
 40
30.0
  1
糸面
 11
2734.969696966184
 21
471.2951891155153
 31
0.0
100
AcDbText
 73
     1
  0
TEXT
  5
9402
330
1F
100
AcDbEntity
  8
実形
100
AcDbText
 10
2735.987333389652
 20
753.3074383409857
 30
0.0
 40
30.0
  1
5C
 11
2735.987333389652
 21
749.3074383409857
 31
0.0
100
AcDbText
 73
     1
  0
ARC
  5
9403
330
1F
100
AcDbEntity
  8
実形
100
AcDbCircle
 10
2557.629956685868
 20
565.949147950414
 30
0.0
 40
25.0
100
AcDbArc
 50
0.0
 51
180.0
  0
TEXT
  5
9404
330
1F
100
AcDbEntity
  8
実形
100
AcDbText
 10
2017.094430563404
 20
756.3287332881164
 30
0.0
 40
30.0
  1
5R
 11
2017.094430563404
 21
752.3287332881164
 31
0.0
100
AcDbText
 73
     1
  0
TEXT
  5
9405
330
1F
100
AcDbEntity
  8
実形
100
AcDbText
 10
1963.869354963837
 20
460.974606931737
 30
0.0
 40
30.0
  1
糸面
 11
1963.869354963837
 21
456.974606931737
 31
0.0
100
AcDbText
 73
     1
  0
ARC
  5
9406
330
1F
100
AcDbEntity
  8
実形
100
AcDbCircle
 10
2382.629956685867
 20
615.949147950414
 30
0.0
 40
20.0
100
AcDbArc
 50
0.0
 51
180.0
  0
LINE
  5
9407
330
1F
100
AcDbEntity
  8
実形
100
AcDbLine
 10
2331.534978282187
 20
635.949147950414
 30
0.0
 11
2331.534978282187
 21
615.949147950414
 31
0.0
  0
TEXT
  5
9408
330
1F
100
AcDbEntity
  8
実形
  6
HIDDEN2
100
AcDbText
 10
2337.25594016092
 20
628.612551616161
 30
0.0
 40
13.0
  1
● 
 71
     2
100
AcDbText
  0
TEXT
  5
9409
330
1F
100
AcDbEntity
  8
実形
  6
HIDDEN2
100
AcDbText
 10
2337.634129305806
 20
609.7089559332926
 30
0.0
 40
13.0
  1
● 
 71
     2
100
AcDbText
  0
LINE
  5
940A
330
1F
100
AcDbEntity
  8
実形
100
AcDbLine
 10
2192.629956685868
 20
587.5221228905047
 30
0.0
 11
2192.629956685868
 21
487.5221228905047
 31
0.0
  0
LINE
  5
940B
330
1F
100
AcDbEntity
  8
実形
100
AcDbLine
 10
2192.629956685868
 20
487.5221228905047
 30
0.0
 11
2442.629956685868
 21
487.5221228905047
 31
0.0
  0
LINE
  5
940C
330
1F
100
AcDbEntity
  8
実形
100
AcDbLine
 10
2442.629956685868
 20
487.5221228905047
 30
0.0
 11
2442.629956685868
 21
557.5221228905047
 31
0.0
  0
LINE
  5
940D
330
1F
100
AcDbEntity
  8
実形
100
AcDbLine
 10
2442.629956685868
 20
557.5221228905047
 30
0.0
 11
2342.629956685867
 21
557.5221228905047
 31
0.0
  0
LINE
  5
940F
330
1F
100
AcDbEntity
  8
実形
100
AcDbLine
 10
2342.629956685867
 20
587.5221228905047
 30
0.0
 11
2192.629956685868
 21
587.5221228905047
 31
0.0
  0
LINE
  5
9410
330
1F
100
AcDbEntity
  8
実形
100
AcDbLine
 10
2169.708427923032
 20
605.949147950414
 30
0.0
 11
2169.708427923032
 21
296.3643155665932
 31
0.0
  0
LINE
  5
9411
330
1F
100
AcDbEntity
  8
実形
100
AcDbLine
 10
2179.708427923031
 20
595.949147950414
 30
0.0
 11
2179.708427923031
 21
296.3643155665932
 31
0.0
  0
LINE
  5
9412
330
1F
100
AcDbEntity
  8
実形
100
AcDbLine
 10
2389.709095631477
 20
605.949147950414
 30
0.0
 11
2389.709095631477
 21
595.949147950414
 31
0.0
  0
TEXT
  5
9413
330
1F
100
AcDbEntity
  8
実形
100
AcDbText
 10
2522.78067743568
 20
373.0969238591029
 30
0.0
 40
30.0
  1
ホルダーリング
 11
2522.78067743568
 21
369.0969238591029
 31
0.0
100
AcDbText
 73
     1
  0
LEADER
  5
9414
330
1F
100
AcDbEntity
  8
実形
100
AcDbLeader
  3
ISO-25
 76
     2
 10
2363.940114057884
 20
513.3718403076136
 30
0.0
 10
2556.983673998198
 20
426.4026810070654
 30
0.0
1001
ACAD
1000
DSTYLE
1002
{
1070
    77
1070
     0
1070
    41
1040
25.0
1070
    42
1040
6.0
1070
   140
1040
3.0
1070
   147
1040
1.199999999999999
1070
   279
1070
     2
1070
   289
1070
     2
1070
   371
1070
    13
1070
   372
1070
    13
1002
}
  0
TEXT
  5
9415
330
1F
100
AcDbEntity
  8
実形
100
AcDbText
 10
2030.101274119607
 20
245.4140378323955
 30
0.0
 40
30.0
  1
シンク厚1.0ｍｍ
 11
2030.101274119607
 21
241.4140378323955
 31
0.0
100
AcDbText
 73
     1
  0
DIMENSION
  5
9416
330
1F
100
AcDbEntity
  8
実形
100
AcDbDimension
  2
*D13
 10
2162.629956685867
 20
504.906225743507
 30
0.0
 11
2138.744931551634
 21
504.906225743507
 31
0.0
 70
   160
  1
5
 71
     5
 42
50.0
  3
ISO-25
100
AcDbAlignedDimension
 13
2112.629956685867
 23
600.3890766270942
 33
0.0
 14
2162.629956685867
 24
600.3890766270942
 34
0.0
100
AcDbRotatedDimension
1001
ACAD
1000
DSTYLE
1002
{
1070
   371
1070
    18
1070
   372
1070
    18
1002
}
  0
DIMENSION
  5
9417
330
1F
100
AcDbEntity
  8
実形
100
AcDbDimension
  2
*D14
 10
2048.255758094706
 20
565.949147950414
 30
0.0
 11
2029.505758094706
 21
625.9491479504143
 31
0.0
 70
    32
  1
12
 71
     5
 42
120.0
  3
ISO-25
100
AcDbAlignedDimension
 13
2150.780658627267
 23
685.949147950414
 33
0.0
 14
2145.431441622709
 24
565.949147950414
 34
0.0
 50
90.0
100
AcDbRotatedDimension
1001
ACAD
1000
DSTYLE
1002
{
1070
   371
1070
    18
1070
   372
1070
    18
1002
}
  0
LEADER
  5
9418
330
1F
100
AcDbEntity
  8
実形
100
AcDbLeader
  3
ISO-25
 76
     2
 10
2117.007190828747
 20
679.7913018753142
 30
0.0
 10
2048.842419347582
 20
747.9282836838856
 30
0.0
1001
ACAD
1000
DSTYLE
1002
{
1070
   147
1040
6.25
1070
    77
1070
     0
1070
   371
1070
    18
1070
   372
1070
    18
1002
}
  0
DIMENSION
  5
9419
330
1F
100
AcDbEntity
  8
実形
100
AcDbDimension
  2
*D15
 10
2682.629956685868
 20
510.3074725836522
 30
0.0
 11
2632.629956685868
 21
529.0574725836522
 31
0.0
 70
    32
  1
10
 71
     5
 42
99.99999999999955
  3
ISO-25
100
AcDbAlignedDimension
 13
2582.629956685868
 23
598.5683542431997
 33
0.0
 14
2682.629956685868
 24
598.5683542431997
 34
0.0
100
AcDbRotatedDimension
1001
ACAD
1000
DSTYLE
1002
{
1070
   371
1070
    18
1070
   372
1070
    18
1002
}
  0
DIMENSION
  5
941A
330
1F
100
AcDbEntity
  8
実形
100
AcDbDimension
  2
*D16
 10
2582.480808253705
 20
510.3074725836522
 30
0.0
 11
2557.555382469786
 21
510.3074725836522
 31
0.0
 70
   160
  1
5
 71
     5
 42
49.85085156783725
  3
ISO-25
100
AcDbAlignedDimension
 13
2532.629956685868
 23
598.5683542431997
 33
0.0
 14
2582.480808253705
 24
598.5683542431997
 34
0.0
100
AcDbRotatedDimension
1001
ACAD
1000
DSTYLE
1002
{
1070
   371
1070
    18
1070
   372
1070
    18
1002
}
  0
LINE
  5
941B
330
1F
100
AcDbEntity
  8
実形
100
AcDbLine
 10
2162.629956685868
 20
685.949147950414
 30
0.0
 11
2632.629956685868
 21
685.949147950414
 31
0.0
  0
LINE
  5
941C
330
1F
100
AcDbEntity
  8
実形
100
AcDbLine
 10
2503.793011147388
 20
566.261647950414
 30
0.0
 11
2503.793011147388
 21
590.636647950414
 31
0.0
  0
LINE
  5
941D
330
1F
100
AcDbEntity
  8
実形
100
AcDbLine
 10
2503.793011147388
 20
590.636647950414
 30
0.0
 11
2536.377735730651
 21
590.636647950414
 31
0.0
  0
DIMENSION
  5
941E
330
1F
100
AcDbEntity
  8
実形
100
AcDbDimension
  2
*D17
 10
2412.629956685868
 20
748.4181638289328
 30
0.0
 11
2287.629956685868
 21
767.1681638289328
 31
0.0
 70
    32
  1
27
 71
     5
 42
250.0
  3
ISO-25
100
AcDbAlignedDimension
 13
2162.629956685868
 23
650.4244183565051
 33
0.0
 14
2412.629956685868
 24
650.4244183565051
 34
0.0
100
AcDbRotatedDimension
1001
ACAD
1000
DSTYLE
1002
{
1070
   371
1070
    18
1070
   372
1070
    18
1002
}
  0
DIMENSION
  5
941F
330
1F
100
AcDbEntity
  8
実形
100
AcDbDimension
  2
*D18
 10
2682.629956685868
 20
809.3232943152843
 30
0.0
 11
2397.629956685868
 21
828.0732943152843
 31
0.0
 70
    32
  1
59
 71
     5
 42
570.0
  3
ISO-25
100
AcDbAlignedDimension
 13
2112.629956685868
 23
655.3628681169393
 33
0.0
 14
2682.629956685868
 24
649.3628681169393
 34
0.0
100
AcDbRotatedDimension
1001
ACAD
1000
DSTYLE
1002
{
1070
   371
1070
    18
1070
   372
1070
    18
1002
}
  0
LINE
  5
9420
330
1F
100
AcDbEntity
  8
実形
100
AcDbLine
 10
2682.629956685868
 20
635.9491479504143
 30
0.0
 11
2682.629956685868
 21
565.949147950414
 31
0.0
  0
LINE
  5
9421
330
1F
100
AcDbEntity
  8
実形
100
AcDbLine
 10
2632.629956685868
 20
685.949147950414
 30
0.0
 11
2682.629956685868
 21
635.949147950414
 31
0.0
  0
DIMENSION
  5
9422
330
1F
100
AcDbEntity
  8
実形
100
AcDbDimension
  2
*D19
 10
2754.140284938466
 20
635.949147950414
 30
0.0
 11
2735.390284938466
 21
660.9491479504145
 31
0.0
 70
    32
  1
5
 71
     5
 42
50.0
  3
ISO-25
100
AcDbAlignedDimension
 13
2646.032322324599
 23
685.949147950414
 33
0.0
 14
2646.032322324599
 24
635.949147950414
 34
0.0
 50
90.0
100
AcDbRotatedDimension
1001
ACAD
1000
DSTYLE
1002
{
1070
   371
1070
    18
1070
   372
1070
    18
1002
}
  0
DIMENSION
  5
9423
330
1F
100
AcDbEntity
  8
実形
100
AcDbDimension
  2
*D20
 10
2682.629956685868
 20
761.8430812161118
 30
0.0
 11
2657.629956685868
 21
780.5930812161118
 31
0.0
 70
    32
  1
5
 71
     5
 42
50.0
  3
ISO-25
100
AcDbAlignedDimension
 13
2632.629956685868
 23
649.3628681169393
 33
0.0
 14
2682.629956685868
 24
649.3628681169393
 34
0.0
100
AcDbRotatedDimension
1001
ACAD
1000
DSTYLE
1002
{
1070
   371
1070
    18
1070
   372
1070
    18
1002
}
  0
TEXT
  5
9424
330
1F
100
AcDbEntity
  8
実形
  6
HIDDEN2
100
AcDbText
 10
2509.675476734703
 20
582.8322063955638
 30
0.0
 40
13.0
  1
● 
 71
     2
100
AcDbText
  0
TEXT
  5
9425
330
1F
100
AcDbEntity
  8
実形
  6
HIDDEN2
100
AcDbText
 10
2509.197848633644
 20
560.3902455103889
 30
0.0
 40
13.0
  1
● 
 71
     2
100
AcDbText
  0
DIMENSION
  5
9426
330
1F
100
AcDbEntity
  8
実形
100
AcDbDimension
  2
*D21
 10
2455.858320481269
 20
565.949147950414
 30
0.0
 11
2437.108320481268
 21
590.9491479504144
 31
0.0
 70
    32
  1
5
 71
     5
 42
50.0
  3
ISO-25
100
AcDbAlignedDimension
 13
2361.340982258765
 23
615.949147950414
 33
0.0
 14
2361.340982258765
 24
565.949147950414
 34
0.0
 50
90.0
100
AcDbRotatedDimension
1001
ACAD
1000
DSTYLE
1002
{
1070
   371
1070
    18
1070
   372
1070
    18
1002
}
  0
LEADER
  5
9427
330
1F
100
AcDbEntity
  8
実形
100
AcDbLeader
  3
ISO-25
 76
     2
 10
2103.350151099553
 20
556.3724351502842
 30
0.0
 10
2026.033838461474
 20
507.815730807375
 30
0.0
1001
ACAD
1000
DSTYLE
1002
{
1070
   147
1040
6.25
1070
    77
1070
     0
1070
   371
1070
    18
1070
   372
1070
    18
1002
}
  0
TEXT
  5
9428
330
1F
100
AcDbEntity
  8
実形
100
AcDbText
 10
2494.949494596957
 20
572.1665357245492
 30
0.0
 40
25.0
  1
3
 50
90.0
 11
2498.282827930291
 21
572.1665357245492
 31
0.0
100
AcDbText
 73
     1
  0
LEADER
  5
9429
330
1F
100
AcDbEntity
  8
実形
100
AcDbLeader
  3
ISO-25
 76
     2
 10
2687.534119859479
 20
561.0343988739714
 30
0.0
 10
2763.284284346027
 20
513.4671870935035
 30
0.0
1001
ACAD
1000
DSTYLE
1002
{
1070
   147
1040
6.25
1070
    77
1070
     0
1070
   371
1070
    18
1070
   372
1070
    18
1002
}
  0
LEADER
  5
942A
330
1F
100
AcDbEntity
  8
実形
100
AcDbLeader
  3
ISO-25
 76
     2
 10
2667.985603398088
 20
678.4798669813445
 30
0.0
 10
2746.692816950461
 20
742.6063239939794
 30
0.0
1001
ACAD
1000
DSTYLE
1002
{
1070
   147
1040
6.25
1070
    77
1070
     0
1070
   371
1070
    18
1070
   372
1070
    18
1002
}
  0
LEADER
  5
942B
330
1F
100
AcDbEntity
  8
実形
100
AcDbLeader
  3
ISO-25
 76
     2
 10
2162.862511084336
 20
401.3308161813165
 30
0.0
 10
2092.17534002188
 20
294.2879720999435
 30
0.0
1001
ACAD
1000
DSTYLE
1002
{
1070
   147
1040
6.25
1070
    77
1070
     0
1070
   371
1070
    18
1070
   372
1070
    18
1002
}
  0
TEXT
  5
942C
330
1F
100
AcDbEntity
  8
実形
100
AcDbText
 10
2314.852351549763
 20
624.027109208624
 30
0.0
 40
25.0
  1
2
 50
90.0
 11
2318.185684883097
 21
624.027109208624
 31
0.0
100
AcDbText
 73
     1
  0
LINE
  5
942D
330
1F
100
AcDbEntity
  8
実形
100
AcDbLine
 10
2331.596822217273
 20
634.8604110560827
 30
0.0
 11
2355.761914024543
 21
634.8604110560827
 31
0.0
  0
DIMENSION
  5
942E
330
1F
100
AcDbEntity
  8
実形
100
AcDbDimension
  2
*D22
 10
2442.629956685868
 20
433.2504785557957
 30
0.0
 11
2317.629956685868
 21
452.0004785557957
 31
0.0
 70
    32
  1
25
 71
     5
 42
250.0
  3
ISO-25
100
AcDbAlignedDimension
 13
2192.629956685868
 23
521.7145072985422
 33
0.0
 14
2442.629956685868
 24
521.7145072985422
 34
0.0
100
AcDbRotatedDimension
1001
ACAD
1000
DSTYLE
1002
{
1070
   371
1070
    18
1070
   372
1070
    18
1002
}
  0
DIMENSION
  5
942F
330
1F
100
AcDbEntity
  8
実形
100
AcDbDimension
  2
*D23
 10
2490.342061978752
 20
487.5221228905046
 30
0.0
 11
2471.592061978752
 21
522.5221228905052
 31
0.0
 70
    32
  1
7
 71
     5
 42
70.00000000000006
  3
ISO-25
100
AcDbAlignedDimension
 13
2407.397881736805
 23
557.5221228905047
 33
0.0
 14
2407.397881736805
 24
487.5221228905047
 34
0.0
 50
90.0
100
AcDbRotatedDimension
1001
ACAD
1000
DSTYLE
1002
{
1070
   371
1070
    18
1070
   372
1070
    18
1002
}
  0
TEXT
  5
9430
330
1F
100
AcDbEntity
  8
実形
370
    18
100
AcDbText
 10
1955.139579027895
 20
878.9197617359487
 30
0.0
 40
40.0
  1
B-B´断面詳細図(1/1)
100
AcDbText
  0
LINE
  5
9431
330
1F
100
AcDbEntity
  8
実形
100
AcDbLine
 10
2328.806280263822
 20
557.5221228905047
 30
0.0
 11
2311.830581967568
 21
557.5221228905047
 31
0.0
  0
LINE
  5
9432
330
1F
100
AcDbEntity
  8
実形
100
AcDbLine
 10
2311.830581967568
 20
557.5221228905047
 30
0.0
 11
2311.830581967568
 21
587.5221228905047
 31
0.0
  0
TEXT
  5
9433
330
1F
100
AcDbEntity
  8
実形
  6
HIDDEN2
100
AcDbText
 10
2317.696491144609
 20
551.6505329887004
 30
0.0
 40
13.0
  1
● 
 71
     2
100
AcDbText
  0
TEXT
  5
9434
330
1F
100
AcDbEntity
  8
実形
  6
HIDDEN2
100
AcDbText
 10
2317.496913150539
 20
580.1807028632192
 30
0.0
 40
13.0
  1
● 
 71
     2
100
AcDbText
  0
TEXT
  5
9435
330
1F
100
AcDbEntity
  8
実形
100
AcDbText
 10
2292.377315999641
 20
558.3467969102412
 30
0.0
 40
25.0
  1
3
 50
90.0
 11
2295.710649332975
 21
558.3467969102412
 31
0.0
100
AcDbText
 73
     1
  0
LINE
  5
9436
330
1F
100
AcDbEntity
  8
実形
100
AcDbLine
 10
2362.118403511665
 20
633.4949343225807
 30
0.0
 11
2362.118403511665
 21
646.0621165371613
 31
0.0
  0
LINE
  5
9437
330
1F
100
AcDbEntity
  8
実形
100
AcDbLine
 10
2362.118403511665
 20
646.0621165371613
 30
0.0
 11
2412.118403511664
 21
646.0621165371613
 31
0.0
  0
LINE
  5
9438
330
1F
100
AcDbEntity
  8
実形
100
AcDbLine
 10
2412.118403511664
 20
646.0621165371613
 30
0.0
 11
2412.118403511664
 21
633.4949343225807
 31
0.0
  0
LINE
  5
9439
330
1F
100
AcDbEntity
  8
実形
100
AcDbLine
 10
2402.118403511665
 20
646.0621165371613
 30
0.0
 11
2402.118403511665
 21
633.4949343225807
 31
0.0
  0
TEXT
  5
943A
330
1F
100
AcDbEntity
  8
実形
370
    18
100
AcDbText
 10
2359.331148429733
 20
657.5490536289371
 30
0.0
 40
21.0
  1
4
100
AcDbText
  0
TEXT
  5
943B
330
1F
100
AcDbEntity
  8
実形
  6
HIDDEN2
100
AcDbText
 10
2368.048485053369
 20
639.8305570849943
 30
0.0
 40
11.0
  1
● 
 71
     2
100
AcDbText
  0
TEXT
  5
943C
330
1F
100
AcDbEntity
  8
実形
  6
HIDDEN2
100
AcDbText
 10
2407.493537023377
 20
639.6357680849851
 30
0.0
 40
11.0
  1
● 
 71
     2
100
AcDbText
  0
TEXT
  5
943D
330
1F
100
AcDbEntity
  8
実形
  6
HIDDEN2
100
AcDbText
 10
2417.355663153967
 20
639.8573219857589
 30
0.0
 40
11.0
  1
● 
 71
     2
100
AcDbText
  0
TEXT
  5
943E
330
1F
100
AcDbEntity
  8
実形
370
    18
100
AcDbText
 10
2402.641997865286
 20
656.7000849282103
 30
0.0
 40
21.0
  1
1
100
AcDbText
  0
DIMENSION
  5
943F
330
1F
100
AcDbEntity
  8
実形
100
AcDbDimension
  2
*D24
 10
2532.629956685868
 20
748.4181638289328
 30
0.0
 11
2472.629956685868
 21
767.1681638289328
 31
0.0
 70
    32
  1
12
 71
     5
 42
120.0
  3
ISO-25
100
AcDbAlignedDimension
 13
2412.629956685868
 23
655.8341679468849
 33
0.0
 14
2532.629956685868
 24
652.2786915959514
 34
0.0
100
AcDbRotatedDimension
1001
ACAD
1000
DSTYLE
1002
{
1070
   371
1070
    18
1070
   372
1070
    18
1002
}
  0
LINE
  5
9440
330
1F
100
AcDbEntity
  8
実形
 62
     0
100
AcDbLine
 10
2834.0
 20
1828.999999999999
 30
0.0
 11
2069.387286519283
 21
1828.999999999999
 31
0.0
  0
LINE
  5
9441
330
1F
100
AcDbEntity
  8
実形
 62
     0
100
AcDbLine
 10
2252.547653420926
 20
1828.999999999999
 30
0.0
 11
2252.547653420926
 21
2023.999999999999
 31
0.0
  0
LINE
  5
9442
330
1F
100
AcDbEntity
  8
実形
 62
     0
100
AcDbLine
 10
2609.0
 20
1828.999999999999
 30
0.0
 11
2609.0
 21
2023.999999999999
 31
0.0
  0
TEXT
  5
9443
330
1F
100
AcDbEntity
  8
実形
 62
     0
100
AcDbText
 10
2120.035283471818
 20
1846.908881478472
 30
0.0
 40
30.0
  1
天板
  7
明朝
 72
     4
 11
2163.920997757532
 21
1862.166024335615
 31
0.0
100
AcDbText
  0
TEXT
  5
9444
330
1F
100
AcDbEntity
  8
実形
 62
     0
100
AcDbText
 10
2284.861046521259
 20
1847.890381562373
 30
0.0
 40
30.0
  1
ｱｸﾘﾙ人工大理石
  7
明朝
 72
     4
 11
2438.461046521259
 21
1863.747524419516
 31
0.0
100
AcDbText
  0
TEXT
  5
9445
330
1F
100
AcDbEntity
  8
実形
 62
     0
100
AcDbText
 10
2657.993307313416
 20
1845.017877900231
 30
0.0
 40
30.0
  1
12ｍｍ
  7
明朝
 72
     4
 11
2723.821878741988
 21
1859.675020757373
 31
0.0
100
AcDbText
  0
ARC
  5
96F8
330
1F
100
AcDbEntity
  8
実形
100
AcDbCircle
 10
573.0239931742753
 20
1283.693471705118
 30
0.0
 40
10.0
100
AcDbArc
 50
179.9999999999999
 51
270.0
  0
LINE
  5
96F9
330
1F
100
AcDbEntity
  8
実形
100
AcDbLine
 10
563.0239931742753
 20
1283.693471705118
 30
0.0
 11
563.0239931742753
 21
1663.693471705118
 31
0.0
  0
LINE
  5
96FA
330
1F
100
AcDbEntity
  8
実形
100
AcDbLine
 10
1303.023993174275
 20
1273.693471705118
 30
0.0
 11
573.0239931742753
 21
1273.693471705118
 31
0.0
  0
ARC
  5
96FB
330
1F
100
AcDbEntity
  8
実形
100
AcDbCircle
 10
573.0239931742753
 20
1663.693471705118
 30
0.0
 40
10.0
100
AcDbArc
 50
90.00000000000003
 51
179.9999999999999
  0
LINE
  5
96FC
330
1F
100
AcDbEntity
  8
実形
100
AcDbLine
 10
1303.023993174275
 20
1673.693471705118
 30
0.0
 11
573.0239931742753
 21
1673.693471705118
 31
0.0
  0
ARC
  5
96FD
330
1F
100
AcDbEntity
  8
実形
100
AcDbCircle
 10
1303.023993174275
 20
1663.693471705118
 30
0.0
 40
10.0
100
AcDbArc
 50
0.0
 51
90.0
  0
LINE
  5
96FE
330
1F
100
AcDbEntity
  8
実形
100
AcDbLine
 10
1313.023993174276
 20
1283.693471705118
 30
0.0
 11
1313.023993174276
 21
1663.693471705118
 31
0.0
  0
ARC
  5
96FF
330
1F
100
AcDbEntity
  8
実形
100
AcDbCircle
 10
1303.023993174275
 20
1283.693471705118
 30
0.0
 40
10.0
100
AcDbArc
 50
270.0
 51
0.0
  0
LINE
  5
9701
330
1F
100
AcDbEntity
  8
実形
  6
ACAD_ISO08W100
 48
0.5
100
AcDbLine
 10
1286.957240037338
 20
1473.693471705118
 30
0.0
 11
1395.453987938164
 21
1473.693471705118
 31
0.0
  0
LINE
  5
9706
330
1F
100
AcDbEntity
  8
実形
100
AcDbLine
 10
1372.023993174275
 20
1730.693471705118
 30
0.0
 11
1372.023993174276
 21
1216.693471705118
 31
0.0
  0
LINE
  5
9708
330
1F
100
AcDbEntity
  8
実形
100
AcDbLine
 10
504.0239931742749
 20
1216.693471705118
 30
0.0
 11
1372.023993174276
 21
1216.693471705118
 31
0.0
  0
LINE
  5
9709
330
1F
100
AcDbEntity
  8
実形
100
AcDbLine
 10
504.0239931742749
 20
1730.693471705118
 30
0.0
 11
504.0239931742749
 21
1216.693471705118
 31
0.0
  0
LINE
  5
970A
330
1F
100
AcDbEntity
  8
実形
100
AcDbLine
 10
504.0239931742749
 20
1730.693471705118
 30
0.0
 11
1372.023993174276
 21
1730.693471705118
 31
0.0
  0
DIMENSION
  5
971E
330
1F
100
AcDbEntity
  8
実形
100
AcDbDimension
  2
*D25
 10
1313.023993174276
 20
1119.820443634184
 30
0.0
 11
938.0239931742755
 21
1141.420443634184
 31
0.0
 70
    32
  1
748
 71
     5
 42
750.0000000000004
  3
ISO-25
100
AcDbAlignedDimension
 13
563.0239931742753
 23
1229.303376488294
 33
0.0
 14
1313.023993174276
 24
1229.303376488294
 34
0.0
100
AcDbRotatedDimension
1001
ACAD
1000
DSTYLE
1002
{
1070
    41
1040
10.0
1070
   140
1040
30.0
1070
   147
1040
6.599999999999998
1070
   279
1070
     2
1070
   342
1005
30D
1070
   371
1070
    18
1070
   372
1070
    18
1002
}
  0
DIMENSION
  5
972B
330
1F
100
AcDbEntity
  8
実形
100
AcDbDimension
  2
*D26
 10
1313.023993174276
 20
1119.820443634184
 30
0.0
 11
533.9972375229226
 21
1141.420443634184
 31
0.0
 70
   160
  1
60
 71
     5
 42
809.0000000000008
  3
ISO-25
100
AcDbAlignedDimension
 13
504.0239931742749
 23
1229.303376488294
 33
0.0
 14
1313.023993174276
 24
1229.303376488294
 34
0.0
100
AcDbRotatedDimension
1001
ACAD
1000
DSTYLE
1002
{
1070
    41
1040
10.0
1070
   140
1040
25.0
1070
   147
1040
6.599999999999998
1070
   279
1070
     2
1070
   342
1005
30D
1070
   371
1070
    18
1070
   372
1070
    18
1002
}
  0
DIMENSION
  5
976F
330
1F
100
AcDbEntity
  8
実形
100
AcDbDimension
  2
*D27
 10
1372.023993174276
 20
1119.820443634184
 30
0.0
 11
1342.982765884575
 21
1141.420443634184
 31
0.0
 70
   160
  1
60
 71
     5
 42
809.0000000000005
  3
ISO-25
100
AcDbAlignedDimension
 13
563.0239931742753
 23
1229.303376488294
 33
0.0
 14
1372.023993174276
 24
1229.303376488294
 34
0.0
100
AcDbRotatedDimension
1001
ACAD
1000
DSTYLE
1002
{
1070
    41
1040
10.0
1070
   140
1040
25.0
1070
   147
1040
6.599999999999998
1070
   279
1070
     2
1070
   342
1005
30D
1070
   371
1070
    18
1070
   372
1070
    18
1002
}
  0
DIMENSION
  5
97A0
330
1F
100
AcDbEntity
  8
実形
100
AcDbDimension
  2
*D28
 10
1372.023993174276
 20
1061.449708252456
 30
0.0
 11
938.0239931742753
 21
1083.049708252456
 31
0.0
 70
    32
 71
     5
 42
868.0000000000008
  3
ISO-25
100
AcDbAlignedDimension
 13
504.0239931742749
 23
1245.259185592099
 33
0.0
 14
1372.023993174276
 24
1245.259185592099
 34
0.0
100
AcDbRotatedDimension
1001
ACAD
1000
DSTYLE
1002
{
1070
    41
1040
10.0
1070
   140
1040
30.0
1070
   147
1040
6.599999999999998
1070
   279
1070
     2
1070
   342
1005
30D
1070
   371
1070
    18
1070
   372
1070
    18
1002
}
  0
LINE
  5
97E4
330
1F
100
AcDbEntity
  8
実形
100
AcDbLine
 10
504.0239931742749
 20
913.9584930966204
 30
0.0
 11
504.0239931742749
 21
906.9584930966202
 31
0.0
  0
LINE
  5
97E5
330
1F
100
AcDbEntity
  8
実形
100
AcDbLine
 10
1372.023993174275
 20
913.9584930966204
 30
0.0
 11
1372.023993174276
 21
906.9584930966202
 31
0.0
  0
LINE
  5
97E7
330
1F
100
AcDbEntity
  8
実形
100
AcDbLine
 10
509.0239931742749
 20
918.9584930966205
 30
0.0
 11
1367.023993174276
 21
918.9584930966203
 31
0.0
  0
LINE
  5
97E8
330
1F
100
AcDbEntity
  8
実形
100
AcDbLine
 10
504.0239931742749
 20
906.9584930966202
 30
0.0
 11
1372.023993174276
 21
906.9584930966202
 31
0.0
  0
LINE
  5
97EC
330
1F
100
AcDbEntity
  8
実形
100
AcDbLine
 10
454.9127662077144
 20
906.9584930966202
 30
0.0
 11
289.7063545727497
 21
906.9584930966202
 31
0.0
  0
DIMENSION
  5
9819
330
1F
100
AcDbEntity
  8
実形
100
AcDbDimension
  2
*D29
 10
394.2667574347688
 20
1273.693471705118
 30
0.0
 11
372.6667574347686
 21
1473.693471705118
 31
0.0
 70
    32
  1
396
 71
     5
 42
399.9999999999998
  3
ISO-25
100
AcDbAlignedDimension
 13
503.9120478012336
 23
1673.693471705117
 33
0.0
 14
503.9120478012335
 24
1273.693471705118
 34
0.0
 50
90.0
100
AcDbRotatedDimension
1001
ACAD
1000
DSTYLE
1002
{
1070
    41
1040
10.0
1070
   140
1040
30.0
1070
   147
1040
6.599999999999998
1070
   279
1070
     2
1070
   342
1005
30D
1070
   371
1070
    18
1070
   372
1070
    18
1002
}
  0
DIMENSION
  5
9826
330
1F
100
AcDbEntity
  8
実形
100
AcDbDimension
  2
*D30
 10
394.2667574347688
 20
1273.693471705118
 30
0.0
 11
372.6667574347686
 21
1698.354985760122
 31
0.0
 70
   160
  1
59
 71
     5
 42
457.0000000000002
  3
ISO-25
100
AcDbAlignedDimension
 13
503.9120478012336
 23
1730.693471705118
 33
0.0
 14
503.9120478012336
 24
1273.693471705118
 34
0.0
 50
90.0
100
AcDbRotatedDimension
1001
ACAD
1000
DSTYLE
1002
{
1070
    41
1040
10.0
1070
   140
1040
30.0
1070
   147
1040
6.599999999999998
1070
   279
1070
     2
1070
   342
1005
30D
1070
   371
1070
    18
1070
   372
1070
    18
1002
}
  0
DIMENSION
  5
9858
330
1F
100
AcDbEntity
  8
実形
100
AcDbDimension
  2
*D31
 10
394.2667574347688
 20
1216.693471705118
 30
0.0
 11
372.6667574347686
 21
1254.732096622301
 31
0.0
 70
   160
  1
59
 71
     5
 42
457.0
  3
ISO-25
100
AcDbAlignedDimension
 13
503.9120478012336
 23
1673.693471705118
 33
0.0
 14
503.9120478012336
 24
1216.693471705118
 34
0.0
 50
90.0
100
AcDbRotatedDimension
1001
ACAD
1000
DSTYLE
1002
{
1070
    41
1040
10.0
1070
   140
1040
30.0
1070
   147
1040
6.599999999999998
1070
   279
1070
     2
1070
   342
1005
30D
1070
   371
1070
    18
1070
   372
1070
    18
1002
}
  0
DIMENSION
  5
9880
330
1F
100
AcDbEntity
  8
実形
100
AcDbDimension
  2
*D32
 10
329.9512773348306
 20
1216.693471705118
 30
0.0
 11
308.3512773348304
 21
1473.693471705118
 31
0.0
 70
    32
 71
     5
 42
514.0000000000002
  3
ISO-25
100
AcDbAlignedDimension
 13
466.8884494826106
 23
1730.693471705118
 33
0.0
 14
474.9300072463902
 24
1216.693471705118
 34
0.0
 50
90.0
100
AcDbRotatedDimension
1001
ACAD
1000
DSTYLE
1002
{
1070
    41
1040
10.0
1070
   140
1040
30.0
1070
   147
1040
6.599999999999998
1070
   279
1070
     2
1070
   342
1005
30D
1070
   371
1070
    18
1070
   372
1070
    18
1002
}
  0
LINE
  5
98E8
330
1F
100
AcDbEntity
  8
実形
100
AcDbLine
 10
1533.519518606386
 20
1730.693471705119
 30
0.0
 11
1540.519518606386
 21
1730.693471705118
 31
0.0
  0
LINE
  5
98E9
330
1F
100
AcDbEntity
  8
実形
100
AcDbLine
 10
1533.519518606386
 20
1216.693471705118
 30
0.0
 11
1540.519518606386
 21
1216.693471705118
 31
0.0
  0
LINE
  5
98EA
330
1F
100
AcDbEntity
  8
実形
100
AcDbLine
 10
1528.519518606386
 20
1725.693471705119
 30
0.0
 11
1528.519518606385
 21
1221.693471705118
 31
0.0
  0
LINE
  5
98ED
330
1F
100
AcDbEntity
  8
実形
100
AcDbLine
 10
1540.519518606386
 20
1730.693471705119
 30
0.0
 11
1540.519518606386
 21
1216.693471705118
 31
0.0
  0
LINE
  5
98EE
330
1F
100
AcDbEntity
  8
実形
100
AcDbLine
 10
1540.519518606386
 20
1177.759888789082
 30
0.0
 11
1540.519518606386
 21
1012.553477154117
 31
0.0
  0
LINE
  5
98EF
330
1F
100
AcDbEntity
  8
実形
100
AcDbLine
 10
1540.519518606386
 20
1754.652283172962
 30
0.0
 11
1540.519518606386
 21
1919.858694807927
 31
0.0
  0
LINE
  5
98F9
330
1F
100
AcDbEntity
  8
実形
100
AcDbLine
 10
1367.023993174275
 20
918.9584930966203
 30
0.0
 11
1372.023993174275
 21
913.9584930966202
 31
0.0
  0
TEXT
  5
9903
330
1F
100
AcDbEntity
  8
実形
100
AcDbText
 10
1421.344683158324
 20
983.4285413803437
 30
0.0
 40
30.0
  1
5C
 11
1421.344683158324
 21
979.4285413803436
 31
0.0
100
AcDbText
 73
     1
  0
TEXT
  5
990E
330
1F
100
AcDbEntity
  8
実形
100
AcDbText
 10
406.7370306282518
 20
989.0891985452544
 30
0.0
 40
30.0
  1
5C
 11
406.7370306282518
 21
985.0891985452545
 31
0.0
100
AcDbText
 73
     1
  0
LINE
  5
9911
330
1F
100
AcDbEntity
  8
実形
100
AcDbLine
 10
509.0239931742749
 20
918.9584930966205
 30
0.0
 11
504.0239931742749
 21
913.9584930966204
 31
0.0
  0
LINE
  5
9915
330
1F
100
AcDbEntity
  8
実形
100
AcDbLine
 10
1533.519518606385
 20
1216.693471705118
 30
0.0
 11
1528.519518606386
 21
1221.693471705118
 31
0.0
  0
LINE
  5
9917
330
1F
100
AcDbEntity
  8
実形
100
AcDbLine
 10
1528.519518606386
 20
1725.693471705119
 30
0.0
 11
1533.519518606386
 21
1730.693471705119
 31
0.0
  0
TEXT
  5
9920
330
1F
100
AcDbEntity
  8
実形
100
AcDbText
 10
1432.59542270096
 20
1783.712449354881
 30
0.0
 40
30.0
  1
5C
 11
1432.59542270096
 21
1779.712449354882
 31
0.0
100
AcDbText
 73
     1
  0
LEADER
  5
9933
330
1F
100
AcDbEntity
  8
実形
100
AcDbLeader
  3
ISO-25
 76
     2
 10
1377.71078715485
 20
919.8272326344895
 30
0.0
 10
1437.10514388434
 20
976.651508157005
 30
0.0
1001
ACAD
1000
DSTYLE
1002
{
1070
    77
1070
     0
1070
    41
1040
20.0
1070
   140
1040
30.0
1070
   147
1040
6.599999999999998
1070
   279
1070
     2
1070
   342
1005
30D
1070
   371
1070
    18
1070
   372
1070
    18
1002
}
  0
LEADER
  5
9934
330
1F
100
AcDbEntity
  8
実形
100
AcDbLeader
  3
ISO-25
 76
     2
 10
498.337199193701
 20
919.8272326344913
 30
0.0
 10
438.9428424642112
 20
976.6515081570069
 30
0.0
211
-1.0
221
0.0000000000000039
231
0.0
1001
ACAD
1000
DSTYLE
1002
{
1070
    77
1070
     0
1070
    41
1040
20.0
1070
   140
1040
30.0
1070
   147
1040
6.599999999999998
1070
   279
1070
     2
1070
   342
1005
30D
1070
   371
1070
    18
1070
   372
1070
    18
1002
}
  0
LEADER
  5
993D
330
1F
100
AcDbEntity
  8
実形
100
AcDbLeader
  3
ISO-25
 76
     2
 10
1528.944343549578
 20
1732.928203146975
 30
0.0
 10
1476.180206666661
 20
1770.516695008678
 30
0.0
1001
ACAD
1000
DSTYLE
1002
{
1070
    77
1070
     0
1070
    41
1040
20.0
1070
   140
1040
30.0
1070
   147
1040
6.599999999999998
1070
   279
1070
     2
1070
   342
1005
30D
1070
   371
1070
    18
1070
   372
1070
    18
1002
}
  0
LEADER
  5
993E
330
1F
100
AcDbEntity
  8
実形
100
AcDbLeader
  3
ISO-25
 76
     2
 10
1528.944343549578
 20
1214.458740263262
 30
0.0
 10
1476.180206666661
 20
1176.870248401559
 30
0.0
1001
ACAD
1000
DSTYLE
1002
{
1070
    77
1070
     0
1070
    41
1040
20.0
1070
   140
1040
30.0
1070
   147
1040
6.599999999999998
1070
   279
1070
     2
1070
   342
1005
30D
1070
   371
1070
    18
1070
   372
1070
    18
1002
}
  0
TEXT
  5
9948
330
1F
100
AcDbEntity
  8
実形
100
AcDbText
 10
1437.9320060439
 20
1135.164578841755
 30
0.0
 40
30.0
  1
5C
 11
1437.9320060439
 21
1131.164578841755
 31
0.0
100
AcDbText
 73
     1
  0
TEXT
  5
9951
330
1F
100
AcDbEntity
  8
実形
370
    18
100
AcDbText
 10
1249.516672758672
 20
1459.587643476349
 30
0.0
 40
40.0
  1
A
100
AcDbText
  0
TEXT
  5
995A
330
1F
100
AcDbEntity
  8
実形
370
    18
100
AcDbText
 10
1407.276277187916
 20
1459.224657059873
 30
0.0
 40
40.0
  1
A´
100
AcDbText
  0
LINE
  5
9A63
330
1F
100
AcDbEntity
  8
実形
100
AcDbLine
 10
1528.519518606386
 20
1754.652283172962
 30
0.0
 11
1528.519518606386
 21
1919.858694807927
 31
0.0
  0
LINE
  5
9A65
330
1F
100
AcDbEntity
  8
実形
100
AcDbLine
 10
1540.519518606386
 20
1919.858694807927
 30
0.0
 11
1528.519518606386
 21
1919.858694807927
 31
0.0
  0
HATCH
  5
9A6E
330
1F
100
AcDbEntity
  8
実形
100
AcDbHatch
 10
0.0
 20
0.0
 30
0.0
210
0.0
220
0.0
230
1.0
  2
SOLID
 70
     1
 71
     0
 91
        1
 92
        7
 72
     1
 73
     1
 93
        2
 10
1528.408767212839
 20
1924.922083746644
 42
-1.0
 10
1528.408767212839
 20
1914.922083746644
 42
-1.0
 97
        0
 75
     0
 76
     1
 47
0.2779191024150841
 98
        1
 10
1527.959269751788
 20
1918.506648376976
  0
TEXT
  5
9A77
330
1F
100
AcDbEntity
  8
実形
100
AcDbText
 10
1533.822171573696
 20
1934.91981006796
 30
0.0
 40
25.0
  1
12
 72
     2
 11
1567.155504907029
 21
1931.586476734626
 31
0.0
100
AcDbText
 73
     1
  0
LINE
  5
9A78
330
1F
100
AcDbEntity
  8
実形
100
AcDbLine
 10
1528.519518606386
 20
1919.858694807927
 30
0.0
 11
1528.519518606386
 21
1980.314835208127
 31
0.0
  0
LINE
  5
9A79
330
1F
100
AcDbEntity
  8
実形
100
AcDbLine
 10
1528.519518606386
 20
1980.314835208127
 30
0.0
 11
1736.012753804956
 21
1980.314835208127
 31
0.0
  0
LINE
  5
9A7A
330
1F
100
AcDbEntity
  8
実形
100
AcDbLine
 10
1736.012753804956
 20
1862.340842206739
 30
0.0
 11
1736.012753804956
 21
1980.314835208127
 31
0.0
  0
TEXT
  5
9A83
330
1F
100
AcDbEntity
  8
実形
100
AcDbText
 10
1596.702683270239
 20
1988.813515280583
 30
0.0
 40
25.0
  1
205
 72
     2
 11
1659.202683270239
 21
1985.48018194725
 31
0.0
100
AcDbText
 73
     1
  0
HATCH
  5
9A8D
330
1F
100
AcDbEntity
  8
実形
100
AcDbHatch
 10
0.0
 20
0.0
 30
0.0
210
0.0
220
0.0
230
1.0
  2
SOLID
 70
     1
 71
     0
 91
        1
 92
        7
 72
     1
 73
     1
 93
        2
 10
1528.521688973644
 20
1985.087600375125
 42
-1.0
 10
1528.521688973644
 20
1975.087600375125
 42
-1.0
 97
        0
 75
     0
 76
     1
 47
0.2779191024150841
 98
        1
 10
1528.072191512593
 20
1978.672165005457
  0
HATCH
  5
9A95
330
1F
100
AcDbEntity
  8
実形
100
AcDbHatch
 10
0.0
 20
0.0
 30
0.0
210
0.0
220
0.0
230
1.0
  2
SOLID
 70
     1
 71
     0
 91
        1
 92
        7
 72
     1
 73
     1
 93
        2
 10
1735.506385313135
 20
1985.221951807853
 42
-1.0
 10
1735.506385313135
 20
1975.221951807853
 42
-1.0
 97
        0
 75
     0
 76
     1
 47
0.2779191024150841
 98
        1
 10
1735.056887852083
 20
1978.806516438185
  0
LINE
  5
9C10
330
1F
100
AcDbEntity
  8
実形
100
AcDbLine
 10
454.9127662077144
 20
918.9584930966205
 30
0.0
 11
228.072316528911
 21
918.9584930966205
 31
0.0
  0
LINE
  5
9C13
330
1F
100
AcDbEntity
  8
実形
100
AcDbLine
 10
289.7063545727497
 20
906.9584930966202
 30
0.0
 11
289.7063545727497
 21
918.9584930966205
 31
0.0
  0
LINE
  5
9C14
330
1F
100
AcDbEntity
  8
実形
100
AcDbLine
 10
228.072316528911
 20
918.9584930966205
 30
0.0
 11
228.072316528911
 21
711.4652578980521
 31
0.0
  0
TEXT
  5
9C1D
330
1F
100
AcDbEntity
  8
実形
100
AcDbText
 10
278.8081409807798
 20
874.6555557804141
 30
0.0
 40
25.0
  1
12
 50
90.0
 72
     2
 11
282.1414743141131
 21
907.9888891137475
 31
0.0
100
AcDbText
 73
     1
  0
HATCH
  5
9C26
330
1F
100
AcDbEntity
  8
実形
100
AcDbHatch
 10
0.0
 20
0.0
 30
0.0
210
0.0
220
0.0
230
1.0
  2
SOLID
 70
     1
 71
     0
 91
        1
 92
        7
 72
     1
 73
     1
 93
        2
 10
284.9461280534597
 20
919.4544992285818
 42
1.0
 10
294.9461280534597
 20
919.4544992285818
 42
1.0
 97
        0
 75
     0
 76
     1
 47
0.2779191024150841
 98
        1
 10
291.3615634231273
 20
919.9039966896334
  0
HATCH
  5
9C2E
330
1F
100
AcDbEntity
  8
実形
100
AcDbHatch
 10
0.0
 20
0.0
 30
0.0
210
0.0
220
0.0
230
1.0
  2
SOLID
 70
     1
 71
     0
 91
        1
 92
        7
 72
     1
 73
     1
 93
        2
 10
222.9944713067489
 20
919.1999106571866
 42
1.0
 10
232.9944713067489
 20
919.1999106571866
 42
1.0
 97
        0
 75
     0
 76
     1
 47
0.2779191024150841
 98
        1
 10
229.4099066764165
 20
919.6494081182381
  0
LINE
  5
9C2F
330
1F
100
AcDbEntity
  8
実形
100
AcDbLine
 10
289.7063545727497
 20
711.4652578980521
 30
0.0
 11
228.072316528911
 21
711.4652578980521
 31
0.0
  0
HATCH
  5
9C38
330
1F
100
AcDbEntity
  8
実形
100
AcDbHatch
 10
0.0
 20
0.0
 30
0.0
210
0.0
220
0.0
230
1.0
  2
SOLID
 70
     1
 71
     0
 91
        1
 92
        7
 72
     1
 73
     1
 93
        2
 10
222.98401939418
 20
712.0794037327168
 42
1.0
 10
232.98401939418
 20
712.0794037327168
 42
1.0
 97
        0
 75
     0
 76
     1
 47
0.2779191024150841
 98
        1
 10
229.3994547638476
 20
712.5289011937684
  0
TEXT
  5
9C41
330
1F
100
AcDbEntity
  8
実形
100
AcDbText
 10
216.8722290672573
 20
786.721446825637
 30
0.0
 40
25.0
  1
205
 50
90.0
 72
     2
 11
220.2055624005907
 21
849.2214468256371
 31
0.0
100
AcDbText
 73
     1
  0
LINE
  5
9C63
330
1F
100
AcDbEntity
  8
実形
100
AcDbLine
 10
1528.519518606385
 20
1177.759888789082
 30
0.0
 11
1528.519518606385
 21
953.0539089989479
 31
0.0
  0
HATCH
  5
9C6C
330
1F
100
AcDbEntity
  8
実形
100
AcDbHatch
 10
0.0
 20
0.0
 30
0.0
210
0.0
220
0.0
230
1.0
  2
SOLID
 70
     1
 71
     0
 91
        1
 92
        7
 72
     1
 73
     1
 93
        2
 10
1528.533448153419
 20
1007.989799593092
 42
1.0
 10
1528.533448153419
 20
1017.989799593092
 42
1.0
 97
        0
 75
     0
 76
     1
 47
0.2779191024150841
 98
        1
 10
1528.083950692368
 20
1014.40523496276
  0
LINE
  5
9C6D
330
1F
100
AcDbEntity
  8
実形
100
AcDbLine
 10
1528.519518606385
 20
953.0539089989479
 30
0.0
 11
1736.012753804954
 21
953.0539089989479
 31
0.0
  0
TEXT
  5
9C76
330
1F
100
AcDbEntity
  8
実形
100
AcDbText
 10
1589.350866688204
 20
964.0002964138759
 30
0.0
 40
25.0
  1
205
 72
     2
 11
1651.850866688204
 21
960.6669630805425
 31
0.0
100
AcDbText
 73
     1
  0
TEXT
  5
9C80
330
1F
100
AcDbEntity
  8
実形
100
AcDbText
 10
1482.79732857445
 20
1017.397616086791
 30
0.0
 40
25.0
  1
12
 72
     2
 11
1516.130661907783
 21
1014.064282753457
 31
0.0
100
AcDbText
 73
     1
  0
HATCH
  5
9C89
330
1F
100
AcDbEntity
  8
実形
100
AcDbHatch
 10
0.0
 20
0.0
 30
0.0
210
0.0
220
0.0
230
1.0
  2
SOLID
 70
     1
 71
     0
 91
        1
 92
        7
 72
     1
 73
     1
 93
        2
 10
1528.19182252465
 20
948.2623566033316
 42
1.0
 10
1528.19182252465
 20
958.2623566033317
 42
1.0
 97
        0
 75
     0
 76
     1
 47
0.2779191024150841
 98
        1
 10
1527.742325063598
 20
954.6777919729994
  0
HATCH
  5
9C91
330
1F
100
AcDbEntity
  8
実形
100
AcDbHatch
 10
0.0
 20
0.0
 30
0.0
210
0.0
220
0.0
230
1.0
  2
SOLID
 70
     1
 71
     0
 91
        1
 92
        7
 72
     1
 73
     1
 93
        2
 10
1736.021839458868
 20
947.8210122767187
 42
1.0
 10
1736.021839458868
 20
957.8210122767186
 42
1.0
 97
        0
 75
     0
 76
     1
 47
0.2779191024150841
 98
        1
 10
1735.572341997817
 20
954.2364476463863
  0
LINE
  5
9CB6
330
1F
100
AcDbEntity
  8
実形
  6
ACAD_ISO08W100
 48
0.5
100
AcDbLine
 10
938.0239931742755
 20
1294.515272502349
 30
0.0
 11
938.0239931742758
 21
1208.886652782687
 31
0.0
  0
TEXT
  5
9CE3
330
1F
100
AcDbEntity
  8
実形
370
    18
100
AcDbText
 10
924.9428815936562
 20
1300.800802590812
 30
0.0
 40
40.0
  1
B
100
AcDbText
  0
TEXT
  5
9CEC
330
1F
100
AcDbEntity
  8
実形
370
    18
100
AcDbText
 10
925.8768541839099
 20
1166.192334233976
 30
0.0
 40
40.0
  1
B´
100
AcDbText
  0
LINE
  5
9E5B
330
1F
100
AcDbEntity
  8
実形
100
AcDbLine
 10
2342.629956685867
 20
557.5221228905047
 30
0.0
 11
2342.629956685867
 21
587.5221228905047
 31
0.0
  0
ARC
  5
9F49
330
1F
100
AcDbEntity
  8
実形
100
AcDbCircle
 10
2132.629956685867
 20
1443.46813636045
 30
0.0
 40
50.0
100
AcDbArc
 50
90.0
 51
180.0
  0
LINE
  5
9F4A
330
1F
100
AcDbEntity
  8
実形
100
AcDbLine
 10
2672.629956685868
 20
1373.46813636045
 30
0.0
 11
2572.629956685867
 21
1373.46813636045
 31
0.0
  0
LINE
  5
9F4B
330
1F
100
AcDbEntity
  8
実形
100
AcDbLine
 10
2522.629956685868
 20
1373.46813636045
 30
0.0
 11
2412.629956685868
 21
1373.46813636045
 31
0.0
  0
LINE
  5
9F4C
330
1F
100
AcDbEntity
  8
実形
100
AcDbLine
 10
2132.629956685867
 20
1373.46813636045
 30
0.0
 11
2082.629956685868
 21
1373.46813636045
 31
0.0
  0
LINE
  5
9F4D
330
1F
100
AcDbEntity
  8
実形
100
AcDbLine
 10
2389.709095631477
 20
1413.46813636045
 30
0.0
 11
2139.708427923032
 21
1413.46813636045
 31
0.0
  0
LINE
  5
9F4E
330
1F
100
AcDbEntity
  8
実形
100
AcDbLine
 10
2389.709095631477
 20
1403.46813636045
 30
0.0
 11
2149.708427923032
 21
1403.46813636045
 31
0.0
  0
LINE
  5
9F4F
330
1F
100
AcDbEntity
  8
実形
100
AcDbLine
 10
2412.629956685868
 20
1423.46813636045
 30
0.0
 11
2402.629956685867
 21
1423.46813636045
 31
0.0
  0
LINE
  5
9F50
330
1F
100
AcDbEntity
  8
実形
100
AcDbLine
 10
2362.629956685867
 20
1423.46813636045
 30
0.0
 11
2132.629956685867
 21
1423.46813636045
 31
0.0
  0
LINE
  5
9F51
330
1F
100
AcDbEntity
  8
実形
100
AcDbLine
 10
2082.629956685868
 20
1373.46813636045
 30
0.0
 11
2082.629956685868
 21
1443.46813636045
 31
0.0
  0
LINE
  5
9F52
330
1F
100
AcDbEntity
  8
実形
100
AcDbLine
 10
2132.629956685867
 20
1373.46813636045
 30
0.0
 11
2132.629956685867
 21
1423.46813636045
 31
0.0
  0
LINE
  5
9F54
330
1F
100
AcDbEntity
  8
実形
100
AcDbLine
 10
2412.629956685868
 20
1373.46813636045
 30
0.0
 11
2412.629956685868
 21
1423.46813636045
 31
0.0
  0
TEXT
  5
9F55
330
1F
100
AcDbEntity
  8
実形
100
AcDbText
 10
2724.969696966184
 20
1282.814177525551
 30
0.0
 40
30.0
  1
糸面
 11
2724.969696966184
 21
1278.814177525552
 31
0.0
100
AcDbText
 73
     1
  0
TEXT
  5
9F56
330
1F
100
AcDbEntity
  8
実形
100
AcDbText
 10
2725.987333389652
 20
1560.826426751022
 30
0.0
 40
30.0
  1
5C
 11
2725.987333389652
 21
1556.826426751022
 31
0.0
100
AcDbText
 73
     1
  0
ARC
  5
9F57
330
1F
100
AcDbEntity
  8
実形
100
AcDbCircle
 10
2547.629956685868
 20
1373.46813636045
 30
0.0
 40
25.0
100
AcDbArc
 50
0.0
 51
180.0
  0
TEXT
  5
9F58
330
1F
100
AcDbEntity
  8
実形
100
AcDbText
 10
1987.094430563404
 20
1563.847721698152
 30
0.0
 40
30.0
  1
5R
 11
1987.094430563404
 21
1559.847721698153
 31
0.0
100
AcDbText
 73
     1
  0
TEXT
  5
9F59
330
1F
100
AcDbEntity
  8
実形
100
AcDbText
 10
1943.869354963837
 20
1268.493595341773
 30
0.0
 40
30.0
  1
糸面
 11
1943.869354963837
 21
1264.493595341773
 31
0.0
100
AcDbText
 73
     1
  0
ARC
  5
9F5A
330
1F
100
AcDbEntity
  8
実形
100
AcDbCircle
 10
2382.629956685867
 20
1423.46813636045
 30
0.0
 40
20.0
100
AcDbArc
 50
0.0
 51
180.0
  0
LINE
  5
9F5B
330
1F
100
AcDbEntity
  8
実形
100
AcDbLine
 10
2331.534978282187
 20
1443.46813636045
 30
0.0
 11
2331.534978282187
 21
1423.46813636045
 31
0.0
  0
TEXT
  5
9F5C
330
1F
100
AcDbEntity
  8
実形
  6
HIDDEN2
100
AcDbText
 10
2337.25594016092
 20
1436.131540026197
 30
0.0
 40
13.0
  1
● 
 71
     2
100
AcDbText
  0
TEXT
  5
9F5D
330
1F
100
AcDbEntity
  8
実形
  6
HIDDEN2
100
AcDbText
 10
2337.634129305806
 20
1417.227944343329
 30
0.0
 40
13.0
  1
● 
 71
     2
100
AcDbText
  0
LINE
  5
9F5F
330
1F
100
AcDbEntity
  8
実形
100
AcDbLine
 10
2172.629956685868
 20
1295.041111300541
 30
0.0
 11
2442.629956685868
 21
1295.041111300541
 31
0.0
  0
LINE
  5
9F60
330
1F
100
AcDbEntity
  8
実形
100
AcDbLine
 10
2442.629956685868
 20
1295.041111300541
 30
0.0
 11
2442.629956685868
 21
1365.041111300541
 31
0.0
  0
LINE
  5
9F61
330
1F
100
AcDbEntity
  8
実形
100
AcDbLine
 10
2442.629956685868
 20
1365.041111300541
 30
0.0
 11
2342.629956685867
 21
1365.041111300541
 31
0.0
  0
LINE
  5
9F62
330
1F
100
AcDbEntity
  8
実形
100
AcDbLine
 10
2342.629956685867
 20
1365.041111300541
 30
0.0
 11
2342.629956685867
 21
1395.041111300541
 31
0.0
  0
LINE
  5
9F63
330
1F
100
AcDbEntity
  8
実形
100
AcDbLine
 10
2342.629956685867
 20
1395.041111300541
 30
0.0
 11
2172.629956685868
 21
1395.041111300541
 31
0.0
  0
LINE
  5
9F66
330
1F
100
AcDbEntity
  8
実形
100
AcDbLine
 10
2389.709095631477
 20
1413.46813636045
 30
0.0
 11
2389.709095631477
 21
1403.46813636045
 31
0.0
  0
TEXT
  5
9F67
330
1F
100
AcDbEntity
  8
実形
100
AcDbText
 10
2512.780677435681
 20
1180.615912269139
 30
0.0
 40
30.0
  1
ホルダーリング
 11
2512.780677435681
 21
1176.615912269139
 31
0.0
100
AcDbText
 73
     1
  0
LEADER
  5
9F68
330
1F
100
AcDbEntity
  8
実形
100
AcDbLeader
  3
ISO-25
 76
     2
 10
2363.940114057884
 20
1320.89082871765
 30
0.0
 10
2546.983673998198
 20
1233.921669417102
 30
0.0
1001
ACAD
1000
DSTYLE
1002
{
1070
    77
1070
     0
1070
    41
1040
25.0
1070
    42
1040
6.0
1070
   140
1040
3.0
1070
   147
1040
1.199999999999999
1070
   279
1070
     2
1070
   289
1070
     2
1070
   371
1070
    13
1070
   372
1070
    13
1002
}
  0
TEXT
  5
9F69
330
1F
100
AcDbEntity
  8
実形
100
AcDbText
 10
2010.101274119607
 20
1052.933026242432
 30
0.0
 40
30.0
  1
シンク厚1.0ｍｍ
 11
2010.101274119607
 21
1048.933026242432
 31
0.0
100
AcDbText
 73
     1
  0
DIMENSION
  5
9F6A
330
1F
100
AcDbEntity
  8
実形
100
AcDbDimension
  2
*D33
 10
2132.629956685867
 20
1312.425214153543
 30
0.0
 11
2108.744931551634
 21
1312.425214153543
 31
0.0
 70
   160
  1
5
 71
     5
 42
50.0
  3
ISO-25
100
AcDbAlignedDimension
 13
2082.629956685868
 23
1407.90806503713
 33
0.0
 14
2132.629956685867
 24
1407.90806503713
 34
0.0
100
AcDbRotatedDimension
1001
ACAD
1000
DSTYLE
1002
{
1070
   371
1070
    18
1070
   372
1070
    18
1002
}
  0
DIMENSION
  5
9F6B
330
1F
100
AcDbEntity
  8
実形
100
AcDbDimension
  2
*D34
 10
2018.255758094706
 20
1373.46813636045
 30
0.0
 11
1999.505758094706
 21
1433.46813636045
 31
0.0
 70
    32
  1
12
 71
     5
 42
120.0
  3
ISO-25
100
AcDbAlignedDimension
 13
2120.780658627266
 23
1493.46813636045
 33
0.0
 14
2115.431441622709
 24
1373.46813636045
 34
0.0
 50
90.0
100
AcDbRotatedDimension
1001
ACAD
1000
DSTYLE
1002
{
1070
   371
1070
    18
1070
   372
1070
    18
1002
}
  0
LEADER
  5
9F6C
330
1F
100
AcDbEntity
  8
実形
100
AcDbLeader
  3
ISO-25
 76
     2
 10
2087.007190828746
 20
1487.310290285351
 30
0.0
 10
2018.842419347582
 20
1555.447272093922
 30
0.0
1001
ACAD
1000
DSTYLE
1002
{
1070
   147
1040
6.25
1070
    77
1070
     0
1070
   371
1070
    18
1070
   372
1070
    18
1002
}
  0
DIMENSION
  5
9F6D
330
1F
100
AcDbEntity
  8
実形
100
AcDbDimension
  2
*D35
 10
2672.629956685868
 20
1317.826460993688
 30
0.0
 11
2622.629956685868
 21
1336.576460993688
 31
0.0
 70
    32
  1
10
 71
     5
 42
99.99999999999955
  3
ISO-25
100
AcDbAlignedDimension
 13
2572.629956685868
 23
1406.087342653236
 33
0.0
 14
2672.629956685868
 24
1406.087342653236
 34
0.0
100
AcDbRotatedDimension
1001
ACAD
1000
DSTYLE
1002
{
1070
   371
1070
    18
1070
   372
1070
    18
1002
}
  0
DIMENSION
  5
9F6E
330
1F
100
AcDbEntity
  8
実形
100
AcDbDimension
  2
*D36
 10
2572.480808253705
 20
1317.826460993688
 30
0.0
 11
2547.555382469786
 21
1317.826460993688
 31
0.0
 70
   160
  1
5
 71
     5
 42
49.85085156783725
  3
ISO-25
100
AcDbAlignedDimension
 13
2522.629956685868
 23
1406.087342653236
 33
0.0
 14
2572.480808253705
 24
1406.087342653236
 34
0.0
100
AcDbRotatedDimension
1001
ACAD
1000
DSTYLE
1002
{
1070
   371
1070
    18
1070
   372
1070
    18
1002
}
  0
LINE
  5
9F6F
330
1F
100
AcDbEntity
  8
実形
100
AcDbLine
 10
2132.629956685868
 20
1493.46813636045
 30
0.0
 11
2622.629956685869
 21
1493.46813636045
 31
0.0
  0
LINE
  5
9F70
330
1F
100
AcDbEntity
  8
実形
100
AcDbLine
 10
2493.793011147388
 20
1373.78063636045
 30
0.0
 11
2493.793011147388
 21
1398.15563636045
 31
0.0
  0
LINE
  5
9F71
330
1F
100
AcDbEntity
  8
実形
100
AcDbLine
 10
2493.793011147388
 20
1398.15563636045
 30
0.0
 11
2526.377735730651
 21
1398.15563636045
 31
0.0
  0
DIMENSION
  5
9F72
330
1F
100
AcDbEntity
  8
実形
100
AcDbDimension
  2
*D37
 10
2412.629956685868
 20
1555.937152238969
 30
0.0
 11
2257.629956685868
 21
1555.937152238969
 31
0.0
 70
   160
  1
28
 71
     5
 42
280.0
  3
ISO-25
100
AcDbAlignedDimension
 13
2132.629956685868
 23
1460.687955876822
 33
0.0
 14
2412.629956685868
 24
1467.66487381606
 34
0.0
100
AcDbRotatedDimension
1001
ACAD
1000
DSTYLE
1002
{
1070
   371
1070
    18
1070
   372
1070
    18
1002
}
  0
DIMENSION
  5
9F73
330
1F
100
AcDbEntity
  8
実形
100
AcDbDimension
  2
*D38
 10
2672.629956685868
 20
1616.84228272532
 30
0.0
 11
2377.629956685868
 21
1635.59228272532
 31
0.0
 70
    32
  1
60
 71
     5
 42
590.0
  3
ISO-25
100
AcDbAlignedDimension
 13
2082.629956685868
 23
1462.881856526976
 33
0.0
 14
2672.629956685868
 24
1456.881856526976
 34
0.0
100
AcDbRotatedDimension
1001
ACAD
1000
DSTYLE
1002
{
1070
   371
1070
    18
1070
   372
1070
    18
1002
}
  0
LINE
  5
9F74
330
1F
100
AcDbEntity
  8
実形
100
AcDbLine
 10
2672.629956685868
 20
1443.468136360451
 30
0.0
 11
2672.629956685868
 21
1373.46813636045
 31
0.0
  0
LINE
  5
9F75
330
1F
100
AcDbEntity
  8
実形
100
AcDbLine
 10
2622.629956685868
 20
1493.46813636045
 30
0.0
 11
2672.629956685868
 21
1443.46813636045
 31
0.0
  0
DIMENSION
  5
9F76
330
1F
100
AcDbEntity
  8
実形
100
AcDbDimension
  2
*D39
 10
2744.140284938466
 20
1443.46813636045
 30
0.0
 11
2725.390284938466
 21
1468.468136360451
 31
0.0
 70
    32
  1
5
 71
     5
 42
50.0
  3
ISO-25
100
AcDbAlignedDimension
 13
2636.032322324599
 23
1493.46813636045
 33
0.0
 14
2636.032322324599
 24
1443.46813636045
 34
0.0
 50
90.0
100
AcDbRotatedDimension
1001
ACAD
1000
DSTYLE
1002
{
1070
   371
1070
    18
1070
   372
1070
    18
1002
}
  0
DIMENSION
  5
9F77
330
1F
100
AcDbEntity
  8
実形
100
AcDbDimension
  2
*D40
 10
2672.629956685868
 20
1569.362069626148
 30
0.0
 11
2647.629956685868
 21
1588.112069626148
 31
0.0
 70
    32
  1
5
 71
     5
 42
50.0
  3
ISO-25
100
AcDbAlignedDimension
 13
2622.629956685868
 23
1456.881856526976
 33
0.0
 14
2672.629956685868
 24
1456.881856526976
 34
0.0
100
AcDbRotatedDimension
1001
ACAD
1000
DSTYLE
1002
{
1070
   371
1070
    18
1070
   372
1070
    18
1002
}
  0
TEXT
  5
9F78
330
1F
100
AcDbEntity
  8
実形
  6
HIDDEN2
100
AcDbText
 10
2499.675476734704
 20
1390.3511948056
 30
0.0
 40
13.0
  1
● 
 71
     2
100
AcDbText
  0
TEXT
  5
9F79
330
1F
100
AcDbEntity
  8
実形
  6
HIDDEN2
100
AcDbText
 10
2499.197848633644
 20
1367.909233920425
 30
0.0
 40
13.0
  1
● 
 71
     2
100
AcDbText
  0
DIMENSION
  5
9F7A
330
1F
100
AcDbEntity
  8
実形
100
AcDbDimension
  2
*D41
 10
2455.858320481269
 20
1373.46813636045
 30
0.0
 11
2437.108320481268
 21
1398.46813636045
 31
0.0
 70
    32
  1
5
 71
     5
 42
50.0
  3
ISO-25
100
AcDbAlignedDimension
 13
2361.340982258765
 23
1423.46813636045
 33
0.0
 14
2361.340982258765
 24
1373.46813636045
 34
0.0
 50
90.0
100
AcDbRotatedDimension
1001
ACAD
1000
DSTYLE
1002
{
1070
   371
1070
    18
1070
   372
1070
    18
1002
}
  0
LEADER
  5
9F7B
330
1F
100
AcDbEntity
  8
実形
100
AcDbLeader
  3
ISO-25
 76
     2
 10
2073.350151099553
 20
1363.891423560321
 30
0.0
 10
1996.033838461473
 20
1315.334719217411
 30
0.0
1001
ACAD
1000
DSTYLE
1002
{
1070
   147
1040
6.25
1070
    77
1070
     0
1070
   371
1070
    18
1070
   372
1070
    18
1002
}
  0
TEXT
  5
9F7C
330
1F
100
AcDbEntity
  8
実形
100
AcDbText
 10
2484.949494596957
 20
1379.685524134586
 30
0.0
 40
25.0
  1
3
 50
90.0
 11
2488.282827930291
 21
1379.685524134586
 31
0.0
100
AcDbText
 73
     1
  0
LEADER
  5
9F7D
330
1F
100
AcDbEntity
  8
実形
100
AcDbLeader
  3
ISO-25
 76
     2
 10
2677.534119859479
 20
1368.553387284008
 30
0.0
 10
2753.284284346027
 20
1320.98617550354
 30
0.0
1001
ACAD
1000
DSTYLE
1002
{
1070
   147
1040
6.25
1070
    77
1070
     0
1070
   371
1070
    18
1070
   372
1070
    18
1002
}
  0
LEADER
  5
9F7E
330
1F
100
AcDbEntity
  8
実形
100
AcDbLeader
  3
ISO-25
 76
     2
 10
2657.985603398088
 20
1485.998855391381
 30
0.0
 10
2736.692816950461
 20
1550.125312404016
 30
0.0
1001
ACAD
1000
DSTYLE
1002
{
1070
   147
1040
6.25
1070
    77
1070
     0
1070
   371
1070
    18
1070
   372
1070
    18
1002
}
  0
LEADER
  5
9F7F
330
1F
100
AcDbEntity
  8
実形
100
AcDbLeader
  3
ISO-25
 76
     2
 10
2135.198775279802
 20
1205.56668527877
 30
0.0
 10
2064.511604217347
 20
1098.523841197397
 30
0.0
1001
ACAD
1000
DSTYLE
1002
{
1070
   147
1040
6.25
1070
    77
1070
     0
1070
   371
1070
    18
1070
   372
1070
    18
1002
}
  0
TEXT
  5
9F80
330
1F
100
AcDbEntity
  8
実形
100
AcDbText
 10
2314.852351549763
 20
1431.54609761866
 30
0.0
 40
25.0
  1
2
 50
90.0
 11
2318.185684883097
 21
1431.54609761866
 31
0.0
100
AcDbText
 73
     1
  0
LINE
  5
9F81
330
1F
100
AcDbEntity
  8
実形
100
AcDbLine
 10
2331.596822217273
 20
1442.379399466119
 30
0.0
 11
2355.761914024543
 21
1442.379399466119
 31
0.0
  0
DIMENSION
  5
9F82
330
1F
100
AcDbEntity
  8
実形
100
AcDbDimension
  2
*D42
 10
2442.629956685868
 20
1240.769466965832
 30
0.0
 11
2307.629956685868
 21
1259.519466965832
 31
0.0
 70
    32
  1
27
 71
     5
 42
270.0
  3
ISO-25
100
AcDbAlignedDimension
 13
2172.629956685868
 23
1329.233495708578
 33
0.0
 14
2442.629956685868
 24
1329.233495708578
 34
0.0
100
AcDbRotatedDimension
1001
ACAD
1000
DSTYLE
1002
{
1070
   371
1070
    18
1070
   372
1070
    18
1002
}
  0
DIMENSION
  5
9F83
330
1F
100
AcDbEntity
  8
実形
100
AcDbDimension
  2
*D43
 10
2480.342061978752
 20
1295.041111300541
 30
0.0
 11
2461.592061978751
 21
1330.041111300541
 31
0.0
 70
    32
  1
7
 71
     5
 42
70.0
  3
ISO-25
100
AcDbAlignedDimension
 13
2397.104011657428
 23
1365.041111300541
 33
0.0
 14
2397.503965980345
 24
1295.041111300541
 34
0.0
 50
90.0
100
AcDbRotatedDimension
1001
ACAD
1000
DSTYLE
1002
{
1070
   371
1070
    18
1070
   372
1070
    18
1002
}
  0
TEXT
  5
9F84
330
1F
100
AcDbEntity
  8
実形
370
    18
100
AcDbText
 10
1955.139579027895
 20
1686.438750145985
 30
0.0
 40
40.0
  1
A-A\U+00b4断面詳細図(1/1)
100
AcDbText
  0
LINE
  5
9F85
330
1F
100
AcDbEntity
  8
実形
100
AcDbLine
 10
2328.806280263822
 20
1365.041111300541
 30
0.0
 11
2311.830581967568
 21
1365.041111300541
 31
0.0
  0
LINE
  5
9F86
330
1F
100
AcDbEntity
  8
実形
100
AcDbLine
 10
2311.830581967568
 20
1365.041111300541
 30
0.0
 11
2311.830581967568
 21
1395.041111300541
 31
0.0
  0
TEXT
  5
9F87
330
1F
100
AcDbEntity
  8
実形
  6
HIDDEN2
100
AcDbText
 10
2317.696491144609
 20
1359.169521398737
 30
0.0
 40
13.0
  1
● 
 71
     2
100
AcDbText
  0
TEXT
  5
9F88
330
1F
100
AcDbEntity
  8
実形
  6
HIDDEN2
100
AcDbText
 10
2317.496913150539
 20
1387.699691273255
 30
0.0
 40
13.0
  1
● 
 71
     2
100
AcDbText
  0
TEXT
  5
9F89
330
1F
100
AcDbEntity
  8
実形
100
AcDbText
 10
2292.377315999641
 20
1365.865785320277
 30
0.0
 40
25.0
  1
3
 50
90.0
 11
2295.710649332975
 21
1365.865785320277
 31
0.0
100
AcDbText
 73
     1
  0
LINE
  5
9F8A
330
1F
100
AcDbEntity
  8
実形
100
AcDbLine
 10
2362.118403511665
 20
1441.013922732617
 30
0.0
 11
2362.118403511665
 21
1453.581104947198
 31
0.0
  0
LINE
  5
9F8B
330
1F
100
AcDbEntity
  8
実形
100
AcDbLine
 10
2362.118403511665
 20
1453.581104947198
 30
0.0
 11
2412.118403511664
 21
1453.581104947198
 31
0.0
  0
LINE
  5
9F8C
330
1F
100
AcDbEntity
  8
実形
100
AcDbLine
 10
2412.118403511664
 20
1453.581104947198
 30
0.0
 11
2412.118403511664
 21
1441.013922732617
 31
0.0
  0
LINE
  5
9F8D
330
1F
100
AcDbEntity
  8
実形
100
AcDbLine
 10
2402.118403511665
 20
1453.581104947198
 30
0.0
 11
2402.118403511665
 21
1441.013922732617
 31
0.0
  0
TEXT
  5
9F8E
330
1F
100
AcDbEntity
  8
実形
370
    18
100
AcDbText
 10
2359.331148429733
 20
1465.068042038973
 30
0.0
 40
21.0
  1
4
100
AcDbText
  0
TEXT
  5
9F8F
330
1F
100
AcDbEntity
  8
実形
  6
HIDDEN2
100
AcDbText
 10
2368.048485053369
 20
1447.349545495031
 30
0.0
 40
11.0
  1
● 
 71
     2
100
AcDbText
  0
TEXT
  5
9F90
330
1F
100
AcDbEntity
  8
実形
  6
HIDDEN2
100
AcDbText
 10
2407.493537023377
 20
1447.154756495021
 30
0.0
 40
11.0
  1
● 
 71
     2
100
AcDbText
  0
TEXT
  5
9F91
330
1F
100
AcDbEntity
  8
実形
  6
HIDDEN2
100
AcDbText
 10
2417.355663153967
 20
1447.376310395795
 30
0.0
 40
11.0
  1
● 
 71
     2
100
AcDbText
  0
TEXT
  5
9F92
330
1F
100
AcDbEntity
  8
実形
370
    18
100
AcDbText
 10
2402.641997865286
 20
1464.219073338246
 30
0.0
 40
21.0
  1
1
100
AcDbText
  0
DIMENSION
  5
9F93
330
1F
100
AcDbEntity
  8
実形
100
AcDbDimension
  2
*D44
 10
2522.629956685868
 20
1555.937152238969
 30
0.0
 11
2467.629956685867
 21
1574.687152238969
 31
0.0
 70
    32
  1
12
 71
     5
 42
110.0
  3
ISO-25
100
AcDbAlignedDimension
 13
2412.629956685868
 23
1463.353156356921
 33
0.0
 14
2522.629956685868
 24
1461.907699655111
 34
0.0
100
AcDbRotatedDimension
1001
ACAD
1000
DSTYLE
1002
{
1070
   371
1070
    18
1070
   372
1070
    18
1002
}
  0
LINE
  5
A25D
330
1F
100
AcDbEntity
  8
実形
100
AcDbLine
 10
1250.633993174276
 20
1280.193471705118
 30
0.0
 11
625.4139931742749
 21
1280.193471705118
 31
0.0
  0
LINE
  5
A25E
330
1F
100
AcDbEntity
  8
実形
100
AcDbLine
 10
1268.023993174276
 20
1273.693471705118
 30
0.0
 11
1250.633993174276
 21
1280.193471705118
 31
0.0
  0
LINE
  5
A25F
330
1F
100
AcDbEntity
  8
実形
100
AcDbLine
 10
608.0239931742749
 20
1273.693471705118
 30
0.0
 11
625.4139931742749
 21
1280.193471705118
 31
0.0
  0
LINE
  5
A261
330
1F
100
AcDbEntity
  8
実形
100
AcDbLine
 10
1250.633993174276
 20
1667.193471705118
 30
0.0
 11
625.4139931742749
 21
1667.193471705118
 31
0.0
  0
LINE
  5
A262
330
1F
100
AcDbEntity
  8
実形
100
AcDbLine
 10
1268.023993174276
 20
1673.693471705118
 30
0.0
 11
1250.633993174276
 21
1667.193471705118
 31
0.0
  0
LINE
  5
A263
330
1F
100
AcDbEntity
  8
実形
100
AcDbLine
 10
608.0239931742749
 20
1673.693471705119
 30
0.0
 11
625.4139931742749
 21
1667.193471705118
 31
0.0
  0
TEXT
  5
A26D
330
1F
100
AcDbEntity
  8
実形
100
AcDbText
 10
584.4620825481324
 20
1330.578211490054
 30
0.0
 40
25.0
  1
リブ凸部は拡大強調
 72
     2
 11
847.7954158814657
 21
1327.244878156721
 31
0.0
100
AcDbText
 73
     1
  0
LINE
  5
A2E2
330
1F
100
AcDbEntity
  8
実形
100
AcDbLine
 10
1687.740655788395
 20
1268.693471705117
 30
0.0
 11
1628.22652466572
 21
1268.693471705117
 31
0.0
  0
LINE
  5
A2E4
330
1F
100
AcDbEntity
  8
実形
100
AcDbLine
 10
1725.519518606386
 20
1619.193471705118
 30
0.0
 11
1725.519518606386
 21
1438.193471705118
 31
0.0
  0
LINE
  5
A2E5
330
1F
100
AcDbEntity
  8
実形
  6
ACAD_ISO08W100
 48
0.5
100
AcDbLine
 10
1655.964126187263
 20
1528.693471705118
 30
0.0
 11
1765.950460068293
 21
1528.693471705118
 31
0.0
  0
LINE
  5
A2E6
330
1F
100
AcDbEntity
  8
実形
100
AcDbLine
 10
1725.519518606386
 20
1438.193471705118
 30
0.0
 11
1725.519518606386
 21
1619.193471705118
 31
0.0
  0
LINE
  5
A2E7
330
1F
100
AcDbEntity
  8
実形
100
AcDbLine
 10
1735.519518606386
 20
1438.193471705118
 30
0.0
 11
1735.519518606386
 21
1619.193471705118
 31
0.0
  0
LINE
  5
A2E8
330
1F
100
AcDbEntity
  8
実形
100
AcDbLine
 10
1725.519518606386
 20
1438.193471705118
 30
0.0
 11
1735.519518606386
 21
1438.193471705118
 31
0.0
  0
DIMENSION
  5
A2E9
330
1F
100
AcDbEntity
  8
実形
100
AcDbDimension
  2
*D45
 10
1809.784671999769
 20
1607.693471705118
 30
0.0
 11
1788.184671999769
 21
1528.693471705119
 31
0.0
 70
    32
 71
     5
 42
158.0
  3
ISO-25
100
AcDbAlignedDimension
 13
1718.386433759945
 23
1449.693471705118
 33
0.0
 14
1718.386433759945
 24
1607.693471705118
 34
0.0
 50
90.0
100
AcDbRotatedDimension
1001
ACAD
1000
DSTYLE
1002
{
1070
    41
1040
10.0
1070
   140
1040
30.0
1070
   147
1040
6.599999999999998
1070
   279
1070
     2
1070
   342
1005
30D
1070
   371
1070
    18
1070
   372
1070
    18
1002
}
  0
DIMENSION
  5
A2EA
330
1F
100
AcDbEntity
  8
実形
100
AcDbDimension
  2
*D46
 10
1631.278371321998
 20
1619.193471705118
 30
0.0
 11
1609.678371321998
 21
1528.693471705119
 31
0.0
 70
    32
 71
     5
 42
181.0
  3
ISO-25
100
AcDbAlignedDimension
 13
1725.519518606386
 23
1438.193471705118
 33
0.0
 14
1725.519518606386
 24
1619.193471705118
 34
0.0
 50
90.0
100
AcDbRotatedDimension
1001
ACAD
1000
DSTYLE
1002
{
1070
    41
1040
10.0
1070
   140
1040
30.0
1070
   147
1040
6.599999999999998
1070
   279
1070
     2
1070
   342
1005
30D
1070
   371
1070
    18
1070
   372
1070
    18
1002
}
  0
DIMENSION
  5
A2EB
330
1F
100
AcDbEntity
  8
実形
100
AcDbDimension
  2
*D47
 10
1631.278371321998
 20
1619.193471705118
 30
0.0
 11
1609.678371321998
 21
1429.966859599051
 31
0.0
 70
   160
  1
10
 71
     5
 42
191.0
  3
ISO-25
100
AcDbAlignedDimension
 13
1725.519518606386
 23
1428.193471705118
 33
0.0
 14
1725.519518606386
 24
1619.193471705118
 34
0.0
 50
90.0
100
AcDbRotatedDimension
1001
ACAD
1000
DSTYLE
1002
{
1070
    41
1040
10.0
1070
   140
1040
30.0
1070
   147
1040
6.599999999999998
1070
   279
1070
     2
1070
   342
1005
30D
1070
   371
1070
    18
1070
   372
1070
    18
1002
}
  0
DIMENSION
  5
A2EC
330
1F
100
AcDbEntity
  8
実形
100
AcDbDimension
  2
*D48
 10
1631.278371321998
 20
1629.193471705118
 30
0.0
 11
1606.779321843407
 21
1608.402582895716
 31
0.0
 70
   160
  1
10
 71
     5
 42
191.0
  3
ISO-25
100
AcDbAlignedDimension
 13
1725.519518606386
 23
1438.193471705118
 33
0.0
 14
1725.519518606386
 24
1629.193471705118
 34
0.0
 50
90.0
100
AcDbRotatedDimension
1001
ACAD
1000
DSTYLE
1002
{
1070
    41
1040
10.0
1070
   140
1040
30.0
1070
   147
1040
6.599999999999998
1070
   279
1070
     2
1070
   342
1005
30D
1070
   371
1070
    18
1070
   372
1070
    18
1002
}
  0
LINE
  5
A2ED
330
1F
100
AcDbEntity
  8
実形
100
AcDbLine
 10
1725.519518606386
 20
1438.193471705118
 30
0.0
 11
1707.602866839676
 21
1286.349847982253
 31
0.0
  0
ARC
  5
A2EE
330
1F
100
AcDbEntity
  8
実形
100
AcDbCircle
 10
1687.740655788395
 20
1288.693471705117
 30
0.0
 40
20.0
100
AcDbArc
 50
270.0
 51
353.270551425253
  0
TEXT
  5
A2EF
330
1F
100
AcDbEntity
  8
実形
100
AcDbText
 10
1602.984996386373
 20
1339.268400539195
 30
0.0
 40
25.0
  1
20R
 72
     2
 11
1665.484996386373
 21
1335.935067205862
 31
0.0
100
AcDbText
 73
     1
  0
LEADER
  5
A2F0
330
1F
100
AcDbEntity
  8
実形
100
AcDbLeader
  3
ISO-25
 76
     2
 10
1692.026349113704
 20
1277.596843713448
 30
0.0
 10
1637.852479778644
 20
1333.39425521858
 30
0.0
1001
ACAD
1000
DSTYLE
1002
{
1070
    77
1070
     0
1070
    41
1040
10.0
1070
   140
1040
30.0
1070
   147
1040
6.599999999999998
1070
   279
1070
     2
1070
   342
1005
30D
1070
   371
1070
    18
1070
   372
1070
    18
1002
}
  0
TEXT
  5
A2F1
330
1F
100
AcDbEntity
  8
実形
100
AcDbText
 10
1620.515924085647
 20
1638.22916506052
 30
0.0
 40
25.0
  1
20R
 72
     2
 11
1683.015924085647
 21
1634.895831727187
 31
0.0
100
AcDbText
 73
     1
  0
LEADER
  5
A2F2
330
1F
100
AcDbEntity
  8
実形
100
AcDbLeader
  3
ISO-25
 76
     2
 10
1707.162512869706
 20
1670.339505663913
 30
0.0
 10
1686.302474885821
 20
1654.659865415539
 30
0.0
1001
ACAD
1000
DSTYLE
1002
{
1070
    77
1070
     0
1070
    41
1040
10.0
1070
   140
1040
30.0
1070
   147
1040
6.599999999999998
1070
   279
1070
     2
1070
   342
1005
30D
1070
   371
1070
    18
1070
   372
1070
    18
1002
}
  0
ARC
  5
A2F3
330
1F
100
AcDbEntity
  8
実形
100
AcDbCircle
 10
1698.600364207984
 20
1658.693471705118
 30
0.0
 40
20.0
100
AcDbArc
 50
9.540381804844471
 51
90.0
  0
LINE
  5
A2F4
330
1F
100
AcDbEntity
  8
実形
100
AcDbLine
 10
1725.519518606386
 20
1619.193471705118
 30
0.0
 11
1718.323744843639
 21
1662.008325593463
 31
0.0
  0
LINE
  5
A2F5
330
1F
100
AcDbEntity
  8
実形
100
AcDbLine
 10
1628.22652466572
 20
1268.693471705118
 30
0.0
 11
1638.207248668262
 21
1268.693471705118
 31
0.0
  0
ARC
  5
A2F6
330
1F
100
AcDbEntity
  8
実形
100
AcDbCircle
 10
1628.22652466572
 20
1288.693471705118
 30
0.0
 40
20.0
100
AcDbArc
 50
260.2432215224316
 51
270.0
  0
LINE
  5
A2F7
330
1F
100
AcDbEntity
  8
実形
100
AcDbLine
 10
1583.56006299753
 20
1267.691108258308
 30
0.0
 11
1540.519518606386
 21
1268.531946085506
 31
0.0
  0
LINE
  5
A2F9
330
1F
100
AcDbEntity
  8
実形
100
AcDbLine
 10
1585.591516835428
 20
1269.516415228768
 30
0.0
 11
1585.843050960194
 21
1272.391463430771
 31
0.0
  0
ARC
  5
A2FA
330
1F
100
AcDbEntity
  8
実形
100
AcDbCircle
 10
1583.599127439244
 20
1269.690726714263
 30
0.0
 40
2.0
100
AcDbArc
 50
268.8808150097333
 51
355.0000000000006
  0
LINE
  5
A2FB
330
1F
100
AcDbEntity
  8
実形
100
AcDbLine
 10
1624.837202653725
 20
1268.982751365693
 30
0.0
 11
1589.340033356269
 21
1275.086604253442
 31
0.0
  0
ARC
  5
A2FC
330
1F
100
AcDbEntity
  8
実形
100
AcDbCircle
 10
1588.831635054469
 20
1272.129996202528
 30
0.0
 40
3.0
100
AcDbArc
 50
80.24322152243161
 51
175.0000000000005
  0
LINE
  5
A2FD
330
1F
100
AcDbEntity
  8
実形
100
AcDbLine
 10
1628.141174362754
 20
1267.693471705118
 30
0.0
 11
1628.092082843792
 21
1267.693471705118
 31
0.0
  0
LINE
  5
A300
330
1F
100
AcDbEntity
  8
実形
100
AcDbLine
 10
1687.740655788395
 20
1678.693471705118
 30
0.0
 11
1628.22652466572
 21
1678.693471705118
 31
0.0
  0
ARC
  5
A301
330
1F
100
AcDbEntity
  8
実形
100
AcDbCircle
 10
1628.22652466572
 20
1658.693471705118
 30
0.0
 40
20.0
100
AcDbArc
 50
90.0
 51
99.75677847756839
  0
LINE
  5
A302
330
1F
100
AcDbEntity
  8
実形
100
AcDbLine
 10
1583.56006299753
 20
1679.695835151927
 30
0.0
 11
1540.519518606386
 21
1678.85499732473
 31
0.0
  0
LINE
  5
A303
330
1F
100
AcDbEntity
  8
実形
100
AcDbLine
 10
1585.591516835428
 20
1677.870528181468
 30
0.0
 11
1585.843050960194
 21
1674.995479979465
 31
0.0
  0
ARC
  5
A304
330
1F
100
AcDbEntity
  8
実形
100
AcDbCircle
 10
1583.599127439244
 20
1677.696216695973
 30
0.0
 40
2.0
100
AcDbArc
 50
4.999999999999459
 51
91.11918499026666
  0
LINE
  5
A305
330
1F
100
AcDbEntity
  8
実形
100
AcDbLine
 10
1624.837202653725
 20
1678.404192044542
 30
0.0
 11
1589.340033356269
 21
1672.300339156794
 31
0.0
  0
ARC
  5
A306
330
1F
100
AcDbEntity
  8
実形
100
AcDbCircle
 10
1588.831635054469
 20
1675.256947207708
 30
0.0
 40
3.0
100
AcDbArc
 50
184.9999999999994
 51
279.7567784775684
  0
LINE
  5
A308
330
1F
100
AcDbEntity
  8
実形
100
AcDbLine
 10
1687.740655788395
 20
1678.693471705118
 30
0.0
 11
1698.600364207984
 21
1678.693471705118
 31
0.0
  0
LINE
  5
A493
330
1F
100
AcDbEntity
  8
実形
100
AcDbLine
 10
558.023993174276
 20
906.9584930966202
 30
0.0
 11
558.023993174276
 21
760.5785038205449
 31
0.0
  0
ARC
  5
A494
330
1F
100
AcDbEntity
  8
実形
100
AcDbCircle
 10
578.023993174276
 20
760.5785038205449
 30
0.0
 40
20.0
100
AcDbArc
 50
180.0
 51
265.9070992409724
  0
LINE
  5
A495
330
1F
100
AcDbEntity
  8
実形
100
AcDbLine
 10
847.5239931742756
 20
721.9584930966203
 30
0.0
 11
1038.523993174275
 21
721.9584930966203
 31
0.0
  0
LINE
  5
A496
330
1F
100
AcDbEntity
  8
実形
100
AcDbLine
 10
847.5239931742754
 20
711.9584930966202
 30
0.0
 11
1028.523993174276
 21
711.9584930966202
 31
0.0
  0
LINE
  5
A497
330
1F
100
AcDbEntity
  8
実形
100
AcDbLine
 10
1318.023993174276
 20
760.5785038205449
 30
0.0
 11
1318.023993174276
 21
906.9584930966202
 31
0.0
  0
ARC
  5
A498
330
1F
100
AcDbEntity
  8
実形
100
AcDbCircle
 10
1298.023993174276
 20
760.5785038205449
 30
0.0
 40
20.0
100
AcDbArc
 50
274.0929007590276
 51
0.0
  0
LINE
  5
A499
330
1F
100
AcDbEntity
  8
実形
100
AcDbLine
 10
847.5239931742756
 20
721.9584930966203
 30
0.0
 11
847.5239931742754
 21
711.9584930966202
 31
0.0
  0
LINE
  5
A49A
330
1F
100
AcDbEntity
  8
実形
100
AcDbLine
 10
1028.523993174276
 20
721.9584930966203
 30
0.0
 11
1028.523993174276
 21
711.9584930966202
 31
0.0
  0
DIMENSION
  5
A49B
330
1F
100
AcDbEntity
  8
実形
100
AcDbDimension
  2
*D49
 10
1017.023993174275
 20
661.9989193969322
 30
0.0
 11
938.0239931742755
 21
683.5989193969322
 31
0.0
 70
    32
 71
     5
 42
158.0
  3
ISO-25
100
AcDbAlignedDimension
 13
859.0239931742756
 23
753.3971576367567
 33
0.0
 14
1017.023993174275
 24
753.3971576367567
 34
0.0
100
AcDbRotatedDimension
1001
ACAD
1000
DSTYLE
1002
{
1070
    41
1040
10.0
1070
   140
1040
30.0
1070
   147
1040
6.599999999999998
1070
   279
1070
     2
1070
   342
1005
30D
1070
   371
1070
    18
1070
   372
1070
    18
1002
}
  0
LINE
  5
A49C
330
1F
100
AcDbEntity
  8
実形
100
AcDbLine
 10
847.5239931742756
 20
721.9584930966203
 30
0.0
 11
576.5965160591783
 21
740.6295111370566
 31
0.0
  0
LINE
  5
A49D
330
1F
100
AcDbEntity
  8
実形
100
AcDbLine
 10
1038.523993174275
 20
721.9584930966203
 30
0.0
 11
1299.451470289373
 21
740.6295111370566
 31
0.0
  0
TEXT
  5
A49E
330
1F
100
AcDbEntity
  8
実形
100
AcDbText
 10
622.4228691840492
 20
750.6733816191471
 30
0.0
 40
25.0
  1
20R
 72
     2
 11
684.9228691840492
 21
747.3400482858137
 31
0.0
100
AcDbText
 73
     1
  0
TEXT
  5
A49F
330
1F
100
AcDbEntity
  8
実形
100
AcDbText
 10
1194.383396145204
 20
746.6695278368198
 30
0.0
 40
25.0
  1
20R
 72
     2
 11
1256.883396145204
 21
743.3361945034865
 31
0.0
100
AcDbText
 73
     1
  0
LINE
  5
A4A0
330
1F
100
AcDbEntity
  8
実形
  6
ACAD_ISO08W100
 48
0.5
100
AcDbLine
 10
938.0239931742755
 20
703.1301083009984
 30
0.0
 11
938.0239931742758
 21
805.5723886861624
 31
0.0
  0
LINE
  5
A4A4
330
1F
100
AcDbEntity
  8
実形
100
AcDbLine
 10
938.0239931742757
 20
861.9584930966198
 30
0.0
 11
1258.023993174276
 21
861.9584930966194
 31
0.0
  0
LINE
  5
A4A5
330
1F
100
AcDbEntity
  8
実形
  6
ACAD_ISO09W100
 48
0.3
100
AcDbLine
 10
938.0239931742757
 20
855.4584930966198
 30
0.0
 11
1245.023993174276
 21
855.4584930966193
 31
0.0
  0
DIMENSION
  5
A4A7
330
1F
100
AcDbEntity
  8
実形
100
AcDbDimension
  2
*D50
 10
1398.236513085236
 20
836.9584930966192
 30
0.0
 11
1424.283312397718
 21
851.6970947160961
 31
0.0
 70
   160
 71
     5
 42
24.99999999999989
  3
ISO-25
100
AcDbAlignedDimension
 13
1306.632970104061
 23
861.958493096619
 33
0.0
 14
1306.632970104061
 24
836.9584930966192
 34
0.0
 50
90.0
100
AcDbRotatedDimension
1001
ACAD
1000
DSTYLE
1002
{
1070
    41
1040
10.0
1070
   140
1040
25.0
1070
   147
1040
6.599999999999998
1070
   279
1070
     2
1070
   342
1005
30D
1070
   371
1070
    18
1070
   372
1070
    18
1002
}
  0
DIMENSION
  5
A4A8
330
1F
100
AcDbEntity
  8
実形
100
AcDbDimension
  2
*D51
 10
1398.236513085236
 20
861.958493096619
 30
0.0
 11
1384.063588575253
 21
790.98488357943
 31
0.0
 70
   160
  1
15
 71
     5
 42
40.0
  3
ISO-25
100
AcDbAlignedDimension
 13
1306.632970104061
 23
821.958493096619
 33
0.0
 14
1306.632970104061
 24
861.958493096619
 34
0.0
 50
90.0
100
AcDbRotatedDimension
1001
ACAD
1000
DSTYLE
1002
{
1070
    41
1040
10.0
1070
   140
1040
25.0
1070
   147
1040
6.599999999999998
1070
   279
1070
     2
1070
   342
1005
30D
1070
   371
1070
    18
1070
   372
1070
    18
1002
}
  0
DIMENSION
  5
A4A9
330
1F
100
AcDbEntity
  8
実形
100
AcDbDimension
  2
*D52
 10
1481.856080946223
 20
821.958493096619
 30
0.0
 11
1510.01883143858
 21
842.4932505038569
 31
0.0
 70
   160
 71
     5
 42
40.0
  3
ISO-25
100
AcDbAlignedDimension
 13
1384.533735126952
 23
861.958493096619
 33
0.0
 14
1328.694427963259
 24
821.958493096619
 34
0.0
 50
90.0
100
AcDbRotatedDimension
1001
ACAD
1000
DSTYLE
1002
{
1070
    41
1040
10.0
1070
   140
1040
25.0
1070
   147
1040
6.599999999999998
1070
   279
1070
     2
1070
   342
1005
30D
1070
   371
1070
    18
1070
   372
1070
    18
1002
}
  0
LINE
  5
A4AA
330
1F
100
AcDbEntity
  8
実形
100
AcDbLine
 10
938.0239931742758
 20
805.5723886861624
 30
0.0
 11
938.0239931742758
 21
931.5190536288218
 31
0.0
  0
LINE
  5
A4AB
330
1F
100
AcDbEntity
  8
実形
100
AcDbLine
 10
938.023993174276
 20
821.9584930966197
 30
0.0
 11
1258.023993174276
 21
836.9584930966194
 31
0.0
  0
DIMENSION
  5
A4AC
330
1F
100
AcDbEntity
  8
実形
100
AcDbDimension
  2
*D53
 10
1268.023993174276
 20
970.3536365598919
 30
0.0
 11
938.023993174276
 21
991.953636559892
 31
0.0
 70
    32
 71
     5
 42
660.0
  3
ISO-25
100
AcDbAlignedDimension
 13
608.023993174276
 23
869.2325136633018
 33
0.0
 14
1268.023993174276
 24
869.2325136633018
 34
0.0
100
AcDbRotatedDimension
1001
ACAD
1000
DSTYLE
1002
{
1070
    41
1040
10.0
1070
   140
1040
30.0
1070
   147
1040
6.599999999999998
1070
   279
1070
     2
1070
   342
1005
30D
1070
   371
1070
    18
1070
   372
1070
    18
1002
}
  0
DIMENSION
  5
A4AD
330
1F
100
AcDbEntity
  8
実形
100
AcDbDimension
  2
*D54
 10
1318.023993174276
 20
970.3536365598919
 30
0.0
 11
1293.023993174276
 21
995.253636559892
 31
0.0
 70
    32
 71
     5
 42
50.0
  3
ISO-25
100
AcDbAlignedDimension
 13
1268.023993174276
 23
869.2325136633018
 33
0.0
 14
1318.023993174276
 24
869.2325136633005
 34
0.0
100
AcDbRotatedDimension
1001
ACAD
1000
DSTYLE
1002
{
1070
    41
1040
10.0
1070
   140
1040
30.0
1070
   147
1040
6.599999999999998
1070
   279
1070
     2
1070
   342
1005
30D
1070
   371
1070
    18
1070
   372
1070
    18
1002
}
  0
DIMENSION
  5
A4AE
330
1F
100
AcDbEntity
  8
実形
100
AcDbDimension
  2
*D55
 10
608.023993174276
 20
970.3536365598919
 30
0.0
 11
583.023993174276
 21
995.253636559892
 31
0.0
 70
    32
 71
     5
 42
50.0
  3
ISO-25
100
AcDbAlignedDimension
 13
558.023993174276
 23
869.2325136633016
 33
0.0
 14
608.023993174276
 24
869.2325136633016
 34
0.0
100
AcDbRotatedDimension
1001
ACAD
1000
DSTYLE
1002
{
1070
    41
1040
10.0
1070
   140
1040
30.0
1070
   147
1040
6.599999999999998
1070
   279
1070
     2
1070
   342
1005
30D
1070
   371
1070
    18
1070
   372
1070
    18
1002
}
  0
LINE
  5
A4AF
330
1F
100
AcDbEntity
  8
実形
100
AcDbLine
 10
1258.023993174276
 20
836.9584930966194
 30
0.0
 11
1268.023993174276
 21
855.4584930966189
 31
0.0
  0
LINE
  5
A4B0
330
1F
100
AcDbEntity
  8
実形
100
AcDbLine
 10
1268.023993174276
 20
855.4584930966189
 30
0.0
 11
1258.023993174276
 21
861.9584930966194
 31
0.0
  0
LINE
  5
A4B1
330
1F
100
AcDbEntity
  8
実形
100
AcDbLine
 10
938.0239931742758
 20
861.9584930966198
 30
0.0
 11
618.0239931742748
 21
861.9584930966196
 31
0.0
  0
LINE
  5
A4B2
330
1F
100
AcDbEntity
  8
実形
  6
ACAD_ISO09W100
 48
0.3
100
AcDbLine
 10
938.0239931742758
 20
855.4584930966198
 30
0.0
 11
631.0239931742748
 21
855.4584930966196
 31
0.0
  0
LINE
  5
A4B3
330
1F
100
AcDbEntity
  8
実形
100
AcDbLine
 10
938.0239931742753
 20
821.9584930966197
 30
0.0
 11
618.0239931742753
 21
836.9584930966196
 31
0.0
  0
LINE
  5
A4B4
330
1F
100
AcDbEntity
  8
実形
100
AcDbLine
 10
618.0239931742757
 20
836.9584930966196
 30
0.0
 11
608.0239931742751
 21
855.4584930966193
 31
0.0
  0
LINE
  5
A4B5
330
1F
100
AcDbEntity
  8
実形
100
AcDbLine
 10
608.0239931742751
 20
855.4584930966193
 30
0.0
 11
618.0239931742753
 21
861.9584930966196
 31
0.0
  0
LINE
  5
A4B6
330
1F
100
AcDbEntity
  8
実形
100
AcDbLine
 10
1413.993723154224
 20
821.958493096619
 30
0.0
 11
1173.948179374338
 21
821.958493096619
 31
0.0
  0
LINE
  5
A4B7
330
1F
100
AcDbEntity
  8
実形
100
AcDbLine
 10
1371.632970104061
 20
836.9584930966194
 30
0.0
 11
1265.666603416657
 21
836.9584930966194
 31
0.0
  0
LINE
  5
A4B8
330
1F
100
AcDbEntity
  8
実形
100
AcDbLine
 10
1371.632970104061
 20
861.958493096619
 30
0.0
 11
1270.797427569467
 21
861.958493096619
 31
0.0
  0
LEADER
  5
A4B9
330
1F
100
AcDbEntity
  8
実形
100
AcDbLeader
  3
ISO-25
 76
     2
 10
571.9381437923059
 20
750.6733816191472
 30
0.0
 10
612.9257475955458
 20
758.1680529539981
 30
0.0
211
1.0
221
-0.0000000000000016
231
0.0
1001
ACAD
1000
DSTYLE
1002
{
1070
    77
1070
     0
1070
    41
1040
10.0
1070
   140
1040
30.0
1070
   147
1040
6.599999999999998
1070
   279
1070
     2
1070
   342
1005
30D
1070
   371
1070
    18
1070
   372
1070
    18
1002
}
  0
LEADER
  5
A4BA
330
1F
100
AcDbEntity
  8
実形
100
AcDbLeader
  3
ISO-25
 76
     2
 10
1304.109842556245
 20
750.6733816191466
 30
0.0
 10
1263.122238753005
 20
758.1680529539976
 30
0.0
211
-1.0
221
0.0
231
0.0
1001
ACAD
1000
DSTYLE
1002
{
1070
    77
1070
     0
1070
    41
1040
10.0
1070
   140
1040
30.0
1070
   147
1040
6.599999999999998
1070
   279
1070
     2
1070
   342
1005
30D
1070
   371
1070
    18
1070
   372
1070
    18
1002
}
  0
DIMENSION
  5
A59E
330
1F
100
AcDbEntity
  8
実形
100
AcDbDimension
  2
*D56
 10
1481.856080946223
 20
906.9584930966202
 30
0.0
 11
1507.677061789583
 21
890.5525822165527
 31
0.0
 70
   160
 71
     5
 42
45.00000000000125
  3
ISO-25
100
AcDbAlignedDimension
 13
1398.236513085236
 23
861.958493096619
 33
0.0
 14
1335.797427569467
 24
906.9584930966202
 34
0.0
 50
90.0
100
AcDbRotatedDimension
1001
ACAD
1000
DSTYLE
1002
{
1070
    41
1040
10.0
1070
   140
1040
25.0
1070
   147
1040
6.599999999999998
1070
   279
1070
     2
1070
   342
1005
30D
1070
   371
1070
    18
1070
   372
1070
    18
1002
}
  0
LINE
  5
A645
330
1F
100
AcDbEntity
  8
実形
100
AcDbLine
 10
1213.920757936395
 20
278.6409786126433
 30
0.0
 11
1213.920757936395
 21
468.6409786126432
 31
0.0
  0
LINE
  5
A646
330
1F
100
AcDbEntity
  8
実形
100
AcDbLine
 10
1223.920757936396
 20
278.6409786126433
 30
0.0
 11
1223.920757936395
 21
468.6409786126432
 31
0.0
  0
LINE
  5
A64B
330
1F
100
AcDbEntity
  8
実形
100
AcDbLine
 10
1694.32620184783
 20
489.841334552223
 30
0.0
 11
1245.119799086862
 21
498.6170073742969
 31
0.0
  0
ARC
  5
A64C
330
1F
100
AcDbEntity
  8
実形
100
AcDbCircle
 10
1243.920757936395
 20
468.6409786126432
 30
0.0
 40
30.0
100
AcDbArc
 50
87.70938995736051
 51
180.0
  0
LINE
  5
A64D
330
1F
100
AcDbEntity
  8
実形
100
AcDbLine
 10
1694.259544168381
 20
480.6769318375625
 30
0.0
 11
1244.720118703373
 21
488.6249977870789
 31
0.0
  0
ARC
  5
A64E
330
1F
100
AcDbEntity
  8
実形
100
AcDbCircle
 10
1243.920757936395
 20
468.6409786126432
 30
0.0
 40
20.0
100
AcDbArc
 50
87.70938995736051
 51
180.0
  0
LINE
  5
A64F
330
1F
100
AcDbEntity
  8
実形
100
AcDbLine
 10
1714.64074022681
 20
508.0944042568139
 30
0.0
 11
1717.156081474469
 21
536.8448862768486
 31
0.0
  0
ARC
  5
A650
330
1F
100
AcDbEntity
  8
実形
100
AcDbCircle
 10
1694.716846264975
 20
509.8375191117672
 30
0.0
 40
20.0
100
AcDbArc
 50
268.8808150097333
 51
355.0000000000003
  0
LINE
  5
A651
330
1F
100
AcDbEntity
  8
実形
100
AcDbLine
 10
1714.713769187679
 20
508.9291290991634
 30
0.0
 11
1723.08425525889
 21
604.6042226926378
 31
0.0
  0
ARC
  5
A652
330
1F
100
AcDbEntity
  8
実形
100
AcDbCircle
 10
1694.789875225845
 20
510.6722439541165
 30
0.0
 40
30.0
100
AcDbArc
 50
268.98708952813
 51
355.0000000000003
  0
ARC
  5
A658
330
1F
100
AcDbEntity
  8
実形
100
AcDbCircle
 10
1747.041922417222
 20
534.230213994419
 30
0.0
 40
30.0
100
AcDbArc
 50
80.24322152243088
 51
175.0000000000003
  0
ARC
  5
A659
330
1F
100
AcDbEntity
  8
実形
100
AcDbCircle
 10
1747.041922417222
 20
534.230213994419
 30
0.0
 40
20.0
100
AcDbArc
 50
80.24322152243088
 51
175.0000000000003
  0
DIMENSION
  5
A65B
330
1F
100
AcDbEntity
  8
実形
100
AcDbDimension
  2
*D57
 10
1732.240629017123
 20
709.2620536528622
 30
0.0
 11
1638.211990603253
 21
572.7239309600744
 31
0.0
 70
    34
  1
95° 
 71
     5
 42
1.63852932637548
  3
ISO-25
100
AcDb2LineAngularDimension
 13
1694.32620184783
 23
489.841334552223
 33
0.0
 14
1245.119799086862
 24
498.6170073742969
 34
0.0
 15
1714.713769187679
 25
508.9291290991634
 35
0.0
 16
1673.004486698338
 26
570.4478255344534
 36
0.0
1001
ACAD
1000
DSTYLE
1002
{
1070
    41
1040
10.0
1070
   140
1040
30.0
1070
   147
1040
6.599999999999998
1070
   279
1070
     2
1070
   342
1005
30D
1070
   371
1070
    18
1070
   372
1070
    18
1002
}
  0
LINE
  5
A65C
330
1F
100
AcDbEntity
  8
実形
100
AcDbLine
 10
1724.675716168597
 20
508.0575716716869
 30
0.0
 11
1727.118028455387
 21
535.9733288493721
 31
0.0
  0
LEADER
  5
A65D
330
1F
100
AcDbEntity
  8
実形
100
AcDbLeader
  3
ISO-25
 76
     2
 10
1708.862834405681
 20
495.4654820656351
 30
0.0
 10
1754.916648840506
 20
457.4365355487434
 30
0.0
1001
ACAD
1000
DSTYLE
1002
{
1070
    77
1070
     0
1070
    41
1040
10.0
1070
   140
1040
30.0
1070
   147
1040
6.599999999999998
1070
   279
1070
     2
1070
   342
1005
30D
1070
   371
1070
    18
1070
   372
1070
    18
1002
}
  0
LEADER
  5
A65E
330
1F
100
AcDbEntity
  8
実形
100
AcDbLeader
  3
ISO-25
 76
     2
 10
1733.268661293175
 20
559.6471199223096
 30
0.0
 10
1795.397740522978
 20
509.3726465310746
 30
0.0
1001
ACAD
1000
DSTYLE
1002
{
1070
    77
1070
     0
1070
    41
1040
10.0
1070
   140
1040
30.0
1070
   147
1040
6.599999999999998
1070
   279
1070
     2
1070
   342
1005
30D
1070
   371
1070
    18
1070
   372
1070
    18
1002
}
  0
TEXT
  5
A65F
330
1F
100
AcDbEntity
  8
実形
100
AcDbText
 10
1759.110948769677
 20
428.1365242287275
 30
0.0
 40
25.0
  1
2R
 72
     2
 11
1800.777615436343
 21
424.8031908953942
 31
0.0
100
AcDbText
 73
     1
  0
TEXT
  5
A660
330
1F
100
AcDbEntity
  8
実形
100
AcDbText
 10
1803.234601060393
 20
494.2930257614617
 30
0.0
 40
25.0
  1
3R
 72
     2
 11
1844.90126772706
 21
490.9596924281284
 31
0.0
100
AcDbText
 73
     1
  0
LINE
  5
A662
330
1F
100
AcDbEntity
  8
実形
100
AcDbLine
 10
1213.920757936395
 20
499.8649690203156
 30
0.0
 11
1430.038985126854
 21
499.8649690203156
 31
0.0
  0
SPLINE
  5
A663
330
1F
100
AcDbEntity
  8
実形
100
AcDbSpline
210
0.0
220
0.0
230
1.0
 70
     8
 71
     3
 72
    13
 73
     9
 74
     0
 42
0.0000000001
 43
0.0000000001
 40
0.0
 40
0.0
 40
0.0
 40
0.0
 40
35.35533905932754
 40
70.71067811865491
 40
106.0660171779823
 40
141.4213562373097
 40
176.776695296637
 40
209.3865262264552
 40
209.3865262264552
 40
209.3865262264552
 40
209.3865262264552
 10
1870.975970291245
 20
603.9752325062557
 30
0.0
 10
1885.409723066967
 20
595.6418991729223
 30
0.0
 10
1914.27722861841
 20
578.9752325062554
 30
0.0
 10
1847.770936982585
 20
553.9752325062554
 30
0.0
 10
1920.494845198721
 20
528.9752325062554
 30
0.0
 10
1846.105503970002
 20
503.9752325062554
 30
0.0
 10
1919.001904209077
 20
479.622354978315
 30
0.0
 10
1874.705298032157
 20
463.602810783708
 30
0.0
 10
1871.404516545586
 20
455.9165999224342
 30
0.0
  0
SPLINE
  5
A664
330
1F
100
AcDbEntity
  8
実形
100
AcDbSpline
210
0.0
220
0.0
230
1.0
 70
     8
 71
     3
 72
    13
 73
     9
 74
     0
 42
0.0000000001
 43
0.0000000001
 40
0.0
 40
0.0
 40
0.0
 40
0.0
 40
35.35533905932754
 40
70.71067811865491
 40
106.0660171779823
 40
141.4213562373097
 40
176.776695296637
 40
209.3865262264552
 40
209.3865262264552
 40
209.3865262264552
 40
209.3865262264552
 10
1895.975970291244
 20
603.9752325062557
 30
0.0
 10
1910.409723066966
 20
595.6418991729223
 30
0.0
 10
1939.27722861841
 20
578.9752325062554
 30
0.0
 10
1872.770936982584
 20
553.9752325062554
 30
0.0
 10
1945.494845198721
 20
528.9752325062554
 30
0.0
 10
1871.105503970001
 20
503.9752325062554
 30
0.0
 10
1944.001904209077
 20
479.622354978315
 30
0.0
 10
1899.705298032156
 20
463.602810783708
 30
0.0
 10
1896.404516545585
 20
455.9165999224342
 30
0.0
  0
TEXT
  5
A665
330
1F
100
AcDbEntity
  8
実形
100
AcDbText
 10
1400.540220585626
 20
343.4067023963355
 30
0.0
 40
35.0
  1
リブ詳細図(1/1)
 72
     2
 11
1727.206887252293
 21
338.7400357296688
 31
0.0
100
AcDbText
 73
     1
  0
LINE
  5
A666
330
1F
100
AcDbEntity
  8
実形
100
AcDbLine
 10
1386.179476350526
 20
334.1424802873362
 30
0.0
 11
1754.410757849349
 21
334.1424802873362
 31
0.0
  0
LEADER
  5
A667
330
1F
100
AcDbEntity
  8
実形
100
AcDbLeader
  3
ISO-25
 76
     2
 10
1226.089534408849
 20
491.1406915216039
 30
0.0
 10
1272.143348843674
 20
453.1117450047122
 30
0.0
1001
ACAD
1000
DSTYLE
1002
{
1070
    77
1070
     0
1070
    41
1040
10.0
1070
   140
1040
30.0
1070
   147
1040
6.599999999999998
1070
   279
1070
     2
1070
   342
1005
30D
1070
   371
1070
    18
1070
   372
1070
    18
1002
}
  0
TEXT
  5
A668
330
1F
100
AcDbEntity
  8
実形
100
AcDbText
 10
1276.337648772845
 20
423.8117336846963
 30
0.0
 40
25.0
  1
4R
 72
     2
 11
1318.004315439512
 21
420.478400351363
 31
0.0
100
AcDbText
 73
     1
  0
LINE
  5
A669
330
1F
100
AcDbEntity
  8
実形
100
AcDbLine
 10
698.5995081902076
 20
3.999996119316278
 30
0.0
 11
688.5995081902073
 21
3.999996119316222
 31
0.0
  0
LINE
  5
A78C
330
1F
100
AcDbEntity
  8
実形
100
AcDbLine
 10
1193.920757936395
 20
549.8649690203156
 30
0.0
 11
1263.920757936396
 21
549.8649690203156
 31
0.0
  0
LINE
  5
A78D
330
1F
100
AcDbEntity
  8
実形
100
AcDbLine
 10
1213.920757936395
 20
468.6409786126432
 30
0.0
 11
1213.920757936395
 21
499.8649690203156
 31
0.0
  0
LINE
  5
A78E
330
1F
100
AcDbEntity
  8
実形
100
AcDbLine
 10
1143.920757936395
 20
278.6409786126433
 30
0.0
 11
1143.920757936395
 21
499.8649690203156
 31
0.0
  0
LINE
  5
A7C7
330
1F
100
AcDbEntity
  8
実形
100
AcDbLine
 10
1213.920757936395
 20
590.5331126616202
 30
0.0
 11
1213.920757936395
 21
616.3291376236302
 31
0.0
  0
LINE
  5
A7C8
330
1F
100
AcDbEntity
  8
実形
100
AcDbLine
 10
1213.920757936395
 20
616.2733797469445
 30
0.0
 11
1713.920757936395
 21
616.2733797469444
 31
0.0
  0
HATCH
  5
A7E1
330
1F
100
AcDbEntity
  8
実形
100
AcDbHatch
 10
0.0
 20
0.0
 30
0.0
210
0.0
220
0.0
230
1.0
  2
SOLID
 70
     1
 71
     0
 91
        1
 92
        7
 72
     1
 73
     1
 93
        2
 10
1214.245904816133
 20
610.9401839503889
 42
1.0
 10
1214.245904816133
 20
620.9401839503889
 42
1.0
 97
        0
 75
     0
 76
     1
 47
0.2779191024150841
 98
        1
 10
1213.796407355081
 20
617.3556193200566
  0
HATCH
  5
A7F8
330
1F
100
AcDbEntity
  8
実形
100
AcDbHatch
 10
0.0
 20
0.0
 30
0.0
210
0.0
220
0.0
230
1.0
  2
SOLID
 70
     1
 71
     0
 91
        1
 92
        7
 72
     1
 73
     1
 93
        2
 10
1714.19910966616
 20
611.5465610579676
 42
1.0
 10
1714.19910966616
 20
621.5465610579676
 42
1.0
 97
        0
 75
     0
 76
     1
 47
0.2779191024150841
 98
        1
 10
1713.749612205109
 20
617.9619964276353
  0
LINE
  5
A7F9
330
1F
100
AcDbEntity
  8
実形
100
AcDbLine
 10
1713.920757936395
 20
616.2733797469445
 30
0.0
 11
1713.920757936395
 21
590.4773547849345
 31
0.0
  0
TEXT
  5
A802
330
1F
100
AcDbEntity
  8
実形
100
AcDbText
 10
1449.692979496676
 20
625.6727062919964
 30
0.0
 40
25.0
  1
50
 72
     2
 11
1487.192979496676
 21
622.339372958663
 31
0.0
100
AcDbText
 73
     1
  0
LINE
  5
A893
330
1F
100
AcDbEntity
  8
実形
100
AcDbLine
 10
1263.920757936396
 20
499.8649690203156
 30
0.0
 11
1263.920757936396
 21
549.8649690203156
 31
0.0
  0
ARC
  5
A8CA
330
1F
100
AcDbEntity
  8
実形
100
AcDbCircle
 10
1193.920757936395
 20
499.8649690203156
 30
0.0
 40
50.0
100
AcDbArc
 50
90.0
 51
179.9999999999999
  0
LINE
  5
A8E1
330
1F
100
AcDbEntity
  8
実形
100
AcDbLine
 10
1430.038985126854
 20
499.8649690203158
 30
0.0
 11
1430.038985126854
 21
564.8649690203155
 31
0.0
  0
LINE
  5
A8E3
330
1F
100
AcDbEntity
  8
実形
100
AcDbLine
 10
1470.806676608626
 20
564.8649690203155
 30
0.0
 11
1430.038985126854
 21
564.8649690203155
 31
0.0
  0
TEXT
  5
A8EC
330
1F
100
AcDbEntity
  8
実形
100
AcDbText
 10
1417.165390647847
 20
509.0509508710884
 30
0.0
 40
25.0
  1
6.5
 50
90.0
 72
     2
 11
1420.49872398118
 21
559.0509508710884
 31
0.0
100
AcDbText
 73
     1
  0
HATCH
  5
A8F5
330
1F
100
AcDbEntity
  8
実形
100
AcDbHatch
 10
0.0
 20
0.0
 30
0.0
210
0.0
220
0.0
230
1.0
  2
SOLID
 70
     1
 71
     0
 91
        1
 92
        7
 72
     1
 73
     1
 93
        2
 10
1429.8664334245
 20
560.0472665252737
 42
1.0
 10
1429.8664334245
 20
570.0472665252736
 42
1.0
 97
        0
 75
     0
 76
     1
 47
0.2779191024150841
 98
        1
 10
1429.416935963449
 20
566.4627018949413
  0
HATCH
  5
A8FD
330
1F
100
AcDbEntity
  8
実形
100
AcDbHatch
 10
0.0
 20
0.0
 30
0.0
210
0.0
220
0.0
230
1.0
  2
SOLID
 70
     1
 71
     0
 91
        1
 92
        7
 72
     1
 73
     1
 93
        2
 10
1429.761868515137
 20
495.3356408561949
 42
1.0
 10
1429.761868515137
 20
505.3356408561949
 42
1.0
 97
        0
 75
     0
 76
     1
 47
0.2779191024150841
 98
        1
 10
1429.312371054086
 20
501.7510762258625
  0
LINE
  5
A907
330
1F
100
AcDbEntity
  8
実形
100
AcDbLine
 10
1470.806676608626
 20
564.8649690203155
 30
0.0
 11
1784.182561740514
 21
564.8649690203155
 31
0.0
  0
LINE
  5
A90A
330
1F
100
AcDbEntity
  8
実形
100
AcDbLine
 10
1143.920757936395
 20
590.5331126616202
 30
0.0
 11
1143.920757936395
 21
616.2733797469445
 31
0.0
  0
LINE
  5
A90C
330
1F
100
AcDbEntity
  8
実形
100
AcDbLine
 10
1213.920757936395
 20
616.2733797469445
 30
0.0
 11
1143.920757936395
 21
616.2733797469445
 31
0.0
  0
HATCH
  5
A915
330
1F
100
AcDbEntity
  8
実形
100
AcDbHatch
 10
0.0
 20
0.0
 30
0.0
210
0.0
220
0.0
230
1.0
  2
SOLID
 70
     1
 71
     0
 91
        1
 92
        7
 72
     1
 73
     1
 93
        2
 10
1144.593736334837
 20
610.7798209029397
 42
1.0
 10
1144.593736334837
 20
620.7798209029397
 42
1.0
 97
        0
 75
     0
 76
     1
 47
0.2779191024150841
 98
        1
 10
1144.144238873785
 20
617.1952562726073
  0
TEXT
  5
AA6B
330
1F
100
AcDbEntity
  8
実形
100
AcDbText
 10
1172.606237184275
 20
626.1169364022317
 30
0.0
 40
25.0
  1
7
 72
     2
 11
1189.272903850942
 21
622.7836030688983
 31
0.0
100
AcDbText
 73
     1
  0
ARC
  5
ABA7
330
1F
100
AcDbEntity
  8
実形
100
AcDbCircle
 10
1193.920757936395
 20
499.8649690203158
 30
0.0
 40
50.0
100
AcDbArc
 50
90.0
 51
180.0
  0
LINE
  5
ABAA
330
1F
100
AcDbEntity
  8
実形
100
AcDbLine
 10
1263.920757936396
 20
499.8649690203156
 30
0.0
 11
1263.920757936396
 21
549.8649690203156
 31
0.0
  0
LINE
  5
ABAD
330
1F
100
AcDbEntity
  8
実形
100
AcDbLine
 10
1213.920757936395
 20
249.8649690203156
 30
0.0
 11
1213.920757936395
 21
259.8649690203156
 31
0.0
  0
LINE
  5
ABAE
330
1F
100
AcDbEntity
  8
実形
100
AcDbLine
 10
1213.920757936395
 20
299.8649690203156
 30
0.0
 11
1213.920757936395
 21
499.8649690203156
 31
0.0
  0
LINE
  5
ABAF
330
1F
100
AcDbEntity
  8
実形
100
AcDbLine
 10
1263.920757936396
 20
549.8649690203156
 30
0.0
 11
1193.920757936395
 21
549.8649690203156
 31
0.0
  0
LINE
  5
ABB0
330
1F
100
AcDbEntity
  8
実形
100
AcDbLine
 10
1263.920757936396
 20
499.8649690203156
 30
0.0
 11
1213.920757936395
 21
499.8649690203156
 31
0.0
  0
ARC
  5
ABB8
330
1F
100
AcDbEntity
  8
実形
100
AcDbCircle
 10
1213.920757936395
 20
279.8649690203158
 30
0.0
 40
20.0
100
AcDbArc
 50
90.0
 51
270.0
  0
DIMENSION
  5
ABC8
330
1F
100
AcDbEntity
  8
実形
100
AcDbDimension
  2
*D58
 10
1324.963680143302
 20
499.8649690203156
 30
0.0
 11
1324.963680143302
 21
523.7499941545488
 31
0.0
 70
   160
  1
5
 71
     5
 42
49.99999999999994
  3
ISO-25
100
AcDbAlignedDimension
 13
1229.480829259715
 23
549.8649690203156
 33
0.0
 14
1229.480829259715
 24
499.8649690203156
 34
0.0
 50
270.0
100
AcDbRotatedDimension
1001
ACAD
1000
DSTYLE
1002
{
1070
   371
1070
    18
1070
   372
1070
    18
1002
}
  0
LINE
  5
ABCD
330
1F
100
AcDbEntity
  8
実形
100
AcDbLine
 10
1143.920757936395
 20
499.864969020315
 30
0.0
 11
1143.920757936395
 21
249.8649690203155
 31
0.0
  0
LINE
  5
ACED
330
1F
100
AcDbEntity
  8
実形
100
AcDbLine
 10
1213.920757936395
 20
278.6409786126433
 30
0.0
 11
1223.920757936396
 21
278.6409786126433
 31
0.0
  0
DIMENSION
  5
AD42
330
1F
100
AcDbEntity
  8
実形
100
AcDbDimension
  2
*D59
 10
1263.920757936396
 20
136.7215206115197
 30
0.0
 11
1203.920757936395
 21
158.3215206115197
 31
0.0
 70
    32
  1
12
 71
     5
 42
120.0
  3
ISO-25
100
AcDbAlignedDimension
 13
1143.920757936395
 23
279.6741360107481
 33
0.0
 14
1263.920757936396
 24
389.7965460447413
 34
0.0
100
AcDbRotatedDimension
1001
ACAD
1000
DSTYLE
1002
{
1070
    41
1040
10.0
1070
   140
1040
30.0
1070
   147
1040
6.599999999999998
1070
   279
1070
     2
1070
   342
1005
30D
1070
   371
1070
    18
1070
   372
1070
    18
1002
}
  0
LEADER
  5
AD80
330
1F
100
AcDbEntity
  8
実形
100
AcDbLeader
  3
ISO-25
 76
     3
 10
870.5340756582064
 20
1282.994468313211
 30
0.0
 10
853.4551525820953
 20
1322.829049287798
 30
0.0
 10
578.7691011704937
 20
1322.829049287798
 30
0.0
1001
ACAD
1000
DSTYLE
1002
{
1070
    77
1070
     0
1070
    41
1040
10.0
1070
   140
1040
30.0
1070
   147
1040
6.599999999999998
1070
   279
1070
     2
1070
   342
1005
30D
1070
   371
1070
    18
1070
   372
1070
    18
1002
}
  0
LINE
  5
AF5E
330
1F
100
AcDbEntity
  8
実形
100
AcDbLine
 10
1884.659857600124
 20
541.0066534516853
 30
0.0
 11
1752.125905435215
 21
563.7962945035558
 31
0.0
  0
LINE
  5
AF5F
330
1F
100
AcDbEntity
  8
実形
100
AcDbLine
 10
1895.973512622826
 20
528.9144713345336
 30
0.0
 11
1750.431244429218
 21
553.9409343338434
 31
0.0
  0
DIMENSION
  5
AF7B
330
1F
100
AcDbEntity
  8
実形
100
AcDbDimension
  2
*D68
 10
1213.920757936395
 20
187.3134036985029
 30
0.0
 11
1178.920757936396
 21
208.9134036985029
 31
0.0
 70
    32
  1
7
 71
     5
 42
70.0
  3
ISO-25
100
AcDbAlignedDimension
 13
1143.920757936395
 23
249.8649690203155
 33
0.0
 14
1213.920757936395
 24
249.8649690203155
 34
0.0
100
AcDbRotatedDimension
1001
ACAD
1000
DSTYLE
1002
{
1070
    41
1040
10.0
1070
   140
1040
30.0
1070
   147
1040
6.599999999999998
1070
   279
1070
     2
1070
   342
1005
30D
1070
   371
1070
    18
1070
   372
1070
    18
1002
}
  0
LINE
  5
AFAD
330
1F
100
AcDbEntity
  8
実形
100
AcDbLine
 10
1213.920757936395
 20
187.3134036985029
 30
0.0
 11
1213.920757936395
 21
214.9273436867042
 31
0.0
  0
LINE
  5
B15F
330
1F
100
AcDbEntity
  8
実形
100
AcDbLine
 10
2139.708427923032
 20
1413.46813636045
 30
0.0
 11
2139.708427923032
 21
1104.805724205502
 31
0.0
  0
LINE
  5
B160
330
1F
100
AcDbEntity
  8
実形
100
AcDbLine
 10
2149.708427923032
 20
1403.46813636045
 30
0.0
 11
2149.708427923032
 21
1104.805724205502
 31
0.0
  0
LINE
  5
B162
330
1F
100
AcDbEntity
  8
実形
100
AcDbLine
 10
2172.629956685868
 20
1395.041111300541
 30
0.0
 11
2172.629956685868
 21
1295.041111300541
 31
0.0
  0
VIEWPORT
  5
2E
102
{ACAD_XDICTIONARY
360
B7D8
102
}
330
1B
100
AcDbEntity
 67
     1
  8
0
100
AcDbViewport
 10
144.7270812988281
 20
101.2295806407928
 30
0.0
 40
411.6736216682419
 41
222.1517806396485
 68
     1
 69
     1
 12
144.7270812988281
 22
101.2295806407928
 13
0.0
 23
0.0
 14
10.0
 24
10.0
 15
10.0
 25
10.0
 16
0.0
 26
0.0
 36
1.0
 17
0.0
 27
0.0
 37
0.0
 42
50.0
 43
0.0
 44
0.0
 45
222.1517806396485
 50
0.0
 51
0.0
 72
   100
 90
    32800
  1

281
     0
 71
     1
 74
     0
110
0.0
120
0.0
130
0.0
111
1.0
121
0.0
131
0.0
112
0.0
122
1.0
132
0.0
 79
     0
146
0.0
  0
VIEWPORT
  5
30
102
{ACAD_XDICTIONARY
360
B7DA
102
}
330
1B
100
AcDbEntity
 67
     1
  8
0
100
AcDbViewport
 10
139.2237563133239
 20
101.2295821905136
 30
0.0
 40
222.7580101013184
 41
161.9673315048218
 68
     2
 69
     2
 12
210.0
 22
148.5
 13
0.0
 23
0.0
 14
10.0
 24
10.0
 15
10.0
 25
10.0
 16
0.0
 26
0.0
 36
1.0
 17
0.0
 27
0.0
 37
0.0
 42
50.0
 43
0.0
 44
0.0
 45
309.0686705647124
 50
0.0
 51
0.0
 72
   100
 90
    32864
  1

281
     0
 71
     1
 74
     0
110
0.0
120
0.0
130
0.0
111
1.0
121
0.0
131
0.0
112
0.0
122
1.0
132
0.0
 79
     0
146
0.0
  0
ENDSEC
  0
SECTION
  2
OBJECTS
  0
DICTIONARY
  5
C
330
0
100
AcDbDictionary
281
     1
  3
ACAD_COLOR
350
22AD
  3
ACAD_GROUP
350
D
  3
ACAD_LAYOUT
350
1A
  3
ACAD_MATERIAL
350
22AC
  3
ACAD_MLINESTYLE
350
17
  3
ACAD_PLOTSETTINGS
350
19
  3
ACAD_PLOTSTYLENAME
350
E
  3
ACAD_TABLESTYLE
350
22AE
  3
AcadDim
350
AD7F
  3
ACDBHEADERROUNDTRIPXREC
350
B7D1
  3
AcDbVariableDictionary
350
1589
  3
DWGPROPS
350
B7D0
  0
DICTIONARY
  5
24C4
330
2
100
AcDbDictionary
280
     1
281
     1
  3
ACAD_LAYERFILTERS
360
6C37
  3
ACAD_LAYERSTATES
360
24C5
  3
ACLYDICTIONARY
360
6C36
  0
DICTIONARY
  5
2396
330
1F
100
AcDbDictionary
280
     1
281
     1
  3
ACAD_SORTENTS
360
2397
  0
DICTIONARY
  5
313E
330
313C
100
AcDbDictionary
280
     1
281
     1
  3
ACAD_SORTENTS
360
313F
  0
DICTIONARY
  5
3848
330
3846
100
AcDbDictionary
280
     1
281
     1
  3
ACAD_SORTENTS
360
3849
  0
DICTIONARY
  5
6B89
330
6B87
100
AcDbDictionary
280
     1
281
     1
  3
ACAD_SORTENTS
360
6B8A
  0
DICTIONARY
  5
6C02
330
6C00
100
AcDbDictionary
280
     1
281
     1
  3
ACAD_SORTENTS
360
6C03
  0
DICTIONARY
  5
84D4
330
84D2
100
AcDbDictionary
280
     1
281
     1
  3
ACAD_SORTENTS
360
84D5
  0
DICTIONARY
  5
85E7
330
85E5
100
AcDbDictionary
280
     1
281
     1
  3
ACAD_SORTENTS
360
85E8
  0
DICTIONARY
  5
ADE8
330
ADA7
100
AcDbDictionary
280
     1
281
     1
  3
ACAD_SORTENTS
360
ADE9
  0
DICTIONARY
  5
AE53
330
AE11
100
AcDbDictionary
280
     1
281
     1
  3
ACAD_SORTENTS
360
AE54
  0
DICTIONARY
  5
B7D8
330
2E
100
AcDbDictionary
280
     1
281
     1
  3
ACAD_XREC_ROUNDTRIP
360
B7D9
  0
DICTIONARY
  5
B7DA
330
30
100
AcDbDictionary
280
     1
281
     1
  3
ACAD_XREC_ROUNDTRIP
360
B7DB
  0
DICTIONARY
  5
22AD
102
{ACAD_REACTORS
330
C
102
}
330
C
100
AcDbDictionary
281
     1
  0
DICTIONARY
  5
D
102
{ACAD_REACTORS
330
C
102
}
330
C
100
AcDbDictionary
281
     1
  0
DICTIONARY
  5
1A
102
{ACAD_REACTORS
330
C
102
}
330
C
100
AcDbDictionary
281
     1
  3
Model
350
22
  3
ﾚｲｱｳﾄ1
350
1E
  3
ﾚｲｱｳﾄ2
350
26
  0
DICTIONARY
  5
22AC
102
{ACAD_REACTORS
330
C
102
}
330
C
100
AcDbDictionary
281
     1
  0
DICTIONARY
  5
17
102
{ACAD_REACTORS
330
C
102
}
330
C
100
AcDbDictionary
281
     1
  3
Standard
350
18
  0
DICTIONARY
  5
19
102
{ACAD_REACTORS
330
C
102
}
330
C
100
AcDbDictionary
281
     1
  0
ACDBDICTIONARYWDFLT
  5
E
102
{ACAD_REACTORS
330
C
102
}
330
C
100
AcDbDictionary
281
     1
  3
Normal
350
F
100
AcDbDictionaryWithDefault
340
F
  0
DICTIONARY
  5
22AE
102
{ACAD_REACTORS
330
C
102
}
330
C
100
AcDbDictionary
281
     1
  3
Standard
350
22AF
  0
XRECORD
  5
AD7F
102
{ACAD_REACTORS
330
C
102
}
330
C
100
AcDbXrecord
280
     1
 90
   990106
  3

 60
     0
 61
     0
 62
     1
 63
     3
 64
     0
 65
     0
 66
     0
 67
     3
 68
     1
 69
     0
 70
     0
 71
     0
 72
     0
 40
30.0
170
     0
  0
DICTIONARY
  5
B7D1
102
{ACAD_REACTORS
330
C
102
}
330
C
100
AcDbDictionary
281
     1
  0
DICTIONARY
  5
1589
102
{ACAD_REACTORS
330
C
102
}
330
C
100
AcDbDictionary
281
     1
  3
CTABLESTYLE
350
22B5
  3
DIMASSOC
350
B7CD
  3
PROJECTNAME
350
B7CE
  3
SORTENTS
350
158A
  0
XRECORD
  5
B7D0
102
{ACAD_REACTORS
330
C
102
}
330
C
100
AcDbXrecord
280
     1
  1
DWGPROPS COOKIE
  2

  3

  4

  6

  7

  8

  9

300
=
301
=
302
=
303
=
304
=
305
=
306
=
307
=
308
=
309
=
 40
4.733332893518518
 41
2451673.575802199
 42
2458813.762754004
  1

 90
        0
  0
DICTIONARY
  5
6C37
102
{ACAD_REACTORS
330
24C4
102
}
330
24C4
100
AcDbDictionary
281
     1
  0
DICTIONARY
  5
24C5
102
{ACAD_REACTORS
330
24C4
102
}
330
24C4
100
AcDbDictionary
281
     1
  0
DICTIONARY
  5
6C36
102
{ACAD_REACTORS
330
24C4
102
}
330
24C4
100
AcDbDictionary
281
     1
1001
ACAD
1000
<All
  0
SORTENTSTABLE
  5
2397
102
{ACAD_REACTORS
330
2396
102
}
330
2396
100
AcDbSortentsTable
330
1F
331
9A83
  5
9C10
331
98ED
  5
8213
331
9F60
  5
9F63
331
9F68
  5
9F6B
331
A650
  5
A651
331
9826
  5
9904
331
9F70
  5
9F73
331
A658
  5
A65B
331
A660
  5
A664
331
A668
  5
A7C7
331
8A82
  5
8C09
331
8F27
  5
940D
331
9416
  5
9433
331
972B
  5
98EE
331
941E
  5
943B
331
9426
  5
9443
331
942E
  5
96FD
331
A2EA
  5
A2EC
331
A2F2
  5
A2F4
331
A2FA
  5
A2FC
331
A499
  5
A49A
331
A302
  5
A304
331
85D0
  5
898F
331
9F78
  5
9F7B
331
9C13
  5
9C26
331
9F80
  5
9F83
331
9915
  5
993E
331
9F49
  5
9F4B
331
9F88
  5
9F8B
331
AA6B
  5
ABAD
331
9F51
  5
9F53
331
9F90
  5
9F93
331
AD42
  5
AEC4
331
8AC2
  5
8C1A
331
9436
  5
9706
331
93F7
  5
9413
331
8C09
  5
8E47
331
96FC
  5
85DB
331
943E
  5
97E4
331
9407
  5
9423
331
940F
  5
942C
331
7CE2
  5
7CE5
331
1B85
  5
1B90
331
A263
  5
A27A
331
A4A9
  5
A4AA
331
1B8D
  5
1B98
331
A4B1
  5
A4B2
331
7F8A
  5
7F8A
331
1B95
  5
1BA7
331
A4B9
  5
A4BA
331
7F92
  5
7F93
331
97E7
  5
9403
331
9F59
  5
9F5B
331
993D
  5
9983
331
98EE
  5
9916
331
9F61
  5
9F64
331
A651
  5
A652
331
A7C8
  5
A80B
331
9F69
  5
9F6C
331
A659
  5
A65D
331
9C63
  5
9C76
331
9F71
  5
9F74
331
A7F8
  5
A8E1
331
A669
  5
A7C8
331
A907
  5
A915
331
9417
  5
9434
331
8F28
  5
940E
331
941F
  5
943C
331
8C51
  5
93F9
331
9427
  5
9444
331
942F
  5
96FE
331
A2EB
  5
A2ED
331
A2F3
  5
A2F5
331
812A
  5
864B
331
A2FB
  5
A2FD
331
A49A
  5
A49B
331
8638
  5
87D3
331
6D9B
  5
1B7F
331
A303
  5
A305
331
B162
  5
9F61
331
9F79
  5
9F7C
331
990E
  5
9934
331
97A0
  5
98F1
331
9A65
  5
9A78
331
9C14
  5
9C2E
331
9F81
  5
9F84
331
9F4A
  5
9F4C
331
9F89
  5
9F8C
331
9F52
  5
9F54
331
9F91
  5
A25D
331
87CC
  5
8AC8
331
9437
  5
9708
331
93F8
  5
9414
331
8ACB
  5
8C51
331
8A64
  5
8B2E
331
96FD
  5
84ED
331
943F
  5
97E5
331
9400
  5
941C
331
8C12
  5
8FCC
331
9408
  5
9424
331
8C1A
  5
904D
331
68BC
  5
6E31
331
1B86
  5
1B92
331
A4AA
  5
A4AB
331
1B8E
  5
1B99
331
A4B2
  5
A4B3
331
7F8B
  5
7F8B
331
1B96
  5
1BA8
331
A2E4
  5
A2E6
331
A4BA
  5
A59E
331
7F93
  5
7F94
331
97E8
  5
9405
331
9F5A
  5
9F5C
331
993E
  5
9985
331
98EF
  5
9917
331
9F62
  5
9F65
331
A652
  5
A657
331
9CE3
  5
9F49
331
9A8D
  5
9C13
331
9F6A
  5
9F6D
331
A7E1
  5
A814
331
9F72
  5
9F75
331
A662
  5
A665
331
A7F9
  5
A8E3
331
9410
  5
942D
331
9418
  5
9435
331
8A8C
  5
8C0A
331
9420
  5
943D
331
8AB4
  5
8C0D
331
90B9
  5
940F
331
9428
  5
9445
331
8C5A
  5
93FC
331
A2EC
  5
A2EE
331
A2F4
  5
A2F6
331
A493
  5
A494
331
812B
  5
864C
331
A2FC
  5
A300
331
A49B
  5
A49C
331
A304
  5
A306
331
AFAD
  5
B15F
331
AF5E
  5
A659
331
9C6C
  5
9C80
331
9858
  5
9905
331
9A95
  5
9C14
331
9F7A
  5
9F7D
331
9E5B
  5
942B
331
9F82
  5
9F85
331
9F4B
  5
9F4D
331
9880
  5
990E
331
9917
  5
9948
331
9A6E
  5
9A79
331
9C1D
  5
9C2F
331
9F8A
  5
9F8D
331
9F92
  5
A25E
331
ABAD
  5
ABB0
331
A64B
  5
A64C
331
A8E1
  5
A8F5
331
9430
  5
96FF
331
9438
  5
9709
331
8ACC
  5
8C63
331
93F9
  5
9415
331
96FE
  5
8413
331
9706
  5
9858
331
9440
  5
97E6
331
8A6D
  5
8C04
331
8C13
  5
8FD6
331
9401
  5
941D
331
8AEC
  5
8DD4
331
8C1B
  5
9075
331
9409
  5
9425
331
971E
  5
98ED
331
A25D
  5
A260
331
1B87
  5
1B93
331
85DA
  5
8990
331
A4AB
  5
A4AC
331
1B8F
  5
1B9B
331
857B
  5
88E0
331
A26D
  5
A2E4
331
A4B3
  5
A4B4
331
1B97
  5
37FF
331
7F8C
  5
7F8D
331
A2E5
  5
A2E7
331
7F94
  5
7FDC
331
9F5B
  5
9F5D
331
98E8
  5
990F
331
9819
  5
9903
331
9F63
  5
9F68
331
9F6B
  5
9F6E
331
A65B
  5
A65E
331
9F73
  5
9F76
331
ABCD
  5
AD80
331
A663
  5
A668
331
9411
  5
942E
331
9419
  5
9436
331
8AB5
  5
8C0E
331
9421
  5
943E
331
8ABD
  5
8C14
331
9429
  5
96F8
331
A2ED
  5
A2EF
331
859B
  5
894A
331
A2F5
  5
A2F7
331
A494
  5
A495
331
A2FD
  5
A301
331
A49C
  5
A49D
331
A305
  5
A308
331
A0
  5
1B7B
331
AF5F
  5
A65A
331
9C6D
  5
9C89
331
9CEC
  5
9F4A
331
9F7B
  5
9F7E
331
9F83
  5
9F86
331
A802
  5
A8EC
331
9F4C
  5
9F4E
331
9920
  5
9951
331
9F8B
  5
9F8E
331
ACED
  5
AEC3
331
9F54
  5
9F56
331
9A77
  5
9A7A
331
9C26
  5
9C38
331
9F93
  5
A25F
331
A8CA
  5
A667
331
ABAE
  5
ABB8
331
A64C
  5
A64D
331
9431
  5
9701
331
8AC5
  5
8C1B
331
8C63
  5
9400
331
96FF
  5
84F3
331
9439
  5
970A
331
8C0C
  5
8E7A
331
93FA
  5
9416
331
9441
  5
97E7
331
8A6E
  5
8C05
331
8C14
  5
8FD7
331
9402
  5
941E
331
940A
  5
9426
331
A25E
  5
A261
331
A4A4
  5
A4A5
331
1B88
  5
1B94
331
85DB
  5
8991
331
A4AC
  5
A4AD
331
68D6
  5
7027
331
1B90
  5
1B9C
331
857C
  5
8906
331
A4B4
  5
A4B5
331
1B98
  5
3800
331
7F8D
  5
7F8E
331
A2E6
  5
A2E8
331
8613
  5
8A6D
331
9C2E
  5
9C41
331
98E9
  5
9915
331
9F5C
  5
9F5E
331
9948
  5
9A63
331
98F9
  5
9920
331
9F6C
  5
9F6F
331
A65C
  5
A65F
331
9F74
  5
9F77
331
A664
  5
A669
331
8AF5
  5
8DD6
331
9412
  5
942F
331
941A
  5
9437
331
8AB6
  5
8C10
331
9422
  5
943F
331
8ABE
  5
8C15
331
942A
  5
96F9
331
976F
  5
98EF
331
A2EE
  5
A2F0
331
272
  5
1B84
331
8125
  5
8648
331
861B
  5
8AB6
331
A2F6
  5
A2F9
331
A495
  5
A496
331
5E5F
  5
6C24
331
8623
  5
8AB7
331
A49D
  5
A49E
331
A306
  5
A3FC
331
9F7C
  5
9F7F
331
9C76
  5
9C91
331
9911
  5
993D
331
9F84
  5
9F87
331
A90A
  5
AA6B
331
9F4D
  5
9F4F
331
9F8C
  5
9F8F
331
A893
  5
A7F9
331
9F55
  5
9F57
331
ABA7
  5
ABAE
331
A645
  5
A646
331
A78C
  5
A666
331
ABAF
  5
ABC8
331
A64D
  5
A64E
331
A8E3
  5
A8FD
331
8C05
  5
8DDB
331
8AC6
  5
8C2B
331
9432
  5
9702
331
96F8
  5
859D
331
943A
  5
971E
331
8DDC
  5
9402
331
8ACE
  5
8C64
331
8C0D
  5
8EBD
331
93FB
  5
9417
331
9708
  5
98E8
331
9442
  5
97E8
331
9403
  5
941F
331
8A6F
  5
8C06
331
940B
  5
9427
331
A25F
  5
A263
331
A4A5
  5
A4A7
331
A4AD
  5
A4AE
331
85E4
  5
8A64
331
1B91
  5
1B9D
331
857D
  5
8909
331
A4B5
  5
A4B6
331
7F8E
  5
7F8F
331
1B99
  5
3A9C
331
A2E7
  5
A2E9
331
9A78
  5
9A83
331
9C2F
  5
9C63
331
98EA
  5
8118
331
9F5D
  5
9F5F
331
9CB6
  5
9E59
331
9951
  5
9A65
331
9F6D
  5
9F70
331
A65D
  5
A660
331
9F75
  5
9F78
331
A665
  5
A776
331
9413
  5
9430
331
8C35
  5
907E
331
941B
  5
9438
331
8AFE
  5
8DD7
331
9423
  5
9440
331
8AB7
  5
8C12
331
942B
  5
96FA
331
8ABF
  5
8C16
331
A2EF
  5
A2F1
331
A2F7
  5
A2FA
331
A496
  5
A497
331
5E68
  5
6D9A
331
85C5
  5
898C
331
A49E
  5
A49F
331
9C10
  5
9C1D
331
9F7D
  5
9F80
331
9F85
  5
9F88
331
A59E
  5
A645
331
9F4E
  5
9F50
331
9F8D
  5
9F90
331
9F56
  5
9F58
331
A646
  5
A64B
331
A78D
  5
A7C9
331
ABB0
  5
ABCD
331
A64E
  5
A64F
331
9433
  5
9703
331
93F4
  5
9410
331
8AC7
  5
8C35
331
8C06
  5
8DDC
331
96F9
  5
857A
331
9701
  5
9826
331
943B
  5
972B
331
93FC
  5
9418
331
8ACF
  5
8C65
331
8C0E
  5
8F27
331
9709
  5
98EB
331
9443
  5
97EA
331
9404
  5
9420
331
8C16
  5
901A
331
940C
  5
9429
331
1B8A
  5
1B95
331
A4AE
  5
A4AF
331
1B92
  5
1BA1
331
A4B6
  5
A4B7
331
7F8F
  5
7F90
331
8586
  5
8937
331
97E4
  5
98F2
331
9A79
  5
9A8D
331
97EC
  5
98F8
331
9C38
  5
9C6C
331
9F66
  5
9F69
331
ABB8
  5
ACED
331
A8EC
  5
A907
331
9F6E
  5
9F71
331
ABC8
  5
AD42
331
A65E
  5
A662
331
9F76
  5
9F79
331
A666
  5
A78C
331
9414
  5
9431
331
941C
  5
9439
331
8C3E
  5
93F8
331
9424
  5
9441
331
8B07
  5
8DD8
331
942C
  5
96FB
331
A2E8
  5
A2EA
331
A2F0
  5
A2F2
331
A497
  5
A498
331
8127
  5
8649
331
A300
  5
A302
331
A49F
  5
A4A0
331
1B73
  5
1B87
331
85C6
  5
898D
331
B15F
  5
B160
331
9903
  5
9933
331
995A
  5
9A6E
331
9F7E
  5
9F81
331
9C80
  5
9CB6
331
9F86
  5
9F89
331
A90C
  5
ABA7
331
9F4F
  5
9F51
331
9F8E
  5
9F91
331
9F57
  5
9F59
331
A78E
  5
A7E1
331
A64F
  5
A650
331
8AC0
  5
8C18
331
9434
  5
9704
331
93F5
  5
9411
331
8C07
  5
8E3E
331
96FA
  5
85B5
331
943C
  5
976F
331
93FD
  5
941A
331
8C0F
  5
8F28
331
970A
  5
98EC
331
9444
  5
97EC
331
9405
  5
9421
331
8C17
  5
9023
331
940D
  5
942A
331
A308
  5
A493
331
A261
  5
A26D
331
A4A7
  5
A4A8
331
A4AF
  5
A4B0
331
1B8B
  5
1B96
331
A4B7
  5
A4B8
331
1B93
  5
1BA2
331
7F90
  5
7F91
331
858F
  5
8938
331
9A7A
  5
9A95
331
9933
  5
995A
331
97E5
  5
98F5
331
9F5F
  5
9F62
331
9C41
  5
9C6D
331
9F67
  5
9F6A
331
AD80
  5
AF7B
331
9F6F
  5
9F72
331
A65F
  5
A663
331
A8F5
  5
A90A
331
9F77
  5
9F7A
331
A667
  5
A78E
331
A8FD
  5
A90C
331
9415
  5
9432
331
941D
  5
943A
331
9425
  5
9442
331
8AB9
  5
8C13
331
942D
  5
96FC
331
A2E9
  5
A2EB
331
A2F1
  5
A2F3
331
A2F9
  5
A2FB
331
A498
  5
A499
331
9C
  5
9C
331
A301
  5
A303
331
8150
  5
8656
331
6E31
  5
1B74
331
85CF
  5
898E
331
B160
  5
B162
331
9A63
  5
9A77
331
9F7F
  5
9F82
331
9F87
  5
9F8A
331
9F50
  5
9F52
331
9C89
  5
9CE3
331
9F8F
  5
9F92
331
A915
  5
ABAA
331
ABAA
  5
ABAF
331
A7C7
  5
A802
331
8AC1
  5
8C19
331
9435
  5
9705
331
93F6
  5
9412
331
8AC9
  5
8C3E
331
8C08
  5
8E40
331
96FB
  5
8647
331
943D
  5
97A0
331
93FE
  5
941B
331
8AD9
  5
8DD3
331
8C10
  5
8FCB
331
9445
  5
9819
331
9406
  5
9422
331
8C18
  5
902D
331
8A7A
  5
8C08
331
A4A0
  5
A4A4
331
A262
  5
A270
331
A4A8
  5
A4A9
331
1B84
  5
1B8F
331
A4B0
  5
A4B1
331
1B8C
  5
1B97
331
A2E2
  5
A2E5
331
A4B8
  5
A4B9
331
1B94
  5
1BA6
331
7F91
  5
7F92
331
AF7B
  5
AFAD
331
9F58
  5
9F5A
331
9C91
  5
9CEC
331
9934
  5
9982
  0
SORTENTSTABLE
  5
313F
102
{ACAD_REACTORS
330
313E
102
}
330
313E
100
AcDbSortentsTable
330
313C
  0
SORTENTSTABLE
  5
3849
102
{ACAD_REACTORS
330
3848
102
}
330
3848
100
AcDbSortentsTable
330
3846
  0
SORTENTSTABLE
  5
6B8A
102
{ACAD_REACTORS
330
6B89
102
}
330
6B89
100
AcDbSortentsTable
330
6B87
  0
SORTENTSTABLE
  5
6C03
102
{ACAD_REACTORS
330
6C02
102
}
330
6C02
100
AcDbSortentsTable
330
6C00
  0
SORTENTSTABLE
  5
84D5
102
{ACAD_REACTORS
330
84D4
102
}
330
84D4
100
AcDbSortentsTable
330
84D2
  0
SORTENTSTABLE
  5
85E8
102
{ACAD_REACTORS
330
85E7
102
}
330
85E7
100
AcDbSortentsTable
330
85E5
  0
SORTENTSTABLE
  5
ADE9
102
{ACAD_REACTORS
330
ADE8
102
}
330
ADE8
100
AcDbSortentsTable
330
ADA7
  0
SORTENTSTABLE
  5
AE54
102
{ACAD_REACTORS
330
AE53
102
}
330
AE53
100
AcDbSortentsTable
330
AE11
  0
XRECORD
  5
B7D9
102
{ACAD_REACTORS
330
B7D8
102
}
330
B7D8
100
AcDbXrecord
280
     1
102
SHADEPLOT
 70
     0
  0
XRECORD
  5
B7DB
102
{ACAD_REACTORS
330
B7DA
102
}
330
B7DA
100
AcDbXrecord
280
     1
102
SHADEPLOT
 70
     0
  0
LAYOUT
  5
22
102
{ACAD_XDICTIONARY
360
B7D4
102
}
102
{ACAD_REACTORS
330
1A
102
}
330
1A
100
AcDbPlotSettings
  1

  2
EPSON PM-800C
  4
A4
  6

 40
3.757083177566528
 41
14.7637300491333
 42
3.757080078125
 43
3.757080078125
 44
209.9733276367187
 45
296.9683227539062
 46
0.0
 47
0.0
 48
0.0
 49
0.0
140
0.0
141
0.0
142
1.0
143
10.0
 70
 11952
 72
     1
 73
     1
 74
     2
  7

 75
    20
147
0.1
148
0.0
149
0.0
100
AcDbLayout
  1
Model
 70
     1
 71
     0
 10
0.0
 20
0.0
 11
12.0
 21
9.0
 12
0.0
 22
0.0
 32
0.0
 14
0.0
 24
0.0
 34
0.0
 15
0.0
 25
0.0
 35
0.0
146
0.0
 13
0.0
 23
0.0
 33
0.0
 16
1.0
 26
0.0
 36
0.0
 17
0.0
 27
1.0
 37
0.0
 76
     0
330
1F
  0
LAYOUT
  5
1E
102
{ACAD_XDICTIONARY
360
B7D2
102
}
102
{ACAD_REACTORS
330
1A
102
}
330
1A
100
AcDbPlotSettings
  1

  2
EPSON PM-800C
  4
A4
  6

 40
3.757083177566528
 41
14.7637300491333
 42
3.757080078125
 43
3.757080078125
 44
209.9733276367187
 45
296.9683227539062
 46
0.0
 47
0.0
 48
0.0
 49
0.0
140
0.0
141
0.0
142
1.0
143
1.0
 70
   688
 72
     1
 73
     1
 74
     5
  7

 75
    16
147
1.0
148
0.0
149
0.0
100
AcDbLayout
  1
ﾚｲｱｳﾄ1
 70
     1
 71
     1
 10
-3.757080078125
 20
-3.757083177566528
 11
293.2112426757813
 21
206.2162444591522
 12
0.0
 22
0.0
 32
0.0
 14
27.8447512626648
 24
20.24591643810271
 34
0.0
 15
250.6027613639831
 25
182.2132479429245
 35
0.0
146
0.0
 13
0.0
 23
0.0
 33
0.0
 16
1.0
 26
0.0
 36
0.0
 17
0.0
 27
1.0
 37
0.0
 76
     0
330
1B
331
2E
  0
LAYOUT
  5
26
102
{ACAD_XDICTIONARY
360
B7D6
102
}
102
{ACAD_REACTORS
330
1A
102
}
330
1A
100
AcDbPlotSettings
  1

  2
EPSON PM-800C
  4

  6

 40
0.0
 41
0.0
 42
0.0
 43
0.0
 44
0.0
 45
0.0
 46
0.0
 47
0.0
 48
0.0
 49
0.0
140
0.0
141
0.0
142
1.0
143
1.0
 70
   688
 72
     0
 73
     0
 74
     5
  7

 75
    16
147
1.0
148
0.0
149
0.0
100
AcDbLayout
  1
ﾚｲｱｳﾄ2
 70
     1
 71
     2
 10
0.0
 20
0.0
 11
12.0
 21
9.0
 12
0.0
 22
0.0
 32
0.0
 14
0.0
 24
0.0
 34
0.0
 15
0.0
 25
0.0
 35
0.0
146
0.0
 13
0.0
 23
0.0
 33
0.0
 16
1.0
 26
0.0
 36
0.0
 17
0.0
 27
1.0
 37
0.0
 76
     0
330
23
  0
MLINESTYLE
  5
18
102
{ACAD_REACTORS
330
17
102
}
330
17
100
AcDbMlineStyle
  2
STANDARD
 70
     0
  3

 62
   256
 51
90.0
 52
90.0
 71
     2
 49
0.5
 62
   256
  6
BYLAYER
 49
-0.5
 62
   256
  6
BYLAYER
  0
ACDBPLACEHOLDER
  5
F
102
{ACAD_REACTORS
330
E
102
}
330
E
  0
TABLESTYLE
  5
22AF
102
{ACAD_REACTORS
330
22AE
102
}
330
22AE
100
AcDbTableStyle
  3
Standard
 70
     0
 71
     0
 40
1.5
 41
1.5
280
     0
281
     0
  7
Standard
140
4.5
170
     2
 62
     0
 63
     7
283
     0
274
    -2
284
     1
 64
     0
275
    -2
285
     1
 65
     0
276
    -2
286
     1
 66
     0
277
    -2
287
     1
 67
     0
278
    -2
288
     1
 68
     0
279
    -2
289
     1
 69
     0
  7
Standard
140
6.0
170
     5
 62
     0
 63
     7
283
     0
274
    -2
284
     1
 64
     0
275
    -2
285
     1
 65
     0
276
    -2
286
     1
 66
     0
277
    -2
287
     1
 67
     0
278
    -2
288
     1
 68
     0
279
    -2
289
     1
 69
     0
  7
Standard
140
4.5
170
     5
 62
     0
 63
     7
283
     0
274
    -2
284
     1
 64
     0
275
    -2
285
     1
 65
     0
276
    -2
286
     1
 66
     0
277
    -2
287
     1
 67
     0
278
    -2
288
     1
 68
     0
279
    -2
289
     1
 69
     0
  0
DICTIONARYVAR
  5
22B5
102
{ACAD_REACTORS
330
1589
102
}
330
1589
100
DictionaryVariables
280
     0
  1
STANDARD
  0
DICTIONARYVAR
  5
B7CD
102
{ACAD_REACTORS
330
1589
102
}
330
1589
100
DictionaryVariables
280
     0
  1
1
  0
DICTIONARYVAR
  5
B7CE
102
{ACAD_REACTORS
330
1589
102
}
330
1589
100
DictionaryVariables
280
     0
  1

  0
DICTIONARYVAR
  5
158A
102
{ACAD_REACTORS
330
1589
102
}
330
1589
100
DictionaryVariables
280
     0
  1
96
  0
DICTIONARY
  5
B7D4
330
22
100
AcDbDictionary
280
     1
281
     1
  3
ACAD_XREC_ROUNDTRIP
360
B7D5
  0
DICTIONARY
  5
B7D2
330
1E
100
AcDbDictionary
280
     1
281
     1
  3
ACAD_XREC_ROUNDTRIP
360
B7D3
  0
DICTIONARY
  5
B7D6
330
26
100
AcDbDictionary
280
     1
281
     1
  3
ACAD_XREC_ROUNDTRIP
360
B7D7
  0
XRECORD
  5
B7D5
102
{ACAD_REACTORS
330
B7D4
102
}
330
B7D4
100
AcDbXrecord
280
     1
102
SHADEPLOT
 70
     0
102
SHADEPLOTRESLEVEL
 70
     2
102
SHADEPLOTCUSTOMDPI
 70
   300
  0
XRECORD
  5
B7D3
102
{ACAD_REACTORS
330
B7D2
102
}
330
B7D2
100
AcDbXrecord
280
     1
102
SHADEPLOT
 70
     0
102
SHADEPLOTRESLEVEL
 70
     2
102
SHADEPLOTCUSTOMDPI
 70
   300
  0
XRECORD
  5
B7D7
102
{ACAD_REACTORS
330
B7D6
102
}
330
B7D6
100
AcDbXrecord
280
     1
102
SHADEPLOT
 70
     0
102
SHADEPLOTRESLEVEL
 70
     2
102
SHADEPLOTCUSTOMDPI
 70
   300
  0
ENDSEC
  0
EOF
