  0
SECTION
  2
HEADER
  9
$ACADVER
  1
AC1015
  9
$ACADMAINTVER
 70
    20
  9
$DWGCODEPAGE
  3
ANSI_932
  9
$INSBASE
 10
0.0
 20
0.0
 30
0.0
  9
$EXTMIN
 10
94.0
 20
4.0
 30
0.0
  9
$EXTMAX
 10
2784.0
 20
2024.0
 30
0.0
  9
$LIMMIN
 10
0.0
 20
0.0
  9
$LIMMAX
 10
29700.0
 20
21000.0
  9
$ORTHOMODE
 70
     1
  9
$REGENMODE
 70
     1
  9
$FILLMODE
 70
     1
  9
$QTEXTMODE
 70
     0
  9
$MIRRTEXT
 70
     1
  9
$LTSCALE
 40
4.0
  9
$ATTMODE
 70
     1
  9
$TEXTSIZE
 40
25.0
  9
$TRACEWID
 40
1.0
  9
$TEXTSTYLE
  7
ms明朝
  9
$CLAYER
  8
実形
  9
$CELTYPE
  6
ByLayer
  9
$CECOLOR
 62
   256
  9
$CELTSCALE
 40
1.0
  9
$DISPSILH
 70
     0
  9
$DIMSCALE
 40
1.0
  9
$DIMASZ
 40
30.0
  9
$DIMEXO
 40
65.0
  9
$DIMDLI
 40
3.75
  9
$DIMRND
 40
0.0
  9
$DIMDLE
 40
0.0
  9
$DIMEXE
 40
0.0
  9
$DIMTP
 40
0.0
  9
$DIMTM
 40
0.0
  9
$DIMTXT
 40
25.0
  9
$DIMCEN
 40
2.5
  9
$DIMTSZ
 40
0.0
  9
$DIMTOL
 70
     0
  9
$DIMLIM
 70
     0
  9
$DIMTIH
 70
     0
  9
$DIMTOH
 70
     0
  9
$DIMSE1
 70
     0
  9
$DIMSE2
 70
     0
  9
$DIMTAD
 70
     1
  9
$DIMZIN
 70
     8
  9
$DIMBLK
  1
DotSmall
  9
$DIMASO
 70
     1
  9
$DIMSHO
 70
     1
  9
$DIMPOST
  1

  9
$DIMAPOST
  1

  9
$DIMALT
 70
     0
  9
$DIMALTD
 70
     3
  9
$DIMALTF
 40
0.03937007874016
  9
$DIMLFAC
 40
1.0
  9
$DIMTOFL
 70
     1
  9
$DIMTVP
 40
0.0
  9
$DIMTIX
 70
     0
  9
$DIMSOXD
 70
     0
  9
$DIMSAH
 70
     0
  9
$DIMBLK1
  1

  9
$DIMBLK2
  1

  9
$DIMSTYLE
  2
ISO-25
  9
$DIMCLRD
 70
     0
  9
$DIMCLRE
 70
     0
  9
$DIMCLRT
 70
     0
  9
$DIMTFAC
 40
1.0
  9
$DIMGAP
 40
6.25
  9
$DIMJUST
 70
     0
  9
$DIMSD1
 70
     0
  9
$DIMSD2
 70
     0
  9
$DIMTOLJ
 70
     0
  9
$DIMTZIN
 70
     8
  9
$DIMALTZ
 70
     0
  9
$DIMALTTZ
 70
     0
  9
$DIMUPT
 70
     0
  9
$DIMDEC
 70
     2
  9
$DIMTDEC
 70
     2
  9
$DIMALTU
 70
     2
  9
$DIMALTTD
 70
     3
  9
$DIMTXSTY
  7
Standard
  9
$DIMAUNIT
 70
     0
  9
$DIMADEC
 70
     0
  9
$DIMALTRND
 40
0.0
  9
$DIMAZIN
 70
     0
  9
$DIMDSEP
 70
    46
  9
$DIMATFIT
 70
     3
  9
$DIMFRAC
 70
     0
  9
$DIMLDRBLK
  1
Open30
  9
$DIMLUNIT
 70
     2
  9
$DIMLWD
 70
    15
  9
$DIMLWE
 70
    15
  9
$DIMTMOVE
 70
     1
  9
$LUNITS
 70
     2
  9
$LUPREC
 70
     2
  9
$SKETCHINC
 40
1.0
  9
$FILLETRAD
 40
5.0
  9
$AUNITS
 70
     0
  9
$AUPREC
 70
     0
  9
$MENU
  1
.
  9
$ELEVATION
 40
0.0
  9
$PELEVATION
 40
0.0
  9
$THICKNESS
 40
0.0
  9
$LIMCHECK
 70
     1
  9
$CHAMFERA
 40
10.0
  9
$CHAMFERB
 40
10.0
  9
$CHAMFERC
 40
20.0
  9
$CHAMFERD
 40
0.0
  9
$SKPOLY
 70
     0
  9
$TDCREATE
 40
2451673.575802199
  9
$TDUCREATE
 40
2451673.200802199
  9
$TDUPDATE
 40
2458810.740394074
  9
$TDUUPDATE
 40
2458810.365394074
  9
$TDINDWG
 40
2.2735254630
  9
$TDUSRTIMER
 40
2.2735247685
  9
$USRTIMER
 70
     1
  9
$ANGBASE
 50
0.0
  9
$ANGDIR
 70
     0
  9
$PDMODE
 70
     0
  9
$PDSIZE
 40
0.0
  9
$PLINEWID
 40
0.0
  9
$SPLFRAME
 70
     0
  9
$SPLINETYPE
 70
     6
  9
$SPLINESEGS
 70
     8
  9
$HANDSEED
  5
2863
  9
$SURFTAB1
 70
     6
  9
$SURFTAB2
 70
     6
  9
$SURFTYPE
 70
     6
  9
$SURFU
 70
     6
  9
$SURFV
 70
     6
  9
$UCSBASE
  2

  9
$UCSNAME
  2

  9
$UCSORG
 10
0.0
 20
0.0
 30
0.0
  9
$UCSXDIR
 10
1.0
 20
0.0
 30
0.0
  9
$UCSYDIR
 10
0.0
 20
1.0
 30
0.0
  9
$UCSORTHOREF
  2

  9
$UCSORTHOVIEW
 70
     0
  9
$UCSORGTOP
 10
0.0
 20
0.0
 30
0.0
  9
$UCSORGBOTTOM
 10
0.0
 20
0.0
 30
0.0
  9
$UCSORGLEFT
 10
0.0
 20
0.0
 30
0.0
  9
$UCSORGRIGHT
 10
0.0
 20
0.0
 30
0.0
  9
$UCSORGFRONT
 10
0.0
 20
0.0
 30
0.0
  9
$UCSORGBACK
 10
0.0
 20
0.0
 30
0.0
  9
$PUCSBASE
  2

  9
$PUCSNAME
  2

  9
$PUCSORG
 10
0.0
 20
0.0
 30
0.0
  9
$PUCSXDIR
 10
1.0
 20
0.0
 30
0.0
  9
$PUCSYDIR
 10
0.0
 20
1.0
 30
0.0
  9
$PUCSORTHOREF
  2

  9
$PUCSORTHOVIEW
 70
     0
  9
$PUCSORGTOP
 10
0.0
 20
0.0
 30
0.0
  9
$PUCSORGBOTTOM
 10
0.0
 20
0.0
 30
0.0
  9
$PUCSORGLEFT
 10
0.0
 20
0.0
 30
0.0
  9
$PUCSORGRIGHT
 10
0.0
 20
0.0
 30
0.0
  9
$PUCSORGFRONT
 10
0.0
 20
0.0
 30
0.0
  9
$PUCSORGBACK
 10
0.0
 20
0.0
 30
0.0
  9
$USERI1
 70
     0
  9
$USERI2
 70
     0
  9
$USERI3
 70
     0
  9
$USERI4
 70
     0
  9
$USERI5
 70
     0
  9
$USERR1
 40
0.0
  9
$USERR2
 40
0.0
  9
$USERR3
 40
0.0
  9
$USERR4
 40
0.0
  9
$USERR5
 40
0.0
  9
$WORLDVIEW
 70
     1
  9
$SHADEDGE
 70
     3
  9
$SHADEDIF
 70
    70
  9
$TILEMODE
 70
     1
  9
$MAXACTVP
 70
    64
  9
$PINSBASE
 10
0.0
 20
0.0
 30
0.0
  9
$PLIMCHECK
 70
     0
  9
$PEXTMIN
 10
27.8447512626648
 20
20.24591643810271
 30
0.0
  9
$PEXTMAX
 10
250.6027613639831
 20
182.2132479429245
 30
0.0
  9
$PLIMMIN
 10
-3.757080078125
 20
-3.757083177566528
  9
$PLIMMAX
 10
293.2112426757813
 20
206.2162444591522
  9
$UNITMODE
 70
     0
  9
$VISRETAIN
 70
     1
  9
$PLINEGEN
 70
     0
  9
$PSLTSCALE
 70
     1
  9
$TREEDEPTH
 70
  3020
  9
$CMLSTYLE
  2
Standard
  9
$CMLJUST
 70
     0
  9
$CMLSCALE
 40
20.0
  9
$PROXYGRAPHICS
 70
     1
  9
$MEASUREMENT
 70
     1
  9
$CELWEIGHT
370
    -1
  9
$ENDCAPS
280
     0
  9
$JOINSTYLE
280
     0
  9
$LWDISPLAY
290
     0
  9
$INSUNITS
 70
     4
  9
$HYPERLINKBASE
  1

  9
$STYLESHEET
  1

  9
$XEDIT
290
     1
  9
$CEPSNTYPE
380
     0
  9
$PSTYLEMODE
290
     1
  9
$FINGERPRINTGUID
  2
{C8EA1F16-24C9-11D4-9416-CE0A3B32152F}
  9
$VERSIONGUID
  2
{4AEE7CB8-942F-499D-92ED-227C5CBB0635}
  9
$EXTNAMES
290
     1
  9
$PSVPSCALE
 40
0.0
  9
$OLESTARTUP
290
     0
  0
ENDSEC
  0
SECTION
  2
CLASSES
  0
CLASS
  1
ACDBDICTIONARYWDFLT
  2
AcDbDictionaryWithDefault
  3
ObjectDBX Classes
 90
        0
280
     0
281
     0
  0
CLASS
  1
ACDBPLACEHOLDER
  2
AcDbPlaceHolder
  3
ObjectDBX Classes
 90
        0
280
     0
281
     0
  0
CLASS
  1
LAYOUT
  2
AcDbLayout
  3
ObjectDBX Classes
 90
        0
280
     0
281
     0
  0
CLASS
  1
DICTIONARYVAR
  2
AcDbDictionaryVar
  3
ObjectDBX Classes
 90
        0
280
     0
281
     0
  0
CLASS
  1
TABLESTYLE
  2
AcDbTableStyle
  3
ObjectDBX Classes
 90
     2047
280
     0
281
     0
  0
CLASS
  1
SORTENTSTABLE
  2
AcDbSortentsTable
  3
ObjectDBX Classes
 90
        0
280
     0
281
     0
  0
ENDSEC
  0
SECTION
  2
TABLES
  0
TABLE
  2
VPORT
  5
8
330
0
100
AcDbSymbolTable
 70
     2
  0
VPORT
  5
2857
330
8
100
AcDbSymbolTableRecord
100
AcDbViewportTableRecord
  2
*Active
 70
     0
 10
0.0
 20
0.0
 11
1.0
 21
1.0
 12
1602.532748843543
 22
747.7171121982955
 13
0.0
 23
0.0
 14
10.0
 24
10.0
 15
10.0
 25
10.0
 16
0.0
 26
0.0
 36
1.0
 17
0.0
 27
0.0
 37
0.0
 40
2582.67616233775
 41
1.29038112522686
 42
50.0
 43
0.0
 44
0.0
 50
0.0
 51
0.0
 71
     0
 72
   100
 73
     1
 74
     3
 75
     0
 76
     0
 77
     0
 78
     0
281
     0
 65
     1
110
0.0
120
0.0
130
0.0
111
1.0
121
0.0
131
0.0
112
0.0
122
1.0
132
0.0
 79
     0
146
0.0
  0
ENDTAB
  0
TABLE
  2
LTYPE
  5
5
330
0
100
AcDbSymbolTable
 70
    46
  0
LTYPE
  5
14
330
5
100
AcDbSymbolTableRecord
100
AcDbLinetypeTableRecord
  2
ByBlock
 70
     0
  3

 72
    65
 73
     0
 40
0.0
  0
LTYPE
  5
15
330
5
100
AcDbSymbolTableRecord
100
AcDbLinetypeTableRecord
  2
ByLayer
 70
     0
  3

 72
    65
 73
     0
 40
0.0
  0
LTYPE
  5
16
330
5
100
AcDbSymbolTableRecord
100
AcDbLinetypeTableRecord
  2
Continuous
 70
     0
  3
Solid line
 72
    65
 73
     0
 40
0.0
  0
LTYPE
  5
34
330
5
100
AcDbSymbolTableRecord
100
AcDbLinetypeTableRecord
  2
ACAD_ISO02W100
 70
     0
  3
ISO dash __ __ __ __ __ __ __ __ __ __ __ __ __
 72
    65
 73
     2
 40
15.0
 49
12.0
 74
     0
 49
-3.0
 74
     0
  0
LTYPE
  5
35
330
5
100
AcDbSymbolTableRecord
100
AcDbLinetypeTableRecord
  2
ACAD_ISO03W100
 70
     0
  3
ISO dash space __    __    __    __    __    __
 72
    65
 73
     2
 40
30.0
 49
12.0
 74
     0
 49
-18.0
 74
     0
  0
LTYPE
  5
36
330
5
100
AcDbSymbolTableRecord
100
AcDbLinetypeTableRecord
  2
ACAD_ISO04W100
 70
     0
  3
ISO long-dash dot ____ . ____ . ____ . ____ . _
 72
    65
 73
     4
 40
30.0
 49
24.0
 74
     0
 49
-3.0
 74
     0
 49
0.0
 74
     0
 49
-3.0
 74
     0
  0
LTYPE
  5
37
330
5
100
AcDbSymbolTableRecord
100
AcDbLinetypeTableRecord
  2
ACAD_ISO05W100
 70
     0
  3
ISO long-dash double-dot ____ .. ____ .. ____ .
 72
    65
 73
     6
 40
34.0
 49
24.0
 74
     0
 49
-3.0
 74
     0
 49
0.5
 74
     0
 49
-3.0
 74
     0
 49
0.5
 74
     0
 49
-3.0
 74
     0
  0
LTYPE
  5
38
330
5
100
AcDbSymbolTableRecord
100
AcDbLinetypeTableRecord
  2
ACAD_ISO06W100
 70
     0
  3
ISO long-dash triple-dot ____ ... ____ ... ____
 72
    65
 73
     8
 40
37.5
 49
24.0
 74
     0
 49
-3.0
 74
     0
 49
0.5
 74
     0
 49
-3.0
 74
     0
 49
0.5
 74
     0
 49
-3.0
 74
     0
 49
0.5
 74
     0
 49
-3.0
 74
     0
  0
LTYPE
  5
39
330
5
100
AcDbSymbolTableRecord
100
AcDbLinetypeTableRecord
  2
ACAD_ISO07W100
 70
     0
  3
ISO dot . . . . . . . . . . . . . . . . . . . .
 72
    65
 73
     2
 40
3.0
 49
0.0
 74
     0
 49
-3.0
 74
     0
  0
LTYPE
  5
3A
330
5
100
AcDbSymbolTableRecord
100
AcDbLinetypeTableRecord
  2
ACAD_ISO08W100
 70
     0
  3
ISO long-dash short-dash ____ __ ____ __ ____ _
 72
    65
 73
     4
 40
36.0
 49
24.0
 74
     0
 49
-3.0
 74
     0
 49
6.0
 74
     0
 49
-3.0
 74
     0
  0
LTYPE
  5
3B
330
5
100
AcDbSymbolTableRecord
100
AcDbLinetypeTableRecord
  2
ACAD_ISO09W100
 70
     0
  3
ISO long-dash double-short-dash ____ __ __ ____
 72
    65
 73
     6
 40
45.0
 49
24.0
 74
     0
 49
-3.0
 74
     0
 49
6.0
 74
     0
 49
-3.0
 74
     0
 49
6.0
 74
     0
 49
-3.0
 74
     0
  0
LTYPE
  5
3C
330
5
100
AcDbSymbolTableRecord
100
AcDbLinetypeTableRecord
  2
ACAD_ISO10W100
 70
     0
  3
ISO dash dot __ . __ . __ . __ . __ . __ . __ .
 72
    65
 73
     4
 40
18.0
 49
12.0
 74
     0
 49
-3.0
 74
     0
 49
0.0
 74
     0
 49
-3.0
 74
     0
  0
LTYPE
  5
3D
330
5
100
AcDbSymbolTableRecord
100
AcDbLinetypeTableRecord
  2
ACAD_ISO11W100
 70
     0
  3
ISO double-dash dot __ __ . __ __ . __ __ . __ 
 72
    65
 73
     6
 40
33.0
 49
12.0
 74
     0
 49
-3.0
 74
     0
 49
12.0
 74
     0
 49
-3.0
 74
     0
 49
0.0
 74
     0
 49
-3.0
 74
     0
  0
LTYPE
  5
3E
330
5
100
AcDbSymbolTableRecord
100
AcDbLinetypeTableRecord
  2
ACAD_ISO12W100
 70
     0
  3
ISO dash double-dot __ . . __ . . __ . . __ . .
 72
    65
 73
     6
 40
21.0
 49
12.0
 74
     0
 49
-3.0
 74
     0
 49
0.0
 74
     0
 49
-3.0
 74
     0
 49
0.0
 74
     0
 49
-3.0
 74
     0
  0
LTYPE
  5
3F
330
5
100
AcDbSymbolTableRecord
100
AcDbLinetypeTableRecord
  2
ACAD_ISO13W100
 70
     0
  3
ISO double-dash double-dot __ __ . . __ __ . . 
 72
    65
 73
     8
 40
36.0
 49
12.0
 74
     0
 49
-3.0
 74
     0
 49
12.0
 74
     0
 49
-3.0
 74
     0
 49
0.0
 74
     0
 49
-3.0
 74
     0
 49
0.0
 74
     0
 49
-3.0
 74
     0
  0
LTYPE
  5
40
330
5
100
AcDbSymbolTableRecord
100
AcDbLinetypeTableRecord
  2
ACAD_ISO14W100
 70
     0
  3
ISO dash triple-dot __ . . . __ . . . __ . . . 
 72
    65
 73
     8
 40
24.0
 49
12.0
 74
     0
 49
-3.0
 74
     0
 49
0.0
 74
     0
 49
-3.0
 74
     0
 49
0.0
 74
     0
 49
-3.0
 74
     0
 49
0.0
 74
     0
 49
-3.0
 74
     0
  0
LTYPE
  5
41
330
5
100
AcDbSymbolTableRecord
100
AcDbLinetypeTableRecord
  2
ACAD_ISO15W100
 70
     0
  3
ISO double-dash triple-dot __ __ . . . __ __ . 
 72
    65
 73
    10
 40
39.0
 49
12.0
 74
     0
 49
-3.0
 74
     0
 49
12.0
 74
     0
 49
-3.0
 74
     0
 49
0.0
 74
     0
 49
-3.0
 74
     0
 49
0.0
 74
     0
 49
-3.0
 74
     0
 49
0.0
 74
     0
 49
-3.0
 74
     0
  0
LTYPE
  5
42
330
5
100
AcDbSymbolTableRecord
100
AcDbLinetypeTableRecord
  2
BATTING
 70
     0
  3
Batting SSSSSSSSSSSSSSSSSSSSSSSSSSSSSSSSSSSSSSS
 72
    65
 73
     4
 40
10.16254
 49
0.00254
 74
     0
 49
-2.54
 74
     4
 75
   134
340
33
 46
2.54
 50
0.0
 44
-2.54
 45
0.0
 49
-5.08
 74
     4
 75
   134
340
33
 46
2.54
 50
180.0
 44
2.54
 45
0.0
 49
-2.54
 74
     0
  0
LTYPE
  5
43
330
5
100
AcDbSymbolTableRecord
100
AcDbLinetypeTableRecord
  2
BORDER
 70
     0
  3
Border __ __ . __ __ . __ __ . __ __ . __ __ .
 72
    65
 73
     6
 40
44.45
 49
12.7
 74
     0
 49
-6.349999999999999
 74
     0
 49
12.7
 74
     0
 49
-6.349999999999999
 74
     0
 49
0.0
 74
     0
 49
-6.349999999999999
 74
     0
  0
LTYPE
  5
44
330
5
100
AcDbSymbolTableRecord
100
AcDbLinetypeTableRecord
  2
BORDER2
 70
     0
  3
Border (.5x) __.__.__.__.__.__.__.__.__.__.__.
 72
    65
 73
     6
 40
22.225
 49
6.349999999999999
 74
     0
 49
-3.174999999999999
 74
     0
 49
6.349999999999999
 74
     0
 49
-3.174999999999999
 74
     0
 49
0.0
 74
     0
 49
-3.174999999999999
 74
     0
  0
LTYPE
  5
45
330
5
100
AcDbSymbolTableRecord
100
AcDbLinetypeTableRecord
  2
BORDERX2
 70
     0
  3
Border (2x) ____  ____  .  ____  ____  .  ___
 72
    65
 73
     6
 40
88.9
 49
25.4
 74
     0
 49
-12.7
 74
     0
 49
25.4
 74
     0
 49
-12.7
 74
     0
 49
0.0
 74
     0
 49
-12.7
 74
     0
  0
LTYPE
  5
46
330
5
100
AcDbSymbolTableRecord
100
AcDbLinetypeTableRecord
  2
CENTER
 70
     0
  3
Center ____ _ ____ _ ____ _ ____ _ ____ _ ____
 72
    65
 73
     4
 40
50.8
 49
31.75
 74
     0
 49
-6.349999999999999
 74
     0
 49
6.349999999999999
 74
     0
 49
-6.349999999999999
 74
     0
  0
LTYPE
  5
47
330
5
100
AcDbSymbolTableRecord
100
AcDbLinetypeTableRecord
  2
CENTER2
 70
     0
  3
Center (.5x) ___ _ ___ _ ___ _ ___ _ ___ _ ___
 72
    65
 73
     4
 40
28.575
 49
19.05
 74
     0
 49
-3.174999999999999
 74
     0
 49
3.174999999999999
 74
     0
 49
-3.174999999999999
 74
     0
  0
LTYPE
  5
48
330
5
100
AcDbSymbolTableRecord
100
AcDbLinetypeTableRecord
  2
CENTERX2
 70
     0
  3
Center (2x) ________  __  ________  __  _____
 72
    65
 73
     4
 40
101.6
 49
63.5
 74
     0
 49
-12.7
 74
     0
 49
12.7
 74
     0
 49
-12.7
 74
     0
  0
LTYPE
  5
49
330
5
100
AcDbSymbolTableRecord
100
AcDbLinetypeTableRecord
  2
DASHDOT
 70
     0
  3
Dash dot __ . __ . __ . __ . __ . __ . __ . __
 72
    65
 73
     4
 40
25.4
 49
12.7
 74
     0
 49
-6.349999999999999
 74
     0
 49
0.0
 74
     0
 49
-6.349999999999999
 74
     0
  0
LTYPE
  5
4A
330
5
100
AcDbSymbolTableRecord
100
AcDbLinetypeTableRecord
  2
DASHDOT2
 70
     0
  3
Dash dot (.5x) _._._._._._._._._._._._._._._.
 72
    65
 73
     4
 40
12.7
 49
6.349999999999999
 74
     0
 49
-3.174999999999999
 74
     0
 49
0.0
 74
     0
 49
-3.174999999999999
 74
     0
  0
LTYPE
  5
4B
330
5
100
AcDbSymbolTableRecord
100
AcDbLinetypeTableRecord
  2
DASHDOTX2
 70
     0
  3
Dash dot (2x) ____  .  ____  .  ____  .  ___
 72
    65
 73
     4
 40
50.8
 49
25.4
 74
     0
 49
-12.7
 74
     0
 49
0.0
 74
     0
 49
-12.7
 74
     0
  0
LTYPE
  5
4C
330
5
100
AcDbSymbolTableRecord
100
AcDbLinetypeTableRecord
  2
DASHED
 70
     0
  3
Dashed __ __ __ __ __ __ __ __ __ __ __ __ __ _
 72
    65
 73
     2
 40
19.05
 49
12.7
 74
     0
 49
-6.349999999999999
 74
     0
  0
LTYPE
  5
4D
330
5
100
AcDbSymbolTableRecord
100
AcDbLinetypeTableRecord
  2
DASHED2
 70
     0
  3
Dashed (.5x) _ _ _ _ _ _ _ _ _ _ _ _ _ _ _ _ _
 72
    65
 73
     2
 40
9.524999999999998
 49
6.349999999999999
 74
     0
 49
-3.174999999999999
 74
     0
  0
LTYPE
  5
4E
330
5
100
AcDbSymbolTableRecord
100
AcDbLinetypeTableRecord
  2
DASHEDX2
 70
     0
  3
Dashed (2x) ____  ____  ____  ____  ____  ___
 72
    65
 73
     2
 40
38.1
 49
25.4
 74
     0
 49
-12.7
 74
     0
  0
LTYPE
  5
4F
330
5
100
AcDbSymbolTableRecord
100
AcDbLinetypeTableRecord
  2
DIVIDE
 70
     0
  3
Divide ____ . . ____ . . ____ . . ____ . . ____
 72
    65
 73
     6
 40
31.75
 49
12.7
 74
     0
 49
-6.349999999999999
 74
     0
 49
0.0
 74
     0
 49
-6.349999999999999
 74
     0
 49
0.0
 74
     0
 49
-6.349999999999999
 74
     0
  0
LTYPE
  5
50
330
5
100
AcDbSymbolTableRecord
100
AcDbLinetypeTableRecord
  2
DIVIDE2
 70
     0
  3
Divide (.5x) __..__..__..__..__..__..__..__.._
 72
    65
 73
     6
 40
15.875
 49
6.349999999999999
 74
     0
 49
-3.174999999999999
 74
     0
 49
0.0
 74
     0
 49
-3.174999999999999
 74
     0
 49
0.0
 74
     0
 49
-3.174999999999999
 74
     0
  0
LTYPE
  5
51
330
5
100
AcDbSymbolTableRecord
100
AcDbLinetypeTableRecord
  2
DIVIDEX2
 70
     0
  3
Divide (2x) ________  .  .  ________  .  .  _
 72
    65
 73
     6
 40
63.49999999999999
 49
25.4
 74
     0
 49
-12.7
 74
     0
 49
0.0
 74
     0
 49
-12.7
 74
     0
 49
0.0
 74
     0
 49
-12.7
 74
     0
  0
LTYPE
  5
52
330
5
100
AcDbSymbolTableRecord
100
AcDbLinetypeTableRecord
  2
DOT
 70
     0
  3
Dot . . . . . . . . . . . . . . . . . . . . . .
 72
    65
 73
     2
 40
6.349999999999999
 49
0.0
 74
     0
 49
-6.349999999999999
 74
     0
  0
LTYPE
  5
53
330
5
100
AcDbSymbolTableRecord
100
AcDbLinetypeTableRecord
  2
DOT2
 70
     0
  3
Dot (.5x) .....................................
 72
    65
 73
     2
 40
3.174999999999999
 49
0.0
 74
     0
 49
-3.174999999999999
 74
     0
  0
LTYPE
  5
54
330
5
100
AcDbSymbolTableRecord
100
AcDbLinetypeTableRecord
  2
DOTX2
 70
     0
  3
Dot (2x) .  .  .  .  .  .  .  .  .  .  .  .  . 
 72
    65
 73
     2
 40
12.7
 49
0.0
 74
     0
 49
-12.7
 74
     0
  0
LTYPE
  5
55
330
5
100
AcDbSymbolTableRecord
100
AcDbLinetypeTableRecord
  2
FENCELINE1
 70
     0
  3
Fenceline circle ----0-----0----0-----0----0---
 72
    65
 73
     4
 40
36.83
 49
6.349999999999999
 74
     0
 49
-2.54
 74
     4
 75
   133
340
33
 46
2.54
 50
0.0
 44
-2.54
 45
0.0
 49
-2.54
 74
     0
 49
25.4
 74
     0
  0
LTYPE
  5
56
330
5
100
AcDbSymbolTableRecord
100
AcDbLinetypeTableRecord
  2
FENCELINE2
 70
     0
  3
Fenceline square ----[]-----[]----[]-----[]----
 72
    65
 73
     4
 40
36.83
 49
6.349999999999999
 74
     0
 49
-2.54
 74
     4
 75
   132
340
33
 46
2.54
 50
0.0
 44
-2.54
 45
0.0
 49
-2.54
 74
     0
 49
25.4
 74
     0
  0
LTYPE
  5
57
330
5
100
AcDbSymbolTableRecord
100
AcDbLinetypeTableRecord
  2
GAS_LINE
 70
     0
  3
Gas line ----GAS----GAS----GAS----GAS----GAS---
 72
    65
 73
     3
 40
24.13
 49
12.7
 74
     0
 49
-5.08
 74
     2
 75
     0
340
11
 46
2.54
 50
0.0
 44
-2.54
 45
-1.27
  9
GAS
 49
-6.349999999999999
 74
     0
  0
LTYPE
  5
58
330
5
100
AcDbSymbolTableRecord
100
AcDbLinetypeTableRecord
  2
HIDDEN
 70
     0
  3
Hidden __ __ __ __ __ __ __ __ __ __ __ __ __ _
 72
    65
 73
     2
 40
9.524999999999998
 49
6.349999999999999
 74
     0
 49
-3.174999999999999
 74
     0
  0
LTYPE
  5
59
330
5
100
AcDbSymbolTableRecord
100
AcDbLinetypeTableRecord
  2
HIDDEN2
 70
     0
  3
Hidden (.5x) _ _ _ _ _ _ _ _ _ _ _ _ _ _ _ _ _
 72
    65
 73
     2
 40
4.762499999999999
 49
3.174999999999999
 74
     0
 49
-1.587499999999999
 74
     0
  0
LTYPE
  5
5A
330
5
100
AcDbSymbolTableRecord
100
AcDbLinetypeTableRecord
  2
HIDDENX2
 70
     0
  3
Hidden (2x) ____ ____ ____ ____ ____ ____ ____
 72
    65
 73
     2
 40
19.05
 49
12.7
 74
     0
 49
-6.349999999999999
 74
     0
  0
LTYPE
  5
5B
330
5
100
AcDbSymbolTableRecord
100
AcDbLinetypeTableRecord
  2
HOT_WATER_SUPPLY
 70
     0
  3
Hot water supply ---- HW ---- HW ---- HW ----
 72
    65
 73
     3
 40
22.86
 49
12.7
 74
     0
 49
-5.08
 74
     2
 75
     0
340
11
 46
2.54
 50
0.0
 44
-2.54
 45
-1.27
  9
HW
 49
-5.08
 74
     0
  0
LTYPE
  5
5C
330
5
100
AcDbSymbolTableRecord
100
AcDbLinetypeTableRecord
  2
PHANTOM
 70
     0
  3
Phantom ______  __  __  ______  __  __  ______
 72
    65
 73
     6
 40
63.5
 49
31.75
 74
     0
 49
-6.349999999999999
 74
     0
 49
6.349999999999999
 74
     0
 49
-6.349999999999999
 74
     0
 49
6.349999999999999
 74
     0
 49
-6.349999999999999
 74
     0
  0
LTYPE
  5
5D
330
5
100
AcDbSymbolTableRecord
100
AcDbLinetypeTableRecord
  2
PHANTOM2
 70
     0
  3
Phantom (.5x) ___ _ _ ___ _ _ ___ _ _ ___ _ _
 72
    65
 73
     6
 40
31.75
 49
15.875
 74
     0
 49
-3.174999999999999
 74
     0
 49
3.174999999999999
 74
     0
 49
-3.174999999999999
 74
     0
 49
3.174999999999999
 74
     0
 49
-3.174999999999999
 74
     0
  0
LTYPE
  5
5E
330
5
100
AcDbSymbolTableRecord
100
AcDbLinetypeTableRecord
  2
PHANTOMX2
 70
     0
  3
Phantom (2x) ____________    ____    ____   _
 72
    65
 73
     6
 40
127.0
 49
63.5
 74
     0
 49
-12.7
 74
     0
 49
12.7
 74
     0
 49
-12.7
 74
     0
 49
12.7
 74
     0
 49
-12.7
 74
     0
  0
LTYPE
  5
5F
330
5
100
AcDbSymbolTableRecord
100
AcDbLinetypeTableRecord
  2
TRACKS
 70
     0
  3
Tracks -|-|-|-|-|-|-|-|-|-|-|-|-|-|-|-|-|-|-|-|
 72
    65
 73
     2
 40
7.62
 49
3.81
 74
     4
 75
   130
340
33
 46
6.349999999999999
 50
0.0
 44
0.0
 45
0.0
 49
3.81
 74
     0
  0
LTYPE
  5
60
330
5
100
AcDbSymbolTableRecord
100
AcDbLinetypeTableRecord
  2
ZIGZAG
 70
     0
  3
Zig zag /\/\/\/\/\/\/\/\/\/\/\/\/\/\/\/\/\/\/\/
 72
    65
 73
     4
 40
20.32254
 49
0.00254
 74
     0
 49
-5.08
 74
     4
 75
   131
340
33
 46
5.08
 50
0.0
 44
-5.08
 45
0.0
 49
-10.16
 74
     4
 75
   131
340
33
 46
5.08
 50
180.0
 44
5.08
 45
0.0
 49
-5.08
 74
     0
  0
ENDTAB
  0
TABLE
  2
LAYER
  5
2
102
{ACAD_XDICTIONARY
360
DE1
102
}
330
0
100
AcDbSymbolTable
 70
     7
  0
LAYER
  5
10
330
2
100
AcDbSymbolTableRecord
100
AcDbLayerTableRecord
  2
0
 70
     0
 62
     7
  6
Continuous
370
    -3
390
F
  0
LAYER
  5
C3
330
2
100
AcDbSymbolTableRecord
100
AcDbLayerTableRecord
  2
Defpoints
 70
     0
 62
     7
  6
Continuous
290
     0
370
    -3
390
F
  0
LAYER
  5
256
330
2
100
AcDbSymbolTableRecord
100
AcDbLayerTableRecord
  2
Cen
 70
     0
 62
     7
  6
CENTER2
370
    15
390
F
  0
LAYER
  5
5DF
330
2
100
AcDbSymbolTableRecord
100
AcDbLayerTableRecord
  2
実形
 70
     0
 62
     7
  6
Continuous
370
    -3
390
F
  0
LAYER
  5
60C
330
2
100
AcDbSymbolTableRecord
100
AcDbLayerTableRecord
  2
補助
 70
     0
 62
     7
  6
Continuous
370
    -3
390
F
  0
LAYER
  5
619
330
2
100
AcDbSymbolTableRecord
100
AcDbLayerTableRecord
  2
センター
 70
     0
 62
     7
  6
CENTER2
370
    18
390
F
  0
LAYER
  5
61A
330
2
100
AcDbSymbolTableRecord
100
AcDbLayerTableRecord
  2
寸法
 70
     0
 62
     7
  6
Continuous
370
    18
390
F
  0
ENDTAB
  0
TABLE
  2
STYLE
  5
3
330
0
100
AcDbSymbolTable
 70
     4
  0
STYLE
  5
11
330
3
100
AcDbSymbolTableRecord
100
AcDbTextStyleTableRecord
  2
Standard
 70
     0
 40
0.0
 41
1.0
 50
0.0
 71
     0
 42
25.0
  3
txt.shx
  4
bigfont.shx
  0
STYLE
  5
33
330
3
100
AcDbSymbolTableRecord
100
AcDbTextStyleTableRecord
  2

 70
     1
 40
0.0
 41
1.0
 50
0.0
 71
     0
 42
2.5
  3
ltypeshp.shx
  4

  0
STYLE
  5
EEA
330
3
100
AcDbSymbolTableRecord
100
AcDbTextStyleTableRecord
  2
ms明朝
 70
     0
 40
0.0
 41
1.0
 50
0.0
 71
     0
 42
25.0
  3
MS Mincho.ttf
  4

1001
ACAD
1000
MS Mincho
1071
    32785
  0
STYLE
  5
2397
330
3
100
AcDbSymbolTableRecord
100
AcDbTextStyleTableRecord
  2
明朝
 70
     0
 40
0.0
 41
1.0
 50
0.0
 71
     0
 42
25.0
  3
MS Mincho.ttf
  4

1001
ACAD
1000
MS Mincho
1071
    32785
  0
ENDTAB
  0
TABLE
  2
VIEW
  5
6
330
0
100
AcDbSymbolTable
 70
     0
  0
ENDTAB
  0
TABLE
  2
UCS
  5
7
330
0
100
AcDbSymbolTable
 70
     0
  0
ENDTAB
  0
TABLE
  2
APPID
  5
9
330
0
100
AcDbSymbolTable
 70
     2
  0
APPID
  5
12
330
9
100
AcDbSymbolTableRecord
100
AcDbRegAppTableRecord
  2
ACAD
 70
     0
  0
APPID
  5
DE0
330
9
100
AcDbSymbolTableRecord
100
AcDbRegAppTableRecord
  2
ACAD_PSEXT
 70
     0
  0
ENDTAB
  0
TABLE
  2
DIMSTYLE
  5
A
330
0
100
AcDbSymbolTable
 70
     1
100
AcDbDimStyleTable
 71
     1
340
27
  0
DIMSTYLE
105
27
102
{ACAD_REACTORS
330
473
330
480
330
586
330
304
330
28B
330
2B3
330
270
330
376
330
2E9
330
298
330
2DC
330
2A6
330
27E
330
384
330
31C
330
2F7
330
3BF
330
3B2
330
E79
330
1105
330
1415
330
144B
330
147E
330
151E
330
155A
330
158D
330
1E47
330
1E51
330
1E54
330
1E55
330
1E58
330
1E59
330
1E5A
330
1E5B
330
1E5D
330
1E5E
330
1E5F
330
1E60
330
1E61
330
1E62
330
1E68
330
1E69
330
1E6A
330
1E72
330
1E73
330
1E74
330
230F
330
2310
330
2311
330
2312
330
2313
330
2701
330
2702
330
2703
330
2704
330
2705
102
}
330
A
100
AcDbSymbolTableRecord
100
AcDbDimStyleTableRecord
  2
ISO-25
 70
     0
 41
30.0
 42
65.0
 43
3.75
 44
0.0
 73
     0
 74
     0
 77
     1
 78
     8
140
25.0
141
2.5
143
0.03937007874016
147
6.25
171
     3
172
     1
271
     2
272
     2
274
     3
283
     0
284
     8
340
11
341
DA
342
D0
371
    15
372
    15
  0
ENDTAB
  0
TABLE
  2
BLOCK_RECORD
  5
1
330
0
100
AcDbSymbolTable
 70
    68
  0
BLOCK_RECORD
  5
1F
102
{ACAD_XDICTIONARY
360
C47
102
}
330
1
100
AcDbSymbolTableRecord
100
AcDbBlockTableRecord
  2
*Model_Space
340
22
  0
BLOCK_RECORD
  5
1B
330
1
100
AcDbSymbolTableRecord
100
AcDbBlockTableRecord
  2
*Paper_Space
340
1E
  0
BLOCK_RECORD
  5
23
330
1
100
AcDbSymbolTableRecord
100
AcDbBlockTableRecord
  2
*Paper_Space0
340
26
  0
BLOCK_RECORD
  5
D0
330
1
100
AcDbSymbolTableRecord
100
AcDbBlockTableRecord
  2
_DotSmall
340
0
102
{BLKREFS
331
1207
331
1208
331
1213
331
1214
331
121F
331
1220
331
122A
331
122B
331
1B7D
331
1B7E
331
1B86
331
1B87
331
1B8F
331
1B90
331
1B99
331
1B9A
331
1BA2
331
1BA3
331
1BAC
331
1BAD
331
1BB4
331
1BB5
331
1BBE
331
1BBF
331
1BC7
331
1BC8
331
1BD1
331
1BD2
331
1BD9
331
1BDA
331
1BE2
331
1BE3
331
1BEB
331
1BEC
331
1BF4
331
1BF5
331
1BFD
331
1BFE
331
1C19
331
1C1A
331
1C31
331
1C32
331
1C69
331
1C6A
331
1C73
331
1C74
331
1C7C
331
1C7D
331
1C85
331
1C86
331
1C8E
331
1C8F
331
21FB
331
21FC
331
2204
331
2205
331
220D
331
220E
331
2216
331
2217
331
221F
331
2220
331
2228
331
2229
331
2231
331
2232
331
223A
331
223B
331
2244
331
2245
331
2252
331
2253
331
225B
331
225C
331
2264
331
2265
331
226D
331
226E
331
2276
331
2277
331
2280
331
2281
331
2288
331
2289
331
2292
331
2293
331
229A
331
229B
331
22A3
331
22A4
331
23C3
331
23C4
331
23CB
331
23CC
331
23D4
331
23D5
331
23E7
331
23E8
331
23F2
331
23F3
331
2406
331
2407
331
24FE
331
24FF
331
277E
331
277F
331
2792
331
2793
331
27A6
331
27A7
331
27B3
331
27B4
331
27BE
331
27BF
331
27C7
331
27C8
331
27D0
331
27D1
102
}
  0
BLOCK_RECORD
  5
D4
330
1
100
AcDbSymbolTableRecord
100
AcDbBlockTableRecord
  2
_Origin2
340
0
  0
BLOCK_RECORD
  5
DA
330
1
100
AcDbSymbolTableRecord
100
AcDbBlockTableRecord
  2
_Open30
340
0
  0
BLOCK_RECORD
  5
271
330
1
100
AcDbSymbolTableRecord
100
AcDbBlockTableRecord
  2
*D4
340
0
  0
BLOCK_RECORD
  5
27F
330
1
100
AcDbSymbolTableRecord
100
AcDbBlockTableRecord
  2
*D5
340
0
  0
BLOCK_RECORD
  5
28C
330
1
100
AcDbSymbolTableRecord
100
AcDbBlockTableRecord
  2
*D6
340
0
  0
BLOCK_RECORD
  5
299
330
1
100
AcDbSymbolTableRecord
100
AcDbBlockTableRecord
  2
*D7
340
0
  0
BLOCK_RECORD
  5
2A7
330
1
100
AcDbSymbolTableRecord
100
AcDbBlockTableRecord
  2
*D8
340
0
  0
BLOCK_RECORD
  5
2B4
330
1
100
AcDbSymbolTableRecord
100
AcDbBlockTableRecord
  2
*D9
340
0
  0
BLOCK_RECORD
  5
2DD
330
1
100
AcDbSymbolTableRecord
100
AcDbBlockTableRecord
  2
*D10
340
0
  0
BLOCK_RECORD
  5
2EA
330
1
100
AcDbSymbolTableRecord
100
AcDbBlockTableRecord
  2
*D11
340
0
  0
BLOCK_RECORD
  5
2F8
330
1
100
AcDbSymbolTableRecord
100
AcDbBlockTableRecord
  2
*D12
340
0
  0
BLOCK_RECORD
  5
305
330
1
100
AcDbSymbolTableRecord
100
AcDbBlockTableRecord
  2
*D13
340
0
  0
BLOCK_RECORD
  5
31D
330
1
100
AcDbSymbolTableRecord
100
AcDbBlockTableRecord
  2
*D14
340
0
  0
BLOCK_RECORD
  5
377
330
1
100
AcDbSymbolTableRecord
100
AcDbBlockTableRecord
  2
*D15
340
0
  0
BLOCK_RECORD
  5
385
330
1
100
AcDbSymbolTableRecord
100
AcDbBlockTableRecord
  2
*D16
340
0
  0
BLOCK_RECORD
  5
3B3
330
1
100
AcDbSymbolTableRecord
100
AcDbBlockTableRecord
  2
*D17
340
0
  0
BLOCK_RECORD
  5
3C0
330
1
100
AcDbSymbolTableRecord
100
AcDbBlockTableRecord
  2
*D18
340
0
  0
BLOCK_RECORD
  5
474
330
1
100
AcDbSymbolTableRecord
100
AcDbBlockTableRecord
  2
*D19
340
0
  0
BLOCK_RECORD
  5
481
330
1
100
AcDbSymbolTableRecord
100
AcDbBlockTableRecord
  2
*D20
340
0
  0
BLOCK_RECORD
  5
587
330
1
100
AcDbSymbolTableRecord
100
AcDbBlockTableRecord
  2
*D21
340
0
  0
BLOCK_RECORD
  5
DE3
102
{ACAD_XDICTIONARY
360
DE5
102
}
330
1
100
AcDbSymbolTableRecord
100
AcDbBlockTableRecord
  2
A$C0655774D
340
0
  0
BLOCK_RECORD
  5
DE9
330
1
100
AcDbSymbolTableRecord
100
AcDbBlockTableRecord
  2
_Dot
340
0
  0
BLOCK_RECORD
  5
E7A
330
1
100
AcDbSymbolTableRecord
100
AcDbBlockTableRecord
  2
*D24
340
0
  0
BLOCK_RECORD
  5
FBF
102
{ACAD_XDICTIONARY
360
FC3
102
}
330
1
100
AcDbSymbolTableRecord
100
AcDbBlockTableRecord
  2
A$C32F61BAA
340
0
  0
BLOCK_RECORD
  5
1106
330
1
100
AcDbSymbolTableRecord
100
AcDbBlockTableRecord
  2
*D26
340
0
  0
BLOCK_RECORD
  5
1201
330
1
100
AcDbSymbolTableRecord
100
AcDbBlockTableRecord
  2
*D27
340
0
  0
BLOCK_RECORD
  5
120D
330
1
100
AcDbSymbolTableRecord
100
AcDbBlockTableRecord
  2
*D28
340
0
  0
BLOCK_RECORD
  5
1219
330
1
100
AcDbSymbolTableRecord
100
AcDbBlockTableRecord
  2
*D29
340
0
  0
BLOCK_RECORD
  5
1225
330
1
100
AcDbSymbolTableRecord
100
AcDbBlockTableRecord
  2
*D30
340
0
  0
BLOCK_RECORD
  5
1231
102
{ACAD_XDICTIONARY
360
1236
102
}
330
1
100
AcDbSymbolTableRecord
100
AcDbBlockTableRecord
  2
A$C1B402390
340
0
  0
BLOCK_RECORD
  5
1416
330
1
100
AcDbSymbolTableRecord
100
AcDbBlockTableRecord
  2
*D32
340
0
  0
BLOCK_RECORD
  5
144C
330
1
100
AcDbSymbolTableRecord
100
AcDbBlockTableRecord
  2
*D33
340
0
  0
BLOCK_RECORD
  5
147F
330
1
100
AcDbSymbolTableRecord
100
AcDbBlockTableRecord
  2
*D34
340
0
  0
BLOCK_RECORD
  5
151F
330
1
100
AcDbSymbolTableRecord
100
AcDbBlockTableRecord
  2
*D35
340
0
  0
BLOCK_RECORD
  5
155B
330
1
100
AcDbSymbolTableRecord
100
AcDbBlockTableRecord
  2
*D36
340
0
  0
BLOCK_RECORD
  5
158E
330
1
100
AcDbSymbolTableRecord
100
AcDbBlockTableRecord
  2
*D37
340
0
  0
BLOCK_RECORD
  5
1E76
330
1
100
AcDbSymbolTableRecord
100
AcDbBlockTableRecord
  2
*D38
340
0
  0
BLOCK_RECORD
  5
1E7F
330
1
100
AcDbSymbolTableRecord
100
AcDbBlockTableRecord
  2
*D39
340
0
  0
BLOCK_RECORD
  5
1E8B
330
1
100
AcDbSymbolTableRecord
100
AcDbBlockTableRecord
  2
*D40
340
0
  0
BLOCK_RECORD
  5
1E97
330
1
100
AcDbSymbolTableRecord
100
AcDbBlockTableRecord
  2
*D41
340
0
  0
BLOCK_RECORD
  5
1EA3
330
1
100
AcDbSymbolTableRecord
100
AcDbBlockTableRecord
  2
*D42
340
0
  0
BLOCK_RECORD
  5
1EAF
330
1
100
AcDbSymbolTableRecord
100
AcDbBlockTableRecord
  2
*D43
340
0
  0
BLOCK_RECORD
  5
1EBB
330
1
100
AcDbSymbolTableRecord
100
AcDbBlockTableRecord
  2
*D44
340
0
  0
BLOCK_RECORD
  5
1EC7
330
1
100
AcDbSymbolTableRecord
100
AcDbBlockTableRecord
  2
*D45
340
0
  0
BLOCK_RECORD
  5
1ED3
330
1
100
AcDbSymbolTableRecord
100
AcDbBlockTableRecord
  2
*D46
340
0
  0
BLOCK_RECORD
  5
1EDF
330
1
100
AcDbSymbolTableRecord
100
AcDbBlockTableRecord
  2
*D47
340
0
  0
BLOCK_RECORD
  5
1EEB
330
1
100
AcDbSymbolTableRecord
100
AcDbBlockTableRecord
  2
*D48
340
0
  0
BLOCK_RECORD
  5
1EF7
330
1
100
AcDbSymbolTableRecord
100
AcDbBlockTableRecord
  2
*D49
340
0
  0
BLOCK_RECORD
  5
1F03
330
1
100
AcDbSymbolTableRecord
100
AcDbBlockTableRecord
  2
*D50
340
0
  0
BLOCK_RECORD
  5
1F0F
330
1
100
AcDbSymbolTableRecord
100
AcDbBlockTableRecord
  2
*D51
340
0
  0
BLOCK_RECORD
  5
1F1B
330
1
100
AcDbSymbolTableRecord
100
AcDbBlockTableRecord
  2
*D52
340
0
  0
BLOCK_RECORD
  5
1F27
330
1
100
AcDbSymbolTableRecord
100
AcDbBlockTableRecord
  2
*D53
340
0
  0
BLOCK_RECORD
  5
1F33
330
1
100
AcDbSymbolTableRecord
100
AcDbBlockTableRecord
  2
*D54
340
0
  0
BLOCK_RECORD
  5
1F3F
330
1
100
AcDbSymbolTableRecord
100
AcDbBlockTableRecord
  2
*D55
340
0
  0
BLOCK_RECORD
  5
1F4B
330
1
100
AcDbSymbolTableRecord
100
AcDbBlockTableRecord
  2
*D56
340
0
  0
BLOCK_RECORD
  5
1F57
330
1
100
AcDbSymbolTableRecord
100
AcDbBlockTableRecord
  2
*D57
340
0
  0
BLOCK_RECORD
  5
231C
330
1
100
AcDbSymbolTableRecord
100
AcDbBlockTableRecord
  2
*D58
340
0
  0
BLOCK_RECORD
  5
2328
330
1
100
AcDbSymbolTableRecord
100
AcDbBlockTableRecord
  2
*D59
340
0
  0
BLOCK_RECORD
  5
2336
330
1
100
AcDbSymbolTableRecord
100
AcDbBlockTableRecord
  2
*D60
340
0
  0
BLOCK_RECORD
  5
2342
330
1
100
AcDbSymbolTableRecord
100
AcDbBlockTableRecord
  2
*D61
340
0
  0
BLOCK_RECORD
  5
234E
330
1
100
AcDbSymbolTableRecord
100
AcDbBlockTableRecord
  2
*D62
340
0
  0
BLOCK_RECORD
  5
2709
330
1
100
AcDbSymbolTableRecord
100
AcDbBlockTableRecord
  2
*D63
340
0
  0
BLOCK_RECORD
  5
2715
330
1
100
AcDbSymbolTableRecord
100
AcDbBlockTableRecord
  2
*D64
340
0
  0
BLOCK_RECORD
  5
2723
330
1
100
AcDbSymbolTableRecord
100
AcDbBlockTableRecord
  2
*D65
340
0
  0
BLOCK_RECORD
  5
272F
330
1
100
AcDbSymbolTableRecord
100
AcDbBlockTableRecord
  2
*D66
340
0
  0
BLOCK_RECORD
  5
273B
330
1
100
AcDbSymbolTableRecord
100
AcDbBlockTableRecord
  2
*D67
340
0
  0
ENDTAB
  0
ENDSEC
  0
SECTION
  2
BLOCKS
  0
BLOCK
  5
20
330
1F
100
AcDbEntity
  8
0
100
AcDbBlockBegin
  2
*Model_Space
 70
     0
 10
0.0
 20
0.0
 30
0.0
  3
*Model_Space
  1

  0
ENDBLK
  5
21
330
1F
100
AcDbEntity
  8
0
100
AcDbBlockEnd
  0
BLOCK
  5
1C
330
1B
100
AcDbEntity
 67
     1
  8
0
100
AcDbBlockBegin
  2
*Paper_Space
 70
     0
 10
0.0
 20
0.0
 30
0.0
  3
*Paper_Space
  1

  0
ENDBLK
  5
1D
330
1B
100
AcDbEntity
 67
     1
  8
0
100
AcDbBlockEnd
  0
BLOCK
  5
24
330
23
100
AcDbEntity
  8
0
100
AcDbBlockBegin
  2
*Paper_Space0
 70
     0
 10
0.0
 20
0.0
 30
0.0
  3
*Paper_Space0
  1

  0
ENDBLK
  5
25
330
23
100
AcDbEntity
  8
0
100
AcDbBlockEnd
  0
BLOCK
  5
D2
330
D0
100
AcDbEntity
  8
0
100
AcDbBlockBegin
  2
_DotSmall
 70
     0
 10
0.0
 20
0.0
 30
0.0
  3
_DotSmall
  1

  0
LWPOLYLINE
  5
D1
330
D0
100
AcDbEntity
  8
0
 62
     0
100
AcDbPolyline
 90
        2
 70
     1
 43
0.5
 10
-0.0625
 20
0.0
 42
1.0
 10
0.0625
 20
0.0
 42
1.0
  0
ENDBLK
  5
D3
330
D0
100
AcDbEntity
  8
0
100
AcDbBlockEnd
  0
BLOCK
  5
D8
330
D4
100
AcDbEntity
  8
0
100
AcDbBlockBegin
  2
_Origin2
 70
     0
 10
0.0
 20
0.0
 30
0.0
  3
_Origin2
  1

  0
CIRCLE
  5
D5
330
D4
100
AcDbEntity
  8
0
 62
     0
370
    -2
100
AcDbCircle
 10
0.0
 20
0.0
 30
0.0
 40
0.5
  0
CIRCLE
  5
D6
330
D4
100
AcDbEntity
  8
0
 62
     0
370
    -2
100
AcDbCircle
 10
0.0
 20
0.0
 30
0.0
 40
0.25
  0
LINE
  5
D7
330
D4
100
AcDbEntity
  8
0
 62
     0
370
    -2
100
AcDbLine
 10
-0.5
 20
0.0
 30
0.0
 11
-1.0
 21
0.0
 31
0.0
  0
ENDBLK
  5
D9
330
D4
100
AcDbEntity
  8
0
100
AcDbBlockEnd
  0
BLOCK
  5
DE
330
DA
100
AcDbEntity
  8
0
100
AcDbBlockBegin
  2
_Open30
 70
     0
 10
0.0
 20
0.0
 30
0.0
  3
_Open30
  1

  0
LINE
  5
DB
330
DA
100
AcDbEntity
  8
0
 62
     0
370
    -2
100
AcDbLine
 10
-1.0
 20
0.26794919
 30
0.0
 11
0.0
 21
0.0
 31
0.0
  0
LINE
  5
DC
330
DA
100
AcDbEntity
  8
0
 62
     0
370
    -2
100
AcDbLine
 10
0.0
 20
0.0
 30
0.0
 11
-1.0
 21
-0.26794919
 31
0.0
  0
LINE
  5
DD
330
DA
100
AcDbEntity
  8
0
 62
     0
370
    -2
100
AcDbLine
 10
0.0
 20
0.0
 30
0.0
 11
-1.0
 21
0.0
 31
0.0
  0
ENDBLK
  5
DF
330
DA
100
AcDbEntity
  8
0
100
AcDbBlockEnd
  0
BLOCK
  5
27C
330
271
100
AcDbEntity
  8
0
100
AcDbBlockBegin
  2
*D4
 70
     1
 10
0.0
 20
0.0
 30
0.0
  3
*D4
  1

  0
LINE
  5
1B79
330
271
100
AcDbEntity
  8
0
 62
     0
370
    15
100
AcDbLine
 10
397.9440443679751
 20
1046.111913428962
 30
0.0
 11
345.1935422510787
 21
1046.111913428962
 31
0.0
  0
LINE
  5
1B7A
330
271
100
AcDbEntity
  8
0
 62
     0
370
    15
100
AcDbLine
 10
397.9440443679751
 20
1061.111913428962
 30
0.0
 11
345.1935422510787
 21
1061.111913428962
 31
0.0
  0
LINE
  5
1B7B
330
271
100
AcDbEntity
  8
0
 62
     0
370
    15
100
AcDbLine
 10
345.1935422510787
 20
1046.111913428962
 30
0.0
 11
345.1935422510787
 21
1061.111913428962
 31
0.0
  0
LINE
  5
1B7C
330
271
100
AcDbEntity
  8
0
 62
     0
370
    15
100
AcDbLine
 10
345.1935422510787
 20
1061.111913428962
 30
0.0
 11
345.1935422510787
 21
1136.945246762295
 31
0.0
  0
INSERT
  5
1B7D
330
271
100
AcDbEntity
  8
0
 62
     0
370
    15
100
AcDbBlockReference
  2
_DotSmall
 10
345.1935422510787
 20
1046.111913428962
 30
0.0
 41
30.0
 42
30.0
 43
30.0
 50
270.0
  0
INSERT
  5
1B7E
330
271
100
AcDbEntity
  8
0
 62
     0
370
    15
100
AcDbBlockReference
  2
_DotSmall
 10
345.1935422510787
 20
1061.111913428962
 30
0.0
 41
30.0
 42
30.0
 43
30.0
 50
90.0
  0
MTEXT
  5
1B7F
330
271
100
AcDbEntity
  8
0
 62
     0
100
AcDbMText
 10
326.4435422510786
 20
1114.028580095629
 30
0.0
 40
25.0
 41
0.0
 71
     5
 72
     1
  1
15
 11
0.0000000000000001
 21
1.0
 31
0.0
 73
     1
 44
1.0
1001
ACAD
1000
MTEXTBEGIN
1070
    73
1070
     1
1070
    44
1040
1.0
1070
    74
1070
     0
1000
MTEXTEND
  0
POINT
  5
1B80
330
271
100
AcDbEntity
  8
Defpoints
 62
     0
100
AcDbPoint
 10
462.944044367975
 20
1046.111913428962
 30
0.0
  0
POINT
  5
1B81
330
271
100
AcDbEntity
  8
Defpoints
 62
     0
100
AcDbPoint
 10
462.944044367975
 20
1061.111913428962
 30
0.0
  0
POINT
  5
1B82
330
271
100
AcDbEntity
  8
Defpoints
 62
     0
100
AcDbPoint
 10
345.1935422510787
 20
1061.111913428962
 30
0.0
  0
ENDBLK
  5
27D
330
271
100
AcDbEntity
  8
0
100
AcDbBlockEnd
  0
BLOCK
  5
289
330
27F
100
AcDbEntity
  8
0
100
AcDbBlockBegin
  2
*D5
 70
     1
 10
0.0
 20
0.0
 30
0.0
  3
*D5
  1

  0
LINE
  5
1B83
330
27F
100
AcDbEntity
  8
0
 62
     0
370
    15
100
AcDbLine
 10
397.9440443679751
 20
1061.111913428962
 30
0.0
 11
345.1935422510787
 21
1061.111913428962
 31
0.0
  0
LINE
  5
1B84
330
27F
100
AcDbEntity
  8
0
 62
     0
370
    15
100
AcDbLine
 10
397.9440443679751
 20
1491.111913428962
 30
0.0
 11
345.1935422510788
 21
1491.111913428962
 31
0.0
  0
LINE
  5
1B85
330
27F
100
AcDbEntity
  8
0
 62
     0
370
    15
100
AcDbLine
 10
345.1935422510787
 20
1061.111913428962
 30
0.0
 11
345.1935422510788
 21
1491.111913428962
 31
0.0
  0
INSERT
  5
1B86
330
27F
100
AcDbEntity
  8
0
 62
     0
370
    15
100
AcDbBlockReference
  2
_DotSmall
 10
345.1935422510787
 20
1061.111913428962
 30
0.0
 41
30.0
 42
30.0
 43
30.0
 50
270.0
  0
INSERT
  5
1B87
330
27F
100
AcDbEntity
  8
0
 62
     0
370
    15
100
AcDbBlockReference
  2
_DotSmall
 10
345.1935422510788
 20
1491.111913428962
 30
0.0
 41
30.0
 42
30.0
 43
30.0
 50
90.0
  0
MTEXT
  5
1B88
330
27F
100
AcDbEntity
  8
0
 62
     0
100
AcDbMText
 10
326.4435422510786
 20
1276.111913428962
 30
0.0
 40
25.0
 41
0.0
 71
     5
 72
     1
  1
430
 11
0.0000000000000001
 21
1.0
 31
0.0
 73
     1
 44
1.0
1001
ACAD
1000
MTEXTBEGIN
1070
    73
1070
     1
1070
    44
1040
1.0
1070
    74
1070
     0
1000
MTEXTEND
  0
POINT
  5
1B89
330
27F
100
AcDbEntity
  8
Defpoints
 62
     0
100
AcDbPoint
 10
462.944044367975
 20
1061.111913428962
 30
0.0
  0
POINT
  5
1B8A
330
27F
100
AcDbEntity
  8
Defpoints
 62
     0
100
AcDbPoint
 10
462.9440443679751
 20
1491.111913428962
 30
0.0
  0
POINT
  5
1B8B
330
27F
100
AcDbEntity
  8
Defpoints
 62
     0
100
AcDbPoint
 10
345.1935422510788
 20
1491.111913428962
 30
0.0
  0
ENDBLK
  5
28A
330
27F
100
AcDbEntity
  8
0
100
AcDbBlockEnd
  0
BLOCK
  5
296
330
28C
100
AcDbEntity
  8
0
100
AcDbBlockBegin
  2
*D6
 70
     1
 10
0.0
 20
0.0
 30
0.0
  3
*D6
  1

  0
LINE
  5
1B8C
330
28C
100
AcDbEntity
  8
0
 62
     0
370
    15
100
AcDbLine
 10
397.9440443679751
 20
1491.111913428962
 30
0.0
 11
345.1935422510788
 21
1491.111913428962
 31
0.0
  0
LINE
  5
1B8D
330
28C
100
AcDbEntity
  8
0
 62
     0
370
    15
100
AcDbLine
 10
397.9440443679751
 20
1566.111913428962
 30
0.0
 11
345.1935422510788
 21
1566.111913428962
 31
0.0
  0
LINE
  5
1B8E
330
28C
100
AcDbEntity
  8
0
 62
     0
370
    15
100
AcDbLine
 10
345.1935422510788
 20
1491.111913428962
 30
0.0
 11
345.1935422510788
 21
1566.111913428962
 31
0.0
  0
INSERT
  5
1B8F
330
28C
100
AcDbEntity
  8
0
 62
     0
370
    15
100
AcDbBlockReference
  2
_DotSmall
 10
345.1935422510788
 20
1491.111913428962
 30
0.0
 41
30.0
 42
30.0
 43
30.0
 50
270.0
  0
INSERT
  5
1B90
330
28C
100
AcDbEntity
  8
0
 62
     0
370
    15
100
AcDbBlockReference
  2
_DotSmall
 10
345.1935422510788
 20
1566.111913428962
 30
0.0
 41
30.0
 42
30.0
 43
30.0
 50
90.0
  0
MTEXT
  5
1B91
330
28C
100
AcDbEntity
  8
0
 62
     0
100
AcDbMText
 10
326.4435422510786
 20
1528.611913428962
 30
0.0
 40
25.0
 41
0.0
 71
     5
 72
     1
  1
75
 11
0.0000000000000001
 21
1.0
 31
0.0
 73
     1
 44
1.0
1001
ACAD
1000
MTEXTBEGIN
1070
    73
1070
     1
1070
    44
1040
1.0
1070
    74
1070
     0
1000
MTEXTEND
  0
POINT
  5
1B92
330
28C
100
AcDbEntity
  8
Defpoints
 62
     0
100
AcDbPoint
 10
462.9440443679751
 20
1491.111913428962
 30
0.0
  0
POINT
  5
1B93
330
28C
100
AcDbEntity
  8
Defpoints
 62
     0
100
AcDbPoint
 10
462.9440443679751
 20
1566.111913428962
 30
0.0
  0
POINT
  5
1B94
330
28C
100
AcDbEntity
  8
Defpoints
 62
     0
100
AcDbPoint
 10
345.1935422510788
 20
1566.111913428962
 30
0.0
  0
ENDBLK
  5
297
330
28C
100
AcDbEntity
  8
0
100
AcDbBlockEnd
  0
BLOCK
  5
2A4
330
299
100
AcDbEntity
  8
0
100
AcDbBlockBegin
  2
*D7
 70
     1
 10
0.0
 20
0.0
 30
0.0
  3
*D7
  1

  0
LINE
  5
1B95
330
299
100
AcDbEntity
  8
0
 62
     0
370
    15
100
AcDbLine
 10
397.9440443679751
 20
1029.111913428962
 30
0.0
 11
272.5651223479464
 21
1029.111913428962
 31
0.0
  0
LINE
  5
1B96
330
299
100
AcDbEntity
  8
0
 62
     0
370
    15
100
AcDbLine
 10
397.9440443679751
 20
1046.111913428962
 30
0.0
 11
272.5651223479464
 21
1046.111913428962
 31
0.0
  0
LINE
  5
1B97
330
299
100
AcDbEntity
  8
0
 62
     0
370
    15
100
AcDbLine
 10
272.5651223479464
 20
1029.111913428962
 30
0.0
 11
272.5651223479464
 21
1046.111913428962
 31
0.0
  0
LINE
  5
1B98
330
299
100
AcDbEntity
  8
0
 62
     0
370
    15
100
AcDbLine
 10
272.5651223479464
 20
1046.111913428962
 30
0.0
 11
272.5651223479464
 21
1121.945246762295
 31
0.0
  0
INSERT
  5
1B99
330
299
100
AcDbEntity
  8
0
 62
     0
370
    15
100
AcDbBlockReference
  2
_DotSmall
 10
272.5651223479464
 20
1029.111913428962
 30
0.0
 41
30.0
 42
30.0
 43
30.0
 50
270.0
  0
INSERT
  5
1B9A
330
299
100
AcDbEntity
  8
0
 62
     0
370
    15
100
AcDbBlockReference
  2
_DotSmall
 10
272.5651223479464
 20
1046.111913428962
 30
0.0
 41
30.0
 42
30.0
 43
30.0
 50
90.0
  0
MTEXT
  5
1B9B
330
299
100
AcDbEntity
  8
0
 62
     0
100
AcDbMText
 10
253.8151223479463
 20
1099.028580095629
 30
0.0
 40
25.0
 41
0.0
 71
     5
 72
     1
  1
17
 11
0.0000000000000001
 21
1.0
 31
0.0
 73
     1
 44
1.0
1001
ACAD
1000
MTEXTBEGIN
1070
    73
1070
     1
1070
    44
1040
1.0
1070
    74
1070
     0
1000
MTEXTEND
  0
POINT
  5
1B9C
330
299
100
AcDbEntity
  8
Defpoints
 62
     0
100
AcDbPoint
 10
462.944044367975
 20
1029.111913428962
 30
0.0
  0
POINT
  5
1B9D
330
299
100
AcDbEntity
  8
Defpoints
 62
     0
100
AcDbPoint
 10
462.944044367975
 20
1046.111913428962
 30
0.0
  0
POINT
  5
1B9E
330
299
100
AcDbEntity
  8
Defpoints
 62
     0
100
AcDbPoint
 10
272.5651223479464
 20
1046.111913428962
 30
0.0
  0
ENDBLK
  5
2A5
330
299
100
AcDbEntity
  8
0
100
AcDbBlockEnd
  0
BLOCK
  5
2B1
330
2A7
100
AcDbEntity
  8
0
100
AcDbBlockBegin
  2
*D8
 70
     1
 10
0.0
 20
0.0
 30
0.0
  3
*D8
  1

  0
LINE
  5
1B9F
330
2A7
100
AcDbEntity
  8
0
 62
     0
370
    15
100
AcDbLine
 10
397.9440443679751
 20
1046.111913428962
 30
0.0
 11
272.5651223479463
 21
1046.111913428962
 31
0.0
  0
LINE
  5
1BA0
330
2A7
100
AcDbEntity
  8
0
 62
     0
370
    15
100
AcDbLine
 10
397.9440443679751
 20
1566.111913428962
 30
0.0
 11
272.5651223479464
 21
1566.111913428962
 31
0.0
  0
LINE
  5
1BA1
330
2A7
100
AcDbEntity
  8
0
 62
     0
370
    15
100
AcDbLine
 10
272.5651223479463
 20
1046.111913428962
 30
0.0
 11
272.5651223479464
 21
1566.111913428962
 31
0.0
  0
INSERT
  5
1BA2
330
2A7
100
AcDbEntity
  8
0
 62
     0
370
    15
100
AcDbBlockReference
  2
_DotSmall
 10
272.5651223479463
 20
1046.111913428962
 30
0.0
 41
30.0
 42
30.0
 43
30.0
 50
270.0
  0
INSERT
  5
1BA3
330
2A7
100
AcDbEntity
  8
0
 62
     0
370
    15
100
AcDbBlockReference
  2
_DotSmall
 10
272.5651223479464
 20
1566.111913428962
 30
0.0
 41
30.0
 42
30.0
 43
30.0
 50
90.0
  0
MTEXT
  5
1BA4
330
2A7
100
AcDbEntity
  8
0
 62
     0
100
AcDbMText
 10
253.8151223479461
 20
1306.111913428962
 30
0.0
 40
25.0
 41
0.0
 71
     5
 72
     1
  1
520
 11
0.0000000000000001
 21
1.0
 31
0.0
 73
     1
 44
1.0
1001
ACAD
1000
MTEXTBEGIN
1070
    73
1070
     1
1070
    44
1040
1.0
1070
    74
1070
     0
1000
MTEXTEND
  0
POINT
  5
1BA5
330
2A7
100
AcDbEntity
  8
Defpoints
 62
     0
100
AcDbPoint
 10
462.944044367975
 20
1046.111913428962
 30
0.0
  0
POINT
  5
1BA6
330
2A7
100
AcDbEntity
  8
Defpoints
 62
     0
100
AcDbPoint
 10
462.9440443679751
 20
1566.111913428962
 30
0.0
  0
POINT
  5
1BA7
330
2A7
100
AcDbEntity
  8
Defpoints
 62
     0
100
AcDbPoint
 10
272.5651223479464
 20
1566.111913428962
 30
0.0
  0
ENDBLK
  5
2B2
330
2A7
100
AcDbEntity
  8
0
100
AcDbBlockEnd
  0
BLOCK
  5
2BE
330
2B4
100
AcDbEntity
  8
0
100
AcDbBlockBegin
  2
*D9
 70
     1
 10
0.0
 20
0.0
 30
0.0
  3
*D9
  1

  0
LINE
  5
1BA8
330
2B4
100
AcDbEntity
  8
0
 62
     0
370
    15
100
AcDbLine
 10
397.9440443679751
 20
1566.111913428962
 30
0.0
 11
272.5651223479464
 21
1566.111913428962
 31
0.0
  0
LINE
  5
1BA9
330
2B4
100
AcDbEntity
  8
0
 62
     0
370
    15
100
AcDbLine
 10
397.9440443679751
 20
1583.111913428962
 30
0.0
 11
272.5651223479464
 21
1583.111913428962
 31
0.0
  0
LINE
  5
1BAA
330
2B4
100
AcDbEntity
  8
0
 62
     0
370
    15
100
AcDbLine
 10
272.5651223479464
 20
1566.111913428962
 30
0.0
 11
272.5651223479464
 21
1583.111913428962
 31
0.0
  0
MTEXT
  5
1BAB
330
2B4
100
AcDbEntity
  8
0
 62
     0
100
AcDbMText
 10
236.1785756718409
 20
1551.542158957699
 30
0.0
 40
25.0
 41
0.0
 71
     5
 72
     1
  1
17
 11
0.0000000000000001
 21
1.0
 31
0.0
 73
     1
 44
1.0
1001
ACAD
1000
MTEXTBEGIN
1070
    73
1070
     1
1070
    44
1040
1.0
1070
    74
1070
     0
1000
MTEXTEND
  0
INSERT
  5
1BAC
330
2B4
100
AcDbEntity
  8
0
 62
     0
370
    15
100
AcDbBlockReference
  2
_DotSmall
 10
272.5651223479464
 20
1566.111913428962
 30
0.0
 41
30.0
 42
30.0
 43
30.0
 50
270.0
  0
INSERT
  5
1BAD
330
2B4
100
AcDbEntity
  8
0
 62
     0
370
    15
100
AcDbBlockReference
  2
_DotSmall
 10
272.5651223479464
 20
1583.111913428962
 30
0.0
 41
30.0
 42
30.0
 43
30.0
 50
90.0
  0
POINT
  5
1BAE
330
2B4
100
AcDbEntity
  8
Defpoints
 62
     0
100
AcDbPoint
 10
462.9440443679751
 20
1566.111913428962
 30
0.0
  0
POINT
  5
1BAF
330
2B4
100
AcDbEntity
  8
Defpoints
 62
     0
100
AcDbPoint
 10
462.944044367975
 20
1583.111913428962
 30
0.0
  0
POINT
  5
1BB0
330
2B4
100
AcDbEntity
  8
Defpoints
 62
     0
100
AcDbPoint
 10
272.5651223479464
 20
1583.111913428962
 30
0.0
  0
ENDBLK
  5
2BF
330
2B4
100
AcDbEntity
  8
0
100
AcDbBlockEnd
  0
BLOCK
  5
2E7
330
2DD
100
AcDbEntity
  8
0
100
AcDbBlockBegin
  2
*D10
 70
     1
 10
0.0
 20
0.0
 30
0.0
  3
*D10
  1

  0
LINE
  5
1BB1
330
2DD
100
AcDbEntity
  8
0
 62
     0
370
    15
100
AcDbLine
 10
397.9440443679751
 20
1029.111913428962
 30
0.0
 11
203.0944699786322
 21
1029.111913428962
 31
0.0
  0
LINE
  5
1BB2
330
2DD
100
AcDbEntity
  8
0
 62
     0
370
    15
100
AcDbLine
 10
397.9440443679751
 20
1583.111913428962
 30
0.0
 11
203.0944699786323
 21
1583.111913428962
 31
0.0
  0
LINE
  5
1BB3
330
2DD
100
AcDbEntity
  8
0
 62
     0
370
    15
100
AcDbLine
 10
203.0944699786322
 20
1029.111913428962
 30
0.0
 11
203.0944699786323
 21
1583.111913428962
 31
0.0
  0
INSERT
  5
1BB4
330
2DD
100
AcDbEntity
  8
0
 62
     0
370
    15
100
AcDbBlockReference
  2
_DotSmall
 10
203.0944699786322
 20
1029.111913428962
 30
0.0
 41
30.0
 42
30.0
 43
30.0
 50
270.0
  0
INSERT
  5
1BB5
330
2DD
100
AcDbEntity
  8
0
 62
     0
370
    15
100
AcDbBlockReference
  2
_DotSmall
 10
203.0944699786323
 20
1583.111913428962
 30
0.0
 41
30.0
 42
30.0
 43
30.0
 50
90.0
  0
MTEXT
  5
1BB6
330
2DD
100
AcDbEntity
  8
0
 62
     0
100
AcDbMText
 10
184.3444699786321
 20
1306.111913428962
 30
0.0
 40
25.0
 41
0.0
 71
     5
 72
     1
  1
554
 11
0.0000000000000001
 21
1.0
 31
0.0
 73
     1
 44
1.0
1001
ACAD
1000
MTEXTBEGIN
1070
    73
1070
     1
1070
    44
1040
1.0
1070
    74
1070
     0
1000
MTEXTEND
  0
POINT
  5
1BB7
330
2DD
100
AcDbEntity
  8
Defpoints
 62
     0
100
AcDbPoint
 10
462.944044367975
 20
1029.111913428962
 30
0.0
  0
POINT
  5
1BB8
330
2DD
100
AcDbEntity
  8
Defpoints
 62
     0
100
AcDbPoint
 10
462.944044367975
 20
1583.111913428962
 30
0.0
  0
POINT
  5
1BB9
330
2DD
100
AcDbEntity
  8
Defpoints
 62
     0
100
AcDbPoint
 10
203.0944699786323
 20
1583.111913428962
 30
0.0
  0
ENDBLK
  5
2E8
330
2DD
100
AcDbEntity
  8
0
100
AcDbBlockEnd
  0
BLOCK
  5
2F5
330
2EA
100
AcDbEntity
  8
0
100
AcDbBlockBegin
  2
*D11
 70
     1
 10
0.0
 20
0.0
 30
0.0
  3
*D11
  1

  0
LINE
  5
1BBA
330
2EA
100
AcDbEntity
  8
0
 62
     0
370
    15
100
AcDbLine
 10
462.944044367975
 20
964.111913428962
 30
0.0
 11
462.944044367975
 21
912.2041416342453
 31
0.0
  0
LINE
  5
1BBB
330
2EA
100
AcDbEntity
  8
0
 62
     0
370
    15
100
AcDbLine
 10
479.944044367975
 20
964.111913428962
 30
0.0
 11
479.944044367975
 21
912.2041416342453
 31
0.0
  0
LINE
  5
1BBC
330
2EA
100
AcDbEntity
  8
0
 62
     0
370
    15
100
AcDbLine
 10
462.944044367975
 20
912.2041416342453
 30
0.0
 11
479.944044367975
 21
912.2041416342453
 31
0.0
  0
LINE
  5
1BBD
330
2EA
100
AcDbEntity
  8
0
 62
     0
370
    15
100
AcDbLine
 10
479.944044367975
 20
912.2041416342453
 30
0.0
 11
555.7773777013083
 21
912.2041416342453
 31
0.0
  0
INSERT
  5
1BBE
330
2EA
100
AcDbEntity
  8
0
 62
     0
370
    15
100
AcDbBlockReference
  2
_DotSmall
 10
462.944044367975
 20
912.2041416342453
 30
0.0
 41
30.0
 42
30.0
 43
30.0
 50
180.0
  0
INSERT
  5
1BBF
330
2EA
100
AcDbEntity
  8
0
 62
     0
370
    15
100
AcDbBlockReference
  2
_DotSmall
 10
479.944044367975
 20
912.2041416342453
 30
0.0
 41
30.0
 42
30.0
 43
30.0
  0
MTEXT
  5
1BC0
330
2EA
100
AcDbEntity
  8
0
 62
     0
100
AcDbMText
 10
532.8607110346417
 20
930.9541416342453
 30
0.0
 40
25.0
 41
0.0
 71
     5
 72
     1
  1
17
 73
     1
 44
1.0
1001
ACAD
1000
MTEXTBEGIN
1070
    73
1070
     1
1070
    44
1040
1.0
1070
    74
1070
     0
1000
MTEXTEND
  0
POINT
  5
1BC1
330
2EA
100
AcDbEntity
  8
Defpoints
 62
     0
100
AcDbPoint
 10
462.944044367975
 20
1029.111913428962
 30
0.0
  0
POINT
  5
1BC2
330
2EA
100
AcDbEntity
  8
Defpoints
 62
     0
100
AcDbPoint
 10
479.944044367975
 20
1029.111913428962
 30
0.0
  0
POINT
  5
1BC3
330
2EA
100
AcDbEntity
  8
Defpoints
 62
     0
100
AcDbPoint
 10
479.944044367975
 20
912.2041416342453
 30
0.0
  0
ENDBLK
  5
2F6
330
2EA
100
AcDbEntity
  8
0
100
AcDbBlockEnd
  0
BLOCK
  5
302
330
2F8
100
AcDbEntity
  8
0
100
AcDbBlockBegin
  2
*D12
 70
     1
 10
0.0
 20
0.0
 30
0.0
  3
*D12
  1

  0
LINE
  5
1BC4
330
2F8
100
AcDbEntity
  8
0
 62
     0
370
    15
100
AcDbLine
 10
479.944044367975
 20
964.111913428962
 30
0.0
 11
479.944044367975
 21
912.2041416342453
 31
0.0
  0
LINE
  5
1BC5
330
2F8
100
AcDbEntity
  8
0
 62
     0
370
    15
100
AcDbLine
 10
1279.944044367975
 20
964.111913428962
 30
0.0
 11
1279.944044367975
 21
912.2041416342453
 31
0.0
  0
LINE
  5
1BC6
330
2F8
100
AcDbEntity
  8
0
 62
     0
370
    15
100
AcDbLine
 10
479.944044367975
 20
912.2041416342453
 30
0.0
 11
1279.944044367975
 21
912.2041416342453
 31
0.0
  0
INSERT
  5
1BC7
330
2F8
100
AcDbEntity
  8
0
 62
     0
370
    15
100
AcDbBlockReference
  2
_DotSmall
 10
479.944044367975
 20
912.2041416342453
 30
0.0
 41
30.0
 42
30.0
 43
30.0
 50
180.0
  0
INSERT
  5
1BC8
330
2F8
100
AcDbEntity
  8
0
 62
     0
370
    15
100
AcDbBlockReference
  2
_DotSmall
 10
1279.944044367975
 20
912.2041416342453
 30
0.0
 41
30.0
 42
30.0
 43
30.0
  0
MTEXT
  5
1BC9
330
2F8
100
AcDbEntity
  8
0
 62
     0
100
AcDbMText
 10
879.9440443679751
 20
930.9541416342453
 30
0.0
 40
25.0
 41
0.0
 71
     5
 72
     1
  1
800
 73
     1
 44
1.0
1001
ACAD
1000
MTEXTBEGIN
1070
    73
1070
     1
1070
    44
1040
1.0
1070
    74
1070
     0
1000
MTEXTEND
  0
POINT
  5
1BCA
330
2F8
100
AcDbEntity
  8
Defpoints
 62
     0
100
AcDbPoint
 10
479.944044367975
 20
1029.111913428962
 30
0.0
  0
POINT
  5
1BCB
330
2F8
100
AcDbEntity
  8
Defpoints
 62
     0
100
AcDbPoint
 10
1279.944044367975
 20
1029.111913428962
 30
0.0
  0
POINT
  5
1BCC
330
2F8
100
AcDbEntity
  8
Defpoints
 62
     0
100
AcDbPoint
 10
1279.944044367975
 20
912.2041416342453
 30
0.0
  0
ENDBLK
  5
303
330
2F8
100
AcDbEntity
  8
0
100
AcDbBlockEnd
  0
BLOCK
  5
311
330
305
100
AcDbEntity
  8
0
100
AcDbBlockBegin
  2
*D13
 70
     1
 10
0.0
 20
0.0
 30
0.0
  3
*D13
  1

  0
LINE
  5
1BCD
330
305
100
AcDbEntity
  8
0
 62
     0
370
    15
100
AcDbLine
 10
1279.944044367975
 20
964.111913428962
 30
0.0
 11
1279.944044367975
 21
912.2041416342453
 31
0.0
  0
LINE
  5
1BCE
330
305
100
AcDbEntity
  8
0
 62
     0
370
    15
100
AcDbLine
 10
1296.944044367975
 20
964.111913428962
 30
0.0
 11
1296.944044367975
 21
912.2041416342453
 31
0.0
  0
LINE
  5
1BCF
330
305
100
AcDbEntity
  8
0
 62
     0
370
    15
100
AcDbLine
 10
1279.944044367975
 20
912.2041416342453
 30
0.0
 11
1296.944044367975
 21
912.2041416342453
 31
0.0
  0
MTEXT
  5
1BD0
330
305
100
AcDbEntity
  8
0
 62
     0
100
AcDbMText
 10
1236.485828783518
 20
930.9541416342453
 30
0.0
 40
25.0
 41
0.0
 71
     5
 72
     1
  1
17
 73
     1
 44
1.0
1001
ACAD
1000
MTEXTBEGIN
1070
    73
1070
     1
1070
    44
1040
1.0
1070
    74
1070
     0
1000
MTEXTEND
  0
INSERT
  5
1BD1
330
305
100
AcDbEntity
  8
0
 62
     0
370
    15
100
AcDbBlockReference
  2
_DotSmall
 10
1279.944044367975
 20
912.2041416342453
 30
0.0
 41
30.0
 42
30.0
 43
30.0
 50
180.0
  0
INSERT
  5
1BD2
330
305
100
AcDbEntity
  8
0
 62
     0
370
    15
100
AcDbBlockReference
  2
_DotSmall
 10
1296.944044367975
 20
912.2041416342453
 30
0.0
 41
30.0
 42
30.0
 43
30.0
  0
POINT
  5
1BD3
330
305
100
AcDbEntity
  8
Defpoints
 62
     0
100
AcDbPoint
 10
1279.944044367975
 20
1029.111913428962
 30
0.0
  0
POINT
  5
1BD4
330
305
100
AcDbEntity
  8
Defpoints
 62
     0
100
AcDbPoint
 10
1296.944044367975
 20
1029.111913428962
 30
0.0
  0
POINT
  5
1BD5
330
305
100
AcDbEntity
  8
Defpoints
 62
     0
100
AcDbPoint
 10
1296.944044367975
 20
912.2041416342453
 30
0.0
  0
ENDBLK
  5
312
330
305
100
AcDbEntity
  8
0
100
AcDbBlockEnd
  0
BLOCK
  5
327
330
31D
100
AcDbEntity
  8
0
100
AcDbBlockBegin
  2
*D14
 70
     1
 10
0.0
 20
0.0
 30
0.0
  3
*D14
  1

  0
LINE
  5
1BD6
330
31D
100
AcDbEntity
  8
0
 62
     0
370
    15
100
AcDbLine
 10
462.944044367975
 20
964.111913428962
 30
0.0
 11
462.944044367975
 21
841.8453696790384
 31
0.0
  0
LINE
  5
1BD7
330
31D
100
AcDbEntity
  8
0
 62
     0
370
    15
100
AcDbLine
 10
1296.944044367975
 20
964.111913428962
 30
0.0
 11
1296.944044367975
 21
841.8453696790384
 31
0.0
  0
LINE
  5
1BD8
330
31D
100
AcDbEntity
  8
0
 62
     0
370
    15
100
AcDbLine
 10
462.944044367975
 20
841.8453696790384
 30
0.0
 11
1296.944044367975
 21
841.8453696790384
 31
0.0
  0
INSERT
  5
1BD9
330
31D
100
AcDbEntity
  8
0
 62
     0
370
    15
100
AcDbBlockReference
  2
_DotSmall
 10
462.944044367975
 20
841.8453696790384
 30
0.0
 41
30.0
 42
30.0
 43
30.0
 50
180.0
  0
INSERT
  5
1BDA
330
31D
100
AcDbEntity
  8
0
 62
     0
370
    15
100
AcDbBlockReference
  2
_DotSmall
 10
1296.944044367975
 20
841.8453696790384
 30
0.0
 41
30.0
 42
30.0
 43
30.0
  0
MTEXT
  5
1BDB
330
31D
100
AcDbEntity
  8
0
 62
     0
100
AcDbMText
 10
879.9440443679751
 20
860.5953696790384
 30
0.0
 40
25.0
 41
0.0
 71
     5
 72
     1
  1
834
 73
     1
 44
1.0
1001
ACAD
1000
MTEXTBEGIN
1070
    73
1070
     1
1070
    44
1040
1.0
1070
    74
1070
     0
1000
MTEXTEND
  0
POINT
  5
1BDC
330
31D
100
AcDbEntity
  8
Defpoints
 62
     0
100
AcDbPoint
 10
462.944044367975
 20
1029.111913428962
 30
0.0
  0
POINT
  5
1BDD
330
31D
100
AcDbEntity
  8
Defpoints
 62
     0
100
AcDbPoint
 10
1296.944044367975
 20
1029.111913428962
 30
0.0
  0
POINT
  5
1BDE
330
31D
100
AcDbEntity
  8
Defpoints
 62
     0
100
AcDbPoint
 10
1296.944044367975
 20
841.8453696790384
 30
0.0
  0
ENDBLK
  5
328
330
31D
100
AcDbEntity
  8
0
100
AcDbBlockEnd
  0
BLOCK
  5
381
330
377
100
AcDbEntity
  8
0
100
AcDbBlockBegin
  2
*D15
 70
     1
 10
0.0
 20
0.0
 30
0.0
  3
*D15
  1

  0
LINE
  5
1BDF
330
377
100
AcDbEntity
  8
0
 62
     0
370
    15
100
AcDbLine
 10
879.9440443679751
 20
1240.611913428962
 30
0.0
 11
879.9440443679751
 21
1198.574835486747
 31
0.0
  0
LINE
  5
1BE0
330
377
100
AcDbEntity
  8
0
 62
     0
370
    15
100
AcDbLine
 10
479.944044367975
 20
1311.111913428962
 30
0.0
 11
479.944044367975
 21
1198.574835486747
 31
0.0
  0
LINE
  5
1BE1
330
377
100
AcDbEntity
  8
0
 62
     0
370
    15
100
AcDbLine
 10
879.9440443679751
 20
1198.574835486747
 30
0.0
 11
479.944044367975
 21
1198.574835486747
 31
0.0
  0
INSERT
  5
1BE2
330
377
100
AcDbEntity
  8
0
 62
     0
370
    15
100
AcDbBlockReference
  2
_DotSmall
 10
879.9440443679751
 20
1198.574835486747
 30
0.0
 41
30.0
 42
30.0
 43
30.0
  0
INSERT
  5
1BE3
330
377
100
AcDbEntity
  8
0
 62
     0
370
    15
100
AcDbBlockReference
  2
_DotSmall
 10
479.944044367975
 20
1198.574835486747
 30
0.0
 41
30.0
 42
30.0
 43
30.0
 50
180.0
  0
MTEXT
  5
1BE4
330
377
100
AcDbEntity
  8
0
 62
     0
100
AcDbMText
 10
679.944044367975
 20
1217.324835486747
 30
0.0
 40
25.0
 41
0.0
 71
     5
 72
     1
  1
400
 73
     1
 44
1.0
1001
ACAD
1000
MTEXTBEGIN
1070
    73
1070
     1
1070
    44
1040
1.0
1070
    74
1070
     0
1000
MTEXTEND
  0
POINT
  5
1BE5
330
377
100
AcDbEntity
  8
Defpoints
 62
     0
100
AcDbPoint
 10
879.9440443679751
 20
1305.611913428962
 30
0.0
  0
POINT
  5
1BE6
330
377
100
AcDbEntity
  8
Defpoints
 62
     0
100
AcDbPoint
 10
479.944044367975
 20
1376.111913428962
 30
0.0
  0
POINT
  5
1BE7
330
377
100
AcDbEntity
  8
Defpoints
 62
     0
100
AcDbPoint
 10
479.944044367975
 20
1198.574835486747
 30
0.0
  0
ENDBLK
  5
382
330
377
100
AcDbEntity
  8
0
100
AcDbBlockEnd
  0
BLOCK
  5
38F
330
385
100
AcDbEntity
  8
0
100
AcDbBlockBegin
  2
*D16
 70
     1
 10
0.0
 20
0.0
 30
0.0
  3
*D16
  1

  0
LINE
  5
1BE8
330
385
100
AcDbEntity
  8
0
 62
     0
370
    15
100
AcDbLine
 10
1035.444044367975
 20
1396.111913428962
 30
0.0
 11
1123.854397614024
 21
1396.111913428962
 31
0.0
  0
LINE
  5
1BE9
330
385
100
AcDbEntity
  8
0
 62
     0
370
    15
100
AcDbLine
 10
604.9440443679751
 20
1566.111913428962
 30
0.0
 11
1123.854397614024
 21
1566.111913428962
 31
0.0
  0
LINE
  5
1BEA
330
385
100
AcDbEntity
  8
0
 62
     0
370
    15
100
AcDbLine
 10
1123.854397614024
 20
1396.111913428962
 30
0.0
 11
1123.854397614024
 21
1566.111913428962
 31
0.0
  0
INSERT
  5
1BEB
330
385
100
AcDbEntity
  8
0
 62
     0
370
    15
100
AcDbBlockReference
  2
_DotSmall
 10
1123.854397614024
 20
1396.111913428962
 30
0.0
 41
30.0
 42
30.0
 43
30.0
 50
270.0
  0
INSERT
  5
1BEC
330
385
100
AcDbEntity
  8
0
 62
     0
370
    15
100
AcDbBlockReference
  2
_DotSmall
 10
1123.854397614024
 20
1566.111913428962
 30
0.0
 41
30.0
 42
30.0
 43
30.0
 50
90.0
  0
MTEXT
  5
1BED
330
385
100
AcDbEntity
  8
0
 62
     0
100
AcDbMText
 10
1105.104397614024
 20
1451.09511599412
 30
0.0
 40
25.0
 41
0.0
 71
     5
 72
     1
  1
170
 11
0.0000000000000001
 21
1.0
 31
0.0
 73
     1
 44
1.0
1001
ACAD
1000
MTEXTBEGIN
1070
    73
1070
     1
1070
    44
1040
1.0
1070
    74
1070
     0
1000
MTEXTEND
  0
POINT
  5
1BEE
330
385
100
AcDbEntity
  8
Defpoints
 62
     0
100
AcDbPoint
 10
970.444044367975
 20
1396.111913428962
 30
0.0
  0
POINT
  5
1BEF
330
385
100
AcDbEntity
  8
Defpoints
 62
     0
100
AcDbPoint
 10
539.9440443679751
 20
1566.111913428962
 30
0.0
  0
POINT
  5
1BF0
330
385
100
AcDbEntity
  8
Defpoints
 62
     0
100
AcDbPoint
 10
1123.854397614024
 20
1566.111913428962
 30
0.0
  0
ENDBLK
  5
390
330
385
100
AcDbEntity
  8
0
100
AcDbBlockEnd
  0
BLOCK
  5
3BD
330
3B3
100
AcDbEntity
  8
0
100
AcDbBlockBegin
  2
*D17
 70
     1
 10
0.0
 20
0.0
 30
0.0
  3
*D17
  1

  0
LINE
  5
1BF1
330
3B3
100
AcDbEntity
  8
0
 62
     0
370
    15
100
AcDbLine
 10
814.944044367975
 20
1713.111913428962
 30
0.0
 11
814.944044367975
 21
1731.755496731361
 31
0.0
  0
LINE
  5
1BF2
330
3B3
100
AcDbEntity
  8
0
 62
     0
370
    15
100
AcDbLine
 10
944.9440443679749
 20
1713.111913428962
 30
0.0
 11
944.9440443679749
 21
1731.755496731361
 31
0.0
  0
LINE
  5
1BF3
330
3B3
100
AcDbEntity
  8
0
 62
     0
370
    15
100
AcDbLine
 10
814.944044367975
 20
1731.755496731361
 30
0.0
 11
944.9440443679749
 21
1731.755496731361
 31
0.0
  0
INSERT
  5
1BF4
330
3B3
100
AcDbEntity
  8
0
 62
     0
370
    15
100
AcDbBlockReference
  2
_DotSmall
 10
814.944044367975
 20
1731.755496731361
 30
0.0
 41
30.0
 42
30.0
 43
30.0
 50
180.0
  0
INSERT
  5
1BF5
330
3B3
100
AcDbEntity
  8
0
 62
     0
370
    15
100
AcDbBlockReference
  2
_DotSmall
 10
944.9440443679749
 20
1731.755496731361
 30
0.0
 41
30.0
 42
30.0
 43
30.0
  0
MTEXT
  5
1BF6
330
3B3
100
AcDbEntity
  8
0
 62
     0
100
AcDbMText
 10
879.9440443679751
 20
1750.505496731361
 30
0.0
 40
25.0
 41
0.0
 71
     5
 72
     1
  1
130
 73
     1
 44
1.0
1001
ACAD
1000
MTEXTBEGIN
1070
    73
1070
     1
1070
    44
1040
1.0
1070
    74
1070
     0
1000
MTEXTEND
  0
POINT
  5
1BF7
330
3B3
100
AcDbEntity
  8
Defpoints
 62
     0
100
AcDbPoint
 10
814.944044367975
 20
1648.111913428962
 30
0.0
  0
POINT
  5
1BF8
330
3B3
100
AcDbEntity
  8
Defpoints
 62
     0
100
AcDbPoint
 10
944.9440443679749
 20
1648.111913428962
 30
0.0
  0
POINT
  5
1BF9
330
3B3
100
AcDbEntity
  8
Defpoints
 62
     0
100
AcDbPoint
 10
944.9440443679749
 20
1731.755496731361
 30
0.0
  0
ENDBLK
  5
3BE
330
3B3
100
AcDbEntity
  8
0
100
AcDbBlockEnd
  0
BLOCK
  5
3CA
330
3C0
100
AcDbEntity
  8
0
100
AcDbBlockBegin
  2
*D18
 70
     1
 10
0.0
 20
0.0
 30
0.0
  3
*D18
  1

  0
LINE
  5
1BFA
330
3C0
100
AcDbEntity
  8
0
 62
     0
370
    15
100
AcDbLine
 10
749.944044367975
 20
1713.111913428962
 30
0.0
 11
749.944044367975
 21
1795.413428048667
 31
0.0
  0
LINE
  5
1BFB
330
3C0
100
AcDbEntity
  8
0
 62
     0
370
    15
100
AcDbLine
 10
1009.944044367975
 20
1713.111913428962
 30
0.0
 11
1009.944044367975
 21
1795.413428048667
 31
0.0
  0
LINE
  5
1BFC
330
3C0
100
AcDbEntity
  8
0
 62
     0
370
    15
100
AcDbLine
 10
749.944044367975
 20
1795.413428048667
 30
0.0
 11
1009.944044367975
 21
1795.413428048667
 31
0.0
  0
INSERT
  5
1BFD
330
3C0
100
AcDbEntity
  8
0
 62
     0
370
    15
100
AcDbBlockReference
  2
_DotSmall
 10
749.944044367975
 20
1795.413428048667
 30
0.0
 41
30.0
 42
30.0
 43
30.0
 50
180.0
  0
INSERT
  5
1BFE
330
3C0
100
AcDbEntity
  8
0
 62
     0
370
    15
100
AcDbBlockReference
  2
_DotSmall
 10
1009.944044367975
 20
1795.413428048667
 30
0.0
 41
30.0
 42
30.0
 43
30.0
  0
MTEXT
  5
1BFF
330
3C0
100
AcDbEntity
  8
0
 62
     0
100
AcDbMText
 10
879.9440443679751
 20
1814.163428048667
 30
0.0
 40
25.0
 41
0.0
 71
     5
 72
     1
  1
260
 73
     1
 44
1.0
1001
ACAD
1000
MTEXTBEGIN
1070
    73
1070
     1
1070
    44
1040
1.0
1070
    74
1070
     0
1000
MTEXTEND
  0
POINT
  5
1C00
330
3C0
100
AcDbEntity
  8
Defpoints
 62
     0
100
AcDbPoint
 10
749.944044367975
 20
1648.111913428962
 30
0.0
  0
POINT
  5
1C01
330
3C0
100
AcDbEntity
  8
Defpoints
 62
     0
100
AcDbPoint
 10
1009.944044367975
 20
1648.111913428962
 30
0.0
  0
POINT
  5
1C02
330
3C0
100
AcDbEntity
  8
Defpoints
 62
     0
100
AcDbPoint
 10
1009.944044367975
 20
1795.413428048667
 30
0.0
  0
ENDBLK
  5
3CB
330
3C0
100
AcDbEntity
  8
0
100
AcDbBlockEnd
  0
BLOCK
  5
47E
330
474
100
AcDbEntity
  8
0
100
AcDbBlockBegin
  2
*D19
 70
     1
 10
0.0
 20
0.0
 30
0.0
  3
*D19
  1

  0
LINE
  5
23D1
330
474
100
AcDbEntity
  8
0
 62
     0
370
    15
100
AcDbLine
 10
959.4440443679751
 20
468.7924089657335
 30
0.0
 11
959.4440443679751
 21
412.3979342677184
 31
0.0
  0
LINE
  5
23D2
330
474
100
AcDbEntity
  8
0
 62
     0
370
    15
100
AcDbLine
 10
800.4440443679747
 20
468.7924089657338
 30
0.0
 11
800.4440443679747
 21
412.3979342677184
 31
0.0
  0
LINE
  5
23D3
330
474
100
AcDbEntity
  8
0
 62
     0
370
    15
100
AcDbLine
 10
959.4440443679751
 20
412.3979342677184
 30
0.0
 11
800.4440443679747
 21
412.3979342677184
 31
0.0
  0
INSERT
  5
23D4
330
474
100
AcDbEntity
  8
0
 62
     0
370
    15
100
AcDbBlockReference
  2
_DotSmall
 10
959.4440443679751
 20
412.3979342677184
 30
0.0
 41
30.0
 42
30.0
 43
30.0
  0
INSERT
  5
23D5
330
474
100
AcDbEntity
  8
0
 62
     0
370
    15
100
AcDbBlockReference
  2
_DotSmall
 10
800.4440443679747
 20
412.3979342677184
 30
0.0
 41
30.0
 42
30.0
 43
30.0
 50
180.0
  0
MTEXT
  5
23D6
330
474
100
AcDbEntity
  8
0
 62
     0
100
AcDbMText
 10
879.9440443679749
 20
431.1479342677184
 30
0.0
 40
25.0
 41
0.0
 71
     5
 72
     1
  1
158
 73
     1
 44
1.0
1001
ACAD
1000
MTEXTBEGIN
1070
    73
1070
     1
1070
    44
1040
1.0
1070
    74
1070
     0
1000
MTEXTEND
  0
POINT
  5
23D7
330
474
100
AcDbEntity
  8
Defpoints
 62
     0
100
AcDbPoint
 10
959.4440443679751
 20
533.7924089657335
 30
0.0
  0
POINT
  5
23D8
330
474
100
AcDbEntity
  8
Defpoints
 62
     0
100
AcDbPoint
 10
800.4440443679747
 20
533.7924089657337
 30
0.0
  0
POINT
  5
23D9
330
474
100
AcDbEntity
  8
Defpoints
 62
     0
100
AcDbPoint
 10
800.4440443679747
 20
412.3979342677184
 30
0.0
  0
ENDBLK
  5
47F
330
474
100
AcDbEntity
  8
0
100
AcDbBlockEnd
  0
BLOCK
  5
48B
330
481
100
AcDbEntity
  8
0
100
AcDbBlockBegin
  2
*D20
 70
     1
 10
0.0
 20
0.0
 30
0.0
  3
*D20
  1

  0
LINE
  5
23C8
330
481
100
AcDbEntity
  8
0
 62
     0
370
    15
100
AcDbLine
 10
970.444044367975
 20
606.7924089657335
 30
0.0
 11
970.444044367975
 21
643.9454335037053
 31
0.0
  0
LINE
  5
23C9
330
481
100
AcDbEntity
  8
0
 62
     0
370
    15
100
AcDbLine
 10
789.444044367975
 20
606.7924089657337
 30
0.0
 11
789.444044367975
 21
643.9454335037053
 31
0.0
  0
LINE
  5
23CA
330
481
100
AcDbEntity
  8
0
 62
     0
370
    15
100
AcDbLine
 10
970.444044367975
 20
643.9454335037053
 30
0.0
 11
789.444044367975
 21
643.9454335037053
 31
0.0
  0
INSERT
  5
23CB
330
481
100
AcDbEntity
  8
0
 62
     0
370
    15
100
AcDbBlockReference
  2
_DotSmall
 10
970.444044367975
 20
643.9454335037053
 30
0.0
 41
30.0
 42
30.0
 43
30.0
  0
INSERT
  5
23CC
330
481
100
AcDbEntity
  8
0
 62
     0
370
    15
100
AcDbBlockReference
  2
_DotSmall
 10
789.444044367975
 20
643.9454335037053
 30
0.0
 41
30.0
 42
30.0
 43
30.0
 50
180.0
  0
MTEXT
  5
23CD
330
481
100
AcDbEntity
  8
0
 62
     0
100
AcDbMText
 10
879.9440443679751
 20
662.6954335037053
 30
0.0
 40
25.0
 41
0.0
 71
     5
 72
     1
  1
181
 73
     1
 44
1.0
1001
ACAD
1000
MTEXTBEGIN
1070
    73
1070
     1
1070
    44
1040
1.0
1070
    74
1070
     0
1000
MTEXTEND
  0
POINT
  5
23CE
330
481
100
AcDbEntity
  8
Defpoints
 62
     0
100
AcDbPoint
 10
970.444044367975
 20
541.7924089657335
 30
0.0
  0
POINT
  5
23CF
330
481
100
AcDbEntity
  8
Defpoints
 62
     0
100
AcDbPoint
 10
789.444044367975
 20
541.7924089657336
 30
0.0
  0
POINT
  5
23D0
330
481
100
AcDbEntity
  8
Defpoints
 62
     0
100
AcDbPoint
 10
789.444044367975
 20
643.9454335037053
 30
0.0
  0
ENDBLK
  5
48C
330
481
100
AcDbEntity
  8
0
100
AcDbBlockEnd
  0
BLOCK
  5
593
330
587
100
AcDbEntity
  8
0
100
AcDbBlockBegin
  2
*D21
 70
     1
 10
0.0
 20
0.0
 30
0.0
  3
*D21
  1

  0
LINE
  5
1C15
330
587
100
AcDbEntity
  8
0
 62
     0
370
    15
100
AcDbLine
 10
1102.074207187234
 20
1551.111913428962
 30
0.0
 11
1101.753286680125
 21
1551.111913428962
 31
0.0
  0
LINE
  5
1C16
330
587
100
AcDbEntity
  8
0
 62
     0
370
    15
100
AcDbLine
 10
1009.944044367975
 20
1566.111913428962
 30
0.0
 11
1101.753286680125
 21
1566.111913428962
 31
0.0
  0
LINE
  5
1C17
330
587
100
AcDbEntity
  8
0
 62
     0
370
    15
100
AcDbLine
 10
1101.753286680125
 20
1551.111913428962
 30
0.0
 11
1101.753286680125
 21
1566.111913428962
 31
0.0
  0
MTEXT
  5
1C18
330
587
100
AcDbEntity
  8
0
 62
     0
100
AcDbMText
 10
1091.807788790611
 20
1518.605836745305
 30
0.0
 40
25.0
 41
0.0
 71
     5
 72
     1
  1
15
 11
0.0000000000000001
 21
1.0
 31
0.0
 73
     1
 44
1.0
1001
ACAD
1000
MTEXTBEGIN
1070
    73
1070
     1
1070
    44
1040
1.0
1070
    74
1070
     0
1000
MTEXTEND
  0
INSERT
  5
1C19
330
587
100
AcDbEntity
  8
0
 62
     0
370
    15
100
AcDbBlockReference
  2
_DotSmall
 10
1101.753286680125
 20
1551.111913428962
 30
0.0
 41
30.0
 42
30.0
 43
30.0
 50
270.0
  0
INSERT
  5
1C1A
330
587
100
AcDbEntity
  8
0
 62
     0
370
    15
100
AcDbBlockReference
  2
_DotSmall
 10
1101.753286680125
 20
1566.111913428962
 30
0.0
 41
30.0
 42
30.0
 43
30.0
 50
90.0
  0
POINT
  5
1C1B
330
587
100
AcDbEntity
  8
Defpoints
 62
     0
100
AcDbPoint
 10
1037.074207187234
 20
1551.111913428962
 30
0.0
  0
POINT
  5
1C1C
330
587
100
AcDbEntity
  8
Defpoints
 62
     0
100
AcDbPoint
 10
944.9440443679749
 20
1566.111913428962
 30
0.0
  0
POINT
  5
1C1D
330
587
100
AcDbEntity
  8
Defpoints
 62
     0
100
AcDbPoint
 10
1101.753286680125
 20
1566.111913428962
 30
0.0
  0
ENDBLK
  5
594
330
587
100
AcDbEntity
  8
0
100
AcDbBlockEnd
  0
BLOCK
  5
DE7
330
DE3
100
AcDbEntity
  8
0
100
AcDbBlockBegin
  2
A$C0655774D
 70
     0
 10
0.0
 20
0.0
 30
0.0
  3
A$C0655774D
  1

  0
HATCH
  5
DE4
330
DE3
100
AcDbEntity
  8
実形
 62
     0
100
AcDbHatch
 10
0.0
 20
0.0
 30
0.0
210
0.0
220
0.0
230
1.0
  2
SOLID
 70
     1
 71
     0
 91
        1
 92
        7
 72
     1
 73
     1
 93
        2
 10
4.552682973722539
 20
0.0000016847325242
 42
-1.0
 10
4.548727101171948
 20
9.101409440015231
 42
-1.0
 97
        0
 75
     0
 76
     1
 47
0.1166526434546944
 98
        1
 10
6.651064143657322
 20
3.151410098740825
  0
ENDBLK
  5
DE8
330
DE3
100
AcDbEntity
  8
0
100
AcDbBlockEnd
  0
BLOCK
  5
DEA
330
DE9
100
AcDbEntity
  8
0
100
AcDbBlockBegin
  2
_Dot
 70
     0
 10
0.0
 20
0.0
 30
0.0
  3
_Dot
  1

  0
LWPOLYLINE
  5
DEB
330
DE9
100
AcDbEntity
  8
0
 62
     0
100
AcDbPolyline
 90
        2
 70
     1
 43
0.5
 10
-0.25
 20
0.0
 42
1.0
 10
0.25
 20
0.0
 42
1.0
  0
LINE
  5
DEC
330
DE9
100
AcDbEntity
  8
0
 62
     0
370
    -2
100
AcDbLine
 10
-0.5
 20
0.0
 30
0.0
 11
-1.0
 21
0.0
 31
0.0
  0
ENDBLK
  5
DED
330
DE9
100
AcDbEntity
  8
0
100
AcDbBlockEnd
  0
BLOCK
  5
E84
330
E7A
100
AcDbEntity
  8
0
100
AcDbBlockBegin
  2
*D24
 70
     1
 10
0.0
 20
0.0
 30
0.0
  3
*D24
  1

  0
LINE
  5
23BF
330
E7A
100
AcDbEntity
  8
実形
 62
     0
370
    15
100
AcDbLine
 10
769.444044367975
 20
605.9817866327052
 30
0.0
 11
769.444044367975
 21
643.84312399909
 31
0.0
  0
LINE
  5
23C0
330
E7A
100
AcDbEntity
  8
実形
 62
     0
370
    15
100
AcDbLine
 10
990.4440443679749
 20
606.6364691503663
 30
0.0
 11
990.4440443679749
 21
643.84312399909
 31
0.0
  0
LINE
  5
23C1
330
E7A
100
AcDbEntity
  8
実形
 62
     0
370
    15
100
AcDbLine
 10
769.444044367975
 20
643.84312399909
 30
0.0
 11
990.4440443679749
 21
643.84312399909
 31
0.0
  0
MTEXT
  5
23C2
330
E7A
100
AcDbEntity
  8
実形
 62
     0
100
AcDbMText
 10
777.8830979379072
 20
663.2865513054043
 30
0.0
 40
25.0
 41
0.0
 71
     5
 72
     1
  1
20
 73
     1
 44
1.0
1001
ACAD
1000
MTEXTBEGIN
1070
    73
1070
     1
1070
    44
1040
1.0
1070
    74
1070
     0
1000
MTEXTEND
  0
INSERT
  5
23C3
330
E7A
100
AcDbEntity
  8
実形
 62
     0
370
    15
100
AcDbBlockReference
  2
_DotSmall
 10
769.444044367975
 20
643.84312399909
 30
0.0
 41
30.0
 42
30.0
 43
30.0
 50
180.0
  0
INSERT
  5
23C4
330
E7A
100
AcDbEntity
  8
実形
 62
     0
370
    15
100
AcDbBlockReference
  2
_DotSmall
 10
990.4440443679749
 20
643.84312399909
 30
0.0
 41
30.0
 42
30.0
 43
30.0
  0
POINT
  5
23C5
330
E7A
100
AcDbEntity
  8
Defpoints
 62
     0
100
AcDbPoint
 10
769.444044367975
 20
540.9817866327053
 30
0.0
  0
POINT
  5
23C6
330
E7A
100
AcDbEntity
  8
Defpoints
 62
     0
100
AcDbPoint
 10
990.4440443679749
 20
541.6364691503663
 30
0.0
  0
POINT
  5
23C7
330
E7A
100
AcDbEntity
  8
Defpoints
 62
     0
100
AcDbPoint
 10
990.4440443679749
 20
643.84312399909
 30
0.0
  0
ENDBLK
  5
E85
330
E7A
100
AcDbEntity
  8
0
100
AcDbBlockEnd
  0
BLOCK
  5
FC5
330
FBF
100
AcDbEntity
  8
0
100
AcDbBlockBegin
  2
A$C32F61BAA
 70
     0
 10
0.0
 20
0.0
 30
0.0
  3
A$C32F61BAA
  1

  0
TEXT
  5
FC0
330
FBF
100
AcDbEntity
  8
実形
100
AcDbText
 10
3.510854310754125
 20
15.9044409174766
 30
0.0
 40
30.0
  1
ポケット
  7
ms明朝
 72
     4
 11
91.2822828821827
 21
31.84729806033374
 31
0.0
100
AcDbText
  0
TEXT
  5
FC1
330
FBF
100
AcDbEntity
  8
実形
100
AcDbText
 10
246.6289328493167
 20
9.727913587939967
 30
0.0
 40
30.0
  1
樹脂（PP）
  7
ms明朝
 72
     4
 11
356.3432185636025
 21
25.1564850165114
 31
0.0
100
AcDbText
  0
TEXT
  5
FC2
330
FBF
100
AcDbEntity
  8
実形
100
AcDbText
 10
569.9321645690563
 20
17.07857082758117
 30
0.0
 40
30.0
  1
3ｍｍ
  7
ms明朝
 72
     4
 11
624.7893074261992
 21
31.73571368472404
 31
0.0
100
AcDbText
  0
ENDBLK
  5
FC6
330
FBF
100
AcDbEntity
  8
0
100
AcDbBlockEnd
  0
BLOCK
  5
1110
330
1106
100
AcDbEntity
  8
0
100
AcDbBlockBegin
  2
*D26
 70
     1
 10
0.0
 20
0.0
 30
0.0
  3
*D26
  1

  0
ARC
  5
1C30
330
1106
100
AcDbEntity
  8
実形
 62
     0
370
    15
100
AcDbCircle
 10
821.9594683130244
 20
1276.111913428962
 30
0.0
 40
127.6240354200507
100
AcDbArc
 50
150.1441113034862
 51
180.0000000000001
  0
INSERT
  5
1C31
330
1106
100
AcDbEntity
  8
実形
 62
     0
370
    15
100
AcDbBlockReference
  2
_DotSmall
 10
711.2736602300445
 20
1339.645733603072
 30
0.0
 41
30.0
 42
30.0
 43
30.0
 50
60.1441113034862
  0
INSERT
  5
1C32
330
1106
100
AcDbEntity
  8
実形
 62
     0
370
    15
100
AcDbBlockReference
  2
_DotSmall
 10
694.3354328929737
 20
1276.111913428962
 30
0.0
 41
30.0
 42
30.0
 43
30.0
 50
270.0000000000001
  0
MTEXT
  5
1C33
330
1106
100
AcDbEntity
  8
実形
 62
     0
100
AcDbMText
 10
680.5254752986613
 20
1313.818462795927
 30
0.0
 40
25.0
 41
0.0
 71
     5
 72
     1
  1
30°
 11
0.2576040843497865
 21
0.9662505553562741
 31
0.0
 73
     1
 44
1.0
1001
ACAD
1000
MTEXTBEGIN
1070
    73
1070
     1
1070
    44
1040
1.0
1070
    74
1070
     0
1000
MTEXTEND
  0
POINT
  5
1C34
330
1106
100
AcDbEntity
  8
Defpoints
 62
     0
100
AcDbPoint
 10
701.9590798360564
 20
1319.56074750164
 30
0.0
  0
POINT
  5
1C35
330
1106
100
AcDbEntity
  8
Defpoints
 62
     0
100
AcDbPoint
 10
785.1026744964602
 20
1297.267768466677
 30
0.0
  0
POINT
  5
1C36
330
1106
100
AcDbEntity
  8
Defpoints
 62
     0
100
AcDbPoint
 10
879.9440443679751
 20
1276.111913428962
 30
0.0
  0
POINT
  5
1C37
330
1106
100
AcDbEntity
  8
Defpoints
 62
     0
100
AcDbPoint
 10
593.188764004445
 20
1276.111913428962
 30
0.0
  0
POINT
  5
1C38
330
1106
100
AcDbEntity
  8
Defpoints
 62
     0
100
AcDbPoint
 10
557.9641658850095
 20
1427.645613744877
 30
0.0
  0
ENDBLK
  5
1111
330
1106
100
AcDbEntity
  8
0
100
AcDbBlockEnd
  0
BLOCK
  5
1202
330
1201
100
AcDbEntity
  8
0
100
AcDbBlockBegin
  2
*D27
 70
     1
 10
0.0
 20
0.0
 30
0.0
  3
*D27
  1

  0
LINE
  5
1203
330
1201
100
AcDbEntity
  8
実形
 62
     0
370
    15
100
AcDbLine
 10
532.9236754825354
 20
642.5263667117397
 30
0.0
 11
479.8030080261124
 21
642.5263667117397
 31
0.0
  0
LINE
  5
1204
330
1201
100
AcDbEntity
  8
実形
 62
     0
370
    15
100
AcDbLine
 10
532.9236754825355
 20
627.5263667117398
 30
0.0
 11
479.8030080261123
 21
627.5263667117398
 31
0.0
  0
LINE
  5
1205
330
1201
100
AcDbEntity
  8
実形
 62
     0
370
    15
100
AcDbLine
 10
479.8030080261124
 20
642.5263667117397
 30
0.0
 11
479.8030080261123
 21
627.5263667117398
 31
0.0
  0
MTEXT
  5
1206
330
1201
100
AcDbEntity
  8
実形
 62
     0
100
AcDbMText
 10
445.9055316149988
 20
675.8928637825411
 30
0.0
 40
25.0
 41
0.0
 71
     5
 72
     1
  1
15
 11
0.0000000000000001
 21
1.0
 31
0.0
 73
     1
 44
1.0
1001
ACAD
1000
MTEXTBEGIN
1070
    73
1070
     1
1070
    44
1040
1.0
1070
    74
1070
     0
1000
MTEXTEND
  0
INSERT
  5
1207
330
1201
100
AcDbEntity
  8
実形
 62
     0
370
    15
100
AcDbBlockReference
  2
_DotSmall
 10
479.8030080261124
 20
642.5263667117397
 30
0.0
 41
30.0
 42
30.0
 43
30.0
 50
90.0
  0
INSERT
  5
1208
330
1201
100
AcDbEntity
  8
実形
 62
     0
370
    15
100
AcDbBlockReference
  2
_DotSmall
 10
479.8030080261123
 20
627.5263667117398
 30
0.0
 41
30.0
 42
30.0
 43
30.0
 50
270.0
  0
POINT
  5
1209
330
1201
100
AcDbEntity
  8
Defpoints
 62
     0
100
AcDbPoint
 10
597.9236754825353
 20
642.5263667117397
 30
0.0
  0
POINT
  5
120A
330
1201
100
AcDbEntity
  8
Defpoints
 62
     0
100
AcDbPoint
 10
597.9236754825356
 20
627.5263667117398
 30
0.0
  0
POINT
  5
120B
330
1201
100
AcDbEntity
  8
Defpoints
 62
     0
100
AcDbPoint
 10
479.8030080261123
 20
627.5263667117398
 30
0.0
  0
ENDBLK
  5
120C
330
1201
100
AcDbEntity
  8
0
100
AcDbBlockEnd
  0
BLOCK
  5
120E
330
120D
100
AcDbEntity
  8
0
100
AcDbBlockBegin
  2
*D28
 70
     1
 10
0.0
 20
0.0
 30
0.0
  3
*D28
  1

  0
LINE
  5
120F
330
120D
100
AcDbEntity
  8
実形
 62
     0
370
    15
100
AcDbLine
 10
532.1057665653333
 20
472.5263667117397
 30
0.0
 11
479.8030080261123
 21
472.5263667117397
 31
0.0
  0
LINE
  5
1210
330
120D
100
AcDbEntity
  8
実形
 62
     0
370
    15
100
AcDbLine
 10
532.1057665653333
 20
452.5263667117398
 30
0.0
 11
479.8030080261123
 21
452.5263667117398
 31
0.0
  0
LINE
  5
1211
330
120D
100
AcDbEntity
  8
実形
 62
     0
370
    15
100
AcDbLine
 10
479.8030080261123
 20
472.5263667117397
 30
0.0
 11
479.8030080261123
 21
452.5263667117398
 31
0.0
  0
MTEXT
  5
1212
330
120D
100
AcDbEntity
  8
実形
 62
     0
100
AcDbMText
 10
446.3212248427171
 20
481.64971000061
 30
0.0
 40
25.0
 41
0.0
 71
     5
 72
     1
  1
20
 11
0.0000000000000001
 21
1.0
 31
0.0
 73
     1
 44
1.0
1001
ACAD
1000
MTEXTBEGIN
1070
    73
1070
     1
1070
    44
1040
1.0
1070
    74
1070
     0
1000
MTEXTEND
  0
INSERT
  5
1213
330
120D
100
AcDbEntity
  8
実形
 62
     0
370
    15
100
AcDbBlockReference
  2
_DotSmall
 10
479.8030080261123
 20
472.5263667117397
 30
0.0
 41
30.0
 42
30.0
 43
30.0
 50
90.0
  0
INSERT
  5
1214
330
120D
100
AcDbEntity
  8
実形
 62
     0
370
    15
100
AcDbBlockReference
  2
_DotSmall
 10
479.8030080261123
 20
452.5263667117398
 30
0.0
 41
30.0
 42
30.0
 43
30.0
 50
270.0
  0
POINT
  5
1215
330
120D
100
AcDbEntity
  8
Defpoints
 62
     0
100
AcDbPoint
 10
597.1057665653334
 20
472.5263667117397
 30
0.0
  0
POINT
  5
1216
330
120D
100
AcDbEntity
  8
Defpoints
 62
     0
100
AcDbPoint
 10
597.1057665653334
 20
452.5263667117398
 30
0.0
  0
POINT
  5
1217
330
120D
100
AcDbEntity
  8
Defpoints
 62
     0
100
AcDbPoint
 10
479.8030080261123
 20
452.5263667117398
 30
0.0
  0
ENDBLK
  5
1218
330
120D
100
AcDbEntity
  8
0
100
AcDbBlockEnd
  0
BLOCK
  5
121A
330
1219
100
AcDbEntity
  8
0
100
AcDbBlockBegin
  2
*D29
 70
     1
 10
0.0
 20
0.0
 30
0.0
  3
*D29
  1

  0
LINE
  5
121B
330
1219
100
AcDbEntity
  8
実形
 62
     0
370
    15
100
AcDbLine
 10
532.5051923162082
 20
442.5263667117397
 30
0.0
 11
479.8030080261123
 21
442.5263667117397
 31
0.0
  0
LINE
  5
121C
330
1219
100
AcDbEntity
  8
実形
 62
     0
370
    15
100
AcDbLine
 10
503.7222641962452
 20
472.5263667117397
 30
0.0
 11
479.8030080261123
 21
472.5263667117397
 31
0.0
  0
LINE
  5
121D
330
1219
100
AcDbEntity
  8
実形
 62
     0
370
    15
100
AcDbLine
 10
479.8030080261123
 20
442.5263667117397
 30
0.0
 11
479.8030080261123
 21
472.5263667117397
 31
0.0
  0
MTEXT
  5
121E
330
1219
100
AcDbEntity
  8
実形
 62
     0
100
AcDbMText
 10
449.9995688280669
 20
428.3214551270821
 30
0.0
 40
25.0
 41
0.0
 71
     5
 72
     1
  1
7
 11
0.0000000000000001
 21
1.0
 31
0.0
 73
     1
 44
1.0
1001
ACAD
1000
MTEXTBEGIN
1070
    73
1070
     1
1070
    44
1040
1.0
1070
    74
1070
     0
1000
MTEXTEND
  0
INSERT
  5
121F
330
1219
100
AcDbEntity
  8
実形
 62
     0
370
    15
100
AcDbBlockReference
  2
_DotSmall
 10
479.8030080261123
 20
442.5263667117397
 30
0.0
 41
30.0
 42
30.0
 43
30.0
 50
270.0
  0
INSERT
  5
1220
330
1219
100
AcDbEntity
  8
実形
 62
     0
370
    15
100
AcDbBlockReference
  2
_DotSmall
 10
479.8030080261123
 20
472.5263667117397
 30
0.0
 41
30.0
 42
30.0
 43
30.0
 50
90.0
  0
POINT
  5
1221
330
1219
100
AcDbEntity
  8
Defpoints
 62
     0
100
AcDbPoint
 10
597.5051923162082
 20
442.5263667117397
 30
0.0
  0
POINT
  5
1222
330
1219
100
AcDbEntity
  8
Defpoints
 62
     0
100
AcDbPoint
 10
568.7222641962453
 20
472.5263667117397
 30
0.0
  0
POINT
  5
1223
330
1219
100
AcDbEntity
  8
Defpoints
 62
     0
100
AcDbPoint
 10
479.8030080261123
 20
472.5263667117397
 30
0.0
  0
ENDBLK
  5
1224
330
1219
100
AcDbEntity
  8
0
100
AcDbBlockEnd
  0
BLOCK
  5
1226
330
1225
100
AcDbEntity
  8
0
100
AcDbBlockBegin
  2
*D30
 70
     1
 10
0.0
 20
0.0
 30
0.0
  3
*D30
  1

  0
LINE
  5
1227
330
1225
100
AcDbEntity
  8
実形
 62
     0
370
    15
100
AcDbLine
 10
497.547542153674
 20
642.5263667117397
 30
0.0
 11
393.2621095879259
 21
642.5263667117397
 31
0.0
  0
LINE
  5
1228
330
1225
100
AcDbEntity
  8
実形
 62
     0
370
    15
100
AcDbLine
 10
497.5475421536739
 20
452.5263667117398
 30
0.0
 11
393.2621095879258
 21
452.5263667117398
 31
0.0
  0
LINE
  5
1229
330
1225
100
AcDbEntity
  8
実形
 62
     0
370
    15
100
AcDbLine
 10
393.2621095879259
 20
642.5263667117397
 30
0.0
 11
393.2621095879258
 21
452.5263667117398
 31
0.0
  0
INSERT
  5
122A
330
1225
100
AcDbEntity
  8
実形
 62
     0
370
    15
100
AcDbBlockReference
  2
_DotSmall
 10
393.2621095879259
 20
642.5263667117397
 30
0.0
 41
30.0
 42
30.0
 43
30.0
 50
90.0
  0
INSERT
  5
122B
330
1225
100
AcDbEntity
  8
実形
 62
     0
370
    15
100
AcDbBlockReference
  2
_DotSmall
 10
393.2621095879258
 20
452.5263667117398
 30
0.0
 41
30.0
 42
30.0
 43
30.0
 50
270.0
  0
MTEXT
  5
122C
330
1225
100
AcDbEntity
  8
実形
 62
     0
100
AcDbMText
 10
374.5121095879258
 20
547.5263667117399
 30
0.0
 40
25.0
 41
0.0
 71
     5
 72
     1
  1
190
 11
0.0000000000000001
 21
1.0
 31
0.0
 73
     1
 44
1.0
1001
ACAD
1000
MTEXTBEGIN
1070
    73
1070
     1
1070
    44
1040
1.0
1070
    74
1070
     0
1000
MTEXTEND
  0
POINT
  5
122D
330
1225
100
AcDbEntity
  8
Defpoints
 62
     0
100
AcDbPoint
 10
562.5475421536739
 20
642.5263667117397
 30
0.0
  0
POINT
  5
122E
330
1225
100
AcDbEntity
  8
Defpoints
 62
     0
100
AcDbPoint
 10
562.5475421536739
 20
452.5263667117398
 30
0.0
  0
POINT
  5
122F
330
1225
100
AcDbEntity
  8
Defpoints
 62
     0
100
AcDbPoint
 10
393.2621095879258
 20
452.5263667117398
 30
0.0
  0
ENDBLK
  5
1230
330
1225
100
AcDbEntity
  8
0
100
AcDbBlockEnd
  0
BLOCK
  5
1238
330
1231
100
AcDbEntity
  8
0
100
AcDbBlockBegin
  2
A$C1B402390
 70
     0
 10
0.0
 20
0.0
 30
0.0
  3
A$C1B402390
  1

  0
DIMENSION
  5
1232
330
1231
100
AcDbEntity
  8
実形
100
AcDbDimension
  2
*D27
 10
-101.1206674564228
 20
-15.0
 30
0.0
 11
-116.2681438675363
 21
33.3664970708013
 31
0.0
 12
-580.9236754825351
 22
-642.5263667117397
 32
0.0
 70
   128
 71
     5
 42
15.0
  3
ISO-25
100
AcDbAlignedDimension
 13
17.00000000000023
 23
0.0
 33
0.0
 14
17.00000000000045
 24
-15.0
 34
0.0
 50
90.0
100
AcDbRotatedDimension
1001
ACAD
1000
DSTYLE
1002
{
1070
   279
1070
     1
1002
}
  0
DIMENSION
  5
1233
330
1231
100
AcDbEntity
  8
実形
100
AcDbDimension
  2
*D28
 10
-101.1206674564228
 20
-189.9999999999999
 30
0.0
 11
-115.852450639818
 21
-160.8766567111298
 31
0.0
 12
-580.9236754825351
 22
-642.5263667117397
 32
0.0
 70
   128
 71
     5
 42
19.99999999999994
  3
ISO-25
100
AcDbAlignedDimension
 13
16.18209108279825
 23
-170.0
 33
0.0
 14
16.18209108279825
 24
-189.9999999999999
 34
0.0
 50
90.0
100
AcDbRotatedDimension
1001
ACAD
1000
DSTYLE
1002
{
1070
   279
1070
     1
1002
}
  0
DIMENSION
  5
1234
330
1231
100
AcDbEntity
  8
実形
100
AcDbDimension
  2
*D29
 10
-101.1206674564228
 20
-170.0
 30
0.0
 11
-112.1741066544682
 21
-214.2049115846577
 31
0.0
 12
-580.9236754825351
 22
-642.5263667117397
 32
0.0
 70
   128
  1
7
 71
     5
 42
30.0
  3
ISO-25
100
AcDbAlignedDimension
 13
16.58151683367305
 23
-200.0
 33
0.0
 14
-12.20141128628984
 24
-170.0
 34
0.0
 50
90.0
100
AcDbRotatedDimension
1001
ACAD
1000
DSTYLE
1002
{
1070
   279
1070
     1
1002
}
  0
DIMENSION
  5
1235
330
1231
100
AcDbEntity
  8
実形
100
AcDbDimension
  2
*D30
 10
-187.6615658946093
 20
-189.9999999999999
 30
0.0
 11
-206.4115658946094
 21
-94.99999999999989
 31
0.0
 12
-580.9236754825351
 22
-642.5263667117397
 32
0.0
 71
     5
 42
189.9999999999999
  3
ISO-25
100
AcDbAlignedDimension
 13
-18.37613332886121
 23
0.0
 33
0.0
 14
-18.37613332886121
 24
-189.9999999999999
 34
0.0
 50
90.0
100
AcDbRotatedDimension
1001
ACAD
1000
DSTYLE
1002
{
1070
   279
1070
     1
1002
}
  0
ENDBLK
  5
1239
330
1231
100
AcDbEntity
  8
0
100
AcDbBlockEnd
  0
BLOCK
  5
1420
330
1416
100
AcDbEntity
  8
0
100
AcDbBlockBegin
  2
*D32
 70
     1
 10
0.0
 20
0.0
 30
0.0
  3
*D32
  1

  0
LINE
  5
24FB
330
1416
100
AcDbEntity
  8
実形
 62
     0
370
    15
100
AcDbLine
 10
1326.408362582336
 20
1012.111913428961
 30
0.0
 11
1437.959388802333
 21
1012.111913428961
 31
0.0
  0
LINE
  5
24FC
330
1416
100
AcDbEntity
  8
実形
 62
     0
370
    15
100
AcDbLine
 10
1326.408362582335
 20
1600.111913428962
 30
0.0
 11
1437.959388802334
 21
1600.111913428962
 31
0.0
  0
LINE
  5
24FD
330
1416
100
AcDbEntity
  8
実形
 62
     0
370
    15
100
AcDbLine
 10
1437.959388802333
 20
1012.111913428961
 30
0.0
 11
1437.959388802334
 21
1600.111913428962
 31
0.0
  0
INSERT
  5
24FE
330
1416
100
AcDbEntity
  8
実形
 62
     0
370
    15
100
AcDbBlockReference
  2
_DotSmall
 10
1437.959388802333
 20
1012.111913428961
 30
0.0
 41
30.0
 42
30.0
 43
30.0
 50
270.0
  0
INSERT
  5
24FF
330
1416
100
AcDbEntity
  8
実形
 62
     0
370
    15
100
AcDbBlockReference
  2
_DotSmall
 10
1437.959388802334
 20
1600.111913428962
 30
0.0
 41
30.0
 42
30.0
 43
30.0
 50
90.0
  0
MTEXT
  5
2500
330
1416
100
AcDbEntity
  8
実形
 62
     0
100
AcDbMText
 10
1419.209388802333
 20
1306.111913428962
 30
0.0
 40
25.0
 41
0.0
 71
     5
 72
     1
  1
588
 11
0.0000000000000001
 21
1.0
 31
0.0
 73
     1
 44
1.0
1001
ACAD
1000
MTEXTBEGIN
1070
    73
1070
     1
1070
    44
1040
1.0
1070
    74
1070
     0
1000
MTEXTEND
  0
POINT
  5
2501
330
1416
100
AcDbEntity
  8
Defpoints
 62
     0
100
AcDbPoint
 10
1261.408362582336
 20
1012.111913428962
 30
0.0
  0
POINT
  5
2502
330
1416
100
AcDbEntity
  8
Defpoints
 62
     0
100
AcDbPoint
 10
1261.408362582336
 20
1600.111913428962
 30
0.0
  0
POINT
  5
2503
330
1416
100
AcDbEntity
  8
Defpoints
 62
     0
100
AcDbPoint
 10
1437.959388802334
 20
1600.111913428962
 30
0.0
  0
ENDBLK
  5
1421
330
1416
100
AcDbEntity
  8
0
100
AcDbBlockEnd
  0
BLOCK
  5
1456
330
144C
100
AcDbEntity
  8
0
100
AcDbBlockBegin
  2
*D33
 70
     1
 10
0.0
 20
0.0
 30
0.0
  3
*D33
  1

  0
LINE
  5
1C66
330
144C
100
AcDbEntity
  8
実形
 62
     0
370
    15
100
AcDbLine
 10
445.944044367975
 20
1636.111913428962
 30
0.0
 11
445.944044367975
 21
1861.693991995225
 31
0.0
  0
LINE
  5
1C67
330
144C
100
AcDbEntity
  8
実形
 62
     0
370
    15
100
AcDbLine
 10
1313.944044367975
 20
1651.807491937394
 30
0.0
 11
1313.944044367975
 21
1861.693991995225
 31
0.0
  0
LINE
  5
1C68
330
144C
100
AcDbEntity
  8
実形
 62
     0
370
    15
100
AcDbLine
 10
445.944044367975
 20
1861.693991995225
 30
0.0
 11
1313.944044367975
 21
1861.693991995225
 31
0.0
  0
INSERT
  5
1C69
330
144C
100
AcDbEntity
  8
実形
 62
     0
370
    15
100
AcDbBlockReference
  2
_DotSmall
 10
445.944044367975
 20
1861.693991995225
 30
0.0
 41
30.0
 42
30.0
 43
30.0
 50
180.0
  0
INSERT
  5
1C6A
330
144C
100
AcDbEntity
  8
実形
 62
     0
370
    15
100
AcDbBlockReference
  2
_DotSmall
 10
1313.944044367975
 20
1861.693991995225
 30
0.0
 41
30.0
 42
30.0
 43
30.0
  0
MTEXT
  5
1C6B
330
144C
100
AcDbEntity
  8
実形
 62
     0
100
AcDbMText
 10
879.9440443679753
 20
1880.443991995225
 30
0.0
 40
25.0
 41
0.0
 71
     5
 72
     1
  1
868
 73
     1
 44
1.0
1001
ACAD
1000
MTEXTBEGIN
1070
    73
1070
     1
1070
    44
1040
1.0
1070
    74
1070
     0
1000
MTEXTEND
  0
POINT
  5
1C6C
330
144C
100
AcDbEntity
  8
Defpoints
 62
     0
100
AcDbPoint
 10
445.944044367975
 20
1571.111913428962
 30
0.0
  0
POINT
  5
1C6D
330
144C
100
AcDbEntity
  8
Defpoints
 62
     0
100
AcDbPoint
 10
1313.944044367975
 20
1586.807491937394
 30
0.0
  0
POINT
  5
1C6E
330
144C
100
AcDbEntity
  8
Defpoints
 62
     0
100
AcDbPoint
 10
1313.944044367975
 20
1861.693991995225
 30
0.0
  0
ENDBLK
  5
1457
330
144C
100
AcDbEntity
  8
0
100
AcDbBlockEnd
  0
BLOCK
  5
1489
330
147F
100
AcDbEntity
  8
0
100
AcDbBlockBegin
  2
*D34
 70
     1
 10
0.0
 20
0.0
 30
0.0
  3
*D34
  1

  0
LINE
  5
1C6F
330
147F
100
AcDbEntity
  8
実形
 62
     0
370
    15
100
AcDbLine
 10
479.944044367975
 20
1627.408374453266
 30
0.0
 11
479.944044367975
 21
1667.236971091073
 31
0.0
  0
LINE
  5
1C70
330
147F
100
AcDbEntity
  8
実形
 62
     0
370
    15
100
AcDbLine
 10
445.9440443679751
 20
1627.408374453266
 30
0.0
 11
445.9440443679751
 21
1667.236971091073
 31
0.0
  0
LINE
  5
1C71
330
147F
100
AcDbEntity
  8
実形
 62
     0
370
    15
100
AcDbLine
 10
479.944044367975
 20
1667.236971091073
 30
0.0
 11
445.9440443679751
 21
1667.236971091073
 31
0.0
  0
MTEXT
  5
1C72
330
147F
100
AcDbEntity
  8
実形
 62
     0
100
AcDbMText
 10
478.1940443679751
 20
1715.986971091073
 30
0.0
 40
25.0
 41
0.0
 71
     5
 72
     1
  1
35
 73
     1
 44
1.0
1001
ACAD
1000
MTEXTBEGIN
1070
    73
1070
     1
1070
    44
1040
1.0
1070
    74
1070
     0
1000
MTEXTEND
  0
INSERT
  5
1C73
330
147F
100
AcDbEntity
  8
実形
 62
     0
370
    15
100
AcDbBlockReference
  2
_DotSmall
 10
479.944044367975
 20
1667.236971091073
 30
0.0
 41
30.0
 42
30.0
 43
30.0
  0
INSERT
  5
1C74
330
147F
100
AcDbEntity
  8
実形
 62
     0
370
    15
100
AcDbBlockReference
  2
_DotSmall
 10
445.9440443679751
 20
1667.236971091073
 30
0.0
 41
30.0
 42
30.0
 43
30.0
 50
180.0
  0
POINT
  5
1C75
330
147F
100
AcDbEntity
  8
Defpoints
 62
     0
100
AcDbPoint
 10
479.944044367975
 20
1562.408374453266
 30
0.0
  0
POINT
  5
1C76
330
147F
100
AcDbEntity
  8
Defpoints
 62
     0
100
AcDbPoint
 10
445.9440443679751
 20
1562.408374453266
 30
0.0
  0
POINT
  5
1C77
330
147F
100
AcDbEntity
  8
Defpoints
 62
     0
100
AcDbPoint
 10
445.9440443679751
 20
1667.236971091073
 30
0.0
  0
ENDBLK
  5
148A
330
147F
100
AcDbEntity
  8
0
100
AcDbBlockEnd
  0
BLOCK
  5
1529
330
151F
100
AcDbEntity
  8
0
100
AcDbBlockBegin
  2
*D35
 70
     1
 10
0.0
 20
0.0
 30
0.0
  3
*D35
  1

  0
LINE
  5
1C78
330
151F
100
AcDbEntity
  8
実形
 62
     0
370
    15
100
AcDbLine
 10
1279.944044367975
 20
1628.39412956641
 30
0.0
 11
1279.944044367975
 21
1666.196324143343
 31
0.0
  0
LINE
  5
1C79
330
151F
100
AcDbEntity
  8
実形
 62
     0
370
    15
100
AcDbLine
 10
1313.944044367975
 20
1628.39412956641
 30
0.0
 11
1313.944044367975
 21
1666.196324143343
 31
0.0
  0
LINE
  5
1C7A
330
151F
100
AcDbEntity
  8
実形
 62
     0
370
    15
100
AcDbLine
 10
1279.944044367975
 20
1666.196324143343
 30
0.0
 11
1313.944044367975
 21
1666.196324143343
 31
0.0
  0
MTEXT
  5
1C7B
330
151F
100
AcDbEntity
  8
実形
 62
     0
100
AcDbMText
 10
1283.922358056097
 20
1698.073458293673
 30
0.0
 40
25.0
 41
0.0
 71
     5
 72
     1
  1
35
 73
     1
 44
1.0
1001
ACAD
1000
MTEXTBEGIN
1070
    73
1070
     1
1070
    44
1040
1.0
1070
    74
1070
     0
1000
MTEXTEND
  0
INSERT
  5
1C7C
330
151F
100
AcDbEntity
  8
実形
 62
     0
370
    15
100
AcDbBlockReference
  2
_DotSmall
 10
1279.944044367975
 20
1666.196324143343
 30
0.0
 41
30.0
 42
30.0
 43
30.0
 50
180.0
  0
INSERT
  5
1C7D
330
151F
100
AcDbEntity
  8
実形
 62
     0
370
    15
100
AcDbBlockReference
  2
_DotSmall
 10
1313.944044367975
 20
1666.196324143343
 30
0.0
 41
30.0
 42
30.0
 43
30.0
  0
POINT
  5
1C7E
330
151F
100
AcDbEntity
  8
Defpoints
 62
     0
100
AcDbPoint
 10
1279.944044367975
 20
1563.39412956641
 30
0.0
  0
POINT
  5
1C7F
330
151F
100
AcDbEntity
  8
Defpoints
 62
     0
100
AcDbPoint
 10
1313.944044367975
 20
1563.39412956641
 30
0.0
  0
POINT
  5
1C80
330
151F
100
AcDbEntity
  8
Defpoints
 62
     0
100
AcDbPoint
 10
1313.944044367975
 20
1666.196324143343
 30
0.0
  0
ENDBLK
  5
152A
330
151F
100
AcDbEntity
  8
0
100
AcDbBlockEnd
  0
BLOCK
  5
1567
330
155B
100
AcDbEntity
  8
0
100
AcDbBlockBegin
  2
*D36
 70
     1
 10
0.0
 20
0.0
 30
0.0
  3
*D36
  1

  0
LINE
  5
1C81
330
155B
100
AcDbEntity
  8
実形
 62
     0
370
    15
100
AcDbLine
 10
1323.464348268492
 20
1600.111913428962
 30
0.0
 11
1388.100106741956
 21
1600.111913428962
 31
0.0
  0
LINE
  5
1C82
330
155B
100
AcDbEntity
  8
実形
 62
     0
370
    15
100
AcDbLine
 10
1323.464348268492
 20
1566.111913428962
 30
0.0
 11
1388.100106741956
 21
1566.111913428962
 31
0.0
  0
LINE
  5
1C83
330
155B
100
AcDbEntity
  8
実形
 62
     0
370
    15
100
AcDbLine
 10
1388.100106741956
 20
1600.111913428962
 30
0.0
 11
1388.100106741956
 21
1566.111913428962
 31
0.0
  0
MTEXT
  5
1C84
330
155B
100
AcDbEntity
  8
実形
 62
     0
100
AcDbMText
 10
1372.101557522562
 20
1533.411086361441
 30
0.0
 40
25.0
 41
0.0
 71
     5
 72
     1
  1
35
 11
0.0000000000000001
 21
1.0
 31
0.0
 73
     1
 44
1.0
1001
ACAD
1000
MTEXTBEGIN
1070
    73
1070
     1
1070
    44
1040
1.0
1070
    74
1070
     0
1000
MTEXTEND
  0
INSERT
  5
1C85
330
155B
100
AcDbEntity
  8
実形
 62
     0
370
    15
100
AcDbBlockReference
  2
_DotSmall
 10
1388.100106741956
 20
1600.111913428962
 30
0.0
 41
30.0
 42
30.0
 43
30.0
 50
90.0
  0
INSERT
  5
1C86
330
155B
100
AcDbEntity
  8
実形
 62
     0
370
    15
100
AcDbBlockReference
  2
_DotSmall
 10
1388.100106741956
 20
1566.111913428962
 30
0.0
 41
30.0
 42
30.0
 43
30.0
 50
270.0
  0
POINT
  5
1C87
330
155B
100
AcDbEntity
  8
Defpoints
 62
     0
100
AcDbPoint
 10
1258.464348268492
 20
1600.111913428962
 30
0.0
  0
POINT
  5
1C88
330
155B
100
AcDbEntity
  8
Defpoints
 62
     0
100
AcDbPoint
 10
1258.464348268492
 20
1566.111913428962
 30
0.0
  0
POINT
  5
1C89
330
155B
100
AcDbEntity
  8
Defpoints
 62
     0
100
AcDbPoint
 10
1388.100106741956
 20
1566.111913428962
 30
0.0
  0
ENDBLK
  5
1568
330
155B
100
AcDbEntity
  8
0
100
AcDbBlockEnd
  0
BLOCK
  5
159A
330
158E
100
AcDbEntity
  8
0
100
AcDbBlockBegin
  2
*D37
 70
     1
 10
0.0
 20
0.0
 30
0.0
  3
*D37
  1

  0
LINE
  5
1C8A
330
158E
100
AcDbEntity
  8
実形
 62
     0
370
    15
100
AcDbLine
 10
1305.915966516179
 20
1046.111913428962
 30
0.0
 11
1354.564679662963
 21
1046.111913428962
 31
0.0
  0
LINE
  5
1C8B
330
158E
100
AcDbEntity
  8
実形
 62
     0
370
    15
100
AcDbLine
 10
1305.038074503896
 20
1012.111913428961
 30
0.0
 11
1354.564679662963
 21
1012.111913428961
 31
0.0
  0
LINE
  5
1C8C
330
158E
100
AcDbEntity
  8
実形
 62
     0
370
    15
100
AcDbLine
 10
1354.564679662963
 20
1046.111913428962
 30
0.0
 11
1354.564679662963
 21
1012.111913428961
 31
0.0
  0
MTEXT
  5
1C8D
330
158E
100
AcDbEntity
  8
実形
 62
     0
100
AcDbMText
 10
1337.101501215784
 20
1082.69083673378
 30
0.0
 40
25.0
 41
0.0
 71
     5
 72
     1
  1
35
 11
0.0000000000000001
 21
1.0
 31
0.0
 73
     1
 44
1.0
1001
ACAD
1000
MTEXTBEGIN
1070
    73
1070
     1
1070
    44
1040
1.0
1070
    74
1070
     0
1000
MTEXTEND
  0
INSERT
  5
1C8E
330
158E
100
AcDbEntity
  8
実形
 62
     0
370
    15
100
AcDbBlockReference
  2
_DotSmall
 10
1354.564679662963
 20
1046.111913428962
 30
0.0
 41
30.0
 42
30.0
 43
30.0
 50
90.0
  0
INSERT
  5
1C8F
330
158E
100
AcDbEntity
  8
実形
 62
     0
370
    15
100
AcDbBlockReference
  2
_DotSmall
 10
1354.564679662963
 20
1012.111913428961
 30
0.0
 41
30.0
 42
30.0
 43
30.0
 50
270.0
  0
POINT
  5
1C90
330
158E
100
AcDbEntity
  8
Defpoints
 62
     0
100
AcDbPoint
 10
1240.915966516179
 20
1046.111913428962
 30
0.0
  0
POINT
  5
1C91
330
158E
100
AcDbEntity
  8
Defpoints
 62
     0
100
AcDbPoint
 10
1240.038074503896
 20
1012.111913428962
 30
0.0
  0
POINT
  5
1C92
330
158E
100
AcDbEntity
  8
Defpoints
 62
     0
100
AcDbPoint
 10
1354.564679662963
 20
1012.111913428961
 30
0.0
  0
ENDBLK
  5
159B
330
158E
100
AcDbEntity
  8
0
100
AcDbBlockEnd
  0
BLOCK
  5
1E7D
330
1E76
100
AcDbEntity
  8
0
100
AcDbBlockBegin
  2
*D38
 70
     1
 10
0.0
 20
0.0
 30
0.0
  3
*D38
  1

  0
LINE
  5
2249
330
1E76
100
AcDbEntity
  8
実形
 62
     0
370
    13
100
AcDbLine
 10
2090.833877365067
 20
553.2947101512847
 30
0.0
 11
2090.833877365067
 21
467.1003685502147
 31
0.0
  0
LINE
  5
224A
330
1E76
100
AcDbEntity
  8
実形
 62
     0
370
    13
100
AcDbLine
 10
2075.233877365067
 20
527.502986728412
 30
0.0
 11
2075.233877365067
 21
467.1003685502147
 31
0.0
  0
MTEXT
  5
224B
330
1E76
100
AcDbEntity
  8
実形
 62
     0
100
AcDbMText
 10
2054.88545157578
 20
491.5915116428197
 30
0.0
 40
25.0
 41
0.0
 71
     5
 72
     1
  1
1
 73
     1
 44
1.0
1001
ACAD
1000
MTEXTBEGIN
1070
    73
1070
     1
1070
    44
1040
1.0
1070
    74
1070
     0
1000
MTEXTEND
  0
POINT
  5
224C
330
1E76
100
AcDbEntity
  8
Defpoints
 62
     0
100
AcDbPoint
 10
2090.833877365067
 20
559.2947101512846
 30
0.0
  0
POINT
  5
224D
330
1E76
100
AcDbEntity
  8
Defpoints
 62
     0
100
AcDbPoint
 10
2075.233877365067
 20
533.5029867284119
 30
0.0
  0
POINT
  5
224E
330
1E76
100
AcDbEntity
  8
Defpoints
 62
     0
100
AcDbPoint
 10
2075.233877365067
 20
467.1003685502147
 30
0.0
  0
ENDBLK
  5
1E7E
330
1E76
100
AcDbEntity
  8
0
100
AcDbBlockEnd
  0
BLOCK
  5
1E89
330
1E7F
100
AcDbEntity
  8
0
100
AcDbBlockBegin
  2
*D39
 70
     1
 10
0.0
 20
0.0
 30
0.0
  3
*D39
  1

  0
LINE
  5
224F
330
1E7F
100
AcDbEntity
  8
実形
 62
     0
370
    18
100
AcDbLine
 10
2090.833877365066
 20
591.9073852958003
 30
0.0
 11
2090.833877365066
 21
617.1548568615962
 31
0.0
  0
LINE
  5
2250
330
1E7F
100
AcDbEntity
  8
実形
 62
     0
370
    18
100
AcDbLine
 10
2356.033877365065
 20
591.9073852958005
 30
0.0
 11
2356.033877365065
 21
617.1548568615962
 31
0.0
  0
LINE
  5
2251
330
1E7F
100
AcDbEntity
  8
実形
 62
     0
370
    18
100
AcDbLine
 10
2090.833877365066
 20
617.1548568615962
 30
0.0
 11
2356.033877365065
 21
617.1548568615962
 31
0.0
  0
INSERT
  5
2252
330
1E7F
100
AcDbEntity
  8
実形
 62
     0
370
    18
100
AcDbBlockReference
  2
_DotSmall
 10
2090.833877365066
 20
617.1548568615962
 30
0.0
 41
30.0
 42
30.0
 43
30.0
 50
180.0
  0
INSERT
  5
2253
330
1E7F
100
AcDbEntity
  8
実形
 62
     0
370
    18
100
AcDbBlockReference
  2
_DotSmall
 10
2356.033877365065
 20
617.1548568615962
 30
0.0
 41
30.0
 42
30.0
 43
30.0
  0
MTEXT
  5
2254
330
1E7F
100
AcDbEntity
  8
実形
 62
     0
100
AcDbMText
 10
2223.433877365065
 20
635.9048568615962
 30
0.0
 40
25.0
 41
0.0
 71
     5
 72
     1
  1
17
 73
     1
 44
1.0
1001
ACAD
1000
MTEXTBEGIN
1070
    73
1070
     1
1070
    44
1040
1.0
1070
    74
1070
     0
1000
MTEXTEND
  0
POINT
  5
2255
330
1E7F
100
AcDbEntity
  8
Defpoints
 62
     0
100
AcDbPoint
 10
2090.833877365066
 20
526.9073852958004
 30
0.0
  0
POINT
  5
2256
330
1E7F
100
AcDbEntity
  8
Defpoints
 62
     0
100
AcDbPoint
 10
2356.033877365065
 20
526.9073852958005
 30
0.0
  0
POINT
  5
2257
330
1E7F
100
AcDbEntity
  8
Defpoints
 62
     0
100
AcDbPoint
 10
2356.033877365065
 20
617.1548568615962
 30
0.0
  0
ENDBLK
  5
1E8A
330
1E7F
100
AcDbEntity
  8
0
100
AcDbBlockEnd
  0
BLOCK
  5
1E95
330
1E8B
100
AcDbEntity
  8
0
100
AcDbBlockBegin
  2
*D40
 70
     1
 10
0.0
 20
0.0
 30
0.0
  3
*D40
  1

  0
LINE
  5
228E
330
1E8B
100
AcDbEntity
  8
実形
 62
     0
370
    18
100
AcDbLine
 10
2292.614562018892
 20
504.6947101512855
 30
0.0
 11
2228.767481940162
 21
504.6947101512855
 31
0.0
  0
LINE
  5
228F
330
1E8B
100
AcDbEntity
  8
実形
 62
     0
370
    18
100
AcDbLine
 10
2216.267191428404
 20
543.6947101512855
 30
0.0
 11
2228.767481940162
 21
543.6947101512855
 31
0.0
  0
LINE
  5
2290
330
1E8B
100
AcDbEntity
  8
実形
 62
     0
370
    18
100
AcDbLine
 10
2228.767481940162
 20
504.6947101512855
 30
0.0
 11
2228.767481940162
 21
543.6947101512855
 31
0.0
  0
MTEXT
  5
2291
330
1E8B
100
AcDbEntity
  8
実形
 62
     0
100
AcDbMText
 10
2197.294896545438
 20
515.0052225685112
 30
0.0
 40
23.0
 41
0.0
 71
     5
 72
     1
  1
2.5
 11
0.0000000000000001
 21
1.0
 31
0.0
 73
     1
 44
1.0
1001
ACAD
1000
MTEXTBEGIN
1070
    73
1070
     1
1070
    44
1040
1.0
1070
    74
1070
     0
1000
MTEXTEND
  0
INSERT
  5
2292
330
1E8B
100
AcDbEntity
  8
実形
 62
     0
370
    18
100
AcDbBlockReference
  2
_DotSmall
 10
2228.767481940162
 20
504.6947101512855
 30
0.0
 41
30.0
 42
30.0
 43
30.0
 50
270.0
  0
INSERT
  5
2293
330
1E8B
100
AcDbEntity
  8
実形
 62
     0
370
    18
100
AcDbBlockReference
  2
_DotSmall
 10
2228.767481940162
 20
543.6947101512855
 30
0.0
 41
30.0
 42
30.0
 43
30.0
 50
90.0
  0
POINT
  5
2294
330
1E8B
100
AcDbEntity
  8
Defpoints
 62
     0
100
AcDbPoint
 10
2357.614562018891
 20
504.6947101512855
 30
0.0
  0
POINT
  5
2295
330
1E8B
100
AcDbEntity
  8
Defpoints
 62
     0
100
AcDbPoint
 10
2281.267191428404
 20
543.6947101512855
 30
0.0
  0
POINT
  5
2296
330
1E8B
100
AcDbEntity
  8
Defpoints
 62
     0
100
AcDbPoint
 10
2228.767481940162
 20
543.6947101512855
 30
0.0
  0
ENDBLK
  5
1E96
330
1E8B
100
AcDbEntity
  8
0
100
AcDbBlockEnd
  0
BLOCK
  5
1EA1
330
1E97
100
AcDbEntity
  8
0
100
AcDbBlockBegin
  2
*D41
 70
     1
 10
0.0
 20
0.0
 30
0.0
  3
*D41
  1

  0
LINE
  5
2285
330
1E97
100
AcDbEntity
  8
実形
 62
     0
370
    18
100
AcDbLine
 10
2278.033877365066
 20
448.0145559292668
 30
0.0
 11
2278.033877365066
 21
452.0882219802177
 31
0.0
  0
LINE
  5
2286
330
1E97
100
AcDbEntity
  8
実形
 62
     0
370
    18
100
AcDbLine
 10
2356.033877365066
 20
448.0145559292668
 30
0.0
 11
2356.033877365066
 21
452.0882219802177
 31
0.0
  0
LINE
  5
2287
330
1E97
100
AcDbEntity
  8
実形
 62
     0
370
    18
100
AcDbLine
 10
2278.033877365066
 20
452.0882219802177
 30
0.0
 11
2356.033877365066
 21
452.0882219802177
 31
0.0
  0
INSERT
  5
2288
330
1E97
100
AcDbEntity
  8
実形
 62
     0
370
    18
100
AcDbBlockReference
  2
_DotSmall
 10
2278.033877365066
 20
452.0882219802177
 30
0.0
 41
30.0
 42
30.0
 43
30.0
 50
180.0
  0
INSERT
  5
2289
330
1E97
100
AcDbEntity
  8
実形
 62
     0
370
    18
100
AcDbBlockReference
  2
_DotSmall
 10
2356.033877365066
 20
452.0882219802177
 30
0.0
 41
30.0
 42
30.0
 43
30.0
  0
MTEXT
  5
228A
330
1E97
100
AcDbEntity
  8
実形
 62
     0
100
AcDbMText
 10
2317.033877365066
 20
470.8382219802177
 30
0.0
 40
25.0
 41
0.0
 71
     5
 72
     1
  1
5
 73
     1
 44
1.0
1001
ACAD
1000
MTEXTBEGIN
1070
    73
1070
     1
1070
    44
1040
1.0
1070
    74
1070
     0
1000
MTEXTEND
  0
POINT
  5
228B
330
1E97
100
AcDbEntity
  8
Defpoints
 62
     0
100
AcDbPoint
 10
2278.033877365066
 20
513.0145559292668
 30
0.0
  0
POINT
  5
228C
330
1E97
100
AcDbEntity
  8
Defpoints
 62
     0
100
AcDbPoint
 10
2356.033877365066
 20
513.0145559292668
 30
0.0
  0
POINT
  5
228D
330
1E97
100
AcDbEntity
  8
Defpoints
 62
     0
100
AcDbPoint
 10
2356.033877365066
 20
452.0882219802177
 30
0.0
  0
ENDBLK
  5
1EA2
330
1E97
100
AcDbEntity
  8
0
100
AcDbBlockEnd
  0
BLOCK
  5
1EAD
330
1EA3
100
AcDbEntity
  8
0
100
AcDbBlockBegin
  2
*D42
 70
     1
 10
0.0
 20
0.0
 30
0.0
  3
*D42
  1

  0
LINE
  5
227C
330
1EA3
100
AcDbEntity
  8
実形
 62
     0
370
    18
100
AcDbLine
 10
2266.326187506493
 20
442.2947101512853
 30
0.0
 11
2230.705930897853
 21
442.2947101512853
 31
0.0
  0
LINE
  5
227D
330
1EA3
100
AcDbEntity
  8
実形
 62
     0
370
    18
100
AcDbLine
 10
2309.752828579123
 20
403.2947101512855
 30
0.0
 11
2230.705930897853
 21
403.2947101512855
 31
0.0
  0
LINE
  5
227E
330
1EA3
100
AcDbEntity
  8
実形
 62
     0
370
    18
100
AcDbLine
 10
2230.705930897853
 20
442.2947101512853
 30
0.0
 11
2230.705930897853
 21
403.2947101512855
 31
0.0
  0
MTEXT
  5
227F
330
1EA3
100
AcDbEntity
  8
実形
 62
     0
100
AcDbMText
 10
2198.086469593912
 20
431.6583152348946
 30
0.0
 40
23.0
 41
0.0
 71
     5
 72
     1
  1
2.5
 11
0.0000000000000001
 21
1.0
 31
0.0
 73
     1
 44
1.0
1001
ACAD
1000
MTEXTBEGIN
1070
    73
1070
     1
1070
    44
1040
1.0
1070
    74
1070
     0
1000
MTEXTEND
  0
INSERT
  5
2280
330
1EA3
100
AcDbEntity
  8
実形
 62
     0
370
    18
100
AcDbBlockReference
  2
_DotSmall
 10
2230.705930897853
 20
442.2947101512853
 30
0.0
 41
30.0
 42
30.0
 43
30.0
 50
90.0
  0
INSERT
  5
2281
330
1EA3
100
AcDbEntity
  8
実形
 62
     0
370
    18
100
AcDbBlockReference
  2
_DotSmall
 10
2230.705930897853
 20
403.2947101512855
 30
0.0
 41
30.0
 42
30.0
 43
30.0
 50
270.0
  0
POINT
  5
2282
330
1EA3
100
AcDbEntity
  8
Defpoints
 62
     0
100
AcDbPoint
 10
2331.326187506493
 20
442.2947101512853
 30
0.0
  0
POINT
  5
2283
330
1EA3
100
AcDbEntity
  8
Defpoints
 62
     0
100
AcDbPoint
 10
2374.752828579123
 20
403.2947101512855
 30
0.0
  0
POINT
  5
2284
330
1EA3
100
AcDbEntity
  8
Defpoints
 62
     0
100
AcDbPoint
 10
2230.705930897853
 20
403.2947101512855
 30
0.0
  0
ENDBLK
  5
1EAE
330
1EA3
100
AcDbEntity
  8
0
100
AcDbBlockEnd
  0
BLOCK
  5
1EB9
330
1EAF
100
AcDbEntity
  8
0
100
AcDbBlockBegin
  2
*D43
 70
     1
 10
0.0
 20
0.0
 30
0.0
  3
*D43
  1

  0
LINE
  5
221C
330
1EAF
100
AcDbEntity
  8
実形
 62
     0
370
    18
100
AcDbLine
 10
2075.233877365066
 20
696.1956311673393
 30
0.0
 11
2075.233877365066
 21
733.9587029177619
 31
0.0
  0
LINE
  5
221D
330
1EAF
100
AcDbEntity
  8
実形
 62
     0
370
    18
100
AcDbLine
 10
2387.233877365066
 20
696.1956311673393
 30
0.0
 11
2387.233877365066
 21
733.9587029177619
 31
0.0
  0
LINE
  5
221E
330
1EAF
100
AcDbEntity
  8
実形
 62
     0
370
    18
100
AcDbLine
 10
2075.233877365066
 20
733.9587029177619
 30
0.0
 11
2387.233877365066
 21
733.9587029177619
 31
0.0
  0
INSERT
  5
221F
330
1EAF
100
AcDbEntity
  8
実形
 62
     0
370
    18
100
AcDbBlockReference
  2
_DotSmall
 10
2075.233877365066
 20
733.9587029177619
 30
0.0
 41
30.0
 42
30.0
 43
30.0
 50
180.0
  0
INSERT
  5
2220
330
1EAF
100
AcDbEntity
  8
実形
 62
     0
370
    18
100
AcDbBlockReference
  2
_DotSmall
 10
2387.233877365066
 20
733.9587029177619
 30
0.0
 41
30.0
 42
30.0
 43
30.0
  0
MTEXT
  5
2221
330
1EAF
100
AcDbEntity
  8
実形
 62
     0
100
AcDbMText
 10
2231.233877365066
 20
752.7087029177619
 30
0.0
 40
25.0
 41
0.0
 71
     5
 72
     1
  1
20
 73
     1
 44
1.0
1001
ACAD
1000
MTEXTBEGIN
1070
    73
1070
     1
1070
    44
1040
1.0
1070
    74
1070
     0
1000
MTEXTEND
  0
POINT
  5
2222
330
1EAF
100
AcDbEntity
  8
Defpoints
 62
     0
100
AcDbPoint
 10
2075.233877365066
 20
631.1956311673393
 30
0.0
  0
POINT
  5
2223
330
1EAF
100
AcDbEntity
  8
Defpoints
 62
     0
100
AcDbPoint
 10
2387.233877365066
 20
631.1956311673393
 30
0.0
  0
POINT
  5
2224
330
1EAF
100
AcDbEntity
  8
Defpoints
 62
     0
100
AcDbPoint
 10
2387.233877365066
 20
733.9587029177619
 30
0.0
  0
ENDBLK
  5
1EBA
330
1EAF
100
AcDbEntity
  8
0
100
AcDbBlockEnd
  0
BLOCK
  5
1EC5
330
1EBB
100
AcDbEntity
  8
0
100
AcDbBlockBegin
  2
*D44
 70
     1
 10
0.0
 20
0.0
 30
0.0
  3
*D44
  1

  0
LINE
  5
2213
330
1EBB
100
AcDbEntity
  8
実形
 62
     0
370
    18
100
AcDbLine
 10
2387.233877365066
 20
695.0056853622645
 30
0.0
 11
2387.233877365066
 21
733.9587029177619
 31
0.0
  0
LINE
  5
2214
330
1EBB
100
AcDbEntity
  8
実形
 62
     0
370
    18
100
AcDbLine
 10
2621.233877365066
 20
696.1956311673382
 30
0.0
 11
2621.233877365066
 21
733.9587029177619
 31
0.0
  0
LINE
  5
2215
330
1EBB
100
AcDbEntity
  8
実形
 62
     0
370
    18
100
AcDbLine
 10
2387.233877365066
 20
733.9587029177619
 30
0.0
 11
2621.233877365066
 21
733.9587029177619
 31
0.0
  0
INSERT
  5
2216
330
1EBB
100
AcDbEntity
  8
実形
 62
     0
370
    18
100
AcDbBlockReference
  2
_DotSmall
 10
2387.233877365066
 20
733.9587029177619
 30
0.0
 41
30.0
 42
30.0
 43
30.0
 50
180.0
  0
INSERT
  5
2217
330
1EBB
100
AcDbEntity
  8
実形
 62
     0
370
    18
100
AcDbBlockReference
  2
_DotSmall
 10
2621.233877365066
 20
733.9587029177619
 30
0.0
 41
30.0
 42
30.0
 43
30.0
  0
MTEXT
  5
2218
330
1EBB
100
AcDbEntity
  8
実形
 62
     0
100
AcDbMText
 10
2504.233877365066
 20
752.7087029177619
 30
0.0
 40
25.0
 41
0.0
 71
     5
 72
     1
  1
15
 73
     1
 44
1.0
1001
ACAD
1000
MTEXTBEGIN
1070
    73
1070
     1
1070
    44
1040
1.0
1070
    74
1070
     0
1000
MTEXTEND
  0
POINT
  5
2219
330
1EBB
100
AcDbEntity
  8
Defpoints
 62
     0
100
AcDbPoint
 10
2387.233877365066
 20
630.0056853622646
 30
0.0
  0
POINT
  5
221A
330
1EBB
100
AcDbEntity
  8
Defpoints
 62
     0
100
AcDbPoint
 10
2621.233877365066
 20
631.1956311673382
 30
0.0
  0
POINT
  5
221B
330
1EBB
100
AcDbEntity
  8
Defpoints
 62
     0
100
AcDbPoint
 10
2621.233877365066
 20
733.9587029177619
 30
0.0
  0
ENDBLK
  5
1EC6
330
1EBB
100
AcDbEntity
  8
0
100
AcDbBlockEnd
  0
BLOCK
  5
1ED1
330
1EC7
100
AcDbEntity
  8
0
100
AcDbBlockBegin
  2
*D45
 70
     1
 10
0.0
 20
0.0
 30
0.0
  3
*D45
  1

  0
LINE
  5
220A
330
1EC7
100
AcDbEntity
  8
実形
 62
     0
370
    18
100
AcDbLine
 10
2075.233877365066
 20
696.1956311673382
 30
0.0
 11
2075.233877365066
 21
777.4666415156134
 31
0.0
  0
LINE
  5
220B
330
1EC7
100
AcDbEntity
  8
実形
 62
     0
370
    18
100
AcDbLine
 10
2621.233877365066
 20
696.1956311673382
 30
0.0
 11
2621.233877365066
 21
777.4666415156134
 31
0.0
  0
LINE
  5
220C
330
1EC7
100
AcDbEntity
  8
実形
 62
     0
370
    18
100
AcDbLine
 10
2075.233877365066
 20
777.4666415156134
 30
0.0
 11
2621.233877365066
 21
777.4666415156134
 31
0.0
  0
INSERT
  5
220D
330
1EC7
100
AcDbEntity
  8
実形
 62
     0
370
    18
100
AcDbBlockReference
  2
_DotSmall
 10
2075.233877365066
 20
777.4666415156134
 30
0.0
 41
30.0
 42
30.0
 43
30.0
 50
180.0
  0
INSERT
  5
220E
330
1EC7
100
AcDbEntity
  8
実形
 62
     0
370
    18
100
AcDbBlockReference
  2
_DotSmall
 10
2621.233877365066
 20
777.4666415156134
 30
0.0
 41
30.0
 42
30.0
 43
30.0
  0
MTEXT
  5
220F
330
1EC7
100
AcDbEntity
  8
実形
 62
     0
100
AcDbMText
 10
2348.233877365066
 20
796.2166415156134
 30
0.0
 40
25.0
 41
0.0
 71
     5
 72
     1
  1
35
 73
     1
 44
1.0
1001
ACAD
1000
MTEXTBEGIN
1070
    73
1070
     1
1070
    44
1040
1.0
1070
    74
1070
     0
1000
MTEXTEND
  0
POINT
  5
2210
330
1EC7
100
AcDbEntity
  8
Defpoints
 62
     0
100
AcDbPoint
 10
2075.233877365066
 20
631.1956311673382
 30
0.0
  0
POINT
  5
2211
330
1EC7
100
AcDbEntity
  8
Defpoints
 62
     0
100
AcDbPoint
 10
2621.233877365066
 20
631.1956311673382
 30
0.0
  0
POINT
  5
2212
330
1EC7
100
AcDbEntity
  8
Defpoints
 62
     0
100
AcDbPoint
 10
2621.233877365066
 20
777.4666415156134
 30
0.0
  0
ENDBLK
  5
1ED2
330
1EC7
100
AcDbEntity
  8
0
100
AcDbBlockEnd
  0
BLOCK
  5
1EDD
330
1ED3
100
AcDbEntity
  8
0
100
AcDbBlockBegin
  2
*D46
 70
     1
 10
0.0
 20
0.0
 30
0.0
  3
*D46
  1

  0
LINE
  5
2240
330
1ED3
100
AcDbEntity
  8
実形
 62
     0
370
    18
100
AcDbLine
 10
2106.433877365066
 20
346.5474686202858
 30
0.0
 11
2106.433877365066
 21
297.5085770831867
 31
0.0
  0
LINE
  5
2241
330
1ED3
100
AcDbEntity
  8
実形
 62
     0
370
    18
100
AcDbLine
 10
2153.233877365066
 20
346.5474686202858
 30
0.0
 11
2153.233877365066
 21
297.5085770831867
 31
0.0
  0
LINE
  5
2242
330
1ED3
100
AcDbEntity
  8
実形
 62
     0
370
    18
100
AcDbLine
 10
2106.433877365066
 20
297.5085770831867
 30
0.0
 11
2153.233877365066
 21
297.5085770831867
 31
0.0
  0
MTEXT
  5
2243
330
1ED3
100
AcDbEntity
  8
実形
 62
     0
100
AcDbMText
 10
2053.203290699754
 20
332.9138518235977
 30
0.0
 40
25.0
 41
0.0
 71
     5
 72
     1
  1
3.3
 73
     1
 44
1.0
1001
ACAD
1000
MTEXTBEGIN
1070
    73
1070
     1
1070
    44
1040
1.0
1070
    74
1070
     0
1000
MTEXTEND
  0
INSERT
  5
2244
330
1ED3
100
AcDbEntity
  8
実形
 62
     0
370
    18
100
AcDbBlockReference
  2
_DotSmall
 10
2106.433877365066
 20
297.5085770831867
 30
0.0
 41
30.0
 42
30.0
 43
30.0
 50
180.0
  0
INSERT
  5
2245
330
1ED3
100
AcDbEntity
  8
実形
 62
     0
370
    18
100
AcDbBlockReference
  2
_DotSmall
 10
2153.233877365066
 20
297.5085770831867
 30
0.0
 41
30.0
 42
30.0
 43
30.0
  0
POINT
  5
2246
330
1ED3
100
AcDbEntity
  8
Defpoints
 62
     0
100
AcDbPoint
 10
2106.433877365066
 20
411.5474686202857
 30
0.0
  0
POINT
  5
2247
330
1ED3
100
AcDbEntity
  8
Defpoints
 62
     0
100
AcDbPoint
 10
2153.233877365066
 20
411.5474686202857
 30
0.0
  0
POINT
  5
2248
330
1ED3
100
AcDbEntity
  8
Defpoints
 62
     0
100
AcDbPoint
 10
2153.233877365066
 20
297.5085770831867
 30
0.0
  0
ENDBLK
  5
1EDE
330
1ED3
100
AcDbEntity
  8
0
100
AcDbBlockEnd
  0
BLOCK
  5
1EE9
330
1EDF
100
AcDbEntity
  8
0
100
AcDbBlockBegin
  2
*D47
 70
     1
 10
0.0
 20
0.0
 30
0.0
  3
*D47
  1

  0
LINE
  5
2297
330
1EDF
100
AcDbEntity
  8
実形
 62
     0
370
    18
100
AcDbLine
 10
2153.233877365066
 20
346.5474686202858
 30
0.0
 11
2153.233877365066
 21
297.5085770831867
 31
0.0
  0
LINE
  5
2298
330
1EDF
100
AcDbEntity
  8
実形
 62
     0
370
    18
100
AcDbLine
 10
2309.233877365066
 20
346.5474686202858
 30
0.0
 11
2309.233877365066
 21
297.5085770831867
 31
0.0
  0
LINE
  5
2299
330
1EDF
100
AcDbEntity
  8
実形
 62
     0
370
    18
100
AcDbLine
 10
2153.233877365066
 20
297.5085770831867
 30
0.0
 11
2309.233877365066
 21
297.5085770831867
 31
0.0
  0
INSERT
  5
229A
330
1EDF
100
AcDbEntity
  8
実形
 62
     0
370
    18
100
AcDbBlockReference
  2
_DotSmall
 10
2153.233877365066
 20
297.5085770831867
 30
0.0
 41
30.0
 42
30.0
 43
30.0
 50
180.0
  0
INSERT
  5
229B
330
1EDF
100
AcDbEntity
  8
実形
 62
     0
370
    18
100
AcDbBlockReference
  2
_DotSmall
 10
2309.233877365066
 20
297.5085770831867
 30
0.0
 41
30.0
 42
30.0
 43
30.0
  0
MTEXT
  5
229C
330
1EDF
100
AcDbEntity
  8
実形
 62
     0
100
AcDbMText
 10
2231.233877365066
 20
316.2585770831867
 30
0.0
 40
25.0
 41
0.0
 71
     5
 72
     1
  1
10
 73
     1
 44
1.0
1001
ACAD
1000
MTEXTBEGIN
1070
    73
1070
     1
1070
    44
1040
1.0
1070
    74
1070
     0
1000
MTEXTEND
  0
POINT
  5
229D
330
1EDF
100
AcDbEntity
  8
Defpoints
 62
     0
100
AcDbPoint
 10
2153.233877365066
 20
411.5474686202857
 30
0.0
  0
POINT
  5
229E
330
1EDF
100
AcDbEntity
  8
Defpoints
 62
     0
100
AcDbPoint
 10
2309.233877365066
 20
411.5474686202857
 30
0.0
  0
POINT
  5
229F
330
1EDF
100
AcDbEntity
  8
Defpoints
 62
     0
100
AcDbPoint
 10
2309.233877365066
 20
297.5085770831867
 30
0.0
  0
ENDBLK
  5
1EEA
330
1EDF
100
AcDbEntity
  8
0
100
AcDbBlockEnd
  0
BLOCK
  5
1EF5
330
1EEB
100
AcDbEntity
  8
0
100
AcDbBlockBegin
  2
*D48
 70
     1
 10
0.0
 20
0.0
 30
0.0
  3
*D48
  1

  0
LINE
  5
2273
330
1EEB
100
AcDbEntity
  8
実形
 62
     0
370
    18
100
AcDbLine
 10
2309.233877365066
 20
346.5474686202858
 30
0.0
 11
2309.233877365066
 21
297.5085770831867
 31
0.0
  0
LINE
  5
2274
330
1EEB
100
AcDbEntity
  8
実形
 62
     0
370
    18
100
AcDbLine
 10
2387.233877365066
 20
346.5474686202858
 30
0.0
 11
2387.233877365066
 21
297.5085770831867
 31
0.0
  0
LINE
  5
2275
330
1EEB
100
AcDbEntity
  8
実形
 62
     0
370
    18
100
AcDbLine
 10
2309.233877365066
 20
297.5085770831867
 30
0.0
 11
2387.233877365066
 21
297.5085770831867
 31
0.0
  0
INSERT
  5
2276
330
1EEB
100
AcDbEntity
  8
実形
 62
     0
370
    18
100
AcDbBlockReference
  2
_DotSmall
 10
2309.233877365066
 20
297.5085770831867
 30
0.0
 41
30.0
 42
30.0
 43
30.0
 50
180.0
  0
INSERT
  5
2277
330
1EEB
100
AcDbEntity
  8
実形
 62
     0
370
    18
100
AcDbBlockReference
  2
_DotSmall
 10
2387.233877365066
 20
297.5085770831867
 30
0.0
 41
30.0
 42
30.0
 43
30.0
  0
MTEXT
  5
2278
330
1EEB
100
AcDbEntity
  8
実形
 62
     0
100
AcDbMText
 10
2348.233877365066
 20
316.2585770831867
 30
0.0
 40
25.0
 41
0.0
 71
     5
 72
     1
  1
5
 73
     1
 44
1.0
1001
ACAD
1000
MTEXTBEGIN
1070
    73
1070
     1
1070
    44
1040
1.0
1070
    74
1070
     0
1000
MTEXTEND
  0
POINT
  5
2279
330
1EEB
100
AcDbEntity
  8
Defpoints
 62
     0
100
AcDbPoint
 10
2309.233877365066
 20
411.5474686202857
 30
0.0
  0
POINT
  5
227A
330
1EEB
100
AcDbEntity
  8
Defpoints
 62
     0
100
AcDbPoint
 10
2387.233877365066
 20
411.5474686202857
 30
0.0
  0
POINT
  5
227B
330
1EEB
100
AcDbEntity
  8
Defpoints
 62
     0
100
AcDbPoint
 10
2387.233877365066
 20
297.5085770831867
 30
0.0
  0
ENDBLK
  5
1EF6
330
1EEB
100
AcDbEntity
  8
0
100
AcDbBlockEnd
  0
BLOCK
  5
1F01
330
1EF7
100
AcDbEntity
  8
0
100
AcDbBlockBegin
  2
*D49
 70
     1
 10
0.0
 20
0.0
 30
0.0
  3
*D49
  1

  0
LINE
  5
22A0
330
1EF7
100
AcDbEntity
  8
実形
 62
     0
370
    18
100
AcDbLine
 10
2387.233877365066
 20
346.5474686202859
 30
0.0
 11
2387.233877365066
 21
297.5085770831867
 31
0.0
  0
LINE
  5
22A1
330
1EF7
100
AcDbEntity
  8
実形
 62
     0
370
    18
100
AcDbLine
 10
2621.233877365066
 20
346.5474686202858
 30
0.0
 11
2621.233877365066
 21
297.5085770831867
 31
0.0
  0
LINE
  5
22A2
330
1EF7
100
AcDbEntity
  8
実形
 62
     0
370
    18
100
AcDbLine
 10
2387.233877365066
 20
297.5085770831867
 30
0.0
 11
2621.233877365066
 21
297.5085770831867
 31
0.0
  0
INSERT
  5
22A3
330
1EF7
100
AcDbEntity
  8
実形
 62
     0
370
    18
100
AcDbBlockReference
  2
_DotSmall
 10
2387.233877365066
 20
297.5085770831867
 30
0.0
 41
30.0
 42
30.0
 43
30.0
 50
180.0
  0
INSERT
  5
22A4
330
1EF7
100
AcDbEntity
  8
実形
 62
     0
370
    18
100
AcDbBlockReference
  2
_DotSmall
 10
2621.233877365066
 20
297.5085770831867
 30
0.0
 41
30.0
 42
30.0
 43
30.0
  0
MTEXT
  5
22A5
330
1EF7
100
AcDbEntity
  8
実形
 62
     0
100
AcDbMText
 10
2504.233877365066
 20
316.2585770831867
 30
0.0
 40
25.0
 41
0.0
 71
     5
 72
     1
  1
15
 73
     1
 44
1.0
1001
ACAD
1000
MTEXTBEGIN
1070
    73
1070
     1
1070
    44
1040
1.0
1070
    74
1070
     0
1000
MTEXTEND
  0
POINT
  5
22A6
330
1EF7
100
AcDbEntity
  8
Defpoints
 62
     0
100
AcDbPoint
 10
2387.233877365066
 20
411.5474686202858
 30
0.0
  0
POINT
  5
22A7
330
1EF7
100
AcDbEntity
  8
Defpoints
 62
     0
100
AcDbPoint
 10
2621.233877365066
 20
411.5474686202857
 30
0.0
  0
POINT
  5
22A8
330
1EF7
100
AcDbEntity
  8
Defpoints
 62
     0
100
AcDbPoint
 10
2621.233877365066
 20
297.5085770831867
 30
0.0
  0
ENDBLK
  5
1F02
330
1EF7
100
AcDbEntity
  8
0
100
AcDbBlockEnd
  0
BLOCK
  5
1F0D
330
1F03
100
AcDbEntity
  8
0
100
AcDbBlockBegin
  2
*D50
 70
     1
 10
0.0
 20
0.0
 30
0.0
  3
*D50
  1

  0
LINE
  5
2258
330
1F03
100
AcDbEntity
  8
実形
 62
     0
370
    18
100
AcDbLine
 10
2077.023276234157
 20
297.8281686160613
 30
0.0
 11
2077.023276234157
 21
247.5388396829094
 31
0.0
  0
LINE
  5
2259
330
1F03
100
AcDbEntity
  8
実形
 62
     0
370
    18
100
AcDbLine
 10
2155.023276234156
 20
297.8281686160613
 30
0.0
 11
2155.023276234156
 21
247.5388396829094
 31
0.0
  0
LINE
  5
225A
330
1F03
100
AcDbEntity
  8
実形
 62
     0
370
    18
100
AcDbLine
 10
2077.023276234157
 20
247.5388396829094
 30
0.0
 11
2155.023276234156
 21
247.5388396829094
 31
0.0
  0
INSERT
  5
225B
330
1F03
100
AcDbEntity
  8
実形
 62
     0
370
    18
100
AcDbBlockReference
  2
_DotSmall
 10
2077.023276234157
 20
247.5388396829094
 30
0.0
 41
30.0
 42
30.0
 43
30.0
 50
180.0
  0
INSERT
  5
225C
330
1F03
100
AcDbEntity
  8
実形
 62
     0
370
    18
100
AcDbBlockReference
  2
_DotSmall
 10
2155.023276234156
 20
247.5388396829094
 30
0.0
 41
30.0
 42
30.0
 43
30.0
  0
MTEXT
  5
225D
330
1F03
100
AcDbEntity
  8
実形
 62
     0
100
AcDbMText
 10
2116.023276234157
 20
266.2888396829094
 30
0.0
 40
25.0
 41
0.0
 71
     5
 72
     1
  1
5
 73
     1
 44
1.0
1001
ACAD
1000
MTEXTBEGIN
1070
    73
1070
     1
1070
    44
1040
1.0
1070
    74
1070
     0
1000
MTEXTEND
  0
POINT
  5
225E
330
1F03
100
AcDbEntity
  8
Defpoints
 62
     0
100
AcDbPoint
 10
2077.023276234157
 20
362.8281686160613
 30
0.0
  0
POINT
  5
225F
330
1F03
100
AcDbEntity
  8
Defpoints
 62
     0
100
AcDbPoint
 10
2155.023276234156
 20
362.8281686160613
 30
0.0
  0
POINT
  5
2260
330
1F03
100
AcDbEntity
  8
Defpoints
 62
     0
100
AcDbPoint
 10
2155.023276234156
 20
247.5388396829094
 30
0.0
  0
ENDBLK
  5
1F0E
330
1F03
100
AcDbEntity
  8
0
100
AcDbBlockEnd
  0
BLOCK
  5
1F19
330
1F0F
100
AcDbEntity
  8
0
100
AcDbBlockBegin
  2
*D51
 70
     1
 10
0.0
 20
0.0
 30
0.0
  3
*D51
  1

  0
LINE
  5
226A
330
1F0F
100
AcDbEntity
  8
実形
 62
     0
370
    18
100
AcDbLine
 10
2155.023276234156
 20
297.8281686160613
 30
0.0
 11
2155.023276234156
 21
247.5388396829094
 31
0.0
  0
LINE
  5
226B
330
1F0F
100
AcDbEntity
  8
実形
 62
     0
370
    18
100
AcDbLine
 10
2623.023276234156
 20
297.8281686160613
 30
0.0
 11
2623.023276234156
 21
247.5388396829094
 31
0.0
  0
LINE
  5
226C
330
1F0F
100
AcDbEntity
  8
実形
 62
     0
370
    18
100
AcDbLine
 10
2155.023276234156
 20
247.5388396829094
 30
0.0
 11
2623.023276234156
 21
247.5388396829094
 31
0.0
  0
INSERT
  5
226D
330
1F0F
100
AcDbEntity
  8
実形
 62
     0
370
    18
100
AcDbBlockReference
  2
_DotSmall
 10
2155.023276234156
 20
247.5388396829094
 30
0.0
 41
30.0
 42
30.0
 43
30.0
 50
180.0
  0
INSERT
  5
226E
330
1F0F
100
AcDbEntity
  8
実形
 62
     0
370
    18
100
AcDbBlockReference
  2
_DotSmall
 10
2623.023276234156
 20
247.5388396829094
 30
0.0
 41
30.0
 42
30.0
 43
30.0
  0
MTEXT
  5
226F
330
1F0F
100
AcDbEntity
  8
実形
 62
     0
100
AcDbMText
 10
2389.023276234156
 20
266.2888396829094
 30
0.0
 40
25.0
 41
0.0
 71
     5
 72
     1
  1
30
 73
     1
 44
1.0
1001
ACAD
1000
MTEXTBEGIN
1070
    73
1070
     1
1070
    44
1040
1.0
1070
    74
1070
     0
1000
MTEXTEND
  0
POINT
  5
2270
330
1F0F
100
AcDbEntity
  8
Defpoints
 62
     0
100
AcDbPoint
 10
2155.023276234156
 20
362.8281686160613
 30
0.0
  0
POINT
  5
2271
330
1F0F
100
AcDbEntity
  8
Defpoints
 62
     0
100
AcDbPoint
 10
2623.023276234156
 20
362.8281686160613
 30
0.0
  0
POINT
  5
2272
330
1F0F
100
AcDbEntity
  8
Defpoints
 62
     0
100
AcDbPoint
 10
2623.023276234156
 20
247.5388396829094
 30
0.0
  0
ENDBLK
  5
1F1A
330
1F0F
100
AcDbEntity
  8
0
100
AcDbBlockEnd
  0
BLOCK
  5
1F25
330
1F1B
100
AcDbEntity
  8
0
100
AcDbBlockBegin
  2
*D52
 70
     1
 10
0.0
 20
0.0
 30
0.0
  3
*D52
  1

  0
LINE
  5
2237
330
1F1B
100
AcDbEntity
  8
実形
 62
     0
370
    18
100
AcDbLine
 10
2032.328912889143
 20
684.0947101512855
 30
0.0
 11
1970.032114275532
 21
684.0947101512855
 31
0.0
  0
LINE
  5
2238
330
1F1B
100
AcDbEntity
  8
実形
 62
     0
370
    18
100
AcDbLine
 10
2032.328912889143
 20
585.2947101512854
 30
0.0
 11
1970.032114275532
 21
585.2947101512854
 31
0.0
  0
LINE
  5
2239
330
1F1B
100
AcDbEntity
  8
実形
 62
     0
370
    18
100
AcDbLine
 10
1970.032114275532
 20
684.0947101512855
 30
0.0
 11
1970.032114275532
 21
585.2947101512854
 31
0.0
  0
INSERT
  5
223A
330
1F1B
100
AcDbEntity
  8
実形
 62
     0
370
    18
100
AcDbBlockReference
  2
_DotSmall
 10
1970.032114275532
 20
684.0947101512855
 30
0.0
 41
30.0
 42
30.0
 43
30.0
 50
90.0
  0
INSERT
  5
223B
330
1F1B
100
AcDbEntity
  8
実形
 62
     0
370
    18
100
AcDbBlockReference
  2
_DotSmall
 10
1970.032114275532
 20
585.2947101512854
 30
0.0
 41
30.0
 42
30.0
 43
30.0
 50
270.0
  0
MTEXT
  5
223C
330
1F1B
100
AcDbEntity
  8
実形
 62
     0
100
AcDbMText
 10
1951.282114275532
 20
634.6947101512859
 30
0.0
 40
25.0
 41
0.0
 71
     5
 72
     1
  1
6.5
 11
0.0000000000000001
 21
1.0
 31
0.0
 73
     1
 44
1.0
1001
ACAD
1000
MTEXTBEGIN
1070
    73
1070
     1
1070
    44
1040
1.0
1070
    74
1070
     0
1000
MTEXTEND
  0
POINT
  5
223D
330
1F1B
100
AcDbEntity
  8
Defpoints
 62
     0
100
AcDbPoint
 10
2097.328912889143
 20
684.0947101512855
 30
0.0
  0
POINT
  5
223E
330
1F1B
100
AcDbEntity
  8
Defpoints
 62
     0
100
AcDbPoint
 10
2097.328912889143
 20
585.2947101512854
 30
0.0
  0
POINT
  5
223F
330
1F1B
100
AcDbEntity
  8
Defpoints
 62
     0
100
AcDbPoint
 10
1970.032114275532
 20
585.2947101512854
 30
0.0
  0
ENDBLK
  5
1F26
330
1F1B
100
AcDbEntity
  8
0
100
AcDbBlockEnd
  0
BLOCK
  5
1F31
330
1F27
100
AcDbEntity
  8
0
100
AcDbBlockBegin
  2
*D53
 70
     1
 10
0.0
 20
0.0
 30
0.0
  3
*D53
  1

  0
LINE
  5
2201
330
1F27
100
AcDbEntity
  8
実形
 62
     0
370
    18
100
AcDbLine
 10
2032.328912889143
 20
684.0947101512855
 30
0.0
 11
1916.035186721017
 21
684.0947101512855
 31
0.0
  0
LINE
  5
2202
330
1F27
100
AcDbEntity
  8
実形
 62
     0
370
    18
100
AcDbLine
 10
2032.328912889143
 20
559.2947101512846
 30
0.0
 11
1916.035186721017
 21
559.2947101512846
 31
0.0
  0
LINE
  5
2203
330
1F27
100
AcDbEntity
  8
実形
 62
     0
370
    18
100
AcDbLine
 10
1916.035186721017
 20
684.0947101512855
 30
0.0
 11
1916.035186721017
 21
559.2947101512846
 31
0.0
  0
INSERT
  5
2204
330
1F27
100
AcDbEntity
  8
実形
 62
     0
370
    18
100
AcDbBlockReference
  2
_DotSmall
 10
1916.035186721017
 20
684.0947101512855
 30
0.0
 41
30.0
 42
30.0
 43
30.0
 50
90.0
  0
INSERT
  5
2205
330
1F27
100
AcDbEntity
  8
実形
 62
     0
370
    18
100
AcDbBlockReference
  2
_DotSmall
 10
1916.035186721017
 20
559.2947101512846
 30
0.0
 41
30.0
 42
30.0
 43
30.0
 50
270.0
  0
MTEXT
  5
2206
330
1F27
100
AcDbEntity
  8
実形
 62
     0
100
AcDbMText
 10
1897.285186721017
 20
621.6947101512854
 30
0.0
 40
25.0
 41
0.0
 71
     5
 72
     1
  1
8.3
 11
0.0000000000000001
 21
1.0
 31
0.0
 73
     1
 44
1.0
1001
ACAD
1000
MTEXTBEGIN
1070
    73
1070
     1
1070
    44
1040
1.0
1070
    74
1070
     0
1000
MTEXTEND
  0
POINT
  5
2207
330
1F27
100
AcDbEntity
  8
Defpoints
 62
     0
100
AcDbPoint
 10
2097.328912889143
 20
684.0947101512855
 30
0.0
  0
POINT
  5
2208
330
1F27
100
AcDbEntity
  8
Defpoints
 62
     0
100
AcDbPoint
 10
2097.328912889143
 20
559.2947101512846
 30
0.0
  0
POINT
  5
2209
330
1F27
100
AcDbEntity
  8
Defpoints
 62
     0
100
AcDbPoint
 10
1916.035186721017
 20
559.2947101512846
 30
0.0
  0
ENDBLK
  5
1F32
330
1F27
100
AcDbEntity
  8
0
100
AcDbBlockEnd
  0
BLOCK
  5
1F3D
330
1F33
100
AcDbEntity
  8
0
100
AcDbBlockBegin
  2
*D54
 70
     1
 10
0.0
 20
0.0
 30
0.0
  3
*D54
  1

  0
LINE
  5
21F8
330
1F33
100
AcDbEntity
  8
実形
 62
     0
370
    18
100
AcDbLine
 10
2032.328912889143
 20
543.6947101512854
 30
0.0
 11
1864.389549972262
 21
543.6947101512854
 31
0.0
  0
LINE
  5
21F9
330
1F33
100
AcDbEntity
  8
実形
 62
     0
370
    18
100
AcDbLine
 10
2032.328912889143
 20
684.0947101512855
 30
0.0
 11
1864.389549972262
 21
684.0947101512855
 31
0.0
  0
LINE
  5
21FA
330
1F33
100
AcDbEntity
  8
実形
 62
     0
370
    18
100
AcDbLine
 10
1864.389549972262
 20
543.6947101512854
 30
0.0
 11
1864.389549972262
 21
684.0947101512855
 31
0.0
  0
INSERT
  5
21FB
330
1F33
100
AcDbEntity
  8
実形
 62
     0
370
    18
100
AcDbBlockReference
  2
_DotSmall
 10
1864.389549972262
 20
543.6947101512854
 30
0.0
 41
30.0
 42
30.0
 43
30.0
 50
270.0
  0
INSERT
  5
21FC
330
1F33
100
AcDbEntity
  8
実形
 62
     0
370
    18
100
AcDbBlockReference
  2
_DotSmall
 10
1864.389549972262
 20
684.0947101512855
 30
0.0
 41
30.0
 42
30.0
 43
30.0
 50
90.0
  0
MTEXT
  5
21FD
330
1F33
100
AcDbEntity
  8
実形
 62
     0
100
AcDbMText
 10
1845.639549972261
 20
613.8947101512858
 30
0.0
 40
25.0
 41
0.0
 71
     5
 72
     1
  1
9
 11
0.0000000000000001
 21
1.0
 31
0.0
 73
     1
 44
1.0
1001
ACAD
1000
MTEXTBEGIN
1070
    73
1070
     1
1070
    44
1040
1.0
1070
    74
1070
     0
1000
MTEXTEND
  0
POINT
  5
21FE
330
1F33
100
AcDbEntity
  8
Defpoints
 62
     0
100
AcDbPoint
 10
2097.328912889143
 20
543.6947101512854
 30
0.0
  0
POINT
  5
21FF
330
1F33
100
AcDbEntity
  8
Defpoints
 62
     0
100
AcDbPoint
 10
2097.328912889143
 20
684.0947101512855
 30
0.0
  0
POINT
  5
2200
330
1F33
100
AcDbEntity
  8
Defpoints
 62
     0
100
AcDbPoint
 10
1864.389549972262
 20
684.0947101512855
 30
0.0
  0
ENDBLK
  5
1F3E
330
1F33
100
AcDbEntity
  8
0
100
AcDbBlockEnd
  0
BLOCK
  5
1F49
330
1F3F
100
AcDbEntity
  8
0
100
AcDbBlockBegin
  2
*D55
 70
     1
 10
0.0
 20
0.0
 30
0.0
  3
*D55
  1

  0
LINE
  5
2261
330
1F3F
100
AcDbEntity
  8
実形
 62
     0
370
    18
100
AcDbLine
 10
2647.25404811461
 20
543.6947101512855
 30
0.0
 11
2673.699912636183
 21
543.6947101512855
 31
0.0
  0
LINE
  5
2262
330
1F3F
100
AcDbEntity
  8
実形
 62
     0
370
    18
100
AcDbLine
 10
2647.25404811461
 20
403.2947101512855
 30
0.0
 11
2673.699912636183
 21
403.2947101512855
 31
0.0
  0
LINE
  5
2263
330
1F3F
100
AcDbEntity
  8
実形
 62
     0
370
    18
100
AcDbLine
 10
2673.699912636183
 20
543.6947101512855
 30
0.0
 11
2673.699912636183
 21
403.2947101512855
 31
0.0
  0
INSERT
  5
2264
330
1F3F
100
AcDbEntity
  8
実形
 62
     0
370
    18
100
AcDbBlockReference
  2
_DotSmall
 10
2673.699912636183
 20
543.6947101512855
 30
0.0
 41
30.0
 42
30.0
 43
30.0
 50
90.0
  0
INSERT
  5
2265
330
1F3F
100
AcDbEntity
  8
実形
 62
     0
370
    18
100
AcDbBlockReference
  2
_DotSmall
 10
2673.699912636183
 20
403.2947101512855
 30
0.0
 41
30.0
 42
30.0
 43
30.0
 50
270.0
  0
MTEXT
  5
2266
330
1F3F
100
AcDbEntity
  8
実形
 62
     0
100
AcDbMText
 10
2654.949912636183
 20
473.4947101512859
 30
0.0
 40
25.0
 41
0.0
 71
     5
 72
     1
  1
9
 11
0.0000000000000001
 21
1.0
 31
0.0
 73
     1
 44
1.0
1001
ACAD
1000
MTEXTBEGIN
1070
    73
1070
     1
1070
    44
1040
1.0
1070
    74
1070
     0
1000
MTEXTEND
  0
POINT
  5
2267
330
1F3F
100
AcDbEntity
  8
Defpoints
 62
     0
100
AcDbPoint
 10
2582.25404811461
 20
543.6947101512855
 30
0.0
  0
POINT
  5
2268
330
1F3F
100
AcDbEntity
  8
Defpoints
 62
     0
100
AcDbPoint
 10
2582.25404811461
 20
403.2947101512855
 30
0.0
  0
POINT
  5
2269
330
1F3F
100
AcDbEntity
  8
Defpoints
 62
     0
100
AcDbPoint
 10
2673.699912636183
 20
403.2947101512855
 30
0.0
  0
ENDBLK
  5
1F4A
330
1F3F
100
AcDbEntity
  8
0
100
AcDbBlockEnd
  0
BLOCK
  5
1F55
330
1F4B
100
AcDbEntity
  8
0
100
AcDbBlockBegin
  2
*D56
 70
     1
 10
0.0
 20
0.0
 30
0.0
  3
*D56
  1

  0
LINE
  5
222E
330
1F4B
100
AcDbEntity
  8
実形
 62
     0
370
    18
100
AcDbLine
 10
2647.25404811461
 20
684.0947101512855
 30
0.0
 11
2673.699912636183
 21
684.0947101512855
 31
0.0
  0
LINE
  5
222F
330
1F4B
100
AcDbEntity
  8
実形
 62
     0
370
    18
100
AcDbLine
 10
2647.25404811461
 20
543.6947101512855
 30
0.0
 11
2673.699912636183
 21
543.6947101512855
 31
0.0
  0
LINE
  5
2230
330
1F4B
100
AcDbEntity
  8
実形
 62
     0
370
    18
100
AcDbLine
 10
2673.699912636183
 20
684.0947101512855
 30
0.0
 11
2673.699912636183
 21
543.6947101512855
 31
0.0
  0
INSERT
  5
2231
330
1F4B
100
AcDbEntity
  8
実形
 62
     0
370
    18
100
AcDbBlockReference
  2
_DotSmall
 10
2673.699912636183
 20
684.0947101512855
 30
0.0
 41
30.0
 42
30.0
 43
30.0
 50
90.0
  0
INSERT
  5
2232
330
1F4B
100
AcDbEntity
  8
実形
 62
     0
370
    18
100
AcDbBlockReference
  2
_DotSmall
 10
2673.699912636183
 20
543.6947101512855
 30
0.0
 41
30.0
 42
30.0
 43
30.0
 50
270.0
  0
MTEXT
  5
2233
330
1F4B
100
AcDbEntity
  8
実形
 62
     0
100
AcDbMText
 10
2654.949912636183
 20
613.8947101512859
 30
0.0
 40
25.0
 41
0.0
 71
     5
 72
     1
  1
9
 11
0.0000000000000001
 21
1.0
 31
0.0
 73
     1
 44
1.0
1001
ACAD
1000
MTEXTBEGIN
1070
    73
1070
     1
1070
    44
1040
1.0
1070
    74
1070
     0
1000
MTEXTEND
  0
POINT
  5
2234
330
1F4B
100
AcDbEntity
  8
Defpoints
 62
     0
100
AcDbPoint
 10
2582.25404811461
 20
684.0947101512855
 30
0.0
  0
POINT
  5
2235
330
1F4B
100
AcDbEntity
  8
Defpoints
 62
     0
100
AcDbPoint
 10
2582.25404811461
 20
543.6947101512855
 30
0.0
  0
POINT
  5
2236
330
1F4B
100
AcDbEntity
  8
Defpoints
 62
     0
100
AcDbPoint
 10
2673.699912636183
 20
543.6947101512855
 30
0.0
  0
ENDBLK
  5
1F56
330
1F4B
100
AcDbEntity
  8
0
100
AcDbBlockEnd
  0
BLOCK
  5
1F61
330
1F57
100
AcDbEntity
  8
0
100
AcDbBlockBegin
  2
*D57
 70
     1
 10
0.0
 20
0.0
 30
0.0
  3
*D57
  1

  0
LINE
  5
2225
330
1F57
100
AcDbEntity
  8
実形
 62
     0
370
    18
100
AcDbLine
 10
2647.25404811461
 20
684.0947101512855
 30
0.0
 11
2715.480008308167
 21
684.0947101512855
 31
0.0
  0
LINE
  5
2226
330
1F57
100
AcDbEntity
  8
実形
 62
     0
370
    18
100
AcDbLine
 10
2647.25404811461
 20
403.2947101512855
 30
0.0
 11
2715.480008308167
 21
403.2947101512855
 31
0.0
  0
LINE
  5
2227
330
1F57
100
AcDbEntity
  8
実形
 62
     0
370
    18
100
AcDbLine
 10
2715.480008308167
 20
684.0947101512855
 30
0.0
 11
2715.480008308167
 21
403.2947101512855
 31
0.0
  0
INSERT
  5
2228
330
1F57
100
AcDbEntity
  8
実形
 62
     0
370
    18
100
AcDbBlockReference
  2
_DotSmall
 10
2715.480008308167
 20
684.0947101512855
 30
0.0
 41
30.0
 42
30.0
 43
30.0
 50
90.0
  0
INSERT
  5
2229
330
1F57
100
AcDbEntity
  8
実形
 62
     0
370
    18
100
AcDbBlockReference
  2
_DotSmall
 10
2715.480008308167
 20
403.2947101512855
 30
0.0
 41
30.0
 42
30.0
 43
30.0
 50
270.0
  0
MTEXT
  5
222A
330
1F57
100
AcDbEntity
  8
実形
 62
     0
100
AcDbMText
 10
2696.730008308167
 20
543.694710151286
 30
0.0
 40
25.0
 41
0.0
 71
     5
 72
     1
  1
18
 11
0.0000000000000001
 21
1.0
 31
0.0
 73
     1
 44
1.0
1001
ACAD
1000
MTEXTBEGIN
1070
    73
1070
     1
1070
    44
1040
1.0
1070
    74
1070
     0
1000
MTEXTEND
  0
POINT
  5
222B
330
1F57
100
AcDbEntity
  8
Defpoints
 62
     0
100
AcDbPoint
 10
2582.25404811461
 20
684.0947101512855
 30
0.0
  0
POINT
  5
222C
330
1F57
100
AcDbEntity
  8
Defpoints
 62
     0
100
AcDbPoint
 10
2582.25404811461
 20
403.2947101512855
 30
0.0
  0
POINT
  5
222D
330
1F57
100
AcDbEntity
  8
Defpoints
 62
     0
100
AcDbPoint
 10
2715.480008308167
 20
403.2947101512855
 30
0.0
  0
ENDBLK
  5
1F62
330
1F57
100
AcDbEntity
  8
0
100
AcDbBlockEnd
  0
BLOCK
  5
2326
330
231C
100
AcDbEntity
  8
0
100
AcDbBlockBegin
  2
*D58
 70
     1
 10
0.0
 20
0.0
 30
0.0
  3
*D58
  1

  0
LINE
  5
2402
330
231C
100
AcDbEntity
  8
実形
 62
     0
370
    18
100
AcDbLine
 10
408.2219944183946
 20
739.9924089657336
 30
0.0
 11
330.2222163096797
 21
739.9924089657336
 31
0.0
  0
LINE
  5
2403
330
231C
100
AcDbEntity
  8
実形
 62
     0
370
    18
100
AcDbLine
 10
409.2007720595705
 20
721.9924089657336
 30
0.0
 11
330.2222163096797
 21
721.9924089657336
 31
0.0
  0
LINE
  5
2404
330
231C
100
AcDbEntity
  8
実形
 62
     0
370
    18
100
AcDbLine
 10
330.2222163096797
 20
739.9924089657336
 30
0.0
 11
330.2222163096797
 21
721.9924089657336
 31
0.0
  0
MTEXT
  5
2405
330
231C
100
AcDbEntity
  8
実形
 62
     0
100
AcDbMText
 10
250.0201356423261
 20
791.5388883107925
 30
0.0
 40
25.0
 41
0.0
 71
     5
 72
     1
  1
18
 11
0.0000000000000001
 21
1.0
 31
0.0
 73
     1
 44
1.0
1001
ACAD
1000
MTEXTBEGIN
1070
    73
1070
     1
1070
    44
1040
1.0
1070
    74
1070
     0
1000
MTEXTEND
  0
INSERT
  5
2406
330
231C
100
AcDbEntity
  8
実形
 62
     0
370
    18
100
AcDbBlockReference
  2
_DotSmall
 10
330.2222163096797
 20
739.9924089657336
 30
0.0
 41
30.0
 42
30.0
 43
30.0
 50
90.0
  0
INSERT
  5
2407
330
231C
100
AcDbEntity
  8
実形
 62
     0
370
    18
100
AcDbBlockReference
  2
_DotSmall
 10
330.2222163096797
 20
721.9924089657336
 30
0.0
 41
30.0
 42
30.0
 43
30.0
 50
270.0
  0
POINT
  5
2408
330
231C
100
AcDbEntity
  8
Defpoints
 62
     0
100
AcDbPoint
 10
473.2219944183946
 20
739.9924089657336
 30
0.0
  0
POINT
  5
2409
330
231C
100
AcDbEntity
  8
Defpoints
 62
     0
100
AcDbPoint
 10
474.2007720595704
 20
721.9924089657336
 30
0.0
  0
POINT
  5
240A
330
231C
100
AcDbEntity
  8
Defpoints
 62
     0
100
AcDbPoint
 10
330.2222163096797
 20
721.9924089657336
 30
0.0
  0
ENDBLK
  5
2327
330
231C
100
AcDbEntity
  8
0
100
AcDbBlockEnd
  0
BLOCK
  5
2334
330
2328
100
AcDbEntity
  8
0
100
AcDbBlockBegin
  2
*D59
 70
     1
 10
0.0
 20
0.0
 30
0.0
  3
*D59
  1

  0
LINE
  5
27AD
330
2328
100
AcDbEntity
  8
実形
 62
     0
370
    18
100
AcDbLine
 10
409.2007720595705
 20
721.9924089657336
 30
0.0
 11
330.2222163096797
 21
721.9924089657336
 31
0.0
  0
LINE
  5
27AE
330
2328
100
AcDbEntity
  8
実形
 62
     0
370
    18
100
AcDbLine
 10
409.2007720595705
 20
716.7924089657336
 30
0.0
 11
330.2222163096797
 21
716.7924089657336
 31
0.0
  0
LINE
  5
27AF
330
2328
100
AcDbEntity
  8
実形
 62
     0
370
    18
100
AcDbLine
 10
330.2222163096797
 20
721.9924089657336
 30
0.0
 11
330.2222163096797
 21
751.9924089657336
 31
0.0
  0
LINE
  5
27B0
330
2328
100
AcDbEntity
  8
実形
 62
     0
370
    18
100
AcDbLine
 10
330.2222163096797
 20
716.7924089657336
 30
0.0
 11
330.2222163096797
 21
686.7924089657337
 31
0.0
  0
MTEXT
  5
27B1
330
2328
100
AcDbEntity
  8
実形
 62
     0
100
AcDbMText
 10
252.7949860637057
 20
693.7321265097916
 30
0.0
 40
25.0
 41
0.0
 71
     5
 72
     1
  1
5.3
 11
0.0000000000000001
 21
1.0
 31
0.0
 73
     1
 44
1.0
1001
ACAD
1000
MTEXTBEGIN
1070
    73
1070
     1
1070
    44
1040
1.0
1070
    74
1070
     0
1000
MTEXTEND
  0
LINE
  5
27B2
330
2328
100
AcDbEntity
  8
実形
 62
     0
370
    18
100
AcDbLine
 10
330.2222163096797
 20
721.9924089657336
 30
0.0
 11
330.2222163096797
 21
716.7924089657336
 31
0.0
  0
INSERT
  5
27B3
330
2328
100
AcDbEntity
  8
実形
 62
     0
370
    18
100
AcDbBlockReference
  2
_DotSmall
 10
330.2222163096797
 20
721.9924089657336
 30
0.0
 41
30.0
 42
30.0
 43
30.0
 50
270.0
  0
INSERT
  5
27B4
330
2328
100
AcDbEntity
  8
実形
 62
     0
370
    18
100
AcDbBlockReference
  2
_DotSmall
 10
330.2222163096797
 20
716.7924089657336
 30
0.0
 41
30.0
 42
30.0
 43
30.0
 50
90.0
  0
POINT
  5
27B5
330
2328
100
AcDbEntity
  8
Defpoints
 62
     0
100
AcDbPoint
 10
474.2007720595704
 20
721.9924089657336
 30
0.0
  0
POINT
  5
27B6
330
2328
100
AcDbEntity
  8
Defpoints
 62
     0
100
AcDbPoint
 10
474.2007720595704
 20
716.7924089657336
 30
0.0
  0
POINT
  5
27B7
330
2328
100
AcDbEntity
  8
Defpoints
 62
     0
100
AcDbPoint
 10
330.2222163096797
 20
716.7924089657336
 30
0.0
  0
ENDBLK
  5
2335
330
2328
100
AcDbEntity
  8
0
100
AcDbBlockEnd
  0
BLOCK
  5
2340
330
2336
100
AcDbEntity
  8
0
100
AcDbBlockBegin
  2
*D60
 70
     1
 10
0.0
 20
0.0
 30
0.0
  3
*D60
  1

  0
LINE
  5
23E3
330
2336
100
AcDbEntity
  8
実形
 62
     0
370
    18
100
AcDbLine
 10
409.2007720595705
 20
716.7924089657336
 30
0.0
 11
330.2222163096797
 21
716.7924089657336
 31
0.0
  0
LINE
  5
23E4
330
2336
100
AcDbEntity
  8
実形
 62
     0
370
    18
100
AcDbLine
 10
354.1342642848233
 20
541.7924089657335
 30
0.0
 11
330.2222163096796
 21
541.7924089657335
 31
0.0
  0
LINE
  5
23E5
330
2336
100
AcDbEntity
  8
実形
 62
     0
370
    18
100
AcDbLine
 10
330.2222163096797
 20
716.7924089657336
 30
0.0
 11
330.2222163096796
 21
541.7924089657335
 31
0.0
  0
MTEXT
  5
23E6
330
2336
100
AcDbEntity
  8
実形
 62
     0
100
AcDbMText
 10
304.3483899651495
 20
612.5551608499854
 30
0.0
 40
25.0
 41
0.0
 71
     5
 72
     1
  1
175
 11
0.0000000000000001
 21
1.0
 31
0.0
 73
     1
 44
1.0
1001
ACAD
1000
MTEXTBEGIN
1070
    73
1070
     1
1070
    44
1040
1.0
1070
    74
1070
     0
1000
MTEXTEND
  0
INSERT
  5
23E7
330
2336
100
AcDbEntity
  8
実形
 62
     0
370
    18
100
AcDbBlockReference
  2
_DotSmall
 10
330.2222163096797
 20
716.7924089657336
 30
0.0
 41
30.0
 42
30.0
 43
30.0
 50
90.0
  0
INSERT
  5
23E8
330
2336
100
AcDbEntity
  8
実形
 62
     0
370
    18
100
AcDbBlockReference
  2
_DotSmall
 10
330.2222163096796
 20
541.7924089657335
 30
0.0
 41
30.0
 42
30.0
 43
30.0
 50
270.0
  0
POINT
  5
23E9
330
2336
100
AcDbEntity
  8
Defpoints
 62
     0
100
AcDbPoint
 10
474.2007720595704
 20
716.7924089657336
 30
0.0
  0
POINT
  5
23EA
330
2336
100
AcDbEntity
  8
Defpoints
 62
     0
100
AcDbPoint
 10
419.1342642848233
 20
541.7924089657335
 30
0.0
  0
POINT
  5
23EB
330
2336
100
AcDbEntity
  8
Defpoints
 62
     0
100
AcDbPoint
 10
330.2222163096796
 20
541.7924089657335
 30
0.0
  0
ENDBLK
  5
2341
330
2336
100
AcDbEntity
  8
0
100
AcDbBlockEnd
  0
BLOCK
  5
234C
330
2342
100
AcDbEntity
  8
0
100
AcDbBlockBegin
  2
*D61
 70
     1
 10
0.0
 20
0.0
 30
0.0
  3
*D61
  1

  0
LINE
  5
27C4
330
2342
100
AcDbEntity
  8
実形
 62
     0
370
    18
100
AcDbLine
 10
408.2219944183946
 20
739.9924089657336
 30
0.0
 11
219.6003178590384
 21
739.9924089657337
 31
0.0
  0
LINE
  5
27C5
330
2342
100
AcDbEntity
  8
実形
 62
     0
370
    18
100
AcDbLine
 10
354.1342642848233
 20
541.7924089657335
 30
0.0
 11
219.6003178590384
 21
541.7924089657336
 31
0.0
  0
LINE
  5
27C6
330
2342
100
AcDbEntity
  8
実形
 62
     0
370
    18
100
AcDbLine
 10
219.6003178590384
 20
739.9924089657337
 30
0.0
 11
219.6003178590384
 21
541.7924089657336
 31
0.0
  0
INSERT
  5
27C7
330
2342
100
AcDbEntity
  8
実形
 62
     0
370
    18
100
AcDbBlockReference
  2
_DotSmall
 10
219.6003178590384
 20
739.9924089657337
 30
0.0
 41
30.0
 42
30.0
 43
30.0
 50
90.0
  0
INSERT
  5
27C8
330
2342
100
AcDbEntity
  8
実形
 62
     0
370
    18
100
AcDbBlockReference
  2
_DotSmall
 10
219.6003178590384
 20
541.7924089657336
 30
0.0
 41
30.0
 42
30.0
 43
30.0
 50
270.0
  0
MTEXT
  5
27C9
330
2342
100
AcDbEntity
  8
実形
 62
     0
100
AcDbMText
 10
200.8503178590383
 20
640.8924089657337
 30
0.0
 40
25.0
 41
0.0
 71
     5
 72
     1
  1
198.3
 11
0.0000000000000001
 21
1.0
 31
0.0
 73
     1
 44
1.0
1001
ACAD
1000
MTEXTBEGIN
1070
    73
1070
     1
1070
    44
1040
1.0
1070
    74
1070
     0
1000
MTEXTEND
  0
POINT
  5
27CA
330
2342
100
AcDbEntity
  8
Defpoints
 62
     0
100
AcDbPoint
 10
473.2219944183946
 20
739.9924089657336
 30
0.0
  0
POINT
  5
27CB
330
2342
100
AcDbEntity
  8
Defpoints
 62
     0
100
AcDbPoint
 10
419.1342642848233
 20
541.7924089657335
 30
0.0
  0
POINT
  5
27CC
330
2342
100
AcDbEntity
  8
Defpoints
 62
     0
100
AcDbPoint
 10
219.6003178590384
 20
541.7924089657336
 30
0.0
  0
ENDBLK
  5
234D
330
2342
100
AcDbEntity
  8
0
100
AcDbBlockEnd
  0
BLOCK
  5
235A
330
234E
100
AcDbEntity
  8
0
100
AcDbBlockBegin
  2
*D62
 70
     1
 10
0.0
 20
0.0
 30
0.0
  3
*D62
  1

  0
LINE
  5
23EC
330
234E
100
AcDbEntity
  8
実形
 62
     0
370
    18
100
AcDbLine
 10
410.294169868803
 20
541.7924089657335
 30
0.0
 11
330.2222163096796
 21
541.7924089657335
 31
0.0
  0
LINE
  5
23ED
330
234E
100
AcDbEntity
  8
実形
 62
     0
370
    18
100
AcDbLine
 10
410.294169868803
 20
531.7924089657335
 30
0.0
 11
330.2222163096796
 21
531.7924089657335
 31
0.0
  0
LINE
  5
23EE
330
234E
100
AcDbEntity
  8
実形
 62
     0
370
    18
100
AcDbLine
 10
330.2222163096796
 20
541.7924089657335
 30
0.0
 11
330.2222163096796
 21
571.7924089657335
 31
0.0
  0
LINE
  5
23EF
330
234E
100
AcDbEntity
  8
実形
 62
     0
370
    18
100
AcDbLine
 10
330.2222163096796
 20
531.7924089657335
 30
0.0
 11
330.2222163096796
 21
501.7924089657336
 31
0.0
  0
MTEXT
  5
23F0
330
234E
100
AcDbEntity
  8
実形
 62
     0
100
AcDbMText
 10
295.2222163096796
 20
525.4546253014969
 30
0.0
 40
25.0
 41
0.0
 71
     5
 72
     1
  1
7
 11
0.0000000000000001
 21
1.0
 31
0.0
 73
     1
 44
1.0
1001
ACAD
1000
MTEXTBEGIN
1070
    73
1070
     1
1070
    44
1040
1.0
1070
    74
1070
     0
1000
MTEXTEND
  0
LINE
  5
23F1
330
234E
100
AcDbEntity
  8
実形
 62
     0
370
    18
100
AcDbLine
 10
330.2222163096796
 20
541.7924089657335
 30
0.0
 11
330.2222163096796
 21
531.7924089657335
 31
0.0
  0
INSERT
  5
23F2
330
234E
100
AcDbEntity
  8
実形
 62
     0
370
    18
100
AcDbBlockReference
  2
_DotSmall
 10
330.2222163096796
 20
541.7924089657335
 30
0.0
 41
30.0
 42
30.0
 43
30.0
 50
270.0
  0
INSERT
  5
23F3
330
234E
100
AcDbEntity
  8
実形
 62
     0
370
    18
100
AcDbBlockReference
  2
_DotSmall
 10
330.2222163096796
 20
531.7924089657335
 30
0.0
 41
30.0
 42
30.0
 43
30.0
 50
90.0
  0
POINT
  5
23F4
330
234E
100
AcDbEntity
  8
Defpoints
 62
     0
100
AcDbPoint
 10
475.294169868803
 20
541.7924089657335
 30
0.0
  0
POINT
  5
23F5
330
234E
100
AcDbEntity
  8
Defpoints
 62
     0
100
AcDbPoint
 10
475.294169868803
 20
531.7924089657335
 30
0.0
  0
POINT
  5
23F6
330
234E
100
AcDbEntity
  8
Defpoints
 62
     0
100
AcDbPoint
 10
330.2222163096796
 20
531.7924089657335
 30
0.0
  0
ENDBLK
  5
235B
330
234E
100
AcDbEntity
  8
0
100
AcDbBlockEnd
  0
BLOCK
  5
2713
330
2709
100
AcDbEntity
  8
0
100
AcDbBlockBegin
  2
*D63
 70
     1
 10
0.0
 20
0.0
 30
0.0
  3
*D63
  1

  0
LINE
  5
277A
330
2709
100
AcDbEntity
  8
実形
 62
     0
370
    18
100
AcDbLine
 10
1616.101190328927
 20
951.7676949415072
 30
0.0
 11
1616.101190328927
 21
873.7679168327922
 31
0.0
  0
LINE
  5
277B
330
2709
100
AcDbEntity
  8
実形
 62
     0
370
    18
100
AcDbLine
 10
1634.101190328927
 20
952.7464725826829
 30
0.0
 11
1634.101190328927
 21
873.7679168327922
 31
0.0
  0
LINE
  5
277C
330
2709
100
AcDbEntity
  8
実形
 62
     0
370
    18
100
AcDbLine
 10
1616.101190328927
 20
873.7679168327922
 30
0.0
 11
1634.101190328927
 21
873.7679168327922
 31
0.0
  0
MTEXT
  5
277D
330
2709
100
AcDbEntity
  8
実形
 62
     0
100
AcDbMText
 10
1581.39182439672
 20
894.5881761693797
 30
0.0
 40
25.0
 41
0.0
 71
     5
 72
     1
  1
18
 73
     1
 44
1.0
1001
ACAD
1000
MTEXTBEGIN
1070
    73
1070
     1
1070
    44
1040
1.0
1070
    74
1070
     0
1000
MTEXTEND
  0
INSERT
  5
277E
330
2709
100
AcDbEntity
  8
実形
 62
     0
370
    18
100
AcDbBlockReference
  2
_DotSmall
 10
1616.101190328927
 20
873.7679168327922
 30
0.0
 41
30.0
 42
30.0
 43
30.0
 50
180.0
  0
INSERT
  5
277F
330
2709
100
AcDbEntity
  8
実形
 62
     0
370
    18
100
AcDbBlockReference
  2
_DotSmall
 10
1634.101190328927
 20
873.7679168327922
 30
0.0
 41
30.0
 42
30.0
 43
30.0
  0
POINT
  5
2780
330
2709
100
AcDbEntity
  8
Defpoints
 62
     0
100
AcDbPoint
 10
1616.101190328927
 20
1016.767694941507
 30
0.0
  0
POINT
  5
2781
330
2709
100
AcDbEntity
  8
Defpoints
 62
     0
100
AcDbPoint
 10
1634.101190328927
 20
1017.746472582683
 30
0.0
  0
POINT
  5
2782
330
2709
100
AcDbEntity
  8
Defpoints
 62
     0
100
AcDbPoint
 10
1634.101190328927
 20
873.7679168327922
 30
0.0
  0
ENDBLK
  5
2714
330
2709
100
AcDbEntity
  8
0
100
AcDbBlockEnd
  0
BLOCK
  5
2721
330
2715
100
AcDbEntity
  8
0
100
AcDbBlockBegin
  2
*D64
 70
     1
 10
0.0
 20
0.0
 30
0.0
  3
*D64
  1

  0
LINE
  5
27B8
330
2715
100
AcDbEntity
  8
実形
 62
     0
370
    18
100
AcDbLine
 10
1634.101190328927
 20
952.7464725826829
 30
0.0
 11
1634.101190328927
 21
873.7679168327922
 31
0.0
  0
LINE
  5
27B9
330
2715
100
AcDbEntity
  8
実形
 62
     0
370
    18
100
AcDbLine
 10
1639.301190328926
 20
952.7464725826829
 30
0.0
 11
1639.301190328926
 21
873.7679168327922
 31
0.0
  0
LINE
  5
27BA
330
2715
100
AcDbEntity
  8
実形
 62
     0
370
    18
100
AcDbLine
 10
1634.101190328927
 20
873.7679168327922
 30
0.0
 11
1604.101190328927
 21
873.7679168327922
 31
0.0
  0
LINE
  5
27BB
330
2715
100
AcDbEntity
  8
実形
 62
     0
370
    18
100
AcDbLine
 10
1639.301190328926
 20
873.7679168327922
 30
0.0
 11
1669.301190328926
 21
873.7679168327922
 31
0.0
  0
MTEXT
  5
27BC
330
2715
100
AcDbEntity
  8
実形
 62
     0
100
AcDbMText
 10
1690.3963212897
 20
837.4713648215818
 30
0.0
 40
25.0
 41
0.0
 71
     5
 72
     1
  1
5.3
 73
     1
 44
1.0
1001
ACAD
1000
MTEXTBEGIN
1070
    73
1070
     1
1070
    44
1040
1.0
1070
    74
1070
     0
1000
MTEXTEND
  0
LINE
  5
27BD
330
2715
100
AcDbEntity
  8
実形
 62
     0
370
    18
100
AcDbLine
 10
1634.101190328927
 20
873.7679168327922
 30
0.0
 11
1639.301190328926
 21
873.7679168327922
 31
0.0
  0
INSERT
  5
27BE
330
2715
100
AcDbEntity
  8
実形
 62
     0
370
    18
100
AcDbBlockReference
  2
_DotSmall
 10
1634.101190328927
 20
873.7679168327922
 30
0.0
 41
30.0
 42
30.0
 43
30.0
  0
INSERT
  5
27BF
330
2715
100
AcDbEntity
  8
実形
 62
     0
370
    18
100
AcDbBlockReference
  2
_DotSmall
 10
1639.301190328926
 20
873.7679168327922
 30
0.0
 41
30.0
 42
30.0
 43
30.0
 50
180.0
  0
POINT
  5
27C0
330
2715
100
AcDbEntity
  8
Defpoints
 62
     0
100
AcDbPoint
 10
1634.101190328927
 20
1017.746472582683
 30
0.0
  0
POINT
  5
27C1
330
2715
100
AcDbEntity
  8
Defpoints
 62
     0
100
AcDbPoint
 10
1639.301190328926
 20
1017.746472582683
 30
0.0
  0
POINT
  5
27C2
330
2715
100
AcDbEntity
  8
Defpoints
 62
     0
100
AcDbPoint
 10
1639.301190328926
 20
873.7679168327922
 30
0.0
  0
ENDBLK
  5
2722
330
2715
100
AcDbEntity
  8
0
100
AcDbBlockEnd
  0
BLOCK
  5
272D
330
2723
100
AcDbEntity
  8
0
100
AcDbBlockBegin
  2
*D65
 70
     1
 10
0.0
 20
0.0
 30
0.0
  3
*D65
  1

  0
LINE
  5
278E
330
2723
100
AcDbEntity
  8
実形
 62
     0
370
    18
100
AcDbLine
 10
1639.301190328926
 20
952.7464725826829
 30
0.0
 11
1639.301190328926
 21
873.7679168327922
 31
0.0
  0
LINE
  5
278F
330
2723
100
AcDbEntity
  8
実形
 62
     0
370
    18
100
AcDbLine
 10
1814.301190328926
 20
897.6799648079358
 30
0.0
 11
1814.301190328926
 21
873.7679168327922
 31
0.0
  0
LINE
  5
2790
330
2723
100
AcDbEntity
  8
実形
 62
     0
370
    18
100
AcDbLine
 10
1639.301190328926
 20
873.7679168327922
 30
0.0
 11
1814.301190328926
 21
873.7679168327922
 31
0.0
  0
MTEXT
  5
2791
330
2723
100
AcDbEntity
  8
実形
 62
     0
100
AcDbMText
 10
1717.319123345533
 20
894.5881761693797
 30
0.0
 40
25.0
 41
0.0
 71
     5
 72
     1
  1
175
 73
     1
 44
1.0
1001
ACAD
1000
MTEXTBEGIN
1070
    73
1070
     1
1070
    44
1040
1.0
1070
    74
1070
     0
1000
MTEXTEND
  0
INSERT
  5
2792
330
2723
100
AcDbEntity
  8
実形
 62
     0
370
    18
100
AcDbBlockReference
  2
_DotSmall
 10
1639.301190328926
 20
873.7679168327922
 30
0.0
 41
30.0
 42
30.0
 43
30.0
 50
180.0
  0
INSERT
  5
2793
330
2723
100
AcDbEntity
  8
実形
 62
     0
370
    18
100
AcDbBlockReference
  2
_DotSmall
 10
1814.301190328926
 20
873.7679168327922
 30
0.0
 41
30.0
 42
30.0
 43
30.0
  0
POINT
  5
2794
330
2723
100
AcDbEntity
  8
Defpoints
 62
     0
100
AcDbPoint
 10
1639.301190328926
 20
1017.746472582683
 30
0.0
  0
POINT
  5
2795
330
2723
100
AcDbEntity
  8
Defpoints
 62
     0
100
AcDbPoint
 10
1814.301190328926
 20
962.6799648079359
 30
0.0
  0
POINT
  5
2796
330
2723
100
AcDbEntity
  8
Defpoints
 62
     0
100
AcDbPoint
 10
1814.301190328926
 20
873.7679168327922
 30
0.0
  0
ENDBLK
  5
272E
330
2723
100
AcDbEntity
  8
0
100
AcDbBlockEnd
  0
BLOCK
  5
2739
330
272F
100
AcDbEntity
  8
0
100
AcDbBlockBegin
  2
*D66
 70
     1
 10
0.0
 20
0.0
 30
0.0
  3
*D66
  1

  0
LINE
  5
27CD
330
272F
100
AcDbEntity
  8
実形
 62
     0
370
    18
100
AcDbLine
 10
1616.101190328927
 20
951.7676949415072
 30
0.0
 11
1616.101190328927
 21
763.1460183821509
 31
0.0
  0
LINE
  5
27CE
330
272F
100
AcDbEntity
  8
実形
 62
     0
370
    18
100
AcDbLine
 10
1814.301190328926
 20
897.6799648079358
 30
0.0
 11
1814.301190328926
 21
763.1460183821509
 31
0.0
  0
LINE
  5
27CF
330
272F
100
AcDbEntity
  8
実形
 62
     0
370
    18
100
AcDbLine
 10
1616.101190328927
 20
763.1460183821509
 30
0.0
 11
1814.301190328926
 21
763.1460183821509
 31
0.0
  0
INSERT
  5
27D0
330
272F
100
AcDbEntity
  8
実形
 62
     0
370
    18
100
AcDbBlockReference
  2
_DotSmall
 10
1616.101190328927
 20
763.1460183821509
 30
0.0
 41
30.0
 42
30.0
 43
30.0
 50
180.0
  0
INSERT
  5
27D1
330
272F
100
AcDbEntity
  8
実形
 62
     0
370
    18
100
AcDbBlockReference
  2
_DotSmall
 10
1814.301190328926
 20
763.1460183821509
 30
0.0
 41
30.0
 42
30.0
 43
30.0
  0
MTEXT
  5
27D2
330
272F
100
AcDbEntity
  8
実形
 62
     0
100
AcDbMText
 10
1715.201190328926
 20
781.8960183821509
 30
0.0
 40
25.0
 41
0.0
 71
     5
 72
     1
  1
198.3
 73
     1
 44
1.0
1001
ACAD
1000
MTEXTBEGIN
1070
    73
1070
     1
1070
    44
1040
1.0
1070
    74
1070
     0
1000
MTEXTEND
  0
POINT
  5
27D3
330
272F
100
AcDbEntity
  8
Defpoints
 62
     0
100
AcDbPoint
 10
1616.101190328927
 20
1016.767694941507
 30
0.0
  0
POINT
  5
27D4
330
272F
100
AcDbEntity
  8
Defpoints
 62
     0
100
AcDbPoint
 10
1814.301190328926
 20
962.6799648079359
 30
0.0
  0
POINT
  5
27D5
330
272F
100
AcDbEntity
  8
Defpoints
 62
     0
100
AcDbPoint
 10
1814.301190328926
 20
763.1460183821509
 30
0.0
  0
ENDBLK
  5
273A
330
272F
100
AcDbEntity
  8
0
100
AcDbBlockEnd
  0
BLOCK
  5
2747
330
273B
100
AcDbEntity
  8
0
100
AcDbBlockBegin
  2
*D67
 70
     1
 10
0.0
 20
0.0
 30
0.0
  3
*D67
  1

  0
LINE
  5
27A0
330
273B
100
AcDbEntity
  8
実形
 62
     0
370
    18
100
AcDbLine
 10
1814.301190328926
 20
953.8398703919156
 30
0.0
 11
1814.301190328926
 21
873.7679168327922
 31
0.0
  0
LINE
  5
27A1
330
273B
100
AcDbEntity
  8
実形
 62
     0
370
    18
100
AcDbLine
 10
1824.301190328926
 20
953.8398703919156
 30
0.0
 11
1824.301190328926
 21
873.7679168327922
 31
0.0
  0
LINE
  5
27A2
330
273B
100
AcDbEntity
  8
実形
 62
     0
370
    18
100
AcDbLine
 10
1814.301190328926
 20
873.7679168327922
 30
0.0
 11
1784.301190328926
 21
873.7679168327922
 31
0.0
  0
LINE
  5
27A3
330
273B
100
AcDbEntity
  8
実形
 62
     0
370
    18
100
AcDbLine
 10
1824.301190328926
 20
873.7679168327922
 30
0.0
 11
1854.301190328926
 21
873.7679168327922
 31
0.0
  0
MTEXT
  5
27A4
330
273B
100
AcDbEntity
  8
実形
 62
     0
100
AcDbMText
 10
1852.619779089268
 20
899.3470504558807
 30
0.0
 40
25.0
 41
0.0
 71
     5
 72
     1
  1
7
 73
     1
 44
1.0
1001
ACAD
1000
MTEXTBEGIN
1070
    73
1070
     1
1070
    44
1040
1.0
1070
    74
1070
     0
1000
MTEXTEND
  0
LINE
  5
27A5
330
273B
100
AcDbEntity
  8
実形
 62
     0
370
    18
100
AcDbLine
 10
1814.301190328926
 20
873.7679168327922
 30
0.0
 11
1824.301190328926
 21
873.7679168327922
 31
0.0
  0
INSERT
  5
27A6
330
273B
100
AcDbEntity
  8
実形
 62
     0
370
    18
100
AcDbBlockReference
  2
_DotSmall
 10
1814.301190328926
 20
873.7679168327922
 30
0.0
 41
30.0
 42
30.0
 43
30.0
  0
INSERT
  5
27A7
330
273B
100
AcDbEntity
  8
実形
 62
     0
370
    18
100
AcDbBlockReference
  2
_DotSmall
 10
1824.301190328926
 20
873.7679168327922
 30
0.0
 41
30.0
 42
30.0
 43
30.0
 50
180.0
  0
POINT
  5
27A8
330
273B
100
AcDbEntity
  8
Defpoints
 62
     0
100
AcDbPoint
 10
1814.301190328926
 20
1018.839870391915
 30
0.0
  0
POINT
  5
27A9
330
273B
100
AcDbEntity
  8
Defpoints
 62
     0
100
AcDbPoint
 10
1824.301190328926
 20
1018.839870391915
 30
0.0
  0
POINT
  5
27AA
330
273B
100
AcDbEntity
  8
Defpoints
 62
     0
100
AcDbPoint
 10
1824.301190328926
 20
873.7679168327922
 30
0.0
  0
ENDBLK
  5
2748
330
273B
100
AcDbEntity
  8
0
100
AcDbBlockEnd
  0
ENDSEC
  0
SECTION
  2
ENTITIES
  0
LINE
  5
9C
330
1F
100
AcDbEntity
  8
補助
100
AcDbLine
 10
94.0
 20
4.0
 30
0.0
 11
2784.0
 21
4.0
 31
0.0
  0
LINE
  5
A0
330
1F
100
AcDbEntity
  8
補助
100
AcDbLine
 10
2784.0
 20
2024.0
 30
0.0
 11
94.0
 21
2024.0
 31
0.0
  0
LINE
  5
A5
330
1F
100
AcDbEntity
  8
補助
100
AcDbLine
 10
2784.0
 20
4.0
 30
0.0
 11
2784.0
 21
2024.0
 31
0.0
  0
LINE
  5
A8
330
1F
100
AcDbEntity
  8
補助
100
AcDbLine
 10
2184.0
 20
69.0
 30
0.0
 11
2184.0
 21
199.0
 31
0.0
  0
LINE
  5
A9
330
1F
100
AcDbEntity
  8
補助
100
AcDbLine
 10
2184.0
 20
69.0
 30
0.0
 11
2784.0
 21
69.0
 31
0.0
  0
LINE
  5
AA
330
1F
100
AcDbEntity
  8
補助
100
AcDbLine
 10
2064.0
 20
134.0
 30
0.0
 11
2784.0
 21
134.0
 31
0.0
  0
LINE
  5
AB
330
1F
100
AcDbEntity
  8
補助
100
AcDbLine
 10
2064.0
 20
199.0
 30
0.0
 11
2784.0
 21
199.0
 31
0.0
  0
LINE
  5
AD
330
1F
100
AcDbEntity
  8
補助
100
AcDbLine
 10
2784.0
 20
4.0
 30
0.0
 11
2784.0
 21
69.0
 31
0.0
  0
LINE
  5
25F
330
1F
100
AcDbEntity
  8
0
 62
     0
100
AcDbLine
 10
594.944044367975
 20
1046.111913428962
 30
0.0
 11
1164.944044367975
 21
1046.111913428962
 31
0.0
  0
LINE
  5
260
330
1F
100
AcDbEntity
  8
0
 62
     0
100
AcDbLine
 10
1279.944044367975
 20
1176.111913428962
 30
0.0
 11
1279.944044367975
 21
1506.111913428962
 31
0.0
  0
LINE
  5
261
330
1F
100
AcDbEntity
  8
0
 62
     0
100
AcDbLine
 10
1219.944044367975
 20
1566.111913428962
 30
0.0
 11
539.944044367975
 21
1566.111913428962
 31
0.0
  0
LINE
  5
262
330
1F
100
AcDbEntity
  8
0
 62
     0
100
AcDbLine
 10
479.944044367975
 20
1506.111913428962
 30
0.0
 11
479.944044367975
 21
1176.111913428962
 31
0.0
  0
LINE
  5
267
330
1F
100
AcDbEntity
  8
0
 62
     0
100
AcDbLine
 10
1164.944044367975
 20
1491.111913428962
 30
0.0
 11
1069.944044367975
 21
1491.111913428962
 31
0.0
  0
LINE
  5
26B
330
1F
100
AcDbEntity
  8
0
 62
     0
100
AcDbLine
 10
594.944044367975
 20
1061.111913428962
 30
0.0
 11
1164.944044367975
 21
1061.111913428962
 31
0.0
  0
DIMENSION
  5
270
330
1F
100
AcDbEntity
  8
0
 62
     0
100
AcDbDimension
  2
*D4
 10
345.1935422510787
 20
1061.111913428962
 30
0.0
 11
326.4435422510786
 21
1114.028580095629
 31
0.0
 70
    32
 71
     5
 42
15.0
  3
ISO-25
100
AcDbAlignedDimension
 13
462.944044367975
 23
1046.111913428962
 33
0.0
 14
462.944044367975
 24
1061.111913428962
 34
0.0
 50
90.0
100
AcDbRotatedDimension
  0
DIMENSION
  5
27E
330
1F
100
AcDbEntity
  8
0
 62
     0
100
AcDbDimension
  2
*D5
 10
345.1935422510788
 20
1491.111913428962
 30
0.0
 11
326.4435422510786
 21
1276.111913428962
 31
0.0
 70
    32
 71
     5
 42
430.0
  3
ISO-25
100
AcDbAlignedDimension
 13
462.944044367975
 23
1061.111913428962
 33
0.0
 14
462.9440443679751
 24
1491.111913428962
 34
0.0
 50
90.0
100
AcDbRotatedDimension
1001
ACAD
1000
DSTYLE
1002
{
1070
   279
1070
     1
1002
}
  0
DIMENSION
  5
28B
330
1F
100
AcDbEntity
  8
0
 62
     0
100
AcDbDimension
  2
*D6
 10
345.1935422510788
 20
1566.111913428962
 30
0.0
 11
326.4435422510786
 21
1528.611913428962
 31
0.0
 70
    32
 71
     5
 42
75.0
  3
ISO-25
100
AcDbAlignedDimension
 13
462.9440443679751
 23
1491.111913428962
 33
0.0
 14
462.9440443679751
 24
1566.111913428962
 34
0.0
 50
90.0
100
AcDbRotatedDimension
1001
ACAD
1000
DSTYLE
1002
{
1070
   279
1070
     1
1002
}
  0
DIMENSION
  5
298
330
1F
100
AcDbEntity
  8
0
 62
     0
100
AcDbDimension
  2
*D7
 10
272.5651223479464
 20
1046.111913428962
 30
0.0
 11
272.5651223479463
 21
1099.028580095629
 31
0.0
 70
   160
 71
     5
 42
17.0
  3
ISO-25
100
AcDbAlignedDimension
 13
462.944044367975
 23
1029.111913428962
 33
0.0
 14
462.944044367975
 24
1046.111913428962
 34
0.0
 50
90.0
100
AcDbRotatedDimension
  0
DIMENSION
  5
2A6
330
1F
100
AcDbEntity
  8
0
 62
     0
100
AcDbDimension
  2
*D8
 10
272.5651223479464
 20
1566.111913428962
 30
0.0
 11
253.8151223479461
 21
1306.111913428962
 31
0.0
 70
    32
 71
     5
 42
520.0
  3
ISO-25
100
AcDbAlignedDimension
 13
462.944044367975
 23
1046.111913428962
 33
0.0
 14
462.9440443679751
 24
1566.111913428962
 34
0.0
 50
90.0
100
AcDbRotatedDimension
1001
ACAD
1000
DSTYLE
1002
{
1070
   279
1070
     1
1002
}
  0
DIMENSION
  5
2B3
330
1F
100
AcDbEntity
  8
0
 62
     0
100
AcDbDimension
  2
*D9
 10
272.5651223479464
 20
1583.111913428962
 30
0.0
 11
254.9285756718409
 21
1551.542158957699
 31
0.0
 70
   160
 71
     5
 42
17.0
  3
ISO-25
100
AcDbAlignedDimension
 13
462.9440443679751
 23
1566.111913428962
 33
0.0
 14
462.944044367975
 24
1583.111913428962
 34
0.0
 50
90.0
100
AcDbRotatedDimension
1001
ACAD
1000
DSTYLE
1002
{
1070
   279
1070
     1
1002
}
  0
DIMENSION
  5
2DC
330
1F
100
AcDbEntity
  8
0
 62
     0
100
AcDbDimension
  2
*D10
 10
203.0944699786323
 20
1583.111913428962
 30
0.0
 11
184.3444699786321
 21
1306.111913428962
 31
0.0
 70
    32
 71
     5
 42
554.0
  3
ISO-25
100
AcDbAlignedDimension
 13
462.944044367975
 23
1029.111913428962
 33
0.0
 14
462.944044367975
 24
1583.111913428962
 34
0.0
 50
90.0
100
AcDbRotatedDimension
  0
DIMENSION
  5
2E9
330
1F
100
AcDbEntity
  8
0
 62
     0
100
AcDbDimension
  2
*D11
 10
479.944044367975
 20
912.2041416342453
 30
0.0
 11
532.8607110346417
 21
930.9541416342453
 31
0.0
 70
    32
 71
     5
 42
17.0
  3
ISO-25
100
AcDbAlignedDimension
 13
462.944044367975
 23
1029.111913428962
 33
0.0
 14
479.944044367975
 24
1029.111913428962
 34
0.0
100
AcDbRotatedDimension
  0
DIMENSION
  5
2F7
330
1F
100
AcDbEntity
  8
0
 62
     0
100
AcDbDimension
  2
*D12
 10
1279.944044367975
 20
912.2041416342453
 30
0.0
 11
879.9440443679751
 21
930.9541416342453
 31
0.0
 70
    32
 71
     5
 42
800.0
  3
ISO-25
100
AcDbAlignedDimension
 13
479.944044367975
 23
1029.111913428962
 33
0.0
 14
1279.944044367975
 24
1029.111913428962
 34
0.0
100
AcDbRotatedDimension
1001
ACAD
1000
DSTYLE
1002
{
1070
   279
1070
     1
1002
}
  0
DIMENSION
  5
304
330
1F
100
AcDbEntity
  8
0
 62
     0
100
AcDbDimension
  2
*D13
 10
1296.944044367975
 20
912.2041416342453
 30
0.0
 11
1236.485828783518
 21
912.2041416342453
 31
0.0
 70
   160
 71
     5
 42
17.0
  3
ISO-25
100
AcDbAlignedDimension
 13
1279.944044367975
 23
1029.111913428962
 33
0.0
 14
1296.944044367975
 24
1029.111913428962
 34
0.0
100
AcDbRotatedDimension
1001
ACAD
1000
DSTYLE
1002
{
1070
   279
1070
     1
1002
}
  0
DIMENSION
  5
31C
330
1F
100
AcDbEntity
  8
0
100
AcDbDimension
  2
*D14
 10
1296.944044367975
 20
841.8453696790384
 30
0.0
 11
879.9440443679751
 21
860.5953696790384
 31
0.0
 70
    32
 71
     5
 42
834.0
  3
ISO-25
100
AcDbAlignedDimension
 13
462.944044367975
 23
1029.111913428962
 33
0.0
 14
1296.944044367975
 24
1029.111913428962
 34
0.0
100
AcDbRotatedDimension
  0
ARC
  5
32A
330
1F
100
AcDbEntity
  8
0
 62
     0
100
AcDbCircle
 10
594.944044367975
 20
1176.111913428962
 30
0.0
 40
115.0
100
AcDbArc
 50
180.0
 51
270.0
  0
ARC
  5
32B
330
1F
100
AcDbEntity
  8
0
 62
     0
100
AcDbCircle
 10
1164.944044367975
 20
1176.111913428962
 30
0.0
 40
115.0
100
AcDbArc
 50
270.0
 51
0.0
  0
LINE
  5
32C
330
1F
100
AcDbEntity
  8
0
 62
     0
100
AcDbLine
 10
479.944044367975
 20
1376.111913428962
 30
0.0
 11
479.944044367975
 21
1161.111913428962
 31
0.0
  0
LINE
  5
32D
330
1F
100
AcDbEntity
  8
0
 62
     0
100
AcDbLine
 10
1279.944044367975
 20
1161.111913428962
 30
0.0
 11
1279.944044367975
 21
1376.111913428962
 31
0.0
  0
ARC
  5
32E
330
1F
100
AcDbEntity
  8
0
 62
     0
100
AcDbCircle
 10
594.944044367975
 20
1161.111913428962
 30
0.0
 40
115.0
100
AcDbArc
 50
180.0
 51
270.0
  0
ARC
  5
32F
330
1F
100
AcDbEntity
  8
0
 62
     0
100
AcDbCircle
 10
1164.944044367975
 20
1161.111913428962
 30
0.0
 40
115.0
100
AcDbArc
 50
270.0
 51
0.0
  0
CIRCLE
  5
334
330
1F
100
AcDbEntity
  8
0
 62
     0
100
AcDbCircle
 10
879.9440443679751
 20
1396.111913428962
 30
0.0
 40
79.5
  0
CIRCLE
  5
335
330
1F
100
AcDbEntity
  8
0
 62
     0
100
AcDbCircle
 10
879.9440443679751
 20
1396.111913428962
 30
0.0
 40
90.5
  0
ARC
  5
339
330
1F
100
AcDbEntity
  8
0
 62
     0
100
AcDbCircle
 10
1164.944044367975
 20
1376.111913428962
 30
0.0
 40
115.0
100
AcDbArc
 50
0.0
 51
90.0
  0
ARC
  5
33A
330
1F
100
AcDbEntity
  8
0
 62
     0
100
AcDbCircle
 10
594.944044367975
 20
1376.111913428962
 30
0.0
 40
115.0
100
AcDbArc
 50
90.00000000000003
 51
180.0
  0
ARC
  5
33C
330
1F
100
AcDbEntity
  8
0
 62
     0
100
AcDbCircle
 10
1069.944044367975
 20
1591.111913428962
 30
0.0
 40
100.0
100
AcDbArc
 50
212.8664647390864
 51
270.0
  0
ARC
  5
33E
330
1F
100
AcDbEntity
  8
0
 62
     0
100
AcDbCircle
 10
689.944044367975
 20
1591.111913428962
 30
0.0
 40
100.0
100
AcDbArc
 50
270.0
 51
327.1335352609136
  0
ARC
  5
33F
330
1F
100
AcDbEntity
  8
0
 62
     0
100
AcDbCircle
 10
827.693817507534
 20
1502.111913428962
 30
0.0
 40
64.0
100
AcDbArc
 50
90.0
 51
147.1335352609138
  0
ARC
  5
340
330
1F
100
AcDbEntity
  8
0
 62
     0
100
AcDbCircle
 10
932.194271228416
 20
1502.111913428962
 30
0.0
 40
64.0
100
AcDbArc
 50
32.8664647390862
 51
90.0
  0
LINE
  5
341
330
1F
100
AcDbEntity
  8
0
 62
     0
100
AcDbLine
 10
689.944044367975
 20
1491.111913428962
 30
0.0
 11
594.944044367975
 21
1491.111913428962
 31
0.0
  0
ARC
  5
370
330
1F
100
AcDbEntity
  8
0
 62
     0
100
AcDbCircle
 10
539.944044367975
 20
1506.111913428962
 30
0.0
 40
60.0
100
AcDbArc
 50
90.0
 51
180.0
  0
ARC
  5
371
330
1F
100
AcDbEntity
  8
0
 62
     0
100
AcDbCircle
 10
1219.944044367975
 20
1506.111913428962
 30
0.0
 40
60.0
100
AcDbArc
 50
0.0
 51
89.99999999999998
  0
DIMENSION
  5
376
330
1F
100
AcDbEntity
  8
0
 62
     0
100
AcDbDimension
  2
*D15
 10
479.944044367975
 20
1198.574835486747
 30
0.0
 11
679.944044367975
 21
1217.324835486747
 31
0.0
 70
    32
 71
     5
 42
400.0
  3
ISO-25
100
AcDbAlignedDimension
 13
879.9440443679751
 23
1305.611913428962
 33
0.0
 14
479.944044367975
 24
1376.111913428962
 34
0.0
100
AcDbRotatedDimension
  0
DIMENSION
  5
384
330
1F
100
AcDbEntity
  8
0
 62
     0
100
AcDbDimension
  2
*D16
 10
1123.854397614024
 20
1566.111913428962
 30
0.0
 11
1123.854397614024
 21
1451.09511599412
 31
0.0
 70
   160
 71
     5
 42
170.0000000000002
  3
ISO-25
100
AcDbAlignedDimension
 13
970.444044367975
 23
1396.111913428962
 33
0.0
 14
539.9440443679751
 24
1566.111913428962
 34
0.0
 50
90.0
100
AcDbRotatedDimension
  0
LINE
  5
39A
330
1F
100
AcDbEntity
  8
Cen
100
AcDbLine
 10
1035.444044367975
 20
1396.111913428962
 30
0.0
 11
739.0470091603688
 21
1396.111913428962
 31
0.0
  0
LINE
  5
39B
330
1F
100
AcDbEntity
  8
Cen
100
AcDbLine
 10
879.9440443679751
 20
1240.611913428962
 30
0.0
 11
879.9440443679751
 21
1509.394899163206
 31
0.0
  0
DIMENSION
  5
3B2
330
1F
100
AcDbEntity
  8
0
 62
     0
100
AcDbDimension
  2
*D17
 10
944.9440443679749
 20
1731.755496731361
 30
0.0
 11
879.9440443679751
 21
1750.505496731361
 31
0.0
 70
    32
 71
     5
 42
130.0
  3
ISO-25
100
AcDbAlignedDimension
 13
814.944044367975
 23
1648.111913428962
 33
0.0
 14
944.9440443679749
 24
1648.111913428962
 34
0.0
100
AcDbRotatedDimension
  0
DIMENSION
  5
3BF
330
1F
100
AcDbEntity
  8
0
 62
     0
100
AcDbDimension
  2
*D18
 10
1009.944044367975
 20
1795.413428048667
 30
0.0
 11
879.9440443679751
 21
1814.163428048667
 31
0.0
 70
    32
 71
     5
 42
260.0
  3
ISO-25
100
AcDbAlignedDimension
 13
749.944044367975
 23
1648.111913428962
 33
0.0
 14
1009.944044367975
 24
1648.111913428962
 34
0.0
100
AcDbRotatedDimension
  0
LINE
  5
3DD
330
1F
100
AcDbEntity
  8
Cen
 62
     0
100
AcDbLine
 10
1009.944044367975
 20
1713.111913428962
 30
0.0
 11
1009.944044367975
 21
1519.111913428962
 31
0.0
  0
LINE
  5
3DE
330
1F
100
AcDbEntity
  8
Cen
 62
     0
100
AcDbLine
 10
749.944044367975
 20
1713.111913428962
 30
0.0
 11
749.944044367975
 21
1519.111913428962
 31
0.0
  0
CIRCLE
  5
3DF
330
1F
100
AcDbEntity
  8
Cen
 62
     0
100
AcDbCircle
 10
1009.944044367975
 20
1551.111913428962
 30
0.0
 40
6.0
  0
CIRCLE
  5
3E0
330
1F
100
AcDbEntity
  8
Cen
 62
     0
100
AcDbCircle
 10
749.944044367975
 20
1551.111913428962
 30
0.0
 40
6.0
  0
LINE
  5
3E3
330
1F
100
AcDbEntity
  8
Cen
 62
     0
100
AcDbLine
 10
814.944044367975
 20
1713.111913428962
 30
0.0
 11
814.944044367975
 21
1551.111913428962
 31
0.0
  0
LINE
  5
3E4
330
1F
100
AcDbEntity
  8
Cen
 62
     0
100
AcDbLine
 10
944.9440443679749
 20
1713.111913428962
 30
0.0
 11
944.9440443679749
 21
1551.111913428962
 31
0.0
  0
LINE
  5
40A
330
1F
100
AcDbEntity
  8
0
100
AcDbLine
 10
479.9440443679753
 20
721.9924089657336
 30
0.0
 11
479.9440443679753
 21
591.7995029161393
 31
0.0
  0
LINE
  5
40D
330
1F
100
AcDbEntity
  8
0
100
AcDbLine
 10
479.9440443679754
 20
716.7924089657336
 30
0.0
 11
1279.944044367974
 21
716.7924089657335
 31
0.0
  0
LINE
  5
41E
330
1F
100
AcDbEntity
  8
0
100
AcDbLine
 10
789.444044367975
 20
541.7924089657336
 30
0.0
 11
970.444044367975
 21
541.7924089657335
 31
0.0
  0
DIMENSION
  5
473
330
1F
100
AcDbEntity
  8
0
100
AcDbDimension
  2
*D19
 10
800.4440443679747
 20
412.3979342677184
 30
0.0
 11
879.9440443679749
 21
431.1479342677184
 31
0.0
 70
    32
  1
158
 71
     5
 42
159.0000000000002
  3
ISO-25
100
AcDbAlignedDimension
 13
959.4440443679751
 23
533.7924089657335
 33
0.0
 14
800.4440443679747
 24
533.7924089657337
 34
0.0
100
AcDbRotatedDimension
  0
DIMENSION
  5
480
330
1F
100
AcDbEntity
  8
0
100
AcDbDimension
  2
*D20
 10
789.444044367975
 20
643.9454335037053
 30
0.0
 11
879.9440443679751
 21
662.6954335037053
 31
0.0
 70
    32
 71
     5
 42
181.0
  3
ISO-25
100
AcDbAlignedDimension
 13
970.444044367975
 23
541.7924089657335
 33
0.0
 14
789.444044367975
 24
541.7924089657336
 34
0.0
100
AcDbRotatedDimension
  0
LINE
  5
48E
330
1F
100
AcDbEntity
  8
Cen
100
AcDbLine
 10
879.9440443679751
 20
625.0980009209688
 30
0.0
 11
879.9440443679751
 21
509.5378670206091
 31
0.0
  0
LEADER
  5
50F
330
1F
100
AcDbEntity
  8
0
 62
     0
100
AcDbLeader
  3
ISO-25
 40
25.0
 41
41.66666666666666
 76
     2
 10
742.4326965883174
 20
1557.058154169632
 30
0.0
 10
645.8745390328804
 20
1702.885757344474
 30
0.0
213
0.0
223
12.5
233
0.0
1001
ACAD
1000
DSTYLE
1002
{
1070
   147
1040
6.25
1070
    77
1070
     0
1070
    73
1070
     1
1070
    74
1070
     1
1070
   342
1005
DA
1002
}
  0
TEXT
  5
511
330
1F
100
AcDbEntity
  8
0
 62
     0
100
AcDbText
 10
572.7995034648343
 20
1699.59056282802
 30
0.0
 40
25.0
  1
12%%C
 72
     2
 11
631.1328367981677
 21
1696.257229494686
 31
0.0
100
AcDbText
 73
     1
  0
MTEXT
  5
532
330
1F
100
AcDbEntity
  8
0
100
AcDbMText
 10
1469.226616777811
 20
1181.110374981098
 30
0.0
 40
25.0
 41
0.0
 71
     9
 72
     1
  1

 73
     1
 44
1.0
1001
ACAD
1000
MTEXTBEGIN
1070
    73
1070
     1
1070
    44
1040
1.0
1070
    74
1070
     0
1000
MTEXTEND
  0
LEADER
  5
533
330
1F
100
AcDbEntity
  8
0
 62
     0
100
AcDbLeader
  3
ISO-25
 40
25.0
 41
16.66666666666666
 76
     2
 10
1245.813022177552
 20
1081.115271087217
 30
0.0
 10
1155.365688437989
 20
1137.171205713375
 30
0.0
213
-97.31675022588753
223
44.53196128345098
233
0.0
1001
ACAD
1000
DSTYLE
1002
{
1070
   147
1040
6.25
1070
    77
1070
     0
1070
    73
1070
     1
1070
    74
1070
     1
1070
   279
1070
     1
1070
   342
1005
DA
1002
}
  0
TEXT
  5
537
330
1F
100
AcDbEntity
  8
0
 62
     0
100
AcDbText
 10
1070.061555373691
 20
1132.496551105965
 30
0.0
 40
25.0
  1
114R
 72
     2
 11
1145.061555373692
 21
1129.163217772632
 31
0.0
100
AcDbText
 73
     1
  0
LEADER
  5
53D
330
1F
100
AcDbEntity
  8
0
 62
     0
100
AcDbLeader
  3
ISO-25
 40
25.0
 41
16.66666666666666
 76
     2
 10
700.83921424473
 20
1062.811291170858
 30
0.0
 10
758.08435996558
 20
1110.859237856272
 30
0.0
213
0.0
223
-12.5
233
0.0
1001
ACAD
1000
DSTYLE
1002
{
1070
   147
1040
6.25
1070
    77
1070
     0
1070
    73
1070
     1
1070
    74
1070
     1
1070
   279
1070
     1
1070
   342
1005
DA
1002
}
  0
TEXT
  5
53F
330
1F
100
AcDbEntity
  8
0
 62
     0
100
AcDbText
 10
768.3884930298773
 20
1103.896579213989
 30
0.0
 40
25.0
  1
10000R
 11
768.3884930298773
 21
1100.563245880656
 31
0.0
100
AcDbText
 73
     1
  0
LEADER
  5
540
330
1F
100
AcDbEntity
  8
0
 62
     0
100
AcDbLeader
  3
ISO-25
 76
     2
 10
1279.015201861457
 20
1299.619016165501
 30
0.0
 10
1182.843354383289
 20
1299.619016165501
 30
0.0
1001
ACAD
1000
DSTYLE
1002
{
1070
   147
1040
6.25
1070
    77
1070
     0
1070
    73
1070
     1
1070
    74
1070
     1
1070
   279
1070
     1
1070
   342
1005
DA
1002
}
  0
TEXT
  5
54B
330
1F
100
AcDbEntity
  8
0
 62
     0
100
AcDbText
 10
1068.372562987134
 20
1287.119016165501
 30
0.0
 40
25.0
  1
5000R
 72
     2
 11
1172.539229653801
 21
1299.619016165501
 31
0.0
100
AcDbText
 73
     2
  0
TEXT
  5
54E
330
1F
100
AcDbEntity
  8
0
 62
     0
100
AcDbText
 10
1152.553164559363
 20
1501.842216275557
 30
0.0
 40
25.0
  1
59R
 72
     2
 11
1219.21983122603
 21
1498.508882942223
 31
0.0
100
AcDbText
 73
     1
  0
LEADER
  5
558
330
1F
100
AcDbEntity
  8
0
 62
     0
100
AcDbLeader
  3
ISO-25
 40
25.0
 41
16.66666666666666
 76
     2
 10
798.1559644706176
 20
1557.018720351138
 30
0.0
 10
851.9664019483061
 20
1528.418753219401
 30
0.0
213
0.0
223
-12.5
233
0.0
1001
ACAD
1000
DSTYLE
1002
{
1070
   147
1040
6.25
1070
    77
1070
     0
1070
    73
1070
     1
1070
    74
1070
     1
1070
   279
1070
     1
1070
   342
1005
DA
1002
}
  0
TEXT
  5
55A
330
1F
100
AcDbEntity
  8
0
 62
     0
100
AcDbText
 10
859.9807211823517
 20
1515.834766729389
 30
0.0
 40
25.0
  1
64R
 11
859.9807211823517
 21
1512.501433396056
 31
0.0
100
AcDbText
 73
     1
  0
MTEXT
  5
55C
330
1F
100
AcDbEntity
  8
0
100
AcDbMText
 10
1010.02660136874
 20
1423.470120422065
 30
0.0
 40
25.0
 41
0.0
 71
     1
 72
     1
  1

 73
     1
 44
1.0
1001
ACAD
1000
MTEXTBEGIN
1070
    73
1070
     1
1070
    44
1040
1.0
1070
    74
1070
     0
1000
MTEXTEND
  0
LEADER
  5
55D
330
1F
100
AcDbEntity
  8
0
 62
     0
100
AcDbLeader
  3
ISO-25
 40
25.0
 41
16.66666666666666
 76
     2
 10
641.3042630284381
 20
1486.090804720573
 30
0.0
 10
665.3387023922623
 20
1430.074356504424
 30
0.0
213
0.0
223
-12.5
233
0.0
1001
ACAD
1000
DSTYLE
1002
{
1070
   147
1040
6.25
1070
    77
1070
     0
1070
    73
1070
     1
1070
    74
1070
     1
1070
   279
1070
     1
1070
   342
1005
DA
1002
}
  0
TEXT
  5
55F
330
1F
100
AcDbEntity
  8
0
 62
     0
100
AcDbText
 10
634.5260219003103
 20
1400.893821787714
 30
0.0
 40
23.0
  1
10000R
 11
634.5260219003103
 21
1423.893821787714
 31
0.0
100
AcDbText
 73
     3
  0
LEADER
  5
560
330
1F
100
AcDbEntity
  8
0
 62
     0
100
AcDbLeader
  3
ISO-25
 40
25.0
 41
16.66666666666666
 76
     2
 10
518.7996440178813
 20
1459.778832103231
 30
0.0
 10
539.4079018116663
 20
1368.258937281671
 30
0.0
213
0.0
223
-12.5
233
0.0
1001
ACAD
1000
DSTYLE
1002
{
1070
   147
1040
6.25
1070
    77
1070
     0
1070
    73
1070
     1
1070
    74
1070
     1
1070
   279
1070
     1
1070
   342
1005
DA
1002
}
  0
TEXT
  5
562
330
1F
100
AcDbEntity
  8
0
 62
     0
100
AcDbText
 10
538.2629990639452
 20
1330.674955551898
 30
0.0
 40
25.0
  1
115R
 11
538.2629990639452
 21
1355.674955551898
 31
0.0
100
AcDbText
 73
     3
  0
LEADER
  5
563
330
1F
100
AcDbEntity
  8
0
 62
     0
100
AcDbLeader
  3
ISO-25
 40
33.33333333333333
 41
16.66666666666667
 76
     2
 10
509.1642241367153
 20
1541.922048649813
 30
0.0
 10
562.9746699492115
 20
1513.322081518076
 30
0.0
213
0.0
223
-12.5
233
0.0
1001
ACAD
1000
DSTYLE
1002
{
1070
   147
1040
6.25
1070
    77
1070
     0
1070
    73
1070
     1
1070
    74
1070
     1
1070
   279
1070
     1
1070
   342
1005
DA
1002
}
  0
TEXT
  5
565
330
1F
100
AcDbEntity
  8
0
 62
     0
100
AcDbText
 10
576.1433136630912
 20
1500.365855842646
 30
0.0
 40
25.0
  1
59R
 11
576.1433136630912
 21
1525.365855842646
 31
0.0
100
AcDbText
 73
     3
  0
LEADER
  5
566
330
1F
100
AcDbEntity
  8
0
 62
     0
100
AcDbLeader
  3
ISO-25
 40
25.0
 41
16.66666666666666
 76
     2
 10
740.9108187497677
 20
1504.394779876694
 30
0.0
 10
674.5064510471511
 20
1539.858740072096
 30
0.0
213
0.0
223
12.5
233
0.0
1001
ACAD
1000
DSTYLE
1002
{
1070
   147
1040
6.25
1070
    77
1070
     0
1070
    73
1070
     1
1070
    74
1070
     1
1070
   279
1070
     1
1070
   342
1005
DA
1002
}
  0
TEXT
  5
568
330
1F
100
AcDbEntity
  8
0
 62
     0
100
AcDbText
 10
594.3632420370759
 20
1536.328080341765
 30
0.0
 40
25.0
  1
100R
 11
594.3632420370759
 21
1532.994747008431
 31
0.0
100
AcDbText
 73
     1
  0
LINE
  5
56A
330
1F
100
AcDbEntity
  8
補助
100
AcDbLine
 10
2784.0
 20
134.0
 30
0.0
 11
2784.0
 21
199.0
 31
0.0
  0
TEXT
  5
56C
330
1F
100
AcDbEntity
  8
0
100
AcDbText
 10
2263.375852094204
 20
151.8
 30
0.0
 40
35.0
  1
Jstn        
  7
ms明朝
 72
     4
 11
2416.975852094204
 21
166.5
 31
0.0
100
AcDbText
  0
DIMENSION
  5
586
330
1F
100
AcDbEntity
  8
0
 62
     0
100
AcDbDimension
  2
*D21
 10
1101.753286680125
 20
1566.111913428962
 30
0.0
 11
1091.807788790611
 21
1518.605836745305
 31
0.0
 70
   160
 71
     5
 42
15.00000000000023
  3
ISO-25
100
AcDbAlignedDimension
 13
1037.074207187234
 23
1551.111913428962
 33
0.0
 14
944.9440443679749
 24
1566.111913428962
 34
0.0
 50
90.0
100
AcDbRotatedDimension
1001
ACAD
1000
DSTYLE
1002
{
1070
   279
1070
     2
1002
}
  0
LINE
  5
59F
330
1F
100
AcDbEntity
  8
Cen
 62
     0
100
AcDbLine
 10
730.9358939840758
 20
1551.111913428962
 30
0.0
 11
765.4566154983085
 21
1551.111913428962
 31
0.0
  0
LINE
  5
5A0
330
1F
100
AcDbEntity
  8
Cen
 62
     0
100
AcDbLine
 10
994.1563819860302
 20
1551.111913428962
 30
0.0
 11
1027.058941944423
 21
1551.111913428962
 31
0.0
  0
LINE
  5
5A1
330
1F
100
AcDbEntity
  8
Cen
 62
     0
100
AcDbLine
 10
993.616994800749
 20
1551.111913428962
 30
0.0
 11
1102.074207187234
 21
1551.111913428962
 31
0.0
  0
MTEXT
  5
5A9
330
1F
100
AcDbEntity
  8
Cen
100
AcDbMText
 10
1527.939315450184
 20
552.4831097022406
 30
0.0
 40
25.0
 41
0.0
 71
     9
 72
     1
  1

 73
     1
 44
1.0
1001
ACAD
1000
MTEXTBEGIN
1070
    73
1070
     1
1070
    44
1040
1.0
1070
    74
1070
     0
1000
MTEXTEND
  0
LEADER
  5
5AA
330
1F
100
AcDbEntity
  8
Cen
100
AcDbLeader
  3
ISO-25
 40
25.0
 41
16.66666666666666
 76
     2
 10
1260.524368241429
 20
574.7319524122072
 30
0.0
 10
1211.409403516895
 20
610.6040337082149
 30
0.0
213
0.0
223
12.5
233
0.0
1001
ACAD
1000
DSTYLE
1002
{
1070
   147
1040
6.25
1070
    77
1070
     0
1070
   279
1070
     1
1002
}
  0
TEXT
  5
5AD
330
1F
100
AcDbEntity
  8
0
100
AcDbText
 10
1140.217260560442
 20
606.6520384889381
 30
0.0
 40
25.0
  1
30R
100
AcDbText
  0
LINE
  5
5D0
330
1F
100
AcDbEntity
  8
補助
100
AcDbLine
 10
2784.0
 20
69.0
 30
0.0
 11
2784.0
 21
134.0
 31
0.0
  0
TEXT
  5
5D2
330
1F
100
AcDbEntity
  8
0
100
AcDbText
 10
2420.0
 20
84.40000000000001
 30
0.0
 40
35.0
  1
1：10
  7
ms明朝
 72
     4
 11
2484.0
 21
101.5
 31
0.0
100
AcDbText
  0
TEXT
  5
5D8
330
1F
100
AcDbEntity
  8
0
100
AcDbText
 10
231.1659029702105
 20
53.51169987015055
 30
0.0
 40
25.0
  1
※実寸には製造上の誤差が多少生ずる場合があります。シンクの穴あけ加工は現物合わせにてお願いします。
  7
ms明朝
100
AcDbText
  0
TEXT
  5
5F4
330
1F
100
AcDbEntity
  8
補助
100
AcDbText
 10
2283.455774665347
 20
18.5
 30
0.0
 40
35.0
  1
中外交易株式会社
  7
ms明朝
 72
     4
 11
2488.255774665347
 21
36.5
 31
0.0
100
AcDbText
  0
LINE
  5
5F5
330
1F
100
AcDbEntity
  8
補助
100
AcDbLine
 10
2064.0
 20
69.0
 30
0.0
 11
2784.0
 21
69.0
 31
0.0
  0
HATCH
  5
5F6
330
1F
100
AcDbEntity
  8
補助
100
AcDbHatch
 10
0.0
 20
0.0
 30
0.0
210
0.0
220
0.0
230
1.0
  2
SOLID
 70
     1
 71
     1
 91
        3
 92
        1
 93
        4
 72
     2
 10
2257.166198313996
 20
36.5
 40
20.0
 50
11.6477236670766
 51
342.6561058784691
 73
     1
 72
     1
 10
2276.256852341323
 20
30.53787547858514
 11
2252.166198313995
 21
30.53787547858519
 72
     1
 10
2252.166198313995
 20
30.53787547858519
 11
2252.166198313995
 21
40.53787547858519
 72
     1
 10
2252.166198313995
 20
40.53787547858519
 11
2276.75434681301
 21
40.53787547858519
 97
        4
330
5F7
330
5F9
330
5FA
330
5FB
 92
        1
 93
        4
 72
     2
 10
2188.255774665348
 20
36.5
 40
20.0
 50
11.6477236670766
 51
342.6561058784691
 73
     1
 72
     1
 10
2207.346428692676
 20
30.53787547858514
 11
2183.255774665347
 21
30.53787547858519
 72
     1
 10
2183.255774665347
 20
30.53787547858519
 11
2183.255774665347
 21
40.53787547858519
 72
     1
 10
2183.255774665347
 20
40.53787547858519
 11
2207.843923164362
 21
40.53787547858519
 97
        4
330
5F8
330
601
330
602
330
603
 92
        1
 93
        5
 72
     1
 10
2245.64189404294
 20
56.5
 11
2210.641894042939
 21
56.5
 72
     1
 10
2210.641894042939
 20
56.5
 11
2210.641894042939
 21
16.5
 72
     1
 10
2210.641894042939
 20
16.5
 11
2245.64189404294
 21
16.5
 72
     1
 10
2245.64189404294
 20
16.5
 11
2210.641894042939
 21
36.5
 72
     1
 10
2210.641894042939
 20
36.5
 11
2245.64189404294
 21
56.5
 97
        5
330
5FC
330
600
330
5FF
330
5FE
330
5FD
 75
     0
 76
     1
 98
        1
 10
-60.0
 20
0.0
  0
ARC
  5
5F7
102
{ACAD_REACTORS
330
5F6
102
}
330
1F
100
AcDbEntity
  8
補助
370
     5
100
AcDbCircle
 10
2257.166198313996
 20
36.5
 30
0.0
 40
20.0
100
AcDbArc
 50
11.6477236670766
 51
342.6561058784691
  0
ARC
  5
5F8
102
{ACAD_REACTORS
330
5F6
102
}
330
1F
100
AcDbEntity
  8
補助
370
     5
100
AcDbCircle
 10
2188.255774665348
 20
36.5
 30
0.0
 40
20.0
100
AcDbArc
 50
11.6477236670766
 51
342.6561058784691
  0
LINE
  5
5F9
102
{ACAD_REACTORS
330
5F6
102
}
330
1F
100
AcDbEntity
  8
補助
370
     5
100
AcDbLine
 10
2252.166198313995
 20
30.53787547858519
 30
0.0
 11
2276.256852341323
 21
30.53787547858514
 31
0.0
  0
LINE
  5
5FA
102
{ACAD_REACTORS
330
5F6
102
}
330
1F
100
AcDbEntity
  8
補助
370
     5
100
AcDbLine
 10
2252.166198313995
 20
40.53787547858519
 30
0.0
 11
2252.166198313995
 21
30.53787547858519
 31
0.0
  0
LINE
  5
5FB
102
{ACAD_REACTORS
330
5F6
102
}
330
1F
100
AcDbEntity
  8
補助
370
     5
100
AcDbLine
 10
2276.75434681301
 20
40.53787547858519
 30
0.0
 11
2252.166198313995
 21
40.53787547858519
 31
0.0
  0
LINE
  5
5FC
102
{ACAD_REACTORS
330
5F6
102
}
330
1F
100
AcDbEntity
  8
補助
370
     5
100
AcDbLine
 10
2245.64189404294
 20
56.5
 30
0.0
 11
2210.641894042939
 21
56.5
 31
0.0
  0
LINE
  5
5FD
102
{ACAD_REACTORS
330
5F6
102
}
330
1F
100
AcDbEntity
  8
補助
370
     5
100
AcDbLine
 10
2210.641894042939
 20
36.5
 30
0.0
 11
2245.64189404294
 21
56.5
 31
0.0
  0
LINE
  5
5FE
102
{ACAD_REACTORS
330
5F6
102
}
330
1F
100
AcDbEntity
  8
補助
370
     5
100
AcDbLine
 10
2245.64189404294
 20
16.5
 30
0.0
 11
2210.641894042939
 21
36.5
 31
0.0
  0
LINE
  5
5FF
102
{ACAD_REACTORS
330
5F6
102
}
330
1F
100
AcDbEntity
  8
補助
370
     5
100
AcDbLine
 10
2210.641894042939
 20
16.5
 30
0.0
 11
2245.64189404294
 21
16.5
 31
0.0
  0
LINE
  5
600
102
{ACAD_REACTORS
330
5F6
102
}
330
1F
100
AcDbEntity
  8
補助
370
     5
100
AcDbLine
 10
2210.641894042939
 20
56.5
 30
0.0
 11
2210.641894042939
 21
16.5
 31
0.0
  0
LINE
  5
601
102
{ACAD_REACTORS
330
5F6
102
}
330
1F
100
AcDbEntity
  8
補助
370
     5
100
AcDbLine
 10
2183.255774665347
 20
30.53787547858519
 30
0.0
 11
2207.346428692676
 21
30.53787547858514
 31
0.0
  0
LINE
  5
602
102
{ACAD_REACTORS
330
5F6
102
}
330
1F
100
AcDbEntity
  8
補助
370
     5
100
AcDbLine
 10
2183.255774665347
 20
40.53787547858519
 30
0.0
 11
2183.255774665347
 21
30.53787547858519
 31
0.0
  0
LINE
  5
603
102
{ACAD_REACTORS
330
5F6
102
}
330
1F
100
AcDbEntity
  8
補助
370
     5
100
AcDbLine
 10
2207.843923164362
 20
40.53787547858519
 30
0.0
 11
2183.255774665347
 21
40.53787547858519
 31
0.0
  0
LINE
  5
A29
330
1F
100
AcDbEntity
  8
補助
100
AcDbLine
 10
2064.0
 20
4.0
 30
0.0
 11
2064.0
 21
199.0
 31
0.0
  0
TEXT
  5
A2C
330
1F
100
AcDbEntity
  8
補助
100
AcDbText
 10
2086.666666666667
 20
149.0
 30
0.0
 40
35.0
  1
品番
 72
     4
 11
2124.0
 21
166.5
 31
0.0
100
AcDbText
  0
TEXT
  5
A2D
330
1F
100
AcDbEntity
  8
補助
100
AcDbText
 10
2086.666666666667
 20
84.0
 30
0.0
 40
35.0
  1
尺度
 72
     4
 11
2124.0
 21
101.5
 31
0.0
100
AcDbText
  0
CIRCLE
  5
C46
330
1F
100
AcDbEntity
  8
0
 62
     0
100
AcDbCircle
 10
879.9440443679751
 20
1396.111913428962
 30
0.0
 40
110.5
  0
LINE
  5
C4E
330
1F
100
AcDbEntity
  8
実形
100
AcDbLine
 10
789.444044367975
 20
541.7924089657336
 30
0.0
 11
507.8101874324324
 21
561.8754882359758
 31
0.0
  0
ARC
  5
C50
330
1F
100
AcDbEntity
  8
実形
100
AcDbCircle
 10
509.9440443679752
 20
591.7995029161393
 30
0.0
 40
30.0
100
AcDbArc
 50
179.9999999999999
 51
265.9211892046446
  0
LINE
  5
CB1
330
1F
100
AcDbEntity
  8
0
100
AcDbLine
 10
1279.944044367975
 20
721.9924089657336
 30
0.0
 11
1279.944044367975
 21
591.7995029161393
 31
0.0
  0
ARC
  5
CB2
330
1F
100
AcDbEntity
  8
実形
100
AcDbCircle
 10
1249.944044367975
 20
591.7995029161393
 30
0.0
 40
30.0
100
AcDbArc
 50
274.0788107953554
 51
0.0000000000000579
  0
LINE
  5
CB3
330
1F
100
AcDbEntity
  8
実形
100
AcDbLine
 10
970.444044367975
 20
541.7924089657336
 30
0.0
 11
1252.077901303517
 21
561.8754882359758
 31
0.0
  0
LINE
  5
CBC
330
1F
100
AcDbEntity
  8
実形
 62
     0
100
AcDbLine
 10
976.6445923747895
 20
1299.085863073335
 30
0.0
 11
1201.267335076651
 21
1433.75177596414
 31
0.0
  0
ARC
  5
CD3
330
1F
100
AcDbEntity
  8
実形
 62
     0
100
AcDbCircle
 10
879.9440443679751
 20
1491.111913428962
 30
0.0
 40
215.0
100
AcDbArc
 50
270.0
 51
296.7511366344175
  0
ARC
  5
CDA
330
1F
100
AcDbEntity
  8
実形
 62
     0
100
AcDbCircle
 10
879.9440443679751
 20
1491.111913428962
 30
0.0
 40
210.0
100
AcDbArc
 50
270.0
 51
296.5613888603681
  0
LINE
  5
CDD
330
1F
100
AcDbEntity
  8
実形
 62
     0
100
AcDbLine
 10
973.8468932528128
 20
1303.276200713538
 30
0.0
 11
1201.267335076651
 21
1433.75177596414
 31
0.0
  0
LINE
  5
CE8
330
1F
100
AcDbEntity
  8
実形
 62
     0
100
AcDbLine
 10
785.1026744964602
 20
1297.267768466676
 30
0.0
 11
557.9641658850095
 21
1427.645613744877
 31
0.0
  0
ARC
  5
CE9
330
1F
100
AcDbEntity
  8
実形
 62
     0
100
AcDbCircle
 10
878.1407479442441
 20
1491.094796739631
 30
0.0
 40
215.0
100
AcDbArc
 50
244.3365210504766
 51
271.0876576848941
  0
ARC
  5
CEA
330
1F
100
AcDbEntity
  8
実形
 62
     0
100
AcDbCircle
 10
878.1407479442441
 20
1491.094796739631
 30
0.0
 40
210.0
100
AcDbArc
 50
244.526268824526
 51
271.0876576848941
  0
LINE
  5
CEB
330
1F
100
AcDbEntity
  8
実形
 62
     0
100
AcDbLine
 10
787.8203282686734
 20
1301.510457223866
 30
0.0
 11
557.9641658850095
 21
1427.645613744877
 31
0.0
  0
LINE
  5
D92
330
1F
100
AcDbEntity
  8
実形
100
AcDbLine
 10
1226.697066963285
 20
1516.432483633912
 30
0.0
 11
1259.131465877914
 21
1542.370737629712
 31
0.0
  0
LINE
  5
D93
330
1F
100
AcDbEntity
  8
実形
100
AcDbLine
 10
1259.131465877914
 20
1542.370737629712
 30
0.0
 11
1226.697066963285
 21
1516.432483633912
 31
0.0
  0
LINE
  5
D94
330
1F
100
AcDbEntity
  8
実形
100
AcDbLine
 10
1259.542995318556
 20
1542.500230057186
 30
0.0
 11
1244.360290304015
 21
1515.20012089734
 31
0.0
  0
LINE
  5
D95
330
1F
100
AcDbEntity
  8
実形
100
AcDbLine
 10
1258.953105992536
 20
1542.157042621674
 30
0.0
 11
1230.123971004861
 21
1531.240815351449
 31
0.0
  0
LINE
  5
DC4
330
1F
100
AcDbEntity
  8
実形
100
AcDbLine
 10
970.444044367975
 20
606.7924089657335
 30
0.0
 11
970.444044367975
 21
643.9454335037053
 31
0.0
  0
LINE
  5
E44
330
1F
100
AcDbEntity
  8
実形
100
AcDbLine
 10
789.444044367975
 20
606.7924089657337
 30
0.0
 11
789.444044367975
 21
642.0704335037052
 31
0.0
  0
DIMENSION
  5
E79
330
1F
100
AcDbEntity
  8
実形
100
AcDbDimension
  2
*D24
 10
990.4440443679749
 20
643.84312399909
 30
0.0
 11
777.8830979379072
 21
644.5365513054043
 31
0.0
 70
   160
  1
20
 71
     5
 42
221.0
  3
ISO-25
100
AcDbAlignedDimension
 13
769.444044367975
 23
540.9817866327053
 33
0.0
 14
990.4440443679749
 24
541.6364691503663
 34
0.0
100
AcDbRotatedDimension
1001
ACAD
1000
DSTYLE
1002
{
1070
   279
1070
     1
1002
}
  0
TEXT
  5
EDC
330
1F
100
AcDbEntity
  8
実形
100
AcDbText
 10
960.2979165868237
 20
652.2375036878843
 30
0.0
 40
25.0
  1
20
100
AcDbText
  0
LEADER
  5
EE7
330
1F
100
AcDbEntity
  8
0
100
AcDbLeader
  3
ISO-25
 40
25.0
 41
16.66666666666666
 76
     2
 10
595.0048100290332
 20
560.1342577628038
 30
0.0
 10
652.2499557498831
 20
608.1822044482187
 30
0.0
213
0.0
223
-12.5
233
0.0
1001
ACAD
1000
DSTYLE
1002
{
1070
   147
1040
6.25
1070
    77
1070
     0
1070
    73
1070
     1
1070
    74
1070
     1
1070
   279
1070
     1
1070
   342
1005
DA
1002
}
  0
TEXT
  5
EE8
330
1F
100
AcDbEntity
  8
0
100
AcDbText
 10
603.9491364011628
 20
615.326143441838
 30
0.0
 40
25.0
  1
4500R
 11
603.9491364011628
 21
611.9928101085047
 31
0.0
100
AcDbText
 73
     1
  0
LINE
  5
1080
330
1F
100
AcDbEntity
  8
実形
  6
ACAD_ISO08W100
 48
0.8
100
AcDbLine
 10
879.9440443679751
 20
1276.111913428962
 30
0.0
 11
593.188764004445
 21
1276.111913428962
 31
0.0
  0
LINE
  5
1081
330
1F
100
AcDbEntity
  8
実形
100
AcDbLine
 10
792.369717000979
 20
1276.111913428962
 30
0.0
 11
782.6046691197243
 21
1276.111913428962
 31
0.0
  0
DIMENSION
  5
1105
330
1F
100
AcDbEntity
  8
実形
100
AcDbDimension
  2
*D26
 10
557.9641658850095
 20
1427.645613744877
 30
0.0
 11
680.5254752986614
 21
1313.818462795927
 31
0.0
 70
    34
 71
     5
 42
0.5210835588631254
  3
ISO-25
100
AcDb2LineAngularDimension
 13
879.9440443679751
 23
1276.111913428962
 33
0.0
 14
593.188764004445
 24
1276.111913428962
 34
0.0
 15
785.1026744964602
 25
1297.267768466676
 35
0.0
 16
701.9590798360564
 26
1319.56074750164
 36
0.0
1001
ACAD
1000
DSTYLE
1002
{
1070
   279
1070
     1
1002
}
  0
LINE
  5
1243
330
1F
100
AcDbEntity
  8
0
100
AcDbLine
 10
789.444044367975
 20
531.7924089657337
 30
0.0
 11
970.444044367975
 21
531.7924089657335
 31
0.0
  0
LINE
  5
1244
330
1F
100
AcDbEntity
  8
実形
100
AcDbLine
 10
789.444044367975
 20
541.7924089657336
 30
0.0
 11
789.444044367975
 21
531.7924089657337
 31
0.0
  0
LINE
  5
1245
330
1F
100
AcDbEntity
  8
実形
100
AcDbLine
 10
970.4440443679752
 20
541.7924089657336
 30
0.0
 11
970.4440443679756
 21
531.7924089657334
 31
0.0
  0
LINE
  5
1398
330
1F
100
AcDbEntity
  8
0
 62
     0
100
AcDbLine
 10
1313.944044367975
 20
1176.111913428962
 30
0.0
 11
1313.944044367975
 21
1506.111913428962
 31
0.0
  0
ARC
  5
139A
330
1F
100
AcDbEntity
  8
0
 62
     0
100
AcDbCircle
 10
1219.944044367975
 20
1506.111913428962
 30
0.0
 40
94.0
100
AcDbArc
 50
0.0
 51
89.99999999999998
  0
LINE
  5
139B
330
1F
100
AcDbEntity
  8
0
 62
     0
100
AcDbLine
 10
1219.944044367975
 20
1600.111913428962
 30
0.0
 11
539.944044367975
 21
1600.111913428962
 31
0.0
  0
ARC
  5
139C
330
1F
100
AcDbEntity
  8
0
 62
     0
100
AcDbCircle
 10
539.944044367975
 20
1506.111913428962
 30
0.0
 40
94.0
100
AcDbArc
 50
90.0
 51
180.0
  0
LINE
  5
139D
330
1F
100
AcDbEntity
  8
0
 62
     0
100
AcDbLine
 10
445.944044367975
 20
1506.111913428962
 30
0.0
 11
445.944044367975
 21
1176.111913428962
 31
0.0
  0
ARC
  5
139E
330
1F
100
AcDbEntity
  8
0
 62
     0
100
AcDbCircle
 10
594.944044367975
 20
1161.111913428962
 30
0.0
 40
149.0
100
AcDbArc
 50
180.0
 51
270.0
  0
LINE
  5
139F
330
1F
100
AcDbEntity
  8
0
 62
     0
100
AcDbLine
 10
594.944044367975
 20
1012.111913428962
 30
0.0
 11
1164.944044367975
 21
1012.111913428962
 31
0.0
  0
ARC
  5
13A0
330
1F
100
AcDbEntity
  8
0
 62
     0
100
AcDbCircle
 10
1164.944044367975
 20
1161.111913428962
 30
0.0
 40
149.0
100
AcDbArc
 50
270.0
 51
0.0
  0
LINE
  5
13A2
330
1F
100
AcDbEntity
  8
実形
100
AcDbLine
 10
1313.944044367975
 20
1161.111913428962
 30
0.0
 11
1313.944044367975
 21
1176.111913428962
 31
0.0
  0
LINE
  5
13D4
330
1F
100
AcDbEntity
  8
実形
100
AcDbLine
 10
445.944044367975
 20
1161.111913428962
 30
0.0
 11
445.944044367975
 21
1176.111913428962
 31
0.0
  0
DIMENSION
  5
1415
330
1F
100
AcDbEntity
  8
実形
100
AcDbDimension
  2
*D32
 10
1437.959388802334
 20
1600.111913428962
 30
0.0
 11
1419.209388802333
 21
1306.111913428962
 31
0.0
 70
    32
 71
     5
 42
588.0000000000002
  3
ISO-25
100
AcDbAlignedDimension
 13
1261.408362582336
 23
1012.111913428962
 33
0.0
 14
1261.408362582336
 24
1600.111913428962
 34
0.0
 50
90.0
100
AcDbRotatedDimension
1001
ACAD
1000
DSTYLE
1002
{
1070
   279
1070
     1
1002
}
  0
DIMENSION
  5
144B
330
1F
100
AcDbEntity
  8
実形
100
AcDbDimension
  2
*D33
 10
1313.944044367975
 20
1861.693991995225
 30
0.0
 11
879.9440443679753
 21
1880.443991995225
 31
0.0
 70
    32
 71
     5
 42
868.0000000000005
  3
ISO-25
100
AcDbAlignedDimension
 13
445.944044367975
 23
1571.111913428962
 33
0.0
 14
1313.944044367975
 24
1586.807491937394
 34
0.0
100
AcDbRotatedDimension
1001
ACAD
1000
DSTYLE
1002
{
1070
   279
1070
     1
1002
}
  0
TEXT
  5
1472
330
1F
100
AcDbEntity
  8
0
100
AcDbText
 10
1375.086680478388
 20
1659.445799003569
 30
0.0
 40
25.0
  1
94R
 72
     2
 11
1441.753347145055
 21
1656.112465670236
 31
0.0
100
AcDbText
 73
     1
  0
LEADER
  5
1473
330
1F
100
AcDbEntity
  8
実形
100
AcDbLeader
  3
ISO-25
 76
     2
 10
1277.25169580458
 20
1591.463404267248
 30
0.0
 10
1365.653124700407
 20
1650.381482019866
 30
0.0
1001
ACAD
1000
DSTYLE
1002
{
1070
   147
1040
6.25
1070
    77
1070
     0
1070
   279
1070
     1
1002
}
  0
TEXT
  5
147C
330
1F
100
AcDbEntity
  8
0
 62
     0
100
AcDbText
 10
1330.736659084776
 20
926.1099796604703
 30
0.0
 40
25.0
  1
149R
 72
     2
 11
1414.069992418109
 21
922.776646327137
 31
0.0
100
AcDbText
 73
     1
  0
LEADER
  5
147D
330
1F
100
AcDbEntity
  8
実形
100
AcDbLeader
  3
ISO-25
 76
     2
 10
1264.090526318937
 20
1037.590177900586
 30
0.0
 10
1329.980941326312
 20
960.8635366744001
 30
0.0
1001
ACAD
1000
DSTYLE
1002
{
1070
   147
1040
6.25
1070
    77
1070
     0
1070
   279
1070
     1
1002
}
  0
DIMENSION
  5
147E
330
1F
100
AcDbEntity
  8
実形
100
AcDbDimension
  2
*D34
 10
445.9440443679751
 20
1667.236971091073
 30
0.0
 11
478.1940443679751
 21
1715.986971091073
 31
0.0
 70
    32
  1
35
 71
     5
 42
33.99999999999989
  3
ISO-25
100
AcDbAlignedDimension
 13
479.944044367975
 23
1562.408374453266
 33
0.0
 14
445.9440443679751
 24
1562.408374453266
 34
0.0
100
AcDbRotatedDimension
1001
ACAD
1000
DSTYLE
1002
{
1070
   279
1070
     1
1002
}
  0
TEXT
  5
150D
330
1F
100
AcDbEntity
  8
0
100
AcDbText
 10
2382.176363752714
 20
150.2375358068406
 30
0.0
 40
35.0
  1
868-588
  7
ms明朝
 72
     4
 11
2471.776363752714
 21
167.3375358068406
 31
0.0
100
AcDbText
  0
DIMENSION
  5
151E
330
1F
100
AcDbEntity
  8
実形
100
AcDbDimension
  2
*D35
 10
1313.944044367975
 20
1666.196324143343
 30
0.0
 11
1283.922358056097
 21
1679.323458293673
 31
0.0
 70
   160
  1
35
 71
     5
 42
34.0
  3
ISO-25
100
AcDbAlignedDimension
 13
1279.944044367975
 23
1563.39412956641
 33
0.0
 14
1313.944044367975
 24
1563.39412956641
 34
0.0
100
AcDbRotatedDimension
1001
ACAD
1000
DSTYLE
1002
{
1070
   279
1070
     1
1002
}
  0
DIMENSION
  5
155A
330
1F
100
AcDbEntity
  8
実形
100
AcDbDimension
  2
*D36
 10
1388.100106741956
 20
1566.111913428962
 30
0.0
 11
1390.851557522562
 21
1533.411086361441
 31
0.0
 70
   160
  1
35
 71
     5
 42
34.0
  3
ISO-25
100
AcDbAlignedDimension
 13
1258.464348268492
 23
1600.111913428962
 33
0.0
 14
1258.464348268492
 24
1566.111913428962
 34
0.0
 50
90.0
100
AcDbRotatedDimension
1001
ACAD
1000
DSTYLE
1002
{
1070
   279
1070
     1
1002
}
  0
DIMENSION
  5
158D
330
1F
100
AcDbEntity
  8
実形
100
AcDbDimension
  2
*D37
 10
1354.564679662963
 20
1012.111913428961
 30
0.0
 11
1355.851501215784
 21
1082.69083673378
 31
0.0
 70
   160
  1
35
 71
     5
 42
34.0
  3
ISO-25
100
AcDbAlignedDimension
 13
1240.915966516179
 23
1046.111913428962
 33
0.0
 14
1240.038074503896
 24
1012.111913428962
 34
0.0
 50
90.0
100
AcDbRotatedDimension
1001
ACAD
1000
DSTYLE
1002
{
1070
   279
1070
     1
1002
}
  0
LINE
  5
1666
330
1F
100
AcDbEntity
  8
補助
100
AcDbLine
 10
94.0
 20
2024.0
 30
0.0
 11
94.0
 21
4.0
 31
0.0
  0
TEXT
  5
1673
330
1F
100
AcDbEntity
  8
0
 62
     0
100
AcDbText
 10
330.5753830472716
 20
1640.067589450654
 30
0.0
 40
25.0
  1
94R
 72
     2
 11
397.2420497139383
 21
1636.73425611732
 31
0.0
100
AcDbText
 73
     1
  0
LEADER
  5
1674
330
1F
100
AcDbEntity
  8
実形
100
AcDbLeader
  3
ISO-25
 76
     2
 10
466.182590850959
 20
1567.29695160477
 30
0.0
 10
393.1266319620081
 20
1631.003272466951
 30
0.0
1001
ACAD
1000
DSTYLE
1002
{
1070
   147
1040
6.25
1070
    77
1070
     0
1070
   279
1070
     1
1002
}
  0
TEXT
  5
1675
330
1F
100
AcDbEntity
  8
0
 62
     0
100
AcDbText
 10
337.3116853426173
 20
940.2798366766356
 30
0.0
 40
25.0
  1
149R
 72
     2
 11
420.6450186759505
 21
936.9465033433021
 31
0.0
100
AcDbText
 73
     1
  0
LEADER
  5
1676
330
1F
100
AcDbEntity
  8
実形
100
AcDbLeader
  3
ISO-25
 76
     2
 10
484.3229445013385
 20
1049.200055904847
 30
0.0
 10
415.2851649757458
 20
980.8148976171814
 30
0.0
1001
ACAD
1000
DSTYLE
1002
{
1070
   147
1040
6.25
1070
    77
1070
     0
1070
   279
1070
     1
1002
}
  0
LEADER
  5
1CA9
330
1F
100
AcDbEntity
  8
0
 62
     0
100
AcDbLeader
  3
ISO-25
 40
25.0
 41
16.66666666666666
 76
     2
 10
541.4409367128355
 20
1067.171868743759
 30
0.0
 10
630.8698325334717
 20
1119.578708697802
 30
0.0
213
-97.31675022588753
223
44.53196128345098
233
0.0
1001
ACAD
1000
DSTYLE
1002
{
1070
   147
1040
6.25
1070
    77
1070
     0
1070
    73
1070
     1
1070
    74
1070
     1
1070
   279
1070
     1
1070
   342
1005
DA
1002
}
  0
TEXT
  5
1CAA
330
1F
100
AcDbEntity
  8
0
 62
     0
100
AcDbText
 10
613.9091849564574
 20
1129.342799265367
 30
0.0
 40
25.0
  1
114R
 72
     2
 11
688.9091849564574
 21
1126.009465932034
 31
0.0
100
AcDbText
 73
     1
  0
TEXT
  5
1CEB
330
1F
100
AcDbEntity
  8
0
100
AcDbText
 10
2358.624289472166
 20
150.0014355827588
 30
0.0
 40
35.0
  1
        S-GRM
  7
ms明朝
 72
     4
 11
2525.024289472166
 21
167.0014355827588
 31
0.0
100
AcDbText
  0
LINE
  5
1E34
330
1F
100
AcDbEntity
  8
実形
 62
     0
100
AcDbLine
 10
2543.233877365066
 20
684.0947101512854
 30
0.0
 11
2153.233877365066
 21
684.0947101512854
 31
0.0
  0
LINE
  5
1E35
330
1F
100
AcDbEntity
  8
実形
 62
     0
100
AcDbLine
 10
2387.233877365066
 20
585.2947101512853
 30
0.0
 11
2075.233877365066
 21
585.2947101512854
 31
0.0
  0
ARC
  5
1E36
330
1F
100
AcDbEntity
  8
実形
 62
     0
100
AcDbCircle
 10
2153.233877365066
 20
606.0947101512854
 30
0.0
 40
78.0
100
AcDbArc
 50
90.0
 51
180.0
  0
ARC
  5
1E37
330
1F
100
AcDbEntity
  8
実形
 62
     0
100
AcDbCircle
 10
2543.233877365066
 20
606.0947101512854
 30
0.0
 40
78.0
100
AcDbArc
 50
0.0
 51
90.0
  0
LINE
  5
1E38
330
1F
100
AcDbEntity
  8
実形
 62
     0
100
AcDbLine
 10
2621.233877365066
 20
543.6947101512854
 30
0.0
 11
2387.233877365066
 21
543.6947101512854
 31
0.0
  0
LINE
  5
1E39
330
1F
100
AcDbEntity
  8
実形
 62
     0
100
AcDbLine
 10
2278.033877365066
 20
543.6947101512854
 30
0.0
 11
2153.233877365066
 21
543.6947101512854
 31
0.0
  0
LINE
  5
1E3A
330
1F
100
AcDbEntity
  8
実形
 62
     0
100
AcDbLine
 10
2356.033877365065
 20
543.6947101512854
 30
0.0
 11
2106.433877365066
 21
543.6947101512854
 31
0.0
  0
LINE
  5
1E3B
330
1F
100
AcDbEntity
  8
実形
 62
     0
100
AcDbLine
 10
2621.233877365066
 20
403.2947101512855
 30
0.0
 11
2386.105494977745
 21
403.2947101512855
 31
0.0
  0
LINE
  5
1E3C
330
1F
100
AcDbEntity
  8
実形
 62
     0
100
AcDbLine
 10
2278.033877365066
 20
403.2947101512855
 30
0.0
 11
2153.233877365066
 21
403.2947101512855
 31
0.0
  0
LINE
  5
1E3D
330
1F
100
AcDbEntity
  8
実形
 62
     0
100
AcDbLine
 10
2075.233877365066
 20
606.0947101512854
 30
0.0
 11
2075.233877365066
 21
585.2947101512854
 31
0.0
  0
LINE
  5
1E3E
330
1F
100
AcDbEntity
  8
実形
 62
     0
100
AcDbLine
 10
2090.833877365066
 20
559.2947101512845
 30
0.0
 11
2356.033877365065
 21
559.2947101512846
 31
0.0
  0
LINE
  5
1E40
330
1F
100
AcDbEntity
  8
実形
 62
     0
100
AcDbLine
 10
2278.033877365066
 20
543.6947101512854
 30
0.0
 11
2153.233877365066
 21
543.6947101512854
 31
0.0
  0
LINE
  5
1E41
330
1F
100
AcDbEntity
  8
実形
 62
     0
100
AcDbLine
 10
2621.233877365066
 20
606.0947101512854
 30
0.0
 11
2621.233877365066
 21
403.2947101512855
 31
0.0
  0
LINE
  5
1E42
330
1F
100
AcDbEntity
  8
実形
 62
     0
100
AcDbLine
 10
2153.233877365066
 20
543.6947101512854
 30
0.0
 11
2153.233877365066
 21
403.2947101512863
 31
0.0
  0
LINE
  5
1E43
330
1F
100
AcDbEntity
  8
実形
 62
     0
100
AcDbLine
 10
2090.833877365066
 20
559.2947101512845
 30
0.0
 11
2090.833877365066
 21
356.5086976533553
 31
0.0
  0
LINE
  5
1E44
330
1F
100
AcDbEntity
  8
実形
 62
     0
100
AcDbLine
 10
2106.433877365066
 20
543.6947101512854
 30
0.0
 11
2106.433877365066
 21
356.5086976533554
 31
0.0
  0
ARC
  5
1E45
330
1F
100
AcDbEntity
  8
実形
 62
     0
100
AcDbCircle
 10
2348.233877365066
 20
543.6947101512854
 30
0.0
 40
39.0
100
AcDbArc
 50
180.0
 51
0.0
  0
TEXT
  5
1E46
330
1F
100
AcDbEntity
  8
実形
 62
     0
100
AcDbText
 10
1844.08269694555
 20
410.9876312842443
 30
0.0
 40
35.0
  1
シンク厚　
 11
1844.08269694555
 21
406.3209646175776
 31
0.0
100
AcDbText
 73
     1
  0
DIMENSION
  5
1E47
330
1F
100
AcDbEntity
  8
実形
 62
     0
100
AcDbDimension
  2
*D38
 10
2075.233877365067
 20
467.1003685502147
 30
0.0
 11
2054.88545157578
 21
491.5915116428197
 31
0.0
 70
   160
  1
1
 71
     5
 42
15.59999999999991
  3
ISO-25
100
AcDbAlignedDimension
 13
2090.833877365067
 23
559.2947101512846
 33
0.0
 14
2075.233877365067
 24
533.5029867284119
 34
0.0
 50
180.0
100
AcDbRotatedDimension
1001
ACAD
1000
DSTYLE
1002
{
1070
   282
1070
     1
1070
   281
1070
     1
1070
    41
1040
5.0
1070
    42
1040
6.0
1070
   140
1040
25.0
1070
   147
1040
1.199999999999999
1070
   279
1070
     2
1070
   289
1070
     2
1070
   371
1070
    13
1070
   372
1070
    13
1002
}
  0
TEXT
  5
1E48
330
1F
100
AcDbEntity
  8
実形
  6
HIDDEN2
 62
     0
100
AcDbText
 10
2095.797198899368
 20
462.9308652071995
 30
0.0
 40
10.14
  1
● 
 71
     2
100
AcDbText
  0
TEXT
  5
1E49
330
1F
100
AcDbEntity
  8
実形
  6
HIDDEN2
 62
     0
100
AcDbText
 10
2079.566838424828
 20
462.4970760796131
 30
0.0
 40
10.14
  1
● 
 71
     2
100
AcDbText
  0
LINE
  5
1E4A
330
1F
100
AcDbEntity
  8
実形
 62
     0
100
AcDbLine
 10
2091.245173341136
 20
467.4229398449074
 30
0.0
 11
2075.560266305432
 21
467.4229398449074
 31
0.0
  0
ARC
  5
1E4C
330
1F
100
AcDbEntity
  8
実形
 62
     0
100
AcDbCircle
 10
2347.105494977745
 20
403.2947101512855
 30
0.0
 40
39.0
100
AcDbArc
 50
0.0
 51
180.0
  0
LINE
  5
1E4D
330
1F
100
AcDbEntity
  8
実形
 62
     0
100
AcDbLine
 10
2278.033877365066
 20
457.3521962228079
 30
0.0
 11
2278.033877365066
 21
439.4500692892673
 31
0.0
  0
LINE
  5
1E4E
330
1F
100
AcDbEntity
  8
実形
 62
     0
100
AcDbLine
 10
2356.033877365065
 20
457.3521962228079
 30
0.0
 11
2356.033877365065
 21
439.4977027967055
 31
0.0
  0
TEXT
  5
1E4F
330
1F
100
AcDbEntity
  8
実形
 62
     0
100
AcDbText
 10
1859.409434822997
 20
359.2737114633438
 30
0.0
 40
28.0
  1
0.7mm
 11
1859.409434822997
 21
355.5403781300104
 31
0.0
100
AcDbText
 73
     1
  0
TEXT
  5
1E50
330
1F
100
AcDbEntity
  8
実形
 62
     0
100
AcDbText
 10
1969.171950854548
 20
724.7069313792997
 30
0.0
 40
28.0
  1
5R
 11
1969.171950854548
 21
720.9735980459663
 31
0.0
100
AcDbText
 73
     1
  0
DIMENSION
  5
1E51
330
1F
100
AcDbEntity
  8
実形
 62
     0
100
AcDbDimension
  2
*D39
 10
2356.033877365065
 20
617.1548568615962
 30
0.0
 11
2223.433877365065
 21
635.9048568615962
 31
0.0
 70
    32
  1
17
 71
     5
 42
265.1999999999998
  3
ISO-25
100
AcDbAlignedDimension
 13
2090.833877365066
 23
526.9073852958004
 33
0.0
 14
2356.033877365065
 24
526.9073852958005
 34
0.0
100
AcDbRotatedDimension
1001
ACAD
1000
DSTYLE
1002
{
1070
   279
1070
     2
1070
   371
1070
    18
1070
   372
1070
    18
1002
}
  0
LEADER
  5
1E52
330
1F
100
AcDbEntity
  8
実形
 62
     0
100
AcDbLeader
  3
ISO-25
 76
     2
 10
2080.730586898456
 20
658.778126851076
 30
0.0
 10
2006.358162869183
 20
712.4806979619262
 30
0.0
1001
ACAD
1000
DSTYLE
1002
{
1070
   147
1040
6.25
1070
    77
1070
     0
1070
   279
1070
     2
1070
   371
1070
    18
1070
   372
1070
    18
1002
}
  0
DIMENSION
  5
1E54
330
1F
100
AcDbEntity
  8
実形
 62
     0
100
AcDbDimension
  2
*D40
 10
2228.767481940162
 20
543.6947101512855
 30
0.0
 11
2197.294896545438
 21
515.0052225685112
 31
0.0
 70
   160
  1
2.5
 71
     5
 42
38.99999999999995
  3
ISO-25
100
AcDbAlignedDimension
 13
2357.614562018891
 23
504.6947101512855
 33
0.0
 14
2281.267191428404
 24
543.6947101512855
 34
0.0
 50
90.0
100
AcDbRotatedDimension
1001
ACAD
1000
DSTYLE
1002
{
1070
   140
1040
23.0
1070
   279
1070
     2
1070
   371
1070
    18
1070
   372
1070
    18
1002
}
  0
DIMENSION
  5
1E55
330
1F
100
AcDbEntity
  8
実形
 62
     0
100
AcDbDimension
  2
*D41
 10
2356.033877365066
 20
452.0882219802177
 30
0.0
 11
2317.033877365066
 21
470.8382219802177
 31
0.0
 70
    32
  1
5
 71
     5
 42
78.0
  3
ISO-25
100
AcDbAlignedDimension
 13
2278.033877365066
 23
513.0145559292668
 33
0.0
 14
2356.033877365066
 24
513.0145559292668
 34
0.0
100
AcDbRotatedDimension
1001
ACAD
1000
DSTYLE
1002
{
1070
   279
1070
     2
1070
   371
1070
    18
1070
   372
1070
    18
1002
}
  0
LINE
  5
1E56
330
1F
100
AcDbEntity
  8
実形
 62
     0
100
AcDbLine
 10
2278.033877365066
 20
452.0882219802177
 30
0.0
 11
2278.033877365066
 21
494.7079487038194
 31
0.0
  0
LINE
  5
1E57
330
1F
100
AcDbEntity
  8
実形
 62
     0
100
AcDbLine
 10
2356.033877365065
 20
452.0882219802177
 30
0.0
 11
2356.033877365065
 21
493.5103420910408
 31
0.0
  0
DIMENSION
  5
1E58
330
1F
100
AcDbEntity
  8
実形
 62
     0
100
AcDbDimension
  2
*D42
 10
2230.705930897853
 20
403.2947101512855
 30
0.0
 11
2198.086469593912
 21
431.6583152348946
 31
0.0
 70
   160
  1
2.5
 71
     5
 42
38.99999999999995
  3
ISO-25
100
AcDbAlignedDimension
 13
2331.326187506493
 23
442.2947101512853
 33
0.0
 14
2374.752828579123
 24
403.2947101512855
 34
0.0
 50
90.0
100
AcDbRotatedDimension
1001
ACAD
1000
DSTYLE
1002
{
1070
   140
1040
23.0
1070
   279
1070
     2
1070
   371
1070
    18
1070
   372
1070
    18
1002
}
  0
DIMENSION
  5
1E59
330
1F
100
AcDbEntity
  8
実形
 62
     0
100
AcDbDimension
  2
*D43
 10
2387.233877365066
 20
733.9587029177619
 30
0.0
 11
2231.233877365066
 21
752.7087029177619
 31
0.0
 70
    32
  1
20
 71
     5
 42
311.9999999999996
  3
ISO-25
100
AcDbAlignedDimension
 13
2075.233877365066
 23
631.1956311673393
 33
0.0
 14
2387.233877365066
 24
631.1956311673393
 34
0.0
100
AcDbRotatedDimension
1001
ACAD
1000
DSTYLE
1002
{
1070
   279
1070
     2
1070
   371
1070
    18
1070
   372
1070
    18
1002
}
  0
DIMENSION
  5
1E5A
330
1F
100
AcDbEntity
  8
実形
 62
     0
100
AcDbDimension
  2
*D44
 10
2621.233877365066
 20
733.9587029177619
 30
0.0
 11
2504.233877365066
 21
752.7087029177619
 31
0.0
 70
    32
  1
15
 71
     5
 42
234.0
  3
ISO-25
100
AcDbAlignedDimension
 13
2387.233877365066
 23
630.0056853622646
 33
0.0
 14
2621.233877365066
 24
631.1956311673382
 34
0.0
100
AcDbRotatedDimension
1001
ACAD
1000
DSTYLE
1002
{
1070
   279
1070
     2
1070
   371
1070
    18
1070
   372
1070
    18
1002
}
  0
DIMENSION
  5
1E5B
330
1F
100
AcDbEntity
  8
実形
 62
     0
100
AcDbDimension
  2
*D45
 10
2621.233877365066
 20
777.4666415156134
 30
0.0
 11
2348.233877365066
 21
796.2166415156134
 31
0.0
 70
    32
  1
35
 71
     5
 42
545.9999999999995
  3
ISO-25
100
AcDbAlignedDimension
 13
2075.233877365066
 23
631.1956311673382
 33
0.0
 14
2621.233877365066
 24
631.1956311673382
 34
0.0
100
AcDbRotatedDimension
1001
ACAD
1000
DSTYLE
1002
{
1070
   279
1070
     2
1070
   371
1070
    18
1070
   372
1070
    18
1002
}
  0
TEXT
  5
1E5C
330
1F
100
AcDbEntity
  8
実形
 62
     0
100
AcDbText
 10
2661.234589240095
 20
713.6502811430476
 30
0.0
 40
28.0
  1
5R
 11
2661.234589240095
 21
709.9169478097143
 31
0.0
100
AcDbText
 73
     1
  0
DIMENSION
  5
1E5D
330
1F
100
AcDbEntity
  8
実形
 62
     0
100
AcDbDimension
  2
*D46
 10
2153.233877365066
 20
297.5085770831867
 30
0.0
 11
2053.203290699754
 21
332.9138518235977
 31
0.0
 70
   160
  1
3.3
 71
     5
 42
46.80000000000018
  3
ISO-25
100
AcDbAlignedDimension
 13
2106.433877365066
 23
411.5474686202857
 33
0.0
 14
2153.233877365066
 24
411.5474686202857
 34
0.0
100
AcDbRotatedDimension
1001
ACAD
1000
DSTYLE
1002
{
1070
   140
1040
25.0
1070
   279
1070
     2
1070
   371
1070
    18
1070
   372
1070
    18
1002
}
  0
DIMENSION
  5
1E5E
330
1F
100
AcDbEntity
  8
実形
 62
     0
100
AcDbDimension
  2
*D47
 10
2309.233877365066
 20
297.5085770831867
 30
0.0
 11
2231.233877365066
 21
316.2585770831867
 31
0.0
 70
    32
  1
10
 71
     5
 42
156.0
  3
ISO-25
100
AcDbAlignedDimension
 13
2153.233877365066
 23
411.5474686202857
 33
0.0
 14
2309.233877365066
 24
411.5474686202857
 34
0.0
100
AcDbRotatedDimension
1001
ACAD
1000
DSTYLE
1002
{
1070
   279
1070
     2
1070
   371
1070
    18
1070
   372
1070
    18
1002
}
  0
DIMENSION
  5
1E5F
330
1F
100
AcDbEntity
  8
実形
 62
     0
100
AcDbDimension
  2
*D48
 10
2387.233877365066
 20
297.5085770831867
 30
0.0
 11
2348.233877365066
 21
316.2585770831867
 31
0.0
 70
    32
  1
5
 71
     5
 42
78.0
  3
ISO-25
100
AcDbAlignedDimension
 13
2309.233877365066
 23
411.5474686202857
 33
0.0
 14
2387.233877365066
 24
411.5474686202857
 34
0.0
100
AcDbRotatedDimension
1001
ACAD
1000
DSTYLE
1002
{
1070
   279
1070
     2
1070
   371
1070
    18
1070
   372
1070
    18
1002
}
  0
DIMENSION
  5
1E60
330
1F
100
AcDbEntity
  8
実形
 62
     0
100
AcDbDimension
  2
*D49
 10
2621.233877365066
 20
297.5085770831867
 30
0.0
 11
2504.233877365066
 21
316.2585770831867
 31
0.0
 70
    32
  1
15
 71
     5
 42
234.0
  3
ISO-25
100
AcDbAlignedDimension
 13
2387.233877365066
 23
411.5474686202858
 33
0.0
 14
2621.233877365066
 24
411.5474686202857
 34
0.0
100
AcDbRotatedDimension
1001
ACAD
1000
DSTYLE
1002
{
1070
   279
1070
     2
1070
   371
1070
    18
1070
   372
1070
    18
1002
}
  0
DIMENSION
  5
1E61
330
1F
100
AcDbEntity
  8
実形
 62
     0
100
AcDbDimension
  2
*D50
 10
2155.023276234156
 20
247.5388396829094
 30
0.0
 11
2116.023276234157
 21
266.2888396829094
 31
0.0
 70
    32
  1
5
 71
     5
 42
77.99999999999954
  3
ISO-25
100
AcDbAlignedDimension
 13
2077.023276234157
 23
362.8281686160613
 33
0.0
 14
2155.023276234156
 24
362.8281686160613
 34
0.0
100
AcDbRotatedDimension
1001
ACAD
1000
DSTYLE
1002
{
1070
   279
1070
     2
1070
   371
1070
    18
1070
   372
1070
    18
1002
}
  0
DIMENSION
  5
1E62
330
1F
100
AcDbEntity
  8
実形
 62
     0
100
AcDbDimension
  2
*D51
 10
2623.023276234156
 20
247.5388396829094
 30
0.0
 11
2389.023276234156
 21
266.2888396829094
 31
0.0
 70
    32
  1
30
 71
     5
 42
468.0
  3
ISO-25
100
AcDbAlignedDimension
 13
2155.023276234156
 23
362.8281686160613
 33
0.0
 14
2623.023276234156
 24
362.8281686160613
 34
0.0
100
AcDbRotatedDimension
1001
ACAD
1000
DSTYLE
1002
{
1070
   279
1070
     2
1070
   371
1070
    18
1070
   372
1070
    18
1002
}
  0
LINE
  5
1E63
330
1F
100
AcDbEntity
  8
実形
 62
     0
100
AcDbLine
 10
2089.14414202772
 20
414.8786635805636
 30
0.0
 11
2005.196656620899
 21
408.9889439325022
 31
0.0
  0
LINE
  5
1E64
330
1F
100
AcDbEntity
  8
実形
 62
     0
100
AcDbLine
 10
2088.820600113063
 20
414.7274049971472
 30
0.0
 11
2056.485883910302
 21
400.9756935648645
 31
0.0
  0
LINE
  5
1E65
330
1F
100
AcDbEntity
  8
実形
 62
     0
100
AcDbLine
 10
2088.472360117057
 20
415.6242072570588
 30
0.0
 11
2056.198770657017
 21
421.9662971197472
 31
0.0
  0
TEXT
  5
1E66
330
1F
100
AcDbEntity
  8
実形
 62
     0
370
    -2
100
AcDbText
 10
1943.905583280765
 20
836.850626796042
 30
0.0
 40
38.0
  1
A-A　断面詳細図
100
AcDbText
  0
TEXT
  5
1E67
330
1F
100
AcDbEntity
  8
実形
 62
     0
370
    -2
100
AcDbText
 10
2039.041635208127
 20
838.8009194430942
 30
0.0
 40
35.0
  1
´
100
AcDbText
  0
DIMENSION
  5
1E68
330
1F
100
AcDbEntity
  8
実形
 62
     0
100
AcDbDimension
  2
*D52
 10
1970.032114275532
 20
585.2947101512854
 30
0.0
 11
1951.282114275532
 21
634.6947101512859
 31
0.0
 70
    32
  1
6.5
 71
     5
 42
98.80000000000007
  3
ISO-25
100
AcDbAlignedDimension
 13
2097.328912889143
 23
684.0947101512855
 33
0.0
 14
2097.328912889143
 24
585.2947101512854
 34
0.0
 50
90.0
100
AcDbRotatedDimension
1001
ACAD
1000
DSTYLE
1002
{
1070
   279
1070
     2
1070
   371
1070
    18
1070
   372
1070
    18
1002
}
  0
DIMENSION
  5
1E69
330
1F
100
AcDbEntity
  8
実形
 62
     0
100
AcDbDimension
  2
*D53
 10
1916.035186721017
 20
559.2947101512846
 30
0.0
 11
1897.285186721017
 21
621.6947101512854
 31
0.0
 70
    32
  1
8.3
 71
     5
 42
124.8000000000008
  3
ISO-25
100
AcDbAlignedDimension
 13
2097.328912889143
 23
684.0947101512855
 33
0.0
 14
2097.328912889143
 24
559.2947101512846
 34
0.0
 50
90.0
100
AcDbRotatedDimension
1001
ACAD
1000
DSTYLE
1002
{
1070
   279
1070
     2
1070
   371
1070
    18
1070
   372
1070
    18
1002
}
  0
DIMENSION
  5
1E6A
330
1F
100
AcDbEntity
  8
実形
 62
     0
100
AcDbDimension
  2
*D54
 10
1864.389549972262
 20
684.0947101512855
 30
0.0
 11
1845.639549972261
 21
613.8947101512858
 31
0.0
 70
    32
  1
9
 71
     5
 42
140.4000000000001
  3
ISO-25
100
AcDbAlignedDimension
 13
2097.328912889143
 23
543.6947101512854
 33
0.0
 14
2097.328912889143
 24
684.0947101512855
 34
0.0
 50
90.0
100
AcDbRotatedDimension
1001
ACAD
1000
DSTYLE
1002
{
1070
   279
1070
     2
1070
   371
1070
    18
1070
   372
1070
    18
1002
}
  0
LINE
  5
1E6B
330
1F
100
AcDbEntity
  8
実形
 62
     0
100
AcDbLine
 10
1970.032114275532
 20
559.4808025581515
 30
0.0
 11
1970.032114275532
 21
543.6947101512854
 31
0.0
  0
TEXT
  5
1E6C
330
1F
100
AcDbEntity
  8
実形
  6
HIDDEN2
 62
     0
100
AcDbText
 10
1974.759963930668
 20
554.1584046865482
 30
0.0
 40
10.14
  1
● 
 71
     2
100
AcDbText
  0
TEXT
  5
1E6D
330
1F
100
AcDbEntity
  8
実形
  6
HIDDEN2
 62
     0
100
AcDbText
 10
1974.759963930668
 20
539.0050600708654
 30
0.0
 40
10.14
  1
● 
 71
     2
100
AcDbText
  0
TEXT
  5
1E6E
330
1F
100
AcDbEntity
  8
実形
 62
     0
100
AcDbText
 10
1965.904597556985
 20
483.7785695213888
 30
0.0
 40
29.25
  1
0.7
 50
90.0
 11
1969.804597556985
 21
483.7785695213888
 31
0.0
100
AcDbText
 73
     1
  0
ARC
  5
1E6F
330
1F
100
AcDbEntity
  8
実形
 62
     0
100
AcDbCircle
 10
2095.749391898479
 20
294.0352561825519
 30
0.0
 40
37.21807911390647
100
AcDbArc
 50
10.88380498131339
 51
99.73672806232286
  0
ARC
  5
1E70
330
1F
100
AcDbEntity
  8
実形
 62
     0
100
AcDbCircle
 10
2101.132326064329
 20
286.3222816243725
 30
0.0
 40
34.71092069179851
100
AcDbArc
 50
27.82370983300087
 51
64.29661093933541
  0
ARC
  5
1E71
330
1F
100
AcDbEntity
  8
実形
 62
     0
100
AcDbCircle
 10
2095.736654257051
 20
304.1012932169378
 30
0.0
 40
36.96117099445193
100
AcDbArc
 50
355.5051092068189
 51
31.89192001425599
  0
DIMENSION
  5
1E72
330
1F
100
AcDbEntity
  8
実形
 62
     0
100
AcDbDimension
  2
*D55
 10
2673.699912636183
 20
403.2947101512855
 30
0.0
 11
2654.949912636183
 21
473.4947101512859
 31
0.0
 70
    32
  1
9
 71
     5
 42
140.4
  3
ISO-25
100
AcDbAlignedDimension
 13
2582.25404811461
 23
543.6947101512855
 33
0.0
 14
2582.25404811461
 24
403.2947101512855
 34
0.0
 50
90.0
100
AcDbRotatedDimension
1001
ACAD
1000
DSTYLE
1002
{
1070
   279
1070
     2
1070
   371
1070
    18
1070
   372
1070
    18
1002
}
  0
DIMENSION
  5
1E73
330
1F
100
AcDbEntity
  8
実形
 62
     0
100
AcDbDimension
  2
*D56
 10
2673.699912636183
 20
543.6947101512855
 30
0.0
 11
2654.949912636183
 21
613.8947101512859
 31
0.0
 70
    32
  1
9
 71
     5
 42
140.3999999999999
  3
ISO-25
100
AcDbAlignedDimension
 13
2582.25404811461
 23
684.0947101512855
 33
0.0
 14
2582.25404811461
 24
543.6947101512855
 34
0.0
 50
90.0
100
AcDbRotatedDimension
1001
ACAD
1000
DSTYLE
1002
{
1070
   279
1070
     2
1070
   371
1070
    18
1070
   372
1070
    18
1002
}
  0
DIMENSION
  5
1E74
330
1F
100
AcDbEntity
  8
実形
 62
     0
100
AcDbDimension
  2
*D57
 10
2715.480008308167
 20
403.2947101512855
 30
0.0
 11
2696.730008308167
 21
543.694710151286
 31
0.0
 70
    32
  1
18
 71
     5
 42
280.8
  3
ISO-25
100
AcDbAlignedDimension
 13
2582.25404811461
 23
684.0947101512855
 33
0.0
 14
2582.25404811461
 24
403.2947101512855
 34
0.0
 50
90.0
100
AcDbRotatedDimension
1001
ACAD
1000
DSTYLE
1002
{
1070
   279
1070
     2
1070
   371
1070
    18
1070
   372
1070
    18
1002
}
  0
LEADER
  5
1E75
330
1F
100
AcDbEntity
  8
実形
 62
     0
100
AcDbLeader
  3
ISO-25
 76
     2
 10
2598.968887029636
 20
666.6445109732322
 30
0.0
 10
2665.822583513264
 20
707.9203906258708
 30
0.0
1001
ACAD
1000
DSTYLE
1002
{
1070
   147
1040
6.25
1070
    77
1070
     0
1070
   279
1070
     2
1070
   371
1070
    18
1070
   372
1070
    18
1002
}
  0
LINE
  5
212E
330
1F
100
AcDbEntity
  8
実形
 62
     0
100
AcDbLine
 10
2356.033877365065
 20
559.2947101512846
 30
0.0
 11
2356.033877365065
 21
543.6947101512854
 31
0.0
  0
LINE
  5
22A9
330
1F
100
AcDbEntity
  8
実形
100
AcDbLine
 10
445.944044367975
 20
734.9924089657335
 30
0.0
 11
445.9440443679751
 21
721.9924089657334
 31
0.0
  0
LINE
  5
22AA
330
1F
100
AcDbEntity
  8
実形
100
AcDbLine
 10
1313.944044367975
 20
734.9924089657337
 30
0.0
 11
1313.944044367975
 21
721.9924089657333
 31
0.0
  0
LINE
  5
22B5
330
1F
100
AcDbEntity
  8
センター
 48
0.5
370
    15
100
AcDbLine
 10
1254.993621320393
 20
1354.506949605438
 30
0.0
 11
1342.398394976065
 21
1354.506949605438
 31
0.0
  0
TEXT
  5
22B6
330
1F
100
AcDbEntity
  8
実形
370
    -2
100
AcDbText
 10
1228.58587296429
 20
1344.13662978935
 30
0.0
 40
25.0
  1
A
100
AcDbText
  0
TEXT
  5
22B7
330
1F
100
AcDbEntity
  8
実形
370
    -2
100
AcDbText
 10
1349.445792600993
 20
1344.13662978935
 30
0.0
 40
25.0
  1
A
100
AcDbText
  0
TEXT
  5
22B8
330
1F
100
AcDbEntity
  8
実形
370
    -2
100
AcDbText
 10
1359.050567360758
 20
1342.536168427178
 30
0.0
 40
25.0
  1
´
100
AcDbText
  0
LINE
  5
22B9
330
1F
100
AcDbEntity
  8
0
100
AcDbLine
 10
450.944044367975
 20
739.9924089657335
 30
0.0
 11
1308.944044367975
 21
739.9924089657337
 31
0.0
  0
LINE
  5
22BA
330
1F
100
AcDbEntity
  8
0
100
AcDbLine
 10
445.9440443679751
 20
721.9924089657336
 30
0.0
 11
1313.944044367975
 21
721.9924089657334
 31
0.0
  0
DIMENSION
  5
230F
330
1F
100
AcDbEntity
  8
実形
100
AcDbDimension
  2
*D58
 10
330.2222163096797
 20
721.9924089657336
 30
0.0
 11
250.0201356423261
 21
791.5388883107925
 31
0.0
 70
   160
 71
     5
 42
18.0
  3
ISO-25
100
AcDbAlignedDimension
 13
473.2219944183946
 23
739.9924089657336
 33
0.0
 14
474.2007720595704
 24
721.9924089657336
 34
0.0
 50
90.0
100
AcDbRotatedDimension
1001
ACAD
1000
DSTYLE
1002
{
1070
   140
1040
25.0
1070
   279
1070
     2
1070
   371
1070
    18
1070
   372
1070
    18
1002
}
  0
DIMENSION
  5
2310
330
1F
100
AcDbEntity
  8
実形
100
AcDbDimension
  2
*D59
 10
330.2222163096797
 20
716.7924089657336
 30
0.0
 11
252.7949860637057
 21
693.7321265097916
 31
0.0
 70
   160
  1
5.3
 71
     5
 42
5.199999999999931
  3
ISO-25
100
AcDbAlignedDimension
 13
474.2007720595704
 23
721.9924089657336
 33
0.0
 14
474.2007720595704
 24
716.7924089657336
 34
0.0
 50
90.0
100
AcDbRotatedDimension
1001
ACAD
1000
DSTYLE
1002
{
1070
   140
1040
25.0
1070
   279
1070
     2
1070
   371
1070
    18
1070
   372
1070
    18
1002
}
  0
DIMENSION
  5
2311
330
1F
100
AcDbEntity
  8
実形
100
AcDbDimension
  2
*D60
 10
330.2222163096796
 20
541.7924089657335
 30
0.0
 11
304.3483899651495
 21
612.5551608499854
 31
0.0
 70
   160
 71
     5
 42
175.0000000000001
  3
ISO-25
100
AcDbAlignedDimension
 13
474.2007720595704
 23
716.7924089657336
 33
0.0
 14
419.1342642848233
 24
541.7924089657335
 34
0.0
 50
90.0
100
AcDbRotatedDimension
1001
ACAD
1000
DSTYLE
1002
{
1070
   279
1070
     2
1070
   371
1070
    18
1070
   372
1070
    18
1002
}
  0
DIMENSION
  5
2312
330
1F
100
AcDbEntity
  8
実形
100
AcDbDimension
  2
*D61
 10
219.6003178590384
 20
541.7924089657336
 30
0.0
 11
200.8503178590383
 21
640.8924089657337
 31
0.0
 70
    32
  1
198.3
 71
     5
 42
198.2
  3
ISO-25
100
AcDbAlignedDimension
 13
473.2219944183946
 23
739.9924089657336
 33
0.0
 14
419.1342642848233
 24
541.7924089657335
 34
0.0
 50
90.0
100
AcDbRotatedDimension
1001
ACAD
1000
DSTYLE
1002
{
1070
   279
1070
     2
1070
   371
1070
    18
1070
   372
1070
    18
1002
}
  0
DIMENSION
  5
2313
330
1F
100
AcDbEntity
  8
実形
100
AcDbDimension
  2
*D62
 10
330.2222163096796
 20
531.7924089657335
 30
0.0
 11
295.2222163096796
 21
525.4546253014969
 31
0.0
 70
   160
  1
7
 71
     5
 42
10.0
  3
ISO-25
100
AcDbAlignedDimension
 13
475.294169868803
 23
541.7924089657335
 33
0.0
 14
475.294169868803
 24
531.7924089657335
 34
0.0
 50
90.0
100
AcDbRotatedDimension
1001
ACAD
1000
DSTYLE
1002
{
1070
   279
1070
     2
1070
   371
1070
    18
1070
   372
1070
    18
1002
}
  0
LINE
  5
2314
330
1F
100
AcDbEntity
  8
実形
100
AcDbLine
 10
328.0192312689999
 20
719.4104987227937
 30
0.0
 11
281.0453638628699
 21
697.4487406146681
 31
0.0
  0
LINE
  5
2315
330
1F
100
AcDbEntity
  8
実形
100
AcDbLine
 10
325.6536460720365
 20
718.7347612060448
 30
0.0
 11
307.4048022805094
 21
714.0045263853562
 31
0.0
  0
LINE
  5
2316
330
1F
100
AcDbEntity
  8
実形
100
AcDbLine
 10
325.9916002608246
 20
718.0590092486063
 30
0.0
 11
312.4739268632205
 21
707.9228165311678
 31
0.0
  0
ARC
  5
2317
330
1F
100
AcDbEntity
  8
実形
100
AcDbCircle
 10
373.0649119305681
 20
851.9957469155205
 30
0.0
 40
128.7156019851906
100
AcDbArc
 50
213.3909885014397
 51
249.3522921630743
  0
LINE
  5
2318
330
1F
100
AcDbEntity
  8
実形
100
AcDbLine
 10
327.7150219840353
 20
731.703199946819
 30
0.0
 11
316.809668787257
 21
739.3799003896065
 31
0.0
  0
LINE
  5
2319
330
1F
100
AcDbEntity
  8
実形
100
AcDbLine
 10
327.5126278568298
 20
731.5622498282436
 30
0.0
 11
313.6279808853909
 21
735.1446525649308
 31
0.0
  0
LEADER
  5
231A
330
1F
100
AcDbEntity
  8
実形
100
AcDbLeader
  3
ISO-25
 40
25.0
 41
16.66666666666666
 76
     2
 10
440.484080603492
 20
745.6619527978146
 30
0.0
 10
399.6109885980471
 20
789.3696010795038
 30
0.0
213
0.0
223
12.5
233
0.0
1001
ACAD
1000
DSTYLE
1002
{
1070
   147
1040
6.25
1070
    77
1070
     0
1070
    41
1040
20.0
1070
   342
1005
DA
1002
}
  0
TEXT
  5
231B
330
1F
100
AcDbEntity
  8
実形
100
AcDbText
 10
374.7360505597904
 20
801.7964481052368
 30
0.0
 40
25.0
  1
5R
 72
     2
 11
416.4027172264571
 21
826.7964481052368
 31
0.0
100
AcDbText
 73
     3
  0
LEADER
  5
2395
330
1F
100
AcDbEntity
  8
実形
100
AcDbLeader
  3
ISO-25
 40
25.0
 41
16.66666666666666
 76
     2
 10
1326.511159507234
 20
745.4005132165448
 30
0.0
 10
1363.898634830781
 20
779.1399246770834
 30
0.0
213
0.0
223
12.5
233
0.0
1001
ACAD
1000
DSTYLE
1002
{
1070
   147
1040
6.25
1070
    77
1070
     0
1070
    41
1040
20.0
1070
   342
1005
DA
1002
}
  0
TEXT
  5
2396
330
1F
100
AcDbEntity
  8
実形
100
AcDbText
 10
1354.265576922951
 20
785.9394349686035
 30
0.0
 40
25.0
  1
5R
 72
     2
 11
1395.932243589618
 21
810.9394349686036
 31
0.0
100
AcDbText
 73
     3
  0
LINE
  5
23AD
330
1F
100
AcDbEntity
  8
補助
100
AcDbLine
 10
2784.0
 20
1959.0
 30
0.0
 11
2019.387286519283
 21
1959.000000000001
 31
0.0
  0
LINE
  5
23AE
330
1F
100
AcDbEntity
  8
補助
100
AcDbLine
 10
2784.0
 20
1894.0
 30
0.0
 11
2019.387286519283
 21
1894.0
 31
0.0
  0
LINE
  5
23AF
330
1F
100
AcDbEntity
  8
補助
100
AcDbLine
 10
2784.0
 20
1829.0
 30
0.0
 11
2019.387286519283
 21
1829.0
 31
0.0
  0
LINE
  5
23B0
330
1F
100
AcDbEntity
  8
補助
100
AcDbLine
 10
2202.547653420927
 20
1829.0
 30
0.0
 11
2202.547653420927
 21
2024.0
 31
0.0
  0
LINE
  5
23B1
330
1F
100
AcDbEntity
  8
補助
100
AcDbLine
 10
2019.387286519283
 20
1829.0
 30
0.0
 11
2019.387286519283
 21
2024.0
 31
0.0
  0
TEXT
  5
23B2
330
1F
100
AcDbEntity
  8
補助
100
AcDbText
 10
2050.295698850121
 20
1976.328571428572
 30
0.0
 40
30.0
  1
部品名
  7
明朝
 72
     4
 11
2116.124270278692
 21
1991.5
 31
0.0
100
AcDbText
  0
TEXT
  5
23B3
330
1F
100
AcDbEntity
  8
補助
100
AcDbText
 10
2627.614285714286
 20
1976.071428571429
 30
0.0
 40
30.0
  1
厚さ
  7
明朝
 72
     4
 11
2671.5
 21
1991.5
 31
0.0
100
AcDbText
  0
LINE
  5
23B4
330
1F
100
AcDbEntity
  8
補助
100
AcDbLine
 10
2559.0
 20
1829.0
 30
0.0
 11
2559.0
 21
2024.0
 31
0.0
  0
TEXT
  5
23B5
330
1F
100
AcDbEntity
  8
補助
100
AcDbText
 10
2338.490869919937
 20
1975.947979478155
 30
0.0
 40
30.0
  1
材質
  7
明朝
 72
     4
 11
2382.376584205651
 21
1991.119408049583
 31
0.0
100
AcDbText
  0
TEXT
  5
23B6
330
1F
100
AcDbEntity
  8
実形
100
AcDbText
 10
2048.227810657788
 20
1910.557142857143
 30
0.0
 40
30.0
  1
ボウル
  7
明朝
 72
     4
 11
2114.056382086359
 21
1926.5
 31
0.0
100
AcDbText
  0
TEXT
  5
23B7
330
1F
100
AcDbEntity
  8
実形
100
AcDbText
 10
2594.700000000001
 20
1911.842857142857
 30
0.0
 40
30.0
  1
0.7ｍｍ
  7
明朝
 72
     4
 11
2671.500000000001
 21
1926.5
 31
0.0
100
AcDbText
  0
TEXT
  5
23B8
330
1F
100
AcDbEntity
  8
実形
100
AcDbText
 10
2271.988297679294
 20
1910.728571428572
 30
0.0
 40
30.0
  1
SUS304（BA)
  7
明朝
 72
     4
 11
2392.674011965008
 21
1926.5
 31
0.0
100
AcDbText
  0
TEXT
  5
23B9
330
1F
100
AcDbEntity
  8
実形
100
AcDbText
 10
2070.170667800645
 20
1846.242857142857
 30
0.0
 40
30.0
  1
天板
  7
明朝
 72
     4
 11
2114.056382086359
 21
1861.5
 31
0.0
100
AcDbText
  0
TEXT
  5
23BA
330
1F
100
AcDbEntity
  8
実形
100
AcDbText
 10
2219.734774251222
 20
1848.285714285714
 30
0.0
 40
25.0
  1
アクリル人工大理石
  7
明朝
 72
     4
 11
2384.306202822651
 21
1861.5
 31
0.0
100
AcDbText
  0
TEXT
  5
23BB
330
1F
100
AcDbEntity
  8
実形
100
AcDbText
 10
2605.67142857143
 20
1846.842857142857
 30
0.0
 40
30.0
  1
18ｍｍ
  7
明朝
 72
     4
 11
2671.500000000001
 21
1861.5
 31
0.0
100
AcDbText
  0
ARC
  5
23BD
330
1F
100
AcDbEntity
  8
実形
100
AcDbCircle
 10
450.944044367975
 20
734.9924089657335
 30
0.0
 40
5.0
100
AcDbArc
 50
90.00000000000003
 51
180.0000000000001
  0
ARC
  5
23BE
330
1F
100
AcDbEntity
  8
実形
100
AcDbCircle
 10
1308.944044367975
 20
734.9924089657337
 30
0.0
 40
5.0
100
AcDbArc
 50
0.0
 51
90.0
  0
LINE
  5
2430
330
1F
100
AcDbEntity
  8
0
100
AcDbLine
 10
1634.101190328927
 20
1566.111913428962
 30
0.0
 11
1777.938374274152
 21
1566.111913428962
 31
0.0
  0
LINE
  5
2431
330
1F
100
AcDbEntity
  8
0
100
AcDbLine
 10
1642.401190328926
 20
1491.111913428962
 30
0.0
 11
1784.401190328927
 21
1491.111913428962
 31
0.0
  0
LINE
  5
2432
330
1F
100
AcDbEntity
  8
0
100
AcDbLine
 10
1634.101190328927
 20
1046.111913428961
 30
0.0
 11
1636.401190328926
 21
1046.111913428961
 31
0.0
  0
LINE
  5
2433
330
1F
100
AcDbEntity
  8
0
100
AcDbLine
 10
1642.401190328926
 20
1061.111913428961
 30
0.0
 11
1775.603102779499
 21
1061.111913428962
 31
0.0
  0
LINE
  5
2434
330
1F
100
AcDbEntity
  8
0
100
AcDbLine
 10
1639.401190328926
 20
1058.111913428961
 30
0.0
 11
1639.401190328926
 21
1049.111913428961
 31
0.0
  0
ARC
  5
2435
330
1F
100
AcDbEntity
  8
0
100
AcDbCircle
 10
1636.401190328926
 20
1049.111913428961
 30
0.0
 40
3.0
100
AcDbArc
 50
270.0
 51
0.0
  0
ARC
  5
2436
330
1F
100
AcDbEntity
  8
0
100
AcDbCircle
 10
1642.401190328926
 20
1058.111913428961
 30
0.0
 40
3.0
100
AcDbArc
 50
90.0
 51
180.0
  0
LINE
  5
2437
330
1F
100
AcDbEntity
  8
0
100
AcDbLine
 10
1639.401190328926
 20
1566.111913428962
 30
0.0
 11
1639.401190328926
 21
1494.111913428962
 31
0.0
  0
ARC
  5
2438
330
1F
100
AcDbEntity
  8
0
100
AcDbCircle
 10
1642.401190328926
 20
1494.111913428962
 30
0.0
 40
3.0
100
AcDbArc
 50
180.0
 51
270.0
  0
LINE
  5
2439
330
1F
100
AcDbEntity
  8
0
100
AcDbLine
 10
1639.401190328926
 20
1494.111913428962
 30
0.0
 11
1639.401190328926
 21
1049.111913428961
 31
0.0
  0
LINE
  5
243A
330
1F
100
AcDbEntity
  8
0
100
AcDbLine
 10
1814.401190328927
 20
1461.111913428962
 30
0.0
 11
1814.401190328926
 21
1305.611913428966
 31
0.0
  0
LINE
  5
243B
330
1F
100
AcDbEntity
  8
0
100
AcDbLine
 10
1814.401190328926
 20
1305.611913428962
 30
0.0
 11
1805.57804231677
 21
1089.885944531732
 31
0.0
  0
ARC
  5
243C
330
1F
100
AcDbEntity
  8
0
100
AcDbCircle
 10
1775.603102779499
 20
1091.111913428962
 30
0.0
 40
30.0
100
AcDbArc
 50
270.0
 51
357.657919691536
  0
ARC
  5
243D
330
1F
100
AcDbEntity
  8
0
100
AcDbCircle
 10
1784.401190328927
 20
1461.111913428962
 30
0.0
 40
30.0
100
AcDbArc
 50
0.0
 51
90.0
  0
LINE
  5
243E
330
1F
100
AcDbEntity
  8
Cen
100
AcDbLine
 10
1719.807360548719
 20
1394.236913428962
 30
0.0
 11
1850.461772784041
 21
1394.236913428962
 31
0.0
  0
LEADER
  5
243F
330
1F
100
AcDbEntity
  8
Cen
100
AcDbLeader
  3
ISO-25
 40
25.0
 41
16.66666666666666
 76
     2
 10
1640.881637327963
 20
1491.525224681304
 30
0.0
 10
1585.708708556195
 20
1455.490951078002
 30
0.0
213
0.0
223
12.5
233
0.0
1001
ACAD
1000
DSTYLE
1002
{
1070
   147
1040
6.25
1070
    77
1070
     0
1070
   279
1070
     1
1002
}
  0
LEADER
  5
2440
330
1F
100
AcDbEntity
  8
Cen
100
AcDbLeader
  3
ISO-25
 76
     2
 10
1640.491715190607
 20
1060.425764049926
 30
0.0
 10
1696.288314239505
 20
1016.553846544741
 30
0.0
1001
ACAD
1000
DSTYLE
1002
{
1070
   147
1040
6.25
1070
    77
1070
     0
1070
   279
1070
     1
1002
}
  0
TEXT
  5
2441
330
1F
100
AcDbEntity
  8
0
100
AcDbText
 10
1700.207705862228
 20
987.9879321764029
 30
0.0
 40
25.0
  1
3R
100
AcDbText
  0
LEADER
  5
2442
330
1F
100
AcDbEntity
  8
Cen
100
AcDbLeader
  3
ISO-25
 76
     2
 10
1638.446330305423
 20
1046.917055238432
 30
0.0
 10
1587.467603207745
 20
1082.900487749831
 30
0.0
1001
ACAD
1000
DSTYLE
1002
{
1070
   147
1040
6.25
1070
    77
1070
     0
1070
   279
1070
     1
1002
}
  0
TEXT
  5
2443
330
1F
100
AcDbEntity
  8
0
100
AcDbText
 10
1540.434912068979
 20
1072.994563989306
 30
0.0
 40
25.0
  1
3R
100
AcDbText
  0
TEXT
  5
2444
330
1F
100
AcDbEntity
  8
0
100
AcDbText
 10
1537.742653923923
 20
1422.711494896025
 30
0.0
 40
25.0
  1
3R
100
AcDbText
  0
LINE
  5
2445
330
1F
100
AcDbEntity
  8
0
100
AcDbLine
 10
1824.401190328927
 20
1486.611913428962
 30
0.0
 11
1824.401190328926
 21
1305.611913428966
 31
0.0
  0
LINE
  5
2446
330
1F
100
AcDbEntity
  8
実形
100
AcDbLine
 10
1814.401190328927
 20
1486.611913428962
 30
0.0
 11
1824.401190328927
 21
1486.611913428962
 31
0.0
  0
LINE
  5
2447
330
1F
100
AcDbEntity
  8
実形
100
AcDbLine
 10
1814.401190328926
 20
1305.611913428966
 30
0.0
 11
1824.401190328927
 21
1305.611913428966
 31
0.0
  0
ARC
  5
2448
330
1F
100
AcDbEntity
  8
実形
100
AcDbCircle
 10
1777.938374274152
 20
1536.111913428962
 30
0.0
 40
30.0
100
AcDbArc
 50
7.169362918619547
 51
90.0
  0
LINE
  5
2449
330
1F
100
AcDbEntity
  8
0
100
AcDbLine
 10
1814.401190328926
 20
1486.611913428962
 30
0.0
 11
1814.401190328926
 21
1461.111913428962
 31
0.0
  0
LINE
  5
244A
330
1F
100
AcDbEntity
  8
実形
100
AcDbLine
 10
1807.703821596327
 20
1539.855994853136
 30
0.0
 11
1814.401190328926
 21
1486.611913428962
 31
0.0
  0
LEADER
  5
244B
330
1F
100
AcDbEntity
  8
Cen
100
AcDbLeader
  3
ISO-25
 40
25.0
 41
16.66666666666666
 76
     2
 10
1793.226553780216
 20
1081.171440805657
 30
0.0
 10
1744.111589055682
 20
1117.043522101665
 30
0.0
213
0.0
223
12.5
233
0.0
1001
ACAD
1000
DSTYLE
1002
{
1070
   147
1040
6.25
1070
    77
1070
     0
1070
   279
1070
     1
1002
}
  0
TEXT
  5
244C
330
1F
100
AcDbEntity
  8
0
100
AcDbText
 10
1672.919446099228
 20
1113.091526882388
 30
0.0
 40
25.0
  1
30R
100
AcDbText
  0
LINE
  5
244D
330
1F
100
AcDbEntity
  8
実形
100
AcDbLine
 10
1621.101190328926
 20
1600.111913428962
 30
0.0
 11
1634.101190328927
 21
1600.111913428962
 31
0.0
  0
LINE
  5
244E
330
1F
100
AcDbEntity
  8
実形
100
AcDbLine
 10
1621.101190328926
 20
1012.111913428961
 30
0.0
 11
1634.101190328927
 21
1012.111913428961
 31
0.0
  0
LINE
  5
244F
330
1F
100
AcDbEntity
  8
0
100
AcDbLine
 10
1616.101190328927
 20
1595.111913428962
 30
0.0
 11
1616.101190328926
 21
1017.111913428961
 31
0.0
  0
LINE
  5
2450
330
1F
100
AcDbEntity
  8
0
100
AcDbLine
 10
1634.101190328927
 20
1600.111913428962
 30
0.0
 11
1634.101190328927
 21
1012.111913428962
 31
0.0
  0
LEADER
  5
2493
330
1F
100
AcDbEntity
  8
実形
100
AcDbLeader
  3
ISO-25
 40
25.0
 41
16.66666666666666
 76
     2
 10
1607.686668026224
 20
1009.090389259625
 30
0.0
 10
1548.209966843795
 20
969.4547294607767
 30
0.0
213
0.0
223
12.5
233
0.0
1001
ACAD
1000
DSTYLE
1002
{
1070
   147
1040
6.25
1070
    77
1070
     0
1070
    41
1040
20.0
1070
   342
1005
DA
1002
}
  0
TEXT
  5
2494
330
1F
100
AcDbEntity
  8
実形
100
AcDbText
 10
1516.819489741295
 20
936.7667615365565
 30
0.0
 40
25.0
  1
5R
 72
     2
 11
1558.486156407962
 21
961.7667615365565
 31
0.0
100
AcDbText
 73
     3
  0
LEADER
  5
24F6
330
1F
100
AcDbEntity
  8
実形
100
AcDbLeader
  3
ISO-25
 40
25.0
 41
16.66666666666666
 76
     2
 10
1608.362850237107
 20
1605.54825507054
 30
0.0
 10
1561.858182359826
 20
1647.902644892124
 30
0.0
213
0.0
223
12.5
233
0.0
1001
ACAD
1000
DSTYLE
1002
{
1070
   147
1040
6.25
1070
    77
1070
     0
1070
    41
1040
20.0
1070
   342
1005
DA
1002
}
  0
TEXT
  5
24F7
330
1F
100
AcDbEntity
  8
実形
100
AcDbText
 10
1535.437179747894
 20
1655.434591084178
 30
0.0
 40
25.0
  1
5R
 72
     2
 11
1577.10384641456
 21
1680.434591084178
 31
0.0
100
AcDbText
 73
     3
  0
ARC
  5
24F8
330
1F
100
AcDbEntity
  8
実形
100
AcDbCircle
 10
1621.101190328926
 20
1595.111913428962
 30
0.0
 40
5.0
100
AcDbArc
 50
90.0
 51
180.0
  0
ARC
  5
24F9
330
1F
100
AcDbEntity
  8
実形
100
AcDbCircle
 10
1621.101190328926
 20
1017.111913428961
 30
0.0
 40
5.0
100
AcDbArc
 50
180.0
 51
270.0
  0
LINE
  5
253D
330
1F
100
AcDbEntity
  8
実形
100
AcDbLine
 10
2387.233877365066
 20
585.2947101512853
 30
0.0
 11
2387.233877365066
 21
543.6947101512854
 31
0.0
  0
DIMENSION
  5
2701
330
1F
100
AcDbEntity
  8
実形
100
AcDbDimension
  2
*D63
 10
1634.101190328927
 20
873.7679168327922
 30
0.0
 11
1581.39182439672
 21
894.5881761693797
 31
0.0
 70
   160
 71
     5
 42
18.0
  3
ISO-25
100
AcDbAlignedDimension
 13
1616.101190328927
 23
1016.767694941507
 33
0.0
 14
1634.101190328927
 24
1017.746472582683
 34
0.0
 50
180.0
100
AcDbRotatedDimension
1001
ACAD
1000
DSTYLE
1002
{
1070
   140
1040
25.0
1070
   279
1070
     2
1070
   371
1070
    18
1070
   372
1070
    18
1002
}
  0
DIMENSION
  5
2702
330
1F
100
AcDbEntity
  8
実形
100
AcDbDimension
  2
*D64
 10
1639.301190328926
 20
873.7679168327922
 30
0.0
 11
1690.3963212897
 21
837.4713648215818
 31
0.0
 70
   160
  1
5.3
 71
     5
 42
5.199999999999818
  3
ISO-25
100
AcDbAlignedDimension
 13
1634.101190328927
 23
1017.746472582683
 33
0.0
 14
1639.301190328926
 24
1017.746472582683
 34
0.0
 50
180.0
100
AcDbRotatedDimension
1001
ACAD
1000
DSTYLE
1002
{
1070
   140
1040
25.0
1070
   279
1070
     2
1070
   371
1070
    18
1070
   372
1070
    18
1002
}
  0
DIMENSION
  5
2703
330
1F
100
AcDbEntity
  8
実形
100
AcDbDimension
  2
*D65
 10
1814.301190328926
 20
873.7679168327922
 30
0.0
 11
1717.319123345533
 21
894.5881761693797
 31
0.0
 70
   160
 71
     5
 42
175.0
  3
ISO-25
100
AcDbAlignedDimension
 13
1639.301190328926
 23
1017.746472582683
 33
0.0
 14
1814.301190328926
 24
962.6799648079359
 34
0.0
 50
180.0
100
AcDbRotatedDimension
1001
ACAD
1000
DSTYLE
1002
{
1070
   279
1070
     2
1070
   371
1070
    18
1070
   372
1070
    18
1002
}
  0
DIMENSION
  5
2704
330
1F
100
AcDbEntity
  8
実形
100
AcDbDimension
  2
*D66
 10
1814.301190328926
 20
763.1460183821509
 30
0.0
 11
1715.201190328926
 21
781.8960183821509
 31
0.0
 70
    32
  1
198.3
 71
     5
 42
198.1999999999998
  3
ISO-25
100
AcDbAlignedDimension
 13
1616.101190328927
 23
1016.767694941507
 33
0.0
 14
1814.301190328926
 24
962.6799648079359
 34
0.0
 50
180.0
100
AcDbRotatedDimension
1001
ACAD
1000
DSTYLE
1002
{
1070
   279
1070
     2
1070
   371
1070
    18
1070
   372
1070
    18
1002
}
  0
DIMENSION
  5
2705
330
1F
100
AcDbEntity
  8
実形
100
AcDbDimension
  2
*D67
 10
1824.301190328926
 20
873.7679168327922
 30
0.0
 11
1852.619779089268
 21
899.3470504558807
 31
0.0
 70
   160
  1
7
 71
     5
 42
10.0
  3
ISO-25
100
AcDbAlignedDimension
 13
1814.301190328926
 23
1018.839870391915
 33
0.0
 14
1824.301190328926
 24
1018.839870391915
 34
0.0
 50
180.0
100
AcDbRotatedDimension
1001
ACAD
1000
DSTYLE
1002
{
1070
   279
1070
     2
1070
   371
1070
    18
1070
   372
1070
    18
1002
}
  0
ARC
  5
2706
330
1F
100
AcDbEntity
  8
実形
100
AcDbCircle
 10
1668.343204864969
 20
868.9592502354178
 30
0.0
 40
30.67803749767833
100
AcDbArc
 50
181.2146958213293
 51
255.8980435096403
  0
ARC
  5
2707
330
1F
100
AcDbEntity
  8
実形
100
AcDbCircle
 10
1670.767974186196
 20
882.8949128431887
 30
0.0
 40
36.13403642902205
100
AcDbArc
 50
204.1799351682401
 51
240.0753674915009
  0
ARC
  5
2708
330
1F
100
AcDbEntity
  8
実形
100
AcDbCircle
 10
1678.138616791334
 20
862.839550566842
 30
0.0
 40
40.79869683711797
100
AcDbArc
 50
172.6691813075214
 51
209.5611815123367
  0
VIEWPORT
  5
2E
102
{ACAD_XDICTIONARY
360
285F
102
}
330
1B
100
AcDbEntity
 67
     1
  8
0
100
AcDbViewport
 10
144.7270812988281
 20
101.2295806407928
 30
0.0
 40
411.6736216682419
 41
222.1517806396485
 68
     1
 69
     1
 12
144.7270812988281
 22
101.2295806407928
 13
0.0
 23
0.0
 14
10.0
 24
10.0
 15
10.0
 25
10.0
 16
0.0
 26
0.0
 36
1.0
 17
0.0
 27
0.0
 37
0.0
 42
50.0
 43
0.0
 44
0.0
 45
222.1517806396485
 50
0.0
 51
0.0
 72
   100
 90
    32800
  1

281
     0
 71
     1
 74
     0
110
0.0
120
0.0
130
0.0
111
1.0
121
0.0
131
0.0
112
0.0
122
1.0
132
0.0
 79
     0
146
0.0
  0
VIEWPORT
  5
30
102
{ACAD_XDICTIONARY
360
2861
102
}
330
1B
100
AcDbEntity
 67
     1
  8
0
100
AcDbViewport
 10
139.2237563133239
 20
101.2295821905136
 30
0.0
 40
222.7580101013184
 41
161.9673315048218
 68
     2
 69
     2
 12
210.0
 22
148.5
 13
0.0
 23
0.0
 14
10.0
 24
10.0
 15
10.0
 25
10.0
 16
0.0
 26
0.0
 36
1.0
 17
0.0
 27
0.0
 37
0.0
 42
50.0
 43
0.0
 44
0.0
 45
309.0686705647124
 50
0.0
 51
0.0
 72
   100
 90
    32864
  1

281
     0
 71
     1
 74
     0
110
0.0
120
0.0
130
0.0
111
1.0
121
0.0
131
0.0
112
0.0
122
1.0
132
0.0
 79
     0
146
0.0
  0
ENDSEC
  0
SECTION
  2
OBJECTS
  0
DICTIONARY
  5
C
330
0
100
AcDbDictionary
281
     1
  3
ACAD_COLOR
350
C13
  3
ACAD_GROUP
350
D
  3
ACAD_LAYOUT
350
1A
  3
ACAD_MATERIAL
350
C12
  3
ACAD_MLINESTYLE
350
17
  3
ACAD_PLOTSETTINGS
350
19
  3
ACAD_PLOTSTYLENAME
350
E
  3
ACAD_TABLESTYLE
350
C14
  3
AcadDim
350
5B1
  3
ACDBHEADERROUNDTRIPXREC
350
2858
  3
AcDbVariableDictionary
350
96D
  0
DICTIONARY
  5
DE1
330
2
100
AcDbDictionary
280
     1
281
     1
  3
ACAD_LAYERFILTERS
360
E0B
  3
ACAD_LAYERSTATES
360
DE2
  3
ACLYDICTIONARY
360
E0A
  0
DICTIONARY
  5
C47
330
1F
100
AcDbDictionary
280
     1
281
     1
  3
ACAD_SORTENTS
360
C48
  0
DICTIONARY
  5
DE5
330
DE3
100
AcDbDictionary
280
     1
281
     1
  3
ACAD_SORTENTS
360
DE6
  0
DICTIONARY
  5
FC3
330
FBF
100
AcDbDictionary
280
     1
281
     1
  3
ACAD_SORTENTS
360
FC4
  0
DICTIONARY
  5
1236
330
1231
100
AcDbDictionary
280
     1
281
     1
  3
ACAD_SORTENTS
360
1237
  0
DICTIONARY
  5
285F
330
2E
100
AcDbDictionary
280
     1
281
     1
  3
ACAD_XREC_ROUNDTRIP
360
2860
  0
DICTIONARY
  5
2861
330
30
100
AcDbDictionary
280
     1
281
     1
  3
ACAD_XREC_ROUNDTRIP
360
2862
  0
DICTIONARY
  5
C13
102
{ACAD_REACTORS
330
C
102
}
330
C
100
AcDbDictionary
281
     1
  0
DICTIONARY
  5
D
102
{ACAD_REACTORS
330
C
102
}
330
C
100
AcDbDictionary
281
     1
  0
DICTIONARY
  5
1A
102
{ACAD_REACTORS
330
C
102
}
330
C
100
AcDbDictionary
281
     1
  3
Model
350
22
  3
ﾚｲｱｳﾄ1
350
1E
  3
ﾚｲｱｳﾄ2
350
26
  0
DICTIONARY
  5
C12
102
{ACAD_REACTORS
330
C
102
}
330
C
100
AcDbDictionary
281
     1
  0
DICTIONARY
  5
17
102
{ACAD_REACTORS
330
C
102
}
330
C
100
AcDbDictionary
281
     1
  3
Standard
350
18
  0
DICTIONARY
  5
19
102
{ACAD_REACTORS
330
C
102
}
330
C
100
AcDbDictionary
281
     1
  0
ACDBDICTIONARYWDFLT
  5
E
102
{ACAD_REACTORS
330
C
102
}
330
C
100
AcDbDictionary
281
     1
  3
Normal
350
F
100
AcDbDictionaryWithDefault
340
F
  0
DICTIONARY
  5
C14
102
{ACAD_REACTORS
330
C
102
}
330
C
100
AcDbDictionary
281
     1
  3
Standard
350
C15
  0
XRECORD
  5
5B1
102
{ACAD_REACTORS
330
C
102
}
330
C
100
AcDbXrecord
280
     1
 90
   990106
  3

 60
     0
 61
     0
 62
     1
 63
     3
 64
     0
 65
     0
 66
     0
 67
     3
 68
     1
 69
     0
 70
     0
 71
     0
 72
     0
 40
5.637859010809637
170
     0
  0
DICTIONARY
  5
2858
102
{ACAD_REACTORS
330
C
102
}
330
C
100
AcDbDictionary
281
     1
  0
DICTIONARY
  5
96D
102
{ACAD_REACTORS
330
C
102
}
330
C
100
AcDbDictionary
281
     1
  3
CTABLESTYLE
350
C23
  3
DIMASSOC
350
2855
  3
PROJECTNAME
350
2856
  3
SORTENTS
350
96E
  0
DICTIONARY
  5
E0B
102
{ACAD_REACTORS
330
DE1
102
}
330
DE1
100
AcDbDictionary
281
     1
  0
DICTIONARY
  5
DE2
102
{ACAD_REACTORS
330
DE1
102
}
330
DE1
100
AcDbDictionary
281
     1
  0
DICTIONARY
  5
E0A
102
{ACAD_REACTORS
330
DE1
102
}
330
DE1
100
AcDbDictionary
281
     1
1001
ACAD
1000
<All
  0
SORTENTSTABLE
  5
C48
102
{ACAD_REACTORS
330
C47
102
}
330
C47
100
AcDbSortentsTable
330
1F
331
EE7
  5
1304
331
1245
  5
1472
331
33F
  5
407
331
262
  5
26B
331
55C
  5
5D8
331
1674
  5
1CAA
331
1E67
  5
1E6C
331
1E6F
  5
1E74
331
1E38
  5
1E3C
331
2434
  5
2437
331
CB1
  5
F2C
331
243C
  5
243F
331
230F
  5
2311
331
139D
  5
2E9
331
147C
  5
155A
331
2317
  5
2319
331
2396
  5
23AE
331
2444
  5
2447
331
23AE
  5
23B0
331
244C
  5
244F
331
AB
  5
AD
331
1415
  5
147D
331
3DE
  5
49B
331
56C
  5
5FD
331
2E9
  5
330
331
41E
  5
565
331
24F9
  5
2431
331
1E40
  5
1E45
331
158D
  5
1676
331
1E48
  5
1E4E
331
1E50
  5
1E56
331
1E58
  5
1E5D
331
23B6
  5
23B8
331
5FB
  5
CB1
331
CE9
  5
F34
331
23BE
  5
4AE
331
2494
  5
24F7
331
603
  5
EE8
331
53D
  5
5B0
331
340
  5
40A
331
370
  5
40D
331
3BF
  5
499
331
26B
  5
304
331
55D
  5
5F4
331
9C
  5
9C
331
1675
  5
1CC4
331
1CA9
  5
1E35
331
1E60
  5
1E65
331
1E68
  5
1E6D
331
1E70
  5
1E75
331
1E39
  5
1E3D
331
22B8
  5
2310
331
2435
  5
2438
331
CB2
  5
F2D
331
EE8
  5
1305
331
2310
  5
2312
331
243D
  5
2440
331
139E
  5
371
331
147D
  5
158D
331
2318
  5
231A
331
2445
  5
2448
331
1080
  5
1306
331
244D
  5
2450
331
23AF
  5
23B1
331
5F4
  5
A46
331
CDA
  5
F31
331
E79
  5
1302
331
150D
  5
1673
331
565
  5
5F9
331
48E
  5
586
331
3DF
  5
49D
331
28B
  5
32B
331
1E41
  5
1E46
331
1E49
  5
1E4F
331
1E51
  5
1E57
331
1666
  5
A0
331
1E59
  5
1E5E
331
22A9
  5
22B7
331
23B7
  5
23B9
331
5FC
  5
CB3
331
CEA
  5
F35
331
D92
  5
F37
331
339
  5
3CC
331
341
  5
40B
331
2B3
  5
32E
331
371
  5
415
331
54E
  5
5BA
331
5AD
  5
A34
331
A5
  5
A8
331
1E61
  5
1E66
331
1676
  5
1CC5
331
1CAA
  5
1E36
331
1E69
  5
1E6E
331
1E71
  5
20E0
331
1E3A
  5
1E3E
331
22B9
  5
4AB
331
2436
  5
2439
331
CB3
  5
F2E
331
2311
  5
2313
331
243E
  5
2441
331
A2C
  5
F29
331
139F
  5
261
331
147E
  5
1666
331
2446
  5
2449
331
2319
  5
231B
331
CD3
  5
F30
331
244E
  5
2490
331
5F5
  5
A47
331
1081
  5
139A
331
AD
  5
25F
331
566
  5
5FA
331
151E
  5
1674
331
3E0
  5
49E
331
50F
  5
59F
331
32A
  5
339
331
586
  5
5FE
331
537
  5
5AE
331
1E42
  5
1E47
331
1E4A
  5
1E50
331
1E52
  5
1E58
331
1E5A
  5
1E5F
331
23B0
  5
23B2
331
23B8
  5
23BA
331
22AA
  5
22B8
331
5FD
  5
CCE
331
CEB
  5
F36
331
D93
  5
F38
331
24F6
  5
24F8
331
33A
  5
3DE
331
53F
  5
5B7
331
480
  5
56C
331
55F
  5
5F5
331
1E62
  5
1E67
331
1E6A
  5
1E6F
331
1CEB
  5
1E37
331
1E72
  5
212E
331
1E3B
  5
1E40
331
22BA
  5
4B4
331
2437
  5
243A
331
1398
  5
263
331
2312
  5
2314
331
243F
  5
2442
331
A2D
  5
F2A
331
CBC
  5
F2F
331
13A0
  5
384
331
231A
  5
2395
331
2447
  5
244A
331
244F
  5
2430
331
5F6
  5
A48
331
2DC
  5
32F
331
32B
  5
33A
331
39A
  5
495
331
1E43
  5
1E48
331
1E5B
  5
1E60
331
23B1
  5
23B3
331
212E
  5
22B6
331
23B9
  5
23BB
331
5FE
  5
CD3
331
D94
  5
F97
331
24F7
  5
24F9
331
DC4
  5
1062
331
3B2
  5
498
331
540
  5
5B8
331
59F
  5
5FF
331
304
  5
334
331
558
  5
5D0
331
1E63
  5
1E68
331
1E6B
  5
1E70
331
1E73
  5
22A9
331
1E34
  5
1E38
331
1E3C
  5
1E41
331
2430
  5
2433
331
2438
  5
243B
331
2313
  5
2315
331
2440
  5
2443
331
231B
  5
2396
331
2448
  5
244B
331
E44
  5
1081
331
560
  5
5F6
331
5F7
  5
C46
331
CDD
  5
F32
331
31C
  5
335
331
568
  5
5FB
331
27E
  5
32A
331
511
  5
5A9
331
40A
  5
4B5
331
32C
  5
33E
331
334
  5
39A
331
39B
  5
496
331
1E44
  5
1E49
331
1E4C
  5
1E51
331
1E54
  5
1E59
331
1E5C
  5
1E61
331
23B2
  5
23B4
331
2450
  5
2432
331
C46
  5
3B2
331
23BA
  5
23BD
331
5FF
  5
CD7
331
EDC
  5
1303
331
C4E
  5
F2B
331
D95
  5
FFC
331
33C
  5
3E0
331
5A0
  5
600
331
25F
  5
260
331
2A6
  5
32D
331
267
  5
2F7
331
A0
  5
A5
331
1E64
  5
1E69
331
1E6C
  5
1E71
331
1E74
  5
22AA
331
1E35
  5
1E39
331
1E3D
  5
1E42
331
2431
  5
2434
331
2439
  5
243C
331
5D0
  5
A3C
331
139A
  5
492
331
2314
  5
2316
331
2441
  5
2444
331
5D8
  5
A3F
331
13A2
  5
1473
331
2449
  5
244C
331
A8
  5
A9
331
384
  5
494
331
3E3
  5
4A3
331
32D
  5
340
331
532
  5
5AA
331
335
  5
39B
331
1E45
  5
1E4A
331
1E4D
  5
1E52
331
1E55
  5
1E5A
331
1E5D
  5
1E62
331
23B3
  5
23B5
331
5F8
  5
C4C
331
23BB
  5
23BE
331
600
  5
CDD
331
22B5
  5
22B9
331
1243
  5
1415
331
1472
  5
150D
331
473
  5
566
331
5A1
  5
A2E
331
260
  5
262
331
5A9
  5
A2F
331
55A
  5
5D2
331
1E65
  5
1E6A
331
1E6D
  5
1E72
331
1E75
  5
22B5
331
1E36
  5
1E3A
331
1E3E
  5
1E43
331
2432
  5
2435
331
243A
  5
243D
331
139B
  5
267
331
2315
  5
2317
331
2442
  5
2445
331
244A
  5
244D
331
A9
  5
AA
331
270
  5
31C
331
562
  5
5F7
331
56A
  5
5FC
331
3E4
  5
4A4
331
32E
  5
370
331
533
  5
5AD
331
1E46
  5
1E4B
331
1E4E
  5
1E53
331
1E56
  5
1E5B
331
1E5E
  5
1E63
331
23B4
  5
23B6
331
5F9
  5
C50
331
601
  5
CE8
331
1105
  5
13D4
331
22B6
  5
22BA
331
C50
  5
4B7
331
144B
  5
147E
331
155A
  5
1675
331
1244
  5
144B
331
298
  5
32C
331
1473
  5
151E
331
2F7
  5
331
331
33E
  5
3E4
331
261
  5
264
331
5AA
  5
A31
331
54B
  5
5B9
331
376
  5
493
331
1673
  5
1CA9
331
1E66
  5
1E6B
331
1E6E
  5
1E73
331
1E37
  5
1E3B
331
2433
  5
2436
331
243B
  5
243E
331
5D2
  5
A3D
331
A29
  5
F28
331
139C
  5
414
331
2316
  5
2318
331
2395
  5
23AD
331
2443
  5
2446
331
23AD
  5
23AF
331
244B
  5
244E
331
13D4
  5
147C
331
AA
  5
AB
331
563
  5
5F8
331
3DD
  5
49A
331
40D
  5
4B8
331
32F
  5
372
331
24F8
  5
248F
331
1E47
  5
1E4D
331
1E4F
  5
1E55
331
1E57
  5
1E5C
331
1E5F
  5
1E64
331
5FA
  5
C51
331
CE8
  5
F33
331
23B5
  5
23B7
331
602
  5
CE9
331
23BD
  5
4AF
331
2493
  5
24F6
331
22B7
  5
230F
  0
SORTENTSTABLE
  5
DE6
102
{ACAD_REACTORS
330
DE5
102
}
330
DE5
100
AcDbSortentsTable
330
DE3
  0
SORTENTSTABLE
  5
FC4
102
{ACAD_REACTORS
330
FC3
102
}
330
FC3
100
AcDbSortentsTable
330
FBF
  0
SORTENTSTABLE
  5
1237
102
{ACAD_REACTORS
330
1236
102
}
330
1236
100
AcDbSortentsTable
330
1231
  0
XRECORD
  5
2860
102
{ACAD_REACTORS
330
285F
102
}
330
285F
100
AcDbXrecord
280
     1
102
SHADEPLOT
 70
     0
  0
XRECORD
  5
2862
102
{ACAD_REACTORS
330
2861
102
}
330
2861
100
AcDbXrecord
280
     1
102
SHADEPLOT
 70
     0
  0
LAYOUT
  5
22
102
{ACAD_XDICTIONARY
360
285B
102
}
102
{ACAD_REACTORS
330
1A
102
}
330
1A
100
AcDbPlotSettings
  1

  2
EPSON PM-800C
  4
A4
  6

 40
3.757083177566528
 41
14.7637300491333
 42
3.757080078125
 43
3.757080078125
 44
209.9733276367187
 45
296.9683227539062
 46
0.0
 47
0.0
 48
0.0
 49
0.0
140
0.0
141
0.0
142
1.0
143
10.0
 70
 11952
 72
     1
 73
     1
 74
     2
  7

 75
    20
147
0.1
148
0.0
149
0.0
100
AcDbLayout
  1
Model
 70
     1
 71
     0
 10
0.0
 20
0.0
 11
12.0
 21
9.0
 12
0.0
 22
0.0
 32
0.0
 14
0.0
 24
0.0
 34
0.0
 15
0.0
 25
0.0
 35
0.0
146
0.0
 13
0.0
 23
0.0
 33
0.0
 16
1.0
 26
0.0
 36
0.0
 17
0.0
 27
1.0
 37
0.0
 76
     0
330
1F
  0
LAYOUT
  5
1E
102
{ACAD_XDICTIONARY
360
2859
102
}
102
{ACAD_REACTORS
330
1A
102
}
330
1A
100
AcDbPlotSettings
  1

  2
EPSON PM-800C
  4
A4
  6

 40
3.757083177566528
 41
14.7637300491333
 42
3.757080078125
 43
3.757080078125
 44
209.9733276367187
 45
296.9683227539062
 46
0.0
 47
0.0
 48
0.0
 49
0.0
140
0.0
141
0.0
142
1.0
143
1.0
 70
   688
 72
     1
 73
     1
 74
     5
  7

 75
    16
147
1.0
148
0.0
149
0.0
100
AcDbLayout
  1
ﾚｲｱｳﾄ1
 70
     1
 71
     1
 10
-3.757080078125
 20
-3.757083177566528
 11
293.2112426757813
 21
206.2162444591522
 12
0.0
 22
0.0
 32
0.0
 14
27.8447512626648
 24
20.24591643810271
 34
0.0
 15
250.6027613639831
 25
182.2132479429245
 35
0.0
146
0.0
 13
0.0
 23
0.0
 33
0.0
 16
1.0
 26
0.0
 36
0.0
 17
0.0
 27
1.0
 37
0.0
 76
     0
330
1B
331
2E
  0
LAYOUT
  5
26
102
{ACAD_XDICTIONARY
360
285D
102
}
102
{ACAD_REACTORS
330
1A
102
}
330
1A
100
AcDbPlotSettings
  1

  2
EPSON PM-800C
  4

  6

 40
0.0
 41
0.0
 42
0.0
 43
0.0
 44
0.0
 45
0.0
 46
0.0
 47
0.0
 48
0.0
 49
0.0
140
0.0
141
0.0
142
1.0
143
1.0
 70
   688
 72
     0
 73
     0
 74
     5
  7

 75
    16
147
1.0
148
0.0
149
0.0
100
AcDbLayout
  1
ﾚｲｱｳﾄ2
 70
     1
 71
     2
 10
0.0
 20
0.0
 11
12.0
 21
9.0
 12
0.0
 22
0.0
 32
0.0
 14
0.0
 24
0.0
 34
0.0
 15
0.0
 25
0.0
 35
0.0
146
0.0
 13
0.0
 23
0.0
 33
0.0
 16
1.0
 26
0.0
 36
0.0
 17
0.0
 27
1.0
 37
0.0
 76
     0
330
23
  0
MLINESTYLE
  5
18
102
{ACAD_REACTORS
330
17
102
}
330
17
100
AcDbMlineStyle
  2
STANDARD
 70
     0
  3

 62
   256
 51
90.0
 52
90.0
 71
     2
 49
0.5
 62
   256
  6
BYLAYER
 49
-0.5
 62
   256
  6
BYLAYER
  0
ACDBPLACEHOLDER
  5
F
102
{ACAD_REACTORS
330
E
102
}
330
E
  0
TABLESTYLE
  5
C15
102
{ACAD_REACTORS
330
C14
102
}
330
C14
100
AcDbTableStyle
  3
Standard
 70
     0
 71
     0
 40
1.5
 41
1.5
280
     0
281
     0
  7
Standard
140
4.5
170
     2
 62
     0
 63
     7
283
     0
274
    -2
284
     1
 64
     0
275
    -2
285
     1
 65
     0
276
    -2
286
     1
 66
     0
277
    -2
287
     1
 67
     0
278
    -2
288
     1
 68
     0
279
    -2
289
     1
 69
     0
  7
Standard
140
6.0
170
     5
 62
     0
 63
     7
283
     0
274
    -2
284
     1
 64
     0
275
    -2
285
     1
 65
     0
276
    -2
286
     1
 66
     0
277
    -2
287
     1
 67
     0
278
    -2
288
     1
 68
     0
279
    -2
289
     1
 69
     0
  7
Standard
140
4.5
170
     5
 62
     0
 63
     7
283
     0
274
    -2
284
     1
 64
     0
275
    -2
285
     1
 65
     0
276
    -2
286
     1
 66
     0
277
    -2
287
     1
 67
     0
278
    -2
288
     1
 68
     0
279
    -2
289
     1
 69
     0
  0
DICTIONARYVAR
  5
C23
102
{ACAD_REACTORS
330
96D
102
}
330
96D
100
DictionaryVariables
280
     0
  1
STANDARD
  0
DICTIONARYVAR
  5
2855
102
{ACAD_REACTORS
330
96D
102
}
330
96D
100
DictionaryVariables
280
     0
  1
1
  0
DICTIONARYVAR
  5
2856
102
{ACAD_REACTORS
330
96D
102
}
330
96D
100
DictionaryVariables
280
     0
  1

  0
DICTIONARYVAR
  5
96E
102
{ACAD_REACTORS
330
96D
102
}
330
96D
100
DictionaryVariables
280
     0
  1
96
  0
DICTIONARY
  5
285B
330
22
100
AcDbDictionary
280
     1
281
     1
  3
ACAD_XREC_ROUNDTRIP
360
285C
  0
DICTIONARY
  5
2859
330
1E
100
AcDbDictionary
280
     1
281
     1
  3
ACAD_XREC_ROUNDTRIP
360
285A
  0
DICTIONARY
  5
285D
330
26
100
AcDbDictionary
280
     1
281
     1
  3
ACAD_XREC_ROUNDTRIP
360
285E
  0
XRECORD
  5
285C
102
{ACAD_REACTORS
330
285B
102
}
330
285B
100
AcDbXrecord
280
     1
102
SHADEPLOT
 70
     0
102
SHADEPLOTRESLEVEL
 70
     2
102
SHADEPLOTCUSTOMDPI
 70
   300
  0
XRECORD
  5
285A
102
{ACAD_REACTORS
330
2859
102
}
330
2859
100
AcDbXrecord
280
     1
102
SHADEPLOT
 70
     0
102
SHADEPLOTRESLEVEL
 70
     2
102
SHADEPLOTCUSTOMDPI
 70
   300
  0
XRECORD
  5
285E
102
{ACAD_REACTORS
330
285D
102
}
330
285D
100
AcDbXrecord
280
     1
102
SHADEPLOT
 70
     0
102
SHADEPLOTRESLEVEL
 70
     2
102
SHADEPLOTCUSTOMDPI
 70
   300
  0
ENDSEC
  0
EOF
