  0
SECTION
  2
HEADER
  9
$ACADVER
  1
AC1015
  9
$ACADMAINTVER
 70
    20
  9
$DWGCODEPAGE
  3
ANSI_932
  9
$INSBASE
 10
0.0
 20
0.0
 30
0.0
  9
$EXTMIN
 10
104.0
 20
4.0
 30
0.0
  9
$EXTMAX
 10
2784.0
 20
2024.0
 30
0.0
  9
$LIMMIN
 10
0.0
 20
0.0
  9
$LIMMAX
 10
29700.0
 20
21000.0
  9
$ORTHOMODE
 70
     1
  9
$REGENMODE
 70
     1
  9
$FILLMODE
 70
     1
  9
$QTEXTMODE
 70
     0
  9
$MIRRTEXT
 70
     1
  9
$LTSCALE
 40
4.0
  9
$ATTMODE
 70
     1
  9
$TEXTSIZE
 40
25.0
  9
$TRACEWID
 40
1.0
  9
$TEXTSTYLE
  7
ms明朝
  9
$CLAYER
  8
実形
  9
$CELTYPE
  6
ByLayer
  9
$CECOLOR
 62
     3
  9
$CELTSCALE
 40
1.0
  9
$DISPSILH
 70
     0
  9
$DIMSCALE
 40
1.0
  9
$DIMASZ
 40
30.0
  9
$DIMEXO
 40
65.0
  9
$DIMDLI
 40
3.75
  9
$DIMRND
 40
0.0
  9
$DIMDLE
 40
0.0
  9
$DIMEXE
 40
0.0
  9
$DIMTP
 40
0.0
  9
$DIMTM
 40
0.0
  9
$DIMTXT
 40
25.0
  9
$DIMCEN
 40
2.5
  9
$DIMTSZ
 40
0.0
  9
$DIMTOL
 70
     0
  9
$DIMLIM
 70
     0
  9
$DIMTIH
 70
     0
  9
$DIMTOH
 70
     0
  9
$DIMSE1
 70
     0
  9
$DIMSE2
 70
     0
  9
$DIMTAD
 70
     1
  9
$DIMZIN
 70
     8
  9
$DIMBLK
  1
DotSmall
  9
$DIMASO
 70
     1
  9
$DIMSHO
 70
     1
  9
$DIMPOST
  1

  9
$DIMAPOST
  1

  9
$DIMALT
 70
     0
  9
$DIMALTD
 70
     3
  9
$DIMALTF
 40
0.03937007874016
  9
$DIMLFAC
 40
1.0
  9
$DIMTOFL
 70
     1
  9
$DIMTVP
 40
0.0
  9
$DIMTIX
 70
     0
  9
$DIMSOXD
 70
     0
  9
$DIMSAH
 70
     0
  9
$DIMBLK1
  1

  9
$DIMBLK2
  1

  9
$DIMSTYLE
  2
ISO-25
  9
$DIMCLRD
 70
     0
  9
$DIMCLRE
 70
     0
  9
$DIMCLRT
 70
     0
  9
$DIMTFAC
 40
1.0
  9
$DIMGAP
 40
6.25
  9
$DIMJUST
 70
     0
  9
$DIMSD1
 70
     0
  9
$DIMSD2
 70
     0
  9
$DIMTOLJ
 70
     0
  9
$DIMTZIN
 70
     8
  9
$DIMALTZ
 70
     0
  9
$DIMALTTZ
 70
     0
  9
$DIMUPT
 70
     0
  9
$DIMDEC
 70
     2
  9
$DIMTDEC
 70
     2
  9
$DIMALTU
 70
     2
  9
$DIMALTTD
 70
     3
  9
$DIMTXSTY
  7
Standard
  9
$DIMAUNIT
 70
     0
  9
$DIMADEC
 70
     0
  9
$DIMALTRND
 40
0.0
  9
$DIMAZIN
 70
     0
  9
$DIMDSEP
 70
    46
  9
$DIMATFIT
 70
     3
  9
$DIMFRAC
 70
     0
  9
$DIMLDRBLK
  1
Open30
  9
$DIMLUNIT
 70
     2
  9
$DIMLWD
 70
    15
  9
$DIMLWE
 70
    15
  9
$DIMTMOVE
 70
     1
  9
$LUNITS
 70
     2
  9
$LUPREC
 70
     2
  9
$SKETCHINC
 40
1.0
  9
$FILLETRAD
 40
5.0
  9
$AUNITS
 70
     0
  9
$AUPREC
 70
     0
  9
$MENU
  1
.
  9
$ELEVATION
 40
0.0
  9
$PELEVATION
 40
0.0
  9
$THICKNESS
 40
0.0
  9
$LIMCHECK
 70
     1
  9
$CHAMFERA
 40
10.0
  9
$CHAMFERB
 40
10.0
  9
$CHAMFERC
 40
20.0
  9
$CHAMFERD
 40
0.0
  9
$SKPOLY
 70
     0
  9
$TDCREATE
 40
2451673.575802199
  9
$TDUCREATE
 40
2451673.200802199
  9
$TDUPDATE
 40
2458810.740049132
  9
$TDUUPDATE
 40
2458810.365049132
  9
$TDINDWG
 40
2.0024680324
  9
$TDUSRTIMER
 40
2.0024673380
  9
$USRTIMER
 70
     1
  9
$ANGBASE
 50
0.0
  9
$ANGDIR
 70
     0
  9
$PDMODE
 70
     0
  9
$PDSIZE
 40
0.0
  9
$PLINEWID
 40
0.0
  9
$SPLFRAME
 70
     0
  9
$SPLINETYPE
 70
     6
  9
$SPLINESEGS
 70
     8
  9
$HANDSEED
  5
2404
  9
$SURFTAB1
 70
     6
  9
$SURFTAB2
 70
     6
  9
$SURFTYPE
 70
     6
  9
$SURFU
 70
     6
  9
$SURFV
 70
     6
  9
$UCSBASE
  2

  9
$UCSNAME
  2

  9
$UCSORG
 10
0.0
 20
0.0
 30
0.0
  9
$UCSXDIR
 10
1.0
 20
0.0
 30
0.0
  9
$UCSYDIR
 10
0.0
 20
1.0
 30
0.0
  9
$UCSORTHOREF
  2

  9
$UCSORTHOVIEW
 70
     0
  9
$UCSORGTOP
 10
0.0
 20
0.0
 30
0.0
  9
$UCSORGBOTTOM
 10
0.0
 20
0.0
 30
0.0
  9
$UCSORGLEFT
 10
0.0
 20
0.0
 30
0.0
  9
$UCSORGRIGHT
 10
0.0
 20
0.0
 30
0.0
  9
$UCSORGFRONT
 10
0.0
 20
0.0
 30
0.0
  9
$UCSORGBACK
 10
0.0
 20
0.0
 30
0.0
  9
$PUCSBASE
  2

  9
$PUCSNAME
  2

  9
$PUCSORG
 10
0.0
 20
0.0
 30
0.0
  9
$PUCSXDIR
 10
1.0
 20
0.0
 30
0.0
  9
$PUCSYDIR
 10
0.0
 20
1.0
 30
0.0
  9
$PUCSORTHOREF
  2

  9
$PUCSORTHOVIEW
 70
     0
  9
$PUCSORGTOP
 10
0.0
 20
0.0
 30
0.0
  9
$PUCSORGBOTTOM
 10
0.0
 20
0.0
 30
0.0
  9
$PUCSORGLEFT
 10
0.0
 20
0.0
 30
0.0
  9
$PUCSORGRIGHT
 10
0.0
 20
0.0
 30
0.0
  9
$PUCSORGFRONT
 10
0.0
 20
0.0
 30
0.0
  9
$PUCSORGBACK
 10
0.0
 20
0.0
 30
0.0
  9
$USERI1
 70
     0
  9
$USERI2
 70
     0
  9
$USERI3
 70
     0
  9
$USERI4
 70
     0
  9
$USERI5
 70
     0
  9
$USERR1
 40
0.0
  9
$USERR2
 40
0.0
  9
$USERR3
 40
0.0
  9
$USERR4
 40
0.0
  9
$USERR5
 40
0.0
  9
$WORLDVIEW
 70
     1
  9
$SHADEDGE
 70
     3
  9
$SHADEDIF
 70
    70
  9
$TILEMODE
 70
     1
  9
$MAXACTVP
 70
    64
  9
$PINSBASE
 10
0.0
 20
0.0
 30
0.0
  9
$PLIMCHECK
 70
     0
  9
$PEXTMIN
 10
27.8447512626648
 20
20.24591643810271
 30
0.0
  9
$PEXTMAX
 10
250.6027613639831
 20
182.2132479429245
 30
0.0
  9
$PLIMMIN
 10
-3.757080078125
 20
-3.757083177566528
  9
$PLIMMAX
 10
293.2112426757813
 20
206.2162444591522
  9
$UNITMODE
 70
     0
  9
$VISRETAIN
 70
     1
  9
$PLINEGEN
 70
     0
  9
$PSLTSCALE
 70
     1
  9
$TREEDEPTH
 70
  3020
  9
$CMLSTYLE
  2
Standard
  9
$CMLJUST
 70
     0
  9
$CMLSCALE
 40
20.0
  9
$PROXYGRAPHICS
 70
     1
  9
$MEASUREMENT
 70
     1
  9
$CELWEIGHT
370
    -1
  9
$ENDCAPS
280
     0
  9
$JOINSTYLE
280
     0
  9
$LWDISPLAY
290
     0
  9
$INSUNITS
 70
     4
  9
$HYPERLINKBASE
  1

  9
$STYLESHEET
  1

  9
$XEDIT
290
     1
  9
$CEPSNTYPE
380
     0
  9
$PSTYLEMODE
290
     1
  9
$FINGERPRINTGUID
  2
{C8EA1F16-24C9-11D4-9416-CE0A3B32152F}
  9
$VERSIONGUID
  2
{134A04CD-E52C-49AD-BA6B-B20AF0013AB6}
  9
$EXTNAMES
290
     1
  9
$PSVPSCALE
 40
0.0
  9
$OLESTARTUP
290
     0
  0
ENDSEC
  0
SECTION
  2
CLASSES
  0
CLASS
  1
ACDBDICTIONARYWDFLT
  2
AcDbDictionaryWithDefault
  3
ObjectDBX Classes
 90
        0
280
     0
281
     0
  0
CLASS
  1
ACDBPLACEHOLDER
  2
AcDbPlaceHolder
  3
ObjectDBX Classes
 90
        0
280
     0
281
     0
  0
CLASS
  1
LAYOUT
  2
AcDbLayout
  3
ObjectDBX Classes
 90
        0
280
     0
281
     0
  0
CLASS
  1
DICTIONARYVAR
  2
AcDbDictionaryVar
  3
ObjectDBX Classes
 90
        0
280
     0
281
     0
  0
CLASS
  1
TABLESTYLE
  2
AcDbTableStyle
  3
ObjectDBX Classes
 90
     2047
280
     0
281
     0
  0
CLASS
  1
SORTENTSTABLE
  2
AcDbSortentsTable
  3
ObjectDBX Classes
 90
        0
280
     0
281
     0
  0
ENDSEC
  0
SECTION
  2
TABLES
  0
TABLE
  2
VPORT
  5
8
330
0
100
AcDbSymbolTable
 70
     2
  0
VPORT
  5
23F8
330
8
100
AcDbSymbolTableRecord
100
AcDbViewportTableRecord
  2
*Active
 70
     0
 10
0.0
 20
0.0
 11
1.0
 21
1.0
 12
1539.771616097437
 22
981.0345297771091
 13
0.0
 23
0.0
 14
10.0
 24
10.0
 15
10.0
 25
10.0
 16
0.0
 26
0.0
 36
1.0
 17
0.0
 27
0.0
 37
0.0
 40
2450.569678426475
 41
1.29038112522686
 42
50.0
 43
0.0
 44
0.0
 50
0.0
 51
0.0
 71
     0
 72
   100
 73
     1
 74
     3
 75
     0
 76
     0
 77
     0
 78
     0
281
     0
 65
     1
110
0.0
120
0.0
130
0.0
111
1.0
121
0.0
131
0.0
112
0.0
122
1.0
132
0.0
 79
     0
146
0.0
  0
ENDTAB
  0
TABLE
  2
LTYPE
  5
5
330
0
100
AcDbSymbolTable
 70
    46
  0
LTYPE
  5
14
330
5
100
AcDbSymbolTableRecord
100
AcDbLinetypeTableRecord
  2
ByBlock
 70
     0
  3

 72
    65
 73
     0
 40
0.0
  0
LTYPE
  5
15
330
5
100
AcDbSymbolTableRecord
100
AcDbLinetypeTableRecord
  2
ByLayer
 70
     0
  3

 72
    65
 73
     0
 40
0.0
  0
LTYPE
  5
16
330
5
100
AcDbSymbolTableRecord
100
AcDbLinetypeTableRecord
  2
Continuous
 70
     0
  3
Solid line
 72
    65
 73
     0
 40
0.0
  0
LTYPE
  5
34
330
5
100
AcDbSymbolTableRecord
100
AcDbLinetypeTableRecord
  2
ACAD_ISO02W100
 70
     0
  3
ISO dash __ __ __ __ __ __ __ __ __ __ __ __ __
 72
    65
 73
     2
 40
15.0
 49
12.0
 74
     0
 49
-3.0
 74
     0
  0
LTYPE
  5
35
330
5
100
AcDbSymbolTableRecord
100
AcDbLinetypeTableRecord
  2
ACAD_ISO03W100
 70
     0
  3
ISO dash space __    __    __    __    __    __
 72
    65
 73
     2
 40
30.0
 49
12.0
 74
     0
 49
-18.0
 74
     0
  0
LTYPE
  5
36
330
5
100
AcDbSymbolTableRecord
100
AcDbLinetypeTableRecord
  2
ACAD_ISO04W100
 70
     0
  3
ISO long-dash dot ____ . ____ . ____ . ____ . _
 72
    65
 73
     4
 40
30.0
 49
24.0
 74
     0
 49
-3.0
 74
     0
 49
0.0
 74
     0
 49
-3.0
 74
     0
  0
LTYPE
  5
37
330
5
100
AcDbSymbolTableRecord
100
AcDbLinetypeTableRecord
  2
ACAD_ISO05W100
 70
     0
  3
ISO long-dash double-dot ____ .. ____ .. ____ .
 72
    65
 73
     6
 40
34.0
 49
24.0
 74
     0
 49
-3.0
 74
     0
 49
0.5
 74
     0
 49
-3.0
 74
     0
 49
0.5
 74
     0
 49
-3.0
 74
     0
  0
LTYPE
  5
38
330
5
100
AcDbSymbolTableRecord
100
AcDbLinetypeTableRecord
  2
ACAD_ISO06W100
 70
     0
  3
ISO long-dash triple-dot ____ ... ____ ... ____
 72
    65
 73
     8
 40
37.5
 49
24.0
 74
     0
 49
-3.0
 74
     0
 49
0.5
 74
     0
 49
-3.0
 74
     0
 49
0.5
 74
     0
 49
-3.0
 74
     0
 49
0.5
 74
     0
 49
-3.0
 74
     0
  0
LTYPE
  5
39
330
5
100
AcDbSymbolTableRecord
100
AcDbLinetypeTableRecord
  2
ACAD_ISO07W100
 70
     0
  3
ISO dot . . . . . . . . . . . . . . . . . . . .
 72
    65
 73
     2
 40
3.0
 49
0.0
 74
     0
 49
-3.0
 74
     0
  0
LTYPE
  5
3A
330
5
100
AcDbSymbolTableRecord
100
AcDbLinetypeTableRecord
  2
ACAD_ISO08W100
 70
     0
  3
ISO long-dash short-dash ____ __ ____ __ ____ _
 72
    65
 73
     4
 40
36.0
 49
24.0
 74
     0
 49
-3.0
 74
     0
 49
6.0
 74
     0
 49
-3.0
 74
     0
  0
LTYPE
  5
3B
330
5
100
AcDbSymbolTableRecord
100
AcDbLinetypeTableRecord
  2
ACAD_ISO09W100
 70
     0
  3
ISO long-dash double-short-dash ____ __ __ ____
 72
    65
 73
     6
 40
45.0
 49
24.0
 74
     0
 49
-3.0
 74
     0
 49
6.0
 74
     0
 49
-3.0
 74
     0
 49
6.0
 74
     0
 49
-3.0
 74
     0
  0
LTYPE
  5
3C
330
5
100
AcDbSymbolTableRecord
100
AcDbLinetypeTableRecord
  2
ACAD_ISO10W100
 70
     0
  3
ISO dash dot __ . __ . __ . __ . __ . __ . __ .
 72
    65
 73
     4
 40
18.0
 49
12.0
 74
     0
 49
-3.0
 74
     0
 49
0.0
 74
     0
 49
-3.0
 74
     0
  0
LTYPE
  5
3D
330
5
100
AcDbSymbolTableRecord
100
AcDbLinetypeTableRecord
  2
ACAD_ISO11W100
 70
     0
  3
ISO double-dash dot __ __ . __ __ . __ __ . __ 
 72
    65
 73
     6
 40
33.0
 49
12.0
 74
     0
 49
-3.0
 74
     0
 49
12.0
 74
     0
 49
-3.0
 74
     0
 49
0.0
 74
     0
 49
-3.0
 74
     0
  0
LTYPE
  5
3E
330
5
100
AcDbSymbolTableRecord
100
AcDbLinetypeTableRecord
  2
ACAD_ISO12W100
 70
     0
  3
ISO dash double-dot __ . . __ . . __ . . __ . .
 72
    65
 73
     6
 40
21.0
 49
12.0
 74
     0
 49
-3.0
 74
     0
 49
0.0
 74
     0
 49
-3.0
 74
     0
 49
0.0
 74
     0
 49
-3.0
 74
     0
  0
LTYPE
  5
3F
330
5
100
AcDbSymbolTableRecord
100
AcDbLinetypeTableRecord
  2
ACAD_ISO13W100
 70
     0
  3
ISO double-dash double-dot __ __ . . __ __ . . 
 72
    65
 73
     8
 40
36.0
 49
12.0
 74
     0
 49
-3.0
 74
     0
 49
12.0
 74
     0
 49
-3.0
 74
     0
 49
0.0
 74
     0
 49
-3.0
 74
     0
 49
0.0
 74
     0
 49
-3.0
 74
     0
  0
LTYPE
  5
40
330
5
100
AcDbSymbolTableRecord
100
AcDbLinetypeTableRecord
  2
ACAD_ISO14W100
 70
     0
  3
ISO dash triple-dot __ . . . __ . . . __ . . . 
 72
    65
 73
     8
 40
24.0
 49
12.0
 74
     0
 49
-3.0
 74
     0
 49
0.0
 74
     0
 49
-3.0
 74
     0
 49
0.0
 74
     0
 49
-3.0
 74
     0
 49
0.0
 74
     0
 49
-3.0
 74
     0
  0
LTYPE
  5
41
330
5
100
AcDbSymbolTableRecord
100
AcDbLinetypeTableRecord
  2
ACAD_ISO15W100
 70
     0
  3
ISO double-dash triple-dot __ __ . . . __ __ . 
 72
    65
 73
    10
 40
39.0
 49
12.0
 74
     0
 49
-3.0
 74
     0
 49
12.0
 74
     0
 49
-3.0
 74
     0
 49
0.0
 74
     0
 49
-3.0
 74
     0
 49
0.0
 74
     0
 49
-3.0
 74
     0
 49
0.0
 74
     0
 49
-3.0
 74
     0
  0
LTYPE
  5
42
330
5
100
AcDbSymbolTableRecord
100
AcDbLinetypeTableRecord
  2
BATTING
 70
     0
  3
Batting SSSSSSSSSSSSSSSSSSSSSSSSSSSSSSSSSSSSSSS
 72
    65
 73
     4
 40
10.16254
 49
0.00254
 74
     0
 49
-2.54
 74
     4
 75
   134
340
33
 46
2.54
 50
0.0
 44
-2.54
 45
0.0
 49
-5.08
 74
     4
 75
   134
340
33
 46
2.54
 50
180.0
 44
2.54
 45
0.0
 49
-2.54
 74
     0
  0
LTYPE
  5
43
330
5
100
AcDbSymbolTableRecord
100
AcDbLinetypeTableRecord
  2
BORDER
 70
     0
  3
Border __ __ . __ __ . __ __ . __ __ . __ __ .
 72
    65
 73
     6
 40
44.45
 49
12.7
 74
     0
 49
-6.349999999999999
 74
     0
 49
12.7
 74
     0
 49
-6.349999999999999
 74
     0
 49
0.0
 74
     0
 49
-6.349999999999999
 74
     0
  0
LTYPE
  5
44
330
5
100
AcDbSymbolTableRecord
100
AcDbLinetypeTableRecord
  2
BORDER2
 70
     0
  3
Border (.5x) __.__.__.__.__.__.__.__.__.__.__.
 72
    65
 73
     6
 40
22.225
 49
6.349999999999999
 74
     0
 49
-3.174999999999999
 74
     0
 49
6.349999999999999
 74
     0
 49
-3.174999999999999
 74
     0
 49
0.0
 74
     0
 49
-3.174999999999999
 74
     0
  0
LTYPE
  5
45
330
5
100
AcDbSymbolTableRecord
100
AcDbLinetypeTableRecord
  2
BORDERX2
 70
     0
  3
Border (2x) ____  ____  .  ____  ____  .  ___
 72
    65
 73
     6
 40
88.9
 49
25.4
 74
     0
 49
-12.7
 74
     0
 49
25.4
 74
     0
 49
-12.7
 74
     0
 49
0.0
 74
     0
 49
-12.7
 74
     0
  0
LTYPE
  5
46
330
5
100
AcDbSymbolTableRecord
100
AcDbLinetypeTableRecord
  2
CENTER
 70
     0
  3
Center ____ _ ____ _ ____ _ ____ _ ____ _ ____
 72
    65
 73
     4
 40
50.8
 49
31.75
 74
     0
 49
-6.349999999999999
 74
     0
 49
6.349999999999999
 74
     0
 49
-6.349999999999999
 74
     0
  0
LTYPE
  5
47
330
5
100
AcDbSymbolTableRecord
100
AcDbLinetypeTableRecord
  2
CENTER2
 70
     0
  3
Center (.5x) ___ _ ___ _ ___ _ ___ _ ___ _ ___
 72
    65
 73
     4
 40
28.575
 49
19.05
 74
     0
 49
-3.174999999999999
 74
     0
 49
3.174999999999999
 74
     0
 49
-3.174999999999999
 74
     0
  0
LTYPE
  5
48
330
5
100
AcDbSymbolTableRecord
100
AcDbLinetypeTableRecord
  2
CENTERX2
 70
     0
  3
Center (2x) ________  __  ________  __  _____
 72
    65
 73
     4
 40
101.6
 49
63.5
 74
     0
 49
-12.7
 74
     0
 49
12.7
 74
     0
 49
-12.7
 74
     0
  0
LTYPE
  5
49
330
5
100
AcDbSymbolTableRecord
100
AcDbLinetypeTableRecord
  2
DASHDOT
 70
     0
  3
Dash dot __ . __ . __ . __ . __ . __ . __ . __
 72
    65
 73
     4
 40
25.4
 49
12.7
 74
     0
 49
-6.349999999999999
 74
     0
 49
0.0
 74
     0
 49
-6.349999999999999
 74
     0
  0
LTYPE
  5
4A
330
5
100
AcDbSymbolTableRecord
100
AcDbLinetypeTableRecord
  2
DASHDOT2
 70
     0
  3
Dash dot (.5x) _._._._._._._._._._._._._._._.
 72
    65
 73
     4
 40
12.7
 49
6.349999999999999
 74
     0
 49
-3.174999999999999
 74
     0
 49
0.0
 74
     0
 49
-3.174999999999999
 74
     0
  0
LTYPE
  5
4B
330
5
100
AcDbSymbolTableRecord
100
AcDbLinetypeTableRecord
  2
DASHDOTX2
 70
     0
  3
Dash dot (2x) ____  .  ____  .  ____  .  ___
 72
    65
 73
     4
 40
50.8
 49
25.4
 74
     0
 49
-12.7
 74
     0
 49
0.0
 74
     0
 49
-12.7
 74
     0
  0
LTYPE
  5
4C
330
5
100
AcDbSymbolTableRecord
100
AcDbLinetypeTableRecord
  2
DASHED
 70
     0
  3
Dashed __ __ __ __ __ __ __ __ __ __ __ __ __ _
 72
    65
 73
     2
 40
19.05
 49
12.7
 74
     0
 49
-6.349999999999999
 74
     0
  0
LTYPE
  5
4D
330
5
100
AcDbSymbolTableRecord
100
AcDbLinetypeTableRecord
  2
DASHED2
 70
     0
  3
Dashed (.5x) _ _ _ _ _ _ _ _ _ _ _ _ _ _ _ _ _
 72
    65
 73
     2
 40
9.524999999999998
 49
6.349999999999999
 74
     0
 49
-3.174999999999999
 74
     0
  0
LTYPE
  5
4E
330
5
100
AcDbSymbolTableRecord
100
AcDbLinetypeTableRecord
  2
DASHEDX2
 70
     0
  3
Dashed (2x) ____  ____  ____  ____  ____  ___
 72
    65
 73
     2
 40
38.1
 49
25.4
 74
     0
 49
-12.7
 74
     0
  0
LTYPE
  5
4F
330
5
100
AcDbSymbolTableRecord
100
AcDbLinetypeTableRecord
  2
DIVIDE
 70
     0
  3
Divide ____ . . ____ . . ____ . . ____ . . ____
 72
    65
 73
     6
 40
31.75
 49
12.7
 74
     0
 49
-6.349999999999999
 74
     0
 49
0.0
 74
     0
 49
-6.349999999999999
 74
     0
 49
0.0
 74
     0
 49
-6.349999999999999
 74
     0
  0
LTYPE
  5
50
330
5
100
AcDbSymbolTableRecord
100
AcDbLinetypeTableRecord
  2
DIVIDE2
 70
     0
  3
Divide (.5x) __..__..__..__..__..__..__..__.._
 72
    65
 73
     6
 40
15.875
 49
6.349999999999999
 74
     0
 49
-3.174999999999999
 74
     0
 49
0.0
 74
     0
 49
-3.174999999999999
 74
     0
 49
0.0
 74
     0
 49
-3.174999999999999
 74
     0
  0
LTYPE
  5
51
330
5
100
AcDbSymbolTableRecord
100
AcDbLinetypeTableRecord
  2
DIVIDEX2
 70
     0
  3
Divide (2x) ________  .  .  ________  .  .  _
 72
    65
 73
     6
 40
63.49999999999999
 49
25.4
 74
     0
 49
-12.7
 74
     0
 49
0.0
 74
     0
 49
-12.7
 74
     0
 49
0.0
 74
     0
 49
-12.7
 74
     0
  0
LTYPE
  5
52
330
5
100
AcDbSymbolTableRecord
100
AcDbLinetypeTableRecord
  2
DOT
 70
     0
  3
Dot . . . . . . . . . . . . . . . . . . . . . .
 72
    65
 73
     2
 40
6.349999999999999
 49
0.0
 74
     0
 49
-6.349999999999999
 74
     0
  0
LTYPE
  5
53
330
5
100
AcDbSymbolTableRecord
100
AcDbLinetypeTableRecord
  2
DOT2
 70
     0
  3
Dot (.5x) .....................................
 72
    65
 73
     2
 40
3.174999999999999
 49
0.0
 74
     0
 49
-3.174999999999999
 74
     0
  0
LTYPE
  5
54
330
5
100
AcDbSymbolTableRecord
100
AcDbLinetypeTableRecord
  2
DOTX2
 70
     0
  3
Dot (2x) .  .  .  .  .  .  .  .  .  .  .  .  . 
 72
    65
 73
     2
 40
12.7
 49
0.0
 74
     0
 49
-12.7
 74
     0
  0
LTYPE
  5
55
330
5
100
AcDbSymbolTableRecord
100
AcDbLinetypeTableRecord
  2
FENCELINE1
 70
     0
  3
Fenceline circle ----0-----0----0-----0----0---
 72
    65
 73
     4
 40
36.83
 49
6.349999999999999
 74
     0
 49
-2.54
 74
     4
 75
   133
340
33
 46
2.54
 50
0.0
 44
-2.54
 45
0.0
 49
-2.54
 74
     0
 49
25.4
 74
     0
  0
LTYPE
  5
56
330
5
100
AcDbSymbolTableRecord
100
AcDbLinetypeTableRecord
  2
FENCELINE2
 70
     0
  3
Fenceline square ----[]-----[]----[]-----[]----
 72
    65
 73
     4
 40
36.83
 49
6.349999999999999
 74
     0
 49
-2.54
 74
     4
 75
   132
340
33
 46
2.54
 50
0.0
 44
-2.54
 45
0.0
 49
-2.54
 74
     0
 49
25.4
 74
     0
  0
LTYPE
  5
57
330
5
100
AcDbSymbolTableRecord
100
AcDbLinetypeTableRecord
  2
GAS_LINE
 70
     0
  3
Gas line ----GAS----GAS----GAS----GAS----GAS---
 72
    65
 73
     3
 40
24.13
 49
12.7
 74
     0
 49
-5.08
 74
     2
 75
     0
340
11
 46
2.54
 50
0.0
 44
-2.54
 45
-1.27
  9
GAS
 49
-6.349999999999999
 74
     0
  0
LTYPE
  5
58
330
5
100
AcDbSymbolTableRecord
100
AcDbLinetypeTableRecord
  2
HIDDEN
 70
     0
  3
Hidden __ __ __ __ __ __ __ __ __ __ __ __ __ _
 72
    65
 73
     2
 40
9.524999999999998
 49
6.349999999999999
 74
     0
 49
-3.174999999999999
 74
     0
  0
LTYPE
  5
59
330
5
100
AcDbSymbolTableRecord
100
AcDbLinetypeTableRecord
  2
HIDDEN2
 70
     0
  3
Hidden (.5x) _ _ _ _ _ _ _ _ _ _ _ _ _ _ _ _ _
 72
    65
 73
     2
 40
4.762499999999999
 49
3.174999999999999
 74
     0
 49
-1.587499999999999
 74
     0
  0
LTYPE
  5
5A
330
5
100
AcDbSymbolTableRecord
100
AcDbLinetypeTableRecord
  2
HIDDENX2
 70
     0
  3
Hidden (2x) ____ ____ ____ ____ ____ ____ ____
 72
    65
 73
     2
 40
19.05
 49
12.7
 74
     0
 49
-6.349999999999999
 74
     0
  0
LTYPE
  5
5B
330
5
100
AcDbSymbolTableRecord
100
AcDbLinetypeTableRecord
  2
HOT_WATER_SUPPLY
 70
     0
  3
Hot water supply ---- HW ---- HW ---- HW ----
 72
    65
 73
     3
 40
22.86
 49
12.7
 74
     0
 49
-5.08
 74
     2
 75
     0
340
11
 46
2.54
 50
0.0
 44
-2.54
 45
-1.27
  9
HW
 49
-5.08
 74
     0
  0
LTYPE
  5
5C
330
5
100
AcDbSymbolTableRecord
100
AcDbLinetypeTableRecord
  2
PHANTOM
 70
     0
  3
Phantom ______  __  __  ______  __  __  ______
 72
    65
 73
     6
 40
63.5
 49
31.75
 74
     0
 49
-6.349999999999999
 74
     0
 49
6.349999999999999
 74
     0
 49
-6.349999999999999
 74
     0
 49
6.349999999999999
 74
     0
 49
-6.349999999999999
 74
     0
  0
LTYPE
  5
5D
330
5
100
AcDbSymbolTableRecord
100
AcDbLinetypeTableRecord
  2
PHANTOM2
 70
     0
  3
Phantom (.5x) ___ _ _ ___ _ _ ___ _ _ ___ _ _
 72
    65
 73
     6
 40
31.75
 49
15.875
 74
     0
 49
-3.174999999999999
 74
     0
 49
3.174999999999999
 74
     0
 49
-3.174999999999999
 74
     0
 49
3.174999999999999
 74
     0
 49
-3.174999999999999
 74
     0
  0
LTYPE
  5
5E
330
5
100
AcDbSymbolTableRecord
100
AcDbLinetypeTableRecord
  2
PHANTOMX2
 70
     0
  3
Phantom (2x) ____________    ____    ____   _
 72
    65
 73
     6
 40
127.0
 49
63.5
 74
     0
 49
-12.7
 74
     0
 49
12.7
 74
     0
 49
-12.7
 74
     0
 49
12.7
 74
     0
 49
-12.7
 74
     0
  0
LTYPE
  5
5F
330
5
100
AcDbSymbolTableRecord
100
AcDbLinetypeTableRecord
  2
TRACKS
 70
     0
  3
Tracks -|-|-|-|-|-|-|-|-|-|-|-|-|-|-|-|-|-|-|-|
 72
    65
 73
     2
 40
7.62
 49
3.81
 74
     4
 75
   130
340
33
 46
6.349999999999999
 50
0.0
 44
0.0
 45
0.0
 49
3.81
 74
     0
  0
LTYPE
  5
60
330
5
100
AcDbSymbolTableRecord
100
AcDbLinetypeTableRecord
  2
ZIGZAG
 70
     0
  3
Zig zag /\/\/\/\/\/\/\/\/\/\/\/\/\/\/\/\/\/\/\/
 72
    65
 73
     4
 40
20.32254
 49
0.00254
 74
     0
 49
-5.08
 74
     4
 75
   131
340
33
 46
5.08
 50
0.0
 44
-5.08
 45
0.0
 49
-10.16
 74
     4
 75
   131
340
33
 46
5.08
 50
180.0
 44
5.08
 45
0.0
 49
-5.08
 74
     0
  0
ENDTAB
  0
TABLE
  2
LAYER
  5
2
102
{ACAD_XDICTIONARY
360
DE1
102
}
330
0
100
AcDbSymbolTable
 70
     7
  0
LAYER
  5
10
330
2
100
AcDbSymbolTableRecord
100
AcDbLayerTableRecord
  2
0
 70
     0
 62
     7
  6
Continuous
370
    -3
390
F
  0
LAYER
  5
C3
330
2
100
AcDbSymbolTableRecord
100
AcDbLayerTableRecord
  2
Defpoints
 70
     0
 62
     7
  6
Continuous
290
     0
370
    -3
390
F
  0
LAYER
  5
256
330
2
100
AcDbSymbolTableRecord
100
AcDbLayerTableRecord
  2
Cen
 70
     0
 62
     7
  6
CENTER2
370
    15
390
F
  0
LAYER
  5
5DF
330
2
100
AcDbSymbolTableRecord
100
AcDbLayerTableRecord
  2
実形
 70
     0
 62
     7
  6
Continuous
370
    -3
390
F
  0
LAYER
  5
60C
330
2
100
AcDbSymbolTableRecord
100
AcDbLayerTableRecord
  2
補助
 70
     0
 62
     7
  6
Continuous
370
    -3
390
F
  0
LAYER
  5
619
330
2
100
AcDbSymbolTableRecord
100
AcDbLayerTableRecord
  2
センター
 70
     0
 62
     7
  6
CENTER2
370
    18
390
F
  0
LAYER
  5
61A
330
2
100
AcDbSymbolTableRecord
100
AcDbLayerTableRecord
  2
寸法
 70
     0
 62
     7
  6
Continuous
370
    18
390
F
  0
ENDTAB
  0
TABLE
  2
STYLE
  5
3
330
0
100
AcDbSymbolTable
 70
     4
  0
STYLE
  5
11
330
3
100
AcDbSymbolTableRecord
100
AcDbTextStyleTableRecord
  2
Standard
 70
     0
 40
0.0
 41
1.0
 50
0.0
 71
     0
 42
25.0
  3
txt.shx
  4
bigfont.shx
  0
STYLE
  5
33
330
3
100
AcDbSymbolTableRecord
100
AcDbTextStyleTableRecord
  2

 70
     1
 40
0.0
 41
1.0
 50
0.0
 71
     0
 42
2.5
  3
ltypeshp.shx
  4

  0
STYLE
  5
EEA
330
3
100
AcDbSymbolTableRecord
100
AcDbTextStyleTableRecord
  2
ms明朝
 70
     0
 40
0.0
 41
1.0
 50
0.0
 71
     0
 42
25.0
  3
MS Mincho.ttf
  4

1001
ACAD
1000
MS Mincho
1071
    32785
  0
STYLE
  5
1CE3
330
3
100
AcDbSymbolTableRecord
100
AcDbTextStyleTableRecord
  2
明朝
 70
     0
 40
0.0
 41
1.0
 50
0.0
 71
     0
 42
25.0
  3
MS Mincho.ttf
  4

1001
ACAD
1000
MS Mincho
1071
    32785
  0
ENDTAB
  0
TABLE
  2
VIEW
  5
6
330
0
100
AcDbSymbolTable
 70
     0
  0
ENDTAB
  0
TABLE
  2
UCS
  5
7
330
0
100
AcDbSymbolTable
 70
     0
  0
ENDTAB
  0
TABLE
  2
APPID
  5
9
330
0
100
AcDbSymbolTable
 70
     2
  0
APPID
  5
12
330
9
100
AcDbSymbolTableRecord
100
AcDbRegAppTableRecord
  2
ACAD
 70
     0
  0
APPID
  5
DE0
330
9
100
AcDbSymbolTableRecord
100
AcDbRegAppTableRecord
  2
ACAD_PSEXT
 70
     0
  0
ENDTAB
  0
TABLE
  2
DIMSTYLE
  5
A
330
0
100
AcDbSymbolTable
 70
     1
100
AcDbDimStyleTable
 71
     1
340
27
  0
DIMSTYLE
105
27
102
{ACAD_REACTORS
330
473
330
480
330
586
330
304
330
28B
330
2B3
330
270
330
376
330
2E9
330
298
330
2DC
330
2A6
330
27E
330
384
330
31C
330
2F7
330
3BF
330
3B2
330
E79
330
110C
330
1119
330
11CE
330
11DB
330
162D
330
1AAA
330
1AAB
330
1AB0
330
1AB1
330
1AB2
330
1AB3
330
1E56
330
1E5F
330
1E61
330
1E62
330
1E65
330
1E66
330
1E67
330
1E68
330
1E6A
330
1E6B
330
1E6C
330
1E6D
330
1E6E
330
1E6F
330
1E75
330
1E76
330
1E77
330
1E7F
330
1E80
330
1E81
330
207E
330
207F
330
2080
330
2081
330
2082
330
2222
330
222C
330
222D
330
222E
330
222F
330
2230
330
2231
330
2232
330
2233
330
2234
330
23A2
102
}
330
A
100
AcDbSymbolTableRecord
100
AcDbDimStyleTableRecord
  2
ISO-25
 70
     0
 41
30.0
 42
65.0
 43
3.75
 44
0.0
 73
     0
 74
     0
 77
     1
 78
     8
140
25.0
141
2.5
143
0.03937007874016
147
6.25
171
     3
172
     1
271
     2
272
     2
274
     3
283
     0
284
     8
340
11
341
DA
342
D0
371
    15
372
    15
  0
ENDTAB
  0
TABLE
  2
BLOCK_RECORD
  5
1
330
0
100
AcDbSymbolTable
 70
    79
  0
BLOCK_RECORD
  5
1F
102
{ACAD_XDICTIONARY
360
C47
102
}
330
1
100
AcDbSymbolTableRecord
100
AcDbBlockTableRecord
  2
*Model_Space
340
22
  0
BLOCK_RECORD
  5
1B
330
1
100
AcDbSymbolTableRecord
100
AcDbBlockTableRecord
  2
*Paper_Space
340
1E
  0
BLOCK_RECORD
  5
23
330
1
100
AcDbSymbolTableRecord
100
AcDbBlockTableRecord
  2
*Paper_Space0
340
26
  0
BLOCK_RECORD
  5
D0
330
1
100
AcDbSymbolTableRecord
100
AcDbBlockTableRecord
  2
_DotSmall
340
0
102
{BLKREFS
331
1073
331
1074
331
107E
331
107F
331
108C
331
1B54
331
1B55
331
1B5D
331
1B5E
331
1B66
331
1B67
331
1B70
331
1B71
331
1B79
331
1B7A
331
1B83
331
1B84
331
1B8B
331
1B8C
331
1B95
331
1B96
331
1B9E
331
1B9F
331
1BA8
331
1BA9
331
1BB0
331
1BB1
331
1BB9
331
1BBA
331
1BC2
331
1BC3
331
1BCB
331
1BCC
331
1BD4
331
1BD5
331
1BDD
331
1BDE
331
1BF0
331
1BF1
331
1C01
331
1C02
331
1C0B
331
1C0C
331
1C14
331
1C15
331
1C1D
331
1C1E
331
1C23
331
1C24
331
1C5B
331
1C5C
331
1C64
331
1C65
331
1C6E
331
1C6F
331
1C77
331
1C78
331
1C80
331
1C81
331
1C89
331
1C8A
331
1F7B
331
1F7C
331
1F85
331
1F86
331
1F8D
331
1F8E
331
1F97
331
1F98
331
1F9F
331
1FA0
331
1FA8
331
1FA9
331
1FB1
331
1FB2
331
1FBB
331
1FBC
331
1FC3
331
1FC4
331
1FCC
331
1FCD
331
1FD5
331
1FD6
331
1FDE
331
1FDF
331
1FE7
331
1FE8
331
1FF0
331
1FF1
331
1FF9
331
1FFA
331
2002
331
2003
331
200B
331
200C
331
2014
331
2015
331
201D
331
201E
331
20FB
331
20FC
331
2106
331
2107
331
210E
331
210F
331
2117
331
2118
331
2126
331
2127
331
2131
331
2132
331
2139
331
213A
331
232D
331
232E
331
2335
331
2336
331
2344
331
2345
331
234F
331
2350
331
2357
331
2358
331
2361
331
2362
331
2369
331
236A
331
2372
331
2373
331
2381
331
2382
331
238A
331
238B
331
23B3
331
23B4
102
}
  0
BLOCK_RECORD
  5
D4
330
1
100
AcDbSymbolTableRecord
100
AcDbBlockTableRecord
  2
_Origin2
340
0
  0
BLOCK_RECORD
  5
DA
330
1
100
AcDbSymbolTableRecord
100
AcDbBlockTableRecord
  2
_Open30
340
0
  0
BLOCK_RECORD
  5
271
330
1
100
AcDbSymbolTableRecord
100
AcDbBlockTableRecord
  2
*D4
340
0
  0
BLOCK_RECORD
  5
27F
330
1
100
AcDbSymbolTableRecord
100
AcDbBlockTableRecord
  2
*D5
340
0
  0
BLOCK_RECORD
  5
28C
330
1
100
AcDbSymbolTableRecord
100
AcDbBlockTableRecord
  2
*D6
340
0
  0
BLOCK_RECORD
  5
299
330
1
100
AcDbSymbolTableRecord
100
AcDbBlockTableRecord
  2
*D7
340
0
  0
BLOCK_RECORD
  5
2A7
330
1
100
AcDbSymbolTableRecord
100
AcDbBlockTableRecord
  2
*D8
340
0
  0
BLOCK_RECORD
  5
2B4
330
1
100
AcDbSymbolTableRecord
100
AcDbBlockTableRecord
  2
*D9
340
0
  0
BLOCK_RECORD
  5
2DD
330
1
100
AcDbSymbolTableRecord
100
AcDbBlockTableRecord
  2
*D10
340
0
  0
BLOCK_RECORD
  5
2EA
330
1
100
AcDbSymbolTableRecord
100
AcDbBlockTableRecord
  2
*D11
340
0
  0
BLOCK_RECORD
  5
2F8
330
1
100
AcDbSymbolTableRecord
100
AcDbBlockTableRecord
  2
*D12
340
0
  0
BLOCK_RECORD
  5
305
330
1
100
AcDbSymbolTableRecord
100
AcDbBlockTableRecord
  2
*D13
340
0
  0
BLOCK_RECORD
  5
31D
330
1
100
AcDbSymbolTableRecord
100
AcDbBlockTableRecord
  2
*D14
340
0
  0
BLOCK_RECORD
  5
377
330
1
100
AcDbSymbolTableRecord
100
AcDbBlockTableRecord
  2
*D15
340
0
  0
BLOCK_RECORD
  5
385
330
1
100
AcDbSymbolTableRecord
100
AcDbBlockTableRecord
  2
*D16
340
0
  0
BLOCK_RECORD
  5
3B3
330
1
100
AcDbSymbolTableRecord
100
AcDbBlockTableRecord
  2
*D17
340
0
  0
BLOCK_RECORD
  5
3C0
330
1
100
AcDbSymbolTableRecord
100
AcDbBlockTableRecord
  2
*D18
340
0
  0
BLOCK_RECORD
  5
474
330
1
100
AcDbSymbolTableRecord
100
AcDbBlockTableRecord
  2
*D19
340
0
  0
BLOCK_RECORD
  5
481
330
1
100
AcDbSymbolTableRecord
100
AcDbBlockTableRecord
  2
*D20
340
0
  0
BLOCK_RECORD
  5
587
330
1
100
AcDbSymbolTableRecord
100
AcDbBlockTableRecord
  2
*D21
340
0
  0
BLOCK_RECORD
  5
DE3
102
{ACAD_XDICTIONARY
360
DE5
102
}
330
1
100
AcDbSymbolTableRecord
100
AcDbBlockTableRecord
  2
A$C0655774D
340
0
  0
BLOCK_RECORD
  5
DE9
330
1
100
AcDbSymbolTableRecord
100
AcDbBlockTableRecord
  2
_Dot
340
0
  0
BLOCK_RECORD
  5
E7A
330
1
100
AcDbSymbolTableRecord
100
AcDbBlockTableRecord
  2
*D24
340
0
  0
BLOCK_RECORD
  5
106D
330
1
100
AcDbSymbolTableRecord
100
AcDbBlockTableRecord
  2
*D25
340
0
  0
BLOCK_RECORD
  5
1079
330
1
100
AcDbSymbolTableRecord
100
AcDbBlockTableRecord
  2
*D26
340
0
  0
BLOCK_RECORD
  5
1085
330
1
100
AcDbSymbolTableRecord
100
AcDbBlockTableRecord
  2
*D27
340
0
  0
BLOCK_RECORD
  5
1091
102
{ACAD_XDICTIONARY
360
10AA
102
}
330
1
100
AcDbSymbolTableRecord
100
AcDbBlockTableRecord
  2
A$C47360BBC
340
0
  0
BLOCK_RECORD
  5
110D
330
1
100
AcDbSymbolTableRecord
100
AcDbBlockTableRecord
  2
*D29
340
0
  0
BLOCK_RECORD
  5
111A
330
1
100
AcDbSymbolTableRecord
100
AcDbBlockTableRecord
  2
*D30
340
0
  0
BLOCK_RECORD
  5
11CF
330
1
100
AcDbSymbolTableRecord
100
AcDbBlockTableRecord
  2
*D31
340
0
  0
BLOCK_RECORD
  5
11DC
330
1
100
AcDbSymbolTableRecord
100
AcDbBlockTableRecord
  2
*D32
340
0
  0
BLOCK_RECORD
  5
12A6
330
1
100
AcDbSymbolTableRecord
100
AcDbBlockTableRecord
  2
A$C12C95FB9
340
0
  0
BLOCK_RECORD
  5
15C1
330
1
100
AcDbSymbolTableRecord
100
AcDbBlockTableRecord
  2
_Open90
340
0
  0
BLOCK_RECORD
  5
15EF
330
1
100
AcDbSymbolTableRecord
100
AcDbBlockTableRecord
  2
_Closed
340
0
  0
BLOCK_RECORD
  5
162E
330
1
100
AcDbSymbolTableRecord
100
AcDbBlockTableRecord
  2
*D36
340
0
  0
BLOCK_RECORD
  5
1AB8
330
1
100
AcDbSymbolTableRecord
100
AcDbBlockTableRecord
  2
*D37
340
0
  0
BLOCK_RECORD
  5
1AC4
330
1
100
AcDbSymbolTableRecord
100
AcDbBlockTableRecord
  2
*D38
340
0
  0
BLOCK_RECORD
  5
1AD0
330
1
100
AcDbSymbolTableRecord
100
AcDbBlockTableRecord
  2
*D39
340
0
  0
BLOCK_RECORD
  5
1ADC
330
1
100
AcDbSymbolTableRecord
100
AcDbBlockTableRecord
  2
*D40
340
0
  0
BLOCK_RECORD
  5
1AE8
330
1
100
AcDbSymbolTableRecord
100
AcDbBlockTableRecord
  2
*D41
340
0
  0
BLOCK_RECORD
  5
1AF4
330
1
100
AcDbSymbolTableRecord
100
AcDbBlockTableRecord
  2
*D42
340
0
  0
BLOCK_RECORD
  5
1E85
330
1
100
AcDbSymbolTableRecord
100
AcDbBlockTableRecord
  2
*D43
340
0
  0
BLOCK_RECORD
  5
1E8E
330
1
100
AcDbSymbolTableRecord
100
AcDbBlockTableRecord
  2
*D44
340
0
  0
BLOCK_RECORD
  5
1E9A
330
1
100
AcDbSymbolTableRecord
100
AcDbBlockTableRecord
  2
*D45
340
0
  0
BLOCK_RECORD
  5
1EA6
330
1
100
AcDbSymbolTableRecord
100
AcDbBlockTableRecord
  2
*D46
340
0
  0
BLOCK_RECORD
  5
1EB2
330
1
100
AcDbSymbolTableRecord
100
AcDbBlockTableRecord
  2
*D47
340
0
  0
BLOCK_RECORD
  5
1EBE
330
1
100
AcDbSymbolTableRecord
100
AcDbBlockTableRecord
  2
*D48
340
0
  0
BLOCK_RECORD
  5
1ECA
330
1
100
AcDbSymbolTableRecord
100
AcDbBlockTableRecord
  2
*D49
340
0
  0
BLOCK_RECORD
  5
1ED6
330
1
100
AcDbSymbolTableRecord
100
AcDbBlockTableRecord
  2
*D50
340
0
  0
BLOCK_RECORD
  5
1EE2
330
1
100
AcDbSymbolTableRecord
100
AcDbBlockTableRecord
  2
*D51
340
0
  0
BLOCK_RECORD
  5
1EEE
330
1
100
AcDbSymbolTableRecord
100
AcDbBlockTableRecord
  2
*D52
340
0
  0
BLOCK_RECORD
  5
1EFA
330
1
100
AcDbSymbolTableRecord
100
AcDbBlockTableRecord
  2
*D53
340
0
  0
BLOCK_RECORD
  5
1F06
330
1
100
AcDbSymbolTableRecord
100
AcDbBlockTableRecord
  2
*D54
340
0
  0
BLOCK_RECORD
  5
1F12
330
1
100
AcDbSymbolTableRecord
100
AcDbBlockTableRecord
  2
*D55
340
0
  0
BLOCK_RECORD
  5
1F1E
330
1
100
AcDbSymbolTableRecord
100
AcDbBlockTableRecord
  2
*D56
340
0
  0
BLOCK_RECORD
  5
1F2A
330
1
100
AcDbSymbolTableRecord
100
AcDbBlockTableRecord
  2
*D57
340
0
  0
BLOCK_RECORD
  5
1F36
330
1
100
AcDbSymbolTableRecord
100
AcDbBlockTableRecord
  2
*D58
340
0
  0
BLOCK_RECORD
  5
1F42
330
1
100
AcDbSymbolTableRecord
100
AcDbBlockTableRecord
  2
*D59
340
0
  0
BLOCK_RECORD
  5
1F4E
330
1
100
AcDbSymbolTableRecord
100
AcDbBlockTableRecord
  2
*D60
340
0
  0
BLOCK_RECORD
  5
1F5A
330
1
100
AcDbSymbolTableRecord
100
AcDbBlockTableRecord
  2
*D61
340
0
  0
BLOCK_RECORD
  5
1F66
330
1
100
AcDbSymbolTableRecord
100
AcDbBlockTableRecord
  2
*D62
340
0
  0
BLOCK_RECORD
  5
2085
330
1
100
AcDbSymbolTableRecord
100
AcDbBlockTableRecord
  2
*D63
340
0
  0
BLOCK_RECORD
  5
2093
330
1
100
AcDbSymbolTableRecord
100
AcDbBlockTableRecord
  2
*D64
340
0
  0
BLOCK_RECORD
  5
20A4
330
1
100
AcDbSymbolTableRecord
100
AcDbBlockTableRecord
  2
*D65
340
0
  0
BLOCK_RECORD
  5
20B0
330
1
100
AcDbSymbolTableRecord
100
AcDbBlockTableRecord
  2
*D66
340
0
  0
BLOCK_RECORD
  5
20BC
330
1
100
AcDbSymbolTableRecord
100
AcDbBlockTableRecord
  2
*D67
340
0
  0
BLOCK_RECORD
  5
2239
330
1
100
AcDbSymbolTableRecord
100
AcDbBlockTableRecord
  2
*D68
340
0
  0
BLOCK_RECORD
  5
2245
330
1
100
AcDbSymbolTableRecord
100
AcDbBlockTableRecord
  2
*D69
340
0
  0
BLOCK_RECORD
  5
2251
330
1
100
AcDbSymbolTableRecord
100
AcDbBlockTableRecord
  2
*D70
340
0
  0
BLOCK_RECORD
  5
2262
330
1
100
AcDbSymbolTableRecord
100
AcDbBlockTableRecord
  2
*D71
340
0
  0
BLOCK_RECORD
  5
226E
330
1
100
AcDbSymbolTableRecord
100
AcDbBlockTableRecord
  2
*D72
340
0
  0
BLOCK_RECORD
  5
227A
330
1
100
AcDbSymbolTableRecord
100
AcDbBlockTableRecord
  2
*D73
340
0
  0
BLOCK_RECORD
  5
2288
330
1
100
AcDbSymbolTableRecord
100
AcDbBlockTableRecord
  2
*D74
340
0
  0
BLOCK_RECORD
  5
2299
330
1
100
AcDbSymbolTableRecord
100
AcDbBlockTableRecord
  2
*D75
340
0
  0
BLOCK_RECORD
  5
22A5
330
1
100
AcDbSymbolTableRecord
100
AcDbBlockTableRecord
  2
*D76
340
0
  0
BLOCK_RECORD
  5
22B1
330
1
100
AcDbSymbolTableRecord
100
AcDbBlockTableRecord
  2
*D77
340
0
  0
BLOCK_RECORD
  5
23A3
330
1
100
AcDbSymbolTableRecord
100
AcDbBlockTableRecord
  2
*D78
340
0
  0
ENDTAB
  0
ENDSEC
  0
SECTION
  2
BLOCKS
  0
BLOCK
  5
20
330
1F
100
AcDbEntity
  8
0
100
AcDbBlockBegin
  2
*Model_Space
 70
     0
 10
0.0
 20
0.0
 30
0.0
  3
*Model_Space
  1

  0
ENDBLK
  5
21
330
1F
100
AcDbEntity
  8
0
100
AcDbBlockEnd
  0
BLOCK
  5
1C
330
1B
100
AcDbEntity
 67
     1
  8
0
100
AcDbBlockBegin
  2
*Paper_Space
 70
     0
 10
0.0
 20
0.0
 30
0.0
  3
*Paper_Space
  1

  0
ENDBLK
  5
1D
330
1B
100
AcDbEntity
 67
     1
  8
0
100
AcDbBlockEnd
  0
BLOCK
  5
24
330
23
100
AcDbEntity
  8
0
100
AcDbBlockBegin
  2
*Paper_Space0
 70
     0
 10
0.0
 20
0.0
 30
0.0
  3
*Paper_Space0
  1

  0
ENDBLK
  5
25
330
23
100
AcDbEntity
  8
0
100
AcDbBlockEnd
  0
BLOCK
  5
D2
330
D0
100
AcDbEntity
  8
0
100
AcDbBlockBegin
  2
_DotSmall
 70
     0
 10
0.0
 20
0.0
 30
0.0
  3
_DotSmall
  1

  0
LWPOLYLINE
  5
D1
330
D0
100
AcDbEntity
  8
0
 62
     0
100
AcDbPolyline
 90
        2
 70
     1
 43
0.5
 10
-0.0625
 20
0.0
 42
1.0
 10
0.0625
 20
0.0
 42
1.0
  0
ENDBLK
  5
D3
330
D0
100
AcDbEntity
  8
0
100
AcDbBlockEnd
  0
BLOCK
  5
D8
330
D4
100
AcDbEntity
  8
0
100
AcDbBlockBegin
  2
_Origin2
 70
     0
 10
0.0
 20
0.0
 30
0.0
  3
_Origin2
  1

  0
CIRCLE
  5
D5
330
D4
100
AcDbEntity
  8
0
 62
     0
370
    -2
100
AcDbCircle
 10
0.0
 20
0.0
 30
0.0
 40
0.5
  0
CIRCLE
  5
D6
330
D4
100
AcDbEntity
  8
0
 62
     0
370
    -2
100
AcDbCircle
 10
0.0
 20
0.0
 30
0.0
 40
0.25
  0
LINE
  5
D7
330
D4
100
AcDbEntity
  8
0
 62
     0
370
    -2
100
AcDbLine
 10
-0.5
 20
0.0
 30
0.0
 11
-1.0
 21
0.0
 31
0.0
  0
ENDBLK
  5
D9
330
D4
100
AcDbEntity
  8
0
100
AcDbBlockEnd
  0
BLOCK
  5
DE
330
DA
100
AcDbEntity
  8
0
100
AcDbBlockBegin
  2
_Open30
 70
     0
 10
0.0
 20
0.0
 30
0.0
  3
_Open30
  1

  0
LINE
  5
DB
330
DA
100
AcDbEntity
  8
0
 62
     0
370
    -2
100
AcDbLine
 10
-1.0
 20
0.26794919
 30
0.0
 11
0.0
 21
0.0
 31
0.0
  0
LINE
  5
DC
330
DA
100
AcDbEntity
  8
0
 62
     0
370
    -2
100
AcDbLine
 10
0.0
 20
0.0
 30
0.0
 11
-1.0
 21
-0.26794919
 31
0.0
  0
LINE
  5
DD
330
DA
100
AcDbEntity
  8
0
 62
     0
370
    -2
100
AcDbLine
 10
0.0
 20
0.0
 30
0.0
 11
-1.0
 21
0.0
 31
0.0
  0
ENDBLK
  5
DF
330
DA
100
AcDbEntity
  8
0
100
AcDbBlockEnd
  0
BLOCK
  5
27C
330
271
100
AcDbEntity
  8
0
100
AcDbBlockBegin
  2
*D4
 70
     1
 10
0.0
 20
0.0
 30
0.0
  3
*D4
  1

  0
LINE
  5
1B50
330
271
100
AcDbEntity
  8
0
 62
     0
370
    15
100
AcDbLine
 10
365.0409817259242
 20
1062.51833077427
 30
0.0
 11
312.2904796090279
 21
1062.51833077427
 31
0.0
  0
LINE
  5
1B51
330
271
100
AcDbEntity
  8
0
 62
     0
370
    15
100
AcDbLine
 10
365.0409817259242
 20
1077.51833077427
 30
0.0
 11
312.2904796090279
 21
1077.51833077427
 31
0.0
  0
LINE
  5
1B52
330
271
100
AcDbEntity
  8
0
 62
     0
370
    15
100
AcDbLine
 10
312.2904796090279
 20
1062.51833077427
 30
0.0
 11
312.2904796090279
 21
1077.51833077427
 31
0.0
  0
LINE
  5
1B53
330
271
100
AcDbEntity
  8
0
 62
     0
370
    15
100
AcDbLine
 10
312.2904796090279
 20
1077.51833077427
 30
0.0
 11
312.290479609028
 21
1153.351664107603
 31
0.0
  0
INSERT
  5
1B54
330
271
100
AcDbEntity
  8
0
 62
     0
370
    15
100
AcDbBlockReference
  2
_DotSmall
 10
312.2904796090279
 20
1062.51833077427
 30
0.0
 41
30.0
 42
30.0
 43
30.0
 50
270.0
  0
INSERT
  5
1B55
330
271
100
AcDbEntity
  8
0
 62
     0
370
    15
100
AcDbBlockReference
  2
_DotSmall
 10
312.2904796090279
 20
1077.51833077427
 30
0.0
 41
30.0
 42
30.0
 43
30.0
 50
90.0
  0
MTEXT
  5
1B56
330
271
100
AcDbEntity
  8
0
 62
     0
100
AcDbMText
 10
293.5404796090277
 20
1130.434997440937
 30
0.0
 40
25.0
 41
0.0
 71
     5
 72
     1
  1
15
 11
0.0000000000000001
 21
1.0
 31
0.0
 73
     1
 44
1.0
1001
ACAD
1000
MTEXTBEGIN
1070
    73
1070
     1
1070
    44
1040
1.0
1070
    74
1070
     0
1000
MTEXTEND
  0
POINT
  5
1B57
330
271
100
AcDbEntity
  8
Defpoints
 62
     0
100
AcDbPoint
 10
430.0409817259242
 20
1062.51833077427
 30
0.0
  0
POINT
  5
1B58
330
271
100
AcDbEntity
  8
Defpoints
 62
     0
100
AcDbPoint
 10
430.0409817259242
 20
1077.51833077427
 30
0.0
  0
POINT
  5
1B59
330
271
100
AcDbEntity
  8
Defpoints
 62
     0
100
AcDbPoint
 10
312.2904796090279
 20
1077.51833077427
 30
0.0
  0
ENDBLK
  5
27D
330
271
100
AcDbEntity
  8
0
100
AcDbBlockEnd
  0
BLOCK
  5
289
330
27F
100
AcDbEntity
  8
0
100
AcDbBlockBegin
  2
*D5
 70
     1
 10
0.0
 20
0.0
 30
0.0
  3
*D5
  1

  0
LINE
  5
1B5A
330
27F
100
AcDbEntity
  8
0
 62
     0
370
    15
100
AcDbLine
 10
365.0409817259242
 20
1077.51833077427
 30
0.0
 11
312.2904796090279
 21
1077.51833077427
 31
0.0
  0
LINE
  5
1B5B
330
27F
100
AcDbEntity
  8
0
 62
     0
370
    15
100
AcDbLine
 10
365.0409817259243
 20
1507.51833077427
 30
0.0
 11
312.290479609028
 21
1507.51833077427
 31
0.0
  0
LINE
  5
1B5C
330
27F
100
AcDbEntity
  8
0
 62
     0
370
    15
100
AcDbLine
 10
312.2904796090279
 20
1077.51833077427
 30
0.0
 11
312.290479609028
 21
1507.51833077427
 31
0.0
  0
INSERT
  5
1B5D
330
27F
100
AcDbEntity
  8
0
 62
     0
370
    15
100
AcDbBlockReference
  2
_DotSmall
 10
312.2904796090279
 20
1077.51833077427
 30
0.0
 41
30.0
 42
30.0
 43
30.0
 50
270.0
  0
INSERT
  5
1B5E
330
27F
100
AcDbEntity
  8
0
 62
     0
370
    15
100
AcDbBlockReference
  2
_DotSmall
 10
312.290479609028
 20
1507.51833077427
 30
0.0
 41
30.0
 42
30.0
 43
30.0
 50
90.0
  0
MTEXT
  5
1B5F
330
27F
100
AcDbEntity
  8
0
 62
     0
100
AcDbMText
 10
293.5404796090277
 20
1292.51833077427
 30
0.0
 40
25.0
 41
0.0
 71
     5
 72
     1
  1
430
 11
0.0000000000000001
 21
1.0
 31
0.0
 73
     1
 44
1.0
1001
ACAD
1000
MTEXTBEGIN
1070
    73
1070
     1
1070
    44
1040
1.0
1070
    74
1070
     0
1000
MTEXTEND
  0
POINT
  5
1B60
330
27F
100
AcDbEntity
  8
Defpoints
 62
     0
100
AcDbPoint
 10
430.0409817259242
 20
1077.51833077427
 30
0.0
  0
POINT
  5
1B61
330
27F
100
AcDbEntity
  8
Defpoints
 62
     0
100
AcDbPoint
 10
430.0409817259243
 20
1507.51833077427
 30
0.0
  0
POINT
  5
1B62
330
27F
100
AcDbEntity
  8
Defpoints
 62
     0
100
AcDbPoint
 10
312.290479609028
 20
1507.51833077427
 30
0.0
  0
ENDBLK
  5
28A
330
27F
100
AcDbEntity
  8
0
100
AcDbBlockEnd
  0
BLOCK
  5
296
330
28C
100
AcDbEntity
  8
0
100
AcDbBlockBegin
  2
*D6
 70
     1
 10
0.0
 20
0.0
 30
0.0
  3
*D6
  1

  0
LINE
  5
1B63
330
28C
100
AcDbEntity
  8
0
 62
     0
370
    15
100
AcDbLine
 10
365.0409817259243
 20
1507.51833077427
 30
0.0
 11
312.290479609028
 21
1507.51833077427
 31
0.0
  0
LINE
  5
1B64
330
28C
100
AcDbEntity
  8
0
 62
     0
370
    15
100
AcDbLine
 10
365.0409817259243
 20
1582.51833077427
 30
0.0
 11
312.290479609028
 21
1582.51833077427
 31
0.0
  0
LINE
  5
1B65
330
28C
100
AcDbEntity
  8
0
 62
     0
370
    15
100
AcDbLine
 10
312.290479609028
 20
1507.51833077427
 30
0.0
 11
312.290479609028
 21
1582.51833077427
 31
0.0
  0
INSERT
  5
1B66
330
28C
100
AcDbEntity
  8
0
 62
     0
370
    15
100
AcDbBlockReference
  2
_DotSmall
 10
312.290479609028
 20
1507.51833077427
 30
0.0
 41
30.0
 42
30.0
 43
30.0
 50
270.0
  0
INSERT
  5
1B67
330
28C
100
AcDbEntity
  8
0
 62
     0
370
    15
100
AcDbBlockReference
  2
_DotSmall
 10
312.290479609028
 20
1582.51833077427
 30
0.0
 41
30.0
 42
30.0
 43
30.0
 50
90.0
  0
MTEXT
  5
1B68
330
28C
100
AcDbEntity
  8
0
 62
     0
100
AcDbMText
 10
293.5404796090278
 20
1545.01833077427
 30
0.0
 40
25.0
 41
0.0
 71
     5
 72
     1
  1
75
 11
0.0000000000000001
 21
1.0
 31
0.0
 73
     1
 44
1.0
1001
ACAD
1000
MTEXTBEGIN
1070
    73
1070
     1
1070
    44
1040
1.0
1070
    74
1070
     0
1000
MTEXTEND
  0
POINT
  5
1B69
330
28C
100
AcDbEntity
  8
Defpoints
 62
     0
100
AcDbPoint
 10
430.0409817259243
 20
1507.51833077427
 30
0.0
  0
POINT
  5
1B6A
330
28C
100
AcDbEntity
  8
Defpoints
 62
     0
100
AcDbPoint
 10
430.0409817259243
 20
1582.51833077427
 30
0.0
  0
POINT
  5
1B6B
330
28C
100
AcDbEntity
  8
Defpoints
 62
     0
100
AcDbPoint
 10
312.290479609028
 20
1582.51833077427
 30
0.0
  0
ENDBLK
  5
297
330
28C
100
AcDbEntity
  8
0
100
AcDbBlockEnd
  0
BLOCK
  5
2A4
330
299
100
AcDbEntity
  8
0
100
AcDbBlockBegin
  2
*D7
 70
     1
 10
0.0
 20
0.0
 30
0.0
  3
*D7
  1

  0
LINE
  5
1B6C
330
299
100
AcDbEntity
  8
0
 62
     0
370
    15
100
AcDbLine
 10
365.0409817259242
 20
1045.51833077427
 30
0.0
 11
239.6620597058956
 21
1045.51833077427
 31
0.0
  0
LINE
  5
1B6D
330
299
100
AcDbEntity
  8
0
 62
     0
370
    15
100
AcDbLine
 10
365.0409817259242
 20
1062.51833077427
 30
0.0
 11
239.6620597058956
 21
1062.51833077427
 31
0.0
  0
LINE
  5
1B6E
330
299
100
AcDbEntity
  8
0
 62
     0
370
    15
100
AcDbLine
 10
239.6620597058956
 20
1045.51833077427
 30
0.0
 11
239.6620597058956
 21
1062.51833077427
 31
0.0
  0
LINE
  5
1B6F
330
299
100
AcDbEntity
  8
0
 62
     0
370
    15
100
AcDbLine
 10
239.6620597058956
 20
1062.51833077427
 30
0.0
 11
239.6620597058956
 21
1138.351664107603
 31
0.0
  0
INSERT
  5
1B70
330
299
100
AcDbEntity
  8
0
 62
     0
370
    15
100
AcDbBlockReference
  2
_DotSmall
 10
239.6620597058956
 20
1045.51833077427
 30
0.0
 41
30.0
 42
30.0
 43
30.0
 50
270.0
  0
INSERT
  5
1B71
330
299
100
AcDbEntity
  8
0
 62
     0
370
    15
100
AcDbBlockReference
  2
_DotSmall
 10
239.6620597058956
 20
1062.51833077427
 30
0.0
 41
30.0
 42
30.0
 43
30.0
 50
90.0
  0
MTEXT
  5
1B72
330
299
100
AcDbEntity
  8
0
 62
     0
100
AcDbMText
 10
220.9120597058955
 20
1115.434997440937
 30
0.0
 40
25.0
 41
0.0
 71
     5
 72
     1
  1
17
 11
0.0000000000000001
 21
1.0
 31
0.0
 73
     1
 44
1.0
1001
ACAD
1000
MTEXTBEGIN
1070
    73
1070
     1
1070
    44
1040
1.0
1070
    74
1070
     0
1000
MTEXTEND
  0
POINT
  5
1B73
330
299
100
AcDbEntity
  8
Defpoints
 62
     0
100
AcDbPoint
 10
430.0409817259242
 20
1045.51833077427
 30
0.0
  0
POINT
  5
1B74
330
299
100
AcDbEntity
  8
Defpoints
 62
     0
100
AcDbPoint
 10
430.0409817259242
 20
1062.51833077427
 30
0.0
  0
POINT
  5
1B75
330
299
100
AcDbEntity
  8
Defpoints
 62
     0
100
AcDbPoint
 10
239.6620597058956
 20
1062.51833077427
 30
0.0
  0
ENDBLK
  5
2A5
330
299
100
AcDbEntity
  8
0
100
AcDbBlockEnd
  0
BLOCK
  5
2B1
330
2A7
100
AcDbEntity
  8
0
100
AcDbBlockBegin
  2
*D8
 70
     1
 10
0.0
 20
0.0
 30
0.0
  3
*D8
  1

  0
LINE
  5
1B76
330
2A7
100
AcDbEntity
  8
0
 62
     0
370
    15
100
AcDbLine
 10
365.0409817259242
 20
1062.51833077427
 30
0.0
 11
239.6620597058955
 21
1062.51833077427
 31
0.0
  0
LINE
  5
1B77
330
2A7
100
AcDbEntity
  8
0
 62
     0
370
    15
100
AcDbLine
 10
365.0409817259243
 20
1582.51833077427
 30
0.0
 11
239.6620597058956
 21
1582.51833077427
 31
0.0
  0
LINE
  5
1B78
330
2A7
100
AcDbEntity
  8
0
 62
     0
370
    15
100
AcDbLine
 10
239.6620597058955
 20
1062.51833077427
 30
0.0
 11
239.6620597058956
 21
1582.51833077427
 31
0.0
  0
INSERT
  5
1B79
330
2A7
100
AcDbEntity
  8
0
 62
     0
370
    15
100
AcDbBlockReference
  2
_DotSmall
 10
239.6620597058955
 20
1062.51833077427
 30
0.0
 41
30.0
 42
30.0
 43
30.0
 50
270.0
  0
INSERT
  5
1B7A
330
2A7
100
AcDbEntity
  8
0
 62
     0
370
    15
100
AcDbBlockReference
  2
_DotSmall
 10
239.6620597058956
 20
1582.51833077427
 30
0.0
 41
30.0
 42
30.0
 43
30.0
 50
90.0
  0
MTEXT
  5
1B7B
330
2A7
100
AcDbEntity
  8
0
 62
     0
100
AcDbMText
 10
220.9120597058953
 20
1322.51833077427
 30
0.0
 40
25.0
 41
0.0
 71
     5
 72
     1
  1
520
 11
0.0000000000000001
 21
1.0
 31
0.0
 73
     1
 44
1.0
1001
ACAD
1000
MTEXTBEGIN
1070
    73
1070
     1
1070
    44
1040
1.0
1070
    74
1070
     0
1000
MTEXTEND
  0
POINT
  5
1B7C
330
2A7
100
AcDbEntity
  8
Defpoints
 62
     0
100
AcDbPoint
 10
430.0409817259242
 20
1062.51833077427
 30
0.0
  0
POINT
  5
1B7D
330
2A7
100
AcDbEntity
  8
Defpoints
 62
     0
100
AcDbPoint
 10
430.0409817259243
 20
1582.51833077427
 30
0.0
  0
POINT
  5
1B7E
330
2A7
100
AcDbEntity
  8
Defpoints
 62
     0
100
AcDbPoint
 10
239.6620597058956
 20
1582.51833077427
 30
0.0
  0
ENDBLK
  5
2B2
330
2A7
100
AcDbEntity
  8
0
100
AcDbBlockEnd
  0
BLOCK
  5
2BE
330
2B4
100
AcDbEntity
  8
0
100
AcDbBlockBegin
  2
*D9
 70
     1
 10
0.0
 20
0.0
 30
0.0
  3
*D9
  1

  0
LINE
  5
1B7F
330
2B4
100
AcDbEntity
  8
0
 62
     0
370
    15
100
AcDbLine
 10
365.0409817259243
 20
1582.51833077427
 30
0.0
 11
239.6620597058956
 21
1582.51833077427
 31
0.0
  0
LINE
  5
1B80
330
2B4
100
AcDbEntity
  8
0
 62
     0
370
    15
100
AcDbLine
 10
365.0409817259242
 20
1599.51833077427
 30
0.0
 11
239.6620597058956
 21
1599.51833077427
 31
0.0
  0
LINE
  5
1B81
330
2B4
100
AcDbEntity
  8
0
 62
     0
370
    15
100
AcDbLine
 10
239.6620597058956
 20
1582.51833077427
 30
0.0
 11
239.6620597058956
 21
1599.51833077427
 31
0.0
  0
MTEXT
  5
1B82
330
2B4
100
AcDbEntity
  8
0
 62
     0
100
AcDbMText
 10
203.2755130297901
 20
1567.948576303007
 30
0.0
 40
25.0
 41
0.0
 71
     5
 72
     1
  1
17
 11
0.0000000000000001
 21
1.0
 31
0.0
 73
     1
 44
1.0
1001
ACAD
1000
MTEXTBEGIN
1070
    73
1070
     1
1070
    44
1040
1.0
1070
    74
1070
     0
1000
MTEXTEND
  0
INSERT
  5
1B83
330
2B4
100
AcDbEntity
  8
0
 62
     0
370
    15
100
AcDbBlockReference
  2
_DotSmall
 10
239.6620597058956
 20
1582.51833077427
 30
0.0
 41
30.0
 42
30.0
 43
30.0
 50
270.0
  0
INSERT
  5
1B84
330
2B4
100
AcDbEntity
  8
0
 62
     0
370
    15
100
AcDbBlockReference
  2
_DotSmall
 10
239.6620597058956
 20
1599.51833077427
 30
0.0
 41
30.0
 42
30.0
 43
30.0
 50
90.0
  0
POINT
  5
1B85
330
2B4
100
AcDbEntity
  8
Defpoints
 62
     0
100
AcDbPoint
 10
430.0409817259243
 20
1582.51833077427
 30
0.0
  0
POINT
  5
1B86
330
2B4
100
AcDbEntity
  8
Defpoints
 62
     0
100
AcDbPoint
 10
430.0409817259242
 20
1599.51833077427
 30
0.0
  0
POINT
  5
1B87
330
2B4
100
AcDbEntity
  8
Defpoints
 62
     0
100
AcDbPoint
 10
239.6620597058956
 20
1599.51833077427
 30
0.0
  0
ENDBLK
  5
2BF
330
2B4
100
AcDbEntity
  8
0
100
AcDbBlockEnd
  0
BLOCK
  5
2E7
330
2DD
100
AcDbEntity
  8
0
100
AcDbBlockBegin
  2
*D10
 70
     1
 10
0.0
 20
0.0
 30
0.0
  3
*D10
  1

  0
LINE
  5
1B88
330
2DD
100
AcDbEntity
  8
0
 62
     0
370
    15
100
AcDbLine
 10
365.0409817259242
 20
1045.51833077427
 30
0.0
 11
170.1914073365814
 21
1045.51833077427
 31
0.0
  0
LINE
  5
1B89
330
2DD
100
AcDbEntity
  8
0
 62
     0
370
    15
100
AcDbLine
 10
365.0409817259242
 20
1599.51833077427
 30
0.0
 11
170.1914073365815
 21
1599.51833077427
 31
0.0
  0
LINE
  5
1B8A
330
2DD
100
AcDbEntity
  8
0
 62
     0
370
    15
100
AcDbLine
 10
170.1914073365814
 20
1045.51833077427
 30
0.0
 11
170.1914073365815
 21
1599.51833077427
 31
0.0
  0
INSERT
  5
1B8B
330
2DD
100
AcDbEntity
  8
0
 62
     0
370
    15
100
AcDbBlockReference
  2
_DotSmall
 10
170.1914073365814
 20
1045.51833077427
 30
0.0
 41
30.0
 42
30.0
 43
30.0
 50
270.0
  0
INSERT
  5
1B8C
330
2DD
100
AcDbEntity
  8
0
 62
     0
370
    15
100
AcDbBlockReference
  2
_DotSmall
 10
170.1914073365815
 20
1599.51833077427
 30
0.0
 41
30.0
 42
30.0
 43
30.0
 50
90.0
  0
MTEXT
  5
1B8D
330
2DD
100
AcDbEntity
  8
0
 62
     0
100
AcDbMText
 10
151.4414073365812
 20
1322.51833077427
 30
0.0
 40
25.0
 41
0.0
 71
     5
 72
     1
  1
554
 11
0.0000000000000001
 21
1.0
 31
0.0
 73
     1
 44
1.0
1001
ACAD
1000
MTEXTBEGIN
1070
    73
1070
     1
1070
    44
1040
1.0
1070
    74
1070
     0
1000
MTEXTEND
  0
POINT
  5
1B8E
330
2DD
100
AcDbEntity
  8
Defpoints
 62
     0
100
AcDbPoint
 10
430.0409817259242
 20
1045.51833077427
 30
0.0
  0
POINT
  5
1B8F
330
2DD
100
AcDbEntity
  8
Defpoints
 62
     0
100
AcDbPoint
 10
430.0409817259242
 20
1599.51833077427
 30
0.0
  0
POINT
  5
1B90
330
2DD
100
AcDbEntity
  8
Defpoints
 62
     0
100
AcDbPoint
 10
170.1914073365815
 20
1599.51833077427
 30
0.0
  0
ENDBLK
  5
2E8
330
2DD
100
AcDbEntity
  8
0
100
AcDbBlockEnd
  0
BLOCK
  5
2F5
330
2EA
100
AcDbEntity
  8
0
100
AcDbBlockBegin
  2
*D11
 70
     1
 10
0.0
 20
0.0
 30
0.0
  3
*D11
  1

  0
LINE
  5
1B91
330
2EA
100
AcDbEntity
  8
0
 62
     0
370
    15
100
AcDbLine
 10
430.0409817259242
 20
980.51833077427
 30
0.0
 11
430.0409817259242
 21
928.6105589795534
 31
0.0
  0
LINE
  5
1B92
330
2EA
100
AcDbEntity
  8
0
 62
     0
370
    15
100
AcDbLine
 10
447.0409817259242
 20
980.51833077427
 30
0.0
 11
447.0409817259242
 21
928.6105589795534
 31
0.0
  0
LINE
  5
1B93
330
2EA
100
AcDbEntity
  8
0
 62
     0
370
    15
100
AcDbLine
 10
430.0409817259242
 20
928.6105589795534
 30
0.0
 11
447.0409817259242
 21
928.6105589795534
 31
0.0
  0
LINE
  5
1B94
330
2EA
100
AcDbEntity
  8
0
 62
     0
370
    15
100
AcDbLine
 10
447.0409817259242
 20
928.6105589795534
 30
0.0
 11
522.8743150592576
 21
928.6105589795534
 31
0.0
  0
INSERT
  5
1B95
330
2EA
100
AcDbEntity
  8
0
 62
     0
370
    15
100
AcDbBlockReference
  2
_DotSmall
 10
430.0409817259242
 20
928.6105589795534
 30
0.0
 41
30.0
 42
30.0
 43
30.0
 50
180.0
  0
INSERT
  5
1B96
330
2EA
100
AcDbEntity
  8
0
 62
     0
370
    15
100
AcDbBlockReference
  2
_DotSmall
 10
447.0409817259242
 20
928.6105589795534
 30
0.0
 41
30.0
 42
30.0
 43
30.0
  0
MTEXT
  5
1B97
330
2EA
100
AcDbEntity
  8
0
 62
     0
100
AcDbMText
 10
499.9576483925909
 20
947.3605589795534
 30
0.0
 40
25.0
 41
0.0
 71
     5
 72
     1
  1
17
 73
     1
 44
1.0
1001
ACAD
1000
MTEXTBEGIN
1070
    73
1070
     1
1070
    44
1040
1.0
1070
    74
1070
     0
1000
MTEXTEND
  0
POINT
  5
1B98
330
2EA
100
AcDbEntity
  8
Defpoints
 62
     0
100
AcDbPoint
 10
430.0409817259242
 20
1045.51833077427
 30
0.0
  0
POINT
  5
1B99
330
2EA
100
AcDbEntity
  8
Defpoints
 62
     0
100
AcDbPoint
 10
447.0409817259242
 20
1045.51833077427
 30
0.0
  0
POINT
  5
1B9A
330
2EA
100
AcDbEntity
  8
Defpoints
 62
     0
100
AcDbPoint
 10
447.0409817259242
 20
928.6105589795534
 30
0.0
  0
ENDBLK
  5
2F6
330
2EA
100
AcDbEntity
  8
0
100
AcDbBlockEnd
  0
BLOCK
  5
302
330
2F8
100
AcDbEntity
  8
0
100
AcDbBlockBegin
  2
*D12
 70
     1
 10
0.0
 20
0.0
 30
0.0
  3
*D12
  1

  0
LINE
  5
1B9B
330
2F8
100
AcDbEntity
  8
0
 62
     0
370
    15
100
AcDbLine
 10
447.0409817259242
 20
980.51833077427
 30
0.0
 11
447.0409817259242
 21
928.6105589795534
 31
0.0
  0
LINE
  5
1B9C
330
2F8
100
AcDbEntity
  8
0
 62
     0
370
    15
100
AcDbLine
 10
1247.040981725924
 20
980.51833077427
 30
0.0
 11
1247.040981725924
 21
928.6105589795534
 31
0.0
  0
LINE
  5
1B9D
330
2F8
100
AcDbEntity
  8
0
 62
     0
370
    15
100
AcDbLine
 10
447.0409817259242
 20
928.6105589795534
 30
0.0
 11
1247.040981725924
 21
928.6105589795534
 31
0.0
  0
INSERT
  5
1B9E
330
2F8
100
AcDbEntity
  8
0
 62
     0
370
    15
100
AcDbBlockReference
  2
_DotSmall
 10
447.0409817259242
 20
928.6105589795534
 30
0.0
 41
30.0
 42
30.0
 43
30.0
 50
180.0
  0
INSERT
  5
1B9F
330
2F8
100
AcDbEntity
  8
0
 62
     0
370
    15
100
AcDbBlockReference
  2
_DotSmall
 10
1247.040981725924
 20
928.6105589795534
 30
0.0
 41
30.0
 42
30.0
 43
30.0
  0
MTEXT
  5
1BA0
330
2F8
100
AcDbEntity
  8
0
 62
     0
100
AcDbMText
 10
847.0409817259241
 20
947.3605589795534
 30
0.0
 40
25.0
 41
0.0
 71
     5
 72
     1
  1
800
 73
     1
 44
1.0
1001
ACAD
1000
MTEXTBEGIN
1070
    73
1070
     1
1070
    44
1040
1.0
1070
    74
1070
     0
1000
MTEXTEND
  0
POINT
  5
1BA1
330
2F8
100
AcDbEntity
  8
Defpoints
 62
     0
100
AcDbPoint
 10
447.0409817259242
 20
1045.51833077427
 30
0.0
  0
POINT
  5
1BA2
330
2F8
100
AcDbEntity
  8
Defpoints
 62
     0
100
AcDbPoint
 10
1247.040981725924
 20
1045.51833077427
 30
0.0
  0
POINT
  5
1BA3
330
2F8
100
AcDbEntity
  8
Defpoints
 62
     0
100
AcDbPoint
 10
1247.040981725924
 20
928.6105589795534
 30
0.0
  0
ENDBLK
  5
303
330
2F8
100
AcDbEntity
  8
0
100
AcDbBlockEnd
  0
BLOCK
  5
311
330
305
100
AcDbEntity
  8
0
100
AcDbBlockBegin
  2
*D13
 70
     1
 10
0.0
 20
0.0
 30
0.0
  3
*D13
  1

  0
LINE
  5
1BA4
330
305
100
AcDbEntity
  8
0
 62
     0
370
    15
100
AcDbLine
 10
1247.040981725924
 20
980.51833077427
 30
0.0
 11
1247.040981725924
 21
928.6105589795534
 31
0.0
  0
LINE
  5
1BA5
330
305
100
AcDbEntity
  8
0
 62
     0
370
    15
100
AcDbLine
 10
1264.040981725924
 20
980.51833077427
 30
0.0
 11
1264.040981725924
 21
928.6105589795534
 31
0.0
  0
LINE
  5
1BA6
330
305
100
AcDbEntity
  8
0
 62
     0
370
    15
100
AcDbLine
 10
1247.040981725924
 20
928.6105589795534
 30
0.0
 11
1264.040981725924
 21
928.6105589795534
 31
0.0
  0
MTEXT
  5
1BA7
330
305
100
AcDbEntity
  8
0
 62
     0
100
AcDbMText
 10
1203.582766141468
 20
947.3605589795534
 30
0.0
 40
25.0
 41
0.0
 71
     5
 72
     1
  1
17
 73
     1
 44
1.0
1001
ACAD
1000
MTEXTBEGIN
1070
    73
1070
     1
1070
    44
1040
1.0
1070
    74
1070
     0
1000
MTEXTEND
  0
INSERT
  5
1BA8
330
305
100
AcDbEntity
  8
0
 62
     0
370
    15
100
AcDbBlockReference
  2
_DotSmall
 10
1247.040981725924
 20
928.6105589795534
 30
0.0
 41
30.0
 42
30.0
 43
30.0
 50
180.0
  0
INSERT
  5
1BA9
330
305
100
AcDbEntity
  8
0
 62
     0
370
    15
100
AcDbBlockReference
  2
_DotSmall
 10
1264.040981725924
 20
928.6105589795534
 30
0.0
 41
30.0
 42
30.0
 43
30.0
  0
POINT
  5
1BAA
330
305
100
AcDbEntity
  8
Defpoints
 62
     0
100
AcDbPoint
 10
1247.040981725924
 20
1045.51833077427
 30
0.0
  0
POINT
  5
1BAB
330
305
100
AcDbEntity
  8
Defpoints
 62
     0
100
AcDbPoint
 10
1264.040981725924
 20
1045.51833077427
 30
0.0
  0
POINT
  5
1BAC
330
305
100
AcDbEntity
  8
Defpoints
 62
     0
100
AcDbPoint
 10
1264.040981725924
 20
928.6105589795534
 30
0.0
  0
ENDBLK
  5
312
330
305
100
AcDbEntity
  8
0
100
AcDbBlockEnd
  0
BLOCK
  5
327
330
31D
100
AcDbEntity
  8
0
100
AcDbBlockBegin
  2
*D14
 70
     1
 10
0.0
 20
0.0
 30
0.0
  3
*D14
  1

  0
LINE
  5
1BAD
330
31D
100
AcDbEntity
  8
0
 62
     0
370
    15
100
AcDbLine
 10
430.0409817259242
 20
980.51833077427
 30
0.0
 11
430.0409817259242
 21
858.2517870243464
 31
0.0
  0
LINE
  5
1BAE
330
31D
100
AcDbEntity
  8
0
 62
     0
370
    15
100
AcDbLine
 10
1264.040981725924
 20
980.51833077427
 30
0.0
 11
1264.040981725924
 21
858.2517870243464
 31
0.0
  0
LINE
  5
1BAF
330
31D
100
AcDbEntity
  8
0
 62
     0
370
    15
100
AcDbLine
 10
430.0409817259242
 20
858.2517870243464
 30
0.0
 11
1264.040981725924
 21
858.2517870243464
 31
0.0
  0
INSERT
  5
1BB0
330
31D
100
AcDbEntity
  8
0
 62
     0
370
    15
100
AcDbBlockReference
  2
_DotSmall
 10
430.0409817259242
 20
858.2517870243464
 30
0.0
 41
30.0
 42
30.0
 43
30.0
 50
180.0
  0
INSERT
  5
1BB1
330
31D
100
AcDbEntity
  8
0
 62
     0
370
    15
100
AcDbBlockReference
  2
_DotSmall
 10
1264.040981725924
 20
858.2517870243464
 30
0.0
 41
30.0
 42
30.0
 43
30.0
  0
MTEXT
  5
1BB2
330
31D
100
AcDbEntity
  8
0
 62
     0
100
AcDbMText
 10
847.0409817259241
 20
877.0017870243464
 30
0.0
 40
25.0
 41
0.0
 71
     5
 72
     1
  1
834
 73
     1
 44
1.0
1001
ACAD
1000
MTEXTBEGIN
1070
    73
1070
     1
1070
    44
1040
1.0
1070
    74
1070
     0
1000
MTEXTEND
  0
POINT
  5
1BB3
330
31D
100
AcDbEntity
  8
Defpoints
 62
     0
100
AcDbPoint
 10
430.0409817259242
 20
1045.51833077427
 30
0.0
  0
POINT
  5
1BB4
330
31D
100
AcDbEntity
  8
Defpoints
 62
     0
100
AcDbPoint
 10
1264.040981725924
 20
1045.51833077427
 30
0.0
  0
POINT
  5
1BB5
330
31D
100
AcDbEntity
  8
Defpoints
 62
     0
100
AcDbPoint
 10
1264.040981725924
 20
858.2517870243464
 30
0.0
  0
ENDBLK
  5
328
330
31D
100
AcDbEntity
  8
0
100
AcDbBlockEnd
  0
BLOCK
  5
381
330
377
100
AcDbEntity
  8
0
100
AcDbBlockBegin
  2
*D15
 70
     1
 10
0.0
 20
0.0
 30
0.0
  3
*D15
  1

  0
LINE
  5
1BB6
330
377
100
AcDbEntity
  8
0
 62
     0
370
    15
100
AcDbLine
 10
847.0409817259241
 20
1257.01833077427
 30
0.0
 11
847.0409817259241
 21
1214.981252832055
 31
0.0
  0
LINE
  5
1BB7
330
377
100
AcDbEntity
  8
0
 62
     0
370
    15
100
AcDbLine
 10
447.0409817259242
 20
1327.51833077427
 30
0.0
 11
447.0409817259242
 21
1214.981252832055
 31
0.0
  0
LINE
  5
1BB8
330
377
100
AcDbEntity
  8
0
 62
     0
370
    15
100
AcDbLine
 10
847.0409817259241
 20
1214.981252832055
 30
0.0
 11
447.0409817259242
 21
1214.981252832055
 31
0.0
  0
INSERT
  5
1BB9
330
377
100
AcDbEntity
  8
0
 62
     0
370
    15
100
AcDbBlockReference
  2
_DotSmall
 10
847.0409817259241
 20
1214.981252832055
 30
0.0
 41
30.0
 42
30.0
 43
30.0
  0
INSERT
  5
1BBA
330
377
100
AcDbEntity
  8
0
 62
     0
370
    15
100
AcDbBlockReference
  2
_DotSmall
 10
447.0409817259242
 20
1214.981252832055
 30
0.0
 41
30.0
 42
30.0
 43
30.0
 50
180.0
  0
MTEXT
  5
1BBB
330
377
100
AcDbEntity
  8
0
 62
     0
100
AcDbMText
 10
647.0409817259242
 20
1233.731252832055
 30
0.0
 40
25.0
 41
0.0
 71
     5
 72
     1
  1
400
 73
     1
 44
1.0
1001
ACAD
1000
MTEXTBEGIN
1070
    73
1070
     1
1070
    44
1040
1.0
1070
    74
1070
     0
1000
MTEXTEND
  0
POINT
  5
1BBC
330
377
100
AcDbEntity
  8
Defpoints
 62
     0
100
AcDbPoint
 10
847.0409817259241
 20
1322.01833077427
 30
0.0
  0
POINT
  5
1BBD
330
377
100
AcDbEntity
  8
Defpoints
 62
     0
100
AcDbPoint
 10
447.0409817259242
 20
1392.51833077427
 30
0.0
  0
POINT
  5
1BBE
330
377
100
AcDbEntity
  8
Defpoints
 62
     0
100
AcDbPoint
 10
447.0409817259242
 20
1214.981252832055
 30
0.0
  0
ENDBLK
  5
382
330
377
100
AcDbEntity
  8
0
100
AcDbBlockEnd
  0
BLOCK
  5
38F
330
385
100
AcDbEntity
  8
0
100
AcDbBlockBegin
  2
*D16
 70
     1
 10
0.0
 20
0.0
 30
0.0
  3
*D16
  1

  0
LINE
  5
1BBF
330
385
100
AcDbEntity
  8
0
 62
     0
370
    15
100
AcDbLine
 10
1002.540981725924
 20
1412.51833077427
 30
0.0
 11
1090.951334971973
 21
1412.51833077427
 31
0.0
  0
LINE
  5
1BC0
330
385
100
AcDbEntity
  8
0
 62
     0
370
    15
100
AcDbLine
 10
572.0409817259243
 20
1582.51833077427
 30
0.0
 11
1090.951334971973
 21
1582.51833077427
 31
0.0
  0
LINE
  5
1BC1
330
385
100
AcDbEntity
  8
0
 62
     0
370
    15
100
AcDbLine
 10
1090.951334971973
 20
1412.51833077427
 30
0.0
 11
1090.951334971973
 21
1582.51833077427
 31
0.0
  0
INSERT
  5
1BC2
330
385
100
AcDbEntity
  8
0
 62
     0
370
    15
100
AcDbBlockReference
  2
_DotSmall
 10
1090.951334971973
 20
1412.51833077427
 30
0.0
 41
30.0
 42
30.0
 43
30.0
 50
270.0
  0
INSERT
  5
1BC3
330
385
100
AcDbEntity
  8
0
 62
     0
370
    15
100
AcDbBlockReference
  2
_DotSmall
 10
1090.951334971973
 20
1582.51833077427
 30
0.0
 41
30.0
 42
30.0
 43
30.0
 50
90.0
  0
MTEXT
  5
1BC4
330
385
100
AcDbEntity
  8
0
 62
     0
100
AcDbMText
 10
1072.201334971973
 20
1467.501533339428
 30
0.0
 40
25.0
 41
0.0
 71
     5
 72
     1
  1
170
 11
0.0000000000000001
 21
1.0
 31
0.0
 73
     1
 44
1.0
1001
ACAD
1000
MTEXTBEGIN
1070
    73
1070
     1
1070
    44
1040
1.0
1070
    74
1070
     0
1000
MTEXTEND
  0
POINT
  5
1BC5
330
385
100
AcDbEntity
  8
Defpoints
 62
     0
100
AcDbPoint
 10
937.5409817259242
 20
1412.51833077427
 30
0.0
  0
POINT
  5
1BC6
330
385
100
AcDbEntity
  8
Defpoints
 62
     0
100
AcDbPoint
 10
507.0409817259243
 20
1582.51833077427
 30
0.0
  0
POINT
  5
1BC7
330
385
100
AcDbEntity
  8
Defpoints
 62
     0
100
AcDbPoint
 10
1090.951334971973
 20
1582.51833077427
 30
0.0
  0
ENDBLK
  5
390
330
385
100
AcDbEntity
  8
0
100
AcDbBlockEnd
  0
BLOCK
  5
3BD
330
3B3
100
AcDbEntity
  8
0
100
AcDbBlockBegin
  2
*D17
 70
     1
 10
0.0
 20
0.0
 30
0.0
  3
*D17
  1

  0
LINE
  5
1BC8
330
3B3
100
AcDbEntity
  8
0
 62
     0
370
    15
100
AcDbLine
 10
782.0409817259242
 20
1729.51833077427
 30
0.0
 11
782.0409817259242
 21
1748.161914076669
 31
0.0
  0
LINE
  5
1BC9
330
3B3
100
AcDbEntity
  8
0
 62
     0
370
    15
100
AcDbLine
 10
912.0409817259242
 20
1729.51833077427
 30
0.0
 11
912.0409817259242
 21
1748.161914076669
 31
0.0
  0
LINE
  5
1BCA
330
3B3
100
AcDbEntity
  8
0
 62
     0
370
    15
100
AcDbLine
 10
782.0409817259242
 20
1748.161914076669
 30
0.0
 11
912.0409817259242
 21
1748.161914076669
 31
0.0
  0
INSERT
  5
1BCB
330
3B3
100
AcDbEntity
  8
0
 62
     0
370
    15
100
AcDbBlockReference
  2
_DotSmall
 10
782.0409817259242
 20
1748.161914076669
 30
0.0
 41
30.0
 42
30.0
 43
30.0
 50
180.0
  0
INSERT
  5
1BCC
330
3B3
100
AcDbEntity
  8
0
 62
     0
370
    15
100
AcDbBlockReference
  2
_DotSmall
 10
912.0409817259242
 20
1748.161914076669
 30
0.0
 41
30.0
 42
30.0
 43
30.0
  0
MTEXT
  5
1BCD
330
3B3
100
AcDbEntity
  8
0
 62
     0
100
AcDbMText
 10
847.0409817259241
 20
1766.911914076669
 30
0.0
 40
25.0
 41
0.0
 71
     5
 72
     1
  1
130
 73
     1
 44
1.0
1001
ACAD
1000
MTEXTBEGIN
1070
    73
1070
     1
1070
    44
1040
1.0
1070
    74
1070
     0
1000
MTEXTEND
  0
POINT
  5
1BCE
330
3B3
100
AcDbEntity
  8
Defpoints
 62
     0
100
AcDbPoint
 10
782.0409817259242
 20
1664.51833077427
 30
0.0
  0
POINT
  5
1BCF
330
3B3
100
AcDbEntity
  8
Defpoints
 62
     0
100
AcDbPoint
 10
912.0409817259242
 20
1664.51833077427
 30
0.0
  0
POINT
  5
1BD0
330
3B3
100
AcDbEntity
  8
Defpoints
 62
     0
100
AcDbPoint
 10
912.0409817259242
 20
1748.161914076669
 30
0.0
  0
ENDBLK
  5
3BE
330
3B3
100
AcDbEntity
  8
0
100
AcDbBlockEnd
  0
BLOCK
  5
3CA
330
3C0
100
AcDbEntity
  8
0
100
AcDbBlockBegin
  2
*D18
 70
     1
 10
0.0
 20
0.0
 30
0.0
  3
*D18
  1

  0
LINE
  5
1BD1
330
3C0
100
AcDbEntity
  8
0
 62
     0
370
    15
100
AcDbLine
 10
717.0409817259241
 20
1729.51833077427
 30
0.0
 11
717.0409817259241
 21
1811.819845393975
 31
0.0
  0
LINE
  5
1BD2
330
3C0
100
AcDbEntity
  8
0
 62
     0
370
    15
100
AcDbLine
 10
977.0409817259242
 20
1729.51833077427
 30
0.0
 11
977.0409817259242
 21
1811.819845393975
 31
0.0
  0
LINE
  5
1BD3
330
3C0
100
AcDbEntity
  8
0
 62
     0
370
    15
100
AcDbLine
 10
717.0409817259241
 20
1811.819845393975
 30
0.0
 11
977.0409817259242
 21
1811.819845393975
 31
0.0
  0
INSERT
  5
1BD4
330
3C0
100
AcDbEntity
  8
0
 62
     0
370
    15
100
AcDbBlockReference
  2
_DotSmall
 10
717.0409817259241
 20
1811.819845393975
 30
0.0
 41
30.0
 42
30.0
 43
30.0
 50
180.0
  0
INSERT
  5
1BD5
330
3C0
100
AcDbEntity
  8
0
 62
     0
370
    15
100
AcDbBlockReference
  2
_DotSmall
 10
977.0409817259242
 20
1811.819845393975
 30
0.0
 41
30.0
 42
30.0
 43
30.0
  0
MTEXT
  5
1BD6
330
3C0
100
AcDbEntity
  8
0
 62
     0
100
AcDbMText
 10
847.0409817259241
 20
1830.569845393975
 30
0.0
 40
25.0
 41
0.0
 71
     5
 72
     1
  1
260
 73
     1
 44
1.0
1001
ACAD
1000
MTEXTBEGIN
1070
    73
1070
     1
1070
    44
1040
1.0
1070
    74
1070
     0
1000
MTEXTEND
  0
POINT
  5
1BD7
330
3C0
100
AcDbEntity
  8
Defpoints
 62
     0
100
AcDbPoint
 10
717.0409817259241
 20
1664.51833077427
 30
0.0
  0
POINT
  5
1BD8
330
3C0
100
AcDbEntity
  8
Defpoints
 62
     0
100
AcDbPoint
 10
977.0409817259242
 20
1664.51833077427
 30
0.0
  0
POINT
  5
1BD9
330
3C0
100
AcDbEntity
  8
Defpoints
 62
     0
100
AcDbPoint
 10
977.0409817259242
 20
1811.819845393975
 30
0.0
  0
ENDBLK
  5
3CB
330
3C0
100
AcDbEntity
  8
0
100
AcDbBlockEnd
  0
BLOCK
  5
47E
330
474
100
AcDbEntity
  8
0
100
AcDbBlockBegin
  2
*D19
 70
     1
 10
0.0
 20
0.0
 30
0.0
  3
*D19
  1

  0
LINE
  5
1BDA
330
474
100
AcDbEntity
  8
0
 62
     0
370
    15
100
AcDbLine
 10
926.5409817259241
 20
391.9511356432213
 30
0.0
 11
926.5409817259241
 21
335.5566609452062
 31
0.0
  0
LINE
  5
1BDB
330
474
100
AcDbEntity
  8
0
 62
     0
370
    15
100
AcDbLine
 10
767.5409817259239
 20
391.9511356432214
 30
0.0
 11
767.5409817259239
 21
335.5566609452062
 31
0.0
  0
LINE
  5
1BDC
330
474
100
AcDbEntity
  8
0
 62
     0
370
    15
100
AcDbLine
 10
926.5409817259241
 20
335.5566609452062
 30
0.0
 11
767.5409817259239
 21
335.5566609452062
 31
0.0
  0
INSERT
  5
1BDD
330
474
100
AcDbEntity
  8
0
 62
     0
370
    15
100
AcDbBlockReference
  2
_DotSmall
 10
926.5409817259241
 20
335.5566609452062
 30
0.0
 41
30.0
 42
30.0
 43
30.0
  0
INSERT
  5
1BDE
330
474
100
AcDbEntity
  8
0
 62
     0
370
    15
100
AcDbBlockReference
  2
_DotSmall
 10
767.5409817259239
 20
335.5566609452062
 30
0.0
 41
30.0
 42
30.0
 43
30.0
 50
180.0
  0
MTEXT
  5
1BDF
330
474
100
AcDbEntity
  8
0
 62
     0
100
AcDbMText
 10
847.0409817259241
 20
354.3066609452062
 30
0.0
 40
25.0
 41
0.0
 71
     5
 72
     1
  1
158
 73
     1
 44
1.0
1001
ACAD
1000
MTEXTBEGIN
1070
    73
1070
     1
1070
    44
1040
1.0
1070
    74
1070
     0
1000
MTEXTEND
  0
POINT
  5
1BE0
330
474
100
AcDbEntity
  8
Defpoints
 62
     0
100
AcDbPoint
 10
926.5409817259241
 20
456.9511356432213
 30
0.0
  0
POINT
  5
1BE1
330
474
100
AcDbEntity
  8
Defpoints
 62
     0
100
AcDbPoint
 10
767.5409817259239
 20
456.9511356432214
 30
0.0
  0
POINT
  5
1BE2
330
474
100
AcDbEntity
  8
Defpoints
 62
     0
100
AcDbPoint
 10
767.5409817259239
 20
335.5566609452062
 30
0.0
  0
ENDBLK
  5
47F
330
474
100
AcDbEntity
  8
0
100
AcDbBlockEnd
  0
BLOCK
  5
48B
330
481
100
AcDbEntity
  8
0
100
AcDbBlockBegin
  2
*D20
 70
     1
 10
0.0
 20
0.0
 30
0.0
  3
*D20
  1

  0
LINE
  5
210B
330
481
100
AcDbEntity
  8
0
 62
     0
370
    15
100
AcDbLine
 10
937.5409817259242
 20
529.9511356432212
 30
0.0
 11
937.5409817259242
 21
567.104160181193
 31
0.0
  0
LINE
  5
210C
330
481
100
AcDbEntity
  8
0
 62
     0
370
    15
100
AcDbLine
 10
756.5409817259242
 20
529.9511356432214
 30
0.0
 11
756.5409817259242
 21
567.104160181193
 31
0.0
  0
LINE
  5
210D
330
481
100
AcDbEntity
  8
0
 62
     0
370
    15
100
AcDbLine
 10
937.5409817259242
 20
567.104160181193
 30
0.0
 11
756.5409817259242
 21
567.104160181193
 31
0.0
  0
INSERT
  5
210E
330
481
100
AcDbEntity
  8
0
 62
     0
370
    15
100
AcDbBlockReference
  2
_DotSmall
 10
937.5409817259242
 20
567.104160181193
 30
0.0
 41
30.0
 42
30.0
 43
30.0
  0
INSERT
  5
210F
330
481
100
AcDbEntity
  8
0
 62
     0
370
    15
100
AcDbBlockReference
  2
_DotSmall
 10
756.5409817259242
 20
567.104160181193
 30
0.0
 41
30.0
 42
30.0
 43
30.0
 50
180.0
  0
MTEXT
  5
2110
330
481
100
AcDbEntity
  8
0
 62
     0
100
AcDbMText
 10
847.0409817259241
 20
585.854160181193
 30
0.0
 40
25.0
 41
0.0
 71
     5
 72
     1
  1
181
 73
     1
 44
1.0
1001
ACAD
1000
MTEXTBEGIN
1070
    73
1070
     1
1070
    44
1040
1.0
1070
    74
1070
     0
1000
MTEXTEND
  0
POINT
  5
2111
330
481
100
AcDbEntity
  8
Defpoints
 62
     0
100
AcDbPoint
 10
937.5409817259242
 20
464.9511356432213
 30
0.0
  0
POINT
  5
2112
330
481
100
AcDbEntity
  8
Defpoints
 62
     0
100
AcDbPoint
 10
756.5409817259242
 20
464.9511356432213
 30
0.0
  0
POINT
  5
2113
330
481
100
AcDbEntity
  8
Defpoints
 62
     0
100
AcDbPoint
 10
756.5409817259242
 20
567.104160181193
 30
0.0
  0
ENDBLK
  5
48C
330
481
100
AcDbEntity
  8
0
100
AcDbBlockEnd
  0
BLOCK
  5
593
330
587
100
AcDbEntity
  8
0
100
AcDbBlockBegin
  2
*D21
 70
     1
 10
0.0
 20
0.0
 30
0.0
  3
*D21
  1

  0
LINE
  5
1BEC
330
587
100
AcDbEntity
  8
0
 62
     0
370
    15
100
AcDbLine
 10
1069.171144545184
 20
1567.51833077427
 30
0.0
 11
1068.850224038074
 21
1567.51833077427
 31
0.0
  0
LINE
  5
1BED
330
587
100
AcDbEntity
  8
0
 62
     0
370
    15
100
AcDbLine
 10
977.0409817259242
 20
1582.51833077427
 30
0.0
 11
1068.850224038074
 21
1582.51833077427
 31
0.0
  0
LINE
  5
1BEE
330
587
100
AcDbEntity
  8
0
 62
     0
370
    15
100
AcDbLine
 10
1068.850224038074
 20
1567.51833077427
 30
0.0
 11
1068.850224038074
 21
1582.51833077427
 31
0.0
  0
MTEXT
  5
1BEF
330
587
100
AcDbEntity
  8
0
 62
     0
100
AcDbMText
 10
1058.90472614856
 20
1535.012254090613
 30
0.0
 40
25.0
 41
0.0
 71
     5
 72
     1
  1
15
 11
0.0000000000000001
 21
1.0
 31
0.0
 73
     1
 44
1.0
1001
ACAD
1000
MTEXTBEGIN
1070
    73
1070
     1
1070
    44
1040
1.0
1070
    74
1070
     0
1000
MTEXTEND
  0
INSERT
  5
1BF0
330
587
100
AcDbEntity
  8
0
 62
     0
370
    15
100
AcDbBlockReference
  2
_DotSmall
 10
1068.850224038074
 20
1567.51833077427
 30
0.0
 41
30.0
 42
30.0
 43
30.0
 50
270.0
  0
INSERT
  5
1BF1
330
587
100
AcDbEntity
  8
0
 62
     0
370
    15
100
AcDbBlockReference
  2
_DotSmall
 10
1068.850224038074
 20
1582.51833077427
 30
0.0
 41
30.0
 42
30.0
 43
30.0
 50
90.0
  0
POINT
  5
1BF2
330
587
100
AcDbEntity
  8
Defpoints
 62
     0
100
AcDbPoint
 10
1004.171144545184
 20
1567.51833077427
 30
0.0
  0
POINT
  5
1BF3
330
587
100
AcDbEntity
  8
Defpoints
 62
     0
100
AcDbPoint
 10
912.0409817259242
 20
1582.51833077427
 30
0.0
  0
POINT
  5
1BF4
330
587
100
AcDbEntity
  8
Defpoints
 62
     0
100
AcDbPoint
 10
1068.850224038074
 20
1582.51833077427
 30
0.0
  0
ENDBLK
  5
594
330
587
100
AcDbEntity
  8
0
100
AcDbBlockEnd
  0
BLOCK
  5
DE7
330
DE3
100
AcDbEntity
  8
0
100
AcDbBlockBegin
  2
A$C0655774D
 70
     0
 10
0.0
 20
0.0
 30
0.0
  3
A$C0655774D
  1

  0
HATCH
  5
DE4
330
DE3
100
AcDbEntity
  8
実形
 62
     0
100
AcDbHatch
 10
0.0
 20
0.0
 30
0.0
210
0.0
220
0.0
230
1.0
  2
SOLID
 70
     1
 71
     0
 91
        1
 92
        7
 72
     1
 73
     1
 93
        2
 10
4.552682973722539
 20
0.0000016847325242
 42
-1.0
 10
4.548727101171948
 20
9.101409440015231
 42
-1.0
 97
        0
 75
     0
 76
     1
 47
0.1166526434546944
 98
        1
 10
6.651064143657322
 20
3.151410098740825
  0
ENDBLK
  5
DE8
330
DE3
100
AcDbEntity
  8
0
100
AcDbBlockEnd
  0
BLOCK
  5
DEA
330
DE9
100
AcDbEntity
  8
0
100
AcDbBlockBegin
  2
_Dot
 70
     0
 10
0.0
 20
0.0
 30
0.0
  3
_Dot
  1

  0
LWPOLYLINE
  5
DEB
330
DE9
100
AcDbEntity
  8
0
 62
     0
100
AcDbPolyline
 90
        2
 70
     1
 43
0.5
 10
-0.25
 20
0.0
 42
1.0
 10
0.25
 20
0.0
 42
1.0
  0
LINE
  5
DEC
330
DE9
100
AcDbEntity
  8
0
 62
     0
370
    -2
100
AcDbLine
 10
-0.5
 20
0.0
 30
0.0
 11
-1.0
 21
0.0
 31
0.0
  0
ENDBLK
  5
DED
330
DE9
100
AcDbEntity
  8
0
100
AcDbBlockEnd
  0
BLOCK
  5
E84
330
E7A
100
AcDbEntity
  8
0
100
AcDbBlockBegin
  2
*D24
 70
     1
 10
0.0
 20
0.0
 30
0.0
  3
*D24
  1

  0
LINE
  5
2102
330
E7A
100
AcDbEntity
  8
実形
 62
     0
370
    15
100
AcDbLine
 10
736.5409817259242
 20
529.140513310193
 30
0.0
 11
736.5409817259242
 21
567.0018506765777
 31
0.0
  0
LINE
  5
2103
330
E7A
100
AcDbEntity
  8
実形
 62
     0
370
    15
100
AcDbLine
 10
957.5409817259242
 20
529.795195827854
 30
0.0
 11
957.5409817259242
 21
567.0018506765777
 31
0.0
  0
LINE
  5
2104
330
E7A
100
AcDbEntity
  8
実形
 62
     0
370
    15
100
AcDbLine
 10
736.5409817259242
 20
567.0018506765777
 30
0.0
 11
957.5409817259242
 21
567.0018506765777
 31
0.0
  0
MTEXT
  5
2105
330
E7A
100
AcDbEntity
  8
実形
 62
     0
100
AcDbMText
 10
744.9800352958564
 20
586.4452779828921
 30
0.0
 40
25.0
 41
0.0
 71
     5
 72
     1
  1
20
 73
     1
 44
1.0
1001
ACAD
1000
MTEXTBEGIN
1070
    73
1070
     1
1070
    44
1040
1.0
1070
    74
1070
     0
1000
MTEXTEND
  0
INSERT
  5
2106
330
E7A
100
AcDbEntity
  8
実形
 62
     0
370
    15
100
AcDbBlockReference
  2
_DotSmall
 10
736.5409817259242
 20
567.0018506765777
 30
0.0
 41
30.0
 42
30.0
 43
30.0
 50
180.0
  0
INSERT
  5
2107
330
E7A
100
AcDbEntity
  8
実形
 62
     0
370
    15
100
AcDbBlockReference
  2
_DotSmall
 10
957.5409817259242
 20
567.0018506765777
 30
0.0
 41
30.0
 42
30.0
 43
30.0
  0
POINT
  5
2108
330
E7A
100
AcDbEntity
  8
Defpoints
 62
     0
100
AcDbPoint
 10
736.5409817259242
 20
464.140513310193
 30
0.0
  0
POINT
  5
2109
330
E7A
100
AcDbEntity
  8
Defpoints
 62
     0
100
AcDbPoint
 10
957.5409817259242
 20
464.795195827854
 30
0.0
  0
POINT
  5
210A
330
E7A
100
AcDbEntity
  8
Defpoints
 62
     0
100
AcDbPoint
 10
957.5409817259242
 20
567.0018506765777
 30
0.0
  0
ENDBLK
  5
E85
330
E7A
100
AcDbEntity
  8
0
100
AcDbBlockEnd
  0
BLOCK
  5
106E
330
106D
100
AcDbEntity
  8
0
100
AcDbBlockBegin
  2
*D25
 70
     1
 10
0.0
 20
0.0
 30
0.0
  3
*D25
  1

  0
LINE
  5
106F
330
106D
100
AcDbEntity
  8
0
 62
     0
370
    15
100
AcDbLine
 10
792.0406534737513
 20
1645.043089995703
 30
0.0
 11
792.0406534737513
 21
1672.989796808026
 31
0.0
  0
LINE
  5
1070
330
106D
100
AcDbEntity
  8
0
 62
     0
370
    15
100
AcDbLine
 10
832.0406534737513
 20
1645.043089995703
 30
0.0
 11
832.0406534737513
 21
1672.989796808026
 31
0.0
  0
LINE
  5
1071
330
106D
100
AcDbEntity
  8
0
 62
     0
370
    15
100
AcDbLine
 10
792.0406534737513
 20
1672.989796808026
 30
0.0
 11
832.0406534737513
 21
1672.989796808026
 31
0.0
  0
MTEXT
  5
1072
330
106D
100
AcDbEntity
  8
0
 62
     0
100
AcDbMText
 10
811.3004231402438
 20
1691.739796808026
 30
0.0
 40
25.0
 41
0.0
 71
     5
 72
     1
  1
40
 73
     1
 44
1.0
1001
ACAD
1000
MTEXTBEGIN
1070
    73
1070
     1
1070
    44
1040
1.0
1070
    74
1070
     0
1000
MTEXTEND
  0
INSERT
  5
1073
330
106D
100
AcDbEntity
  8
0
 62
     0
370
    15
100
AcDbBlockReference
  2
_DotSmall
 10
792.0406534737513
 20
1672.989796808026
 30
0.0
 41
30.0
 42
30.0
 43
30.0
 50
180.0
  0
INSERT
  5
1074
330
106D
100
AcDbEntity
  8
0
 62
     0
370
    15
100
AcDbBlockReference
  2
_DotSmall
 10
832.0406534737513
 20
1672.989796808026
 30
0.0
 41
30.0
 42
30.0
 43
30.0
  0
POINT
  5
1075
330
106D
100
AcDbEntity
  8
Defpoints
 62
     0
100
AcDbPoint
 10
792.0406534737513
 20
1580.043089995703
 30
0.0
  0
POINT
  5
1076
330
106D
100
AcDbEntity
  8
Defpoints
 62
     0
100
AcDbPoint
 10
832.0406534737513
 20
1580.043089995703
 30
0.0
  0
POINT
  5
1077
330
106D
100
AcDbEntity
  8
Defpoints
 62
     0
100
AcDbPoint
 10
832.0406534737513
 20
1672.989796808026
 30
0.0
  0
ENDBLK
  5
1078
330
106D
100
AcDbEntity
  8
0
100
AcDbBlockEnd
  0
BLOCK
  5
107A
330
1079
100
AcDbEntity
  8
0
100
AcDbBlockBegin
  2
*D26
 70
     1
 10
0.0
 20
0.0
 30
0.0
  3
*D26
  1

  0
LINE
  5
107B
330
1079
100
AcDbEntity
  8
0
 62
     0
370
    15
100
AcDbLine
 10
832.0406534737513
 20
1645.043089995703
 30
0.0
 11
832.0406534737513
 21
1672.989796808026
 31
0.0
  0
LINE
  5
107C
330
1079
100
AcDbEntity
  8
0
 62
     0
370
    15
100
AcDbLine
 10
1022.040653473751
 20
1645.043089995703
 30
0.0
 11
1022.040653473751
 21
1672.989796808026
 31
0.0
  0
LINE
  5
107D
330
1079
100
AcDbEntity
  8
0
 62
     0
370
    15
100
AcDbLine
 10
832.0406534737513
 20
1672.989796808026
 30
0.0
 11
1022.040653473751
 21
1672.989796808026
 31
0.0
  0
INSERT
  5
107E
330
1079
100
AcDbEntity
  8
0
 62
     0
370
    15
100
AcDbBlockReference
  2
_DotSmall
 10
832.0406534737513
 20
1672.989796808026
 30
0.0
 41
30.0
 42
30.0
 43
30.0
 50
180.0
  0
INSERT
  5
107F
330
1079
100
AcDbEntity
  8
0
 62
     0
370
    15
100
AcDbBlockReference
  2
_DotSmall
 10
1022.040653473751
 20
1672.989796808026
 30
0.0
 41
30.0
 42
30.0
 43
30.0
  0
MTEXT
  5
1080
330
1079
100
AcDbEntity
  8
0
 62
     0
100
AcDbMText
 10
927.0406534737514
 20
1691.739796808026
 30
0.0
 40
25.0
 41
0.0
 71
     5
 72
     1
  1
190
 73
     1
 44
1.0
1001
ACAD
1000
MTEXTBEGIN
1070
    73
1070
     1
1070
    44
1040
1.0
1070
    74
1070
     0
1000
MTEXTEND
  0
POINT
  5
1081
330
1079
100
AcDbEntity
  8
Defpoints
 62
     0
100
AcDbPoint
 10
832.0406534737513
 20
1580.043089995703
 30
0.0
  0
POINT
  5
1082
330
1079
100
AcDbEntity
  8
Defpoints
 62
     0
100
AcDbPoint
 10
1022.040653473751
 20
1580.043089995703
 30
0.0
  0
POINT
  5
1083
330
1079
100
AcDbEntity
  8
Defpoints
 62
     0
100
AcDbPoint
 10
1022.040653473751
 20
1672.989796808026
 30
0.0
  0
ENDBLK
  5
1084
330
1079
100
AcDbEntity
  8
0
100
AcDbBlockEnd
  0
BLOCK
  5
1086
330
1085
100
AcDbEntity
  8
0
100
AcDbBlockBegin
  2
*D27
 70
     1
 10
0.0
 20
0.0
 30
0.0
  3
*D27
  1

  0
LINE
  5
1087
330
1085
100
AcDbEntity
  8
0
 62
     0
370
    15
100
AcDbLine
 10
767.0406534737512
 20
1609.043089995703
 30
0.0
 11
739.3307164056722
 21
1609.043089995703
 31
0.0
  0
LINE
  5
1088
330
1085
100
AcDbEntity
  8
0
 62
     0
370
    15
100
AcDbLine
 10
767.0406534737513
 20
1614.543089995703
 30
0.0
 11
739.3307164056722
 21
1614.543089995703
 31
0.0
  0
LINE
  5
1089
330
1085
100
AcDbEntity
  8
0
 62
     0
370
    15
100
AcDbLine
 10
739.3307164056722
 20
1609.043089995703
 30
0.0
 11
739.3307164056722
 21
1579.043089995703
 31
0.0
  0
MTEXT
  5
108A
330
1085
100
AcDbEntity
  8
0
 62
     0
100
AcDbMText
 10
738.532904753436
 20
1654.539828866816
 30
0.0
 40
25.0
 41
0.0
 71
     5
 72
     1
  1
5.5
 11
0.0000000000000001
 21
1.0
 31
0.0
 73
     1
 44
1.0
1001
ACAD
1000
MTEXTBEGIN
1070
    73
1070
     1
1070
    44
1040
1.0
1070
    74
1070
     0
1000
MTEXTEND
  0
LINE
  5
108B
330
1085
100
AcDbEntity
  8
0
 62
     0
370
    15
100
AcDbLine
 10
739.3307164056722
 20
1609.043089995703
 30
0.0
 11
739.3307164056722
 21
1614.543089995703
 31
0.0
  0
INSERT
  5
108C
330
1085
100
AcDbEntity
  8
0
 62
     0
370
    15
100
AcDbBlockReference
  2
_DotSmall
 10
739.3307164056722
 20
1609.043089995703
 30
0.0
 41
30.0
 42
30.0
 43
30.0
 50
90.0
  0
POINT
  5
108D
330
1085
100
AcDbEntity
  8
Defpoints
 62
     0
100
AcDbPoint
 10
832.0406534737513
 20
1609.043089995703
 30
0.0
  0
POINT
  5
108E
330
1085
100
AcDbEntity
  8
Defpoints
 62
     0
100
AcDbPoint
 10
832.0406534737513
 20
1614.543089995703
 30
0.0
  0
POINT
  5
108F
330
1085
100
AcDbEntity
  8
Defpoints
 62
     0
100
AcDbPoint
 10
739.3307164056722
 20
1614.543089995703
 30
0.0
  0
ENDBLK
  5
1090
330
1085
100
AcDbEntity
  8
0
100
AcDbBlockEnd
  0
BLOCK
  5
10AC
330
1091
100
AcDbEntity
  8
0
 62
     1
100
AcDbBlockBegin
  2
A$C47360BBC
 70
     0
 10
0.0
 20
0.0
 30
0.0
  3
A$C47360BBC
  1

  0
LINE
  5
1092
330
1091
100
AcDbEntity
  8
0
 62
     1
100
AcDbLine
 10
806.0077516116336
 20
370.5000040859886
 30
0.0
 11
126.0077516116334
 21
370.5000040859888
 31
0.0
  0
LINE
  5
1093
330
1091
100
AcDbEntity
  8
0
 62
     1
100
AcDbLine
 10
201.0077516116335
 20
553.3692542970384
 30
0.0
 11
201.0077516116335
 21
0.0000040859886212
 31
0.0
  0
ARC
  5
1094
330
1091
100
AcDbEntity
  8
0
100
AcDbCircle
 10
276.0077516116335
 20
430.0000040859888
 30
0.0
 40
100.0
100
AcDbArc
 50
270.0
 51
327.133535260914
  0
LINE
  5
1095
330
1091
100
AcDbEntity
  8
0
100
AcDbLine
 10
276.0077516116335
 20
330.0000040859889
 30
0.0
 11
181.0077516116334
 21
330.0000040859889
 31
0.0
  0
ARC
  5
1096
330
1091
100
AcDbEntity
  8
0
100
AcDbCircle
 10
126.0077516116336
 20
345.0000040859888
 30
0.0
 40
60.0
100
AcDbArc
 50
90.0
 51
180.0
  0
ARC
  5
1097
330
1091
100
AcDbEntity
  8
0
100
AcDbCircle
 10
126.0077516116334
 20
345.0000040859888
 30
0.0
 40
77.0
100
AcDbArc
 50
90.0
 51
180.0
  0
LINE
  5
1098
330
1091
100
AcDbEntity
  8
Cen
100
AcDbLine
 10
336.0077516116334
 20
552.0000040859888
 30
0.0
 11
336.0077516116334
 21
358.0000040859888
 31
0.0
  0
CIRCLE
  5
1099
330
1091
100
AcDbEntity
  8
Cen
100
AcDbCircle
 10
336.0077516116334
 20
390.0000040859889
 30
0.0
 40
6.0
  0
LINE
  5
109A
330
1091
100
AcDbEntity
  8
Cen
100
AcDbLine
 10
316.9996012277343
 20
390.0000040859891
 30
0.0
 11
351.520322741967
 21
390.0000040859889
 31
0.0
  0
LINE
  5
109B
330
1091
100
AcDbEntity
  8
0
100
AcDbLine
 10
135.0077516116336
 20
399.5000040859888
 30
0.0
 11
267.0077516116336
 21
399.5000040859888
 31
0.0
  0
LINE
  5
109C
330
1091
100
AcDbEntity
  8
0
100
AcDbLine
 10
296.0077516116336
 20
370.5000040859891
 30
0.0
 11
296.0077516116337
 21
370.5000040859888
 31
0.0
  0
LINE
  5
109D
330
1091
100
AcDbEntity
  8
0
100
AcDbLine
 10
267.0077516116337
 20
341.5000040859888
 30
0.0
 11
135.0077516116336
 21
341.5000040859888
 31
0.0
  0
LINE
  5
109E
330
1091
100
AcDbEntity
  8
0
100
AcDbLine
 10
106.0077516116336
 20
370.5000040859888
 30
0.0
 11
106.0077516116336
 21
370.5000040859888
 31
0.0
  0
ARC
  5
109F
330
1091
100
AcDbEntity
  8
0
100
AcDbCircle
 10
135.0077516116336
 20
370.5000040859888
 30
0.0
 40
29.0
100
AcDbArc
 50
90.0
 51
180.0
  0
ARC
  5
10A0
330
1091
100
AcDbEntity
  8
0
100
AcDbCircle
 10
135.0077516116336
 20
370.5000040859888
 30
0.0
 40
29.0
100
AcDbArc
 50
180.0
 51
270.0
  0
ARC
  5
10A1
330
1091
100
AcDbEntity
  8
0
100
AcDbCircle
 10
267.0077516116337
 20
370.5000040859888
 30
0.0
 40
29.0
100
AcDbArc
 50
270.0
 51
0.0
  0
ARC
  5
10A2
330
1091
100
AcDbEntity
  8
0
100
AcDbCircle
 10
267.0077516116336
 20
370.5000040859888
 30
0.0
 40
29.0
100
AcDbArc
 50
0.0
 51
90.0
  0
DIMENSION
  5
10A3
330
1091
100
AcDbEntity
  8
0
100
AcDbDimension
  2
*D25
 10
106.0077516116336
 20
463.4467108983117
 30
0.0
 11
85.26752127812597
 21
463.4467108983117
 31
0.0
 12
-726.0329018621177
 22
-1209.543085909714
 32
0.0
 70
   128
 71
     5
 42
40.0
  3
ISO-25
100
AcDbAlignedDimension
 13
66.00775161163358
 23
370.5000040859888
 33
0.0
 14
106.0077516116336
 24
370.5000040859888
 34
0.0
100
AcDbRotatedDimension
1001
ACAD
1000
DSTYLE
1002
{
1070
   279
1070
     1
1002
}
  0
DIMENSION
  5
10A4
330
1091
100
AcDbEntity
  8
0
100
AcDbDimension
  2
*D26
 10
296.0077516116336
 20
463.4467108983117
 30
0.0
 11
201.0077516116336
 21
482.1967108983117
 31
0.0
 12
-726.0329018621177
 22
-1209.543085909714
 32
0.0
 71
     5
 42
190.0
  3
ISO-25
100
AcDbAlignedDimension
 13
106.0077516116336
 23
370.5000040859888
 33
0.0
 14
296.0077516116336
 24
370.5000040859888
 34
0.0
100
AcDbRotatedDimension
1001
ACAD
1000
DSTYLE
1002
{
1070
   279
1070
     1
1002
}
  0
DIMENSION
  5
10A5
330
1091
100
AcDbEntity
  8
0
100
AcDbDimension
  2
*D27
 10
13.29781454355452
 20
405.0000040859888
 30
0.0
 11
12.50000289131822
 21
444.9967429571016
 31
0.0
 12
-726.0329018621177
 22
-1209.543085909714
 32
0.0
 70
   128
 71
     5
 42
5.5
  3
ISO-25
100
AcDbAlignedDimension
 13
106.0077516116334
 23
399.5000040859888
 33
0.0
 14
106.0077516116336
 24
405.0000040859888
 34
0.0
 50
90.0
100
AcDbRotatedDimension
1001
ACAD
1000
DSTYLE
1002
{
1070
   282
1070
     1
1070
   279
1070
     2
1002
}
  0
CIRCLE
  5
10A6
330
1091
100
AcDbEntity
  8
0
100
AcDbCircle
 10
201.0077516116336
 20
370.5000040859891
 30
0.0
 40
21.99999999999977
  0
CIRCLE
  5
10A7
330
1091
100
AcDbEntity
  8
0
100
AcDbCircle
 10
201.0077516116336
 20
370.5000040859891
 30
0.0
 40
19.31162841867126
  0
CIRCLE
  5
10A8
102
{ACAD_REACTORS
330
10A9
102
}
330
1091
100
AcDbEntity
  8
0
370
    20
100
AcDbCircle
 10
13.29781454355452
 20
405.0000040859888
 30
0.0
 40
2.686192441042294
  0
HATCH
  5
10A9
330
1091
100
AcDbEntity
  8
0
100
AcDbHatch
 10
0.0
 20
0.0
 30
0.0
210
0.0
220
0.0
230
1.0
  2
SOLID
 70
     1
 71
     1
 91
        1
 92
        7
 72
     1
 73
     1
 93
        2
 10
15.98400698459682
 20
405.0000040859888
 42
1.0
 10
10.61162210251223
 20
405.0000040859888
 42
1.0
 97
        1
330
10A8
 75
     0
 76
     1
 47
0.4154898185022131
 98
        1
 10
14.43078773183697
 20
404.6988558753148
  0
ENDBLK
  5
10AD
330
1091
100
AcDbEntity
  8
0
 62
     1
100
AcDbBlockEnd
  0
BLOCK
  5
1117
330
110D
100
AcDbEntity
  8
0
 62
     1
100
AcDbBlockBegin
  2
*D29
 70
     1
 10
0.0
 20
0.0
 30
0.0
  3
*D29
  1

  0
LINE
  5
1BFE
330
110D
100
AcDbEntity
  8
実形
 62
     0
370
    15
100
AcDbLine
 10
422.0409817259242
 20
1518.51833077427
 30
0.0
 11
400.5472283637609
 21
1518.51833077427
 31
0.0
  0
LINE
  5
1BFF
330
110D
100
AcDbEntity
  8
実形
 62
     0
370
    15
100
AcDbLine
 10
423.3385622587429
 20
1582.51833077427
 30
0.0
 11
400.5472283637609
 21
1582.51833077427
 31
0.0
  0
LINE
  5
1C00
330
110D
100
AcDbEntity
  8
実形
 62
     0
370
    15
100
AcDbLine
 10
400.5472283637609
 20
1518.51833077427
 30
0.0
 11
400.5472283637609
 21
1582.51833077427
 31
0.0
  0
INSERT
  5
1C01
330
110D
100
AcDbEntity
  8
実形
 62
     0
370
    15
100
AcDbBlockReference
  2
_DotSmall
 10
400.5472283637609
 20
1518.51833077427
 30
0.0
 41
30.0
 42
30.0
 43
30.0
 50
270.0
  0
INSERT
  5
1C02
330
110D
100
AcDbEntity
  8
実形
 62
     0
370
    15
100
AcDbBlockReference
  2
_DotSmall
 10
400.5472283637609
 20
1582.51833077427
 30
0.0
 41
30.0
 42
30.0
 43
30.0
 50
90.0
  0
MTEXT
  5
1C03
330
110D
100
AcDbEntity
  8
実形
 62
     0
100
AcDbMText
 10
381.7972283637607
 20
1550.51833077427
 30
0.0
 40
25.0
 41
0.0
 71
     5
 72
     1
  1
59
 11
0.0000000000000001
 21
1.0
 31
0.0
 73
     1
 44
1.0
1001
ACAD
1000
MTEXTBEGIN
1070
    73
1070
     1
1070
    44
1040
1.0
1070
    74
1070
     0
1000
MTEXTEND
  0
POINT
  5
1C04
330
110D
100
AcDbEntity
  8
Defpoints
 62
     0
100
AcDbPoint
 10
487.0409817259242
 20
1518.51833077427
 30
0.0
  0
POINT
  5
1C05
330
110D
100
AcDbEntity
  8
Defpoints
 62
     0
100
AcDbPoint
 10
488.338562258743
 20
1582.51833077427
 30
0.0
  0
POINT
  5
1C06
330
110D
100
AcDbEntity
  8
Defpoints
 62
     0
100
AcDbPoint
 10
400.5472283637609
 20
1582.51833077427
 30
0.0
  0
ENDBLK
  5
1118
330
110D
100
AcDbEntity
  8
0
 62
     1
100
AcDbBlockEnd
  0
BLOCK
  5
1124
330
111A
100
AcDbEntity
  8
0
 62
     1
100
AcDbBlockBegin
  2
*D30
 70
     1
 10
0.0
 20
0.0
 30
0.0
  3
*D30
  1

  0
LINE
  5
1C07
330
111A
100
AcDbEntity
  8
実形
 62
     0
370
    15
100
AcDbLine
 10
423.3385622587429
 20
1577.540350481767
 30
0.0
 11
400.558717391882
 21
1577.540350481767
 31
0.0
  0
LINE
  5
1C08
330
111A
100
AcDbEntity
  8
実形
 62
     0
370
    15
100
AcDbLine
 10
424.3305217104334
 20
1518.540048751448
 30
0.0
 11
400.558717391882
 21
1518.540048751448
 31
0.0
  0
LINE
  5
1C09
330
111A
100
AcDbEntity
  8
実形
 62
     0
370
    15
100
AcDbLine
 10
400.558717391882
 20
1577.540350481767
 30
0.0
 11
400.558717391882
 21
1518.540048751448
 31
0.0
  0
MTEXT
  5
1C0A
330
111A
100
AcDbEntity
  8
実形
 62
     0
100
AcDbMText
 10
384.7763301193973
 20
1606.792598583276
 30
0.0
 40
25.0
 41
0.0
 71
     5
 72
     1
  1
5
 11
0.0000000000000001
 21
1.0
 31
0.0
 73
     1
 44
1.0
1001
ACAD
1000
MTEXTBEGIN
1070
    73
1070
     1
1070
    44
1040
1.0
1070
    74
1070
     0
1000
MTEXTEND
  0
INSERT
  5
1C0B
330
111A
100
AcDbEntity
  8
実形
 62
     0
370
    15
100
AcDbBlockReference
  2
_DotSmall
 10
400.558717391882
 20
1577.540350481767
 30
0.0
 41
30.0
 42
30.0
 43
30.0
 50
90.0
  0
INSERT
  5
1C0C
330
111A
100
AcDbEntity
  8
実形
 62
     0
370
    15
100
AcDbBlockReference
  2
_DotSmall
 10
400.558717391882
 20
1518.540048751448
 30
0.0
 41
30.0
 42
30.0
 43
30.0
 50
270.0
  0
POINT
  5
1C0D
330
111A
100
AcDbEntity
  8
Defpoints
 62
     0
100
AcDbPoint
 10
488.338562258743
 20
1577.540350481767
 30
0.0
  0
POINT
  5
1C0E
330
111A
100
AcDbEntity
  8
Defpoints
 62
     0
100
AcDbPoint
 10
489.3305217104334
 20
1518.540048751448
 30
0.0
  0
POINT
  5
1C0F
330
111A
100
AcDbEntity
  8
Defpoints
 62
     0
100
AcDbPoint
 10
400.558717391882
 20
1518.540048751448
 30
0.0
  0
ENDBLK
  5
1125
330
111A
100
AcDbEntity
  8
0
 62
     1
100
AcDbBlockEnd
  0
BLOCK
  5
11D9
330
11CF
100
AcDbEntity
  8
0
 62
     1
100
AcDbBlockBegin
  2
*D31
 70
     1
 10
0.0
 20
0.0
 30
0.0
  3
*D31
  1

  0
LINE
  5
1C10
330
11CF
100
AcDbEntity
  8
実形
 62
     0
370
    15
100
AcDbLine
 10
447.0409817259242
 20
1614.504717170459
 30
0.0
 11
447.0409817259242
 21
1659.855010029536
 31
0.0
  0
LINE
  5
1C11
330
11CF
100
AcDbEntity
  8
実形
 62
     0
370
    15
100
AcDbLine
 10
677.0409817259242
 20
1648.502584916355
 30
0.0
 11
677.0409817259242
 21
1659.855010029536
 31
0.0
  0
LINE
  5
1C12
330
11CF
100
AcDbEntity
  8
実形
 62
     0
370
    15
100
AcDbLine
 10
447.0409817259242
 20
1659.855010029536
 30
0.0
 11
677.0409817259242
 21
1659.855010029536
 31
0.0
  0
MTEXT
  5
1C13
330
11CF
100
AcDbEntity
  8
実形
 62
     0
100
AcDbMText
 10
447.0409817259242
 20
1678.605010029536
 30
0.0
 40
25.0
 41
0.0
 71
     5
 72
     1
  1
40
 73
     1
 44
1.0
1001
ACAD
1000
MTEXTBEGIN
1070
    73
1070
     1
1070
    44
1040
1.0
1070
    74
1070
     0
1000
MTEXTEND
  0
INSERT
  5
1C14
330
11CF
100
AcDbEntity
  8
実形
 62
     0
370
    15
100
AcDbBlockReference
  2
_DotSmall
 10
447.0409817259242
 20
1659.855010029536
 30
0.0
 41
30.0
 42
30.0
 43
30.0
 50
180.0
  0
INSERT
  5
1C15
330
11CF
100
AcDbEntity
  8
実形
 62
     0
370
    15
100
AcDbBlockReference
  2
_DotSmall
 10
677.0409817259242
 20
1659.855010029536
 30
0.0
 41
30.0
 42
30.0
 43
30.0
  0
POINT
  5
1C16
330
11CF
100
AcDbEntity
  8
Defpoints
 62
     0
100
AcDbPoint
 10
447.0409817259242
 20
1549.504717170459
 30
0.0
  0
POINT
  5
1C17
330
11CF
100
AcDbEntity
  8
Defpoints
 62
     0
100
AcDbPoint
 10
677.0409817259242
 20
1583.502584916355
 30
0.0
  0
POINT
  5
1C18
330
11CF
100
AcDbEntity
  8
Defpoints
 62
     0
100
AcDbPoint
 10
677.0409817259242
 20
1659.855010029536
 30
0.0
  0
ENDBLK
  5
11DA
330
11CF
100
AcDbEntity
  8
0
 62
     1
100
AcDbBlockEnd
  0
BLOCK
  5
11E6
330
11DC
100
AcDbEntity
  8
0
 62
     1
100
AcDbBlockBegin
  2
*D32
 70
     1
 10
0.0
 20
0.0
 30
0.0
  3
*D32
  1

  0
LINE
  5
1C19
330
11DC
100
AcDbEntity
  8
実形
 62
     0
370
    15
100
AcDbLine
 10
487.0409817259242
 20
1613.01833077427
 30
0.0
 11
487.0409817259242
 21
1659.855010029536
 31
0.0
  0
LINE
  5
1C1A
330
11DC
100
AcDbEntity
  8
実形
 62
     0
370
    15
100
AcDbLine
 10
677.0409817259242
 20
1613.01833077427
 30
0.0
 11
677.0409817259242
 21
1659.855010029536
 31
0.0
  0
LINE
  5
1C1B
330
11DC
100
AcDbEntity
  8
実形
 62
     0
370
    15
100
AcDbLine
 10
487.0409817259242
 20
1659.855010029536
 30
0.0
 11
677.0409817259242
 21
1659.855010029536
 31
0.0
  0
MTEXT
  5
1C1C
330
11DC
100
AcDbEntity
  8
実形
 62
     0
100
AcDbMText
 10
574.2571133702613
 20
1682.244856565432
 30
0.0
 40
25.0
 41
0.0
 71
     5
 72
     1
  1
190
 73
     1
 44
1.0
1001
ACAD
1000
MTEXTBEGIN
1070
    73
1070
     1
1070
    44
1040
1.0
1070
    74
1070
     0
1000
MTEXTEND
  0
INSERT
  5
1C1D
330
11DC
100
AcDbEntity
  8
実形
 62
     0
370
    15
100
AcDbBlockReference
  2
_DotSmall
 10
487.0409817259242
 20
1659.855010029536
 30
0.0
 41
30.0
 42
30.0
 43
30.0
 50
180.0
  0
INSERT
  5
1C1E
330
11DC
100
AcDbEntity
  8
実形
 62
     0
370
    15
100
AcDbBlockReference
  2
_DotSmall
 10
677.0409817259242
 20
1659.855010029536
 30
0.0
 41
30.0
 42
30.0
 43
30.0
  0
POINT
  5
1C1F
330
11DC
100
AcDbEntity
  8
Defpoints
 62
     0
100
AcDbPoint
 10
487.0409817259242
 20
1548.01833077427
 30
0.0
  0
POINT
  5
1C20
330
11DC
100
AcDbEntity
  8
Defpoints
 62
     0
100
AcDbPoint
 10
677.0409817259242
 20
1548.01833077427
 30
0.0
  0
POINT
  5
1C21
330
11DC
100
AcDbEntity
  8
Defpoints
 62
     0
100
AcDbPoint
 10
677.0409817259242
 20
1659.855010029536
 30
0.0
  0
ENDBLK
  5
11E7
330
11DC
100
AcDbEntity
  8
0
 62
     1
100
AcDbBlockEnd
  0
BLOCK
  5
12E3
330
12A6
100
AcDbEntity
  8
0
 62
     1
100
AcDbBlockBegin
  2
A$C12C95FB9
 70
     0
 10
0.0
 20
0.0
 30
0.0
  3
A$C12C95FB9
  1

  0
TEXT
  5
12A7
330
12A6
100
AcDbEntity
  8
0
100
AcDbText
 10
522.7848991929091
 20
152.964944261544
 30
0.0
 40
25.0
  1
12%%C
 72
     2
 11
581.1182325262425
 21
149.6316109282106
 31
0.0
100
AcDbText
 73
     1
  0
ARC
  5
12A8
330
12A6
100
AcDbEntity
  8
0
100
AcDbCircle
 10
160.5000006151301
 20
29.50000288445722
 30
0.0
 40
29.5
100
AcDbArc
 50
270.0
 51
0.0
  0
ARC
  5
12A9
330
12A6
100
AcDbEntity
  8
0
100
AcDbCircle
 10
160.5000006151301
 20
29.50000288445676
 30
0.0
 40
29.5
100
AcDbArc
 50
0.0
 51
90.0
  0
LINE
  5
12AA
330
12A6
100
AcDbEntity
  8
0
100
AcDbLine
 10
190.0000006151301
 20
29.50000288445722
 30
0.0
 11
190.0000006151301
 21
29.50000288445676
 31
0.0
  0
ARC
  5
12AB
330
12A6
100
AcDbEntity
  8
0
100
AcDbCircle
 10
29.50000061512992
 20
29.50000288445722
 30
0.0
 40
29.5
100
AcDbArc
 50
90.0
 51
180.0
  0
ARC
  5
12AC
330
12A6
100
AcDbEntity
  8
0
100
AcDbCircle
 10
29.5000006151297
 20
29.50000288445722
 30
0.0
 40
29.5
100
AcDbArc
 50
180.0
 51
270.0
  0
LINE
  5
12AD
330
12A6
100
AcDbEntity
  8
0
100
AcDbLine
 10
29.5000006151297
 20
0.0000028844572171
 30
0.0
 11
160.5000006151301
 21
0.0000028844572171
 31
0.0
  0
LINE
  5
12AE
330
12A6
100
AcDbEntity
  8
0
100
AcDbLine
 10
29.50000061513015
 20
59.00000288445721
 30
0.0
 11
160.5000006151301
 21
59.00000288445676
 31
0.0
  0
ARC
  5
12AF
330
12A6
100
AcDbEntity
  8
実形
370
    15
100
AcDbCircle
 10
95.00000061513004
 20
29.50000288445722
 30
0.0
 40
12.5
100
AcDbArc
 50
282.5558577985876
 51
347.4441422014174
  0
LINE
  5
12B0
330
12A6
100
AcDbEntity
  8
実形
370
    15
100
AcDbLine
 10
83.77502845480831
 20
31.00000288445722
 30
0.0
 11
92.50000061513004
 21
31.00000288445722
 31
0.0
  0
LINE
  5
12B1
330
12A6
100
AcDbEntity
  8
実形
370
    15
100
AcDbLine
 10
83.77502845480819
 20
28.00000288445722
 30
0.0
 11
92.50000061513004
 21
28.00000288445699
 31
0.0
  0
LINE
  5
12B2
330
12A6
100
AcDbEntity
  8
実形
370
    15
100
AcDbLine
 10
96.50000061513004
 20
40.72497504477905
 30
0.0
 11
96.50000061512992
 21
32.00000288445699
 31
0.0
  0
LINE
  5
12B3
330
12A6
100
AcDbEntity
  8
実形
370
    15
100
AcDbLine
 10
93.50000061513004
 20
40.72497504477905
 30
0.0
 11
93.50000061513004
 21
32.00000288445722
 31
0.0
  0
LINE
  5
12B4
330
12A6
100
AcDbEntity
  8
実形
370
    15
100
AcDbLine
 10
93.50000061513004
 20
27.00000288445699
 30
0.0
 11
93.50000061513004
 21
18.27503072413538
 31
0.0
  0
LINE
  5
12B5
330
12A6
100
AcDbEntity
  8
実形
370
    15
100
AcDbLine
 10
97.50000061512992
 20
31.00000288445699
 30
0.0
 11
106.224972775452
 21
31.00000288445745
 31
0.0
  0
LINE
  5
12B6
330
12A6
100
AcDbEntity
  8
実形
370
    15
100
AcDbLine
 10
96.50000061512992
 20
27.00000288445722
 30
0.0
 11
96.50000061513004
 21
18.27503072413538
 31
0.0
  0
LINE
  5
12B7
330
12A6
100
AcDbEntity
  8
実形
370
    15
100
AcDbLine
 10
97.50000061512992
 20
28.00000288445722
 30
0.0
 11
106.2249727754517
 21
28.00000288445722
 31
0.0
  0
ARC
  5
12B8
330
12A6
100
AcDbEntity
  8
実形
370
    15
100
AcDbCircle
 10
95.00000061513004
 20
29.50000288445722
 30
0.0
 40
12.5
100
AcDbArc
 50
192.5558577985826
 51
257.4441422014124
  0
ARC
  5
12B9
330
12A6
100
AcDbEntity
  8
実形
370
    15
100
AcDbCircle
 10
95.00000061513004
 20
29.50000288445722
 30
0.0
 40
12.5
100
AcDbArc
 50
102.5558577985876
 51
167.4441422014173
  0
ARC
  5
12BA
330
12A6
100
AcDbEntity
  8
実形
370
    15
100
AcDbCircle
 10
95.00000061513004
 20
29.50000288445722
 30
0.0
 40
12.5
100
AcDbArc
 50
12.55585779858264
 51
77.44414220141242
  0
ARC
  5
12BB
330
12A6
100
AcDbEntity
  8
実形
370
    15
100
AcDbCircle
 10
97.50000061513015
 20
40.72497504477905
 30
0.0
 40
1.0
100
AcDbArc
 50
77.44414220141242
 51
180.0
  0
ARC
  5
12BC
330
12A6
100
AcDbEntity
  8
実形
370
    15
100
AcDbCircle
 10
106.224972775452
 20
32.00000288445676
 30
0.0
 40
1.0
100
AcDbArc
 50
270.0
 51
12.55585779858264
  0
ARC
  5
12BD
330
12A6
100
AcDbEntity
  8
実形
370
    15
100
AcDbCircle
 10
106.2249727754517
 20
27.00000288445676
 30
0.0
 40
1.0
100
AcDbArc
 50
347.4441422014174
 51
90.0
  0
ARC
  5
12BE
330
12A6
100
AcDbEntity
  8
実形
370
    15
100
AcDbCircle
 10
97.50000061513004
 20
18.27503072413538
 30
0.0
 40
1.0
100
AcDbArc
 50
180.0
 51
282.5558577985876
  0
ARC
  5
12BF
330
12A6
100
AcDbEntity
  8
実形
370
    15
100
AcDbCircle
 10
92.50000061513004
 20
18.27503072413538
 30
0.0
 40
1.0
100
AcDbArc
 50
257.4441422014124
 51
0.0
  0
ARC
  5
12C0
330
12A6
100
AcDbEntity
  8
実形
370
    15
100
AcDbCircle
 10
83.77502845480819
 20
27.00000288445745
 30
0.0
 40
1.0
100
AcDbArc
 50
90.0
 51
192.5558577985812
  0
ARC
  5
12C1
330
12A6
100
AcDbEntity
  8
実形
370
    15
100
AcDbCircle
 10
83.77502845480831
 20
32.00000288445745
 30
0.0
 40
1.0
100
AcDbArc
 50
167.4441422014188
 51
270.0
  0
ARC
  5
12C2
330
12A6
100
AcDbEntity
  8
実形
370
    15
100
AcDbCircle
 10
92.50000061513004
 20
40.72497504477905
 30
0.0
 40
1.0
100
AcDbArc
 50
0.0
 51
102.5558577985876
  0
ARC
  5
12C3
330
12A6
100
AcDbEntity
  8
実形
370
    15
100
AcDbCircle
 10
92.50000061513004
 20
27.00000288445699
 30
0.0
 40
1.0
100
AcDbArc
 50
0.0
 51
90.0
  0
ARC
  5
12C4
330
12A6
100
AcDbEntity
  8
実形
370
    15
100
AcDbCircle
 10
97.50000061512992
 20
27.00000288445722
 30
0.0
 40
1.0
100
AcDbArc
 50
90.0
 51
180.0
  0
ARC
  5
12C5
330
12A6
100
AcDbEntity
  8
実形
370
    15
100
AcDbCircle
 10
97.50000061512992
 20
32.00000288445699
 30
0.0
 40
1.0
100
AcDbArc
 50
180.0
 51
270.0
  0
ARC
  5
12C6
330
12A6
100
AcDbEntity
  8
実形
370
    15
100
AcDbCircle
 10
92.50000061513004
 20
32.00000288445722
 30
0.0
 40
1.0
100
AcDbArc
 50
270.0
 51
0.0
  0
LINE
  5
12C7
330
12A6
100
AcDbEntity
  8
実形
370
    15
100
AcDbLine
 10
10.00000061513003
 20
29.50000288445699
 30
0.0
 11
10.00000061513003
 21
29.50000288445699
 31
0.0
  0
LINE
  5
12C8
330
12A6
100
AcDbEntity
  8
実形
370
    15
100
AcDbLine
 10
20.00000061513004
 20
19.50000288445699
 30
0.0
 11
60.00000061513003
 21
19.50000288445721
 31
0.0
  0
LINE
  5
12C9
330
12A6
100
AcDbEntity
  8
実形
370
    15
100
AcDbLine
 10
70.00000061513003
 20
29.50000288445722
 30
0.0
 11
70.00000061513003
 21
29.50000288445722
 31
0.0
  0
LINE
  5
12CA
330
12A6
100
AcDbEntity
  8
実形
370
    15
100
AcDbLine
 10
60.00000061513003
 20
39.50000288445722
 30
0.0
 11
20.00000061513004
 21
39.50000288445699
 31
0.0
  0
ARC
  5
12CB
330
12A6
100
AcDbEntity
  8
実形
370
    15
100
AcDbCircle
 10
60.00000061513003
 20
29.50000288445722
 30
0.0
 40
10.0
100
AcDbArc
 50
0.0
 51
90.0
  0
ARC
  5
12CC
330
12A6
100
AcDbEntity
  8
実形
370
    15
100
AcDbCircle
 10
60.00000061513003
 20
29.50000288445722
 30
0.0
 40
10.0
100
AcDbArc
 50
270.0
 51
0.0
  0
ARC
  5
12CD
330
12A6
100
AcDbEntity
  8
実形
370
    15
100
AcDbCircle
 10
20.00000061513004
 20
29.50000288445699
 30
0.0
 40
10.0
100
AcDbArc
 50
180.0
 51
270.0
  0
ARC
  5
12CE
330
12A6
100
AcDbEntity
  8
実形
370
    15
100
AcDbCircle
 10
20.00000061513004
 20
29.50000288445699
 30
0.0
 40
10.0
100
AcDbArc
 50
90.0
 51
180.0
  0
LINE
  5
12CF
330
12A6
100
AcDbEntity
  8
実形
370
    15
100
AcDbLine
 10
20.00000061513004
 20
24.50000288445699
 30
0.0
 11
60.00000061513003
 21
24.50000288445722
 31
0.0
  0
ARC
  5
12D0
330
12A6
100
AcDbEntity
  8
実形
370
    15
100
AcDbCircle
 10
20.00000061513004
 20
29.50000288445699
 30
0.0
 40
5.0
100
AcDbArc
 50
180.0
 51
270.0
  0
ARC
  5
12D1
330
12A6
100
AcDbEntity
  8
実形
370
    15
100
AcDbCircle
 10
20.00000061513004
 20
29.50000288445699
 30
0.0
 40
5.0
100
AcDbArc
 50
90.0
 51
180.0
  0
LINE
  5
12D2
330
12A6
100
AcDbEntity
  8
実形
370
    15
100
AcDbLine
 10
60.00000061513003
 20
34.50000288445722
 30
0.0
 11
20.00000061513004
 21
34.50000288445699
 31
0.0
  0
ARC
  5
12D3
330
12A6
100
AcDbEntity
  8
実形
370
    15
100
AcDbCircle
 10
60.00000061513003
 20
29.50000288445722
 30
0.0
 40
5.0
100
AcDbArc
 50
0.0
 51
90.0
  0
ARC
  5
12D4
330
12A6
100
AcDbEntity
  8
実形
370
    15
100
AcDbCircle
 10
60.00000061513003
 20
29.50000288445722
 30
0.0
 40
5.0
100
AcDbArc
 50
270.0
 51
0.0
  0
ARC
  5
12D5
330
12A6
100
AcDbEntity
  8
実形
370
    15
100
AcDbCircle
 10
130.0000006151302
 20
29.50000288445722
 30
0.0
 40
5.0
100
AcDbArc
 50
180.0
 51
270.0
  0
ARC
  5
12D6
330
12A6
100
AcDbEntity
  8
実形
370
    15
100
AcDbCircle
 10
130.0000006151302
 20
29.50000288445722
 30
0.0
 40
5.0
100
AcDbArc
 50
90.0
 51
180.0
  0
LINE
  5
12D7
330
12A6
100
AcDbEntity
  8
実形
370
    15
100
AcDbLine
 10
130.0000006151302
 20
34.50000288445722
 30
0.0
 11
170.0000006151302
 21
34.50000288445699
 31
0.0
  0
ARC
  5
12D8
330
12A6
100
AcDbEntity
  8
実形
370
    15
100
AcDbCircle
 10
170.0000006151302
 20
29.50000288445699
 30
0.0
 40
5.0
100
AcDbArc
 50
0.0
 51
90.0
  0
ARC
  5
12D9
330
12A6
100
AcDbEntity
  8
実形
370
    15
100
AcDbCircle
 10
170.0000006151302
 20
29.50000288445699
 30
0.0
 40
5.0
100
AcDbArc
 50
270.0
 51
0.0
  0
LINE
  5
12DA
330
12A6
100
AcDbEntity
  8
実形
370
    15
100
AcDbLine
 10
170.0000006151302
 20
24.50000288445699
 30
0.0
 11
130.0000006151302
 21
24.50000288445722
 31
0.0
  0
LINE
  5
12DB
330
12A6
100
AcDbEntity
  8
実形
370
    15
100
AcDbLine
 10
130.0000006151302
 20
39.50000288445722
 30
0.0
 11
170.0000006151302
 21
39.50000288445699
 31
0.0
  0
LINE
  5
12DC
330
12A6
100
AcDbEntity
  8
実形
370
    15
100
AcDbLine
 10
180.0000006151302
 20
29.50000288445699
 30
0.0
 11
180.0000006151302
 21
29.50000288445699
 31
0.0
  0
ARC
  5
12DD
330
12A6
100
AcDbEntity
  8
実形
370
    15
100
AcDbCircle
 10
170.0000006151302
 20
29.50000288445699
 30
0.0
 40
10.0
100
AcDbArc
 50
0.0
 51
90.0
  0
LINE
  5
12DE
330
12A6
100
AcDbEntity
  8
実形
370
    15
100
AcDbLine
 10
170.0000006151302
 20
19.50000288445699
 30
0.0
 11
130.0000006151302
 21
19.50000288445721
 31
0.0
  0
ARC
  5
12DF
330
12A6
100
AcDbEntity
  8
実形
370
    15
100
AcDbCircle
 10
170.0000006151302
 20
29.50000288445699
 30
0.0
 40
10.0
100
AcDbArc
 50
270.0
 51
0.0
  0
LINE
  5
12E0
330
12A6
100
AcDbEntity
  8
実形
370
    15
100
AcDbLine
 10
120.0000006151302
 20
29.50000288445722
 30
0.0
 11
120.0000006151302
 21
29.50000288445722
 31
0.0
  0
ARC
  5
12E1
330
12A6
100
AcDbEntity
  8
実形
370
    15
100
AcDbCircle
 10
130.0000006151302
 20
29.50000288445722
 30
0.0
 40
10.0
100
AcDbArc
 50
180.0
 51
270.0
  0
ARC
  5
12E2
330
12A6
100
AcDbEntity
  8
実形
370
    15
100
AcDbCircle
 10
130.0000006151302
 20
29.50000288445722
 30
0.0
 40
10.0
100
AcDbArc
 50
90.0
 51
180.0
  0
ENDBLK
  5
12E4
330
12A6
100
AcDbEntity
  8
0
 62
     1
100
AcDbBlockEnd
  0
BLOCK
  5
15C5
330
15C1
100
AcDbEntity
  8
0
 62
     1
100
AcDbBlockBegin
  2
_Open90
 70
     0
 10
0.0
 20
0.0
 30
0.0
  3
_Open90
  1

  0
LINE
  5
15C2
330
15C1
100
AcDbEntity
  8
0
  6
ByBlock
 62
     0
370
    -2
100
AcDbLine
 10
-0.5
 20
0.5
 30
0.0
 11
0.0
 21
0.0
 31
0.0
  0
LINE
  5
15C3
330
15C1
100
AcDbEntity
  8
0
  6
ByBlock
 62
     0
370
    -2
100
AcDbLine
 10
0.0
 20
0.0
 30
0.0
 11
-0.5
 21
-0.5
 31
0.0
  0
LINE
  5
15C4
330
15C1
100
AcDbEntity
  8
0
  6
ByBlock
 62
     0
370
    -2
100
AcDbLine
 10
0.0
 20
0.0
 30
0.0
 11
-1.0
 21
0.0
 31
0.0
  0
ENDBLK
  5
15C6
330
15C1
100
AcDbEntity
  8
0
 62
     1
100
AcDbBlockEnd
  0
BLOCK
  5
15F4
330
15EF
100
AcDbEntity
  8
0
 62
     1
100
AcDbBlockBegin
  2
_Closed
 70
     0
 10
0.0
 20
0.0
 30
0.0
  3
_Closed
  1

  0
LINE
  5
15F0
330
15EF
100
AcDbEntity
  8
0
  6
ByBlock
 62
     0
370
    -2
100
AcDbLine
 10
-1.0
 20
0.1666666666666666
 30
0.0
 11
0.0
 21
0.0
 31
0.0
  0
LINE
  5
15F1
330
15EF
100
AcDbEntity
  8
0
  6
ByBlock
 62
     0
370
    -2
100
AcDbLine
 10
0.0
 20
0.0
 30
0.0
 11
-1.0
 21
-0.1666666666666666
 31
0.0
  0
LINE
  5
15F2
330
15EF
100
AcDbEntity
  8
0
  6
ByBlock
 62
     0
370
    -2
100
AcDbLine
 10
-1.0
 20
0.1666666666666666
 30
0.0
 11
-1.0
 21
-0.1666666666666666
 31
0.0
  0
LINE
  5
15F3
330
15EF
100
AcDbEntity
  8
0
  6
ByBlock
 62
     0
370
    -2
100
AcDbLine
 10
0.0
 20
0.0
 30
0.0
 11
-1.0
 21
0.0
 31
0.0
  0
ENDBLK
  5
15F5
330
15EF
100
AcDbEntity
  8
0
 62
     1
100
AcDbBlockEnd
  0
BLOCK
  5
1639
330
162E
100
AcDbEntity
  8
0
 62
     1
100
AcDbBlockBegin
  2
*D36
 70
     1
 10
0.0
 20
0.0
 30
0.0
  3
*D36
  1

  0
ARC
  5
1C22
330
162E
100
AcDbEntity
  8
実形
 62
     0
370
    15
100
AcDbCircle
 10
789.0730503127015
 20
1292.508776724905
 30
0.0
 40
120.8635876714226
100
AcDbArc
 50
150.1441113034861
 51
180.0
  0
INSERT
  5
1C23
330
162E
100
AcDbEntity
  8
実形
 62
     0
370
    15
100
AcDbBlockReference
  2
_DotSmall
 10
684.250445188293
 20
1352.677109589793
 30
0.0
 41
30.0
 42
30.0
 43
30.0
 50
60.1441113034861
  0
INSERT
  5
1C24
330
162E
100
AcDbEntity
  8
実形
 62
     0
370
    15
100
AcDbBlockReference
  2
_DotSmall
 10
668.2094626412791
 20
1292.508776724905
 30
0.0
 41
30.0
 42
30.0
 43
30.0
 50
270.0
  0
MTEXT
  5
1C25
330
162E
100
AcDbEntity
  8
実形
 62
     0
100
AcDbMText
 10
648.2621049893501
 20
1335.839817856492
 30
0.0
 40
25.0
 41
0.0
 71
     5
 72
     1
  1
30°
 11
0.294114349139899
 21
0.9557702389329842
 31
0.0
 73
     1
 44
1.0
1001
ACAD
1000
MTEXTBEGIN
1070
    73
1070
     1
1070
    44
1040
1.0
1070
    74
1070
     0
1000
MTEXTEND
  0
POINT
  5
1C26
330
162E
100
AcDbEntity
  8
Defpoints
 62
     0
100
AcDbPoint
 10
670.028097712918
 20
1313.396717871005
 30
0.0
  0
POINT
  5
1C27
330
162E
100
AcDbEntity
  8
Defpoints
 62
     0
100
AcDbPoint
 10
752.1996118544092
 20
1313.674185811985
 30
0.0
  0
POINT
  5
1C28
330
162E
100
AcDbEntity
  8
Defpoints
 62
     0
100
AcDbPoint
 10
847.0409817259241
 20
1292.508776724905
 30
0.0
  0
POINT
  5
1C29
330
162E
100
AcDbEntity
  8
Defpoints
 62
     0
100
AcDbPoint
 10
447.040981725924
 20
1292.508776724905
 30
0.0
  0
POINT
  5
1C2A
330
162E
100
AcDbEntity
  8
Defpoints
 62
     0
100
AcDbPoint
 10
525.0611032429588
 20
1444.052031090185
 30
0.0
  0
ENDBLK
  5
163A
330
162E
100
AcDbEntity
  8
0
 62
     1
100
AcDbBlockEnd
  0
BLOCK
  5
1AC2
330
1AB8
100
AcDbEntity
  8
0
 62
     1
100
AcDbBlockBegin
  2
*D37
 70
     1
 10
0.0
 20
0.0
 30
0.0
  3
*D37
  1

  0
LINE
  5
1C58
330
1AB8
100
AcDbEntity
  8
実形
 62
     0
370
    15
100
AcDbLine
 10
1293.505299940285
 20
1028.51833077427
 30
0.0
 11
1385.802657192223
 21
1028.51833077427
 31
0.0
  0
LINE
  5
1C59
330
1AB8
100
AcDbEntity
  8
実形
 62
     0
370
    15
100
AcDbLine
 10
1293.505299940285
 20
1616.51833077427
 30
0.0
 11
1385.802657192224
 21
1616.51833077427
 31
0.0
  0
LINE
  5
1C5A
330
1AB8
100
AcDbEntity
  8
実形
 62
     0
370
    15
100
AcDbLine
 10
1385.802657192223
 20
1028.51833077427
 30
0.0
 11
1385.802657192224
 21
1616.51833077427
 31
0.0
  0
INSERT
  5
1C5B
330
1AB8
100
AcDbEntity
  8
実形
 62
     0
370
    15
100
AcDbBlockReference
  2
_DotSmall
 10
1385.802657192223
 20
1028.51833077427
 30
0.0
 41
30.0
 42
30.0
 43
30.0
 50
270.0
  0
INSERT
  5
1C5C
330
1AB8
100
AcDbEntity
  8
実形
 62
     0
370
    15
100
AcDbBlockReference
  2
_DotSmall
 10
1385.802657192224
 20
1616.51833077427
 30
0.0
 41
30.0
 42
30.0
 43
30.0
 50
90.0
  0
MTEXT
  5
1C5D
330
1AB8
100
AcDbEntity
  8
実形
 62
     0
100
AcDbMText
 10
1367.052657192223
 20
1322.51833077427
 30
0.0
 40
25.0
 41
0.0
 71
     5
 72
     1
  1
588
 11
0.0000000000000001
 21
1.0
 31
0.0
 73
     1
 44
1.0
1001
ACAD
1000
MTEXTBEGIN
1070
    73
1070
     1
1070
    44
1040
1.0
1070
    74
1070
     0
1000
MTEXTEND
  0
POINT
  5
1C5E
330
1AB8
100
AcDbEntity
  8
Defpoints
 62
     0
100
AcDbPoint
 10
1228.505299940285
 20
1028.51833077427
 30
0.0
  0
POINT
  5
1C5F
330
1AB8
100
AcDbEntity
  8
Defpoints
 62
     0
100
AcDbPoint
 10
1228.505299940285
 20
1616.51833077427
 30
0.0
  0
POINT
  5
1C60
330
1AB8
100
AcDbEntity
  8
Defpoints
 62
     0
100
AcDbPoint
 10
1385.802657192224
 20
1616.51833077427
 30
0.0
  0
ENDBLK
  5
1AC3
330
1AB8
100
AcDbEntity
  8
0
 62
     1
100
AcDbBlockEnd
  0
BLOCK
  5
1ACE
330
1AC4
100
AcDbEntity
  8
0
 62
     1
100
AcDbBlockBegin
  2
*D38
 70
     1
 10
0.0
 20
0.0
 30
0.0
  3
*D38
  1

  0
LINE
  5
1C61
330
1AC4
100
AcDbEntity
  8
実形
 62
     0
370
    15
100
AcDbLine
 10
413.0409817259241
 20
1652.51833077427
 30
0.0
 11
413.0409817259241
 21
1878.100409340533
 31
0.0
  0
LINE
  5
1C62
330
1AC4
100
AcDbEntity
  8
実形
 62
     0
370
    15
100
AcDbLine
 10
1281.040981725924
 20
1652.51833077427
 30
0.0
 11
1281.040981725924
 21
1878.100409340533
 31
0.0
  0
LINE
  5
1C63
330
1AC4
100
AcDbEntity
  8
実形
 62
     0
370
    15
100
AcDbLine
 10
413.0409817259241
 20
1878.100409340533
 30
0.0
 11
1281.040981725924
 21
1878.100409340533
 31
0.0
  0
INSERT
  5
1C64
330
1AC4
100
AcDbEntity
  8
実形
 62
     0
370
    15
100
AcDbBlockReference
  2
_DotSmall
 10
413.0409817259241
 20
1878.100409340533
 30
0.0
 41
30.0
 42
30.0
 43
30.0
 50
180.0
  0
INSERT
  5
1C65
330
1AC4
100
AcDbEntity
  8
実形
 62
     0
370
    15
100
AcDbBlockReference
  2
_DotSmall
 10
1281.040981725924
 20
1878.100409340533
 30
0.0
 41
30.0
 42
30.0
 43
30.0
  0
MTEXT
  5
1C66
330
1AC4
100
AcDbEntity
  8
実形
 62
     0
100
AcDbMText
 10
847.0409817259245
 20
1896.850409340533
 30
0.0
 40
25.0
 41
0.0
 71
     5
 72
     1
  1
868
 73
     1
 44
1.0
1001
ACAD
1000
MTEXTBEGIN
1070
    73
1070
     1
1070
    44
1040
1.0
1070
    74
1070
     0
1000
MTEXTEND
  0
POINT
  5
1C67
330
1AC4
100
AcDbEntity
  8
Defpoints
 62
     0
100
AcDbPoint
 10
413.0409817259241
 20
1587.51833077427
 30
0.0
  0
POINT
  5
1C68
330
1AC4
100
AcDbEntity
  8
Defpoints
 62
     0
100
AcDbPoint
 10
1281.040981725924
 20
1587.51833077427
 30
0.0
  0
POINT
  5
1C69
330
1AC4
100
AcDbEntity
  8
Defpoints
 62
     0
100
AcDbPoint
 10
1281.040981725924
 20
1878.100409340533
 30
0.0
  0
ENDBLK
  5
1ACF
330
1AC4
100
AcDbEntity
  8
0
 62
     1
100
AcDbBlockEnd
  0
BLOCK
  5
1ADA
330
1AD0
100
AcDbEntity
  8
0
 62
     1
100
AcDbBlockBegin
  2
*D39
 70
     1
 10
0.0
 20
0.0
 30
0.0
  3
*D39
  1

  0
LINE
  5
1C6A
330
1AD0
100
AcDbEntity
  8
実形
 62
     0
370
    15
100
AcDbLine
 10
447.0409817259242
 20
1625.584030393193
 30
0.0
 11
447.0409817259242
 21
1734.179506728392
 31
0.0
  0
LINE
  5
1C6B
330
1AD0
100
AcDbEntity
  8
実形
 62
     0
370
    15
100
AcDbLine
 10
413.0409817259243
 20
1628.444710010995
 30
0.0
 11
413.0409817259243
 21
1734.179506728392
 31
0.0
  0
LINE
  5
1C6C
330
1AD0
100
AcDbEntity
  8
実形
 62
     0
370
    15
100
AcDbLine
 10
447.0409817259242
 20
1734.179506728392
 30
0.0
 11
413.0409817259243
 21
1734.179506728392
 31
0.0
  0
MTEXT
  5
1C6D
330
1AD0
100
AcDbEntity
  8
実形
 62
     0
100
AcDbMText
 10
445.2909817259242
 20
1782.929506728392
 30
0.0
 40
25.0
 41
0.0
 71
     5
 72
     1
  1
35
 73
     1
 44
1.0
1001
ACAD
1000
MTEXTBEGIN
1070
    73
1070
     1
1070
    44
1040
1.0
1070
    74
1070
     0
1000
MTEXTEND
  0
INSERT
  5
1C6E
330
1AD0
100
AcDbEntity
  8
実形
 62
     0
370
    15
100
AcDbBlockReference
  2
_DotSmall
 10
447.0409817259242
 20
1734.179506728392
 30
0.0
 41
30.0
 42
30.0
 43
30.0
  0
INSERT
  5
1C6F
330
1AD0
100
AcDbEntity
  8
実形
 62
     0
370
    15
100
AcDbBlockReference
  2
_DotSmall
 10
413.0409817259243
 20
1734.179506728392
 30
0.0
 41
30.0
 42
30.0
 43
30.0
 50
180.0
  0
POINT
  5
1C70
330
1AD0
100
AcDbEntity
  8
Defpoints
 62
     0
100
AcDbPoint
 10
447.0409817259242
 20
1560.584030393193
 30
0.0
  0
POINT
  5
1C71
330
1AD0
100
AcDbEntity
  8
Defpoints
 62
     0
100
AcDbPoint
 10
413.0409817259243
 20
1563.444710010995
 30
0.0
  0
POINT
  5
1C72
330
1AD0
100
AcDbEntity
  8
Defpoints
 62
     0
100
AcDbPoint
 10
413.0409817259243
 20
1734.179506728392
 30
0.0
  0
ENDBLK
  5
1ADB
330
1AD0
100
AcDbEntity
  8
0
 62
     1
100
AcDbBlockEnd
  0
BLOCK
  5
1AE6
330
1ADC
100
AcDbEntity
  8
0
 62
     1
100
AcDbBlockBegin
  2
*D40
 70
     1
 10
0.0
 20
0.0
 30
0.0
  3
*D40
  1

  0
LINE
  5
1C73
330
1ADC
100
AcDbEntity
  8
実形
 62
     0
370
    15
100
AcDbLine
 10
1247.040981725924
 20
1625.598433420677
 30
0.0
 11
1247.040981725924
 21
1739.691839729266
 31
0.0
  0
LINE
  5
1C74
330
1ADC
100
AcDbEntity
  8
実形
 62
     0
370
    15
100
AcDbLine
 10
1281.040981725924
 20
1625.598433420677
 30
0.0
 11
1281.040981725924
 21
1739.691839729266
 31
0.0
  0
LINE
  5
1C75
330
1ADC
100
AcDbEntity
  8
実形
 62
     0
370
    15
100
AcDbLine
 10
1247.040981725924
 20
1739.691839729266
 30
0.0
 11
1281.040981725924
 21
1739.691839729266
 31
0.0
  0
MTEXT
  5
1C76
330
1ADC
100
AcDbEntity
  8
実形
 62
     0
100
AcDbMText
 10
1249.6369789362
 20
1777.60650861483
 30
0.0
 40
25.0
 41
0.0
 71
     5
 72
     1
  1
35
 73
     1
 44
1.0
1001
ACAD
1000
MTEXTBEGIN
1070
    73
1070
     1
1070
    44
1040
1.0
1070
    74
1070
     0
1000
MTEXTEND
  0
INSERT
  5
1C77
330
1ADC
100
AcDbEntity
  8
実形
 62
     0
370
    15
100
AcDbBlockReference
  2
_DotSmall
 10
1247.040981725924
 20
1739.691839729266
 30
0.0
 41
30.0
 42
30.0
 43
30.0
 50
180.0
  0
INSERT
  5
1C78
330
1ADC
100
AcDbEntity
  8
実形
 62
     0
370
    15
100
AcDbBlockReference
  2
_DotSmall
 10
1281.040981725924
 20
1739.691839729266
 30
0.0
 41
30.0
 42
30.0
 43
30.0
  0
POINT
  5
1C79
330
1ADC
100
AcDbEntity
  8
Defpoints
 62
     0
100
AcDbPoint
 10
1247.040981725924
 20
1560.598433420677
 30
0.0
  0
POINT
  5
1C7A
330
1ADC
100
AcDbEntity
  8
Defpoints
 62
     0
100
AcDbPoint
 10
1281.040981725924
 20
1560.598433420677
 30
0.0
  0
POINT
  5
1C7B
330
1ADC
100
AcDbEntity
  8
Defpoints
 62
     0
100
AcDbPoint
 10
1281.040981725924
 20
1739.691839729266
 30
0.0
  0
ENDBLK
  5
1AE7
330
1ADC
100
AcDbEntity
  8
0
 62
     1
100
AcDbBlockEnd
  0
BLOCK
  5
1AF2
330
1AE8
100
AcDbEntity
  8
0
 62
     1
100
AcDbBlockBegin
  2
*D41
 70
     1
 10
0.0
 20
0.0
 30
0.0
  3
*D41
  1

  0
LINE
  5
1C7C
330
1AE8
100
AcDbEntity
  8
実形
 62
     0
370
    15
100
AcDbLine
 10
1293.633560224309
 20
1062.51833077427
 30
0.0
 11
1338.917499741233
 21
1062.51833077427
 31
0.0
  0
LINE
  5
1C7D
330
1AE8
100
AcDbEntity
  8
実形
 62
     0
370
    15
100
AcDbLine
 10
1293.633560224309
 20
1028.51833077427
 30
0.0
 11
1338.917499741233
 21
1028.51833077427
 31
0.0
  0
LINE
  5
1C7E
330
1AE8
100
AcDbEntity
  8
実形
 62
     0
370
    15
100
AcDbLine
 10
1338.917499741233
 20
1062.51833077427
 30
0.0
 11
1338.917499741233
 21
1028.51833077427
 31
0.0
  0
MTEXT
  5
1C7F
330
1AE8
100
AcDbEntity
  8
実形
 62
     0
100
AcDbMText
 10
1314.785448083557
 20
1094.667502140693
 30
0.0
 40
25.0
 41
0.0
 71
     5
 72
     1
  1
35
 11
0.0000000000000001
 21
1.0
 31
0.0
 73
     1
 44
1.0
1001
ACAD
1000
MTEXTBEGIN
1070
    73
1070
     1
1070
    44
1040
1.0
1070
    74
1070
     0
1000
MTEXTEND
  0
INSERT
  5
1C80
330
1AE8
100
AcDbEntity
  8
実形
 62
     0
370
    15
100
AcDbBlockReference
  2
_DotSmall
 10
1338.917499741233
 20
1062.51833077427
 30
0.0
 41
30.0
 42
30.0
 43
30.0
 50
90.0
  0
INSERT
  5
1C81
330
1AE8
100
AcDbEntity
  8
実形
 62
     0
370
    15
100
AcDbBlockReference
  2
_DotSmall
 10
1338.917499741233
 20
1028.51833077427
 30
0.0
 41
30.0
 42
30.0
 43
30.0
 50
270.0
  0
POINT
  5
1C82
330
1AE8
100
AcDbEntity
  8
Defpoints
 62
     0
100
AcDbPoint
 10
1228.633560224309
 20
1062.51833077427
 30
0.0
  0
POINT
  5
1C83
330
1AE8
100
AcDbEntity
  8
Defpoints
 62
     0
100
AcDbPoint
 10
1228.633560224309
 20
1028.51833077427
 30
0.0
  0
POINT
  5
1C84
330
1AE8
100
AcDbEntity
  8
Defpoints
 62
     0
100
AcDbPoint
 10
1338.917499741233
 20
1028.51833077427
 30
0.0
  0
ENDBLK
  5
1AF3
330
1AE8
100
AcDbEntity
  8
0
 62
     1
100
AcDbBlockEnd
  0
BLOCK
  5
1AFE
330
1AF4
100
AcDbEntity
  8
0
 62
     1
100
AcDbBlockBegin
  2
*D42
 70
     1
 10
0.0
 20
0.0
 30
0.0
  3
*D42
  1

  0
LINE
  5
1C85
330
1AF4
100
AcDbEntity
  8
実形
 62
     0
370
    15
100
AcDbLine
 10
1318.17097276127
 20
1616.51833077427
 30
0.0
 11
1363.454912278194
 21
1616.51833077427
 31
0.0
  0
LINE
  5
1C86
330
1AF4
100
AcDbEntity
  8
実形
 62
     0
370
    15
100
AcDbLine
 10
1336.273562386001
 20
1582.51833077427
 30
0.0
 11
1363.454912278194
 21
1582.51833077427
 31
0.0
  0
LINE
  5
1C87
330
1AF4
100
AcDbEntity
  8
実形
 62
     0
370
    15
100
AcDbLine
 10
1363.454912278194
 20
1616.51833077427
 30
0.0
 11
1363.454912278194
 21
1582.51833077427
 31
0.0
  0
MTEXT
  5
1C88
330
1AF4
100
AcDbEntity
  8
実形
 62
     0
100
AcDbMText
 10
1340.042913610241
 20
1551.368625802805
 30
0.0
 40
25.0
 41
0.0
 71
     5
 72
     1
  1
35
 11
0.0000000000000001
 21
1.0
 31
0.0
 73
     1
 44
1.0
1001
ACAD
1000
MTEXTBEGIN
1070
    73
1070
     1
1070
    44
1040
1.0
1070
    74
1070
     0
1000
MTEXTEND
  0
INSERT
  5
1C89
330
1AF4
100
AcDbEntity
  8
実形
 62
     0
370
    15
100
AcDbBlockReference
  2
_DotSmall
 10
1363.454912278194
 20
1616.51833077427
 30
0.0
 41
30.0
 42
30.0
 43
30.0
 50
90.0
  0
INSERT
  5
1C8A
330
1AF4
100
AcDbEntity
  8
実形
 62
     0
370
    15
100
AcDbBlockReference
  2
_DotSmall
 10
1363.454912278194
 20
1582.51833077427
 30
0.0
 41
30.0
 42
30.0
 43
30.0
 50
270.0
  0
POINT
  5
1C8B
330
1AF4
100
AcDbEntity
  8
Defpoints
 62
     0
100
AcDbPoint
 10
1253.17097276127
 20
1616.51833077427
 30
0.0
  0
POINT
  5
1C8C
330
1AF4
100
AcDbEntity
  8
Defpoints
 62
     0
100
AcDbPoint
 10
1271.273562386
 20
1582.51833077427
 30
0.0
  0
POINT
  5
1C8D
330
1AF4
100
AcDbEntity
  8
Defpoints
 62
     0
100
AcDbPoint
 10
1363.454912278194
 20
1582.51833077427
 30
0.0
  0
ENDBLK
  5
1AFF
330
1AF4
100
AcDbEntity
  8
0
 62
     1
100
AcDbBlockEnd
  0
BLOCK
  5
1E8C
330
1E85
100
AcDbEntity
  8
0
 62
     1
100
AcDbBlockBegin
  2
*D43
 70
     1
 10
0.0
 20
0.0
 30
0.0
  3
*D43
  1

  0
LINE
  5
1F72
330
1E85
100
AcDbEntity
  8
実形
 62
     0
370
    13
100
AcDbLine
 10
2090.833877365067
 20
553.2947101512847
 30
0.0
 11
2090.833877365067
 21
467.1003685502147
 31
0.0
  0
LINE
  5
1F73
330
1E85
100
AcDbEntity
  8
実形
 62
     0
370
    13
100
AcDbLine
 10
2075.233877365067
 20
527.502986728412
 30
0.0
 11
2075.233877365067
 21
467.1003685502147
 31
0.0
  0
MTEXT
  5
1F74
330
1E85
100
AcDbEntity
  8
実形
 62
     0
100
AcDbMText
 10
2054.88545157578
 20
491.5915116428197
 30
0.0
 40
25.0
 41
0.0
 71
     5
 72
     1
  1
1
 73
     1
 44
1.0
1001
ACAD
1000
MTEXTBEGIN
1070
    73
1070
     1
1070
    44
1040
1.0
1070
    74
1070
     0
1000
MTEXTEND
  0
POINT
  5
1F75
330
1E85
100
AcDbEntity
  8
Defpoints
 62
     0
100
AcDbPoint
 10
2090.833877365067
 20
559.2947101512846
 30
0.0
  0
POINT
  5
1F76
330
1E85
100
AcDbEntity
  8
Defpoints
 62
     0
100
AcDbPoint
 10
2075.233877365067
 20
533.5029867284119
 30
0.0
  0
POINT
  5
1F77
330
1E85
100
AcDbEntity
  8
Defpoints
 62
     0
100
AcDbPoint
 10
2075.233877365067
 20
467.1003685502147
 30
0.0
  0
ENDBLK
  5
1E8D
330
1E85
100
AcDbEntity
  8
0
 62
     1
100
AcDbBlockEnd
  0
BLOCK
  5
1E98
330
1E8E
100
AcDbEntity
  8
0
 62
     1
100
AcDbBlockBegin
  2
*D44
 70
     1
 10
0.0
 20
0.0
 30
0.0
  3
*D44
  1

  0
LINE
  5
1F78
330
1E8E
100
AcDbEntity
  8
実形
 62
     0
370
    18
100
AcDbLine
 10
2090.833877365066
 20
591.9073852958003
 30
0.0
 11
2090.833877365066
 21
617.1548568615962
 31
0.0
  0
LINE
  5
1F79
330
1E8E
100
AcDbEntity
  8
実形
 62
     0
370
    18
100
AcDbLine
 10
2356.033877365065
 20
591.9073852958005
 30
0.0
 11
2356.033877365065
 21
617.1548568615962
 31
0.0
  0
LINE
  5
1F7A
330
1E8E
100
AcDbEntity
  8
実形
 62
     0
370
    18
100
AcDbLine
 10
2090.833877365066
 20
617.1548568615962
 30
0.0
 11
2356.033877365065
 21
617.1548568615962
 31
0.0
  0
INSERT
  5
1F7B
330
1E8E
100
AcDbEntity
  8
実形
 62
     0
370
    18
100
AcDbBlockReference
  2
_DotSmall
 10
2090.833877365066
 20
617.1548568615962
 30
0.0
 41
30.0
 42
30.0
 43
30.0
 50
180.0
  0
INSERT
  5
1F7C
330
1E8E
100
AcDbEntity
  8
実形
 62
     0
370
    18
100
AcDbBlockReference
  2
_DotSmall
 10
2356.033877365065
 20
617.1548568615962
 30
0.0
 41
30.0
 42
30.0
 43
30.0
  0
MTEXT
  5
1F7D
330
1E8E
100
AcDbEntity
  8
実形
 62
     0
100
AcDbMText
 10
2223.433877365065
 20
635.9048568615962
 30
0.0
 40
25.0
 41
0.0
 71
     5
 72
     1
  1
17
 73
     1
 44
1.0
1001
ACAD
1000
MTEXTBEGIN
1070
    73
1070
     1
1070
    44
1040
1.0
1070
    74
1070
     0
1000
MTEXTEND
  0
POINT
  5
1F7E
330
1E8E
100
AcDbEntity
  8
Defpoints
 62
     0
100
AcDbPoint
 10
2090.833877365066
 20
526.9073852958004
 30
0.0
  0
POINT
  5
1F7F
330
1E8E
100
AcDbEntity
  8
Defpoints
 62
     0
100
AcDbPoint
 10
2356.033877365065
 20
526.9073852958005
 30
0.0
  0
POINT
  5
1F80
330
1E8E
100
AcDbEntity
  8
Defpoints
 62
     0
100
AcDbPoint
 10
2356.033877365065
 20
617.1548568615962
 30
0.0
  0
ENDBLK
  5
1E99
330
1E8E
100
AcDbEntity
  8
0
 62
     1
100
AcDbBlockEnd
  0
BLOCK
  5
1EA4
330
1E9A
100
AcDbEntity
  8
0
 62
     1
100
AcDbBlockBegin
  2
*D45
 70
     1
 10
0.0
 20
0.0
 30
0.0
  3
*D45
  1

  0
LINE
  5
1F81
330
1E9A
100
AcDbEntity
  8
実形
 62
     0
370
    18
100
AcDbLine
 10
2250.113367995707
 20
504.6947101512855
 30
0.0
 11
2215.460134891442
 21
504.6947101512855
 31
0.0
  0
LINE
  5
1F82
330
1E9A
100
AcDbEntity
  8
実形
 62
     0
370
    18
100
AcDbLine
 10
2202.959844379684
 20
543.6947101512855
 30
0.0
 11
2215.460134891442
 21
543.6947101512855
 31
0.0
  0
LINE
  5
1F83
330
1E9A
100
AcDbEntity
  8
実形
 62
     0
370
    18
100
AcDbLine
 10
2215.460134891442
 20
504.6947101512855
 30
0.0
 11
2215.460134891442
 21
543.6947101512855
 31
0.0
  0
MTEXT
  5
1F84
330
1E9A
100
AcDbEntity
  8
実形
 62
     0
100
AcDbMText
 10
2183.987549496718
 20
515.0052225685112
 30
0.0
 40
23.0
 41
0.0
 71
     5
 72
     1
  1
2.5
 11
0.0000000000000001
 21
1.0
 31
0.0
 73
     1
 44
1.0
1001
ACAD
1000
MTEXTBEGIN
1070
    73
1070
     1
1070
    44
1040
1.0
1070
    74
1070
     0
1000
MTEXTEND
  0
INSERT
  5
1F85
330
1E9A
100
AcDbEntity
  8
実形
 62
     0
370
    18
100
AcDbBlockReference
  2
_DotSmall
 10
2215.460134891442
 20
504.6947101512855
 30
0.0
 41
30.0
 42
30.0
 43
30.0
 50
270.0
  0
INSERT
  5
1F86
330
1E9A
100
AcDbEntity
  8
実形
 62
     0
370
    18
100
AcDbBlockReference
  2
_DotSmall
 10
2215.460134891442
 20
543.6947101512855
 30
0.0
 41
30.0
 42
30.0
 43
30.0
 50
90.0
  0
POINT
  5
1F87
330
1E9A
100
AcDbEntity
  8
Defpoints
 62
     0
100
AcDbPoint
 10
2315.113367995707
 20
504.6947101512855
 30
0.0
  0
POINT
  5
1F88
330
1E9A
100
AcDbEntity
  8
Defpoints
 62
     0
100
AcDbPoint
 10
2267.959844379684
 20
543.6947101512855
 30
0.0
  0
POINT
  5
1F89
330
1E9A
100
AcDbEntity
  8
Defpoints
 62
     0
100
AcDbPoint
 10
2215.460134891442
 20
543.6947101512855
 30
0.0
  0
ENDBLK
  5
1EA5
330
1E9A
100
AcDbEntity
  8
0
 62
     1
100
AcDbBlockEnd
  0
BLOCK
  5
1EB0
330
1EA6
100
AcDbEntity
  8
0
 62
     1
100
AcDbBlockBegin
  2
*D46
 70
     1
 10
0.0
 20
0.0
 30
0.0
  3
*D46
  1

  0
LINE
  5
1F8A
330
1EA6
100
AcDbEntity
  8
実形
 62
     0
370
    18
100
AcDbLine
 10
2278.033877365066
 20
448.0145559292668
 30
0.0
 11
2278.033877365066
 21
452.0882219802177
 31
0.0
  0
LINE
  5
1F8B
330
1EA6
100
AcDbEntity
  8
実形
 62
     0
370
    18
100
AcDbLine
 10
2356.033877365066
 20
448.0145559292668
 30
0.0
 11
2356.033877365066
 21
452.0882219802177
 31
0.0
  0
LINE
  5
1F8C
330
1EA6
100
AcDbEntity
  8
実形
 62
     0
370
    18
100
AcDbLine
 10
2278.033877365066
 20
452.0882219802177
 30
0.0
 11
2356.033877365066
 21
452.0882219802177
 31
0.0
  0
INSERT
  5
1F8D
330
1EA6
100
AcDbEntity
  8
実形
 62
     0
370
    18
100
AcDbBlockReference
  2
_DotSmall
 10
2278.033877365066
 20
452.0882219802177
 30
0.0
 41
30.0
 42
30.0
 43
30.0
 50
180.0
  0
INSERT
  5
1F8E
330
1EA6
100
AcDbEntity
  8
実形
 62
     0
370
    18
100
AcDbBlockReference
  2
_DotSmall
 10
2356.033877365066
 20
452.0882219802177
 30
0.0
 41
30.0
 42
30.0
 43
30.0
  0
MTEXT
  5
1F8F
330
1EA6
100
AcDbEntity
  8
実形
 62
     0
100
AcDbMText
 10
2317.033877365066
 20
470.8382219802177
 30
0.0
 40
25.0
 41
0.0
 71
     5
 72
     1
  1
5
 73
     1
 44
1.0
1001
ACAD
1000
MTEXTBEGIN
1070
    73
1070
     1
1070
    44
1040
1.0
1070
    74
1070
     0
1000
MTEXTEND
  0
POINT
  5
1F90
330
1EA6
100
AcDbEntity
  8
Defpoints
 62
     0
100
AcDbPoint
 10
2278.033877365066
 20
513.0145559292668
 30
0.0
  0
POINT
  5
1F91
330
1EA6
100
AcDbEntity
  8
Defpoints
 62
     0
100
AcDbPoint
 10
2356.033877365066
 20
513.0145559292668
 30
0.0
  0
POINT
  5
1F92
330
1EA6
100
AcDbEntity
  8
Defpoints
 62
     0
100
AcDbPoint
 10
2356.033877365066
 20
452.0882219802177
 30
0.0
  0
ENDBLK
  5
1EB1
330
1EA6
100
AcDbEntity
  8
0
 62
     1
100
AcDbBlockEnd
  0
BLOCK
  5
1EBC
330
1EB2
100
AcDbEntity
  8
0
 62
     1
100
AcDbBlockBegin
  2
*D47
 70
     1
 10
0.0
 20
0.0
 30
0.0
  3
*D47
  1

  0
LINE
  5
1F93
330
1EB2
100
AcDbEntity
  8
実形
 62
     0
370
    18
100
AcDbLine
 10
2253.018840457773
 20
442.2947101512853
 30
0.0
 11
2217.398583849133
 21
442.2947101512853
 31
0.0
  0
LINE
  5
1F94
330
1EB2
100
AcDbEntity
  8
実形
 62
     0
370
    18
100
AcDbLine
 10
2296.445481530403
 20
403.2947101512855
 30
0.0
 11
2217.398583849133
 21
403.2947101512855
 31
0.0
  0
LINE
  5
1F95
330
1EB2
100
AcDbEntity
  8
実形
 62
     0
370
    18
100
AcDbLine
 10
2217.398583849133
 20
442.2947101512853
 30
0.0
 11
2217.398583849133
 21
403.2947101512855
 31
0.0
  0
MTEXT
  5
1F96
330
1EB2
100
AcDbEntity
  8
実形
 62
     0
100
AcDbMText
 10
2184.779122545192
 20
431.6583152348946
 30
0.0
 40
23.0
 41
0.0
 71
     5
 72
     1
  1
2.5
 11
0.0000000000000001
 21
1.0
 31
0.0
 73
     1
 44
1.0
1001
ACAD
1000
MTEXTBEGIN
1070
    73
1070
     1
1070
    44
1040
1.0
1070
    74
1070
     0
1000
MTEXTEND
  0
INSERT
  5
1F97
330
1EB2
100
AcDbEntity
  8
実形
 62
     0
370
    18
100
AcDbBlockReference
  2
_DotSmall
 10
2217.398583849133
 20
442.2947101512853
 30
0.0
 41
30.0
 42
30.0
 43
30.0
 50
90.0
  0
INSERT
  5
1F98
330
1EB2
100
AcDbEntity
  8
実形
 62
     0
370
    18
100
AcDbBlockReference
  2
_DotSmall
 10
2217.398583849133
 20
403.2947101512855
 30
0.0
 41
30.0
 42
30.0
 43
30.0
 50
270.0
  0
POINT
  5
1F99
330
1EB2
100
AcDbEntity
  8
Defpoints
 62
     0
100
AcDbPoint
 10
2318.018840457773
 20
442.2947101512853
 30
0.0
  0
POINT
  5
1F9A
330
1EB2
100
AcDbEntity
  8
Defpoints
 62
     0
100
AcDbPoint
 10
2361.445481530404
 20
403.2947101512855
 30
0.0
  0
POINT
  5
1F9B
330
1EB2
100
AcDbEntity
  8
Defpoints
 62
     0
100
AcDbPoint
 10
2217.398583849133
 20
403.2947101512855
 30
0.0
  0
ENDBLK
  5
1EBD
330
1EB2
100
AcDbEntity
  8
0
 62
     1
100
AcDbBlockEnd
  0
BLOCK
  5
1EC8
330
1EBE
100
AcDbEntity
  8
0
 62
     1
100
AcDbBlockBegin
  2
*D48
 70
     1
 10
0.0
 20
0.0
 30
0.0
  3
*D48
  1

  0
LINE
  5
1F9C
330
1EBE
100
AcDbEntity
  8
実形
 62
     0
370
    18
100
AcDbLine
 10
2075.233877365066
 20
696.1956311673393
 30
0.0
 11
2075.233877365066
 21
733.9587029177619
 31
0.0
  0
LINE
  5
1F9D
330
1EBE
100
AcDbEntity
  8
実形
 62
     0
370
    18
100
AcDbLine
 10
2387.233877365066
 20
696.1956311673393
 30
0.0
 11
2387.233877365066
 21
733.9587029177619
 31
0.0
  0
LINE
  5
1F9E
330
1EBE
100
AcDbEntity
  8
実形
 62
     0
370
    18
100
AcDbLine
 10
2075.233877365066
 20
733.9587029177619
 30
0.0
 11
2387.233877365066
 21
733.9587029177619
 31
0.0
  0
INSERT
  5
1F9F
330
1EBE
100
AcDbEntity
  8
実形
 62
     0
370
    18
100
AcDbBlockReference
  2
_DotSmall
 10
2075.233877365066
 20
733.9587029177619
 30
0.0
 41
30.0
 42
30.0
 43
30.0
 50
180.0
  0
INSERT
  5
1FA0
330
1EBE
100
AcDbEntity
  8
実形
 62
     0
370
    18
100
AcDbBlockReference
  2
_DotSmall
 10
2387.233877365066
 20
733.9587029177619
 30
0.0
 41
30.0
 42
30.0
 43
30.0
  0
MTEXT
  5
1FA1
330
1EBE
100
AcDbEntity
  8
実形
 62
     0
100
AcDbMText
 10
2231.233877365066
 20
752.7087029177619
 30
0.0
 40
25.0
 41
0.0
 71
     5
 72
     1
  1
20
 73
     1
 44
1.0
1001
ACAD
1000
MTEXTBEGIN
1070
    73
1070
     1
1070
    44
1040
1.0
1070
    74
1070
     0
1000
MTEXTEND
  0
POINT
  5
1FA2
330
1EBE
100
AcDbEntity
  8
Defpoints
 62
     0
100
AcDbPoint
 10
2075.233877365066
 20
631.1956311673393
 30
0.0
  0
POINT
  5
1FA3
330
1EBE
100
AcDbEntity
  8
Defpoints
 62
     0
100
AcDbPoint
 10
2387.233877365066
 20
631.1956311673393
 30
0.0
  0
POINT
  5
1FA4
330
1EBE
100
AcDbEntity
  8
Defpoints
 62
     0
100
AcDbPoint
 10
2387.233877365066
 20
733.9587029177619
 30
0.0
  0
ENDBLK
  5
1EC9
330
1EBE
100
AcDbEntity
  8
0
 62
     1
100
AcDbBlockEnd
  0
BLOCK
  5
1ED4
330
1ECA
100
AcDbEntity
  8
0
 62
     1
100
AcDbBlockBegin
  2
*D49
 70
     1
 10
0.0
 20
0.0
 30
0.0
  3
*D49
  1

  0
LINE
  5
1FA5
330
1ECA
100
AcDbEntity
  8
実形
 62
     0
370
    18
100
AcDbLine
 10
2387.233877365066
 20
695.0056853622645
 30
0.0
 11
2387.233877365066
 21
733.9587029177619
 31
0.0
  0
LINE
  5
1FA6
330
1ECA
100
AcDbEntity
  8
実形
 62
     0
370
    18
100
AcDbLine
 10
2621.233877365066
 20
696.1956311673382
 30
0.0
 11
2621.233877365066
 21
733.9587029177619
 31
0.0
  0
LINE
  5
1FA7
330
1ECA
100
AcDbEntity
  8
実形
 62
     0
370
    18
100
AcDbLine
 10
2387.233877365066
 20
733.9587029177619
 30
0.0
 11
2621.233877365066
 21
733.9587029177619
 31
0.0
  0
INSERT
  5
1FA8
330
1ECA
100
AcDbEntity
  8
実形
 62
     0
370
    18
100
AcDbBlockReference
  2
_DotSmall
 10
2387.233877365066
 20
733.9587029177619
 30
0.0
 41
30.0
 42
30.0
 43
30.0
 50
180.0
  0
INSERT
  5
1FA9
330
1ECA
100
AcDbEntity
  8
実形
 62
     0
370
    18
100
AcDbBlockReference
  2
_DotSmall
 10
2621.233877365066
 20
733.9587029177619
 30
0.0
 41
30.0
 42
30.0
 43
30.0
  0
MTEXT
  5
1FAA
330
1ECA
100
AcDbEntity
  8
実形
 62
     0
100
AcDbMText
 10
2504.233877365066
 20
752.7087029177619
 30
0.0
 40
25.0
 41
0.0
 71
     5
 72
     1
  1
15
 73
     1
 44
1.0
1001
ACAD
1000
MTEXTBEGIN
1070
    73
1070
     1
1070
    44
1040
1.0
1070
    74
1070
     0
1000
MTEXTEND
  0
POINT
  5
1FAB
330
1ECA
100
AcDbEntity
  8
Defpoints
 62
     0
100
AcDbPoint
 10
2387.233877365066
 20
630.0056853622646
 30
0.0
  0
POINT
  5
1FAC
330
1ECA
100
AcDbEntity
  8
Defpoints
 62
     0
100
AcDbPoint
 10
2621.233877365066
 20
631.1956311673382
 30
0.0
  0
POINT
  5
1FAD
330
1ECA
100
AcDbEntity
  8
Defpoints
 62
     0
100
AcDbPoint
 10
2621.233877365066
 20
733.9587029177619
 30
0.0
  0
ENDBLK
  5
1ED5
330
1ECA
100
AcDbEntity
  8
0
 62
     1
100
AcDbBlockEnd
  0
BLOCK
  5
1EE0
330
1ED6
100
AcDbEntity
  8
0
 62
     1
100
AcDbBlockBegin
  2
*D50
 70
     1
 10
0.0
 20
0.0
 30
0.0
  3
*D50
  1

  0
LINE
  5
1FAE
330
1ED6
100
AcDbEntity
  8
実形
 62
     0
370
    18
100
AcDbLine
 10
2075.233877365066
 20
696.1956311673382
 30
0.0
 11
2075.233877365066
 21
777.4666415156134
 31
0.0
  0
LINE
  5
1FAF
330
1ED6
100
AcDbEntity
  8
実形
 62
     0
370
    18
100
AcDbLine
 10
2621.233877365066
 20
696.1956311673382
 30
0.0
 11
2621.233877365066
 21
777.4666415156134
 31
0.0
  0
LINE
  5
1FB0
330
1ED6
100
AcDbEntity
  8
実形
 62
     0
370
    18
100
AcDbLine
 10
2075.233877365066
 20
777.4666415156134
 30
0.0
 11
2621.233877365066
 21
777.4666415156134
 31
0.0
  0
INSERT
  5
1FB1
330
1ED6
100
AcDbEntity
  8
実形
 62
     0
370
    18
100
AcDbBlockReference
  2
_DotSmall
 10
2075.233877365066
 20
777.4666415156134
 30
0.0
 41
30.0
 42
30.0
 43
30.0
 50
180.0
  0
INSERT
  5
1FB2
330
1ED6
100
AcDbEntity
  8
実形
 62
     0
370
    18
100
AcDbBlockReference
  2
_DotSmall
 10
2621.233877365066
 20
777.4666415156134
 30
0.0
 41
30.0
 42
30.0
 43
30.0
  0
MTEXT
  5
1FB3
330
1ED6
100
AcDbEntity
  8
実形
 62
     0
100
AcDbMText
 10
2348.233877365066
 20
796.2166415156134
 30
0.0
 40
25.0
 41
0.0
 71
     5
 72
     1
  1
35
 73
     1
 44
1.0
1001
ACAD
1000
MTEXTBEGIN
1070
    73
1070
     1
1070
    44
1040
1.0
1070
    74
1070
     0
1000
MTEXTEND
  0
POINT
  5
1FB4
330
1ED6
100
AcDbEntity
  8
Defpoints
 62
     0
100
AcDbPoint
 10
2075.233877365066
 20
631.1956311673382
 30
0.0
  0
POINT
  5
1FB5
330
1ED6
100
AcDbEntity
  8
Defpoints
 62
     0
100
AcDbPoint
 10
2621.233877365066
 20
631.1956311673382
 30
0.0
  0
POINT
  5
1FB6
330
1ED6
100
AcDbEntity
  8
Defpoints
 62
     0
100
AcDbPoint
 10
2621.233877365066
 20
777.4666415156134
 30
0.0
  0
ENDBLK
  5
1EE1
330
1ED6
100
AcDbEntity
  8
0
 62
     1
100
AcDbBlockEnd
  0
BLOCK
  5
1EEC
330
1EE2
100
AcDbEntity
  8
0
 62
     1
100
AcDbBlockBegin
  2
*D51
 70
     1
 10
0.0
 20
0.0
 30
0.0
  3
*D51
  1

  0
LINE
  5
1FB7
330
1EE2
100
AcDbEntity
  8
実形
 62
     0
370
    18
100
AcDbLine
 10
2106.433877365066
 20
346.5474686202858
 30
0.0
 11
2106.433877365066
 21
297.5085770831867
 31
0.0
  0
LINE
  5
1FB8
330
1EE2
100
AcDbEntity
  8
実形
 62
     0
370
    18
100
AcDbLine
 10
2153.233877365066
 20
346.5474686202858
 30
0.0
 11
2153.233877365066
 21
297.5085770831867
 31
0.0
  0
LINE
  5
1FB9
330
1EE2
100
AcDbEntity
  8
実形
 62
     0
370
    18
100
AcDbLine
 10
2106.433877365066
 20
297.5085770831867
 30
0.0
 11
2153.233877365066
 21
297.5085770831867
 31
0.0
  0
MTEXT
  5
1FBA
330
1EE2
100
AcDbEntity
  8
実形
 62
     0
100
AcDbMText
 10
2053.203290699754
 20
332.9138518235977
 30
0.0
 40
25.0
 41
0.0
 71
     5
 72
     1
  1
3.3
 73
     1
 44
1.0
1001
ACAD
1000
MTEXTBEGIN
1070
    73
1070
     1
1070
    44
1040
1.0
1070
    74
1070
     0
1000
MTEXTEND
  0
INSERT
  5
1FBB
330
1EE2
100
AcDbEntity
  8
実形
 62
     0
370
    18
100
AcDbBlockReference
  2
_DotSmall
 10
2106.433877365066
 20
297.5085770831867
 30
0.0
 41
30.0
 42
30.0
 43
30.0
 50
180.0
  0
INSERT
  5
1FBC
330
1EE2
100
AcDbEntity
  8
実形
 62
     0
370
    18
100
AcDbBlockReference
  2
_DotSmall
 10
2153.233877365066
 20
297.5085770831867
 30
0.0
 41
30.0
 42
30.0
 43
30.0
  0
POINT
  5
1FBD
330
1EE2
100
AcDbEntity
  8
Defpoints
 62
     0
100
AcDbPoint
 10
2106.433877365066
 20
411.5474686202857
 30
0.0
  0
POINT
  5
1FBE
330
1EE2
100
AcDbEntity
  8
Defpoints
 62
     0
100
AcDbPoint
 10
2153.233877365066
 20
411.5474686202857
 30
0.0
  0
POINT
  5
1FBF
330
1EE2
100
AcDbEntity
  8
Defpoints
 62
     0
100
AcDbPoint
 10
2153.233877365066
 20
297.5085770831867
 30
0.0
  0
ENDBLK
  5
1EED
330
1EE2
100
AcDbEntity
  8
0
 62
     1
100
AcDbBlockEnd
  0
BLOCK
  5
1EF8
330
1EEE
100
AcDbEntity
  8
0
 62
     1
100
AcDbBlockBegin
  2
*D52
 70
     1
 10
0.0
 20
0.0
 30
0.0
  3
*D52
  1

  0
LINE
  5
1FC0
330
1EEE
100
AcDbEntity
  8
実形
 62
     0
370
    18
100
AcDbLine
 10
2153.233877365066
 20
346.5474686202858
 30
0.0
 11
2153.233877365066
 21
297.5085770831867
 31
0.0
  0
LINE
  5
1FC1
330
1EEE
100
AcDbEntity
  8
実形
 62
     0
370
    18
100
AcDbLine
 10
2309.233877365066
 20
346.5474686202858
 30
0.0
 11
2309.233877365066
 21
297.5085770831867
 31
0.0
  0
LINE
  5
1FC2
330
1EEE
100
AcDbEntity
  8
実形
 62
     0
370
    18
100
AcDbLine
 10
2153.233877365066
 20
297.5085770831867
 30
0.0
 11
2309.233877365066
 21
297.5085770831867
 31
0.0
  0
INSERT
  5
1FC3
330
1EEE
100
AcDbEntity
  8
実形
 62
     0
370
    18
100
AcDbBlockReference
  2
_DotSmall
 10
2153.233877365066
 20
297.5085770831867
 30
0.0
 41
30.0
 42
30.0
 43
30.0
 50
180.0
  0
INSERT
  5
1FC4
330
1EEE
100
AcDbEntity
  8
実形
 62
     0
370
    18
100
AcDbBlockReference
  2
_DotSmall
 10
2309.233877365066
 20
297.5085770831867
 30
0.0
 41
30.0
 42
30.0
 43
30.0
  0
MTEXT
  5
1FC5
330
1EEE
100
AcDbEntity
  8
実形
 62
     0
100
AcDbMText
 10
2231.233877365066
 20
316.2585770831867
 30
0.0
 40
25.0
 41
0.0
 71
     5
 72
     1
  1
10
 73
     1
 44
1.0
1001
ACAD
1000
MTEXTBEGIN
1070
    73
1070
     1
1070
    44
1040
1.0
1070
    74
1070
     0
1000
MTEXTEND
  0
POINT
  5
1FC6
330
1EEE
100
AcDbEntity
  8
Defpoints
 62
     0
100
AcDbPoint
 10
2153.233877365066
 20
411.5474686202857
 30
0.0
  0
POINT
  5
1FC7
330
1EEE
100
AcDbEntity
  8
Defpoints
 62
     0
100
AcDbPoint
 10
2309.233877365066
 20
411.5474686202857
 30
0.0
  0
POINT
  5
1FC8
330
1EEE
100
AcDbEntity
  8
Defpoints
 62
     0
100
AcDbPoint
 10
2309.233877365066
 20
297.5085770831867
 30
0.0
  0
ENDBLK
  5
1EF9
330
1EEE
100
AcDbEntity
  8
0
 62
     1
100
AcDbBlockEnd
  0
BLOCK
  5
1F04
330
1EFA
100
AcDbEntity
  8
0
 62
     1
100
AcDbBlockBegin
  2
*D53
 70
     1
 10
0.0
 20
0.0
 30
0.0
  3
*D53
  1

  0
LINE
  5
1FC9
330
1EFA
100
AcDbEntity
  8
実形
 62
     0
370
    18
100
AcDbLine
 10
2309.233877365066
 20
346.5474686202858
 30
0.0
 11
2309.233877365066
 21
297.5085770831867
 31
0.0
  0
LINE
  5
1FCA
330
1EFA
100
AcDbEntity
  8
実形
 62
     0
370
    18
100
AcDbLine
 10
2387.233877365066
 20
346.5474686202858
 30
0.0
 11
2387.233877365066
 21
297.5085770831867
 31
0.0
  0
LINE
  5
1FCB
330
1EFA
100
AcDbEntity
  8
実形
 62
     0
370
    18
100
AcDbLine
 10
2309.233877365066
 20
297.5085770831867
 30
0.0
 11
2387.233877365066
 21
297.5085770831867
 31
0.0
  0
INSERT
  5
1FCC
330
1EFA
100
AcDbEntity
  8
実形
 62
     0
370
    18
100
AcDbBlockReference
  2
_DotSmall
 10
2309.233877365066
 20
297.5085770831867
 30
0.0
 41
30.0
 42
30.0
 43
30.0
 50
180.0
  0
INSERT
  5
1FCD
330
1EFA
100
AcDbEntity
  8
実形
 62
     0
370
    18
100
AcDbBlockReference
  2
_DotSmall
 10
2387.233877365066
 20
297.5085770831867
 30
0.0
 41
30.0
 42
30.0
 43
30.0
  0
MTEXT
  5
1FCE
330
1EFA
100
AcDbEntity
  8
実形
 62
     0
100
AcDbMText
 10
2348.233877365066
 20
316.2585770831867
 30
0.0
 40
25.0
 41
0.0
 71
     5
 72
     1
  1
5
 73
     1
 44
1.0
1001
ACAD
1000
MTEXTBEGIN
1070
    73
1070
     1
1070
    44
1040
1.0
1070
    74
1070
     0
1000
MTEXTEND
  0
POINT
  5
1FCF
330
1EFA
100
AcDbEntity
  8
Defpoints
 62
     0
100
AcDbPoint
 10
2309.233877365066
 20
411.5474686202857
 30
0.0
  0
POINT
  5
1FD0
330
1EFA
100
AcDbEntity
  8
Defpoints
 62
     0
100
AcDbPoint
 10
2387.233877365066
 20
411.5474686202857
 30
0.0
  0
POINT
  5
1FD1
330
1EFA
100
AcDbEntity
  8
Defpoints
 62
     0
100
AcDbPoint
 10
2387.233877365066
 20
297.5085770831867
 30
0.0
  0
ENDBLK
  5
1F05
330
1EFA
100
AcDbEntity
  8
0
 62
     1
100
AcDbBlockEnd
  0
BLOCK
  5
1F10
330
1F06
100
AcDbEntity
  8
0
 62
     1
100
AcDbBlockBegin
  2
*D54
 70
     1
 10
0.0
 20
0.0
 30
0.0
  3
*D54
  1

  0
LINE
  5
1FD2
330
1F06
100
AcDbEntity
  8
実形
 62
     0
370
    18
100
AcDbLine
 10
2387.233877365066
 20
346.5474686202859
 30
0.0
 11
2387.233877365066
 21
297.5085770831867
 31
0.0
  0
LINE
  5
1FD3
330
1F06
100
AcDbEntity
  8
実形
 62
     0
370
    18
100
AcDbLine
 10
2621.233877365066
 20
346.5474686202858
 30
0.0
 11
2621.233877365066
 21
297.5085770831867
 31
0.0
  0
LINE
  5
1FD4
330
1F06
100
AcDbEntity
  8
実形
 62
     0
370
    18
100
AcDbLine
 10
2387.233877365066
 20
297.5085770831867
 30
0.0
 11
2621.233877365066
 21
297.5085770831867
 31
0.0
  0
INSERT
  5
1FD5
330
1F06
100
AcDbEntity
  8
実形
 62
     0
370
    18
100
AcDbBlockReference
  2
_DotSmall
 10
2387.233877365066
 20
297.5085770831867
 30
0.0
 41
30.0
 42
30.0
 43
30.0
 50
180.0
  0
INSERT
  5
1FD6
330
1F06
100
AcDbEntity
  8
実形
 62
     0
370
    18
100
AcDbBlockReference
  2
_DotSmall
 10
2621.233877365066
 20
297.5085770831867
 30
0.0
 41
30.0
 42
30.0
 43
30.0
  0
MTEXT
  5
1FD7
330
1F06
100
AcDbEntity
  8
実形
 62
     0
100
AcDbMText
 10
2504.233877365066
 20
316.2585770831867
 30
0.0
 40
25.0
 41
0.0
 71
     5
 72
     1
  1
15
 73
     1
 44
1.0
1001
ACAD
1000
MTEXTBEGIN
1070
    73
1070
     1
1070
    44
1040
1.0
1070
    74
1070
     0
1000
MTEXTEND
  0
POINT
  5
1FD8
330
1F06
100
AcDbEntity
  8
Defpoints
 62
     0
100
AcDbPoint
 10
2387.233877365066
 20
411.5474686202858
 30
0.0
  0
POINT
  5
1FD9
330
1F06
100
AcDbEntity
  8
Defpoints
 62
     0
100
AcDbPoint
 10
2621.233877365066
 20
411.5474686202857
 30
0.0
  0
POINT
  5
1FDA
330
1F06
100
AcDbEntity
  8
Defpoints
 62
     0
100
AcDbPoint
 10
2621.233877365066
 20
297.5085770831867
 30
0.0
  0
ENDBLK
  5
1F11
330
1F06
100
AcDbEntity
  8
0
 62
     1
100
AcDbBlockEnd
  0
BLOCK
  5
1F1C
330
1F12
100
AcDbEntity
  8
0
 62
     1
100
AcDbBlockBegin
  2
*D55
 70
     1
 10
0.0
 20
0.0
 30
0.0
  3
*D55
  1

  0
LINE
  5
1FDB
330
1F12
100
AcDbEntity
  8
実形
 62
     0
370
    18
100
AcDbLine
 10
2077.023276234157
 20
297.8281686160613
 30
0.0
 11
2077.023276234157
 21
247.5388396829094
 31
0.0
  0
LINE
  5
1FDC
330
1F12
100
AcDbEntity
  8
実形
 62
     0
370
    18
100
AcDbLine
 10
2155.023276234156
 20
297.8281686160613
 30
0.0
 11
2155.023276234156
 21
247.5388396829094
 31
0.0
  0
LINE
  5
1FDD
330
1F12
100
AcDbEntity
  8
実形
 62
     0
370
    18
100
AcDbLine
 10
2077.023276234157
 20
247.5388396829094
 30
0.0
 11
2155.023276234156
 21
247.5388396829094
 31
0.0
  0
INSERT
  5
1FDE
330
1F12
100
AcDbEntity
  8
実形
 62
     0
370
    18
100
AcDbBlockReference
  2
_DotSmall
 10
2077.023276234157
 20
247.5388396829094
 30
0.0
 41
30.0
 42
30.0
 43
30.0
 50
180.0
  0
INSERT
  5
1FDF
330
1F12
100
AcDbEntity
  8
実形
 62
     0
370
    18
100
AcDbBlockReference
  2
_DotSmall
 10
2155.023276234156
 20
247.5388396829094
 30
0.0
 41
30.0
 42
30.0
 43
30.0
  0
MTEXT
  5
1FE0
330
1F12
100
AcDbEntity
  8
実形
 62
     0
100
AcDbMText
 10
2116.023276234157
 20
266.2888396829094
 30
0.0
 40
25.0
 41
0.0
 71
     5
 72
     1
  1
5
 73
     1
 44
1.0
1001
ACAD
1000
MTEXTBEGIN
1070
    73
1070
     1
1070
    44
1040
1.0
1070
    74
1070
     0
1000
MTEXTEND
  0
POINT
  5
1FE1
330
1F12
100
AcDbEntity
  8
Defpoints
 62
     0
100
AcDbPoint
 10
2077.023276234157
 20
362.8281686160613
 30
0.0
  0
POINT
  5
1FE2
330
1F12
100
AcDbEntity
  8
Defpoints
 62
     0
100
AcDbPoint
 10
2155.023276234156
 20
362.8281686160613
 30
0.0
  0
POINT
  5
1FE3
330
1F12
100
AcDbEntity
  8
Defpoints
 62
     0
100
AcDbPoint
 10
2155.023276234156
 20
247.5388396829094
 30
0.0
  0
ENDBLK
  5
1F1D
330
1F12
100
AcDbEntity
  8
0
 62
     1
100
AcDbBlockEnd
  0
BLOCK
  5
1F28
330
1F1E
100
AcDbEntity
  8
0
 62
     1
100
AcDbBlockBegin
  2
*D56
 70
     1
 10
0.0
 20
0.0
 30
0.0
  3
*D56
  1

  0
LINE
  5
1FE4
330
1F1E
100
AcDbEntity
  8
実形
 62
     0
370
    18
100
AcDbLine
 10
2155.023276234156
 20
297.8281686160613
 30
0.0
 11
2155.023276234156
 21
247.5388396829094
 31
0.0
  0
LINE
  5
1FE5
330
1F1E
100
AcDbEntity
  8
実形
 62
     0
370
    18
100
AcDbLine
 10
2623.023276234156
 20
297.8281686160613
 30
0.0
 11
2623.023276234156
 21
247.5388396829094
 31
0.0
  0
LINE
  5
1FE6
330
1F1E
100
AcDbEntity
  8
実形
 62
     0
370
    18
100
AcDbLine
 10
2155.023276234156
 20
247.5388396829094
 30
0.0
 11
2623.023276234156
 21
247.5388396829094
 31
0.0
  0
INSERT
  5
1FE7
330
1F1E
100
AcDbEntity
  8
実形
 62
     0
370
    18
100
AcDbBlockReference
  2
_DotSmall
 10
2155.023276234156
 20
247.5388396829094
 30
0.0
 41
30.0
 42
30.0
 43
30.0
 50
180.0
  0
INSERT
  5
1FE8
330
1F1E
100
AcDbEntity
  8
実形
 62
     0
370
    18
100
AcDbBlockReference
  2
_DotSmall
 10
2623.023276234156
 20
247.5388396829094
 30
0.0
 41
30.0
 42
30.0
 43
30.0
  0
MTEXT
  5
1FE9
330
1F1E
100
AcDbEntity
  8
実形
 62
     0
100
AcDbMText
 10
2389.023276234156
 20
266.2888396829094
 30
0.0
 40
25.0
 41
0.0
 71
     5
 72
     1
  1
30
 73
     1
 44
1.0
1001
ACAD
1000
MTEXTBEGIN
1070
    73
1070
     1
1070
    44
1040
1.0
1070
    74
1070
     0
1000
MTEXTEND
  0
POINT
  5
1FEA
330
1F1E
100
AcDbEntity
  8
Defpoints
 62
     0
100
AcDbPoint
 10
2155.023276234156
 20
362.8281686160613
 30
0.0
  0
POINT
  5
1FEB
330
1F1E
100
AcDbEntity
  8
Defpoints
 62
     0
100
AcDbPoint
 10
2623.023276234156
 20
362.8281686160613
 30
0.0
  0
POINT
  5
1FEC
330
1F1E
100
AcDbEntity
  8
Defpoints
 62
     0
100
AcDbPoint
 10
2623.023276234156
 20
247.5388396829094
 30
0.0
  0
ENDBLK
  5
1F29
330
1F1E
100
AcDbEntity
  8
0
 62
     1
100
AcDbBlockEnd
  0
BLOCK
  5
1F34
330
1F2A
100
AcDbEntity
  8
0
 62
     1
100
AcDbBlockBegin
  2
*D57
 70
     1
 10
0.0
 20
0.0
 30
0.0
  3
*D57
  1

  0
LINE
  5
1FED
330
1F2A
100
AcDbEntity
  8
実形
 62
     0
370
    18
100
AcDbLine
 10
2032.328912889143
 20
684.0947101512855
 30
0.0
 11
1970.032114275532
 21
684.0947101512855
 31
0.0
  0
LINE
  5
1FEE
330
1F2A
100
AcDbEntity
  8
実形
 62
     0
370
    18
100
AcDbLine
 10
2032.328912889143
 20
585.2947101512854
 30
0.0
 11
1970.032114275532
 21
585.2947101512854
 31
0.0
  0
LINE
  5
1FEF
330
1F2A
100
AcDbEntity
  8
実形
 62
     0
370
    18
100
AcDbLine
 10
1970.032114275532
 20
684.0947101512855
 30
0.0
 11
1970.032114275532
 21
585.2947101512854
 31
0.0
  0
INSERT
  5
1FF0
330
1F2A
100
AcDbEntity
  8
実形
 62
     0
370
    18
100
AcDbBlockReference
  2
_DotSmall
 10
1970.032114275532
 20
684.0947101512855
 30
0.0
 41
30.0
 42
30.0
 43
30.0
 50
90.0
  0
INSERT
  5
1FF1
330
1F2A
100
AcDbEntity
  8
実形
 62
     0
370
    18
100
AcDbBlockReference
  2
_DotSmall
 10
1970.032114275532
 20
585.2947101512854
 30
0.0
 41
30.0
 42
30.0
 43
30.0
 50
270.0
  0
MTEXT
  5
1FF2
330
1F2A
100
AcDbEntity
  8
実形
 62
     0
100
AcDbMText
 10
1951.282114275532
 20
634.6947101512859
 30
0.0
 40
25.0
 41
0.0
 71
     5
 72
     1
  1
6.5
 11
0.0000000000000001
 21
1.0
 31
0.0
 73
     1
 44
1.0
1001
ACAD
1000
MTEXTBEGIN
1070
    73
1070
     1
1070
    44
1040
1.0
1070
    74
1070
     0
1000
MTEXTEND
  0
POINT
  5
1FF3
330
1F2A
100
AcDbEntity
  8
Defpoints
 62
     0
100
AcDbPoint
 10
2097.328912889143
 20
684.0947101512855
 30
0.0
  0
POINT
  5
1FF4
330
1F2A
100
AcDbEntity
  8
Defpoints
 62
     0
100
AcDbPoint
 10
2097.328912889143
 20
585.2947101512854
 30
0.0
  0
POINT
  5
1FF5
330
1F2A
100
AcDbEntity
  8
Defpoints
 62
     0
100
AcDbPoint
 10
1970.032114275532
 20
585.2947101512854
 30
0.0
  0
ENDBLK
  5
1F35
330
1F2A
100
AcDbEntity
  8
0
 62
     1
100
AcDbBlockEnd
  0
BLOCK
  5
1F40
330
1F36
100
AcDbEntity
  8
0
 62
     1
100
AcDbBlockBegin
  2
*D58
 70
     1
 10
0.0
 20
0.0
 30
0.0
  3
*D58
  1

  0
LINE
  5
1FF6
330
1F36
100
AcDbEntity
  8
実形
 62
     0
370
    18
100
AcDbLine
 10
2032.328912889143
 20
684.0947101512855
 30
0.0
 11
1916.035186721017
 21
684.0947101512855
 31
0.0
  0
LINE
  5
1FF7
330
1F36
100
AcDbEntity
  8
実形
 62
     0
370
    18
100
AcDbLine
 10
2032.328912889143
 20
559.2947101512846
 30
0.0
 11
1916.035186721017
 21
559.2947101512846
 31
0.0
  0
LINE
  5
1FF8
330
1F36
100
AcDbEntity
  8
実形
 62
     0
370
    18
100
AcDbLine
 10
1916.035186721017
 20
684.0947101512855
 30
0.0
 11
1916.035186721017
 21
559.2947101512846
 31
0.0
  0
INSERT
  5
1FF9
330
1F36
100
AcDbEntity
  8
実形
 62
     0
370
    18
100
AcDbBlockReference
  2
_DotSmall
 10
1916.035186721017
 20
684.0947101512855
 30
0.0
 41
30.0
 42
30.0
 43
30.0
 50
90.0
  0
INSERT
  5
1FFA
330
1F36
100
AcDbEntity
  8
実形
 62
     0
370
    18
100
AcDbBlockReference
  2
_DotSmall
 10
1916.035186721017
 20
559.2947101512846
 30
0.0
 41
30.0
 42
30.0
 43
30.0
 50
270.0
  0
MTEXT
  5
1FFB
330
1F36
100
AcDbEntity
  8
実形
 62
     0
100
AcDbMText
 10
1897.285186721017
 20
621.6947101512854
 30
0.0
 40
25.0
 41
0.0
 71
     5
 72
     1
  1
8.3
 11
0.0000000000000001
 21
1.0
 31
0.0
 73
     1
 44
1.0
1001
ACAD
1000
MTEXTBEGIN
1070
    73
1070
     1
1070
    44
1040
1.0
1070
    74
1070
     0
1000
MTEXTEND
  0
POINT
  5
1FFC
330
1F36
100
AcDbEntity
  8
Defpoints
 62
     0
100
AcDbPoint
 10
2097.328912889143
 20
684.0947101512855
 30
0.0
  0
POINT
  5
1FFD
330
1F36
100
AcDbEntity
  8
Defpoints
 62
     0
100
AcDbPoint
 10
2097.328912889143
 20
559.2947101512846
 30
0.0
  0
POINT
  5
1FFE
330
1F36
100
AcDbEntity
  8
Defpoints
 62
     0
100
AcDbPoint
 10
1916.035186721017
 20
559.2947101512846
 30
0.0
  0
ENDBLK
  5
1F41
330
1F36
100
AcDbEntity
  8
0
 62
     1
100
AcDbBlockEnd
  0
BLOCK
  5
1F4C
330
1F42
100
AcDbEntity
  8
0
 62
     1
100
AcDbBlockBegin
  2
*D59
 70
     1
 10
0.0
 20
0.0
 30
0.0
  3
*D59
  1

  0
LINE
  5
1FFF
330
1F42
100
AcDbEntity
  8
実形
 62
     0
370
    18
100
AcDbLine
 10
2032.328912889143
 20
543.6947101512854
 30
0.0
 11
1864.389549972262
 21
543.6947101512854
 31
0.0
  0
LINE
  5
2000
330
1F42
100
AcDbEntity
  8
実形
 62
     0
370
    18
100
AcDbLine
 10
2032.328912889143
 20
684.0947101512855
 30
0.0
 11
1864.389549972262
 21
684.0947101512855
 31
0.0
  0
LINE
  5
2001
330
1F42
100
AcDbEntity
  8
実形
 62
     0
370
    18
100
AcDbLine
 10
1864.389549972262
 20
543.6947101512854
 30
0.0
 11
1864.389549972262
 21
684.0947101512855
 31
0.0
  0
INSERT
  5
2002
330
1F42
100
AcDbEntity
  8
実形
 62
     0
370
    18
100
AcDbBlockReference
  2
_DotSmall
 10
1864.389549972262
 20
543.6947101512854
 30
0.0
 41
30.0
 42
30.0
 43
30.0
 50
270.0
  0
INSERT
  5
2003
330
1F42
100
AcDbEntity
  8
実形
 62
     0
370
    18
100
AcDbBlockReference
  2
_DotSmall
 10
1864.389549972262
 20
684.0947101512855
 30
0.0
 41
30.0
 42
30.0
 43
30.0
 50
90.0
  0
MTEXT
  5
2004
330
1F42
100
AcDbEntity
  8
実形
 62
     0
100
AcDbMText
 10
1845.639549972261
 20
613.8947101512858
 30
0.0
 40
25.0
 41
0.0
 71
     5
 72
     1
  1
9
 11
0.0000000000000001
 21
1.0
 31
0.0
 73
     1
 44
1.0
1001
ACAD
1000
MTEXTBEGIN
1070
    73
1070
     1
1070
    44
1040
1.0
1070
    74
1070
     0
1000
MTEXTEND
  0
POINT
  5
2005
330
1F42
100
AcDbEntity
  8
Defpoints
 62
     0
100
AcDbPoint
 10
2097.328912889143
 20
543.6947101512854
 30
0.0
  0
POINT
  5
2006
330
1F42
100
AcDbEntity
  8
Defpoints
 62
     0
100
AcDbPoint
 10
2097.328912889143
 20
684.0947101512855
 30
0.0
  0
POINT
  5
2007
330
1F42
100
AcDbEntity
  8
Defpoints
 62
     0
100
AcDbPoint
 10
1864.389549972262
 20
684.0947101512855
 30
0.0
  0
ENDBLK
  5
1F4D
330
1F42
100
AcDbEntity
  8
0
 62
     1
100
AcDbBlockEnd
  0
BLOCK
  5
1F58
330
1F4E
100
AcDbEntity
  8
0
 62
     1
100
AcDbBlockBegin
  2
*D60
 70
     1
 10
0.0
 20
0.0
 30
0.0
  3
*D60
  1

  0
LINE
  5
2008
330
1F4E
100
AcDbEntity
  8
実形
 62
     0
370
    18
100
AcDbLine
 10
2647.25404811461
 20
543.6947101512855
 30
0.0
 11
2673.699912636183
 21
543.6947101512855
 31
0.0
  0
LINE
  5
2009
330
1F4E
100
AcDbEntity
  8
実形
 62
     0
370
    18
100
AcDbLine
 10
2647.25404811461
 20
403.2947101512855
 30
0.0
 11
2673.699912636183
 21
403.2947101512855
 31
0.0
  0
LINE
  5
200A
330
1F4E
100
AcDbEntity
  8
実形
 62
     0
370
    18
100
AcDbLine
 10
2673.699912636183
 20
543.6947101512855
 30
0.0
 11
2673.699912636183
 21
403.2947101512855
 31
0.0
  0
INSERT
  5
200B
330
1F4E
100
AcDbEntity
  8
実形
 62
     0
370
    18
100
AcDbBlockReference
  2
_DotSmall
 10
2673.699912636183
 20
543.6947101512855
 30
0.0
 41
30.0
 42
30.0
 43
30.0
 50
90.0
  0
INSERT
  5
200C
330
1F4E
100
AcDbEntity
  8
実形
 62
     0
370
    18
100
AcDbBlockReference
  2
_DotSmall
 10
2673.699912636183
 20
403.2947101512855
 30
0.0
 41
30.0
 42
30.0
 43
30.0
 50
270.0
  0
MTEXT
  5
200D
330
1F4E
100
AcDbEntity
  8
実形
 62
     0
100
AcDbMText
 10
2654.949912636183
 20
473.4947101512859
 30
0.0
 40
25.0
 41
0.0
 71
     5
 72
     1
  1
9
 11
0.0000000000000001
 21
1.0
 31
0.0
 73
     1
 44
1.0
1001
ACAD
1000
MTEXTBEGIN
1070
    73
1070
     1
1070
    44
1040
1.0
1070
    74
1070
     0
1000
MTEXTEND
  0
POINT
  5
200E
330
1F4E
100
AcDbEntity
  8
Defpoints
 62
     0
100
AcDbPoint
 10
2582.25404811461
 20
543.6947101512855
 30
0.0
  0
POINT
  5
200F
330
1F4E
100
AcDbEntity
  8
Defpoints
 62
     0
100
AcDbPoint
 10
2582.25404811461
 20
403.2947101512855
 30
0.0
  0
POINT
  5
2010
330
1F4E
100
AcDbEntity
  8
Defpoints
 62
     0
100
AcDbPoint
 10
2673.699912636183
 20
403.2947101512855
 30
0.0
  0
ENDBLK
  5
1F59
330
1F4E
100
AcDbEntity
  8
0
 62
     1
100
AcDbBlockEnd
  0
BLOCK
  5
1F64
330
1F5A
100
AcDbEntity
  8
0
 62
     1
100
AcDbBlockBegin
  2
*D61
 70
     1
 10
0.0
 20
0.0
 30
0.0
  3
*D61
  1

  0
LINE
  5
2011
330
1F5A
100
AcDbEntity
  8
実形
 62
     0
370
    18
100
AcDbLine
 10
2647.25404811461
 20
684.0947101512855
 30
0.0
 11
2673.699912636183
 21
684.0947101512855
 31
0.0
  0
LINE
  5
2012
330
1F5A
100
AcDbEntity
  8
実形
 62
     0
370
    18
100
AcDbLine
 10
2647.25404811461
 20
543.6947101512855
 30
0.0
 11
2673.699912636183
 21
543.6947101512855
 31
0.0
  0
LINE
  5
2013
330
1F5A
100
AcDbEntity
  8
実形
 62
     0
370
    18
100
AcDbLine
 10
2673.699912636183
 20
684.0947101512855
 30
0.0
 11
2673.699912636183
 21
543.6947101512855
 31
0.0
  0
INSERT
  5
2014
330
1F5A
100
AcDbEntity
  8
実形
 62
     0
370
    18
100
AcDbBlockReference
  2
_DotSmall
 10
2673.699912636183
 20
684.0947101512855
 30
0.0
 41
30.0
 42
30.0
 43
30.0
 50
90.0
  0
INSERT
  5
2015
330
1F5A
100
AcDbEntity
  8
実形
 62
     0
370
    18
100
AcDbBlockReference
  2
_DotSmall
 10
2673.699912636183
 20
543.6947101512855
 30
0.0
 41
30.0
 42
30.0
 43
30.0
 50
270.0
  0
MTEXT
  5
2016
330
1F5A
100
AcDbEntity
  8
実形
 62
     0
100
AcDbMText
 10
2654.949912636183
 20
613.8947101512859
 30
0.0
 40
25.0
 41
0.0
 71
     5
 72
     1
  1
9
 11
0.0000000000000001
 21
1.0
 31
0.0
 73
     1
 44
1.0
1001
ACAD
1000
MTEXTBEGIN
1070
    73
1070
     1
1070
    44
1040
1.0
1070
    74
1070
     0
1000
MTEXTEND
  0
POINT
  5
2017
330
1F5A
100
AcDbEntity
  8
Defpoints
 62
     0
100
AcDbPoint
 10
2582.25404811461
 20
684.0947101512855
 30
0.0
  0
POINT
  5
2018
330
1F5A
100
AcDbEntity
  8
Defpoints
 62
     0
100
AcDbPoint
 10
2582.25404811461
 20
543.6947101512855
 30
0.0
  0
POINT
  5
2019
330
1F5A
100
AcDbEntity
  8
Defpoints
 62
     0
100
AcDbPoint
 10
2673.699912636183
 20
543.6947101512855
 30
0.0
  0
ENDBLK
  5
1F65
330
1F5A
100
AcDbEntity
  8
0
 62
     1
100
AcDbBlockEnd
  0
BLOCK
  5
1F70
330
1F66
100
AcDbEntity
  8
0
 62
     1
100
AcDbBlockBegin
  2
*D62
 70
     1
 10
0.0
 20
0.0
 30
0.0
  3
*D62
  1

  0
LINE
  5
201A
330
1F66
100
AcDbEntity
  8
実形
 62
     0
370
    18
100
AcDbLine
 10
2647.25404811461
 20
684.0947101512855
 30
0.0
 11
2715.480008308167
 21
684.0947101512855
 31
0.0
  0
LINE
  5
201B
330
1F66
100
AcDbEntity
  8
実形
 62
     0
370
    18
100
AcDbLine
 10
2647.25404811461
 20
403.2947101512855
 30
0.0
 11
2715.480008308167
 21
403.2947101512855
 31
0.0
  0
LINE
  5
201C
330
1F66
100
AcDbEntity
  8
実形
 62
     0
370
    18
100
AcDbLine
 10
2715.480008308167
 20
684.0947101512855
 30
0.0
 11
2715.480008308167
 21
403.2947101512855
 31
0.0
  0
INSERT
  5
201D
330
1F66
100
AcDbEntity
  8
実形
 62
     0
370
    18
100
AcDbBlockReference
  2
_DotSmall
 10
2715.480008308167
 20
684.0947101512855
 30
0.0
 41
30.0
 42
30.0
 43
30.0
 50
90.0
  0
INSERT
  5
201E
330
1F66
100
AcDbEntity
  8
実形
 62
     0
370
    18
100
AcDbBlockReference
  2
_DotSmall
 10
2715.480008308167
 20
403.2947101512855
 30
0.0
 41
30.0
 42
30.0
 43
30.0
 50
270.0
  0
MTEXT
  5
201F
330
1F66
100
AcDbEntity
  8
実形
 62
     0
100
AcDbMText
 10
2696.730008308167
 20
543.694710151286
 30
0.0
 40
25.0
 41
0.0
 71
     5
 72
     1
  1
18
 11
0.0000000000000001
 21
1.0
 31
0.0
 73
     1
 44
1.0
1001
ACAD
1000
MTEXTBEGIN
1070
    73
1070
     1
1070
    44
1040
1.0
1070
    74
1070
     0
1000
MTEXTEND
  0
POINT
  5
2020
330
1F66
100
AcDbEntity
  8
Defpoints
 62
     0
100
AcDbPoint
 10
2582.25404811461
 20
684.0947101512855
 30
0.0
  0
POINT
  5
2021
330
1F66
100
AcDbEntity
  8
Defpoints
 62
     0
100
AcDbPoint
 10
2582.25404811461
 20
403.2947101512855
 30
0.0
  0
POINT
  5
2022
330
1F66
100
AcDbEntity
  8
Defpoints
 62
     0
100
AcDbPoint
 10
2715.480008308167
 20
403.2947101512855
 30
0.0
  0
ENDBLK
  5
1F71
330
1F66
100
AcDbEntity
  8
0
 62
     1
100
AcDbBlockEnd
  0
BLOCK
  5
2091
330
2085
100
AcDbEntity
  8
0
 62
     3
100
AcDbBlockBegin
  2
*D63
 70
     1
 10
0.0
 20
0.0
 30
0.0
  3
*D63
  1

  0
LINE
  5
212B
330
2085
100
AcDbEntity
  8
実形
 62
     0
370
    15
100
AcDbLine
 10
375.4995148241032
 20
663.2511356432212
 30
0.0
 11
294.4213403951287
 21
663.2511356432212
 31
0.0
  0
LINE
  5
212C
330
2085
100
AcDbEntity
  8
実形
 62
     0
370
    15
100
AcDbLine
 10
375.4995148241032
 20
645.2511356432212
 30
0.0
 11
294.4213403951287
 21
645.2511356432212
 31
0.0
  0
LINE
  5
212D
330
2085
100
AcDbEntity
  8
実形
 62
     0
370
    15
100
AcDbLine
 10
294.4213403951287
 20
663.2511356432212
 30
0.0
 11
294.4213403951287
 21
645.2511356432212
 31
0.0
  0
LINE
  5
212E
330
2085
100
AcDbEntity
  8
実形
 62
     0
370
    15
100
AcDbLine
 10
294.4213403951287
 20
654.2511356432212
 30
0.0
 11
236.4365164787558
 21
688.8186341347009
 31
0.0
  0
LINE
  5
212F
330
2085
100
AcDbEntity
  8
実形
 62
     0
370
    15
100
AcDbLine
 10
236.4365164787558
 20
688.8186341347009
 30
0.0
 11
236.4365164787558
 21
734.6519674680343
 31
0.0
  0
MTEXT
  5
2130
330
2085
100
AcDbEntity
  8
実形
 62
     0
100
AcDbMText
 10
217.6865164787557
 20
711.7353008013675
 30
0.0
 40
25.0
 41
0.0
 71
     5
 72
     1
  1
18
 11
0.0000000000000001
 21
1.0
 31
0.0
 73
     1
 44
1.0
1001
ACAD
1000
MTEXTBEGIN
1070
    73
1070
     1
1070
    44
1040
1.0
1070
    74
1070
     0
1000
MTEXTEND
  0
INSERT
  5
2131
330
2085
100
AcDbEntity
  8
実形
 62
     0
370
    15
100
AcDbBlockReference
  2
_DotSmall
 10
294.4213403951287
 20
663.2511356432212
 30
0.0
 41
30.0
 42
30.0
 43
30.0
 50
90.0
  0
INSERT
  5
2132
330
2085
100
AcDbEntity
  8
実形
 62
     0
370
    15
100
AcDbBlockReference
  2
_DotSmall
 10
294.4213403951287
 20
645.2511356432212
 30
0.0
 41
30.0
 42
30.0
 43
30.0
 50
270.0
  0
POINT
  5
2133
330
2085
100
AcDbEntity
  8
Defpoints
 62
     0
100
AcDbPoint
 10
440.4995148241032
 20
663.2511356432212
 30
0.0
  0
POINT
  5
2134
330
2085
100
AcDbEntity
  8
Defpoints
 62
     0
100
AcDbPoint
 10
440.4995148241032
 20
645.2511356432212
 30
0.0
  0
POINT
  5
2135
330
2085
100
AcDbEntity
  8
Defpoints
 62
     0
100
AcDbPoint
 10
294.4213403951287
 20
645.2511356432212
 30
0.0
  0
ENDBLK
  5
2092
330
2085
100
AcDbEntity
  8
0
 62
     3
100
AcDbBlockEnd
  0
BLOCK
  5
20A2
330
2093
100
AcDbEntity
  8
0
 62
     3
100
AcDbBlockBegin
  2
*D64
 70
     1
 10
0.0
 20
0.0
 30
0.0
  3
*D64
  1

  0
LINE
  5
211D
330
2093
100
AcDbEntity
  8
実形
 62
     0
370
    15
100
AcDbLine
 10
376.4782924652791
 20
645.2511356432212
 30
0.0
 11
294.4213403951287
 21
645.2511356432212
 31
0.0
  0
LINE
  5
211E
330
2093
100
AcDbEntity
  8
実形
 62
     0
370
    15
100
AcDbLine
 10
376.4782924652791
 20
639.9511356432213
 30
0.0
 11
294.4213403951287
 21
639.9511356432213
 31
0.0
  0
LINE
  5
211F
330
2093
100
AcDbEntity
  8
実形
 62
     0
370
    15
100
AcDbLine
 10
294.4213403951287
 20
645.2511356432212
 30
0.0
 11
294.4213403951287
 21
675.2511356432212
 31
0.0
  0
LINE
  5
2120
330
2093
100
AcDbEntity
  8
実形
 62
     0
370
    15
100
AcDbLine
 10
294.4213403951287
 20
639.9511356432213
 30
0.0
 11
294.4213403951287
 21
609.9511356432214
 31
0.0
  0
LINE
  5
2121
330
2093
100
AcDbEntity
  8
実形
 62
     0
370
    15
100
AcDbLine
 10
294.4213403951287
 20
642.6011356432212
 30
0.0
 11
237.3545158488886
 21
618.2738970579776
 31
0.0
  0
LINE
  5
2122
330
2093
100
AcDbEntity
  8
実形
 62
     0
370
    15
100
AcDbLine
 10
237.3545158488886
 20
618.2738970579776
 30
0.0
 11
237.3545158488886
 21
555.7738970579776
 31
0.0
  0
MTEXT
  5
2123
330
2093
100
AcDbEntity
  8
実形
 62
     0
100
AcDbMText
 10
218.6045158488885
 20
587.0238970579776
 30
0.0
 40
25.0
 41
0.0
 71
     5
 72
     1
  1
5.3
 11
0.0000000000000001
 21
1.0
 31
0.0
 73
     1
 44
1.0
1001
ACAD
1000
MTEXTBEGIN
1070
    73
1070
     1
1070
    44
1040
1.0
1070
    74
1070
     0
1000
MTEXTEND
  0
LINE
  5
2124
330
2093
100
AcDbEntity
  8
実形
 62
     0
370
    15
100
AcDbLine
 10
294.4213403951287
 20
645.2511356432212
 30
0.0
 11
294.4213403951287
 21
639.9511356432213
 31
0.0
  0
LINE
  5
2125
330
2093
100
AcDbEntity
  8
実形
 62
     0
370
    15
100
AcDbLine
 10
294.4213403951287
 20
645.2511356432212
 30
0.0
 11
294.4213403951287
 21
639.9511356432213
 31
0.0
  0
INSERT
  5
2126
330
2093
100
AcDbEntity
  8
実形
 62
     0
370
    15
100
AcDbBlockReference
  2
_DotSmall
 10
294.4213403951287
 20
645.2511356432212
 30
0.0
 41
30.0
 42
30.0
 43
30.0
 50
270.0
  0
INSERT
  5
2127
330
2093
100
AcDbEntity
  8
実形
 62
     0
370
    15
100
AcDbBlockReference
  2
_DotSmall
 10
294.4213403951287
 20
639.9511356432213
 30
0.0
 41
30.0
 42
30.0
 43
30.0
 50
90.0
  0
POINT
  5
2128
330
2093
100
AcDbEntity
  8
Defpoints
 62
     0
100
AcDbPoint
 10
441.478292465279
 20
645.2511356432212
 30
0.0
  0
POINT
  5
2129
330
2093
100
AcDbEntity
  8
Defpoints
 62
     0
100
AcDbPoint
 10
441.478292465279
 20
639.9511356432213
 30
0.0
  0
POINT
  5
212A
330
2093
100
AcDbEntity
  8
Defpoints
 62
     0
100
AcDbPoint
 10
294.4213403951287
 20
639.9511356432213
 30
0.0
  0
ENDBLK
  5
20A3
330
2093
100
AcDbEntity
  8
0
 62
     3
100
AcDbBlockEnd
  0
BLOCK
  5
20AE
330
20A4
100
AcDbEntity
  8
0
 62
     3
100
AcDbBlockBegin
  2
*D65
 70
     1
 10
0.0
 20
0.0
 30
0.0
  3
*D65
  1

  0
LINE
  5
2136
330
20A4
100
AcDbEntity
  8
実形
 62
     0
370
    15
100
AcDbLine
 10
375.559378643138
 20
639.9511356432213
 30
0.0
 11
294.4213403951287
 21
639.9511356432213
 31
0.0
  0
LINE
  5
2137
330
20A4
100
AcDbEntity
  8
実形
 62
     0
370
    15
100
AcDbLine
 10
375.4995148241032
 20
464.9511356432213
 30
0.0
 11
294.4213403951287
 21
464.9511356432213
 31
0.0
  0
LINE
  5
2138
330
20A4
100
AcDbEntity
  8
実形
 62
     0
370
    15
100
AcDbLine
 10
294.4213403951287
 20
639.9511356432213
 30
0.0
 11
294.4213403951287
 21
464.9511356432213
 31
0.0
  0
INSERT
  5
2139
330
20A4
100
AcDbEntity
  8
実形
 62
     0
370
    15
100
AcDbBlockReference
  2
_DotSmall
 10
294.4213403951287
 20
639.9511356432213
 30
0.0
 41
30.0
 42
30.0
 43
30.0
 50
90.0
  0
INSERT
  5
213A
330
20A4
100
AcDbEntity
  8
実形
 62
     0
370
    15
100
AcDbBlockReference
  2
_DotSmall
 10
294.4213403951287
 20
464.9511356432213
 30
0.0
 41
30.0
 42
30.0
 43
30.0
 50
270.0
  0
MTEXT
  5
213B
330
20A4
100
AcDbEntity
  8
実形
 62
     0
100
AcDbMText
 10
275.6713403951287
 20
552.4511356432214
 30
0.0
 40
25.0
 41
0.0
 71
     5
 72
     1
  1
175
 11
0.0000000000000001
 21
1.0
 31
0.0
 73
     1
 44
1.0
1001
ACAD
1000
MTEXTBEGIN
1070
    73
1070
     1
1070
    44
1040
1.0
1070
    74
1070
     0
1000
MTEXTEND
  0
POINT
  5
213C
330
20A4
100
AcDbEntity
  8
Defpoints
 62
     0
100
AcDbPoint
 10
440.559378643138
 20
639.9511356432213
 30
0.0
  0
POINT
  5
213D
330
20A4
100
AcDbEntity
  8
Defpoints
 62
     0
100
AcDbPoint
 10
440.4995148241032
 20
464.9511356432213
 30
0.0
  0
POINT
  5
213E
330
20A4
100
AcDbEntity
  8
Defpoints
 62
     0
100
AcDbPoint
 10
294.4213403951287
 20
464.9511356432213
 30
0.0
  0
ENDBLK
  5
20AF
330
20A4
100
AcDbEntity
  8
0
 62
     3
100
AcDbBlockEnd
  0
BLOCK
  5
20BA
330
20B0
100
AcDbEntity
  8
0
 62
     3
100
AcDbBlockBegin
  2
*D66
 70
     1
 10
0.0
 20
0.0
 30
0.0
  3
*D66
  1

  0
LINE
  5
2114
330
20B0
100
AcDbEntity
  8
実形
 62
     0
370
    15
100
AcDbLine
 10
310.4995148241032
 20
663.2511356432213
 30
0.0
 11
166.4019587245618
 21
663.2511356432214
 31
0.0
  0
LINE
  5
2115
330
20B0
100
AcDbEntity
  8
実形
 62
     0
370
    15
100
AcDbLine
 10
310.4995148241032
 20
464.9511356432213
 30
0.0
 11
166.4019587245618
 21
464.9511356432213
 31
0.0
  0
LINE
  5
2116
330
20B0
100
AcDbEntity
  8
実形
 62
     0
370
    15
100
AcDbLine
 10
166.4019587245618
 20
663.2511356432214
 30
0.0
 11
166.4019587245618
 21
464.9511356432213
 31
0.0
  0
INSERT
  5
2117
330
20B0
100
AcDbEntity
  8
実形
 62
     0
370
    15
100
AcDbBlockReference
  2
_DotSmall
 10
166.4019587245618
 20
663.2511356432214
 30
0.0
 41
30.0
 42
30.0
 43
30.0
 50
90.0
  0
INSERT
  5
2118
330
20B0
100
AcDbEntity
  8
実形
 62
     0
370
    15
100
AcDbBlockReference
  2
_DotSmall
 10
166.4019587245618
 20
464.9511356432213
 30
0.0
 41
30.0
 42
30.0
 43
30.0
 50
270.0
  0
MTEXT
  5
2119
330
20B0
100
AcDbEntity
  8
実形
 62
     0
100
AcDbMText
 10
147.6519587245617
 20
564.1011356432214
 30
0.0
 40
25.0
 41
0.0
 71
     5
 72
     1
  1
198.3
 11
0.0000000000000001
 21
1.0
 31
0.0
 73
     1
 44
1.0
1001
ACAD
1000
MTEXTBEGIN
1070
    73
1070
     1
1070
    44
1040
1.0
1070
    74
1070
     0
1000
MTEXTEND
  0
POINT
  5
211A
330
20B0
100
AcDbEntity
  8
Defpoints
 62
     0
100
AcDbPoint
 10
375.4995148241032
 20
663.2511356432213
 30
0.0
  0
POINT
  5
211B
330
20B0
100
AcDbEntity
  8
Defpoints
 62
     0
100
AcDbPoint
 10
375.4995148241032
 20
464.9511356432213
 30
0.0
  0
POINT
  5
211C
330
20B0
100
AcDbEntity
  8
Defpoints
 62
     0
100
AcDbPoint
 10
166.4019587245618
 20
464.9511356432213
 30
0.0
  0
ENDBLK
  5
20BB
330
20B0
100
AcDbEntity
  8
0
 62
     3
100
AcDbBlockEnd
  0
BLOCK
  5
20C8
330
20BC
100
AcDbEntity
  8
0
 62
     3
100
AcDbBlockBegin
  2
*D67
 70
     1
 10
0.0
 20
0.0
 30
0.0
  3
*D67
  1

  0
LINE
  5
20F5
330
20BC
100
AcDbEntity
  8
実形
 62
     0
370
    15
100
AcDbLine
 10
375.4995148241031
 20
464.9511356432213
 30
0.0
 11
294.4213403951287
 21
464.9511356432213
 31
0.0
  0
LINE
  5
20F6
330
20BC
100
AcDbEntity
  8
実形
 62
     0
370
    15
100
AcDbLine
 10
375.4995148241031
 20
454.9511356432214
 30
0.0
 11
294.4213403951287
 21
454.9511356432214
 31
0.0
  0
LINE
  5
20F7
330
20BC
100
AcDbEntity
  8
実形
 62
     0
370
    15
100
AcDbLine
 10
294.4213403951287
 20
464.9511356432213
 30
0.0
 11
294.4213403951287
 21
494.9511356432213
 31
0.0
  0
LINE
  5
20F8
330
20BC
100
AcDbEntity
  8
実形
 62
     0
370
    15
100
AcDbLine
 10
294.4213403951287
 20
454.9511356432214
 30
0.0
 11
294.4213403951287
 21
424.9511356432213
 31
0.0
  0
MTEXT
  5
20F9
330
20BC
100
AcDbEntity
  8
実形
 62
     0
100
AcDbMText
 10
269.5976958731805
 20
444.1551151505737
 30
0.0
 40
25.0
 41
0.0
 71
     5
 72
     1
  1
7
 11
0.0000000000000001
 21
1.0
 31
0.0
 73
     1
 44
1.0
1001
ACAD
1000
MTEXTBEGIN
1070
    73
1070
     1
1070
    44
1040
1.0
1070
    74
1070
     0
1000
MTEXTEND
  0
LINE
  5
20FA
330
20BC
100
AcDbEntity
  8
実形
 62
     0
370
    15
100
AcDbLine
 10
294.4213403951287
 20
464.9511356432213
 30
0.0
 11
294.4213403951287
 21
454.9511356432214
 31
0.0
  0
INSERT
  5
20FB
330
20BC
100
AcDbEntity
  8
実形
 62
     0
370
    15
100
AcDbBlockReference
  2
_DotSmall
 10
294.4213403951287
 20
464.9511356432213
 30
0.0
 41
30.0
 42
30.0
 43
30.0
 50
270.0
  0
INSERT
  5
20FC
330
20BC
100
AcDbEntity
  8
実形
 62
     0
370
    15
100
AcDbBlockReference
  2
_DotSmall
 10
294.4213403951287
 20
454.9511356432214
 30
0.0
 41
30.0
 42
30.0
 43
30.0
 50
90.0
  0
POINT
  5
20FD
330
20BC
100
AcDbEntity
  8
Defpoints
 62
     0
100
AcDbPoint
 10
440.4995148241031
 20
464.9511356432213
 30
0.0
  0
POINT
  5
20FE
330
20BC
100
AcDbEntity
  8
Defpoints
 62
     0
100
AcDbPoint
 10
440.4995148241031
 20
454.9511356432213
 30
0.0
  0
POINT
  5
20FF
330
20BC
100
AcDbEntity
  8
Defpoints
 62
     0
100
AcDbPoint
 10
294.4213403951287
 20
454.9511356432214
 30
0.0
  0
ENDBLK
  5
20C9
330
20BC
100
AcDbEntity
  8
0
 62
     3
100
AcDbBlockEnd
  0
BLOCK
  5
2243
330
2239
100
AcDbEntity
  8
0
 62
     3
100
AcDbBlockBegin
  2
*D68
 70
     1
 10
0.0
 20
0.0
 30
0.0
  3
*D68
  1

  0
LINE
  5
235D
330
2239
100
AcDbEntity
  8
実形
 62
     0
370
    15
100
AcDbLine
 10
1791.837196468009
 20
1563.725824632851
 30
0.0
 11
1814.873527522818
 21
1563.725824632851
 31
0.0
  0
LINE
  5
235E
330
2239
100
AcDbEntity
  8
実形
 62
     0
370
    15
100
AcDbLine
 10
1791.837196468009
 20
1530.525824632851
 30
0.0
 11
1814.873527522817
 21
1530.525824632851
 31
0.0
  0
LINE
  5
235F
330
2239
100
AcDbEntity
  8
実形
 62
     0
370
    15
100
AcDbLine
 10
1814.873527522818
 20
1563.725824632851
 30
0.0
 11
1814.873527522817
 21
1530.525824632851
 31
0.0
  0
MTEXT
  5
2360
330
2239
100
AcDbEntity
  8
実形
 62
     0
100
AcDbMText
 10
1842.781763120536
 20
1545.877276551054
 30
0.0
 40
25.0
 41
0.0
 71
     5
 72
     1
  1
33.2
 11
0.0000000000000001
 21
1.0
 31
0.0
 73
     1
 44
1.0
1001
ACAD
1000
MTEXTBEGIN
1070
    73
1070
     1
1070
    44
1040
1.0
1070
    74
1070
     0
1000
MTEXTEND
  0
INSERT
  5
2361
330
2239
100
AcDbEntity
  8
実形
 62
     0
370
    15
100
AcDbBlockReference
  2
_DotSmall
 10
1814.873527522818
 20
1563.725824632851
 30
0.0
 41
30.0
 42
30.0
 43
30.0
 50
90.0
  0
INSERT
  5
2362
330
2239
100
AcDbEntity
  8
実形
 62
     0
370
    15
100
AcDbBlockReference
  2
_DotSmall
 10
1814.873527522817
 20
1530.525824632851
 30
0.0
 41
30.0
 42
30.0
 43
30.0
 50
270.0
  0
POINT
  5
2363
330
2239
100
AcDbEntity
  8
Defpoints
 62
     0
100
AcDbPoint
 10
1726.837196468009
 20
1563.725824632851
 30
0.0
  0
POINT
  5
2364
330
2239
100
AcDbEntity
  8
Defpoints
 62
     0
100
AcDbPoint
 10
1726.837196468009
 20
1530.525824632851
 30
0.0
  0
POINT
  5
2365
330
2239
100
AcDbEntity
  8
Defpoints
 62
     0
100
AcDbPoint
 10
1814.873527522817
 20
1530.525824632851
 30
0.0
  0
ENDBLK
  5
2244
330
2239
100
AcDbEntity
  8
0
 62
     3
100
AcDbBlockEnd
  0
BLOCK
  5
224F
330
2245
100
AcDbEntity
  8
0
 62
     3
100
AcDbBlockBegin
  2
*D69
 70
     1
 10
0.0
 20
0.0
 30
0.0
  3
*D69
  1

  0
LINE
  5
2386
330
2245
100
AcDbEntity
  8
実形
 62
     0
370
    15
100
AcDbLine
 10
1584.537196468009
 20
1635.66207751888
 30
0.0
 11
1584.537196468009
 21
1669.997887552794
 31
0.0
  0
LINE
  5
2387
330
2245
100
AcDbEntity
  8
実形
 62
     0
370
    15
100
AcDbLine
 10
1602.537196468009
 20
1635.66207751888
 30
0.0
 11
1602.537196468009
 21
1669.997887552794
 31
0.0
  0
LINE
  5
2388
330
2245
100
AcDbEntity
  8
実形
 62
     0
370
    15
100
AcDbLine
 10
1584.537196468009
 20
1669.997887552794
 30
0.0
 11
1602.537196468009
 21
1669.997887552794
 31
0.0
  0
MTEXT
  5
2389
330
2245
100
AcDbEntity
  8
実形
 62
     0
100
AcDbMText
 10
1555.516750303724
 20
1691.30144883166
 30
0.0
 40
25.0
 41
0.0
 71
     5
 72
     1
  1
18
 73
     1
 44
1.0
1001
ACAD
1000
MTEXTBEGIN
1070
    73
1070
     1
1070
    44
1040
1.0
1070
    74
1070
     0
1000
MTEXTEND
  0
INSERT
  5
238A
330
2245
100
AcDbEntity
  8
実形
 62
     0
370
    15
100
AcDbBlockReference
  2
_DotSmall
 10
1584.537196468009
 20
1669.997887552794
 30
0.0
 41
30.0
 42
30.0
 43
30.0
 50
180.0
  0
INSERT
  5
238B
330
2245
100
AcDbEntity
  8
実形
 62
     0
370
    15
100
AcDbBlockReference
  2
_DotSmall
 10
1602.537196468009
 20
1669.997887552794
 30
0.0
 41
30.0
 42
30.0
 43
30.0
  0
POINT
  5
238C
330
2245
100
AcDbEntity
  8
Defpoints
 62
     0
100
AcDbPoint
 10
1584.537196468009
 20
1570.66207751888
 30
0.0
  0
POINT
  5
238D
330
2245
100
AcDbEntity
  8
Defpoints
 62
     0
100
AcDbPoint
 10
1602.537196468009
 20
1570.66207751888
 30
0.0
  0
POINT
  5
238E
330
2245
100
AcDbEntity
  8
Defpoints
 62
     0
100
AcDbPoint
 10
1602.537196468009
 20
1669.997887552794
 30
0.0
  0
ENDBLK
  5
2250
330
2245
100
AcDbEntity
  8
0
 62
     3
100
AcDbBlockEnd
  0
BLOCK
  5
2260
330
2251
100
AcDbEntity
  8
0
 62
     3
100
AcDbBlockBegin
  2
*D70
 70
     1
 10
0.0
 20
0.0
 30
0.0
  3
*D70
  1

  0
LINE
  5
2378
330
2251
100
AcDbEntity
  8
実形
 62
     0
370
    15
100
AcDbLine
 10
1602.537196468009
 20
1635.66207751888
 30
0.0
 11
1602.537196468009
 21
1669.997887552794
 31
0.0
  0
LINE
  5
2379
330
2251
100
AcDbEntity
  8
実形
 62
     0
370
    15
100
AcDbLine
 10
1607.837196468009
 20
1635.66207751888
 30
0.0
 11
1607.837196468009
 21
1669.997887552794
 31
0.0
  0
LINE
  5
237A
330
2251
100
AcDbEntity
  8
実形
 62
     0
370
    15
100
AcDbLine
 10
1602.537196468009
 20
1669.997887552794
 30
0.0
 11
1572.537196468009
 21
1669.997887552794
 31
0.0
  0
LINE
  5
237B
330
2251
100
AcDbEntity
  8
実形
 62
     0
370
    15
100
AcDbLine
 10
1607.837196468009
 20
1669.997887552794
 30
0.0
 11
1637.837196468009
 21
1669.997887552794
 31
0.0
  0
LINE
  5
237C
330
2251
100
AcDbEntity
  8
実形
 62
     0
370
    15
100
AcDbLine
 10
1605.187196468009
 20
1669.997887552794
 30
0.0
 11
1564.75056657906
 21
1730.42530911619
 31
0.0
  0
LINE
  5
237D
330
2251
100
AcDbEntity
  8
実形
 62
     0
370
    15
100
AcDbLine
 10
1564.75056657906
 20
1730.42530911619
 30
0.0
 11
1508.25056657906
 21
1730.42530911619
 31
0.0
  0
MTEXT
  5
237E
330
2251
100
AcDbEntity
  8
実形
 62
     0
100
AcDbMText
 10
1536.50056657906
 20
1747.67530911619
 30
0.0
 40
22.0
 41
0.0
 71
     5
 72
     1
  1
5.3
 73
     1
 44
1.0
1001
ACAD
1000
MTEXTBEGIN
1070
    73
1070
     1
1070
    44
1040
1.0
1070
    74
1070
     0
1000
MTEXTEND
  0
LINE
  5
237F
330
2251
100
AcDbEntity
  8
実形
 62
     0
370
    15
100
AcDbLine
 10
1602.537196468009
 20
1669.997887552794
 30
0.0
 11
1607.837196468009
 21
1669.997887552794
 31
0.0
  0
LINE
  5
2380
330
2251
100
AcDbEntity
  8
実形
 62
     0
370
    15
100
AcDbLine
 10
1602.537196468009
 20
1669.997887552794
 30
0.0
 11
1607.837196468009
 21
1669.997887552794
 31
0.0
  0
INSERT
  5
2381
330
2251
100
AcDbEntity
  8
実形
 62
     0
370
    15
100
AcDbBlockReference
  2
_DotSmall
 10
1602.537196468009
 20
1669.997887552794
 30
0.0
 41
30.0
 42
30.0
 43
30.0
  0
INSERT
  5
2382
330
2251
100
AcDbEntity
  8
実形
 62
     0
370
    15
100
AcDbBlockReference
  2
_DotSmall
 10
1607.837196468009
 20
1669.997887552794
 30
0.0
 41
30.0
 42
30.0
 43
30.0
 50
180.0
  0
POINT
  5
2383
330
2251
100
AcDbEntity
  8
Defpoints
 62
     0
100
AcDbPoint
 10
1602.537196468009
 20
1570.66207751888
 30
0.0
  0
POINT
  5
2384
330
2251
100
AcDbEntity
  8
Defpoints
 62
     0
100
AcDbPoint
 10
1607.837196468009
 20
1570.66207751888
 30
0.0
  0
POINT
  5
2385
330
2251
100
AcDbEntity
  8
Defpoints
 62
     0
100
AcDbPoint
 10
1607.837196468009
 20
1669.997887552794
 30
0.0
  0
ENDBLK
  5
2261
330
2251
100
AcDbEntity
  8
0
 62
     3
100
AcDbBlockEnd
  0
BLOCK
  5
226C
330
2262
100
AcDbEntity
  8
0
 62
     3
100
AcDbBlockBegin
  2
*D71
 70
     1
 10
0.0
 20
0.0
 30
0.0
  3
*D71
  1

  0
LINE
  5
236F
330
2262
100
AcDbEntity
  8
実形
 62
     0
370
    15
100
AcDbLine
 10
1607.837196468009
 20
1635.66207751888
 30
0.0
 11
1607.837196468009
 21
1669.997887552794
 31
0.0
  0
LINE
  5
2370
330
2262
100
AcDbEntity
  8
実形
 62
     0
370
    15
100
AcDbLine
 10
1706.837196468009
 20
1635.66207751888
 30
0.0
 11
1706.837196468009
 21
1669.997887552794
 31
0.0
  0
LINE
  5
2371
330
2262
100
AcDbEntity
  8
実形
 62
     0
370
    15
100
AcDbLine
 10
1607.837196468009
 20
1669.997887552794
 30
0.0
 11
1706.837196468009
 21
1669.997887552794
 31
0.0
  0
INSERT
  5
2372
330
2262
100
AcDbEntity
  8
実形
 62
     0
370
    15
100
AcDbBlockReference
  2
_DotSmall
 10
1607.837196468009
 20
1669.997887552794
 30
0.0
 41
30.0
 42
30.0
 43
30.0
 50
180.0
  0
INSERT
  5
2373
330
2262
100
AcDbEntity
  8
実形
 62
     0
370
    15
100
AcDbBlockReference
  2
_DotSmall
 10
1706.837196468009
 20
1669.997887552794
 30
0.0
 41
30.0
 42
30.0
 43
30.0
  0
MTEXT
  5
2374
330
2262
100
AcDbEntity
  8
実形
 62
     0
100
AcDbMText
 10
1657.337196468009
 20
1688.747887552794
 30
0.0
 40
25.0
 41
0.0
 71
     5
 72
     1
  1
99
 73
     1
 44
1.0
1001
ACAD
1000
MTEXTBEGIN
1070
    73
1070
     1
1070
    44
1040
1.0
1070
    74
1070
     0
1000
MTEXTEND
  0
POINT
  5
2375
330
2262
100
AcDbEntity
  8
Defpoints
 62
     0
100
AcDbPoint
 10
1607.837196468009
 20
1570.66207751888
 30
0.0
  0
POINT
  5
2376
330
2262
100
AcDbEntity
  8
Defpoints
 62
     0
100
AcDbPoint
 10
1706.837196468009
 20
1570.66207751888
 30
0.0
  0
POINT
  5
2377
330
2262
100
AcDbEntity
  8
Defpoints
 62
     0
100
AcDbPoint
 10
1706.837196468009
 20
1669.997887552794
 30
0.0
  0
ENDBLK
  5
226D
330
2262
100
AcDbEntity
  8
0
 62
     3
100
AcDbBlockEnd
  0
BLOCK
  5
2278
330
226E
100
AcDbEntity
  8
0
 62
     3
100
AcDbBlockBegin
  2
*D72
 70
     1
 10
0.0
 20
0.0
 30
0.0
  3
*D72
  1

  0
LINE
  5
2366
330
226E
100
AcDbEntity
  8
実形
 62
     0
370
    15
100
AcDbLine
 10
1584.537196468009
 20
1635.66207751888
 30
0.0
 11
1584.537196468009
 21
1732.271370562173
 31
0.0
  0
LINE
  5
2367
330
226E
100
AcDbEntity
  8
実形
 62
     0
370
    15
100
AcDbLine
 10
1706.837196468009
 20
1635.66207751888
 30
0.0
 11
1706.837196468009
 21
1732.271370562173
 31
0.0
  0
LINE
  5
2368
330
226E
100
AcDbEntity
  8
実形
 62
     0
370
    15
100
AcDbLine
 10
1584.537196468009
 20
1732.271370562173
 30
0.0
 11
1706.837196468009
 21
1732.271370562173
 31
0.0
  0
INSERT
  5
2369
330
226E
100
AcDbEntity
  8
実形
 62
     0
370
    15
100
AcDbBlockReference
  2
_DotSmall
 10
1584.537196468009
 20
1732.271370562173
 30
0.0
 41
30.0
 42
30.0
 43
30.0
 50
180.0
  0
INSERT
  5
236A
330
226E
100
AcDbEntity
  8
実形
 62
     0
370
    15
100
AcDbBlockReference
  2
_DotSmall
 10
1706.837196468009
 20
1732.271370562173
 30
0.0
 41
30.0
 42
30.0
 43
30.0
  0
MTEXT
  5
236B
330
226E
100
AcDbEntity
  8
実形
 62
     0
100
AcDbMText
 10
1645.687196468009
 20
1751.021370562173
 30
0.0
 40
25.0
 41
0.0
 71
     5
 72
     1
  1
122.3
 73
     1
 44
1.0
1001
ACAD
1000
MTEXTBEGIN
1070
    73
1070
     1
1070
    44
1040
1.0
1070
    74
1070
     0
1000
MTEXTEND
  0
POINT
  5
236C
330
226E
100
AcDbEntity
  8
Defpoints
 62
     0
100
AcDbPoint
 10
1584.537196468009
 20
1570.66207751888
 30
0.0
  0
POINT
  5
236D
330
226E
100
AcDbEntity
  8
Defpoints
 62
     0
100
AcDbPoint
 10
1706.837196468009
 20
1570.66207751888
 30
0.0
  0
POINT
  5
236E
330
226E
100
AcDbEntity
  8
Defpoints
 62
     0
100
AcDbPoint
 10
1706.837196468009
 20
1732.271370562173
 30
0.0
  0
ENDBLK
  5
2279
330
226E
100
AcDbEntity
  8
0
 62
     3
100
AcDbBlockEnd
  0
BLOCK
  5
2286
330
227A
100
AcDbEntity
  8
0
 62
     3
100
AcDbBlockBegin
  2
*D73
 70
     1
 10
0.0
 20
0.0
 30
0.0
  3
*D73
  1

  0
LINE
  5
2349
330
227A
100
AcDbEntity
  8
実形
 62
     0
370
    15
100
AcDbLine
 10
1584.537196468009
 20
1002.888017460209
 30
0.0
 11
1584.537196468009
 21
921.8098430312348
 31
0.0
  0
LINE
  5
234A
330
227A
100
AcDbEntity
  8
実形
 62
     0
370
    15
100
AcDbLine
 10
1602.537196468009
 20
1002.888017460209
 30
0.0
 11
1602.537196468009
 21
921.8098430312348
 31
0.0
  0
LINE
  5
234B
330
227A
100
AcDbEntity
  8
実形
 62
     0
370
    15
100
AcDbLine
 10
1584.537196468009
 20
921.8098430312348
 30
0.0
 11
1602.537196468009
 21
921.8098430312348
 31
0.0
  0
LINE
  5
234C
330
227A
100
AcDbEntity
  8
実形
 62
     0
370
    15
100
AcDbLine
 10
1593.537196468008
 20
921.8098430312348
 30
0.0
 11
1558.969697976529
 21
863.8250191148618
 31
0.0
  0
LINE
  5
234D
330
227A
100
AcDbEntity
  8
実形
 62
     0
370
    15
100
AcDbLine
 10
1558.969697976529
 20
863.8250191148618
 30
0.0
 11
1513.136364643195
 21
863.8250191148618
 31
0.0
  0
MTEXT
  5
234E
330
227A
100
AcDbEntity
  8
実形
 62
     0
100
AcDbMText
 10
1536.053031309862
 20
882.5750191148618
 30
0.0
 40
25.0
 41
0.0
 71
     5
 72
     1
  1
18
 73
     1
 44
1.0
1001
ACAD
1000
MTEXTBEGIN
1070
    73
1070
     1
1070
    44
1040
1.0
1070
    74
1070
     0
1000
MTEXTEND
  0
INSERT
  5
234F
330
227A
100
AcDbEntity
  8
実形
 62
     0
370
    15
100
AcDbBlockReference
  2
_DotSmall
 10
1584.537196468009
 20
921.8098430312348
 30
0.0
 41
30.0
 42
30.0
 43
30.0
 50
180.0
  0
INSERT
  5
2350
330
227A
100
AcDbEntity
  8
実形
 62
     0
370
    15
100
AcDbBlockReference
  2
_DotSmall
 10
1602.537196468009
 20
921.8098430312348
 30
0.0
 41
30.0
 42
30.0
 43
30.0
  0
POINT
  5
2351
330
227A
100
AcDbEntity
  8
Defpoints
 62
     0
100
AcDbPoint
 10
1584.537196468009
 20
1067.888017460209
 30
0.0
  0
POINT
  5
2352
330
227A
100
AcDbEntity
  8
Defpoints
 62
     0
100
AcDbPoint
 10
1602.537196468009
 20
1067.888017460209
 30
0.0
  0
POINT
  5
2353
330
227A
100
AcDbEntity
  8
Defpoints
 62
     0
100
AcDbPoint
 10
1602.537196468009
 20
921.8098430312348
 30
0.0
  0
ENDBLK
  5
2287
330
227A
100
AcDbEntity
  8
0
 62
     3
100
AcDbBlockEnd
  0
BLOCK
  5
2297
330
2288
100
AcDbEntity
  8
0
 62
     3
100
AcDbBlockBegin
  2
*D74
 70
     1
 10
0.0
 20
0.0
 30
0.0
  3
*D74
  1

  0
LINE
  5
233B
330
2288
100
AcDbEntity
  8
実形
 62
     0
370
    15
100
AcDbLine
 10
1602.537196468009
 20
1003.866795101385
 30
0.0
 11
1602.537196468009
 21
921.8098430312348
 31
0.0
  0
LINE
  5
233C
330
2288
100
AcDbEntity
  8
実形
 62
     0
370
    15
100
AcDbLine
 10
1607.837196468008
 20
1003.866795101385
 30
0.0
 11
1607.837196468008
 21
921.8098430312348
 31
0.0
  0
LINE
  5
233D
330
2288
100
AcDbEntity
  8
実形
 62
     0
370
    15
100
AcDbLine
 10
1602.537196468009
 20
921.8098430312348
 30
0.0
 11
1572.537196468009
 21
921.8098430312348
 31
0.0
  0
LINE
  5
233E
330
2288
100
AcDbEntity
  8
実形
 62
     0
370
    15
100
AcDbLine
 10
1607.837196468008
 20
921.8098430312348
 30
0.0
 11
1637.837196468008
 21
921.8098430312348
 31
0.0
  0
LINE
  5
233F
330
2288
100
AcDbEntity
  8
実形
 62
     0
370
    15
100
AcDbLine
 10
1605.187196468008
 20
921.8098430312348
 30
0.0
 11
1629.514435053252
 21
864.7430184849945
 31
0.0
  0
LINE
  5
2340
330
2288
100
AcDbEntity
  8
実形
 62
     0
370
    15
100
AcDbLine
 10
1629.514435053252
 20
864.7430184849945
 30
0.0
 11
1692.014435053252
 21
864.7430184849945
 31
0.0
  0
MTEXT
  5
2341
330
2288
100
AcDbEntity
  8
実形
 62
     0
100
AcDbMText
 10
1660.764435053252
 20
883.4930184849945
 30
0.0
 40
25.0
 41
0.0
 71
     5
 72
     1
  1
5.3
 73
     1
 44
1.0
1001
ACAD
1000
MTEXTBEGIN
1070
    73
1070
     1
1070
    44
1040
1.0
1070
    74
1070
     0
1000
MTEXTEND
  0
LINE
  5
2342
330
2288
100
AcDbEntity
  8
実形
 62
     0
370
    15
100
AcDbLine
 10
1602.537196468009
 20
921.8098430312348
 30
0.0
 11
1607.837196468008
 21
921.8098430312348
 31
0.0
  0
LINE
  5
2343
330
2288
100
AcDbEntity
  8
実形
 62
     0
370
    15
100
AcDbLine
 10
1602.537196468009
 20
921.8098430312348
 30
0.0
 11
1607.837196468008
 21
921.8098430312348
 31
0.0
  0
INSERT
  5
2344
330
2288
100
AcDbEntity
  8
実形
 62
     0
370
    15
100
AcDbBlockReference
  2
_DotSmall
 10
1602.537196468009
 20
921.8098430312348
 30
0.0
 41
30.0
 42
30.0
 43
30.0
  0
INSERT
  5
2345
330
2288
100
AcDbEntity
  8
実形
 62
     0
370
    15
100
AcDbBlockReference
  2
_DotSmall
 10
1607.837196468008
 20
921.8098430312348
 30
0.0
 41
30.0
 42
30.0
 43
30.0
 50
180.0
  0
POINT
  5
2346
330
2288
100
AcDbEntity
  8
Defpoints
 62
     0
100
AcDbPoint
 10
1602.537196468009
 20
1068.866795101385
 30
0.0
  0
POINT
  5
2347
330
2288
100
AcDbEntity
  8
Defpoints
 62
     0
100
AcDbPoint
 10
1607.837196468008
 20
1068.866795101385
 30
0.0
  0
POINT
  5
2348
330
2288
100
AcDbEntity
  8
Defpoints
 62
     0
100
AcDbPoint
 10
1607.837196468008
 20
921.8098430312348
 30
0.0
  0
ENDBLK
  5
2298
330
2288
100
AcDbEntity
  8
0
 62
     3
100
AcDbBlockEnd
  0
BLOCK
  5
22A3
330
2299
100
AcDbEntity
  8
0
 62
     3
100
AcDbBlockBegin
  2
*D75
 70
     1
 10
0.0
 20
0.0
 30
0.0
  3
*D75
  1

  0
LINE
  5
2332
330
2299
100
AcDbEntity
  8
実形
 62
     0
370
    15
100
AcDbLine
 10
1607.837196468008
 20
1002.947881279244
 30
0.0
 11
1607.837196468008
 21
921.8098430312348
 31
0.0
  0
LINE
  5
2333
330
2299
100
AcDbEntity
  8
実形
 62
     0
370
    15
100
AcDbLine
 10
1782.837196468008
 20
1002.888017460209
 30
0.0
 11
1782.837196468008
 21
921.8098430312348
 31
0.0
  0
LINE
  5
2334
330
2299
100
AcDbEntity
  8
実形
 62
     0
370
    15
100
AcDbLine
 10
1607.837196468008
 20
921.8098430312348
 30
0.0
 11
1782.837196468008
 21
921.8098430312348
 31
0.0
  0
INSERT
  5
2335
330
2299
100
AcDbEntity
  8
実形
 62
     0
370
    15
100
AcDbBlockReference
  2
_DotSmall
 10
1607.837196468008
 20
921.8098430312348
 30
0.0
 41
30.0
 42
30.0
 43
30.0
 50
180.0
  0
INSERT
  5
2336
330
2299
100
AcDbEntity
  8
実形
 62
     0
370
    15
100
AcDbBlockReference
  2
_DotSmall
 10
1782.837196468008
 20
921.8098430312348
 30
0.0
 41
30.0
 42
30.0
 43
30.0
  0
MTEXT
  5
2337
330
2299
100
AcDbEntity
  8
実形
 62
     0
100
AcDbMText
 10
1695.337196468008
 20
940.5598430312348
 30
0.0
 40
25.0
 41
0.0
 71
     5
 72
     1
  1
175
 73
     1
 44
1.0
1001
ACAD
1000
MTEXTBEGIN
1070
    73
1070
     1
1070
    44
1040
1.0
1070
    74
1070
     0
1000
MTEXTEND
  0
POINT
  5
2338
330
2299
100
AcDbEntity
  8
Defpoints
 62
     0
100
AcDbPoint
 10
1607.837196468008
 20
1067.947881279244
 30
0.0
  0
POINT
  5
2339
330
2299
100
AcDbEntity
  8
Defpoints
 62
     0
100
AcDbPoint
 10
1782.837196468008
 20
1067.888017460209
 30
0.0
  0
POINT
  5
233A
330
2299
100
AcDbEntity
  8
Defpoints
 62
     0
100
AcDbPoint
 10
1782.837196468008
 20
921.8098430312348
 30
0.0
  0
ENDBLK
  5
22A4
330
2299
100
AcDbEntity
  8
0
 62
     3
100
AcDbBlockEnd
  0
BLOCK
  5
22AF
330
22A5
100
AcDbEntity
  8
0
 62
     3
100
AcDbBlockBegin
  2
*D76
 70
     1
 10
0.0
 20
0.0
 30
0.0
  3
*D76
  1

  0
LINE
  5
2354
330
22A5
100
AcDbEntity
  8
実形
 62
     0
370
    15
100
AcDbLine
 10
1584.537196468008
 20
937.8880174602091
 30
0.0
 11
1584.537196468008
 21
793.7904613606678
 31
0.0
  0
LINE
  5
2355
330
22A5
100
AcDbEntity
  8
実形
 62
     0
370
    15
100
AcDbLine
 10
1782.837196468008
 20
937.8880174602091
 30
0.0
 11
1782.837196468008
 21
793.7904613606678
 31
0.0
  0
LINE
  5
2356
330
22A5
100
AcDbEntity
  8
実形
 62
     0
370
    15
100
AcDbLine
 10
1584.537196468008
 20
793.7904613606678
 30
0.0
 11
1782.837196468008
 21
793.7904613606678
 31
0.0
  0
INSERT
  5
2357
330
22A5
100
AcDbEntity
  8
実形
 62
     0
370
    15
100
AcDbBlockReference
  2
_DotSmall
 10
1584.537196468008
 20
793.7904613606678
 30
0.0
 41
30.0
 42
30.0
 43
30.0
 50
180.0
  0
INSERT
  5
2358
330
22A5
100
AcDbEntity
  8
実形
 62
     0
370
    15
100
AcDbBlockReference
  2
_DotSmall
 10
1782.837196468008
 20
793.7904613606678
 30
0.0
 41
30.0
 42
30.0
 43
30.0
  0
MTEXT
  5
2359
330
22A5
100
AcDbEntity
  8
実形
 62
     0
100
AcDbMText
 10
1683.687196468008
 20
812.5404613606679
 30
0.0
 40
25.0
 41
0.0
 71
     5
 72
     1
  1
198.3
 73
     1
 44
1.0
1001
ACAD
1000
MTEXTBEGIN
1070
    73
1070
     1
1070
    44
1040
1.0
1070
    74
1070
     0
1000
MTEXTEND
  0
POINT
  5
235A
330
22A5
100
AcDbEntity
  8
Defpoints
 62
     0
100
AcDbPoint
 10
1584.537196468008
 20
1002.888017460209
 30
0.0
  0
POINT
  5
235B
330
22A5
100
AcDbEntity
  8
Defpoints
 62
     0
100
AcDbPoint
 10
1782.837196468008
 20
1002.888017460209
 30
0.0
  0
POINT
  5
235C
330
22A5
100
AcDbEntity
  8
Defpoints
 62
     0
100
AcDbPoint
 10
1782.837196468008
 20
793.7904613606678
 30
0.0
  0
ENDBLK
  5
22B0
330
22A5
100
AcDbEntity
  8
0
 62
     3
100
AcDbBlockEnd
  0
BLOCK
  5
22BD
330
22B1
100
AcDbEntity
  8
0
 62
     3
100
AcDbBlockBegin
  2
*D77
 70
     1
 10
0.0
 20
0.0
 30
0.0
  3
*D77
  1

  0
LINE
  5
2327
330
22B1
100
AcDbEntity
  8
実形
 62
     0
370
    15
100
AcDbLine
 10
1782.837196468008
 20
1002.888017460209
 30
0.0
 11
1782.837196468008
 21
921.8098430312348
 31
0.0
  0
LINE
  5
2328
330
22B1
100
AcDbEntity
  8
実形
 62
     0
370
    15
100
AcDbLine
 10
1792.837196468008
 20
1002.888017460209
 30
0.0
 11
1792.837196468008
 21
921.8098430312348
 31
0.0
  0
LINE
  5
2329
330
22B1
100
AcDbEntity
  8
実形
 62
     0
370
    15
100
AcDbLine
 10
1782.837196468008
 20
921.8098430312348
 30
0.0
 11
1752.837196468008
 21
921.8098430312348
 31
0.0
  0
LINE
  5
232A
330
22B1
100
AcDbEntity
  8
実形
 62
     0
370
    15
100
AcDbLine
 10
1792.837196468008
 20
921.8098430312348
 30
0.0
 11
1822.837196468008
 21
921.8098430312348
 31
0.0
  0
MTEXT
  5
232B
330
22B1
100
AcDbEntity
  8
実形
 62
     0
100
AcDbMText
 10
1810.779934539772
 20
943.0883261052276
 30
0.0
 40
25.0
 41
0.0
 71
     5
 72
     1
  1
7
 73
     1
 44
1.0
1001
ACAD
1000
MTEXTBEGIN
1070
    73
1070
     1
1070
    44
1040
1.0
1070
    74
1070
     0
1000
MTEXTEND
  0
LINE
  5
232C
330
22B1
100
AcDbEntity
  8
実形
 62
     0
370
    15
100
AcDbLine
 10
1782.837196468008
 20
921.8098430312348
 30
0.0
 11
1792.837196468008
 21
921.8098430312348
 31
0.0
  0
INSERT
  5
232D
330
22B1
100
AcDbEntity
  8
実形
 62
     0
370
    15
100
AcDbBlockReference
  2
_DotSmall
 10
1782.837196468008
 20
921.8098430312348
 30
0.0
 41
30.0
 42
30.0
 43
30.0
  0
INSERT
  5
232E
330
22B1
100
AcDbEntity
  8
実形
 62
     0
370
    15
100
AcDbBlockReference
  2
_DotSmall
 10
1792.837196468008
 20
921.8098430312348
 30
0.0
 41
30.0
 42
30.0
 43
30.0
 50
180.0
  0
POINT
  5
232F
330
22B1
100
AcDbEntity
  8
Defpoints
 62
     0
100
AcDbPoint
 10
1782.837196468008
 20
1067.888017460209
 30
0.0
  0
POINT
  5
2330
330
22B1
100
AcDbEntity
  8
Defpoints
 62
     0
100
AcDbPoint
 10
1792.837196468008
 20
1067.888017460209
 30
0.0
  0
POINT
  5
2331
330
22B1
100
AcDbEntity
  8
Defpoints
 62
     0
100
AcDbPoint
 10
1792.837196468008
 20
921.8098430312348
 30
0.0
  0
ENDBLK
  5
22BE
330
22B1
100
AcDbEntity
  8
0
 62
     3
100
AcDbBlockEnd
  0
BLOCK
  5
23AD
330
23A3
100
AcDbEntity
  8
0
 62
     3
100
AcDbBlockBegin
  2
*D78
 70
     1
 10
0.0
 20
0.0
 30
0.0
  3
*D78
  1

  0
LINE
  5
23AF
330
23A3
100
AcDbEntity
  8
実形
 62
     0
370
    15
100
AcDbLine
 10
1706.837196468009
 20
1628.725824632851
 30
0.0
 11
1706.837196468009
 21
1669.997887552794
 31
0.0
  0
LINE
  5
23B0
330
23A3
100
AcDbEntity
  8
実形
 62
     0
370
    15
100
AcDbLine
 10
1726.837196468009
 20
1628.725824632851
 30
0.0
 11
1726.837196468009
 21
1669.997887552794
 31
0.0
  0
LINE
  5
23B1
330
23A3
100
AcDbEntity
  8
実形
 62
     0
370
    15
100
AcDbLine
 10
1706.837196468009
 20
1669.997887552794
 30
0.0
 11
1726.837196468009
 21
1669.997887552794
 31
0.0
  0
MTEXT
  5
23B2
330
23A3
100
AcDbEntity
  8
実形
 62
     0
100
AcDbMText
 10
1737.250390601047
 20
1693.530785366318
 30
0.0
 40
25.0
 41
0.0
 71
     5
 72
     1
  1
20
 73
     1
 44
1.0
1001
ACAD
1000
MTEXTBEGIN
1070
    73
1070
     1
1070
    44
1040
1.0
1070
    74
1070
     0
1000
MTEXTEND
  0
INSERT
  5
23B3
330
23A3
100
AcDbEntity
  8
実形
 62
     0
370
    15
100
AcDbBlockReference
  2
_DotSmall
 10
1706.837196468009
 20
1669.997887552794
 30
0.0
 41
30.0
 42
30.0
 43
30.0
 50
180.0
  0
INSERT
  5
23B4
330
23A3
100
AcDbEntity
  8
実形
 62
     0
370
    15
100
AcDbBlockReference
  2
_DotSmall
 10
1726.837196468009
 20
1669.997887552794
 30
0.0
 41
30.0
 42
30.0
 43
30.0
  0
POINT
  5
23B5
330
23A3
100
AcDbEntity
  8
Defpoints
 62
     0
100
AcDbPoint
 10
1706.837196468009
 20
1563.725824632851
 30
0.0
  0
POINT
  5
23B6
330
23A3
100
AcDbEntity
  8
Defpoints
 62
     0
100
AcDbPoint
 10
1726.837196468009
 20
1563.725824632851
 30
0.0
  0
POINT
  5
23B7
330
23A3
100
AcDbEntity
  8
Defpoints
 62
     0
100
AcDbPoint
 10
1726.837196468009
 20
1669.997887552794
 30
0.0
  0
ENDBLK
  5
23AE
330
23A3
100
AcDbEntity
  8
0
 62
     3
100
AcDbBlockEnd
  0
ENDSEC
  0
SECTION
  2
ENTITIES
  0
LINE
  5
9C
330
1F
100
AcDbEntity
  8
補助
100
AcDbLine
 10
104.0
 20
4.0
 30
0.0
 11
2784.0
 21
4.0
 31
0.0
  0
LINE
  5
A0
330
1F
100
AcDbEntity
  8
補助
100
AcDbLine
 10
2784.0
 20
2024.0
 30
0.0
 11
104.0
 21
2024.0
 31
0.0
  0
LINE
  5
A5
330
1F
100
AcDbEntity
  8
補助
100
AcDbLine
 10
2784.0
 20
4.0
 30
0.0
 11
2784.0
 21
2024.0
 31
0.0
  0
LINE
  5
A8
330
1F
100
AcDbEntity
  8
補助
100
AcDbLine
 10
2184.0
 20
69.0
 30
0.0
 11
2184.0
 21
199.0
 31
0.0
  0
LINE
  5
A9
330
1F
100
AcDbEntity
  8
補助
100
AcDbLine
 10
2184.0
 20
69.0
 30
0.0
 11
2784.0
 21
69.0
 31
0.0
  0
LINE
  5
AA
330
1F
100
AcDbEntity
  8
補助
100
AcDbLine
 10
2064.0
 20
134.0
 30
0.0
 11
2784.0
 21
134.0
 31
0.0
  0
LINE
  5
AB
330
1F
100
AcDbEntity
  8
補助
100
AcDbLine
 10
2064.0
 20
199.0
 30
0.0
 11
2784.0
 21
199.0
 31
0.0
  0
LINE
  5
AD
330
1F
100
AcDbEntity
  8
補助
100
AcDbLine
 10
2784.0
 20
4.0
 30
0.0
 11
2784.0
 21
69.0
 31
0.0
  0
LINE
  5
25F
330
1F
100
AcDbEntity
  8
0
 62
     0
100
AcDbLine
 10
562.0409817259242
 20
1062.51833077427
 30
0.0
 11
1132.040981725924
 21
1062.51833077427
 31
0.0
  0
LINE
  5
260
330
1F
100
AcDbEntity
  8
0
 62
     0
100
AcDbLine
 10
1247.040981725924
 20
1192.51833077427
 30
0.0
 11
1247.040981725924
 21
1522.51833077427
 31
0.0
  0
LINE
  5
261
330
1F
100
AcDbEntity
  8
0
 62
     0
100
AcDbLine
 10
1187.040981725924
 20
1582.51833077427
 30
0.0
 11
507.0409817259242
 21
1582.51833077427
 31
0.0
  0
LINE
  5
262
330
1F
100
AcDbEntity
  8
0
 62
     0
100
AcDbLine
 10
447.0409817259242
 20
1522.51833077427
 30
0.0
 11
447.0409817259242
 21
1192.51833077427
 31
0.0
  0
LINE
  5
267
330
1F
100
AcDbEntity
  8
0
 62
     0
100
AcDbLine
 10
1132.040981725924
 20
1507.51833077427
 30
0.0
 11
1037.040981725924
 21
1507.51833077427
 31
0.0
  0
LINE
  5
26B
330
1F
100
AcDbEntity
  8
0
 62
     0
100
AcDbLine
 10
562.0409817259242
 20
1077.51833077427
 30
0.0
 11
1132.040981725924
 21
1077.51833077427
 31
0.0
  0
DIMENSION
  5
270
330
1F
100
AcDbEntity
  8
0
 62
     0
100
AcDbDimension
  2
*D4
 10
312.2904796090279
 20
1077.51833077427
 30
0.0
 11
293.5404796090277
 21
1130.434997440937
 31
0.0
 70
    32
 71
     5
 42
15.0
  3
ISO-25
100
AcDbAlignedDimension
 13
430.0409817259242
 23
1062.51833077427
 33
0.0
 14
430.0409817259242
 24
1077.51833077427
 34
0.0
 50
90.0
100
AcDbRotatedDimension
  0
DIMENSION
  5
27E
330
1F
100
AcDbEntity
  8
0
 62
     0
100
AcDbDimension
  2
*D5
 10
312.290479609028
 20
1507.51833077427
 30
0.0
 11
293.5404796090277
 21
1292.51833077427
 31
0.0
 70
    32
 71
     5
 42
430.0
  3
ISO-25
100
AcDbAlignedDimension
 13
430.0409817259242
 23
1077.51833077427
 33
0.0
 14
430.0409817259243
 24
1507.51833077427
 34
0.0
 50
90.0
100
AcDbRotatedDimension
1001
ACAD
1000
DSTYLE
1002
{
1070
   279
1070
     1
1002
}
  0
DIMENSION
  5
28B
330
1F
100
AcDbEntity
  8
0
 62
     0
100
AcDbDimension
  2
*D6
 10
312.290479609028
 20
1582.51833077427
 30
0.0
 11
293.5404796090278
 21
1545.01833077427
 31
0.0
 70
    32
 71
     5
 42
75.0
  3
ISO-25
100
AcDbAlignedDimension
 13
430.0409817259243
 23
1507.51833077427
 33
0.0
 14
430.0409817259243
 24
1582.51833077427
 34
0.0
 50
90.0
100
AcDbRotatedDimension
1001
ACAD
1000
DSTYLE
1002
{
1070
   279
1070
     1
1002
}
  0
DIMENSION
  5
298
330
1F
100
AcDbEntity
  8
0
 62
     0
100
AcDbDimension
  2
*D7
 10
239.6620597058956
 20
1062.51833077427
 30
0.0
 11
239.6620597058955
 21
1115.434997440937
 31
0.0
 70
   160
 71
     5
 42
17.0
  3
ISO-25
100
AcDbAlignedDimension
 13
430.0409817259242
 23
1045.51833077427
 33
0.0
 14
430.0409817259242
 24
1062.51833077427
 34
0.0
 50
90.0
100
AcDbRotatedDimension
  0
DIMENSION
  5
2A6
330
1F
100
AcDbEntity
  8
0
 62
     0
100
AcDbDimension
  2
*D8
 10
239.6620597058956
 20
1582.51833077427
 30
0.0
 11
220.9120597058953
 21
1322.51833077427
 31
0.0
 70
    32
 71
     5
 42
520.0
  3
ISO-25
100
AcDbAlignedDimension
 13
430.0409817259242
 23
1062.51833077427
 33
0.0
 14
430.0409817259243
 24
1582.51833077427
 34
0.0
 50
90.0
100
AcDbRotatedDimension
1001
ACAD
1000
DSTYLE
1002
{
1070
   279
1070
     1
1002
}
  0
DIMENSION
  5
2B3
330
1F
100
AcDbEntity
  8
0
 62
     0
100
AcDbDimension
  2
*D9
 10
239.6620597058956
 20
1599.51833077427
 30
0.0
 11
222.0255130297901
 21
1567.948576303007
 31
0.0
 70
   160
 71
     5
 42
17.0
  3
ISO-25
100
AcDbAlignedDimension
 13
430.0409817259243
 23
1582.51833077427
 33
0.0
 14
430.0409817259242
 24
1599.51833077427
 34
0.0
 50
90.0
100
AcDbRotatedDimension
1001
ACAD
1000
DSTYLE
1002
{
1070
   279
1070
     1
1002
}
  0
DIMENSION
  5
2DC
330
1F
100
AcDbEntity
  8
0
 62
     0
100
AcDbDimension
  2
*D10
 10
170.1914073365815
 20
1599.51833077427
 30
0.0
 11
151.4414073365812
 21
1322.51833077427
 31
0.0
 70
    32
 71
     5
 42
554.0
  3
ISO-25
100
AcDbAlignedDimension
 13
430.0409817259242
 23
1045.51833077427
 33
0.0
 14
430.0409817259242
 24
1599.51833077427
 34
0.0
 50
90.0
100
AcDbRotatedDimension
  0
DIMENSION
  5
2E9
330
1F
100
AcDbEntity
  8
0
 62
     0
100
AcDbDimension
  2
*D11
 10
447.0409817259242
 20
928.6105589795534
 30
0.0
 11
499.9576483925909
 21
947.3605589795534
 31
0.0
 70
    32
 71
     5
 42
17.0
  3
ISO-25
100
AcDbAlignedDimension
 13
430.0409817259242
 23
1045.51833077427
 33
0.0
 14
447.0409817259242
 24
1045.51833077427
 34
0.0
100
AcDbRotatedDimension
  0
DIMENSION
  5
2F7
330
1F
100
AcDbEntity
  8
0
 62
     0
100
AcDbDimension
  2
*D12
 10
1247.040981725924
 20
928.6105589795534
 30
0.0
 11
847.0409817259241
 21
947.3605589795534
 31
0.0
 70
    32
 71
     5
 42
800.0
  3
ISO-25
100
AcDbAlignedDimension
 13
447.0409817259242
 23
1045.51833077427
 33
0.0
 14
1247.040981725924
 24
1045.51833077427
 34
0.0
100
AcDbRotatedDimension
1001
ACAD
1000
DSTYLE
1002
{
1070
   279
1070
     1
1002
}
  0
DIMENSION
  5
304
330
1F
100
AcDbEntity
  8
0
 62
     0
100
AcDbDimension
  2
*D13
 10
1264.040981725924
 20
928.6105589795534
 30
0.0
 11
1203.582766141468
 21
928.6105589795534
 31
0.0
 70
   160
 71
     5
 42
17.0
  3
ISO-25
100
AcDbAlignedDimension
 13
1247.040981725924
 23
1045.51833077427
 33
0.0
 14
1264.040981725924
 24
1045.51833077427
 34
0.0
100
AcDbRotatedDimension
1001
ACAD
1000
DSTYLE
1002
{
1070
   279
1070
     1
1002
}
  0
DIMENSION
  5
31C
330
1F
100
AcDbEntity
  8
0
100
AcDbDimension
  2
*D14
 10
1264.040981725924
 20
858.2517870243464
 30
0.0
 11
847.0409817259241
 21
877.0017870243464
 31
0.0
 70
    32
 71
     5
 42
834.0
  3
ISO-25
100
AcDbAlignedDimension
 13
430.0409817259242
 23
1045.51833077427
 33
0.0
 14
1264.040981725924
 24
1045.51833077427
 34
0.0
100
AcDbRotatedDimension
  0
ARC
  5
32A
330
1F
100
AcDbEntity
  8
0
 62
     0
100
AcDbCircle
 10
562.0409817259242
 20
1192.51833077427
 30
0.0
 40
115.0
100
AcDbArc
 50
180.0
 51
270.0
  0
ARC
  5
32B
330
1F
100
AcDbEntity
  8
0
 62
     0
100
AcDbCircle
 10
1132.040981725924
 20
1192.51833077427
 30
0.0
 40
115.0
100
AcDbArc
 50
270.0
 51
0.0
  0
LINE
  5
32C
330
1F
100
AcDbEntity
  8
0
 62
     0
100
AcDbLine
 10
447.0409817259242
 20
1392.51833077427
 30
0.0
 11
447.0409817259242
 21
1177.51833077427
 31
0.0
  0
LINE
  5
32D
330
1F
100
AcDbEntity
  8
0
 62
     0
100
AcDbLine
 10
1247.040981725924
 20
1177.51833077427
 30
0.0
 11
1247.040981725924
 21
1392.51833077427
 31
0.0
  0
ARC
  5
32E
330
1F
100
AcDbEntity
  8
0
 62
     0
100
AcDbCircle
 10
562.0409817259242
 20
1177.51833077427
 30
0.0
 40
115.0
100
AcDbArc
 50
180.0
 51
270.0
  0
ARC
  5
32F
330
1F
100
AcDbEntity
  8
0
 62
     0
100
AcDbCircle
 10
1132.040981725924
 20
1177.51833077427
 30
0.0
 40
115.0
100
AcDbArc
 50
270.0
 51
0.0
  0
CIRCLE
  5
334
330
1F
100
AcDbEntity
  8
0
 62
     0
100
AcDbCircle
 10
847.0409817259241
 20
1412.51833077427
 30
0.0
 40
79.5
  0
CIRCLE
  5
335
330
1F
100
AcDbEntity
  8
0
 62
     0
100
AcDbCircle
 10
847.0409817259241
 20
1412.51833077427
 30
0.0
 40
90.5
  0
ARC
  5
339
330
1F
100
AcDbEntity
  8
0
 62
     0
100
AcDbCircle
 10
1132.040981725924
 20
1392.51833077427
 30
0.0
 40
115.0
100
AcDbArc
 50
0.0
 51
90.0
  0
ARC
  5
33A
330
1F
100
AcDbEntity
  8
0
 62
     0
100
AcDbCircle
 10
562.0409817259242
 20
1392.51833077427
 30
0.0
 40
115.0
100
AcDbArc
 50
90.00000000000003
 51
180.0
  0
ARC
  5
33C
330
1F
100
AcDbEntity
  8
0
 62
     0
100
AcDbCircle
 10
1037.040981725924
 20
1607.51833077427
 30
0.0
 40
100.0
100
AcDbArc
 50
212.8664647390864
 51
270.0
  0
ARC
  5
33E
330
1F
100
AcDbEntity
  8
0
 62
     0
100
AcDbCircle
 10
657.0409817259242
 20
1607.51833077427
 30
0.0
 40
100.0
100
AcDbArc
 50
270.0
 51
327.1335352609136
  0
ARC
  5
33F
330
1F
100
AcDbEntity
  8
0
 62
     0
100
AcDbCircle
 10
794.7907548654832
 20
1518.51833077427
 30
0.0
 40
64.0
100
AcDbArc
 50
90.0
 51
147.1335352609138
  0
ARC
  5
340
330
1F
100
AcDbEntity
  8
0
 62
     0
100
AcDbCircle
 10
899.2912085863652
 20
1518.51833077427
 30
0.0
 40
64.0
100
AcDbArc
 50
32.8664647390862
 51
90.0
  0
LINE
  5
341
330
1F
100
AcDbEntity
  8
0
 62
     0
100
AcDbLine
 10
657.0409817259242
 20
1507.51833077427
 30
0.0
 11
562.0409817259242
 21
1507.51833077427
 31
0.0
  0
ARC
  5
370
330
1F
100
AcDbEntity
  8
0
 62
     0
100
AcDbCircle
 10
507.0409817259242
 20
1522.51833077427
 30
0.0
 40
60.0
100
AcDbArc
 50
90.0
 51
180.0
  0
ARC
  5
371
330
1F
100
AcDbEntity
  8
0
 62
     0
100
AcDbCircle
 10
1187.040981725924
 20
1522.51833077427
 30
0.0
 40
60.0
100
AcDbArc
 50
0.0
 51
89.99999999999998
  0
DIMENSION
  5
376
330
1F
100
AcDbEntity
  8
0
 62
     0
100
AcDbDimension
  2
*D15
 10
447.0409817259242
 20
1214.981252832055
 30
0.0
 11
647.0409817259242
 21
1233.731252832055
 31
0.0
 70
    32
 71
     5
 42
400.0
  3
ISO-25
100
AcDbAlignedDimension
 13
847.0409817259241
 23
1322.01833077427
 33
0.0
 14
447.0409817259242
 24
1392.51833077427
 34
0.0
100
AcDbRotatedDimension
  0
DIMENSION
  5
384
330
1F
100
AcDbEntity
  8
0
 62
     0
100
AcDbDimension
  2
*D16
 10
1090.951334971973
 20
1582.51833077427
 30
0.0
 11
1090.951334971973
 21
1467.501533339428
 31
0.0
 70
   160
 71
     5
 42
170.0
  3
ISO-25
100
AcDbAlignedDimension
 13
937.5409817259242
 23
1412.51833077427
 33
0.0
 14
507.0409817259243
 24
1582.51833077427
 34
0.0
 50
90.0
100
AcDbRotatedDimension
  0
LINE
  5
39A
330
1F
100
AcDbEntity
  8
Cen
 62
     0
100
AcDbLine
 10
1002.540981725924
 20
1412.51833077427
 30
0.0
 11
712.9334200468456
 21
1412.51833077427
 31
0.0
  0
LINE
  5
39B
330
1F
100
AcDbEntity
  8
Cen
 62
     0
100
AcDbLine
 10
847.0409817259241
 20
1257.01833077427
 30
0.0
 11
847.0409817259241
 21
1525.995731684763
 31
0.0
  0
DIMENSION
  5
3B2
330
1F
100
AcDbEntity
  8
0
 62
     0
100
AcDbDimension
  2
*D17
 10
912.0409817259242
 20
1748.161914076669
 30
0.0
 11
847.0409817259241
 21
1766.911914076669
 31
0.0
 70
    32
 71
     5
 42
130.0
  3
ISO-25
100
AcDbAlignedDimension
 13
782.0409817259242
 23
1664.51833077427
 33
0.0
 14
912.0409817259242
 24
1664.51833077427
 34
0.0
100
AcDbRotatedDimension
  0
DIMENSION
  5
3BF
330
1F
100
AcDbEntity
  8
0
 62
     0
100
AcDbDimension
  2
*D18
 10
977.0409817259242
 20
1811.819845393975
 30
0.0
 11
847.0409817259241
 21
1830.569845393975
 31
0.0
 70
    32
 71
     5
 42
260.0
  3
ISO-25
100
AcDbAlignedDimension
 13
717.0409817259241
 23
1664.51833077427
 33
0.0
 14
977.0409817259242
 24
1664.51833077427
 34
0.0
100
AcDbRotatedDimension
  0
LINE
  5
3DD
330
1F
100
AcDbEntity
  8
Cen
 62
     0
100
AcDbLine
 10
977.0409817259242
 20
1729.51833077427
 30
0.0
 11
977.0409817259242
 21
1535.51833077427
 31
0.0
  0
LINE
  5
3DE
330
1F
100
AcDbEntity
  8
Cen
 62
     0
100
AcDbLine
 10
717.0409817259241
 20
1729.51833077427
 30
0.0
 11
717.0409817259241
 21
1535.51833077427
 31
0.0
  0
CIRCLE
  5
3DF
330
1F
100
AcDbEntity
  8
Cen
 62
     0
100
AcDbCircle
 10
977.0409817259242
 20
1567.51833077427
 30
0.0
 40
6.0
  0
CIRCLE
  5
3E0
330
1F
100
AcDbEntity
  8
Cen
 62
     0
100
AcDbCircle
 10
717.0409817259241
 20
1567.51833077427
 30
0.0
 40
6.0
  0
LINE
  5
3E3
330
1F
100
AcDbEntity
  8
Cen
 62
     0
100
AcDbLine
 10
782.0409817259242
 20
1729.51833077427
 30
0.0
 11
782.0409817259242
 21
1567.51833077427
 31
0.0
  0
LINE
  5
3E4
330
1F
100
AcDbEntity
  8
Cen
 62
     0
100
AcDbLine
 10
912.0409817259242
 20
1729.51833077427
 30
0.0
 11
912.0409817259242
 21
1567.51833077427
 31
0.0
  0
LINE
  5
40A
330
1F
100
AcDbEntity
  8
0
100
AcDbLine
 10
447.0409817259244
 20
645.2511356432213
 30
0.0
 11
447.0409817259244
 21
514.958229593627
 31
0.0
  0
LINE
  5
40D
330
1F
100
AcDbEntity
  8
0
100
AcDbLine
 10
447.0409817259247
 20
639.9511356432213
 30
0.0
 11
1247.040981725924
 21
639.9511356432213
 31
0.0
  0
LINE
  5
41E
330
1F
100
AcDbEntity
  8
0
100
AcDbLine
 10
756.5409817259242
 20
464.9511356432213
 30
0.0
 11
937.5409817259242
 21
464.9511356432213
 31
0.0
  0
DIMENSION
  5
473
330
1F
100
AcDbEntity
  8
0
100
AcDbDimension
  2
*D19
 10
767.5409817259239
 20
335.5566609452062
 30
0.0
 11
847.0409817259241
 21
354.3066609452062
 31
0.0
 70
    32
  1
158
 71
     5
 42
159.0000000000002
  3
ISO-25
100
AcDbAlignedDimension
 13
926.5409817259241
 23
456.9511356432213
 33
0.0
 14
767.5409817259239
 24
456.9511356432214
 34
0.0
100
AcDbRotatedDimension
  0
DIMENSION
  5
480
330
1F
100
AcDbEntity
  8
0
100
AcDbDimension
  2
*D20
 10
756.5409817259242
 20
567.104160181193
 30
0.0
 11
847.0409817259241
 21
585.854160181193
 31
0.0
 70
    32
 71
     5
 42
181.0
  3
ISO-25
100
AcDbAlignedDimension
 13
937.5409817259242
 23
464.9511356432213
 33
0.0
 14
756.5409817259242
 24
464.9511356432213
 34
0.0
100
AcDbRotatedDimension
  0
LINE
  5
48E
330
1F
100
AcDbEntity
  8
Cen
100
AcDbLine
 10
847.0409817259241
 20
548.2567275984565
 30
0.0
 11
847.0409817259241
 21
432.6965936980968
 31
0.0
  0
LEADER
  5
50F
330
1F
100
AcDbEntity
  8
0
 62
     0
100
AcDbLeader
  3
ISO-25
 40
25.0
 41
41.66666666666666
 76
     2
 10
983.8204289262057
 20
1575.19932717991
 30
0.0
 10
1074.77378166898
 20
1724.586927947404
 30
0.0
211
-0.9992793622178746
221
-0.0379572950226656
231
0.0
213
-0.4744661877833193
223
12.49099202772343
233
0.0
1001
ACAD
1000
DSTYLE
1002
{
1070
   147
1040
6.25
1070
    77
1070
     0
1070
    73
1070
     1
1070
    74
1070
     1
1070
   342
1005
DA
1002
}
  0
MTEXT
  5
532
330
1F
100
AcDbEntity
  8
0
100
AcDbMText
 10
1469.226616777811
 20
1181.110374981098
 30
0.0
 40
25.0
 41
0.0
 71
     9
 72
     1
  1

 73
     1
 44
1.0
1001
ACAD
1000
MTEXTBEGIN
1070
    73
1070
     1
1070
    44
1040
1.0
1070
    74
1070
     0
1000
MTEXTEND
  0
LEADER
  5
53D
330
1F
100
AcDbEntity
  8
0
 62
     0
100
AcDbLeader
  3
ISO-25
 40
25.0
 41
16.66666666666666
 76
     2
 10
667.9361516026792
 20
1079.217708516165
 30
0.0
 10
725.1812973235291
 20
1127.26565520158
 30
0.0
213
0.0
223
-12.5
233
0.0
1001
ACAD
1000
DSTYLE
1002
{
1070
   147
1040
6.25
1070
    77
1070
     0
1070
    73
1070
     1
1070
    74
1070
     1
1070
   279
1070
     1
1070
   342
1005
DA
1002
}
  0
TEXT
  5
53F
330
1F
100
AcDbEntity
  8
0
 62
     0
100
AcDbText
 10
735.4854303878264
 20
1120.302996559297
 30
0.0
 40
25.0
  1
10000R
 11
735.4854303878264
 21
1116.969663225964
 31
0.0
100
AcDbText
 73
     1
  0
LEADER
  5
540
330
1F
100
AcDbEntity
  8
0
 62
     0
100
AcDbLeader
  3
ISO-25
 76
     2
 10
1246.112139219406
 20
1316.025433510809
 30
0.0
 10
1149.940291741238
 20
1316.025433510809
 30
0.0
1001
ACAD
1000
DSTYLE
1002
{
1070
   147
1040
6.25
1070
    77
1070
     0
1070
    73
1070
     1
1070
    74
1070
     1
1070
   279
1070
     1
1070
   342
1005
DA
1002
}
  0
TEXT
  5
54B
330
1F
100
AcDbEntity
  8
0
 62
     0
100
AcDbText
 10
1035.469500345083
 20
1303.525433510809
 30
0.0
 40
25.0
  1
5000R
 72
     2
 11
1139.63616701175
 21
1316.025433510809
 31
0.0
100
AcDbText
 73
     2
  0
LEADER
  5
558
330
1F
100
AcDbEntity
  8
0
 62
     0
100
AcDbLeader
  3
ISO-25
 40
25.0
 41
16.66666666666666
 76
     2
 10
765.2529018285668
 20
1573.425137696446
 30
0.0
 10
819.0633393062553
 20
1544.825170564709
 30
0.0
213
0.0
223
-12.5
233
0.0
1001
ACAD
1000
DSTYLE
1002
{
1070
   147
1040
6.25
1070
    77
1070
     0
1070
    73
1070
     1
1070
    74
1070
     1
1070
   279
1070
     1
1070
   342
1005
DA
1002
}
  0
TEXT
  5
55A
330
1F
100
AcDbEntity
  8
0
 62
     0
100
AcDbText
 10
827.0776585403009
 20
1532.241184074697
 30
0.0
 40
25.0
  1
64R
 11
827.0776585403009
 21
1528.907850741364
 31
0.0
100
AcDbText
 73
     1
  0
MTEXT
  5
55C
330
1F
100
AcDbEntity
  8
0
100
AcDbMText
 10
1010.02660136874
 20
1423.470120422065
 30
0.0
 40
25.0
 41
0.0
 71
     1
 72
     1
  1

 73
     1
 44
1.0
1001
ACAD
1000
MTEXTBEGIN
1070
    73
1070
     1
1070
    44
1040
1.0
1070
    74
1070
     0
1000
MTEXTEND
  0
LEADER
  5
55D
330
1F
100
AcDbEntity
  8
0
 62
     0
100
AcDbLeader
  3
ISO-25
 40
25.0
 41
16.66666666666666
 76
     2
 10
608.4012003863872
 20
1502.497222065881
 30
0.0
 10
632.4356397502115
 20
1446.480773849732
 30
0.0
213
0.0
223
-12.5
233
0.0
1001
ACAD
1000
DSTYLE
1002
{
1070
   147
1040
6.25
1070
    77
1070
     0
1070
    73
1070
     1
1070
    74
1070
     1
1070
   279
1070
     1
1070
   342
1005
DA
1002
}
  0
TEXT
  5
55F
330
1F
100
AcDbEntity
  8
0
 62
     0
100
AcDbText
 10
594.2455108977364
 20
1413.362906238953
 30
0.0
 40
23.0
  1
10000R
 11
594.2455108977364
 21
1436.362906238954
 31
0.0
100
AcDbText
 73
     3
  0
LEADER
  5
560
330
1F
100
AcDbEntity
  8
0
 62
     0
100
AcDbLeader
  3
ISO-25
 40
25.0
 41
16.66666666666666
 76
     2
 10
485.8965813758304
 20
1476.185249448539
 30
0.0
 10
506.5048391696154
 20
1384.665354626979
 30
0.0
213
0.0
223
-12.5
233
0.0
1001
ACAD
1000
DSTYLE
1002
{
1070
   147
1040
6.25
1070
    77
1070
     0
1070
    73
1070
     1
1070
    74
1070
     1
1070
   279
1070
     1
1070
   342
1005
DA
1002
}
  0
TEXT
  5
562
330
1F
100
AcDbEntity
  8
0
 62
     0
100
AcDbText
 10
505.3599364218944
 20
1347.081372897206
 30
0.0
 40
25.0
  1
115R
 11
505.3599364218944
 21
1372.081372897206
 31
0.0
100
AcDbText
 73
     3
  0
TEXT
  5
568
330
1F
100
AcDbEntity
  8
0
 62
     0
100
AcDbText
 10
663.8889093516163
 20
1452.698210666231
 30
0.0
 40
25.0
  1
100R
 11
663.8889093516163
 21
1449.364877332898
 31
0.0
100
AcDbText
 73
     1
  0
LINE
  5
56A
330
1F
100
AcDbEntity
  8
補助
100
AcDbLine
 10
2784.0
 20
134.0
 30
0.0
 11
2784.0
 21
199.0
 31
0.0
  0
DIMENSION
  5
586
330
1F
100
AcDbEntity
  8
0
 62
     0
100
AcDbDimension
  2
*D21
 10
1068.850224038074
 20
1582.51833077427
 30
0.0
 11
1058.90472614856
 21
1535.012254090613
 31
0.0
 70
   160
 71
     5
 42
15.00000000000023
  3
ISO-25
100
AcDbAlignedDimension
 13
1004.171144545184
 23
1567.51833077427
 33
0.0
 14
912.0409817259242
 24
1582.51833077427
 34
0.0
 50
90.0
100
AcDbRotatedDimension
1001
ACAD
1000
DSTYLE
1002
{
1070
   279
1070
     2
1002
}
  0
LINE
  5
59F
330
1F
100
AcDbEntity
  8
Cen
 62
     0
100
AcDbLine
 10
698.032831342025
 20
1567.51833077427
 30
0.0
 11
732.5535528562577
 21
1567.51833077427
 31
0.0
  0
LINE
  5
5A0
330
1F
100
AcDbEntity
  8
Cen
 62
     0
100
AcDbLine
 10
961.2533193439794
 20
1567.51833077427
 30
0.0
 11
994.1558793023723
 21
1567.51833077427
 31
0.0
  0
LINE
  5
5A1
330
1F
100
AcDbEntity
  8
Cen
 62
     0
100
AcDbLine
 10
960.7139321586982
 20
1567.51833077427
 30
0.0
 11
1069.171144545184
 21
1567.51833077427
 31
0.0
  0
MTEXT
  5
5A9
330
1F
100
AcDbEntity
  8
Cen
100
AcDbMText
 10
1527.939315450184
 20
552.4831097022406
 30
0.0
 40
25.0
 41
0.0
 71
     9
 72
     1
  1

 73
     1
 44
1.0
1001
ACAD
1000
MTEXTBEGIN
1070
    73
1070
     1
1070
    44
1040
1.0
1070
    74
1070
     0
1000
MTEXTEND
  0
LEADER
  5
5AA
330
1F
100
AcDbEntity
  8
Cen
100
AcDbLeader
  3
ISO-25
 40
25.0
 41
16.66666666666666
 76
     2
 10
1227.621305599378
 20
497.8906790896949
 30
0.0
 10
1178.506340874845
 20
533.7627603857026
 30
0.0
213
0.0
223
12.5
233
0.0
1001
ACAD
1000
DSTYLE
1002
{
1070
   147
1040
6.25
1070
    77
1070
     0
1070
   279
1070
     1
1002
}
  0
TEXT
  5
5AD
330
1F
100
AcDbEntity
  8
0
100
AcDbText
 10
1107.314197918391
 20
529.8107651664259
 30
0.0
 40
25.0
  1
30R
100
AcDbText
  0
LINE
  5
5D0
330
1F
100
AcDbEntity
  8
補助
100
AcDbLine
 10
2784.0
 20
69.0
 30
0.0
 11
2784.0
 21
134.0
 31
0.0
  0
TEXT
  5
5D2
330
1F
100
AcDbEntity
  8
0
100
AcDbText
 10
2420.0
 20
84.40000000000001
 30
0.0
 40
35.0
  1
1：10
  7
ms明朝
 72
     4
 11
2484.0
 21
101.5
 31
0.0
100
AcDbText
  0
TEXT
  5
5D8
330
1F
100
AcDbEntity
  8
0
100
AcDbText
 10
231.1659029702105
 20
53.51169987015055
 30
0.0
 40
25.0
  1
※実寸には製造上の誤差が多少生ずる場合があります。シンクの穴あけ加工は現物合わせにてお願いします。
  7
ms明朝
100
AcDbText
  0
TEXT
  5
5F4
330
1F
100
AcDbEntity
  8
補助
100
AcDbText
 10
2283.455774665347
 20
18.5
 30
0.0
 40
35.0
  1
中外交易株式会社
  7
ms明朝
 72
     4
 11
2488.255774665347
 21
36.5
 31
0.0
100
AcDbText
  0
LINE
  5
5F5
330
1F
100
AcDbEntity
  8
補助
100
AcDbLine
 10
2064.0
 20
69.0
 30
0.0
 11
2784.0
 21
69.0
 31
0.0
  0
HATCH
  5
5F6
330
1F
100
AcDbEntity
  8
補助
100
AcDbHatch
 10
0.0
 20
0.0
 30
0.0
210
0.0
220
0.0
230
1.0
  2
SOLID
 70
     1
 71
     1
 91
        3
 92
        1
 93
        4
 72
     2
 10
2257.166198313996
 20
36.5
 40
20.0
 50
11.6477236670766
 51
342.6561058784691
 73
     1
 72
     1
 10
2276.256852341323
 20
30.53787547858514
 11
2252.166198313995
 21
30.53787547858519
 72
     1
 10
2252.166198313995
 20
30.53787547858519
 11
2252.166198313995
 21
40.53787547858519
 72
     1
 10
2252.166198313995
 20
40.53787547858519
 11
2276.75434681301
 21
40.53787547858519
 97
        4
330
5F7
330
5F9
330
5FA
330
5FB
 92
        1
 93
        4
 72
     2
 10
2188.255774665348
 20
36.5
 40
20.0
 50
11.6477236670766
 51
342.6561058784691
 73
     1
 72
     1
 10
2207.346428692676
 20
30.53787547858514
 11
2183.255774665347
 21
30.53787547858519
 72
     1
 10
2183.255774665347
 20
30.53787547858519
 11
2183.255774665347
 21
40.53787547858519
 72
     1
 10
2183.255774665347
 20
40.53787547858519
 11
2207.843923164362
 21
40.53787547858519
 97
        4
330
5F8
330
601
330
602
330
603
 92
        1
 93
        5
 72
     1
 10
2245.64189404294
 20
56.5
 11
2210.641894042939
 21
56.5
 72
     1
 10
2210.641894042939
 20
56.5
 11
2210.641894042939
 21
16.5
 72
     1
 10
2210.641894042939
 20
16.5
 11
2245.64189404294
 21
16.5
 72
     1
 10
2245.64189404294
 20
16.5
 11
2210.641894042939
 21
36.5
 72
     1
 10
2210.641894042939
 20
36.5
 11
2245.64189404294
 21
56.5
 97
        5
330
5FC
330
600
330
5FF
330
5FE
330
5FD
 75
     0
 76
     1
 98
        1
 10
-60.0
 20
0.0
  0
ARC
  5
5F7
102
{ACAD_REACTORS
330
5F6
102
}
330
1F
100
AcDbEntity
  8
補助
370
     5
100
AcDbCircle
 10
2257.166198313996
 20
36.5
 30
0.0
 40
20.0
100
AcDbArc
 50
11.6477236670766
 51
342.6561058784691
  0
ARC
  5
5F8
102
{ACAD_REACTORS
330
5F6
102
}
330
1F
100
AcDbEntity
  8
補助
370
     5
100
AcDbCircle
 10
2188.255774665348
 20
36.5
 30
0.0
 40
20.0
100
AcDbArc
 50
11.6477236670766
 51
342.6561058784691
  0
LINE
  5
5F9
102
{ACAD_REACTORS
330
5F6
102
}
330
1F
100
AcDbEntity
  8
補助
370
     5
100
AcDbLine
 10
2252.166198313995
 20
30.53787547858519
 30
0.0
 11
2276.256852341323
 21
30.53787547858514
 31
0.0
  0
LINE
  5
5FA
102
{ACAD_REACTORS
330
5F6
102
}
330
1F
100
AcDbEntity
  8
補助
370
     5
100
AcDbLine
 10
2252.166198313995
 20
40.53787547858519
 30
0.0
 11
2252.166198313995
 21
30.53787547858519
 31
0.0
  0
LINE
  5
5FB
102
{ACAD_REACTORS
330
5F6
102
}
330
1F
100
AcDbEntity
  8
補助
370
     5
100
AcDbLine
 10
2276.75434681301
 20
40.53787547858519
 30
0.0
 11
2252.166198313995
 21
40.53787547858519
 31
0.0
  0
LINE
  5
5FC
102
{ACAD_REACTORS
330
5F6
102
}
330
1F
100
AcDbEntity
  8
補助
370
     5
100
AcDbLine
 10
2245.64189404294
 20
56.5
 30
0.0
 11
2210.641894042939
 21
56.5
 31
0.0
  0
LINE
  5
5FD
102
{ACAD_REACTORS
330
5F6
102
}
330
1F
100
AcDbEntity
  8
補助
370
     5
100
AcDbLine
 10
2210.641894042939
 20
36.5
 30
0.0
 11
2245.64189404294
 21
56.5
 31
0.0
  0
LINE
  5
5FE
102
{ACAD_REACTORS
330
5F6
102
}
330
1F
100
AcDbEntity
  8
補助
370
     5
100
AcDbLine
 10
2245.64189404294
 20
16.5
 30
0.0
 11
2210.641894042939
 21
36.5
 31
0.0
  0
LINE
  5
5FF
102
{ACAD_REACTORS
330
5F6
102
}
330
1F
100
AcDbEntity
  8
補助
370
     5
100
AcDbLine
 10
2210.641894042939
 20
16.5
 30
0.0
 11
2245.64189404294
 21
16.5
 31
0.0
  0
LINE
  5
600
102
{ACAD_REACTORS
330
5F6
102
}
330
1F
100
AcDbEntity
  8
補助
370
     5
100
AcDbLine
 10
2210.641894042939
 20
56.5
 30
0.0
 11
2210.641894042939
 21
16.5
 31
0.0
  0
LINE
  5
601
102
{ACAD_REACTORS
330
5F6
102
}
330
1F
100
AcDbEntity
  8
補助
370
     5
100
AcDbLine
 10
2183.255774665347
 20
30.53787547858519
 30
0.0
 11
2207.346428692676
 21
30.53787547858514
 31
0.0
  0
LINE
  5
602
102
{ACAD_REACTORS
330
5F6
102
}
330
1F
100
AcDbEntity
  8
補助
370
     5
100
AcDbLine
 10
2183.255774665347
 20
40.53787547858519
 30
0.0
 11
2183.255774665347
 21
30.53787547858519
 31
0.0
  0
LINE
  5
603
102
{ACAD_REACTORS
330
5F6
102
}
330
1F
100
AcDbEntity
  8
補助
370
     5
100
AcDbLine
 10
2207.843923164362
 20
40.53787547858519
 30
0.0
 11
2183.255774665347
 21
40.53787547858519
 31
0.0
  0
LINE
  5
A29
330
1F
100
AcDbEntity
  8
補助
100
AcDbLine
 10
2064.0
 20
4.0
 30
0.0
 11
2064.0
 21
199.0
 31
0.0
  0
TEXT
  5
A2C
330
1F
100
AcDbEntity
  8
補助
100
AcDbText
 10
2086.666666666667
 20
149.0
 30
0.0
 40
35.0
  1
品番
 72
     4
 11
2124.0
 21
166.5
 31
0.0
100
AcDbText
  0
TEXT
  5
A2D
330
1F
100
AcDbEntity
  8
補助
100
AcDbText
 10
2086.666666666667
 20
84.0
 30
0.0
 40
35.0
  1
尺度
 72
     4
 11
2124.0
 21
101.5
 31
0.0
100
AcDbText
  0
CIRCLE
  5
C46
330
1F
100
AcDbEntity
  8
0
 62
     0
100
AcDbCircle
 10
847.0409817259241
 20
1412.51833077427
 30
0.0
 40
110.5
  0
LINE
  5
C4E
330
1F
100
AcDbEntity
  8
実形
100
AcDbLine
 10
756.5409817259242
 20
464.9511356432213
 30
0.0
 11
474.9071247903815
 21
485.0342149134635
 31
0.0
  0
ARC
  5
C50
330
1F
100
AcDbEntity
  8
実形
100
AcDbCircle
 10
477.0409817259244
 20
514.958229593627
 30
0.0
 40
30.0
100
AcDbArc
 50
179.9999999999999
 51
265.9211892046446
  0
LINE
  5
CB1
330
1F
100
AcDbEntity
  8
0
100
AcDbLine
 10
1247.040981725924
 20
645.2511356432213
 30
0.0
 11
1247.040981725924
 21
514.958229593627
 31
0.0
  0
ARC
  5
CB2
330
1F
100
AcDbEntity
  8
実形
100
AcDbCircle
 10
1217.040981725924
 20
514.958229593627
 30
0.0
 40
30.0
100
AcDbArc
 50
274.0788107953554
 51
0.0000000000000579
  0
LINE
  5
CB3
330
1F
100
AcDbEntity
  8
実形
100
AcDbLine
 10
937.5409817259242
 20
464.9511356432213
 30
0.0
 11
1219.174838661467
 21
485.0342149134635
 31
0.0
  0
LINE
  5
CBC
330
1F
100
AcDbEntity
  8
実形
 62
     0
100
AcDbLine
 10
943.7415297327387
 20
1315.492280418643
 30
0.0
 11
1168.3642724346
 21
1450.158193309447
 31
0.0
  0
ARC
  5
CD3
330
1F
100
AcDbEntity
  8
実形
 62
     0
100
AcDbCircle
 10
847.0409817259241
 20
1507.51833077427
 30
0.0
 40
215.0
100
AcDbArc
 50
270.0
 51
296.7511366344175
  0
ARC
  5
CDA
330
1F
100
AcDbEntity
  8
実形
 62
     0
100
AcDbCircle
 10
847.0409817259241
 20
1507.51833077427
 30
0.0
 40
210.0
100
AcDbArc
 50
270.0
 51
296.5613888603681
  0
LINE
  5
CDD
330
1F
100
AcDbEntity
  8
実形
 62
     0
100
AcDbLine
 10
940.943830610762
 20
1319.682618058846
 30
0.0
 11
1168.3642724346
 21
1450.158193309447
 31
0.0
  0
LINE
  5
CE8
330
1F
100
AcDbEntity
  8
実形
 62
     0
100
AcDbLine
 10
752.1996118544093
 20
1313.674185811985
 30
0.0
 11
525.0611032429588
 21
1444.052031090185
 31
0.0
  0
ARC
  5
CE9
330
1F
100
AcDbEntity
  8
実形
 62
     0
100
AcDbCircle
 10
845.2376853021933
 20
1507.501214084939
 30
0.0
 40
215.0
100
AcDbArc
 50
244.3365210504766
 51
271.0876576848941
  0
ARC
  5
CEA
330
1F
100
AcDbEntity
  8
実形
 62
     0
100
AcDbCircle
 10
845.2376853021933
 20
1507.501214084939
 30
0.0
 40
210.0
100
AcDbArc
 50
244.526268824526
 51
271.0876576848941
  0
LINE
  5
CEB
330
1F
100
AcDbEntity
  8
実形
 62
     0
100
AcDbLine
 10
754.9172656266225
 20
1317.916874569174
 30
0.0
 11
525.0611032429588
 21
1444.052031090185
 31
0.0
  0
LINE
  5
DC4
330
1F
100
AcDbEntity
  8
実形
100
AcDbLine
 10
937.5409817259242
 20
529.9511356432212
 30
0.0
 11
937.5409817259242
 21
567.104160181193
 31
0.0
  0
LINE
  5
E44
330
1F
100
AcDbEntity
  8
実形
100
AcDbLine
 10
756.5409817259242
 20
529.9511356432214
 30
0.0
 11
756.5409817259242
 21
565.229160181193
 31
0.0
  0
DIMENSION
  5
E79
330
1F
100
AcDbEntity
  8
実形
100
AcDbDimension
  2
*D24
 10
957.5409817259242
 20
567.0018506765777
 30
0.0
 11
744.9800352958564
 21
567.6952779828921
 31
0.0
 70
   160
  1
20
 71
     5
 42
221.0
  3
ISO-25
100
AcDbAlignedDimension
 13
736.5409817259242
 23
464.140513310193
 33
0.0
 14
957.5409817259242
 24
464.795195827854
 34
0.0
100
AcDbRotatedDimension
1001
ACAD
1000
DSTYLE
1002
{
1070
   279
1070
     1
1002
}
  0
TEXT
  5
EDC
330
1F
100
AcDbEntity
  8
実形
100
AcDbText
 10
927.3948539447728
 20
575.396230365372
 30
0.0
 40
25.0
  1
20
100
AcDbText
  0
LEADER
  5
EE7
330
1F
100
AcDbEntity
  8
0
100
AcDbLeader
  3
ISO-25
 40
25.0
 41
16.66666666666666
 76
     2
 10
562.1017473869824
 20
483.2929844402915
 30
0.0
 10
619.3468931078323
 20
531.3409311257064
 30
0.0
213
0.0
223
-12.5
233
0.0
1001
ACAD
1000
DSTYLE
1002
{
1070
   147
1040
6.25
1070
    77
1070
     0
1070
    73
1070
     1
1070
    74
1070
     1
1070
   279
1070
     1
1070
   342
1005
DA
1002
}
  0
TEXT
  5
EE8
330
1F
100
AcDbEntity
  8
0
100
AcDbText
 10
571.046073759112
 20
538.4848701193257
 30
0.0
 40
25.0
  1
4500R
 11
571.046073759112
 21
535.1515367859924
 31
0.0
100
AcDbText
 73
     1
  0
LINE
  5
105B
330
1F
100
AcDbEntity
  8
実形
100
AcDbLine
 10
709.0552459377395
 20
1517.727302421891
 30
0.0
 11
697.4446671347569
 21
1480.797740123275
 31
0.0
  0
LINE
  5
105C
330
1F
100
AcDbEntity
  8
実形
100
AcDbLine
 10
709.5943111372143
 20
1517.701169571656
 30
0.0
 11
693.1238669660179
 21
1493.795995324402
 31
0.0
  0
LINE
  5
105D
330
1F
100
AcDbEntity
  8
実形
100
AcDbLine
 10
709.6732650330059
 20
1517.984004434088
 30
0.0
 11
709.4184675163778
 21
1489.803649055749
 31
0.0
  0
LINE
  5
105E
330
1F
100
AcDbEntity
  8
実形
100
AcDbLine
 10
708.2348451848483
 20
1481.461106422931
 30
0.0
 11
707.947159920679
 21
1481.461106422931
 31
0.0
  0
DIMENSION
  5
110C
330
1F
100
AcDbEntity
  8
実形
100
AcDbDimension
  2
*D29
 10
400.5472283637609
 20
1582.51833077427
 30
0.0
 11
381.7972283637607
 21
1550.51833077427
 31
0.0
 70
    32
  1
59
 71
     5
 42
63.99999999999977
  3
ISO-25
100
AcDbAlignedDimension
 13
487.0409817259242
 23
1518.51833077427
 33
0.0
 14
488.338562258743
 24
1582.51833077427
 34
0.0
 50
90.0
100
AcDbRotatedDimension
1001
ACAD
1000
DSTYLE
1002
{
1070
   279
1070
     1
1002
}
  0
DIMENSION
  5
1119
330
1F
100
AcDbEntity
  8
実形
100
AcDbDimension
  2
*D30
 10
400.558717391882
 20
1518.540048751448
 30
0.0
 11
403.5263301193972
 21
1606.792598583276
 31
0.0
 70
   160
  1
5
 71
     5
 42
59.00030173031883
  3
ISO-25
100
AcDbAlignedDimension
 13
488.338562258743
 23
1577.540350481767
 33
0.0
 14
489.3305217104334
 24
1518.540048751448
 34
0.0
 50
90.0
100
AcDbRotatedDimension
1001
ACAD
1000
DSTYLE
1002
{
1070
   279
1070
     1
1002
}
  0
DIMENSION
  5
11CE
330
1F
100
AcDbEntity
  8
実形
100
AcDbDimension
  2
*D31
 10
677.0409817259242
 20
1659.855010029536
 30
0.0
 11
447.0409817259242
 21
1659.855010029536
 31
0.0
 70
   160
  1
40
 71
     5
 42
230.0
  3
ISO-25
100
AcDbAlignedDimension
 13
447.0409817259242
 23
1549.504717170459
 33
0.0
 14
677.0409817259242
 24
1583.502584916355
 34
0.0
100
AcDbRotatedDimension
1001
ACAD
1000
DSTYLE
1002
{
1070
   279
1070
     1
1002
}
  0
DIMENSION
  5
11DB
330
1F
100
AcDbEntity
  8
実形
100
AcDbDimension
  2
*D32
 10
677.0409817259242
 20
1659.855010029536
 30
0.0
 11
574.2571133702613
 21
1663.494856565432
 31
0.0
 70
   160
 71
     5
 42
190.0
  3
ISO-25
100
AcDbAlignedDimension
 13
487.0409817259242
 23
1548.01833077427
 33
0.0
 14
677.0409817259242
 24
1548.01833077427
 34
0.0
100
AcDbRotatedDimension
1001
ACAD
1000
DSTYLE
1002
{
1070
   279
1070
     1
1002
}
  0
ARC
  5
124F
330
1F
100
AcDbEntity
  8
0
100
AcDbCircle
 10
647.5409823410545
 20
1548.018333658727
 30
0.0
 40
29.5
100
AcDbArc
 50
270.0
 51
0.0
  0
ARC
  5
1250
330
1F
100
AcDbEntity
  8
0
100
AcDbCircle
 10
647.5409823410545
 20
1548.018333658727
 30
0.0
 40
29.5
100
AcDbArc
 50
0.0
 51
90.0
  0
LINE
  5
1251
330
1F
100
AcDbEntity
  8
0
100
AcDbLine
 10
677.0409823410545
 20
1548.018333658727
 30
0.0
 11
677.0409823410545
 21
1548.018333658727
 31
0.0
  0
ARC
  5
1252
330
1F
100
AcDbEntity
  8
0
100
AcDbCircle
 10
516.5409823410542
 20
1548.018333658727
 30
0.0
 40
29.5
100
AcDbArc
 50
90.0
 51
180.0
  0
ARC
  5
1253
330
1F
100
AcDbEntity
  8
0
100
AcDbCircle
 10
516.540982341054
 20
1548.018333658727
 30
0.0
 40
29.5
100
AcDbArc
 50
180.0
 51
270.0
  0
LINE
  5
1254
330
1F
100
AcDbEntity
  8
0
100
AcDbLine
 10
516.540982341054
 20
1518.518333658727
 30
0.0
 11
647.5409823410545
 21
1518.518333658727
 31
0.0
  0
LINE
  5
1255
330
1F
100
AcDbEntity
  8
0
100
AcDbLine
 10
516.5409823410544
 20
1577.518333658727
 30
0.0
 11
647.5409823410545
 21
1577.518333658727
 31
0.0
  0
ARC
  5
1256
330
1F
100
AcDbEntity
  8
実形
370
    15
100
AcDbCircle
 10
582.0409823410543
 20
1548.018333658727
 30
0.0
 40
12.5
100
AcDbArc
 50
282.5558577985876
 51
347.4441422014174
  0
LINE
  5
1257
330
1F
100
AcDbEntity
  8
実形
370
    15
100
AcDbLine
 10
570.8160101807326
 20
1549.518333658727
 30
0.0
 11
579.5409823410543
 21
1549.518333658727
 31
0.0
  0
LINE
  5
1258
330
1F
100
AcDbEntity
  8
実形
370
    15
100
AcDbLine
 10
570.8160101807325
 20
1546.518333658727
 30
0.0
 11
579.5409823410543
 21
1546.518333658727
 31
0.0
  0
LINE
  5
1259
330
1F
100
AcDbEntity
  8
実形
370
    15
100
AcDbLine
 10
583.5409823410543
 20
1559.243305819049
 30
0.0
 11
583.5409823410542
 21
1550.518333658727
 31
0.0
  0
LINE
  5
125A
330
1F
100
AcDbEntity
  8
実形
370
    15
100
AcDbLine
 10
580.5409823410543
 20
1559.243305819049
 30
0.0
 11
580.5409823410543
 21
1550.518333658727
 31
0.0
  0
LINE
  5
125B
330
1F
100
AcDbEntity
  8
実形
370
    15
100
AcDbLine
 10
580.5409823410543
 20
1545.518333658727
 30
0.0
 11
580.5409823410543
 21
1536.793361498405
 31
0.0
  0
LINE
  5
125C
330
1F
100
AcDbEntity
  8
実形
370
    15
100
AcDbLine
 10
584.5409823410542
 20
1549.518333658727
 30
0.0
 11
593.2659545013763
 21
1549.518333658727
 31
0.0
  0
LINE
  5
125D
330
1F
100
AcDbEntity
  8
実形
370
    15
100
AcDbLine
 10
583.5409823410542
 20
1545.518333658727
 30
0.0
 11
583.5409823410543
 21
1536.793361498405
 31
0.0
  0
LINE
  5
125E
330
1F
100
AcDbEntity
  8
実形
370
    15
100
AcDbLine
 10
584.5409823410542
 20
1546.518333658727
 30
0.0
 11
593.2659545013761
 21
1546.518333658727
 31
0.0
  0
ARC
  5
125F
330
1F
100
AcDbEntity
  8
実形
370
    15
100
AcDbCircle
 10
582.0409823410543
 20
1548.018333658727
 30
0.0
 40
12.5
100
AcDbArc
 50
192.5558577985826
 51
257.4441422014124
  0
ARC
  5
1260
330
1F
100
AcDbEntity
  8
実形
370
    15
100
AcDbCircle
 10
582.0409823410543
 20
1548.018333658727
 30
0.0
 40
12.5
100
AcDbArc
 50
102.5558577985876
 51
167.4441422014173
  0
ARC
  5
1261
330
1F
100
AcDbEntity
  8
実形
370
    15
100
AcDbCircle
 10
582.0409823410543
 20
1548.018333658727
 30
0.0
 40
12.5
100
AcDbArc
 50
12.55585779858264
 51
77.44414220141242
  0
ARC
  5
1262
330
1F
100
AcDbEntity
  8
実形
370
    15
100
AcDbCircle
 10
584.5409823410545
 20
1559.243305819049
 30
0.0
 40
1.0
100
AcDbArc
 50
77.44414220141242
 51
180.0
  0
ARC
  5
1263
330
1F
100
AcDbEntity
  8
実形
370
    15
100
AcDbCircle
 10
593.2659545013763
 20
1550.518333658727
 30
0.0
 40
1.0
100
AcDbArc
 50
270.0
 51
12.55585779858264
  0
ARC
  5
1264
330
1F
100
AcDbEntity
  8
実形
370
    15
100
AcDbCircle
 10
593.2659545013761
 20
1545.518333658727
 30
0.0
 40
1.0
100
AcDbArc
 50
347.4441422014174
 51
90.0
  0
ARC
  5
1265
330
1F
100
AcDbEntity
  8
実形
370
    15
100
AcDbCircle
 10
584.5409823410543
 20
1536.793361498405
 30
0.0
 40
1.0
100
AcDbArc
 50
180.0
 51
282.5558577985876
  0
ARC
  5
1266
330
1F
100
AcDbEntity
  8
実形
370
    15
100
AcDbCircle
 10
579.5409823410543
 20
1536.793361498405
 30
0.0
 40
1.0
100
AcDbArc
 50
257.4441422014124
 51
0.0
  0
ARC
  5
1267
330
1F
100
AcDbEntity
  8
実形
370
    15
100
AcDbCircle
 10
570.8160101807325
 20
1545.518333658727
 30
0.0
 40
1.0
100
AcDbArc
 50
90.0
 51
192.5558577985812
  0
ARC
  5
1268
330
1F
100
AcDbEntity
  8
実形
370
    15
100
AcDbCircle
 10
570.8160101807326
 20
1550.518333658728
 30
0.0
 40
1.0
100
AcDbArc
 50
167.4441422014188
 51
270.0
  0
ARC
  5
1269
330
1F
100
AcDbEntity
  8
実形
370
    15
100
AcDbCircle
 10
579.5409823410543
 20
1559.243305819049
 30
0.0
 40
1.0
100
AcDbArc
 50
0.0
 51
102.5558577985876
  0
ARC
  5
126A
330
1F
100
AcDbEntity
  8
実形
370
    15
100
AcDbCircle
 10
579.5409823410543
 20
1545.518333658727
 30
0.0
 40
1.0
100
AcDbArc
 50
0.0
 51
90.0
  0
ARC
  5
126B
330
1F
100
AcDbEntity
  8
実形
370
    15
100
AcDbCircle
 10
584.5409823410542
 20
1545.518333658727
 30
0.0
 40
1.0
100
AcDbArc
 50
90.0
 51
180.0
  0
ARC
  5
126C
330
1F
100
AcDbEntity
  8
実形
370
    15
100
AcDbCircle
 10
584.5409823410542
 20
1550.518333658727
 30
0.0
 40
1.0
100
AcDbArc
 50
180.0
 51
270.0
  0
ARC
  5
126D
330
1F
100
AcDbEntity
  8
実形
370
    15
100
AcDbCircle
 10
579.5409823410543
 20
1550.518333658727
 30
0.0
 40
1.0
100
AcDbArc
 50
270.0
 51
0.0
  0
LINE
  5
126E
330
1F
100
AcDbEntity
  8
実形
370
    15
100
AcDbLine
 10
497.0409823410543
 20
1548.018333658727
 30
0.0
 11
497.0409823410543
 21
1548.018333658727
 31
0.0
  0
LINE
  5
126F
330
1F
100
AcDbEntity
  8
実形
370
    15
100
AcDbLine
 10
507.0409823410543
 20
1538.018333658727
 30
0.0
 11
547.0409823410543
 21
1538.018333658727
 31
0.0
  0
LINE
  5
1270
330
1F
100
AcDbEntity
  8
実形
370
    15
100
AcDbLine
 10
557.0409823410543
 20
1548.018333658727
 30
0.0
 11
557.0409823410543
 21
1548.018333658727
 31
0.0
  0
LINE
  5
1271
330
1F
100
AcDbEntity
  8
実形
370
    15
100
AcDbLine
 10
547.0409823410543
 20
1558.018333658727
 30
0.0
 11
507.0409823410543
 21
1558.018333658727
 31
0.0
  0
ARC
  5
1272
330
1F
100
AcDbEntity
  8
実形
370
    15
100
AcDbCircle
 10
547.0409823410543
 20
1548.018333658727
 30
0.0
 40
10.0
100
AcDbArc
 50
0.0
 51
90.0
  0
ARC
  5
1273
330
1F
100
AcDbEntity
  8
実形
370
    15
100
AcDbCircle
 10
547.0409823410543
 20
1548.018333658727
 30
0.0
 40
10.0
100
AcDbArc
 50
270.0
 51
0.0
  0
ARC
  5
1274
330
1F
100
AcDbEntity
  8
実形
370
    15
100
AcDbCircle
 10
507.0409823410543
 20
1548.018333658727
 30
0.0
 40
10.0
100
AcDbArc
 50
180.0
 51
270.0
  0
ARC
  5
1275
330
1F
100
AcDbEntity
  8
実形
370
    15
100
AcDbCircle
 10
507.0409823410543
 20
1548.018333658727
 30
0.0
 40
10.0
100
AcDbArc
 50
90.0
 51
180.0
  0
LINE
  5
1276
330
1F
100
AcDbEntity
  8
実形
370
    15
100
AcDbLine
 10
507.0409823410543
 20
1543.018333658727
 30
0.0
 11
547.0409823410543
 21
1543.018333658727
 31
0.0
  0
ARC
  5
1277
330
1F
100
AcDbEntity
  8
実形
370
    15
100
AcDbCircle
 10
507.0409823410543
 20
1548.018333658727
 30
0.0
 40
5.0
100
AcDbArc
 50
180.0
 51
270.0
  0
ARC
  5
1278
330
1F
100
AcDbEntity
  8
実形
370
    15
100
AcDbCircle
 10
507.0409823410543
 20
1548.018333658727
 30
0.0
 40
5.0
100
AcDbArc
 50
90.0
 51
180.0
  0
LINE
  5
1279
330
1F
100
AcDbEntity
  8
実形
370
    15
100
AcDbLine
 10
547.0409823410543
 20
1553.018333658727
 30
0.0
 11
507.0409823410543
 21
1553.018333658727
 31
0.0
  0
ARC
  5
127A
330
1F
100
AcDbEntity
  8
実形
370
    15
100
AcDbCircle
 10
547.0409823410543
 20
1548.018333658727
 30
0.0
 40
5.0
100
AcDbArc
 50
0.0
 51
90.0
  0
ARC
  5
127B
330
1F
100
AcDbEntity
  8
実形
370
    15
100
AcDbCircle
 10
547.0409823410543
 20
1548.018333658727
 30
0.0
 40
5.0
100
AcDbArc
 50
270.0
 51
0.0
  0
ARC
  5
127C
330
1F
100
AcDbEntity
  8
実形
370
    15
100
AcDbCircle
 10
617.0409823410546
 20
1548.018333658727
 30
0.0
 40
5.0
100
AcDbArc
 50
180.0
 51
270.0
  0
ARC
  5
127D
330
1F
100
AcDbEntity
  8
実形
370
    15
100
AcDbCircle
 10
617.0409823410546
 20
1548.018333658727
 30
0.0
 40
5.0
100
AcDbArc
 50
90.0
 51
180.0
  0
LINE
  5
127E
330
1F
100
AcDbEntity
  8
実形
370
    15
100
AcDbLine
 10
617.0409823410546
 20
1553.018333658727
 30
0.0
 11
657.0409823410545
 21
1553.018333658727
 31
0.0
  0
ARC
  5
127F
330
1F
100
AcDbEntity
  8
実形
370
    15
100
AcDbCircle
 10
657.0409823410545
 20
1548.018333658727
 30
0.0
 40
5.0
100
AcDbArc
 50
0.0
 51
90.0
  0
ARC
  5
1280
330
1F
100
AcDbEntity
  8
実形
370
    15
100
AcDbCircle
 10
657.0409823410545
 20
1548.018333658727
 30
0.0
 40
5.0
100
AcDbArc
 50
270.0
 51
0.0
  0
LINE
  5
1281
330
1F
100
AcDbEntity
  8
実形
370
    15
100
AcDbLine
 10
657.0409823410545
 20
1543.018333658727
 30
0.0
 11
617.0409823410546
 21
1543.018333658727
 31
0.0
  0
LINE
  5
1282
330
1F
100
AcDbEntity
  8
実形
370
    15
100
AcDbLine
 10
617.0409823410546
 20
1558.018333658727
 30
0.0
 11
657.0409823410545
 21
1558.018333658727
 31
0.0
  0
LINE
  5
1283
330
1F
100
AcDbEntity
  8
実形
370
    15
100
AcDbLine
 10
667.0409823410546
 20
1548.018333658727
 30
0.0
 11
667.0409823410546
 21
1548.018333658727
 31
0.0
  0
ARC
  5
1284
330
1F
100
AcDbEntity
  8
実形
370
    15
100
AcDbCircle
 10
657.0409823410545
 20
1548.018333658727
 30
0.0
 40
10.0
100
AcDbArc
 50
0.0
 51
90.0
  0
LINE
  5
1285
330
1F
100
AcDbEntity
  8
実形
370
    15
100
AcDbLine
 10
657.0409823410545
 20
1538.018333658727
 30
0.0
 11
617.0409823410546
 21
1538.018333658727
 31
0.0
  0
ARC
  5
1286
330
1F
100
AcDbEntity
  8
実形
370
    15
100
AcDbCircle
 10
657.0409823410545
 20
1548.018333658727
 30
0.0
 40
10.0
100
AcDbArc
 50
270.0
 51
0.0
  0
LINE
  5
1287
330
1F
100
AcDbEntity
  8
実形
370
    15
100
AcDbLine
 10
607.0409823410545
 20
1548.018333658727
 30
0.0
 11
607.0409823410545
 21
1548.018333658727
 31
0.0
  0
ARC
  5
1288
330
1F
100
AcDbEntity
  8
実形
370
    15
100
AcDbCircle
 10
617.0409823410546
 20
1548.018333658727
 30
0.0
 40
10.0
100
AcDbArc
 50
180.0
 51
270.0
  0
ARC
  5
1289
330
1F
100
AcDbEntity
  8
実形
370
    15
100
AcDbCircle
 10
617.0409823410546
 20
1548.018333658727
 30
0.0
 40
10.0
100
AcDbArc
 50
90.0
 51
180.0
  0
TEXT
  5
12EA
330
1F
100
AcDbEntity
  8
0
100
AcDbText
 10
1082.824561478315
 20
1732.331868409344
 30
0.0
 40
25.0
  1
12%%C
 72
     2
 11
1141.157894811648
 21
1728.998535076011
 31
0.0
100
AcDbText
 73
     1
  0
LINE
  5
14CF
330
1F
100
AcDbEntity
  8
実形
 62
     1
100
AcDbLine
 10
756.5409817259242
 20
464.9511356432213
 30
0.0
 11
474.9071247903815
 21
485.0342149134635
 31
0.0
  0
LINE
  5
14D0
330
1F
100
AcDbEntity
  8
実形
 62
     1
100
AcDbLine
 10
756.5409817259242
 20
464.9511356432213
 30
0.0
 11
474.9071247903815
 21
485.0342149134635
 31
0.0
  0
LINE
  5
14D2
330
1F
100
AcDbEntity
  8
実形
 62
     1
100
AcDbLine
 10
756.5409817259242
 20
464.9511356432213
 30
0.0
 11
474.9071247903815
 21
485.0342149134635
 31
0.0
  0
LINE
  5
14D5
330
1F
100
AcDbEntity
  8
実形
100
AcDbLine
 10
756.5409817259242
 20
464.9511356432213
 30
0.0
 11
474.9071247903815
 21
485.0342149134635
 31
0.0
  0
LINE
  5
1597
330
1F
100
AcDbEntity
  8
実形
  6
ACAD_ISO08W100
 48
0.8
100
AcDbLine
 10
847.0409817259241
 20
1292.508776724905
 30
0.0
 11
564.0929759118749
 21
1292.508776724905
 31
0.0
  0
DIMENSION
  5
162D
330
1F
100
AcDbEntity
  8
実形
100
AcDbDimension
  2
*D36
 10
525.0611032429588
 20
1444.052031090185
 30
0.0
 11
648.2621049893502
 21
1335.839817856491
 31
0.0
 70
   162
 71
     5
 42
0.5210835588631254
  3
ISO-25
100
AcDb2LineAngularDimension
 13
847.0409817259241
 23
1292.508776724905
 33
0.0
 14
447.040981725924
 24
1292.508776724905
 34
0.0
 15
752.1996118544093
 25
1313.674185811985
 35
0.0
 16
670.028097712918
 26
1313.396717871005
 36
0.0
1001
ACAD
1000
DSTYLE
1002
{
1070
   279
1070
     2
1002
}
  0
LINE
  5
184A
330
1F
100
AcDbEntity
  8
0
100
AcDbLine
 10
756.5409817259242
 20
454.9511356432214
 30
0.0
 11
937.5409817259242
 21
454.9511356432212
 31
0.0
  0
LINE
  5
184B
330
1F
100
AcDbEntity
  8
実形
100
AcDbLine
 10
756.5409817259242
 20
464.9511356432213
 30
0.0
 11
756.5409817259242
 21
454.9511356432214
 31
0.0
  0
LINE
  5
184C
330
1F
100
AcDbEntity
  8
実形
100
AcDbLine
 10
937.5409817259244
 20
464.9511356432213
 30
0.0
 11
937.5409817259246
 21
454.9511356432211
 31
0.0
  0
TEXT
  5
19ED
330
1F
100
AcDbEntity
  8
0
100
AcDbText
 10
2215.2
 20
151.8
 30
0.0
 40
35.0
  1
Jstn        S-GRM-POL
  7
ms明朝
 72
     4
 11
2484.0
 21
166.5
 31
0.0
100
AcDbText
  0
TEXT
  5
19EE
330
1F
100
AcDbEntity
  8
0
100
AcDbText
 10
2334.241697389103
 20
150.2375358068406
 30
0.0
 40
35.0
  1
868-588
  7
ms明朝
 72
     4
 11
2423.841697389103
 21
167.3375358068406
 31
0.0
100
AcDbText
  0
LINE
  5
1AA3
330
1F
100
AcDbEntity
  8
0
 62
     0
100
AcDbLine
 10
562.0409817259242
 20
1028.51833077427
 30
0.0
 11
1132.040981725924
 21
1028.51833077427
 31
0.0
  0
LINE
  5
1AA4
330
1F
100
AcDbEntity
  8
0
 62
     0
100
AcDbLine
 10
1281.040981725924
 20
1177.51833077427
 30
0.0
 11
1281.040981725924
 21
1522.51833077427
 31
0.0
  0
LINE
  5
1AA5
330
1F
100
AcDbEntity
  8
0
 62
     0
100
AcDbLine
 10
1187.040981725924
 20
1616.51833077427
 30
0.0
 11
507.0409817259242
 21
1616.51833077427
 31
0.0
  0
LINE
  5
1AA6
330
1F
100
AcDbEntity
  8
0
 62
     0
100
AcDbLine
 10
413.0409817259241
 20
1522.51833077427
 30
0.0
 11
413.0409817259241
 21
1192.51833077427
 31
0.0
  0
ARC
  5
1AA7
330
1F
100
AcDbEntity
  8
0
 62
     0
100
AcDbCircle
 10
562.0409817259242
 20
1177.51833077427
 30
0.0
 40
149.0
100
AcDbArc
 50
180.0
 51
270.0
  0
ARC
  5
1AA8
330
1F
100
AcDbEntity
  8
0
 62
     0
100
AcDbCircle
 10
507.0409817259242
 20
1522.51833077427
 30
0.0
 40
94.0
100
AcDbArc
 50
90.0
 51
180.0
  0
ARC
  5
1AA9
330
1F
100
AcDbEntity
  8
0
 62
     0
100
AcDbCircle
 10
1187.040981725924
 20
1522.51833077427
 30
0.0
 40
94.0
100
AcDbArc
 50
0.0
 51
90.0
  0
DIMENSION
  5
1AAA
330
1F
100
AcDbEntity
  8
実形
100
AcDbDimension
  2
*D37
 10
1385.802657192224
 20
1616.51833077427
 30
0.0
 11
1367.052657192223
 21
1322.51833077427
 31
0.0
 70
    32
 71
     5
 42
588.0000000000002
  3
ISO-25
100
AcDbAlignedDimension
 13
1228.505299940285
 23
1028.51833077427
 33
0.0
 14
1228.505299940285
 24
1616.51833077427
 34
0.0
 50
90.0
100
AcDbRotatedDimension
1001
ACAD
1000
DSTYLE
1002
{
1070
   279
1070
     1
1002
}
  0
DIMENSION
  5
1AAB
330
1F
100
AcDbEntity
  8
実形
100
AcDbDimension
  2
*D38
 10
1281.040981725924
 20
1878.100409340533
 30
0.0
 11
847.0409817259245
 21
1896.850409340533
 31
0.0
 70
    32
 71
     5
 42
868.0000000000005
  3
ISO-25
100
AcDbAlignedDimension
 13
413.0409817259241
 23
1587.51833077427
 33
0.0
 14
1281.040981725924
 24
1587.51833077427
 34
0.0
100
AcDbRotatedDimension
1001
ACAD
1000
DSTYLE
1002
{
1070
   279
1070
     1
1002
}
  0
TEXT
  5
1AAC
330
1F
100
AcDbEntity
  8
0
 62
     0
100
AcDbText
 10
1342.183617836337
 20
1675.852216348877
 30
0.0
 40
25.0
  1
94R
 72
     2
 11
1408.850284503004
 21
1672.518883015544
 31
0.0
100
AcDbText
 73
     1
  0
LEADER
  5
1AAD
330
1F
100
AcDbEntity
  8
実形
100
AcDbLeader
  3
ISO-25
 76
     2
 10
1252.403917923937
 20
1596.420901519676
 30
0.0
 10
1332.750062058356
 20
1666.787899365174
 30
0.0
1001
ACAD
1000
DSTYLE
1002
{
1070
   147
1040
6.25
1070
    77
1070
     0
1070
   279
1070
     1
1002
}
  0
TEXT
  5
1AAE
330
1F
100
AcDbEntity
  8
0
 62
     0
100
AcDbText
 10
1324.986283109538
 20
915.4507272740493
 30
0.0
 40
25.0
  1
149R
 72
     2
 11
1408.319616442871
 21
912.117393940716
 31
0.0
100
AcDbText
 73
     1
  0
LEADER
  5
1AAF
330
1F
100
AcDbEntity
  8
実形
100
AcDbLeader
  3
ISO-25
 76
     2
 10
1231.187463676886
 20
1053.996595245894
 30
0.0
 10
1319.559852995126
 20
951.5931269396878
 30
0.0
1001
ACAD
1000
DSTYLE
1002
{
1070
   147
1040
6.25
1070
    77
1070
     0
1070
   279
1070
     1
1002
}
  0
DIMENSION
  5
1AB0
330
1F
100
AcDbEntity
  8
実形
100
AcDbDimension
  2
*D39
 10
413.0409817259243
 20
1734.179506728392
 30
0.0
 11
445.2909817259242
 21
1782.929506728392
 31
0.0
 70
    32
  1
35
 71
     5
 42
33.99999999999989
  3
ISO-25
100
AcDbAlignedDimension
 13
447.0409817259242
 23
1560.584030393193
 33
0.0
 14
413.0409817259243
 24
1563.444710010995
 34
0.0
100
AcDbRotatedDimension
1001
ACAD
1000
DSTYLE
1002
{
1070
   279
1070
     1
1002
}
  0
DIMENSION
  5
1AB1
330
1F
100
AcDbEntity
  8
実形
100
AcDbDimension
  2
*D40
 10
1281.040981725924
 20
1739.691839729266
 30
0.0
 11
1249.6369789362
 21
1758.85650861483
 31
0.0
 70
   160
  1
35
 71
     5
 42
34.0
  3
ISO-25
100
AcDbAlignedDimension
 13
1247.040981725924
 23
1560.598433420677
 33
0.0
 14
1281.040981725924
 24
1560.598433420677
 34
0.0
100
AcDbRotatedDimension
1001
ACAD
1000
DSTYLE
1002
{
1070
   279
1070
     1
1002
}
  0
DIMENSION
  5
1AB2
330
1F
100
AcDbEntity
  8
実形
100
AcDbDimension
  2
*D41
 10
1338.917499741233
 20
1028.51833077427
 30
0.0
 11
1333.535448083557
 21
1094.667502140693
 31
0.0
 70
   160
  1
35
 71
     5
 42
34.0
  3
ISO-25
100
AcDbAlignedDimension
 13
1228.633560224309
 23
1062.51833077427
 33
0.0
 14
1228.633560224309
 24
1028.51833077427
 34
0.0
 50
90.0
100
AcDbRotatedDimension
1001
ACAD
1000
DSTYLE
1002
{
1070
   279
1070
     1
1002
}
  0
DIMENSION
  5
1AB3
330
1F
100
AcDbEntity
  8
実形
100
AcDbDimension
  2
*D42
 10
1363.454912278194
 20
1582.51833077427
 30
0.0
 11
1358.792913610241
 21
1551.368625802805
 31
0.0
 70
   160
  1
35
 71
     5
 42
34.0
  3
ISO-25
100
AcDbAlignedDimension
 13
1253.17097276127
 23
1616.51833077427
 33
0.0
 14
1271.273562386
 24
1582.51833077427
 34
0.0
 50
90.0
100
AcDbRotatedDimension
1001
ACAD
1000
DSTYLE
1002
{
1070
   279
1070
     1
1002
}
  0
TEXT
  5
1AB4
330
1F
100
AcDbEntity
  8
0
 62
     0
100
AcDbText
 10
295.861775146342
 20
1659.347075022659
 30
0.0
 40
25.0
  1
94R
 72
     2
 11
362.5284418130086
 21
1656.013741689325
 31
0.0
100
AcDbText
 73
     1
  0
LEADER
  5
1AB5
330
1F
100
AcDbEntity
  8
実形
100
AcDbLeader
  3
ISO-25
 76
     2
 10
431.4689829500293
 20
1586.576437176774
 30
0.0
 10
358.4130240610784
 20
1650.282758038956
 30
0.0
1001
ACAD
1000
DSTYLE
1002
{
1070
   147
1040
6.25
1070
    77
1070
     0
1070
   279
1070
     1
1002
}
  0
TEXT
  5
1AB6
330
1F
100
AcDbEntity
  8
0
 62
     0
100
AcDbText
 10
307.1788018984991
 20
957.5401752805367
 30
0.0
 40
25.0
  1
149R
 72
     2
 11
390.5121352318325
 21
954.2068419472032
 31
0.0
100
AcDbText
 73
     1
  0
LEADER
  5
1AB7
330
1F
100
AcDbEntity
  8
実形
100
AcDbLeader
  3
ISO-25
 76
     2
 10
454.1900610572203
 20
1066.460394508748
 30
0.0
 10
385.1522815316277
 20
998.0752362210825
 30
0.0
1001
ACAD
1000
DSTYLE
1002
{
1070
   147
1040
6.25
1070
    77
1070
     0
1070
   279
1070
     1
1002
}
  0
LINE
  5
1B36
330
1F
100
AcDbEntity
  8
実形
100
AcDbLine
 10
413.0409817259241
 20
1177.51833077427
 30
0.0
 11
413.0409817259241
 21
1192.51833077427
 31
0.0
  0
ARC
  5
1B37
330
1F
100
AcDbEntity
  8
0
 62
     0
100
AcDbCircle
 10
1132.040981725924
 20
1177.51833077427
 30
0.0
 40
149.0
100
AcDbArc
 50
270.0
 51
360.0
  0
LINE
  5
1B4F
330
1F
100
AcDbEntity
  8
補助
100
AcDbLine
 10
104.0
 20
2024.0
 30
0.0
 11
104.0
 21
4.0
 31
0.0
  0
TEXT
  5
1CA2
330
1F
100
AcDbEntity
  8
0
 62
     0
100
AcDbText
 10
1104.560681405414
 20
1460.45822943049
 30
0.0
 40
25.0
  1
59R
 72
     2
 11
1171.22734807208
 21
1457.124896097156
 31
0.0
100
AcDbText
 73
     1
  0
LEADER
  5
1CA3
330
1F
100
AcDbEntity
  8
実形
100
AcDbLeader
  3
ISO-25
 76
     2
 10
1213.286441658061
 20
1567.6645611966
 30
0.0
 10
1139.272488597262
 20
1491.855174338099
 30
0.0
1001
ACAD
1000
DSTYLE
1002
{
1070
   147
1040
6.25
1070
    77
1070
     0
1070
   279
1070
     1
1002
}
  0
TEXT
  5
1CAD
330
1F
100
AcDbEntity
  8
0
 62
     0
100
AcDbText
 10
457.7298129853501
 20
1303.532130920756
 30
0.0
 40
25.0
  1
59R
 72
     2
 11
524.3964796520167
 21
1300.198797587423
 31
0.0
100
AcDbText
 73
     1
  0
LEADER
  5
1CAE
330
1F
100
AcDbEntity
  8
実形
100
AcDbLeader
  3
ISO-25
 76
     2
 10
460.7221659234109
 20
1545.126777292593
 30
0.0
 10
474.815027117982
 20
1337.053574263697
 30
0.0
1001
ACAD
1000
DSTYLE
1002
{
1070
   147
1040
6.25
1070
    77
1070
     0
1070
   279
1070
     1
1002
}
  0
TEXT
  5
1CB8
330
1F
100
AcDbEntity
  8
0
 62
     0
100
AcDbText
 10
582.4876312127011
 20
1147.954838779106
 30
0.0
 40
25.0
  1
114R
 72
     2
 11
657.4876312127011
 21
1144.621505445773
 31
0.0
100
AcDbText
 73
     1
  0
LEADER
  5
1CB9
330
1F
100
AcDbEntity
  8
実形
100
AcDbLeader
  3
ISO-25
 76
     2
 10
500.4437742011305
 20
1088.722994621841
 30
0.0
 10
600.1349564047159
 20
1139.753078037396
 30
0.0
1001
ACAD
1000
DSTYLE
1002
{
1070
   147
1040
6.25
1070
    77
1070
     0
1070
   279
1070
     1
1002
}
  0
TEXT
  5
1CC3
330
1F
100
AcDbEntity
  8
0
 62
     0
100
AcDbText
 10
1047.44242981558
 20
1136.884241584589
 30
0.0
 40
25.0
  1
114R
 72
     2
 11
1122.44242981558
 21
1133.550908251256
 31
0.0
100
AcDbText
 73
     1
  0
LEADER
  5
1CC4
330
1F
100
AcDbEntity
  8
実形
100
AcDbLeader
  3
ISO-25
 76
     2
 10
1188.546489378885
 20
1086.525743157634
 30
0.0
 10
1094.993253747887
 20
1130.599757075428
 30
0.0
1001
ACAD
1000
DSTYLE
1002
{
1070
   147
1040
6.25
1070
    77
1070
     0
1070
   279
1070
     1
1002
}
  0
LINE
  5
1CFD
330
1F
100
AcDbEntity
  8
補助
100
AcDbLine
 10
2784.0
 20
1959.0
 30
0.0
 11
2019.387286519283
 21
1959.000000000001
 31
0.0
  0
LINE
  5
1CFE
330
1F
100
AcDbEntity
  8
補助
100
AcDbLine
 10
2784.0
 20
1894.0
 30
0.0
 11
2019.387286519283
 21
1894.0
 31
0.0
  0
LINE
  5
1CFF
330
1F
100
AcDbEntity
  8
補助
100
AcDbLine
 10
2784.0
 20
1829.0
 30
0.0
 11
2019.387286519283
 21
1829.0
 31
0.0
  0
LINE
  5
1D00
330
1F
100
AcDbEntity
  8
補助
100
AcDbLine
 10
2784.0
 20
1764.0
 30
0.0
 11
2019.387286519283
 21
1764.0
 31
0.0
  0
LINE
  5
1D01
330
1F
100
AcDbEntity
  8
補助
100
AcDbLine
 10
2202.547653420927
 20
1764.0
 30
0.0
 11
2202.547653420927
 21
2024.0
 31
0.0
  0
LINE
  5
1D02
330
1F
100
AcDbEntity
  8
補助
100
AcDbLine
 10
2019.387286519283
 20
1764.0
 30
0.0
 11
2019.387286519283
 21
2024.0
 31
0.0
  0
TEXT
  5
1D03
330
1F
100
AcDbEntity
  8
補助
100
AcDbText
 10
2050.295698850121
 20
1976.328571428572
 30
0.0
 40
30.0
  1
部品名
  7
明朝
 72
     4
 11
2116.124270278692
 21
1991.5
 31
0.0
100
AcDbText
  0
TEXT
  5
1D04
330
1F
100
AcDbEntity
  8
補助
100
AcDbText
 10
2627.614285714286
 20
1976.071428571429
 30
0.0
 40
30.0
  1
厚さ
  7
明朝
 72
     4
 11
2671.5
 21
1991.5
 31
0.0
100
AcDbText
  0
LINE
  5
1D05
330
1F
100
AcDbEntity
  8
補助
100
AcDbLine
 10
2559.0
 20
1764.0
 30
0.0
 11
2559.0
 21
2024.0
 31
0.0
  0
TEXT
  5
1D06
330
1F
100
AcDbEntity
  8
補助
100
AcDbText
 10
2338.490869919937
 20
1975.947979478155
 30
0.0
 40
30.0
  1
材質
  7
明朝
 72
     4
 11
2382.376584205651
 21
1991.119408049583
 31
0.0
100
AcDbText
  0
TEXT
  5
1D07
330
1F
100
AcDbEntity
  8
実形
100
AcDbText
 10
2048.227810657788
 20
1910.557142857143
 30
0.0
 40
30.0
  1
ボウル
  7
明朝
 72
     4
 11
2114.056382086359
 21
1926.5
 31
0.0
100
AcDbText
  0
TEXT
  5
1D08
330
1F
100
AcDbEntity
  8
実形
100
AcDbText
 10
2594.700000000001
 20
1911.842857142857
 30
0.0
 40
30.0
  1
0.7ｍｍ
  7
明朝
 72
     4
 11
2671.500000000001
 21
1926.5
 31
0.0
100
AcDbText
  0
TEXT
  5
1D09
330
1F
100
AcDbEntity
  8
実形
100
AcDbText
 10
2271.988297679294
 20
1910.728571428572
 30
0.0
 40
30.0
  1
SUS304（BA)
  7
明朝
 72
     4
 11
2392.674011965008
 21
1926.5
 31
0.0
100
AcDbText
  0
TEXT
  5
1D0A
330
1F
100
AcDbEntity
  8
実形
100
AcDbText
 10
2070.170667800645
 20
1846.242857142857
 30
0.0
 40
30.0
  1
天板
  7
明朝
 72
     4
 11
2114.056382086359
 21
1861.5
 31
0.0
100
AcDbText
  0
TEXT
  5
1D0B
330
1F
100
AcDbEntity
  8
実形
100
AcDbText
 10
2219.734774251222
 20
1848.285714285714
 30
0.0
 40
25.0
  1
アクリル人工大理石
  7
明朝
 72
     4
 11
2384.306202822651
 21
1861.5
 31
0.0
100
AcDbText
  0
TEXT
  5
1D0C
330
1F
100
AcDbEntity
  8
実形
100
AcDbText
 10
2605.67142857143
 20
1846.842857142857
 30
0.0
 40
30.0
  1
18ｍｍ
  7
明朝
 72
     4
 11
2671.500000000001
 21
1861.5
 31
0.0
100
AcDbText
  0
TEXT
  5
1D0D
330
1F
100
AcDbEntity
  8
実形
100
AcDbText
 10
2026.284953514931
 20
1780.557142857143
 30
0.0
 40
30.0
  1
ポケット
  7
明朝
 72
     4
 11
2114.056382086359
 21
1796.5
 31
0.0
100
AcDbText
  0
TEXT
  5
1D0E
330
1F
100
AcDbEntity
  8
実形
100
AcDbText
 10
2292.877631394079
 20
1783.642857142857
 30
0.0
 40
25.0
  1
樹脂（PP）
  7
明朝
 72
     4
 11
2384.306202822651
 21
1796.5
 31
0.0
100
AcDbText
  0
TEXT
  5
1D0F
330
1F
100
AcDbEntity
  8
実形
100
AcDbText
 10
2616.642857142859
 20
1781.842857142857
 30
0.0
 40
30.0
  1
3ｍｍ
  7
明朝
 72
     4
 11
2671.500000000001
 21
1796.5
 31
0.0
100
AcDbText
  0
LINE
  5
1E44
330
1F
100
AcDbEntity
  8
実形
 62
     0
100
AcDbLine
 10
2543.233877365066
 20
684.0947101512854
 30
0.0
 11
2153.233877365066
 21
684.0947101512854
 31
0.0
  0
LINE
  5
1E45
330
1F
100
AcDbEntity
  8
実形
 62
     0
100
AcDbLine
 10
2387.233877365066
 20
585.2947101512853
 30
0.0
 11
2075.233877365066
 21
585.2947101512854
 31
0.0
  0
ARC
  5
1E46
330
1F
100
AcDbEntity
  8
実形
 62
     0
100
AcDbCircle
 10
2153.233877365066
 20
606.0947101512854
 30
0.0
 40
78.0
100
AcDbArc
 50
90.0
 51
180.0
  0
ARC
  5
1E47
330
1F
100
AcDbEntity
  8
実形
 62
     0
100
AcDbCircle
 10
2543.233877365066
 20
606.0947101512854
 30
0.0
 40
78.0
100
AcDbArc
 50
0.0
 51
90.0
  0
LINE
  5
1E48
330
1F
100
AcDbEntity
  8
実形
 62
     0
100
AcDbLine
 10
2621.233877365066
 20
543.6947101512854
 30
0.0
 11
2387.233877365066
 21
543.6947101512854
 31
0.0
  0
LINE
  5
1E49
330
1F
100
AcDbEntity
  8
実形
 62
     0
100
AcDbLine
 10
2278.033877365066
 20
543.6947101512854
 30
0.0
 11
2153.233877365066
 21
543.6947101512854
 31
0.0
  0
LINE
  5
1E4A
330
1F
100
AcDbEntity
  8
実形
 62
     0
100
AcDbLine
 10
2356.033877365065
 20
543.6947101512854
 30
0.0
 11
2106.433877365066
 21
543.6947101512854
 31
0.0
  0
LINE
  5
1E4B
330
1F
100
AcDbEntity
  8
実形
 62
     0
100
AcDbLine
 10
2621.233877365066
 20
403.2947101512855
 30
0.0
 11
2386.105494977745
 21
403.2947101512855
 31
0.0
  0
LINE
  5
1E4C
330
1F
100
AcDbEntity
  8
実形
 62
     0
100
AcDbLine
 10
2278.033877365066
 20
403.2947101512855
 30
0.0
 11
2153.233877365066
 21
403.2947101512855
 31
0.0
  0
LINE
  5
1E4D
330
1F
100
AcDbEntity
  8
実形
 62
     0
100
AcDbLine
 10
2075.233877365066
 20
606.0947101512854
 30
0.0
 11
2075.233877365066
 21
585.2947101512854
 31
0.0
  0
LINE
  5
1E4E
330
1F
100
AcDbEntity
  8
実形
 62
     0
100
AcDbLine
 10
2090.833877365066
 20
559.2947101512845
 30
0.0
 11
2356.033877365065
 21
559.2947101512846
 31
0.0
  0
LINE
  5
1E4F
330
1F
100
AcDbEntity
  8
実形
 62
     0
100
AcDbLine
 10
2278.033877365066
 20
543.6947101512854
 30
0.0
 11
2153.233877365066
 21
543.6947101512854
 31
0.0
  0
LINE
  5
1E50
330
1F
100
AcDbEntity
  8
実形
 62
     0
100
AcDbLine
 10
2621.233877365066
 20
606.0947101512854
 30
0.0
 11
2621.233877365066
 21
403.2947101512855
 31
0.0
  0
LINE
  5
1E51
330
1F
100
AcDbEntity
  8
実形
 62
     0
100
AcDbLine
 10
2153.233877365066
 20
543.6947101512854
 30
0.0
 11
2153.233877365066
 21
403.2947101512863
 31
0.0
  0
LINE
  5
1E52
330
1F
100
AcDbEntity
  8
実形
 62
     0
100
AcDbLine
 10
2090.833877365066
 20
559.2947101512845
 30
0.0
 11
2090.833877365066
 21
356.5086976533553
 31
0.0
  0
LINE
  5
1E53
330
1F
100
AcDbEntity
  8
実形
 62
     0
100
AcDbLine
 10
2106.433877365066
 20
543.6947101512854
 30
0.0
 11
2106.433877365066
 21
356.5086976533554
 31
0.0
  0
ARC
  5
1E54
330
1F
100
AcDbEntity
  8
実形
 62
     0
100
AcDbCircle
 10
2348.233877365066
 20
543.6947101512854
 30
0.0
 40
39.0
100
AcDbArc
 50
180.0
 51
0.0
  0
TEXT
  5
1E55
330
1F
100
AcDbEntity
  8
実形
 62
     0
100
AcDbText
 10
1844.08269694555
 20
410.9876312842443
 30
0.0
 40
35.0
  1
シンク厚　
 11
1844.08269694555
 21
406.3209646175776
 31
0.0
100
AcDbText
 73
     1
  0
DIMENSION
  5
1E56
330
1F
100
AcDbEntity
  8
実形
 62
     0
100
AcDbDimension
  2
*D43
 10
2075.233877365067
 20
467.1003685502147
 30
0.0
 11
2054.88545157578
 21
491.5915116428197
 31
0.0
 70
   160
  1
1
 71
     5
 42
15.59999999999991
  3
ISO-25
100
AcDbAlignedDimension
 13
2090.833877365067
 23
559.2947101512846
 33
0.0
 14
2075.233877365067
 24
533.5029867284119
 34
0.0
 50
180.0
100
AcDbRotatedDimension
1001
ACAD
1000
DSTYLE
1002
{
1070
   282
1070
     1
1070
   281
1070
     1
1070
    41
1040
5.0
1070
    42
1040
6.0
1070
   140
1040
25.0
1070
   147
1040
1.199999999999999
1070
   279
1070
     2
1070
   289
1070
     2
1070
   371
1070
    13
1070
   372
1070
    13
1002
}
  0
TEXT
  5
1E57
330
1F
100
AcDbEntity
  8
実形
  6
HIDDEN2
 62
     0
100
AcDbText
 10
2095.797198899368
 20
462.9308652071995
 30
0.0
 40
10.14
  1
● 
 71
     2
100
AcDbText
  0
TEXT
  5
1E58
330
1F
100
AcDbEntity
  8
実形
  6
HIDDEN2
 62
     0
100
AcDbText
 10
2079.566838424828
 20
462.4970760796131
 30
0.0
 40
10.14
  1
● 
 71
     2
100
AcDbText
  0
LINE
  5
1E59
330
1F
100
AcDbEntity
  8
実形
 62
     0
100
AcDbLine
 10
2091.245173341136
 20
467.4229398449074
 30
0.0
 11
2075.560266305432
 21
467.4229398449074
 31
0.0
  0
ARC
  5
1E5A
330
1F
100
AcDbEntity
  8
実形
 62
     0
100
AcDbCircle
 10
2347.105494977745
 20
403.2947101512855
 30
0.0
 40
39.0
100
AcDbArc
 50
0.0
 51
180.0
  0
LINE
  5
1E5B
330
1F
100
AcDbEntity
  8
実形
 62
     0
100
AcDbLine
 10
2278.033877365066
 20
457.3521962228079
 30
0.0
 11
2278.033877365066
 21
439.4500692892673
 31
0.0
  0
LINE
  5
1E5C
330
1F
100
AcDbEntity
  8
実形
 62
     0
100
AcDbLine
 10
2356.033877365065
 20
457.3521962228079
 30
0.0
 11
2356.033877365065
 21
439.4977027967055
 31
0.0
  0
TEXT
  5
1E5D
330
1F
100
AcDbEntity
  8
実形
 62
     0
100
AcDbText
 10
1859.409434822997
 20
359.2737114633438
 30
0.0
 40
28.0
  1
0.7mm
 11
1859.409434822997
 21
355.5403781300104
 31
0.0
100
AcDbText
 73
     1
  0
TEXT
  5
1E5E
330
1F
100
AcDbEntity
  8
実形
 62
     0
100
AcDbText
 10
1969.171950854548
 20
724.7069313792997
 30
0.0
 40
28.0
  1
5R
 11
1969.171950854548
 21
720.9735980459663
 31
0.0
100
AcDbText
 73
     1
  0
DIMENSION
  5
1E5F
330
1F
100
AcDbEntity
  8
実形
 62
     0
100
AcDbDimension
  2
*D44
 10
2356.033877365065
 20
617.1548568615962
 30
0.0
 11
2223.433877365065
 21
635.9048568615962
 31
0.0
 70
    32
  1
17
 71
     5
 42
265.1999999999998
  3
ISO-25
100
AcDbAlignedDimension
 13
2090.833877365066
 23
526.9073852958004
 33
0.0
 14
2356.033877365065
 24
526.9073852958005
 34
0.0
100
AcDbRotatedDimension
1001
ACAD
1000
DSTYLE
1002
{
1070
   279
1070
     2
1070
   371
1070
    18
1070
   372
1070
    18
1002
}
  0
LEADER
  5
1E60
330
1F
100
AcDbEntity
  8
実形
 62
     0
100
AcDbLeader
  3
ISO-25
 76
     2
 10
2080.730586898456
 20
658.778126851076
 30
0.0
 10
2006.358162869183
 20
712.4806979619262
 30
0.0
1001
ACAD
1000
DSTYLE
1002
{
1070
   147
1040
6.25
1070
    77
1070
     0
1070
   279
1070
     2
1070
   371
1070
    18
1070
   372
1070
    18
1002
}
  0
DIMENSION
  5
1E61
330
1F
100
AcDbEntity
  8
実形
 62
     0
100
AcDbDimension
  2
*D45
 10
2215.460134891442
 20
543.6947101512855
 30
0.0
 11
2183.987549496718
 21
515.0052225685112
 31
0.0
 70
   160
  1
2.5
 71
     5
 42
38.99999999999995
  3
ISO-25
100
AcDbAlignedDimension
 13
2315.113367995707
 23
504.6947101512855
 33
0.0
 14
2267.959844379684
 24
543.6947101512855
 34
0.0
 50
90.0
100
AcDbRotatedDimension
1001
ACAD
1000
DSTYLE
1002
{
1070
   140
1040
23.0
1070
   279
1070
     2
1070
   371
1070
    18
1070
   372
1070
    18
1002
}
  0
DIMENSION
  5
1E62
330
1F
100
AcDbEntity
  8
実形
 62
     0
100
AcDbDimension
  2
*D46
 10
2356.033877365066
 20
452.0882219802177
 30
0.0
 11
2317.033877365066
 21
470.8382219802177
 31
0.0
 70
    32
  1
5
 71
     5
 42
78.0
  3
ISO-25
100
AcDbAlignedDimension
 13
2278.033877365066
 23
513.0145559292668
 33
0.0
 14
2356.033877365066
 24
513.0145559292668
 34
0.0
100
AcDbRotatedDimension
1001
ACAD
1000
DSTYLE
1002
{
1070
   279
1070
     2
1070
   371
1070
    18
1070
   372
1070
    18
1002
}
  0
LINE
  5
1E63
330
1F
100
AcDbEntity
  8
実形
 62
     0
100
AcDbLine
 10
2278.033877365066
 20
452.0882219802177
 30
0.0
 11
2278.033877365066
 21
494.7079487038194
 31
0.0
  0
LINE
  5
1E64
330
1F
100
AcDbEntity
  8
実形
 62
     0
100
AcDbLine
 10
2356.033877365065
 20
452.0882219802177
 30
0.0
 11
2356.033877365065
 21
493.5103420910408
 31
0.0
  0
DIMENSION
  5
1E65
330
1F
100
AcDbEntity
  8
実形
 62
     0
100
AcDbDimension
  2
*D47
 10
2217.398583849133
 20
403.2947101512855
 30
0.0
 11
2184.779122545192
 21
431.6583152348946
 31
0.0
 70
   160
  1
2.5
 71
     5
 42
38.99999999999995
  3
ISO-25
100
AcDbAlignedDimension
 13
2318.018840457773
 23
442.2947101512853
 33
0.0
 14
2361.445481530404
 24
403.2947101512855
 34
0.0
 50
90.0
100
AcDbRotatedDimension
1001
ACAD
1000
DSTYLE
1002
{
1070
   140
1040
23.0
1070
   279
1070
     2
1070
   371
1070
    18
1070
   372
1070
    18
1002
}
  0
DIMENSION
  5
1E66
330
1F
100
AcDbEntity
  8
実形
 62
     0
100
AcDbDimension
  2
*D48
 10
2387.233877365066
 20
733.9587029177619
 30
0.0
 11
2231.233877365066
 21
752.7087029177619
 31
0.0
 70
    32
  1
20
 71
     5
 42
311.9999999999996
  3
ISO-25
100
AcDbAlignedDimension
 13
2075.233877365066
 23
631.1956311673393
 33
0.0
 14
2387.233877365066
 24
631.1956311673393
 34
0.0
100
AcDbRotatedDimension
1001
ACAD
1000
DSTYLE
1002
{
1070
   279
1070
     2
1070
   371
1070
    18
1070
   372
1070
    18
1002
}
  0
DIMENSION
  5
1E67
330
1F
100
AcDbEntity
  8
実形
 62
     0
100
AcDbDimension
  2
*D49
 10
2621.233877365066
 20
733.9587029177619
 30
0.0
 11
2504.233877365066
 21
752.7087029177619
 31
0.0
 70
    32
  1
15
 71
     5
 42
234.0
  3
ISO-25
100
AcDbAlignedDimension
 13
2387.233877365066
 23
630.0056853622646
 33
0.0
 14
2621.233877365066
 24
631.1956311673382
 34
0.0
100
AcDbRotatedDimension
1001
ACAD
1000
DSTYLE
1002
{
1070
   279
1070
     2
1070
   371
1070
    18
1070
   372
1070
    18
1002
}
  0
DIMENSION
  5
1E68
330
1F
100
AcDbEntity
  8
実形
 62
     0
100
AcDbDimension
  2
*D50
 10
2621.233877365066
 20
777.4666415156134
 30
0.0
 11
2348.233877365066
 21
796.2166415156134
 31
0.0
 70
    32
  1
35
 71
     5
 42
545.9999999999995
  3
ISO-25
100
AcDbAlignedDimension
 13
2075.233877365066
 23
631.1956311673382
 33
0.0
 14
2621.233877365066
 24
631.1956311673382
 34
0.0
100
AcDbRotatedDimension
1001
ACAD
1000
DSTYLE
1002
{
1070
   279
1070
     2
1070
   371
1070
    18
1070
   372
1070
    18
1002
}
  0
TEXT
  5
1E69
330
1F
100
AcDbEntity
  8
実形
 62
     0
100
AcDbText
 10
2661.234589240095
 20
713.6502811430476
 30
0.0
 40
28.0
  1
5R
 11
2661.234589240095
 21
709.9169478097143
 31
0.0
100
AcDbText
 73
     1
  0
DIMENSION
  5
1E6A
330
1F
100
AcDbEntity
  8
実形
 62
     0
100
AcDbDimension
  2
*D51
 10
2153.233877365066
 20
297.5085770831867
 30
0.0
 11
2053.203290699754
 21
332.9138518235977
 31
0.0
 70
   160
  1
3.3
 71
     5
 42
46.80000000000018
  3
ISO-25
100
AcDbAlignedDimension
 13
2106.433877365066
 23
411.5474686202857
 33
0.0
 14
2153.233877365066
 24
411.5474686202857
 34
0.0
100
AcDbRotatedDimension
1001
ACAD
1000
DSTYLE
1002
{
1070
   140
1040
25.0
1070
   279
1070
     2
1070
   371
1070
    18
1070
   372
1070
    18
1002
}
  0
DIMENSION
  5
1E6B
330
1F
100
AcDbEntity
  8
実形
 62
     0
100
AcDbDimension
  2
*D52
 10
2309.233877365066
 20
297.5085770831867
 30
0.0
 11
2231.233877365066
 21
316.2585770831867
 31
0.0
 70
    32
  1
10
 71
     5
 42
156.0
  3
ISO-25
100
AcDbAlignedDimension
 13
2153.233877365066
 23
411.5474686202857
 33
0.0
 14
2309.233877365066
 24
411.5474686202857
 34
0.0
100
AcDbRotatedDimension
1001
ACAD
1000
DSTYLE
1002
{
1070
   279
1070
     2
1070
   371
1070
    18
1070
   372
1070
    18
1002
}
  0
DIMENSION
  5
1E6C
330
1F
100
AcDbEntity
  8
実形
 62
     0
100
AcDbDimension
  2
*D53
 10
2387.233877365066
 20
297.5085770831867
 30
0.0
 11
2348.233877365066
 21
316.2585770831867
 31
0.0
 70
    32
  1
5
 71
     5
 42
78.0
  3
ISO-25
100
AcDbAlignedDimension
 13
2309.233877365066
 23
411.5474686202857
 33
0.0
 14
2387.233877365066
 24
411.5474686202857
 34
0.0
100
AcDbRotatedDimension
1001
ACAD
1000
DSTYLE
1002
{
1070
   279
1070
     2
1070
   371
1070
    18
1070
   372
1070
    18
1002
}
  0
DIMENSION
  5
1E6D
330
1F
100
AcDbEntity
  8
実形
 62
     0
100
AcDbDimension
  2
*D54
 10
2621.233877365066
 20
297.5085770831867
 30
0.0
 11
2504.233877365066
 21
316.2585770831867
 31
0.0
 70
    32
  1
15
 71
     5
 42
234.0
  3
ISO-25
100
AcDbAlignedDimension
 13
2387.233877365066
 23
411.5474686202858
 33
0.0
 14
2621.233877365066
 24
411.5474686202857
 34
0.0
100
AcDbRotatedDimension
1001
ACAD
1000
DSTYLE
1002
{
1070
   279
1070
     2
1070
   371
1070
    18
1070
   372
1070
    18
1002
}
  0
DIMENSION
  5
1E6E
330
1F
100
AcDbEntity
  8
実形
 62
     0
100
AcDbDimension
  2
*D55
 10
2155.023276234156
 20
247.5388396829094
 30
0.0
 11
2116.023276234157
 21
266.2888396829094
 31
0.0
 70
    32
  1
5
 71
     5
 42
77.99999999999954
  3
ISO-25
100
AcDbAlignedDimension
 13
2077.023276234157
 23
362.8281686160613
 33
0.0
 14
2155.023276234156
 24
362.8281686160613
 34
0.0
100
AcDbRotatedDimension
1001
ACAD
1000
DSTYLE
1002
{
1070
   279
1070
     2
1070
   371
1070
    18
1070
   372
1070
    18
1002
}
  0
DIMENSION
  5
1E6F
330
1F
100
AcDbEntity
  8
実形
 62
     0
100
AcDbDimension
  2
*D56
 10
2623.023276234156
 20
247.5388396829094
 30
0.0
 11
2389.023276234156
 21
266.2888396829094
 31
0.0
 70
    32
  1
30
 71
     5
 42
468.0
  3
ISO-25
100
AcDbAlignedDimension
 13
2155.023276234156
 23
362.8281686160613
 33
0.0
 14
2623.023276234156
 24
362.8281686160613
 34
0.0
100
AcDbRotatedDimension
1001
ACAD
1000
DSTYLE
1002
{
1070
   279
1070
     2
1070
   371
1070
    18
1070
   372
1070
    18
1002
}
  0
LINE
  5
1E70
330
1F
100
AcDbEntity
  8
実形
 62
     0
100
AcDbLine
 10
2089.14414202772
 20
414.8786635805636
 30
0.0
 11
2005.196656620899
 21
408.9889439325022
 31
0.0
  0
LINE
  5
1E71
330
1F
100
AcDbEntity
  8
実形
 62
     0
100
AcDbLine
 10
2088.820600113063
 20
414.7274049971472
 30
0.0
 11
2056.485883910302
 21
400.9756935648645
 31
0.0
  0
LINE
  5
1E72
330
1F
100
AcDbEntity
  8
実形
 62
     0
100
AcDbLine
 10
2088.472360117057
 20
415.6242072570588
 30
0.0
 11
2056.198770657017
 21
421.9662971197472
 31
0.0
  0
TEXT
  5
1E73
330
1F
100
AcDbEntity
  8
実形
 62
     0
370
    -2
100
AcDbText
 10
1943.905583280765
 20
836.850626796042
 30
0.0
 40
38.0
  1
A-A　断面詳細図
100
AcDbText
  0
TEXT
  5
1E74
330
1F
100
AcDbEntity
  8
実形
 62
     0
370
    -2
100
AcDbText
 10
2039.041635208127
 20
838.8009194430942
 30
0.0
 40
35.0
  1
´
100
AcDbText
  0
DIMENSION
  5
1E75
330
1F
100
AcDbEntity
  8
実形
 62
     0
100
AcDbDimension
  2
*D57
 10
1970.032114275532
 20
585.2947101512854
 30
0.0
 11
1951.282114275532
 21
634.6947101512859
 31
0.0
 70
    32
  1
6.5
 71
     5
 42
98.80000000000007
  3
ISO-25
100
AcDbAlignedDimension
 13
2097.328912889143
 23
684.0947101512855
 33
0.0
 14
2097.328912889143
 24
585.2947101512854
 34
0.0
 50
90.0
100
AcDbRotatedDimension
1001
ACAD
1000
DSTYLE
1002
{
1070
   279
1070
     2
1070
   371
1070
    18
1070
   372
1070
    18
1002
}
  0
DIMENSION
  5
1E76
330
1F
100
AcDbEntity
  8
実形
 62
     0
100
AcDbDimension
  2
*D58
 10
1916.035186721017
 20
559.2947101512846
 30
0.0
 11
1897.285186721017
 21
621.6947101512854
 31
0.0
 70
    32
  1
8.3
 71
     5
 42
124.8000000000008
  3
ISO-25
100
AcDbAlignedDimension
 13
2097.328912889143
 23
684.0947101512855
 33
0.0
 14
2097.328912889143
 24
559.2947101512846
 34
0.0
 50
90.0
100
AcDbRotatedDimension
1001
ACAD
1000
DSTYLE
1002
{
1070
   279
1070
     2
1070
   371
1070
    18
1070
   372
1070
    18
1002
}
  0
DIMENSION
  5
1E77
330
1F
100
AcDbEntity
  8
実形
 62
     0
100
AcDbDimension
  2
*D59
 10
1864.389549972262
 20
684.0947101512855
 30
0.0
 11
1845.639549972261
 21
613.8947101512858
 31
0.0
 70
    32
  1
9
 71
     5
 42
140.4000000000001
  3
ISO-25
100
AcDbAlignedDimension
 13
2097.328912889143
 23
543.6947101512854
 33
0.0
 14
2097.328912889143
 24
684.0947101512855
 34
0.0
 50
90.0
100
AcDbRotatedDimension
1001
ACAD
1000
DSTYLE
1002
{
1070
   279
1070
     2
1070
   371
1070
    18
1070
   372
1070
    18
1002
}
  0
LINE
  5
1E78
330
1F
100
AcDbEntity
  8
実形
 62
     0
100
AcDbLine
 10
1970.032114275532
 20
559.4808025581515
 30
0.0
 11
1970.032114275532
 21
543.6947101512854
 31
0.0
  0
TEXT
  5
1E79
330
1F
100
AcDbEntity
  8
実形
  6
HIDDEN2
 62
     0
100
AcDbText
 10
1974.759963930668
 20
554.1584046865482
 30
0.0
 40
10.14
  1
● 
 71
     2
100
AcDbText
  0
TEXT
  5
1E7A
330
1F
100
AcDbEntity
  8
実形
  6
HIDDEN2
 62
     0
100
AcDbText
 10
1974.759963930668
 20
539.0050600708654
 30
0.0
 40
10.14
  1
● 
 71
     2
100
AcDbText
  0
TEXT
  5
1E7B
330
1F
100
AcDbEntity
  8
実形
 62
     0
100
AcDbText
 10
1965.904597556985
 20
483.7785695213888
 30
0.0
 40
29.25
  1
0.7
 50
90.0
 11
1969.804597556985
 21
483.7785695213888
 31
0.0
100
AcDbText
 73
     1
  0
ARC
  5
1E7C
330
1F
100
AcDbEntity
  8
実形
 62
     0
100
AcDbCircle
 10
2095.749391898479
 20
294.0352561825519
 30
0.0
 40
37.21807911390647
100
AcDbArc
 50
10.883804981307
 51
99.73672806232286
  0
ARC
  5
1E7D
330
1F
100
AcDbEntity
  8
実形
 62
     0
100
AcDbCircle
 10
2101.132326064329
 20
286.3222816243725
 30
0.0
 40
34.71092069179851
100
AcDbArc
 50
27.82370983300087
 51
64.29661093933541
  0
ARC
  5
1E7E
330
1F
100
AcDbEntity
  8
実形
 62
     0
100
AcDbCircle
 10
2095.736654257051
 20
304.1012932169378
 30
0.0
 40
36.96117099445193
100
AcDbArc
 50
355.5051092068189
 51
31.89192001425599
  0
DIMENSION
  5
1E7F
330
1F
100
AcDbEntity
  8
実形
 62
     0
100
AcDbDimension
  2
*D60
 10
2673.699912636183
 20
403.2947101512855
 30
0.0
 11
2654.949912636183
 21
473.4947101512859
 31
0.0
 70
    32
  1
9
 71
     5
 42
140.4
  3
ISO-25
100
AcDbAlignedDimension
 13
2582.25404811461
 23
543.6947101512855
 33
0.0
 14
2582.25404811461
 24
403.2947101512855
 34
0.0
 50
90.0
100
AcDbRotatedDimension
1001
ACAD
1000
DSTYLE
1002
{
1070
   279
1070
     2
1070
   371
1070
    18
1070
   372
1070
    18
1002
}
  0
DIMENSION
  5
1E80
330
1F
100
AcDbEntity
  8
実形
 62
     0
100
AcDbDimension
  2
*D61
 10
2673.699912636183
 20
543.6947101512855
 30
0.0
 11
2654.949912636183
 21
613.8947101512859
 31
0.0
 70
    32
  1
9
 71
     5
 42
140.3999999999999
  3
ISO-25
100
AcDbAlignedDimension
 13
2582.25404811461
 23
684.0947101512855
 33
0.0
 14
2582.25404811461
 24
543.6947101512855
 34
0.0
 50
90.0
100
AcDbRotatedDimension
1001
ACAD
1000
DSTYLE
1002
{
1070
   279
1070
     2
1070
   371
1070
    18
1070
   372
1070
    18
1002
}
  0
DIMENSION
  5
1E81
330
1F
100
AcDbEntity
  8
実形
 62
     0
100
AcDbDimension
  2
*D62
 10
2715.480008308167
 20
403.2947101512855
 30
0.0
 11
2696.730008308167
 21
543.694710151286
 31
0.0
 70
    32
  1
18
 71
     5
 42
280.8
  3
ISO-25
100
AcDbAlignedDimension
 13
2582.25404811461
 23
684.0947101512855
 33
0.0
 14
2582.25404811461
 24
403.2947101512855
 34
0.0
 50
90.0
100
AcDbRotatedDimension
1001
ACAD
1000
DSTYLE
1002
{
1070
   279
1070
     2
1070
   371
1070
    18
1070
   372
1070
    18
1002
}
  0
LEADER
  5
1E82
330
1F
100
AcDbEntity
  8
実形
 62
     0
100
AcDbLeader
  3
ISO-25
 76
     2
 10
2598.968887029636
 20
666.6445109732322
 30
0.0
 10
2665.822583513264
 20
707.9203906258708
 30
0.0
1001
ACAD
1000
DSTYLE
1002
{
1070
   147
1040
6.25
1070
    77
1070
     0
1070
   279
1070
     2
1070
   371
1070
    18
1070
   372
1070
    18
1002
}
  0
LINE
  5
1E83
330
1F
100
AcDbEntity
  8
実形
 62
     0
100
AcDbLine
 10
2356.033877365065
 20
559.2947101512846
 30
0.0
 11
2356.033877365065
 21
543.6947101512854
 31
0.0
  0
LINE
  5
1E84
330
1F
100
AcDbEntity
  8
実形
100
AcDbLine
 10
2387.233877365066
 20
585.2947101512853
 30
0.0
 11
2387.233877365066
 21
543.6947101512854
 31
0.0
  0
LINE
  5
2023
330
1F
100
AcDbEntity
  8
実形
100
AcDbLine
 10
413.0409817259241
 20
658.2511356432212
 30
0.0
 11
413.0409817259241
 21
645.2511356432212
 31
0.0
  0
LINE
  5
2024
330
1F
100
AcDbEntity
  8
実形
100
AcDbLine
 10
1281.040981725924
 20
658.2511356432214
 30
0.0
 11
1281.040981725924
 21
645.2511356432213
 31
0.0
  0
LINE
  5
2025
330
1F
100
AcDbEntity
  8
0
100
AcDbLine
 10
418.0409817259242
 20
663.2511356432212
 30
0.0
 11
1276.040981725924
 21
663.2511356432214
 31
0.0
  0
LINE
  5
2026
330
1F
100
AcDbEntity
  8
0
100
AcDbLine
 10
413.0409817259241
 20
645.2511356432212
 30
0.0
 11
1281.040981725924
 21
645.2511356432212
 31
0.0
  0
LEADER
  5
207C
330
1F
100
AcDbEntity
  8
実形
100
AcDbLeader
  3
ISO-25
 40
25.0
 41
16.66666666666666
 76
     2
 10
407.5810179614411
 20
668.9206794753023
 30
0.0
 10
366.7079259559962
 20
712.6283277569915
 30
0.0
213
0.0
223
12.5
233
0.0
1001
ACAD
1000
DSTYLE
1002
{
1070
   147
1040
6.25
1070
    77
1070
     0
1070
    41
1040
20.0
1070
   342
1005
DA
1002
}
  0
TEXT
  5
207D
330
1F
100
AcDbEntity
  8
実形
100
AcDbText
 10
341.8329879177396
 20
725.0551747827245
 30
0.0
 40
25.0
  1
5R
 72
     2
 11
383.4996545844063
 21
750.0551747827245
 31
0.0
100
AcDbText
 73
     3
  0
DIMENSION
  5
207E
330
1F
100
AcDbEntity
  8
実形
100
AcDbDimension
  2
*D63
 10
294.4213403951287
 20
645.2511356432212
 30
0.0
 11
236.4365164787557
 21
695.0686341347009
 31
0.0
 70
   160
 71
     5
 42
18.0
  3
ISO-25
100
AcDbAlignedDimension
 13
440.4995148241032
 23
663.2511356432212
 33
0.0
 14
440.4995148241032
 24
645.2511356432212
 34
0.0
 50
90.0
100
AcDbRotatedDimension
1001
ACAD
1000
DSTYLE
1002
{
1070
   279
1070
     1
1002
}
  0
DIMENSION
  5
207F
330
1F
100
AcDbEntity
  8
実形
100
AcDbDimension
  2
*D64
 10
294.4213403951287
 20
639.9511356432213
 30
0.0
 11
237.3545158488885
 21
612.0238970579776
 31
0.0
 70
   160
 71
     5
 42
5.29999999999984
  3
ISO-25
100
AcDbAlignedDimension
 13
441.478292465279
 23
645.2511356432212
 33
0.0
 14
441.478292465279
 24
639.9511356432213
 34
0.0
 50
90.0
100
AcDbRotatedDimension
1001
ACAD
1000
DSTYLE
1002
{
1070
   279
1070
     1
1002
}
  0
DIMENSION
  5
2080
330
1F
100
AcDbEntity
  8
実形
100
AcDbDimension
  2
*D65
 10
294.4213403951287
 20
464.9511356432213
 30
0.0
 11
275.6713403951287
 21
552.4511356432214
 31
0.0
 70
    32
 71
     5
 42
175.0
  3
ISO-25
100
AcDbAlignedDimension
 13
440.559378643138
 23
639.9511356432213
 33
0.0
 14
440.4995148241032
 24
464.9511356432213
 34
0.0
 50
90.0
100
AcDbRotatedDimension
1001
ACAD
1000
DSTYLE
1002
{
1070
   279
1070
     1
1002
}
  0
DIMENSION
  5
2081
330
1F
100
AcDbEntity
  8
実形
100
AcDbDimension
  2
*D66
 10
166.4019587245618
 20
464.9511356432213
 30
0.0
 11
147.6519587245617
 21
564.1011356432214
 31
0.0
 70
    32
 71
     5
 42
198.3
  3
ISO-25
100
AcDbAlignedDimension
 13
375.4995148241032
 23
663.2511356432213
 33
0.0
 14
375.4995148241032
 24
464.9511356432213
 34
0.0
 50
90.0
100
AcDbRotatedDimension
1001
ACAD
1000
DSTYLE
1002
{
1070
   279
1070
     1
1002
}
  0
DIMENSION
  5
2082
330
1F
100
AcDbEntity
  8
実形
100
AcDbDimension
  2
*D67
 10
294.4213403951287
 20
454.9511356432214
 30
0.0
 11
288.3476958731805
 21
444.1551151505737
 31
0.0
 70
   160
  1
7
 71
     5
 42
9.999999999999943
  3
ISO-25
100
AcDbAlignedDimension
 13
440.4995148241031
 23
464.9511356432213
 33
0.0
 14
440.4995148241031
 24
454.9511356432213
 34
0.0
 50
90.0
100
AcDbRotatedDimension
1001
ACAD
1000
DSTYLE
1002
{
1070
   279
1070
     1
1002
}
  0
LEADER
  5
2083
330
1F
100
AcDbEntity
  8
実形
100
AcDbLeader
  3
ISO-25
 40
25.0
 41
16.66666666666666
 76
     2
 10
1293.608096865184
 20
668.6592398940328
 30
0.0
 10
1330.99557218873
 20
702.3986513545715
 30
0.0
213
0.0
223
12.5
233
0.0
1001
ACAD
1000
DSTYLE
1002
{
1070
   147
1040
6.25
1070
    77
1070
     0
1070
    41
1040
20.0
1070
   342
1005
DA
1002
}
  0
TEXT
  5
2084
330
1F
100
AcDbEntity
  8
実形
100
AcDbText
 10
1321.3625142809
 20
709.1981616460916
 30
0.0
 40
25.0
  1
5R
 72
     2
 11
1363.029180947567
 21
734.1981616460916
 31
0.0
100
AcDbText
 73
     3
  0
ARC
  5
2100
330
1F
100
AcDbEntity
  8
実形
100
AcDbCircle
 10
418.0409817259242
 20
658.2511356432212
 30
0.0
 40
5.0
100
AcDbArc
 50
90.0
 51
180.0
  0
ARC
  5
2101
330
1F
100
AcDbEntity
  8
実形
100
AcDbCircle
 10
1276.040981725924
 20
658.2511356432214
 30
0.0
 40
5.0
100
AcDbArc
 50
0.0
 51
90.0
  0
LINE
  5
2202
330
1F
100
AcDbEntity
  8
0
100
AcDbLine
 10
1584.537196468009
 20
1611.51833077427
 30
0.0
 11
1584.537196468009
 21
1033.51833077427
 31
0.0
  0
ARC
  5
2203
330
1F
100
AcDbEntity
  8
実形
100
AcDbCircle
 10
1589.537196468009
 20
1033.51833077427
 30
0.0
 40
5.0
100
AcDbArc
 50
180.0
 51
270.0
  0
LINE
  5
2204
330
1F
100
AcDbEntity
  8
0
100
AcDbLine
 10
1602.537196468009
 20
1616.51833077427
 30
0.0
 11
1602.537196468009
 21
1028.51833077427
 31
0.0
  0
LINE
  5
2205
330
1F
100
AcDbEntity
  8
0
100
AcDbLine
 10
1602.537196468009
 20
1581.625824632851
 30
0.0
 11
1746.374380413234
 21
1581.625824632851
 31
0.0
  0
LINE
  5
2206
330
1F
100
AcDbEntity
  8
0
100
AcDbLine
 10
1610.837196468009
 20
1506.625824632851
 30
0.0
 11
1752.83719646801
 21
1506.62582463285
 31
0.0
  0
LINE
  5
2207
330
1F
100
AcDbEntity
  8
0
100
AcDbLine
 10
1602.537196468009
 20
1061.62582463285
 30
0.0
 11
1604.837196468008
 21
1061.62582463285
 31
0.0
  0
LINE
  5
2208
330
1F
100
AcDbEntity
  8
0
100
AcDbLine
 10
1610.837196468009
 20
1076.62582463285
 30
0.0
 11
1744.039108918582
 21
1076.62582463285
 31
0.0
  0
LINE
  5
2209
330
1F
100
AcDbEntity
  8
0
100
AcDbLine
 10
1607.837196468009
 20
1073.62582463285
 30
0.0
 11
1607.837196468009
 21
1064.62582463285
 31
0.0
  0
ARC
  5
220A
330
1F
100
AcDbEntity
  8
0
100
AcDbCircle
 10
1604.837196468008
 20
1064.62582463285
 30
0.0
 40
3.0
100
AcDbArc
 50
270.0
 51
0.0
  0
ARC
  5
220B
330
1F
100
AcDbEntity
  8
0
100
AcDbCircle
 10
1610.837196468009
 20
1073.62582463285
 30
0.0
 40
3.0
100
AcDbArc
 50
90.0
 51
180.0
  0
LINE
  5
220C
330
1F
100
AcDbEntity
  8
0
100
AcDbLine
 10
1607.837196468009
 20
1581.62582463285
 30
0.0
 11
1607.837196468009
 21
1509.625824632851
 31
0.0
  0
ARC
  5
220D
330
1F
100
AcDbEntity
  8
0
100
AcDbCircle
 10
1610.837196468009
 20
1509.625824632851
 30
0.0
 40
3.0
100
AcDbArc
 50
180.0
 51
270.0
  0
LINE
  5
220E
330
1F
100
AcDbEntity
  8
0
100
AcDbLine
 10
1607.837196468009
 20
1509.625824632851
 30
0.0
 11
1607.837196468009
 21
1064.62582463285
 31
0.0
  0
LINE
  5
220F
330
1F
100
AcDbEntity
  8
0
100
AcDbLine
 10
1782.837196468009
 20
1476.625824632851
 30
0.0
 11
1782.837196468009
 21
1321.125824632855
 31
0.0
  0
LINE
  5
2210
330
1F
100
AcDbEntity
  8
0
100
AcDbLine
 10
1782.837196468009
 20
1321.125824632851
 30
0.0
 11
1774.014048455852
 21
1105.39985573562
 31
0.0
  0
ARC
  5
2211
330
1F
100
AcDbEntity
  8
0
100
AcDbCircle
 10
1744.039108918582
 20
1106.62582463285
 30
0.0
 40
30.0
100
AcDbArc
 50
270.0
 51
357.657919691536
  0
ARC
  5
2212
330
1F
100
AcDbEntity
  8
0
100
AcDbCircle
 10
1752.83719646801
 20
1476.625824632851
 30
0.0
 40
30.0
100
AcDbArc
 50
0.0
 51
90.0
  0
LINE
  5
2213
330
1F
100
AcDbEntity
  8
Cen
100
AcDbLine
 10
1688.243366687801
 20
1409.75082463285
 30
0.0
 11
1818.897778923124
 21
1409.75082463285
 31
0.0
  0
LINE
  5
2214
330
1F
100
AcDbEntity
  8
実形
100
AcDbLine
 10
1607.837196468009
 20
1576.125824632851
 30
0.0
 11
1703.837196468009
 21
1576.125824632851
 31
0.0
  0
LINE
  5
2215
330
1F
100
AcDbEntity
  8
実形
100
AcDbLine
 10
1706.837196468009
 20
1573.125824632851
 30
0.0
 11
1706.83719646801
 21
1521.125824632851
 31
0.0
  0
LINE
  5
2216
330
1F
100
AcDbEntity
  8
実形
100
AcDbLine
 10
1703.837196468009
 20
1518.125824632851
 30
0.0
 11
1607.837196468009
 21
1518.125824632851
 31
0.0
  0
LINE
  5
2217
330
1F
100
AcDbEntity
  8
0
 48
0.5
100
AcDbLine
 10
1706.837196468009
 20
1530.525824632851
 30
0.0
 11
1726.837196468009
 21
1530.525824632851
 31
0.0
  0
LINE
  5
2218
330
1F
100
AcDbEntity
  8
0
 48
0.5
100
AcDbLine
 10
1706.837196468009
 20
1563.725824632851
 30
0.0
 11
1726.837196468009
 21
1563.725824632851
 31
0.0
  0
LINE
  5
2219
330
1F
100
AcDbEntity
  8
実形
100
AcDbLine
 10
1726.837196468009
 20
1563.725824632851
 30
0.0
 11
1726.837196468009
 21
1530.525824632851
 31
0.0
  0
ARC
  5
221A
330
1F
100
AcDbEntity
  8
0
  6
HIDDEN2
 48
0.5
100
AcDbCircle
 10
1703.837196468009
 20
1573.125824632851
 30
0.0
 40
3.0
100
AcDbArc
 50
0.0
 51
90.0
  0
ARC
  5
221B
330
1F
100
AcDbEntity
  8
0
  6
HIDDEN2
 48
0.5
100
AcDbCircle
 10
1703.837196468009
 20
1521.125824632851
 30
0.0
 40
3.0
100
AcDbArc
 50
270.0
 51
0.0
  0
LEADER
  5
221C
330
1F
100
AcDbEntity
  8
0
100
AcDbLeader
  3
ISO-25
 76
     2
 10
1609.186544200393
 20
1507.120760343973
 30
0.0
 10
1553.760530227197
 20
1467.693801390251
 30
0.0
1001
ACAD
1000
DSTYLE
1002
{
1070
   147
1040
6.25
1070
    77
1070
     0
1070
   279
1070
     1
1002
}
  0
LEADER
  5
221D
330
1F
100
AcDbEntity
  8
0
100
AcDbLeader
  3
ISO-25
 76
     2
 10
1609.501112097022
 20
1076.311877229804
 30
0.0
 10
1657.198566760806
 20
1020.31045059843
 30
0.0
1001
ACAD
1000
DSTYLE
1002
{
1070
   147
1040
6.25
1070
    77
1070
     0
1070
   279
1070
     1
1002
}
  0
LEADER
  5
221E
330
1F
100
AcDbEntity
  8
0
100
AcDbLeader
  3
ISO-25
 76
     2
 10
1607.471731635155
 20
1063.190824823418
 30
0.0
 10
1556.639409400772
 20
1104.904067258783
 30
0.0
1001
ACAD
1000
DSTYLE
1002
{
1070
   147
1040
6.25
1070
    77
1070
     0
1070
   279
1070
     1
1002
}
  0
TEXT
  5
221F
330
1F
100
AcDbEntity
  8
0
100
AcDbText
 10
1503.784563867548
 20
1437.114387581211
 30
0.0
 40
25.0
  1
3R
100
AcDbText
  0
TEXT
  5
2220
330
1F
100
AcDbEntity
  8
0
100
AcDbText
 10
1500.786993286472
 20
1097.159579785174
 30
0.0
 40
25.0
  1
3R
100
AcDbText
  0
TEXT
  5
2221
330
1F
100
AcDbEntity
  8
0
100
AcDbText
 10
1667.151802178487
 20
987.8349072753554
 30
0.0
 40
25.0
  1
3R
100
AcDbText
  0
DIMENSION
  5
2222
330
1F
100
AcDbEntity
  8
実形
100
AcDbDimension
  2
*D68
 10
1814.873527522817
 20
1530.525824632851
 30
0.0
 11
1842.781763120536
 21
1545.877276551054
 31
0.0
 70
   160
 71
     5
 42
33.19999999999982
  3
ISO-25
100
AcDbAlignedDimension
 13
1726.837196468009
 23
1563.725824632851
 33
0.0
 14
1726.837196468009
 24
1530.525824632851
 34
0.0
 50
90.0
100
AcDbRotatedDimension
1001
ACAD
1000
DSTYLE
1002
{
1070
   279
1070
     2
1002
}
  0
LINE
  5
2223
330
1F
100
AcDbEntity
  8
0
100
AcDbLine
 10
1792.83719646801
 20
1502.125824632851
 30
0.0
 11
1792.837196468009
 21
1321.125824632855
 31
0.0
  0
LINE
  5
2224
330
1F
100
AcDbEntity
  8
実形
100
AcDbLine
 10
1782.83719646801
 20
1502.125824632851
 30
0.0
 11
1792.83719646801
 21
1502.125824632851
 31
0.0
  0
LINE
  5
2225
330
1F
100
AcDbEntity
  8
実形
100
AcDbLine
 10
1782.837196468009
 20
1321.125824632855
 30
0.0
 11
1792.83719646801
 21
1321.125824632855
 31
0.0
  0
ARC
  5
2226
330
1F
100
AcDbEntity
  8
実形
100
AcDbCircle
 10
1746.374380413234
 20
1551.625824632851
 30
0.0
 40
30.0
100
AcDbArc
 50
7.169362918619547
 51
90.0
  0
LINE
  5
2227
330
1F
100
AcDbEntity
  8
0
100
AcDbLine
 10
1782.837196468009
 20
1502.125824632851
 30
0.0
 11
1782.837196468009
 21
1476.625824632851
 31
0.0
  0
LINE
  5
2228
330
1F
100
AcDbEntity
  8
実形
100
AcDbLine
 10
1776.139827735409
 20
1555.369906057024
 30
0.0
 11
1782.837196468009
 21
1502.125824632851
 31
0.0
  0
LINE
  5
2229
330
1F
100
AcDbEntity
  8
実形
100
AcDbLine
 10
1589.537196468009
 20
1616.51833077427
 30
0.0
 11
1602.537196468009
 21
1616.51833077427
 31
0.0
  0
ARC
  5
222A
330
1F
100
AcDbEntity
  8
実形
100
AcDbCircle
 10
1589.537196468009
 20
1611.51833077427
 30
0.0
 40
5.0
100
AcDbArc
 50
90.0
 51
180.0
  0
LINE
  5
222B
330
1F
100
AcDbEntity
  8
実形
100
AcDbLine
 10
1589.537196468009
 20
1028.51833077427
 30
0.0
 11
1602.537196468009
 21
1028.51833077427
 31
0.0
  0
DIMENSION
  5
222C
330
1F
100
AcDbEntity
  8
実形
100
AcDbDimension
  2
*D69
 10
1602.537196468009
 20
1669.997887552794
 30
0.0
 11
1555.516750303724
 21
1672.55144883166
 31
0.0
 70
   160
 71
     5
 42
18.0
  3
ISO-25
100
AcDbAlignedDimension
 13
1584.537196468009
 23
1570.66207751888
 33
0.0
 14
1602.537196468009
 24
1570.66207751888
 34
0.0
100
AcDbRotatedDimension
1001
ACAD
1000
DSTYLE
1002
{
1070
   279
1070
     1
1002
}
  0
DIMENSION
  5
222D
330
1F
100
AcDbEntity
  8
実形
100
AcDbDimension
  2
*D70
 10
1607.837196468009
 20
1669.997887552794
 30
0.0
 11
1558.50056657906
 21
1730.42530911619
 31
0.0
 70
   160
 71
     5
 42
5.300000000000181
  3
ISO-25
100
AcDbAlignedDimension
 13
1602.537196468009
 23
1570.66207751888
 33
0.0
 14
1607.837196468009
 24
1570.66207751888
 34
0.0
100
AcDbRotatedDimension
1001
ACAD
1000
DSTYLE
1002
{
1070
   140
1040
22.0
1070
   279
1070
     1
1002
}
  0
DIMENSION
  5
222E
330
1F
100
AcDbEntity
  8
実形
100
AcDbDimension
  2
*D71
 10
1706.837196468009
 20
1669.997887552794
 30
0.0
 11
1657.337196468009
 21
1688.747887552794
 31
0.0
 70
    32
 71
     5
 42
98.99999999999977
  3
ISO-25
100
AcDbAlignedDimension
 13
1607.837196468009
 23
1570.66207751888
 33
0.0
 14
1706.837196468009
 24
1570.66207751888
 34
0.0
100
AcDbRotatedDimension
1001
ACAD
1000
DSTYLE
1002
{
1070
   279
1070
     1
1002
}
  0
DIMENSION
  5
222F
330
1F
100
AcDbEntity
  8
実形
100
AcDbDimension
  2
*D72
 10
1706.837196468009
 20
1732.271370562173
 30
0.0
 11
1645.687196468009
 21
1751.021370562173
 31
0.0
 70
    32
 71
     5
 42
122.2999999999999
  3
ISO-25
100
AcDbAlignedDimension
 13
1584.537196468009
 23
1570.66207751888
 33
0.0
 14
1706.837196468009
 24
1570.66207751888
 34
0.0
100
AcDbRotatedDimension
1001
ACAD
1000
DSTYLE
1002
{
1070
   279
1070
     1
1002
}
  0
DIMENSION
  5
2230
330
1F
100
AcDbEntity
  8
実形
100
AcDbDimension
  2
*D73
 10
1602.537196468009
 20
921.8098430312348
 30
0.0
 11
1552.719697976528
 21
863.8250191148618
 31
0.0
 70
   160
 71
     5
 42
18.0
  3
ISO-25
100
AcDbAlignedDimension
 13
1584.537196468009
 23
1067.888017460209
 33
0.0
 14
1602.537196468009
 24
1067.888017460209
 34
0.0
 50
180.0
100
AcDbRotatedDimension
1001
ACAD
1000
DSTYLE
1002
{
1070
   279
1070
     1
1002
}
  0
DIMENSION
  5
2231
330
1F
100
AcDbEntity
  8
実形
100
AcDbDimension
  2
*D74
 10
1607.837196468008
 20
921.8098430312348
 30
0.0
 11
1635.764435053252
 21
864.7430184849945
 31
0.0
 70
   160
 71
     5
 42
5.299999999999727
  3
ISO-25
100
AcDbAlignedDimension
 13
1602.537196468009
 23
1068.866795101385
 33
0.0
 14
1607.837196468008
 24
1068.866795101385
 34
0.0
 50
180.0
100
AcDbRotatedDimension
1001
ACAD
1000
DSTYLE
1002
{
1070
   279
1070
     1
1002
}
  0
DIMENSION
  5
2232
330
1F
100
AcDbEntity
  8
実形
100
AcDbDimension
  2
*D75
 10
1782.837196468008
 20
921.8098430312348
 30
0.0
 11
1695.337196468008
 21
940.5598430312348
 31
0.0
 70
    32
 71
     5
 42
175.0
  3
ISO-25
100
AcDbAlignedDimension
 13
1607.837196468008
 23
1067.947881279244
 33
0.0
 14
1782.837196468008
 24
1067.888017460209
 34
0.0
 50
180.0
100
AcDbRotatedDimension
1001
ACAD
1000
DSTYLE
1002
{
1070
   279
1070
     1
1002
}
  0
DIMENSION
  5
2233
330
1F
100
AcDbEntity
  8
実形
100
AcDbDimension
  2
*D76
 10
1782.837196468008
 20
793.7904613606678
 30
0.0
 11
1683.687196468008
 21
812.5404613606679
 31
0.0
 70
    32
 71
     5
 42
198.3000000000002
  3
ISO-25
100
AcDbAlignedDimension
 13
1584.537196468008
 23
1002.888017460209
 33
0.0
 14
1782.837196468008
 24
1002.888017460209
 34
0.0
 50
180.0
100
AcDbRotatedDimension
1001
ACAD
1000
DSTYLE
1002
{
1070
   279
1070
     1
1002
}
  0
DIMENSION
  5
2234
330
1F
100
AcDbEntity
  8
実形
100
AcDbDimension
  2
*D77
 10
1792.837196468008
 20
921.8098430312348
 30
0.0
 11
1810.779934539772
 21
924.3383261052276
 31
0.0
 70
   160
  1
7
 71
     5
 42
10.0
  3
ISO-25
100
AcDbAlignedDimension
 13
1782.837196468008
 23
1067.888017460209
 33
0.0
 14
1792.837196468008
 24
1067.888017460209
 34
0.0
 50
180.0
100
AcDbRotatedDimension
1001
ACAD
1000
DSTYLE
1002
{
1070
   279
1070
     1
1002
}
  0
LEADER
  5
2235
330
1F
100
AcDbEntity
  8
実形
100
AcDbLeader
  3
ISO-25
 40
25.0
 41
16.66666666666666
 76
     2
 10
1576.122674165307
 20
1025.496806604933
 30
0.0
 10
1516.645972982877
 20
985.8611468060846
 30
0.0
213
0.0
223
12.5
233
0.0
1001
ACAD
1000
DSTYLE
1002
{
1070
   147
1040
6.25
1070
    77
1070
     0
1070
    41
1040
20.0
1070
   342
1005
DA
1002
}
  0
TEXT
  5
2236
330
1F
100
AcDbEntity
  8
実形
100
AcDbText
 10
1485.255495880377
 20
953.1731788818644
 30
0.0
 40
25.0
  1
5R
 72
     2
 11
1526.922162547044
 21
978.1731788818644
 31
0.0
100
AcDbText
 73
     3
  0
LEADER
  5
2237
330
1F
100
AcDbEntity
  8
実形
100
AcDbLeader
  3
ISO-25
 40
25.0
 41
16.66666666666666
 76
     2
 10
1576.798856376189
 20
1621.954672415848
 30
0.0
 10
1500.839741816219
 20
1664.309062237432
 30
0.0
213
0.0
223
12.5
233
0.0
1001
ACAD
1000
DSTYLE
1002
{
1070
   147
1040
6.25
1070
    77
1070
     0
1070
    41
1040
20.0
1070
   342
1005
DA
1002
}
  0
TEXT
  5
2238
330
1F
100
AcDbEntity
  8
実形
100
AcDbText
 10
1468.409076518755
 20
1671.841008429486
 30
0.0
 40
25.0
  1
5R
 72
     2
 11
1510.075743185421
 21
1696.841008429486
 31
0.0
100
AcDbText
 73
     3
  0
DIMENSION
  5
23A2
330
1F
100
AcDbEntity
  8
実形
100
AcDbDimension
  2
*D78
 10
1726.837196468009
 20
1669.997887552794
 30
0.0
 11
1737.250390601047
 21
1674.780785366318
 31
0.0
 70
   160
 71
     5
 42
20.0
  3
ISO-25
100
AcDbAlignedDimension
 13
1706.837196468009
 23
1563.725824632851
 33
0.0
 14
1726.837196468009
 24
1563.725824632851
 34
0.0
100
AcDbRotatedDimension
1001
ACAD
1000
DSTYLE
1002
{
1070
   279
1070
     1
1002
}
  0
LINE
  5
23D5
330
1F
100
AcDbEntity
  8
センター
 48
0.5
370
    15
100
AcDbLine
 10
1217.896720077348
 20
1365.573860624125
 30
0.0
 11
1305.30149373302
 21
1365.573860624125
 31
0.0
  0
TEXT
  5
23D6
330
1F
100
AcDbEntity
  8
実形
370
    -2
100
AcDbText
 10
1191.488971721244
 20
1355.203540808036
 30
0.0
 40
25.0
  1
A
100
AcDbText
  0
TEXT
  5
23D7
330
1F
100
AcDbEntity
  8
実形
370
    -2
100
AcDbText
 10
1312.348891357947
 20
1355.203540808036
 30
0.0
 40
25.0
  1
A
100
AcDbText
  0
TEXT
  5
23D8
330
1F
100
AcDbEntity
  8
実形
370
    -2
100
AcDbText
 10
1321.953666117713
 20
1353.603079445865
 30
0.0
 40
25.0
  1
´
100
AcDbText
  0
VIEWPORT
  5
2E
102
{ACAD_XDICTIONARY
360
2400
102
}
330
1B
100
AcDbEntity
 67
     1
  8
0
100
AcDbViewport
 10
144.7270812988281
 20
101.2295806407928
 30
0.0
 40
411.6736216682419
 41
222.1517806396485
 68
     1
 69
     1
 12
144.7270812988281
 22
101.2295806407928
 13
0.0
 23
0.0
 14
10.0
 24
10.0
 15
10.0
 25
10.0
 16
0.0
 26
0.0
 36
1.0
 17
0.0
 27
0.0
 37
0.0
 42
50.0
 43
0.0
 44
0.0
 45
222.1517806396485
 50
0.0
 51
0.0
 72
   100
 90
    32800
  1

281
     0
 71
     1
 74
     0
110
0.0
120
0.0
130
0.0
111
1.0
121
0.0
131
0.0
112
0.0
122
1.0
132
0.0
 79
     0
146
0.0
  0
VIEWPORT
  5
30
102
{ACAD_XDICTIONARY
360
2402
102
}
330
1B
100
AcDbEntity
 67
     1
  8
0
100
AcDbViewport
 10
139.2237563133239
 20
101.2295821905136
 30
0.0
 40
222.7580101013184
 41
161.9673315048218
 68
     2
 69
     2
 12
210.0
 22
148.5
 13
0.0
 23
0.0
 14
10.0
 24
10.0
 15
10.0
 25
10.0
 16
0.0
 26
0.0
 36
1.0
 17
0.0
 27
0.0
 37
0.0
 42
50.0
 43
0.0
 44
0.0
 45
309.0686705647124
 50
0.0
 51
0.0
 72
   100
 90
    32864
  1

281
     0
 71
     1
 74
     0
110
0.0
120
0.0
130
0.0
111
1.0
121
0.0
131
0.0
112
0.0
122
1.0
132
0.0
 79
     0
146
0.0
  0
ENDSEC
  0
SECTION
  2
OBJECTS
  0
DICTIONARY
  5
C
330
0
100
AcDbDictionary
281
     1
  3
ACAD_COLOR
350
C13
  3
ACAD_GROUP
350
D
  3
ACAD_LAYOUT
350
1A
  3
ACAD_MATERIAL
350
C12
  3
ACAD_MLINESTYLE
350
17
  3
ACAD_PLOTSETTINGS
350
19
  3
ACAD_PLOTSTYLENAME
350
E
  3
ACAD_TABLESTYLE
350
C14
  3
AcadDim
350
5B1
  3
ACDBHEADERROUNDTRIPXREC
350
23F9
  3
AcDbVariableDictionary
350
96D
  0
DICTIONARY
  5
DE1
330
2
100
AcDbDictionary
280
     1
281
     1
  3
ACAD_LAYERFILTERS
360
E0B
  3
ACAD_LAYERSTATES
360
DE2
  3
ACLYDICTIONARY
360
E0A
  0
DICTIONARY
  5
C47
330
1F
100
AcDbDictionary
280
     1
281
     1
  3
ACAD_SORTENTS
360
C48
  0
DICTIONARY
  5
DE5
330
DE3
100
AcDbDictionary
280
     1
281
     1
  3
ACAD_SORTENTS
360
DE6
  0
DICTIONARY
  5
10AA
330
1091
100
AcDbDictionary
280
     1
281
     1
  3
ACAD_SORTENTS
360
10AB
  0
DICTIONARY
  5
2400
330
2E
100
AcDbDictionary
280
     1
281
     1
  3
ACAD_XREC_ROUNDTRIP
360
2401
  0
DICTIONARY
  5
2402
330
30
100
AcDbDictionary
280
     1
281
     1
  3
ACAD_XREC_ROUNDTRIP
360
2403
  0
DICTIONARY
  5
C13
102
{ACAD_REACTORS
330
C
102
}
330
C
100
AcDbDictionary
281
     1
  0
DICTIONARY
  5
D
102
{ACAD_REACTORS
330
C
102
}
330
C
100
AcDbDictionary
281
     1
  0
DICTIONARY
  5
1A
102
{ACAD_REACTORS
330
C
102
}
330
C
100
AcDbDictionary
281
     1
  3
Model
350
22
  3
ﾚｲｱｳﾄ1
350
1E
  3
ﾚｲｱｳﾄ2
350
26
  0
DICTIONARY
  5
C12
102
{ACAD_REACTORS
330
C
102
}
330
C
100
AcDbDictionary
281
     1
  0
DICTIONARY
  5
17
102
{ACAD_REACTORS
330
C
102
}
330
C
100
AcDbDictionary
281
     1
  3
Standard
350
18
  0
DICTIONARY
  5
19
102
{ACAD_REACTORS
330
C
102
}
330
C
100
AcDbDictionary
281
     1
  0
ACDBDICTIONARYWDFLT
  5
E
102
{ACAD_REACTORS
330
C
102
}
330
C
100
AcDbDictionary
281
     1
  3
Normal
350
F
100
AcDbDictionaryWithDefault
340
F
  0
DICTIONARY
  5
C14
102
{ACAD_REACTORS
330
C
102
}
330
C
100
AcDbDictionary
281
     1
  3
Standard
350
C15
  0
XRECORD
  5
5B1
102
{ACAD_REACTORS
330
C
102
}
330
C
100
AcDbXrecord
280
     1
 90
   990106
  3

 60
     0
 61
     0
 62
     1
 63
     3
 64
     0
 65
     0
 66
     0
 67
     3
 68
     1
 69
     0
 70
     0
 71
     0
 72
     0
 40
5.637859010809637
170
     0
340
0
  0
DICTIONARY
  5
23F9
102
{ACAD_REACTORS
330
C
102
}
330
C
100
AcDbDictionary
281
     1
  0
DICTIONARY
  5
96D
102
{ACAD_REACTORS
330
C
102
}
330
C
100
AcDbDictionary
281
     1
  3
CTABLESTYLE
350
C23
  3
DIMASSOC
350
23F6
  3
PROJECTNAME
350
23F7
  3
SORTENTS
350
96E
  0
DICTIONARY
  5
E0B
102
{ACAD_REACTORS
330
DE1
102
}
330
DE1
100
AcDbDictionary
281
     1
  0
DICTIONARY
  5
DE2
102
{ACAD_REACTORS
330
DE1
102
}
330
DE1
100
AcDbDictionary
281
     1
  0
DICTIONARY
  5
E0A
102
{ACAD_REACTORS
330
DE1
102
}
330
DE1
100
AcDbDictionary
281
     1
1001
ACAD
1000
<All
  0
SORTENTSTABLE
  5
C48
102
{ACAD_REACTORS
330
C47
102
}
330
C47
100
AcDbSortentsTable
330
1F
331
A5
  5
A8
331
339
  5
39A
331
341
  5
3DA
331
371
  5
3E0
331
2B3
  5
330
331
5AD
  5
601
331
1266
  5
126F
331
CB3
  5
EE7
331
126E
  5
1277
331
184B
  5
1A17
331
1E7A
  5
1E7D
331
1E82
  5
2023
331
1276
  5
127F
331
1E4B
  5
1E4E
331
2084
  5
2101
331
127E
  5
1287
331
1E53
  5
1E56
331
1CC4
  5
1CFF
331
AD
  5
25F
331
3E0
  5
473
331
A2C
  5
D95
331
50F
  5
56C
331
32A
  5
33C
331
586
  5
5FB
331
CD3
  5
F28
331
1286
  5
137F
331
1AA3
  5
1AA7
331
124F
  5
1258
331
5F5
  5
A29
331
1AAB
  5
1AB0
331
1E5B
  5
1E5E
331
CEB
  5
F31
331
53F
  5
5A1
331
5FD
  5
A3C
331
1257
  5
1260
331
1AB3
  5
1B36
331
1E63
  5
1E66
331
125F
  5
1268
331
1D04
  5
1D07
331
1E6B
  5
1E6E
331
1D0C
  5
1D0F
331
1E73
  5
1E76
331
2025
  5
4B4
331
207D
  5
207F
331
33A
  5
39B
331
480
  5
565
331
1267
  5
1270
331
1E7B
  5
1E7E
331
55F
  5
5F5
331
126F
  5
1278
331
184C
  5
1AA4
331
1E44
  5
1E47
331
1E83
  5
2024
331
1277
  5
1280
331
14D5
  5
184B
331
1CAD
  5
1CB9
331
1E4C
  5
1E4F
331
127F
  5
1288
331
1E54
  5
1E57
331
CBC
  5
EE8
331
2DC
  5
331
331
A2D
  5
DC4
331
32B
  5
33E
331
1287
  5
14A9
331
1AA4
  5
1AA8
331
1250
  5
1259
331
39A
  5
407
331
5F6
  5
A2C
331
1AAC
  5
1AB1
331
1E5C
  5
1E5F
331
1119
  5
1255
331
59F
  5
5FC
331
5FE
  5
A3D
331
1258
  5
1261
331
1AB4
  5
1B37
331
1CFD
  5
1D00
331
1E64
  5
1E67
331
162D
  5
188C
331
1D05
  5
1D08
331
1E6C
  5
1E6F
331
1D0D
  5
1E44
331
1E74
  5
1E77
331
2026
  5
52E
331
207E
  5
2080
331
540
  5
5A9
331
3B2
  5
40B
331
DC4
  5
F32
331
1260
  5
1269
331
304
  5
339
331
558
  5
5AD
331
1268
  5
1271
331
1E7C
  5
1E7F
331
560
  5
5F7
331
105B
  5
1250
331
1270
  5
1279
331
1E45
  5
1E48
331
1E4D
  5
1E50
331
1278
  5
1281
331
19ED
  5
1AA5
331
1CAE
  5
1CC3
331
1E84
  5
2025
331
1E55
  5
1E58
331
568
  5
5F9
331
31C
  5
33A
331
E44
  5
F33
331
1280
  5
1289
331
27E
  5
32C
331
1288
  5
14D9
331
1AA5
  5
1AAA
331
40A
  5
537
331
32C
  5
33F
331
CDD
  5
F2D
331
5F7
  5
A2D
331
1251
  5
125A
331
1AAD
  5
1AB2
331
1E5D
  5
1E60
331
39B
  5
40A
331
334
  5
373
331
C46
  5
384
331
5FF
  5
A3F
331
EDC
  5
11B0
331
1259
  5
1262
331
1AB5
  5
1B4F
331
1CFE
  5
1D01
331
1E65
  5
1E68
331
1D06
  5
1D09
331
1E6D
  5
1E70
331
1D0E
  5
1E45
331
1E75
  5
1E78
331
207F
  5
2081
331
A0
  5
A5
331
5A0
  5
5FD
331
33C
  5
3B2
331
C4E
  5
E44
331
1261
  5
126A
331
25F
  5
260
331
2A6
  5
32F
331
1269
  5
1272
331
267
  5
31C
331
105C
  5
1251
331
1271
  5
127A
331
14CF
  5
16B1
331
1E46
  5
1E49
331
1E7D
  5
1E80
331
1279
  5
1282
331
19EE
  5
1AA6
331
1E4E
  5
1E51
331
1597
  5
184C
331
1E56
  5
1E59
331
A8
  5
A9
331
5D0
  5
602
331
384
  5
3E4
331
1281
  5
12EA
331
5D8
  5
96C
331
3E3
  5
48E
331
1289
  5
1597
331
1AA6
  5
1AAB
331
532
  5
586
331
32D
  5
340
331
1252
  5
125B
331
5F8
  5
A2E
331
1AAE
  5
1AB3
331
1E5E
  5
1E61
331
335
  5
376
331
125A
  5
1263
331
1AB6
  5
1CA2
331
1CFF
  5
1D02
331
1E66
  5
1E69
331
1D07
  5
1D0A
331
1E6E
  5
1E71
331
1D0F
  5
1E46
331
1E76
  5
1E79
331
600
  5
A48
331
5A1
  5
5FE
331
473
  5
55D
331
1262
  5
126B
331
5A9
  5
5FF
331
260
  5
261
331
126A
  5
1273
331
55A
  5
5AE
331
105D
  5
1252
331
11DB
  5
1257
331
1272
  5
127B
331
14D0
  5
16B2
331
1E47
  5
1E4A
331
1E7E
  5
1E81
331
562
  5
5F8
331
1E4F
  5
1E52
331
127A
  5
1283
331
1CB8
  5
1CC4
331
2080
  5
2082
331
1E57
  5
1E5A
331
A9
  5
AA
331
270
  5
32B
331
56A
  5
5FA
331
3E4
  5
48F
331
1282
  5
133D
331
32E
  5
341
331
110C
  5
1254
331
1AA7
  5
1AAC
331
1E5F
  5
1E62
331
1253
  5
125C
331
5F9
  5
A2F
331
1AAF
  5
1AB4
331
1D00
  5
1D03
331
1E67
  5
1E6A
331
125B
  5
1264
331
1AB7
  5
1CA3
331
1D08
  5
1D0B
331
1E6F
  5
1E72
331
1E77
  5
1E7A
331
298
  5
32E
331
33E
  5
3BF
331
2F7
  5
335
331
601
  5
C46
331
5AA
  5
600
331
54B
  5
5AA
331
261
  5
263
331
C50
  5
53A
331
1263
  5
126C
331
376
  5
3E3
331
126B
  5
1274
331
1B36
  5
1CAD
331
1E48
  5
1E4B
331
1E7F
  5
1E82
331
105E
  5
1253
331
1273
  5
127C
331
1E50
  5
1E53
331
1CB9
  5
1CFD
331
2081
  5
2083
331
127B
  5
1284
331
2100
  5
4B5
331
AA
  5
AB
331
3DD
  5
41E
331
5D2
  5
603
331
A29
  5
D94
331
1283
  5
137C
331
1E58
  5
1E5B
331
40D
  5
53C
331
32F
  5
372
331
1AA8
  5
1AAD
331
1E60
  5
1E63
331
CE8
  5
F2E
331
5FA
  5
A31
331
1254
  5
125D
331
1AB0
  5
1AB5
331
1D01
  5
1D04
331
1E68
  5
1E6B
331
125C
  5
1265
331
1D09
  5
1D0C
331
1E70
  5
1E73
331
33F
  5
3CC
331
602
  5
C4C
331
262
  5
304
331
EE7
  5
11CE
331
1264
  5
126D
331
12EA
  5
16AF
331
1CA2
  5
1CAE
331
1E78
  5
1E7B
331
55C
  5
5B0
331
CB1
  5
E79
331
126C
  5
1275
331
1B37
  5
1AA9
331
1E80
  5
1E83
331
1E49
  5
1E4C
331
1274
  5
127D
331
14D2
  5
17E9
331
1B4F
  5
A0
331
1E51
  5
1E54
331
2082
  5
2084
331
127C
  5
1285
331
2101
  5
207D
331
AB
  5
AD
331
3DE
  5
44A
331
1284
  5
137D
331
2E9
  5
334
331
1AA9
  5
1AAE
331
1E59
  5
1E5C
331
CE9
  5
F2F
331
53D
  5
5A0
331
41E
  5
53D
331
5FB
  5
A34
331
1255
  5
125E
331
1AB1
  5
1AB6
331
1E61
  5
1E64
331
125D
  5
1266
331
1D02
  5
1D05
331
1E69
  5
1E6C
331
1D0A
  5
1D0D
331
1E71
  5
1E74
331
2023
  5
2026
331
9C
  5
9C
331
340
  5
3D9
331
603
  5
C50
331
370
  5
3DD
331
3BF
  5
419
331
EE8
  5
11DB
331
1265
  5
126E
331
55D
  5
5F4
331
26B
  5
32A
331
CB2
  5
EDC
331
11CE
  5
1256
331
126D
  5
1276
331
184A
  5
19EE
331
1CA3
  5
1CB8
331
1E79
  5
1E7C
331
1E81
  5
1E84
331
1275
  5
127E
331
1E4A
  5
1E4D
331
2083
  5
2100
331
127D
  5
1286
331
1E52
  5
1E55
331
1CC3
  5
1CFE
331
48E
  5
568
331
3DF
  5
464
331
28B
  5
32D
331
E79
  5
11AF
331
1285
  5
137E
331
CDA
  5
F29
331
5F4
  5
97A
331
1AAA
  5
1AAF
331
1E5A
  5
1E5D
331
CEA
  5
F30
331
5FC
  5
A35
331
1256
  5
125F
331
1AB2
  5
1AB7
331
1E62
  5
1E65
331
125E
  5
1267
331
1D03
  5
1D06
331
1E6A
  5
1E6D
331
1D0B
  5
1D0E
331
1E72
  5
1E75
331
2024
  5
207C
331
207C
  5
207E
  0
SORTENTSTABLE
  5
DE6
102
{ACAD_REACTORS
330
DE5
102
}
330
DE5
100
AcDbSortentsTable
330
DE3
  0
SORTENTSTABLE
  5
10AB
102
{ACAD_REACTORS
330
10AA
102
}
330
10AA
100
AcDbSortentsTable
330
1091
  0
XRECORD
  5
2401
102
{ACAD_REACTORS
330
2400
102
}
330
2400
100
AcDbXrecord
280
     1
102
SHADEPLOT
 70
     0
  0
XRECORD
  5
2403
102
{ACAD_REACTORS
330
2402
102
}
330
2402
100
AcDbXrecord
280
     1
102
SHADEPLOT
 70
     0
  0
LAYOUT
  5
22
102
{ACAD_XDICTIONARY
360
23FC
102
}
102
{ACAD_REACTORS
330
1A
102
}
330
1A
100
AcDbPlotSettings
  1

  2
EPSON PM-800C
  4
A4
  6

 40
3.757083177566528
 41
14.7637300491333
 42
3.757080078125
 43
3.757080078125
 44
209.9733276367187
 45
296.9683227539062
 46
0.0
 47
0.0
 48
0.0
 49
0.0
140
0.0
141
0.0
142
1.0
143
10.0
 70
 11952
 72
     1
 73
     1
 74
     2
  7

 75
    20
147
0.1
148
0.0
149
0.0
100
AcDbLayout
  1
Model
 70
     1
 71
     0
 10
0.0
 20
0.0
 11
12.0
 21
9.0
 12
0.0
 22
0.0
 32
0.0
 14
0.0
 24
0.0
 34
0.0
 15
0.0
 25
0.0
 35
0.0
146
0.0
 13
0.0
 23
0.0
 33
0.0
 16
1.0
 26
0.0
 36
0.0
 17
0.0
 27
1.0
 37
0.0
 76
     0
330
1F
  0
LAYOUT
  5
1E
102
{ACAD_XDICTIONARY
360
23FA
102
}
102
{ACAD_REACTORS
330
1A
102
}
330
1A
100
AcDbPlotSettings
  1

  2
EPSON PM-800C
  4
A4
  6

 40
3.757083177566528
 41
14.7637300491333
 42
3.757080078125
 43
3.757080078125
 44
209.9733276367187
 45
296.9683227539062
 46
0.0
 47
0.0
 48
0.0
 49
0.0
140
0.0
141
0.0
142
1.0
143
1.0
 70
   688
 72
     1
 73
     1
 74
     5
  7

 75
    16
147
1.0
148
0.0
149
0.0
100
AcDbLayout
  1
ﾚｲｱｳﾄ1
 70
     1
 71
     1
 10
-3.757080078125
 20
-3.757083177566528
 11
293.2112426757813
 21
206.2162444591522
 12
0.0
 22
0.0
 32
0.0
 14
27.8447512626648
 24
20.24591643810271
 34
0.0
 15
250.6027613639831
 25
182.2132479429245
 35
0.0
146
0.0
 13
0.0
 23
0.0
 33
0.0
 16
1.0
 26
0.0
 36
0.0
 17
0.0
 27
1.0
 37
0.0
 76
     0
330
1B
331
2E
  0
LAYOUT
  5
26
102
{ACAD_XDICTIONARY
360
23FE
102
}
102
{ACAD_REACTORS
330
1A
102
}
330
1A
100
AcDbPlotSettings
  1

  2
EPSON PM-800C
  4

  6

 40
0.0
 41
0.0
 42
0.0
 43
0.0
 44
0.0
 45
0.0
 46
0.0
 47
0.0
 48
0.0
 49
0.0
140
0.0
141
0.0
142
1.0
143
1.0
 70
   688
 72
     0
 73
     0
 74
     5
  7

 75
    16
147
1.0
148
0.0
149
0.0
100
AcDbLayout
  1
ﾚｲｱｳﾄ2
 70
     1
 71
     2
 10
0.0
 20
0.0
 11
12.0
 21
9.0
 12
0.0
 22
0.0
 32
0.0
 14
0.0
 24
0.0
 34
0.0
 15
0.0
 25
0.0
 35
0.0
146
0.0
 13
0.0
 23
0.0
 33
0.0
 16
1.0
 26
0.0
 36
0.0
 17
0.0
 27
1.0
 37
0.0
 76
     0
330
23
  0
MLINESTYLE
  5
18
102
{ACAD_REACTORS
330
17
102
}
330
17
100
AcDbMlineStyle
  2
STANDARD
 70
     0
  3

 62
   256
 51
90.0
 52
90.0
 71
     2
 49
0.5
 62
   256
  6
BYLAYER
 49
-0.5
 62
   256
  6
BYLAYER
  0
ACDBPLACEHOLDER
  5
F
102
{ACAD_REACTORS
330
E
102
}
330
E
  0
TABLESTYLE
  5
C15
102
{ACAD_REACTORS
330
C14
102
}
330
C14
100
AcDbTableStyle
  3
Standard
 70
     0
 71
     0
 40
1.5
 41
1.5
280
     0
281
     0
  7
Standard
140
4.5
170
     2
 62
     0
 63
     7
283
     0
274
    -2
284
     1
 64
     0
275
    -2
285
     1
 65
     0
276
    -2
286
     1
 66
     0
277
    -2
287
     1
 67
     0
278
    -2
288
     1
 68
     0
279
    -2
289
     1
 69
     0
  7
Standard
140
6.0
170
     5
 62
     0
 63
     7
283
     0
274
    -2
284
     1
 64
     0
275
    -2
285
     1
 65
     0
276
    -2
286
     1
 66
     0
277
    -2
287
     1
 67
     0
278
    -2
288
     1
 68
     0
279
    -2
289
     1
 69
     0
  7
Standard
140
4.5
170
     5
 62
     0
 63
     7
283
     0
274
    -2
284
     1
 64
     0
275
    -2
285
     1
 65
     0
276
    -2
286
     1
 66
     0
277
    -2
287
     1
 67
     0
278
    -2
288
     1
 68
     0
279
    -2
289
     1
 69
     0
  0
DICTIONARYVAR
  5
C23
102
{ACAD_REACTORS
330
96D
102
}
330
96D
100
DictionaryVariables
280
     0
  1
STANDARD
  0
DICTIONARYVAR
  5
23F6
102
{ACAD_REACTORS
330
96D
102
}
330
96D
100
DictionaryVariables
280
     0
  1
1
  0
DICTIONARYVAR
  5
23F7
102
{ACAD_REACTORS
330
96D
102
}
330
96D
100
DictionaryVariables
280
     0
  1

  0
DICTIONARYVAR
  5
96E
102
{ACAD_REACTORS
330
96D
102
}
330
96D
100
DictionaryVariables
280
     0
  1
96
  0
DICTIONARY
  5
23FC
330
22
100
AcDbDictionary
280
     1
281
     1
  3
ACAD_XREC_ROUNDTRIP
360
23FD
  0
DICTIONARY
  5
23FA
330
1E
100
AcDbDictionary
280
     1
281
     1
  3
ACAD_XREC_ROUNDTRIP
360
23FB
  0
DICTIONARY
  5
23FE
330
26
100
AcDbDictionary
280
     1
281
     1
  3
ACAD_XREC_ROUNDTRIP
360
23FF
  0
XRECORD
  5
23FD
102
{ACAD_REACTORS
330
23FC
102
}
330
23FC
100
AcDbXrecord
280
     1
102
SHADEPLOT
 70
     0
102
SHADEPLOTRESLEVEL
 70
     2
102
SHADEPLOTCUSTOMDPI
 70
   300
  0
XRECORD
  5
23FB
102
{ACAD_REACTORS
330
23FA
102
}
330
23FA
100
AcDbXrecord
280
     1
102
SHADEPLOT
 70
     0
102
SHADEPLOTRESLEVEL
 70
     2
102
SHADEPLOTCUSTOMDPI
 70
   300
  0
XRECORD
  5
23FF
102
{ACAD_REACTORS
330
23FE
102
}
330
23FE
100
AcDbXrecord
280
     1
102
SHADEPLOT
 70
     0
102
SHADEPLOTRESLEVEL
 70
     2
102
SHADEPLOTCUSTOMDPI
 70
   300
  0
ENDSEC
  0
EOF
