  0
SECTION
  2
HEADER
  9
$ACADVER
  1
AC1015
  9
$ACADMAINTVER
 70
    20
  9
$DWGCODEPAGE
  3
ANSI_932
  9
$INSBASE
 10
0.0
 20
0.0
 30
0.0
  9
$EXTMIN
 10
119.0
 20
4.0
 30
0.0
  9
$EXTMAX
 10
2784.0
 20
2024.0
 30
0.0
  9
$LIMMIN
 10
0.0
 20
0.0
  9
$LIMMAX
 10
29700.0
 20
21000.0
  9
$ORTHOMODE
 70
     0
  9
$REGENMODE
 70
     1
  9
$FILLMODE
 70
     1
  9
$QTEXTMODE
 70
     0
  9
$MIRRTEXT
 70
     1
  9
$LTSCALE
 40
4.0
  9
$ATTMODE
 70
     1
  9
$TEXTSIZE
 40
35.0
  9
$TRACEWID
 40
1.0
  9
$TEXTSTYLE
  7
ｍｓ明朝
  9
$CLAYER
  8
実形
  9
$CELTYPE
  6
ByLayer
  9
$CECOLOR
 62
   256
  9
$CELTSCALE
 40
1.0
  9
$DISPSILH
 70
     0
  9
$DIMSCALE
 40
1.0
  9
$DIMASZ
 40
35.0
  9
$DIMEXO
 40
65.0
  9
$DIMDLI
 40
3.75
  9
$DIMRND
 40
0.0
  9
$DIMDLE
 40
0.0
  9
$DIMEXE
 40
0.0
  9
$DIMTP
 40
0.0
  9
$DIMTM
 40
0.0
  9
$DIMTXT
 40
25.0
  9
$DIMCEN
 40
2.5
  9
$DIMTSZ
 40
0.0
  9
$DIMTOL
 70
     0
  9
$DIMLIM
 70
     0
  9
$DIMTIH
 70
     0
  9
$DIMTOH
 70
     0
  9
$DIMSE1
 70
     0
  9
$DIMSE2
 70
     0
  9
$DIMTAD
 70
     1
  9
$DIMZIN
 70
     8
  9
$DIMBLK
  1
DotSmall
  9
$DIMASO
 70
     1
  9
$DIMSHO
 70
     1
  9
$DIMPOST
  1

  9
$DIMAPOST
  1

  9
$DIMALT
 70
     0
  9
$DIMALTD
 70
     3
  9
$DIMALTF
 40
0.03937007874016
  9
$DIMLFAC
 40
1.0
  9
$DIMTOFL
 70
     1
  9
$DIMTVP
 40
0.0
  9
$DIMTIX
 70
     0
  9
$DIMSOXD
 70
     0
  9
$DIMSAH
 70
     0
  9
$DIMBLK1
  1

  9
$DIMBLK2
  1

  9
$DIMSTYLE
  2
ISO-25
  9
$DIMCLRD
 70
     0
  9
$DIMCLRE
 70
     0
  9
$DIMCLRT
 70
     0
  9
$DIMTFAC
 40
1.0
  9
$DIMGAP
 40
6.25
  9
$DIMJUST
 70
     0
  9
$DIMSD1
 70
     0
  9
$DIMSD2
 70
     0
  9
$DIMTOLJ
 70
     0
  9
$DIMTZIN
 70
     8
  9
$DIMALTZ
 70
     0
  9
$DIMALTTZ
 70
     0
  9
$DIMUPT
 70
     0
  9
$DIMDEC
 70
     2
  9
$DIMTDEC
 70
     2
  9
$DIMALTU
 70
     2
  9
$DIMALTTD
 70
     3
  9
$DIMTXSTY
  7
Standard
  9
$DIMAUNIT
 70
     0
  9
$DIMADEC
 70
     0
  9
$DIMALTRND
 40
0.0
  9
$DIMAZIN
 70
     0
  9
$DIMDSEP
 70
    46
  9
$DIMATFIT
 70
     2
  9
$DIMFRAC
 70
     0
  9
$DIMLDRBLK
  1
Open30
  9
$DIMLUNIT
 70
     2
  9
$DIMLWD
 70
    15
  9
$DIMLWE
 70
    15
  9
$DIMTMOVE
 70
     2
  9
$LUNITS
 70
     2
  9
$LUPREC
 70
     2
  9
$SKETCHINC
 40
1.0
  9
$FILLETRAD
 40
5.0
  9
$AUNITS
 70
     0
  9
$AUPREC
 70
     0
  9
$MENU
  1
.
  9
$ELEVATION
 40
0.0
  9
$PELEVATION
 40
0.0
  9
$THICKNESS
 40
0.0
  9
$LIMCHECK
 70
     1
  9
$CHAMFERA
 40
10.0
  9
$CHAMFERB
 40
10.0
  9
$CHAMFERC
 40
20.0
  9
$CHAMFERD
 40
0.0
  9
$SKPOLY
 70
     0
  9
$TDCREATE
 40
2451673.575802199
  9
$TDUCREATE
 40
2451673.200802199
  9
$TDUPDATE
 40
2458813.753553380
  9
$TDUUPDATE
 40
2458813.378553380
  9
$TDINDWG
 40
1.1788028472
  9
$TDUSRTIMER
 40
1.1788021528
  9
$USRTIMER
 70
     1
  9
$ANGBASE
 50
0.0
  9
$ANGDIR
 70
     0
  9
$PDMODE
 70
     0
  9
$PDSIZE
 40
0.0
  9
$PLINEWID
 40
0.0
  9
$SPLFRAME
 70
     0
  9
$SPLINETYPE
 70
     6
  9
$SPLINESEGS
 70
     8
  9
$HANDSEED
  5
2725
  9
$SURFTAB1
 70
     6
  9
$SURFTAB2
 70
     6
  9
$SURFTYPE
 70
     6
  9
$SURFU
 70
     6
  9
$SURFV
 70
     6
  9
$UCSBASE
  2

  9
$UCSNAME
  2

  9
$UCSORG
 10
0.0
 20
0.0
 30
0.0
  9
$UCSXDIR
 10
1.0
 20
0.0
 30
0.0
  9
$UCSYDIR
 10
0.0
 20
1.0
 30
0.0
  9
$UCSORTHOREF
  2

  9
$UCSORTHOVIEW
 70
     0
  9
$UCSORGTOP
 10
0.0
 20
0.0
 30
0.0
  9
$UCSORGBOTTOM
 10
0.0
 20
0.0
 30
0.0
  9
$UCSORGLEFT
 10
0.0
 20
0.0
 30
0.0
  9
$UCSORGRIGHT
 10
0.0
 20
0.0
 30
0.0
  9
$UCSORGFRONT
 10
0.0
 20
0.0
 30
0.0
  9
$UCSORGBACK
 10
0.0
 20
0.0
 30
0.0
  9
$PUCSBASE
  2

  9
$PUCSNAME
  2

  9
$PUCSORG
 10
0.0
 20
0.0
 30
0.0
  9
$PUCSXDIR
 10
1.0
 20
0.0
 30
0.0
  9
$PUCSYDIR
 10
0.0
 20
1.0
 30
0.0
  9
$PUCSORTHOREF
  2

  9
$PUCSORTHOVIEW
 70
     0
  9
$PUCSORGTOP
 10
0.0
 20
0.0
 30
0.0
  9
$PUCSORGBOTTOM
 10
0.0
 20
0.0
 30
0.0
  9
$PUCSORGLEFT
 10
0.0
 20
0.0
 30
0.0
  9
$PUCSORGRIGHT
 10
0.0
 20
0.0
 30
0.0
  9
$PUCSORGFRONT
 10
0.0
 20
0.0
 30
0.0
  9
$PUCSORGBACK
 10
0.0
 20
0.0
 30
0.0
  9
$USERI1
 70
     0
  9
$USERI2
 70
     0
  9
$USERI3
 70
     0
  9
$USERI4
 70
     0
  9
$USERI5
 70
     0
  9
$USERR1
 40
0.0
  9
$USERR2
 40
0.0
  9
$USERR3
 40
0.0
  9
$USERR4
 40
0.0
  9
$USERR5
 40
0.0
  9
$WORLDVIEW
 70
     1
  9
$SHADEDGE
 70
     3
  9
$SHADEDIF
 70
    70
  9
$TILEMODE
 70
     1
  9
$MAXACTVP
 70
    64
  9
$PINSBASE
 10
0.0
 20
0.0
 30
0.0
  9
$PLIMCHECK
 70
     0
  9
$PEXTMIN
 10
27.8447512626648
 20
20.24591643810271
 30
0.0
  9
$PEXTMAX
 10
250.6027613639831
 20
182.2132479429245
 30
0.0
  9
$PLIMMIN
 10
-3.757080078125
 20
-3.757083177566528
  9
$PLIMMAX
 10
293.2112426757813
 20
206.2162444591522
  9
$UNITMODE
 70
     0
  9
$VISRETAIN
 70
     1
  9
$PLINEGEN
 70
     0
  9
$PSLTSCALE
 70
     1
  9
$TREEDEPTH
 70
  3020
  9
$CMLSTYLE
  2
Standard
  9
$CMLJUST
 70
     0
  9
$CMLSCALE
 40
20.0
  9
$PROXYGRAPHICS
 70
     1
  9
$MEASUREMENT
 70
     1
  9
$CELWEIGHT
370
    -1
  9
$ENDCAPS
280
     0
  9
$JOINSTYLE
280
     0
  9
$LWDISPLAY
290
     0
  9
$INSUNITS
 70
     4
  9
$HYPERLINKBASE
  1

  9
$STYLESHEET
  1

  9
$XEDIT
290
     1
  9
$CEPSNTYPE
380
     0
  9
$PSTYLEMODE
290
     1
  9
$FINGERPRINTGUID
  2
{C8EA1F16-24C9-11D4-9416-CE0A3B32152F}
  9
$VERSIONGUID
  2
{4841ADBF-41E6-4415-A468-8B2D4C0FF341}
  9
$EXTNAMES
290
     1
  9
$PSVPSCALE
 40
0.0
  9
$OLESTARTUP
290
     0
  0
ENDSEC
  0
SECTION
  2
CLASSES
  0
CLASS
  1
ACDBDICTIONARYWDFLT
  2
AcDbDictionaryWithDefault
  3
ObjectDBX Classes
 90
        0
280
     0
281
     0
  0
CLASS
  1
ACDBPLACEHOLDER
  2
AcDbPlaceHolder
  3
ObjectDBX Classes
 90
        0
280
     0
281
     0
  0
CLASS
  1
LAYOUT
  2
AcDbLayout
  3
ObjectDBX Classes
 90
        0
280
     0
281
     0
  0
CLASS
  1
DICTIONARYVAR
  2
AcDbDictionaryVar
  3
ObjectDBX Classes
 90
        0
280
     0
281
     0
  0
CLASS
  1
TABLESTYLE
  2
AcDbTableStyle
  3
ObjectDBX Classes
 90
     2047
280
     0
281
     0
  0
CLASS
  1
SORTENTSTABLE
  2
AcDbSortentsTable
  3
ObjectDBX Classes
 90
        0
280
     0
281
     0
  0
ENDSEC
  0
SECTION
  2
TABLES
  0
TABLE
  2
VPORT
  5
8
330
0
100
AcDbSymbolTable
 70
     2
  0
VPORT
  5
2719
330
8
100
AcDbSymbolTableRecord
100
AcDbViewportTableRecord
  2
*Active
 70
     0
 10
0.0
 20
0.0
 11
1.0
 21
1.0
 12
1404.265819345737
 22
1016.442601169754
 13
0.0
 23
0.0
 14
10.0
 24
10.0
 15
10.0
 25
10.0
 16
0.0
 26
0.0
 36
1.0
 17
0.0
 27
0.0
 37
0.0
 40
2352.038111550093
 41
1.29038112522686
 42
50.0
 43
0.0
 44
0.0
 50
0.0
 51
0.0
 71
     0
 72
   100
 73
     1
 74
     3
 75
     0
 76
     0
 77
     0
 78
     0
281
     0
 65
     1
110
0.0
120
0.0
130
0.0
111
1.0
121
0.0
131
0.0
112
0.0
122
1.0
132
0.0
 79
     0
146
0.0
  0
ENDTAB
  0
TABLE
  2
LTYPE
  5
5
330
0
100
AcDbSymbolTable
 70
    46
  0
LTYPE
  5
14
330
5
100
AcDbSymbolTableRecord
100
AcDbLinetypeTableRecord
  2
ByBlock
 70
     0
  3

 72
    65
 73
     0
 40
0.0
  0
LTYPE
  5
15
330
5
100
AcDbSymbolTableRecord
100
AcDbLinetypeTableRecord
  2
ByLayer
 70
     0
  3

 72
    65
 73
     0
 40
0.0
  0
LTYPE
  5
16
330
5
100
AcDbSymbolTableRecord
100
AcDbLinetypeTableRecord
  2
Continuous
 70
     0
  3
Solid line
 72
    65
 73
     0
 40
0.0
  0
LTYPE
  5
34
330
5
100
AcDbSymbolTableRecord
100
AcDbLinetypeTableRecord
  2
ACAD_ISO02W100
 70
     0
  3
ISO dash __ __ __ __ __ __ __ __ __ __ __ __ __
 72
    65
 73
     2
 40
15.0
 49
12.0
 74
     0
 49
-3.0
 74
     0
  0
LTYPE
  5
35
330
5
100
AcDbSymbolTableRecord
100
AcDbLinetypeTableRecord
  2
ACAD_ISO03W100
 70
     0
  3
ISO dash space __    __    __    __    __    __
 72
    65
 73
     2
 40
30.0
 49
12.0
 74
     0
 49
-18.0
 74
     0
  0
LTYPE
  5
36
330
5
100
AcDbSymbolTableRecord
100
AcDbLinetypeTableRecord
  2
ACAD_ISO04W100
 70
     0
  3
ISO long-dash dot ____ . ____ . ____ . ____ . _
 72
    65
 73
     4
 40
30.0
 49
24.0
 74
     0
 49
-3.0
 74
     0
 49
0.0
 74
     0
 49
-3.0
 74
     0
  0
LTYPE
  5
37
330
5
100
AcDbSymbolTableRecord
100
AcDbLinetypeTableRecord
  2
ACAD_ISO05W100
 70
     0
  3
ISO long-dash double-dot ____ .. ____ .. ____ .
 72
    65
 73
     6
 40
34.0
 49
24.0
 74
     0
 49
-3.0
 74
     0
 49
0.5
 74
     0
 49
-3.0
 74
     0
 49
0.5
 74
     0
 49
-3.0
 74
     0
  0
LTYPE
  5
38
330
5
100
AcDbSymbolTableRecord
100
AcDbLinetypeTableRecord
  2
ACAD_ISO06W100
 70
     0
  3
ISO long-dash triple-dot ____ ... ____ ... ____
 72
    65
 73
     8
 40
37.5
 49
24.0
 74
     0
 49
-3.0
 74
     0
 49
0.5
 74
     0
 49
-3.0
 74
     0
 49
0.5
 74
     0
 49
-3.0
 74
     0
 49
0.5
 74
     0
 49
-3.0
 74
     0
  0
LTYPE
  5
39
330
5
100
AcDbSymbolTableRecord
100
AcDbLinetypeTableRecord
  2
ACAD_ISO07W100
 70
     0
  3
ISO dot . . . . . . . . . . . . . . . . . . . .
 72
    65
 73
     2
 40
3.0
 49
0.0
 74
     0
 49
-3.0
 74
     0
  0
LTYPE
  5
3A
330
5
100
AcDbSymbolTableRecord
100
AcDbLinetypeTableRecord
  2
ACAD_ISO08W100
 70
     0
  3
ISO long-dash short-dash ____ __ ____ __ ____ _
 72
    65
 73
     4
 40
36.0
 49
24.0
 74
     0
 49
-3.0
 74
     0
 49
6.0
 74
     0
 49
-3.0
 74
     0
  0
LTYPE
  5
3B
330
5
100
AcDbSymbolTableRecord
100
AcDbLinetypeTableRecord
  2
ACAD_ISO09W100
 70
     0
  3
ISO long-dash double-short-dash ____ __ __ ____
 72
    65
 73
     6
 40
45.0
 49
24.0
 74
     0
 49
-3.0
 74
     0
 49
6.0
 74
     0
 49
-3.0
 74
     0
 49
6.0
 74
     0
 49
-3.0
 74
     0
  0
LTYPE
  5
3C
330
5
100
AcDbSymbolTableRecord
100
AcDbLinetypeTableRecord
  2
ACAD_ISO10W100
 70
     0
  3
ISO dash dot __ . __ . __ . __ . __ . __ . __ .
 72
    65
 73
     4
 40
18.0
 49
12.0
 74
     0
 49
-3.0
 74
     0
 49
0.0
 74
     0
 49
-3.0
 74
     0
  0
LTYPE
  5
3D
330
5
100
AcDbSymbolTableRecord
100
AcDbLinetypeTableRecord
  2
ACAD_ISO11W100
 70
     0
  3
ISO double-dash dot __ __ . __ __ . __ __ . __ 
 72
    65
 73
     6
 40
33.0
 49
12.0
 74
     0
 49
-3.0
 74
     0
 49
12.0
 74
     0
 49
-3.0
 74
     0
 49
0.0
 74
     0
 49
-3.0
 74
     0
  0
LTYPE
  5
3E
330
5
100
AcDbSymbolTableRecord
100
AcDbLinetypeTableRecord
  2
ACAD_ISO12W100
 70
     0
  3
ISO dash double-dot __ . . __ . . __ . . __ . .
 72
    65
 73
     6
 40
21.0
 49
12.0
 74
     0
 49
-3.0
 74
     0
 49
0.0
 74
     0
 49
-3.0
 74
     0
 49
0.0
 74
     0
 49
-3.0
 74
     0
  0
LTYPE
  5
3F
330
5
100
AcDbSymbolTableRecord
100
AcDbLinetypeTableRecord
  2
ACAD_ISO13W100
 70
     0
  3
ISO double-dash double-dot __ __ . . __ __ . . 
 72
    65
 73
     8
 40
36.0
 49
12.0
 74
     0
 49
-3.0
 74
     0
 49
12.0
 74
     0
 49
-3.0
 74
     0
 49
0.0
 74
     0
 49
-3.0
 74
     0
 49
0.0
 74
     0
 49
-3.0
 74
     0
  0
LTYPE
  5
40
330
5
100
AcDbSymbolTableRecord
100
AcDbLinetypeTableRecord
  2
ACAD_ISO14W100
 70
     0
  3
ISO dash triple-dot __ . . . __ . . . __ . . . 
 72
    65
 73
     8
 40
24.0
 49
12.0
 74
     0
 49
-3.0
 74
     0
 49
0.0
 74
     0
 49
-3.0
 74
     0
 49
0.0
 74
     0
 49
-3.0
 74
     0
 49
0.0
 74
     0
 49
-3.0
 74
     0
  0
LTYPE
  5
41
330
5
100
AcDbSymbolTableRecord
100
AcDbLinetypeTableRecord
  2
ACAD_ISO15W100
 70
     0
  3
ISO double-dash triple-dot __ __ . . . __ __ . 
 72
    65
 73
    10
 40
39.0
 49
12.0
 74
     0
 49
-3.0
 74
     0
 49
12.0
 74
     0
 49
-3.0
 74
     0
 49
0.0
 74
     0
 49
-3.0
 74
     0
 49
0.0
 74
     0
 49
-3.0
 74
     0
 49
0.0
 74
     0
 49
-3.0
 74
     0
  0
LTYPE
  5
42
330
5
100
AcDbSymbolTableRecord
100
AcDbLinetypeTableRecord
  2
BATTING
 70
     0
  3
Batting SSSSSSSSSSSSSSSSSSSSSSSSSSSSSSSSSSSSSSS
 72
    65
 73
     4
 40
10.16254
 49
0.00254
 74
     0
 49
-2.54
 74
     4
 75
   134
340
33
 46
2.54
 50
0.0
 44
-2.54
 45
0.0
 49
-5.08
 74
     4
 75
   134
340
33
 46
2.54
 50
180.0
 44
2.54
 45
0.0
 49
-2.54
 74
     0
  0
LTYPE
  5
43
330
5
100
AcDbSymbolTableRecord
100
AcDbLinetypeTableRecord
  2
BORDER
 70
     0
  3
Border __ __ . __ __ . __ __ . __ __ . __ __ .
 72
    65
 73
     6
 40
44.45
 49
12.7
 74
     0
 49
-6.349999999999999
 74
     0
 49
12.7
 74
     0
 49
-6.349999999999999
 74
     0
 49
0.0
 74
     0
 49
-6.349999999999999
 74
     0
  0
LTYPE
  5
44
330
5
100
AcDbSymbolTableRecord
100
AcDbLinetypeTableRecord
  2
BORDER2
 70
     0
  3
Border (.5x) __.__.__.__.__.__.__.__.__.__.__.
 72
    65
 73
     6
 40
22.225
 49
6.349999999999999
 74
     0
 49
-3.174999999999999
 74
     0
 49
6.349999999999999
 74
     0
 49
-3.174999999999999
 74
     0
 49
0.0
 74
     0
 49
-3.174999999999999
 74
     0
  0
LTYPE
  5
45
330
5
100
AcDbSymbolTableRecord
100
AcDbLinetypeTableRecord
  2
BORDERX2
 70
     0
  3
Border (2x) ____  ____  .  ____  ____  .  ___
 72
    65
 73
     6
 40
88.9
 49
25.4
 74
     0
 49
-12.7
 74
     0
 49
25.4
 74
     0
 49
-12.7
 74
     0
 49
0.0
 74
     0
 49
-12.7
 74
     0
  0
LTYPE
  5
46
330
5
100
AcDbSymbolTableRecord
100
AcDbLinetypeTableRecord
  2
CENTER
 70
     0
  3
Center ____ _ ____ _ ____ _ ____ _ ____ _ ____
 72
    65
 73
     4
 40
50.8
 49
31.75
 74
     0
 49
-6.349999999999999
 74
     0
 49
6.349999999999999
 74
     0
 49
-6.349999999999999
 74
     0
  0
LTYPE
  5
47
330
5
100
AcDbSymbolTableRecord
100
AcDbLinetypeTableRecord
  2
CENTER2
 70
     0
  3
Center (.5x) ___ _ ___ _ ___ _ ___ _ ___ _ ___
 72
    65
 73
     4
 40
28.575
 49
19.05
 74
     0
 49
-3.174999999999999
 74
     0
 49
3.174999999999999
 74
     0
 49
-3.174999999999999
 74
     0
  0
LTYPE
  5
48
330
5
100
AcDbSymbolTableRecord
100
AcDbLinetypeTableRecord
  2
CENTERX2
 70
     0
  3
Center (2x) ________  __  ________  __  _____
 72
    65
 73
     4
 40
101.6
 49
63.5
 74
     0
 49
-12.7
 74
     0
 49
12.7
 74
     0
 49
-12.7
 74
     0
  0
LTYPE
  5
49
330
5
100
AcDbSymbolTableRecord
100
AcDbLinetypeTableRecord
  2
DASHDOT
 70
     0
  3
Dash dot __ . __ . __ . __ . __ . __ . __ . __
 72
    65
 73
     4
 40
25.4
 49
12.7
 74
     0
 49
-6.349999999999999
 74
     0
 49
0.0
 74
     0
 49
-6.349999999999999
 74
     0
  0
LTYPE
  5
4A
330
5
100
AcDbSymbolTableRecord
100
AcDbLinetypeTableRecord
  2
DASHDOT2
 70
     0
  3
Dash dot (.5x) _._._._._._._._._._._._._._._.
 72
    65
 73
     4
 40
12.7
 49
6.349999999999999
 74
     0
 49
-3.174999999999999
 74
     0
 49
0.0
 74
     0
 49
-3.174999999999999
 74
     0
  0
LTYPE
  5
4B
330
5
100
AcDbSymbolTableRecord
100
AcDbLinetypeTableRecord
  2
DASHDOTX2
 70
     0
  3
Dash dot (2x) ____  .  ____  .  ____  .  ___
 72
    65
 73
     4
 40
50.8
 49
25.4
 74
     0
 49
-12.7
 74
     0
 49
0.0
 74
     0
 49
-12.7
 74
     0
  0
LTYPE
  5
4C
330
5
100
AcDbSymbolTableRecord
100
AcDbLinetypeTableRecord
  2
DASHED
 70
     0
  3
Dashed __ __ __ __ __ __ __ __ __ __ __ __ __ _
 72
    65
 73
     2
 40
19.05
 49
12.7
 74
     0
 49
-6.349999999999999
 74
     0
  0
LTYPE
  5
4D
330
5
100
AcDbSymbolTableRecord
100
AcDbLinetypeTableRecord
  2
DASHED2
 70
     0
  3
Dashed (.5x) _ _ _ _ _ _ _ _ _ _ _ _ _ _ _ _ _
 72
    65
 73
     2
 40
9.524999999999998
 49
6.349999999999999
 74
     0
 49
-3.174999999999999
 74
     0
  0
LTYPE
  5
4E
330
5
100
AcDbSymbolTableRecord
100
AcDbLinetypeTableRecord
  2
DASHEDX2
 70
     0
  3
Dashed (2x) ____  ____  ____  ____  ____  ___
 72
    65
 73
     2
 40
38.1
 49
25.4
 74
     0
 49
-12.7
 74
     0
  0
LTYPE
  5
4F
330
5
100
AcDbSymbolTableRecord
100
AcDbLinetypeTableRecord
  2
DIVIDE
 70
     0
  3
Divide ____ . . ____ . . ____ . . ____ . . ____
 72
    65
 73
     6
 40
31.75
 49
12.7
 74
     0
 49
-6.349999999999999
 74
     0
 49
0.0
 74
     0
 49
-6.349999999999999
 74
     0
 49
0.0
 74
     0
 49
-6.349999999999999
 74
     0
  0
LTYPE
  5
50
330
5
100
AcDbSymbolTableRecord
100
AcDbLinetypeTableRecord
  2
DIVIDE2
 70
     0
  3
Divide (.5x) __..__..__..__..__..__..__..__.._
 72
    65
 73
     6
 40
15.875
 49
6.349999999999999
 74
     0
 49
-3.174999999999999
 74
     0
 49
0.0
 74
     0
 49
-3.174999999999999
 74
     0
 49
0.0
 74
     0
 49
-3.174999999999999
 74
     0
  0
LTYPE
  5
51
330
5
100
AcDbSymbolTableRecord
100
AcDbLinetypeTableRecord
  2
DIVIDEX2
 70
     0
  3
Divide (2x) ________  .  .  ________  .  .  _
 72
    65
 73
     6
 40
63.49999999999999
 49
25.4
 74
     0
 49
-12.7
 74
     0
 49
0.0
 74
     0
 49
-12.7
 74
     0
 49
0.0
 74
     0
 49
-12.7
 74
     0
  0
LTYPE
  5
52
330
5
100
AcDbSymbolTableRecord
100
AcDbLinetypeTableRecord
  2
DOT
 70
     0
  3
Dot . . . . . . . . . . . . . . . . . . . . . .
 72
    65
 73
     2
 40
6.349999999999999
 49
0.0
 74
     0
 49
-6.349999999999999
 74
     0
  0
LTYPE
  5
53
330
5
100
AcDbSymbolTableRecord
100
AcDbLinetypeTableRecord
  2
DOT2
 70
     0
  3
Dot (.5x) .....................................
 72
    65
 73
     2
 40
3.174999999999999
 49
0.0
 74
     0
 49
-3.174999999999999
 74
     0
  0
LTYPE
  5
54
330
5
100
AcDbSymbolTableRecord
100
AcDbLinetypeTableRecord
  2
DOTX2
 70
     0
  3
Dot (2x) .  .  .  .  .  .  .  .  .  .  .  .  . 
 72
    65
 73
     2
 40
12.7
 49
0.0
 74
     0
 49
-12.7
 74
     0
  0
LTYPE
  5
55
330
5
100
AcDbSymbolTableRecord
100
AcDbLinetypeTableRecord
  2
FENCELINE1
 70
     0
  3
Fenceline circle ----0-----0----0-----0----0---
 72
    65
 73
     4
 40
36.83
 49
6.349999999999999
 74
     0
 49
-2.54
 74
     4
 75
   133
340
33
 46
2.54
 50
0.0
 44
-2.54
 45
0.0
 49
-2.54
 74
     0
 49
25.4
 74
     0
  0
LTYPE
  5
56
330
5
100
AcDbSymbolTableRecord
100
AcDbLinetypeTableRecord
  2
FENCELINE2
 70
     0
  3
Fenceline square ----[]-----[]----[]-----[]----
 72
    65
 73
     4
 40
36.83
 49
6.349999999999999
 74
     0
 49
-2.54
 74
     4
 75
   132
340
33
 46
2.54
 50
0.0
 44
-2.54
 45
0.0
 49
-2.54
 74
     0
 49
25.4
 74
     0
  0
LTYPE
  5
57
330
5
100
AcDbSymbolTableRecord
100
AcDbLinetypeTableRecord
  2
GAS_LINE
 70
     0
  3
Gas line ----GAS----GAS----GAS----GAS----GAS---
 72
    65
 73
     3
 40
24.13
 49
12.7
 74
     0
 49
-5.08
 74
     2
 75
     0
340
11
 46
2.54
 50
0.0
 44
-2.54
 45
-1.27
  9
GAS
 49
-6.349999999999999
 74
     0
  0
LTYPE
  5
58
330
5
100
AcDbSymbolTableRecord
100
AcDbLinetypeTableRecord
  2
HIDDEN
 70
     0
  3
Hidden __ __ __ __ __ __ __ __ __ __ __ __ __ _
 72
    65
 73
     2
 40
9.524999999999998
 49
6.349999999999999
 74
     0
 49
-3.174999999999999
 74
     0
  0
LTYPE
  5
59
330
5
100
AcDbSymbolTableRecord
100
AcDbLinetypeTableRecord
  2
HIDDEN2
 70
     0
  3
Hidden (.5x) _ _ _ _ _ _ _ _ _ _ _ _ _ _ _ _ _
 72
    65
 73
     2
 40
4.762499999999999
 49
3.174999999999999
 74
     0
 49
-1.587499999999999
 74
     0
  0
LTYPE
  5
5A
330
5
100
AcDbSymbolTableRecord
100
AcDbLinetypeTableRecord
  2
HIDDENX2
 70
     0
  3
Hidden (2x) ____ ____ ____ ____ ____ ____ ____
 72
    65
 73
     2
 40
19.05
 49
12.7
 74
     0
 49
-6.349999999999999
 74
     0
  0
LTYPE
  5
5B
330
5
100
AcDbSymbolTableRecord
100
AcDbLinetypeTableRecord
  2
HOT_WATER_SUPPLY
 70
     0
  3
Hot water supply ---- HW ---- HW ---- HW ----
 72
    65
 73
     3
 40
22.86
 49
12.7
 74
     0
 49
-5.08
 74
     2
 75
     0
340
11
 46
2.54
 50
0.0
 44
-2.54
 45
-1.27
  9
HW
 49
-5.08
 74
     0
  0
LTYPE
  5
5C
330
5
100
AcDbSymbolTableRecord
100
AcDbLinetypeTableRecord
  2
PHANTOM
 70
     0
  3
Phantom ______  __  __  ______  __  __  ______
 72
    65
 73
     6
 40
63.5
 49
31.75
 74
     0
 49
-6.349999999999999
 74
     0
 49
6.349999999999999
 74
     0
 49
-6.349999999999999
 74
     0
 49
6.349999999999999
 74
     0
 49
-6.349999999999999
 74
     0
  0
LTYPE
  5
5D
330
5
100
AcDbSymbolTableRecord
100
AcDbLinetypeTableRecord
  2
PHANTOM2
 70
     0
  3
Phantom (.5x) ___ _ _ ___ _ _ ___ _ _ ___ _ _
 72
    65
 73
     6
 40
31.75
 49
15.875
 74
     0
 49
-3.174999999999999
 74
     0
 49
3.174999999999999
 74
     0
 49
-3.174999999999999
 74
     0
 49
3.174999999999999
 74
     0
 49
-3.174999999999999
 74
     0
  0
LTYPE
  5
5E
330
5
100
AcDbSymbolTableRecord
100
AcDbLinetypeTableRecord
  2
PHANTOMX2
 70
     0
  3
Phantom (2x) ____________    ____    ____   _
 72
    65
 73
     6
 40
127.0
 49
63.5
 74
     0
 49
-12.7
 74
     0
 49
12.7
 74
     0
 49
-12.7
 74
     0
 49
12.7
 74
     0
 49
-12.7
 74
     0
  0
LTYPE
  5
5F
330
5
100
AcDbSymbolTableRecord
100
AcDbLinetypeTableRecord
  2
TRACKS
 70
     0
  3
Tracks -|-|-|-|-|-|-|-|-|-|-|-|-|-|-|-|-|-|-|-|
 72
    65
 73
     2
 40
7.62
 49
3.81
 74
     4
 75
   130
340
33
 46
6.349999999999999
 50
0.0
 44
0.0
 45
0.0
 49
3.81
 74
     0
  0
LTYPE
  5
60
330
5
100
AcDbSymbolTableRecord
100
AcDbLinetypeTableRecord
  2
ZIGZAG
 70
     0
  3
Zig zag /\/\/\/\/\/\/\/\/\/\/\/\/\/\/\/\/\/\/\/
 72
    65
 73
     4
 40
20.32254
 49
0.00254
 74
     0
 49
-5.08
 74
     4
 75
   131
340
33
 46
5.08
 50
0.0
 44
-5.08
 45
0.0
 49
-10.16
 74
     4
 75
   131
340
33
 46
5.08
 50
180.0
 44
5.08
 45
0.0
 49
-5.08
 74
     0
  0
ENDTAB
  0
TABLE
  2
LAYER
  5
2
102
{ACAD_XDICTIONARY
360
16A9
102
}
330
0
100
AcDbSymbolTable
 70
     9
  0
LAYER
  5
10
330
2
100
AcDbSymbolTableRecord
100
AcDbLayerTableRecord
  2
0
 70
     0
 62
     7
  6
Continuous
370
    -3
390
F
  0
LAYER
  5
C3
330
2
100
AcDbSymbolTableRecord
100
AcDbLayerTableRecord
  2
Defpoints
 70
     0
 62
     7
  6
Continuous
290
     0
370
    -3
390
F
  0
LAYER
  5
256
330
2
100
AcDbSymbolTableRecord
100
AcDbLayerTableRecord
  2
センター
 70
     0
 62
     7
  6
CENTER2
370
    15
390
F
  0
LAYER
  5
268
330
2
100
AcDbSymbolTableRecord
100
AcDbLayerTableRecord
  2
実形
 70
     0
 62
     7
  6
Continuous
370
    -3
390
F
  0
LAYER
  5
269
330
2
100
AcDbSymbolTableRecord
100
AcDbLayerTableRecord
  2
補助
 70
     0
 62
     7
  6
Continuous
370
    -3
390
F
  0
LAYER
  5
26A
330
2
100
AcDbSymbolTableRecord
100
AcDbLayerTableRecord
  2
寸法
 70
     0
 62
     7
  6
Continuous
370
    -3
390
F
  0
LAYER
  5
26B
330
2
100
AcDbSymbolTableRecord
100
AcDbLayerTableRecord
  2
ハッチング
 70
     0
 62
     7
  6
Continuous
370
    18
390
F
  0
LAYER
  5
26D
330
2
100
AcDbSymbolTableRecord
100
AcDbLayerTableRecord
  2
文字
 70
     0
 62
     7
  6
Continuous
370
    -3
390
F
  0
LAYER
  5
FCC
330
2
100
AcDbSymbolTableRecord
100
AcDbLayerTableRecord
  2
Cen
 70
     0
 62
     7
  6
CENTER2
370
    15
390
F
  0
ENDTAB
  0
TABLE
  2
STYLE
  5
3
330
0
100
AcDbSymbolTable
 70
     5
  0
STYLE
  5
11
330
3
100
AcDbSymbolTableRecord
100
AcDbTextStyleTableRecord
  2
Standard
 70
     0
 40
0.0
 41
1.0
 50
0.0
 71
     0
 42
35.0
  3
txt.shx
  4
bigfont.shx
  0
STYLE
  5
33
330
3
100
AcDbSymbolTableRecord
100
AcDbTextStyleTableRecord
  2

 70
     1
 40
0.0
 41
1.0
 50
0.0
 71
     0
 42
2.5
  3
ltypeshp.shx
  4

  0
STYLE
  5
16D1
330
3
100
AcDbSymbolTableRecord
100
AcDbTextStyleTableRecord
  2
ｍｓ明朝
 70
     0
 40
0.0
 41
1.0
 50
0.0
 71
     0
 42
35.0
  3
MS Mincho.ttf
  4

1001
ACAD
1000
MS Mincho
1071
    32785
  0
STYLE
  5
1A20
330
3
100
AcDbSymbolTableRecord
100
AcDbTextStyleTableRecord
  2
MS明朝
 70
     0
 40
0.0
 41
1.0
 50
0.0
 71
     0
 42
35.0
  3
MS Mincho.ttf
  4

1001
ACAD
1000
MS Mincho
1071
    32785
  0
STYLE
  5
249D
330
3
100
AcDbSymbolTableRecord
100
AcDbTextStyleTableRecord
  2
明朝
 70
     0
 40
0.0
 41
1.0
 50
0.0
 71
     0
 42
25.0
  3
MS Mincho.ttf
  4

1001
ACAD
1000
MS Mincho
1071
    32785
  0
ENDTAB
  0
TABLE
  2
VIEW
  5
6
330
0
100
AcDbSymbolTable
 70
     0
  0
ENDTAB
  0
TABLE
  2
UCS
  5
7
330
0
100
AcDbSymbolTable
 70
     0
  0
ENDTAB
  0
TABLE
  2
APPID
  5
9
330
0
100
AcDbSymbolTable
 70
     2
  0
APPID
  5
12
330
9
100
AcDbSymbolTableRecord
100
AcDbRegAppTableRecord
  2
ACAD
 70
     0
  0
APPID
  5
17FB
330
9
100
AcDbSymbolTableRecord
100
AcDbRegAppTableRecord
  2
ACAD_PSEXT
 70
     0
  0
ENDTAB
  0
TABLE
  2
DIMSTYLE
  5
A
330
0
100
AcDbSymbolTable
 70
     1
100
AcDbDimStyleTable
 71
     1
340
27
  0
DIMSTYLE
105
27
102
{ACAD_REACTORS
330
50A
330
4E5
330
4FD
330
522
330
40C
330
41A
330
427
330
459
330
466
330
47C
330
492
330
4C3
330
1662
330
1719
330
19D0
330
19EF
330
1A0E
330
1AE2
330
1B01
330
1B20
330
1EB4
330
1EB5
330
1EB6
330
1EB7
330
1EB8
330
1FF4
330
1FF5
330
20ED
330
20EE
330
20EF
330
20F0
330
22D0
330
22DA
330
22DD
330
22DE
330
22E1
330
22E2
330
22E3
330
22E4
330
22E6
330
22E7
330
22E8
330
22E9
330
22EA
330
22EB
330
22F1
330
22F2
330
22F3
330
22FB
330
22FC
330
22FD
102
}
330
A
100
AcDbSymbolTableRecord
100
AcDbDimStyleTableRecord
  2
ISO-25
 70
     0
 41
35.0
 42
65.0
 43
3.75
 44
0.0
 73
     0
 74
     0
 77
     1
 78
     8
140
25.0
141
2.5
143
0.03937007874016
147
6.25
171
     3
172
     1
271
     2
272
     2
274
     3
283
     0
284
     8
340
11
341
DA
342
D0
371
    15
372
    15
  0
ENDTAB
  0
TABLE
  2
BLOCK_RECORD
  5
1
330
0
100
AcDbSymbolTable
 70
    78
  0
BLOCK_RECORD
  5
1F
102
{ACAD_XDICTIONARY
360
165D
102
}
330
1
100
AcDbSymbolTableRecord
100
AcDbBlockTableRecord
  2
*Model_Space
340
22
  0
BLOCK_RECORD
  5
1B
330
1
100
AcDbSymbolTableRecord
100
AcDbBlockTableRecord
  2
*Paper_Space
340
1E
  0
BLOCK_RECORD
  5
23
330
1
100
AcDbSymbolTableRecord
100
AcDbBlockTableRecord
  2
*Paper_Space0
340
26
  0
BLOCK_RECORD
  5
D0
330
1
100
AcDbSymbolTableRecord
100
AcDbBlockTableRecord
  2
_DotSmall
340
0
102
{BLKREFS
331
1D00
331
1D01
331
1D08
331
1D09
331
1D12
331
1D13
331
1D1A
331
1D1B
331
1D23
331
1D24
331
1D2D
331
1D2E
331
1D35
331
1D36
331
1D3F
331
1D40
331
1D49
331
1D4A
331
1D51
331
1D52
331
1D5B
331
1D5C
331
1D63
331
1D64
331
1D6C
331
1D6D
331
1D75
331
1D76
331
1D91
331
1D92
331
1D9A
331
1D9B
331
1DA2
331
1DA3
331
1DC7
331
1DC8
331
1DD0
331
1DD1
331
1DD8
331
1DD9
331
1F05
331
1F06
331
1F10
331
1F11
331
1F19
331
1F1A
331
1F21
331
1F22
331
1F2D
331
1F2E
331
2153
331
2154
331
215F
331
2160
331
2167
331
2168
331
2171
331
2172
331
2179
331
217A
331
2182
331
2183
331
24CB
331
24CC
331
24D5
331
24D6
331
24DD
331
24DE
331
24E7
331
24E8
331
24EF
331
24F0
331
24F8
331
24F9
331
2501
331
2502
331
250B
331
250C
331
2513
331
2514
331
251C
331
251D
331
2525
331
2526
331
252E
331
252F
331
2537
331
2538
331
2540
331
2541
331
2549
331
254A
331
2552
331
2553
331
255B
331
255C
331
2564
331
2565
331
256D
331
256E
331
2596
331
2597
331
25A3
331
25A4
331
25AE
331
25AF
331
25BB
331
25BC
331
25C6
331
25C7
331
25D2
331
25D3
331
25DE
331
25DF
331
25EB
331
25EC
331
25F6
331
25F7
331
2602
331
2603
331
260E
331
260F
331
261A
331
261B
331
2626
331
2627
331
2632
331
2633
331
263E
331
263F
331
264A
331
264B
331
2656
331
2657
331
2662
331
2663
331
266E
331
266F
102
}
  0
BLOCK_RECORD
  5
D4
330
1
100
AcDbSymbolTableRecord
100
AcDbBlockTableRecord
  2
_Origin2
340
0
  0
BLOCK_RECORD
  5
DA
330
1
100
AcDbSymbolTableRecord
100
AcDbBlockTableRecord
  2
_Open30
340
0
  0
BLOCK_RECORD
  5
40D
330
1
100
AcDbSymbolTableRecord
100
AcDbBlockTableRecord
  2
*D4
340
0
  0
BLOCK_RECORD
  5
41B
330
1
100
AcDbSymbolTableRecord
100
AcDbBlockTableRecord
  2
*D5
340
0
  0
BLOCK_RECORD
  5
428
330
1
100
AcDbSymbolTableRecord
100
AcDbBlockTableRecord
  2
*D6
340
0
  0
BLOCK_RECORD
  5
45A
330
1
100
AcDbSymbolTableRecord
100
AcDbBlockTableRecord
  2
*D7
340
0
  0
BLOCK_RECORD
  5
467
330
1
100
AcDbSymbolTableRecord
100
AcDbBlockTableRecord
  2
*D8
340
0
  0
BLOCK_RECORD
  5
47D
330
1
100
AcDbSymbolTableRecord
100
AcDbBlockTableRecord
  2
*D9
340
0
  0
BLOCK_RECORD
  5
493
330
1
100
AcDbSymbolTableRecord
100
AcDbBlockTableRecord
  2
*D10
340
0
  0
BLOCK_RECORD
  5
4C4
330
1
100
AcDbSymbolTableRecord
100
AcDbBlockTableRecord
  2
*D11
340
0
  0
BLOCK_RECORD
  5
4E6
330
1
100
AcDbSymbolTableRecord
100
AcDbBlockTableRecord
  2
*D12
340
0
  0
BLOCK_RECORD
  5
4FE
330
1
100
AcDbSymbolTableRecord
100
AcDbBlockTableRecord
  2
*D13
340
0
  0
BLOCK_RECORD
  5
50B
330
1
100
AcDbSymbolTableRecord
100
AcDbBlockTableRecord
  2
*D14
340
0
  0
BLOCK_RECORD
  5
523
330
1
100
AcDbSymbolTableRecord
100
AcDbBlockTableRecord
  2
*D15
340
0
  0
BLOCK_RECORD
  5
1663
330
1
100
AcDbSymbolTableRecord
100
AcDbBlockTableRecord
  2
*D16
340
0
  0
BLOCK_RECORD
  5
171A
330
1
100
AcDbSymbolTableRecord
100
AcDbBlockTableRecord
  2
*D17
340
0
  0
BLOCK_RECORD
  5
19D1
330
1
100
AcDbSymbolTableRecord
100
AcDbBlockTableRecord
  2
*D18
340
0
  0
BLOCK_RECORD
  5
19F0
330
1
100
AcDbSymbolTableRecord
100
AcDbBlockTableRecord
  2
*D19
340
0
  0
BLOCK_RECORD
  5
1A0F
330
1
100
AcDbSymbolTableRecord
100
AcDbBlockTableRecord
  2
*D20
340
0
  0
BLOCK_RECORD
  5
1A1B
330
1
100
AcDbSymbolTableRecord
100
AcDbBlockTableRecord
  2
_Dot
340
0
  0
BLOCK_RECORD
  5
1A2B
102
{ACAD_XDICTIONARY
360
1A2E
102
}
330
1
100
AcDbSymbolTableRecord
100
AcDbBlockTableRecord
  2
A$C36582933
340
0
  0
BLOCK_RECORD
  5
1AE3
330
1
100
AcDbSymbolTableRecord
100
AcDbBlockTableRecord
  2
*D23
340
0
  0
BLOCK_RECORD
  5
1B02
330
1
100
AcDbSymbolTableRecord
100
AcDbBlockTableRecord
  2
*D24
340
0
  0
BLOCK_RECORD
  5
1B21
330
1
100
AcDbSymbolTableRecord
100
AcDbBlockTableRecord
  2
*D25
340
0
  0
BLOCK_RECORD
  5
1EC1
330
1
100
AcDbSymbolTableRecord
100
AcDbBlockTableRecord
  2
*D26
340
0
  0
BLOCK_RECORD
  5
1ECD
330
1
100
AcDbSymbolTableRecord
100
AcDbBlockTableRecord
  2
*D27
340
0
  0
BLOCK_RECORD
  5
1EDB
330
1
100
AcDbSymbolTableRecord
100
AcDbBlockTableRecord
  2
*D28
340
0
  0
BLOCK_RECORD
  5
1EE7
330
1
100
AcDbSymbolTableRecord
100
AcDbBlockTableRecord
  2
*D29
340
0
  0
BLOCK_RECORD
  5
1EF3
330
1
100
AcDbSymbolTableRecord
100
AcDbBlockTableRecord
  2
*D30
340
0
  0
BLOCK_RECORD
  5
204E
330
1
100
AcDbSymbolTableRecord
100
AcDbBlockTableRecord
  2
*D31
340
0
  0
BLOCK_RECORD
  5
205A
330
1
100
AcDbSymbolTableRecord
100
AcDbBlockTableRecord
  2
*D32
340
0
  0
BLOCK_RECORD
  5
20F5
330
1
100
AcDbSymbolTableRecord
100
AcDbBlockTableRecord
  2
*D33
340
0
  0
BLOCK_RECORD
  5
2101
330
1
100
AcDbSymbolTableRecord
100
AcDbBlockTableRecord
  2
*D34
340
0
  0
BLOCK_RECORD
  5
210D
330
1
100
AcDbSymbolTableRecord
100
AcDbBlockTableRecord
  2
*D35
340
0
  0
BLOCK_RECORD
  5
211B
330
1
100
AcDbSymbolTableRecord
100
AcDbBlockTableRecord
  2
*D36
340
0
  0
BLOCK_RECORD
  5
22FF
330
1
100
AcDbSymbolTableRecord
100
AcDbBlockTableRecord
  2
*D37
340
0
  0
BLOCK_RECORD
  5
2308
330
1
100
AcDbSymbolTableRecord
100
AcDbBlockTableRecord
  2
*D38
340
0
  0
BLOCK_RECORD
  5
2314
330
1
100
AcDbSymbolTableRecord
100
AcDbBlockTableRecord
  2
*D39
340
0
  0
BLOCK_RECORD
  5
2320
330
1
100
AcDbSymbolTableRecord
100
AcDbBlockTableRecord
  2
*D40
340
0
  0
BLOCK_RECORD
  5
232C
330
1
100
AcDbSymbolTableRecord
100
AcDbBlockTableRecord
  2
*D41
340
0
  0
BLOCK_RECORD
  5
2338
330
1
100
AcDbSymbolTableRecord
100
AcDbBlockTableRecord
  2
*D42
340
0
  0
BLOCK_RECORD
  5
2344
330
1
100
AcDbSymbolTableRecord
100
AcDbBlockTableRecord
  2
*D43
340
0
  0
BLOCK_RECORD
  5
2350
330
1
100
AcDbSymbolTableRecord
100
AcDbBlockTableRecord
  2
*D44
340
0
  0
BLOCK_RECORD
  5
235C
330
1
100
AcDbSymbolTableRecord
100
AcDbBlockTableRecord
  2
*D45
340
0
  0
BLOCK_RECORD
  5
2368
330
1
100
AcDbSymbolTableRecord
100
AcDbBlockTableRecord
  2
*D46
340
0
  0
BLOCK_RECORD
  5
2374
330
1
100
AcDbSymbolTableRecord
100
AcDbBlockTableRecord
  2
*D47
340
0
  0
BLOCK_RECORD
  5
2380
330
1
100
AcDbSymbolTableRecord
100
AcDbBlockTableRecord
  2
*D48
340
0
  0
BLOCK_RECORD
  5
238C
330
1
100
AcDbSymbolTableRecord
100
AcDbBlockTableRecord
  2
*D49
340
0
  0
BLOCK_RECORD
  5
2398
330
1
100
AcDbSymbolTableRecord
100
AcDbBlockTableRecord
  2
*D50
340
0
  0
BLOCK_RECORD
  5
23A4
330
1
100
AcDbSymbolTableRecord
100
AcDbBlockTableRecord
  2
*D51
340
0
  0
BLOCK_RECORD
  5
23B0
330
1
100
AcDbSymbolTableRecord
100
AcDbBlockTableRecord
  2
*D52
340
0
  0
BLOCK_RECORD
  5
23BC
330
1
100
AcDbSymbolTableRecord
100
AcDbBlockTableRecord
  2
*D53
340
0
  0
BLOCK_RECORD
  5
23C8
330
1
100
AcDbSymbolTableRecord
100
AcDbBlockTableRecord
  2
*D54
340
0
  0
BLOCK_RECORD
  5
23D4
330
1
100
AcDbSymbolTableRecord
100
AcDbBlockTableRecord
  2
*D55
340
0
  0
BLOCK_RECORD
  5
23E0
330
1
100
AcDbSymbolTableRecord
100
AcDbBlockTableRecord
  2
*D56
340
0
  0
BLOCK_RECORD
  5
2588
330
1
100
AcDbSymbolTableRecord
100
AcDbBlockTableRecord
  2
*D57
340
0
  0
BLOCK_RECORD
  5
2591
330
1
100
AcDbSymbolTableRecord
100
AcDbBlockTableRecord
  2
*D58
340
0
  0
BLOCK_RECORD
  5
259D
330
1
100
AcDbSymbolTableRecord
100
AcDbBlockTableRecord
  2
*D59
340
0
  0
BLOCK_RECORD
  5
25A9
330
1
100
AcDbSymbolTableRecord
100
AcDbBlockTableRecord
  2
*D60
340
0
  0
BLOCK_RECORD
  5
25B5
330
1
100
AcDbSymbolTableRecord
100
AcDbBlockTableRecord
  2
*D61
340
0
  0
BLOCK_RECORD
  5
25C1
330
1
100
AcDbSymbolTableRecord
100
AcDbBlockTableRecord
  2
*D62
340
0
  0
BLOCK_RECORD
  5
25CD
330
1
100
AcDbSymbolTableRecord
100
AcDbBlockTableRecord
  2
*D63
340
0
  0
BLOCK_RECORD
  5
25D9
330
1
100
AcDbSymbolTableRecord
100
AcDbBlockTableRecord
  2
*D64
340
0
  0
BLOCK_RECORD
  5
25E5
330
1
100
AcDbSymbolTableRecord
100
AcDbBlockTableRecord
  2
*D65
340
0
  0
BLOCK_RECORD
  5
25F1
330
1
100
AcDbSymbolTableRecord
100
AcDbBlockTableRecord
  2
*D66
340
0
  0
BLOCK_RECORD
  5
25FD
330
1
100
AcDbSymbolTableRecord
100
AcDbBlockTableRecord
  2
*D67
340
0
  0
BLOCK_RECORD
  5
2609
330
1
100
AcDbSymbolTableRecord
100
AcDbBlockTableRecord
  2
*D68
340
0
  0
BLOCK_RECORD
  5
2615
330
1
100
AcDbSymbolTableRecord
100
AcDbBlockTableRecord
  2
*D69
340
0
  0
BLOCK_RECORD
  5
2621
330
1
100
AcDbSymbolTableRecord
100
AcDbBlockTableRecord
  2
*D70
340
0
  0
BLOCK_RECORD
  5
262D
330
1
100
AcDbSymbolTableRecord
100
AcDbBlockTableRecord
  2
*D71
340
0
  0
BLOCK_RECORD
  5
2639
330
1
100
AcDbSymbolTableRecord
100
AcDbBlockTableRecord
  2
*D72
340
0
  0
BLOCK_RECORD
  5
2645
330
1
100
AcDbSymbolTableRecord
100
AcDbBlockTableRecord
  2
*D73
340
0
  0
BLOCK_RECORD
  5
2651
330
1
100
AcDbSymbolTableRecord
100
AcDbBlockTableRecord
  2
*D74
340
0
  0
BLOCK_RECORD
  5
265D
330
1
100
AcDbSymbolTableRecord
100
AcDbBlockTableRecord
  2
*D75
340
0
  0
BLOCK_RECORD
  5
2669
330
1
100
AcDbSymbolTableRecord
100
AcDbBlockTableRecord
  2
*D76
340
0
  0
BLOCK_RECORD
  5
2675
102
{ACAD_XDICTIONARY
360
26C7
102
}
330
1
100
AcDbSymbolTableRecord
100
AcDbBlockTableRecord
  2
A$C58C12495
340
0
  0
ENDTAB
  0
ENDSEC
  0
SECTION
  2
BLOCKS
  0
BLOCK
  5
20
330
1F
100
AcDbEntity
  8
0
100
AcDbBlockBegin
  2
*Model_Space
 70
     0
 10
0.0
 20
0.0
 30
0.0
  3
*Model_Space
  1

  0
ENDBLK
  5
21
330
1F
100
AcDbEntity
  8
0
100
AcDbBlockEnd
  0
BLOCK
  5
1C
330
1B
100
AcDbEntity
 67
     1
  8
0
100
AcDbBlockBegin
  2
*Paper_Space
 70
     0
 10
0.0
 20
0.0
 30
0.0
  3
*Paper_Space
  1

  0
ENDBLK
  5
1D
330
1B
100
AcDbEntity
 67
     1
  8
0
100
AcDbBlockEnd
  0
BLOCK
  5
24
330
23
100
AcDbEntity
  8
0
100
AcDbBlockBegin
  2
*Paper_Space0
 70
     0
 10
0.0
 20
0.0
 30
0.0
  3
*Paper_Space0
  1

  0
ENDBLK
  5
25
330
23
100
AcDbEntity
  8
0
100
AcDbBlockEnd
  0
BLOCK
  5
D2
330
D0
100
AcDbEntity
  8
0
100
AcDbBlockBegin
  2
_DotSmall
 70
     0
 10
0.0
 20
0.0
 30
0.0
  3
_DotSmall
  1

  0
LWPOLYLINE
  5
D1
330
D0
100
AcDbEntity
  8
0
 62
     0
100
AcDbPolyline
 90
        2
 70
     1
 43
0.5
 10
-0.0625
 20
0.0
 42
1.0
 10
0.0625
 20
0.0
 42
1.0
  0
ENDBLK
  5
D3
330
D0
100
AcDbEntity
  8
0
100
AcDbBlockEnd
  0
BLOCK
  5
D8
330
D4
100
AcDbEntity
  8
0
100
AcDbBlockBegin
  2
_Origin2
 70
     0
 10
0.0
 20
0.0
 30
0.0
  3
_Origin2
  1

  0
CIRCLE
  5
D5
330
D4
100
AcDbEntity
  8
0
 62
     0
370
    -2
100
AcDbCircle
 10
0.0
 20
0.0
 30
0.0
 40
0.5
  0
CIRCLE
  5
D6
330
D4
100
AcDbEntity
  8
0
 62
     0
370
    -2
100
AcDbCircle
 10
0.0
 20
0.0
 30
0.0
 40
0.25
  0
LINE
  5
D7
330
D4
100
AcDbEntity
  8
0
 62
     0
370
    -2
100
AcDbLine
 10
-0.5
 20
0.0
 30
0.0
 11
-1.0
 21
0.0
 31
0.0
  0
ENDBLK
  5
D9
330
D4
100
AcDbEntity
  8
0
100
AcDbBlockEnd
  0
BLOCK
  5
DE
330
DA
100
AcDbEntity
  8
0
100
AcDbBlockBegin
  2
_Open30
 70
     0
 10
0.0
 20
0.0
 30
0.0
  3
_Open30
  1

  0
LINE
  5
DB
330
DA
100
AcDbEntity
  8
0
 62
     0
370
    -2
100
AcDbLine
 10
-1.0
 20
0.26794919
 30
0.0
 11
0.0
 21
0.0
 31
0.0
  0
LINE
  5
DC
330
DA
100
AcDbEntity
  8
0
 62
     0
370
    -2
100
AcDbLine
 10
0.0
 20
0.0
 30
0.0
 11
-1.0
 21
-0.26794919
 31
0.0
  0
LINE
  5
DD
330
DA
100
AcDbEntity
  8
0
 62
     0
370
    -2
100
AcDbLine
 10
0.0
 20
0.0
 30
0.0
 11
-1.0
 21
0.0
 31
0.0
  0
ENDBLK
  5
DF
330
DA
100
AcDbEntity
  8
0
100
AcDbBlockEnd
  0
BLOCK
  5
418
330
40D
100
AcDbEntity
  8
0
100
AcDbBlockBegin
  2
*D4
 70
     1
 10
0.0
 20
0.0
 30
0.0
  3
*D4
  1

  0
LINE
  5
1CFC
330
40D
100
AcDbEntity
  8
寸法
 62
     0
370
    15
100
AcDbLine
 10
401.5460038203873
 20
1071.380107849272
 30
0.0
 11
362.6620879271897
 21
1071.380107849272
 31
0.0
  0
LINE
  5
1CFD
330
40D
100
AcDbEntity
  8
寸法
 62
     0
370
    15
100
AcDbLine
 10
401.5460038203873
 20
1086.380107849272
 30
0.0
 11
362.6620879271897
 21
1086.380107849272
 31
0.0
  0
LINE
  5
1CFE
330
40D
100
AcDbEntity
  8
寸法
 62
     0
370
    15
100
AcDbLine
 10
362.6620879271897
 20
1071.380107849272
 30
0.0
 11
362.6620879271897
 21
1086.380107849272
 31
0.0
  0
MTEXT
  5
1CFF
330
40D
100
AcDbEntity
  8
寸法
 62
     0
100
AcDbMText
 10
338.3474644574808
 20
1096.383300611007
 30
0.0
 40
25.0
 41
0.0
 71
     5
 72
     1
  1
15
 11
0.0000000000000001
 21
1.0
 31
0.0
 73
     1
 44
1.0
1001
ACAD
1000
MTEXTBEGIN
1070
    73
1070
     1
1070
    44
1040
1.0
1070
    74
1070
     0
1000
MTEXTEND
  0
INSERT
  5
1D00
330
40D
100
AcDbEntity
  8
寸法
 62
     0
370
    15
100
AcDbBlockReference
  2
_DotSmall
 10
362.6620879271897
 20
1071.380107849272
 30
0.0
 41
35.0
 42
35.0
 43
35.0
 50
270.0
  0
INSERT
  5
1D01
330
40D
100
AcDbEntity
  8
寸法
 62
     0
370
    15
100
AcDbBlockReference
  2
_DotSmall
 10
362.6620879271897
 20
1086.380107849272
 30
0.0
 41
35.0
 42
35.0
 43
35.0
 50
90.0
  0
POINT
  5
1D02
330
40D
100
AcDbEntity
  8
Defpoints
 62
     0
100
AcDbPoint
 10
466.5460038203873
 20
1071.380107849272
 30
0.0
  0
POINT
  5
1D03
330
40D
100
AcDbEntity
  8
Defpoints
 62
     0
100
AcDbPoint
 10
466.5460038203873
 20
1086.380107849272
 30
0.0
  0
POINT
  5
1D04
330
40D
100
AcDbEntity
  8
Defpoints
 62
     0
100
AcDbPoint
 10
362.6620879271897
 20
1086.380107849272
 30
0.0
  0
ENDBLK
  5
419
330
40D
100
AcDbEntity
  8
0
100
AcDbBlockEnd
  0
BLOCK
  5
425
330
41B
100
AcDbEntity
  8
0
100
AcDbBlockBegin
  2
*D5
 70
     1
 10
0.0
 20
0.0
 30
0.0
  3
*D5
  1

  0
LINE
  5
1D05
330
41B
100
AcDbEntity
  8
寸法
 62
     0
370
    15
100
AcDbLine
 10
401.5460038203873
 20
1086.380107849272
 30
0.0
 11
362.7503429588278
 21
1086.380107849272
 31
0.0
  0
LINE
  5
1D06
330
41B
100
AcDbEntity
  8
寸法
 62
     0
370
    15
100
AcDbLine
 10
401.5460038203873
 20
1496.380107849272
 30
0.0
 11
362.7503429588279
 21
1496.380107849272
 31
0.0
  0
LINE
  5
1D07
330
41B
100
AcDbEntity
  8
寸法
 62
     0
370
    15
100
AcDbLine
 10
362.7503429588278
 20
1086.380107849272
 30
0.0
 11
362.7503429588279
 21
1496.380107849272
 31
0.0
  0
INSERT
  5
1D08
330
41B
100
AcDbEntity
  8
寸法
 62
     0
370
    15
100
AcDbBlockReference
  2
_DotSmall
 10
362.7503429588278
 20
1086.380107849272
 30
0.0
 41
35.0
 42
35.0
 43
35.0
 50
270.0
  0
INSERT
  5
1D09
330
41B
100
AcDbEntity
  8
寸法
 62
     0
370
    15
100
AcDbBlockReference
  2
_DotSmall
 10
362.7503429588279
 20
1496.380107849272
 30
0.0
 41
35.0
 42
35.0
 43
35.0
 50
90.0
  0
MTEXT
  5
1D0A
330
41B
100
AcDbEntity
  8
寸法
 62
     0
100
AcDbMText
 10
344.0003429588276
 20
1291.380107849272
 30
0.0
 40
25.0
 41
0.0
 71
     5
 72
     1
  1
410
 11
0.0000000000000001
 21
1.0
 31
0.0
 73
     1
 44
1.0
1001
ACAD
1000
MTEXTBEGIN
1070
    73
1070
     1
1070
    44
1040
1.0
1070
    74
1070
     0
1000
MTEXTEND
  0
POINT
  5
1D0B
330
41B
100
AcDbEntity
  8
Defpoints
 62
     0
100
AcDbPoint
 10
466.5460038203873
 20
1086.380107849272
 30
0.0
  0
POINT
  5
1D0C
330
41B
100
AcDbEntity
  8
Defpoints
 62
     0
100
AcDbPoint
 10
466.5460038203873
 20
1496.380107849272
 30
0.0
  0
POINT
  5
1D0D
330
41B
100
AcDbEntity
  8
Defpoints
 62
     0
100
AcDbPoint
 10
362.7503429588279
 20
1496.380107849272
 30
0.0
  0
ENDBLK
  5
426
330
41B
100
AcDbEntity
  8
0
100
AcDbBlockEnd
  0
BLOCK
  5
432
330
428
100
AcDbEntity
  8
0
100
AcDbBlockBegin
  2
*D6
 70
     1
 10
0.0
 20
0.0
 30
0.0
  3
*D6
  1

  0
LINE
  5
1D0E
330
428
100
AcDbEntity
  8
寸法
 62
     0
370
    15
100
AcDbLine
 10
401.5460038203873
 20
1496.380107849272
 30
0.0
 11
362.7503429588279
 21
1496.380107849272
 31
0.0
  0
LINE
  5
1D0F
330
428
100
AcDbEntity
  8
寸法
 62
     0
370
    15
100
AcDbLine
 10
401.5460038203873
 20
1511.380107849272
 30
0.0
 11
362.7503429588279
 21
1511.380107849272
 31
0.0
  0
LINE
  5
1D10
330
428
100
AcDbEntity
  8
寸法
 62
     0
370
    15
100
AcDbLine
 10
362.7503429588279
 20
1496.380107849272
 30
0.0
 11
362.7503429588279
 21
1511.380107849272
 31
0.0
  0
MTEXT
  5
1D11
330
428
100
AcDbEntity
  8
寸法
 62
     0
100
AcDbMText
 10
335.3081323525576
 20
1488.146959392325
 30
0.0
 40
25.0
 41
0.0
 71
     5
 72
     1
  1
15
 11
0.0000000000000001
 21
1.0
 31
0.0
 73
     1
 44
1.0
1001
ACAD
1000
MTEXTBEGIN
1070
    73
1070
     1
1070
    44
1040
1.0
1070
    74
1070
     0
1000
MTEXTEND
  0
INSERT
  5
1D12
330
428
100
AcDbEntity
  8
寸法
 62
     0
370
    15
100
AcDbBlockReference
  2
_DotSmall
 10
362.7503429588279
 20
1496.380107849272
 30
0.0
 41
35.0
 42
35.0
 43
35.0
 50
270.0
  0
INSERT
  5
1D13
330
428
100
AcDbEntity
  8
寸法
 62
     0
370
    15
100
AcDbBlockReference
  2
_DotSmall
 10
362.7503429588279
 20
1511.380107849272
 30
0.0
 41
35.0
 42
35.0
 43
35.0
 50
90.0
  0
POINT
  5
1D14
330
428
100
AcDbEntity
  8
Defpoints
 62
     0
100
AcDbPoint
 10
466.5460038203873
 20
1496.380107849272
 30
0.0
  0
POINT
  5
1D15
330
428
100
AcDbEntity
  8
Defpoints
 62
     0
100
AcDbPoint
 10
466.5460038203873
 20
1511.380107849272
 30
0.0
  0
POINT
  5
1D16
330
428
100
AcDbEntity
  8
Defpoints
 62
     0
100
AcDbPoint
 10
362.7503429588279
 20
1511.380107849272
 30
0.0
  0
ENDBLK
  5
433
330
428
100
AcDbEntity
  8
0
100
AcDbBlockEnd
  0
BLOCK
  5
464
330
45A
100
AcDbEntity
  8
0
100
AcDbBlockBegin
  2
*D7
 70
     1
 10
0.0
 20
0.0
 30
0.0
  3
*D7
  1

  0
LINE
  5
1D17
330
45A
100
AcDbEntity
  8
寸法
 62
     0
370
    15
100
AcDbLine
 10
401.5460038203873
 20
1511.380107849272
 30
0.0
 11
286.2579007192709
 21
1511.380107849272
 31
0.0
  0
LINE
  5
1D18
330
45A
100
AcDbEntity
  8
寸法
 62
     0
370
    15
100
AcDbLine
 10
401.5460038203873
 20
1071.380107849272
 30
0.0
 11
286.2579007192707
 21
1071.380107849272
 31
0.0
  0
LINE
  5
1D19
330
45A
100
AcDbEntity
  8
寸法
 62
     0
370
    15
100
AcDbLine
 10
286.2579007192709
 20
1511.380107849272
 30
0.0
 11
286.2579007192707
 21
1071.380107849272
 31
0.0
  0
INSERT
  5
1D1A
330
45A
100
AcDbEntity
  8
寸法
 62
     0
370
    15
100
AcDbBlockReference
  2
_DotSmall
 10
286.2579007192709
 20
1511.380107849272
 30
0.0
 41
35.0
 42
35.0
 43
35.0
 50
90.0
  0
INSERT
  5
1D1B
330
45A
100
AcDbEntity
  8
寸法
 62
     0
370
    15
100
AcDbBlockReference
  2
_DotSmall
 10
286.2579007192707
 20
1071.380107849272
 30
0.0
 41
35.0
 42
35.0
 43
35.0
 50
270.0
  0
MTEXT
  5
1D1C
330
45A
100
AcDbEntity
  8
寸法
 62
     0
100
AcDbMText
 10
267.5079007192706
 20
1291.380107849272
 30
0.0
 40
25.0
 41
0.0
 71
     5
 72
     1
  1
440
 11
0.0000000000000001
 21
1.0
 31
0.0
 73
     1
 44
1.0
1001
ACAD
1000
MTEXTBEGIN
1070
    73
1070
     1
1070
    44
1040
1.0
1070
    74
1070
     0
1000
MTEXTEND
  0
POINT
  5
1D1D
330
45A
100
AcDbEntity
  8
Defpoints
 62
     0
100
AcDbPoint
 10
466.5460038203873
 20
1511.380107849272
 30
0.0
  0
POINT
  5
1D1E
330
45A
100
AcDbEntity
  8
Defpoints
 62
     0
100
AcDbPoint
 10
466.5460038203873
 20
1071.380107849272
 30
0.0
  0
POINT
  5
1D1F
330
45A
100
AcDbEntity
  8
Defpoints
 62
     0
100
AcDbPoint
 10
286.2579007192707
 20
1071.380107849272
 30
0.0
  0
ENDBLK
  5
465
330
45A
100
AcDbEntity
  8
0
100
AcDbBlockEnd
  0
BLOCK
  5
471
330
467
100
AcDbEntity
  8
0
100
AcDbBlockBegin
  2
*D8
 70
     1
 10
0.0
 20
0.0
 30
0.0
  3
*D8
  1

  0
LINE
  5
1D20
330
467
100
AcDbEntity
  8
寸法
 62
     0
370
    15
100
AcDbLine
 10
401.5460038203873
 20
1511.380107849272
 30
0.0
 11
286.2579007192707
 21
1511.380107849272
 31
0.0
  0
LINE
  5
1D21
330
467
100
AcDbEntity
  8
寸法
 62
     0
370
    15
100
AcDbLine
 10
401.5460038203873
 20
1591.380107849272
 30
0.0
 11
286.2579007192707
 21
1591.380107849272
 31
0.0
  0
LINE
  5
1D22
330
467
100
AcDbEntity
  8
寸法
 62
     0
370
    15
100
AcDbLine
 10
286.2579007192707
 20
1511.380107849272
 30
0.0
 11
286.2579007192707
 21
1591.380107849272
 31
0.0
  0
INSERT
  5
1D23
330
467
100
AcDbEntity
  8
寸法
 62
     0
370
    15
100
AcDbBlockReference
  2
_DotSmall
 10
286.2579007192707
 20
1511.380107849272
 30
0.0
 41
35.0
 42
35.0
 43
35.0
 50
270.0
  0
INSERT
  5
1D24
330
467
100
AcDbEntity
  8
寸法
 62
     0
370
    15
100
AcDbBlockReference
  2
_DotSmall
 10
286.2579007192707
 20
1591.380107849272
 30
0.0
 41
35.0
 42
35.0
 43
35.0
 50
90.0
  0
MTEXT
  5
1D25
330
467
100
AcDbEntity
  8
寸法
 62
     0
100
AcDbMText
 10
267.5079007192705
 20
1551.380107849272
 30
0.0
 40
25.0
 41
0.0
 71
     5
 72
     1
  1
80
 11
0.0000000000000001
 21
1.0
 31
0.0
 73
     1
 44
1.0
1001
ACAD
1000
MTEXTBEGIN
1070
    73
1070
     1
1070
    44
1040
1.0
1070
    74
1070
     0
1000
MTEXTEND
  0
POINT
  5
1D26
330
467
100
AcDbEntity
  8
Defpoints
 62
     0
100
AcDbPoint
 10
466.5460038203873
 20
1511.380107849272
 30
0.0
  0
POINT
  5
1D27
330
467
100
AcDbEntity
  8
Defpoints
 62
     0
100
AcDbPoint
 10
466.5460038203873
 20
1591.380107849272
 30
0.0
  0
POINT
  5
1D28
330
467
100
AcDbEntity
  8
Defpoints
 62
     0
100
AcDbPoint
 10
286.2579007192707
 20
1591.380107849272
 30
0.0
  0
ENDBLK
  5
472
330
467
100
AcDbEntity
  8
0
100
AcDbBlockEnd
  0
BLOCK
  5
487
330
47D
100
AcDbEntity
  8
0
100
AcDbBlockBegin
  2
*D9
 70
     1
 10
0.0
 20
0.0
 30
0.0
  3
*D9
  1

  0
LINE
  5
1D29
330
47D
100
AcDbEntity
  8
寸法
 62
     0
370
    15
100
AcDbLine
 10
401.5460038203873
 20
1591.380107849272
 30
0.0
 11
286.2579007192707
 21
1591.380107849272
 31
0.0
  0
LINE
  5
1D2A
330
47D
100
AcDbEntity
  8
寸法
 62
     0
370
    15
100
AcDbLine
 10
401.5460038203873
 20
1606.380107849272
 30
0.0
 11
286.2579007192707
 21
1606.380107849272
 31
0.0
  0
LINE
  5
1D2B
330
47D
100
AcDbEntity
  8
寸法
 62
     0
370
    15
100
AcDbLine
 10
286.2579007192707
 20
1591.380107849272
 30
0.0
 11
286.2579007192707
 21
1606.380107849272
 31
0.0
  0
MTEXT
  5
1D2C
330
47D
100
AcDbEntity
  8
寸法
 62
     0
100
AcDbMText
 10
278.0229910246726
 20
1633.306827129605
 30
0.0
 40
25.0
 41
0.0
 71
     5
 72
     1
  1
15
 11
0.0000000000000001
 21
1.0
 31
0.0
 73
     1
 44
1.0
1001
ACAD
1000
MTEXTBEGIN
1070
    73
1070
     1
1070
    44
1040
1.0
1070
    74
1070
     0
1000
MTEXTEND
  0
INSERT
  5
1D2D
330
47D
100
AcDbEntity
  8
寸法
 62
     0
370
    15
100
AcDbBlockReference
  2
_DotSmall
 10
286.2579007192707
 20
1591.380107849272
 30
0.0
 41
35.0
 42
35.0
 43
35.0
 50
270.0
  0
INSERT
  5
1D2E
330
47D
100
AcDbEntity
  8
寸法
 62
     0
370
    15
100
AcDbBlockReference
  2
_DotSmall
 10
286.2579007192707
 20
1606.380107849272
 30
0.0
 41
35.0
 42
35.0
 43
35.0
 50
90.0
  0
POINT
  5
1D2F
330
47D
100
AcDbEntity
  8
Defpoints
 62
     0
100
AcDbPoint
 10
466.5460038203873
 20
1591.380107849272
 30
0.0
  0
POINT
  5
1D30
330
47D
100
AcDbEntity
  8
Defpoints
 62
     0
100
AcDbPoint
 10
466.5460038203873
 20
1606.380107849272
 30
0.0
  0
POINT
  5
1D31
330
47D
100
AcDbEntity
  8
Defpoints
 62
     0
100
AcDbPoint
 10
286.2579007192707
 20
1606.380107849272
 30
0.0
  0
ENDBLK
  5
488
330
47D
100
AcDbEntity
  8
0
100
AcDbBlockEnd
  0
BLOCK
  5
49D
330
493
100
AcDbEntity
  8
0
100
AcDbBlockBegin
  2
*D10
 70
     1
 10
0.0
 20
0.0
 30
0.0
  3
*D10
  1

  0
LINE
  5
1D32
330
493
100
AcDbEntity
  8
寸法
 62
     0
370
    15
100
AcDbLine
 10
401.5460038203873
 20
1606.380107849272
 30
0.0
 11
208.7091170090927
 21
1606.380107849272
 31
0.0
  0
LINE
  5
1D33
330
493
100
AcDbEntity
  8
寸法
 62
     0
370
    15
100
AcDbLine
 10
401.5460038203873
 20
1056.380107849272
 30
0.0
 11
208.7091170090925
 21
1056.380107849272
 31
0.0
  0
LINE
  5
1D34
330
493
100
AcDbEntity
  8
寸法
 62
     0
370
    15
100
AcDbLine
 10
208.7091170090927
 20
1606.380107849272
 30
0.0
 11
208.7091170090925
 21
1056.380107849272
 31
0.0
  0
INSERT
  5
1D35
330
493
100
AcDbEntity
  8
寸法
 62
     0
370
    15
100
AcDbBlockReference
  2
_DotSmall
 10
208.7091170090927
 20
1606.380107849272
 30
0.0
 41
35.0
 42
35.0
 43
35.0
 50
90.0
  0
INSERT
  5
1D36
330
493
100
AcDbEntity
  8
寸法
 62
     0
370
    15
100
AcDbBlockReference
  2
_DotSmall
 10
208.7091170090925
 20
1056.380107849272
 30
0.0
 41
35.0
 42
35.0
 43
35.0
 50
270.0
  0
MTEXT
  5
1D37
330
493
100
AcDbEntity
  8
寸法
 62
     0
100
AcDbMText
 10
189.9591170090924
 20
1331.380107849272
 30
0.0
 40
25.0
 41
0.0
 71
     5
 72
     1
  1
550
 11
0.0000000000000001
 21
1.0
 31
0.0
 73
     1
 44
1.0
1001
ACAD
1000
MTEXTBEGIN
1070
    73
1070
     1
1070
    44
1040
1.0
1070
    74
1070
     0
1000
MTEXTEND
  0
POINT
  5
1D38
330
493
100
AcDbEntity
  8
Defpoints
 62
     0
100
AcDbPoint
 10
466.5460038203873
 20
1606.380107849272
 30
0.0
  0
POINT
  5
1D39
330
493
100
AcDbEntity
  8
Defpoints
 62
     0
100
AcDbPoint
 10
466.5460038203873
 20
1056.380107849272
 30
0.0
  0
POINT
  5
1D3A
330
493
100
AcDbEntity
  8
Defpoints
 62
     0
100
AcDbPoint
 10
208.7091170090925
 20
1056.380107849272
 30
0.0
  0
ENDBLK
  5
49E
330
493
100
AcDbEntity
  8
0
100
AcDbBlockEnd
  0
BLOCK
  5
4CF
330
4C4
100
AcDbEntity
  8
0
100
AcDbBlockBegin
  2
*D11
 70
     1
 10
0.0
 20
0.0
 30
0.0
  3
*D11
  1

  0
LINE
  5
1D3B
330
4C4
100
AcDbEntity
  8
寸法
 62
     0
370
    15
100
AcDbLine
 10
401.5460038203873
 20
1071.380107849272
 30
0.0
 11
286.2579007192708
 21
1071.380107849272
 31
0.0
  0
LINE
  5
1D3C
330
4C4
100
AcDbEntity
  8
寸法
 62
     0
370
    15
100
AcDbLine
 10
401.5460038203873
 20
1056.380107849272
 30
0.0
 11
286.2579007192708
 21
1056.380107849272
 31
0.0
  0
LINE
  5
1D3D
330
4C4
100
AcDbEntity
  8
寸法
 62
     0
370
    15
100
AcDbLine
 10
286.2579007192708
 20
1056.380107849272
 30
0.0
 11
286.2579007192708
 21
1071.380107849272
 31
0.0
  0
LINE
  5
1D3E
330
4C4
100
AcDbEntity
  8
寸法
 62
     0
370
    15
100
AcDbLine
 10
286.2579007192708
 20
1071.380107849272
 30
0.0
 11
286.2579007192709
 21
1152.213441182606
 31
0.0
  0
INSERT
  5
1D3F
330
4C4
100
AcDbEntity
  8
寸法
 62
     0
370
    15
100
AcDbBlockReference
  2
_DotSmall
 10
286.2579007192708
 20
1056.380107849272
 30
0.0
 41
35.0
 42
35.0
 43
35.0
 50
270.0
  0
INSERT
  5
1D40
330
4C4
100
AcDbEntity
  8
寸法
 62
     0
370
    15
100
AcDbBlockReference
  2
_DotSmall
 10
286.2579007192708
 20
1071.380107849272
 30
0.0
 41
35.0
 42
35.0
 43
35.0
 50
90.0
  0
MTEXT
  5
1D41
330
4C4
100
AcDbEntity
  8
寸法
 62
     0
100
AcDbMText
 10
267.5079007192707
 20
1129.296774515939
 30
0.0
 40
25.0
 41
0.0
 71
     5
 72
     1
  1
15
 11
0.0000000000000001
 21
1.0
 31
0.0
 73
     1
 44
1.0
1001
ACAD
1000
MTEXTBEGIN
1070
    73
1070
     1
1070
    44
1040
1.0
1070
    74
1070
     0
1000
MTEXTEND
  0
POINT
  5
1D42
330
4C4
100
AcDbEntity
  8
Defpoints
 62
     0
100
AcDbPoint
 10
466.5460038203873
 20
1071.380107849272
 30
0.0
  0
POINT
  5
1D43
330
4C4
100
AcDbEntity
  8
Defpoints
 62
     0
100
AcDbPoint
 10
466.5460038203873
 20
1056.380107849272
 30
0.0
  0
POINT
  5
1D44
330
4C4
100
AcDbEntity
  8
Defpoints
 62
     0
100
AcDbPoint
 10
286.2579007192708
 20
1056.380107849272
 30
0.0
  0
ENDBLK
  5
4D0
330
4C4
100
AcDbEntity
  8
0
100
AcDbBlockEnd
  0
BLOCK
  5
4F1
330
4E6
100
AcDbEntity
  8
0
100
AcDbBlockBegin
  2
*D12
 70
     1
 10
0.0
 20
0.0
 30
0.0
  3
*D12
  1

  0
LINE
  5
1D45
330
4E6
100
AcDbEntity
  8
寸法
 62
     0
370
    15
100
AcDbLine
 10
1296.546003820387
 20
991.3801078492724
 30
0.0
 11
1296.546003820387
 21
939.1567824483672
 31
0.0
  0
LINE
  5
1D46
330
4E6
100
AcDbEntity
  8
寸法
 62
     0
370
    15
100
AcDbLine
 10
1281.546003820387
 20
991.3801078492724
 30
0.0
 11
1281.546003820387
 21
939.1567824483672
 31
0.0
  0
LINE
  5
1D47
330
4E6
100
AcDbEntity
  8
寸法
 62
     0
370
    15
100
AcDbLine
 10
1296.546003820387
 20
939.1567824483672
 30
0.0
 11
1281.546003820387
 21
939.1567824483672
 31
0.0
  0
MTEXT
  5
1D48
330
4E6
100
AcDbEntity
  8
寸法
 62
     0
100
AcDbMText
 10
1250.145905749322
 20
958.2030933135911
 30
0.0
 40
25.0
 41
0.0
 71
     5
 72
     1
  1
15
 73
     1
 44
1.0
1001
ACAD
1000
MTEXTBEGIN
1070
    73
1070
     1
1070
    44
1040
1.0
1070
    74
1070
     0
1000
MTEXTEND
  0
INSERT
  5
1D49
330
4E6
100
AcDbEntity
  8
寸法
 62
     0
370
    15
100
AcDbBlockReference
  2
_DotSmall
 10
1296.546003820387
 20
939.1567824483672
 30
0.0
 41
35.0
 42
35.0
 43
35.0
  0
INSERT
  5
1D4A
330
4E6
100
AcDbEntity
  8
寸法
 62
     0
370
    15
100
AcDbBlockReference
  2
_DotSmall
 10
1281.546003820387
 20
939.1567824483672
 30
0.0
 41
35.0
 42
35.0
 43
35.0
 50
180.0
  0
POINT
  5
1D4B
330
4E6
100
AcDbEntity
  8
Defpoints
 62
     0
100
AcDbPoint
 10
1296.546003820387
 20
1056.380107849272
 30
0.0
  0
POINT
  5
1D4C
330
4E6
100
AcDbEntity
  8
Defpoints
 62
     0
100
AcDbPoint
 10
1281.546003820387
 20
1056.380107849272
 30
0.0
  0
POINT
  5
1D4D
330
4E6
100
AcDbEntity
  8
Defpoints
 62
     0
100
AcDbPoint
 10
1281.546003820387
 20
939.1567824483672
 30
0.0
  0
ENDBLK
  5
4F2
330
4E6
100
AcDbEntity
  8
0
100
AcDbBlockEnd
  0
BLOCK
  5
508
330
4FE
100
AcDbEntity
  8
0
100
AcDbBlockBegin
  2
*D13
 70
     1
 10
0.0
 20
0.0
 30
0.0
  3
*D13
  1

  0
LINE
  5
1D4E
330
4FE
100
AcDbEntity
  8
寸法
 62
     0
370
    15
100
AcDbLine
 10
1281.546003820387
 20
991.3801078492724
 30
0.0
 11
1281.546003820387
 21
939.1567824483672
 31
0.0
  0
LINE
  5
1D4F
330
4FE
100
AcDbEntity
  8
寸法
 62
     0
370
    15
100
AcDbLine
 10
481.5460038203873
 20
991.3801078492724
 30
0.0
 11
481.5460038203873
 21
939.1567824483672
 31
0.0
  0
LINE
  5
1D50
330
4FE
100
AcDbEntity
  8
寸法
 62
     0
370
    15
100
AcDbLine
 10
1281.546003820387
 20
939.1567824483672
 30
0.0
 11
481.5460038203873
 21
939.1567824483672
 31
0.0
  0
INSERT
  5
1D51
330
4FE
100
AcDbEntity
  8
寸法
 62
     0
370
    15
100
AcDbBlockReference
  2
_DotSmall
 10
1281.546003820387
 20
939.1567824483672
 30
0.0
 41
35.0
 42
35.0
 43
35.0
  0
INSERT
  5
1D52
330
4FE
100
AcDbEntity
  8
寸法
 62
     0
370
    15
100
AcDbBlockReference
  2
_DotSmall
 10
481.5460038203873
 20
939.1567824483672
 30
0.0
 41
35.0
 42
35.0
 43
35.0
 50
180.0
  0
MTEXT
  5
1D53
330
4FE
100
AcDbEntity
  8
寸法
 62
     0
100
AcDbMText
 10
881.5460038203873
 20
957.9067824483672
 30
0.0
 40
25.0
 41
0.0
 71
     5
 72
     1
  1
800
 73
     1
 44
1.0
1001
ACAD
1000
MTEXTBEGIN
1070
    73
1070
     1
1070
    44
1040
1.0
1070
    74
1070
     0
1000
MTEXTEND
  0
POINT
  5
1D54
330
4FE
100
AcDbEntity
  8
Defpoints
 62
     0
100
AcDbPoint
 10
1281.546003820387
 20
1056.380107849272
 30
0.0
  0
POINT
  5
1D55
330
4FE
100
AcDbEntity
  8
Defpoints
 62
     0
100
AcDbPoint
 10
481.5460038203873
 20
1056.380107849272
 30
0.0
  0
POINT
  5
1D56
330
4FE
100
AcDbEntity
  8
Defpoints
 62
     0
100
AcDbPoint
 10
481.5460038203873
 20
939.1567824483672
 30
0.0
  0
ENDBLK
  5
509
330
4FE
100
AcDbEntity
  8
0
100
AcDbBlockEnd
  0
BLOCK
  5
517
330
50B
100
AcDbEntity
  8
0
100
AcDbBlockBegin
  2
*D14
 70
     1
 10
0.0
 20
0.0
 30
0.0
  3
*D14
  1

  0
LINE
  5
1D57
330
50B
100
AcDbEntity
  8
寸法
 62
     0
370
    15
100
AcDbLine
 10
481.5460038203873
 20
991.3801078492724
 30
0.0
 11
481.5460038203873
 21
939.1567824483672
 31
0.0
  0
LINE
  5
1D58
330
50B
100
AcDbEntity
  8
寸法
 62
     0
370
    15
100
AcDbLine
 10
466.5460038203873
 20
991.3801078492724
 30
0.0
 11
466.5460038203873
 21
939.1567824483672
 31
0.0
  0
LINE
  5
1D59
330
50B
100
AcDbEntity
  8
寸法
 62
     0
370
    15
100
AcDbLine
 10
481.5460038203873
 20
939.1567824483672
 30
0.0
 11
466.5460038203873
 21
939.1567824483672
 31
0.0
  0
MTEXT
  5
1D5A
330
50B
100
AcDbEntity
  8
寸法
 62
     0
100
AcDbMText
 10
513.1088269028305
 20
963.2869179881437
 30
0.0
 40
25.0
 41
0.0
 71
     5
 72
     1
  1
15
 73
     1
 44
1.0
1001
ACAD
1000
MTEXTBEGIN
1070
    73
1070
     1
1070
    44
1040
1.0
1070
    74
1070
     0
1000
MTEXTEND
  0
INSERT
  5
1D5B
330
50B
100
AcDbEntity
  8
寸法
 62
     0
370
    15
100
AcDbBlockReference
  2
_DotSmall
 10
481.5460038203873
 20
939.1567824483672
 30
0.0
 41
35.0
 42
35.0
 43
35.0
  0
INSERT
  5
1D5C
330
50B
100
AcDbEntity
  8
寸法
 62
     0
370
    15
100
AcDbBlockReference
  2
_DotSmall
 10
466.5460038203873
 20
939.1567824483672
 30
0.0
 41
35.0
 42
35.0
 43
35.0
 50
180.0
  0
POINT
  5
1D5D
330
50B
100
AcDbEntity
  8
Defpoints
 62
     0
100
AcDbPoint
 10
481.5460038203873
 20
1056.380107849272
 30
0.0
  0
POINT
  5
1D5E
330
50B
100
AcDbEntity
  8
Defpoints
 62
     0
100
AcDbPoint
 10
466.5460038203873
 20
1056.380107849272
 30
0.0
  0
POINT
  5
1D5F
330
50B
100
AcDbEntity
  8
Defpoints
 62
     0
100
AcDbPoint
 10
466.5460038203873
 20
939.1567824483672
 30
0.0
  0
ENDBLK
  5
518
330
50B
100
AcDbEntity
  8
0
100
AcDbBlockEnd
  0
BLOCK
  5
52D
330
523
100
AcDbEntity
  8
0
100
AcDbBlockBegin
  2
*D15
 70
     1
 10
0.0
 20
0.0
 30
0.0
  3
*D15
  1

  0
LINE
  5
1D60
330
523
100
AcDbEntity
  8
寸法
 62
     0
370
    15
100
AcDbLine
 10
1296.546003820387
 20
991.3801078492724
 30
0.0
 11
1296.546003820387
 21
865.0363672147078
 31
0.0
  0
LINE
  5
1D61
330
523
100
AcDbEntity
  8
寸法
 62
     0
370
    15
100
AcDbLine
 10
466.5460038203873
 20
991.3801078492724
 30
0.0
 11
466.5460038203873
 21
865.0363672147078
 31
0.0
  0
LINE
  5
1D62
330
523
100
AcDbEntity
  8
寸法
 62
     0
370
    15
100
AcDbLine
 10
1296.546003820387
 20
865.0363672147078
 30
0.0
 11
466.5460038203873
 21
865.0363672147078
 31
0.0
  0
INSERT
  5
1D63
330
523
100
AcDbEntity
  8
寸法
 62
     0
370
    15
100
AcDbBlockReference
  2
_DotSmall
 10
1296.546003820387
 20
865.0363672147078
 30
0.0
 41
35.0
 42
35.0
 43
35.0
  0
INSERT
  5
1D64
330
523
100
AcDbEntity
  8
寸法
 62
     0
370
    15
100
AcDbBlockReference
  2
_DotSmall
 10
466.5460038203873
 20
865.0363672147078
 30
0.0
 41
35.0
 42
35.0
 43
35.0
 50
180.0
  0
MTEXT
  5
1D65
330
523
100
AcDbEntity
  8
寸法
 62
     0
100
AcDbMText
 10
881.5460038203873
 20
883.7863672147078
 30
0.0
 40
25.0
 41
0.0
 71
     5
 72
     1
  1
830
 73
     1
 44
1.0
1001
ACAD
1000
MTEXTBEGIN
1070
    73
1070
     1
1070
    44
1040
1.0
1070
    74
1070
     0
1000
MTEXTEND
  0
POINT
  5
1D66
330
523
100
AcDbEntity
  8
Defpoints
 62
     0
100
AcDbPoint
 10
1296.546003820387
 20
1056.380107849272
 30
0.0
  0
POINT
  5
1D67
330
523
100
AcDbEntity
  8
Defpoints
 62
     0
100
AcDbPoint
 10
466.5460038203873
 20
1056.380107849272
 30
0.0
  0
POINT
  5
1D68
330
523
100
AcDbEntity
  8
Defpoints
 62
     0
100
AcDbPoint
 10
466.5460038203873
 20
865.0363672147078
 30
0.0
  0
ENDBLK
  5
52E
330
523
100
AcDbEntity
  8
0
100
AcDbBlockEnd
  0
BLOCK
  5
166D
330
1663
100
AcDbEntity
  8
0
100
AcDbBlockBegin
  2
*D16
 70
     1
 10
0.0
 20
0.0
 30
0.0
  3
*D16
  1

  0
LINE
  5
1D69
330
1663
100
AcDbEntity
  8
実形
 62
     0
370
    15
100
AcDbLine
 10
946.5460038203874
 20
1496.380107849272
 30
0.0
 11
1061.062672862596
 21
1496.380107849272
 31
0.0
  0
LINE
  5
1D6A
330
1663
100
AcDbEntity
  8
実形
 62
     0
370
    15
100
AcDbLine
 10
946.5460038203874
 20
1346.380107849272
 30
0.0
 11
1061.062672862596
 21
1346.380107849272
 31
0.0
  0
LINE
  5
1D6B
330
1663
100
AcDbEntity
  8
実形
 62
     0
370
    15
100
AcDbLine
 10
1061.062672862596
 20
1496.380107849272
 30
0.0
 11
1061.062672862596
 21
1346.380107849272
 31
0.0
  0
INSERT
  5
1D6C
330
1663
100
AcDbEntity
  8
実形
 62
     0
370
    15
100
AcDbBlockReference
  2
_DotSmall
 10
1061.062672862596
 20
1496.380107849272
 30
0.0
 41
35.0
 42
35.0
 43
35.0
 50
90.0
  0
INSERT
  5
1D6D
330
1663
100
AcDbEntity
  8
実形
 62
     0
370
    15
100
AcDbBlockReference
  2
_DotSmall
 10
1061.062672862596
 20
1346.380107849272
 30
0.0
 41
35.0
 42
35.0
 43
35.0
 50
270.0
  0
MTEXT
  5
1D6E
330
1663
100
AcDbEntity
  8
実形
 62
     0
100
AcDbMText
 10
1042.312672862595
 20
1421.380107849272
 30
0.0
 40
25.0
 41
0.0
 71
     5
 72
     1
  1
150
 11
0.0000000000000001
 21
1.0
 31
0.0
 73
     1
 44
1.0
1001
ACAD
1000
MTEXTBEGIN
1070
    73
1070
     1
1070
    44
1040
1.0
1070
    74
1070
     0
1000
MTEXTEND
  0
POINT
  5
1D6F
330
1663
100
AcDbEntity
  8
Defpoints
 62
     0
100
AcDbPoint
 10
881.5460038203873
 20
1496.380107849272
 30
0.0
  0
POINT
  5
1D70
330
1663
100
AcDbEntity
  8
Defpoints
 62
     0
100
AcDbPoint
 10
881.5460038203873
 20
1346.380107849272
 30
0.0
  0
POINT
  5
1D71
330
1663
100
AcDbEntity
  8
Defpoints
 62
     0
100
AcDbPoint
 10
1061.062672862596
 20
1346.380107849272
 30
0.0
  0
ENDBLK
  5
166E
330
1663
100
AcDbEntity
  8
0
100
AcDbBlockEnd
  0
BLOCK
  5
1724
330
171A
100
AcDbEntity
  8
0
100
AcDbBlockBegin
  2
*D17
 70
     1
 10
0.0
 20
0.0
 30
0.0
  3
*D17
  1

  0
LINE
  5
1D72
330
171A
100
AcDbEntity
  8
実形
 62
     0
370
    15
100
AcDbLine
 10
481.5460038203875
 20
1226.380107849274
 30
0.0
 11
481.5460038203875
 21
1291.380107849272
 31
0.0
  0
LINE
  5
1D73
330
171A
100
AcDbEntity
  8
実形
 62
     0
370
    15
100
AcDbLine
 10
881.5460038203873
 20
1356.380107849272
 30
0.0
 11
881.5460038203873
 21
1291.380107849272
 31
0.0
  0
LINE
  5
1D74
330
171A
100
AcDbEntity
  8
実形
 62
     0
370
    15
100
AcDbLine
 10
481.5460038203875
 20
1291.380107849272
 30
0.0
 11
881.5460038203873
 21
1291.380107849272
 31
0.0
  0
INSERT
  5
1D75
330
171A
100
AcDbEntity
  8
実形
 62
     0
370
    15
100
AcDbBlockReference
  2
_DotSmall
 10
481.5460038203875
 20
1291.380107849272
 30
0.0
 41
35.0
 42
35.0
 43
35.0
 50
180.0
  0
INSERT
  5
1D76
330
171A
100
AcDbEntity
  8
実形
 62
     0
370
    15
100
AcDbBlockReference
  2
_DotSmall
 10
881.5460038203873
 20
1291.380107849272
 30
0.0
 41
35.0
 42
35.0
 43
35.0
  0
MTEXT
  5
1D77
330
171A
100
AcDbEntity
  8
実形
 62
     0
100
AcDbMText
 10
681.5460038203874
 20
1310.130107849272
 30
0.0
 40
25.0
 41
0.0
 71
     5
 72
     1
  1
400
 73
     1
 44
1.0
1001
ACAD
1000
MTEXTBEGIN
1070
    73
1070
     1
1070
    44
1040
1.0
1070
    74
1070
     0
1000
MTEXTEND
  0
POINT
  5
1D78
330
171A
100
AcDbEntity
  8
Defpoints
 62
     0
100
AcDbPoint
 10
481.5460038203875
 20
1291.380107849274
 30
0.0
  0
POINT
  5
1D79
330
171A
100
AcDbEntity
  8
Defpoints
 62
     0
100
AcDbPoint
 10
881.5460038203873
 20
1291.380107849272
 30
0.0
  0
POINT
  5
1D7A
330
171A
100
AcDbEntity
  8
Defpoints
 62
     0
100
AcDbPoint
 10
881.5460038203873
 20
1291.380107849272
 30
0.0
  0
ENDBLK
  5
1725
330
171A
100
AcDbEntity
  8
0
100
AcDbBlockEnd
  0
BLOCK
  5
19DB
330
19D1
100
AcDbEntity
  8
0
100
AcDbBlockBegin
  2
*D18
 70
     1
 10
0.0
 20
0.0
 30
0.0
  3
*D18
  1

  0
LINE
  5
1D8D
330
19D1
100
AcDbEntity
  8
実形
 62
     0
370
    15
100
AcDbLine
 10
447.5460038203876
 20
1694.651294293764
 30
0.0
 11
447.5460038203876
 21
1729.720008931526
 31
0.0
  0
LINE
  5
1D8E
330
19D1
100
AcDbEntity
  8
実形
 62
     0
370
    15
100
AcDbLine
 10
481.5460038203877
 20
1694.651294293764
 30
0.0
 11
481.5460038203877
 21
1729.720008931526
 31
0.0
  0
LINE
  5
1D8F
330
19D1
100
AcDbEntity
  8
実形
 62
     0
370
    15
100
AcDbLine
 10
447.5460038203876
 20
1729.720008931526
 30
0.0
 11
481.5460038203877
 21
1729.720008931526
 31
0.0
  0
MTEXT
  5
1D90
330
19D1
100
AcDbEntity
  8
実形
 62
     0
100
AcDbMText
 10
480.1353165923001
 20
1764.720008931526
 30
0.0
 40
25.0
 41
0.0
 71
     5
 72
     1
  1
35
 73
     1
 44
1.0
1001
ACAD
1000
MTEXTBEGIN
1070
    73
1070
     1
1070
    44
1040
1.0
1070
    74
1070
     0
1000
MTEXTEND
  0
INSERT
  5
1D91
330
19D1
100
AcDbEntity
  8
実形
 62
     0
370
    15
100
AcDbBlockReference
  2
_DotSmall
 10
447.5460038203876
 20
1729.720008931526
 30
0.0
 41
35.0
 42
35.0
 43
35.0
 50
180.0
  0
INSERT
  5
1D92
330
19D1
100
AcDbEntity
  8
実形
 62
     0
370
    15
100
AcDbBlockReference
  2
_DotSmall
 10
481.5460038203877
 20
1729.720008931526
 30
0.0
 41
35.0
 42
35.0
 43
35.0
  0
POINT
  5
1D93
330
19D1
100
AcDbEntity
  8
Defpoints
 62
     0
100
AcDbPoint
 10
447.5460038203876
 20
1629.651294293764
 30
0.0
  0
POINT
  5
1D94
330
19D1
100
AcDbEntity
  8
Defpoints
 62
     0
100
AcDbPoint
 10
481.5460038203877
 20
1629.651294293764
 30
0.0
  0
POINT
  5
1D95
330
19D1
100
AcDbEntity
  8
Defpoints
 62
     0
100
AcDbPoint
 10
481.5460038203877
 20
1729.720008931526
 30
0.0
  0
ENDBLK
  5
19DC
330
19D1
100
AcDbEntity
  8
0
100
AcDbBlockEnd
  0
BLOCK
  5
19FA
330
19F0
100
AcDbEntity
  8
0
100
AcDbBlockBegin
  2
*D19
 70
     1
 10
0.0
 20
0.0
 30
0.0
  3
*D19
  1

  0
LINE
  5
1D96
330
19F0
100
AcDbEntity
  8
実形
 62
     0
370
    15
100
AcDbLine
 10
1281.546003820387
 20
1694.651294293764
 30
0.0
 11
1281.546003820387
 21
1729.720008931526
 31
0.0
  0
LINE
  5
1D97
330
19F0
100
AcDbEntity
  8
実形
 62
     0
370
    15
100
AcDbLine
 10
1315.546003820387
 20
1694.651294293764
 30
0.0
 11
1315.546003820387
 21
1729.720008931526
 31
0.0
  0
LINE
  5
1D98
330
19F0
100
AcDbEntity
  8
実形
 62
     0
370
    15
100
AcDbLine
 10
1281.546003820387
 20
1729.720008931526
 30
0.0
 11
1315.546003820387
 21
1729.720008931526
 31
0.0
  0
MTEXT
  5
1D99
330
19F0
100
AcDbEntity
  8
実形
 62
     0
100
AcDbMText
 10
1263.931694103807
 20
1764.720008931526
 30
0.0
 40
25.0
 41
0.0
 71
     5
 72
     1
  1
35
 73
     1
 44
1.0
1001
ACAD
1000
MTEXTBEGIN
1070
    73
1070
     1
1070
    44
1040
1.0
1070
    74
1070
     0
1000
MTEXTEND
  0
INSERT
  5
1D9A
330
19F0
100
AcDbEntity
  8
実形
 62
     0
370
    15
100
AcDbBlockReference
  2
_DotSmall
 10
1281.546003820387
 20
1729.720008931526
 30
0.0
 41
35.0
 42
35.0
 43
35.0
 50
180.0
  0
INSERT
  5
1D9B
330
19F0
100
AcDbEntity
  8
実形
 62
     0
370
    15
100
AcDbBlockReference
  2
_DotSmall
 10
1315.546003820387
 20
1729.720008931526
 30
0.0
 41
35.0
 42
35.0
 43
35.0
  0
POINT
  5
1D9C
330
19F0
100
AcDbEntity
  8
Defpoints
 62
     0
100
AcDbPoint
 10
1281.546003820387
 20
1629.651294293764
 30
0.0
  0
POINT
  5
1D9D
330
19F0
100
AcDbEntity
  8
Defpoints
 62
     0
100
AcDbPoint
 10
1315.546003820387
 20
1629.651294293764
 30
0.0
  0
POINT
  5
1D9E
330
19F0
100
AcDbEntity
  8
Defpoints
 62
     0
100
AcDbPoint
 10
1315.546003820387
 20
1729.720008931526
 30
0.0
  0
ENDBLK
  5
19FB
330
19F0
100
AcDbEntity
  8
0
100
AcDbBlockEnd
  0
BLOCK
  5
1A19
330
1A0F
100
AcDbEntity
  8
0
100
AcDbBlockBegin
  2
*D20
 70
     1
 10
0.0
 20
0.0
 30
0.0
  3
*D20
  1

  0
LINE
  5
1D9F
330
1A0F
100
AcDbEntity
  8
実形
 62
     0
370
    15
100
AcDbLine
 10
447.5460038203876
 20
1694.651294293764
 30
0.0
 11
447.5460038203876
 21
1817.878362852508
 31
0.0
  0
LINE
  5
1DA0
330
1A0F
100
AcDbEntity
  8
実形
 62
     0
370
    15
100
AcDbLine
 10
1315.546003820387
 20
1694.651294293764
 30
0.0
 11
1315.546003820387
 21
1817.878362852508
 31
0.0
  0
LINE
  5
1DA1
330
1A0F
100
AcDbEntity
  8
実形
 62
     0
370
    15
100
AcDbLine
 10
447.5460038203876
 20
1817.878362852508
 30
0.0
 11
1315.546003820387
 21
1817.878362852508
 31
0.0
  0
INSERT
  5
1DA2
330
1A0F
100
AcDbEntity
  8
実形
 62
     0
370
    15
100
AcDbBlockReference
  2
_DotSmall
 10
447.5460038203876
 20
1817.878362852508
 30
0.0
 41
35.0
 42
35.0
 43
35.0
 50
180.0
  0
INSERT
  5
1DA3
330
1A0F
100
AcDbEntity
  8
実形
 62
     0
370
    15
100
AcDbBlockReference
  2
_DotSmall
 10
1315.546003820387
 20
1817.878362852508
 30
0.0
 41
35.0
 42
35.0
 43
35.0
  0
MTEXT
  5
1DA4
330
1A0F
100
AcDbEntity
  8
実形
 62
     0
100
AcDbMText
 10
881.5460038203875
 20
1836.628362852508
 30
0.0
 40
25.0
 41
0.0
 71
     5
 72
     1
  1
868
 73
     1
 44
1.0
1001
ACAD
1000
MTEXTBEGIN
1070
    73
1070
     1
1070
    44
1040
1.0
1070
    74
1070
     0
1000
MTEXTEND
  0
POINT
  5
1DA5
330
1A0F
100
AcDbEntity
  8
Defpoints
 62
     0
100
AcDbPoint
 10
447.5460038203876
 20
1629.651294293764
 30
0.0
  0
POINT
  5
1DA6
330
1A0F
100
AcDbEntity
  8
Defpoints
 62
     0
100
AcDbPoint
 10
1315.546003820387
 20
1629.651294293764
 30
0.0
  0
POINT
  5
1DA7
330
1A0F
100
AcDbEntity
  8
Defpoints
 62
     0
100
AcDbPoint
 10
1315.546003820387
 20
1817.878362852508
 30
0.0
  0
ENDBLK
  5
1A1A
330
1A0F
100
AcDbEntity
  8
0
100
AcDbBlockEnd
  0
BLOCK
  5
1A1C
330
1A1B
100
AcDbEntity
  8
0
100
AcDbBlockBegin
  2
_Dot
 70
     0
 10
0.0
 20
0.0
 30
0.0
  3
_Dot
  1

  0
LWPOLYLINE
  5
1A1D
330
1A1B
100
AcDbEntity
  8
0
  6
ByBlock
 62
     0
100
AcDbPolyline
 90
        2
 70
     1
 43
0.5
 10
-0.25
 20
0.0
 42
1.0
 10
0.25
 20
0.0
 42
1.0
  0
LINE
  5
1A1E
330
1A1B
100
AcDbEntity
  8
0
  6
ByBlock
 62
     0
370
    -2
100
AcDbLine
 10
-0.5
 20
0.0
 30
0.0
 11
-1.0
 21
0.0
 31
0.0
  0
ENDBLK
  5
1A1F
330
1A1B
100
AcDbEntity
  8
0
100
AcDbBlockEnd
  0
BLOCK
  5
1A30
330
1A2B
100
AcDbEntity
  8
0
100
AcDbBlockBegin
  2
A$C36582933
 70
     0
 10
0.0
 20
0.0
 30
0.0
  3
A$C36582933
  1

  0
TEXT
  5
1A2C
330
1A2B
100
AcDbEntity
  8
0
100
AcDbText
 10
-504.8
 20
17.8
 30
0.0
 40
35.0
  1
Jstn        S-HC
  7
MS明朝
 72
     4
 11
-300.0
 21
32.5
 31
0.0
100
AcDbText
  0
TEXT
  5
1A2D
330
1A2B
100
AcDbEntity
  8
0
100
AcDbText
 10
-388.429186315596
 20
16.2375358068406
 30
0.0
 40
35.0
  1
718-588
  7
MS明朝
 72
     4
 11
-298.829186315596
 21
33.33753580684061
 31
0.0
100
AcDbText
  0
ENDBLK
  5
1A31
330
1A2B
100
AcDbEntity
  8
0
100
AcDbBlockEnd
  0
BLOCK
  5
1AED
330
1AE3
100
AcDbEntity
  8
0
100
AcDbBlockBegin
  2
*D23
 70
     1
 10
0.0
 20
0.0
 30
0.0
  3
*D23
  1

  0
LINE
  5
1DC3
330
1AE3
100
AcDbEntity
  8
実形
 62
     0
370
    15
100
AcDbLine
 10
1362.354663742571
 20
1625.380107849272
 30
0.0
 11
1406.233519530607
 21
1625.380107849272
 31
0.0
  0
LINE
  5
1DC4
330
1AE3
100
AcDbEntity
  8
実形
 62
     0
370
    15
100
AcDbLine
 10
1362.354663742571
 20
1591.380107849272
 30
0.0
 11
1406.233519530607
 21
1591.380107849272
 31
0.0
  0
LINE
  5
1DC5
330
1AE3
100
AcDbEntity
  8
実形
 62
     0
370
    15
100
AcDbLine
 10
1406.233519530607
 20
1625.380107849272
 30
0.0
 11
1406.233519530607
 21
1591.380107849272
 31
0.0
  0
MTEXT
  5
1DC6
330
1AE3
100
AcDbEntity
  8
実形
 62
     0
100
AcDbMText
 10
1391.559208758231
 20
1551.807893562574
 30
0.0
 40
25.0
 41
0.0
 71
     5
 72
     1
  1
35
 11
0.0000000000000001
 21
1.0
 31
0.0
 73
     1
 44
1.0
1001
ACAD
1000
MTEXTBEGIN
1070
    73
1070
     1
1070
    44
1040
1.0
1070
    74
1070
     0
1000
MTEXTEND
  0
INSERT
  5
1DC7
330
1AE3
100
AcDbEntity
  8
実形
 62
     0
370
    15
100
AcDbBlockReference
  2
_DotSmall
 10
1406.233519530607
 20
1625.380107849272
 30
0.0
 41
35.0
 42
35.0
 43
35.0
 50
90.0
  0
INSERT
  5
1DC8
330
1AE3
100
AcDbEntity
  8
実形
 62
     0
370
    15
100
AcDbBlockReference
  2
_DotSmall
 10
1406.233519530607
 20
1591.380107849272
 30
0.0
 41
35.0
 42
35.0
 43
35.0
 50
270.0
  0
POINT
  5
1DC9
330
1AE3
100
AcDbEntity
  8
Defpoints
 62
     0
100
AcDbPoint
 10
1297.354663742571
 20
1625.380107849272
 30
0.0
  0
POINT
  5
1DCA
330
1AE3
100
AcDbEntity
  8
Defpoints
 62
     0
100
AcDbPoint
 10
1297.354663742571
 20
1591.380107849272
 30
0.0
  0
POINT
  5
1DCB
330
1AE3
100
AcDbEntity
  8
Defpoints
 62
     0
100
AcDbPoint
 10
1406.233519530607
 20
1591.380107849272
 30
0.0
  0
ENDBLK
  5
1AEE
330
1AE3
100
AcDbEntity
  8
0
100
AcDbBlockEnd
  0
BLOCK
  5
1B0C
330
1B02
100
AcDbEntity
  8
0
100
AcDbBlockBegin
  2
*D24
 70
     1
 10
0.0
 20
0.0
 30
0.0
  3
*D24
  1

  0
LINE
  5
1DCC
330
1B02
100
AcDbEntity
  8
実形
 62
     0
370
    15
100
AcDbLine
 10
1362.35466374257
 20
1071.380107849272
 30
0.0
 11
1406.233519530606
 21
1071.380107849272
 31
0.0
  0
LINE
  5
1DCD
330
1B02
100
AcDbEntity
  8
実形
 62
     0
370
    15
100
AcDbLine
 10
1362.354663742571
 20
1037.380107849272
 30
0.0
 11
1406.233519530606
 21
1037.380107849272
 31
0.0
  0
LINE
  5
1DCE
330
1B02
100
AcDbEntity
  8
実形
 62
     0
370
    15
100
AcDbLine
 10
1406.233519530606
 20
1071.380107849272
 30
0.0
 11
1406.233519530606
 21
1037.380107849272
 31
0.0
  0
MTEXT
  5
1DCF
330
1B02
100
AcDbEntity
  8
実形
 62
     0
100
AcDbMText
 10
1392.65232846807
 20
1122.60678622795
 30
0.0
 40
25.0
 41
0.0
 71
     5
 72
     1
  1
35
 11
0.0000000000000001
 21
1.0
 31
0.0
 73
     1
 44
1.0
1001
ACAD
1000
MTEXTBEGIN
1070
    73
1070
     1
1070
    44
1040
1.0
1070
    74
1070
     0
1000
MTEXTEND
  0
INSERT
  5
1DD0
330
1B02
100
AcDbEntity
  8
実形
 62
     0
370
    15
100
AcDbBlockReference
  2
_DotSmall
 10
1406.233519530606
 20
1071.380107849272
 30
0.0
 41
35.0
 42
35.0
 43
35.0
 50
90.0
  0
INSERT
  5
1DD1
330
1B02
100
AcDbEntity
  8
実形
 62
     0
370
    15
100
AcDbBlockReference
  2
_DotSmall
 10
1406.233519530606
 20
1037.380107849272
 30
0.0
 41
35.0
 42
35.0
 43
35.0
 50
270.0
  0
POINT
  5
1DD2
330
1B02
100
AcDbEntity
  8
Defpoints
 62
     0
100
AcDbPoint
 10
1297.354663742571
 20
1071.380107849272
 30
0.0
  0
POINT
  5
1DD3
330
1B02
100
AcDbEntity
  8
Defpoints
 62
     0
100
AcDbPoint
 10
1297.354663742571
 20
1037.380107849272
 30
0.0
  0
POINT
  5
1DD4
330
1B02
100
AcDbEntity
  8
Defpoints
 62
     0
100
AcDbPoint
 10
1406.233519530606
 20
1037.380107849272
 30
0.0
  0
ENDBLK
  5
1B0D
330
1B02
100
AcDbEntity
  8
0
100
AcDbBlockEnd
  0
BLOCK
  5
1B2B
330
1B21
100
AcDbEntity
  8
0
100
AcDbBlockBegin
  2
*D25
 70
     1
 10
0.0
 20
0.0
 30
0.0
  3
*D25
  1

  0
LINE
  5
1DD5
330
1B21
100
AcDbEntity
  8
実形
 62
     0
370
    15
100
AcDbLine
 10
1362.35466374257
 20
1625.380107849272
 30
0.0
 11
1464.464497625795
 21
1625.380107849272
 31
0.0
  0
LINE
  5
1DD6
330
1B21
100
AcDbEntity
  8
実形
 62
     0
370
    15
100
AcDbLine
 10
1362.35466374257
 20
1037.380107849272
 30
0.0
 11
1464.464497625795
 21
1037.380107849272
 31
0.0
  0
LINE
  5
1DD7
330
1B21
100
AcDbEntity
  8
実形
 62
     0
370
    15
100
AcDbLine
 10
1464.464497625795
 20
1625.380107849272
 30
0.0
 11
1464.464497625795
 21
1037.380107849272
 31
0.0
  0
INSERT
  5
1DD8
330
1B21
100
AcDbEntity
  8
実形
 62
     0
370
    15
100
AcDbBlockReference
  2
_DotSmall
 10
1464.464497625795
 20
1625.380107849272
 30
0.0
 41
35.0
 42
35.0
 43
35.0
 50
90.0
  0
INSERT
  5
1DD9
330
1B21
100
AcDbEntity
  8
実形
 62
     0
370
    15
100
AcDbBlockReference
  2
_DotSmall
 10
1464.464497625795
 20
1037.380107849272
 30
0.0
 41
35.0
 42
35.0
 43
35.0
 50
270.0
  0
MTEXT
  5
1DDA
330
1B21
100
AcDbEntity
  8
実形
 62
     0
100
AcDbMText
 10
1445.714497625795
 20
1331.380107849273
 30
0.0
 40
25.0
 41
0.0
 71
     5
 72
     1
  1
588
 11
0.0000000000000001
 21
1.0
 31
0.0
 73
     1
 44
1.0
1001
ACAD
1000
MTEXTBEGIN
1070
    73
1070
     1
1070
    44
1040
1.0
1070
    74
1070
     0
1000
MTEXTEND
  0
POINT
  5
1DDB
330
1B21
100
AcDbEntity
  8
Defpoints
 62
     0
100
AcDbPoint
 10
1297.354663742571
 20
1625.380107849272
 30
0.0
  0
POINT
  5
1DDC
330
1B21
100
AcDbEntity
  8
Defpoints
 62
     0
100
AcDbPoint
 10
1297.354663742571
 20
1037.380107849272
 30
0.0
  0
POINT
  5
1DDD
330
1B21
100
AcDbEntity
  8
Defpoints
 62
     0
100
AcDbPoint
 10
1464.464497625795
 20
1037.380107849272
 30
0.0
  0
ENDBLK
  5
1B2C
330
1B21
100
AcDbEntity
  8
0
100
AcDbBlockEnd
  0
BLOCK
  5
1ECB
330
1EC1
100
AcDbEntity
  8
0
100
AcDbBlockBegin
  2
*D26
 70
     1
 10
0.0
 20
0.0
 30
0.0
  3
*D26
  1

  0
LINE
  5
1F01
330
1EC1
100
AcDbEntity
  8
実形
 62
     0
370
    18
100
AcDbLine
 10
409.8239538708067
 20
784.7416665392714
 30
0.0
 11
331.8241757620918
 21
784.7416665392714
 31
0.0
  0
LINE
  5
1F02
330
1EC1
100
AcDbEntity
  8
実形
 62
     0
370
    18
100
AcDbLine
 10
410.8027315119826
 20
766.7416665392713
 30
0.0
 11
331.8241757620918
 21
766.7416665392713
 31
0.0
  0
LINE
  5
1F03
330
1EC1
100
AcDbEntity
  8
実形
 62
     0
370
    18
100
AcDbLine
 10
331.8241757620918
 20
784.7416665392714
 30
0.0
 11
331.8241757620918
 21
766.7416665392713
 31
0.0
  0
MTEXT
  5
1F04
330
1EC1
100
AcDbEntity
  8
実形
 62
     0
100
AcDbMText
 10
251.6220950947382
 20
836.2881458843302
 30
0.0
 40
25.0
 41
0.0
 71
     5
 72
     1
  1
18
 11
0.0000000000000001
 21
1.0
 31
0.0
 73
     1
 44
1.0
1001
ACAD
1000
MTEXTBEGIN
1070
    73
1070
     1
1070
    44
1040
1.0
1070
    74
1070
     0
1000
MTEXTEND
  0
INSERT
  5
1F05
330
1EC1
100
AcDbEntity
  8
実形
 62
     0
370
    18
100
AcDbBlockReference
  2
_DotSmall
 10
331.8241757620918
 20
784.7416665392714
 30
0.0
 41
35.0
 42
35.0
 43
35.0
 50
90.0
  0
INSERT
  5
1F06
330
1EC1
100
AcDbEntity
  8
実形
 62
     0
370
    18
100
AcDbBlockReference
  2
_DotSmall
 10
331.8241757620918
 20
766.7416665392713
 30
0.0
 41
35.0
 42
35.0
 43
35.0
 50
270.0
  0
POINT
  5
1F07
330
1EC1
100
AcDbEntity
  8
Defpoints
 62
     0
100
AcDbPoint
 10
474.8239538708068
 20
784.7416665392714
 30
0.0
  0
POINT
  5
1F08
330
1EC1
100
AcDbEntity
  8
Defpoints
 62
     0
100
AcDbPoint
 10
475.8027315119826
 20
766.7416665392713
 30
0.0
  0
POINT
  5
1F09
330
1EC1
100
AcDbEntity
  8
Defpoints
 62
     0
100
AcDbPoint
 10
331.8241757620918
 20
766.7416665392713
 30
0.0
  0
ENDBLK
  5
1ECC
330
1EC1
100
AcDbEntity
  8
0
100
AcDbBlockEnd
  0
BLOCK
  5
1ED9
330
1ECD
100
AcDbEntity
  8
0
100
AcDbBlockBegin
  2
*D27
 70
     1
 10
0.0
 20
0.0
 30
0.0
  3
*D27
  1

  0
LINE
  5
1F0A
330
1ECD
100
AcDbEntity
  8
実形
 62
     0
370
    18
100
AcDbLine
 10
410.8027315119826
 20
766.7416665392713
 30
0.0
 11
331.8241757620918
 21
766.7416665392713
 31
0.0
  0
LINE
  5
1F0B
330
1ECD
100
AcDbEntity
  8
実形
 62
     0
370
    18
100
AcDbLine
 10
410.8027315119826
 20
761.5416665392714
 30
0.0
 11
331.8241757620918
 21
761.5416665392714
 31
0.0
  0
LINE
  5
1F0C
330
1ECD
100
AcDbEntity
  8
実形
 62
     0
370
    18
100
AcDbLine
 10
331.8241757620918
 20
766.7416665392713
 30
0.0
 11
331.8241757620918
 21
801.7416665392714
 31
0.0
  0
LINE
  5
1F0D
330
1ECD
100
AcDbEntity
  8
実形
 62
     0
370
    18
100
AcDbLine
 10
331.8241757620918
 20
761.5416665392714
 30
0.0
 11
331.8241757620918
 21
726.5416665392714
 31
0.0
  0
MTEXT
  5
1F0E
330
1ECD
100
AcDbEntity
  8
実形
 62
     0
100
AcDbMText
 10
254.3969455161178
 20
738.4813840833294
 30
0.0
 40
25.0
 41
0.0
 71
     5
 72
     1
  1
5.2
 11
0.0000000000000001
 21
1.0
 31
0.0
 73
     1
 44
1.0
1001
ACAD
1000
MTEXTBEGIN
1070
    73
1070
     1
1070
    44
1040
1.0
1070
    74
1070
     0
1000
MTEXTEND
  0
LINE
  5
1F0F
330
1ECD
100
AcDbEntity
  8
実形
 62
     0
370
    18
100
AcDbLine
 10
331.8241757620918
 20
766.7416665392713
 30
0.0
 11
331.8241757620918
 21
761.5416665392714
 31
0.0
  0
INSERT
  5
1F10
330
1ECD
100
AcDbEntity
  8
実形
 62
     0
370
    18
100
AcDbBlockReference
  2
_DotSmall
 10
331.8241757620918
 20
766.7416665392713
 30
0.0
 41
35.0
 42
35.0
 43
35.0
 50
270.0
  0
INSERT
  5
1F11
330
1ECD
100
AcDbEntity
  8
実形
 62
     0
370
    18
100
AcDbBlockReference
  2
_DotSmall
 10
331.8241757620918
 20
761.5416665392714
 30
0.0
 41
35.0
 42
35.0
 43
35.0
 50
90.0
  0
POINT
  5
1F12
330
1ECD
100
AcDbEntity
  8
Defpoints
 62
     0
100
AcDbPoint
 10
475.8027315119826
 20
766.7416665392713
 30
0.0
  0
POINT
  5
1F13
330
1ECD
100
AcDbEntity
  8
Defpoints
 62
     0
100
AcDbPoint
 10
475.8027315119826
 20
761.5416665392714
 30
0.0
  0
POINT
  5
1F14
330
1ECD
100
AcDbEntity
  8
Defpoints
 62
     0
100
AcDbPoint
 10
331.8241757620918
 20
761.5416665392714
 30
0.0
  0
ENDBLK
  5
1EDA
330
1ECD
100
AcDbEntity
  8
0
100
AcDbBlockEnd
  0
BLOCK
  5
1EE5
330
1EDB
100
AcDbEntity
  8
0
100
AcDbBlockBegin
  2
*D28
 70
     1
 10
0.0
 20
0.0
 30
0.0
  3
*D28
  1

  0
LINE
  5
1F15
330
1EDB
100
AcDbEntity
  8
実形
 62
     0
370
    18
100
AcDbLine
 10
410.8027315119826
 20
761.5416665392714
 30
0.0
 11
331.8241757620918
 21
761.5416665392714
 31
0.0
  0
LINE
  5
1F16
330
1EDB
100
AcDbEntity
  8
実形
 62
     0
370
    18
100
AcDbLine
 10
355.7362237372355
 20
586.5416665392713
 30
0.0
 11
331.8241757620917
 21
586.5416665392713
 31
0.0
  0
LINE
  5
1F17
330
1EDB
100
AcDbEntity
  8
実形
 62
     0
370
    18
100
AcDbLine
 10
331.8241757620918
 20
761.5416665392714
 30
0.0
 11
331.8241757620917
 21
586.5416665392713
 31
0.0
  0
MTEXT
  5
1F18
330
1EDB
100
AcDbEntity
  8
実形
 62
     0
100
AcDbMText
 10
305.9503494175615
 20
657.3044184235231
 30
0.0
 40
25.0
 41
0.0
 71
     5
 72
     1
  1
175
 11
0.0000000000000001
 21
1.0
 31
0.0
 73
     1
 44
1.0
1001
ACAD
1000
MTEXTBEGIN
1070
    73
1070
     1
1070
    44
1040
1.0
1070
    74
1070
     0
1000
MTEXTEND
  0
INSERT
  5
1F19
330
1EDB
100
AcDbEntity
  8
実形
 62
     0
370
    18
100
AcDbBlockReference
  2
_DotSmall
 10
331.8241757620918
 20
761.5416665392714
 30
0.0
 41
35.0
 42
35.0
 43
35.0
 50
90.0
  0
INSERT
  5
1F1A
330
1EDB
100
AcDbEntity
  8
実形
 62
     0
370
    18
100
AcDbBlockReference
  2
_DotSmall
 10
331.8241757620917
 20
586.5416665392713
 30
0.0
 41
35.0
 42
35.0
 43
35.0
 50
270.0
  0
POINT
  5
1F1B
330
1EDB
100
AcDbEntity
  8
Defpoints
 62
     0
100
AcDbPoint
 10
475.8027315119826
 20
761.5416665392714
 30
0.0
  0
POINT
  5
1F1C
330
1EDB
100
AcDbEntity
  8
Defpoints
 62
     0
100
AcDbPoint
 10
420.7362237372354
 20
586.5416665392713
 30
0.0
  0
POINT
  5
1F1D
330
1EDB
100
AcDbEntity
  8
Defpoints
 62
     0
100
AcDbPoint
 10
331.8241757620917
 20
586.5416665392713
 30
0.0
  0
ENDBLK
  5
1EE6
330
1EDB
100
AcDbEntity
  8
0
100
AcDbBlockEnd
  0
BLOCK
  5
1EF1
330
1EE7
100
AcDbEntity
  8
0
100
AcDbBlockBegin
  2
*D29
 70
     1
 10
0.0
 20
0.0
 30
0.0
  3
*D29
  1

  0
LINE
  5
1F1E
330
1EE7
100
AcDbEntity
  8
実形
 62
     0
370
    18
100
AcDbLine
 10
409.8239538708067
 20
784.7416665392714
 30
0.0
 11
221.2022773114505
 21
784.7416665392715
 31
0.0
  0
LINE
  5
1F1F
330
1EE7
100
AcDbEntity
  8
実形
 62
     0
370
    18
100
AcDbLine
 10
355.7362237372355
 20
586.5416665392713
 30
0.0
 11
221.2022773114505
 21
586.5416665392714
 31
0.0
  0
LINE
  5
1F20
330
1EE7
100
AcDbEntity
  8
実形
 62
     0
370
    18
100
AcDbLine
 10
221.2022773114505
 20
784.7416665392715
 30
0.0
 11
221.2022773114505
 21
586.5416665392714
 31
0.0
  0
INSERT
  5
1F21
330
1EE7
100
AcDbEntity
  8
実形
 62
     0
370
    18
100
AcDbBlockReference
  2
_DotSmall
 10
221.2022773114505
 20
784.7416665392715
 30
0.0
 41
35.0
 42
35.0
 43
35.0
 50
90.0
  0
INSERT
  5
1F22
330
1EE7
100
AcDbEntity
  8
実形
 62
     0
370
    18
100
AcDbBlockReference
  2
_DotSmall
 10
221.2022773114505
 20
586.5416665392714
 30
0.0
 41
35.0
 42
35.0
 43
35.0
 50
270.0
  0
MTEXT
  5
1F23
330
1EE7
100
AcDbEntity
  8
実形
 62
     0
100
AcDbMText
 10
202.4522773114504
 20
685.6416665392714
 30
0.0
 40
25.0
 41
0.0
 71
     5
 72
     1
  1
198.2
 11
0.0000000000000001
 21
1.0
 31
0.0
 73
     1
 44
1.0
1001
ACAD
1000
MTEXTBEGIN
1070
    73
1070
     1
1070
    44
1040
1.0
1070
    74
1070
     0
1000
MTEXTEND
  0
POINT
  5
1F24
330
1EE7
100
AcDbEntity
  8
Defpoints
 62
     0
100
AcDbPoint
 10
474.8239538708068
 20
784.7416665392714
 30
0.0
  0
POINT
  5
1F25
330
1EE7
100
AcDbEntity
  8
Defpoints
 62
     0
100
AcDbPoint
 10
420.7362237372354
 20
586.5416665392713
 30
0.0
  0
POINT
  5
1F26
330
1EE7
100
AcDbEntity
  8
Defpoints
 62
     0
100
AcDbPoint
 10
221.2022773114505
 20
586.5416665392714
 30
0.0
  0
ENDBLK
  5
1EF2
330
1EE7
100
AcDbEntity
  8
0
100
AcDbBlockEnd
  0
BLOCK
  5
1EFF
330
1EF3
100
AcDbEntity
  8
0
100
AcDbBlockBegin
  2
*D30
 70
     1
 10
0.0
 20
0.0
 30
0.0
  3
*D30
  1

  0
LINE
  5
1F27
330
1EF3
100
AcDbEntity
  8
実形
 62
     0
370
    18
100
AcDbLine
 10
411.8961293212151
 20
586.5416665392713
 30
0.0
 11
331.8241757620917
 21
586.5416665392713
 31
0.0
  0
LINE
  5
1F28
330
1EF3
100
AcDbEntity
  8
実形
 62
     0
370
    18
100
AcDbLine
 10
411.8961293212151
 20
576.5416665392713
 30
0.0
 11
331.8241757620917
 21
576.5416665392713
 31
0.0
  0
LINE
  5
1F29
330
1EF3
100
AcDbEntity
  8
実形
 62
     0
370
    18
100
AcDbLine
 10
331.8241757620917
 20
586.5416665392713
 30
0.0
 11
331.8241757620917
 21
621.5416665392713
 31
0.0
  0
LINE
  5
1F2A
330
1EF3
100
AcDbEntity
  8
実形
 62
     0
370
    18
100
AcDbLine
 10
331.8241757620917
 20
576.5416665392713
 30
0.0
 11
331.8241757620917
 21
541.5416665392712
 31
0.0
  0
MTEXT
  5
1F2B
330
1EF3
100
AcDbEntity
  8
実形
 62
     0
100
AcDbMText
 10
296.8241757620917
 20
570.2038828750346
 30
0.0
 40
25.0
 41
0.0
 71
     5
 72
     1
  1
7
 11
0.0000000000000001
 21
1.0
 31
0.0
 73
     1
 44
1.0
1001
ACAD
1000
MTEXTBEGIN
1070
    73
1070
     1
1070
    44
1040
1.0
1070
    74
1070
     0
1000
MTEXTEND
  0
LINE
  5
1F2C
330
1EF3
100
AcDbEntity
  8
実形
 62
     0
370
    18
100
AcDbLine
 10
331.8241757620917
 20
586.5416665392713
 30
0.0
 11
331.8241757620917
 21
576.5416665392713
 31
0.0
  0
INSERT
  5
1F2D
330
1EF3
100
AcDbEntity
  8
実形
 62
     0
370
    18
100
AcDbBlockReference
  2
_DotSmall
 10
331.8241757620917
 20
586.5416665392713
 30
0.0
 41
35.0
 42
35.0
 43
35.0
 50
270.0
  0
INSERT
  5
1F2E
330
1EF3
100
AcDbEntity
  8
実形
 62
     0
370
    18
100
AcDbBlockReference
  2
_DotSmall
 10
331.8241757620917
 20
576.5416665392713
 30
0.0
 41
35.0
 42
35.0
 43
35.0
 50
90.0
  0
POINT
  5
1F2F
330
1EF3
100
AcDbEntity
  8
Defpoints
 62
     0
100
AcDbPoint
 10
476.8961293212152
 20
586.5416665392713
 30
0.0
  0
POINT
  5
1F30
330
1EF3
100
AcDbEntity
  8
Defpoints
 62
     0
100
AcDbPoint
 10
476.8961293212152
 20
576.5416665392713
 30
0.0
  0
POINT
  5
1F31
330
1EF3
100
AcDbEntity
  8
Defpoints
 62
     0
100
AcDbPoint
 10
331.8241757620917
 20
576.5416665392713
 30
0.0
  0
ENDBLK
  5
1F00
330
1EF3
100
AcDbEntity
  8
0
100
AcDbBlockEnd
  0
BLOCK
  5
2058
330
204E
100
AcDbEntity
  8
0
100
AcDbBlockBegin
  2
*D31
 70
     1
 10
0.0
 20
0.0
 30
0.0
  3
*D31
  1

  0
LINE
  5
217F
330
204E
100
AcDbEntity
  8
寸法
 62
     0
370
    15
100
AcDbLine
 10
1828.024422510906
 20
1425.880107849272
 30
0.0
 11
1874.596267182294
 21
1425.880107849272
 31
0.0
  0
LINE
  5
2180
330
204E
100
AcDbEntity
  8
寸法
 62
     0
370
    15
100
AcDbLine
 10
1828.024422510906
 20
1266.880107849272
 30
0.0
 11
1874.596267182294
 21
1266.880107849272
 31
0.0
  0
LINE
  5
2181
330
204E
100
AcDbEntity
  8
寸法
 62
     0
370
    15
100
AcDbLine
 10
1874.596267182294
 20
1425.880107849272
 30
0.0
 11
1874.596267182294
 21
1266.880107849272
 31
0.0
  0
INSERT
  5
2182
330
204E
100
AcDbEntity
  8
寸法
 62
     0
370
    15
100
AcDbBlockReference
  2
_DotSmall
 10
1874.596267182294
 20
1425.880107849272
 30
0.0
 41
35.0
 42
35.0
 43
35.0
 50
90.0
  0
INSERT
  5
2183
330
204E
100
AcDbEntity
  8
寸法
 62
     0
370
    15
100
AcDbBlockReference
  2
_DotSmall
 10
1874.596267182294
 20
1266.880107849272
 30
0.0
 41
35.0
 42
35.0
 43
35.0
 50
270.0
  0
MTEXT
  5
2184
330
204E
100
AcDbEntity
  8
寸法
 62
     0
100
AcDbMText
 10
1855.846267182294
 20
1345.588099806399
 30
0.0
 40
25.0
 41
0.0
 71
     5
 72
     1
  1
158%%C
 11
0.0000000000000001
 21
1.0
 31
0.0
 73
     1
 44
1.0
1001
ACAD
1000
MTEXTBEGIN
1070
    73
1070
     1
1070
    44
1040
1.0
1070
    74
1070
     0
1000
MTEXTEND
  0
POINT
  5
2185
330
204E
100
AcDbEntity
  8
Defpoints
 62
     0
100
AcDbPoint
 10
1763.024422510906
 20
1425.880107849272
 30
0.0
  0
POINT
  5
2186
330
204E
100
AcDbEntity
  8
Defpoints
 62
     0
100
AcDbPoint
 10
1763.024422510906
 20
1266.880107849272
 30
0.0
  0
POINT
  5
2187
330
204E
100
AcDbEntity
  8
Defpoints
 62
     0
100
AcDbPoint
 10
1874.596267182294
 20
1266.880107849272
 30
0.0
  0
ENDBLK
  5
2059
330
204E
100
AcDbEntity
  8
0
100
AcDbBlockEnd
  0
BLOCK
  5
2064
330
205A
100
AcDbEntity
  8
0
100
AcDbBlockBegin
  2
*D32
 70
     1
 10
0.0
 20
0.0
 30
0.0
  3
*D32
  1

  0
LINE
  5
2176
330
205A
100
AcDbEntity
  8
寸法
 62
     0
370
    15
100
AcDbLine
 10
1745.263808334037
 20
1436.880107849272
 30
0.0
 11
1702.560683744761
 21
1436.880107849272
 31
0.0
  0
LINE
  5
2177
330
205A
100
AcDbEntity
  8
寸法
 62
     0
370
    15
100
AcDbLine
 10
1745.263808334037
 20
1255.880107849272
 30
0.0
 11
1702.560683744761
 21
1255.880107849272
 31
0.0
  0
LINE
  5
2178
330
205A
100
AcDbEntity
  8
寸法
 62
     0
370
    15
100
AcDbLine
 10
1702.560683744761
 20
1436.880107849272
 30
0.0
 11
1702.560683744761
 21
1255.880107849272
 31
0.0
  0
INSERT
  5
2179
330
205A
100
AcDbEntity
  8
寸法
 62
     0
370
    15
100
AcDbBlockReference
  2
_DotSmall
 10
1702.560683744761
 20
1436.880107849272
 30
0.0
 41
35.0
 42
35.0
 43
35.0
 50
90.0
  0
INSERT
  5
217A
330
205A
100
AcDbEntity
  8
寸法
 62
     0
370
    15
100
AcDbBlockReference
  2
_DotSmall
 10
1702.560683744761
 20
1255.880107849272
 30
0.0
 41
35.0
 42
35.0
 43
35.0
 50
270.0
  0
MTEXT
  5
217B
330
205A
100
AcDbEntity
  8
寸法
 62
     0
100
AcDbMText
 10
1683.810683744761
 20
1346.380107849272
 30
0.0
 40
25.0
 41
0.0
 71
     5
 72
     1
  1
181%%C
 11
0.0000000000000001
 21
1.0
 31
0.0
 73
     1
 44
1.0
1001
ACAD
1000
MTEXTBEGIN
1070
    73
1070
     1
1070
    44
1040
1.0
1070
    74
1070
     0
1000
MTEXTEND
  0
POINT
  5
217C
330
205A
100
AcDbEntity
  8
Defpoints
 62
     0
100
AcDbPoint
 10
1810.263808334037
 20
1436.880107849272
 30
0.0
  0
POINT
  5
217D
330
205A
100
AcDbEntity
  8
Defpoints
 62
     0
100
AcDbPoint
 10
1810.263808334037
 20
1255.880107849272
 30
0.0
  0
POINT
  5
217E
330
205A
100
AcDbEntity
  8
Defpoints
 62
     0
100
AcDbPoint
 10
1702.560683744761
 20
1255.880107849272
 30
0.0
  0
ENDBLK
  5
2065
330
205A
100
AcDbEntity
  8
0
100
AcDbBlockEnd
  0
BLOCK
  5
20FF
330
20F5
100
AcDbEntity
  8
0
100
AcDbBlockBegin
  2
*D33
 70
     1
 10
0.0
 20
0.0
 30
0.0
  3
*D33
  1

  0
LINE
  5
216D
330
20F5
100
AcDbEntity
  8
実形
 62
     0
370
    18
100
AcDbLine
 10
1557.824422510906
 20
1006.533966699292
 30
0.0
 11
1557.824422510906
 21
910.7269795550939
 31
0.0
  0
LINE
  5
216E
330
20F5
100
AcDbEntity
  8
実形
 62
     0
370
    18
100
AcDbLine
 10
1575.824422510906
 20
1006.533966699292
 30
0.0
 11
1575.824422510906
 21
910.7269795550939
 31
0.0
  0
LINE
  5
216F
330
20F5
100
AcDbEntity
  8
実形
 62
     0
370
    18
100
AcDbLine
 10
1557.824422510906
 20
910.7269795550939
 30
0.0
 11
1575.824422510906
 21
910.7269795550939
 31
0.0
  0
MTEXT
  5
2170
330
20F5
100
AcDbEntity
  8
実形
 62
     0
100
AcDbMText
 10
1526.692539609762
 20
939.3432662564984
 30
0.0
 40
25.0
 41
0.0
 71
     5
 72
     1
  1
18
 73
     1
 44
1.0
1001
ACAD
1000
MTEXTBEGIN
1070
    73
1070
     1
1070
    44
1040
1.0
1070
    74
1070
     0
1000
MTEXTEND
  0
INSERT
  5
2171
330
20F5
100
AcDbEntity
  8
実形
 62
     0
370
    18
100
AcDbBlockReference
  2
_DotSmall
 10
1557.824422510906
 20
910.7269795550939
 30
0.0
 41
35.0
 42
35.0
 43
35.0
 50
180.0
  0
INSERT
  5
2172
330
20F5
100
AcDbEntity
  8
実形
 62
     0
370
    18
100
AcDbBlockReference
  2
_DotSmall
 10
1575.824422510906
 20
910.7269795550939
 30
0.0
 41
35.0
 42
35.0
 43
35.0
  0
POINT
  5
2173
330
20F5
100
AcDbEntity
  8
Defpoints
 62
     0
100
AcDbPoint
 10
1557.824422510906
 20
1071.533966699292
 30
0.0
  0
POINT
  5
2174
330
20F5
100
AcDbEntity
  8
Defpoints
 62
     0
100
AcDbPoint
 10
1575.824422510906
 20
1071.533966699292
 30
0.0
  0
POINT
  5
2175
330
20F5
100
AcDbEntity
  8
Defpoints
 62
     0
100
AcDbPoint
 10
1575.824422510906
 20
910.7269795550939
 30
0.0
  0
ENDBLK
  5
2100
330
20F5
100
AcDbEntity
  8
0
100
AcDbBlockEnd
  0
BLOCK
  5
210B
330
2101
100
AcDbEntity
  8
0
100
AcDbBlockBegin
  2
*D34
 70
     1
 10
0.0
 20
0.0
 30
0.0
  3
*D34
  1

  0
LINE
  5
2164
330
2101
100
AcDbEntity
  8
実形
 62
     0
370
    18
100
AcDbLine
 10
1575.824422510906
 20
1006.533966699292
 30
0.0
 11
1575.824422510906
 21
910.7269795550939
 31
0.0
  0
LINE
  5
2165
330
2101
100
AcDbEntity
  8
実形
 62
     0
370
    18
100
AcDbLine
 10
1756.024422510906
 20
1006.533966699292
 30
0.0
 11
1756.024422510906
 21
910.7269795550939
 31
0.0
  0
LINE
  5
2166
330
2101
100
AcDbEntity
  8
実形
 62
     0
370
    18
100
AcDbLine
 10
1575.824422510906
 20
910.7269795550939
 30
0.0
 11
1756.024422510906
 21
910.7269795550939
 31
0.0
  0
INSERT
  5
2167
330
2101
100
AcDbEntity
  8
実形
 62
     0
370
    18
100
AcDbBlockReference
  2
_DotSmall
 10
1575.824422510906
 20
910.7269795550939
 30
0.0
 41
35.0
 42
35.0
 43
35.0
 50
180.0
  0
INSERT
  5
2168
330
2101
100
AcDbEntity
  8
実形
 62
     0
370
    18
100
AcDbBlockReference
  2
_DotSmall
 10
1756.024422510906
 20
910.7269795550939
 30
0.0
 41
35.0
 42
35.0
 43
35.0
  0
MTEXT
  5
2169
330
2101
100
AcDbEntity
  8
実形
 62
     0
100
AcDbMText
 10
1665.924422510906
 20
929.4769795550939
 30
0.0
 40
25.0
 41
0.0
 71
     5
 72
     1
  1
180.2
 73
     1
 44
1.0
1001
ACAD
1000
MTEXTBEGIN
1070
    73
1070
     1
1070
    44
1040
1.0
1070
    74
1070
     0
1000
MTEXTEND
  0
POINT
  5
216A
330
2101
100
AcDbEntity
  8
Defpoints
 62
     0
100
AcDbPoint
 10
1575.824422510906
 20
1071.533966699292
 30
0.0
  0
POINT
  5
216B
330
2101
100
AcDbEntity
  8
Defpoints
 62
     0
100
AcDbPoint
 10
1756.024422510906
 20
1071.533966699292
 30
0.0
  0
POINT
  5
216C
330
2101
100
AcDbEntity
  8
Defpoints
 62
     0
100
AcDbPoint
 10
1756.024422510906
 20
910.7269795550939
 30
0.0
  0
ENDBLK
  5
210C
330
2101
100
AcDbEntity
  8
0
100
AcDbBlockEnd
  0
BLOCK
  5
2119
330
210D
100
AcDbEntity
  8
0
100
AcDbBlockBegin
  2
*D35
 70
     1
 10
0.0
 20
0.0
 30
0.0
  3
*D35
  1

  0
LINE
  5
2159
330
210D
100
AcDbEntity
  8
実形
 62
     0
370
    18
100
AcDbLine
 10
1756.024422510906
 20
1006.533966699292
 30
0.0
 11
1756.024422510906
 21
954.4355605830908
 31
0.0
  0
LINE
  5
215A
330
210D
100
AcDbEntity
  8
実形
 62
     0
370
    18
100
AcDbLine
 10
1766.024422510906
 20
1006.533966699292
 30
0.0
 11
1766.024422510906
 21
954.4355605830908
 31
0.0
  0
LINE
  5
215B
330
210D
100
AcDbEntity
  8
実形
 62
     0
370
    18
100
AcDbLine
 10
1756.024422510906
 20
954.4355605830908
 30
0.0
 11
1721.024422510906
 21
954.4355605830908
 31
0.0
  0
LINE
  5
215C
330
210D
100
AcDbEntity
  8
実形
 62
     0
370
    18
100
AcDbLine
 10
1766.024422510906
 20
954.4355605830908
 30
0.0
 11
1801.024422510906
 21
954.4355605830908
 31
0.0
  0
MTEXT
  5
215D
330
210D
100
AcDbEntity
  8
実形
 62
     0
100
AcDbMText
 10
1798.485383677598
 20
977.6209647616408
 30
0.0
 40
25.0
 41
0.0
 71
     5
 72
     1
  1
7
 73
     1
 44
1.0
1001
ACAD
1000
MTEXTBEGIN
1070
    73
1070
     1
1070
    44
1040
1.0
1070
    74
1070
     0
1000
MTEXTEND
  0
LINE
  5
215E
330
210D
100
AcDbEntity
  8
実形
 62
     0
370
    18
100
AcDbLine
 10
1756.024422510906
 20
954.4355605830908
 30
0.0
 11
1766.024422510906
 21
954.4355605830908
 31
0.0
  0
INSERT
  5
215F
330
210D
100
AcDbEntity
  8
実形
 62
     0
370
    18
100
AcDbBlockReference
  2
_DotSmall
 10
1756.024422510906
 20
954.4355605830908
 30
0.0
 41
35.0
 42
35.0
 43
35.0
  0
INSERT
  5
2160
330
210D
100
AcDbEntity
  8
実形
 62
     0
370
    18
100
AcDbBlockReference
  2
_DotSmall
 10
1766.024422510906
 20
954.4355605830908
 30
0.0
 41
35.0
 42
35.0
 43
35.0
 50
180.0
  0
POINT
  5
2161
330
210D
100
AcDbEntity
  8
Defpoints
 62
     0
100
AcDbPoint
 10
1756.024422510906
 20
1071.533966699292
 30
0.0
  0
POINT
  5
2162
330
210D
100
AcDbEntity
  8
Defpoints
 62
     0
100
AcDbPoint
 10
1766.024422510906
 20
1071.533966699292
 30
0.0
  0
POINT
  5
2163
330
210D
100
AcDbEntity
  8
Defpoints
 62
     0
100
AcDbPoint
 10
1766.024422510906
 20
954.4355605830908
 30
0.0
  0
ENDBLK
  5
211A
330
210D
100
AcDbEntity
  8
0
100
AcDbBlockEnd
  0
BLOCK
  5
2125
330
211B
100
AcDbEntity
  8
0
100
AcDbBlockBegin
  2
*D36
 70
     1
 10
0.0
 20
0.0
 30
0.0
  3
*D36
  1

  0
LINE
  5
2150
330
211B
100
AcDbEntity
  8
実形
 62
     0
370
    18
100
AcDbLine
 10
1557.824422510906
 20
1006.533966699292
 30
0.0
 11
1557.824422510906
 21
851.9488916049024
 31
0.0
  0
LINE
  5
2151
330
211B
100
AcDbEntity
  8
実形
 62
     0
370
    18
100
AcDbLine
 10
1756.024422510906
 20
1006.533966699292
 30
0.0
 11
1756.024422510906
 21
851.9488916049024
 31
0.0
  0
LINE
  5
2152
330
211B
100
AcDbEntity
  8
実形
 62
     0
370
    18
100
AcDbLine
 10
1557.824422510906
 20
851.9488916049024
 30
0.0
 11
1756.024422510906
 21
851.9488916049024
 31
0.0
  0
INSERT
  5
2153
330
211B
100
AcDbEntity
  8
実形
 62
     0
370
    18
100
AcDbBlockReference
  2
_DotSmall
 10
1557.824422510906
 20
851.9488916049024
 30
0.0
 41
35.0
 42
35.0
 43
35.0
 50
180.0
  0
INSERT
  5
2154
330
211B
100
AcDbEntity
  8
実形
 62
     0
370
    18
100
AcDbBlockReference
  2
_DotSmall
 10
1756.024422510906
 20
851.9488916049024
 30
0.0
 41
35.0
 42
35.0
 43
35.0
  0
MTEXT
  5
2155
330
211B
100
AcDbEntity
  8
実形
 62
     0
100
AcDbMText
 10
1656.924422510906
 20
870.6988916049024
 30
0.0
 40
25.0
 41
0.0
 71
     5
 72
     1
  1
198.2
 73
     1
 44
1.0
1001
ACAD
1000
MTEXTBEGIN
1070
    73
1070
     1
1070
    44
1040
1.0
1070
    74
1070
     0
1000
MTEXTEND
  0
POINT
  5
2156
330
211B
100
AcDbEntity
  8
Defpoints
 62
     0
100
AcDbPoint
 10
1557.824422510906
 20
1071.533966699292
 30
0.0
  0
POINT
  5
2157
330
211B
100
AcDbEntity
  8
Defpoints
 62
     0
100
AcDbPoint
 10
1756.024422510906
 20
1071.533966699292
 30
0.0
  0
POINT
  5
2158
330
211B
100
AcDbEntity
  8
Defpoints
 62
     0
100
AcDbPoint
 10
1756.024422510906
 20
851.9488916049024
 30
0.0
  0
ENDBLK
  5
2126
330
211B
100
AcDbEntity
  8
0
100
AcDbBlockEnd
  0
BLOCK
  5
2306
330
22FF
100
AcDbEntity
  8
0
100
AcDbBlockBegin
  2
*D37
 70
     1
 10
0.0
 20
0.0
 30
0.0
  3
*D37
  1

  0
LINE
  5
24C2
330
22FF
100
AcDbEntity
  8
実形
 62
     0
370
    13
100
AcDbLine
 10
2090.833877365067
 20
553.2947101512847
 30
0.0
 11
2090.833877365067
 21
467.1003685502147
 31
0.0
  0
LINE
  5
24C3
330
22FF
100
AcDbEntity
  8
実形
 62
     0
370
    13
100
AcDbLine
 10
2075.233877365067
 20
527.502986728412
 30
0.0
 11
2075.233877365067
 21
467.1003685502147
 31
0.0
  0
MTEXT
  5
24C4
330
22FF
100
AcDbEntity
  8
実形
 62
     0
100
AcDbMText
 10
2054.88545157578
 20
491.5915116428197
 30
0.0
 40
25.0
 41
0.0
 71
     5
 72
     1
  1
1
 73
     1
 44
1.0
1001
ACAD
1000
MTEXTBEGIN
1070
    73
1070
     1
1070
    44
1040
1.0
1070
    74
1070
     0
1000
MTEXTEND
  0
POINT
  5
24C5
330
22FF
100
AcDbEntity
  8
Defpoints
 62
     0
100
AcDbPoint
 10
2090.833877365067
 20
559.2947101512846
 30
0.0
  0
POINT
  5
24C6
330
22FF
100
AcDbEntity
  8
Defpoints
 62
     0
100
AcDbPoint
 10
2075.233877365067
 20
533.5029867284119
 30
0.0
  0
POINT
  5
24C7
330
22FF
100
AcDbEntity
  8
Defpoints
 62
     0
100
AcDbPoint
 10
2075.233877365067
 20
467.1003685502147
 30
0.0
  0
ENDBLK
  5
2307
330
22FF
100
AcDbEntity
  8
0
100
AcDbBlockEnd
  0
BLOCK
  5
2312
330
2308
100
AcDbEntity
  8
0
100
AcDbBlockBegin
  2
*D38
 70
     1
 10
0.0
 20
0.0
 30
0.0
  3
*D38
  1

  0
LINE
  5
24C8
330
2308
100
AcDbEntity
  8
実形
 62
     0
370
    18
100
AcDbLine
 10
2090.833877365066
 20
591.9073852958003
 30
0.0
 11
2090.833877365066
 21
617.1548568615962
 31
0.0
  0
LINE
  5
24C9
330
2308
100
AcDbEntity
  8
実形
 62
     0
370
    18
100
AcDbLine
 10
2324.833877365066
 20
591.9073852958003
 30
0.0
 11
2324.833877365066
 21
617.1548568615962
 31
0.0
  0
LINE
  5
24CA
330
2308
100
AcDbEntity
  8
実形
 62
     0
370
    18
100
AcDbLine
 10
2090.833877365066
 20
617.1548568615962
 30
0.0
 11
2324.833877365066
 21
617.1548568615962
 31
0.0
  0
INSERT
  5
24CB
330
2308
100
AcDbEntity
  8
実形
 62
     0
370
    18
100
AcDbBlockReference
  2
_DotSmall
 10
2090.833877365066
 20
617.1548568615962
 30
0.0
 41
35.0
 42
35.0
 43
35.0
 50
180.0
  0
INSERT
  5
24CC
330
2308
100
AcDbEntity
  8
実形
 62
     0
370
    18
100
AcDbBlockReference
  2
_DotSmall
 10
2324.833877365066
 20
617.1548568615962
 30
0.0
 41
35.0
 42
35.0
 43
35.0
  0
MTEXT
  5
24CD
330
2308
100
AcDbEntity
  8
実形
 62
     0
100
AcDbMText
 10
2207.833877365066
 20
635.9048568615962
 30
0.0
 40
25.0
 41
0.0
 71
     5
 72
     1
  1
15
 73
     1
 44
1.0
1001
ACAD
1000
MTEXTBEGIN
1070
    73
1070
     1
1070
    44
1040
1.0
1070
    74
1070
     0
1000
MTEXTEND
  0
POINT
  5
24CE
330
2308
100
AcDbEntity
  8
Defpoints
 62
     0
100
AcDbPoint
 10
2090.833877365066
 20
526.9073852958004
 30
0.0
  0
POINT
  5
24CF
330
2308
100
AcDbEntity
  8
Defpoints
 62
     0
100
AcDbPoint
 10
2324.833877365066
 20
526.9073852958004
 30
0.0
  0
POINT
  5
24D0
330
2308
100
AcDbEntity
  8
Defpoints
 62
     0
100
AcDbPoint
 10
2324.833877365066
 20
617.1548568615962
 30
0.0
  0
ENDBLK
  5
2313
330
2308
100
AcDbEntity
  8
0
100
AcDbBlockEnd
  0
BLOCK
  5
231E
330
2314
100
AcDbEntity
  8
0
100
AcDbBlockBegin
  2
*D39
 70
     1
 10
0.0
 20
0.0
 30
0.0
  3
*D39
  1

  0
LINE
  5
24D1
330
2314
100
AcDbEntity
  8
実形
 62
     0
370
    18
100
AcDbLine
 10
2292.614562018892
 20
504.6947101512855
 30
0.0
 11
2228.767481940162
 21
504.6947101512855
 31
0.0
  0
LINE
  5
24D2
330
2314
100
AcDbEntity
  8
実形
 62
     0
370
    18
100
AcDbLine
 10
2216.267191428404
 20
543.6947101512855
 30
0.0
 11
2228.767481940162
 21
543.6947101512855
 31
0.0
  0
LINE
  5
24D3
330
2314
100
AcDbEntity
  8
実形
 62
     0
370
    18
100
AcDbLine
 10
2228.767481940162
 20
504.6947101512855
 30
0.0
 11
2228.767481940162
 21
543.6947101512855
 31
0.0
  0
MTEXT
  5
24D4
330
2314
100
AcDbEntity
  8
実形
 62
     0
100
AcDbMText
 10
2197.294896545438
 20
515.0052225685112
 30
0.0
 40
23.0
 41
0.0
 71
     5
 72
     1
  1
2.5
 11
0.0000000000000001
 21
1.0
 31
0.0
 73
     1
 44
1.0
1001
ACAD
1000
MTEXTBEGIN
1070
    73
1070
     1
1070
    44
1040
1.0
1070
    74
1070
     0
1000
MTEXTEND
  0
INSERT
  5
24D5
330
2314
100
AcDbEntity
  8
実形
 62
     0
370
    18
100
AcDbBlockReference
  2
_DotSmall
 10
2228.767481940162
 20
504.6947101512855
 30
0.0
 41
35.0
 42
35.0
 43
35.0
 50
270.0
  0
INSERT
  5
24D6
330
2314
100
AcDbEntity
  8
実形
 62
     0
370
    18
100
AcDbBlockReference
  2
_DotSmall
 10
2228.767481940162
 20
543.6947101512855
 30
0.0
 41
35.0
 42
35.0
 43
35.0
 50
90.0
  0
POINT
  5
24D7
330
2314
100
AcDbEntity
  8
Defpoints
 62
     0
100
AcDbPoint
 10
2357.614562018891
 20
504.6947101512855
 30
0.0
  0
POINT
  5
24D8
330
2314
100
AcDbEntity
  8
Defpoints
 62
     0
100
AcDbPoint
 10
2281.267191428404
 20
543.6947101512855
 30
0.0
  0
POINT
  5
24D9
330
2314
100
AcDbEntity
  8
Defpoints
 62
     0
100
AcDbPoint
 10
2228.767481940162
 20
543.6947101512855
 30
0.0
  0
ENDBLK
  5
231F
330
2314
100
AcDbEntity
  8
0
100
AcDbBlockEnd
  0
BLOCK
  5
232A
330
2320
100
AcDbEntity
  8
0
100
AcDbBlockBegin
  2
*D40
 70
     1
 10
0.0
 20
0.0
 30
0.0
  3
*D40
  1

  0
LINE
  5
24DA
330
2320
100
AcDbEntity
  8
実形
 62
     0
370
    18
100
AcDbLine
 10
2278.033877365066
 20
448.0145559292668
 30
0.0
 11
2278.033877365066
 21
452.0882219802177
 31
0.0
  0
LINE
  5
24DB
330
2320
100
AcDbEntity
  8
実形
 62
     0
370
    18
100
AcDbLine
 10
2356.033877365066
 20
448.0145559292668
 30
0.0
 11
2356.033877365066
 21
452.0882219802177
 31
0.0
  0
LINE
  5
24DC
330
2320
100
AcDbEntity
  8
実形
 62
     0
370
    18
100
AcDbLine
 10
2278.033877365066
 20
452.0882219802177
 30
0.0
 11
2356.033877365066
 21
452.0882219802177
 31
0.0
  0
INSERT
  5
24DD
330
2320
100
AcDbEntity
  8
実形
 62
     0
370
    18
100
AcDbBlockReference
  2
_DotSmall
 10
2278.033877365066
 20
452.0882219802177
 30
0.0
 41
35.0
 42
35.0
 43
35.0
 50
180.0
  0
INSERT
  5
24DE
330
2320
100
AcDbEntity
  8
実形
 62
     0
370
    18
100
AcDbBlockReference
  2
_DotSmall
 10
2356.033877365066
 20
452.0882219802177
 30
0.0
 41
35.0
 42
35.0
 43
35.0
  0
MTEXT
  5
24DF
330
2320
100
AcDbEntity
  8
実形
 62
     0
100
AcDbMText
 10
2317.033877365066
 20
470.8382219802177
 30
0.0
 40
25.0
 41
0.0
 71
     5
 72
     1
  1
5
 73
     1
 44
1.0
1001
ACAD
1000
MTEXTBEGIN
1070
    73
1070
     1
1070
    44
1040
1.0
1070
    74
1070
     0
1000
MTEXTEND
  0
POINT
  5
24E0
330
2320
100
AcDbEntity
  8
Defpoints
 62
     0
100
AcDbPoint
 10
2278.033877365066
 20
513.0145559292668
 30
0.0
  0
POINT
  5
24E1
330
2320
100
AcDbEntity
  8
Defpoints
 62
     0
100
AcDbPoint
 10
2356.033877365066
 20
513.0145559292668
 30
0.0
  0
POINT
  5
24E2
330
2320
100
AcDbEntity
  8
Defpoints
 62
     0
100
AcDbPoint
 10
2356.033877365066
 20
452.0882219802177
 30
0.0
  0
ENDBLK
  5
232B
330
2320
100
AcDbEntity
  8
0
100
AcDbBlockEnd
  0
BLOCK
  5
2336
330
232C
100
AcDbEntity
  8
0
100
AcDbBlockBegin
  2
*D41
 70
     1
 10
0.0
 20
0.0
 30
0.0
  3
*D41
  1

  0
LINE
  5
24E3
330
232C
100
AcDbEntity
  8
実形
 62
     0
370
    18
100
AcDbLine
 10
2266.326187506493
 20
442.2947101512853
 30
0.0
 11
2230.705930897853
 21
442.2947101512853
 31
0.0
  0
LINE
  5
24E4
330
232C
100
AcDbEntity
  8
実形
 62
     0
370
    18
100
AcDbLine
 10
2278.612691407768
 20
403.2947101512855
 30
0.0
 11
2230.705930897853
 21
403.2947101512855
 31
0.0
  0
LINE
  5
24E5
330
232C
100
AcDbEntity
  8
実形
 62
     0
370
    18
100
AcDbLine
 10
2230.705930897853
 20
442.2947101512853
 30
0.0
 11
2230.705930897853
 21
403.2947101512855
 31
0.0
  0
MTEXT
  5
24E6
330
232C
100
AcDbEntity
  8
実形
 62
     0
100
AcDbMText
 10
2198.086469593912
 20
431.6583152348946
 30
0.0
 40
23.0
 41
0.0
 71
     5
 72
     1
  1
2.5
 11
0.0000000000000001
 21
1.0
 31
0.0
 73
     1
 44
1.0
1001
ACAD
1000
MTEXTBEGIN
1070
    73
1070
     1
1070
    44
1040
1.0
1070
    74
1070
     0
1000
MTEXTEND
  0
INSERT
  5
24E7
330
232C
100
AcDbEntity
  8
実形
 62
     0
370
    18
100
AcDbBlockReference
  2
_DotSmall
 10
2230.705930897853
 20
442.2947101512853
 30
0.0
 41
35.0
 42
35.0
 43
35.0
 50
90.0
  0
INSERT
  5
24E8
330
232C
100
AcDbEntity
  8
実形
 62
     0
370
    18
100
AcDbBlockReference
  2
_DotSmall
 10
2230.705930897853
 20
403.2947101512855
 30
0.0
 41
35.0
 42
35.0
 43
35.0
 50
270.0
  0
POINT
  5
24E9
330
232C
100
AcDbEntity
  8
Defpoints
 62
     0
100
AcDbPoint
 10
2331.326187506493
 20
442.2947101512853
 30
0.0
  0
POINT
  5
24EA
330
232C
100
AcDbEntity
  8
Defpoints
 62
     0
100
AcDbPoint
 10
2343.612691407768
 20
403.2947101512855
 30
0.0
  0
POINT
  5
24EB
330
232C
100
AcDbEntity
  8
Defpoints
 62
     0
100
AcDbPoint
 10
2230.705930897853
 20
403.2947101512855
 30
0.0
  0
ENDBLK
  5
2337
330
232C
100
AcDbEntity
  8
0
100
AcDbBlockEnd
  0
BLOCK
  5
2342
330
2338
100
AcDbEntity
  8
0
100
AcDbBlockBegin
  2
*D42
 70
     1
 10
0.0
 20
0.0
 30
0.0
  3
*D42
  1

  0
LINE
  5
24EC
330
2338
100
AcDbEntity
  8
実形
 62
     0
370
    18
100
AcDbLine
 10
2075.233877365066
 20
696.1956311673393
 30
0.0
 11
2075.233877365066
 21
733.9587029177619
 31
0.0
  0
LINE
  5
24ED
330
2338
100
AcDbEntity
  8
実形
 62
     0
370
    18
100
AcDbLine
 10
2356.033877365066
 20
696.1956311673393
 30
0.0
 11
2356.033877365066
 21
733.9587029177619
 31
0.0
  0
LINE
  5
24EE
330
2338
100
AcDbEntity
  8
実形
 62
     0
370
    18
100
AcDbLine
 10
2075.233877365066
 20
733.9587029177619
 30
0.0
 11
2356.033877365066
 21
733.9587029177619
 31
0.0
  0
INSERT
  5
24EF
330
2338
100
AcDbEntity
  8
実形
 62
     0
370
    18
100
AcDbBlockReference
  2
_DotSmall
 10
2075.233877365066
 20
733.9587029177619
 30
0.0
 41
35.0
 42
35.0
 43
35.0
 50
180.0
  0
INSERT
  5
24F0
330
2338
100
AcDbEntity
  8
実形
 62
     0
370
    18
100
AcDbBlockReference
  2
_DotSmall
 10
2356.033877365066
 20
733.9587029177619
 30
0.0
 41
35.0
 42
35.0
 43
35.0
  0
MTEXT
  5
24F1
330
2338
100
AcDbEntity
  8
実形
 62
     0
100
AcDbMText
 10
2215.633877365066
 20
752.7087029177619
 30
0.0
 40
25.0
 41
0.0
 71
     5
 72
     1
  1
18
 73
     1
 44
1.0
1001
ACAD
1000
MTEXTBEGIN
1070
    73
1070
     1
1070
    44
1040
1.0
1070
    74
1070
     0
1000
MTEXTEND
  0
POINT
  5
24F2
330
2338
100
AcDbEntity
  8
Defpoints
 62
     0
100
AcDbPoint
 10
2075.233877365066
 20
631.1956311673393
 30
0.0
  0
POINT
  5
24F3
330
2338
100
AcDbEntity
  8
Defpoints
 62
     0
100
AcDbPoint
 10
2356.033877365066
 20
631.1956311673393
 30
0.0
  0
POINT
  5
24F4
330
2338
100
AcDbEntity
  8
Defpoints
 62
     0
100
AcDbPoint
 10
2356.033877365066
 20
733.9587029177619
 30
0.0
  0
ENDBLK
  5
2343
330
2338
100
AcDbEntity
  8
0
100
AcDbBlockEnd
  0
BLOCK
  5
234E
330
2344
100
AcDbEntity
  8
0
100
AcDbBlockBegin
  2
*D43
 70
     1
 10
0.0
 20
0.0
 30
0.0
  3
*D43
  1

  0
LINE
  5
24F5
330
2344
100
AcDbEntity
  8
実形
 62
     0
370
    18
100
AcDbLine
 10
2356.033877365066
 20
696.1956311673382
 30
0.0
 11
2356.033877365066
 21
733.9587029177619
 31
0.0
  0
LINE
  5
24F6
330
2344
100
AcDbEntity
  8
実形
 62
     0
370
    18
100
AcDbLine
 10
2621.233877365066
 20
696.1956311673382
 30
0.0
 11
2621.233877365066
 21
733.9587029177619
 31
0.0
  0
LINE
  5
24F7
330
2344
100
AcDbEntity
  8
実形
 62
     0
370
    18
100
AcDbLine
 10
2356.033877365066
 20
733.9587029177619
 30
0.0
 11
2621.233877365066
 21
733.9587029177619
 31
0.0
  0
INSERT
  5
24F8
330
2344
100
AcDbEntity
  8
実形
 62
     0
370
    18
100
AcDbBlockReference
  2
_DotSmall
 10
2356.033877365066
 20
733.9587029177619
 30
0.0
 41
35.0
 42
35.0
 43
35.0
 50
180.0
  0
INSERT
  5
24F9
330
2344
100
AcDbEntity
  8
実形
 62
     0
370
    18
100
AcDbBlockReference
  2
_DotSmall
 10
2621.233877365066
 20
733.9587029177619
 30
0.0
 41
35.0
 42
35.0
 43
35.0
  0
MTEXT
  5
24FA
330
2344
100
AcDbEntity
  8
実形
 62
     0
100
AcDbMText
 10
2488.633877365066
 20
752.7087029177619
 30
0.0
 40
25.0
 41
0.0
 71
     5
 72
     1
  1
17
 73
     1
 44
1.0
1001
ACAD
1000
MTEXTBEGIN
1070
    73
1070
     1
1070
    44
1040
1.0
1070
    74
1070
     0
1000
MTEXTEND
  0
POINT
  5
24FB
330
2344
100
AcDbEntity
  8
Defpoints
 62
     0
100
AcDbPoint
 10
2356.033877365066
 20
631.1956311673382
 30
0.0
  0
POINT
  5
24FC
330
2344
100
AcDbEntity
  8
Defpoints
 62
     0
100
AcDbPoint
 10
2621.233877365066
 20
631.1956311673382
 30
0.0
  0
POINT
  5
24FD
330
2344
100
AcDbEntity
  8
Defpoints
 62
     0
100
AcDbPoint
 10
2621.233877365066
 20
733.9587029177619
 30
0.0
  0
ENDBLK
  5
234F
330
2344
100
AcDbEntity
  8
0
100
AcDbBlockEnd
  0
BLOCK
  5
235A
330
2350
100
AcDbEntity
  8
0
100
AcDbBlockBegin
  2
*D44
 70
     1
 10
0.0
 20
0.0
 30
0.0
  3
*D44
  1

  0
LINE
  5
24FE
330
2350
100
AcDbEntity
  8
実形
 62
     0
370
    18
100
AcDbLine
 10
2075.233877365066
 20
696.1956311673382
 30
0.0
 11
2075.233877365066
 21
777.4666415156134
 31
0.0
  0
LINE
  5
24FF
330
2350
100
AcDbEntity
  8
実形
 62
     0
370
    18
100
AcDbLine
 10
2621.233877365066
 20
696.1956311673382
 30
0.0
 11
2621.233877365066
 21
777.4666415156134
 31
0.0
  0
LINE
  5
2500
330
2350
100
AcDbEntity
  8
実形
 62
     0
370
    18
100
AcDbLine
 10
2075.233877365066
 20
777.4666415156134
 30
0.0
 11
2621.233877365066
 21
777.4666415156134
 31
0.0
  0
INSERT
  5
2501
330
2350
100
AcDbEntity
  8
実形
 62
     0
370
    18
100
AcDbBlockReference
  2
_DotSmall
 10
2075.233877365066
 20
777.4666415156134
 30
0.0
 41
35.0
 42
35.0
 43
35.0
 50
180.0
  0
INSERT
  5
2502
330
2350
100
AcDbEntity
  8
実形
 62
     0
370
    18
100
AcDbBlockReference
  2
_DotSmall
 10
2621.233877365066
 20
777.4666415156134
 30
0.0
 41
35.0
 42
35.0
 43
35.0
  0
MTEXT
  5
2503
330
2350
100
AcDbEntity
  8
実形
 62
     0
100
AcDbMText
 10
2348.233877365066
 20
796.2166415156134
 30
0.0
 40
25.0
 41
0.0
 71
     5
 72
     1
  1
35
 73
     1
 44
1.0
1001
ACAD
1000
MTEXTBEGIN
1070
    73
1070
     1
1070
    44
1040
1.0
1070
    74
1070
     0
1000
MTEXTEND
  0
POINT
  5
2504
330
2350
100
AcDbEntity
  8
Defpoints
 62
     0
100
AcDbPoint
 10
2075.233877365066
 20
631.1956311673382
 30
0.0
  0
POINT
  5
2505
330
2350
100
AcDbEntity
  8
Defpoints
 62
     0
100
AcDbPoint
 10
2621.233877365066
 20
631.1956311673382
 30
0.0
  0
POINT
  5
2506
330
2350
100
AcDbEntity
  8
Defpoints
 62
     0
100
AcDbPoint
 10
2621.233877365066
 20
777.4666415156134
 30
0.0
  0
ENDBLK
  5
235B
330
2350
100
AcDbEntity
  8
0
100
AcDbBlockEnd
  0
BLOCK
  5
2366
330
235C
100
AcDbEntity
  8
0
100
AcDbBlockBegin
  2
*D45
 70
     1
 10
0.0
 20
0.0
 30
0.0
  3
*D45
  1

  0
LINE
  5
2507
330
235C
100
AcDbEntity
  8
実形
 62
     0
370
    18
100
AcDbLine
 10
2106.433877365066
 20
346.5474686202858
 30
0.0
 11
2106.433877365066
 21
297.5085770831867
 31
0.0
  0
LINE
  5
2508
330
235C
100
AcDbEntity
  8
実形
 62
     0
370
    18
100
AcDbLine
 10
2153.233877365066
 20
346.5474686202858
 30
0.0
 11
2153.233877365066
 21
297.5085770831867
 31
0.0
  0
LINE
  5
2509
330
235C
100
AcDbEntity
  8
実形
 62
     0
370
    18
100
AcDbLine
 10
2106.433877365066
 20
297.5085770831867
 30
0.0
 11
2153.233877365066
 21
297.5085770831867
 31
0.0
  0
MTEXT
  5
250A
330
235C
100
AcDbEntity
  8
実形
 62
     0
100
AcDbMText
 10
2053.203290699754
 20
332.9138518235977
 30
0.0
 40
25.0
 41
0.0
 71
     5
 72
     1
  1
3.2
 73
     1
 44
1.0
1001
ACAD
1000
MTEXTBEGIN
1070
    73
1070
     1
1070
    44
1040
1.0
1070
    74
1070
     0
1000
MTEXTEND
  0
INSERT
  5
250B
330
235C
100
AcDbEntity
  8
実形
 62
     0
370
    18
100
AcDbBlockReference
  2
_DotSmall
 10
2106.433877365066
 20
297.5085770831867
 30
0.0
 41
35.0
 42
35.0
 43
35.0
 50
180.0
  0
INSERT
  5
250C
330
235C
100
AcDbEntity
  8
実形
 62
     0
370
    18
100
AcDbBlockReference
  2
_DotSmall
 10
2153.233877365066
 20
297.5085770831867
 30
0.0
 41
35.0
 42
35.0
 43
35.0
  0
POINT
  5
250D
330
235C
100
AcDbEntity
  8
Defpoints
 62
     0
100
AcDbPoint
 10
2106.433877365066
 20
411.5474686202857
 30
0.0
  0
POINT
  5
250E
330
235C
100
AcDbEntity
  8
Defpoints
 62
     0
100
AcDbPoint
 10
2153.233877365066
 20
411.5474686202857
 30
0.0
  0
POINT
  5
250F
330
235C
100
AcDbEntity
  8
Defpoints
 62
     0
100
AcDbPoint
 10
2153.233877365066
 20
297.5085770831867
 30
0.0
  0
ENDBLK
  5
2367
330
235C
100
AcDbEntity
  8
0
100
AcDbBlockEnd
  0
BLOCK
  5
2372
330
2368
100
AcDbEntity
  8
0
100
AcDbBlockBegin
  2
*D46
 70
     1
 10
0.0
 20
0.0
 30
0.0
  3
*D46
  1

  0
LINE
  5
2510
330
2368
100
AcDbEntity
  8
実形
 62
     0
370
    18
100
AcDbLine
 10
2153.233877365066
 20
346.5474686202858
 30
0.0
 11
2153.233877365066
 21
297.5085770831867
 31
0.0
  0
LINE
  5
2511
330
2368
100
AcDbEntity
  8
実形
 62
     0
370
    18
100
AcDbLine
 10
2278.033877365066
 20
346.5474686202858
 30
0.0
 11
2278.033877365066
 21
297.5085770831867
 31
0.0
  0
LINE
  5
2512
330
2368
100
AcDbEntity
  8
実形
 62
     0
370
    18
100
AcDbLine
 10
2153.233877365066
 20
297.5085770831867
 30
0.0
 11
2278.033877365066
 21
297.5085770831867
 31
0.0
  0
INSERT
  5
2513
330
2368
100
AcDbEntity
  8
実形
 62
     0
370
    18
100
AcDbBlockReference
  2
_DotSmall
 10
2153.233877365066
 20
297.5085770831867
 30
0.0
 41
35.0
 42
35.0
 43
35.0
 50
180.0
  0
INSERT
  5
2514
330
2368
100
AcDbEntity
  8
実形
 62
     0
370
    18
100
AcDbBlockReference
  2
_DotSmall
 10
2278.033877365066
 20
297.5085770831867
 30
0.0
 41
35.0
 42
35.0
 43
35.0
  0
MTEXT
  5
2515
330
2368
100
AcDbEntity
  8
実形
 62
     0
100
AcDbMText
 10
2215.633877365066
 20
316.2585770831867
 30
0.0
 40
25.0
 41
0.0
 71
     5
 72
     1
  1
8
 73
     1
 44
1.0
1001
ACAD
1000
MTEXTBEGIN
1070
    73
1070
     1
1070
    44
1040
1.0
1070
    74
1070
     0
1000
MTEXTEND
  0
POINT
  5
2516
330
2368
100
AcDbEntity
  8
Defpoints
 62
     0
100
AcDbPoint
 10
2153.233877365066
 20
411.5474686202857
 30
0.0
  0
POINT
  5
2517
330
2368
100
AcDbEntity
  8
Defpoints
 62
     0
100
AcDbPoint
 10
2278.033877365066
 20
411.5474686202857
 30
0.0
  0
POINT
  5
2518
330
2368
100
AcDbEntity
  8
Defpoints
 62
     0
100
AcDbPoint
 10
2278.033877365066
 20
297.5085770831867
 30
0.0
  0
ENDBLK
  5
2373
330
2368
100
AcDbEntity
  8
0
100
AcDbBlockEnd
  0
BLOCK
  5
237E
330
2374
100
AcDbEntity
  8
0
100
AcDbBlockBegin
  2
*D47
 70
     1
 10
0.0
 20
0.0
 30
0.0
  3
*D47
  1

  0
LINE
  5
2519
330
2374
100
AcDbEntity
  8
実形
 62
     0
370
    18
100
AcDbLine
 10
2278.033877365066
 20
346.5474686202858
 30
0.0
 11
2278.033877365066
 21
297.5085770831867
 31
0.0
  0
LINE
  5
251A
330
2374
100
AcDbEntity
  8
実形
 62
     0
370
    18
100
AcDbLine
 10
2356.033877365066
 20
346.5474686202858
 30
0.0
 11
2356.033877365066
 21
297.5085770831867
 31
0.0
  0
LINE
  5
251B
330
2374
100
AcDbEntity
  8
実形
 62
     0
370
    18
100
AcDbLine
 10
2278.033877365066
 20
297.5085770831867
 30
0.0
 11
2356.033877365066
 21
297.5085770831867
 31
0.0
  0
INSERT
  5
251C
330
2374
100
AcDbEntity
  8
実形
 62
     0
370
    18
100
AcDbBlockReference
  2
_DotSmall
 10
2278.033877365066
 20
297.5085770831867
 30
0.0
 41
35.0
 42
35.0
 43
35.0
 50
180.0
  0
INSERT
  5
251D
330
2374
100
AcDbEntity
  8
実形
 62
     0
370
    18
100
AcDbBlockReference
  2
_DotSmall
 10
2356.033877365066
 20
297.5085770831867
 30
0.0
 41
35.0
 42
35.0
 43
35.0
  0
MTEXT
  5
251E
330
2374
100
AcDbEntity
  8
実形
 62
     0
100
AcDbMText
 10
2317.033877365066
 20
316.2585770831867
 30
0.0
 40
25.0
 41
0.0
 71
     5
 72
     1
  1
5
 73
     1
 44
1.0
1001
ACAD
1000
MTEXTBEGIN
1070
    73
1070
     1
1070
    44
1040
1.0
1070
    74
1070
     0
1000
MTEXTEND
  0
POINT
  5
251F
330
2374
100
AcDbEntity
  8
Defpoints
 62
     0
100
AcDbPoint
 10
2278.033877365066
 20
411.5474686202857
 30
0.0
  0
POINT
  5
2520
330
2374
100
AcDbEntity
  8
Defpoints
 62
     0
100
AcDbPoint
 10
2356.033877365066
 20
411.5474686202857
 30
0.0
  0
POINT
  5
2521
330
2374
100
AcDbEntity
  8
Defpoints
 62
     0
100
AcDbPoint
 10
2356.033877365066
 20
297.5085770831867
 30
0.0
  0
ENDBLK
  5
237F
330
2374
100
AcDbEntity
  8
0
100
AcDbBlockEnd
  0
BLOCK
  5
238A
330
2380
100
AcDbEntity
  8
0
100
AcDbBlockBegin
  2
*D48
 70
     1
 10
0.0
 20
0.0
 30
0.0
  3
*D48
  1

  0
LINE
  5
2522
330
2380
100
AcDbEntity
  8
実形
 62
     0
370
    18
100
AcDbLine
 10
2356.033877365066
 20
346.5474686202858
 30
0.0
 11
2356.033877365066
 21
297.5085770831867
 31
0.0
  0
LINE
  5
2523
330
2380
100
AcDbEntity
  8
実形
 62
     0
370
    18
100
AcDbLine
 10
2621.233877365066
 20
346.5474686202858
 30
0.0
 11
2621.233877365066
 21
297.5085770831867
 31
0.0
  0
LINE
  5
2524
330
2380
100
AcDbEntity
  8
実形
 62
     0
370
    18
100
AcDbLine
 10
2356.033877365066
 20
297.5085770831867
 30
0.0
 11
2621.233877365066
 21
297.5085770831867
 31
0.0
  0
INSERT
  5
2525
330
2380
100
AcDbEntity
  8
実形
 62
     0
370
    18
100
AcDbBlockReference
  2
_DotSmall
 10
2356.033877365066
 20
297.5085770831867
 30
0.0
 41
35.0
 42
35.0
 43
35.0
 50
180.0
  0
INSERT
  5
2526
330
2380
100
AcDbEntity
  8
実形
 62
     0
370
    18
100
AcDbBlockReference
  2
_DotSmall
 10
2621.233877365066
 20
297.5085770831867
 30
0.0
 41
35.0
 42
35.0
 43
35.0
  0
MTEXT
  5
2527
330
2380
100
AcDbEntity
  8
実形
 62
     0
100
AcDbMText
 10
2488.633877365066
 20
316.2585770831867
 30
0.0
 40
25.0
 41
0.0
 71
     5
 72
     1
  1
17
 73
     1
 44
1.0
1001
ACAD
1000
MTEXTBEGIN
1070
    73
1070
     1
1070
    44
1040
1.0
1070
    74
1070
     0
1000
MTEXTEND
  0
POINT
  5
2528
330
2380
100
AcDbEntity
  8
Defpoints
 62
     0
100
AcDbPoint
 10
2356.033877365066
 20
411.5474686202857
 30
0.0
  0
POINT
  5
2529
330
2380
100
AcDbEntity
  8
Defpoints
 62
     0
100
AcDbPoint
 10
2621.233877365066
 20
411.5474686202857
 30
0.0
  0
POINT
  5
252A
330
2380
100
AcDbEntity
  8
Defpoints
 62
     0
100
AcDbPoint
 10
2621.233877365066
 20
297.5085770831867
 30
0.0
  0
ENDBLK
  5
238B
330
2380
100
AcDbEntity
  8
0
100
AcDbBlockEnd
  0
BLOCK
  5
2396
330
238C
100
AcDbEntity
  8
0
100
AcDbBlockBegin
  2
*D49
 70
     1
 10
0.0
 20
0.0
 30
0.0
  3
*D49
  1

  0
LINE
  5
252B
330
238C
100
AcDbEntity
  8
実形
 62
     0
370
    18
100
AcDbLine
 10
2077.023276234157
 20
297.8281686160613
 30
0.0
 11
2077.023276234157
 21
247.5388396829094
 31
0.0
  0
LINE
  5
252C
330
238C
100
AcDbEntity
  8
実形
 62
     0
370
    18
100
AcDbLine
 10
2155.023276234156
 20
297.8281686160613
 30
0.0
 11
2155.023276234156
 21
247.5388396829094
 31
0.0
  0
LINE
  5
252D
330
238C
100
AcDbEntity
  8
実形
 62
     0
370
    18
100
AcDbLine
 10
2077.023276234157
 20
247.5388396829094
 30
0.0
 11
2155.023276234156
 21
247.5388396829094
 31
0.0
  0
INSERT
  5
252E
330
238C
100
AcDbEntity
  8
実形
 62
     0
370
    18
100
AcDbBlockReference
  2
_DotSmall
 10
2077.023276234157
 20
247.5388396829094
 30
0.0
 41
35.0
 42
35.0
 43
35.0
 50
180.0
  0
INSERT
  5
252F
330
238C
100
AcDbEntity
  8
実形
 62
     0
370
    18
100
AcDbBlockReference
  2
_DotSmall
 10
2155.023276234156
 20
247.5388396829094
 30
0.0
 41
35.0
 42
35.0
 43
35.0
  0
MTEXT
  5
2530
330
238C
100
AcDbEntity
  8
実形
 62
     0
100
AcDbMText
 10
2116.023276234157
 20
266.2888396829094
 30
0.0
 40
25.0
 41
0.0
 71
     5
 72
     1
  1
5
 73
     1
 44
1.0
1001
ACAD
1000
MTEXTBEGIN
1070
    73
1070
     1
1070
    44
1040
1.0
1070
    74
1070
     0
1000
MTEXTEND
  0
POINT
  5
2531
330
238C
100
AcDbEntity
  8
Defpoints
 62
     0
100
AcDbPoint
 10
2077.023276234157
 20
362.8281686160613
 30
0.0
  0
POINT
  5
2532
330
238C
100
AcDbEntity
  8
Defpoints
 62
     0
100
AcDbPoint
 10
2155.023276234156
 20
362.8281686160613
 30
0.0
  0
POINT
  5
2533
330
238C
100
AcDbEntity
  8
Defpoints
 62
     0
100
AcDbPoint
 10
2155.023276234156
 20
247.5388396829094
 30
0.0
  0
ENDBLK
  5
2397
330
238C
100
AcDbEntity
  8
0
100
AcDbBlockEnd
  0
BLOCK
  5
23A2
330
2398
100
AcDbEntity
  8
0
100
AcDbBlockBegin
  2
*D50
 70
     1
 10
0.0
 20
0.0
 30
0.0
  3
*D50
  1

  0
LINE
  5
2534
330
2398
100
AcDbEntity
  8
実形
 62
     0
370
    18
100
AcDbLine
 10
2155.023276234156
 20
297.8281686160613
 30
0.0
 11
2155.023276234156
 21
247.5388396829094
 31
0.0
  0
LINE
  5
2535
330
2398
100
AcDbEntity
  8
実形
 62
     0
370
    18
100
AcDbLine
 10
2623.023276234156
 20
297.8281686160613
 30
0.0
 11
2623.023276234156
 21
247.5388396829094
 31
0.0
  0
LINE
  5
2536
330
2398
100
AcDbEntity
  8
実形
 62
     0
370
    18
100
AcDbLine
 10
2155.023276234156
 20
247.5388396829094
 30
0.0
 11
2623.023276234156
 21
247.5388396829094
 31
0.0
  0
INSERT
  5
2537
330
2398
100
AcDbEntity
  8
実形
 62
     0
370
    18
100
AcDbBlockReference
  2
_DotSmall
 10
2155.023276234156
 20
247.5388396829094
 30
0.0
 41
35.0
 42
35.0
 43
35.0
 50
180.0
  0
INSERT
  5
2538
330
2398
100
AcDbEntity
  8
実形
 62
     0
370
    18
100
AcDbBlockReference
  2
_DotSmall
 10
2623.023276234156
 20
247.5388396829094
 30
0.0
 41
35.0
 42
35.0
 43
35.0
  0
MTEXT
  5
2539
330
2398
100
AcDbEntity
  8
実形
 62
     0
100
AcDbMText
 10
2389.023276234156
 20
266.2888396829094
 30
0.0
 40
25.0
 41
0.0
 71
     5
 72
     1
  1
30
 73
     1
 44
1.0
1001
ACAD
1000
MTEXTBEGIN
1070
    73
1070
     1
1070
    44
1040
1.0
1070
    74
1070
     0
1000
MTEXTEND
  0
POINT
  5
253A
330
2398
100
AcDbEntity
  8
Defpoints
 62
     0
100
AcDbPoint
 10
2155.023276234156
 20
362.8281686160613
 30
0.0
  0
POINT
  5
253B
330
2398
100
AcDbEntity
  8
Defpoints
 62
     0
100
AcDbPoint
 10
2623.023276234156
 20
362.8281686160613
 30
0.0
  0
POINT
  5
253C
330
2398
100
AcDbEntity
  8
Defpoints
 62
     0
100
AcDbPoint
 10
2623.023276234156
 20
247.5388396829094
 30
0.0
  0
ENDBLK
  5
23A3
330
2398
100
AcDbEntity
  8
0
100
AcDbBlockEnd
  0
BLOCK
  5
23AE
330
23A4
100
AcDbEntity
  8
0
100
AcDbBlockBegin
  2
*D51
 70
     1
 10
0.0
 20
0.0
 30
0.0
  3
*D51
  1

  0
LINE
  5
253D
330
23A4
100
AcDbEntity
  8
実形
 62
     0
370
    18
100
AcDbLine
 10
2032.328912889143
 20
684.0947101512855
 30
0.0
 11
1970.032114275532
 21
684.0947101512855
 31
0.0
  0
LINE
  5
253E
330
23A4
100
AcDbEntity
  8
実形
 62
     0
370
    18
100
AcDbLine
 10
2032.328912889143
 20
585.2947101512854
 30
0.0
 11
1970.032114275532
 21
585.2947101512854
 31
0.0
  0
LINE
  5
253F
330
23A4
100
AcDbEntity
  8
実形
 62
     0
370
    18
100
AcDbLine
 10
1970.032114275532
 20
684.0947101512855
 30
0.0
 11
1970.032114275532
 21
585.2947101512854
 31
0.0
  0
INSERT
  5
2540
330
23A4
100
AcDbEntity
  8
実形
 62
     0
370
    18
100
AcDbBlockReference
  2
_DotSmall
 10
1970.032114275532
 20
684.0947101512855
 30
0.0
 41
35.0
 42
35.0
 43
35.0
 50
90.0
  0
INSERT
  5
2541
330
23A4
100
AcDbEntity
  8
実形
 62
     0
370
    18
100
AcDbBlockReference
  2
_DotSmall
 10
1970.032114275532
 20
585.2947101512854
 30
0.0
 41
35.0
 42
35.0
 43
35.0
 50
270.0
  0
MTEXT
  5
2542
330
23A4
100
AcDbEntity
  8
実形
 62
     0
100
AcDbMText
 10
1951.282114275532
 20
634.6947101512859
 30
0.0
 40
25.0
 41
0.0
 71
     5
 72
     1
  1
6.5
 11
0.0000000000000001
 21
1.0
 31
0.0
 73
     1
 44
1.0
1001
ACAD
1000
MTEXTBEGIN
1070
    73
1070
     1
1070
    44
1040
1.0
1070
    74
1070
     0
1000
MTEXTEND
  0
POINT
  5
2543
330
23A4
100
AcDbEntity
  8
Defpoints
 62
     0
100
AcDbPoint
 10
2097.328912889143
 20
684.0947101512855
 30
0.0
  0
POINT
  5
2544
330
23A4
100
AcDbEntity
  8
Defpoints
 62
     0
100
AcDbPoint
 10
2097.328912889143
 20
585.2947101512854
 30
0.0
  0
POINT
  5
2545
330
23A4
100
AcDbEntity
  8
Defpoints
 62
     0
100
AcDbPoint
 10
1970.032114275532
 20
585.2947101512854
 30
0.0
  0
ENDBLK
  5
23AF
330
23A4
100
AcDbEntity
  8
0
100
AcDbBlockEnd
  0
BLOCK
  5
23BA
330
23B0
100
AcDbEntity
  8
0
100
AcDbBlockBegin
  2
*D52
 70
     1
 10
0.0
 20
0.0
 30
0.0
  3
*D52
  1

  0
LINE
  5
2546
330
23B0
100
AcDbEntity
  8
実形
 62
     0
370
    18
100
AcDbLine
 10
2032.328912889143
 20
684.0947101512855
 30
0.0
 11
1916.035186721017
 21
684.0947101512855
 31
0.0
  0
LINE
  5
2547
330
23B0
100
AcDbEntity
  8
実形
 62
     0
370
    18
100
AcDbLine
 10
2032.328912889143
 20
559.2947101512846
 30
0.0
 11
1916.035186721017
 21
559.2947101512846
 31
0.0
  0
LINE
  5
2548
330
23B0
100
AcDbEntity
  8
実形
 62
     0
370
    18
100
AcDbLine
 10
1916.035186721017
 20
684.0947101512855
 30
0.0
 11
1916.035186721017
 21
559.2947101512846
 31
0.0
  0
INSERT
  5
2549
330
23B0
100
AcDbEntity
  8
実形
 62
     0
370
    18
100
AcDbBlockReference
  2
_DotSmall
 10
1916.035186721017
 20
684.0947101512855
 30
0.0
 41
35.0
 42
35.0
 43
35.0
 50
90.0
  0
INSERT
  5
254A
330
23B0
100
AcDbEntity
  8
実形
 62
     0
370
    18
100
AcDbBlockReference
  2
_DotSmall
 10
1916.035186721017
 20
559.2947101512846
 30
0.0
 41
35.0
 42
35.0
 43
35.0
 50
270.0
  0
MTEXT
  5
254B
330
23B0
100
AcDbEntity
  8
実形
 62
     0
100
AcDbMText
 10
1897.285186721017
 20
621.6947101512854
 30
0.0
 40
25.0
 41
0.0
 71
     5
 72
     1
  1
8.2
 11
0.0000000000000001
 21
1.0
 31
0.0
 73
     1
 44
1.0
1001
ACAD
1000
MTEXTBEGIN
1070
    73
1070
     1
1070
    44
1040
1.0
1070
    74
1070
     0
1000
MTEXTEND
  0
POINT
  5
254C
330
23B0
100
AcDbEntity
  8
Defpoints
 62
     0
100
AcDbPoint
 10
2097.328912889143
 20
684.0947101512855
 30
0.0
  0
POINT
  5
254D
330
23B0
100
AcDbEntity
  8
Defpoints
 62
     0
100
AcDbPoint
 10
2097.328912889143
 20
559.2947101512846
 30
0.0
  0
POINT
  5
254E
330
23B0
100
AcDbEntity
  8
Defpoints
 62
     0
100
AcDbPoint
 10
1916.035186721017
 20
559.2947101512846
 30
0.0
  0
ENDBLK
  5
23BB
330
23B0
100
AcDbEntity
  8
0
100
AcDbBlockEnd
  0
BLOCK
  5
23C6
330
23BC
100
AcDbEntity
  8
0
100
AcDbBlockBegin
  2
*D53
 70
     1
 10
0.0
 20
0.0
 30
0.0
  3
*D53
  1

  0
LINE
  5
254F
330
23BC
100
AcDbEntity
  8
実形
 62
     0
370
    18
100
AcDbLine
 10
2032.328912889143
 20
543.6947101512854
 30
0.0
 11
1864.389549972262
 21
543.6947101512854
 31
0.0
  0
LINE
  5
2550
330
23BC
100
AcDbEntity
  8
実形
 62
     0
370
    18
100
AcDbLine
 10
2032.328912889143
 20
684.0947101512855
 30
0.0
 11
1864.389549972262
 21
684.0947101512855
 31
0.0
  0
LINE
  5
2551
330
23BC
100
AcDbEntity
  8
実形
 62
     0
370
    18
100
AcDbLine
 10
1864.389549972262
 20
543.6947101512854
 30
0.0
 11
1864.389549972262
 21
684.0947101512855
 31
0.0
  0
INSERT
  5
2552
330
23BC
100
AcDbEntity
  8
実形
 62
     0
370
    18
100
AcDbBlockReference
  2
_DotSmall
 10
1864.389549972262
 20
543.6947101512854
 30
0.0
 41
35.0
 42
35.0
 43
35.0
 50
270.0
  0
INSERT
  5
2553
330
23BC
100
AcDbEntity
  8
実形
 62
     0
370
    18
100
AcDbBlockReference
  2
_DotSmall
 10
1864.389549972262
 20
684.0947101512855
 30
0.0
 41
35.0
 42
35.0
 43
35.0
 50
90.0
  0
MTEXT
  5
2554
330
23BC
100
AcDbEntity
  8
実形
 62
     0
100
AcDbMText
 10
1845.639549972261
 20
613.8947101512858
 30
0.0
 40
25.0
 41
0.0
 71
     5
 72
     1
  1
9
 11
0.0000000000000001
 21
1.0
 31
0.0
 73
     1
 44
1.0
1001
ACAD
1000
MTEXTBEGIN
1070
    73
1070
     1
1070
    44
1040
1.0
1070
    74
1070
     0
1000
MTEXTEND
  0
POINT
  5
2555
330
23BC
100
AcDbEntity
  8
Defpoints
 62
     0
100
AcDbPoint
 10
2097.328912889143
 20
543.6947101512854
 30
0.0
  0
POINT
  5
2556
330
23BC
100
AcDbEntity
  8
Defpoints
 62
     0
100
AcDbPoint
 10
2097.328912889143
 20
684.0947101512855
 30
0.0
  0
POINT
  5
2557
330
23BC
100
AcDbEntity
  8
Defpoints
 62
     0
100
AcDbPoint
 10
1864.389549972262
 20
684.0947101512855
 30
0.0
  0
ENDBLK
  5
23C7
330
23BC
100
AcDbEntity
  8
0
100
AcDbBlockEnd
  0
BLOCK
  5
23D2
330
23C8
100
AcDbEntity
  8
0
100
AcDbBlockBegin
  2
*D54
 70
     1
 10
0.0
 20
0.0
 30
0.0
  3
*D54
  1

  0
LINE
  5
2558
330
23C8
100
AcDbEntity
  8
実形
 62
     0
370
    18
100
AcDbLine
 10
2647.25404811461
 20
543.6947101512855
 30
0.0
 11
2673.699912636183
 21
543.6947101512855
 31
0.0
  0
LINE
  5
2559
330
23C8
100
AcDbEntity
  8
実形
 62
     0
370
    18
100
AcDbLine
 10
2647.25404811461
 20
403.2947101512855
 30
0.0
 11
2673.699912636183
 21
403.2947101512855
 31
0.0
  0
LINE
  5
255A
330
23C8
100
AcDbEntity
  8
実形
 62
     0
370
    18
100
AcDbLine
 10
2673.699912636183
 20
543.6947101512855
 30
0.0
 11
2673.699912636183
 21
403.2947101512855
 31
0.0
  0
INSERT
  5
255B
330
23C8
100
AcDbEntity
  8
実形
 62
     0
370
    18
100
AcDbBlockReference
  2
_DotSmall
 10
2673.699912636183
 20
543.6947101512855
 30
0.0
 41
35.0
 42
35.0
 43
35.0
 50
90.0
  0
INSERT
  5
255C
330
23C8
100
AcDbEntity
  8
実形
 62
     0
370
    18
100
AcDbBlockReference
  2
_DotSmall
 10
2673.699912636183
 20
403.2947101512855
 30
0.0
 41
35.0
 42
35.0
 43
35.0
 50
270.0
  0
MTEXT
  5
255D
330
23C8
100
AcDbEntity
  8
実形
 62
     0
100
AcDbMText
 10
2654.949912636183
 20
473.4947101512859
 30
0.0
 40
25.0
 41
0.0
 71
     5
 72
     1
  1
9
 11
0.0000000000000001
 21
1.0
 31
0.0
 73
     1
 44
1.0
1001
ACAD
1000
MTEXTBEGIN
1070
    73
1070
     1
1070
    44
1040
1.0
1070
    74
1070
     0
1000
MTEXTEND
  0
POINT
  5
255E
330
23C8
100
AcDbEntity
  8
Defpoints
 62
     0
100
AcDbPoint
 10
2582.25404811461
 20
543.6947101512855
 30
0.0
  0
POINT
  5
255F
330
23C8
100
AcDbEntity
  8
Defpoints
 62
     0
100
AcDbPoint
 10
2582.25404811461
 20
403.2947101512855
 30
0.0
  0
POINT
  5
2560
330
23C8
100
AcDbEntity
  8
Defpoints
 62
     0
100
AcDbPoint
 10
2673.699912636183
 20
403.2947101512855
 30
0.0
  0
ENDBLK
  5
23D3
330
23C8
100
AcDbEntity
  8
0
100
AcDbBlockEnd
  0
BLOCK
  5
23DE
330
23D4
100
AcDbEntity
  8
0
100
AcDbBlockBegin
  2
*D55
 70
     1
 10
0.0
 20
0.0
 30
0.0
  3
*D55
  1

  0
LINE
  5
2561
330
23D4
100
AcDbEntity
  8
実形
 62
     0
370
    18
100
AcDbLine
 10
2647.25404811461
 20
684.0947101512855
 30
0.0
 11
2673.699912636183
 21
684.0947101512855
 31
0.0
  0
LINE
  5
2562
330
23D4
100
AcDbEntity
  8
実形
 62
     0
370
    18
100
AcDbLine
 10
2647.25404811461
 20
543.6947101512855
 30
0.0
 11
2673.699912636183
 21
543.6947101512855
 31
0.0
  0
LINE
  5
2563
330
23D4
100
AcDbEntity
  8
実形
 62
     0
370
    18
100
AcDbLine
 10
2673.699912636183
 20
684.0947101512855
 30
0.0
 11
2673.699912636183
 21
543.6947101512855
 31
0.0
  0
INSERT
  5
2564
330
23D4
100
AcDbEntity
  8
実形
 62
     0
370
    18
100
AcDbBlockReference
  2
_DotSmall
 10
2673.699912636183
 20
684.0947101512855
 30
0.0
 41
35.0
 42
35.0
 43
35.0
 50
90.0
  0
INSERT
  5
2565
330
23D4
100
AcDbEntity
  8
実形
 62
     0
370
    18
100
AcDbBlockReference
  2
_DotSmall
 10
2673.699912636183
 20
543.6947101512855
 30
0.0
 41
35.0
 42
35.0
 43
35.0
 50
270.0
  0
MTEXT
  5
2566
330
23D4
100
AcDbEntity
  8
実形
 62
     0
100
AcDbMText
 10
2654.949912636183
 20
613.8947101512859
 30
0.0
 40
25.0
 41
0.0
 71
     5
 72
     1
  1
9
 11
0.0000000000000001
 21
1.0
 31
0.0
 73
     1
 44
1.0
1001
ACAD
1000
MTEXTBEGIN
1070
    73
1070
     1
1070
    44
1040
1.0
1070
    74
1070
     0
1000
MTEXTEND
  0
POINT
  5
2567
330
23D4
100
AcDbEntity
  8
Defpoints
 62
     0
100
AcDbPoint
 10
2582.25404811461
 20
684.0947101512855
 30
0.0
  0
POINT
  5
2568
330
23D4
100
AcDbEntity
  8
Defpoints
 62
     0
100
AcDbPoint
 10
2582.25404811461
 20
543.6947101512855
 30
0.0
  0
POINT
  5
2569
330
23D4
100
AcDbEntity
  8
Defpoints
 62
     0
100
AcDbPoint
 10
2673.699912636183
 20
543.6947101512855
 30
0.0
  0
ENDBLK
  5
23DF
330
23D4
100
AcDbEntity
  8
0
100
AcDbBlockEnd
  0
BLOCK
  5
23EA
330
23E0
100
AcDbEntity
  8
0
100
AcDbBlockBegin
  2
*D56
 70
     1
 10
0.0
 20
0.0
 30
0.0
  3
*D56
  1

  0
LINE
  5
256A
330
23E0
100
AcDbEntity
  8
実形
 62
     0
370
    18
100
AcDbLine
 10
2647.25404811461
 20
684.0947101512855
 30
0.0
 11
2715.480008308167
 21
684.0947101512855
 31
0.0
  0
LINE
  5
256B
330
23E0
100
AcDbEntity
  8
実形
 62
     0
370
    18
100
AcDbLine
 10
2647.25404811461
 20
403.2947101512855
 30
0.0
 11
2715.480008308167
 21
403.2947101512855
 31
0.0
  0
LINE
  5
256C
330
23E0
100
AcDbEntity
  8
実形
 62
     0
370
    18
100
AcDbLine
 10
2715.480008308167
 20
684.0947101512855
 30
0.0
 11
2715.480008308167
 21
403.2947101512855
 31
0.0
  0
INSERT
  5
256D
330
23E0
100
AcDbEntity
  8
実形
 62
     0
370
    18
100
AcDbBlockReference
  2
_DotSmall
 10
2715.480008308167
 20
684.0947101512855
 30
0.0
 41
35.0
 42
35.0
 43
35.0
 50
90.0
  0
INSERT
  5
256E
330
23E0
100
AcDbEntity
  8
実形
 62
     0
370
    18
100
AcDbBlockReference
  2
_DotSmall
 10
2715.480008308167
 20
403.2947101512855
 30
0.0
 41
35.0
 42
35.0
 43
35.0
 50
270.0
  0
MTEXT
  5
256F
330
23E0
100
AcDbEntity
  8
実形
 62
     0
100
AcDbMText
 10
2696.730008308167
 20
543.694710151286
 30
0.0
 40
25.0
 41
0.0
 71
     5
 72
     1
  1
18
 11
0.0000000000000001
 21
1.0
 31
0.0
 73
     1
 44
1.0
1001
ACAD
1000
MTEXTBEGIN
1070
    73
1070
     1
1070
    44
1040
1.0
1070
    74
1070
     0
1000
MTEXTEND
  0
POINT
  5
2570
330
23E0
100
AcDbEntity
  8
Defpoints
 62
     0
100
AcDbPoint
 10
2582.25404811461
 20
684.0947101512855
 30
0.0
  0
POINT
  5
2571
330
23E0
100
AcDbEntity
  8
Defpoints
 62
     0
100
AcDbPoint
 10
2582.25404811461
 20
403.2947101512855
 30
0.0
  0
POINT
  5
2572
330
23E0
100
AcDbEntity
  8
Defpoints
 62
     0
100
AcDbPoint
 10
2715.480008308167
 20
403.2947101512855
 30
0.0
  0
ENDBLK
  5
23EB
330
23E0
100
AcDbEntity
  8
0
100
AcDbBlockEnd
  0
BLOCK
  5
2589
330
2588
100
AcDbEntity
  8
0
100
AcDbBlockBegin
  2
*D57
 70
     1
 10
0.0
 20
0.0
 30
0.0
  3
*D57
  1

  0
LINE
  5
258A
330
2588
100
AcDbEntity
  8
実形
 62
     0
370
    13
100
AcDbLine
 10
2090.833877365067
 20
553.2947101512847
 30
0.0
 11
2090.833877365067
 21
467.1003685502147
 31
0.0
  0
LINE
  5
258B
330
2588
100
AcDbEntity
  8
実形
 62
     0
370
    13
100
AcDbLine
 10
2075.233877365067
 20
527.502986728412
 30
0.0
 11
2075.233877365067
 21
467.1003685502147
 31
0.0
  0
MTEXT
  5
258C
330
2588
100
AcDbEntity
  8
実形
 62
     0
100
AcDbMText
 10
2054.88545157578
 20
491.5915116428197
 30
0.0
 40
25.0
 41
0.0
 71
     5
 72
     1
  1
1
 73
     1
 44
1.0
1001
ACAD
1000
MTEXTBEGIN
1070
    73
1070
     1
1070
    44
1040
1.0
1070
    74
1070
     0
1000
MTEXTEND
  0
POINT
  5
258D
330
2588
100
AcDbEntity
  8
Defpoints
 62
     0
100
AcDbPoint
 10
2090.833877365067
 20
559.2947101512846
 30
0.0
  0
POINT
  5
258E
330
2588
100
AcDbEntity
  8
Defpoints
 62
     0
100
AcDbPoint
 10
2075.233877365067
 20
533.5029867284119
 30
0.0
  0
POINT
  5
258F
330
2588
100
AcDbEntity
  8
Defpoints
 62
     0
100
AcDbPoint
 10
2075.233877365067
 20
467.1003685502147
 30
0.0
  0
ENDBLK
  5
2590
330
2588
100
AcDbEntity
  8
0
100
AcDbBlockEnd
  0
BLOCK
  5
2592
330
2591
100
AcDbEntity
  8
0
100
AcDbBlockBegin
  2
*D58
 70
     1
 10
0.0
 20
0.0
 30
0.0
  3
*D58
  1

  0
LINE
  5
2593
330
2591
100
AcDbEntity
  8
実形
 62
     0
370
    18
100
AcDbLine
 10
2090.833877365066
 20
591.9073852958003
 30
0.0
 11
2090.833877365066
 21
617.1548568615962
 31
0.0
  0
LINE
  5
2594
330
2591
100
AcDbEntity
  8
実形
 62
     0
370
    18
100
AcDbLine
 10
2324.833877365066
 20
591.9073852958003
 30
0.0
 11
2324.833877365066
 21
617.1548568615962
 31
0.0
  0
LINE
  5
2595
330
2591
100
AcDbEntity
  8
実形
 62
     0
370
    18
100
AcDbLine
 10
2090.833877365066
 20
617.1548568615962
 30
0.0
 11
2324.833877365066
 21
617.1548568615962
 31
0.0
  0
INSERT
  5
2596
330
2591
100
AcDbEntity
  8
実形
 62
     0
370
    18
100
AcDbBlockReference
  2
_DotSmall
 10
2090.833877365066
 20
617.1548568615962
 30
0.0
 41
35.0
 42
35.0
 43
35.0
 50
180.0
  0
INSERT
  5
2597
330
2591
100
AcDbEntity
  8
実形
 62
     0
370
    18
100
AcDbBlockReference
  2
_DotSmall
 10
2324.833877365066
 20
617.1548568615962
 30
0.0
 41
35.0
 42
35.0
 43
35.0
  0
MTEXT
  5
2598
330
2591
100
AcDbEntity
  8
実形
 62
     0
100
AcDbMText
 10
2207.833877365066
 20
635.9048568615962
 30
0.0
 40
25.0
 41
0.0
 71
     5
 72
     1
  1
15
 73
     1
 44
1.0
1001
ACAD
1000
MTEXTBEGIN
1070
    73
1070
     1
1070
    44
1040
1.0
1070
    74
1070
     0
1000
MTEXTEND
  0
POINT
  5
2599
330
2591
100
AcDbEntity
  8
Defpoints
 62
     0
100
AcDbPoint
 10
2090.833877365066
 20
526.9073852958004
 30
0.0
  0
POINT
  5
259A
330
2591
100
AcDbEntity
  8
Defpoints
 62
     0
100
AcDbPoint
 10
2324.833877365066
 20
526.9073852958004
 30
0.0
  0
POINT
  5
259B
330
2591
100
AcDbEntity
  8
Defpoints
 62
     0
100
AcDbPoint
 10
2324.833877365066
 20
617.1548568615962
 30
0.0
  0
ENDBLK
  5
259C
330
2591
100
AcDbEntity
  8
0
100
AcDbBlockEnd
  0
BLOCK
  5
259E
330
259D
100
AcDbEntity
  8
0
100
AcDbBlockBegin
  2
*D59
 70
     1
 10
0.0
 20
0.0
 30
0.0
  3
*D59
  1

  0
LINE
  5
259F
330
259D
100
AcDbEntity
  8
実形
 62
     0
370
    18
100
AcDbLine
 10
2292.614562018892
 20
504.6947101512855
 30
0.0
 11
2228.767481940162
 21
504.6947101512855
 31
0.0
  0
LINE
  5
25A0
330
259D
100
AcDbEntity
  8
実形
 62
     0
370
    18
100
AcDbLine
 10
2216.267191428404
 20
543.6947101512855
 30
0.0
 11
2228.767481940162
 21
543.6947101512855
 31
0.0
  0
LINE
  5
25A1
330
259D
100
AcDbEntity
  8
実形
 62
     0
370
    18
100
AcDbLine
 10
2228.767481940162
 20
504.6947101512855
 30
0.0
 11
2228.767481940162
 21
543.6947101512855
 31
0.0
  0
MTEXT
  5
25A2
330
259D
100
AcDbEntity
  8
実形
 62
     0
100
AcDbMText
 10
2197.294896545438
 20
515.0052225685112
 30
0.0
 40
23.0
 41
0.0
 71
     5
 72
     1
  1
2.5
 11
0.0000000000000001
 21
1.0
 31
0.0
 73
     1
 44
1.0
1001
ACAD
1000
MTEXTBEGIN
1070
    73
1070
     1
1070
    44
1040
1.0
1070
    74
1070
     0
1000
MTEXTEND
  0
INSERT
  5
25A3
330
259D
100
AcDbEntity
  8
実形
 62
     0
370
    18
100
AcDbBlockReference
  2
_DotSmall
 10
2228.767481940162
 20
504.6947101512855
 30
0.0
 41
35.0
 42
35.0
 43
35.0
 50
270.0
  0
INSERT
  5
25A4
330
259D
100
AcDbEntity
  8
実形
 62
     0
370
    18
100
AcDbBlockReference
  2
_DotSmall
 10
2228.767481940162
 20
543.6947101512855
 30
0.0
 41
35.0
 42
35.0
 43
35.0
 50
90.0
  0
POINT
  5
25A5
330
259D
100
AcDbEntity
  8
Defpoints
 62
     0
100
AcDbPoint
 10
2357.614562018891
 20
504.6947101512855
 30
0.0
  0
POINT
  5
25A6
330
259D
100
AcDbEntity
  8
Defpoints
 62
     0
100
AcDbPoint
 10
2281.267191428404
 20
543.6947101512855
 30
0.0
  0
POINT
  5
25A7
330
259D
100
AcDbEntity
  8
Defpoints
 62
     0
100
AcDbPoint
 10
2228.767481940162
 20
543.6947101512855
 30
0.0
  0
ENDBLK
  5
25A8
330
259D
100
AcDbEntity
  8
0
100
AcDbBlockEnd
  0
BLOCK
  5
25AA
330
25A9
100
AcDbEntity
  8
0
100
AcDbBlockBegin
  2
*D60
 70
     1
 10
0.0
 20
0.0
 30
0.0
  3
*D60
  1

  0
LINE
  5
25AB
330
25A9
100
AcDbEntity
  8
実形
 62
     0
370
    18
100
AcDbLine
 10
2278.033877365066
 20
448.0145559292668
 30
0.0
 11
2278.033877365066
 21
452.0882219802177
 31
0.0
  0
LINE
  5
25AC
330
25A9
100
AcDbEntity
  8
実形
 62
     0
370
    18
100
AcDbLine
 10
2356.033877365066
 20
448.0145559292668
 30
0.0
 11
2356.033877365066
 21
452.0882219802177
 31
0.0
  0
LINE
  5
25AD
330
25A9
100
AcDbEntity
  8
実形
 62
     0
370
    18
100
AcDbLine
 10
2278.033877365066
 20
452.0882219802177
 30
0.0
 11
2356.033877365066
 21
452.0882219802177
 31
0.0
  0
INSERT
  5
25AE
330
25A9
100
AcDbEntity
  8
実形
 62
     0
370
    18
100
AcDbBlockReference
  2
_DotSmall
 10
2278.033877365066
 20
452.0882219802177
 30
0.0
 41
35.0
 42
35.0
 43
35.0
 50
180.0
  0
INSERT
  5
25AF
330
25A9
100
AcDbEntity
  8
実形
 62
     0
370
    18
100
AcDbBlockReference
  2
_DotSmall
 10
2356.033877365066
 20
452.0882219802177
 30
0.0
 41
35.0
 42
35.0
 43
35.0
  0
MTEXT
  5
25B0
330
25A9
100
AcDbEntity
  8
実形
 62
     0
100
AcDbMText
 10
2317.033877365066
 20
470.8382219802177
 30
0.0
 40
25.0
 41
0.0
 71
     5
 72
     1
  1
5
 73
     1
 44
1.0
1001
ACAD
1000
MTEXTBEGIN
1070
    73
1070
     1
1070
    44
1040
1.0
1070
    74
1070
     0
1000
MTEXTEND
  0
POINT
  5
25B1
330
25A9
100
AcDbEntity
  8
Defpoints
 62
     0
100
AcDbPoint
 10
2278.033877365066
 20
513.0145559292668
 30
0.0
  0
POINT
  5
25B2
330
25A9
100
AcDbEntity
  8
Defpoints
 62
     0
100
AcDbPoint
 10
2356.033877365066
 20
513.0145559292668
 30
0.0
  0
POINT
  5
25B3
330
25A9
100
AcDbEntity
  8
Defpoints
 62
     0
100
AcDbPoint
 10
2356.033877365066
 20
452.0882219802177
 30
0.0
  0
ENDBLK
  5
25B4
330
25A9
100
AcDbEntity
  8
0
100
AcDbBlockEnd
  0
BLOCK
  5
25B6
330
25B5
100
AcDbEntity
  8
0
100
AcDbBlockBegin
  2
*D61
 70
     1
 10
0.0
 20
0.0
 30
0.0
  3
*D61
  1

  0
LINE
  5
25B7
330
25B5
100
AcDbEntity
  8
実形
 62
     0
370
    18
100
AcDbLine
 10
2266.326187506493
 20
442.2947101512853
 30
0.0
 11
2230.705930897853
 21
442.2947101512853
 31
0.0
  0
LINE
  5
25B8
330
25B5
100
AcDbEntity
  8
実形
 62
     0
370
    18
100
AcDbLine
 10
2278.612691407768
 20
403.2947101512855
 30
0.0
 11
2230.705930897853
 21
403.2947101512855
 31
0.0
  0
LINE
  5
25B9
330
25B5
100
AcDbEntity
  8
実形
 62
     0
370
    18
100
AcDbLine
 10
2230.705930897853
 20
442.2947101512853
 30
0.0
 11
2230.705930897853
 21
403.2947101512855
 31
0.0
  0
MTEXT
  5
25BA
330
25B5
100
AcDbEntity
  8
実形
 62
     0
100
AcDbMText
 10
2198.086469593912
 20
431.6583152348946
 30
0.0
 40
23.0
 41
0.0
 71
     5
 72
     1
  1
2.5
 11
0.0000000000000001
 21
1.0
 31
0.0
 73
     1
 44
1.0
1001
ACAD
1000
MTEXTBEGIN
1070
    73
1070
     1
1070
    44
1040
1.0
1070
    74
1070
     0
1000
MTEXTEND
  0
INSERT
  5
25BB
330
25B5
100
AcDbEntity
  8
実形
 62
     0
370
    18
100
AcDbBlockReference
  2
_DotSmall
 10
2230.705930897853
 20
442.2947101512853
 30
0.0
 41
35.0
 42
35.0
 43
35.0
 50
90.0
  0
INSERT
  5
25BC
330
25B5
100
AcDbEntity
  8
実形
 62
     0
370
    18
100
AcDbBlockReference
  2
_DotSmall
 10
2230.705930897853
 20
403.2947101512855
 30
0.0
 41
35.0
 42
35.0
 43
35.0
 50
270.0
  0
POINT
  5
25BD
330
25B5
100
AcDbEntity
  8
Defpoints
 62
     0
100
AcDbPoint
 10
2331.326187506493
 20
442.2947101512853
 30
0.0
  0
POINT
  5
25BE
330
25B5
100
AcDbEntity
  8
Defpoints
 62
     0
100
AcDbPoint
 10
2343.612691407768
 20
403.2947101512855
 30
0.0
  0
POINT
  5
25BF
330
25B5
100
AcDbEntity
  8
Defpoints
 62
     0
100
AcDbPoint
 10
2230.705930897853
 20
403.2947101512855
 30
0.0
  0
ENDBLK
  5
25C0
330
25B5
100
AcDbEntity
  8
0
100
AcDbBlockEnd
  0
BLOCK
  5
25C2
330
25C1
100
AcDbEntity
  8
0
100
AcDbBlockBegin
  2
*D62
 70
     1
 10
0.0
 20
0.0
 30
0.0
  3
*D62
  1

  0
LINE
  5
25C3
330
25C1
100
AcDbEntity
  8
実形
 62
     0
370
    18
100
AcDbLine
 10
2075.233877365066
 20
696.1956311673393
 30
0.0
 11
2075.233877365066
 21
733.9587029177619
 31
0.0
  0
LINE
  5
25C4
330
25C1
100
AcDbEntity
  8
実形
 62
     0
370
    18
100
AcDbLine
 10
2356.033877365066
 20
696.1956311673393
 30
0.0
 11
2356.033877365066
 21
733.9587029177619
 31
0.0
  0
LINE
  5
25C5
330
25C1
100
AcDbEntity
  8
実形
 62
     0
370
    18
100
AcDbLine
 10
2075.233877365066
 20
733.9587029177619
 30
0.0
 11
2356.033877365066
 21
733.9587029177619
 31
0.0
  0
INSERT
  5
25C6
330
25C1
100
AcDbEntity
  8
実形
 62
     0
370
    18
100
AcDbBlockReference
  2
_DotSmall
 10
2075.233877365066
 20
733.9587029177619
 30
0.0
 41
35.0
 42
35.0
 43
35.0
 50
180.0
  0
INSERT
  5
25C7
330
25C1
100
AcDbEntity
  8
実形
 62
     0
370
    18
100
AcDbBlockReference
  2
_DotSmall
 10
2356.033877365066
 20
733.9587029177619
 30
0.0
 41
35.0
 42
35.0
 43
35.0
  0
MTEXT
  5
25C8
330
25C1
100
AcDbEntity
  8
実形
 62
     0
100
AcDbMText
 10
2215.633877365066
 20
752.7087029177619
 30
0.0
 40
25.0
 41
0.0
 71
     5
 72
     1
  1
18
 73
     1
 44
1.0
1001
ACAD
1000
MTEXTBEGIN
1070
    73
1070
     1
1070
    44
1040
1.0
1070
    74
1070
     0
1000
MTEXTEND
  0
POINT
  5
25C9
330
25C1
100
AcDbEntity
  8
Defpoints
 62
     0
100
AcDbPoint
 10
2075.233877365066
 20
631.1956311673393
 30
0.0
  0
POINT
  5
25CA
330
25C1
100
AcDbEntity
  8
Defpoints
 62
     0
100
AcDbPoint
 10
2356.033877365066
 20
631.1956311673393
 30
0.0
  0
POINT
  5
25CB
330
25C1
100
AcDbEntity
  8
Defpoints
 62
     0
100
AcDbPoint
 10
2356.033877365066
 20
733.9587029177619
 30
0.0
  0
ENDBLK
  5
25CC
330
25C1
100
AcDbEntity
  8
0
100
AcDbBlockEnd
  0
BLOCK
  5
25CE
330
25CD
100
AcDbEntity
  8
0
100
AcDbBlockBegin
  2
*D63
 70
     1
 10
0.0
 20
0.0
 30
0.0
  3
*D63
  1

  0
LINE
  5
25CF
330
25CD
100
AcDbEntity
  8
実形
 62
     0
370
    18
100
AcDbLine
 10
2356.033877365066
 20
696.1956311673382
 30
0.0
 11
2356.033877365066
 21
733.9587029177619
 31
0.0
  0
LINE
  5
25D0
330
25CD
100
AcDbEntity
  8
実形
 62
     0
370
    18
100
AcDbLine
 10
2621.233877365066
 20
696.1956311673382
 30
0.0
 11
2621.233877365066
 21
733.9587029177619
 31
0.0
  0
LINE
  5
25D1
330
25CD
100
AcDbEntity
  8
実形
 62
     0
370
    18
100
AcDbLine
 10
2356.033877365066
 20
733.9587029177619
 30
0.0
 11
2621.233877365066
 21
733.9587029177619
 31
0.0
  0
INSERT
  5
25D2
330
25CD
100
AcDbEntity
  8
実形
 62
     0
370
    18
100
AcDbBlockReference
  2
_DotSmall
 10
2356.033877365066
 20
733.9587029177619
 30
0.0
 41
35.0
 42
35.0
 43
35.0
 50
180.0
  0
INSERT
  5
25D3
330
25CD
100
AcDbEntity
  8
実形
 62
     0
370
    18
100
AcDbBlockReference
  2
_DotSmall
 10
2621.233877365066
 20
733.9587029177619
 30
0.0
 41
35.0
 42
35.0
 43
35.0
  0
MTEXT
  5
25D4
330
25CD
100
AcDbEntity
  8
実形
 62
     0
100
AcDbMText
 10
2488.633877365066
 20
752.7087029177619
 30
0.0
 40
25.0
 41
0.0
 71
     5
 72
     1
  1
17
 73
     1
 44
1.0
1001
ACAD
1000
MTEXTBEGIN
1070
    73
1070
     1
1070
    44
1040
1.0
1070
    74
1070
     0
1000
MTEXTEND
  0
POINT
  5
25D5
330
25CD
100
AcDbEntity
  8
Defpoints
 62
     0
100
AcDbPoint
 10
2356.033877365066
 20
631.1956311673382
 30
0.0
  0
POINT
  5
25D6
330
25CD
100
AcDbEntity
  8
Defpoints
 62
     0
100
AcDbPoint
 10
2621.233877365066
 20
631.1956311673382
 30
0.0
  0
POINT
  5
25D7
330
25CD
100
AcDbEntity
  8
Defpoints
 62
     0
100
AcDbPoint
 10
2621.233877365066
 20
733.9587029177619
 30
0.0
  0
ENDBLK
  5
25D8
330
25CD
100
AcDbEntity
  8
0
100
AcDbBlockEnd
  0
BLOCK
  5
25DA
330
25D9
100
AcDbEntity
  8
0
100
AcDbBlockBegin
  2
*D64
 70
     1
 10
0.0
 20
0.0
 30
0.0
  3
*D64
  1

  0
LINE
  5
25DB
330
25D9
100
AcDbEntity
  8
実形
 62
     0
370
    18
100
AcDbLine
 10
2075.233877365066
 20
696.1956311673382
 30
0.0
 11
2075.233877365066
 21
777.4666415156134
 31
0.0
  0
LINE
  5
25DC
330
25D9
100
AcDbEntity
  8
実形
 62
     0
370
    18
100
AcDbLine
 10
2621.233877365066
 20
696.1956311673382
 30
0.0
 11
2621.233877365066
 21
777.4666415156134
 31
0.0
  0
LINE
  5
25DD
330
25D9
100
AcDbEntity
  8
実形
 62
     0
370
    18
100
AcDbLine
 10
2075.233877365066
 20
777.4666415156134
 30
0.0
 11
2621.233877365066
 21
777.4666415156134
 31
0.0
  0
INSERT
  5
25DE
330
25D9
100
AcDbEntity
  8
実形
 62
     0
370
    18
100
AcDbBlockReference
  2
_DotSmall
 10
2075.233877365066
 20
777.4666415156134
 30
0.0
 41
35.0
 42
35.0
 43
35.0
 50
180.0
  0
INSERT
  5
25DF
330
25D9
100
AcDbEntity
  8
実形
 62
     0
370
    18
100
AcDbBlockReference
  2
_DotSmall
 10
2621.233877365066
 20
777.4666415156134
 30
0.0
 41
35.0
 42
35.0
 43
35.0
  0
MTEXT
  5
25E0
330
25D9
100
AcDbEntity
  8
実形
 62
     0
100
AcDbMText
 10
2348.233877365066
 20
796.2166415156134
 30
0.0
 40
25.0
 41
0.0
 71
     5
 72
     1
  1
35
 73
     1
 44
1.0
1001
ACAD
1000
MTEXTBEGIN
1070
    73
1070
     1
1070
    44
1040
1.0
1070
    74
1070
     0
1000
MTEXTEND
  0
POINT
  5
25E1
330
25D9
100
AcDbEntity
  8
Defpoints
 62
     0
100
AcDbPoint
 10
2075.233877365066
 20
631.1956311673382
 30
0.0
  0
POINT
  5
25E2
330
25D9
100
AcDbEntity
  8
Defpoints
 62
     0
100
AcDbPoint
 10
2621.233877365066
 20
631.1956311673382
 30
0.0
  0
POINT
  5
25E3
330
25D9
100
AcDbEntity
  8
Defpoints
 62
     0
100
AcDbPoint
 10
2621.233877365066
 20
777.4666415156134
 30
0.0
  0
ENDBLK
  5
25E4
330
25D9
100
AcDbEntity
  8
0
100
AcDbBlockEnd
  0
BLOCK
  5
25E6
330
25E5
100
AcDbEntity
  8
0
100
AcDbBlockBegin
  2
*D65
 70
     1
 10
0.0
 20
0.0
 30
0.0
  3
*D65
  1

  0
LINE
  5
25E7
330
25E5
100
AcDbEntity
  8
実形
 62
     0
370
    18
100
AcDbLine
 10
2106.433877365066
 20
346.5474686202858
 30
0.0
 11
2106.433877365066
 21
297.5085770831867
 31
0.0
  0
LINE
  5
25E8
330
25E5
100
AcDbEntity
  8
実形
 62
     0
370
    18
100
AcDbLine
 10
2153.233877365066
 20
346.5474686202858
 30
0.0
 11
2153.233877365066
 21
297.5085770831867
 31
0.0
  0
LINE
  5
25E9
330
25E5
100
AcDbEntity
  8
実形
 62
     0
370
    18
100
AcDbLine
 10
2106.433877365066
 20
297.5085770831867
 30
0.0
 11
2153.233877365066
 21
297.5085770831867
 31
0.0
  0
MTEXT
  5
25EA
330
25E5
100
AcDbEntity
  8
実形
 62
     0
100
AcDbMText
 10
2053.203290699754
 20
332.9138518235977
 30
0.0
 40
25.0
 41
0.0
 71
     5
 72
     1
  1
3.2
 73
     1
 44
1.0
1001
ACAD
1000
MTEXTBEGIN
1070
    73
1070
     1
1070
    44
1040
1.0
1070
    74
1070
     0
1000
MTEXTEND
  0
INSERT
  5
25EB
330
25E5
100
AcDbEntity
  8
実形
 62
     0
370
    18
100
AcDbBlockReference
  2
_DotSmall
 10
2106.433877365066
 20
297.5085770831867
 30
0.0
 41
35.0
 42
35.0
 43
35.0
 50
180.0
  0
INSERT
  5
25EC
330
25E5
100
AcDbEntity
  8
実形
 62
     0
370
    18
100
AcDbBlockReference
  2
_DotSmall
 10
2153.233877365066
 20
297.5085770831867
 30
0.0
 41
35.0
 42
35.0
 43
35.0
  0
POINT
  5
25ED
330
25E5
100
AcDbEntity
  8
Defpoints
 62
     0
100
AcDbPoint
 10
2106.433877365066
 20
411.5474686202857
 30
0.0
  0
POINT
  5
25EE
330
25E5
100
AcDbEntity
  8
Defpoints
 62
     0
100
AcDbPoint
 10
2153.233877365066
 20
411.5474686202857
 30
0.0
  0
POINT
  5
25EF
330
25E5
100
AcDbEntity
  8
Defpoints
 62
     0
100
AcDbPoint
 10
2153.233877365066
 20
297.5085770831867
 30
0.0
  0
ENDBLK
  5
25F0
330
25E5
100
AcDbEntity
  8
0
100
AcDbBlockEnd
  0
BLOCK
  5
25F2
330
25F1
100
AcDbEntity
  8
0
100
AcDbBlockBegin
  2
*D66
 70
     1
 10
0.0
 20
0.0
 30
0.0
  3
*D66
  1

  0
LINE
  5
25F3
330
25F1
100
AcDbEntity
  8
実形
 62
     0
370
    18
100
AcDbLine
 10
2153.233877365066
 20
346.5474686202858
 30
0.0
 11
2153.233877365066
 21
297.5085770831867
 31
0.0
  0
LINE
  5
25F4
330
25F1
100
AcDbEntity
  8
実形
 62
     0
370
    18
100
AcDbLine
 10
2278.033877365066
 20
346.5474686202858
 30
0.0
 11
2278.033877365066
 21
297.5085770831867
 31
0.0
  0
LINE
  5
25F5
330
25F1
100
AcDbEntity
  8
実形
 62
     0
370
    18
100
AcDbLine
 10
2153.233877365066
 20
297.5085770831867
 30
0.0
 11
2278.033877365066
 21
297.5085770831867
 31
0.0
  0
INSERT
  5
25F6
330
25F1
100
AcDbEntity
  8
実形
 62
     0
370
    18
100
AcDbBlockReference
  2
_DotSmall
 10
2153.233877365066
 20
297.5085770831867
 30
0.0
 41
35.0
 42
35.0
 43
35.0
 50
180.0
  0
INSERT
  5
25F7
330
25F1
100
AcDbEntity
  8
実形
 62
     0
370
    18
100
AcDbBlockReference
  2
_DotSmall
 10
2278.033877365066
 20
297.5085770831867
 30
0.0
 41
35.0
 42
35.0
 43
35.0
  0
MTEXT
  5
25F8
330
25F1
100
AcDbEntity
  8
実形
 62
     0
100
AcDbMText
 10
2215.633877365066
 20
316.2585770831867
 30
0.0
 40
25.0
 41
0.0
 71
     5
 72
     1
  1
8
 73
     1
 44
1.0
1001
ACAD
1000
MTEXTBEGIN
1070
    73
1070
     1
1070
    44
1040
1.0
1070
    74
1070
     0
1000
MTEXTEND
  0
POINT
  5
25F9
330
25F1
100
AcDbEntity
  8
Defpoints
 62
     0
100
AcDbPoint
 10
2153.233877365066
 20
411.5474686202857
 30
0.0
  0
POINT
  5
25FA
330
25F1
100
AcDbEntity
  8
Defpoints
 62
     0
100
AcDbPoint
 10
2278.033877365066
 20
411.5474686202857
 30
0.0
  0
POINT
  5
25FB
330
25F1
100
AcDbEntity
  8
Defpoints
 62
     0
100
AcDbPoint
 10
2278.033877365066
 20
297.5085770831867
 30
0.0
  0
ENDBLK
  5
25FC
330
25F1
100
AcDbEntity
  8
0
100
AcDbBlockEnd
  0
BLOCK
  5
25FE
330
25FD
100
AcDbEntity
  8
0
100
AcDbBlockBegin
  2
*D67
 70
     1
 10
0.0
 20
0.0
 30
0.0
  3
*D67
  1

  0
LINE
  5
25FF
330
25FD
100
AcDbEntity
  8
実形
 62
     0
370
    18
100
AcDbLine
 10
2278.033877365066
 20
346.5474686202858
 30
0.0
 11
2278.033877365066
 21
297.5085770831867
 31
0.0
  0
LINE
  5
2600
330
25FD
100
AcDbEntity
  8
実形
 62
     0
370
    18
100
AcDbLine
 10
2356.033877365066
 20
346.5474686202858
 30
0.0
 11
2356.033877365066
 21
297.5085770831867
 31
0.0
  0
LINE
  5
2601
330
25FD
100
AcDbEntity
  8
実形
 62
     0
370
    18
100
AcDbLine
 10
2278.033877365066
 20
297.5085770831867
 30
0.0
 11
2356.033877365066
 21
297.5085770831867
 31
0.0
  0
INSERT
  5
2602
330
25FD
100
AcDbEntity
  8
実形
 62
     0
370
    18
100
AcDbBlockReference
  2
_DotSmall
 10
2278.033877365066
 20
297.5085770831867
 30
0.0
 41
35.0
 42
35.0
 43
35.0
 50
180.0
  0
INSERT
  5
2603
330
25FD
100
AcDbEntity
  8
実形
 62
     0
370
    18
100
AcDbBlockReference
  2
_DotSmall
 10
2356.033877365066
 20
297.5085770831867
 30
0.0
 41
35.0
 42
35.0
 43
35.0
  0
MTEXT
  5
2604
330
25FD
100
AcDbEntity
  8
実形
 62
     0
100
AcDbMText
 10
2317.033877365066
 20
316.2585770831867
 30
0.0
 40
25.0
 41
0.0
 71
     5
 72
     1
  1
5
 73
     1
 44
1.0
1001
ACAD
1000
MTEXTBEGIN
1070
    73
1070
     1
1070
    44
1040
1.0
1070
    74
1070
     0
1000
MTEXTEND
  0
POINT
  5
2605
330
25FD
100
AcDbEntity
  8
Defpoints
 62
     0
100
AcDbPoint
 10
2278.033877365066
 20
411.5474686202857
 30
0.0
  0
POINT
  5
2606
330
25FD
100
AcDbEntity
  8
Defpoints
 62
     0
100
AcDbPoint
 10
2356.033877365066
 20
411.5474686202857
 30
0.0
  0
POINT
  5
2607
330
25FD
100
AcDbEntity
  8
Defpoints
 62
     0
100
AcDbPoint
 10
2356.033877365066
 20
297.5085770831867
 30
0.0
  0
ENDBLK
  5
2608
330
25FD
100
AcDbEntity
  8
0
100
AcDbBlockEnd
  0
BLOCK
  5
260A
330
2609
100
AcDbEntity
  8
0
100
AcDbBlockBegin
  2
*D68
 70
     1
 10
0.0
 20
0.0
 30
0.0
  3
*D68
  1

  0
LINE
  5
260B
330
2609
100
AcDbEntity
  8
実形
 62
     0
370
    18
100
AcDbLine
 10
2356.033877365066
 20
346.5474686202858
 30
0.0
 11
2356.033877365066
 21
297.5085770831867
 31
0.0
  0
LINE
  5
260C
330
2609
100
AcDbEntity
  8
実形
 62
     0
370
    18
100
AcDbLine
 10
2621.233877365066
 20
346.5474686202858
 30
0.0
 11
2621.233877365066
 21
297.5085770831867
 31
0.0
  0
LINE
  5
260D
330
2609
100
AcDbEntity
  8
実形
 62
     0
370
    18
100
AcDbLine
 10
2356.033877365066
 20
297.5085770831867
 30
0.0
 11
2621.233877365066
 21
297.5085770831867
 31
0.0
  0
INSERT
  5
260E
330
2609
100
AcDbEntity
  8
実形
 62
     0
370
    18
100
AcDbBlockReference
  2
_DotSmall
 10
2356.033877365066
 20
297.5085770831867
 30
0.0
 41
35.0
 42
35.0
 43
35.0
 50
180.0
  0
INSERT
  5
260F
330
2609
100
AcDbEntity
  8
実形
 62
     0
370
    18
100
AcDbBlockReference
  2
_DotSmall
 10
2621.233877365066
 20
297.5085770831867
 30
0.0
 41
35.0
 42
35.0
 43
35.0
  0
MTEXT
  5
2610
330
2609
100
AcDbEntity
  8
実形
 62
     0
100
AcDbMText
 10
2488.633877365066
 20
316.2585770831867
 30
0.0
 40
25.0
 41
0.0
 71
     5
 72
     1
  1
17
 73
     1
 44
1.0
1001
ACAD
1000
MTEXTBEGIN
1070
    73
1070
     1
1070
    44
1040
1.0
1070
    74
1070
     0
1000
MTEXTEND
  0
POINT
  5
2611
330
2609
100
AcDbEntity
  8
Defpoints
 62
     0
100
AcDbPoint
 10
2356.033877365066
 20
411.5474686202857
 30
0.0
  0
POINT
  5
2612
330
2609
100
AcDbEntity
  8
Defpoints
 62
     0
100
AcDbPoint
 10
2621.233877365066
 20
411.5474686202857
 30
0.0
  0
POINT
  5
2613
330
2609
100
AcDbEntity
  8
Defpoints
 62
     0
100
AcDbPoint
 10
2621.233877365066
 20
297.5085770831867
 30
0.0
  0
ENDBLK
  5
2614
330
2609
100
AcDbEntity
  8
0
100
AcDbBlockEnd
  0
BLOCK
  5
2616
330
2615
100
AcDbEntity
  8
0
100
AcDbBlockBegin
  2
*D69
 70
     1
 10
0.0
 20
0.0
 30
0.0
  3
*D69
  1

  0
LINE
  5
2617
330
2615
100
AcDbEntity
  8
実形
 62
     0
370
    18
100
AcDbLine
 10
2077.023276234157
 20
297.8281686160613
 30
0.0
 11
2077.023276234157
 21
247.5388396829094
 31
0.0
  0
LINE
  5
2618
330
2615
100
AcDbEntity
  8
実形
 62
     0
370
    18
100
AcDbLine
 10
2155.023276234156
 20
297.8281686160613
 30
0.0
 11
2155.023276234156
 21
247.5388396829094
 31
0.0
  0
LINE
  5
2619
330
2615
100
AcDbEntity
  8
実形
 62
     0
370
    18
100
AcDbLine
 10
2077.023276234157
 20
247.5388396829094
 30
0.0
 11
2155.023276234156
 21
247.5388396829094
 31
0.0
  0
INSERT
  5
261A
330
2615
100
AcDbEntity
  8
実形
 62
     0
370
    18
100
AcDbBlockReference
  2
_DotSmall
 10
2077.023276234157
 20
247.5388396829094
 30
0.0
 41
35.0
 42
35.0
 43
35.0
 50
180.0
  0
INSERT
  5
261B
330
2615
100
AcDbEntity
  8
実形
 62
     0
370
    18
100
AcDbBlockReference
  2
_DotSmall
 10
2155.023276234156
 20
247.5388396829094
 30
0.0
 41
35.0
 42
35.0
 43
35.0
  0
MTEXT
  5
261C
330
2615
100
AcDbEntity
  8
実形
 62
     0
100
AcDbMText
 10
2116.023276234157
 20
266.2888396829094
 30
0.0
 40
25.0
 41
0.0
 71
     5
 72
     1
  1
5
 73
     1
 44
1.0
1001
ACAD
1000
MTEXTBEGIN
1070
    73
1070
     1
1070
    44
1040
1.0
1070
    74
1070
     0
1000
MTEXTEND
  0
POINT
  5
261D
330
2615
100
AcDbEntity
  8
Defpoints
 62
     0
100
AcDbPoint
 10
2077.023276234157
 20
362.8281686160613
 30
0.0
  0
POINT
  5
261E
330
2615
100
AcDbEntity
  8
Defpoints
 62
     0
100
AcDbPoint
 10
2155.023276234156
 20
362.8281686160613
 30
0.0
  0
POINT
  5
261F
330
2615
100
AcDbEntity
  8
Defpoints
 62
     0
100
AcDbPoint
 10
2155.023276234156
 20
247.5388396829094
 30
0.0
  0
ENDBLK
  5
2620
330
2615
100
AcDbEntity
  8
0
100
AcDbBlockEnd
  0
BLOCK
  5
2622
330
2621
100
AcDbEntity
  8
0
100
AcDbBlockBegin
  2
*D70
 70
     1
 10
0.0
 20
0.0
 30
0.0
  3
*D70
  1

  0
LINE
  5
2623
330
2621
100
AcDbEntity
  8
実形
 62
     0
370
    18
100
AcDbLine
 10
2155.023276234156
 20
297.8281686160613
 30
0.0
 11
2155.023276234156
 21
247.5388396829094
 31
0.0
  0
LINE
  5
2624
330
2621
100
AcDbEntity
  8
実形
 62
     0
370
    18
100
AcDbLine
 10
2623.023276234156
 20
297.8281686160613
 30
0.0
 11
2623.023276234156
 21
247.5388396829094
 31
0.0
  0
LINE
  5
2625
330
2621
100
AcDbEntity
  8
実形
 62
     0
370
    18
100
AcDbLine
 10
2155.023276234156
 20
247.5388396829094
 30
0.0
 11
2623.023276234156
 21
247.5388396829094
 31
0.0
  0
INSERT
  5
2626
330
2621
100
AcDbEntity
  8
実形
 62
     0
370
    18
100
AcDbBlockReference
  2
_DotSmall
 10
2155.023276234156
 20
247.5388396829094
 30
0.0
 41
35.0
 42
35.0
 43
35.0
 50
180.0
  0
INSERT
  5
2627
330
2621
100
AcDbEntity
  8
実形
 62
     0
370
    18
100
AcDbBlockReference
  2
_DotSmall
 10
2623.023276234156
 20
247.5388396829094
 30
0.0
 41
35.0
 42
35.0
 43
35.0
  0
MTEXT
  5
2628
330
2621
100
AcDbEntity
  8
実形
 62
     0
100
AcDbMText
 10
2389.023276234156
 20
266.2888396829094
 30
0.0
 40
25.0
 41
0.0
 71
     5
 72
     1
  1
30
 73
     1
 44
1.0
1001
ACAD
1000
MTEXTBEGIN
1070
    73
1070
     1
1070
    44
1040
1.0
1070
    74
1070
     0
1000
MTEXTEND
  0
POINT
  5
2629
330
2621
100
AcDbEntity
  8
Defpoints
 62
     0
100
AcDbPoint
 10
2155.023276234156
 20
362.8281686160613
 30
0.0
  0
POINT
  5
262A
330
2621
100
AcDbEntity
  8
Defpoints
 62
     0
100
AcDbPoint
 10
2623.023276234156
 20
362.8281686160613
 30
0.0
  0
POINT
  5
262B
330
2621
100
AcDbEntity
  8
Defpoints
 62
     0
100
AcDbPoint
 10
2623.023276234156
 20
247.5388396829094
 30
0.0
  0
ENDBLK
  5
262C
330
2621
100
AcDbEntity
  8
0
100
AcDbBlockEnd
  0
BLOCK
  5
262E
330
262D
100
AcDbEntity
  8
0
100
AcDbBlockBegin
  2
*D71
 70
     1
 10
0.0
 20
0.0
 30
0.0
  3
*D71
  1

  0
LINE
  5
262F
330
262D
100
AcDbEntity
  8
実形
 62
     0
370
    18
100
AcDbLine
 10
2032.328912889143
 20
684.0947101512855
 30
0.0
 11
1970.032114275532
 21
684.0947101512855
 31
0.0
  0
LINE
  5
2630
330
262D
100
AcDbEntity
  8
実形
 62
     0
370
    18
100
AcDbLine
 10
2032.328912889143
 20
585.2947101512854
 30
0.0
 11
1970.032114275532
 21
585.2947101512854
 31
0.0
  0
LINE
  5
2631
330
262D
100
AcDbEntity
  8
実形
 62
     0
370
    18
100
AcDbLine
 10
1970.032114275532
 20
684.0947101512855
 30
0.0
 11
1970.032114275532
 21
585.2947101512854
 31
0.0
  0
INSERT
  5
2632
330
262D
100
AcDbEntity
  8
実形
 62
     0
370
    18
100
AcDbBlockReference
  2
_DotSmall
 10
1970.032114275532
 20
684.0947101512855
 30
0.0
 41
35.0
 42
35.0
 43
35.0
 50
90.0
  0
INSERT
  5
2633
330
262D
100
AcDbEntity
  8
実形
 62
     0
370
    18
100
AcDbBlockReference
  2
_DotSmall
 10
1970.032114275532
 20
585.2947101512854
 30
0.0
 41
35.0
 42
35.0
 43
35.0
 50
270.0
  0
MTEXT
  5
2634
330
262D
100
AcDbEntity
  8
実形
 62
     0
100
AcDbMText
 10
1951.282114275532
 20
634.6947101512859
 30
0.0
 40
25.0
 41
0.0
 71
     5
 72
     1
  1
6.5
 11
0.0000000000000001
 21
1.0
 31
0.0
 73
     1
 44
1.0
1001
ACAD
1000
MTEXTBEGIN
1070
    73
1070
     1
1070
    44
1040
1.0
1070
    74
1070
     0
1000
MTEXTEND
  0
POINT
  5
2635
330
262D
100
AcDbEntity
  8
Defpoints
 62
     0
100
AcDbPoint
 10
2097.328912889143
 20
684.0947101512855
 30
0.0
  0
POINT
  5
2636
330
262D
100
AcDbEntity
  8
Defpoints
 62
     0
100
AcDbPoint
 10
2097.328912889143
 20
585.2947101512854
 30
0.0
  0
POINT
  5
2637
330
262D
100
AcDbEntity
  8
Defpoints
 62
     0
100
AcDbPoint
 10
1970.032114275532
 20
585.2947101512854
 30
0.0
  0
ENDBLK
  5
2638
330
262D
100
AcDbEntity
  8
0
100
AcDbBlockEnd
  0
BLOCK
  5
263A
330
2639
100
AcDbEntity
  8
0
100
AcDbBlockBegin
  2
*D72
 70
     1
 10
0.0
 20
0.0
 30
0.0
  3
*D72
  1

  0
LINE
  5
263B
330
2639
100
AcDbEntity
  8
実形
 62
     0
370
    18
100
AcDbLine
 10
2032.328912889143
 20
684.0947101512855
 30
0.0
 11
1916.035186721017
 21
684.0947101512855
 31
0.0
  0
LINE
  5
263C
330
2639
100
AcDbEntity
  8
実形
 62
     0
370
    18
100
AcDbLine
 10
2032.328912889143
 20
559.2947101512846
 30
0.0
 11
1916.035186721017
 21
559.2947101512846
 31
0.0
  0
LINE
  5
263D
330
2639
100
AcDbEntity
  8
実形
 62
     0
370
    18
100
AcDbLine
 10
1916.035186721017
 20
684.0947101512855
 30
0.0
 11
1916.035186721017
 21
559.2947101512846
 31
0.0
  0
INSERT
  5
263E
330
2639
100
AcDbEntity
  8
実形
 62
     0
370
    18
100
AcDbBlockReference
  2
_DotSmall
 10
1916.035186721017
 20
684.0947101512855
 30
0.0
 41
35.0
 42
35.0
 43
35.0
 50
90.0
  0
INSERT
  5
263F
330
2639
100
AcDbEntity
  8
実形
 62
     0
370
    18
100
AcDbBlockReference
  2
_DotSmall
 10
1916.035186721017
 20
559.2947101512846
 30
0.0
 41
35.0
 42
35.0
 43
35.0
 50
270.0
  0
MTEXT
  5
2640
330
2639
100
AcDbEntity
  8
実形
 62
     0
100
AcDbMText
 10
1897.285186721017
 20
621.6947101512854
 30
0.0
 40
25.0
 41
0.0
 71
     5
 72
     1
  1
8.2
 11
0.0000000000000001
 21
1.0
 31
0.0
 73
     1
 44
1.0
1001
ACAD
1000
MTEXTBEGIN
1070
    73
1070
     1
1070
    44
1040
1.0
1070
    74
1070
     0
1000
MTEXTEND
  0
POINT
  5
2641
330
2639
100
AcDbEntity
  8
Defpoints
 62
     0
100
AcDbPoint
 10
2097.328912889143
 20
684.0947101512855
 30
0.0
  0
POINT
  5
2642
330
2639
100
AcDbEntity
  8
Defpoints
 62
     0
100
AcDbPoint
 10
2097.328912889143
 20
559.2947101512846
 30
0.0
  0
POINT
  5
2643
330
2639
100
AcDbEntity
  8
Defpoints
 62
     0
100
AcDbPoint
 10
1916.035186721017
 20
559.2947101512846
 30
0.0
  0
ENDBLK
  5
2644
330
2639
100
AcDbEntity
  8
0
100
AcDbBlockEnd
  0
BLOCK
  5
2646
330
2645
100
AcDbEntity
  8
0
100
AcDbBlockBegin
  2
*D73
 70
     1
 10
0.0
 20
0.0
 30
0.0
  3
*D73
  1

  0
LINE
  5
2647
330
2645
100
AcDbEntity
  8
実形
 62
     0
370
    18
100
AcDbLine
 10
2032.328912889143
 20
543.6947101512854
 30
0.0
 11
1864.389549972262
 21
543.6947101512854
 31
0.0
  0
LINE
  5
2648
330
2645
100
AcDbEntity
  8
実形
 62
     0
370
    18
100
AcDbLine
 10
2032.328912889143
 20
684.0947101512855
 30
0.0
 11
1864.389549972262
 21
684.0947101512855
 31
0.0
  0
LINE
  5
2649
330
2645
100
AcDbEntity
  8
実形
 62
     0
370
    18
100
AcDbLine
 10
1864.389549972262
 20
543.6947101512854
 30
0.0
 11
1864.389549972262
 21
684.0947101512855
 31
0.0
  0
INSERT
  5
264A
330
2645
100
AcDbEntity
  8
実形
 62
     0
370
    18
100
AcDbBlockReference
  2
_DotSmall
 10
1864.389549972262
 20
543.6947101512854
 30
0.0
 41
35.0
 42
35.0
 43
35.0
 50
270.0
  0
INSERT
  5
264B
330
2645
100
AcDbEntity
  8
実形
 62
     0
370
    18
100
AcDbBlockReference
  2
_DotSmall
 10
1864.389549972262
 20
684.0947101512855
 30
0.0
 41
35.0
 42
35.0
 43
35.0
 50
90.0
  0
MTEXT
  5
264C
330
2645
100
AcDbEntity
  8
実形
 62
     0
100
AcDbMText
 10
1845.639549972261
 20
613.8947101512858
 30
0.0
 40
25.0
 41
0.0
 71
     5
 72
     1
  1
9
 11
0.0000000000000001
 21
1.0
 31
0.0
 73
     1
 44
1.0
1001
ACAD
1000
MTEXTBEGIN
1070
    73
1070
     1
1070
    44
1040
1.0
1070
    74
1070
     0
1000
MTEXTEND
  0
POINT
  5
264D
330
2645
100
AcDbEntity
  8
Defpoints
 62
     0
100
AcDbPoint
 10
2097.328912889143
 20
543.6947101512854
 30
0.0
  0
POINT
  5
264E
330
2645
100
AcDbEntity
  8
Defpoints
 62
     0
100
AcDbPoint
 10
2097.328912889143
 20
684.0947101512855
 30
0.0
  0
POINT
  5
264F
330
2645
100
AcDbEntity
  8
Defpoints
 62
     0
100
AcDbPoint
 10
1864.389549972262
 20
684.0947101512855
 30
0.0
  0
ENDBLK
  5
2650
330
2645
100
AcDbEntity
  8
0
100
AcDbBlockEnd
  0
BLOCK
  5
2652
330
2651
100
AcDbEntity
  8
0
100
AcDbBlockBegin
  2
*D74
 70
     1
 10
0.0
 20
0.0
 30
0.0
  3
*D74
  1

  0
LINE
  5
2653
330
2651
100
AcDbEntity
  8
実形
 62
     0
370
    18
100
AcDbLine
 10
2647.25404811461
 20
543.6947101512855
 30
0.0
 11
2673.699912636183
 21
543.6947101512855
 31
0.0
  0
LINE
  5
2654
330
2651
100
AcDbEntity
  8
実形
 62
     0
370
    18
100
AcDbLine
 10
2647.25404811461
 20
403.2947101512855
 30
0.0
 11
2673.699912636183
 21
403.2947101512855
 31
0.0
  0
LINE
  5
2655
330
2651
100
AcDbEntity
  8
実形
 62
     0
370
    18
100
AcDbLine
 10
2673.699912636183
 20
543.6947101512855
 30
0.0
 11
2673.699912636183
 21
403.2947101512855
 31
0.0
  0
INSERT
  5
2656
330
2651
100
AcDbEntity
  8
実形
 62
     0
370
    18
100
AcDbBlockReference
  2
_DotSmall
 10
2673.699912636183
 20
543.6947101512855
 30
0.0
 41
35.0
 42
35.0
 43
35.0
 50
90.0
  0
INSERT
  5
2657
330
2651
100
AcDbEntity
  8
実形
 62
     0
370
    18
100
AcDbBlockReference
  2
_DotSmall
 10
2673.699912636183
 20
403.2947101512855
 30
0.0
 41
35.0
 42
35.0
 43
35.0
 50
270.0
  0
MTEXT
  5
2658
330
2651
100
AcDbEntity
  8
実形
 62
     0
100
AcDbMText
 10
2654.949912636183
 20
473.4947101512859
 30
0.0
 40
25.0
 41
0.0
 71
     5
 72
     1
  1
9
 11
0.0000000000000001
 21
1.0
 31
0.0
 73
     1
 44
1.0
1001
ACAD
1000
MTEXTBEGIN
1070
    73
1070
     1
1070
    44
1040
1.0
1070
    74
1070
     0
1000
MTEXTEND
  0
POINT
  5
2659
330
2651
100
AcDbEntity
  8
Defpoints
 62
     0
100
AcDbPoint
 10
2582.25404811461
 20
543.6947101512855
 30
0.0
  0
POINT
  5
265A
330
2651
100
AcDbEntity
  8
Defpoints
 62
     0
100
AcDbPoint
 10
2582.25404811461
 20
403.2947101512855
 30
0.0
  0
POINT
  5
265B
330
2651
100
AcDbEntity
  8
Defpoints
 62
     0
100
AcDbPoint
 10
2673.699912636183
 20
403.2947101512855
 30
0.0
  0
ENDBLK
  5
265C
330
2651
100
AcDbEntity
  8
0
100
AcDbBlockEnd
  0
BLOCK
  5
265E
330
265D
100
AcDbEntity
  8
0
100
AcDbBlockBegin
  2
*D75
 70
     1
 10
0.0
 20
0.0
 30
0.0
  3
*D75
  1

  0
LINE
  5
265F
330
265D
100
AcDbEntity
  8
実形
 62
     0
370
    18
100
AcDbLine
 10
2647.25404811461
 20
684.0947101512855
 30
0.0
 11
2673.699912636183
 21
684.0947101512855
 31
0.0
  0
LINE
  5
2660
330
265D
100
AcDbEntity
  8
実形
 62
     0
370
    18
100
AcDbLine
 10
2647.25404811461
 20
543.6947101512855
 30
0.0
 11
2673.699912636183
 21
543.6947101512855
 31
0.0
  0
LINE
  5
2661
330
265D
100
AcDbEntity
  8
実形
 62
     0
370
    18
100
AcDbLine
 10
2673.699912636183
 20
684.0947101512855
 30
0.0
 11
2673.699912636183
 21
543.6947101512855
 31
0.0
  0
INSERT
  5
2662
330
265D
100
AcDbEntity
  8
実形
 62
     0
370
    18
100
AcDbBlockReference
  2
_DotSmall
 10
2673.699912636183
 20
684.0947101512855
 30
0.0
 41
35.0
 42
35.0
 43
35.0
 50
90.0
  0
INSERT
  5
2663
330
265D
100
AcDbEntity
  8
実形
 62
     0
370
    18
100
AcDbBlockReference
  2
_DotSmall
 10
2673.699912636183
 20
543.6947101512855
 30
0.0
 41
35.0
 42
35.0
 43
35.0
 50
270.0
  0
MTEXT
  5
2664
330
265D
100
AcDbEntity
  8
実形
 62
     0
100
AcDbMText
 10
2654.949912636183
 20
613.8947101512859
 30
0.0
 40
25.0
 41
0.0
 71
     5
 72
     1
  1
9
 11
0.0000000000000001
 21
1.0
 31
0.0
 73
     1
 44
1.0
1001
ACAD
1000
MTEXTBEGIN
1070
    73
1070
     1
1070
    44
1040
1.0
1070
    74
1070
     0
1000
MTEXTEND
  0
POINT
  5
2665
330
265D
100
AcDbEntity
  8
Defpoints
 62
     0
100
AcDbPoint
 10
2582.25404811461
 20
684.0947101512855
 30
0.0
  0
POINT
  5
2666
330
265D
100
AcDbEntity
  8
Defpoints
 62
     0
100
AcDbPoint
 10
2582.25404811461
 20
543.6947101512855
 30
0.0
  0
POINT
  5
2667
330
265D
100
AcDbEntity
  8
Defpoints
 62
     0
100
AcDbPoint
 10
2673.699912636183
 20
543.6947101512855
 30
0.0
  0
ENDBLK
  5
2668
330
265D
100
AcDbEntity
  8
0
100
AcDbBlockEnd
  0
BLOCK
  5
266A
330
2669
100
AcDbEntity
  8
0
100
AcDbBlockBegin
  2
*D76
 70
     1
 10
0.0
 20
0.0
 30
0.0
  3
*D76
  1

  0
LINE
  5
266B
330
2669
100
AcDbEntity
  8
実形
 62
     0
370
    18
100
AcDbLine
 10
2647.25404811461
 20
684.0947101512855
 30
0.0
 11
2715.480008308167
 21
684.0947101512855
 31
0.0
  0
LINE
  5
266C
330
2669
100
AcDbEntity
  8
実形
 62
     0
370
    18
100
AcDbLine
 10
2647.25404811461
 20
403.2947101512855
 30
0.0
 11
2715.480008308167
 21
403.2947101512855
 31
0.0
  0
LINE
  5
266D
330
2669
100
AcDbEntity
  8
実形
 62
     0
370
    18
100
AcDbLine
 10
2715.480008308167
 20
684.0947101512855
 30
0.0
 11
2715.480008308167
 21
403.2947101512855
 31
0.0
  0
INSERT
  5
266E
330
2669
100
AcDbEntity
  8
実形
 62
     0
370
    18
100
AcDbBlockReference
  2
_DotSmall
 10
2715.480008308167
 20
684.0947101512855
 30
0.0
 41
35.0
 42
35.0
 43
35.0
 50
90.0
  0
INSERT
  5
266F
330
2669
100
AcDbEntity
  8
実形
 62
     0
370
    18
100
AcDbBlockReference
  2
_DotSmall
 10
2715.480008308167
 20
403.2947101512855
 30
0.0
 41
35.0
 42
35.0
 43
35.0
 50
270.0
  0
MTEXT
  5
2670
330
2669
100
AcDbEntity
  8
実形
 62
     0
100
AcDbMText
 10
2696.730008308167
 20
543.694710151286
 30
0.0
 40
25.0
 41
0.0
 71
     5
 72
     1
  1
18
 11
0.0000000000000001
 21
1.0
 31
0.0
 73
     1
 44
1.0
1001
ACAD
1000
MTEXTBEGIN
1070
    73
1070
     1
1070
    44
1040
1.0
1070
    74
1070
     0
1000
MTEXTEND
  0
POINT
  5
2671
330
2669
100
AcDbEntity
  8
Defpoints
 62
     0
100
AcDbPoint
 10
2582.25404811461
 20
684.0947101512855
 30
0.0
  0
POINT
  5
2672
330
2669
100
AcDbEntity
  8
Defpoints
 62
     0
100
AcDbPoint
 10
2582.25404811461
 20
403.2947101512855
 30
0.0
  0
POINT
  5
2673
330
2669
100
AcDbEntity
  8
Defpoints
 62
     0
100
AcDbPoint
 10
2715.480008308167
 20
403.2947101512855
 30
0.0
  0
ENDBLK
  5
2674
330
2669
100
AcDbEntity
  8
0
100
AcDbBlockEnd
  0
BLOCK
  5
26C9
330
2675
100
AcDbEntity
  8
0
100
AcDbBlockBegin
  2
A$C58C12495
 70
     0
 10
0.0
 20
0.0
 30
0.0
  3
A$C58C12495
  1

  0
LINE
  5
2676
330
2675
100
AcDbEntity
  8
実形
100
AcDbLine
 10
-240.7661226349341
 20
485.0947101512854
 30
0.0
 11
-630.7661226349341
 21
485.0947101512854
 31
0.0
  0
LINE
  5
2677
330
2675
100
AcDbEntity
  8
実形
100
AcDbLine
 10
-427.9661226349344
 20
386.2947101512855
 30
0.0
 11
-708.7661226349337
 21
386.2947101512855
 31
0.0
  0
ARC
  5
2678
330
2675
100
AcDbEntity
  8
実形
100
AcDbCircle
 10
-630.7661226349341
 20
407.0947101512854
 30
0.0
 40
78.0
100
AcDbArc
 50
90.0
 51
180.0
  0
ARC
  5
2679
330
2675
100
AcDbEntity
  8
実形
100
AcDbCircle
 10
-240.7661226349341
 20
407.0947101512854
 30
0.0
 40
78.0
100
AcDbArc
 50
0.0
 51
90.0
  0
LINE
  5
267A
330
2675
100
AcDbEntity
  8
実形
100
AcDbLine
 10
-162.7661226349341
 20
344.6947101512855
 30
0.0
 11
-427.9661226349344
 21
344.6947101512855
 31
0.0
  0
LINE
  5
267B
330
2675
100
AcDbEntity
  8
実形
100
AcDbLine
 10
-505.9661226349344
 20
344.6947101512855
 30
0.0
 11
-630.7661226349341
 21
344.6947101512855
 31
0.0
  0
LINE
  5
267C
330
2675
100
AcDbEntity
  8
実形
100
AcDbLine
 10
-459.1661226349343
 20
344.6947101512855
 30
0.0
 11
-677.5661226349343
 21
344.6947101512855
 31
0.0
  0
LINE
  5
267D
330
2675
100
AcDbEntity
  8
実形
100
AcDbLine
 10
-162.7661226349341
 20
204.2947101512855
 30
0.0
 11
-397.8945050222551
 21
204.2947101512855
 31
0.0
  0
LINE
  5
267E
330
2675
100
AcDbEntity
  8
実形
100
AcDbLine
 10
-505.9661226349344
 20
204.2947101512855
 30
0.0
 11
-630.7661226349341
 21
204.2947101512855
 31
0.0
  0
LINE
  5
267F
330
2675
100
AcDbEntity
  8
実形
100
AcDbLine
 10
-708.7661226349341
 20
407.0947101512854
 30
0.0
 11
-708.7661226349337
 21
386.2947101512855
 31
0.0
  0
LINE
  5
2680
330
2675
100
AcDbEntity
  8
実形
100
AcDbLine
 10
-693.1661226349342
 20
360.2947101512846
 30
0.0
 11
-459.1661226349343
 21
360.2947101512846
 31
0.0
  0
LINE
  5
2681
330
2675
100
AcDbEntity
  8
実形
100
AcDbLine
 10
-427.9661226349344
 20
386.2947101512855
 30
0.0
 11
-427.9661226349344
 21
344.6947101512855
 31
0.0
  0
LINE
  5
2682
330
2675
100
AcDbEntity
  8
実形
100
AcDbLine
 10
-505.9661226349344
 20
344.6947101512855
 30
0.0
 11
-630.7661226349341
 21
344.6947101512855
 31
0.0
  0
LINE
  5
2683
330
2675
100
AcDbEntity
  8
実形
100
AcDbLine
 10
-162.7661226349341
 20
407.0947101512854
 30
0.0
 11
-162.7661226349341
 21
204.2947101512855
 31
0.0
  0
LINE
  5
2684
330
2675
100
AcDbEntity
  8
実形
100
AcDbLine
 10
-630.7661226349341
 20
344.6947101512855
 30
0.0
 11
-630.7661226349341
 21
204.2947101512864
 31
0.0
  0
LINE
  5
2685
330
2675
100
AcDbEntity
  8
実形
100
AcDbLine
 10
-693.1661226349342
 20
360.2947101512846
 30
0.0
 11
-693.1661226349338
 21
157.5086976533553
 31
0.0
  0
LINE
  5
2686
330
2675
100
AcDbEntity
  8
実形
100
AcDbLine
 10
-677.5661226349343
 20
344.6947101512855
 30
0.0
 11
-677.5661226349343
 21
157.5086976533554
 31
0.0
  0
ARC
  5
2687
330
2675
100
AcDbEntity
  8
実形
100
AcDbCircle
 10
-466.9661226349344
 20
344.6947101512855
 30
0.0
 40
39.0
100
AcDbArc
 50
180.0
 51
0.0
  0
TEXT
  5
2688
330
2675
100
AcDbEntity
  8
実形
100
AcDbText
 10
-939.9173030544497
 20
211.9876312842443
 30
0.0
 40
35.0
  1
シンク厚　
 11
-939.9173030544497
 21
207.3209646175776
 31
0.0
100
AcDbText
 73
     1
  0
DIMENSION
  5
2689
330
2675
100
AcDbEntity
  8
実形
100
AcDbDimension
  2
*D57
 10
-708.7661226349332
 20
268.1003685502147
 30
0.0
 11
-729.1145484242202
 21
292.5915116428198
 31
0.0
 12
-2784.0
 22
-199.0
 32
0.0
 70
   128
  1
1
 71
     5
 42
15.59999999999991
  3
ISO-25
100
AcDbAlignedDimension
 13
-693.1661226349334
 23
360.2947101512847
 33
0.0
 14
-708.7661226349332
 24
334.502986728412
 34
0.0
 50
180.0
100
AcDbRotatedDimension
1001
ACAD
1000
DSTYLE
1002
{
1070
   282
1070
     1
1070
   281
1070
     1
1070
    41
1040
5.0
1070
    42
1040
6.0
1070
   140
1040
25.0
1070
   147
1040
1.199999999999999
1070
   279
1070
     2
1070
   289
1070
     2
1070
   371
1070
    13
1070
   372
1070
    13
1002
}
  0
TEXT
  5
268A
330
2675
100
AcDbEntity
  8
実形
  6
HIDDEN2
100
AcDbText
 10
-688.2028011006322
 20
263.9308652071995
 30
0.0
 40
10.14
  1
● 
 71
     2
100
AcDbText
  0
TEXT
  5
268B
330
2675
100
AcDbEntity
  8
実形
  6
HIDDEN2
100
AcDbText
 10
-704.4331615751725
 20
263.4970760796131
 30
0.0
 40
10.14
  1
● 
 71
     2
100
AcDbText
  0
LINE
  5
268C
330
2675
100
AcDbEntity
  8
実形
100
AcDbLine
 10
-692.7548266588637
 20
268.4229398449074
 30
0.0
 11
-708.4397336945685
 21
268.4229398449074
 31
0.0
  0
LINE
  5
268D
330
2675
100
AcDbEntity
  8
実形
100
AcDbLine
 10
-397.8945050222551
 20
204.2947101512855
 30
0.0
 11
-427.9661226349344
 21
204.2947101512855
 31
0.0
  0
ARC
  5
268E
330
2675
100
AcDbEntity
  8
実形
100
AcDbCircle
 10
-466.9661226349344
 20
204.2947101512855
 30
0.0
 40
39.0
100
AcDbArc
 50
0.0
 51
180.0
  0
LINE
  5
268F
330
2675
100
AcDbEntity
  8
実形
100
AcDbLine
 10
-505.9661226349344
 20
258.352196222808
 30
0.0
 11
-505.9661226349344
 21
240.4500692892674
 31
0.0
  0
LINE
  5
2690
330
2675
100
AcDbEntity
  8
実形
100
AcDbLine
 10
-427.9661226349344
 20
258.352196222808
 30
0.0
 11
-427.9661226349344
 21
240.4977027967055
 31
0.0
  0
TEXT
  5
2691
330
2675
100
AcDbEntity
  8
実形
100
AcDbText
 10
-924.5905651770026
 20
160.2737114633437
 30
0.0
 40
28.0
  1
0.8mm
 11
-924.5905651770026
 21
156.5403781300104
 31
0.0
100
AcDbText
 73
     1
  0
TEXT
  5
2692
330
2675
100
AcDbEntity
  8
実形
100
AcDbText
 10
-814.8280491454517
 20
525.7069313792997
 30
0.0
 40
28.0
  1
5R
 11
-814.8280491454517
 21
521.9735980459663
 31
0.0
100
AcDbText
 73
     1
  0
DIMENSION
  5
2693
330
2675
100
AcDbEntity
  8
実形
100
AcDbDimension
  2
*D58
 10
-459.1661226349343
 20
418.1548568615962
 30
0.0
 11
-576.1661226349342
 21
436.9048568615962
 31
0.0
 12
-2784.0
 22
-199.0
 32
0.0
  1
15
 71
     5
 42
234.0
  3
ISO-25
100
AcDbAlignedDimension
 13
-693.1661226349342
 23
327.9073852958004
 33
0.0
 14
-459.1661226349343
 24
327.9073852958004
 34
0.0
100
AcDbRotatedDimension
1001
ACAD
1000
DSTYLE
1002
{
1070
   279
1070
     2
1070
   371
1070
    18
1070
   372
1070
    18
1002
}
  0
LEADER
  5
2694
330
2675
100
AcDbEntity
  8
実形
100
AcDbLeader
  3
ISO-25
 76
     2
 10
-703.2694131015441
 20
459.778126851076
 30
0.0
 10
-777.6418371308168
 20
513.4806979619262
 30
0.0
1001
ACAD
1000
DSTYLE
1002
{
1070
   147
1040
6.25
1070
    77
1070
     0
1070
   279
1070
     2
1070
   371
1070
    18
1070
   372
1070
    18
1002
}
  0
LINE
  5
2695
330
2675
100
AcDbEntity
  8
実形
100
AcDbLine
 10
-459.1661226349343
 20
360.2947101512846
 30
0.0
 11
-459.1661226349343
 21
344.6947101512855
 31
0.0
  0
DIMENSION
  5
2696
330
2675
100
AcDbEntity
  8
実形
100
AcDbDimension
  2
*D59
 10
-555.2325180598382
 20
344.6947101512856
 30
0.0
 11
-586.705103454562
 21
316.0052225685113
 31
0.0
 12
-2784.0
 22
-199.0
 32
0.0
 70
   128
  1
2.5
 71
     5
 42
38.99999999999995
  3
ISO-25
100
AcDbAlignedDimension
 13
-426.3854379811086
 23
305.6947101512855
 33
0.0
 14
-502.7328085715963
 24
344.6947101512856
 34
0.0
 50
90.0
100
AcDbRotatedDimension
1001
ACAD
1000
DSTYLE
1002
{
1070
   140
1040
23.0
1070
   279
1070
     2
1070
   371
1070
    18
1070
   372
1070
    18
1002
}
  0
DIMENSION
  5
2697
330
2675
100
AcDbEntity
  8
実形
100
AcDbDimension
  2
*D60
 10
-427.966122634934
 20
253.0882219802177
 30
0.0
 11
-466.9661226349339
 21
271.8382219802177
 31
0.0
 12
-2784.0
 22
-199.0
 32
0.0
  1
5
 71
     5
 42
78.0
  3
ISO-25
100
AcDbAlignedDimension
 13
-505.966122634934
 23
314.0145559292669
 33
0.0
 14
-427.966122634934
 24
314.0145559292669
 34
0.0
100
AcDbRotatedDimension
1001
ACAD
1000
DSTYLE
1002
{
1070
   279
1070
     2
1070
   371
1070
    18
1070
   372
1070
    18
1002
}
  0
LINE
  5
2698
330
2675
100
AcDbEntity
  8
実形
100
AcDbLine
 10
-505.9661226349344
 20
253.0882219802178
 30
0.0
 11
-505.9661226349344
 21
295.7079487038194
 31
0.0
  0
LINE
  5
2699
330
2675
100
AcDbEntity
  8
実形
100
AcDbLine
 10
-427.9661226349344
 20
253.0882219802178
 30
0.0
 11
-427.9661226349344
 21
294.5103420910409
 31
0.0
  0
DIMENSION
  5
269A
330
2675
100
AcDbEntity
  8
実形
100
AcDbDimension
  2
*D61
 10
-553.2940691021472
 20
204.2947101512855
 30
0.0
 11
-585.9135304060887
 21
232.6583152348946
 31
0.0
 12
-2784.0
 22
-199.0
 32
0.0
 70
   128
  1
2.5
 71
     5
 42
38.99999999999995
  3
ISO-25
100
AcDbAlignedDimension
 13
-452.6738124935072
 23
243.2947101512854
 33
0.0
 14
-440.3873085922318
 24
204.2947101512855
 34
0.0
 50
90.0
100
AcDbRotatedDimension
1001
ACAD
1000
DSTYLE
1002
{
1070
   140
1040
23.0
1070
   279
1070
     2
1070
   371
1070
    18
1070
   372
1070
    18
1002
}
  0
DIMENSION
  5
269B
330
2675
100
AcDbEntity
  8
実形
100
AcDbDimension
  2
*D62
 10
-427.966122634934
 20
534.9587029177619
 30
0.0
 11
-568.366122634934
 21
553.7087029177619
 31
0.0
 12
-2784.0
 22
-199.0
 32
0.0
  1
18
 71
     5
 42
280.7999999999997
  3
ISO-25
100
AcDbAlignedDimension
 13
-708.7661226349337
 23
432.1956311673393
 33
0.0
 14
-427.966122634934
 24
432.1956311673393
 34
0.0
100
AcDbRotatedDimension
1001
ACAD
1000
DSTYLE
1002
{
1070
   279
1070
     2
1070
   371
1070
    18
1070
   372
1070
    18
1002
}
  0
DIMENSION
  5
269C
330
2675
100
AcDbEntity
  8
実形
100
AcDbDimension
  2
*D63
 10
-162.7661226349341
 20
534.9587029177619
 30
0.0
 11
-295.3661226349341
 21
553.7087029177619
 31
0.0
 12
-2784.0
 22
-199.0
 32
0.0
  1
17
 71
     5
 42
265.1999999999998
  3
ISO-25
100
AcDbAlignedDimension
 13
-427.966122634934
 23
432.1956311673382
 33
0.0
 14
-162.7661226349341
 24
432.1956311673382
 34
0.0
100
AcDbRotatedDimension
1001
ACAD
1000
DSTYLE
1002
{
1070
   279
1070
     2
1070
   371
1070
    18
1070
   372
1070
    18
1002
}
  0
DIMENSION
  5
269D
330
2675
100
AcDbEntity
  8
実形
100
AcDbDimension
  2
*D64
 10
-162.7661226349341
 20
578.4666415156134
 30
0.0
 11
-435.7661226349336
 21
597.2166415156134
 31
0.0
 12
-2784.0
 22
-199.0
 32
0.0
  1
35
 71
     5
 42
545.9999999999995
  3
ISO-25
100
AcDbAlignedDimension
 13
-708.7661226349337
 23
432.1956311673382
 33
0.0
 14
-162.7661226349341
 24
432.1956311673382
 34
0.0
100
AcDbRotatedDimension
1001
ACAD
1000
DSTYLE
1002
{
1070
   279
1070
     2
1070
   371
1070
    18
1070
   372
1070
    18
1002
}
  0
TEXT
  5
269E
330
2675
100
AcDbEntity
  8
実形
100
AcDbText
 10
-122.7654107599046
 20
514.6502811430476
 30
0.0
 40
28.0
  1
5R
 11
-122.7654107599046
 21
510.9169478097142
 31
0.0
100
AcDbText
 73
     1
  0
DIMENSION
  5
269F
330
2675
100
AcDbEntity
  8
実形
100
AcDbDimension
  2
*D65
 10
-630.7661226349341
 20
98.50857708318665
 30
0.0
 11
-730.7967093002462
 21
133.9138518235977
 31
0.0
 12
-2784.0
 22
-199.0
 32
0.0
 70
   128
  1
3.2
 71
     5
 42
46.80000000000018
  3
ISO-25
100
AcDbAlignedDimension
 13
-677.5661226349343
 23
212.5474686202858
 33
0.0
 14
-630.7661226349341
 24
212.5474686202858
 34
0.0
100
AcDbRotatedDimension
1001
ACAD
1000
DSTYLE
1002
{
1070
   140
1040
25.0
1070
   279
1070
     2
1070
   371
1070
    18
1070
   372
1070
    18
1002
}
  0
DIMENSION
  5
26A0
330
2675
100
AcDbEntity
  8
実形
100
AcDbDimension
  2
*D66
 10
-505.966122634934
 20
98.50857708318665
 30
0.0
 11
-568.366122634934
 21
117.2585770831866
 31
0.0
 12
-2784.0
 22
-199.0
 32
0.0
  1
8
 71
     5
 42
124.8000000000001
  3
ISO-25
100
AcDbAlignedDimension
 13
-630.7661226349341
 23
212.5474686202858
 33
0.0
 14
-505.966122634934
 24
212.5474686202858
 34
0.0
100
AcDbRotatedDimension
1001
ACAD
1000
DSTYLE
1002
{
1070
   279
1070
     2
1070
   371
1070
    18
1070
   372
1070
    18
1002
}
  0
DIMENSION
  5
26A1
330
2675
100
AcDbEntity
  8
実形
100
AcDbDimension
  2
*D67
 10
-427.966122634934
 20
98.50857708318665
 30
0.0
 11
-466.9661226349339
 21
117.2585770831866
 31
0.0
 12
-2784.0
 22
-199.0
 32
0.0
  1
5
 71
     5
 42
78.0
  3
ISO-25
100
AcDbAlignedDimension
 13
-505.966122634934
 23
212.5474686202858
 33
0.0
 14
-427.966122634934
 24
212.5474686202858
 34
0.0
100
AcDbRotatedDimension
1001
ACAD
1000
DSTYLE
1002
{
1070
   279
1070
     2
1070
   371
1070
    18
1070
   372
1070
    18
1002
}
  0
DIMENSION
  5
26A2
330
2675
100
AcDbEntity
  8
実形
100
AcDbDimension
  2
*D68
 10
-162.7661226349341
 20
98.50857708318665
 30
0.0
 11
-295.3661226349341
 21
117.2585770831866
 31
0.0
 12
-2784.0
 22
-199.0
 32
0.0
  1
17
 71
     5
 42
265.1999999999998
  3
ISO-25
100
AcDbAlignedDimension
 13
-427.966122634934
 23
212.5474686202858
 33
0.0
 14
-162.7661226349341
 24
212.5474686202858
 34
0.0
100
AcDbRotatedDimension
1001
ACAD
1000
DSTYLE
1002
{
1070
   279
1070
     2
1070
   371
1070
    18
1070
   372
1070
    18
1002
}
  0
DIMENSION
  5
26A3
330
2675
100
AcDbEntity
  8
実形
100
AcDbDimension
  2
*D69
 10
-628.9767237658439
 20
48.53883968290938
 30
0.0
 11
-667.9767237658434
 21
67.28883968290938
 31
0.0
 12
-2784.0
 22
-199.0
 32
0.0
  1
5
 71
     5
 42
77.99999999999954
  3
ISO-25
100
AcDbAlignedDimension
 13
-706.9767237658433
 23
163.8281686160612
 33
0.0
 14
-628.9767237658439
 24
163.8281686160612
 34
0.0
100
AcDbRotatedDimension
1001
ACAD
1000
DSTYLE
1002
{
1070
   279
1070
     2
1070
   371
1070
    18
1070
   372
1070
    18
1002
}
  0
DIMENSION
  5
26A4
330
2675
100
AcDbEntity
  8
実形
100
AcDbDimension
  2
*D70
 10
-160.9767237658438
 20
48.53883968290938
 30
0.0
 11
-394.9767237658439
 21
67.28883968290938
 31
0.0
 12
-2784.0
 22
-199.0
 32
0.0
  1
30
 71
     5
 42
468.0
  3
ISO-25
100
AcDbAlignedDimension
 13
-628.9767237658439
 23
163.8281686160612
 33
0.0
 14
-160.9767237658438
 24
163.8281686160612
 34
0.0
100
AcDbRotatedDimension
1001
ACAD
1000
DSTYLE
1002
{
1070
   279
1070
     2
1070
   371
1070
    18
1070
   372
1070
    18
1002
}
  0
LINE
  5
26A5
330
2675
100
AcDbEntity
  8
実形
100
AcDbLine
 10
-694.8558579722798
 20
215.8786635805636
 30
0.0
 11
-778.803343379101
 21
209.9889439325023
 31
0.0
  0
LINE
  5
26A6
330
2675
100
AcDbEntity
  8
実形
100
AcDbLine
 10
-695.179399886937
 20
215.7274049971473
 30
0.0
 11
-727.5141160896983
 21
201.9756935648645
 31
0.0
  0
LINE
  5
26A7
330
2675
100
AcDbEntity
  8
実形
100
AcDbLine
 10
-695.5276398829433
 20
216.6242072570589
 30
0.0
 11
-727.8012293429829
 21
222.9662971197472
 31
0.0
  0
TEXT
  5
26A8
330
2675
100
AcDbEntity
  8
実形
370
    -2
100
AcDbText
 10
-840.0944167192346
 20
637.8506267960419
 30
0.0
 40
38.0
  1
A-A　断面詳細図
100
AcDbText
  0
TEXT
  5
26A9
330
2675
100
AcDbEntity
  8
実形
370
    -2
100
AcDbText
 10
-744.9583647918735
 20
639.8009194430942
 30
0.0
 40
35.0
  1
´
100
AcDbText
  0
DIMENSION
  5
26AA
330
2675
100
AcDbEntity
  8
実形
100
AcDbDimension
  2
*D71
 10
-813.967885724468
 20
386.2947101512855
 30
0.0
 11
-832.7178857244682
 21
435.6947101512859
 31
0.0
 12
-2784.0
 22
-199.0
 32
0.0
  1
6.5
 71
     5
 42
98.80000000000007
  3
ISO-25
100
AcDbAlignedDimension
 13
-686.6710871108575
 23
485.0947101512855
 33
0.0
 14
-686.6710871108575
 24
386.2947101512855
 34
0.0
 50
90.0
100
AcDbRotatedDimension
1001
ACAD
1000
DSTYLE
1002
{
1070
   279
1070
     2
1070
   371
1070
    18
1070
   372
1070
    18
1002
}
  0
DIMENSION
  5
26AB
330
2675
100
AcDbEntity
  8
実形
100
AcDbDimension
  2
*D72
 10
-867.9648132789825
 20
360.2947101512847
 30
0.0
 11
-886.7148132789827
 21
422.6947101512854
 31
0.0
 12
-2784.0
 22
-199.0
 32
0.0
  1
8.2
 71
     5
 42
124.8000000000008
  3
ISO-25
100
AcDbAlignedDimension
 13
-686.6710871108575
 23
485.0947101512855
 33
0.0
 14
-686.6710871108575
 24
360.2947101512847
 34
0.0
 50
90.0
100
AcDbRotatedDimension
1001
ACAD
1000
DSTYLE
1002
{
1070
   279
1070
     2
1070
   371
1070
    18
1070
   372
1070
    18
1002
}
  0
DIMENSION
  5
26AC
330
2675
100
AcDbEntity
  8
実形
100
AcDbDimension
  2
*D73
 10
-919.6104500277378
 20
485.0947101512855
 30
0.0
 11
-938.3604500277382
 21
414.8947101512858
 31
0.0
 12
-2784.0
 22
-199.0
 32
0.0
  1
9
 71
     5
 42
140.4000000000001
  3
ISO-25
100
AcDbAlignedDimension
 13
-686.6710871108575
 23
344.6947101512855
 33
0.0
 14
-686.6710871108575
 24
485.0947101512855
 34
0.0
 50
90.0
100
AcDbRotatedDimension
1001
ACAD
1000
DSTYLE
1002
{
1070
   279
1070
     2
1070
   371
1070
    18
1070
   372
1070
    18
1002
}
  0
LINE
  5
26AD
330
2675
100
AcDbEntity
  8
実形
100
AcDbLine
 10
-813.967885724468
 20
360.4808025581515
 30
0.0
 11
-813.967885724468
 21
344.6947101512855
 31
0.0
  0
TEXT
  5
26AE
330
2675
100
AcDbEntity
  8
実形
  6
HIDDEN2
100
AcDbText
 10
-809.240036069332
 20
355.1584046865482
 30
0.0
 40
10.14
  1
● 
 71
     2
100
AcDbText
  0
TEXT
  5
26AF
330
2675
100
AcDbEntity
  8
実形
  6
HIDDEN2
100
AcDbText
 10
-809.240036069332
 20
340.0050600708655
 30
0.0
 40
10.14
  1
● 
 71
     2
100
AcDbText
  0
TEXT
  5
26B0
330
2675
100
AcDbEntity
  8
実形
100
AcDbText
 10
-818.0954024430151
 20
284.7785695213888
 30
0.0
 40
29.25
  1
0.8
 50
90.0
 11
-814.1954024430152
 21
284.7785695213888
 31
0.0
100
AcDbText
 73
     1
  0
ARC
  5
26B1
330
2675
100
AcDbEntity
  8
実形
100
AcDbCircle
 10
-688.2506081015208
 20
95.0352561825519
 30
0.0
 40
37.21807911390647
100
AcDbArc
 50
10.88380498132139
 51
99.73672806232286
  0
ARC
  5
26B2
330
2675
100
AcDbEntity
  8
実形
100
AcDbCircle
 10
-682.8676739356715
 20
87.32228162437252
 30
0.0
 40
34.71092069179851
100
AcDbArc
 50
27.82370983299655
 51
64.29661093933541
  0
ARC
  5
26B3
330
2675
100
AcDbEntity
  8
実形
100
AcDbCircle
 10
-688.2633457429492
 20
105.1012932169378
 30
0.0
 40
36.96117099445193
100
AcDbArc
 50
355.5051092068189
 51
31.89192001425599
  0
DIMENSION
  5
26B4
330
2675
100
AcDbEntity
  8
実形
100
AcDbDimension
  2
*D74
 10
-110.300087363817
 20
204.2947101512855
 30
0.0
 11
-129.050087363817
 21
274.4947101512859
 31
0.0
 12
-2784.0
 22
-199.0
 32
0.0
  1
9
 71
     5
 42
140.4
  3
ISO-25
100
AcDbAlignedDimension
 13
-201.7459518853903
 23
344.6947101512856
 33
0.0
 14
-201.7459518853903
 24
204.2947101512855
 34
0.0
 50
90.0
100
AcDbRotatedDimension
1001
ACAD
1000
DSTYLE
1002
{
1070
   279
1070
     2
1070
   371
1070
    18
1070
   372
1070
    18
1002
}
  0
DIMENSION
  5
26B5
330
2675
100
AcDbEntity
  8
実形
100
AcDbDimension
  2
*D75
 10
-110.300087363817
 20
344.6947101512856
 30
0.0
 11
-129.050087363817
 21
414.8947101512859
 31
0.0
 12
-2784.0
 22
-199.0
 32
0.0
  1
9
 71
     5
 42
140.3999999999999
  3
ISO-25
100
AcDbAlignedDimension
 13
-201.7459518853903
 23
485.0947101512855
 33
0.0
 14
-201.7459518853903
 24
344.6947101512856
 34
0.0
 50
90.0
100
AcDbRotatedDimension
1001
ACAD
1000
DSTYLE
1002
{
1070
   279
1070
     2
1070
   371
1070
    18
1070
   372
1070
    18
1002
}
  0
DIMENSION
  5
26B6
330
2675
100
AcDbEntity
  8
実形
100
AcDbDimension
  2
*D76
 10
-68.51999169183319
 20
204.2947101512855
 30
0.0
 11
-87.26999169183319
 21
344.694710151286
 31
0.0
 12
-2784.0
 22
-199.0
 32
0.0
  1
18
 71
     5
 42
280.8
  3
ISO-25
100
AcDbAlignedDimension
 13
-201.7459518853903
 23
485.0947101512855
 33
0.0
 14
-201.7459518853903
 24
204.2947101512855
 34
0.0
 50
90.0
100
AcDbRotatedDimension
1001
ACAD
1000
DSTYLE
1002
{
1070
   279
1070
     2
1070
   371
1070
    18
1070
   372
1070
    18
1002
}
  0
LEADER
  5
26B7
330
2675
100
AcDbEntity
  8
実形
100
AcDbLeader
  3
ISO-25
 76
     2
 10
-185.0311129703641
 20
467.6445109732322
 30
0.0
 10
-118.1774164867365
 20
508.9203906258708
 30
0.0
1001
ACAD
1000
DSTYLE
1002
{
1070
   147
1040
6.25
1070
    77
1070
     0
1070
   279
1070
     2
1070
   371
1070
    18
1070
   372
1070
    18
1002
}
  0
LINE
  5
26B8
330
2675
100
AcDbEntity
  8
補助
100
AcDbLine
 10
0.0
 20
1760.0
 30
0.0
 11
-764.6127134807173
 21
1760.000000000001
 31
0.0
  0
LINE
  5
26B9
330
2675
100
AcDbEntity
  8
補助
100
AcDbLine
 10
0.0
 20
1695.0
 30
0.0
 11
-764.6127134807177
 21
1695.0
 31
0.0
  0
LINE
  5
26BA
330
2675
100
AcDbEntity
  8
補助
100
AcDbLine
 10
0.0
 20
1630.0
 30
0.0
 11
-764.6127134807177
 21
1630.0
 31
0.0
  0
LINE
  5
26BB
330
2675
100
AcDbEntity
  8
補助
100
AcDbLine
 10
-581.4523465790735
 20
1630.0
 30
0.0
 11
-581.4523465790735
 21
1825.000000000001
 31
0.0
  0
LINE
  5
26BC
330
2675
100
AcDbEntity
  8
補助
100
AcDbLine
 10
-764.6127134807175
 20
1630.0
 30
0.0
 11
-764.6127134807173
 21
1825.000000000001
 31
0.0
  0
TEXT
  5
26BD
330
2675
100
AcDbEntity
  8
補助
100
AcDbText
 10
-733.7043011498792
 20
1777.328571428572
 30
0.0
 40
30.0
  1
部品名
  7
明朝
 72
     4
 11
-667.8757297213078
 21
1792.500000000001
 31
0.0
100
AcDbText
  0
TEXT
  5
26BE
330
2675
100
AcDbEntity
  8
補助
100
AcDbText
 10
-156.3857142857143
 20
1777.071428571429
 30
0.0
 40
30.0
  1
厚さ
  7
明朝
 72
     4
 11
-112.5
 21
1792.500000000001
 31
0.0
100
AcDbText
  0
LINE
  5
26BF
330
2675
100
AcDbEntity
  8
補助
100
AcDbLine
 10
-225.0000000000004
 20
1630.0
 30
0.0
 11
-225.0
 21
1825.000000000001
 31
0.0
  0
TEXT
  5
26C0
330
2675
100
AcDbEntity
  8
補助
100
AcDbText
 10
-445.5091300800633
 20
1776.947979478155
 30
0.0
 40
30.0
  1
材質
  7
明朝
 72
     4
 11
-401.6234157943491
 21
1792.119408049583
 31
0.0
100
AcDbText
  0
TEXT
  5
26C1
330
2675
100
AcDbEntity
  8
実形
100
AcDbText
 10
-735.7721893422124
 20
1711.557142857143
 30
0.0
 40
30.0
  1
ボウル
  7
明朝
 72
     4
 11
-669.943617913641
 21
1727.5
 31
0.0
100
AcDbText
  0
TEXT
  5
26C2
330
2675
100
AcDbEntity
  8
実形
100
AcDbText
 10
-189.2999999999991
 20
1712.842857142857
 30
0.0
 40
30.0
  1
0.8ｍｍ
  7
明朝
 72
     4
 11
-112.4999999999991
 21
1727.5
 31
0.0
100
AcDbText
  0
TEXT
  5
26C3
330
2675
100
AcDbEntity
  8
実形
100
AcDbText
 10
-544.9259880349915
 20
1711.728571428572
 30
0.0
 40
30.0
  1
SUS304（No.4）
  7
明朝
 72
     4
 11
-391.3259880349915
 21
1727.5
 31
0.0
100
AcDbText
  0
TEXT
  5
26C4
330
2675
100
AcDbEntity
  8
実形
100
AcDbText
 10
-713.8293321993552
 20
1647.242857142857
 30
0.0
 40
30.0
  1
天板
  7
明朝
 72
     4
 11
-669.943617913641
 21
1662.5
 31
0.0
100
AcDbText
  0
TEXT
  5
26C5
330
2675
100
AcDbEntity
  8
実形
100
AcDbText
 10
-564.2652257487781
 20
1649.285714285714
 30
0.0
 40
25.0
  1
アクリル人工大理石
  7
明朝
 72
     4
 11
-399.6937971773495
 21
1662.5
 31
0.0
100
AcDbText
  0
TEXT
  5
26C6
330
2675
100
AcDbEntity
  8
実形
100
AcDbText
 10
-178.3285714285705
 20
1647.842857142857
 30
0.0
 40
30.0
  1
18ｍｍ
  7
明朝
 72
     4
 11
-112.4999999999991
 21
1662.5
 31
0.0
100
AcDbText
  0
ENDBLK
  5
26CA
330
2675
100
AcDbEntity
  8
0
100
AcDbBlockEnd
  0
ENDSEC
  0
SECTION
  2
ENTITIES
  0
LINE
  5
73
330
1F
100
AcDbEntity
  8
0
100
AcDbLine
 10
119.0
 20
4.0
 30
0.0
 11
278.0
 21
4.0
 31
0.0
  0
LINE
  5
9C
330
1F
100
AcDbEntity
  8
補助
100
AcDbLine
 10
119.0
 20
4.0
 30
0.0
 11
2784.0
 21
4.0
 31
0.0
  0
LINE
  5
A0
330
1F
100
AcDbEntity
  8
補助
100
AcDbLine
 10
2784.0
 20
2024.0
 30
0.0
 11
119.0
 21
2024.0
 31
0.0
  0
LINE
  5
A5
330
1F
100
AcDbEntity
  8
補助
100
AcDbLine
 10
2784.0
 20
4.0
 30
0.0
 11
2784.0
 21
2024.0
 31
0.0
  0
LINE
  5
2DD
330
1F
100
AcDbEntity
  8
実形
100
AcDbLine
 10
1221.546003820387
 20
1071.380107849272
 30
0.0
 11
541.5460038203873
 21
1071.380107849272
 31
0.0
  0
LINE
  5
2E0
330
1F
100
AcDbEntity
  8
実形
100
AcDbLine
 10
1221.546003820387
 20
1591.380107849272
 30
0.0
 11
541.5460038203876
 21
1591.380107849272
 31
0.0
  0
CIRCLE
  5
2E8
330
1F
100
AcDbEntity
  8
実形
100
AcDbCircle
 10
881.5460038203873
 20
1346.380107849272
 30
0.0
 40
90.5
  0
CIRCLE
  5
2E9
330
1F
100
AcDbEntity
  8
実形
100
AcDbCircle
 10
881.5460038203873
 20
1346.380107849272
 30
0.0
 40
79.5
  0
LINE
  5
2F1
330
1F
100
AcDbEntity
  8
実形
100
AcDbLine
 10
1281.546003820387
 20
1389.438575675448
 30
0.0
 11
1281.546003820387
 21
1193.321640023097
 31
0.0
  0
LINE
  5
2F2
330
1F
100
AcDbEntity
  8
実形
100
AcDbLine
 10
481.5460038203873
 20
1389.438575675448
 30
0.0
 11
481.5460038203873
 21
1193.321640023097
 31
0.0
  0
LINE
  5
2FD
330
1F
100
AcDbEntity
  8
実形
100
AcDbLine
 10
1281.546003820387
 20
1451.380107849272
 30
0.0
 11
1281.546003820387
 21
1131.380107849272
 31
0.0
  0
LINE
  5
2FE
330
1F
100
AcDbEntity
  8
実形
100
AcDbLine
 10
1221.546003820387
 20
1511.380107849272
 30
0.0
 11
541.5460038203871
 21
1511.380107849272
 31
0.0
  0
LINE
  5
2FF
330
1F
100
AcDbEntity
  8
実形
100
AcDbLine
 10
481.5460038203871
 20
1451.380107849272
 30
0.0
 11
481.5460038203873
 21
1131.380107849272
 31
0.0
  0
ARC
  5
300
330
1F
100
AcDbEntity
  8
実形
100
AcDbCircle
 10
1221.546003820387
 20
1451.380107849272
 30
0.0
 40
60.0
100
AcDbArc
 50
0.000000000000007
 51
90.0
  0
ARC
  5
301
330
1F
100
AcDbEntity
  8
実形
100
AcDbCircle
 10
1221.546003820387
 20
1131.380107849272
 30
0.0
 40
60.0
100
AcDbArc
 50
270.0
 51
0.000000000000007
  0
ARC
  5
302
330
1F
100
AcDbEntity
  8
実形
100
AcDbCircle
 10
541.5460038203873
 20
1131.380107849272
 30
0.0
 40
60.0
100
AcDbArc
 50
180.0
 51
270.0
  0
ARC
  5
303
330
1F
100
AcDbEntity
  8
実形
100
AcDbCircle
 10
541.5460038203871
 20
1451.380107849272
 30
0.0
 40
60.0
100
AcDbArc
 50
90.0
 51
180.0
  0
LINE
  5
306
330
1F
100
AcDbEntity
  8
実形
100
AcDbLine
 10
1281.546003820387
 20
1531.380107849272
 30
0.0
 11
1281.546003820387
 21
1193.321640023097
 31
0.0
  0
LINE
  5
307
330
1F
100
AcDbEntity
  8
実形
100
AcDbLine
 10
481.5460038203875
 20
1531.380107849272
 30
0.0
 11
481.5460038203873
 21
1193.321640023097
 31
0.0
  0
ARC
  5
308
330
1F
100
AcDbEntity
  8
実形
100
AcDbCircle
 10
1221.546003820387
 20
1531.380107849272
 30
0.0
 40
60.0
100
AcDbArc
 50
0.000000000000007
 51
90.0
  0
ARC
  5
309
330
1F
100
AcDbEntity
  8
実形
100
AcDbCircle
 10
541.5460038203876
 20
1531.380107849272
 30
0.0
 40
60.0
100
AcDbArc
 50
90.0
 51
180.0
  0
LINE
  5
315
330
1F
100
AcDbEntity
  8
センター
100
AcDbLine
 10
881.5460038203873
 20
1497.782608938425
 30
0.0
 11
881.5460038203873
 21
1191.660038398322
 31
0.0
  0
LINE
  5
316
330
1F
100
AcDbEntity
  8
センター
100
AcDbLine
 10
1018.114317850682
 20
1346.380107849272
 30
0.0
 11
744.9394459326749
 21
1346.380107849272
 31
0.0
  0
LINE
  5
31A
330
1F
100
AcDbEntity
  8
実形
100
AcDbLine
 10
972.0460038203873
 20
586.5416665392711
 30
0.0
 11
791.0460038203877
 21
586.5416665392713
 31
0.0
  0
LINE
  5
31B
330
1F
100
AcDbEntity
  8
実形
100
AcDbLine
 10
481.5460038203873
 20
626.4895075495037
 30
0.0
 11
481.5460038203873
 21
766.7416665392712
 31
0.0
  0
ARC
  5
324
330
1F
100
AcDbEntity
  8
実形
100
AcDbCircle
 10
511.5460038203873
 20
626.4895075495037
 30
0.0
 40
30.0
100
AcDbArc
 50
180.0
 51
268.5
  0
LINE
  5
327
330
1F
100
AcDbEntity
  8
実形
100
AcDbLine
 10
1281.546003820387
 20
761.5416665392713
 30
0.0
 11
481.5460038203873
 21
761.5416665392713
 31
0.0
  0
LINE
  5
328
330
1F
100
AcDbEntity
  8
センター
100
AcDbLine
 10
972.0460038203873
 20
586.5416665392713
 30
0.0
 11
487.4174787025858
 21
586.5416665392713
 31
0.0
  0
DIMENSION
  5
40C
330
1F
100
AcDbEntity
  8
寸法
100
AcDbDimension
  2
*D4
 10
362.6620879271897
 20
1086.380107849272
 30
0.0
 11
338.3474644574808
 21
1096.383300611007
 31
0.0
 70
   160
 71
     5
 42
15.0
  3
ISO-25
100
AcDbAlignedDimension
 13
466.5460038203873
 23
1071.380107849272
 33
0.0
 14
466.5460038203873
 24
1086.380107849272
 34
0.0
 50
90.0
100
AcDbRotatedDimension
1001
ACAD
1000
DSTYLE
1002
{
1070
   279
1070
     2
1002
}
  0
DIMENSION
  5
41A
330
1F
100
AcDbEntity
  8
寸法
100
AcDbDimension
  2
*D5
 10
362.7503429588279
 20
1496.380107849272
 30
0.0
 11
344.0003429588276
 21
1291.380107849272
 31
0.0
 70
    32
 71
     5
 42
410.0
  3
ISO-25
100
AcDbAlignedDimension
 13
466.5460038203873
 23
1086.380107849272
 33
0.0
 14
466.5460038203873
 24
1496.380107849272
 34
0.0
 50
90.0
100
AcDbRotatedDimension
1001
ACAD
1000
DSTYLE
1002
{
1070
   279
1070
     1
1002
}
  0
DIMENSION
  5
427
330
1F
100
AcDbEntity
  8
寸法
100
AcDbDimension
  2
*D6
 10
362.7503429588279
 20
1511.380107849272
 30
0.0
 11
335.3081323525576
 21
1488.146959392325
 31
0.0
 70
   160
 71
     5
 42
15.0
  3
ISO-25
100
AcDbAlignedDimension
 13
466.5460038203873
 23
1496.380107849272
 33
0.0
 14
466.5460038203873
 24
1511.380107849272
 34
0.0
 50
90.0
100
AcDbRotatedDimension
1001
ACAD
1000
DSTYLE
1002
{
1070
   279
1070
     2
1002
}
  0
DIMENSION
  5
459
330
1F
100
AcDbEntity
  8
寸法
100
AcDbDimension
  2
*D7
 10
286.2579007192707
 20
1071.380107849272
 30
0.0
 11
267.5079007192706
 21
1291.380107849272
 31
0.0
 70
    32
 71
     5
 42
440.0
  3
ISO-25
100
AcDbAlignedDimension
 13
466.5460038203873
 23
1511.380107849272
 33
0.0
 14
466.5460038203873
 24
1071.380107849272
 34
0.0
 50
90.0
100
AcDbRotatedDimension
  0
DIMENSION
  5
466
330
1F
100
AcDbEntity
  8
寸法
100
AcDbDimension
  2
*D8
 10
286.2579007192707
 20
1591.380107849272
 30
0.0
 11
267.5079007192705
 21
1551.380107849272
 31
0.0
 70
    32
 71
     5
 42
80.0
  3
ISO-25
100
AcDbAlignedDimension
 13
466.5460038203873
 23
1511.380107849272
 33
0.0
 14
466.5460038203873
 24
1591.380107849272
 34
0.0
 50
90.0
100
AcDbRotatedDimension
  0
DIMENSION
  5
47C
330
1F
100
AcDbEntity
  8
寸法
100
AcDbDimension
  2
*D9
 10
286.2579007192707
 20
1606.380107849272
 30
0.0
 11
296.7729910246726
 21
1633.306827129605
 31
0.0
 70
   160
 71
     5
 42
15.0
  3
ISO-25
100
AcDbAlignedDimension
 13
466.5460038203873
 23
1591.380107849272
 33
0.0
 14
466.5460038203873
 24
1606.380107849272
 34
0.0
 50
90.0
100
AcDbRotatedDimension
1001
ACAD
1000
DSTYLE
1002
{
1070
   279
1070
     1
1002
}
  0
DIMENSION
  5
492
330
1F
100
AcDbEntity
  8
寸法
100
AcDbDimension
  2
*D10
 10
208.7091170090925
 20
1056.380107849272
 30
0.0
 11
189.9591170090924
 21
1331.380107849272
 31
0.0
 70
    32
 71
     5
 42
550.0
  3
ISO-25
100
AcDbAlignedDimension
 13
466.5460038203873
 23
1606.380107849272
 33
0.0
 14
466.5460038203873
 24
1056.380107849272
 34
0.0
 50
90.0
100
AcDbRotatedDimension
  0
DIMENSION
  5
4C3
330
1F
100
AcDbEntity
  8
寸法
100
AcDbDimension
  2
*D11
 10
286.2579007192708
 20
1056.380107849272
 30
0.0
 11
286.2579007192707
 21
1129.296774515939
 31
0.0
 70
   160
 71
     5
 42
15.0
  3
ISO-25
100
AcDbAlignedDimension
 13
466.5460038203873
 23
1071.380107849272
 33
0.0
 14
466.5460038203873
 24
1056.380107849272
 34
0.0
 50
90.0
100
AcDbRotatedDimension
  0
DIMENSION
  5
4E5
330
1F
100
AcDbEntity
  8
寸法
100
AcDbDimension
  2
*D12
 10
1281.546003820387
 20
939.1567824483672
 30
0.0
 11
1250.145905749322
 21
958.2030933135911
 31
0.0
 70
   160
 71
     5
 42
15.0
  3
ISO-25
100
AcDbAlignedDimension
 13
1296.546003820387
 23
1056.380107849272
 33
0.0
 14
1281.546003820387
 24
1056.380107849272
 34
0.0
 50
180.0
100
AcDbRotatedDimension
1001
ACAD
1000
DSTYLE
1002
{
1070
   279
1070
     2
1002
}
  0
DIMENSION
  5
4FD
330
1F
100
AcDbEntity
  8
寸法
100
AcDbDimension
  2
*D13
 10
481.5460038203873
 20
939.1567824483672
 30
0.0
 11
881.5460038203873
 21
957.9067824483672
 31
0.0
 70
    32
 71
     5
 42
800.0
  3
ISO-25
100
AcDbAlignedDimension
 13
1281.546003820387
 23
1056.380107849272
 33
0.0
 14
481.5460038203873
 24
1056.380107849272
 34
0.0
 50
180.0
100
AcDbRotatedDimension
1001
ACAD
1000
DSTYLE
1002
{
1070
   279
1070
     1
1002
}
  0
DIMENSION
  5
50A
330
1F
100
AcDbEntity
  8
寸法
100
AcDbDimension
  2
*D14
 10
466.5460038203873
 20
939.1567824483672
 30
0.0
 11
513.1088269028305
 21
944.5369179881437
 31
0.0
 70
   160
 71
     5
 42
15.0
  3
ISO-25
100
AcDbAlignedDimension
 13
481.5460038203873
 23
1056.380107849272
 33
0.0
 14
466.5460038203873
 24
1056.380107849272
 34
0.0
 50
180.0
100
AcDbRotatedDimension
1001
ACAD
1000
DSTYLE
1002
{
1070
   279
1070
     1
1002
}
  0
DIMENSION
  5
522
330
1F
100
AcDbEntity
  8
寸法
100
AcDbDimension
  2
*D15
 10
466.5460038203873
 20
865.0363672147078
 30
0.0
 11
881.5460038203873
 21
883.7863672147078
 31
0.0
 70
    33
 71
     5
 42
830.0
  3
ISO-25
100
AcDbAlignedDimension
 13
1296.546003820387
 23
1056.380107849272
 33
0.0
 14
466.5460038203873
 24
1056.380107849272
 34
0.0
  0
TEXT
  5
571
330
1F
100
AcDbEntity
  8
寸法
100
AcDbText
 10
514.5788992597872
 20
550.5155983500221
 30
0.0
 40
25.0
  1
1.5゜
 11
514.5788992597872
 21
547.1822650166886
 31
0.0
100
AcDbText
 73
     1
  0
LEADER
  5
8DB
330
1F
100
AcDbEntity
  8
寸法
100
AcDbLeader
  3
ISO-25
 40
66.66666666666666
 41
87.5
 76
     2
 10
1075.017692345042
 20
1094.988432840749
 30
0.0
 10
1046.873894486007
 20
1134.827319567612
 30
0.0
211
-1.0
221
0.0
231
0.0
210
0.0
220
0.0
230
-1.0
213
0.0
223
-12.5
233
0.0
1001
ACAD
1000
DSTYLE
1002
{
1070
   147
1040
6.25
1070
    77
1070
     0
1070
    41
1040
20.0
1070
   342
1005
DA
1002
}
  0
TEXT
  5
8DD
330
1F
100
AcDbEntity
  8
寸法
100
AcDbText
 10
924.1863648703329
 20
1139.767281987327
 30
0.0
 40
25.0
  1
4600R
 11
924.1863648703329
 21
1136.433948653994
 31
0.0
100
AcDbText
 73
     1
  0
LEADER
  5
C24
330
1F
100
AcDbEntity
  8
実形
100
AcDbLeader
  3
ISO-25
 40
25.0
 41
16.66666666666666
 76
     2
 10
509.1727333751307
 20
1493.803532106797
 30
0.0
 10
577.4429793007311
 20
1463.695724066109
 30
0.0
211
-1.0
221
0.0
231
0.0
210
0.0
220
0.0
230
-1.0
213
0.0
223
12.5
233
0.0
1001
ACAD
1000
DSTYLE
1002
{
1070
   147
1040
6.25
1070
    77
1070
     0
1070
    41
1040
20.0
1070
   342
1005
DA
1002
}
  0
LEADER
  5
C26
330
1F
100
AcDbEntity
  8
実形
100
AcDbLeader
  3
ISO-25
 40
25.0
 41
16.66666666666666
 76
     2
 10
512.4321725805234
 20
1452.542338374455
 30
0.0
 10
549.9540530567992
 20
1411.032579584061
 30
0.0
211
-1.0
221
0.0
231
0.0
210
0.0
220
0.0
230
-1.0
213
0.0
223
12.5
233
0.0
1001
ACAD
1000
DSTYLE
1002
{
1070
   147
1040
6.25
1070
    77
1070
     0
1070
    41
1040
20.0
1070
   342
1005
DA
1002
}
  0
LEADER
  5
C29
330
1F
100
AcDbEntity
  8
実形
100
AcDbLeader
  3
ISO-25
 40
74.99999999999999
 41
41.66666666666666
 76
     2
 10
488.415421123431
 20
1213.626999127978
 30
0.0
 10
547.702366549096
 20
1213.626999127978
 30
0.0
211
-1.0
221
0.0
231
0.0
210
0.0
220
0.0
230
-1.0
213
0.0
223
12.5
233
0.0
1001
ACAD
1000
DSTYLE
1002
{
1070
   147
1040
6.25
1070
    77
1070
     0
1070
    41
1040
20.0
1070
   342
1005
DA
1002
}
  0
TEXT
  5
C2B
330
1F
100
AcDbEntity
  8
実形
100
AcDbText
 10
586.724222445242
 20
1445.930955191023
 30
0.0
 40
25.0
  1
60R
 72
     2
 11
649.224222445242
 21
1442.59762185769
 31
0.0
100
AcDbText
 73
     1
  0
TEXT
  5
C2C
330
1F
100
AcDbEntity
  8
実形
100
AcDbText
 10
558.4256643883345
 20
1381.69496406411
 30
0.0
 40
25.0
  1
100R
 72
     2
 11
633.4256643883345
 21
1378.361630730777
 31
0.0
100
AcDbText
 73
     1
  0
TEXT
  5
C2E
330
1F
100
AcDbEntity
  8
実形
100
AcDbText
 10
562.8467325808391
 20
1201.126999127978
 30
0.0
 40
25.0
  1
2000R
 72
     2
 11
667.0133992475057
 21
1213.626999127978
 31
0.0
100
AcDbText
 73
     2
  0
LEADER
  5
CB8
330
1F
100
AcDbEntity
  8
実形
100
AcDbLeader
  3
ISO-25
 76
     2
 10
498.4390200304282
 20
609.8439486889134
 30
0.0
 10
541.6308505801352
 20
648.8154162130358
 30
0.0
211
-1.0
221
0.0
231
0.0
210
0.0
220
0.0
230
-1.0
1001
ACAD
1000
DSTYLE
1002
{
1070
   147
1040
6.25
1070
    77
1070
     0
1070
    41
1040
20.0
1070
   342
1005
DA
1002
}
  0
LEADER
  5
CB9
330
1F
100
AcDbEntity
  8
実形
100
AcDbLeader
  3
ISO-25
 76
     2
 10
1268.218952074355
 20
608.1342951219665
 30
0.0
 10
1227.569198433024
 20
648.766391869326
 30
0.0
211
-1.0
221
0.0
231
0.0
210
0.0
220
0.0
230
-1.0
1001
ACAD
1000
DSTYLE
1002
{
1070
   147
1040
6.25
1070
    77
1070
     0
1070
    41
1040
20.0
1070
   342
1005
DA
1002
}
  0
TEXT
  5
CC2
330
1F
100
AcDbEntity
  8
寸法
100
AcDbText
 10
1158.568701849046
 20
652.109630179208
 30
0.0
 40
25.0
  1
30R
 11
1158.568701849046
 21
648.7762968458746
 31
0.0
100
AcDbText
 73
     1
  0
TEXT
  5
CC3
330
1F
100
AcDbEntity
  8
寸法
100
AcDbText
 10
547.9665038549792
 20
647.8381107849023
 30
0.0
 40
25.0
  1
30R
 11
547.9665038549792
 21
644.504777451569
 31
0.0
100
AcDbText
 73
     1
  0
TEXT
  5
DC3
330
1F
100
AcDbEntity
  8
0
100
AcDbText
 10
191.7098177320886
 20
90.06009540427749
 30
0.0
 40
25.0
  1
※実寸には製造上の誤差が多少生ずる場合があります。シンクの穴あけ加工は現物合わせにてお願いします。
  7
ｍｓ明朝
100
AcDbText
  0
TEXT
  5
FFB
330
1F
100
AcDbEntity
  8
補助
100
AcDbText
 10
2072.8
 20
82.59999999999999
 30
0.0
 40
35.0
  1
尺度
  7
ｍｓ明朝
 72
     4
 11
2124.0
 21
101.5
 31
0.0
100
AcDbText
  0
TEXT
  5
FFC
330
1F
100
AcDbEntity
  8
補助
100
AcDbText
 10
2072.8
 20
149.4
 30
0.0
 40
35.0
  1
品番
  7
ｍｓ明朝
 72
     4
 11
2124.0
 21
166.5
 31
0.0
100
AcDbText
  0
LINE
  5
FFD
330
1F
100
AcDbEntity
  8
補助
100
AcDbLine
 10
2064.0
 20
69.0
 30
0.0
 11
2784.0
 21
69.0
 31
0.0
  0
LINE
  5
FFE
330
1F
100
AcDbEntity
  8
補助
100
AcDbLine
 10
2064.0
 20
199.0
 30
0.0
 11
2784.0
 21
199.0
 31
0.0
  0
LINE
  5
FFF
330
1F
100
AcDbEntity
  8
補助
100
AcDbLine
 10
2064.0
 20
134.0
 30
0.0
 11
2784.0
 21
134.0
 31
0.0
  0
LINE
  5
1000
330
1F
100
AcDbEntity
  8
補助
100
AcDbLine
 10
2064.0
 20
4.0
 30
0.0
 11
2064.0
 21
199.0
 31
0.0
  0
TEXT
  5
1001
330
1F
100
AcDbEntity
  8
補助
100
AcDbText
 10
2254.198631808205
 20
15.92857142857142
 30
0.0
 40
40.0
  1
中外交易株式会社
  7
ｍｓ明朝
 72
     4
 11
2488.255774665347
 21
36.5
 31
0.0
100
AcDbText
  0
LINE
  5
1003
330
1F
100
AcDbEntity
  8
補助
100
AcDbLine
 10
2184.0
 20
69.0
 30
0.0
 11
2784.0
 21
69.0
 31
0.0
  0
LINE
  5
1004
102
{ACAD_REACTORS
330
1011
102
}
330
1F
100
AcDbEntity
  8
補助
370
     5
100
AcDbLine
 10
2178.282948339265
 20
40.53787547858519
 30
0.0
 11
2153.69479984025
 21
40.53787547858519
 31
0.0
  0
LINE
  5
1005
102
{ACAD_REACTORS
330
1011
102
}
330
1F
100
AcDbEntity
  8
補助
370
     5
100
AcDbLine
 10
2153.69479984025
 20
40.53787547858519
 30
0.0
 11
2153.69479984025
 21
30.53787547858519
 31
0.0
  0
LINE
  5
1006
102
{ACAD_REACTORS
330
1011
102
}
330
1F
100
AcDbEntity
  8
補助
370
     5
100
AcDbLine
 10
2153.69479984025
 20
30.53787547858519
 30
0.0
 11
2177.785453867578
 21
30.53787547858514
 31
0.0
  0
LINE
  5
1007
102
{ACAD_REACTORS
330
1011
102
}
330
1F
100
AcDbEntity
  8
補助
370
     5
100
AcDbLine
 10
2181.080919217842
 20
56.5
 30
0.0
 11
2181.080919217842
 21
16.5
 31
0.0
  0
LINE
  5
1008
102
{ACAD_REACTORS
330
1011
102
}
330
1F
100
AcDbEntity
  8
補助
370
     5
100
AcDbLine
 10
2181.080919217842
 20
16.5
 30
0.0
 11
2216.080919217843
 21
16.5
 31
0.0
  0
LINE
  5
1009
102
{ACAD_REACTORS
330
1011
102
}
330
1F
100
AcDbEntity
  8
補助
370
     5
100
AcDbLine
 10
2216.080919217843
 20
16.5
 30
0.0
 11
2181.080919217842
 21
36.5
 31
0.0
  0
LINE
  5
100A
102
{ACAD_REACTORS
330
1011
102
}
330
1F
100
AcDbEntity
  8
補助
370
     5
100
AcDbLine
 10
2181.080919217842
 20
36.5
 30
0.0
 11
2216.080919217843
 21
56.5
 31
0.0
  0
LINE
  5
100B
102
{ACAD_REACTORS
330
1011
102
}
330
1F
100
AcDbEntity
  8
補助
370
     5
100
AcDbLine
 10
2216.080919217843
 20
56.5
 30
0.0
 11
2181.080919217842
 21
56.5
 31
0.0
  0
LINE
  5
100C
102
{ACAD_REACTORS
330
1011
102
}
330
1F
100
AcDbEntity
  8
補助
370
     5
100
AcDbLine
 10
2247.193371987913
 20
40.53787547858519
 30
0.0
 11
2222.605223488898
 21
40.53787547858519
 31
0.0
  0
LINE
  5
100D
102
{ACAD_REACTORS
330
1011
102
}
330
1F
100
AcDbEntity
  8
補助
370
     5
100
AcDbLine
 10
2222.605223488898
 20
40.53787547858519
 30
0.0
 11
2222.605223488898
 21
30.53787547858519
 31
0.0
  0
LINE
  5
100E
102
{ACAD_REACTORS
330
1011
102
}
330
1F
100
AcDbEntity
  8
補助
370
     5
100
AcDbLine
 10
2222.605223488898
 20
30.53787547858519
 30
0.0
 11
2246.695877516226
 21
30.53787547858514
 31
0.0
  0
ARC
  5
100F
102
{ACAD_REACTORS
330
1011
102
}
330
1F
100
AcDbEntity
  8
補助
370
     5
100
AcDbCircle
 10
2158.694799840251
 20
36.5
 30
0.0
 40
20.0
100
AcDbArc
 50
11.6477236670766
 51
342.6561058784746
  0
ARC
  5
1010
102
{ACAD_REACTORS
330
1011
102
}
330
1F
100
AcDbEntity
  8
補助
370
     5
100
AcDbCircle
 10
2227.605223488898
 20
36.5
 30
0.0
 40
20.0
100
AcDbArc
 50
11.6477236670766
 51
342.6561058784746
  0
HATCH
  5
1011
330
1F
100
AcDbEntity
  8
補助
100
AcDbHatch
 10
0.0
 20
0.0
 30
0.0
210
0.0
220
0.0
230
1.0
  2
SOLID
 70
     1
 71
     1
 91
        3
 92
        1
 93
        4
 72
     2
 10
2227.605223488898
 20
36.5
 40
20.0
 50
11.6477236670766
 51
342.6561058784746
 73
     1
 72
     1
 10
2246.695877516226
 20
30.53787547858514
 11
2222.605223488898
 21
30.53787547858519
 72
     1
 10
2222.605223488898
 20
30.53787547858519
 11
2222.605223488898
 21
40.53787547858519
 72
     1
 10
2222.605223488898
 20
40.53787547858519
 11
2247.193371987913
 21
40.53787547858519
 97
        4
330
1010
330
100E
330
100D
330
100C
 92
        1
 93
        4
 72
     2
 10
2158.694799840251
 20
36.5
 40
20.0
 50
11.6477236670766
 51
342.6561058784746
 73
     1
 72
     1
 10
2177.785453867578
 20
30.53787547858514
 11
2153.69479984025
 21
30.53787547858519
 72
     1
 10
2153.69479984025
 20
30.53787547858519
 11
2153.69479984025
 21
40.53787547858519
 72
     1
 10
2153.69479984025
 20
40.53787547858519
 11
2178.282948339265
 21
40.53787547858519
 97
        4
330
100F
330
1006
330
1005
330
1004
 92
        1
 93
        5
 72
     1
 10
2216.080919217843
 20
56.5
 11
2181.080919217842
 21
56.5
 72
     1
 10
2181.080919217842
 20
56.5
 11
2181.080919217842
 21
16.5
 72
     1
 10
2181.080919217842
 20
16.5
 11
2216.080919217843
 21
16.5
 72
     1
 10
2216.080919217843
 20
16.5
 11
2181.080919217842
 21
36.5
 72
     1
 10
2181.080919217842
 20
36.5
 11
2216.080919217843
 21
56.5
 97
        5
330
100B
330
1007
330
1008
330
1009
330
100A
 75
     0
 76
     1
 98
        1
 10
-89.56097482509722
 20
0.0
  0
LINE
  5
1012
330
1F
100
AcDbEntity
  8
補助
100
AcDbLine
 10
2184.0
 20
69.0
 30
0.0
 11
2184.0
 21
199.0
 31
0.0
  0
TEXT
  5
1013
330
1F
100
AcDbEntity
  8
補助
100
AcDbText
 10
2420.0
 20
84.40000000000001
 30
0.0
 40
35.0
  1
1：10
  7
ｍｓ明朝
 72
     4
 11
2484.0
 21
101.5
 31
0.0
100
AcDbText
  0
LINE
  5
1014
330
1F
100
AcDbEntity
  8
補助
100
AcDbLine
 10
2784.0
 20
69.0
 30
0.0
 11
2784.0
 21
134.0
 31
0.0
  0
LINE
  5
1015
330
1F
100
AcDbEntity
  8
補助
100
AcDbLine
 10
2784.0
 20
134.0
 30
0.0
 11
2784.0
 21
199.0
 31
0.0
  0
LINE
  5
1016
330
1F
100
AcDbEntity
  8
補助
100
AcDbLine
 10
2784.0
 20
4.0
 30
0.0
 11
2784.0
 21
69.0
 31
0.0
  0
ARC
  5
13AD
330
1F
100
AcDbEntity
  8
実形
100
AcDbCircle
 10
2481.546003820389
 20
1291.380107849272
 30
0.0
 40
2000.0
100
AcDbArc
 50
177.1295622366263
 51
182.8704377633737
  0
ARC
  5
13AE
330
1F
100
AcDbEntity
  8
実形
100
AcDbCircle
 10
583.9298804350676
 20
1196.232599904673
 30
0.0
 40
100.0
100
AcDbArc
 50
182.8704377633737
 51
266.2078658679404
  0
ARC
  5
13AF
330
1F
100
AcDbEntity
  8
実形
100
AcDbCircle
 10
881.5460038203882
 20
5686.380107849273
 30
0.0
 40
4600.0
100
AcDbArc
 50
266.2078658679404
 51
273.7921341320596
  0
ARC
  5
13B0
330
1F
100
AcDbEntity
  8
実形
100
AcDbCircle
 10
1179.162127205709
 20
1196.232599904673
 30
0.0
 40
100.0
100
AcDbArc
 50
273.7921341320596
 51
357.1295622366263
  0
ARC
  5
13B1
330
1F
100
AcDbEntity
  8
実形
100
AcDbCircle
 10
-718.4539961796117
 20
1291.380107849272
 30
0.0
 40
2000.0
100
AcDbArc
 50
357.1295622366263
 51
2.870437763373671
  0
ARC
  5
13B2
330
1F
100
AcDbEntity
  8
実形
100
AcDbCircle
 10
1179.162127205709
 20
1386.527615793871
 30
0.0
 40
100.0
100
AcDbArc
 50
2.870437763373671
 51
86.20786586794038
  0
ARC
  5
13B3
330
1F
100
AcDbEntity
  8
実形
100
AcDbCircle
 10
881.5460038203882
 20
-3103.619892150728
 30
0.0
 40
4600.0
100
AcDbArc
 50
86.20786586794038
 51
93.79213413205961
  0
ARC
  5
13B4
330
1F
100
AcDbEntity
  8
実形
100
AcDbCircle
 10
583.9298804350676
 20
1386.527615793871
 30
0.0
 40
100.0
100
AcDbArc
 50
93.79213413205961
 51
177.1295622366263
  0
LINE
  5
165C
330
1F
100
AcDbEntity
  8
センター
100
AcDbLine
 10
881.5460038203873
 20
1517.782608938425
 30
0.0
 11
881.5460038203873
 21
1211.660038398322
 31
0.0
  0
DIMENSION
  5
1662
330
1F
100
AcDbEntity
  8
実形
100
AcDbDimension
  2
*D16
 10
1061.062672862596
 20
1346.380107849272
 30
0.0
 11
1042.312672862595
 21
1421.380107849272
 31
0.0
 70
    32
 71
     5
 42
150.0
  3
ISO-25
100
AcDbAlignedDimension
 13
881.5460038203873
 23
1496.380107849272
 33
0.0
 14
881.5460038203873
 24
1346.380107849272
 34
0.0
 50
90.0
100
AcDbRotatedDimension
1001
ACAD
1000
DSTYLE
1002
{
1070
   279
1070
     2
1070
   289
1070
     2
1002
}
  0
LINE
  5
167D
330
1F
100
AcDbEntity
  8
センター
 48
0.5
100
AcDbLine
 10
881.5460038203873
 20
658.7892173576856
 30
0.0
 11
881.5460038203873
 21
496.8435635000723
 31
0.0
  0
LINE
  5
167F
330
1F
100
AcDbEntity
  8
実形
100
AcDbLine
 10
791.0460038203877
 20
586.5416665392713
 30
0.0
 11
510.7606953711511
 21
596.499787800237
 31
0.0
  0
LINE
  5
1694
330
1F
100
AcDbEntity
  8
実形
100
AcDbLine
 10
1281.546003820387
 20
626.4895075495037
 30
0.0
 11
1281.546003820387
 21
766.7416665392712
 31
0.0
  0
ARC
  5
1695
330
1F
100
AcDbEntity
  8
実形
100
AcDbCircle
 10
1251.546003820388
 20
626.4895075495037
 30
0.0
 40
30.0
100
AcDbArc
 50
271.5
 51
0.000000000000007
  0
LINE
  5
1696
330
1F
100
AcDbEntity
  8
実形
100
AcDbLine
 10
972.0460038203871
 20
586.5416665392713
 30
0.0
 11
1252.331312269624
 21
596.499787800237
 31
0.0
  0
DIMENSION
  5
1719
330
1F
100
AcDbEntity
  8
実形
100
AcDbDimension
  2
*D17
 10
881.5460038203873
 20
1291.380107849272
 30
0.0
 11
681.5460038203874
 21
1310.130107849272
 31
0.0
 70
    32
 71
     5
 42
399.9999999999998
  3
ISO-25
100
AcDbAlignedDimension
 13
481.5460038203875
 23
1291.380107849274
 33
0.0
 14
881.5460038203873
 24
1291.380107849272
 34
0.0
100
AcDbRotatedDimension
1001
ACAD
1000
DSTYLE
1002
{
1070
   279
1070
     2
1070
   289
1070
     2
1002
}
  0
LINE
  5
1805
330
1F
100
AcDbEntity
  8
実形
100
AcDbLine
 10
972.0460038203876
 20
579.5416665392713
 30
0.0
 11
791.0460038203873
 21
579.5416665392713
 31
0.0
  0
LINE
  5
1806
330
1F
100
AcDbEntity
  8
実形
100
AcDbLine
 10
791.0460038203873
 20
586.5416665392713
 30
0.0
 11
791.0460038203871
 21
579.5416665392713
 31
0.0
  0
LINE
  5
1807
330
1F
100
AcDbEntity
  8
実形
100
AcDbLine
 10
972.0460038203873
 20
586.5416665392713
 30
0.0
 11
972.0460038203873
 21
579.5416665392713
 31
0.0
  0
LINE
  5
192E
330
1F
100
AcDbEntity
  8
実形
100
AcDbLine
 10
1221.546003820387
 20
1625.380107849272
 30
0.0
 11
541.5460038203876
 21
1625.380107849272
 31
0.0
  0
ARC
  5
192F
330
1F
100
AcDbEntity
  8
実形
100
AcDbCircle
 10
1221.546003820387
 20
1531.380107849272
 30
0.0
 40
94.0
100
AcDbArc
 50
0.000000000000007
 51
90.0
  0
LINE
  5
1930
330
1F
100
AcDbEntity
  8
実形
100
AcDbLine
 10
1315.546003820387
 20
1531.380107849272
 30
0.0
 11
1315.546003820387
 21
1193.321640023097
 31
0.0
  0
LINE
  5
1931
330
1F
100
AcDbEntity
  8
実形
100
AcDbLine
 10
1315.546003820387
 20
1451.380107849272
 30
0.0
 11
1315.546003820387
 21
1131.380107849272
 31
0.0
  0
ARC
  5
1932
330
1F
100
AcDbEntity
  8
実形
100
AcDbCircle
 10
1221.546003820387
 20
1131.380107849272
 30
0.0
 40
94.0
100
AcDbArc
 50
270.0
 51
0.000000000000007
  0
LINE
  5
1933
330
1F
100
AcDbEntity
  8
実形
100
AcDbLine
 10
1221.546003820387
 20
1037.380107849272
 30
0.0
 11
541.5460038203873
 21
1037.380107849272
 31
0.0
  0
ARC
  5
1934
330
1F
100
AcDbEntity
  8
実形
100
AcDbCircle
 10
541.5460038203873
 20
1131.380107849272
 30
0.0
 40
94.0
100
AcDbArc
 50
180.0
 51
270.0
  0
LINE
  5
1935
330
1F
100
AcDbEntity
  8
実形
100
AcDbLine
 10
447.5460038203871
 20
1451.380107849272
 30
0.0
 11
447.5460038203873
 21
1131.380107849272
 31
0.0
  0
LINE
  5
1936
330
1F
100
AcDbEntity
  8
実形
100
AcDbLine
 10
447.5460038203875
 20
1531.380107849272
 30
0.0
 11
447.5460038203873
 21
1193.321640023097
 31
0.0
  0
ARC
  5
1937
330
1F
100
AcDbEntity
  8
実形
100
AcDbCircle
 10
541.5460038203876
 20
1531.380107849272
 30
0.0
 40
94.0
100
AcDbArc
 50
90.0
 51
180.0
  0
DIMENSION
  5
19D0
330
1F
100
AcDbEntity
  8
実形
100
AcDbDimension
  2
*D18
 10
481.5460038203877
 20
1729.720008931526
 30
0.0
 11
480.1353165923001
 21
1764.720008931526
 31
0.0
 70
   160
  1
35
 71
     5
 42
34.0
  3
ISO-25
100
AcDbAlignedDimension
 13
447.5460038203876
 23
1629.651294293764
 33
0.0
 14
481.5460038203877
 24
1629.651294293764
 34
0.0
100
AcDbRotatedDimension
1001
ACAD
1000
DSTYLE
1002
{
1070
   279
1070
     2
1070
   289
1070
     2
1002
}
  0
DIMENSION
  5
19EF
330
1F
100
AcDbEntity
  8
実形
100
AcDbDimension
  2
*D19
 10
1315.546003820387
 20
1729.720008931526
 30
0.0
 11
1263.931694103807
 21
1764.720008931526
 31
0.0
 70
   160
  1
35
 71
     5
 42
34.0
  3
ISO-25
100
AcDbAlignedDimension
 13
1281.546003820387
 23
1629.651294293764
 33
0.0
 14
1315.546003820387
 24
1629.651294293764
 34
0.0
100
AcDbRotatedDimension
1001
ACAD
1000
DSTYLE
1002
{
1070
   279
1070
     2
1070
   289
1070
     2
1002
}
  0
DIMENSION
  5
1A0E
330
1F
100
AcDbEntity
  8
実形
100
AcDbDimension
  2
*D20
 10
1315.546003820387
 20
1817.878362852508
 30
0.0
 11
881.5460038203875
 21
1836.628362852508
 31
0.0
 70
    32
 71
     5
 42
867.9999999999996
  3
ISO-25
100
AcDbAlignedDimension
 13
447.5460038203876
 23
1629.651294293764
 33
0.0
 14
1315.546003820387
 24
1629.651294293764
 34
0.0
100
AcDbRotatedDimension
1001
ACAD
1000
DSTYLE
1002
{
1070
   279
1070
     2
1070
   289
1070
     2
1002
}
  0
TEXT
  5
1A29
330
1F
100
AcDbEntity
  8
0
100
AcDbText
 10
2279.2
 20
151.8
 30
0.0
 40
35.0
  1
Jstn        S-HC
  7
MS明朝
 72
     4
 11
2484.0
 21
166.5
 31
0.0
100
AcDbText
  0
TEXT
  5
1A2A
330
1F
100
AcDbEntity
  8
0
100
AcDbText
 10
2405.804100327245
 20
150.8361935319957
 30
0.0
 40
35.0
  1
868-588
  7
MS明朝
 72
     4
 11
2495.404100327245
 21
167.9361935319957
 31
0.0
100
AcDbText
  0
DIMENSION
  5
1AE2
330
1F
100
AcDbEntity
  8
実形
100
AcDbDimension
  2
*D23
 10
1406.233519530607
 20
1591.380107849272
 30
0.0
 11
1391.559208758231
 21
1551.807893562574
 31
0.0
 70
   160
  1
35
 71
     5
 42
33.99999999999977
  3
ISO-25
100
AcDbAlignedDimension
 13
1297.354663742571
 23
1625.380107849272
 33
0.0
 14
1297.354663742571
 24
1591.380107849272
 34
0.0
 50
90.0
100
AcDbRotatedDimension
1001
ACAD
1000
DSTYLE
1002
{
1070
   279
1070
     2
1070
   289
1070
     2
1002
}
  0
DIMENSION
  5
1B01
330
1F
100
AcDbEntity
  8
実形
100
AcDbDimension
  2
*D24
 10
1406.233519530606
 20
1037.380107849272
 30
0.0
 11
1392.65232846807
 21
1122.60678622795
 31
0.0
 70
   160
  1
35
 71
     5
 42
34.0
  3
ISO-25
100
AcDbAlignedDimension
 13
1297.354663742571
 23
1071.380107849272
 33
0.0
 14
1297.354663742571
 24
1037.380107849272
 34
0.0
 50
90.0
100
AcDbRotatedDimension
1001
ACAD
1000
DSTYLE
1002
{
1070
   279
1070
     2
1070
   289
1070
     2
1002
}
  0
DIMENSION
  5
1B20
330
1F
100
AcDbEntity
  8
実形
100
AcDbDimension
  2
*D25
 10
1464.464497625795
 20
1037.380107849272
 30
0.0
 11
1445.714497625795
 21
1331.380107849273
 31
0.0
 70
    32
 71
     5
 42
588.0
  3
ISO-25
100
AcDbAlignedDimension
 13
1297.354663742571
 23
1625.380107849272
 33
0.0
 14
1297.354663742571
 24
1037.380107849272
 34
0.0
 50
90.0
100
AcDbRotatedDimension
1001
ACAD
1000
DSTYLE
1002
{
1070
   279
1070
     2
1070
   289
1070
     2
1002
}
  0
LEADER
  5
1B37
330
1F
100
AcDbEntity
  8
実形
100
AcDbLeader
  3
ISO-25
 40
25.0
 41
16.66666666666666
 76
     2
 10
469.3720638807798
 20
1602.932790394022
 30
0.0
 10
427.7507044627935
 20
1657.779544801517
 30
0.0
213
0.0
223
12.5
233
0.0
1001
ACAD
1000
DSTYLE
1002
{
1070
   147
1040
6.25
1070
    77
1070
     0
1070
    41
1040
20.0
1070
   342
1005
DA
1002
}
  0
TEXT
  5
1B38
330
1F
100
AcDbEntity
  8
実形
100
AcDbText
 10
366.8276435911768
 20
1669.127139328729
 30
0.0
 40
25.0
  1
94R
 72
     2
 11
433.4943102578434
 21
1694.127139328729
 31
0.0
100
AcDbText
 73
     3
  0
LEADER
  5
1B39
330
1F
100
AcDbEntity
  8
実形
100
AcDbLeader
  3
ISO-25
 40
25.0
 41
16.66666666666666
 76
     2
 10
476.5638371331596
 20
1063.20737045489
 30
0.0
 10
419.7946915545406
 20
1004.858026338742
 30
0.0
213
0.0
223
12.5
233
0.0
1001
ACAD
1000
DSTYLE
1002
{
1070
   147
1040
6.25
1070
    77
1070
     0
1070
    41
1040
20.0
1070
   342
1005
DA
1002
}
  0
TEXT
  5
1B3A
330
1F
100
AcDbEntity
  8
実形
100
AcDbText
 10
381.173007232582
 20
974.3407060836041
 30
0.0
 40
25.0
  1
94R
 72
     2
 11
447.8396738992485
 21
999.3407060836041
 31
0.0
100
AcDbText
 73
     3
  0
LEADER
  5
1B45
330
1F
100
AcDbEntity
  8
実形
100
AcDbLeader
  3
ISO-25
 40
25.0
 41
16.66666666666666
 76
     2
 10
1303.409260844966
 20
1600.465047282497
 30
0.0
 10
1367.712333074961
 20
1651.21419538115
 30
0.0
213
0.0
223
12.5
233
0.0
1001
ACAD
1000
DSTYLE
1002
{
1070
   147
1040
6.25
1070
    77
1070
     0
1070
    41
1040
20.0
1070
   342
1005
DA
1002
}
  0
TEXT
  5
1B46
330
1F
100
AcDbEntity
  8
実形
100
AcDbText
 10
1337.121425818864
 20
1658.250473666942
 30
0.0
 40
25.0
  1
94R
 72
     2
 11
1403.788092485531
 21
1683.250473666942
 31
0.0
100
AcDbText
 73
     3
  0
LEADER
  5
1B47
330
1F
100
AcDbEntity
  8
実形
100
AcDbLeader
  3
ISO-25
 40
25.0
 41
16.66666666666666
 76
     2
 10
1306.789772826284
 20
1065.039292131251
 30
0.0
 10
1366.338805573804
 20
1020.111180230621
 30
0.0
213
0.0
223
12.5
233
0.0
1001
ACAD
1000
DSTYLE
1002
{
1070
   147
1040
6.25
1070
    77
1070
     0
1070
    41
1040
20.0
1070
   342
1005
DA
1002
}
  0
TEXT
  5
1B48
330
1F
100
AcDbEntity
  8
実形
100
AcDbText
 10
1344.441206434255
 20
990.2476909460046
 30
0.0
 40
25.0
  1
94R
 72
     2
 11
1411.107873100922
 21
1015.247690946004
 31
0.0
100
AcDbText
 73
     3
  0
LINE
  5
1CF3
330
1F
100
AcDbEntity
  8
補助
100
AcDbLine
 10
119.0
 20
2024.0
 30
0.0
 11
119.0
 21
4.0
 31
0.0
  0
TEXT
  5
1E32
330
1F
100
AcDbEntity
  8
実形
100
AcDbText
 10
589.8042011607786
 20
1539.697970652901
 30
0.0
 40
25.0
  1
4角×
  7
MS明朝
 72
     2
 11
681.23277258935
 21
1564.697970652901
 31
0.0
100
AcDbText
 73
     3
  0
LEADER
  5
1E33
330
1F
100
AcDbEntity
  8
実形
100
AcDbLeader
  3
ISO-25
 40
25.0
 41
16.66666666666666
 76
     2
 10
507.2936255275517
 20
1571.18733952697
 30
0.0
 10
572.3771339536724
 20
1551.997975574352
 30
0.0
213
0.0
223
12.5
233
0.0
1001
ACAD
1000
DSTYLE
1002
{
1070
   147
1040
6.25
1070
    77
1070
     0
1070
    41
1040
20.0
1070
   342
1005
DA
1002
}
  0
TEXT
  5
1E34
330
1F
100
AcDbEntity
  8
実形
100
AcDbText
 10
687.0530553064776
 20
1539.992030850375
 30
0.0
 40
25.0
  1
59R
 72
     2
 11
753.7197219731442
 21
1564.992030850375
 31
0.0
100
AcDbText
 73
     3
  0
LINE
  5
1E5D
330
1F
100
AcDbEntity
  8
実形
100
AcDbLine
 10
447.5460038203872
 20
779.7416665392715
 30
0.0
 11
447.5460038203872
 21
766.7416665392713
 31
0.0
  0
LINE
  5
1E5E
330
1F
100
AcDbEntity
  8
実形
100
AcDbLine
 10
1315.546003820387
 20
779.7416665392713
 30
0.0
 11
1315.546003820387
 21
766.7416665392713
 31
0.0
  0
LINE
  5
1E5F
330
1F
100
AcDbEntity
  8
実形
100
AcDbLine
 10
1315.546003820387
 20
766.7416665392712
 30
0.0
 11
447.5460038203872
 21
766.7416665392713
 31
0.0
  0
LINE
  5
1E60
330
1F
100
AcDbEntity
  8
実形
100
AcDbLine
 10
1310.546003820387
 20
784.7416665392714
 30
0.0
 11
452.5460038203871
 21
784.7416665392715
 31
0.0
  0
DIMENSION
  5
1EB4
330
1F
100
AcDbEntity
  8
実形
100
AcDbDimension
  2
*D26
 10
331.8241757620918
 20
766.7416665392713
 30
0.0
 11
251.6220950947382
 21
836.2881458843302
 31
0.0
 70
   160
 71
     5
 42
18.0
  3
ISO-25
100
AcDbAlignedDimension
 13
474.8239538708068
 23
784.7416665392714
 33
0.0
 14
475.8027315119826
 24
766.7416665392713
 34
0.0
 50
90.0
100
AcDbRotatedDimension
1001
ACAD
1000
DSTYLE
1002
{
1070
   140
1040
25.0
1070
   279
1070
     2
1070
   371
1070
    18
1070
   372
1070
    18
1002
}
  0
DIMENSION
  5
1EB5
330
1F
100
AcDbEntity
  8
実形
100
AcDbDimension
  2
*D27
 10
331.8241757620918
 20
761.5416665392714
 30
0.0
 11
254.3969455161178
 21
738.4813840833294
 31
0.0
 70
   160
 71
     5
 42
5.199999999999931
  3
ISO-25
100
AcDbAlignedDimension
 13
475.8027315119826
 23
766.7416665392713
 33
0.0
 14
475.8027315119826
 24
761.5416665392714
 34
0.0
 50
90.0
100
AcDbRotatedDimension
1001
ACAD
1000
DSTYLE
1002
{
1070
   140
1040
25.0
1070
   279
1070
     2
1070
   371
1070
    18
1070
   372
1070
    18
1002
}
  0
DIMENSION
  5
1EB6
330
1F
100
AcDbEntity
  8
実形
100
AcDbDimension
  2
*D28
 10
331.8241757620917
 20
586.5416665392713
 30
0.0
 11
305.9503494175615
 21
657.3044184235231
 31
0.0
 70
   160
 71
     5
 42
175.0000000000001
  3
ISO-25
100
AcDbAlignedDimension
 13
475.8027315119826
 23
761.5416665392714
 33
0.0
 14
420.7362237372354
 24
586.5416665392713
 34
0.0
 50
90.0
100
AcDbRotatedDimension
1001
ACAD
1000
DSTYLE
1002
{
1070
   279
1070
     2
1070
   371
1070
    18
1070
   372
1070
    18
1002
}
  0
DIMENSION
  5
1EB7
330
1F
100
AcDbEntity
  8
実形
100
AcDbDimension
  2
*D29
 10
221.2022773114505
 20
586.5416665392714
 30
0.0
 11
202.4522773114504
 21
685.6416665392714
 31
0.0
 70
    32
 71
     5
 42
198.2
  3
ISO-25
100
AcDbAlignedDimension
 13
474.8239538708068
 23
784.7416665392714
 33
0.0
 14
420.7362237372354
 24
586.5416665392713
 34
0.0
 50
90.0
100
AcDbRotatedDimension
1001
ACAD
1000
DSTYLE
1002
{
1070
   279
1070
     2
1070
   371
1070
    18
1070
   372
1070
    18
1002
}
  0
DIMENSION
  5
1EB8
330
1F
100
AcDbEntity
  8
実形
100
AcDbDimension
  2
*D30
 10
331.8241757620917
 20
576.5416665392713
 30
0.0
 11
296.8241757620917
 21
570.2038828750346
 31
0.0
 70
   160
  1
7
 71
     5
 42
10.0
  3
ISO-25
100
AcDbAlignedDimension
 13
476.8961293212152
 23
586.5416665392713
 33
0.0
 14
476.8961293212152
 24
576.5416665392713
 34
0.0
 50
90.0
100
AcDbRotatedDimension
1001
ACAD
1000
DSTYLE
1002
{
1070
   279
1070
     2
1070
   371
1070
    18
1070
   372
1070
    18
1002
}
  0
LINE
  5
1EB9
330
1F
100
AcDbEntity
  8
実形
100
AcDbLine
 10
329.621190721412
 20
764.1597562963315
 30
0.0
 11
282.647323315282
 21
742.1979981882059
 31
0.0
  0
LINE
  5
1EBA
330
1F
100
AcDbEntity
  8
実形
100
AcDbLine
 10
327.2556055244487
 20
763.4840187795825
 30
0.0
 11
309.0067617329215
 21
758.7537839588939
 31
0.0
  0
LINE
  5
1EBB
330
1F
100
AcDbEntity
  8
実形
100
AcDbLine
 10
327.5935597132366
 20
762.808266822144
 30
0.0
 11
314.0758863156325
 21
752.6720741047056
 31
0.0
  0
ARC
  5
1EBC
330
1F
100
AcDbEntity
  8
実形
100
AcDbCircle
 10
374.6668713829802
 20
896.7450044890583
 30
0.0
 40
128.7156019851906
100
AcDbArc
 50
213.3909885014397
 51
249.3522921630743
  0
LINE
  5
1EBD
330
1F
100
AcDbEntity
  8
実形
100
AcDbLine
 10
329.3169814364474
 20
776.4524575203568
 30
0.0
 11
318.411628239669
 21
784.1291579631443
 31
0.0
  0
LINE
  5
1EBE
330
1F
100
AcDbEntity
  8
実形
100
AcDbLine
 10
329.1145873092419
 20
776.3115074017814
 30
0.0
 11
315.2299403378029
 21
779.8939101384685
 31
0.0
  0
LEADER
  5
1EBF
330
1F
100
AcDbEntity
  8
実形
100
AcDbLeader
  3
ISO-25
 40
25.0
 41
16.66666666666666
 76
     2
 10
442.0860400559041
 20
790.4112103713523
 30
0.0
 10
401.2129480504591
 20
834.1188586530416
 30
0.0
213
0.0
223
12.5
233
0.0
1001
ACAD
1000
DSTYLE
1002
{
1070
   147
1040
6.25
1070
    77
1070
     0
1070
    41
1040
20.0
1070
   342
1005
DA
1002
}
  0
TEXT
  5
1EC0
330
1F
100
AcDbEntity
  8
実形
100
AcDbText
 10
376.3380100122025
 20
846.5457056787744
 30
0.0
 40
25.0
  1
5R
 72
     2
 11
418.0046766788692
 21
871.5457056787744
 31
0.0
100
AcDbText
 73
     3
  0
LEADER
  5
1F44
330
1F
100
AcDbEntity
  8
実形
100
AcDbLeader
  3
ISO-25
 40
25.0
 41
16.66666666666666
 76
     2
 10
1328.113118959646
 20
790.1497707900824
 30
0.0
 10
1365.500594283193
 20
823.8891822506209
 30
0.0
213
0.0
223
12.5
233
0.0
1001
ACAD
1000
DSTYLE
1002
{
1070
   147
1040
6.25
1070
    77
1070
     0
1070
    41
1040
20.0
1070
   342
1005
DA
1002
}
  0
TEXT
  5
1F45
330
1F
100
AcDbEntity
  8
実形
100
AcDbText
 10
1355.867536375363
 20
830.6886925421411
 30
0.0
 40
25.0
  1
5R
 72
     2
 11
1397.53420304203
 21
855.6886925421411
 31
0.0
100
AcDbText
 73
     3
  0
ARC
  5
1F46
330
1F
100
AcDbEntity
  8
実形
100
AcDbCircle
 10
452.5460038203871
 20
779.7416665392715
 30
0.0
 40
5.0
100
AcDbArc
 50
90.0
 51
180.0
  0
ARC
  5
1F47
330
1F
100
AcDbEntity
  8
実形
100
AcDbCircle
 10
1310.546003820387
 20
779.7416665392713
 30
0.0
 40
5.0
100
AcDbArc
 50
0.0
 51
89.99999999999998
  0
LINE
  5
1FDB
330
1F
100
AcDbEntity
  8
実形
100
AcDbLine
 10
1575.824422510906
 20
1071.380107849272
 30
0.0
 11
1578.024422510906
 21
1071.380107849272
 31
0.0
  0
LINE
  5
1FDC
330
1F
100
AcDbEntity
  8
実形
100
AcDbLine
 10
1581.024422510906
 20
1074.380107849272
 30
0.0
 11
1581.024422510906
 21
1081.380107849272
 31
0.0
  0
LINE
  5
1FDD
330
1F
100
AcDbEntity
  8
実形
100
AcDbLine
 10
1586.024422510906
 20
1086.380107849272
 30
0.0
 11
1721.837484245894
 21
1086.380107849272
 31
0.0
  0
LINE
  5
1FDE
330
1F
100
AcDbEntity
  8
実形
100
AcDbLine
 10
1756.024422510906
 20
1275.880107849272
 30
0.0
 11
1756.024422510906
 21
1466.380107849272
 31
0.0
  0
LINE
  5
1FDF
330
1F
100
AcDbEntity
  8
実形
100
AcDbLine
 10
1726.024422510906
 20
1496.380107849272
 30
0.0
 11
1586.024422510906
 21
1496.380107849272
 31
0.0
  0
LINE
  5
1FE0
330
1F
100
AcDbEntity
  8
実形
100
AcDbLine
 10
1581.024422510906
 20
1501.380107849272
 30
0.0
 11
1581.024422510906
 21
1508.380107849272
 31
0.0
  0
LINE
  5
1FE1
330
1F
100
AcDbEntity
  8
実形
100
AcDbLine
 10
1578.024422510906
 20
1511.380107849272
 30
0.0
 11
1575.824422510906
 21
1511.380107849272
 31
0.0
  0
ARC
  5
1FE9
330
1F
100
AcDbEntity
  8
実形
100
AcDbCircle
 10
1578.024422510906
 20
1508.380107849272
 30
0.0
 40
3.0
100
AcDbArc
 50
0.0
 51
90.0
  0
ARC
  5
1FEA
330
1F
100
AcDbEntity
  8
実形
100
AcDbCircle
 10
1586.024422510906
 20
1081.380107849272
 30
0.0
 40
5.0
100
AcDbArc
 50
90.0
 51
180.0
  0
ARC
  5
1FEB
330
1F
100
AcDbEntity
  8
実形
100
AcDbCircle
 10
1586.024422510906
 20
1501.380107849272
 30
0.0
 40
5.0
100
AcDbArc
 50
180.0
 51
270.0
  0
ARC
  5
1FEC
330
1F
100
AcDbEntity
  8
実形
100
AcDbCircle
 10
1726.024422510906
 20
1466.380107849272
 30
0.0
 40
30.0
100
AcDbArc
 50
0.0
 51
90.0
  0
LINE
  5
1FED
330
1F
100
AcDbEntity
  8
実形
100
AcDbLine
 10
1756.024422510906
 20
1275.880107849272
 30
0.0
 11
1751.827203995161
 21
1115.594799400036
 31
0.0
  0
ARC
  5
1FEE
330
1F
100
AcDbEntity
  8
実形
100
AcDbCircle
 10
1721.837484245894
 20
1116.380107849272
 30
0.0
 40
30.0
100
AcDbArc
 50
270.0
 51
358.4999999999973
  0
ARC
  5
1FF0
330
1F
100
AcDbEntity
  8
実形
100
AcDbCircle
 10
1578.024422510906
 20
1074.380107849272
 30
0.0
 40
3.0
100
AcDbArc
 50
270.0
 51
0.0
  0
DIMENSION
  5
1FF4
330
1F
100
AcDbEntity
  8
寸法
100
AcDbDimension
  2
*D31
 10
1874.596267182294
 20
1266.880107849272
 30
0.0
 11
1874.596267182294
 21
1345.588099806399
 31
0.0
 70
   160
  1
158%%C
 71
     5
 42
159.0
  3
ISO-25
100
AcDbAlignedDimension
 13
1763.024422510906
 23
1425.880107849272
 33
0.0
 14
1763.024422510906
 24
1266.880107849272
 34
0.0
 50
90.0
100
AcDbRotatedDimension
  0
DIMENSION
  5
1FF5
330
1F
100
AcDbEntity
  8
寸法
100
AcDbDimension
  2
*D32
 10
1702.560683744761
 20
1255.880107849272
 30
0.0
 11
1702.560683744761
 21
1346.380107849272
 31
0.0
 70
   160
  1
181%%C
 71
     5
 42
181.0
  3
ISO-25
100
AcDbAlignedDimension
 13
1810.263808334037
 23
1436.880107849272
 33
0.0
 14
1810.263808334037
 24
1255.880107849272
 34
0.0
 50
90.0
100
AcDbRotatedDimension
  0
LEADER
  5
1FF6
330
1F
100
AcDbEntity
  8
寸法
100
AcDbLeader
  3
ISO-25
 40
25.0
 41
62.5
 76
     2
 10
1751.352675812523
 20
1485.362941291731
 30
0.0
 10
1807.931699688781
 20
1517.817836950998
 30
0.0
213
0.0
223
-12.5
233
0.0
1001
ACAD
1000
DSTYLE
1002
{
1070
   147
1040
6.25
1070
    77
1070
     0
1070
    41
1040
25.0
1070
   342
1005
DA
1002
}
  0
TEXT
  5
1FF7
330
1F
100
AcDbEntity
  8
寸法
100
AcDbText
 10
1818.409295776913
 20
1516.770903297564
 30
0.0
 40
25.0
  1
30R
 11
1818.409295776913
 21
1513.43756996423
 31
0.0
100
AcDbText
 73
     1
  0
LEADER
  5
1FF8
330
1F
100
AcDbEntity
  8
実形
100
AcDbLeader
  3
ISO-25
 76
     2
 10
1586.159933582049
 20
1082.197727490712
 30
0.0
 10
1620.774220954388
 20
1044.475746302638
 30
0.0
1001
ACAD
1000
DSTYLE
1002
{
1070
   147
1040
6.25
1070
    77
1070
     0
1070
    41
1040
20.0
1070
   342
1005
DA
1002
}
  0
LEADER
  5
1FF9
330
1F
100
AcDbEntity
  8
実形
100
AcDbLeader
  3
ISO-25
 76
     2
 10
1577.270516643562
 20
1074.700572373007
 30
0.0
 10
1526.868082842813
 20
1110.662660836136
 30
0.0
1001
ACAD
1000
DSTYLE
1002
{
1070
   147
1040
6.25
1070
    77
1070
     0
1070
    41
1040
20.0
1070
   342
1005
DA
1002
}
  0
LEADER
  5
1FFA
330
1F
100
AcDbEntity
  8
実形
100
AcDbLeader
  3
ISO-25
 76
     2
 10
1741.132192478804
 20
1099.650974105314
 30
0.0
 10
1703.477421968291
 20
1135.890326794271
 30
0.0
1001
ACAD
1000
DSTYLE
1002
{
1070
   147
1040
6.25
1070
    77
1070
     0
1070
    41
1040
20.0
1070
   342
1005
DA
1002
}
  0
TEXT
  5
1FFB
330
1F
100
AcDbEntity
  8
寸法
100
AcDbText
 10
1631.4786378608
 20
1133.940421967712
 30
0.0
 40
25.0
  1
30R
 11
1631.4786378608
 21
1130.607088634379
 31
0.0
100
AcDbText
 73
     1
  0
TEXT
  5
1FFC
330
1F
100
AcDbEntity
  8
寸法
100
AcDbText
 10
1477.437811938282
 20
1104.129712400362
 30
0.0
 40
25.0
  1
3R
 11
1477.437811938282
 21
1100.796379067029
 31
0.0
100
AcDbText
 73
     1
  0
TEXT
  5
1FFD
330
1F
100
AcDbEntity
  8
寸法
100
AcDbText
 10
1630.742857419751
 20
1022.988184078251
 30
0.0
 40
25.0
  1
5R
 11
1630.742857419751
 21
1019.654850744918
 31
0.0
100
AcDbText
 73
     1
  0
LINE
  5
200A
330
1F
100
AcDbEntity
  8
実形
100
AcDbLine
 10
1763.024422510906
 20
1436.880107849272
 30
0.0
 11
1763.024422510906
 21
1255.880107849257
 31
0.0
  0
LINE
  5
200B
330
1F
100
AcDbEntity
  8
実形
100
AcDbLine
 10
1756.024422510906
 20
1436.880107849272
 30
0.0
 11
1763.024422510906
 21
1436.880107849272
 31
0.0
  0
LINE
  5
200C
330
1F
100
AcDbEntity
  8
実形
100
AcDbLine
 10
1756.024422510906
 20
1255.880107849255
 30
0.0
 11
1763.024422510907
 21
1255.880107849257
 31
0.0
  0
LINE
  5
20A7
330
1F
100
AcDbEntity
  8
実形
100
AcDbLine
 10
1562.824422510906
 20
1625.380107849272
 30
0.0
 11
1575.824422510906
 21
1625.380107849272
 31
0.0
  0
LINE
  5
20A8
330
1F
100
AcDbEntity
  8
実形
100
AcDbLine
 10
1562.824422510906
 20
1037.380107849272
 30
0.0
 11
1575.824422510906
 21
1037.380107849272
 31
0.0
  0
LINE
  5
20A9
330
1F
100
AcDbEntity
  8
実形
100
AcDbLine
 10
1557.824422510906
 20
1620.380107849272
 30
0.0
 11
1557.824422510906
 21
1042.380107849272
 31
0.0
  0
LINE
  5
20AA
330
1F
100
AcDbEntity
  8
実形
100
AcDbLine
 10
1575.824422510906
 20
1625.380107849272
 30
0.0
 11
1575.824422510906
 21
1037.380107849272
 31
0.0
  0
DIMENSION
  5
20ED
330
1F
100
AcDbEntity
  8
実形
100
AcDbDimension
  2
*D33
 10
1575.824422510906
 20
910.7269795550939
 30
0.0
 11
1526.692539609762
 21
939.3432662564984
 31
0.0
 70
   160
 71
     5
 42
18.0
  3
ISO-25
100
AcDbAlignedDimension
 13
1557.824422510906
 23
1071.533966699292
 33
0.0
 14
1575.824422510906
 24
1071.533966699292
 34
0.0
100
AcDbRotatedDimension
1001
ACAD
1000
DSTYLE
1002
{
1070
   279
1070
     2
1070
   371
1070
    18
1070
   372
1070
    18
1002
}
  0
DIMENSION
  5
20EE
330
1F
100
AcDbEntity
  8
実形
100
AcDbDimension
  2
*D34
 10
1756.024422510906
 20
910.7269795550939
 30
0.0
 11
1665.924422510906
 21
929.4769795550939
 31
0.0
 70
    32
 71
     5
 42
180.1999999999998
  3
ISO-25
100
AcDbAlignedDimension
 13
1575.824422510906
 23
1071.533966699292
 33
0.0
 14
1756.024422510906
 24
1071.533966699292
 34
0.0
100
AcDbRotatedDimension
1001
ACAD
1000
DSTYLE
1002
{
1070
   279
1070
     2
1070
   371
1070
    18
1070
   372
1070
    18
1002
}
  0
DIMENSION
  5
20EF
330
1F
100
AcDbEntity
  8
実形
100
AcDbDimension
  2
*D35
 10
1766.024422510906
 20
954.4355605830908
 30
0.0
 11
1798.485383677598
 21
977.6209647616408
 31
0.0
 70
   160
  1
7
 71
     5
 42
10.0
  3
ISO-25
100
AcDbAlignedDimension
 13
1756.024422510906
 23
1071.533966699292
 33
0.0
 14
1766.024422510906
 24
1071.533966699292
 34
0.0
100
AcDbRotatedDimension
1001
ACAD
1000
DSTYLE
1002
{
1070
   279
1070
     2
1070
   371
1070
    18
1070
   372
1070
    18
1002
}
  0
DIMENSION
  5
20F0
330
1F
100
AcDbEntity
  8
実形
100
AcDbDimension
  2
*D36
 10
1756.024422510906
 20
851.9488916049024
 30
0.0
 11
1656.924422510906
 21
870.6988916049024
 31
0.0
 70
    32
 71
     5
 42
198.1999999999998
  3
ISO-25
100
AcDbAlignedDimension
 13
1557.824422510906
 23
1071.533966699292
 33
0.0
 14
1756.024422510906
 24
1071.533966699292
 34
0.0
100
AcDbRotatedDimension
1001
ACAD
1000
DSTYLE
1002
{
1070
   279
1070
     2
1070
   371
1070
    18
1070
   372
1070
    18
1002
}
  0
LEADER
  5
20F1
330
1F
100
AcDbEntity
  8
実形
100
AcDbLeader
  3
ISO-25
 40
25.0
 41
16.66666666666666
 76
     2
 10
1548.94826534552
 20
1631.885137327073
 30
0.0
 10
1502.443597468239
 20
1674.239527148657
 30
0.0
213
0.0
223
12.5
233
0.0
1001
ACAD
1000
DSTYLE
1002
{
1070
   147
1040
6.25
1070
    77
1070
     0
1070
    41
1040
20.0
1070
   342
1005
DA
1002
}
  0
TEXT
  5
20F2
330
1F
100
AcDbEntity
  8
実形
100
AcDbText
 10
1476.022594856307
 20
1681.77147334071
 30
0.0
 40
25.0
  1
5R
 72
     2
 11
1517.689261522974
 21
1706.77147334071
 31
0.0
100
AcDbText
 73
     3
  0
LEADER
  5
20F3
330
1F
100
AcDbEntity
  8
実形
100
AcDbLeader
  3
ISO-25
 40
25.0
 41
16.66666666666666
 76
     2
 10
1549.409900208204
 20
1034.358583679936
 30
0.0
 10
1489.933199025775
 20
994.7229238810871
 30
0.0
213
0.0
223
12.5
233
0.0
1001
ACAD
1000
DSTYLE
1002
{
1070
   147
1040
6.25
1070
    77
1070
     0
1070
    41
1040
20.0
1070
   342
1005
DA
1002
}
  0
TEXT
  5
20F4
330
1F
100
AcDbEntity
  8
実形
100
AcDbText
 10
1458.542721923275
 20
962.0349559568669
 30
0.0
 40
25.0
  1
5R
 72
     2
 11
1500.209388589941
 21
987.0349559568669
 31
0.0
100
AcDbText
 73
     3
  0
ARC
  5
214E
330
1F
100
AcDbEntity
  8
実形
100
AcDbCircle
 10
1562.824422510906
 20
1620.380107849272
 30
0.0
 40
5.0
100
AcDbArc
 50
90.0
 51
180.0
  0
ARC
  5
214F
330
1F
100
AcDbEntity
  8
実形
100
AcDbCircle
 10
1562.824422510906
 20
1042.380107849272
 30
0.0
 40
5.0
100
AcDbArc
 50
180.0
 51
270.0
  0
LINE
  5
22BD
330
1F
100
AcDbEntity
  8
実形
100
AcDbLine
 10
2543.233877365066
 20
684.0947101512854
 30
0.0
 11
2153.233877365066
 21
684.0947101512854
 31
0.0
  0
LINE
  5
22BE
330
1F
100
AcDbEntity
  8
実形
100
AcDbLine
 10
2356.033877365065
 20
585.2947101512854
 30
0.0
 11
2075.233877365066
 21
585.2947101512854
 31
0.0
  0
ARC
  5
22BF
330
1F
100
AcDbEntity
  8
実形
100
AcDbCircle
 10
2153.233877365066
 20
606.0947101512854
 30
0.0
 40
78.0
100
AcDbArc
 50
90.0
 51
180.0
  0
ARC
  5
22C0
330
1F
100
AcDbEntity
  8
実形
100
AcDbCircle
 10
2543.233877365066
 20
606.0947101512854
 30
0.0
 40
78.0
100
AcDbArc
 50
0.0
 51
90.0
  0
LINE
  5
22C1
330
1F
100
AcDbEntity
  8
実形
100
AcDbLine
 10
2621.233877365066
 20
543.6947101512854
 30
0.0
 11
2356.033877365065
 21
543.6947101512854
 31
0.0
  0
LINE
  5
22C2
330
1F
100
AcDbEntity
  8
実形
100
AcDbLine
 10
2278.033877365066
 20
543.6947101512854
 30
0.0
 11
2153.233877365066
 21
543.6947101512854
 31
0.0
  0
LINE
  5
22C3
330
1F
100
AcDbEntity
  8
実形
100
AcDbLine
 10
2324.833877365066
 20
543.6947101512854
 30
0.0
 11
2106.433877365066
 21
543.6947101512854
 31
0.0
  0
LINE
  5
22C4
330
1F
100
AcDbEntity
  8
実形
100
AcDbLine
 10
2621.233877365066
 20
403.2947101512855
 30
0.0
 11
2386.105494977745
 21
403.2947101512855
 31
0.0
  0
LINE
  5
22C5
330
1F
100
AcDbEntity
  8
実形
100
AcDbLine
 10
2278.033877365066
 20
403.2947101512855
 30
0.0
 11
2153.233877365066
 21
403.2947101512855
 31
0.0
  0
LINE
  5
22C6
330
1F
100
AcDbEntity
  8
実形
100
AcDbLine
 10
2075.233877365066
 20
606.0947101512854
 30
0.0
 11
2075.233877365066
 21
585.2947101512854
 31
0.0
  0
LINE
  5
22C7
330
1F
100
AcDbEntity
  8
実形
100
AcDbLine
 10
2090.833877365066
 20
559.2947101512845
 30
0.0
 11
2324.833877365066
 21
559.2947101512845
 31
0.0
  0
LINE
  5
22C8
330
1F
100
AcDbEntity
  8
実形
100
AcDbLine
 10
2356.033877365065
 20
585.2947101512854
 30
0.0
 11
2356.033877365065
 21
543.6947101512854
 31
0.0
  0
LINE
  5
22C9
330
1F
100
AcDbEntity
  8
実形
100
AcDbLine
 10
2278.033877365066
 20
543.6947101512854
 30
0.0
 11
2153.233877365066
 21
543.6947101512854
 31
0.0
  0
LINE
  5
22CA
330
1F
100
AcDbEntity
  8
実形
100
AcDbLine
 10
2621.233877365066
 20
606.0947101512854
 30
0.0
 11
2621.233877365066
 21
403.2947101512855
 31
0.0
  0
LINE
  5
22CB
330
1F
100
AcDbEntity
  8
実形
100
AcDbLine
 10
2153.233877365066
 20
543.6947101512854
 30
0.0
 11
2153.233877365066
 21
403.2947101512863
 31
0.0
  0
LINE
  5
22CC
330
1F
100
AcDbEntity
  8
実形
100
AcDbLine
 10
2090.833877365066
 20
559.2947101512845
 30
0.0
 11
2090.833877365066
 21
356.5086976533553
 31
0.0
  0
LINE
  5
22CD
330
1F
100
AcDbEntity
  8
実形
100
AcDbLine
 10
2106.433877365066
 20
543.6947101512854
 30
0.0
 11
2106.433877365066
 21
356.5086976533554
 31
0.0
  0
ARC
  5
22CE
330
1F
100
AcDbEntity
  8
実形
100
AcDbCircle
 10
2317.033877365066
 20
543.6947101512854
 30
0.0
 40
39.0
100
AcDbArc
 50
180.0
 51
0.0
  0
TEXT
  5
22CF
330
1F
100
AcDbEntity
  8
実形
100
AcDbText
 10
1844.08269694555
 20
410.9876312842443
 30
0.0
 40
35.0
  1
シンク厚　
 11
1844.08269694555
 21
406.3209646175776
 31
0.0
100
AcDbText
 73
     1
  0
DIMENSION
  5
22D0
330
1F
100
AcDbEntity
  8
実形
100
AcDbDimension
  2
*D37
 10
2075.233877365067
 20
467.1003685502147
 30
0.0
 11
2054.88545157578
 21
491.5915116428197
 31
0.0
 70
   160
  1
1
 71
     5
 42
15.59999999999991
  3
ISO-25
100
AcDbAlignedDimension
 13
2090.833877365067
 23
559.2947101512846
 33
0.0
 14
2075.233877365067
 24
533.5029867284119
 34
0.0
 50
180.0
100
AcDbRotatedDimension
1001
ACAD
1000
DSTYLE
1002
{
1070
   282
1070
     1
1070
   281
1070
     1
1070
    41
1040
5.0
1070
    42
1040
6.0
1070
   140
1040
25.0
1070
   147
1040
1.199999999999999
1070
   279
1070
     2
1070
   289
1070
     2
1070
   371
1070
    13
1070
   372
1070
    13
1002
}
  0
TEXT
  5
22D1
330
1F
100
AcDbEntity
  8
実形
  6
HIDDEN2
100
AcDbText
 10
2095.797198899368
 20
462.9308652071995
 30
0.0
 40
10.14
  1
● 
 71
     2
100
AcDbText
  0
TEXT
  5
22D2
330
1F
100
AcDbEntity
  8
実形
  6
HIDDEN2
100
AcDbText
 10
2079.566838424828
 20
462.4970760796131
 30
0.0
 40
10.14
  1
● 
 71
     2
100
AcDbText
  0
LINE
  5
22D3
330
1F
100
AcDbEntity
  8
実形
100
AcDbLine
 10
2091.245173341136
 20
467.4229398449074
 30
0.0
 11
2075.560266305432
 21
467.4229398449074
 31
0.0
  0
LINE
  5
22D4
330
1F
100
AcDbEntity
  8
実形
100
AcDbLine
 10
2386.105494977745
 20
403.2947101512855
 30
0.0
 11
2356.033877365065
 21
403.2947101512855
 31
0.0
  0
ARC
  5
22D5
330
1F
100
AcDbEntity
  8
実形
100
AcDbCircle
 10
2317.033877365066
 20
403.2947101512855
 30
0.0
 40
39.0
100
AcDbArc
 50
0.0
 51
180.0
  0
LINE
  5
22D6
330
1F
100
AcDbEntity
  8
実形
100
AcDbLine
 10
2278.033877365066
 20
457.3521962228079
 30
0.0
 11
2278.033877365066
 21
439.4500692892673
 31
0.0
  0
LINE
  5
22D7
330
1F
100
AcDbEntity
  8
実形
100
AcDbLine
 10
2356.033877365065
 20
457.3521962228079
 30
0.0
 11
2356.033877365065
 21
439.4977027967055
 31
0.0
  0
TEXT
  5
22D8
330
1F
100
AcDbEntity
  8
実形
100
AcDbText
 10
1859.409434822997
 20
359.2737114633438
 30
0.0
 40
28.0
  1
0.8mm
 11
1859.409434822997
 21
355.5403781300104
 31
0.0
100
AcDbText
 73
     1
  0
TEXT
  5
22D9
330
1F
100
AcDbEntity
  8
実形
100
AcDbText
 10
1969.171950854548
 20
724.7069313792997
 30
0.0
 40
28.0
  1
5R
 11
1969.171950854548
 21
720.9735980459663
 31
0.0
100
AcDbText
 73
     1
  0
DIMENSION
  5
22DA
330
1F
100
AcDbEntity
  8
実形
100
AcDbDimension
  2
*D38
 10
2324.833877365066
 20
617.1548568615962
 30
0.0
 11
2207.833877365066
 21
635.9048568615962
 31
0.0
 70
    32
  1
15
 71
     5
 42
234.0
  3
ISO-25
100
AcDbAlignedDimension
 13
2090.833877365066
 23
526.9073852958004
 33
0.0
 14
2324.833877365066
 24
526.9073852958004
 34
0.0
100
AcDbRotatedDimension
1001
ACAD
1000
DSTYLE
1002
{
1070
   279
1070
     2
1070
   371
1070
    18
1070
   372
1070
    18
1002
}
  0
LEADER
  5
22DB
330
1F
100
AcDbEntity
  8
実形
100
AcDbLeader
  3
ISO-25
 76
     2
 10
2080.730586898456
 20
658.778126851076
 30
0.0
 10
2006.358162869183
 20
712.4806979619262
 30
0.0
1001
ACAD
1000
DSTYLE
1002
{
1070
   147
1040
6.25
1070
    77
1070
     0
1070
   279
1070
     2
1070
   371
1070
    18
1070
   372
1070
    18
1002
}
  0
LINE
  5
22DC
330
1F
100
AcDbEntity
  8
実形
100
AcDbLine
 10
2324.833877365066
 20
559.2947101512845
 30
0.0
 11
2324.833877365066
 21
543.6947101512854
 31
0.0
  0
DIMENSION
  5
22DD
330
1F
100
AcDbEntity
  8
実形
100
AcDbDimension
  2
*D39
 10
2228.767481940162
 20
543.6947101512855
 30
0.0
 11
2197.294896545438
 21
515.0052225685112
 31
0.0
 70
   160
  1
2.5
 71
     5
 42
38.99999999999995
  3
ISO-25
100
AcDbAlignedDimension
 13
2357.614562018891
 23
504.6947101512855
 33
0.0
 14
2281.267191428404
 24
543.6947101512855
 34
0.0
 50
90.0
100
AcDbRotatedDimension
1001
ACAD
1000
DSTYLE
1002
{
1070
   140
1040
23.0
1070
   279
1070
     2
1070
   371
1070
    18
1070
   372
1070
    18
1002
}
  0
DIMENSION
  5
22DE
330
1F
100
AcDbEntity
  8
実形
100
AcDbDimension
  2
*D40
 10
2356.033877365066
 20
452.0882219802177
 30
0.0
 11
2317.033877365066
 21
470.8382219802177
 31
0.0
 70
    32
  1
5
 71
     5
 42
78.0
  3
ISO-25
100
AcDbAlignedDimension
 13
2278.033877365066
 23
513.0145559292668
 33
0.0
 14
2356.033877365066
 24
513.0145559292668
 34
0.0
100
AcDbRotatedDimension
1001
ACAD
1000
DSTYLE
1002
{
1070
   279
1070
     2
1070
   371
1070
    18
1070
   372
1070
    18
1002
}
  0
LINE
  5
22DF
330
1F
100
AcDbEntity
  8
実形
100
AcDbLine
 10
2278.033877365066
 20
452.0882219802177
 30
0.0
 11
2278.033877365066
 21
494.7079487038194
 31
0.0
  0
LINE
  5
22E0
330
1F
100
AcDbEntity
  8
実形
100
AcDbLine
 10
2356.033877365065
 20
452.0882219802177
 30
0.0
 11
2356.033877365065
 21
493.5103420910408
 31
0.0
  0
DIMENSION
  5
22E1
330
1F
100
AcDbEntity
  8
実形
100
AcDbDimension
  2
*D41
 10
2230.705930897853
 20
403.2947101512855
 30
0.0
 11
2198.086469593912
 21
431.6583152348946
 31
0.0
 70
   160
  1
2.5
 71
     5
 42
38.99999999999995
  3
ISO-25
100
AcDbAlignedDimension
 13
2331.326187506493
 23
442.2947101512853
 33
0.0
 14
2343.612691407768
 24
403.2947101512855
 34
0.0
 50
90.0
100
AcDbRotatedDimension
1001
ACAD
1000
DSTYLE
1002
{
1070
   140
1040
23.0
1070
   279
1070
     2
1070
   371
1070
    18
1070
   372
1070
    18
1002
}
  0
DIMENSION
  5
22E2
330
1F
100
AcDbEntity
  8
実形
100
AcDbDimension
  2
*D42
 10
2356.033877365066
 20
733.9587029177619
 30
0.0
 11
2215.633877365066
 21
752.7087029177619
 31
0.0
 70
    32
  1
18
 71
     5
 42
280.7999999999997
  3
ISO-25
100
AcDbAlignedDimension
 13
2075.233877365066
 23
631.1956311673393
 33
0.0
 14
2356.033877365066
 24
631.1956311673393
 34
0.0
100
AcDbRotatedDimension
1001
ACAD
1000
DSTYLE
1002
{
1070
   279
1070
     2
1070
   371
1070
    18
1070
   372
1070
    18
1002
}
  0
DIMENSION
  5
22E3
330
1F
100
AcDbEntity
  8
実形
100
AcDbDimension
  2
*D43
 10
2621.233877365066
 20
733.9587029177619
 30
0.0
 11
2488.633877365066
 21
752.7087029177619
 31
0.0
 70
    32
  1
17
 71
     5
 42
265.1999999999998
  3
ISO-25
100
AcDbAlignedDimension
 13
2356.033877365066
 23
631.1956311673382
 33
0.0
 14
2621.233877365066
 24
631.1956311673382
 34
0.0
100
AcDbRotatedDimension
1001
ACAD
1000
DSTYLE
1002
{
1070
   279
1070
     2
1070
   371
1070
    18
1070
   372
1070
    18
1002
}
  0
DIMENSION
  5
22E4
330
1F
100
AcDbEntity
  8
実形
100
AcDbDimension
  2
*D44
 10
2621.233877365066
 20
777.4666415156134
 30
0.0
 11
2348.233877365066
 21
796.2166415156134
 31
0.0
 70
    32
  1
35
 71
     5
 42
545.9999999999995
  3
ISO-25
100
AcDbAlignedDimension
 13
2075.233877365066
 23
631.1956311673382
 33
0.0
 14
2621.233877365066
 24
631.1956311673382
 34
0.0
100
AcDbRotatedDimension
1001
ACAD
1000
DSTYLE
1002
{
1070
   279
1070
     2
1070
   371
1070
    18
1070
   372
1070
    18
1002
}
  0
TEXT
  5
22E5
330
1F
100
AcDbEntity
  8
実形
100
AcDbText
 10
2661.234589240095
 20
713.6502811430476
 30
0.0
 40
28.0
  1
5R
 11
2661.234589240095
 21
709.9169478097143
 31
0.0
100
AcDbText
 73
     1
  0
DIMENSION
  5
22E6
330
1F
100
AcDbEntity
  8
実形
100
AcDbDimension
  2
*D45
 10
2153.233877365066
 20
297.5085770831867
 30
0.0
 11
2053.203290699754
 21
332.9138518235977
 31
0.0
 70
   160
  1
3.2
 71
     5
 42
46.80000000000018
  3
ISO-25
100
AcDbAlignedDimension
 13
2106.433877365066
 23
411.5474686202857
 33
0.0
 14
2153.233877365066
 24
411.5474686202857
 34
0.0
100
AcDbRotatedDimension
1001
ACAD
1000
DSTYLE
1002
{
1070
   140
1040
25.0
1070
   279
1070
     2
1070
   371
1070
    18
1070
   372
1070
    18
1002
}
  0
DIMENSION
  5
22E7
330
1F
100
AcDbEntity
  8
実形
100
AcDbDimension
  2
*D46
 10
2278.033877365066
 20
297.5085770831867
 30
0.0
 11
2215.633877365066
 21
316.2585770831867
 31
0.0
 70
    32
  1
8
 71
     5
 42
124.8000000000001
  3
ISO-25
100
AcDbAlignedDimension
 13
2153.233877365066
 23
411.5474686202857
 33
0.0
 14
2278.033877365066
 24
411.5474686202857
 34
0.0
100
AcDbRotatedDimension
1001
ACAD
1000
DSTYLE
1002
{
1070
   279
1070
     2
1070
   371
1070
    18
1070
   372
1070
    18
1002
}
  0
DIMENSION
  5
22E8
330
1F
100
AcDbEntity
  8
実形
100
AcDbDimension
  2
*D47
 10
2356.033877365066
 20
297.5085770831867
 30
0.0
 11
2317.033877365066
 21
316.2585770831867
 31
0.0
 70
    32
  1
5
 71
     5
 42
78.0
  3
ISO-25
100
AcDbAlignedDimension
 13
2278.033877365066
 23
411.5474686202857
 33
0.0
 14
2356.033877365066
 24
411.5474686202857
 34
0.0
100
AcDbRotatedDimension
1001
ACAD
1000
DSTYLE
1002
{
1070
   279
1070
     2
1070
   371
1070
    18
1070
   372
1070
    18
1002
}
  0
DIMENSION
  5
22E9
330
1F
100
AcDbEntity
  8
実形
100
AcDbDimension
  2
*D48
 10
2621.233877365066
 20
297.5085770831867
 30
0.0
 11
2488.633877365066
 21
316.2585770831867
 31
0.0
 70
    32
  1
17
 71
     5
 42
265.1999999999998
  3
ISO-25
100
AcDbAlignedDimension
 13
2356.033877365066
 23
411.5474686202857
 33
0.0
 14
2621.233877365066
 24
411.5474686202857
 34
0.0
100
AcDbRotatedDimension
1001
ACAD
1000
DSTYLE
1002
{
1070
   279
1070
     2
1070
   371
1070
    18
1070
   372
1070
    18
1002
}
  0
DIMENSION
  5
22EA
330
1F
100
AcDbEntity
  8
実形
100
AcDbDimension
  2
*D49
 10
2155.023276234156
 20
247.5388396829094
 30
0.0
 11
2116.023276234157
 21
266.2888396829094
 31
0.0
 70
    32
  1
5
 71
     5
 42
77.99999999999954
  3
ISO-25
100
AcDbAlignedDimension
 13
2077.023276234157
 23
362.8281686160613
 33
0.0
 14
2155.023276234156
 24
362.8281686160613
 34
0.0
100
AcDbRotatedDimension
1001
ACAD
1000
DSTYLE
1002
{
1070
   279
1070
     2
1070
   371
1070
    18
1070
   372
1070
    18
1002
}
  0
DIMENSION
  5
22EB
330
1F
100
AcDbEntity
  8
実形
100
AcDbDimension
  2
*D50
 10
2623.023276234156
 20
247.5388396829094
 30
0.0
 11
2389.023276234156
 21
266.2888396829094
 31
0.0
 70
    32
  1
30
 71
     5
 42
468.0
  3
ISO-25
100
AcDbAlignedDimension
 13
2155.023276234156
 23
362.8281686160613
 33
0.0
 14
2623.023276234156
 24
362.8281686160613
 34
0.0
100
AcDbRotatedDimension
1001
ACAD
1000
DSTYLE
1002
{
1070
   279
1070
     2
1070
   371
1070
    18
1070
   372
1070
    18
1002
}
  0
LINE
  5
22EC
330
1F
100
AcDbEntity
  8
実形
100
AcDbLine
 10
2089.14414202772
 20
414.8786635805636
 30
0.0
 11
2005.196656620899
 21
408.9889439325022
 31
0.0
  0
LINE
  5
22ED
330
1F
100
AcDbEntity
  8
実形
100
AcDbLine
 10
2088.820600113063
 20
414.7274049971472
 30
0.0
 11
2056.485883910302
 21
400.9756935648645
 31
0.0
  0
LINE
  5
22EE
330
1F
100
AcDbEntity
  8
実形
100
AcDbLine
 10
2088.472360117057
 20
415.6242072570588
 30
0.0
 11
2056.198770657017
 21
421.9662971197472
 31
0.0
  0
TEXT
  5
22EF
330
1F
100
AcDbEntity
  8
実形
370
    -2
100
AcDbText
 10
1943.905583280765
 20
836.850626796042
 30
0.0
 40
38.0
  1
A-A　断面詳細図
100
AcDbText
  0
TEXT
  5
22F0
330
1F
100
AcDbEntity
  8
実形
370
    -2
100
AcDbText
 10
2039.041635208127
 20
838.8009194430942
 30
0.0
 40
35.0
  1
´
100
AcDbText
  0
DIMENSION
  5
22F1
330
1F
100
AcDbEntity
  8
実形
100
AcDbDimension
  2
*D51
 10
1970.032114275532
 20
585.2947101512854
 30
0.0
 11
1951.282114275532
 21
634.6947101512859
 31
0.0
 70
    32
  1
6.5
 71
     5
 42
98.80000000000007
  3
ISO-25
100
AcDbAlignedDimension
 13
2097.328912889143
 23
684.0947101512855
 33
0.0
 14
2097.328912889143
 24
585.2947101512854
 34
0.0
 50
90.0
100
AcDbRotatedDimension
1001
ACAD
1000
DSTYLE
1002
{
1070
   279
1070
     2
1070
   371
1070
    18
1070
   372
1070
    18
1002
}
  0
DIMENSION
  5
22F2
330
1F
100
AcDbEntity
  8
実形
100
AcDbDimension
  2
*D52
 10
1916.035186721017
 20
559.2947101512846
 30
0.0
 11
1897.285186721017
 21
621.6947101512854
 31
0.0
 70
    32
  1
8.2
 71
     5
 42
124.8000000000008
  3
ISO-25
100
AcDbAlignedDimension
 13
2097.328912889143
 23
684.0947101512855
 33
0.0
 14
2097.328912889143
 24
559.2947101512846
 34
0.0
 50
90.0
100
AcDbRotatedDimension
1001
ACAD
1000
DSTYLE
1002
{
1070
   279
1070
     2
1070
   371
1070
    18
1070
   372
1070
    18
1002
}
  0
DIMENSION
  5
22F3
330
1F
100
AcDbEntity
  8
実形
100
AcDbDimension
  2
*D53
 10
1864.389549972262
 20
684.0947101512855
 30
0.0
 11
1845.639549972261
 21
613.8947101512858
 31
0.0
 70
    32
  1
9
 71
     5
 42
140.4000000000001
  3
ISO-25
100
AcDbAlignedDimension
 13
2097.328912889143
 23
543.6947101512854
 33
0.0
 14
2097.328912889143
 24
684.0947101512855
 34
0.0
 50
90.0
100
AcDbRotatedDimension
1001
ACAD
1000
DSTYLE
1002
{
1070
   279
1070
     2
1070
   371
1070
    18
1070
   372
1070
    18
1002
}
  0
LINE
  5
22F4
330
1F
100
AcDbEntity
  8
実形
100
AcDbLine
 10
1970.032114275532
 20
559.4808025581515
 30
0.0
 11
1970.032114275532
 21
543.6947101512854
 31
0.0
  0
TEXT
  5
22F5
330
1F
100
AcDbEntity
  8
実形
  6
HIDDEN2
100
AcDbText
 10
1974.759963930668
 20
554.1584046865482
 30
0.0
 40
10.14
  1
● 
 71
     2
100
AcDbText
  0
TEXT
  5
22F6
330
1F
100
AcDbEntity
  8
実形
  6
HIDDEN2
100
AcDbText
 10
1974.759963930668
 20
539.0050600708654
 30
0.0
 40
10.14
  1
● 
 71
     2
100
AcDbText
  0
TEXT
  5
22F7
330
1F
100
AcDbEntity
  8
実形
100
AcDbText
 10
1965.904597556985
 20
483.7785695213888
 30
0.0
 40
29.25
  1
0.8
 50
90.0
 11
1969.804597556985
 21
483.7785695213888
 31
0.0
100
AcDbText
 73
     1
  0
ARC
  5
22F8
330
1F
100
AcDbEntity
  8
実形
100
AcDbCircle
 10
2095.749391898479
 20
294.0352561825519
 30
0.0
 40
37.21807911390647
100
AcDbArc
 50
10.88380498132299
 51
99.73672806232286
  0
ARC
  5
22F9
330
1F
100
AcDbEntity
  8
実形
100
AcDbCircle
 10
2101.132326064329
 20
286.3222816243725
 30
0.0
 40
34.71092069179851
100
AcDbArc
 50
27.82370983299367
 51
64.29661093933541
  0
ARC
  5
22FA
330
1F
100
AcDbEntity
  8
実形
100
AcDbCircle
 10
2095.736654257051
 20
304.1012932169378
 30
0.0
 40
36.96117099445193
100
AcDbArc
 50
355.5051092068189
 51
31.89192001425737
  0
DIMENSION
  5
22FB
330
1F
100
AcDbEntity
  8
実形
100
AcDbDimension
  2
*D54
 10
2673.699912636183
 20
403.2947101512855
 30
0.0
 11
2654.949912636183
 21
473.4947101512859
 31
0.0
 70
    32
  1
9
 71
     5
 42
140.4
  3
ISO-25
100
AcDbAlignedDimension
 13
2582.25404811461
 23
543.6947101512855
 33
0.0
 14
2582.25404811461
 24
403.2947101512855
 34
0.0
 50
90.0
100
AcDbRotatedDimension
1001
ACAD
1000
DSTYLE
1002
{
1070
   279
1070
     2
1070
   371
1070
    18
1070
   372
1070
    18
1002
}
  0
DIMENSION
  5
22FC
330
1F
100
AcDbEntity
  8
実形
100
AcDbDimension
  2
*D55
 10
2673.699912636183
 20
543.6947101512855
 30
0.0
 11
2654.949912636183
 21
613.8947101512859
 31
0.0
 70
    32
  1
9
 71
     5
 42
140.3999999999999
  3
ISO-25
100
AcDbAlignedDimension
 13
2582.25404811461
 23
684.0947101512855
 33
0.0
 14
2582.25404811461
 24
543.6947101512855
 34
0.0
 50
90.0
100
AcDbRotatedDimension
1001
ACAD
1000
DSTYLE
1002
{
1070
   279
1070
     2
1070
   371
1070
    18
1070
   372
1070
    18
1002
}
  0
DIMENSION
  5
22FD
330
1F
100
AcDbEntity
  8
実形
100
AcDbDimension
  2
*D56
 10
2715.480008308167
 20
403.2947101512855
 30
0.0
 11
2696.730008308167
 21
543.694710151286
 31
0.0
 70
    32
  1
18
 71
     5
 42
280.8
  3
ISO-25
100
AcDbAlignedDimension
 13
2582.25404811461
 23
684.0947101512855
 33
0.0
 14
2582.25404811461
 24
403.2947101512855
 34
0.0
 50
90.0
100
AcDbRotatedDimension
1001
ACAD
1000
DSTYLE
1002
{
1070
   279
1070
     2
1070
   371
1070
    18
1070
   372
1070
    18
1002
}
  0
LEADER
  5
22FE
330
1F
100
AcDbEntity
  8
実形
100
AcDbLeader
  3
ISO-25
 76
     2
 10
2598.968887029636
 20
666.6445109732322
 30
0.0
 10
2665.822583513264
 20
707.9203906258708
 30
0.0
1001
ACAD
1000
DSTYLE
1002
{
1070
   147
1040
6.25
1070
    77
1070
     0
1070
   279
1070
     2
1070
   371
1070
    18
1070
   372
1070
    18
1002
}
  0
LINE
  5
24B3
330
1F
100
AcDbEntity
  8
補助
100
AcDbLine
 10
2784.0
 20
1959.0
 30
0.0
 11
2019.387286519283
 21
1959.000000000001
 31
0.0
  0
LINE
  5
24B4
330
1F
100
AcDbEntity
  8
補助
100
AcDbLine
 10
2784.0
 20
1894.0
 30
0.0
 11
2019.387286519283
 21
1894.0
 31
0.0
  0
LINE
  5
24B5
330
1F
100
AcDbEntity
  8
補助
100
AcDbLine
 10
2784.0
 20
1829.0
 30
0.0
 11
2019.387286519283
 21
1829.0
 31
0.0
  0
LINE
  5
24B6
330
1F
100
AcDbEntity
  8
補助
100
AcDbLine
 10
2202.547653420927
 20
1829.0
 30
0.0
 11
2202.547653420927
 21
2024.0
 31
0.0
  0
LINE
  5
24B7
330
1F
100
AcDbEntity
  8
補助
100
AcDbLine
 10
2019.387286519283
 20
1829.0
 30
0.0
 11
2019.387286519283
 21
2024.0
 31
0.0
  0
TEXT
  5
24B8
330
1F
100
AcDbEntity
  8
補助
100
AcDbText
 10
2050.295698850121
 20
1976.328571428572
 30
0.0
 40
30.0
  1
部品名
  7
明朝
 72
     4
 11
2116.124270278692
 21
1991.5
 31
0.0
100
AcDbText
  0
TEXT
  5
24B9
330
1F
100
AcDbEntity
  8
補助
100
AcDbText
 10
2627.614285714286
 20
1976.071428571429
 30
0.0
 40
30.0
  1
厚さ
  7
明朝
 72
     4
 11
2671.5
 21
1991.5
 31
0.0
100
AcDbText
  0
LINE
  5
24BA
330
1F
100
AcDbEntity
  8
補助
100
AcDbLine
 10
2559.0
 20
1829.0
 30
0.0
 11
2559.0
 21
2024.0
 31
0.0
  0
TEXT
  5
24BB
330
1F
100
AcDbEntity
  8
補助
100
AcDbText
 10
2338.490869919937
 20
1975.947979478155
 30
0.0
 40
30.0
  1
材質
  7
明朝
 72
     4
 11
2382.376584205651
 21
1991.119408049583
 31
0.0
100
AcDbText
  0
TEXT
  5
24BC
330
1F
100
AcDbEntity
  8
実形
100
AcDbText
 10
2048.227810657788
 20
1910.557142857143
 30
0.0
 40
30.0
  1
ボウル
  7
明朝
 72
     4
 11
2114.056382086359
 21
1926.5
 31
0.0
100
AcDbText
  0
TEXT
  5
24BD
330
1F
100
AcDbEntity
  8
実形
100
AcDbText
 10
2594.700000000001
 20
1911.842857142857
 30
0.0
 40
30.0
  1
0.8ｍｍ
  7
明朝
 72
     4
 11
2671.500000000001
 21
1926.5
 31
0.0
100
AcDbText
  0
TEXT
  5
24BE
330
1F
100
AcDbEntity
  8
実形
100
AcDbText
 10
2239.074011965008
 20
1910.728571428572
 30
0.0
 40
30.0
  1
SUS304（No.4）
  7
明朝
 72
     4
 11
2392.674011965008
 21
1926.5
 31
0.0
100
AcDbText
  0
TEXT
  5
24BF
330
1F
100
AcDbEntity
  8
実形
100
AcDbText
 10
2070.170667800645
 20
1846.242857142857
 30
0.0
 40
30.0
  1
天板
  7
明朝
 72
     4
 11
2114.056382086359
 21
1861.5
 31
0.0
100
AcDbText
  0
TEXT
  5
24C0
330
1F
100
AcDbEntity
  8
実形
100
AcDbText
 10
2219.734774251222
 20
1848.285714285714
 30
0.0
 40
25.0
  1
アクリル人工大理石
  7
明朝
 72
     4
 11
2384.306202822651
 21
1861.5
 31
0.0
100
AcDbText
  0
TEXT
  5
24C1
330
1F
100
AcDbEntity
  8
実形
100
AcDbText
 10
2605.67142857143
 20
1846.842857142857
 30
0.0
 40
30.0
  1
18ｍｍ
  7
明朝
 72
     4
 11
2671.500000000001
 21
1861.5
 31
0.0
100
AcDbText
  0
LINE
  5
26D5
330
1F
100
AcDbEntity
  8
センター
 48
0.5
370
    15
100
AcDbLine
 10
1263.2533844095
 20
1330.574539930811
 30
0.0
 11
1340.177599481823
 21
1330.574539930811
 31
0.0
  0
TEXT
  5
26D6
330
1F
100
AcDbEntity
  8
実形
370
    -2
100
AcDbText
 10
1226.365077470047
 20
1320.204220114722
 30
0.0
 40
25.0
  1
A
100
AcDbText
  0
TEXT
  5
26D7
330
1F
100
AcDbEntity
  8
実形
370
    -2
100
AcDbText
 10
1347.22499710675
 20
1320.204220114722
 30
0.0
 40
25.0
  1
A
100
AcDbText
  0
TEXT
  5
26D8
330
1F
100
AcDbEntity
  8
実形
370
    -2
100
AcDbText
 10
1356.829771866516
 20
1318.60375875255
 30
0.0
 40
25.0
  1
´
100
AcDbText
  0
VIEWPORT
  5
2E
102
{ACAD_XDICTIONARY
360
2721
102
}
330
1B
100
AcDbEntity
 67
     1
  8
0
100
AcDbViewport
 10
144.7270812988281
 20
101.2295806407928
 30
0.0
 40
411.6736216682419
 41
222.1517806396485
 68
     1
 69
     1
 12
144.7270812988281
 22
101.2295806407928
 13
0.0
 23
0.0
 14
10.0
 24
10.0
 15
10.0
 25
10.0
 16
0.0
 26
0.0
 36
1.0
 17
0.0
 27
0.0
 37
0.0
 42
50.0
 43
0.0
 44
0.0
 45
222.1517806396485
 50
0.0
 51
0.0
 72
   100
 90
    32800
  1

281
     0
 71
     1
 74
     0
110
0.0
120
0.0
130
0.0
111
1.0
121
0.0
131
0.0
112
0.0
122
1.0
132
0.0
 79
     0
146
0.0
  0
VIEWPORT
  5
30
102
{ACAD_XDICTIONARY
360
2723
102
}
330
1B
100
AcDbEntity
 67
     1
  8
0
100
AcDbViewport
 10
139.2237563133239
 20
101.2295821905136
 30
0.0
 40
222.7580101013184
 41
161.9673315048218
 68
     2
 69
     2
 12
210.0
 22
148.5
 13
0.0
 23
0.0
 14
10.0
 24
10.0
 15
10.0
 25
10.0
 16
0.0
 26
0.0
 36
1.0
 17
0.0
 27
0.0
 37
0.0
 42
50.0
 43
0.0
 44
0.0
 45
309.0686705647124
 50
0.0
 51
0.0
 72
   100
 90
    32864
  1

281
     0
 71
     1
 74
     0
110
0.0
120
0.0
130
0.0
111
1.0
121
0.0
131
0.0
112
0.0
122
1.0
132
0.0
 79
     0
146
0.0
  0
ENDSEC
  0
SECTION
  2
OBJECTS
  0
DICTIONARY
  5
C
330
0
100
AcDbDictionary
281
     1
  3
ACAD_COLOR
350
1641
  3
ACAD_GROUP
350
D
  3
ACAD_LAYOUT
350
1A
  3
ACAD_MATERIAL
350
1640
  3
ACAD_MLINESTYLE
350
17
  3
ACAD_PLOTSETTINGS
350
19
  3
ACAD_PLOTSTYLENAME
350
E
  3
ACAD_TABLESTYLE
350
1642
  3
AcadDim
350
CBC
  3
ACDBHEADERROUNDTRIPXREC
350
271A
  3
AcDbVariableDictionary
350
EFD
  0
DICTIONARY
  5
16A9
330
2
100
AcDbDictionary
280
     1
281
     1
  3
ACAD_LAYERFILTERS
360
182D
  3
ACAD_LAYERSTATES
360
1768
  3
ACLYDICTIONARY
360
182C
  0
DICTIONARY
  5
165D
330
1F
100
AcDbDictionary
280
     1
281
     1
  3
ACAD_SORTENTS
360
165E
  0
DICTIONARY
  5
1A2E
330
1A2B
100
AcDbDictionary
280
     1
281
     1
  3
ACAD_SORTENTS
360
1A2F
  0
DICTIONARY
  5
26C7
330
2675
100
AcDbDictionary
280
     1
281
     1
  3
ACAD_SORTENTS
360
26C8
  0
DICTIONARY
  5
2721
330
2E
100
AcDbDictionary
280
     1
281
     1
  3
ACAD_XREC_ROUNDTRIP
360
2722
  0
DICTIONARY
  5
2723
330
30
100
AcDbDictionary
280
     1
281
     1
  3
ACAD_XREC_ROUNDTRIP
360
2724
  0
DICTIONARY
  5
1641
102
{ACAD_REACTORS
330
C
102
}
330
C
100
AcDbDictionary
281
     1
  0
DICTIONARY
  5
D
102
{ACAD_REACTORS
330
C
102
}
330
C
100
AcDbDictionary
281
     1
  0
DICTIONARY
  5
1A
102
{ACAD_REACTORS
330
C
102
}
330
C
100
AcDbDictionary
281
     1
  3
Model
350
22
  3
ﾚｲｱｳﾄ1
350
1E
  3
ﾚｲｱｳﾄ2
350
26
  0
DICTIONARY
  5
1640
102
{ACAD_REACTORS
330
C
102
}
330
C
100
AcDbDictionary
281
     1
  0
DICTIONARY
  5
17
102
{ACAD_REACTORS
330
C
102
}
330
C
100
AcDbDictionary
281
     1
  3
Standard
350
18
  0
DICTIONARY
  5
19
102
{ACAD_REACTORS
330
C
102
}
330
C
100
AcDbDictionary
281
     1
  0
ACDBDICTIONARYWDFLT
  5
E
102
{ACAD_REACTORS
330
C
102
}
330
C
100
AcDbDictionary
281
     1
  3
Normal
350
F
100
AcDbDictionaryWithDefault
340
F
  0
DICTIONARY
  5
1642
102
{ACAD_REACTORS
330
C
102
}
330
C
100
AcDbDictionary
281
     1
  3
Standard
350
1643
  0
XRECORD
  5
CBC
102
{ACAD_REACTORS
330
C
102
}
330
C
100
AcDbXrecord
280
     1
 90
   990106
  3

 60
     0
 61
     0
 62
     1
 63
     3
 64
     0
 65
     0
 66
     0
 67
     3
 68
     1
 69
     0
 70
     0
 71
     0
 72
     0
 40
30.0
170
     0
  0
DICTIONARY
  5
271A
102
{ACAD_REACTORS
330
C
102
}
330
C
100
AcDbDictionary
281
     1
  0
DICTIONARY
  5
EFD
102
{ACAD_REACTORS
330
C
102
}
330
C
100
AcDbDictionary
281
     1
  3
CTABLESTYLE
350
1649
  3
DIMASSOC
350
2717
  3
PROJECTNAME
350
2718
  3
SORTENTS
350
EFE
  0
DICTIONARY
  5
182D
102
{ACAD_REACTORS
330
16A9
102
}
330
16A9
100
AcDbDictionary
281
     1
  0
DICTIONARY
  5
1768
102
{ACAD_REACTORS
330
16A9
102
}
330
16A9
100
AcDbDictionary
281
     1
  0
DICTIONARY
  5
182C
102
{ACAD_REACTORS
330
16A9
102
}
330
16A9
100
AcDbDictionary
281
     1
1001
ACAD
1000
<All
  0
SORTENTSTABLE
  5
165E
102
{ACAD_REACTORS
330
165D
102
}
330
165D
100
AcDbSortentsTable
330
1F
331
1EC0
  5
1F45
331
1FEE
  5
1FEE
331
8DB
  5
1000
331
20ED
  5
20EF
331
1FF6
  5
1FF9
331
1933
  5
2F1
331
C2B
  5
1006
331
2E0
  5
2F2
331
1A2A
  5
1B39
331
100A
  5
1020
331
2E8
  5
2FE
331
1012
  5
13B0
331
327
  5
52F
331
1F47
  5
6AA
331
1EB9
  5
1EBB
331
466
  5
BE2
331
1AE2
  5
1B3A
331
1B39
  5
1CF2
331
CC3
  5
100C
331
1FDF
  5
1FDF
331
167D
  5
918
331
13B2
  5
1805
331
DC3
  5
100D
331
300
  5
309
331
1695
  5
192C
331
4E5
  5
BE9
331
308
  5
320
331
427
  5
BE0
331
20EE
  5
20F0
331
1FF7
  5
1FFA
331
1934
  5
30D
331
C24
  5
1003
331
4FD
  5
C15
331
FFB
  5
100E
331
1662
  5
182B
331
C2C
  5
1007
331
1003
  5
1016
331
100B
  5
1021
331
2E9
  5
2FF
331
1013
  5
13B1
331
2F1
  5
300
331
1EBA
  5
1EBC
331
328
  5
914
331
1B3A
  5
1CF3
331
1805
  5
1A29
331
13B3
  5
1806
331
301
  5
30A
331
1696
  5
1934
331
1FE0
  5
1FE0
331
20A7
  5
20AA
331
309
  5
338
331
1FF0
  5
1FF6
331
8DD
  5
1002
331
214E
  5
20ED
331
20EF
  5
20F1
331
1FF8
  5
1FFB
331
1935
  5
308
331
FFC
  5
1010
331
1004
  5
1019
331
100C
  5
1022
331
1014
  5
13B2
331
2F2
  5
301
331
1EBB
  5
1EBD
331
167F
  5
192A
331
1806
  5
1A2A
331
302
  5
30C
331
13B4
  5
1807
331
192E
  5
2FD
331
1CF3
  5
A5
331
1FE1
  5
1FE1
331
20A8
  5
20EE
331
1FE9
  5
1FE9
331
1936
  5
31B
331
214F
  5
1FF1
331
1FF9
  5
1FFC
331
C26
  5
1004
331
31A
  5
4E5
331
FFD
  5
1011
331
165C
  5
47C
331
C2E
  5
1008
331
459
  5
BE1
331
1005
  5
101A
331
100D
  5
1023
331
20F0
  5
20F2
331
1EB4
  5
1EB6
331
1015
  5
13B3
331
1EBC
  5
1EBE
331
1807
  5
1AE2
331
13AD
  5
1776
331
303
  5
315
331
41A
  5
BDF
331
192F
  5
321
331
1A0E
  5
1B37
331
20A9
  5
1FF0
331
1FEA
  5
1FEA
331
1937
  5
459
331
1FFA
  5
1FFD
331
31B
  5
4FD
331
FFE
  5
1012
331
1006
  5
101B
331
100E
  5
1024
331
20F1
  5
20F3
331
1E5D
  5
1EB4
331
200A
  5
20A7
331
A5
  5
2E8
331
1EB5
  5
1EB7
331
19EF
  5
1B20
331
1016
  5
13B4
331
1FDB
  5
1FDB
331
1EBD
  5
1EBF
331
1B45
  5
1E32
331
13AE
  5
1777
331
1FEB
  5
1FEB
331
20AA
  5
1FF2
331
1930
  5
317
331
1719
  5
1A0E
331
19D0
  5
1B01
331
492
  5
BE4
331
1FFB
  5
1FFE
331
FFF
  5
1013
331
2DD
  5
2E9
331
1E32
  5
1E5E
331
1007
  5
101D
331
100F
  5
13AD
331
200B
  5
20A8
331
1E5E
  5
1EB5
331
20F2
  5
20F4
331
CB8
  5
1009
331
324
  5
50A
331
1F44
  5
1F46
331
1EB6
  5
1EB8
331
1FDC
  5
1FDC
331
1EBE
  5
1EC0
331
1B46
  5
1E33
331
13AF
  5
1778
331
2FD
  5
302
331
40C
  5
BD6
331
571
  5
FFF
331
73
  5
73
331
1FEC
  5
1FEC
331
1931
  5
303
331
1FF4
  5
1FF7
331
315
  5
466
331
1FFC
  5
1FFF
331
C29
  5
1005
331
50A
  5
C18
331
1000
  5
1014
331
1B37
  5
1B47
331
1E33
  5
1E5F
331
1008
  5
101E
331
20F3
  5
214E
331
200C
  5
20A9
331
1E5F
  5
549
331
CB9
  5
100A
331
4C3
  5
BE8
331
1F45
  5
1F47
331
1EB7
  5
1EB9
331
1010
  5
13AE
331
522
  5
FFE
331
1EBF
  5
1F44
331
1FDD
  5
1FDD
331
13B0
  5
1779
331
2FE
  5
306
331
47C
  5
BE3
331
1B47
  5
1E34
331
306
  5
316
331
9C
  5
9C
331
1FED
  5
1FED
331
1FF5
  5
1FF8
331
1932
  5
30B
331
1B20
  5
1B46
331
316
  5
492
331
1FFD
  5
200C
331
1001
  5
1015
331
1A29
  5
1B38
331
1009
  5
101F
331
1E34
  5
1E60
331
1E60
  5
556
331
20F4
  5
214F
331
A0
  5
2DD
331
1011
  5
13AF
331
1F46
  5
8DD
331
1EB8
  5
1EBA
331
1B38
  5
1B48
331
CC2
  5
100B
331
1FDE
  5
1FDE
331
13B1
  5
177A
331
2FF
  5
307
331
1694
  5
192B
331
1B01
  5
1B45
331
1B48
  5
1E5D
331
307
  5
319
  0
SORTENTSTABLE
  5
1A2F
102
{ACAD_REACTORS
330
1A2E
102
}
330
1A2E
100
AcDbSortentsTable
330
1A2B
  0
SORTENTSTABLE
  5
26C8
102
{ACAD_REACTORS
330
26C7
102
}
330
26C7
100
AcDbSortentsTable
330
2675
  0
XRECORD
  5
2722
102
{ACAD_REACTORS
330
2721
102
}
330
2721
100
AcDbXrecord
280
     1
102
SHADEPLOT
 70
     0
  0
XRECORD
  5
2724
102
{ACAD_REACTORS
330
2723
102
}
330
2723
100
AcDbXrecord
280
     1
102
SHADEPLOT
 70
     0
  0
LAYOUT
  5
22
102
{ACAD_XDICTIONARY
360
271D
102
}
102
{ACAD_REACTORS
330
1A
102
}
330
1A
100
AcDbPlotSettings
  1

  2
EPSON PM-800C
  4
A4
  6

 40
3.757083177566528
 41
14.7637300491333
 42
3.757080078125
 43
3.757080078125
 44
209.9733276367187
 45
296.9683227539062
 46
0.0
 47
0.0
 48
0.0
 49
0.0
140
0.0
141
0.0
142
1.0
143
10.0
 70
 11952
 72
     1
 73
     1
 74
     2
  7

 75
    20
147
0.1
148
0.0
149
0.0
100
AcDbLayout
  1
Model
 70
     1
 71
     0
 10
0.0
 20
0.0
 11
12.0
 21
9.0
 12
0.0
 22
0.0
 32
0.0
 14
0.0
 24
0.0
 34
0.0
 15
0.0
 25
0.0
 35
0.0
146
0.0
 13
0.0
 23
0.0
 33
0.0
 16
1.0
 26
0.0
 36
0.0
 17
0.0
 27
1.0
 37
0.0
 76
     0
330
1F
  0
LAYOUT
  5
1E
102
{ACAD_XDICTIONARY
360
271B
102
}
102
{ACAD_REACTORS
330
1A
102
}
330
1A
100
AcDbPlotSettings
  1

  2
EPSON PM-800C
  4
A4
  6

 40
3.757083177566528
 41
14.7637300491333
 42
3.757080078125
 43
3.757080078125
 44
209.9733276367187
 45
296.9683227539062
 46
0.0
 47
0.0
 48
0.0
 49
0.0
140
0.0
141
0.0
142
1.0
143
1.0
 70
   688
 72
     1
 73
     1
 74
     5
  7

 75
    16
147
1.0
148
0.0
149
0.0
100
AcDbLayout
  1
ﾚｲｱｳﾄ1
 70
     1
 71
     1
 10
-3.757080078125
 20
-3.757083177566528
 11
293.2112426757813
 21
206.2162444591522
 12
0.0
 22
0.0
 32
0.0
 14
27.8447512626648
 24
20.24591643810271
 34
0.0
 15
250.6027613639831
 25
182.2132479429245
 35
0.0
146
0.0
 13
0.0
 23
0.0
 33
0.0
 16
1.0
 26
0.0
 36
0.0
 17
0.0
 27
1.0
 37
0.0
 76
     0
330
1B
331
2E
  0
LAYOUT
  5
26
102
{ACAD_XDICTIONARY
360
271F
102
}
102
{ACAD_REACTORS
330
1A
102
}
330
1A
100
AcDbPlotSettings
  1

  2
EPSON PM-800C
  4

  6

 40
0.0
 41
0.0
 42
0.0
 43
0.0
 44
0.0
 45
0.0
 46
0.0
 47
0.0
 48
0.0
 49
0.0
140
0.0
141
0.0
142
1.0
143
1.0
 70
   688
 72
     0
 73
     0
 74
     5
  7

 75
    16
147
1.0
148
0.0
149
0.0
100
AcDbLayout
  1
ﾚｲｱｳﾄ2
 70
     1
 71
     2
 10
0.0
 20
0.0
 11
12.0
 21
9.0
 12
0.0
 22
0.0
 32
0.0
 14
0.0
 24
0.0
 34
0.0
 15
0.0
 25
0.0
 35
0.0
146
0.0
 13
0.0
 23
0.0
 33
0.0
 16
1.0
 26
0.0
 36
0.0
 17
0.0
 27
1.0
 37
0.0
 76
     0
330
23
  0
MLINESTYLE
  5
18
102
{ACAD_REACTORS
330
17
102
}
330
17
100
AcDbMlineStyle
  2
STANDARD
 70
     0
  3

 62
   256
 51
90.0
 52
90.0
 71
     2
 49
0.5
 62
   256
  6
BYLAYER
 49
-0.5
 62
   256
  6
BYLAYER
  0
ACDBPLACEHOLDER
  5
F
102
{ACAD_REACTORS
330
E
102
}
330
E
  0
TABLESTYLE
  5
1643
102
{ACAD_REACTORS
330
1642
102
}
330
1642
100
AcDbTableStyle
  3
Standard
 70
     0
 71
     0
 40
1.5
 41
1.5
280
     0
281
     0
  7
Standard
140
4.5
170
     2
 62
     0
 63
     7
283
     0
274
    -2
284
     1
 64
     0
275
    -2
285
     1
 65
     0
276
    -2
286
     1
 66
     0
277
    -2
287
     1
 67
     0
278
    -2
288
     1
 68
     0
279
    -2
289
     1
 69
     0
  7
Standard
140
6.0
170
     5
 62
     0
 63
     7
283
     0
274
    -2
284
     1
 64
     0
275
    -2
285
     1
 65
     0
276
    -2
286
     1
 66
     0
277
    -2
287
     1
 67
     0
278
    -2
288
     1
 68
     0
279
    -2
289
     1
 69
     0
  7
Standard
140
4.5
170
     5
 62
     0
 63
     7
283
     0
274
    -2
284
     1
 64
     0
275
    -2
285
     1
 65
     0
276
    -2
286
     1
 66
     0
277
    -2
287
     1
 67
     0
278
    -2
288
     1
 68
     0
279
    -2
289
     1
 69
     0
  0
DICTIONARYVAR
  5
1649
102
{ACAD_REACTORS
330
EFD
102
}
330
EFD
100
DictionaryVariables
280
     0
  1
STANDARD
  0
DICTIONARYVAR
  5
2717
102
{ACAD_REACTORS
330
EFD
102
}
330
EFD
100
DictionaryVariables
280
     0
  1
1
  0
DICTIONARYVAR
  5
2718
102
{ACAD_REACTORS
330
EFD
102
}
330
EFD
100
DictionaryVariables
280
     0
  1

  0
DICTIONARYVAR
  5
EFE
102
{ACAD_REACTORS
330
EFD
102
}
330
EFD
100
DictionaryVariables
280
     0
  1
96
  0
DICTIONARY
  5
271D
330
22
100
AcDbDictionary
280
     1
281
     1
  3
ACAD_XREC_ROUNDTRIP
360
271E
  0
DICTIONARY
  5
271B
330
1E
100
AcDbDictionary
280
     1
281
     1
  3
ACAD_XREC_ROUNDTRIP
360
271C
  0
DICTIONARY
  5
271F
330
26
100
AcDbDictionary
280
     1
281
     1
  3
ACAD_XREC_ROUNDTRIP
360
2720
  0
XRECORD
  5
271E
102
{ACAD_REACTORS
330
271D
102
}
330
271D
100
AcDbXrecord
280
     1
102
SHADEPLOT
 70
     0
102
SHADEPLOTRESLEVEL
 70
     2
102
SHADEPLOTCUSTOMDPI
 70
   300
  0
XRECORD
  5
271C
102
{ACAD_REACTORS
330
271B
102
}
330
271B
100
AcDbXrecord
280
     1
102
SHADEPLOT
 70
     0
102
SHADEPLOTRESLEVEL
 70
     2
102
SHADEPLOTCUSTOMDPI
 70
   300
  0
XRECORD
  5
2720
102
{ACAD_REACTORS
330
271F
102
}
330
271F
100
AcDbXrecord
280
     1
102
SHADEPLOT
 70
     0
102
SHADEPLOTRESLEVEL
 70
     2
102
SHADEPLOTCUSTOMDPI
 70
   300
  0
ENDSEC
  0
EOF
